  0
SECTION
  2
HEADER
  9
$ACADVER
  1
AC1015
  9
$ACADMAINTVER
 70
     6
  9
$DWGCODEPAGE
  3
DOS932
  9
$INSBASE
 10
0.0
 20
0.0
 30
0.0
  9
$EXTMIN
 10
0.0
 20
-4.51230664191138
 30
0.0
  9
$EXTMAX
 10
788.0
 20
536.0
 30
0.0
  9
$LIMMIN
 10
0.0
 20
0.0
  9
$LIMMAX
 10
12.0
 20
9.0
  9
$ORTHOMODE
 70
     0
  9
$REGENMODE
 70
     1
  9
$FILLMODE
 70
     1
  9
$QTEXTMODE
 70
     0
  9
$MIRRTEXT
 70
     1
  9
$LTSCALE
 40
1.0
  9
$ATTMODE
 70
     1
  9
$TEXTSIZE
 40
0.2
  9
$TRACEWID
 40
0.05
  9
$TEXTSTYLE
  7
Standard
  9
$CLAYER
  8
0
  9
$CELTYPE
  6
ByLayer
  9
$CECOLOR
 62
   256
  9
$CELTSCALE
 40
1.0
  9
$DISPSILH
 70
     0
  9
$DIMSCALE
 40
1.0
  9
$DIMASZ
 40
0.18
  9
$DIMEXO
 40
0.0625
  9
$DIMDLI
 40
0.38
  9
$DIMRND
 40
0.0
  9
$DIMDLE
 40
0.0
  9
$DIMEXE
 40
0.18
  9
$DIMTP
 40
0.0
  9
$DIMTM
 40
0.0
  9
$DIMTXT
 40
0.18
  9
$DIMCEN
 40
0.09
  9
$DIMTSZ
 40
0.0
  9
$DIMTOL
 70
     0
  9
$DIMLIM
 70
     0
  9
$DIMTIH
 70
     1
  9
$DIMTOH
 70
     1
  9
$DIMSE1
 70
     0
  9
$DIMSE2
 70
     0
  9
$DIMTAD
 70
     0
  9
$DIMZIN
 70
     0
  9
$DIMBLK
  1

  9
$DIMASO
 70
     1
  9
$DIMSHO
 70
     1
  9
$DIMPOST
  1

  9
$DIMAPOST
  1

  9
$DIMALT
 70
     0
  9
$DIMALTD
 70
     2
  9
$DIMALTF
 40
25.4
  9
$DIMLFAC
 40
1.0
  9
$DIMTOFL
 70
     0
  9
$DIMTVP
 40
0.0
  9
$DIMTIX
 70
     0
  9
$DIMSOXD
 70
     0
  9
$DIMSAH
 70
     0
  9
$DIMBLK1
  1

  9
$DIMBLK2
  1

  9
$DIMSTYLE
  2
Standard
  9
$DIMCLRD
 70
     0
  9
$DIMCLRE
 70
     0
  9
$DIMCLRT
 70
     0
  9
$DIMTFAC
 40
1.0
  9
$DIMGAP
 40
0.09
  9
$DIMJUST
 70
     0
  9
$DIMSD1
 70
     0
  9
$DIMSD2
 70
     0
  9
$DIMTOLJ
 70
     1
  9
$DIMTZIN
 70
     0
  9
$DIMALTZ
 70
     0
  9
$DIMALTTZ
 70
     0
  9
$DIMUPT
 70
     0
  9
$DIMDEC
 70
     4
  9
$DIMTDEC
 70
     4
  9
$DIMALTU
 70
     2
  9
$DIMALTTD
 70
     2
  9
$DIMTXSTY
  7
Standard
  9
$DIMAUNIT
 70
     0
  9
$DIMADEC
 70
     0
  9
$DIMALTRND
 40
0.0
  9
$DIMAZIN
 70
     0
  9
$DIMDSEP
 70
    46
  9
$DIMATFIT
 70
     3
  9
$DIMFRAC
 70
     0
  9
$DIMLDRBLK
  1

  9
$DIMLUNIT
 70
     2
  9
$DIMLWD
 70
    -2
  9
$DIMLWE
 70
    -2
  9
$DIMTMOVE
 70
     0
  9
$LUNITS
 70
     2
  9
$LUPREC
 70
     4
  9
$SKETCHINC
 40
0.1
  9
$FILLETRAD
 40
0.5
  9
$AUNITS
 70
     0
  9
$AUPREC
 70
     0
  9
$MENU
  1
.
  9
$ELEVATION
 40
0.0
  9
$PELEVATION
 40
0.0
  9
$THICKNESS
 40
0.0
  9
$LIMCHECK
 70
     0
  9
$CHAMFERA
 40
0.5
  9
$CHAMFERB
 40
0.5
  9
$CHAMFERC
 40
1.0
  9
$CHAMFERD
 40
0.0
  9
$SKPOLY
 70
     0
  9
$TDCREATE
 40
2455807.668645671
  9
$TDUCREATE
 40
2455807.293645671
  9
$TDUPDATE
 40
2455807.668645683
  9
$TDUUPDATE
 40
2455807.293645683
  9
$TDINDWG
 40
0.0000000116
  9
$TDUSRTIMER
 40
0.0000000116
  9
$USRTIMER
 70
     1
  9
$ANGBASE
 50
0.0
  9
$ANGDIR
 70
     0
  9
$PDMODE
 70
     0
  9
$PDSIZE
 40
0.0
  9
$PLINEWID
 40
0.0
  9
$SPLFRAME
 70
     0
  9
$SPLINETYPE
 70
     6
  9
$SPLINESEGS
 70
     8
  9
$HANDSEED
  5
2CD
  9
$SURFTAB1
 70
     6
  9
$SURFTAB2
 70
     6
  9
$SURFTYPE
 70
     6
  9
$SURFU
 70
     6
  9
$SURFV
 70
     6
  9
$UCSBASE
  2

  9
$UCSNAME
  2

  9
$UCSORG
 10
0.0
 20
0.0
 30
0.0
  9
$UCSXDIR
 10
1.0
 20
0.0
 30
0.0
  9
$UCSYDIR
 10
0.0
 20
1.0
 30
0.0
  9
$UCSORTHOREF
  2

  9
$UCSORTHOVIEW
 70
     0
  9
$UCSORGTOP
 10
0.0
 20
0.0
 30
0.0
  9
$UCSORGBOTTOM
 10
0.0
 20
0.0
 30
0.0
  9
$UCSORGLEFT
 10
0.0
 20
0.0
 30
0.0
  9
$UCSORGRIGHT
 10
0.0
 20
0.0
 30
0.0
  9
$UCSORGFRONT
 10
0.0
 20
0.0
 30
0.0
  9
$UCSORGBACK
 10
0.0
 20
0.0
 30
0.0
  9
$PUCSBASE
  2

  9
$PUCSNAME
  2

  9
$PUCSORG
 10
0.0
 20
0.0
 30
0.0
  9
$PUCSXDIR
 10
1.0
 20
0.0
 30
0.0
  9
$PUCSYDIR
 10
0.0
 20
1.0
 30
0.0
  9
$PUCSORTHOREF
  2

  9
$PUCSORTHOVIEW
 70
     0
  9
$PUCSORGTOP
 10
0.0
 20
0.0
 30
0.0
  9
$PUCSORGBOTTOM
 10
0.0
 20
0.0
 30
0.0
  9
$PUCSORGLEFT
 10
0.0
 20
0.0
 30
0.0
  9
$PUCSORGRIGHT
 10
0.0
 20
0.0
 30
0.0
  9
$PUCSORGFRONT
 10
0.0
 20
0.0
 30
0.0
  9
$PUCSORGBACK
 10
0.0
 20
0.0
 30
0.0
  9
$USERI1
 70
     0
  9
$USERI2
 70
     0
  9
$USERI3
 70
     0
  9
$USERI4
 70
     0
  9
$USERI5
 70
     0
  9
$USERR1
 40
14.0
  9
$USERR2
 40
0.0
  9
$USERR3
 40
0.0
  9
$USERR4
 40
0.0
  9
$USERR5
 40
0.0
  9
$WORLDVIEW
 70
     1
  9
$SHADEDGE
 70
     3
  9
$SHADEDIF
 70
    70
  9
$TILEMODE
 70
     1
  9
$MAXACTVP
 70
    64
  9
$PINSBASE
 10
0.0
 20
0.0
 30
0.0
  9
$PLIMCHECK
 70
     0
  9
$PEXTMIN
 10
1.00000000000000E+20
 20
1.00000000000000E+20
 30
1.00000000000000E+20
  9
$PEXTMAX
 10
-1.00000000000000E+20
 20
-1.00000000000000E+20
 30
-1.00000000000000E+20
  9
$PLIMMIN
 10
0.0
 20
0.0
  9
$PLIMMAX
 10
12.0
 20
9.0
  9
$UNITMODE
 70
     0
  9
$VISRETAIN
 70
     1
  9
$PLINEGEN
 70
     0
  9
$PSLTSCALE
 70
     1
  9
$TREEDEPTH
 70
  3020
  9
$CMLSTYLE
  2
Standard
  9
$CMLJUST
 70
     0
  9
$CMLSCALE
 40
1.0
  9
$PROXYGRAPHICS
 70
     1
  9
$MEASUREMENT
 70
     1
  9
$CELWEIGHT
370
    -1
  9
$ENDCAPS
280
     0
  9
$JOINSTYLE
280
     0
  9
$LWDISPLAY
290
     0
  9
$INSUNITS
 70
     1
  9
$HYPERLINKBASE
  1

  9
$STYLESHEET
  1

  9
$XEDIT
290
     1
  9
$CEPSNTYPE
380
     0
  9
$PSTYLEMODE
290
     1
  9
$FINGERPRINTGUID
  2
{BBDF649B-E2C5-4918-81DA-8E1CB3FC3FC2}
  9
$VERSIONGUID
  2
{FAEB1C32-E019-11D5-929B-00C0DF256EC4}
  9
$EXTNAMES
290
     1
  9
$PSVPSCALE
 40
0.0
  9
$OLESTARTUP
290
     0
  0
ENDSEC
  0
SECTION
  2
CLASSES
  0
CLASS
  1
ACDBDICTIONARYWDFLT
  2
AcDbDictionaryWithDefault
  3
ObjectDBX Classes
 90
        0
280
     0
281
     0
  0
CLASS
  1

  2
exOdDbCircle
  3

 90
        0
280
     0
281
     1
  0
CLASS
  1

  2
exOdDbSpline
  3

 90
        0
280
     0
281
     1
  0
CLASS
  1
ACDBPLACEHOLDER
  2
AcDbPlaceHolder
  3
ObjectDBX Classes
 90
        0
280
     0
281
     0
  0
CLASS
  1
LAYOUT
  2
AcDbLayout
  3
ObjectDBX Classes
 90
        0
280
     0
281
     0
  0
ENDSEC
  0
SECTION
  2
TABLES
  0
TABLE
  2
VPORT
  5
8
330
0
100
AcDbSymbolTable
 70
     1
  0
VPORT
  5
29
330
8
100
AcDbSymbolTableRecord
100
AcDbViewportTableRecord
  2
*Active
 70
     0
 10
0.0
 20
0.0
 11
1.0
 21
1.0
 12
394.0
 22
265.7438466790443
 13
0.0
 23
0.0
 14
0.5
 24
0.5
 15
0.5
 25
0.5
 16
0.0
 26
0.0
 36
1.0
 17
0.0
 27
0.0
 37
0.0
 40
594.5635373061026
 41
1.60267857142857
 42
50.0
 43
0.0
 44
0.0
 50
0.0
 51
0.0
 71
     0
 72
   100
 73
     1
 74
     3
 75
     0
 76
     0
 77
     0
 78
     0
281
     0
 65
     1
110
0.0
120
0.0
130
0.0
111
1.0
121
0.0
131
0.0
112
0.0
122
1.0
132
0.0
 79
     0
146
0.0
  0
ENDTAB
  0
TABLE
  2
LTYPE
  5
5
330
0
100
AcDbSymbolTable
 70
     8
  0
LTYPE
  5
14
330
5
100
AcDbSymbolTableRecord
100
AcDbLinetypeTableRecord
  2
ByBlock
 70
     0
  3

 72
    65
 73
     0
 40
0.0
  0
LTYPE
  5
15
330
5
100
AcDbSymbolTableRecord
100
AcDbLinetypeTableRecord
  2
ByLayer
 70
     0
  3

 72
    65
 73
     0
 40
0.0
  0
LTYPE
  5
16
330
5
100
AcDbSymbolTableRecord
100
AcDbLinetypeTableRecord
  2
Continuous
 70
     0
  3
Solid line
 72
    65
 73
     0
 40
0.0
  0
LTYPE
  5
2A
330
5
100
AcDbSymbolTableRecord
100
AcDbLinetypeTableRecord
  2
DASHED
 70
     0
  3
Dashed
 72
    65
 73
     2
 40
15.0
 49
7.0
 74
     0
 49
-8.0
 74
     0
  0
LTYPE
  5
2B
330
5
100
AcDbSymbolTableRecord
100
AcDbLinetypeTableRecord
  2
DOTTED
 70
     0
  3
Dotted
 72
    65
 73
     2
 40
1.0
 49
0.0
 74
     0
 49
-1.0
 74
     0
  0
LTYPE
  5
2C
330
5
100
AcDbSymbolTableRecord
100
AcDbLinetypeTableRecord
  2
DOT_CENTER
 70
     0
  3
Dot_Center
 72
    65
 73
     4
 40
14.0
 49
12.0
 74
     0
 49
-1.0
 74
     0
 49
0.0
 74
     0
 49
-1.0
 74
     0
  0
LTYPE
  5
2D
330
5
100
AcDbSymbolTableRecord
100
AcDbLinetypeTableRecord
  2
LONG_DASHED
 70
     0
  3
Long_Dashed
 72
    65
 73
     2
 40
15.0
 49
10.0
 74
     0
 49
-5.0
 74
     0
  0
LTYPE
  5
2E
330
5
100
AcDbSymbolTableRecord
100
AcDbLinetypeTableRecord
  2
DASH_CENTER
 70
     0
  3
Dash_Center
 72
    65
 73
     4
 40
14.0
 49
11.0
 74
     0
 49
-1.0
 74
     0
 49
1.0
 74
     0
 49
-1.0
 74
     0
  0
LTYPE
  5
2F
330
5
100
AcDbSymbolTableRecord
100
AcDbLinetypeTableRecord
  2
PHANTOM
 70
     0
  3
Phantom
 72
    65
 73
     6
 40
13.0
 49
10.0
 74
     0
 49
-1.0
 74
     0
 49
0.0
 74
     0
 49
-1.0
 74
     0
 49
0.0
 74
     0
 49
-1.0
 74
     0
  0
LTYPE
  5
30
330
5
100
AcDbSymbolTableRecord
100
AcDbLinetypeTableRecord
  2
CENTER_DASH_DASH
 70
     0
  3
Center_Dash_Dash
 72
    65
 73
     6
 40
14.0
 49
9.0
 74
     0
 49
-1.0
 74
     0
 49
1.0
 74
     0
 49
-1.0
 74
     0
 49
1.0
 74
     0
 49
-1.0
 74
     0
  0
ENDTAB
  0
TABLE
  2
LAYER
  5
2
330
0
100
AcDbSymbolTable
 70
     2
  0
LAYER
  5
10
330
2
100
AcDbSymbolTableRecord
100
AcDbLayerTableRecord
  2
0
 70
     0
 62
     7
  6
Continuous
370
    -3
390
F
  0
LAYER
  5
31
330
2
100
AcDbSymbolTableRecord
100
AcDbLayerTableRecord
  2
1
 70
     0
 62
     7
  6
Continuous
370
    -3
390
F
  0
ENDTAB
  0
TABLE
  2
STYLE
  5
3
330
0
100
AcDbSymbolTable
 70
     6
  0
STYLE
  5
11
330
3
100
AcDbSymbolTableRecord
100
AcDbTextStyleTableRecord
  2
Standard
 70
     0
 40
0.0
 41
1.0
 50
0.0
 71
     0
 42
0.2
  3
txt
  4

  0
STYLE
  5
50
330
3
100
AcDbSymbolTableRecord
100
AcDbTextStyleTableRecord
  2
CONVERTER_1
 70
     0
 40
0.0
 41
0.9
 50
0.0
 71
     0
 42
0.2
  3
txt.shx
  4

  0
STYLE
  5
52
330
3
100
AcDbSymbolTableRecord
100
AcDbTextStyleTableRecord
  2
CONVERTER_2
 70
     0
 40
0.0
 41
0.89
 50
0.0
 71
     0
 42
0.2
  3
MSMINCHO.TTC
  4

1001
ACAD
1000
MS Mincho
1071
    32785
  0
STYLE
  5
54
330
3
100
AcDbSymbolTableRecord
100
AcDbTextStyleTableRecord
  2
CONVERTER_3
 70
     0
 40
0.0
 41
1.068
 50
0.0
 71
     0
 42
0.2
  3
msmincho.ttc
  4

1001
ACAD
1000
MS Mincho
1071
    32785
  0
STYLE
  5
5A
330
3
100
AcDbSymbolTableRecord
100
AcDbTextStyleTableRecord
  2
CONVERTER_4
 70
     0
 40
0.0
 41
0.9025
 50
0.0
 71
     0
 42
0.2
  3
complex.shx
  4

  0
STYLE
  5
5E
330
3
100
AcDbSymbolTableRecord
100
AcDbTextStyleTableRecord
  2
CONVERTER_5
 70
     0
 40
0.0
 41
0.801
 50
0.0
 71
     0
 42
0.2
  3
msmincho.ttc
  4

1001
ACAD
1000
MS Mincho
1071
    32785
  0
ENDTAB
  0
TABLE
  2
VIEW
  5
6
330
0
100
AcDbSymbolTable
 70
     0
  0
ENDTAB
  0
TABLE
  2
UCS
  5
7
330
0
100
AcDbSymbolTable
 70
     0
  0
ENDTAB
  0
TABLE
  2
APPID
  5
9
330
0
100
AcDbSymbolTable
 70
     1
  0
APPID
  5
12
330
9
100
AcDbSymbolTableRecord
100
AcDbRegAppTableRecord
  2
ACAD
 70
     0
  0
ENDTAB
  0
TABLE
  2
DIMSTYLE
  5
A
330
0
100
AcDbSymbolTable
 70
    19
100
AcDbDimStyleTable
  0
DIMSTYLE
105
27
330
A
100
AcDbSymbolTableRecord
100
AcDbDimStyleTableRecord
  2
Standard
 70
     0
340
11
  0
DIMSTYLE
105
1E2
102
{ACAD_REACTORS
330
1E3
102
}
330
A
100
AcDbSymbolTableRecord
100
AcDbDimStyleTableRecord
  2
ME10_DIM_0
 70
     0
 41
6.4
 42
2.0
 44
2.0
 73
     0
 74
     0
 77
     1
 78
     8
140
6.4
147
1.4
172
     1
173
     1
176
     2
177
     2
178
     2
271
     2
340
50
343
1DC
344
1DC
  0
DIMSTYLE
105
1EF
102
{ACAD_REACTORS
330
1F0
102
}
330
A
100
AcDbSymbolTableRecord
100
AcDbDimStyleTableRecord
  2
ME10_DIM_1
 70
     0
 41
6.4
 42
2.0
 44
2.0
 73
     0
 74
     0
 77
     1
 78
     8
140
6.4
147
1.4
172
     1
173
     1
176
     2
177
     2
178
     2
271
     2
340
50
343
1DC
344
1DC
  0
DIMSTYLE
105
1FC
102
{ACAD_REACTORS
330
1FD
102
}
330
A
100
AcDbSymbolTableRecord
100
AcDbDimStyleTableRecord
  2
ME10_DIM_2
 70
     0
 41
6.4
 42
2.0
 44
2.0
 73
     0
 74
     0
 77
     1
 78
     8
140
6.4
147
1.4
172
     1
173
     1
176
     2
177
     2
178
     2
271
     2
340
50
343
1DC
344
1DC
  0
DIMSTYLE
105
209
102
{ACAD_REACTORS
330
20A
102
}
330
A
100
AcDbSymbolTableRecord
100
AcDbDimStyleTableRecord
  2
ME10_DIM_3
 70
     0
 41
6.4
 42
2.0
 44
2.0
 73
     0
 74
     0
 77
     1
 78
     8
140
6.4
147
1.4
172
     1
173
     1
176
     2
177
     2
178
     2
271
     2
340
50
343
1DC
344
1DC
  0
DIMSTYLE
105
216
102
{ACAD_REACTORS
330
217
102
}
330
A
100
AcDbSymbolTableRecord
100
AcDbDimStyleTableRecord
  2
ME10_DIM_4
 70
     0
 41
5.12
 42
2.0
 44
2.0
 73
     0
 74
     0
 77
     1
 78
     8
140
6.4
147
2.0
172
     1
173
     1
176
     2
177
     2
178
     2
271
     2
340
50
343
1DC
344
1DC
  0
DIMSTYLE
105
225
102
{ACAD_REACTORS
330
226
102
}
330
A
100
AcDbSymbolTableRecord
100
AcDbDimStyleTableRecord
  2
ME10_DIM_5
 70
     0
 41
5.12
 42
2.0
 44
2.0
 73
     0
 74
     0
 77
     1
 78
     8
140
6.4
147
2.0
172
     1
173
     1
176
     2
177
     2
178
     2
271
     2
340
50
343
1DC
344
1DC
  0
DIMSTYLE
105
232
102
{ACAD_REACTORS
330
233
102
}
330
A
100
AcDbSymbolTableRecord
100
AcDbDimStyleTableRecord
  2
ME10_DIM_6
 70
     0
 41
5.12
 42
2.0
 44
2.0
 73
     0
 74
     0
 77
     1
 78
     8
140
6.4
147
2.0
172
     1
173
     1
176
     2
177
     2
178
     2
271
     2
340
50
343
1DC
344
1DC
  0
DIMSTYLE
105
23F
102
{ACAD_REACTORS
330
240
102
}
330
A
100
AcDbSymbolTableRecord
100
AcDbDimStyleTableRecord
  2
ME10_DIM_7
 70
     0
 41
5.12
 42
2.0
 44
2.0
 73
     0
 74
     0
 77
     1
 78
     8
140
6.4
147
2.0
172
     1
173
     1
176
     2
177
     2
178
     2
271
     2
340
50
343
1DC
344
1DC
  0
DIMSTYLE
105
24E
102
{ACAD_REACTORS
330
24F
102
}
330
A
100
AcDbSymbolTableRecord
100
AcDbDimStyleTableRecord
  2
ME10_DIM_8
 70
     0
 41
5.12
 42
2.0
 44
2.0
 73
     0
 74
     0
 77
     1
 78
     8
140
6.4
147
2.0
172
     1
173
     1
176
     2
177
     2
178
     2
271
     2
340
50
343
1DC
344
1DC
  0
DIMSTYLE
105
25B
102
{ACAD_REACTORS
330
25C
102
}
330
A
100
AcDbSymbolTableRecord
100
AcDbDimStyleTableRecord
  2
ME10_DIM_9
 70
     0
 41
6.4
 42
2.0
 44
2.0
 73
     0
 74
     0
 77
     1
 78
     8
140
6.4
147
1.4
172
     1
173
     1
176
     2
177
     2
178
     2
271
     2
340
50
343
1DC
344
1DC
  0
DIMSTYLE
105
268
102
{ACAD_REACTORS
330
269
102
}
330
A
100
AcDbSymbolTableRecord
100
AcDbDimStyleTableRecord
  2
ME10_DIM_10
 70
     0
 41
6.4
 42
2.0
 44
2.0
 73
     0
 74
     0
 77
     1
 78
     8
140
6.4
147
1.4
172
     1
173
     1
176
     2
177
     2
178
     2
271
     2
340
50
343
1DC
344
1DC
  0
DIMSTYLE
105
277
102
{ACAD_REACTORS
330
278
102
}
330
A
100
AcDbSymbolTableRecord
100
AcDbDimStyleTableRecord
  2
ME10_DIM_11
 70
     0
 41
6.4
 42
2.0
 44
2.0
 73
     0
 74
     0
 77
     1
 78
     8
140
6.4
147
1.4
172
     1
173
     1
176
     2
177
     2
178
     2
271
     2
340
50
343
1DC
344
1DC
  0
DIMSTYLE
105
286
102
{ACAD_REACTORS
330
287
102
}
330
A
100
AcDbSymbolTableRecord
100
AcDbDimStyleTableRecord
  2
ME10_DIM_12
 70
     0
 41
6.4
 42
2.0
 44
2.0
 73
     0
 74
     0
 77
     1
 78
     8
140
6.4
147
1.4
172
     1
173
     1
176
     2
177
     2
178
     2
271
     2
340
50
343
1DC
344
1DC
  0
DIMSTYLE
105
295
102
{ACAD_REACTORS
330
296
102
}
330
A
100
AcDbSymbolTableRecord
100
AcDbDimStyleTableRecord
  2
ME10_DIM_13
 70
     0
 41
6.4
 42
2.0
 44
2.0
 73
     0
 74
     0
 77
     1
 78
     8
140
6.4
147
1.4
172
     1
173
     1
176
     2
177
     2
178
     2
271
     2
340
50
343
1DC
344
1DC
  0
DIMSTYLE
105
2A2
102
{ACAD_REACTORS
330
2A3
102
}
330
A
100
AcDbSymbolTableRecord
100
AcDbDimStyleTableRecord
  2
ME10_DIM_14
 70
     0
 41
6.4
 42
2.0
 44
2.0
 73
     0
 74
     0
 77
     1
 78
     8
140
6.4
147
1.4
172
     1
173
     1
176
     2
177
     2
178
     2
271
     2
340
50
343
1DC
344
1DC
  0
DIMSTYLE
105
2B1
102
{ACAD_REACTORS
330
2B2
102
}
330
A
100
AcDbSymbolTableRecord
100
AcDbDimStyleTableRecord
  2
ME10_DIM_15
 70
     0
 41
6.4
 42
2.0
 44
2.0
 73
     0
 74
     0
 77
     1
 78
     8
140
6.4
147
1.4
172
     1
173
     1
176
     2
177
     2
178
     2
271
     2
340
50
343
1DC
344
1DC
  0
DIMSTYLE
105
2BE
102
{ACAD_REACTORS
330
2BF
102
}
330
A
100
AcDbSymbolTableRecord
100
AcDbDimStyleTableRecord
  2
ME10_DIM_16
 70
     0
 41
6.4
 42
2.0
 44
2.0
 73
     0
 74
     0
 77
     1
 78
     8
140
6.4
147
1.4
172
     1
173
     1
176
     2
177
     2
178
     2
271
     2
340
50
343
1DC
344
1DC
  0
DIMSTYLE
105
2CB
102
{ACAD_REACTORS
330
2CC
102
}
330
A
100
AcDbSymbolTableRecord
100
AcDbDimStyleTableRecord
  2
ME10_DIM_17
 70
     0
 41
6.4
 42
2.0
 44
2.0
 73
     0
 74
     0
 77
     1
 78
     8
140
6.4
147
1.4
172
     1
173
     1
176
     2
177
     2
178
     2
271
     2
340
50
343
1DC
344
1DC
  0
ENDTAB
  0
TABLE
  2
BLOCK_RECORD
  5
1
330
0
100
AcDbSymbolTable
 70
    21
  0
BLOCK_RECORD
  5
1F
330
1
100
AcDbSymbolTableRecord
100
AcDbBlockTableRecord
  2
*Model_Space
340
22
  0
BLOCK_RECORD
  5
1B
330
1
100
AcDbSymbolTableRecord
100
AcDbBlockTableRecord
  2
*Paper_Space
340
1E
  0
BLOCK_RECORD
  5
23
330
1
100
AcDbSymbolTableRecord
100
AcDbBlockTableRecord
  2
*Paper_Space0
340
26
  0
BLOCK_RECORD
  5
32
330
1
100
AcDbSymbolTableRecord
100
AcDbBlockTableRecord
  2
Zuwaku-A3-web
340
0
102
{BLKREFS
331
35
102
}
  0
BLOCK_RECORD
  5
1D1
330
1
100
AcDbSymbolTableRecord
100
AcDbBlockTableRecord
  2
*D02
340
0
  0
BLOCK_RECORD
  5
1DC
330
1
100
AcDbSymbolTableRecord
100
AcDbBlockTableRecord
  2
_Open30
340
0
  0
BLOCK_RECORD
  5
1E4
330
1
100
AcDbSymbolTableRecord
100
AcDbBlockTableRecord
  2
*D14
340
0
  0
BLOCK_RECORD
  5
1F1
330
1
100
AcDbSymbolTableRecord
100
AcDbBlockTableRecord
  2
*D25
340
0
  0
BLOCK_RECORD
  5
1FE
330
1
100
AcDbSymbolTableRecord
100
AcDbBlockTableRecord
  2
*D36
340
0
  0
BLOCK_RECORD
  5
20B
330
1
100
AcDbSymbolTableRecord
100
AcDbBlockTableRecord
  2
*D47
340
0
  0
BLOCK_RECORD
  5
218
330
1
100
AcDbSymbolTableRecord
100
AcDbBlockTableRecord
  2
*D58
340
0
  0
BLOCK_RECORD
  5
227
330
1
100
AcDbSymbolTableRecord
100
AcDbBlockTableRecord
  2
*D69
340
0
  0
BLOCK_RECORD
  5
234
330
1
100
AcDbSymbolTableRecord
100
AcDbBlockTableRecord
  2
*D710
340
0
  0
BLOCK_RECORD
  5
241
330
1
100
AcDbSymbolTableRecord
100
AcDbBlockTableRecord
  2
*D811
340
0
  0
BLOCK_RECORD
  5
250
330
1
100
AcDbSymbolTableRecord
100
AcDbBlockTableRecord
  2
*D912
340
0
  0
BLOCK_RECORD
  5
25D
330
1
100
AcDbSymbolTableRecord
100
AcDbBlockTableRecord
  2
*D1013
340
0
  0
BLOCK_RECORD
  5
26A
330
1
100
AcDbSymbolTableRecord
100
AcDbBlockTableRecord
  2
*D1114
340
0
  0
BLOCK_RECORD
  5
279
330
1
100
AcDbSymbolTableRecord
100
AcDbBlockTableRecord
  2
*D1215
340
0
  0
BLOCK_RECORD
  5
288
330
1
100
AcDbSymbolTableRecord
100
AcDbBlockTableRecord
  2
*D1316
340
0
  0
BLOCK_RECORD
  5
297
330
1
100
AcDbSymbolTableRecord
100
AcDbBlockTableRecord
  2
*D1417
340
0
  0
BLOCK_RECORD
  5
2A4
330
1
100
AcDbSymbolTableRecord
100
AcDbBlockTableRecord
  2
*D1518
340
0
  0
BLOCK_RECORD
  5
2B3
330
1
100
AcDbSymbolTableRecord
100
AcDbBlockTableRecord
  2
*D1619
340
0
  0
BLOCK_RECORD
  5
2C0
330
1
100
AcDbSymbolTableRecord
100
AcDbBlockTableRecord
  2
*D1720
340
0
  0
ENDTAB
  0
ENDSEC
  0
SECTION
  2
BLOCKS
  0
BLOCK
  5
20
330
1F
100
AcDbEntity
  8
0
100
AcDbBlockBegin
  2
*Model_Space
 70
     0
 71
     0
 10
0.0
 20
0.0
 30
0.0
  3
*Model_Space
  1

  0
ENDBLK
  5
21
330
1F
100
AcDbEntity
  8
0
100
AcDbBlockEnd
  0
BLOCK
  5
1C
330
1B
100
AcDbEntity
 67
     1
  8
0
100
AcDbBlockBegin
  2
*Paper_Space
 70
     0
 71
     0
 10
0.0
 20
0.0
 30
0.0
  3
*Paper_Space
  1

  0
ENDBLK
  5
1D
330
1B
100
AcDbEntity
 67
     1
  8
0
100
AcDbBlockEnd
  0
BLOCK
  5
24
330
23
100
AcDbEntity
  8
0
100
AcDbBlockBegin
  2
*Paper_Space0
 70
     0
 71
     0
 10
0.0
 20
0.0
 30
0.0
  3
*Paper_Space0
  1

  0
ENDBLK
  5
25
330
23
100
AcDbEntity
  8
0
100
AcDbBlockEnd
  0
BLOCK
  5
33
330
32
100
AcDbEntity
  8
0
100
AcDbBlockBegin
  2
Zuwaku-A3-web
 70
     0
 71
     0
 10
196.9999999999998
 20
134.0
 30
0.0
  3
Zuwaku-A3-web
  1

  0
POINT
  5
36
330
32
100
AcDbEntity
  8
1
 62
     3
 60
     1
100
AcDbPoint
 10
0.0
 20
0.0
 30
0.0
  0
POINT
  5
37
330
32
100
AcDbEntity
  8
1
 62
     3
 60
     1
100
AcDbPoint
 10
2.5
 20
12.5
 30
0.0
  0
POINT
  5
38
330
32
100
AcDbEntity
  8
1
 62
     3
 60
     1
100
AcDbPoint
 10
9.5
 20
12.5
 30
0.0
  0
POINT
  5
39
330
32
100
AcDbEntity
  8
1
 62
     3
 60
     1
100
AcDbPoint
 10
162.5
 20
15.0
 30
0.0
  0
POINT
  5
3A
330
32
100
AcDbEntity
  8
1
 62
     3
 60
     1
100
AcDbPoint
 10
202.0
 20
15.0
 30
0.0
  0
POINT
  5
3B
330
32
100
AcDbEntity
  8
1
 62
     3
 60
     1
100
AcDbPoint
 10
162.5
 20
20.0
 30
0.0
  0
LINE
  5
3C
330
32
100
AcDbEntity
  8
1
  6
Continuous
 62
     4
100
AcDbLine
 10
295.0
 20
20.0
 30
0.0
 11
295.0
 21
0.0
 31
0.0
  0
LINE
  5
3D
330
32
100
AcDbEntity
  8
1
  6
Continuous
 62
     4
100
AcDbLine
 10
394.0
 20
20.0
 30
0.0
 11
0.0
 21
20.0
 31
0.0
  0
LINE
  5
3E
330
32
100
AcDbEntity
  8
1
  6
Continuous
 62
     4
100
AcDbLine
 10
173.7445771572093
 20
2.13397584248199
 30
0.0
 11
179.4766254722454
 21
7.866024157518
 31
0.0
  0
LINE
  5
3F
330
32
100
AcDbEntity
  8
1
  6
Continuous
 62
     7
100
AcDbLine
 10
0.0
 20
268.0
 30
0.0
 11
0.0
 21
0.0
 31
0.0
  0
LINE
  5
40
330
32
100
AcDbEntity
  8
1
  6
Continuous
 62
     4
100
AcDbLine
 10
66.0
 20
20.0
 30
0.0
 11
66.0
 21
0.0
 31
0.0
  0
LINE
  5
41
330
32
100
AcDbEntity
  8
1
  6
Continuous
 62
     4
100
AcDbLine
 10
170.5
 20
10.0
 30
0.0
 11
170.5
 21
0.0
 31
0.0
  0
LINE
  5
42
330
32
100
AcDbEntity
  8
1
  6
Continuous
 62
     4
100
AcDbLine
 10
227.0
 20
20.0
 30
0.0
 11
227.0
 21
0.0
 31
0.0
  0
LINE
  5
43
330
32
100
AcDbEntity
  8
1
  6
Continuous
 62
     4
100
AcDbLine
 10
283.0
 20
20.0
 30
0.0
 11
283.0
 21
0.0
 31
0.0
  0
LINE
  5
44
330
32
100
AcDbEntity
  8
1
  6
Continuous
 62
     4
100
AcDbLine
 10
162.5
 20
0.0
 30
0.0
 11
162.5
 21
20.0
 31
0.0
  0
LINE
  5
45
330
32
100
AcDbEntity
  8
1
  6
Continuous
 62
     4
100
AcDbLine
 10
202.0
 20
0.0
 30
0.0
 11
202.0
 21
20.0
 31
0.0
  0
LINE
  5
46
330
32
100
AcDbEntity
  8
1
  6
Continuous
 62
     7
100
AcDbLine
 10
394.0
 20
0.0
 30
0.0
 11
393.9999999999996
 21
268.0
 31
0.0
  0
LINE
  5
47
330
32
100
AcDbEntity
  8
1
  6
Continuous
 62
     7
100
AcDbLine
 10
393.9999999999996
 20
268.0
 30
0.0
 11
0.0
 21
268.0
 31
0.0
  0
LINE
  5
48
330
32
100
AcDbEntity
  8
1
  6
Continuous
 62
     4
100
AcDbLine
 10
0.0
 20
10.0
 30
0.0
 11
394.0
 21
10.0
 31
0.0
  0
LINE
  5
49
330
32
100
AcDbEntity
  8
1
  6
Continuous
 62
     4
100
AcDbLine
 10
12.0
 20
20.0
 30
0.0
 11
12.0
 21
0.0
 31
0.0
  0
LINE
  5
4A
330
32
100
AcDbEntity
  8
1
  6
Continuous
 62
     3
100
AcDbLine
 10
6.0
 20
19.0
 30
0.0
 11
2.5
 21
12.5
 31
0.0
  0
LINE
  5
4B
330
32
100
AcDbEntity
  8
1
  6
Continuous
 62
     3
100
AcDbLine
 10
2.5
 20
12.5
 30
0.0
 11
9.5
 21
12.5
 31
0.0
  0
LINE
  5
4C
330
32
100
AcDbEntity
  8
1
  6
Continuous
 62
     3
100
AcDbLine
 10
9.5
 20
12.5
 30
0.0
 11
6.0
 21
19.0
 31
0.0
  0
LINE
  5
4D
330
32
100
AcDbEntity
  8
1
  6
Continuous
 62
     4
100
AcDbLine
 10
162.5
 20
15.0
 30
0.0
 11
202.0
 21
15.0
 31
0.0
  0
LINE
  5
4E
330
32
100
AcDbEntity
  8
1
  6
Continuous
 62
     7
100
AcDbLine
 10
0.0
 20
0.0
 30
0.0
 11
394.0
 21
0.0
 31
0.0
  0
LINE
  5
4F
330
32
100
AcDbEntity
  8
1
  6
Continuous
 62
     4
100
AcDbLine
 10
189.4945771572093
 20
2.13397584248199
 30
0.0
 11
195.2266254722454
 21
7.866024157518
 31
0.0
  0
MTEXT
  5
51
330
32
100
AcDbEntity
  8
1
 62
     4
100
AcDbMText
 10
393.4565543923691
 20
-0.25615332095569
 30
0.0
 40
2.0
 41
0.0
 71
     3
 72
     1
  1
A3
  7
CONVERTER_1
 73
     1
 44
1.32052821128451
  0
MTEXT
  5
53
330
32
100
AcDbEntity
  8
1
 62
     2
100
AcDbMText
 10
289.0
 20
15.0
 30
0.0
 40
4.0
 41
0.0
 71
     5
 72
     1
  1
図名
  7
CONVERTER_2
 73
     1
 44
1.32052821128451
  0
MTEXT
  5
55
330
32
100
AcDbEntity
  8
1
 62
     2
100
AcDbMText
 10
289.0
 20
7.25
 30
0.0
 40
3.5
 41
0.0
 71
     5
 72
     1
  1
図面
  7
CONVERTER_3
 73
     1
 44
0.78031212484994
  0
MTEXT
  5
56
330
32
100
AcDbEntity
  8
1
 62
     2
100
AcDbMText
 10
182.25
 20
17.5
 30
0.0
 40
3.5
 41
0.0
 71
     5
 72
     1
  1
年　　月　　日
  7
CONVERTER_2
 73
     1
 44
0.78031212484994
  0
MTEXT
  5
57
330
32
100
AcDbEntity
  8
1
 62
     2
100
AcDbMText
 10
166.5
 20
7.25
 30
0.0
 40
3.5
 41
0.0
 71
     5
 72
     1
  1
尺
  7
CONVERTER_3
 73
     1
 44
0.78031212484994
  0
MTEXT
  5
58
330
32
100
AcDbEntity
  8
1
 62
     2
100
AcDbMText
 10
39.0
 20
5.0
 30
0.0
 40
3.5
 41
0.0
 71
     5
 72
     1
  1
改　 訂　 記　 事
  7
CONVERTER_2
 73
     1
 44
1.32052821128451
  0
MTEXT
  5
59
330
32
100
AcDbEntity
  8
1
 62
     2
100
AcDbMText
 10
6.0
 20
7.25
 30
0.0
 40
3.5
 41
0.0
 71
     5
 72
     1
  1
改訂
  7
CONVERTER_2
 73
     1
 44
0.78031212484994
  0
MTEXT
  5
5B
330
32
100
AcDbEntity
  8
1
 62
     7
100
AcDbMText
 10
114.25
 20
5.0
 30
0.0
 40
4.0
 41
0.0
 71
     5
 72
     1
  1
MARUYASU KIKAI CO.,LTD.
  7
CONVERTER_4
 73
     1
 44
1.32052821128451
  0
MTEXT
  5
5C
330
32
100
AcDbEntity
  8
1
 62
     2
100
AcDbMText
 10
189.75
 20
6.5
 30
0.0
 40
4.0
 41
0.0
 71
     5
 72
     1
  1
1
  7
CONVERTER_1
 73
     1
 44
1.32052821128451
  0
MTEXT
  5
5D
330
32
100
AcDbEntity
  8
1
 62
     2
100
AcDbMText
 10
214.5
 20
5.0
 30
0.0
 40
4.0
 41
0.0
 71
     5
 72
     1
  1
機　種
  7
CONVERTER_2
 73
     1
 44
1.32052821128451
  0
MTEXT
  5
5F
330
32
100
AcDbEntity
  8
1
 62
     2
100
AcDbMText
 10
214.5
 20
15.0
 30
0.0
 40
4.0
 41
0.0
 71
     5
 72
     1
  1
シリーズ名
  7
CONVERTER_5
 73
     1
 44
1.32052821128451
  0
MTEXT
  5
60
330
32
100
AcDbEntity
  8
1
 62
     7
100
AcDbMText
 10
114.25
 20
15.0
 30
0.0
 40
5.0
 41
0.0
 71
     5
 72
     1
  1
技術情報サービス
  7
CONVERTER_2
 73
     1
 44
1.20048019207683
  0
MTEXT
  5
61
330
32
100
AcDbEntity
  8
1
 62
     2
100
AcDbMText
 10
5.67807803017169
 20
2.75
 30
0.0
 40
3.5
 41
0.0
 71
     5
 72
     1
  1
番号
  7
CONVERTER_2
 73
     1
 44
0.78031212484994
  0
MTEXT
  5
62
330
32
100
AcDbEntity
  8
1
 62
     2
100
AcDbMText
 10
166.5
 20
2.75
 30
0.0
 40
3.5
 41
0.0
 71
     5
 72
     1
  1
度
  7
CONVERTER_3
 73
     1
 44
0.78031212484994
  0
MTEXT
  5
63
330
32
100
AcDbEntity
  8
1
 62
     2
100
AcDbMText
 10
289.0
 20
2.75
 30
0.0
 40
3.5
 41
0.0
 71
     5
 72
     1
  1
番号
  7
CONVERTER_3
 73
     1
 44
0.78031212484994
  0
MTEXT
  5
64
330
32
100
AcDbEntity
  8
1
 62
     2
100
AcDbMText
 10
173.183432867907
 20
6.25
 30
0.0
 40
4.0
 41
0.0
 71
     5
 72
     1
  1
1
  7
CONVERTER_1
 73
     1
 44
0.60024009603842
  0
MTEXT
  5
65
330
32
100
AcDbEntity
  8
1
 62
     2
100
AcDbMText
 10
180.9766254722454
 20
3.75
 30
0.0
 40
4.0
 41
0.0
 71
     5
 72
     1
  1
2
  7
CONVERTER_1
 73
     1
 44
0.60024009603842
  0
ENDBLK
  5
34
330
32
100
AcDbEntity
  8
0
100
AcDbBlockEnd
  0
BLOCK
  5
1DA
330
1D1
100
AcDbEntity
  8
0
100
AcDbBlockBegin
  2
*D02
 70
     1
 71
     0
 10
0.0
 20
0.0
 30
0.0
  3
*D02
  1

  0
LINE
  5
1D2
330
1D1
100
AcDbEntity
  8
1
  6
Continuous
 62
     2
100
AcDbLine
 10
421.6505511997328
 20
112.319933225106
 30
0.0
 11
441.6505511997328
 21
112.319933225106
 31
0.0
  0
LINE
  5
1D3
330
1D1
100
AcDbEntity
  8
1
  6
Continuous
 62
     2
100
AcDbLine
 10
421.6505511997328
 20
131.5404477523896
 30
0.0
 11
421.6505511997328
 21
110.319933225106
 31
0.0
  0
LINE
  5
1D4
330
1D1
100
AcDbEntity
  8
1
  6
Continuous
 62
     2
100
AcDbLine
 10
441.6505511997328
 20
131.5404477523896
 30
0.0
 11
441.6505511997328
 21
110.319933225106
 31
0.0
  0
LINE
  5
1D5
330
1D1
100
AcDbEntity
  8
1
 62
     2
100
AcDbLine
 10
421.6505511997328
 20
112.319933225106
 30
0.0
 11
428.0505511997328
 21
114.0348080566652
 31
0.0
  0
LINE
  5
1D6
330
1D1
100
AcDbEntity
  8
1
 62
     2
100
AcDbLine
 10
421.6505511997328
 20
112.319933225106
 30
0.0
 11
428.0505511997328
 21
110.6050583935468
 31
0.0
  0
LINE
  5
1D7
330
1D1
100
AcDbEntity
  8
1
 62
     2
100
AcDbLine
 10
441.6505511997328
 20
112.319933225106
 30
0.0
 11
435.2505511997329
 21
110.6050583935468
 31
0.0
  0
LINE
  5
1D8
330
1D1
100
AcDbEntity
  8
1
 62
     2
100
AcDbLine
 10
441.6505511997328
 20
112.319933225106
 30
0.0
 11
435.2505511997329
 21
114.0348080566652
 31
0.0
  0
MTEXT
  5
1D9
330
1D1
100
AcDbEntity
  8
1
 62
     2
100
AcDbMText
 10
427.229174893833
 20
113.719933225106
 30
0.0
 40
6.4
 41
0.0
 71
     7
 72
     1
  1
20
  7
CONVERTER_1
 11
0.9999999999970621
 21
2.424068405545307E-6
 31
0.0
 73
     1
 44
0.60024009603842
  0
ENDBLK
  5
1DB
330
1D1
100
AcDbEntity
  8
0
100
AcDbBlockEnd
  0
BLOCK
  5
1DD
330
1DC
100
AcDbEntity
  8
0
100
AcDbBlockBegin
  2
_Open30
 70
     0
 71
     0
 10
0.0
 20
0.0
 30
0.0
  3
_Open30
  1

  0
LINE
  5
1DF
330
1DC
100
AcDbEntity
  8
0
  6
ByBlock
 62
     0
370
    -2
100
AcDbLine
 10
-1.0
 20
0.267949
 30
0.0
 11
0.0
 21
0.0
 31
0.0
  0
LINE
  5
1E0
330
1DC
100
AcDbEntity
  8
0
  6
ByBlock
 62
     0
370
    -2
100
AcDbLine
 10
0.0
 20
0.0
 30
0.0
 11
-1.0
 21
-0.267949
 31
0.0
  0
LINE
  5
1E1
330
1DC
100
AcDbEntity
  8
0
  6
ByBlock
 62
     0
370
    -2
100
AcDbLine
 10
0.0
 20
0.0
 30
0.0
 11
-1.0
 21
0.0
 31
0.0
  0
ENDBLK
  5
1DE
330
1DC
100
AcDbEntity
  8
0
100
AcDbBlockEnd
  0
BLOCK
  5
1ED
330
1E4
100
AcDbEntity
  8
0
100
AcDbBlockBegin
  2
*D14
 70
     1
 71
     0
 10
0.0
 20
0.0
 30
0.0
  3
*D14
  1

  0
LINE
  5
1E5
330
1E4
100
AcDbEntity
  8
1
  6
Continuous
 62
     2
100
AcDbLine
 10
584.1751263344278
 20
325.230899249837
 30
0.0
 11
649.1751263344278
 21
325.230899249837
 31
0.0
  0
LINE
  5
1E6
330
1E4
100
AcDbEntity
  8
1
  6
Continuous
 62
     2
100
AcDbLine
 10
584.1751263344278
 20
364.6370843413109
 30
0.0
 11
584.1751263344278
 21
323.230899249837
 31
0.0
  0
LINE
  5
1E7
330
1E4
100
AcDbEntity
  8
1
  6
Continuous
 62
     2
100
AcDbLine
 10
649.1751263344278
 20
364.6370843413109
 30
0.0
 11
649.1751263344278
 21
323.230899249837
 31
0.0
  0
LINE
  5
1E8
330
1E4
100
AcDbEntity
  8
1
 62
     2
100
AcDbLine
 10
584.1751263344278
 20
325.230899249837
 30
0.0
 11
590.5751263344278
 21
326.9457740813962
 31
0.0
  0
LINE
  5
1E9
330
1E4
100
AcDbEntity
  8
1
 62
     2
100
AcDbLine
 10
584.1751263344278
 20
325.230899249837
 30
0.0
 11
590.5751263344278
 21
323.5160244182778
 31
0.0
  0
LINE
  5
1EA
330
1E4
100
AcDbEntity
  8
1
 62
     2
100
AcDbLine
 10
649.1751263344278
 20
325.230899249837
 30
0.0
 11
642.7751263344278
 21
323.5160244182778
 31
0.0
  0
LINE
  5
1EB
330
1E4
100
AcDbEntity
  8
1
 62
     2
100
AcDbLine
 10
649.1751263344278
 20
325.230899249837
 30
0.0
 11
642.7751263344278
 21
326.9457740813962
 31
0.0
  0
MTEXT
  5
1EC
330
1E4
100
AcDbEntity
  8
1
 62
     2
100
AcDbMText
 10
610.713044218062
 20
327.590899249837
 30
0.0
 40
6.4
 41
0.0
 71
     7
 72
     1
  1
65
  7
CONVERTER_1
 11
0.9999999999970621
 21
2.424068405545307E-6
 31
0.0
 73
     1
 44
0.60024009603842
  0
ENDBLK
  5
1EE
330
1E4
100
AcDbEntity
  8
0
100
AcDbBlockEnd
  0
BLOCK
  5
1FA
330
1F1
100
AcDbEntity
  8
0
100
AcDbBlockBegin
  2
*D25
 70
     1
 71
     0
 10
0.0
 20
0.0
 30
0.0
  3
*D25
  1

  0
LINE
  5
1F2
330
1F1
100
AcDbEntity
  8
1
  6
Continuous
 62
     2
100
AcDbLine
 10
604.1751263344278
 20
339.651259164786
 30
0.0
 11
629.1751263344278
 21
339.651259164786
 31
0.0
  0
LINE
  5
1F3
330
1F1
100
AcDbEntity
  8
1
  6
Continuous
 62
     2
100
AcDbLine
 10
604.1751263344278
 20
362.6370843413109
 30
0.0
 11
604.1751263344278
 21
337.651259164786
 31
0.0
  0
LINE
  5
1F4
330
1F1
100
AcDbEntity
  8
1
  6
Continuous
 62
     2
100
AcDbLine
 10
629.1751263344278
 20
362.6370843413109
 30
0.0
 11
629.1751263344278
 21
337.651259164786
 31
0.0
  0
LINE
  5
1F5
330
1F1
100
AcDbEntity
  8
1
 62
     2
100
AcDbLine
 10
604.1751263344278
 20
339.651259164786
 30
0.0
 11
610.5751263344278
 21
341.3661339963452
 31
0.0
  0
LINE
  5
1F6
330
1F1
100
AcDbEntity
  8
1
 62
     2
100
AcDbLine
 10
604.1751263344278
 20
339.651259164786
 30
0.0
 11
610.5751263344278
 21
337.9363843332268
 31
0.0
  0
LINE
  5
1F7
330
1F1
100
AcDbEntity
  8
1
 62
     2
100
AcDbLine
 10
629.1751263344278
 20
339.651259164786
 30
0.0
 11
622.7751263344278
 21
337.9363843332268
 31
0.0
  0
LINE
  5
1F8
330
1F1
100
AcDbEntity
  8
1
 62
     2
100
AcDbLine
 10
629.1751263344278
 20
339.651259164786
 30
0.0
 11
622.7751263344278
 21
341.3661339963452
 31
0.0
  0
MTEXT
  5
1F9
330
1F1
100
AcDbEntity
  8
1
 62
     2
100
AcDbMText
 10
611.98542891644
 20
341.051259164786
 30
0.0
 40
6.4
 41
0.0
 71
     7
 72
     1
  1
25
  7
CONVERTER_1
 11
0.9999999999970621
 21
2.424068405545307E-6
 31
0.0
 73
     1
 44
0.60024009603842
  0
ENDBLK
  5
1FB
330
1F1
100
AcDbEntity
  8
0
100
AcDbBlockEnd
  0
BLOCK
  5
207
330
1FE
100
AcDbEntity
  8
0
100
AcDbBlockBegin
  2
*D36
 70
     1
 71
     0
 10
0.0
 20
0.0
 30
0.0
  3
*D36
  1

  0
LINE
  5
1FF
330
1FE
100
AcDbEntity
  8
1
  6
Continuous
 62
     2
100
AcDbLine
 10
221.4132668145799
 20
332.7604706213159
 30
0.0
 11
259.4132668145801
 21
332.7604706213159
 31
0.0
  0
LINE
  5
200
330
1FE
100
AcDbEntity
  8
1
  6
Continuous
 62
     2
100
AcDbLine
 10
221.4132668145799
 20
352.4936763494889
 30
0.0
 11
221.4132668145799
 21
330.7604706213159
 31
0.0
  0
LINE
  5
201
330
1FE
100
AcDbEntity
  8
1
  6
Continuous
 62
     2
100
AcDbLine
 10
259.4132668145801
 20
352.4936763494889
 30
0.0
 11
259.4132668145801
 21
330.7604706213159
 31
0.0
  0
LINE
  5
202
330
1FE
100
AcDbEntity
  8
1
 62
     2
100
AcDbLine
 10
221.4132668145799
 20
332.7604706213159
 30
0.0
 11
227.8132668145799
 21
334.4753454528751
 31
0.0
  0
LINE
  5
203
330
1FE
100
AcDbEntity
  8
1
 62
     2
100
AcDbLine
 10
221.4132668145799
 20
332.7604706213159
 30
0.0
 11
227.8132668145799
 21
331.0455957897567
 31
0.0
  0
LINE
  5
204
330
1FE
100
AcDbEntity
  8
1
 62
     2
100
AcDbLine
 10
259.4132668145801
 20
332.7604706213159
 30
0.0
 11
253.0132668145801
 21
331.0455957897567
 31
0.0
  0
LINE
  5
205
330
1FE
100
AcDbEntity
  8
1
 62
     2
100
AcDbLine
 10
259.4132668145801
 20
332.7604706213159
 30
0.0
 11
253.0132668145801
 21
334.4753454528751
 31
0.0
  0
MTEXT
  5
206
330
1FE
100
AcDbEntity
  8
1
 62
     2
100
AcDbMText
 10
234.7204107742837
 20
334.1604706213159
 30
0.0
 40
6.4
 41
0.0
 71
     7
 72
     1
  1
38
  7
CONVERTER_1
 11
0.9999999999970621
 21
2.424068405545307E-6
 31
0.0
 73
     1
 44
0.60024009603842
  0
ENDBLK
  5
208
330
1FE
100
AcDbEntity
  8
0
100
AcDbBlockEnd
  0
BLOCK
  5
214
330
20B
100
AcDbEntity
  8
0
100
AcDbBlockBegin
  2
*D47
 70
     1
 71
     0
 10
0.0
 20
0.0
 30
0.0
  3
*D47
  1

  0
LINE
  5
20C
330
20B
100
AcDbEntity
  8
1
  6
Continuous
 62
     2
100
AcDbLine
 10
96.89294640086271
 20
399.493676349489
 30
0.0
 11
96.89294640086271
 21
431.493676349489
 31
0.0
  0
LINE
  5
20D
330
20B
100
AcDbEntity
  8
1
  6
Continuous
 62
     2
100
AcDbLine
 10
105.6128012797944
 20
399.493676349489
 30
0.0
 11
94.89294640086271
 21
399.493676349489
 31
0.0
  0
LINE
  5
20E
330
20B
100
AcDbEntity
  8
1
  6
Continuous
 62
     2
100
AcDbLine
 10
109.6128012797944
 20
431.493676349489
 30
0.0
 11
94.89294640086271
 21
431.493676349489
 31
0.0
  0
LINE
  5
20F
330
20B
100
AcDbEntity
  8
1
 62
     2
100
AcDbLine
 10
96.89294640086271
 20
431.493676349489
 30
0.0
 11
98.26484626611006
 21
426.373676349489
 31
0.0
  0
LINE
  5
210
330
20B
100
AcDbEntity
  8
1
 62
     2
100
AcDbLine
 10
96.89294640086271
 20
431.493676349489
 30
0.0
 11
95.52104653561537
 21
426.373676349489
 31
0.0
  0
LINE
  5
211
330
20B
100
AcDbEntity
  8
1
 62
     2
100
AcDbLine
 10
96.89294640086271
 20
399.493676349489
 30
0.0
 11
95.52104653561537
 21
404.613676349489
 31
0.0
  0
LINE
  5
212
330
20B
100
AcDbEntity
  8
1
 62
     2
100
AcDbLine
 10
96.89294640086271
 20
399.493676349489
 30
0.0
 11
98.26484626611006
 21
404.613676349489
 31
0.0
  0
MTEXT
  5
213
330
20B
100
AcDbEntity
  8
1
 62
     2
100
AcDbMText
 10
93.95033786128872
 20
418.2408349215123
 30
0.0
 40
6.4
 41
0.0
 71
     7
 72
     1
  1
32
  7
CONVERTER_1
 11
0.0
 21
1.0
 31
0.0
 73
     1
 44
0.60024009603842
  0
ENDBLK
  5
215
330
20B
100
AcDbEntity
  8
0
100
AcDbBlockEnd
  0
BLOCK
  5
223
330
218
100
AcDbEntity
  8
0
100
AcDbBlockBegin
  2
*D58
 70
     1
 71
     0
 10
0.0
 20
0.0
 30
0.0
  3
*D58
  1

  0
LINE
  5
219
330
218
100
AcDbEntity
  8
1
  6
Continuous
 62
     2
100
AcDbLine
 10
141.6128012797944
 20
431.4936763494889
 30
0.0
 11
151.8528012797944
 21
431.4936763494889
 31
0.0
  0
LINE
  5
21A
330
218
100
AcDbEntity
  8
1
  6
Continuous
 62
     2
100
AcDbLine
 10
132.6128012797944
 20
431.4936763494889
 30
0.0
 11
141.6128012797944
 21
431.4936763494889
 31
0.0
  0
LINE
  5
21B
330
218
100
AcDbEntity
  8
1
  6
Continuous
 62
     2
100
AcDbLine
 10
122.3728012797944
 20
431.4936763494889
 30
0.0
 11
132.6128012797944
 21
431.4936763494889
 31
0.0
  0
LINE
  5
21C
330
218
100
AcDbEntity
  8
1
  6
Continuous
 62
     2
100
AcDbLine
 10
132.6128012797944
 20
427.493676349489
 30
0.0
 11
132.6128012797944
 21
433.4936763494889
 31
0.0
  0
LINE
  5
21D
330
218
100
AcDbEntity
  8
1
  6
Continuous
 62
     2
100
AcDbLine
 10
141.6128012797944
 20
427.493676349489
 30
0.0
 11
141.6128012797944
 21
433.4936763494889
 31
0.0
  0
LINE
  5
21E
330
218
100
AcDbEntity
  8
1
 62
     2
100
AcDbLine
 10
132.6128012797944
 20
431.4936763494889
 30
0.0
 11
127.4928012797944
 21
430.1217764842415
 31
0.0
  0
LINE
  5
21F
330
218
100
AcDbEntity
  8
1
 62
     2
100
AcDbLine
 10
132.6128012797944
 20
431.4936763494889
 30
0.0
 11
127.4928012797944
 21
432.8655762147363
 31
0.0
  0
LINE
  5
220
330
218
100
AcDbEntity
  8
1
 62
     2
100
AcDbLine
 10
141.6128012797944
 20
431.4936763494889
 30
0.0
 11
146.7328012797944
 21
432.8655762147363
 31
0.0
  0
LINE
  5
221
330
218
100
AcDbEntity
  8
1
 62
     2
100
AcDbLine
 10
141.6128012797944
 20
431.4936763494889
 30
0.0
 11
146.7328012797944
 21
430.1217764842415
 31
0.0
  0
MTEXT
  5
222
330
218
100
AcDbEntity
  8
1
 62
     2
100
AcDbMText
 10
134.6636477334937
 20
434.4536763494889
 30
0.0
 40
6.4
 41
0.0
 71
     7
 72
     1
  1
9
  7
CONVERTER_1
 11
0.9999999999970621
 21
2.424068405545307E-6
 31
0.0
 73
     1
 44
0.60024009603842
  0
ENDBLK
  5
224
330
218
100
AcDbEntity
  8
0
100
AcDbBlockEnd
  0
BLOCK
  5
230
330
227
100
AcDbEntity
  8
0
100
AcDbBlockBegin
  2
*D69
 70
     1
 71
     0
 10
0.0
 20
0.0
 30
0.0
  3
*D69
  1

  0
LINE
  5
228
330
227
100
AcDbEntity
  8
1
  6
Continuous
 62
     2
100
AcDbLine
 10
434.9422062155275
 20
394.6370843413109
 30
0.0
 11
434.9422062155275
 21
426.6370843413109
 31
0.0
  0
LINE
  5
229
330
227
100
AcDbEntity
  8
1
  6
Continuous
 62
     2
100
AcDbLine
 10
443.6620610944593
 20
394.6370843413109
 30
0.0
 11
432.9422062155275
 21
394.6370843413109
 31
0.0
  0
LINE
  5
22A
330
227
100
AcDbEntity
  8
1
  6
Continuous
 62
     2
100
AcDbLine
 10
447.6620610944593
 20
426.6370843413109
 30
0.0
 11
432.9422062155275
 21
426.6370843413109
 31
0.0
  0
LINE
  5
22B
330
227
100
AcDbEntity
  8
1
 62
     2
100
AcDbLine
 10
434.9422062155275
 20
426.6370843413109
 30
0.0
 11
436.3141060807749
 21
421.5170843413109
 31
0.0
  0
LINE
  5
22C
330
227
100
AcDbEntity
  8
1
 62
     2
100
AcDbLine
 10
434.9422062155275
 20
426.6370843413109
 30
0.0
 11
433.5703063502801
 21
421.5170843413109
 31
0.0
  0
LINE
  5
22D
330
227
100
AcDbEntity
  8
1
 62
     2
100
AcDbLine
 10
434.9422062155275
 20
394.6370843413109
 30
0.0
 11
433.5703063502801
 21
399.7570843413109
 31
0.0
  0
LINE
  5
22E
330
227
100
AcDbEntity
  8
1
 62
     2
100
AcDbLine
 10
434.9422062155275
 20
394.6370843413109
 30
0.0
 11
436.3141060807749
 21
399.7570843413109
 31
0.0
  0
MTEXT
  5
22F
330
227
100
AcDbEntity
  8
1
 62
     2
100
AcDbMText
 10
431.9995976759535
 20
413.3842429133343
 30
0.0
 40
6.4
 41
0.0
 71
     7
 72
     1
  1
32
  7
CONVERTER_1
 11
0.0
 21
1.0
 31
0.0
 73
     1
 44
0.60024009603842
  0
ENDBLK
  5
231
330
227
100
AcDbEntity
  8
0
100
AcDbBlockEnd
  0
BLOCK
  5
23D
330
234
100
AcDbEntity
  8
0
100
AcDbBlockBegin
  2
*D710
 70
     1
 71
     0
 10
0.0
 20
0.0
 30
0.0
  3
*D710
  1

  0
LINE
  5
235
330
234
100
AcDbEntity
  8
1
  6
Continuous
 62
     2
100
AcDbLine
 10
421.2394640887856
 20
390.6370843413109
 30
0.0
 11
421.2394640887856
 21
410.6370843413109
 31
0.0
  0
LINE
  5
236
330
234
100
AcDbEntity
  8
1
  6
Continuous
 62
     2
100
AcDbLine
 10
466.6620610944592
 20
390.6370843413109
 30
0.0
 11
419.2394640887856
 21
390.6370843413109
 31
0.0
  0
LINE
  5
237
330
234
100
AcDbEntity
  8
1
  6
Continuous
 62
     2
100
AcDbLine
 10
440.2679871717919
 20
410.6370843413109
 30
0.0
 11
419.2394640887856
 21
410.6370843413109
 31
0.0
  0
LINE
  5
238
330
234
100
AcDbEntity
  8
1
 62
     2
100
AcDbLine
 10
421.2394640887856
 20
410.6370843413109
 30
0.0
 11
422.611363954033
 21
405.5170843413109
 31
0.0
  0
LINE
  5
239
330
234
100
AcDbEntity
  8
1
 62
     2
100
AcDbLine
 10
421.2394640887856
 20
410.6370843413109
 30
0.0
 11
419.8675642235382
 21
405.5170843413109
 31
0.0
  0
LINE
  5
23A
330
234
100
AcDbEntity
  8
1
 62
     2
100
AcDbLine
 10
421.2394640887856
 20
390.6370843413109
 30
0.0
 11
419.8675642235382
 21
395.7570843413109
 31
0.0
  0
LINE
  5
23B
330
234
100
AcDbEntity
  8
1
 62
     2
100
AcDbLine
 10
421.2394640887856
 20
390.6370843413109
 30
0.0
 11
422.611363954033
 21
395.7570843413109
 31
0.0
  0
MTEXT
  5
23C
330
234
100
AcDbEntity
  8
1
 62
     2
100
AcDbMText
 10
419.2394640887856
 20
394.2476547708163
 30
0.0
 40
6.4
 41
0.0
 71
     7
 72
     1
  1
20
  7
CONVERTER_1
 11
0.0
 21
1.0
 31
0.0
 73
     1
 44
0.60024009603842
  0
ENDBLK
  5
23E
330
234
100
AcDbEntity
  8
0
100
AcDbBlockEnd
  0
BLOCK
  5
24C
330
241
100
AcDbEntity
  8
0
100
AcDbBlockBegin
  2
*D811
 70
     1
 71
     0
 10
0.0
 20
0.0
 30
0.0
  3
*D811
  1

  0
LINE
  5
242
330
241
100
AcDbEntity
  8
1
  6
Continuous
 62
     2
100
AcDbLine
 10
470.6620610944592
 20
426.6370843413109
 30
0.0
 11
479.6620610944592
 21
426.6370843413109
 31
0.0
  0
LINE
  5
243
330
241
100
AcDbEntity
  8
1
  6
Continuous
 62
     2
100
AcDbLine
 10
470.6620610944592
 20
426.6370843413109
 30
0.0
 11
460.4220610944592
 21
426.6370843413109
 31
0.0
  0
LINE
  5
244
330
241
100
AcDbEntity
  8
1
  6
Continuous
 62
     2
100
AcDbLine
 10
479.6620610944592
 20
426.6370843413109
 30
0.0
 11
489.9020610944592
 21
426.6370843413109
 31
0.0
  0
LINE
  5
245
330
241
100
AcDbEntity
  8
1
  6
Continuous
 62
     2
100
AcDbLine
 10
470.6620610944592
 20
422.6370843413109
 30
0.0
 11
470.6620610944592
 21
428.6370843413109
 31
0.0
  0
LINE
  5
246
330
241
100
AcDbEntity
  8
1
  6
Continuous
 62
     2
100
AcDbLine
 10
479.6620610944592
 20
422.6370843413109
 30
0.0
 11
479.6620610944592
 21
428.6370843413109
 31
0.0
  0
LINE
  5
247
330
241
100
AcDbEntity
  8
1
 62
     2
100
AcDbLine
 10
470.6620610944592
 20
426.6370843413109
 30
0.0
 11
465.5420610944592
 21
425.2651844760635
 31
0.0
  0
LINE
  5
248
330
241
100
AcDbEntity
  8
1
 62
     2
100
AcDbLine
 10
470.6620610944592
 20
426.6370843413109
 30
0.0
 11
465.5420610944592
 21
428.0089842065582
 31
0.0
  0
LINE
  5
249
330
241
100
AcDbEntity
  8
1
 62
     2
100
AcDbLine
 10
479.6620610944592
 20
426.6370843413109
 30
0.0
 11
484.7820610944592
 21
428.0089842065582
 31
0.0
  0
LINE
  5
24A
330
241
100
AcDbEntity
  8
1
 62
     2
100
AcDbLine
 10
479.6620610944592
 20
426.6370843413109
 30
0.0
 11
484.7820610944592
 21
425.2651844760635
 31
0.0
  0
MTEXT
  5
24B
330
241
100
AcDbEntity
  8
1
 62
     2
100
AcDbMText
 10
472.7129075481585
 20
429.5970843413109
 30
0.0
 40
6.4
 41
0.0
 71
     7
 72
     1
  1
9
  7
CONVERTER_1
 11
0.9999999999970621
 21
2.424068405545307E-6
 31
0.0
 73
     1
 44
0.60024009603842
  0
ENDBLK
  5
24D
330
241
100
AcDbEntity
  8
0
100
AcDbBlockEnd
  0
BLOCK
  5
259
330
250
100
AcDbEntity
  8
0
100
AcDbBlockBegin
  2
*D912
 70
     1
 71
     0
 10
0.0
 20
0.0
 30
0.0
  3
*D912
  1

  0
LINE
  5
251
330
250
100
AcDbEntity
  8
1
  6
Continuous
 62
     2
100
AcDbLine
 10
84.0097881464126
 20
395.4936763494889
 30
0.0
 11
84.0097881464126
 21
415.4936763494889
 31
0.0
  0
LINE
  5
252
330
250
100
AcDbEntity
  8
1
  6
Continuous
 62
     2
100
AcDbLine
 10
69.59320214669049
 20
395.4936763494889
 30
0.0
 11
86.0097881464126
 21
395.4936763494889
 31
0.0
  0
LINE
  5
253
330
250
100
AcDbEntity
  8
1
  6
Continuous
 62
     2
100
AcDbLine
 10
102.2187273571271
 20
415.4936763494889
 30
0.0
 11
82.00978814641259
 21
415.4936763494889
 31
0.0
  0
LINE
  5
254
330
250
100
AcDbEntity
  8
1
 62
     2
100
AcDbLine
 10
84.0097881464126
 20
415.4936763494889
 30
0.0
 11
85.72466297797179
 21
409.0936763494889
 31
0.0
  0
LINE
  5
255
330
250
100
AcDbEntity
  8
1
 62
     2
100
AcDbLine
 10
84.0097881464126
 20
415.4936763494889
 30
0.0
 11
82.29491331485342
 21
409.0936763494889
 31
0.0
  0
LINE
  5
256
330
250
100
AcDbEntity
  8
1
 62
     2
100
AcDbLine
 10
84.0097881464126
 20
395.4936763494889
 30
0.0
 11
82.29491331485342
 21
401.8936763494889
 31
0.0
  0
LINE
  5
257
330
250
100
AcDbEntity
  8
1
 62
     2
100
AcDbLine
 10
84.0097881464126
 20
395.4936763494889
 30
0.0
 11
85.72466297797179
 21
401.8936763494889
 31
0.0
  0
MTEXT
  5
258
330
250
100
AcDbEntity
  8
1
 62
     2
100
AcDbMText
 10
82.6097881464126
 20
400.9380193839059
 30
0.0
 40
6.4
 41
0.0
 71
     7
 72
     1
  1
20
  7
CONVERTER_1
 11
0.0
 21
1.0
 31
0.0
 73
     1
 44
0.60024009603842
  0
ENDBLK
  5
25A
330
250
100
AcDbEntity
  8
0
100
AcDbBlockEnd
  0
BLOCK
  5
266
330
25D
100
AcDbEntity
  8
0
100
AcDbBlockBegin
  2
*D1013
 70
     1
 71
     0
 10
0.0
 20
0.0
 30
0.0
  3
*D1013
  1

  0
LINE
  5
25E
330
25D
100
AcDbEntity
  8
1
  6
Continuous
 62
     2
100
AcDbLine
 10
354.5058685651012
 20
172.5404477523896
 30
0.0
 11
354.5058685651012
 21
202.5404477523896
 31
0.0
  0
LINE
  5
25F
330
25D
100
AcDbEntity
  8
1
  6
Continuous
 62
     2
100
AcDbLine
 10
327.221824686941
 20
172.5404477523896
 30
0.0
 11
356.5058685651012
 21
172.5404477523896
 31
0.0
  0
LINE
  5
260
330
25D
100
AcDbEntity
  8
1
  6
Continuous
 62
     2
100
AcDbLine
 10
309.721824686941
 20
202.5404477523896
 30
0.0
 11
356.5058685651012
 21
202.5404477523896
 31
0.0
  0
LINE
  5
261
330
25D
100
AcDbEntity
  8
1
 62
     2
100
AcDbLine
 10
354.5058685651012
 20
172.5404477523896
 30
0.0
 11
352.790993733542
 21
178.9404477523896
 31
0.0
  0
LINE
  5
262
330
25D
100
AcDbEntity
  8
1
 62
     2
100
AcDbLine
 10
354.5058685651012
 20
172.5404477523896
 30
0.0
 11
356.2207433966604
 21
178.9404477523896
 31
0.0
  0
LINE
  5
263
330
25D
100
AcDbEntity
  8
1
 62
     2
100
AcDbLine
 10
354.5058685651012
 20
202.5404477523896
 30
0.0
 11
356.2207433966604
 21
196.1404477523896
 31
0.0
  0
LINE
  5
264
330
25D
100
AcDbEntity
  8
1
 62
     2
100
AcDbLine
 10
354.5058685651012
 20
202.5404477523896
 30
0.0
 11
352.790993733542
 21
196.1404477523896
 31
0.0
  0
MTEXT
  5
265
330
25D
100
AcDbEntity
  8
1
 62
     2
100
AcDbMText
 10
353.1058685651013
 20
184.281900212677
 30
0.0
 40
6.4
 41
0.0
 71
     7
 72
     1
  1
30
  7
CONVERTER_1
 11
0.0
 21
1.0
 31
0.0
 73
     1
 44
0.60024009603842
  0
ENDBLK
  5
267
330
25D
100
AcDbEntity
  8
0
100
AcDbBlockEnd
  0
BLOCK
  5
275
330
26A
100
AcDbEntity
  8
0
100
AcDbBlockBegin
  2
*D1114
 70
     1
 71
     0
 10
0.0
 20
0.0
 30
0.0
  3
*D1114
  1

  0
LINE
  5
26B
330
26A
100
AcDbEntity
  8
1
  6
Continuous
 62
     2
100
AcDbLine
 10
320.5218246869409
 20
211.1232809209769
 30
0.0
 11
307.721824686941
 21
211.1232809209769
 31
0.0
  0
LINE
  5
26C
330
26A
100
AcDbEntity
  8
1
  6
Continuous
 62
     2
100
AcDbLine
 10
306.221824686941
 20
211.1232809209769
 30
0.0
 11
307.721824686941
 21
211.1232809209769
 31
0.0
  0
LINE
  5
26D
330
26A
100
AcDbEntity
  8
1
  6
Continuous
 62
     2
100
AcDbLine
 10
306.221824686941
 20
211.1232809209769
 30
0.0
 11
291.6283879673982
 21
211.1232809209769
 31
0.0
  0
LINE
  5
26E
330
26A
100
AcDbEntity
  8
1
  6
Continuous
 62
     2
100
AcDbLine
 10
306.221824686941
 20
204.5404477523896
 30
0.0
 11
306.221824686941
 21
213.1232809209769
 31
0.0
  0
LINE
  5
26F
330
26A
100
AcDbEntity
  8
1
  6
Continuous
 62
     2
100
AcDbLine
 10
307.721824686941
 20
204.5404477523896
 30
0.0
 11
307.721824686941
 21
213.1232809209769
 31
0.0
  0
LINE
  5
270
330
26A
100
AcDbEntity
  8
1
 62
     2
100
AcDbLine
 10
306.221824686941
 20
211.1232809209769
 30
0.0
 11
299.821824686941
 21
209.4084060894177
 31
0.0
  0
LINE
  5
271
330
26A
100
AcDbEntity
  8
1
 62
     2
100
AcDbLine
 10
306.221824686941
 20
211.1232809209769
 30
0.0
 11
299.821824686941
 21
212.8381557525361
 31
0.0
  0
LINE
  5
272
330
26A
100
AcDbEntity
  8
1
 62
     2
100
AcDbLine
 10
307.721824686941
 20
211.1232809209769
 30
0.0
 11
314.121824686941
 21
212.8381557525361
 31
0.0
  0
LINE
  5
273
330
26A
100
AcDbEntity
  8
1
 62
     2
100
AcDbLine
 10
307.721824686941
 20
211.1232809209769
 30
0.0
 11
314.121824686941
 21
209.4084060894177
 31
0.0
  0
MTEXT
  5
274
330
26A
100
AcDbEntity
  8
1
 62
     2
100
AcDbMText
 10
291.6283879673982
 20
212.5232809209769
 30
0.0
 40
6.4
 41
0.0
 71
     7
 72
     1
  1
1.5
  7
CONVERTER_1
 11
0.9999999999970621
 21
2.424068405545307E-6
 31
0.0
 73
     1
 44
0.60024009603842
  0
ENDBLK
  5
276
330
26A
100
AcDbEntity
  8
0
100
AcDbBlockEnd
  0
BLOCK
  5
284
330
279
100
AcDbEntity
  8
0
100
AcDbBlockBegin
  2
*D1215
 70
     1
 71
     0
 10
0.0
 20
0.0
 30
0.0
  3
*D1215
  1

  0
LINE
  5
27A
330
279
100
AcDbEntity
  8
1
  6
Continuous
 62
     2
100
AcDbLine
 10
343.021824686941
 20
124.935067265256
 30
0.0
 11
330.221824686941
 21
124.935067265256
 31
0.0
  0
LINE
  5
27B
330
279
100
AcDbEntity
  8
1
  6
Continuous
 62
     2
100
AcDbLine
 10
330.221824686941
 20
124.935067265256
 30
0.0
 11
324.221824686941
 21
124.935067265256
 31
0.0
  0
LINE
  5
27C
330
279
100
AcDbEntity
  8
1
  6
Continuous
 62
     2
100
AcDbLine
 10
324.221824686941
 20
124.935067265256
 30
0.0
 11
311.421824686941
 21
124.935067265256
 31
0.0
  0
LINE
  5
27D
330
279
100
AcDbEntity
  8
1
  6
Continuous
 62
     2
100
AcDbLine
 10
324.221824686941
 20
104.5404477523896
 30
0.0
 11
324.221824686941
 21
126.935067265256
 31
0.0
  0
LINE
  5
27E
330
279
100
AcDbEntity
  8
1
  6
Continuous
 62
     2
100
AcDbLine
 10
330.221824686941
 20
130.5404477523896
 30
0.0
 11
330.221824686941
 21
122.935067265256
 31
0.0
  0
LINE
  5
27F
330
279
100
AcDbEntity
  8
1
 62
     2
100
AcDbLine
 10
330.221824686941
 20
124.935067265256
 30
0.0
 11
336.621824686941
 21
126.6499420968152
 31
0.0
  0
LINE
  5
280
330
279
100
AcDbEntity
  8
1
 62
     2
100
AcDbLine
 10
330.221824686941
 20
124.935067265256
 30
0.0
 11
336.621824686941
 21
123.2201924336968
 31
0.0
  0
LINE
  5
281
330
279
100
AcDbEntity
  8
1
 62
     2
100
AcDbLine
 10
324.221824686941
 20
124.935067265256
 30
0.0
 11
317.821824686941
 21
123.2201924336968
 31
0.0
  0
LINE
  5
282
330
279
100
AcDbEntity
  8
1
 62
     2
100
AcDbLine
 10
324.221824686941
 20
124.935067265256
 30
0.0
 11
317.821824686941
 21
126.6499420968152
 31
0.0
  0
MTEXT
  5
283
330
279
100
AcDbEntity
  8
1
 62
     2
100
AcDbMText
 10
338.285201596257
 20
127.295067265256
 30
0.0
 40
6.4
 41
0.0
 71
     7
 72
     1
  1
6
  7
CONVERTER_1
 11
0.9999999999970621
 21
2.424068405545307E-6
 31
0.0
 73
     1
 44
0.60024009603842
  0
ENDBLK
  5
285
330
279
100
AcDbEntity
  8
0
100
AcDbBlockEnd
  0
BLOCK
  5
293
330
288
100
AcDbEntity
  8
0
100
AcDbBlockBegin
  2
*D1316
 70
     1
 71
     0
 10
0.0
 20
0.0
 30
0.0
  3
*D1316
  1

  0
LINE
  5
289
330
288
100
AcDbEntity
  8
1
  6
Continuous
 62
     2
100
AcDbLine
 10
124.4128012797944
 20
443.7770408476673
 30
0.0
 11
111.6128012797944
 21
443.7770408476673
 31
0.0
  0
LINE
  5
28A
330
288
100
AcDbEntity
  8
1
  6
Continuous
 62
     2
100
AcDbLine
 10
107.6128012797944
 20
443.7770408476673
 30
0.0
 11
111.6128012797944
 21
443.7770408476673
 31
0.0
  0
LINE
  5
28B
330
288
100
AcDbEntity
  8
1
  6
Continuous
 62
     2
100
AcDbLine
 10
107.6128012797944
 20
443.7770408476673
 30
0.0
 11
94.8128012797944
 21
443.7770408476673
 31
0.0
  0
LINE
  5
28C
330
288
100
AcDbEntity
  8
1
  6
Continuous
 62
     2
100
AcDbLine
 10
107.6128012797944
 20
433.4936763494889
 30
0.0
 11
107.6128012797944
 21
445.7770408476673
 31
0.0
  0
LINE
  5
28D
330
288
100
AcDbEntity
  8
1
  6
Continuous
 62
     2
100
AcDbLine
 10
111.6128012797944
 20
433.4936763494889
 30
0.0
 11
111.6128012797944
 21
445.7770408476673
 31
0.0
  0
LINE
  5
28E
330
288
100
AcDbEntity
  8
1
 62
     2
100
AcDbLine
 10
107.6128012797944
 20
443.7770408476673
 30
0.0
 11
101.2128012797944
 21
442.0621660161081
 31
0.0
  0
LINE
  5
28F
330
288
100
AcDbEntity
  8
1
 62
     2
100
AcDbLine
 10
107.6128012797944
 20
443.7770408476673
 30
0.0
 11
101.2128012797944
 21
445.4919156792265
 31
0.0
  0
LINE
  5
290
330
288
100
AcDbEntity
  8
1
 62
     2
100
AcDbLine
 10
111.6128012797944
 20
443.7770408476673
 30
0.0
 11
118.0128012797944
 21
445.4919156792265
 31
0.0
  0
LINE
  5
291
330
288
100
AcDbEntity
  8
1
 62
     2
100
AcDbLine
 10
111.6128012797944
 20
443.7770408476673
 30
0.0
 11
118.0128012797944
 21
442.0621660161081
 31
0.0
  0
MTEXT
  5
292
330
288
100
AcDbEntity
  8
1
 62
     2
100
AcDbMText
 10
96.22314176037071
 20
445.1770408476673
 30
0.0
 40
6.4
 41
0.0
 71
     7
 72
     1
  1
4
  7
CONVERTER_1
 11
0.9999999999970621
 21
2.424068405545307E-6
 31
0.0
 73
     1
 44
0.60024009603842
  0
ENDBLK
  5
294
330
288
100
AcDbEntity
  8
0
100
AcDbBlockEnd
  0
BLOCK
  5
2A0
330
297
100
AcDbEntity
  8
0
100
AcDbBlockBegin
  2
*D1417
 70
     1
 71
     0
 10
0.0
 20
0.0
 30
0.0
  3
*D1417
  1

  0
LINE
  5
298
330
297
100
AcDbEntity
  8
1
  6
Continuous
 62
     2
100
AcDbLine
 10
111.6128012797944
 20
443.7770408476673
 30
0.0
 11
161.6128012797944
 21
443.7770408476673
 31
0.0
  0
LINE
  5
299
330
297
100
AcDbEntity
  8
1
  6
Continuous
 62
     2
100
AcDbLine
 10
111.6128012797944
 20
433.4936763494889
 30
0.0
 11
111.6128012797944
 21
445.7770408476673
 31
0.0
  0
LINE
  5
29A
330
297
100
AcDbEntity
  8
1
  6
Continuous
 62
     2
100
AcDbLine
 10
161.6128012797944
 20
419.4936763494889
 30
0.0
 11
161.6128012797944
 21
445.7770408476673
 31
0.0
  0
LINE
  5
29B
330
297
100
AcDbEntity
  8
1
 62
     2
100
AcDbLine
 10
111.6128012797944
 20
443.7770408476673
 30
0.0
 11
118.0128012797944
 21
445.4919156792265
 31
0.0
  0
LINE
  5
29C
330
297
100
AcDbEntity
  8
1
 62
     2
100
AcDbLine
 10
111.6128012797944
 20
443.7770408476673
 30
0.0
 11
118.0128012797944
 21
442.0621660161081
 31
0.0
  0
LINE
  5
29D
330
297
100
AcDbEntity
  8
1
 62
     2
100
AcDbLine
 10
161.6128012797944
 20
443.7770408476673
 30
0.0
 11
155.2128012797944
 21
442.0621660161081
 31
0.0
  0
LINE
  5
29E
330
297
100
AcDbEntity
  8
1
 62
     2
100
AcDbLine
 10
161.6128012797944
 20
443.7770408476673
 30
0.0
 11
155.2128012797944
 21
445.4919156792265
 31
0.0
  0
MTEXT
  5
29F
330
297
100
AcDbEntity
  8
1
 62
     2
100
AcDbMText
 10
138.8352586155787
 20
446.1057445241492
 30
0.0
 40
6.4
 41
0.0
 71
     7
 72
     1
  1
50
  7
CONVERTER_1
 11
0.9999999999970621
 21
2.424068405545307E-6
 31
0.0
 73
     1
 44
0.60024009603842
  0
ENDBLK
  5
2A1
330
297
100
AcDbEntity
  8
0
100
AcDbBlockEnd
  0
BLOCK
  5
2AF
330
2A4
100
AcDbEntity
  8
0
100
AcDbBlockBegin
  2
*D1518
 70
     1
 71
     0
 10
0.0
 20
0.0
 30
0.0
  3
*D1518
  1

  0
LINE
  5
2A5
330
2A4
100
AcDbEntity
  8
1
  6
Continuous
 62
     2
100
AcDbLine
 10
462.4620610944593
 20
438.9204488394893
 30
0.0
 11
449.6620610944593
 21
438.9204488394893
 31
0.0
  0
LINE
  5
2A6
330
2A4
100
AcDbEntity
  8
1
  6
Continuous
 62
     2
100
AcDbLine
 10
445.6620610944593
 20
438.9204488394893
 30
0.0
 11
449.6620610944593
 21
438.9204488394893
 31
0.0
  0
LINE
  5
2A7
330
2A4
100
AcDbEntity
  8
1
  6
Continuous
 62
     2
100
AcDbLine
 10
445.6620610944593
 20
438.9204488394893
 30
0.0
 11
432.8620610944593
 21
438.9204488394893
 31
0.0
  0
LINE
  5
2A8
330
2A4
100
AcDbEntity
  8
1
  6
Continuous
 62
     2
100
AcDbLine
 10
445.6620610944593
 20
428.6370843413109
 30
0.0
 11
445.6620610944593
 21
440.9204488394893
 31
0.0
  0
LINE
  5
2A9
330
2A4
100
AcDbEntity
  8
1
  6
Continuous
 62
     2
100
AcDbLine
 10
449.6620610944593
 20
428.6370843413109
 30
0.0
 11
449.6620610944593
 21
440.9204488394893
 31
0.0
  0
LINE
  5
2AA
330
2A4
100
AcDbEntity
  8
1
 62
     2
100
AcDbLine
 10
445.6620610944593
 20
438.9204488394893
 30
0.0
 11
439.2620610944593
 21
437.2055740079301
 31
0.0
  0
LINE
  5
2AB
330
2A4
100
AcDbEntity
  8
1
 62
     2
100
AcDbLine
 10
445.6620610944593
 20
438.9204488394893
 30
0.0
 11
439.2620610944593
 21
440.6353236710485
 31
0.0
  0
LINE
  5
2AC
330
2A4
100
AcDbEntity
  8
1
 62
     2
100
AcDbLine
 10
449.6620610944593
 20
438.9204488394893
 30
0.0
 11
456.0620610944592
 21
440.6353236710485
 31
0.0
  0
LINE
  5
2AD
330
2A4
100
AcDbEntity
  8
1
 62
     2
100
AcDbLine
 10
449.6620610944593
 20
438.9204488394893
 30
0.0
 11
456.0620610944592
 21
437.2055740079301
 31
0.0
  0
MTEXT
  5
2AE
330
2A4
100
AcDbEntity
  8
1
 62
     2
100
AcDbMText
 10
434.2724015750356
 20
440.3204488394893
 30
0.0
 40
6.4
 41
0.0
 71
     7
 72
     1
  1
4
  7
CONVERTER_1
 11
0.9999999999970621
 21
2.424068405545307E-6
 31
0.0
 73
     1
 44
0.60024009603842
  0
ENDBLK
  5
2B0
330
2A4
100
AcDbEntity
  8
0
100
AcDbBlockEnd
  0
BLOCK
  5
2BC
330
2B3
100
AcDbEntity
  8
0
100
AcDbBlockBegin
  2
*D1619
 70
     1
 71
     0
 10
0.0
 20
0.0
 30
0.0
  3
*D1619
  1

  0
LINE
  5
2B4
330
2B3
100
AcDbEntity
  8
1
  6
Continuous
 62
     2
100
AcDbLine
 10
449.6620610944592
 20
438.9204488394893
 30
0.0
 11
499.6620610944592
 21
438.9204488394893
 31
0.0
  0
LINE
  5
2B5
330
2B3
100
AcDbEntity
  8
1
  6
Continuous
 62
     2
100
AcDbLine
 10
449.6620610944592
 20
428.637084341311
 30
0.0
 11
449.6620610944592
 21
440.9204488394893
 31
0.0
  0
LINE
  5
2B6
330
2B3
100
AcDbEntity
  8
1
  6
Continuous
 62
     2
100
AcDbLine
 10
499.6620610944592
 20
414.637084341311
 30
0.0
 11
499.6620610944592
 21
440.9204488394893
 31
0.0
  0
LINE
  5
2B7
330
2B3
100
AcDbEntity
  8
1
 62
     2
100
AcDbLine
 10
449.6620610944592
 20
438.9204488394893
 30
0.0
 11
456.0620610944591
 21
440.6353236710485
 31
0.0
  0
LINE
  5
2B8
330
2B3
100
AcDbEntity
  8
1
 62
     2
100
AcDbLine
 10
449.6620610944592
 20
438.9204488394893
 30
0.0
 11
456.0620610944591
 21
437.2055740079301
 31
0.0
  0
LINE
  5
2B9
330
2B3
100
AcDbEntity
  8
1
 62
     2
100
AcDbLine
 10
499.6620610944592
 20
438.9204488394893
 30
0.0
 11
493.2620610944592
 21
437.2055740079301
 31
0.0
  0
LINE
  5
2BA
330
2B3
100
AcDbEntity
  8
1
 62
     2
100
AcDbLine
 10
499.6620610944592
 20
438.9204488394893
 30
0.0
 11
493.2620610944592
 21
440.6353236710485
 31
0.0
  0
MTEXT
  5
2BB
330
2B3
100
AcDbEntity
  8
1
 62
     2
100
AcDbMText
 10
476.8845184302435
 20
441.2491525159712
 30
0.0
 40
6.4
 41
0.0
 71
     7
 72
     1
  1
50
  7
CONVERTER_1
 11
0.9999999999970621
 21
2.424068405545307E-6
 31
0.0
 73
     1
 44
0.60024009603842
  0
ENDBLK
  5
2BD
330
2B3
100
AcDbEntity
  8
0
100
AcDbBlockEnd
  0
BLOCK
  5
2C9
330
2C0
100
AcDbEntity
  8
0
100
AcDbBlockBegin
  2
*D1720
 70
     1
 71
     0
 10
0.0
 20
0.0
 30
0.0
  3
*D1720
  1

  0
LINE
  5
2C1
330
2C0
100
AcDbEntity
  8
1
  6
Continuous
 62
     2
100
AcDbLine
 10
306.221824686941
 20
219.4199034548552
 30
0.0
 11
325.221824686941
 21
219.4199034548552
 31
0.0
  0
LINE
  5
2C2
330
2C0
100
AcDbEntity
  8
1
  6
Continuous
 62
     2
100
AcDbLine
 10
306.221824686941
 20
204.5404477523895
 30
0.0
 11
306.221824686941
 21
221.4199034548552
 31
0.0
  0
LINE
  5
2C3
330
2C0
100
AcDbEntity
  8
1
  6
Continuous
 62
     2
100
AcDbLine
 10
325.221824686941
 20
176.0404477523895
 30
0.0
 11
325.221824686941
 21
221.4199034548552
 31
0.0
  0
LINE
  5
2C4
330
2C0
100
AcDbEntity
  8
1
 62
     2
100
AcDbLine
 10
306.221824686941
 20
219.4199034548552
 30
0.0
 11
312.621824686941
 21
221.1347782864144
 31
0.0
  0
LINE
  5
2C5
330
2C0
100
AcDbEntity
  8
1
 62
     2
100
AcDbLine
 10
306.221824686941
 20
219.4199034548552
 30
0.0
 11
312.621824686941
 21
217.705028623296
 31
0.0
  0
LINE
  5
2C6
330
2C0
100
AcDbEntity
  8
1
 62
     2
100
AcDbLine
 10
325.221824686941
 20
219.4199034548552
 30
0.0
 11
318.821824686941
 21
217.705028623296
 31
0.0
  0
LINE
  5
2C7
330
2C0
100
AcDbEntity
  8
1
 62
     2
100
AcDbLine
 10
325.221824686941
 20
219.4199034548552
 30
0.0
 11
318.821824686941
 21
221.1347782864144
 31
0.0
  0
MTEXT
  5
2C8
330
2C0
100
AcDbEntity
  8
1
 62
     2
100
AcDbMText
 10
311.9472565898389
 20
221.7799034548552
 30
0.0
 40
6.4
 41
0.0
 71
     7
 72
     1
  1
19
  7
CONVERTER_1
 11
0.9999999999970621
 21
2.424068405545307E-6
 31
0.0
 73
     1
 44
0.60024009603842
  0
ENDBLK
  5
2CA
330
2C0
100
AcDbEntity
  8
0
100
AcDbBlockEnd
  0
ENDSEC
  0
SECTION
  2
ENTITIES
  0
INSERT
  5
35
330
1F
100
AcDbEntity
  8
0
100
AcDbBlockReference
  2
Zuwaku-A3-web
 10
393.9999999999996
 20
268.0
 30
0.0
 41
2.0
 42
2.0
 43
2.0
  0
LINE
  5
66
330
1F
100
AcDbEntity
  8
1
  6
DASHED
 62
     4
100
AcDbLine
 10
441.6505511997328
 20
174.0404477523896
 30
0.0
 11
421.6505511997326
 21
174.0404477523896
 31
0.0
  0
LINE
  5
67
330
1F
100
AcDbEntity
  8
1
  6
Continuous
 62
     7
100
AcDbLine
 10
421.6505511997326
 20
174.0404477523896
 30
0.0
 11
398.4404729427318
 21
174.0404477523896
 31
0.0
  0
LINE
  5
68
330
1F
100
AcDbEntity
  8
1
  6
Continuous
 62
     7
100
AcDbLine
 10
467.9726959567059
 20
174.0404477523896
 30
0.0
 11
441.6505511997328
 21
174.0404477523896
 31
0.0
  0
LINE
  5
69
330
1F
100
AcDbEntity
  8
1
  6
Continuous
 62
     7
100
AcDbLine
 10
440.6505511997328
 20
132.5404477523896
 30
0.0
 11
422.6505511997328
 21
132.5404477523896
 31
0.0
  0
LINE
  5
6A
330
1F
100
AcDbEntity
  8
1
  6
Continuous
 62
     7
100
AcDbLine
 10
441.6505511997328
 20
133.5404477523896
 30
0.0
 11
441.6505511997328
 21
182.5404477523896
 31
0.0
  0
LINE
  5
6B
330
1F
100
AcDbEntity
  8
1
  6
Continuous
 62
     7
100
AcDbLine
 10
421.6505511997328
 20
182.5404477523896
 30
0.0
 11
421.6505511997328
 21
133.5404477523896
 31
0.0
  0
LINE
  5
6C
330
1F
100
AcDbEntity
  8
1
  6
Continuous
 62
     7
100
AcDbLine
 10
428.6505511997328
 20
182.5404477523896
 30
0.0
 11
428.6505511997328
 21
189.0404477523896
 31
0.0
  0
LINE
  5
6D
330
1F
100
AcDbEntity
  8
1
  6
Continuous
 62
     3
100
AcDbLine
 10
429.1920511997327
 20
182.5404477523896
 30
0.0
 11
429.1920511997327
 21
188.102542240091
 31
0.0
  0
LINE
  5
6E
330
1F
100
AcDbEntity
  8
1
  6
DASHED
 62
     3
100
AcDbLine
 10
434.1090511997326
 20
182.5404477523896
 30
0.0
 11
434.1090511997326
 21
174.4989477523896
 31
0.0
  0
LINE
  5
6F
330
1F
100
AcDbEntity
  8
1
  6
DASHED
 62
     7
100
AcDbLine
 10
434.6505511997328
 20
182.5404477523896
 30
0.0
 11
434.6505511997328
 21
175.0404477523896
 31
0.0
  0
LINE
  5
70
330
1F
100
AcDbEntity
  8
1
  6
DASH_CENTER
 62
     3
100
AcDbLine
 10
431.6505511997328
 20
174.0404477523896
 30
0.0
 11
431.6505511997328
 21
193.0404477523896
 31
0.0
  0
LINE
  5
71
330
1F
100
AcDbEntity
  8
1
  6
Continuous
 62
     3
100
AcDbLine
 10
429.1920511997327
 20
188.102542240091
 30
0.0
 11
428.6505511997328
 21
189.0404477523896
 31
0.0
  0
LINE
  5
72
330
1F
100
AcDbEntity
  8
1
  6
DASHED
 62
     3
100
AcDbLine
 10
429.1920511997327
 20
174.4989477523896
 30
0.0
 11
429.1920511997327
 21
182.5404477523896
 31
0.0
  0
LINE
  5
73
330
1F
100
AcDbEntity
  8
1
  6
DASHED
 62
     3
100
AcDbLine
 10
434.6505511997328
 20
175.0404477523896
 30
0.0
 11
428.6505511997328
 21
175.0404477523896
 31
0.0
  0
LINE
  5
74
330
1F
100
AcDbEntity
  8
1
  6
Continuous
 62
     3
100
AcDbLine
 10
434.1090511997326
 20
188.102542240091
 30
0.0
 11
434.1090511997326
 21
182.5404477523896
 31
0.0
  0
LINE
  5
75
330
1F
100
AcDbEntity
  8
1
  6
Continuous
 62
     3
100
AcDbLine
 10
434.6505511997328
 20
189.0404477523896
 30
0.0
 11
434.1090511997326
 21
188.102542240091
 31
0.0
  0
LINE
  5
76
330
1F
100
AcDbEntity
  8
1
  6
Continuous
 62
     7
100
AcDbLine
 10
434.6505511997328
 20
188.102542240091
 30
0.0
 11
428.6505511997328
 21
188.102542240091
 31
0.0
  0
LINE
  5
77
330
1F
100
AcDbEntity
  8
1
  6
Continuous
 62
     7
100
AcDbLine
 10
434.1505511997328
 20
193.0404477523896
 30
0.0
 11
429.1505511997328
 21
193.0404477523896
 31
0.0
  0
LINE
  5
78
330
1F
100
AcDbEntity
  8
1
  6
Continuous
 62
     7
100
AcDbLine
 10
431.6505511997328
 20
189.0404477523896
 30
0.0
 11
431.6505511997328
 21
192.5938657650044
 31
0.0
  0
LINE
  5
79
330
1F
100
AcDbEntity
  8
1
  6
DASHED
 62
     7
100
AcDbLine
 10
428.6505511997328
 20
175.0404477523896
 30
0.0
 11
428.6505511997328
 21
182.5404477523896
 31
0.0
  0
LINE
  5
7A
330
1F
100
AcDbEntity
  8
1
  6
DASHED
 62
     7
100
AcDbLine
 10
429.6505511997328
 20
174.0404477523896
 30
0.0
 11
428.6505511997328
 21
175.0404477523896
 31
0.0
  0
LINE
  5
7B
330
1F
100
AcDbEntity
  8
1
  6
DASHED
 62
     7
100
AcDbLine
 10
433.6505511997328
 20
174.0404477523896
 30
0.0
 11
429.6505511997328
 21
174.0404477523896
 31
0.0
  0
LINE
  5
7C
330
1F
100
AcDbEntity
  8
1
  6
DASHED
 62
     7
100
AcDbLine
 10
434.6505511997328
 20
175.0404477523896
 30
0.0
 11
433.6505511997328
 21
174.0404477523896
 31
0.0
  0
LINE
  5
7D
330
1F
100
AcDbEntity
  8
1
  6
Continuous
 62
     7
100
AcDbLine
 10
434.6505511997328
 20
189.0404477523896
 30
0.0
 11
434.6505511997328
 21
182.5404477523896
 31
0.0
  0
LINE
  5
7E
330
1F
100
AcDbEntity
  8
1
  6
Continuous
 62
     7
100
AcDbLine
 10
436.6505511997328
 20
189.0404477523896
 30
0.0
 11
436.6505511997328
 21
192.5938657650044
 31
0.0
  0
LINE
  5
7F
330
1F
100
AcDbEntity
  8
1
  6
Continuous
 62
     7
100
AcDbLine
 10
426.6505511997328
 20
189.0404477523896
 30
0.0
 11
436.6505511997328
 21
189.0404477523896
 31
0.0
  0
LINE
  5
80
330
1F
100
AcDbEntity
  8
1
  6
Continuous
 62
     7
100
AcDbLine
 10
426.6505511997328
 20
192.5938657650044
 30
0.0
 11
426.6505511997328
 21
189.0404477523896
 31
0.0
  0
LINE
  5
81
330
1F
100
AcDbEntity
  8
1
  6
DASHED
 62
     4
100
AcDbLine
 10
421.6505511997328
 20
178.5404477523896
 30
0.0
 11
441.6505511997328
 21
178.5404477523896
 31
0.0
  0
LINE
  5
82
330
1F
100
AcDbEntity
  8
1
  6
Continuous
 62
     7
100
AcDbLine
 10
441.6505511997328
 20
182.5404477523896
 30
0.0
 11
421.6505511997328
 21
182.5404477523896
 31
0.0
  0
LINE
  5
83
330
1F
100
AcDbEntity
  8
1
  6
Continuous
 62
     7
100
AcDbLine
 10
421.6505511997326
 20
172.5404477523896
 30
0.0
 11
398.9404729427318
 21
172.5404477523896
 31
0.0
  0
LINE
  5
84
330
1F
100
AcDbEntity
  8
1
  6
Continuous
 62
     7
100
AcDbLine
 10
441.6505511997328
 20
172.5404477523896
 30
0.0
 11
468.0341669685948
 21
172.5404477523896
 31
0.0
  0
LINE
  5
85
330
1F
100
AcDbEntity
  8
1
  6
Continuous
 62
     7
100
AcDbLine
 10
399.626233402991
 20
102.5404477523896
 30
0.0
 11
468.7199274288538
 21
102.5404477523896
 31
0.0
  0
LINE
  5
86
330
1F
100
AcDbEntity
  8
1
  6
Continuous
 62
     7
100
AcDbLine
 10
431.6505511997328
 20
136.7669450604933
 30
0.0
 11
436.6505511997326
 21
139.6536964064414
 31
0.0
  0
LINE
  5
87
330
1F
100
AcDbEntity
  8
1
  6
Continuous
 62
     7
100
AcDbLine
 10
436.6505511997326
 20
139.6536964064414
 30
0.0
 11
436.6505511997326
 21
145.4271990983377
 31
0.0
  0
LINE
  5
88
330
1F
100
AcDbEntity
  8
1
  6
Continuous
 62
     7
100
AcDbLine
 10
436.6505511997326
 20
145.4271990983377
 30
0.0
 11
431.6505511997328
 21
148.3139504442858
 31
0.0
  0
LINE
  5
89
330
1F
100
AcDbEntity
  8
1
  6
Continuous
 62
     7
100
AcDbLine
 10
431.6505511997328
 20
148.3139504442858
 30
0.0
 11
426.6505511997328
 21
145.4271990983377
 31
0.0
  0
LINE
  5
8A
330
1F
100
AcDbEntity
  8
1
  6
Continuous
 62
     7
100
AcDbLine
 10
426.6505511997328
 20
145.4271990983377
 30
0.0
 11
426.6505511997328
 21
139.6536964064414
 31
0.0
  0
LINE
  5
8B
330
1F
100
AcDbEntity
  8
1
  6
Continuous
 62
     7
100
AcDbLine
 10
426.6505511997328
 20
139.6536964064414
 30
0.0
 11
431.6505511997328
 21
136.7669450604933
 31
0.0
  0
LINE
  5
8C
330
1F
100
AcDbEntity
  8
1
  6
DASH_CENTER
 62
     3
100
AcDbLine
 10
431.6505511997328
 20
135.6122445221141
 30
0.0
 11
431.6505511997328
 21
149.4686509826651
 31
0.0
  0
LINE
  5
8D
330
1F
100
AcDbEntity
  8
1
  6
DASH_CENTER
 62
     3
100
AcDbLine
 10
438.5787544300082
 20
142.5404477523896
 30
0.0
 11
424.7223479694573
 21
142.5404477523896
 31
0.0
  0
LINE
  5
8E
330
1F
100
AcDbEntity
  8
1
  6
Continuous
 62
     7
100
AcDbLine
 10
466.173316278749
 20
202.5404477523896
 30
0.0
 11
402.079622252886
 21
202.5404477523896
 31
0.0
  0
LINE
  5
8F
330
1F
100
AcDbEntity
  8
1
  6
DASHED
 62
     4
100
AcDbLine
 10
441.6505511997328
 20
172.5404477523896
 30
0.0
 11
421.6505511997326
 21
172.5404477523896
 31
0.0
  0
LINE
  5
90
330
1F
100
AcDbEntity
  8
1
  6
DASH_CENTER
 62
     3
100
AcDbLine
 10
623.6033295647034
 20
375.6370843413109
 30
0.0
 11
609.7469231041522
 21
375.6370843413109
 31
0.0
  0
LINE
  5
91
330
1F
100
AcDbEntity
  8
1
  6
DASH_CENTER
 62
     3
100
AcDbLine
 10
616.6751263344278
 20
368.7088811110353
 30
0.0
 11
616.6751263344278
 21
382.5652875715864
 31
0.0
  0
LINE
  5
92
330
1F
100
AcDbEntity
  8
1
  6
DASHED
 62
     4
100
AcDbLine
 10
584.1751263344278
 20
366.6370843413109
 30
0.0
 11
649.1751263344278
 21
366.6370843413109
 31
0.0
  0
LINE
  5
93
330
1F
100
AcDbEntity
  8
1
  6
DASHED
 62
     4
100
AcDbLine
 10
649.1751263344278
 20
366.6370843413109
 30
0.0
 11
649.1751263344278
 21
388.6370843413109
 31
0.0
  0
LINE
  5
94
330
1F
100
AcDbEntity
  8
1
  6
DASHED
 62
     4
100
AcDbLine
 10
649.1751263344278
 20
388.6370843413109
 30
0.0
 11
584.1751263344278
 21
388.6370843413109
 31
0.0
  0
LINE
  5
95
330
1F
100
AcDbEntity
  8
1
  6
DASHED
 62
     4
100
AcDbLine
 10
584.1751263344278
 20
388.6370843413109
 30
0.0
 11
584.1751263344278
 21
366.6370843413109
 31
0.0
  0
LINE
  5
96
330
1F
100
AcDbEntity
  8
1
  6
DASHED
 62
     4
100
AcDbLine
 10
614.1751263344278
 20
420.6370843413109
 30
0.0
 11
614.1751263344278
 21
414.967211360233
 31
0.0
  0
LINE
  5
97
330
1F
100
AcDbEntity
  8
1
  6
DASHED
 62
     4
100
AcDbLine
 10
614.6751263344278
 20
420.6370843413109
 30
0.0
 11
614.6751263344278
 21
415.2196600362667
 31
0.0
  0
LINE
  5
98
330
1F
100
AcDbEntity
  8
1
  6
DASHED
 62
     4
100
AcDbLine
 10
619.1751263344278
 20
414.967211360233
 30
0.0
 11
619.1751263344278
 21
420.6370843413109
 31
0.0
  0
LINE
  5
99
330
1F
100
AcDbEntity
  8
1
  6
DASHED
 62
     4
100
AcDbLine
 10
618.6751263344278
 20
420.6370843413109
 30
0.0
 11
618.6751263344278
 21
415.2196600362667
 31
0.0
  0
LINE
  5
9A
330
1F
100
AcDbEntity
  8
1
  6
DASHED
 62
     4
100
AcDbLine
 10
629.1751263344278
 20
390.6370843413109
 30
0.0
 11
604.1751263344278
 21
390.6370843413109
 31
0.0
  0
LINE
  5
9B
330
1F
100
AcDbEntity
  8
1
  6
DASHED
 62
     4
100
AcDbLine
 10
604.1751263344278
 20
394.6370843413109
 30
0.0
 11
629.1751263344278
 21
394.6370843413109
 31
0.0
  0
LINE
  5
9C
330
1F
100
AcDbEntity
  8
1
  6
Continuous
 62
     7
100
AcDbLine
 10
629.1751263344278
 20
394.6370843413109
 30
0.0
 11
662.0320852675026
 21
394.6370843413109
 31
0.0
  0
LINE
  5
9D
330
1F
100
AcDbEntity
  8
1
  6
Continuous
 62
     7
100
AcDbLine
 10
574.4653935166319
 20
394.6370843413109
 30
0.0
 11
604.1751263344278
 21
394.6370843413109
 31
0.0
  0
LINE
  5
9E
330
1F
100
AcDbEntity
  8
1
  6
Continuous
 62
     7
100
AcDbLine
 10
662.0320852675026
 20
426.6370843413108
 30
0.0
 11
573.9119756119698
 21
426.6370843413108
 31
0.0
  0
LINE
  5
9F
330
1F
100
AcDbEntity
  8
1
  6
DASH_CENTER
 62
     3
100
AcDbLine
 10
616.6751263344278
 20
424.1370843413109
 30
0.0
 11
616.6751263344278
 21
403.1370843413109
 31
0.0
  0
LINE
  5
A0
330
1F
100
AcDbEntity
  8
1
  6
DASH_CENTER
 62
     3
100
AcDbLine
 10
609.1751263344278
 20
410.6370843413109
 30
0.0
 11
624.1751263344278
 21
410.6370843413109
 31
0.0
  0
LINE
  5
A1
330
1F
100
AcDbEntity
  8
1
  6
Continuous
 62
     7
100
AcDbLine
 10
571.458586762075
 20
320.6370843413109
 30
0.0
 11
664.5786964176076
 21
320.6370843413109
 31
0.0
  0
LINE
  5
A2
330
1F
100
AcDbEntity
  8
1
  6
Continuous
 62
     7
100
AcDbLine
 10
629.1751263344278
 20
390.6370843413109
 30
0.0
 11
663.8929359573486
 21
390.6370843413109
 31
0.0
  0
LINE
  5
A3
330
1F
100
AcDbEntity
  8
1
  6
Continuous
 62
     7
100
AcDbLine
 10
604.1751263344278
 20
390.6370843413109
 30
0.0
 11
570.7728263018156
 21
390.6370843413109
 31
0.0
  0
LINE
  5
A4
330
1F
100
AcDbEntity
  8
1
  6
Continuous
 62
     7
100
AcDbLine
 10
604.1751263344278
 20
415.6370843413108
 30
0.0
 11
604.1751263344278
 21
364.6370843413109
 31
0.0
  0
LINE
  5
A5
330
1F
100
AcDbEntity
  8
1
  6
Continuous
 62
     7
100
AcDbLine
 10
629.1751263344278
 20
364.6370843413109
 30
0.0
 11
629.1751263344278
 21
415.6370843413108
 31
0.0
  0
LINE
  5
A6
330
1F
100
AcDbEntity
  8
1
  6
Continuous
 62
     7
100
AcDbLine
 10
605.1751263344278
 20
363.6370843413109
 30
0.0
 11
612.1751263344278
 21
363.6370843413109
 31
0.0
  0
LINE
  5
A7
330
1F
100
AcDbEntity
  8
1
  6
Continuous
 62
     7
100
AcDbLine
 10
609.1751263344278
 20
420.6370843413108
 30
0.0
 11
624.1751263344278
 21
420.6370843413108
 31
0.0
  0
LINE
  5
A8
330
1F
100
AcDbEntity
  8
1
  6
Continuous
 62
     7
100
AcDbLine
 10
621.1751263344278
 20
363.6370843413109
 30
0.0
 11
628.1751263344278
 21
363.6370843413109
 31
0.0
  0
LINE
  5
A9
330
1F
100
AcDbEntity
  8
1
  6
Continuous
 62
     7
100
AcDbLine
 10
613.1751263344278
 20
364.6370843413109
 30
0.0
 11
613.1751263344278
 21
371.8843075915783
 31
0.0
  0
LINE
  5
AA
330
1F
100
AcDbEntity
  8
1
  6
Continuous
 62
     7
100
AcDbLine
 10
620.1751263344278
 20
364.6370843413109
 30
0.0
 11
620.1751263344278
 21
371.8843075915783
 31
0.0
  0
LINE
  5
AB
330
1F
100
AcDbEntity
  8
1
  6
Continuous
 62
     7
100
AcDbLine
 10
613.1751263344278
 20
371.8843075915783
 30
0.0
 11
613.1751263344278
 21
375.6370843413109
 31
0.0
  0
LINE
  5
AC
330
1F
100
AcDbEntity
  8
1
  6
Continuous
 62
     7
100
AcDbLine
 10
620.1751263344278
 20
375.6370843413109
 30
0.0
 11
620.1751263344278
 21
372.0663701270395
 31
0.0
  0
LINE
  5
AD
330
1F
100
AcDbEntity
  8
1
  6
Continuous
 62
     3
100
AcDbLine
 10
588.4016236425315
 20
375.6370843413109
 30
0.0
 11
591.2883749884796
 21
370.6370843413109
 31
0.0
  0
LINE
  5
AE
330
1F
100
AcDbEntity
  8
1
  6
Continuous
 62
     3
100
AcDbLine
 10
591.2883749884796
 20
370.6370843413109
 30
0.0
 11
597.0618776803759
 21
370.6370843413109
 31
0.0
  0
LINE
  5
AF
330
1F
100
AcDbEntity
  8
1
  6
Continuous
 62
     3
100
AcDbLine
 10
597.0618776803759
 20
370.6370843413109
 30
0.0
 11
599.9486290263241
 21
375.6370843413109
 31
0.0
  0
LINE
  5
B0
330
1F
100
AcDbEntity
  8
1
  6
Continuous
 62
     3
100
AcDbLine
 10
599.9486290263241
 20
375.6370843413109
 30
0.0
 11
597.0618776803759
 21
380.6370843413109
 31
0.0
  0
LINE
  5
B1
330
1F
100
AcDbEntity
  8
1
  6
Continuous
 62
     3
100
AcDbLine
 10
597.0618776803759
 20
380.6370843413109
 30
0.0
 11
591.2883749884796
 21
380.6370843413109
 31
0.0
  0
LINE
  5
B2
330
1F
100
AcDbEntity
  8
1
  6
Continuous
 62
     3
100
AcDbLine
 10
591.2883749884796
 20
380.6370843413109
 30
0.0
 11
588.4016236425315
 21
375.6370843413109
 31
0.0
  0
LINE
  5
B3
330
1F
100
AcDbEntity
  8
1
  6
DASH_CENTER
 62
     3
100
AcDbLine
 10
587.2469231041524
 20
375.6370843413109
 30
0.0
 11
601.1033295647034
 21
375.6370843413109
 31
0.0
  0
LINE
  5
B4
330
1F
100
AcDbEntity
  8
1
  6
DASH_CENTER
 62
     3
100
AcDbLine
 10
594.1751263344278
 20
368.7088811110353
 30
0.0
 11
594.1751263344278
 21
382.5652875715864
 31
0.0
  0
LINE
  5
B5
330
1F
100
AcDbEntity
  8
1
  6
Continuous
 62
     3
100
AcDbLine
 10
633.4016236425315
 20
375.6370843413109
 30
0.0
 11
636.2883749884796
 21
370.6370843413109
 31
0.0
  0
LINE
  5
B6
330
1F
100
AcDbEntity
  8
1
  6
Continuous
 62
     3
100
AcDbLine
 10
636.2883749884796
 20
370.6370843413109
 30
0.0
 11
642.0618776803759
 21
370.6370843413109
 31
0.0
  0
LINE
  5
B7
330
1F
100
AcDbEntity
  8
1
  6
Continuous
 62
     3
100
AcDbLine
 10
642.0618776803759
 20
370.6370843413109
 30
0.0
 11
644.9486290263241
 21
375.6370843413109
 31
0.0
  0
LINE
  5
B8
330
1F
100
AcDbEntity
  8
1
  6
Continuous
 62
     3
100
AcDbLine
 10
644.9486290263241
 20
375.6370843413109
 30
0.0
 11
642.0618776803759
 21
380.6370843413109
 31
0.0
  0
LINE
  5
B9
330
1F
100
AcDbEntity
  8
1
  6
Continuous
 62
     3
100
AcDbLine
 10
642.0618776803759
 20
380.6370843413109
 30
0.0
 11
636.2883749884796
 21
380.6370843413109
 31
0.0
  0
LINE
  5
BA
330
1F
100
AcDbEntity
  8
1
  6
Continuous
 62
     3
100
AcDbLine
 10
636.2883749884796
 20
380.6370843413109
 30
0.0
 11
633.4016236425315
 21
375.6370843413109
 31
0.0
  0
LINE
  5
BB
330
1F
100
AcDbEntity
  8
1
  6
DASH_CENTER
 62
     3
100
AcDbLine
 10
632.2469231041524
 20
375.6370843413109
 30
0.0
 11
646.1033295647034
 21
375.6370843413109
 31
0.0
  0
LINE
  5
BC
330
1F
100
AcDbEntity
  8
1
  6
DASH_CENTER
 62
     3
100
AcDbLine
 10
639.1751263344278
 20
368.7088811110353
 30
0.0
 11
639.1751263344278
 21
382.5652875715864
 31
0.0
  0
LINE
  5
BD
330
1F
100
AcDbEntity
  8
1
  6
Continuous
 62
     7
100
AcDbLine
 10
226.4132668145799
 20
425.4936763494889
 30
0.0
 11
254.4132668145801
 21
425.4936763494889
 31
0.0
  0
LINE
  5
BE
330
1F
100
AcDbEntity
  8
1
  6
Continuous
 62
     7
100
AcDbLine
 10
222.4132668145799
 20
353.4936763494889
 30
0.0
 11
258.4132668145801
 21
353.4936763494889
 31
0.0
  0
LINE
  5
BF
330
1F
100
AcDbEntity
  8
1
  6
Continuous
 62
     7
100
AcDbLine
 10
259.4132668145801
 20
354.4936763494889
 30
0.0
 11
259.4132668145801
 21
420.4936763494889
 31
0.0
  0
LINE
  5
C0
330
1F
100
AcDbEntity
  8
1
  6
Continuous
 62
     7
100
AcDbLine
 10
221.4132668145799
 20
420.4936763494889
 30
0.0
 11
221.4132668145799
 21
354.4936763494889
 31
0.0
  0
LINE
  5
C1
330
1F
100
AcDbEntity
  8
1
  6
Continuous
 62
     7
100
AcDbLine
 10
221.4132668145799
 20
395.493676349489
 30
0.0
 11
206.0912135593055
 21
395.493676349489
 31
0.0
  0
LINE
  5
C2
330
1F
100
AcDbEntity
  8
1
  6
Continuous
 62
     7
100
AcDbLine
 10
259.4132668145801
 20
395.493676349489
 30
0.0
 11
287.631076437501
 21
395.493676349489
 31
0.0
  0
LINE
  5
C3
330
1F
100
AcDbEntity
  8
1
  6
Continuous
 62
     7
100
AcDbLine
 10
206.7769740195647
 20
325.4936763494889
 30
0.0
 11
288.31683689776
 21
325.4936763494889
 31
0.0
  0
LINE
  5
C4
330
1F
100
AcDbEntity
  8
1
  6
Continuous
 62
     7
100
AcDbLine
 10
227.9132668145801
 20
359.7201736575926
 30
0.0
 11
232.9132668145801
 21
362.6069250035407
 31
0.0
  0
LINE
  5
C5
330
1F
100
AcDbEntity
  8
1
  6
Continuous
 62
     7
100
AcDbLine
 10
232.9132668145801
 20
362.6069250035407
 30
0.0
 11
232.9132668145801
 21
368.380427695437
 31
0.0
  0
LINE
  5
C6
330
1F
100
AcDbEntity
  8
1
  6
Continuous
 62
     7
100
AcDbLine
 10
232.9132668145801
 20
368.380427695437
 30
0.0
 11
227.9132668145801
 21
371.2671790413851
 31
0.0
  0
LINE
  5
C7
330
1F
100
AcDbEntity
  8
1
  6
Continuous
 62
     7
100
AcDbLine
 10
227.9132668145801
 20
371.2671790413851
 30
0.0
 11
222.9132668145801
 21
368.380427695437
 31
0.0
  0
LINE
  5
C8
330
1F
100
AcDbEntity
  8
1
  6
Continuous
 62
     7
100
AcDbLine
 10
222.9132668145801
 20
368.380427695437
 30
0.0
 11
222.9132668145801
 21
362.6069250035407
 31
0.0
  0
LINE
  5
C9
330
1F
100
AcDbEntity
  8
1
  6
Continuous
 62
     7
100
AcDbLine
 10
222.9132668145801
 20
362.6069250035407
 30
0.0
 11
227.9132668145801
 21
359.7201736575926
 31
0.0
  0
LINE
  5
CA
330
1F
100
AcDbEntity
  8
1
  6
DASH_CENTER
 62
     3
100
AcDbLine
 10
227.9132668145801
 20
358.5654731192134
 30
0.0
 11
227.9132668145801
 21
372.4218795797644
 31
0.0
  0
LINE
  5
CB
330
1F
100
AcDbEntity
  8
1
  6
DASH_CENTER
 62
     3
100
AcDbLine
 10
234.8414700448557
 20
365.4936763494889
 30
0.0
 11
220.9850635843046
 21
365.4936763494889
 31
0.0
  0
LINE
  5
CC
330
1F
100
AcDbEntity
  8
1
  6
Continuous
 62
     7
100
AcDbLine
 10
252.9132668145801
 20
359.7201736575926
 30
0.0
 11
257.9132668145801
 21
362.6069250035407
 31
0.0
  0
LINE
  5
CD
330
1F
100
AcDbEntity
  8
1
  6
Continuous
 62
     7
100
AcDbLine
 10
257.9132668145801
 20
362.6069250035407
 30
0.0
 11
257.9132668145801
 21
368.380427695437
 31
0.0
  0
LINE
  5
CE
330
1F
100
AcDbEntity
  8
1
  6
Continuous
 62
     7
100
AcDbLine
 10
257.9132668145801
 20
368.380427695437
 30
0.0
 11
252.9132668145801
 21
371.2671790413851
 31
0.0
  0
LINE
  5
CF
330
1F
100
AcDbEntity
  8
1
  6
Continuous
 62
     7
100
AcDbLine
 10
252.9132668145801
 20
371.2671790413851
 30
0.0
 11
247.9132668145801
 21
368.380427695437
 31
0.0
  0
LINE
  5
D0
330
1F
100
AcDbEntity
  8
1
  6
Continuous
 62
     7
100
AcDbLine
 10
247.9132668145801
 20
368.380427695437
 30
0.0
 11
247.9132668145801
 21
362.6069250035407
 31
0.0
  0
LINE
  5
D1
330
1F
100
AcDbEntity
  8
1
  6
Continuous
 62
     7
100
AcDbLine
 10
247.9132668145801
 20
362.6069250035407
 30
0.0
 11
252.9132668145801
 21
359.7201736575926
 31
0.0
  0
LINE
  5
D2
330
1F
100
AcDbEntity
  8
1
  6
DASH_CENTER
 62
     3
100
AcDbLine
 10
252.9132668145801
 20
358.5654731192134
 30
0.0
 11
252.9132668145801
 21
372.4218795797644
 31
0.0
  0
LINE
  5
D3
330
1F
100
AcDbEntity
  8
1
  6
DASH_CENTER
 62
     3
100
AcDbLine
 10
259.8414700448557
 20
365.4936763494889
 30
0.0
 11
245.9850635843046
 21
365.4936763494889
 31
0.0
  0
LINE
  5
D4
330
1F
100
AcDbEntity
  8
1
  6
DASH_CENTER
 62
     3
100
AcDbLine
 10
232.9132668145801
 20
415.493676349489
 30
0.0
 11
247.9132668145801
 21
415.493676349489
 31
0.0
  0
LINE
  5
D5
330
1F
100
AcDbEntity
  8
1
  6
DASH_CENTER
 62
     3
100
AcDbLine
 10
240.4132668145801
 20
428.993676349489
 30
0.0
 11
240.4132668145801
 21
407.993676349489
 31
0.0
  0
LINE
  5
D6
330
1F
100
AcDbEntity
  8
1
  6
Continuous
 62
     7
100
AcDbLine
 10
285.7702257476549
 20
431.4936763494889
 30
0.0
 11
209.2303628694597
 21
431.4936763494889
 31
0.0
  0
LINE
  5
D7
330
1F
100
AcDbEntity
  8
1
  6
Continuous
 62
     7
100
AcDbLine
 10
209.7837807741219
 20
399.493676349489
 30
0.0
 11
221.4132668145799
 21
399.493676349489
 31
0.0
  0
LINE
  5
D8
330
1F
100
AcDbEntity
  8
1
  6
Continuous
 62
     7
100
AcDbLine
 10
259.4132668145801
 20
399.493676349489
 30
0.0
 11
285.7702257476549
 21
399.493676349489
 31
0.0
  0
LINE
  5
D9
330
1F
100
AcDbEntity
  8
1
  6
DASHED
 62
     4
100
AcDbLine
 10
221.4132668145799
 20
399.493676349489
 30
0.0
 11
259.4132668145801
 21
399.493676349489
 31
0.0
  0
LINE
  5
DA
330
1F
100
AcDbEntity
  8
1
  6
DASHED
 62
     4
100
AcDbLine
 10
259.4132668145801
 20
395.493676349489
 30
0.0
 11
221.4132668145799
 21
395.493676349489
 31
0.0
  0
LINE
  5
DB
330
1F
100
AcDbEntity
  8
1
  6
DASHED
 62
     4
100
AcDbLine
 10
242.4132668145801
 20
425.493676349489
 30
0.0
 11
242.4132668145801
 21
420.0762520444447
 31
0.0
  0
LINE
  5
DC
330
1F
100
AcDbEntity
  8
1
  6
DASHED
 62
     4
100
AcDbLine
 10
242.9132668145801
 20
419.8238033684111
 30
0.0
 11
242.9132668145801
 21
425.493676349489
 31
0.0
  0
LINE
  5
DD
330
1F
100
AcDbEntity
  8
1
  6
DASHED
 62
     4
100
AcDbLine
 10
238.4132668145801
 20
425.493676349489
 30
0.0
 11
238.4132668145801
 21
420.0762520444447
 31
0.0
  0
LINE
  5
DE
330
1F
100
AcDbEntity
  8
1
  6
DASHED
 62
     4
100
AcDbLine
 10
237.9132668145801
 20
425.493676349489
 30
0.0
 11
237.9132668145801
 21
419.8238033684111
 31
0.0
  0
LINE
  5
DF
330
1F
100
AcDbEntity
  8
1
  6
Continuous
 62
     7
100
AcDbLine
 10
67.64833518572711
 20
393.493676349489
 30
0.0
 11
129.6128012797944
 21
393.493676349489
 31
0.0
  0
LINE
  5
E0
330
1F
100
AcDbEntity
  8
1
  6
Continuous
 62
     3
100
AcDbLine
 10
107.6128012797944
 20
396.993676349489
 30
0.0
 11
67.5932021466905
 21
396.993676349489
 31
0.0
  0
LINE
  5
E1
330
1F
100
AcDbEntity
  8
1
  6
Continuous
 62
     3
100
AcDbLine
 10
107.6128012797944
 20
395.493676349489
 30
0.0
 11
107.6128012797944
 21
396.993676349489
 31
0.0
  0
LINE
  5
E2
330
1F
100
AcDbEntity
  8
1
  6
Continuous
 62
     7
100
AcDbLine
 10
130.6128012797944
 20
395.493676349489
 30
0.0
 11
67.5932021466905
 21
395.493676349489
 31
0.0
  0
LINE
  5
E3
330
1F
100
AcDbEntity
  8
1
  6
Continuous
 62
     7
100
AcDbLine
 10
132.6128012797944
 20
325.4936763494889
 30
0.0
 11
132.6128012797944
 21
393.493676349489
 31
0.0
  0
LINE
  5
E4
330
1F
100
AcDbEntity
  8
1
  6
Continuous
 62
     7
100
AcDbLine
 10
130.6128012797944
 20
392.493676349489
 30
0.0
 11
130.6128012797944
 21
325.4936763494889
 31
0.0
  0
LINE
  5
E5
330
1F
100
AcDbEntity
  8
1
  6
Continuous
 62
     7
100
AcDbLine
 10
132.6128012797944
 20
325.4936763494889
 30
0.0
 11
130.6128012797944
 21
325.4936763494889
 31
0.0
  0
LINE
  5
E6
330
1F
100
AcDbEntity
  8
1
  6
Continuous
 62
     7
100
AcDbLine
 10
132.6128012797944
 20
353.4936763494889
 30
0.0
 11
141.6128012797944
 21
353.493676349489
 31
0.0
  0
LINE
  5
E7
330
1F
100
AcDbEntity
  8
1
  6
Continuous
 62
     7
100
AcDbLine
 10
141.6128012797944
 20
425.493676349489
 30
0.0
 11
141.6128012797944
 21
353.493676349489
 31
0.0
  0
LINE
  5
E8
330
1F
100
AcDbEntity
  8
1
  6
Continuous
 62
     7
100
AcDbLine
 10
143.1128012797944
 20
371.5936763494889
 30
0.0
 11
143.1128012797944
 21
359.3936763494889
 31
0.0
  0
LINE
  5
E9
330
1F
100
AcDbEntity
  8
1
  6
Continuous
 62
     7
100
AcDbLine
 10
141.6128012797944
 20
371.5936763494889
 30
0.0
 11
143.1128012797944
 21
371.5936763494889
 31
0.0
  0
LINE
  5
EA
330
1F
100
AcDbEntity
  8
1
  6
Continuous
 62
     7
100
AcDbLine
 10
141.6128012797944
 20
359.3936763494889
 30
0.0
 11
141.6128012797944
 21
371.5936763494889
 31
0.0
  0
LINE
  5
EB
330
1F
100
AcDbEntity
  8
1
  6
Continuous
 62
     7
100
AcDbLine
 10
143.1128012797944
 20
359.3936763494889
 30
0.0
 11
141.6128012797944
 21
359.3936763494889
 31
0.0
  0
LINE
  5
EC
330
1F
100
AcDbEntity
  8
1
  6
Continuous
 62
     7
100
AcDbLine
 10
143.1128012797944
 20
371.2671790413851
 30
0.0
 11
146.6662192924091
 21
371.2671790413851
 31
0.0
  0
LINE
  5
ED
330
1F
100
AcDbEntity
  8
1
  6
Continuous
 62
     7
100
AcDbLine
 10
143.1128012797944
 20
359.7201736575926
 30
0.0
 11
143.1128012797944
 21
371.2671790413851
 31
0.0
  0
LINE
  5
EE
330
1F
100
AcDbEntity
  8
1
  6
Continuous
 62
     7
100
AcDbLine
 10
146.6662192924091
 20
359.7201736575926
 30
0.0
 11
143.1128012797944
 21
359.7201736575926
 31
0.0
  0
LINE
  5
EF
330
1F
100
AcDbEntity
  8
1
  6
Continuous
 62
     7
100
AcDbLine
 10
146.6662192924091
 20
368.380427695437
 30
0.0
 11
143.1128012797944
 21
368.380427695437
 31
0.0
  0
LINE
  5
F0
330
1F
100
AcDbEntity
  8
1
  6
Continuous
 62
     7
100
AcDbLine
 10
146.6662192924091
 20
362.6069250035407
 30
0.0
 11
143.1128012797944
 21
362.6069250035407
 31
0.0
  0
LINE
  5
F1
330
1F
100
AcDbEntity
  8
1
  6
Continuous
 62
     7
100
AcDbLine
 10
147.1128012797944
 20
369.8238033684111
 30
0.0
 11
147.1128012797944
 21
361.1635493305667
 31
0.0
  0
LINE
  5
F2
330
1F
100
AcDbEntity
  8
1
  6
DASH_CENTER
 62
     3
100
AcDbLine
 10
147.1128012797944
 20
365.493676349489
 30
0.0
 11
121.6128012797944
 21
365.493676349489
 31
0.0
  0
LINE
  5
F3
330
1F
100
AcDbEntity
  8
1
  6
Continuous
 62
     7
100
AcDbLine
 10
132.6128012797944
 20
425.493676349489
 30
0.0
 11
132.6128012797944
 21
392.993676349489
 31
0.0
  0
LINE
  5
F4
330
1F
100
AcDbEntity
  8
1
  6
Continuous
 62
     7
100
AcDbLine
 10
132.6128012797944
 20
425.493676349489
 30
0.0
 11
141.6128012797944
 21
425.493676349489
 31
0.0
  0
LINE
  5
F5
330
1F
100
AcDbEntity
  8
1
  6
DASH_CENTER
 62
     3
100
AcDbLine
 10
137.1128012797944
 20
418.1359624255363
 30
0.0
 11
137.1128012797944
 21
428.1359624255363
 31
0.0
  0
LINE
  5
F6
330
1F
100
AcDbEntity
  8
1
  6
Continuous
 62
     7
100
AcDbLine
 10
161.6128012797944
 20
417.493676349489
 30
0.0
 11
161.6128012797944
 21
413.493676349489
 31
0.0
  0
LINE
  5
F7
330
1F
100
AcDbEntity
  8
1
  6
Continuous
 62
     7
100
AcDbLine
 10
158.6128012797944
 20
410.493676349489
 30
0.0
 11
141.6128012797944
 21
410.493676349489
 31
0.0
  0
LINE
  5
F8
330
1F
100
AcDbEntity
  8
1
  6
Continuous
 62
     7
100
AcDbLine
 10
158.6128012797944
 20
420.493676349489
 30
0.0
 11
141.6128012797944
 21
420.493676349489
 31
0.0
  0
LINE
  5
F9
330
1F
100
AcDbEntity
  8
1
  6
DASH_CENTER
 62
     3
100
AcDbLine
 10
163.3454446186481
 20
415.493676349489
 30
0.0
 11
104.2187273571271
 21
415.493676349489
 31
0.0
  0
LINE
  5
FA
330
1F
100
AcDbEntity
  8
1
  6
Continuous
 62
     7
100
AcDbLine
 10
132.6128012797944
 20
420.493676349489
 30
0.0
 11
111.6128012797944
 21
420.493676349489
 31
0.0
  0
LINE
  5
FB
330
1F
100
AcDbEntity
  8
1
  6
Continuous
 62
     7
100
AcDbLine
 10
132.6128012797944
 20
410.493676349489
 30
0.0
 11
111.6128012797944
 21
410.493676349489
 31
0.0
  0
LINE
  5
FC
330
1F
100
AcDbEntity
  8
1
  6
Continuous
 62
     7
100
AcDbLine
 10
111.6128012797944
 20
431.493676349489
 30
0.0
 11
107.6128012797944
 21
431.493676349489
 31
0.0
  0
LINE
  5
FD
330
1F
100
AcDbEntity
  8
1
  6
Continuous
 62
     7
100
AcDbLine
 10
107.6128012797944
 20
399.493676349489
 30
0.0
 11
111.6128012797944
 21
399.493676349489
 31
0.0
  0
LINE
  5
FE
330
1F
100
AcDbEntity
  8
1
  6
Continuous
 62
     7
100
AcDbLine
 10
111.6128012797944
 20
431.493676349489
 30
0.0
 11
111.6128012797944
 21
399.493676349489
 31
0.0
  0
LINE
  5
FF
330
1F
100
AcDbEntity
  8
1
  6
Continuous
 62
     7
100
AcDbLine
 10
107.6128012797944
 20
399.493676349489
 30
0.0
 11
107.6128012797944
 21
431.493676349489
 31
0.0
  0
LINE
  5
100
330
1F
100
AcDbEntity
  8
1
  6
Continuous
 62
     7
100
AcDbLine
 10
129.1128012797944
 20
359.3936763494889
 30
0.0
 11
129.1128012797944
 21
371.5936763494889
 31
0.0
  0
LINE
  5
101
330
1F
100
AcDbEntity
  8
1
  6
Continuous
 62
     7
100
AcDbLine
 10
129.1128012797944
 20
371.5936763494889
 30
0.0
 11
130.6128012797944
 21
371.5936763494889
 31
0.0
  0
LINE
  5
102
330
1F
100
AcDbEntity
  8
1
  6
Continuous
 62
     7
100
AcDbLine
 10
130.6128012797944
 20
371.5936763494889
 30
0.0
 11
130.6128012797944
 21
359.3936763494889
 31
0.0
  0
LINE
  5
103
330
1F
100
AcDbEntity
  8
1
  6
Continuous
 62
     7
100
AcDbLine
 10
130.6128012797944
 20
359.3936763494889
 30
0.0
 11
129.1128012797944
 21
359.3936763494889
 31
0.0
  0
LINE
  5
104
330
1F
100
AcDbEntity
  8
1
  6
Continuous
 62
     7
100
AcDbLine
 10
129.1128012797944
 20
359.7201736575926
 30
0.0
 11
124.5593832671796
 21
359.7201736575926
 31
0.0
  0
LINE
  5
105
330
1F
100
AcDbEntity
  8
1
  6
Continuous
 62
     7
100
AcDbLine
 10
129.1128012797944
 20
371.2671790413851
 30
0.0
 11
129.1128012797944
 21
359.7201736575926
 31
0.0
  0
LINE
  5
106
330
1F
100
AcDbEntity
  8
1
  6
Continuous
 62
     7
100
AcDbLine
 10
124.5593832671796
 20
371.2671790413851
 30
0.0
 11
129.1128012797944
 21
371.2671790413851
 31
0.0
  0
LINE
  5
107
330
1F
100
AcDbEntity
  8
1
  6
Continuous
 62
     7
100
AcDbLine
 10
124.5593832671796
 20
362.6069250035407
 30
0.0
 11
129.1128012797944
 21
362.6069250035407
 31
0.0
  0
LINE
  5
108
330
1F
100
AcDbEntity
  8
1
  6
Continuous
 62
     7
100
AcDbLine
 10
124.5593832671796
 20
368.380427695437
 30
0.0
 11
129.1128012797944
 21
368.380427695437
 31
0.0
  0
LINE
  5
109
330
1F
100
AcDbEntity
  8
1
  6
Continuous
 62
     7
100
AcDbLine
 10
124.1128012797944
 20
361.1635493305667
 30
0.0
 11
124.1128012797944
 21
369.8238033684111
 31
0.0
  0
LINE
  5
10A
330
1F
100
AcDbEntity
  8
1
  6
Continuous
 62
     3
100
AcDbLine
 10
158.3436660099837
 20
419.0197687254353
 30
0.0
 11
158.3436660099837
 21
412.3819650905473
 31
0.0
  0
LINE
  5
10B
330
1F
100
AcDbEntity
  8
1
  6
Continuous
 62
     7
100
AcDbLine
 10
468.6620610944592
 20
373.2370843413109
 30
0.0
 11
462.6620610944592
 21
373.2370843413109
 31
0.0
  0
LINE
  5
10C
330
1F
100
AcDbEntity
  8
1
  6
Continuous
 62
     3
100
AcDbLine
 10
468.6620610944592
 20
372.637084341311
 30
0.0
 11
462.6620610944592
 21
372.637084341311
 31
0.0
  0
LINE
  5
10D
330
1F
100
AcDbEntity
  8
1
  6
Continuous
 62
     3
100
AcDbLine
 10
462.6620610944592
 20
378.637084341311
 30
0.0
 11
468.6620610944592
 21
378.637084341311
 31
0.0
  0
LINE
  5
10E
330
1F
100
AcDbEntity
  8
1
  6
Continuous
 62
     7
100
AcDbLine
 10
462.6620610944592
 20
378.0370843413108
 30
0.0
 11
468.6620610944592
 21
378.0370843413108
 31
0.0
  0
LINE
  5
10F
330
1F
100
AcDbEntity
  8
1
  6
Continuous
 62
     7
100
AcDbLine
 10
462.6620610944592
 20
366.6370843413109
 30
0.0
 11
468.6620610944592
 21
366.6370843413109
 31
0.0
  0
LINE
  5
110
330
1F
100
AcDbEntity
  8
1
  6
Continuous
 62
     7
100
AcDbLine
 10
462.6620610944592
 20
388.637084341311
 30
0.0
 11
462.6620610944592
 21
366.6370843413109
 31
0.0
  0
LINE
  5
111
330
1F
100
AcDbEntity
  8
1
  6
Continuous
 62
     7
100
AcDbLine
 10
465.6620610944592
 20
388.637084341311
 30
0.0
 11
468.6620610944592
 21
385.637084341311
 31
0.0
  0
LINE
  5
112
330
1F
100
AcDbEntity
  8
1
  6
Continuous
 62
     7
100
AcDbLine
 10
405.6975950003919
 20
388.637084341311
 30
0.0
 11
467.6620610944592
 21
388.637084341311
 31
0.0
  0
LINE
  5
113
330
1F
100
AcDbEntity
  8
1
  6
Continuous
 62
     3
100
AcDbLine
 10
445.6620610944592
 20
392.137084341311
 30
0.0
 11
405.6975950003919
 21
392.137084341311
 31
0.0
  0
LINE
  5
114
330
1F
100
AcDbEntity
  8
1
  6
Continuous
 62
     3
100
AcDbLine
 10
445.6620610944592
 20
390.637084341311
 30
0.0
 11
445.6620610944592
 21
392.137084341311
 31
0.0
  0
LINE
  5
115
330
1F
100
AcDbEntity
  8
1
  6
Continuous
 62
     7
100
AcDbLine
 10
468.6620610944592
 20
390.637084341311
 30
0.0
 11
405.6424619613554
 21
390.637084341311
 31
0.0
  0
LINE
  5
116
330
1F
100
AcDbEntity
  8
1
  6
Continuous
 62
     7
100
AcDbLine
 10
470.6620610944592
 20
320.6370843413109
 30
0.0
 11
470.6620610944592
 21
388.637084341311
 31
0.0
  0
LINE
  5
117
330
1F
100
AcDbEntity
  8
1
  6
Continuous
 62
     7
100
AcDbLine
 10
468.6620610944592
 20
387.637084341311
 30
0.0
 11
468.6620610944592
 21
320.6370843413109
 31
0.0
  0
LINE
  5
118
330
1F
100
AcDbEntity
  8
1
  6
Continuous
 62
     7
100
AcDbLine
 10
470.6620610944592
 20
320.6370843413109
 30
0.0
 11
468.6620610944592
 21
320.6370843413109
 31
0.0
  0
LINE
  5
119
330
1F
100
AcDbEntity
  8
1
  6
Continuous
 62
     7
100
AcDbLine
 10
470.6620610944592
 20
363.6370843413109
 30
0.0
 11
479.6620610944592
 21
363.6370843413109
 31
0.0
  0
LINE
  5
11A
330
1F
100
AcDbEntity
  8
1
  6
Continuous
 62
     7
100
AcDbLine
 10
479.6620610944592
 20
420.637084341311
 30
0.0
 11
479.6620610944592
 21
363.6370843413109
 31
0.0
  0
LINE
  5
11B
330
1F
100
AcDbEntity
  8
1
  6
DASH_CENTER
 62
     3
100
AcDbLine
 10
502.815295009937
 20
375.637084341311
 30
0.0
 11
459.6620610944592
 21
375.637084341311
 31
0.0
  0
LINE
  5
11C
330
1F
100
AcDbEntity
  8
1
  6
Continuous
 62
     7
100
AcDbLine
 10
470.6620610944592
 20
420.637084341311
 30
0.0
 11
470.6620610944592
 21
388.137084341311
 31
0.0
  0
LINE
  5
11D
330
1F
100
AcDbEntity
  8
1
  6
Continuous
 62
     7
100
AcDbLine
 10
470.6620610944592
 20
420.637084341311
 30
0.0
 11
479.6620610944592
 21
420.637084341311
 31
0.0
  0
LINE
  5
11E
330
1F
100
AcDbEntity
  8
1
  6
DASH_CENTER
 62
     3
100
AcDbLine
 10
475.1620610944592
 20
413.2793704173583
 30
0.0
 11
475.1620610944592
 21
423.2793704173583
 31
0.0
  0
LINE
  5
11F
330
1F
100
AcDbEntity
  8
1
  6
Continuous
 62
     7
100
AcDbLine
 10
499.6620610944592
 20
412.637084341311
 30
0.0
 11
499.6620610944592
 21
408.637084341311
 31
0.0
  0
LINE
  5
120
330
1F
100
AcDbEntity
  8
1
  6
Continuous
 62
     7
100
AcDbLine
 10
496.6620610944592
 20
405.637084341311
 30
0.0
 11
479.6620610944592
 21
405.637084341311
 31
0.0
  0
LINE
  5
121
330
1F
100
AcDbEntity
  8
1
  6
Continuous
 62
     7
100
AcDbLine
 10
496.6620610944592
 20
415.637084341311
 30
0.0
 11
479.6620610944592
 21
415.637084341311
 31
0.0
  0
LINE
  5
122
330
1F
100
AcDbEntity
  8
1
  6
DASH_CENTER
 62
     3
100
AcDbLine
 10
501.3947044333129
 20
410.637084341311
 30
0.0
 11
442.2679871717919
 21
410.637084341311
 31
0.0
  0
LINE
  5
123
330
1F
100
AcDbEntity
  8
1
  6
Continuous
 62
     7
100
AcDbLine
 10
470.6620610944592
 20
415.637084341311
 30
0.0
 11
449.6620610944592
 21
415.637084341311
 31
0.0
  0
LINE
  5
124
330
1F
100
AcDbEntity
  8
1
  6
Continuous
 62
     7
100
AcDbLine
 10
470.6620610944592
 20
405.637084341311
 30
0.0
 11
449.6620610944592
 21
405.637084341311
 31
0.0
  0
LINE
  5
125
330
1F
100
AcDbEntity
  8
1
  6
Continuous
 62
     7
100
AcDbLine
 10
449.6620610944592
 20
426.637084341311
 30
0.0
 11
445.6620610944592
 21
426.637084341311
 31
0.0
  0
LINE
  5
126
330
1F
100
AcDbEntity
  8
1
  6
Continuous
 62
     7
100
AcDbLine
 10
445.6620610944592
 20
394.637084341311
 30
0.0
 11
449.6620610944592
 21
394.637084341311
 31
0.0
  0
LINE
  5
127
330
1F
100
AcDbEntity
  8
1
  6
Continuous
 62
     7
100
AcDbLine
 10
449.6620610944592
 20
426.637084341311
 30
0.0
 11
449.6620610944592
 21
394.637084341311
 31
0.0
  0
LINE
  5
128
330
1F
100
AcDbEntity
  8
1
  6
Continuous
 62
     7
100
AcDbLine
 10
445.6620610944592
 20
394.637084341311
 30
0.0
 11
445.6620610944592
 21
426.637084341311
 31
0.0
  0
LINE
  5
129
330
1F
100
AcDbEntity
  8
1
  6
Continuous
 62
     7
100
AcDbLine
 10
470.6620610944592
 20
363.6370843413109
 30
0.0
 11
470.6620610944592
 21
388.137084341311
 31
0.0
  0
LINE
  5
12A
330
1F
100
AcDbEntity
  8
1
  6
Continuous
 62
     3
100
AcDbLine
 10
496.3929258246485
 20
414.1631767172573
 30
0.0
 11
496.3929258246485
 21
407.5253730823692
 31
0.0
  0
LINE
  5
12B
330
1F
100
AcDbEntity
  8
1
  6
Continuous
 62
     7
100
AcDbLine
 10
489.6620610944592
 20
368.137084341311
 30
0.0
 11
489.6620610944592
 21
383.137084341311
 31
0.0
  0
LINE
  5
12C
330
1F
100
AcDbEntity
  8
1
  6
Continuous
 62
     7
100
AcDbLine
 10
490.6620610944592
 20
390.637084341311
 30
0.0
 11
498.1108739304982
 21
390.637084341311
 31
0.0
  0
LINE
  5
12D
330
1F
100
AcDbEntity
  8
1
  6
Continuous
 62
     7
100
AcDbLine
 10
489.6620610944592
 20
383.137084341311
 30
0.0
 11
489.6620610944592
 21
389.637084341311
 31
0.0
  0
LINE
  5
12E
330
1F
100
AcDbEntity
  8
1
  6
Continuous
 62
     7
100
AcDbLine
 10
480.6620610944592
 20
383.137084341311
 30
0.0
 11
489.6620610944592
 21
383.137084341311
 31
0.0
  0
LINE
  5
12F
330
1F
100
AcDbEntity
  8
1
  6
Continuous
 62
     7
100
AcDbLine
 10
479.6620610944592
 20
382.137084341311
 30
0.0
 11
480.6620610944592
 21
383.137084341311
 31
0.0
  0
LINE
  5
130
330
1F
100
AcDbEntity
  8
1
  6
Continuous
 62
     7
100
AcDbLine
 10
480.6620610944592
 20
368.137084341311
 30
0.0
 11
479.6620610944592
 21
369.137084341311
 31
0.0
  0
LINE
  5
131
330
1F
100
AcDbEntity
  8
1
  6
Continuous
 62
     7
100
AcDbLine
 10
489.6620610944592
 20
368.137084341311
 30
0.0
 11
480.6620610944592
 21
368.137084341311
 31
0.0
  0
LINE
  5
132
330
1F
100
AcDbEntity
  8
1
  6
Continuous
 62
     7
100
AcDbLine
 10
489.6620610944592
 20
361.6370843413109
 30
0.0
 11
489.6620610944592
 21
368.137084341311
 31
0.0
  0
LINE
  5
133
330
1F
100
AcDbEntity
  8
1
  6
Continuous
 62
     7
100
AcDbLine
 10
498.1108739304982
 20
360.6370843413109
 30
0.0
 11
490.6620610944592
 21
360.6370843413109
 31
0.0
  0
LINE
  5
134
330
1F
100
AcDbEntity
  8
1
  6
Continuous
 62
     7
100
AcDbLine
 10
479.6620610944592
 20
369.137084341311
 30
0.0
 11
479.6620610944592
 21
382.137084341311
 31
0.0
  0
LINE
  5
135
330
1F
100
AcDbEntity
  8
1
  6
Continuous
 62
     7
100
AcDbLine
 10
132.6128012797944
 20
353.4936763494889
 30
0.0
 11
132.6128012797944
 21
392.993676349489
 31
0.0
  0
LINE
  5
136
330
1F
100
AcDbEntity
  8
1
  6
Continuous
 62
     2
100
AcDbLine
 10
397.9265229623286
 20
465.5673438537039
 30
0.0
 11
551.7474383784515
 21
465.5673438537039
 31
0.0
  0
LINE
  5
137
330
1F
100
AcDbEntity
  8
1
  6
Continuous
 62
     2
100
AcDbLine
 10
107.8683775539228
 20
467.712898557398
 30
0.0
 11
185.9228750778823
 21
467.712898557398
 31
0.0
  0
LINE
  5
138
330
1F
100
AcDbEntity
  8
1
  6
Continuous
 62
     7
100
AcDbLine
 10
326.221824686941
 20
132.5404477523896
 30
0.0
 11
326.221824686941
 21
170.0404477523896
 31
0.0
  0
LINE
  5
139
330
1F
100
AcDbEntity
  8
1
  6
Continuous
 62
     7
100
AcDbLine
 10
317.721824686941
 20
138.2103207334673
 30
0.0
 11
317.721824686941
 21
146.8705747713118
 31
0.0
  0
LINE
  5
13A
330
1F
100
AcDbEntity
  8
1
  6
Continuous
 62
     7
100
AcDbLine
 10
318.1684066743262
 20
145.4271990983376
 30
0.0
 11
322.721824686941
 21
145.4271990983376
 31
0.0
  0
LINE
  5
13B
330
1F
100
AcDbEntity
  8
1
  6
Continuous
 62
     7
100
AcDbLine
 10
318.1684066743262
 20
139.6536964064414
 30
0.0
 11
322.721824686941
 21
139.6536964064414
 31
0.0
  0
LINE
  5
13C
330
1F
100
AcDbEntity
  8
1
  6
Continuous
 62
     7
100
AcDbLine
 10
318.1684066743262
 20
148.3139504442858
 30
0.0
 11
322.721824686941
 21
148.3139504442858
 31
0.0
  0
LINE
  5
13D
330
1F
100
AcDbEntity
  8
1
  6
Continuous
 62
     7
100
AcDbLine
 10
322.721824686941
 20
148.3139504442858
 30
0.0
 11
322.721824686941
 21
136.7669450604933
 31
0.0
  0
LINE
  5
13E
330
1F
100
AcDbEntity
  8
1
  6
Continuous
 62
     7
100
AcDbLine
 10
322.721824686941
 20
136.7669450604933
 30
0.0
 11
318.1684066743262
 21
136.7669450604933
 31
0.0
  0
LINE
  5
13F
330
1F
100
AcDbEntity
  8
1
  6
Continuous
 62
     7
100
AcDbLine
 10
324.221824686941
 20
136.4404477523895
 30
0.0
 11
322.721824686941
 21
136.4404477523895
 31
0.0
  0
LINE
  5
140
330
1F
100
AcDbEntity
  8
1
  6
Continuous
 62
     7
100
AcDbLine
 10
324.221824686941
 20
148.6404477523896
 30
0.0
 11
324.221824686941
 21
136.4404477523895
 31
0.0
  0
LINE
  5
141
330
1F
100
AcDbEntity
  8
1
  6
Continuous
 62
     7
100
AcDbLine
 10
322.721824686941
 20
148.6404477523896
 30
0.0
 11
324.221824686941
 21
148.6404477523896
 31
0.0
  0
LINE
  5
142
330
1F
100
AcDbEntity
  8
1
  6
Continuous
 62
     7
100
AcDbLine
 10
322.721824686941
 20
136.4404477523895
 30
0.0
 11
322.721824686941
 21
148.6404477523896
 31
0.0
  0
LINE
  5
143
330
1F
100
AcDbEntity
  8
1
  6
Continuous
 62
     7
100
AcDbLine
 10
326.221824686941
 20
136.7669450604933
 30
0.0
 11
326.221824686941
 21
148.3139504442858
 31
0.0
  0
LINE
  5
144
330
1F
100
AcDbEntity
  8
1
  6
Continuous
 62
     7
100
AcDbLine
 10
326.221824686941
 20
136.4404477523895
 30
0.0
 11
326.221824686941
 21
148.6404477523896
 31
0.0
  0
LINE
  5
145
330
1F
100
AcDbEntity
  8
1
  6
DASH_CENTER
 62
     3
100
AcDbLine
 10
335.721824686941
 20
142.5404477523896
 30
0.0
 11
315.221824686941
 21
142.5404477523896
 31
0.0
  0
LINE
  5
146
330
1F
100
AcDbEntity
  8
1
  6
Continuous
 62
     7
100
AcDbLine
 10
334.221824686941
 20
146.8705747713118
 30
0.0
 11
334.221824686941
 21
138.2103207334673
 31
0.0
  0
LINE
  5
147
330
1F
100
AcDbEntity
  8
1
  6
Continuous
 62
     7
100
AcDbLine
 10
333.7752426995555
 20
139.6536964064414
 30
0.0
 11
330.221824686941
 21
139.6536964064414
 31
0.0
  0
LINE
  5
148
330
1F
100
AcDbEntity
  8
1
  6
Continuous
 62
     7
100
AcDbLine
 10
333.7752426995555
 20
145.4271990983376
 30
0.0
 11
330.221824686941
 21
145.4271990983376
 31
0.0
  0
LINE
  5
149
330
1F
100
AcDbEntity
  8
1
  6
Continuous
 62
     7
100
AcDbLine
 10
333.7752426995555
 20
136.7669450604933
 30
0.0
 11
330.221824686941
 21
136.7669450604933
 31
0.0
  0
LINE
  5
14A
330
1F
100
AcDbEntity
  8
1
  6
Continuous
 62
     7
100
AcDbLine
 10
330.221824686941
 20
148.3139504442858
 30
0.0
 11
333.7752426995555
 21
148.3139504442858
 31
0.0
  0
LINE
  5
14B
330
1F
100
AcDbEntity
  8
1
  6
Continuous
 62
     7
100
AcDbLine
 10
326.221824686941
 20
102.5404477523896
 30
0.0
 11
324.221824686941
 21
102.5404477523896
 31
0.0
  0
LINE
  5
14C
330
1F
100
AcDbEntity
  8
1
  6
Continuous
 62
     7
100
AcDbLine
 10
324.221824686941
 20
169.5404477523896
 30
0.0
 11
324.221824686941
 21
102.5404477523896
 31
0.0
  0
LINE
  5
14D
330
1F
100
AcDbEntity
  8
1
  6
Continuous
 62
     7
100
AcDbLine
 10
326.221824686941
 20
102.5404477523896
 30
0.0
 11
326.221824686941
 21
170.5404477523896
 31
0.0
  0
LINE
  5
14E
330
1F
100
AcDbEntity
  8
1
  6
Continuous
 62
     7
100
AcDbLine
 10
324.221824686941
 20
172.5404477523896
 30
0.0
 11
261.202225553837
 21
172.5404477523896
 31
0.0
  0
LINE
  5
14F
330
1F
100
AcDbEntity
  8
1
  6
Continuous
 62
     3
100
AcDbLine
 10
301.221824686941
 20
172.5404477523896
 30
0.0
 11
301.221824686941
 21
174.0404477523896
 31
0.0
  0
LINE
  5
150
330
1F
100
AcDbEntity
  8
1
  6
Continuous
 62
     3
100
AcDbLine
 10
301.221824686941
 20
174.0404477523896
 30
0.0
 11
261.2573585928737
 21
174.0404477523896
 31
0.0
  0
LINE
  5
151
330
1F
100
AcDbEntity
  8
1
  6
Continuous
 62
     7
100
AcDbLine
 10
261.2573585928737
 20
170.5404477523896
 30
0.0
 11
323.221824686941
 21
170.5404477523896
 31
0.0
  0
LINE
  5
152
330
1F
100
AcDbEntity
  8
1
  6
Continuous
 62
     7
100
AcDbLine
 10
307.721824686941
 20
202.5404477523896
 30
0.0
 11
306.221824686941
 21
202.5404477523896
 31
0.0
  0
LINE
  5
153
330
1F
100
AcDbEntity
  8
1
  6
Continuous
 62
     7
100
AcDbLine
 10
307.721824686941
 20
202.5404477523896
 30
0.0
 11
307.721824686941
 21
175.0404477523896
 31
0.0
  0
LINE
  5
154
330
1F
100
AcDbEntity
  8
1
  6
Continuous
 62
     7
100
AcDbLine
 10
306.221824686941
 20
175.0404477523896
 30
0.0
 11
306.221824686941
 21
202.5404477523896
 31
0.0
  0
LINE
  5
155
330
1F
100
AcDbEntity
  8
1
  6
Continuous
 62
     7
100
AcDbLine
 10
308.221824686941
 20
182.5404477523896
 30
0.0
 11
308.221824686941
 21
178.5404477523896
 31
0.0
  0
LINE
  5
156
330
1F
100
AcDbEntity
  8
1
  6
Continuous
 62
     7
100
AcDbLine
 10
325.221824686941
 20
178.5404477523896
 30
0.0
 11
308.221824686941
 21
178.5404477523896
 31
0.0
  0
LINE
  5
157
330
1F
100
AcDbEntity
  8
1
  6
Continuous
 62
     7
100
AcDbLine
 10
308.221824686941
 20
182.5404477523896
 30
0.0
 11
325.221824686941
 21
182.5404477523896
 31
0.0
  0
LINE
  5
158
330
1F
100
AcDbEntity
  8
1
  6
Continuous
 62
     7
100
AcDbLine
 10
325.221824686941
 20
174.0404477523896
 30
0.0
 11
308.721824686941
 21
174.0404477523896
 31
0.0
  0
LINE
  5
159
330
1F
100
AcDbEntity
  8
1
  6
Continuous
 62
     7
100
AcDbLine
 10
325.221824686941
 20
172.5404477523896
 30
0.0
 11
325.221824686941
 21
174.0404477523896
 31
0.0
  0
LINE
  5
15A
330
1F
100
AcDbEntity
  8
1
  6
Continuous
 62
     7
100
AcDbLine
 10
330.221824686941
 20
177.5404477523896
 30
0.0
 11
330.221824686941
 21
132.5404477523896
 31
0.0
  0
LINE
  5
15B
330
1F
100
AcDbEntity
  8
1
  6
Continuous
 62
     7
100
AcDbLine
 10
326.221824686941
 20
132.5404477523896
 30
0.0
 11
330.221824686941
 21
132.5404477523896
 31
0.0
  0
LINE
  5
15C
330
1F
100
AcDbEntity
  8
1
  6
Continuous
 62
     7
100
AcDbLine
 10
326.221824686941
 20
170.0404477523896
 30
0.0
 11
326.221824686941
 21
177.5404477523896
 31
0.0
  0
LINE
  5
15D
330
1F
100
AcDbEntity
  8
1
  6
Continuous
 62
     7
100
AcDbLine
 10
324.221824686941
 20
172.5404477523896
 30
0.0
 11
325.221824686941
 21
172.5404477523896
 31
0.0
  0
LINE
  5
15E
330
1F
100
AcDbEntity
  8
1
  6
Continuous
 62
     2
100
AcDbLine
 10
255.595718643764
 20
243.9671952541886
 30
0.0
 11
344.321328733114
 21
243.9671952541886
 31
0.0
  0
LINE
  5
15F
330
1F
100
AcDbEntity
  8
1
  6
Continuous
 62
     7
100
AcDbLine
 10
319.9953273788373
 20
187.0938657650044
 30
0.0
 11
319.9953273788373
 21
182.5404477523896
 31
0.0
  0
LINE
  5
160
330
1F
100
AcDbEntity
  8
1
  6
Continuous
 62
     7
100
AcDbLine
 10
319.9953273788373
 20
182.5404477523896
 30
0.0
 11
308.4483219950447
 21
182.5404477523896
 31
0.0
  0
LINE
  5
161
330
1F
100
AcDbEntity
  8
1
  6
Continuous
 62
     7
100
AcDbLine
 10
308.4483219950447
 20
182.5404477523896
 30
0.0
 11
308.4483219950447
 21
187.0938657650044
 31
0.0
  0
LINE
  5
162
330
1F
100
AcDbEntity
  8
1
  6
Continuous
 62
     7
100
AcDbLine
 10
317.1085760328891
 20
182.5404477523896
 30
0.0
 11
317.1085760328891
 21
187.0938657650044
 31
0.0
  0
LINE
  5
163
330
1F
100
AcDbEntity
  8
1
  6
Continuous
 62
     7
100
AcDbLine
 10
311.3350733409928
 20
182.5404477523896
 30
0.0
 11
311.3350733409928
 21
187.0938657650044
 31
0.0
  0
LINE
  5
164
330
1F
100
AcDbEntity
  8
1
  6
Continuous
 62
     7
100
AcDbLine
 10
309.8916976680188
 20
187.5404477523896
 30
0.0
 11
318.5519517058632
 21
187.5404477523896
 31
0.0
  0
LINE
  5
165
330
1F
100
AcDbEntity
  8
1
  6
Continuous
 62
     7
100
AcDbLine
 10
319.9953273788373
 20
195.5938657650044
 30
0.0
 11
319.9953273788373
 21
192.0404477523896
 31
0.0
  0
LINE
  5
166
330
1F
100
AcDbEntity
  8
1
  6
Continuous
 62
     7
100
AcDbLine
 10
319.9953273788373
 20
192.0404477523896
 30
0.0
 11
308.4483219950447
 21
192.0404477523896
 31
0.0
  0
LINE
  5
167
330
1F
100
AcDbEntity
  8
1
  6
Continuous
 62
     7
100
AcDbLine
 10
308.4483219950447
 20
192.0404477523896
 30
0.0
 11
308.4483219950447
 21
195.5938657650044
 31
0.0
  0
LINE
  5
168
330
1F
100
AcDbEntity
  8
1
  6
Continuous
 62
     7
100
AcDbLine
 10
317.221824686941
 20
192.0404477523896
 30
0.0
 11
317.221824686941
 21
187.5404477523896
 31
0.0
  0
LINE
  5
169
330
1F
100
AcDbEntity
  8
1
  6
Continuous
 62
     7
100
AcDbLine
 10
317.221824686941
 20
175.0404477523896
 30
0.0
 11
316.221824686941
 21
174.0404477523896
 31
0.0
  0
LINE
  5
16A
330
1F
100
AcDbEntity
  8
1
  6
Continuous
 62
     7
100
AcDbLine
 10
316.221824686941
 20
174.0404477523896
 30
0.0
 11
312.221824686941
 21
174.0404477523896
 31
0.0
  0
LINE
  5
16B
330
1F
100
AcDbEntity
  8
1
  6
Continuous
 62
     7
100
AcDbLine
 10
312.221824686941
 20
174.0404477523896
 30
0.0
 11
311.221824686941
 21
175.0404477523896
 31
0.0
  0
LINE
  5
16C
330
1F
100
AcDbEntity
  8
1
  6
Continuous
 62
     7
100
AcDbLine
 10
311.221824686941
 20
175.0404477523896
 30
0.0
 11
311.221824686941
 21
178.5404477523896
 31
0.0
  0
LINE
  5
16D
330
1F
100
AcDbEntity
  8
1
  6
Continuous
 62
     7
100
AcDbLine
 10
317.1085760328891
 20
192.0404477523896
 30
0.0
 11
317.1085760328891
 21
195.5938657650044
 31
0.0
  0
LINE
  5
16E
330
1F
100
AcDbEntity
  8
1
  6
Continuous
 62
     7
100
AcDbLine
 10
311.3350733409928
 20
192.0404477523896
 30
0.0
 11
311.3350733409928
 21
195.5938657650044
 31
0.0
  0
LINE
  5
16F
330
1F
100
AcDbEntity
  8
1
  6
Continuous
 62
     7
100
AcDbLine
 10
309.8916976680188
 20
196.0404477523896
 30
0.0
 11
318.5519517058632
 21
196.0404477523896
 31
0.0
  0
LINE
  5
170
330
1F
100
AcDbEntity
  8
1
  6
Continuous
 62
     7
100
AcDbLine
 10
317.221824686941
 20
190.0404477523896
 30
0.0
 11
311.221824686941
 21
190.0404477523896
 31
0.0
  0
LINE
  5
171
330
1F
100
AcDbEntity
  8
1
  6
Continuous
 62
     3
100
AcDbLine
 10
317.221824686941
 20
190.9783532646882
 30
0.0
 11
316.680324686941
 21
190.0404477523896
 31
0.0
  0
LINE
  5
172
330
1F
100
AcDbEntity
  8
1
  6
Continuous
 62
     3
100
AcDbLine
 10
316.680324686941
 20
190.0404477523896
 30
0.0
 11
316.680324686941
 21
187.5404477523896
 31
0.0
  0
LINE
  5
173
330
1F
100
AcDbEntity
  8
1
  6
Continuous
 62
     3
100
AcDbLine
 10
317.221824686941
 20
175.0404477523896
 30
0.0
 11
311.221824686941
 21
175.0404477523896
 31
0.0
  0
LINE
  5
174
330
1F
100
AcDbEntity
  8
1
  6
Continuous
 62
     3
100
AcDbLine
 10
311.763324686941
 20
174.4989477523896
 30
0.0
 11
311.763324686941
 21
178.5404477523896
 31
0.0
  0
LINE
  5
175
330
1F
100
AcDbEntity
  8
1
  6
Continuous
 62
     3
100
AcDbLine
 10
311.763324686941
 20
190.0404477523896
 30
0.0
 11
311.221824686941
 21
190.9783532646882
 31
0.0
  0
LINE
  5
176
330
1F
100
AcDbEntity
  8
1
  6
DASH_CENTER
 62
     3
100
AcDbLine
 10
314.221824686941
 20
174.0404477523896
 30
0.0
 11
314.221824686941
 21
196.0404477523896
 31
0.0
  0
LINE
  5
177
330
1F
100
AcDbEntity
  8
1
  6
Continuous
 62
     7
100
AcDbLine
 10
311.221824686941
 20
187.5404477523896
 30
0.0
 11
311.221824686941
 21
192.0404477523896
 31
0.0
  0
LINE
  5
178
330
1F
100
AcDbEntity
  8
1
  6
Continuous
 62
     3
100
AcDbLine
 10
311.763324686941
 20
187.5404477523896
 30
0.0
 11
311.763324686941
 21
190.0404477523896
 31
0.0
  0
LINE
  5
179
330
1F
100
AcDbEntity
  8
1
  6
Continuous
 62
     3
100
AcDbLine
 10
316.680324686941
 20
178.5404477523896
 30
0.0
 11
316.680324686941
 21
174.4989477523896
 31
0.0
  0
LINE
  5
17A
330
1F
100
AcDbEntity
  8
1
  6
Continuous
 62
     7
100
AcDbLine
 10
317.221824686941
 20
178.5404477523896
 30
0.0
 11
317.221824686941
 21
175.0404477523896
 31
0.0
  0
LINE
  5
17B
330
1F
100
AcDbEntity
  8
1
  6
Continuous
 62
     2
100
AcDbLine
 10
333.1792701166907
 20
209.612719666522
 30
0.0
 11
338.952772808587
 21
219.612719666522
 31
0.0
  0
LINE
  5
17C
330
1F
100
AcDbEntity
  8
1
  6
Continuous
 62
     2
100
AcDbLine
 10
344.7262755004833
 20
209.612719666522
 30
0.0
 11
333.1792701166907
 21
209.612719666522
 31
0.0
  0
LINE
  5
17D
330
1F
100
AcDbEntity
  8
1
  6
Continuous
 62
     2
100
AcDbLine
 10
338.952772808587
 20
219.612719666522
 30
0.0
 11
344.7262755004833
 21
209.612719666522
 31
0.0
  0
ARC
  5
17E
330
1F
100
AcDbEntity
  8
1
  6
Continuous
 62
     7
100
AcDbCircle
 10
429.1505511997328
 20
185.8195614945057
 30
0.0
 40
7.220886257883929
100
AcDbArc
 50
69.74384199958271
 51
110.2561580004173
  0
ARC
  5
17F
330
1F
100
AcDbEntity
  8
1
  6
Continuous
 62
     7
100
AcDbCircle
 10
434.1505511997328
 20
185.8195614945057
 30
0.0
 40
7.220886257883929
100
AcDbArc
 50
69.74384199958271
 51
110.2561580004173
  0
ARC
  5
180
330
1F
100
AcDbEntity
  8
1
  6
Continuous
 62
     7
100
AcDbCircle
 10
616.6751263344278
 20
375.6370843413109
 30
0.0
 40
3.5
100
AcDbArc
 50
0.0
 51
180.0
  0
ARC
  5
181
330
1F
100
AcDbEntity
  8
1
  6
Continuous
 62
     7
100
AcDbCircle
 10
144.5569785313712
 20
361.1635493305667
 30
0.0
 40
2.555822748423124
100
AcDbArc
 50
-34.38424746804253
 51
34.38424746804148
  0
ARC
  5
182
330
1F
100
AcDbEntity
  8
1
  6
Continuous
 62
     7
100
AcDbCircle
 10
137.5593832671794
 20
365.493676349489
 30
0.0
 40
9.553418012614937
100
AcDbArc
 50
-17.58795377399465
 51
17.5879537739927
  0
ARC
  5
183
330
1F
100
AcDbEntity
  8
1
  6
Continuous
 62
     7
100
AcDbCircle
 10
144.5569785313713
 20
369.8238033684111
 30
0.0
 40
2.555822748423063
100
AcDbArc
 50
-34.38424746804503
 51
34.38424746804187
  0
ARC
  5
184
330
1F
100
AcDbEntity
  8
1
  6
Continuous
 62
     7
100
AcDbCircle
 10
126.6686240282173
 20
369.8238033684111
 30
0.0
 40
2.555822748422884
100
AcDbArc
 50
145.6157525319569
 51
-145.6157525319537
  0
ARC
  5
185
330
1F
100
AcDbEntity
  8
1
  6
Continuous
 62
     7
100
AcDbCircle
 10
133.6662192924087
 20
365.493676349489
 30
0.0
 40
9.55341801261428
100
AcDbArc
 50
162.4120462260063
 51
-162.4120462260043
  0
ARC
  5
186
330
1F
100
AcDbEntity
  8
1
  6
Continuous
 62
     7
100
AcDbCircle
 10
126.6686240282173
 20
361.1635493305667
 30
0.0
 40
2.555822748422916
100
AcDbArc
 50
145.6157525319558
 51
-145.6157525319548
  0
ARC
  5
187
330
1F
100
AcDbEntity
  8
1
  6
Continuous
 62
     7
100
AcDbCircle
 10
444.4120610944592
 20
375.637084341311
 30
0.0
 40
57.25000000000137
100
AcDbArc
 50
-13.60896063078226
 51
13.60896063078301
  0
ARC
  5
188
330
1F
100
AcDbEntity
  8
1
  6
Continuous
 62
     7
100
AcDbCircle
 10
320.277647435364
 20
138.2103207334673
 30
0.0
 40
2.555822748423023
100
AcDbArc
 50
145.6157525319551
 51
-145.6157525319567
  0
ARC
  5
189
330
1F
100
AcDbEntity
  8
1
  6
Continuous
 62
     7
100
AcDbCircle
 10
327.2752426995553
 20
142.5404477523896
 30
0.0
 40
9.553418012614275
100
AcDbArc
 50
162.4120462260061
 51
-162.4120462260049
  0
ARC
  5
18A
330
1F
100
AcDbEntity
  8
1
  6
Continuous
 62
     7
100
AcDbCircle
 10
320.277647435364
 20
146.8705747713118
 30
0.0
 40
2.555822748422975
100
AcDbArc
 50
145.6157525319567
 51
-145.6157525319536
  0
ARC
  5
18B
330
1F
100
AcDbEntity
  8
1
  6
Continuous
 62
     7
100
AcDbCircle
 10
331.666001938518
 20
146.8705747713118
 30
0.0
 40
2.555822748422884
100
AcDbArc
 50
-34.38424746804931
 51
34.38424746804616
  0
ARC
  5
18C
330
1F
100
AcDbEntity
  8
1
  6
Continuous
 62
     7
100
AcDbCircle
 10
324.6684066743259
 20
142.5404477523896
 30
0.0
 40
9.553418012614824
100
AcDbArc
 50
-17.58795377399416
 51
17.58795377399302
  0
ARC
  5
18D
330
1F
100
AcDbEntity
  8
1
  6
Continuous
 62
     7
100
AcDbCircle
 10
331.6660019385179
 20
138.2103207334673
 30
0.0
 40
2.555822748422834
100
AcDbArc
 50
-34.38424746804544
 51
34.38424746804702
  0
ARC
  5
18E
330
1F
100
AcDbEntity
  8
1
  6
Continuous
 62
     7
100
AcDbCircle
 10
308.721824686941
 20
175.0404477523896
 30
0.0
 40
2.5
100
AcDbArc
 50
180.0
 51
-90.0
  0
ARC
  5
18F
330
1F
100
AcDbEntity
  8
1
  6
Continuous
 62
     7
100
AcDbCircle
 10
309.8916976680188
 20
184.9846250039664
 30
0.0
 40
2.55582274842313
100
AcDbArc
 50
55.61575253196065
 51
124.3842474680425
  0
ARC
  5
190
330
1F
100
AcDbEntity
  8
1
  6
Continuous
 62
     7
100
AcDbCircle
 10
314.221824686941
 20
177.9870297397747
 30
0.0
 40
9.553418012614914
100
AcDbArc
 50
72.41204622600637
 51
107.587953773994
  0
ARC
  5
191
330
1F
100
AcDbEntity
  8
1
  6
Continuous
 62
     7
100
AcDbCircle
 10
318.5519517058632
 20
184.9846250039664
 30
0.0
 40
2.555822748423227
100
AcDbArc
 50
55.6157525319575
 51
124.3842474680415
  0
ARC
  5
192
330
1F
100
AcDbEntity
  8
1
  6
Continuous
 62
     7
100
AcDbCircle
 10
309.8916976680188
 20
193.4846250039664
 30
0.0
 40
2.55582274842313
100
AcDbArc
 50
55.61575253196065
 51
124.3842474680425
  0
ARC
  5
193
330
1F
100
AcDbEntity
  8
1
  6
Continuous
 62
     7
100
AcDbCircle
 10
314.221824686941
 20
186.4870297397747
 30
0.0
 40
9.553418012614914
100
AcDbArc
 50
72.41204622600637
 51
107.587953773994
  0
ARC
  5
194
330
1F
100
AcDbEntity
  8
1
  6
Continuous
 62
     7
100
AcDbCircle
 10
318.5519517058632
 20
193.4846250039664
 30
0.0
 40
2.555822748423227
100
AcDbArc
 50
55.6157525319575
 51
124.3842474680415
  0
CIRCLE
  5
195
330
1F
100
AcDbEntity
  8
1
  6
Continuous
 62
     3
100
AcDbCircle
 10
431.6505511997328
 20
142.5404477523896
 30
0.0
 40
5.0
  0
CIRCLE
  5
196
330
1F
100
AcDbEntity
  8
1
  6
PHANTOM
 62
   140
100
AcDbCircle
 10
616.6751263344278
 20
375.6370843413109
 30
0.0
 40
15.0
  0
CIRCLE
  5
197
330
1F
100
AcDbEntity
  8
1
  6
Continuous
 62
     7
100
AcDbCircle
 10
616.6751263344278
 20
410.6370843413109
 30
0.0
 40
5.0
  0
CIRCLE
  5
198
330
1F
100
AcDbEntity
  8
1
  6
Continuous
 62
     3
100
AcDbCircle
 10
594.1751263344278
 20
375.6370843413109
 30
0.0
 40
5.0
  0
CIRCLE
  5
199
330
1F
100
AcDbEntity
  8
1
  6
Continuous
 62
     3
100
AcDbCircle
 10
639.1751263344278
 20
375.6370843413109
 30
0.0
 40
5.0
  0
CIRCLE
  5
19A
330
1F
100
AcDbEntity
  8
1
  6
Continuous
 62
     3
100
AcDbCircle
 10
227.9132668145801
 20
365.4936763494889
 30
0.0
 40
5.0
  0
CIRCLE
  5
19B
330
1F
100
AcDbEntity
  8
1
  6
Continuous
 62
     3
100
AcDbCircle
 10
252.9132668145801
 20
365.4936763494889
 30
0.0
 40
4.999999999999972
  0
CIRCLE
  5
19C
330
1F
100
AcDbEntity
  8
1
  6
Continuous
 62
     7
100
AcDbCircle
 10
240.4132668145801
 20
415.493676349489
 30
0.0
 40
5.0
  0
SPLINE
  5
19D
330
1F
100
AcDbEntity
  8
1
  6
Continuous
 62
     3
100
AcDbSpline
210
0.0
220
0.0
230
1.0
 70
     8
 71
     3
 72
    13
 73
     9
 74
     7
 42
0.0000000001
 43
0.0000000001
 44
0.00000001
 40
0.0
 40
0.0
 40
0.0
 40
0.0
 40
6.829343957525762
 40
13.17109688189189
 40
21.73358414098746
 40
27.59335610278245
 40
34.11990253466463
 40
40.60427138340911
 40
40.60427138340911
 40
40.60427138340911
 40
40.60427138340911
 10
466.173316278749
 20
202.5404477523896
 30
0.0
 10
468.984446458488
 20
201.5573650214016
 30
0.0
 10
474.4060020537589
 20
199.6613881935702
 30
0.0
 10
467.2633102974922
 20
192.6239500707157
 30
0.0
 10
462.3805000060338
 20
189.6684653836217
 30
0.0
 10
458.1631590485442
 20
181.664123785222
 30
0.0
 10
465.7047765913679
 20
178.68486588416
 30
0.0
 10
467.2593833697296
 20
174.5841560288587
 30
0.0
 10
468.0341669685948
 20
172.5404477523896
 30
0.0
 11
466.173316278749
 21
202.5404477523896
 31
0.0
 11
471.9853395626752
 21
198.9543183295588
 31
0.0
 11
468.2454251388086
 21
193.8327101586948
 31
0.0
 11
461.9169679353827
 21
188.0649707846783
 31
0.0
 11
459.9633628806311
 21
182.5404477523896
 31
0.0
 11
464.8044225725581
 21
178.1632398081958
 31
0.0
 11
468.0341669685948
 21
172.5404477523896
 31
0.0
  0
SPLINE
  5
19E
330
1F
100
AcDbEntity
  8
1
  6
Continuous
 62
     3
100
AcDbSpline
210
0.0
220
0.0
230
1.0
 70
     8
 71
     3
 72
    14
 73
    10
 74
     8
 42
0.0000000001
 43
0.0000000001
 44
0.00000001
 40
0.0
 40
0.0
 40
0.0
 40
0.0
 40
8.110061010747371
 40
11.93299991239829
 40
17.54453189338822
 40
24.14316318434184
 40
30.11953114104563
 40
34.37306341630485
 40
38.80740319303362
 40
38.80740319303362
 40
38.80740319303362
 40
38.80740319303362
 10
402.079622252886
 20
202.5404477523896
 30
0.0
 10
405.0841070585401
 20
201.6457572064799
 30
0.0
 10
409.5048527070821
 20
200.3293254075307
 30
0.0
 10
409.3379670825687
 20
193.4706080862803
 30
0.0
 10
404.3416341148125
 20
190.4996570644026
 30
0.0
 10
399.8461569110813
 20
186.7363684102828
 30
0.0
 10
396.4769285535782
 20
181.6386672996574
 30
0.0
 10
397.5087757574582
 20
176.6385036515909
 30
0.0
 10
398.4566648881327
 20
173.925288396504
 30
0.0
 10
398.9404729427318
 20
172.5404477523896
 30
0.0
 11
402.079622252886
 21
202.5404477523896
 31
0.0
 11
408.9987000228577
 21
198.3096733066022
 31
0.0
 11
408.8869780937516
 21
194.4883672397825
 31
0.0
 11
404.8154241921413
 21
190.6267950211189
 31
0.0
 11
399.8550060446004
 21
186.2752221197993
 31
0.0
 11
397.0766913777022
 21
180.983914005012
 31
0.0
 11
397.57672952053
 21
176.7598758100629
 31
0.0
 11
398.9404729427318
 21
172.5404477523896
 31
0.0
  0
SPLINE
  5
19F
330
1F
100
AcDbEntity
  8
1
  6
Continuous
 62
     3
100
AcDbSpline
210
0.0
220
0.0
230
1.0
 70
     8
 71
     3
 72
    11
 73
     7
 74
     5
 42
0.0000000001
 43
0.0000000001
 44
0.00000001
 40
0.0
 40
0.0
 40
0.0
 40
0.0
 40
19.65858195998161
 40
40.16103720672232
 40
55.77579180445265
 40
71.60460974152196
 40
71.60460974152196
 40
71.60460974152196
 40
71.60460974152196
 10
398.9404729427318
 20
172.5404477523896
 30
0.0
 10
400.6359079881917
 20
165.924877880459
 30
0.0
 10
404.0995570998572
 20
152.4097551563922
 30
0.0
 10
391.6000803793636
 20
135.3822863341524
 30
0.0
 10
397.7942780648251
 20
118.0630452380193
 30
0.0
 10
399.0128164120748
 20
107.7380772155465
 30
0.0
 10
399.626233402991
 20
102.5404477523896
 30
0.0
 11
398.9404729427318
 21
172.5404477523896
 31
0.0
 11
401.0403924650077
 21
152.9943437242903
 31
0.0
 11
394.5007633322271
 21
133.562824948078
 31
0.0
 11
397.1446166366113
 21
118.1735234417641
 31
0.0
 11
399.626233402991
 21
102.5404477523896
 31
0.0
  0
SPLINE
  5
1A0
330
1F
100
AcDbEntity
  8
1
  6
Continuous
 62
     3
100
AcDbSpline
210
0.0
220
0.0
230
1.0
 70
     8
 71
     3
 72
    11
 73
     7
 74
     5
 42
0.0000000001
 43
0.0000000001
 44
0.00000001
 40
0.0
 40
0.0
 40
0.0
 40
0.0
 40
18.61204190284519
 40
39.53077711109607
 40
55.79237972727493
 40
72.20124519503371
 40
72.20124519503371
 40
72.20124519503371
 40
72.20124519503371
 10
468.0341669685948
 20
172.5404477523896
 30
0.0
 10
465.9671658789903
 20
166.3030718402511
 30
0.0
 10
461.5769888211439
 20
153.0552875171795
 30
0.0
 10
474.5683362236019
 20
136.745588900761
 30
0.0
 10
472.9980458863967
 20
118.2445573686887
 30
0.0
 10
470.1502457552226
 20
107.7908577179887
 30
0.0
 10
468.7199274288538
 20
102.5404477523896
 30
0.0
 11
468.0341669685948
 21
172.5404477523896
 31
0.0
 11
464.8468359935401
 21
154.2033535156049
 31
0.0
 11
472.5673391488469
 21
134.761457678475
 31
0.0
 11
472.5339925729834
 21
118.4998892531233
 31
0.0
 11
468.7199274288538
 21
102.5404477523896
 31
0.0
  0
SPLINE
  5
1A1
330
1F
100
AcDbEntity
  8
1
  6
Continuous
 62
     3
100
AcDbSpline
210
0.0
220
0.0
230
1.0
 70
     8
 71
     3
 72
    11
 73
     7
 74
     5
 42
0.0000000001
 43
0.0000000001
 44
0.00000001
 40
0.0
 40
0.0
 40
0.0
 40
0.0
 40
18.61204190284523
 40
39.53077711109611
 40
55.79237972727497
 40
72.20124519503372
 40
72.20124519503372
 40
72.20124519503372
 40
72.20124519503372
 10
663.8929359573486
 20
390.6370843413109
 30
0.0
 10
661.8259348677441
 20
384.3997084291724
 30
0.0
 10
657.4357578098975
 20
371.1519241061007
 30
0.0
 10
670.4271052123555
 20
354.8422254896823
 30
0.0
 10
668.8568148751504
 20
336.3411939576099
 30
0.0
 10
666.0090147439763
 20
325.88749430691
 30
0.0
 10
664.5786964176076
 20
320.6370843413109
 30
0.0
 11
663.8929359573486
 21
390.6370843413109
 31
0.0
 11
660.7056049822938
 21
372.2999901045262
 31
0.0
 11
668.4261081376008
 21
352.8580942673963
 31
0.0
 11
668.3927615617372
 21
336.5965258420446
 31
0.0
 11
664.5786964176076
 21
320.6370843413109
 31
0.0
  0
SPLINE
  5
1A2
330
1F
100
AcDbEntity
  8
1
  6
Continuous
 62
     3
100
AcDbSpline
210
0.0
220
0.0
230
1.0
 70
     8
 71
     3
 72
    11
 73
     7
 74
     5
 42
0.0000000001
 43
0.0000000001
 44
0.00000001
 40
0.0
 40
0.0
 40
0.0
 40
0.0
 40
19.65858195998164
 40
40.16103720672238
 40
55.77579180445274
 40
71.60460974152203
 40
71.60460974152203
 40
71.60460974152203
 40
71.60460974152203
 10
570.7728263018156
 20
390.6370843413109
 30
0.0
 10
572.4682613472755
 20
384.0215144693802
 30
0.0
 10
575.9319104589411
 20
370.5063917453134
 30
0.0
 10
563.4324337384473
 20
353.4789229230738
 30
0.0
 10
569.6266314239088
 20
336.1596818269405
 30
0.0
 10
570.8451697711588
 20
325.8347138044678
 30
0.0
 10
571.458586762075
 20
320.6370843413109
 30
0.0
 11
570.7728263018156
 21
390.6370843413109
 31
0.0
 11
572.8727458240916
 21
371.0909803132116
 31
0.0
 11
566.3331166913108
 21
351.6594615369993
 31
0.0
 11
568.9769699956951
 21
336.2701600306853
 31
0.0
 11
571.458586762075
 21
320.6370843413109
 31
0.0
  0
SPLINE
  5
1A3
330
1F
100
AcDbEntity
  8
1
  6
Continuous
 62
     3
100
AcDbSpline
210
0.0
220
0.0
230
1.0
 70
     8
 71
     3
 72
    10
 73
     6
 74
     4
 42
0.0000000001
 43
0.0000000001
 44
0.00000001
 40
0.0
 40
0.0
 40
0.0
 40
0.0
 40
11.55145452533074
 40
23.85261967837851
 40
35.73737247127154
 40
35.73737247127154
 40
35.73737247127154
 40
35.73737247127154
 10
662.0320852675026
 20
426.6370843413108
 30
0.0
 10
663.7680863398762
 20
422.6523396814413
 30
0.0
 10
667.352758144607
 20
414.4242331101959
 30
0.0
 10
652.9620156808267
 20
405.9164826100828
 30
0.0
 10
659.0436314172134
 20
398.3534793328967
 30
0.0
 10
662.0320852675026
 20
394.6370843413109
 30
0.0
 11
662.0320852675026
 21
426.6370843413108
 31
0.0
 11
664.1466986385839
 21
415.2808300318288
 31
0.0
 11
656.8869047975444
 21
405.3503689394041
 31
0.0
 11
662.0320852675026
 21
394.6370843413109
 31
0.0
  0
SPLINE
  5
1A4
330
1F
100
AcDbEntity
  8
1
  6
Continuous
 62
     3
100
AcDbSpline
210
0.0
220
0.0
230
1.0
 70
     8
 71
     3
 72
    10
 73
     6
 74
     4
 42
0.0000000001
 43
0.0000000001
 44
0.00000001
 40
0.0
 40
0.0
 40
0.0
 40
0.0
 40
13.72784766833024
 40
26.40990540570419
 40
38.03603285517376
 40
38.03603285517376
 40
38.03603285517376
 40
38.03603285517376
 10
573.9119756119698
 20
426.6370843413108
 30
0.0
 10
578.7450252297324
 20
423.2860388151622
 30
0.0
 10
588.0429418667773
 20
416.8392310202329
 30
0.0
 10
573.4231219371748
 20
407.0443479908785
 30
0.0
 10
574.1281787118751
 20
398.6513096848973
 30
0.0
 10
574.4653935166319
 20
394.6370843413109
 30
0.0
 11
573.9119756119698
 21
426.6370843413108
 31
0.0
 11
583.1561677167167
 21
416.4882561362709
 31
0.0
 11
575.7523271352353
 21
406.1917648359251
 31
0.0
 11
574.4653935166319
 21
394.6370843413109
 31
0.0
  0
SPLINE
  5
1A5
330
1F
100
AcDbEntity
  8
1
  6
Continuous
 62
     3
100
AcDbSpline
210
0.0
220
0.0
230
1.0
 70
     8
 71
     3
 72
    10
 73
     6
 74
     4
 42
0.0000000001
 43
0.0000000001
 44
0.00000001
 40
0.0
 40
0.0
 40
0.0
 40
0.0
 40
11.97449760536566
 40
23.8712255343478
 40
35.42697955530536
 40
35.42697955530536
 40
35.42697955530536
 40
35.42697955530536
 10
209.2303628694597
 20
431.4936763494889
 30
0.0
 10
212.5907747866631
 20
428.0934847484
 30
0.0
 10
219.2897740605808
 20
421.3151844601928
 30
0.0
 10
207.2566555817788
 20
411.5607900034157
 30
0.0
 10
208.9496102912916
 20
403.4768703968451
 30
0.0
 10
209.7837807741219
 20
399.493676349489
 30
0.0
 11
209.2303628694597
 21
431.4936763494889
 31
0.0
 11
215.5856660853176
 21
421.344848144449
 31
0.0
 11
209.6262699482808
 21
411.0483568441033
 31
0.0
 11
209.7837807741219
 21
399.493676349489
 31
0.0
  0
SPLINE
  5
1A6
330
1F
100
AcDbEntity
  8
1
  6
Continuous
 62
     3
100
AcDbSpline
210
0.0
220
0.0
230
1.0
 70
     8
 71
     3
 72
    10
 73
     6
 74
     4
 42
0.0000000001
 43
0.0000000001
 44
0.00000001
 40
0.0
 40
0.0
 40
0.0
 40
0.0
 40
11.5514545253308
 40
23.85261967837861
 40
35.73737247127159
 40
35.73737247127159
 40
35.73737247127159
 40
35.73737247127159
 10
285.7702257476549
 20
431.4936763494889
 30
0.0
 10
287.5062268200285
 20
427.5089316896193
 30
0.0
 10
291.0908986247594
 20
419.2808251183739
 30
0.0
 10
276.700156160979
 20
410.7730746182609
 30
0.0
 10
282.7817718973657
 20
403.2100713410747
 30
0.0
 10
285.7702257476549
 20
399.493676349489
 30
0.0
 11
285.7702257476549
 21
431.4936763494889
 31
0.0
 11
287.8848391187362
 21
420.1374220400069
 31
0.0
 11
280.6250452776967
 21
410.2069609475821
 31
0.0
 11
285.7702257476549
 21
399.493676349489
 31
0.0
  0
SPLINE
  5
1A7
330
1F
100
AcDbEntity
  8
1
  6
Continuous
 62
     3
100
AcDbSpline
210
0.0
220
0.0
230
1.0
 70
     8
 71
     3
 72
    11
 73
     7
 74
     5
 42
0.0000000001
 43
0.0000000001
 44
0.00000001
 40
0.0
 40
0.0
 40
0.0
 40
0.0
 40
19.65858195998169
 40
40.16103720672238
 40
55.77579180445279
 40
71.60460974152204
 40
71.60460974152204
 40
71.60460974152204
 40
71.60460974152204
 10
206.0912135593055
 20
395.493676349489
 30
0.0
 10
207.7866486047654
 20
388.8781064775585
 30
0.0
 10
211.2502977164309
 20
375.3629837534916
 30
0.0
 10
198.7508209959374
 20
358.3355149312519
 30
0.0
 10
204.9450186813987
 20
341.0162738351185
 30
0.0
 10
206.1635570286484
 20
330.6913058126457
 30
0.0
 10
206.7769740195647
 20
325.4936763494889
 30
0.0
 11
206.0912135593055
 21
395.493676349489
 31
0.0
 11
208.1911330815814
 21
375.9475723213897
 31
0.0
 11
201.6515039488008
 21
356.5160535451773
 31
0.0
 11
204.295357253185
 21
341.1267520388633
 31
0.0
 11
206.7769740195647
 21
325.4936763494889
 31
0.0
  0
SPLINE
  5
1A8
330
1F
100
AcDbEntity
  8
1
  6
Continuous
 62
     3
100
AcDbSpline
210
0.0
220
0.0
230
1.0
 70
     8
 71
     3
 72
    11
 73
     7
 74
     5
 42
0.0000000001
 43
0.0000000001
 44
0.00000001
 40
0.0
 40
0.0
 40
0.0
 40
0.0
 40
18.61204190284532
 40
39.5307771110961
 40
55.79237972727502
 40
72.20124519503375
 40
72.20124519503375
 40
72.20124519503375
 40
72.20124519503375
 10
287.631076437501
 20
395.493676349489
 30
0.0
 10
285.5640753478965
 20
389.2563004373505
 30
0.0
 10
281.1738982900502
 20
376.0085161142789
 30
0.0
 10
294.1652456925081
 20
359.6988174978604
 30
0.0
 10
292.5949553553028
 20
341.1977859657879
 30
0.0
 10
289.7471552241287
 20
330.744086315088
 30
0.0
 10
288.31683689776
 20
325.4936763494889
 30
0.0
 11
287.631076437501
 21
395.493676349489
 31
0.0
 11
284.4437454624463
 21
377.1565821127042
 31
0.0
 11
292.1642486177531
 21
357.7146862755743
 31
0.0
 11
292.1309020418896
 21
341.4531178502226
 31
0.0
 11
288.31683689776
 21
325.4936763494889
 31
0.0
  0
ARC
  5
1A9
330
1F
100
AcDbEntity
  8
1
  6
Continuous
 62
     7
100
AcDbCircle
 10
440.6505511997328
 20
133.5404477523896
 30
0.0
 40
1.0
100
AcDbArc
 50
-90.0
 51
0.0
  0
ARC
  5
1AA
330
1F
100
AcDbEntity
  8
1
  6
Continuous
 62
     7
100
AcDbCircle
 10
422.6505511997328
 20
133.5404477523896
 30
0.0
 40
1.0
100
AcDbArc
 50
180.0
 51
-90.0
  0
ARC
  5
1AB
330
1F
100
AcDbEntity
  8
1
  6
Continuous
 62
     7
100
AcDbCircle
 10
609.1751263344278
 20
415.6370843413108
 30
0.0
 40
5.0
100
AcDbArc
 50
90.0
 51
180.0
  0
ARC
  5
1AC
330
1F
100
AcDbEntity
  8
1
  6
Continuous
 62
     7
100
AcDbCircle
 10
624.1751263344278
 20
415.6370843413109
 30
0.0
 40
5.0
100
AcDbArc
 50
-0.0000000000013
 51
90.0
  0
ARC
  5
1AD
330
1F
100
AcDbEntity
  8
1
  6
Continuous
 62
     7
100
AcDbCircle
 10
605.1751263344278
 20
364.6370843413109
 30
0.0
 40
1.0
100
AcDbArc
 50
180.0
 51
-90.0
  0
ARC
  5
1AE
330
1F
100
AcDbEntity
  8
1
  6
Continuous
 62
     7
100
AcDbCircle
 10
628.1751263344278
 20
364.6370843413109
 30
0.0
 40
1.0
100
AcDbArc
 50
-90.0
 51
0.0
  0
ARC
  5
1AF
330
1F
100
AcDbEntity
  8
1
  6
Continuous
 62
     7
100
AcDbCircle
 10
612.1751263344278
 20
364.6370843413109
 30
0.0
 40
1.0
100
AcDbArc
 50
-90.0
 51
0.0
  0
ARC
  5
1B0
330
1F
100
AcDbEntity
  8
1
  6
Continuous
 62
     7
100
AcDbCircle
 10
621.1751263344278
 20
364.6370843413109
 30
0.0
 40
1.0
100
AcDbArc
 50
180.0
 51
-90.0
  0
ARC
  5
1B1
330
1F
100
AcDbEntity
  8
1
  6
Continuous
 62
     7
100
AcDbCircle
 10
258.4132668145801
 20
354.4936763494889
 30
0.0
 40
1.0
100
AcDbArc
 50
-90.0
 51
0.0
  0
ARC
  5
1B2
330
1F
100
AcDbEntity
  8
1
  6
Continuous
 62
     7
100
AcDbCircle
 10
222.4132668145799
 20
354.4936763494889
 30
0.0
 40
1.0
100
AcDbArc
 50
180.0
 51
-90.0
  0
ARC
  5
1B3
330
1F
100
AcDbEntity
  8
1
  6
Continuous
 62
     7
100
AcDbCircle
 10
254.4132668145801
 20
420.493676349489
 30
0.0
 40
4.999999999999972
100
AcDbArc
 50
-0.0000000000013
 51
90.0
  0
ARC
  5
1B4
330
1F
100
AcDbEntity
  8
1
  6
Continuous
 62
     7
100
AcDbCircle
 10
226.4132668145799
 20
420.4936763494889
 30
0.0
 40
5.0
100
AcDbArc
 50
90.0
 51
180.0
  0
ARC
  5
1B5
330
1F
100
AcDbEntity
  8
1
  6
Continuous
 62
     7
100
AcDbCircle
 10
129.6128012797944
 20
392.493676349489
 30
0.0
 40
1.0
100
AcDbArc
 50
0.0
 51
90.0
  0
ARC
  5
1B6
330
1F
100
AcDbEntity
  8
1
  6
Continuous
 62
     7
100
AcDbCircle
 10
130.6128012797944
 20
393.493676349489
 30
0.0
 40
2.0
100
AcDbArc
 50
0.0
 51
90.0
  0
ARC
  5
1B7
330
1F
100
AcDbEntity
  8
1
  6
Continuous
 62
     7
100
AcDbCircle
 10
158.6128012797944
 20
417.493676349489
 30
0.0
 40
3.0
100
AcDbArc
 50
0.0
 51
90.0
  0
ARC
  5
1B8
330
1F
100
AcDbEntity
  8
1
  6
Continuous
 62
     7
100
AcDbCircle
 10
158.6128012797944
 20
413.493676349489
 30
0.0
 40
3.0
100
AcDbArc
 50
-90.0
 51
0.0
  0
ARC
  5
1B9
330
1F
100
AcDbEntity
  8
1
  6
Continuous
 62
     7
100
AcDbCircle
 10
467.6620610944592
 20
387.637084341311
 30
0.0
 40
1.0
100
AcDbArc
 50
0.0
 51
90.0
  0
ARC
  5
1BA
330
1F
100
AcDbEntity
  8
1
  6
Continuous
 62
     7
100
AcDbCircle
 10
468.6620610944592
 20
388.637084341311
 30
0.0
 40
2.0
100
AcDbArc
 50
0.0
 51
90.0
  0
ARC
  5
1BB
330
1F
100
AcDbEntity
  8
1
  6
Continuous
 62
     7
100
AcDbCircle
 10
496.6620610944592
 20
412.637084341311
 30
0.0
 40
3.0
100
AcDbArc
 50
0.0
 51
90.0
  0
ARC
  5
1BC
330
1F
100
AcDbEntity
  8
1
  6
Continuous
 62
     7
100
AcDbCircle
 10
496.6620610944592
 20
408.637084341311
 30
0.0
 40
3.0
100
AcDbArc
 50
-90.0
 51
0.0
  0
ARC
  5
1BD
330
1F
100
AcDbEntity
  8
1
  6
Continuous
 62
     7
100
AcDbCircle
 10
490.6620610944592
 20
361.6370843413109
 30
0.0
 40
1.0
100
AcDbArc
 50
180.0
 51
-90.0
  0
ARC
  5
1BE
330
1F
100
AcDbEntity
  8
1
  6
Continuous
 62
     7
100
AcDbCircle
 10
490.6620610944592
 20
389.637084341311
 30
0.0
 40
1.0
100
AcDbArc
 50
90.0
 51
180.0
  0
ARC
  5
1BF
330
1F
100
AcDbEntity
  8
1
  6
Continuous
 62
     7
100
AcDbCircle
 10
498.1108739304982
 20
388.637084341311
 30
0.0
 40
2.000000000002157
100
AcDbArc
 50
13.60896063078214
 51
90.0
  0
ARC
  5
1C0
330
1F
100
AcDbEntity
  8
1
  6
Continuous
 62
     7
100
AcDbCircle
 10
498.1108739304982
 20
362.6370843413109
 30
0.0
 40
2.0
100
AcDbArc
 50
-90.0
 51
-13.60896063075917
  0
ARC
  5
1C1
330
1F
100
AcDbEntity
  8
1
  6
Continuous
 62
     7
100
AcDbCircle
 10
324.221824686941
 20
170.5404477523896
 30
0.0
 40
2.0
100
AcDbArc
 50
0.0
 51
90.0
  0
ARC
  5
1C2
330
1F
100
AcDbEntity
  8
1
  6
Continuous
 62
     7
100
AcDbCircle
 10
323.221824686941
 20
169.5404477523896
 30
0.0
 40
1.0
100
AcDbArc
 50
0.0
 51
90.0
  0
ARC
  5
1C3
330
1F
100
AcDbEntity
  8
1
  6
Continuous
 62
     7
100
AcDbCircle
 10
308.721824686941
 20
175.0404477523896
 30
0.0
 40
1.0
100
AcDbArc
 50
180.0
 51
-90.0
  0
ARC
  5
1C4
330
1F
100
AcDbEntity
  8
1
  6
Continuous
 62
     7
100
AcDbCircle
 10
325.221824686941
 20
177.5404477523896
 30
0.0
 40
1.0
100
AcDbArc
 50
0.0
 51
90.0
  0
ARC
  5
1C5
330
1F
100
AcDbEntity
  8
1
  6
Continuous
 62
     7
100
AcDbCircle
 10
325.221824686941
 20
177.5404477523896
 30
0.0
 40
5.0
100
AcDbArc
 50
0.0
 51
90.0
  0
TEXT
  5
1C6
330
1F
100
AcDbEntity
  8
1
 62
     2
100
AcDbText
 10
35.4620930552577
 20
25.7348709333189
 30
0.0
 40
6.4
  1
押さえナット追加
 41
0.89
  7
CONVERTER_2
100
AcDbText
  0
TEXT
  5
1C7
330
1F
100
AcDbEntity
  8
1
 62
     2
100
AcDbText
 10
10.2417781187857
 20
26.676632737696
 30
0.0
 40
6.4
  1
2
 41
0.9
  7
CONVERTER_1
100
AcDbText
  0
MTEXT
  5
1C8
330
1F
100
AcDbEntity
  8
1
 62
     2
100
AcDbMText
 10
380.906980918374
 20
22.0955646735083
 30
0.0
 40
6.4
 41
0.0
 71
     9
 72
     1
  1
2011.8.26
  7
CONVERTER_1
 73
     1
 44
1.20048019207683
  0
MTEXT
  5
1C9
330
1F
100
AcDbEntity
  8
1
 62
     7
100
AcDbMText
 10
110.4972197246655
 20
475.5307272481196
 30
0.0
 40
10.0
 41
0.0
 71
     4
 72
     1
  1
FG1型 ガイド
  7
CONVERTER_2
 73
     1
 44
1.32052821128451
  0
MTEXT
  5
1CA
330
1F
100
AcDbEntity
  8
1
 62
     2
100
AcDbMText
 10
507.753143777384
 20
10.18821483710514
 30
0.0
 40
8.0
 41
0.0
 71
     5
 72
     1
  1
TBC,TBH
  7
CONVERTER_1
 73
     1
 44
0.7202881152461
  0
MTEXT
  5
1CB
330
1F
100
AcDbEntity
  8
1
 62
     2
100
AcDbMText
 10
732.358451865229
 20
9.4771299242418
 30
0.0
 40
6.4
 41
0.0
 71
     5
 72
     1
  1
W_TBCH_G_010_2
  7
CONVERTER_1
 73
     1
 44
0.7202881152461
  0
MTEXT
  5
1CC
330
1F
100
AcDbEntity
  8
1
 62
     7
100
AcDbMText
 10
404.1960225967093
 20
474.0292018137333
 30
0.0
 40
10.0
 41
0.0
 71
     4
 72
     1
  1
FG1型（片側差し込み）ガイド
  7
CONVERTER_2
 73
     1
 44
1.32052821128451
  0
TEXT
  5
1CD
330
1F
100
AcDbEntity
  8
1
 62
     2
100
AcDbText
 10
473.1265178967777
 20
26.39701000054708
 30
0.0
 40
8.0
  1
フードベヤシリーズ
 41
0.89
  7
CONVERTER_2
100
AcDbText
  0
TEXT
  5
1CE
330
1F
100
AcDbEntity
  8
1
 62
     2
100
AcDbText
 10
670.8079599703835
 20
25.33408258878798
 30
0.0
 40
8.0
  1
ガイド
 41
0.89
  7
CONVERTER_2
100
AcDbText
  0
MTEXT
  5
1CF
330
1F
100
AcDbEntity
  8
1
 62
     7
100
AcDbMText
 10
264.0616687022224
 20
252.6203204155962
 30
0.0
 40
10.0
 41
0.0
 71
     4
 72
     1
  1
FG3型 ガイド
  7
CONVERTER_2
 73
     1
 44
1.32052821128451
  0
MTEXT
  5
1D0
330
1F
100
AcDbEntity
  8
1
 62
     2
100
AcDbMText
 10
338.952772808587
 20
212.862719666522
 30
0.0
 40
5.0
 41
0.0
 71
     5
 72
     1
  1
2
  7
CONVERTER_1
 73
     1
 44
0.60024009603842
  0
DIMENSION
  5
1E3
330
1F
100
AcDbEntity
  8
1
100
AcDbDimension
  2
*D02
 10
421.6505511997328
 20
112.319933225106
 30
0.0
 11
432.029174893833
 21
116.919933225106
 31
0.0
 70
    32
  1
<>
 71
     5
 42
-1.0
 53
0.00013888888889
  3
ME10_DIM_0
100
AcDbAlignedDimension
 13
441.6505511997328
 23
133.5404477523896
 33
0.0
 14
421.6505511997328
 24
133.5404477523896
 34
0.0
100
AcDbRotatedDimension
  0
DIMENSION
  5
1F0
330
1F
100
AcDbEntity
  8
1
100
AcDbDimension
  2
*D14
 10
584.1751263344278
 20
325.230899249837
 30
0.0
 11
615.513044218062
 21
330.310899249837
 31
0.0
 70
    32
  1
<>
 71
     5
 42
-1.0
 53
0.00013888888889
  3
ME10_DIM_1
100
AcDbAlignedDimension
 13
649.1751263344278
 23
366.6370843413109
 33
0.0
 14
584.1751263344278
 24
366.6370843413109
 34
0.0
100
AcDbRotatedDimension
  0
DIMENSION
  5
1FD
330
1F
100
AcDbEntity
  8
1
100
AcDbDimension
  2
*D25
 10
604.1751263344278
 20
339.651259164786
 30
0.0
 11
616.78542891644
 21
344.251259164786
 31
0.0
 70
    32
  1
<>
 71
     5
 42
-1.0
 53
0.00013888888889
  3
ME10_DIM_2
100
AcDbAlignedDimension
 13
629.1751263344278
 23
364.6370843413109
 33
0.0
 14
604.1751263344278
 24
364.6370843413109
 34
0.0
100
AcDbRotatedDimension
  0
DIMENSION
  5
20A
330
1F
100
AcDbEntity
  8
1
100
AcDbDimension
  2
*D36
 10
221.4132668145799
 20
332.7604706213159
 30
0.0
 11
239.5204107742837
 21
337.3604706213159
 31
0.0
 70
    32
  1
<>
 71
     5
 42
-1.0
 53
0.00013888888889
  3
ME10_DIM_3
100
AcDbAlignedDimension
 13
259.4132668145801
 23
354.4936763494889
 33
0.0
 14
221.4132668145799
 24
354.4936763494889
 34
0.0
100
AcDbRotatedDimension
  0
DIMENSION
  5
217
330
1F
100
AcDbEntity
  8
1
100
AcDbDimension
  2
*D47
 10
96.89294640086271
 20
431.493676349489
 30
0.0
 11
90.75033786128871
 21
423.0408349215123
 31
0.0
 70
    32
  1
<>
 71
     5
 42
-1.0
 53
90.0
  3
ME10_DIM_4
100
AcDbAlignedDimension
 13
107.6128012797944
 23
399.493676349489
 33
0.0
 14
111.6128012797944
 24
431.493676349489
 34
0.0
 50
90.0
100
AcDbRotatedDimension
  0
DIMENSION
  5
226
330
1F
100
AcDbEntity
  8
1
100
AcDbDimension
  2
*D58
 10
132.6128012797944
 20
431.4936763494889
 30
0.0
 11
136.5836477334937
 21
437.1736763494889
 31
0.0
 70
    32
  1
<>
 71
     5
 42
-1.0
 53
0.00013888888889
  3
ME10_DIM_5
100
AcDbAlignedDimension
 13
141.6128012797944
 23
425.493676349489
 33
0.0
 14
132.6128012797944
 24
425.493676349489
 34
0.0
100
AcDbRotatedDimension
  0
DIMENSION
  5
233
330
1F
100
AcDbEntity
  8
1
100
AcDbDimension
  2
*D69
 10
434.9422062155275
 20
426.6370843413109
 30
0.0
 11
428.7995976759535
 21
418.1842429133343
 31
0.0
 70
    32
  1
<>
 71
     5
 42
-1.0
 53
90.0
  3
ME10_DIM_6
100
AcDbAlignedDimension
 13
445.6620610944592
 23
394.637084341311
 33
0.0
 14
449.6620610944592
 24
426.637084341311
 34
0.0
 50
90.0
100
AcDbRotatedDimension
  0
DIMENSION
  5
240
330
1F
100
AcDbEntity
  8
1
100
AcDbDimension
  2
*D710
 10
421.2394640887856
 20
410.6370843413109
 30
0.0
 11
416.0394640887856
 21
399.0476547708163
 31
0.0
 70
    32
  1
<>
 71
     5
 42
-1.0
 53
90.0
  3
ME10_DIM_7
100
AcDbAlignedDimension
 13
468.6620610944592
 23
390.637084341311
 33
0.0
 14
442.2679871717919
 24
410.637084341311
 34
0.0
 50
90.0
100
AcDbRotatedDimension
  0
DIMENSION
  5
24F
330
1F
100
AcDbEntity
  8
1
100
AcDbDimension
  2
*D811
 10
470.6620610944592
 20
426.6370843413109
 30
0.0
 11
474.6329075481585
 21
432.3170843413109
 31
0.0
 70
    32
  1
<>
 71
     5
 42
-1.0
 53
0.00013888888889
  3
ME10_DIM_8
100
AcDbAlignedDimension
 13
479.6620610944592
 23
420.637084341311
 33
0.0
 14
470.6620610944592
 24
420.637084341311
 34
0.0
100
AcDbRotatedDimension
  0
DIMENSION
  5
25C
330
1F
100
AcDbEntity
  8
1
100
AcDbDimension
  2
*D912
 10
84.0097881464126
 20
415.4936763494889
 30
0.0
 11
79.4097881464126
 21
405.7380193839059
 31
0.0
 70
    32
  1
<>
 71
     5
 42
-1.0
 53
90.0
  3
ME10_DIM_9
100
AcDbAlignedDimension
 13
67.5932021466905
 23
395.493676349489
 33
0.0
 14
104.2187273571271
 24
415.493676349489
 34
0.0
 50
90.0
100
AcDbRotatedDimension
  0
DIMENSION
  5
269
330
1F
100
AcDbEntity
  8
1
100
AcDbDimension
  2
*D1013
 10
354.5058685651012
 20
172.5404477523896
 30
0.0
 11
349.9058685651013
 21
189.081900212677
 31
0.0
 70
    32
  1
<>
 71
     5
 42
-1.0
 53
90.0
  3
ME10_DIM_10
100
AcDbAlignedDimension
 13
307.721824686941
 23
202.5404477523896
 33
0.0
 14
325.221824686941
 24
172.5404477523896
 34
0.0
 50
90.0
100
AcDbRotatedDimension
  0
DIMENSION
  5
278
330
1F
100
AcDbEntity
  8
1
100
AcDbDimension
  2
*D1114
 10
306.221824686941
 20
211.1232809209769
 30
0.0
 11
296.5083879673982
 21
215.7232809209769
 31
0.0
 70
    32
  1
<>
 71
     5
 42
-1.0
 53
0.00013888888889
  3
ME10_DIM_11
100
AcDbAlignedDimension
 13
307.721824686941
 23
202.5404477523896
 33
0.0
 14
306.221824686941
 24
202.5404477523896
 34
0.0
100
AcDbRotatedDimension
  0
DIMENSION
  5
287
330
1F
100
AcDbEntity
  8
1
100
AcDbDimension
  2
*D1215
 10
330.221824686941
 20
124.935067265256
 30
0.0
 11
340.205201596257
 21
130.015067265256
 31
0.0
 70
    32
  1
<>
 71
     5
 42
-1.0
 53
0.00013888888889
  3
ME10_DIM_12
100
AcDbAlignedDimension
 13
324.221824686941
 23
102.5404477523896
 33
0.0
 14
330.221824686941
 24
132.5404477523896
 34
0.0
100
AcDbRotatedDimension
  0
DIMENSION
  5
296
330
1F
100
AcDbEntity
  8
1
100
AcDbDimension
  2
*D1316
 10
107.6128012797944
 20
443.7770408476673
 30
0.0
 11
98.14314176037071
 21
448.3770408476673
 31
0.0
 70
    32
  1
<>
 71
     5
 42
-1.0
 53
0.00013888888889
  3
ME10_DIM_13
100
AcDbAlignedDimension
 13
111.6128012797944
 23
431.493676349489
 33
0.0
 14
107.6128012797944
 24
431.493676349489
 34
0.0
100
AcDbRotatedDimension
  0
DIMENSION
  5
2A3
330
1F
100
AcDbEntity
  8
1
100
AcDbDimension
  2
*D1417
 10
111.6128012797944
 20
443.7770408476673
 30
0.0
 11
143.6352586155787
 21
449.3057445241492
 31
0.0
 70
    32
  1
<>
 71
     5
 42
-1.0
 53
0.00013888888889
  3
ME10_DIM_14
100
AcDbAlignedDimension
 13
161.6128012797944
 23
417.493676349489
 33
0.0
 14
111.6128012797944
 24
431.493676349489
 34
0.0
100
AcDbRotatedDimension
  0
DIMENSION
  5
2B2
330
1F
100
AcDbEntity
  8
1
100
AcDbDimension
  2
*D1518
 10
445.6620610944593
 20
438.9204488394893
 30
0.0
 11
436.1924015750356
 21
443.5204488394893
 31
0.0
 70
    32
  1
<>
 71
     5
 42
-1.0
 53
0.00013888888889
  3
ME10_DIM_15
100
AcDbAlignedDimension
 13
449.6620610944592
 23
426.637084341311
 33
0.0
 14
445.6620610944592
 24
426.637084341311
 34
0.0
100
AcDbRotatedDimension
  0
DIMENSION
  5
2BF
330
1F
100
AcDbEntity
  8
1
100
AcDbDimension
  2
*D1619
 10
449.6620610944592
 20
438.9204488394893
 30
0.0
 11
481.6845184302435
 21
444.4491525159712
 31
0.0
 70
    32
  1
<>
 71
     5
 42
-1.0
 53
0.00013888888889
  3
ME10_DIM_16
100
AcDbAlignedDimension
 13
499.6620610944592
 23
412.637084341311
 33
0.0
 14
449.6620610944592
 24
426.637084341311
 34
0.0
100
AcDbRotatedDimension
  0
DIMENSION
  5
2CC
330
1F
100
AcDbEntity
  8
1
100
AcDbDimension
  2
*D1720
 10
306.221824686941
 20
219.4199034548552
 30
0.0
 11
315.7872565898389
 21
224.4999034548552
 31
0.0
 70
    32
  1
<>
 71
     5
 42
-1.0
 53
0.00013888888889
  3
ME10_DIM_17
100
AcDbAlignedDimension
 13
325.221824686941
 23
174.0404477523896
 33
0.0
 14
306.221824686941
 24
202.5404477523896
 34
0.0
100
AcDbRotatedDimension
  0
ENDSEC
  0
SECTION
  2
OBJECTS
  0
DICTIONARY
  5
C
330
0
100
AcDbDictionary
281
     1
  3
ACAD_GROUP
350
D
  3
ACAD_LAYOUT
350
1A
  3
ACAD_MLINESTYLE
350
17
  3
ACAD_PLOTSETTINGS
350
19
  3
ACAD_PLOTSTYLENAME
350
E
  0
DICTIONARY
  5
D
102
{ACAD_REACTORS
330
C
102
}
330
C
100
AcDbDictionary
281
     1
  0
DICTIONARY
  5
1A
102
{ACAD_REACTORS
330
C
102
}
330
C
100
AcDbDictionary
281
     1
  3
Layout1
350
1E
  3
Layout2
350
26
  3
Model
350
22
  0
DICTIONARY
  5
17
102
{ACAD_REACTORS
330
C
102
}
330
C
100
AcDbDictionary
281
     1
  3
Standard
350
18
  0
DICTIONARY
  5
19
102
{ACAD_REACTORS
330
C
102
}
330
C
100
AcDbDictionary
281
     1
  0
ACDBDICTIONARYWDFLT
  5
E
102
{ACAD_REACTORS
330
C
102
}
330
C
100
AcDbDictionary
281
     1
  3
Normal
350
F
100
AcDbDictionaryWithDefault
340
F
  0
LAYOUT
  5
1E
102
{ACAD_REACTORS
330
1A
102
}
330
1A
100
AcDbPlotSettings
  1

  2

  4

  6

 40
0.0
 41
0.0
 42
0.0
 43
0.0
 44
0.0
 45
0.0
 46
0.0
 47
0.0
 48
0.0
 49
0.0
140
0.0
141
0.0
142
1.0
143
1.0
 70
   688
 72
     0
 73
     0
 74
     5
  7

 75
    16
147
1.0
148
0.0
149
0.0
100
AcDbLayout
  1
Layout1
 70
     1
 71
     1
 10
0.0
 20
0.0
 11
0.0
 21
0.0
 12
0.0
 22
0.0
 32
0.0
 14
0.0
 24
0.0
 34
0.0
 15
0.0
 25
0.0
 35
0.0
146
0.0
 13
0.0
 23
0.0
 33
0.0
 16
1.0
 26
0.0
 36
0.0
 17
0.0
 27
1.0
 37
0.0
 76
     0
330
1B
  0
LAYOUT
  5
26
102
{ACAD_REACTORS
330
1A
102
}
330
1A
100
AcDbPlotSettings
  1

  2

  4

  6

 40
0.0
 41
0.0
 42
0.0
 43
0.0
 44
0.0
 45
0.0
 46
0.0
 47
0.0
 48
0.0
 49
0.0
140
0.0
141
0.0
142
1.0
143
1.0
 70
   688
 72
     0
 73
     0
 74
     5
  7

 75
    16
147
1.0
148
0.0
149
0.0
100
AcDbLayout
  1
Layout2
 70
     1
 71
     2
 10
0.0
 20
0.0
 11
0.0
 21
0.0
 12
0.0
 22
0.0
 32
0.0
 14
0.0
 24
0.0
 34
0.0
 15
0.0
 25
0.0
 35
0.0
146
0.0
 13
0.0
 23
0.0
 33
0.0
 16
1.0
 26
0.0
 36
0.0
 17
0.0
 27
1.0
 37
0.0
 76
     0
330
23
  0
LAYOUT
  5
22
102
{ACAD_REACTORS
330
1A
102
}
330
1A
100
AcDbPlotSettings
  1

  2

  4

  6

 40
0.0
 41
0.0
 42
0.0
 43
0.0
 44
0.0
 45
0.0
 46
0.0
 47
0.0
 48
0.0
 49
0.0
140
0.0
141
0.0
142
1.0
143
1.0
 70
  1712
 72
     0
 73
     0
 74
     0
  7

 75
     0
147
1.0
148
0.0
149
0.0
100
AcDbLayout
  1
Model
 70
     1
 71
     0
 10
0.0
 20
0.0
 11
0.0
 21
0.0
 12
0.0
 22
0.0
 32
0.0
 14
0.0
 24
-4.51230664191138
 34
0.0
 15
788.0
 25
536.0
 35
0.0
146
0.0
 13
0.0
 23
0.0
 33
0.0
 16
1.0
 26
0.0
 36
0.0
 17
0.0
 27
1.0
 37
0.0
 76
     0
330
1F
  0
MLINESTYLE
  5
18
102
{ACAD_REACTORS
330
17
102
}
330
17
100
AcDbMlineStyle
  2
Standard
 70
     0
  3

 62
   256
 51
90.0
 52
90.0
 71
     2
 49
0.5
 62
   256
  6
BYLAYER
 49
-0.5
 62
   256
  6
BYLAYER
  0
ACDBPLACEHOLDER
  5
F
102
{ACAD_REACTORS
330
E
102
}
330
E
  0
ENDSEC
  0
EOF
