  0
SECTION
  2
HEADER
  9
$ACADVER
  1
AC1015
  9
$ACADMAINTVER
 70
     6
  9
$DWGCODEPAGE
  3
DOS932
  9
$INSBASE
 10
0.0
 20
0.0
 30
0.0
  9
$EXTMIN
 10
0.0
 20
-4.51230664191138
 30
0.0
  9
$EXTMAX
 10
788.0
 20
536.0
 30
0.0
  9
$LIMMIN
 10
0.0
 20
0.0
  9
$LIMMAX
 10
12.0
 20
9.0
  9
$ORTHOMODE
 70
     0
  9
$REGENMODE
 70
     1
  9
$FILLMODE
 70
     1
  9
$QTEXTMODE
 70
     0
  9
$MIRRTEXT
 70
     1
  9
$LTSCALE
 40
1.0
  9
$ATTMODE
 70
     1
  9
$TEXTSIZE
 40
0.2
  9
$TRACEWID
 40
0.05
  9
$TEXTSTYLE
  7
Standard
  9
$CLAYER
  8
0
  9
$CELTYPE
  6
ByLayer
  9
$CECOLOR
 62
   256
  9
$CELTSCALE
 40
1.0
  9
$DISPSILH
 70
     0
  9
$DIMSCALE
 40
1.0
  9
$DIMASZ
 40
0.18
  9
$DIMEXO
 40
0.0625
  9
$DIMDLI
 40
0.38
  9
$DIMRND
 40
0.0
  9
$DIMDLE
 40
0.0
  9
$DIMEXE
 40
0.18
  9
$DIMTP
 40
0.0
  9
$DIMTM
 40
0.0
  9
$DIMTXT
 40
0.18
  9
$DIMCEN
 40
0.09
  9
$DIMTSZ
 40
0.0
  9
$DIMTOL
 70
     0
  9
$DIMLIM
 70
     0
  9
$DIMTIH
 70
     1
  9
$DIMTOH
 70
     1
  9
$DIMSE1
 70
     0
  9
$DIMSE2
 70
     0
  9
$DIMTAD
 70
     0
  9
$DIMZIN
 70
     0
  9
$DIMBLK
  1

  9
$DIMASO
 70
     1
  9
$DIMSHO
 70
     1
  9
$DIMPOST
  1

  9
$DIMAPOST
  1

  9
$DIMALT
 70
     0
  9
$DIMALTD
 70
     2
  9
$DIMALTF
 40
25.4
  9
$DIMLFAC
 40
1.0
  9
$DIMTOFL
 70
     0
  9
$DIMTVP
 40
0.0
  9
$DIMTIX
 70
     0
  9
$DIMSOXD
 70
     0
  9
$DIMSAH
 70
     0
  9
$DIMBLK1
  1

  9
$DIMBLK2
  1

  9
$DIMSTYLE
  2
Standard
  9
$DIMCLRD
 70
     0
  9
$DIMCLRE
 70
     0
  9
$DIMCLRT
 70
     0
  9
$DIMTFAC
 40
1.0
  9
$DIMGAP
 40
0.09
  9
$DIMJUST
 70
     0
  9
$DIMSD1
 70
     0
  9
$DIMSD2
 70
     0
  9
$DIMTOLJ
 70
     1
  9
$DIMTZIN
 70
     0
  9
$DIMALTZ
 70
     0
  9
$DIMALTTZ
 70
     0
  9
$DIMUPT
 70
     0
  9
$DIMDEC
 70
     4
  9
$DIMTDEC
 70
     4
  9
$DIMALTU
 70
     2
  9
$DIMALTTD
 70
     2
  9
$DIMTXSTY
  7
Standard
  9
$DIMAUNIT
 70
     0
  9
$DIMADEC
 70
     0
  9
$DIMALTRND
 40
0.0
  9
$DIMAZIN
 70
     0
  9
$DIMDSEP
 70
    46
  9
$DIMATFIT
 70
     3
  9
$DIMFRAC
 70
     0
  9
$DIMLDRBLK
  1

  9
$DIMLUNIT
 70
     2
  9
$DIMLWD
 70
    -2
  9
$DIMLWE
 70
    -2
  9
$DIMTMOVE
 70
     0
  9
$LUNITS
 70
     2
  9
$LUPREC
 70
     4
  9
$SKETCHINC
 40
0.1
  9
$FILLETRAD
 40
0.5
  9
$AUNITS
 70
     0
  9
$AUPREC
 70
     0
  9
$MENU
  1
.
  9
$ELEVATION
 40
0.0
  9
$PELEVATION
 40
0.0
  9
$THICKNESS
 40
0.0
  9
$LIMCHECK
 70
     0
  9
$CHAMFERA
 40
0.5
  9
$CHAMFERB
 40
0.5
  9
$CHAMFERC
 40
1.0
  9
$CHAMFERD
 40
0.0
  9
$SKPOLY
 70
     0
  9
$TDCREATE
 40
2455839.62054088
  9
$TDUCREATE
 40
2455839.24554088
  9
$TDUPDATE
 40
2455839.620540891
  9
$TDUUPDATE
 40
2455839.245540891
  9
$TDINDWG
 40
0.0000000116
  9
$TDUSRTIMER
 40
0.0000000116
  9
$USRTIMER
 70
     1
  9
$ANGBASE
 50
0.0
  9
$ANGDIR
 70
     0
  9
$PDMODE
 70
     0
  9
$PDSIZE
 40
0.0
  9
$PLINEWID
 40
0.0
  9
$SPLFRAME
 70
     0
  9
$SPLINETYPE
 70
     6
  9
$SPLINESEGS
 70
     8
  9
$HANDSEED
  5
2AD
  9
$SURFTAB1
 70
     6
  9
$SURFTAB2
 70
     6
  9
$SURFTYPE
 70
     6
  9
$SURFU
 70
     6
  9
$SURFV
 70
     6
  9
$UCSBASE
  2

  9
$UCSNAME
  2

  9
$UCSORG
 10
0.0
 20
0.0
 30
0.0
  9
$UCSXDIR
 10
1.0
 20
0.0
 30
0.0
  9
$UCSYDIR
 10
0.0
 20
1.0
 30
0.0
  9
$UCSORTHOREF
  2

  9
$UCSORTHOVIEW
 70
     0
  9
$UCSORGTOP
 10
0.0
 20
0.0
 30
0.0
  9
$UCSORGBOTTOM
 10
0.0
 20
0.0
 30
0.0
  9
$UCSORGLEFT
 10
0.0
 20
0.0
 30
0.0
  9
$UCSORGRIGHT
 10
0.0
 20
0.0
 30
0.0
  9
$UCSORGFRONT
 10
0.0
 20
0.0
 30
0.0
  9
$UCSORGBACK
 10
0.0
 20
0.0
 30
0.0
  9
$PUCSBASE
  2

  9
$PUCSNAME
  2

  9
$PUCSORG
 10
0.0
 20
0.0
 30
0.0
  9
$PUCSXDIR
 10
1.0
 20
0.0
 30
0.0
  9
$PUCSYDIR
 10
0.0
 20
1.0
 30
0.0
  9
$PUCSORTHOREF
  2

  9
$PUCSORTHOVIEW
 70
     0
  9
$PUCSORGTOP
 10
0.0
 20
0.0
 30
0.0
  9
$PUCSORGBOTTOM
 10
0.0
 20
0.0
 30
0.0
  9
$PUCSORGLEFT
 10
0.0
 20
0.0
 30
0.0
  9
$PUCSORGRIGHT
 10
0.0
 20
0.0
 30
0.0
  9
$PUCSORGFRONT
 10
0.0
 20
0.0
 30
0.0
  9
$PUCSORGBACK
 10
0.0
 20
0.0
 30
0.0
  9
$USERI1
 70
     0
  9
$USERI2
 70
     0
  9
$USERI3
 70
     0
  9
$USERI4
 70
     0
  9
$USERI5
 70
     0
  9
$USERR1
 40
14.0
  9
$USERR2
 40
0.0
  9
$USERR3
 40
0.0
  9
$USERR4
 40
0.0
  9
$USERR5
 40
0.0
  9
$WORLDVIEW
 70
     1
  9
$SHADEDGE
 70
     3
  9
$SHADEDIF
 70
    70
  9
$TILEMODE
 70
     1
  9
$MAXACTVP
 70
    64
  9
$PINSBASE
 10
0.0
 20
0.0
 30
0.0
  9
$PLIMCHECK
 70
     0
  9
$PEXTMIN
 10
1.00000000000000E+20
 20
1.00000000000000E+20
 30
1.00000000000000E+20
  9
$PEXTMAX
 10
-1.00000000000000E+20
 20
-1.00000000000000E+20
 30
-1.00000000000000E+20
  9
$PLIMMIN
 10
0.0
 20
0.0
  9
$PLIMMAX
 10
12.0
 20
9.0
  9
$UNITMODE
 70
     0
  9
$VISRETAIN
 70
     1
  9
$PLINEGEN
 70
     0
  9
$PSLTSCALE
 70
     1
  9
$TREEDEPTH
 70
  3020
  9
$CMLSTYLE
  2
Standard
  9
$CMLJUST
 70
     0
  9
$CMLSCALE
 40
1.0
  9
$PROXYGRAPHICS
 70
     1
  9
$MEASUREMENT
 70
     1
  9
$CELWEIGHT
370
    -1
  9
$ENDCAPS
280
     0
  9
$JOINSTYLE
280
     0
  9
$LWDISPLAY
290
     0
  9
$INSUNITS
 70
     1
  9
$HYPERLINKBASE
  1

  9
$STYLESHEET
  1

  9
$XEDIT
290
     1
  9
$CEPSNTYPE
380
     0
  9
$PSTYLEMODE
290
     1
  9
$FINGERPRINTGUID
  2
{D352B3C1-A1FB-4852-9C5E-C80FDD161477}
  9
$VERSIONGUID
  2
{FAEB1C32-E019-11D5-929B-00C0DF256EC4}
  9
$EXTNAMES
290
     1
  9
$PSVPSCALE
 40
0.0
  9
$OLESTARTUP
290
     0
  0
ENDSEC
  0
SECTION
  2
CLASSES
  0
CLASS
  1
ACDBDICTIONARYWDFLT
  2
AcDbDictionaryWithDefault
  3
ObjectDBX Classes
 90
        0
280
     0
281
     0
  0
CLASS
  1

  2
exOdDbCircle
  3

 90
        0
280
     0
281
     1
  0
CLASS
  1

  2
exOdDbSpline
  3

 90
        0
280
     0
281
     1
  0
CLASS
  1
ACDBPLACEHOLDER
  2
AcDbPlaceHolder
  3
ObjectDBX Classes
 90
        0
280
     0
281
     0
  0
CLASS
  1
LAYOUT
  2
AcDbLayout
  3
ObjectDBX Classes
 90
        0
280
     0
281
     0
  0
ENDSEC
  0
SECTION
  2
TABLES
  0
TABLE
  2
VPORT
  5
8
330
0
100
AcDbSymbolTable
 70
     1
  0
VPORT
  5
29
330
8
100
AcDbSymbolTableRecord
100
AcDbViewportTableRecord
  2
*Active
 70
     0
 10
0.0
 20
0.0
 11
1.0
 21
1.0
 12
394.0
 22
265.7438466790443
 13
0.0
 23
0.0
 14
0.5
 24
0.5
 15
0.5
 25
0.5
 16
0.0
 26
0.0
 36
1.0
 17
0.0
 27
0.0
 37
0.0
 40
594.5635373061026
 41
1.60267857142857
 42
50.0
 43
0.0
 44
0.0
 50
0.0
 51
0.0
 71
     0
 72
   100
 73
     1
 74
     3
 75
     0
 76
     0
 77
     0
 78
     0
281
     0
 65
     1
110
0.0
120
0.0
130
0.0
111
1.0
121
0.0
131
0.0
112
0.0
122
1.0
132
0.0
 79
     0
146
0.0
  0
ENDTAB
  0
TABLE
  2
LTYPE
  5
5
330
0
100
AcDbSymbolTable
 70
     8
  0
LTYPE
  5
14
330
5
100
AcDbSymbolTableRecord
100
AcDbLinetypeTableRecord
  2
ByBlock
 70
     0
  3

 72
    65
 73
     0
 40
0.0
  0
LTYPE
  5
15
330
5
100
AcDbSymbolTableRecord
100
AcDbLinetypeTableRecord
  2
ByLayer
 70
     0
  3

 72
    65
 73
     0
 40
0.0
  0
LTYPE
  5
16
330
5
100
AcDbSymbolTableRecord
100
AcDbLinetypeTableRecord
  2
Continuous
 70
     0
  3
Solid line
 72
    65
 73
     0
 40
0.0
  0
LTYPE
  5
2A
330
5
100
AcDbSymbolTableRecord
100
AcDbLinetypeTableRecord
  2
DASHED
 70
     0
  3
Dashed
 72
    65
 73
     2
 40
15.0
 49
7.0
 74
     0
 49
-8.0
 74
     0
  0
LTYPE
  5
2B
330
5
100
AcDbSymbolTableRecord
100
AcDbLinetypeTableRecord
  2
DOTTED
 70
     0
  3
Dotted
 72
    65
 73
     2
 40
1.0
 49
0.0
 74
     0
 49
-1.0
 74
     0
  0
LTYPE
  5
2C
330
5
100
AcDbSymbolTableRecord
100
AcDbLinetypeTableRecord
  2
DOT_CENTER
 70
     0
  3
Dot_Center
 72
    65
 73
     4
 40
14.0
 49
12.0
 74
     0
 49
-1.0
 74
     0
 49
0.0
 74
     0
 49
-1.0
 74
     0
  0
LTYPE
  5
2D
330
5
100
AcDbSymbolTableRecord
100
AcDbLinetypeTableRecord
  2
LONG_DASHED
 70
     0
  3
Long_Dashed
 72
    65
 73
     2
 40
15.0
 49
10.0
 74
     0
 49
-5.0
 74
     0
  0
LTYPE
  5
2E
330
5
100
AcDbSymbolTableRecord
100
AcDbLinetypeTableRecord
  2
DASH_CENTER
 70
     0
  3
Dash_Center
 72
    65
 73
     4
 40
14.0
 49
11.0
 74
     0
 49
-1.0
 74
     0
 49
1.0
 74
     0
 49
-1.0
 74
     0
  0
LTYPE
  5
2F
330
5
100
AcDbSymbolTableRecord
100
AcDbLinetypeTableRecord
  2
PHANTOM
 70
     0
  3
Phantom
 72
    65
 73
     6
 40
13.0
 49
10.0
 74
     0
 49
-1.0
 74
     0
 49
0.0
 74
     0
 49
-1.0
 74
     0
 49
0.0
 74
     0
 49
-1.0
 74
     0
  0
LTYPE
  5
30
330
5
100
AcDbSymbolTableRecord
100
AcDbLinetypeTableRecord
  2
CENTER_DASH_DASH
 70
     0
  3
Center_Dash_Dash
 72
    65
 73
     6
 40
14.0
 49
9.0
 74
     0
 49
-1.0
 74
     0
 49
1.0
 74
     0
 49
-1.0
 74
     0
 49
1.0
 74
     0
 49
-1.0
 74
     0
  0
ENDTAB
  0
TABLE
  2
LAYER
  5
2
330
0
100
AcDbSymbolTable
 70
     2
  0
LAYER
  5
10
330
2
100
AcDbSymbolTableRecord
100
AcDbLayerTableRecord
  2
0
 70
     0
 62
     7
  6
Continuous
370
    -3
390
F
  0
LAYER
  5
31
330
2
100
AcDbSymbolTableRecord
100
AcDbLayerTableRecord
  2
1
 70
     0
 62
     7
  6
Continuous
370
    -3
390
F
  0
ENDTAB
  0
TABLE
  2
STYLE
  5
3
330
0
100
AcDbSymbolTable
 70
     9
  0
STYLE
  5
11
330
3
100
AcDbSymbolTableRecord
100
AcDbTextStyleTableRecord
  2
Standard
 70
     0
 40
0.0
 41
1.0
 50
0.0
 71
     0
 42
0.2
  3
txt
  4

  0
STYLE
  5
50
330
3
100
AcDbSymbolTableRecord
100
AcDbTextStyleTableRecord
  2
CONVERTER_1
 70
     0
 40
0.0
 41
0.9
 50
0.0
 71
     0
 42
0.2
  3
txt.shx
  4

  0
STYLE
  5
52
330
3
100
AcDbSymbolTableRecord
100
AcDbTextStyleTableRecord
  2
CONVERTER_2
 70
     0
 40
0.0
 41
0.89
 50
0.0
 71
     0
 42
0.2
  3
MSMINCHO.TTC
  4

1001
ACAD
1000
MS Mincho
1071
    32785
  0
STYLE
  5
54
330
3
100
AcDbSymbolTableRecord
100
AcDbTextStyleTableRecord
  2
CONVERTER_3
 70
     0
 40
0.0
 41
1.068
 50
0.0
 71
     0
 42
0.2
  3
msmincho.ttc
  4

1001
ACAD
1000
MS Mincho
1071
    32785
  0
STYLE
  5
5A
330
3
100
AcDbSymbolTableRecord
100
AcDbTextStyleTableRecord
  2
CONVERTER_4
 70
     0
 40
0.0
 41
0.9025
 50
0.0
 71
     0
 42
0.2
  3
complex.shx
  4

  0
STYLE
  5
5E
330
3
100
AcDbSymbolTableRecord
100
AcDbTextStyleTableRecord
  2
CONVERTER_5
 70
     0
 40
0.0
 41
0.801
 50
0.0
 71
     0
 42
0.2
  3
msmincho.ttc
  4

1001
ACAD
1000
MS Mincho
1071
    32785
  0
STYLE
  5
1D4
330
3
100
AcDbSymbolTableRecord
100
AcDbTextStyleTableRecord
  2
CONVERTER_6
 70
     0
 40
0.0
 41
0.72
 50
0.0
 71
     0
 42
0.2
  3
txt.shx
  4

  0
STYLE
  5
1FA
330
3
100
AcDbSymbolTableRecord
100
AcDbTextStyleTableRecord
  2
CONVERTER_7
 70
     0
 40
0.0
 41
0.675
 50
0.0
 71
     0
 42
0.2
  3
txt.shx
  4

  0
STYLE
  5
209
330
3
100
AcDbSymbolTableRecord
100
AcDbTextStyleTableRecord
  2
CONVERTER_8
 70
     0
 40
0.0
 41
0.6675
 50
0.0
 71
     0
 42
0.2
  3
msmincho.ttc
  4

1001
ACAD
1000
MS Mincho
1071
    32785
  0
ENDTAB
  0
TABLE
  2
VIEW
  5
6
330
0
100
AcDbSymbolTable
 70
     0
  0
ENDTAB
  0
TABLE
  2
UCS
  5
7
330
0
100
AcDbSymbolTable
 70
     0
  0
ENDTAB
  0
TABLE
  2
APPID
  5
9
330
0
100
AcDbSymbolTable
 70
     1
  0
APPID
  5
12
330
9
100
AcDbSymbolTableRecord
100
AcDbRegAppTableRecord
  2
ACAD
 70
     0
  0
ENDTAB
  0
TABLE
  2
DIMSTYLE
  5
A
330
0
100
AcDbSymbolTable
 70
    15
100
AcDbDimStyleTable
  0
DIMSTYLE
105
27
330
A
100
AcDbSymbolTableRecord
100
AcDbDimStyleTableRecord
  2
Standard
 70
     0
340
11
  0
DIMSTYLE
105
1EF
102
{ACAD_REACTORS
330
1F0
102
}
330
A
100
AcDbSymbolTableRecord
100
AcDbDimStyleTableRecord
  2
ME10_DIM_0
 70
     0
 41
6.4
 42
2.0
 44
2.0
 73
     0
 74
     0
 77
     1
 78
     8
140
6.4
147
1.4
172
     1
173
     1
176
     2
177
     2
178
     2
271
     2
340
50
343
1E9
344
1E9
  0
DIMSTYLE
105
1FE
102
{ACAD_REACTORS
330
1FF
102
}
330
A
100
AcDbSymbolTableRecord
100
AcDbDimStyleTableRecord
  2
ME10_DIM_1
 70
     0
 41
5.12
 42
2.0
 44
2.0
 73
     0
 74
     0
 77
     1
 78
     8
140
6.4
147
2.0
172
     1
173
     1
176
     2
177
     2
178
     4
271
     2
340
1FA
343
1E9
344
1E9
  0
DIMSTYLE
105
20D
102
{ACAD_REACTORS
330
20E
102
}
330
A
100
AcDbSymbolTableRecord
100
AcDbDimStyleTableRecord
  2
ME10_DIM_2
 70
     0
 41
5.12
 42
2.0
 44
2.0
 73
     0
 74
     0
 77
     1
 78
     8
140
6.4
147
2.0
172
     1
173
     1
176
     2
177
     2
178
     4
271
     2
340
209
343
1E9
344
1E9
  0
DIMSTYLE
105
21C
102
{ACAD_REACTORS
330
21D
102
}
330
A
100
AcDbSymbolTableRecord
100
AcDbDimStyleTableRecord
  2
ME10_DIM_3
 70
     0
 41
5.12
 42
2.0
 44
2.0
 73
     0
 74
     0
 77
     1
 78
     8
140
6.4
147
2.0
172
     1
173
     1
176
     2
177
     2
178
     4
271
     2
340
1FA
343
1E9
344
1E9
  0
DIMSTYLE
105
22B
102
{ACAD_REACTORS
330
22C
102
}
330
A
100
AcDbSymbolTableRecord
100
AcDbDimStyleTableRecord
  2
ME10_DIM_4
 70
     0
  3
{\Fgdt;n}<> SUS303
 41
5.12
 42
2.0
 44
2.0
 73
     0
 74
     0
 77
     1
 78
     8
140
6.4
147
2.0
172
     1
173
     1
176
     2
177
     2
178
     2
271
     2
340
50
343
1E9
344
1E9
  0
DIMSTYLE
105
238
102
{ACAD_REACTORS
330
239
102
}
330
A
100
AcDbSymbolTableRecord
100
AcDbDimStyleTableRecord
  2
ME10_DIM_5
 70
     0
 41
5.12
 42
2.0
 44
2.0
 73
     0
 74
     0
 77
     1
 78
     8
140
6.4
147
2.0
172
     1
173
     1
176
     2
177
     2
178
     2
271
     2
340
50
343
1E9
344
1E9
  0
DIMSTYLE
105
245
102
{ACAD_REACTORS
330
246
102
}
330
A
100
AcDbSymbolTableRecord
100
AcDbDimStyleTableRecord
  2
ME10_DIM_6
 70
     0
 41
5.12
 42
2.0
 44
2.0
 73
     0
 74
     0
 77
     1
 78
     8
140
6.4
147
2.0
172
     1
173
     1
176
     2
177
     2
178
     2
271
     2
340
50
343
1E9
344
1E9
  0
DIMSTYLE
105
252
102
{ACAD_REACTORS
330
253
102
}
330
A
100
AcDbSymbolTableRecord
100
AcDbDimStyleTableRecord
  2
ME10_DIM_7
 70
     0
 41
5.12
 42
2.0
 44
2.0
 73
     0
 74
     0
 77
     1
 78
     8
140
6.4
147
2.0
172
     1
173
     1
176
     2
177
     2
178
     2
271
     2
340
50
343
1E9
344
1E9
  0
DIMSTYLE
105
25F
102
{ACAD_REACTORS
330
260
102
}
330
A
100
AcDbSymbolTableRecord
100
AcDbDimStyleTableRecord
  2
ME10_DIM_8
 70
     0
 41
5.12
 42
2.0
 44
2.0
 73
     0
 74
     0
 77
     1
 78
     8
140
6.4
147
2.0
172
     1
173
     1
176
     2
177
     2
178
     2
271
     2
340
50
343
1E9
344
1E9
  0
DIMSTYLE
105
26C
102
{ACAD_REACTORS
330
26D
102
}
330
A
100
AcDbSymbolTableRecord
100
AcDbDimStyleTableRecord
  2
ME10_DIM_9
 70
     0
 41
5.12
 42
2.0
 44
2.0
 73
     0
 74
     0
 77
     1
 78
     8
140
6.4
147
2.0
172
     1
173
     1
176
     2
177
     2
178
     2
271
     2
340
50
343
1E9
344
1E9
  0
DIMSTYLE
105
279
102
{ACAD_REACTORS
330
27A
102
}
330
A
100
AcDbSymbolTableRecord
100
AcDbDimStyleTableRecord
  2
ME10_DIM_10
 70
     0
 41
5.12
 42
2.0
 44
2.0
 73
     0
 74
     0
 77
     1
 78
     8
140
6.4
147
2.0
172
     1
173
     1
176
     2
177
     2
178
     2
271
     2
340
50
343
1E9
344
1E9
  0
DIMSTYLE
105
288
102
{ACAD_REACTORS
330
289
102
}
330
A
100
AcDbSymbolTableRecord
100
AcDbDimStyleTableRecord
  2
ME10_DIM_11
 70
     0
 41
5.12
 42
2.0
 44
2.0
 73
     0
 74
     0
 77
     1
 78
     8
140
6.4
147
2.0
172
     1
173
     1
176
     2
177
     2
178
     4
271
     2
340
1FA
343
1E9
344
1E9
  0
DIMSTYLE
105
295
102
{ACAD_REACTORS
330
296
102
}
330
A
100
AcDbSymbolTableRecord
100
AcDbDimStyleTableRecord
  2
ME10_DIM_12
 70
     0
 41
5.12
 42
2.0
 44
2.0
 73
     0
 74
     0
 77
     1
 78
     8
140
6.4
147
2.0
172
     1
173
     1
176
     2
177
     2
178
     4
271
     2
340
209
343
1E9
344
1E9
  0
DIMSTYLE
105
2A2
102
{ACAD_REACTORS
330
2A3
102
}
330
A
100
AcDbSymbolTableRecord
100
AcDbDimStyleTableRecord
  2
ME10_DIM_13
 70
     0
 41
5.12
 42
2.0
 44
2.0
 73
     0
 74
     0
 77
     1
 78
     8
140
6.4
147
2.0
172
     1
173
     1
176
     2
177
     2
178
     2
271
     2
340
50
343
1E9
344
1E9
  0
ENDTAB
  0
TABLE
  2
BLOCK_RECORD
  5
1
330
0
100
AcDbSymbolTable
 70
    18
  0
BLOCK_RECORD
  5
1F
330
1
100
AcDbSymbolTableRecord
100
AcDbBlockTableRecord
  2
*Model_Space
340
22
  0
BLOCK_RECORD
  5
1B
330
1
100
AcDbSymbolTableRecord
100
AcDbBlockTableRecord
  2
*Paper_Space
340
1E
  0
BLOCK_RECORD
  5
23
330
1
100
AcDbSymbolTableRecord
100
AcDbBlockTableRecord
  2
*Paper_Space0
340
26
  0
BLOCK_RECORD
  5
32
330
1
100
AcDbSymbolTableRecord
100
AcDbBlockTableRecord
  2
Zuwaku-A3-web
340
0
102
{BLKREFS
331
35
102
}
  0
BLOCK_RECORD
  5
1DC
330
1
100
AcDbSymbolTableRecord
100
AcDbBlockTableRecord
  2
*D02
340
0
  0
BLOCK_RECORD
  5
1E9
330
1
100
AcDbSymbolTableRecord
100
AcDbBlockTableRecord
  2
_Open30
340
0
  0
BLOCK_RECORD
  5
1F1
330
1
100
AcDbSymbolTableRecord
100
AcDbBlockTableRecord
  2
*D14
340
0
  0
BLOCK_RECORD
  5
200
330
1
100
AcDbSymbolTableRecord
100
AcDbBlockTableRecord
  2
*D25
340
0
  0
BLOCK_RECORD
  5
20F
330
1
100
AcDbSymbolTableRecord
100
AcDbBlockTableRecord
  2
*D36
340
0
  0
BLOCK_RECORD
  5
21E
330
1
100
AcDbSymbolTableRecord
100
AcDbBlockTableRecord
  2
*D47
340
0
  0
BLOCK_RECORD
  5
22D
330
1
100
AcDbSymbolTableRecord
100
AcDbBlockTableRecord
  2
*D58
340
0
  0
BLOCK_RECORD
  5
23A
330
1
100
AcDbSymbolTableRecord
100
AcDbBlockTableRecord
  2
*D69
340
0
  0
BLOCK_RECORD
  5
247
330
1
100
AcDbSymbolTableRecord
100
AcDbBlockTableRecord
  2
*D710
340
0
  0
BLOCK_RECORD
  5
254
330
1
100
AcDbSymbolTableRecord
100
AcDbBlockTableRecord
  2
*D811
340
0
  0
BLOCK_RECORD
  5
261
330
1
100
AcDbSymbolTableRecord
100
AcDbBlockTableRecord
  2
*D912
340
0
  0
BLOCK_RECORD
  5
26E
330
1
100
AcDbSymbolTableRecord
100
AcDbBlockTableRecord
  2
*D1013
340
0
  0
BLOCK_RECORD
  5
27B
330
1
100
AcDbSymbolTableRecord
100
AcDbBlockTableRecord
  2
*D1114
340
0
  0
BLOCK_RECORD
  5
28A
330
1
100
AcDbSymbolTableRecord
100
AcDbBlockTableRecord
  2
*D1215
340
0
  0
BLOCK_RECORD
  5
297
330
1
100
AcDbSymbolTableRecord
100
AcDbBlockTableRecord
  2
*D1316
340
0
  0
BLOCK_RECORD
  5
2A4
330
1
100
AcDbSymbolTableRecord
100
AcDbBlockTableRecord
  2
*D1417
340
0
102
{BLKREFS
331
2AC
102
}
  0
ENDTAB
  0
ENDSEC
  0
SECTION
  2
BLOCKS
  0
BLOCK
  5
20
330
1F
100
AcDbEntity
  8
0
100
AcDbBlockBegin
  2
*Model_Space
 70
     0
 71
     0
 10
0.0
 20
0.0
 30
0.0
  3
*Model_Space
  1

  0
ENDBLK
  5
21
330
1F
100
AcDbEntity
  8
0
100
AcDbBlockEnd
  0
BLOCK
  5
1C
330
1B
100
AcDbEntity
 67
     1
  8
0
100
AcDbBlockBegin
  2
*Paper_Space
 70
     0
 71
     0
 10
0.0
 20
0.0
 30
0.0
  3
*Paper_Space
  1

  0
ENDBLK
  5
1D
330
1B
100
AcDbEntity
 67
     1
  8
0
100
AcDbBlockEnd
  0
BLOCK
  5
24
330
23
100
AcDbEntity
  8
0
100
AcDbBlockBegin
  2
*Paper_Space0
 70
     0
 71
     0
 10
0.0
 20
0.0
 30
0.0
  3
*Paper_Space0
  1

  0
ENDBLK
  5
25
330
23
100
AcDbEntity
  8
0
100
AcDbBlockEnd
  0
BLOCK
  5
33
330
32
100
AcDbEntity
  8
0
100
AcDbBlockBegin
  2
Zuwaku-A3-web
 70
     0
 71
     0
 10
196.9999999999998
 20
134.0
 30
0.0
  3
Zuwaku-A3-web
  1

  0
POINT
  5
36
330
32
100
AcDbEntity
  8
1
 62
     3
 60
     1
100
AcDbPoint
 10
0.0
 20
0.0
 30
0.0
  0
POINT
  5
37
330
32
100
AcDbEntity
  8
1
 62
     3
 60
     1
100
AcDbPoint
 10
2.5
 20
12.5
 30
0.0
  0
POINT
  5
38
330
32
100
AcDbEntity
  8
1
 62
     3
 60
     1
100
AcDbPoint
 10
9.5
 20
12.5
 30
0.0
  0
POINT
  5
39
330
32
100
AcDbEntity
  8
1
 62
     3
 60
     1
100
AcDbPoint
 10
162.5
 20
15.0
 30
0.0
  0
POINT
  5
3A
330
32
100
AcDbEntity
  8
1
 62
     3
 60
     1
100
AcDbPoint
 10
202.0
 20
15.0
 30
0.0
  0
POINT
  5
3B
330
32
100
AcDbEntity
  8
1
 62
     3
 60
     1
100
AcDbPoint
 10
162.5
 20
20.0
 30
0.0
  0
LINE
  5
3C
330
32
100
AcDbEntity
  8
1
  6
Continuous
 62
     4
100
AcDbLine
 10
295.0
 20
20.0
 30
0.0
 11
295.0
 21
0.0
 31
0.0
  0
LINE
  5
3D
330
32
100
AcDbEntity
  8
1
  6
Continuous
 62
     4
100
AcDbLine
 10
394.0
 20
20.0
 30
0.0
 11
0.0
 21
20.0
 31
0.0
  0
LINE
  5
3E
330
32
100
AcDbEntity
  8
1
  6
Continuous
 62
     4
100
AcDbLine
 10
173.7445771572093
 20
2.13397584248199
 30
0.0
 11
179.4766254722454
 21
7.866024157518
 31
0.0
  0
LINE
  5
3F
330
32
100
AcDbEntity
  8
1
  6
Continuous
 62
     7
100
AcDbLine
 10
0.0
 20
268.0
 30
0.0
 11
0.0
 21
0.0
 31
0.0
  0
LINE
  5
40
330
32
100
AcDbEntity
  8
1
  6
Continuous
 62
     4
100
AcDbLine
 10
66.0
 20
20.0
 30
0.0
 11
66.0
 21
0.0
 31
0.0
  0
LINE
  5
41
330
32
100
AcDbEntity
  8
1
  6
Continuous
 62
     4
100
AcDbLine
 10
170.5
 20
10.0
 30
0.0
 11
170.5
 21
0.0
 31
0.0
  0
LINE
  5
42
330
32
100
AcDbEntity
  8
1
  6
Continuous
 62
     4
100
AcDbLine
 10
227.0
 20
20.0
 30
0.0
 11
227.0
 21
0.0
 31
0.0
  0
LINE
  5
43
330
32
100
AcDbEntity
  8
1
  6
Continuous
 62
     4
100
AcDbLine
 10
283.0
 20
20.0
 30
0.0
 11
283.0
 21
0.0
 31
0.0
  0
LINE
  5
44
330
32
100
AcDbEntity
  8
1
  6
Continuous
 62
     4
100
AcDbLine
 10
162.5
 20
0.0
 30
0.0
 11
162.5
 21
20.0
 31
0.0
  0
LINE
  5
45
330
32
100
AcDbEntity
  8
1
  6
Continuous
 62
     4
100
AcDbLine
 10
202.0
 20
0.0
 30
0.0
 11
202.0
 21
20.0
 31
0.0
  0
LINE
  5
46
330
32
100
AcDbEntity
  8
1
  6
Continuous
 62
     7
100
AcDbLine
 10
394.0
 20
0.0
 30
0.0
 11
393.9999999999997
 21
268.0
 31
0.0
  0
LINE
  5
47
330
32
100
AcDbEntity
  8
1
  6
Continuous
 62
     7
100
AcDbLine
 10
393.9999999999997
 20
268.0
 30
0.0
 11
0.0
 21
268.0
 31
0.0
  0
LINE
  5
48
330
32
100
AcDbEntity
  8
1
  6
Continuous
 62
     4
100
AcDbLine
 10
0.0
 20
10.0
 30
0.0
 11
394.0
 21
10.0
 31
0.0
  0
LINE
  5
49
330
32
100
AcDbEntity
  8
1
  6
Continuous
 62
     4
100
AcDbLine
 10
12.0
 20
20.0
 30
0.0
 11
12.0
 21
0.0
 31
0.0
  0
LINE
  5
4A
330
32
100
AcDbEntity
  8
1
  6
Continuous
 62
     3
100
AcDbLine
 10
6.0
 20
19.0
 30
0.0
 11
2.5
 21
12.5
 31
0.0
  0
LINE
  5
4B
330
32
100
AcDbEntity
  8
1
  6
Continuous
 62
     3
100
AcDbLine
 10
2.5
 20
12.5
 30
0.0
 11
9.5
 21
12.5
 31
0.0
  0
LINE
  5
4C
330
32
100
AcDbEntity
  8
1
  6
Continuous
 62
     3
100
AcDbLine
 10
9.5
 20
12.5
 30
0.0
 11
6.0
 21
19.0
 31
0.0
  0
LINE
  5
4D
330
32
100
AcDbEntity
  8
1
  6
Continuous
 62
     4
100
AcDbLine
 10
162.5
 20
15.0
 30
0.0
 11
202.0
 21
15.0
 31
0.0
  0
LINE
  5
4E
330
32
100
AcDbEntity
  8
1
  6
Continuous
 62
     7
100
AcDbLine
 10
0.0
 20
0.0
 30
0.0
 11
394.0
 21
0.0
 31
0.0
  0
LINE
  5
4F
330
32
100
AcDbEntity
  8
1
  6
Continuous
 62
     4
100
AcDbLine
 10
189.4945771572093
 20
2.13397584248199
 30
0.0
 11
195.2266254722454
 21
7.866024157518
 31
0.0
  0
MTEXT
  5
51
330
32
100
AcDbEntity
  8
1
 62
     4
100
AcDbMText
 10
393.4565543923691
 20
-0.25615332095569
 30
0.0
 40
2.0
 41
0.0
 71
     3
 72
     1
  1
A3
  7
CONVERTER_1
 73
     1
 44
1.32052821128451
  0
MTEXT
  5
53
330
32
100
AcDbEntity
  8
1
 62
     2
100
AcDbMText
 10
289.0
 20
15.0
 30
0.0
 40
4.0
 41
0.0
 71
     5
 72
     1
  1
図名
  7
CONVERTER_2
 73
     1
 44
1.32052821128451
  0
MTEXT
  5
55
330
32
100
AcDbEntity
  8
1
 62
     2
100
AcDbMText
 10
289.0
 20
7.25
 30
0.0
 40
3.5
 41
0.0
 71
     5
 72
     1
  1
図面
  7
CONVERTER_3
 73
     1
 44
0.78031212484994
  0
MTEXT
  5
56
330
32
100
AcDbEntity
  8
1
 62
     2
100
AcDbMText
 10
182.25
 20
17.5
 30
0.0
 40
3.5
 41
0.0
 71
     5
 72
     1
  1
年　　月　　日
  7
CONVERTER_2
 73
     1
 44
0.78031212484994
  0
MTEXT
  5
57
330
32
100
AcDbEntity
  8
1
 62
     2
100
AcDbMText
 10
166.5
 20
7.25
 30
0.0
 40
3.5
 41
0.0
 71
     5
 72
     1
  1
尺
  7
CONVERTER_3
 73
     1
 44
0.78031212484994
  0
MTEXT
  5
58
330
32
100
AcDbEntity
  8
1
 62
     2
100
AcDbMText
 10
39.0
 20
5.0
 30
0.0
 40
3.5
 41
0.0
 71
     5
 72
     1
  1
改　 訂　 記　 事
  7
CONVERTER_2
 73
     1
 44
1.32052821128451
  0
MTEXT
  5
59
330
32
100
AcDbEntity
  8
1
 62
     2
100
AcDbMText
 10
6.0
 20
7.25
 30
0.0
 40
3.5
 41
0.0
 71
     5
 72
     1
  1
改訂
  7
CONVERTER_2
 73
     1
 44
0.78031212484994
  0
MTEXT
  5
5B
330
32
100
AcDbEntity
  8
1
 62
     7
100
AcDbMText
 10
114.25
 20
5.0
 30
0.0
 40
4.0
 41
0.0
 71
     5
 72
     1
  1
MARUYASU KIKAI CO.,LTD.
  7
CONVERTER_4
 73
     1
 44
1.32052821128451
  0
MTEXT
  5
5C
330
32
100
AcDbEntity
  8
1
 62
     2
100
AcDbMText
 10
189.75
 20
6.5
 30
0.0
 40
4.0
 41
0.0
 71
     5
 72
     1
  1
1
  7
CONVERTER_1
 73
     1
 44
1.32052821128451
  0
MTEXT
  5
5D
330
32
100
AcDbEntity
  8
1
 62
     2
100
AcDbMText
 10
214.5
 20
5.0
 30
0.0
 40
4.0
 41
0.0
 71
     5
 72
     1
  1
機　種
  7
CONVERTER_2
 73
     1
 44
1.32052821128451
  0
MTEXT
  5
5F
330
32
100
AcDbEntity
  8
1
 62
     2
100
AcDbMText
 10
214.5
 20
15.0
 30
0.0
 40
4.0
 41
0.0
 71
     5
 72
     1
  1
シリーズ名
  7
CONVERTER_5
 73
     1
 44
1.32052821128451
  0
MTEXT
  5
60
330
32
100
AcDbEntity
  8
1
 62
     7
100
AcDbMText
 10
114.25
 20
15.0
 30
0.0
 40
5.0
 41
0.0
 71
     5
 72
     1
  1
技術情報サービス
  7
CONVERTER_2
 73
     1
 44
1.20048019207683
  0
MTEXT
  5
61
330
32
100
AcDbEntity
  8
1
 62
     2
100
AcDbMText
 10
5.67807803017169
 20
2.75
 30
0.0
 40
3.5
 41
0.0
 71
     5
 72
     1
  1
番号
  7
CONVERTER_2
 73
     1
 44
0.78031212484994
  0
MTEXT
  5
62
330
32
100
AcDbEntity
  8
1
 62
     2
100
AcDbMText
 10
166.5
 20
2.75
 30
0.0
 40
3.5
 41
0.0
 71
     5
 72
     1
  1
度
  7
CONVERTER_3
 73
     1
 44
0.78031212484994
  0
MTEXT
  5
63
330
32
100
AcDbEntity
  8
1
 62
     2
100
AcDbMText
 10
289.0
 20
2.75
 30
0.0
 40
3.5
 41
0.0
 71
     5
 72
     1
  1
番号
  7
CONVERTER_3
 73
     1
 44
0.78031212484994
  0
MTEXT
  5
64
330
32
100
AcDbEntity
  8
1
 62
     2
100
AcDbMText
 10
173.183432867907
 20
6.25
 30
0.0
 40
4.0
 41
0.0
 71
     5
 72
     1
  1
1
  7
CONVERTER_1
 73
     1
 44
0.60024009603842
  0
MTEXT
  5
65
330
32
100
AcDbEntity
  8
1
 62
     2
100
AcDbMText
 10
180.9766254722454
 20
3.75
 30
0.0
 40
4.0
 41
0.0
 71
     5
 72
     1
  1
2
  7
CONVERTER_1
 73
     1
 44
0.60024009603842
  0
ENDBLK
  5
34
330
32
100
AcDbEntity
  8
0
100
AcDbBlockEnd
  0
BLOCK
  5
1E7
330
1DC
100
AcDbEntity
  8
0
100
AcDbBlockBegin
  2
*D02
 70
     1
 71
     0
 10
0.0
 20
0.0
 30
0.0
  3
*D02
  1

  0
LINE
  5
1DD
330
1DC
100
AcDbEntity
  8
1
  6
Continuous
 62
     2
100
AcDbLine
 10
670.9740466963043
 20
189.255670545059
 30
0.0
 11
683.7740466963043
 21
189.255670545059
 31
0.0
  0
LINE
  5
1DE
330
1DC
100
AcDbEntity
  8
1
  6
Continuous
 62
     2
100
AcDbLine
 10
654.9740466963043
 20
189.255670545059
 30
0.0
 11
670.9740466963043
 21
189.255670545059
 31
0.0
  0
LINE
  5
1DF
330
1DC
100
AcDbEntity
  8
1
  6
Continuous
 62
     2
100
AcDbLine
 10
642.1740466963043
 20
189.255670545059
 30
0.0
 11
654.9740466963043
 21
189.255670545059
 31
0.0
  0
LINE
  5
1E0
330
1DC
100
AcDbEntity
  8
1
  6
Continuous
 62
     2
100
AcDbLine
 10
654.9740466963043
 20
230.330716456306
 30
0.0
 11
654.9740466963043
 21
187.255670545059
 31
0.0
  0
LINE
  5
1E1
330
1DC
100
AcDbEntity
  8
1
  6
Continuous
 62
     2
100
AcDbLine
 10
670.9740466963043
 20
230.330716456306
 30
0.0
 11
670.9740466963043
 21
187.255670545059
 31
0.0
  0
LINE
  5
1E2
330
1DC
100
AcDbEntity
  8
1
 62
     2
100
AcDbLine
 10
654.9740466963043
 20
189.255670545059
 30
0.0
 11
648.5740466963043
 21
187.5407957134998
 31
0.0
  0
LINE
  5
1E3
330
1DC
100
AcDbEntity
  8
1
 62
     2
100
AcDbLine
 10
654.9740466963043
 20
189.255670545059
 30
0.0
 11
648.5740466963043
 21
190.9705453766182
 31
0.0
  0
LINE
  5
1E4
330
1DC
100
AcDbEntity
  8
1
 62
     2
100
AcDbLine
 10
670.9740466963043
 20
189.255670545059
 30
0.0
 11
677.3740466963043
 21
190.9705453766182
 31
0.0
  0
LINE
  5
1E5
330
1DC
100
AcDbEntity
  8
1
 62
     2
100
AcDbLine
 10
670.9740466963043
 20
189.255670545059
 30
0.0
 11
677.3740466963043
 21
187.5407957134998
 31
0.0
  0
MTEXT
  5
1E6
330
1DC
100
AcDbEntity
  8
1
 62
     2
100
AcDbMText
 10
658.2977468183102
 20
191.615670545059
 30
0.0
 40
6.4
 41
0.0
 71
     7
 72
     1
  1
16
  7
CONVERTER_1
 11
0.9999999999970621
 21
2.424068405545307E-6
 31
0.0
 73
     1
 44
0.60024009603842
  0
ENDBLK
  5
1E8
330
1DC
100
AcDbEntity
  8
0
100
AcDbBlockEnd
  0
BLOCK
  5
1EA
330
1E9
100
AcDbEntity
  8
0
100
AcDbBlockBegin
  2
_Open30
 70
     0
 71
     0
 10
0.0
 20
0.0
 30
0.0
  3
_Open30
  1

  0
LINE
  5
1EC
330
1E9
100
AcDbEntity
  8
0
  6
ByBlock
 62
     0
370
    -2
100
AcDbLine
 10
-1.0
 20
0.267949
 30
0.0
 11
0.0
 21
0.0
 31
0.0
  0
LINE
  5
1ED
330
1E9
100
AcDbEntity
  8
0
  6
ByBlock
 62
     0
370
    -2
100
AcDbLine
 10
0.0
 20
0.0
 30
0.0
 11
-1.0
 21
-0.267949
 31
0.0
  0
LINE
  5
1EE
330
1E9
100
AcDbEntity
  8
0
  6
ByBlock
 62
     0
370
    -2
100
AcDbLine
 10
0.0
 20
0.0
 30
0.0
 11
-1.0
 21
0.0
 31
0.0
  0
ENDBLK
  5
1EB
330
1E9
100
AcDbEntity
  8
0
100
AcDbBlockEnd
  0
BLOCK
  5
1FC
330
1F1
100
AcDbEntity
  8
0
100
AcDbBlockBegin
  2
*D14
 70
     1
 71
     0
 10
0.0
 20
0.0
 30
0.0
  3
*D14
  1

  0
LINE
  5
1F2
330
1F1
100
AcDbEntity
  8
1
  6
Continuous
 62
     2
100
AcDbLine
 10
301.2151977747988
 20
290.8088210677243
 30
0.0
 11
301.2151977747988
 21
325.8671815461399
 31
0.0
  0
LINE
  5
1F3
330
1F1
100
AcDbEntity
  8
1
  6
Continuous
 62
     2
100
AcDbLine
 10
343.9802530403678
 20
290.8088210677243
 30
0.0
 11
299.2151977747988
 21
290.8088210677243
 31
0.0
  0
LINE
  5
1F4
330
1F1
100
AcDbEntity
  8
1
  6
Continuous
 62
     2
100
AcDbLine
 10
306.3164168346639
 20
325.8671815461399
 30
0.0
 11
299.2151977747988
 21
325.8671815461399
 31
0.0
  0
LINE
  5
1F5
330
1F1
100
AcDbEntity
  8
1
  6
Continuous
 62
     2
100
AcDbLine
 10
343.9802530403678
 20
325.8671815461399
 30
0.0
 11
322.2577263967418
 21
325.8671815461399
 31
0.0
  0
LINE
  5
1F6
330
1F1
100
AcDbEntity
  8
1
 62
     2
100
AcDbLine
 10
301.2151977747988
 20
290.8088210677243
 30
0.0
 11
299.8432979095514
 21
295.9288210677243
 31
0.0
  0
LINE
  5
1F7
330
1F1
100
AcDbEntity
  8
1
 62
     2
100
AcDbLine
 10
301.2151977747988
 20
290.8088210677243
 30
0.0
 11
302.5870976400462
 21
295.9288210677243
 31
0.0
  0
LINE
  5
1F8
330
1F1
100
AcDbEntity
  8
1
 62
     2
100
AcDbLine
 10
301.2151977747988
 20
325.8671815461399
 30
0.0
 11
302.5870976400462
 21
320.7471815461399
 31
0.0
  0
LINE
  5
1F9
330
1F1
100
AcDbEntity
  8
1
 62
     2
100
AcDbLine
 10
301.2151977747988
 20
325.8671815461399
 30
0.0
 11
299.8432979095514
 21
320.7471815461399
 31
0.0
  0
MTEXT
  5
1FB
330
1F1
100
AcDbEntity
  8
1
 62
     4
100
AcDbMText
 10
299.2151977747988
 20
307.118625631894
 30
0.0
 40
6.4
 41
0.0
 71
     7
 72
     1
  1
33
  7
CONVERTER_7
 11
0.0
 21
1.0
 31
0.0
 73
     1
 44
0.60024009603842
  0
ENDBLK
  5
1FD
330
1F1
100
AcDbEntity
  8
0
100
AcDbBlockEnd
  0
BLOCK
  5
20B
330
200
100
AcDbEntity
  8
0
100
AcDbBlockBegin
  2
*D25
 70
     1
 71
     0
 10
0.0
 20
0.0
 30
0.0
  3
*D25
  1

  0
LINE
  5
201
330
200
100
AcDbEntity
  8
1
  6
Continuous
 62
     2
100
AcDbLine
 10
318.0067105135207
 20
308.2700562845261
 30
0.0
 11
318.0067105135207
 21
334.6403042816426
 31
0.0
  0
LINE
  5
202
330
200
100
AcDbEntity
  8
1
  6
Continuous
 62
     2
100
AcDbLine
 10
318.0067105135207
 20
279.3307164563059
 30
0.0
 11
318.0067105135207
 21
308.2700562845261
 31
0.0
  0
LINE
  5
203
330
200
100
AcDbEntity
  8
1
  6
Continuous
 62
     2
100
AcDbLine
 10
330.9835043096709
 20
308.2700562845261
 30
0.0
 11
316.0067105135207
 21
308.2700562845261
 31
0.0
  0
LINE
  5
204
330
200
100
AcDbEntity
  8
1
  6
Continuous
 62
     2
100
AcDbLine
 10
288.1968623463632
 20
279.3307164563059
 30
0.0
 11
320.0067105135207
 21
279.3307164563059
 31
0.0
  0
LINE
  5
205
330
200
100
AcDbEntity
  8
1
 62
     2
100
AcDbLine
 10
318.0067105135207
 20
279.3307164563059
 30
0.0
 11
316.6348106482733
 21
284.4507164563059
 31
0.0
  0
LINE
  5
206
330
200
100
AcDbEntity
  8
1
 62
     2
100
AcDbLine
 10
318.0067105135207
 20
279.3307164563059
 30
0.0
 11
319.3786103787681
 21
284.4507164563059
 31
0.0
  0
LINE
  5
207
330
200
100
AcDbEntity
  8
1
 62
     2
100
AcDbLine
 10
318.0067105135207
 20
308.2700562845261
 30
0.0
 11
319.3786103787681
 21
303.1500562845261
 31
0.0
  0
LINE
  5
208
330
200
100
AcDbEntity
  8
1
 62
     2
100
AcDbLine
 10
318.0067105135207
 20
308.2700562845261
 30
0.0
 11
316.6348106482733
 21
303.1500562845261
 31
0.0
  0
MTEXT
  5
20A
330
200
100
AcDbEntity
  8
1
 62
     4
100
AcDbMText
 10
316.0067105135207
 20
313.1532454581132
 30
0.0
 40
6.4
 41
0.0
 71
     7
 72
     1
  1
22～55
  7
CONVERTER_8
 11
0.0
 21
1.0
 31
0.0
 73
     1
 44
0.60024009603842
  0
ENDBLK
  5
20C
330
200
100
AcDbEntity
  8
0
100
AcDbBlockEnd
  0
BLOCK
  5
21A
330
20F
100
AcDbEntity
  8
0
100
AcDbBlockBegin
  2
*D36
 70
     1
 71
     0
 10
0.0
 20
0.0
 30
0.0
  3
*D36
  1

  0
LINE
  5
210
330
20F
100
AcDbEntity
  8
1
  6
Continuous
 62
     2
100
AcDbLine
 10
333.2421248367062
 20
372.866748800456
 30
0.0
 11
346.2025232023187
 21
372.866748800456
 31
0.0
  0
LINE
  5
211
330
20F
100
AcDbEntity
  8
1
  6
Continuous
 62
     2
100
AcDbLine
 10
333.2421248367062
 20
372.866748800456
 30
0.0
 11
323.0021248367062
 21
372.866748800456
 31
0.0
  0
LINE
  5
212
330
20F
100
AcDbEntity
  8
1
  6
Continuous
 62
     2
100
AcDbLine
 10
346.2025232023187
 20
372.866748800456
 30
0.0
 11
356.4425232023187
 21
372.866748800456
 31
0.0
  0
LINE
  5
213
330
20F
100
AcDbEntity
  8
1
  6
Continuous
 62
     2
100
AcDbLine
 10
333.2421248367062
 20
324.9880013069325
 30
0.0
 11
333.2421248367062
 21
374.866748800456
 31
0.0
  0
LINE
  5
214
330
20F
100
AcDbEntity
  8
1
  6
Continuous
 62
     2
100
AcDbLine
 10
346.2025232023187
 20
325.3770819547364
 30
0.0
 11
346.2025232023187
 21
374.866748800456
 31
0.0
  0
LINE
  5
215
330
20F
100
AcDbEntity
  8
1
 62
     2
100
AcDbLine
 10
333.2421248367062
 20
372.866748800456
 30
0.0
 11
328.1221248367062
 21
371.4948489352087
 31
0.0
  0
LINE
  5
216
330
20F
100
AcDbEntity
  8
1
 62
     2
100
AcDbLine
 10
333.2421248367062
 20
372.866748800456
 30
0.0
 11
328.1221248367062
 21
374.2386486657034
 31
0.0
  0
LINE
  5
217
330
20F
100
AcDbEntity
  8
1
 62
     2
100
AcDbLine
 10
346.2025232023187
 20
372.866748800456
 30
0.0
 11
351.3225232023187
 21
374.2386486657034
 31
0.0
  0
LINE
  5
218
330
20F
100
AcDbEntity
  8
1
 62
     2
100
AcDbLine
 10
346.2025232023187
 20
372.866748800456
 30
0.0
 11
351.3225232023187
 21
371.4948489352087
 31
0.0
  0
MTEXT
  5
219
330
20F
100
AcDbEntity
  8
1
 62
     4
100
AcDbMText
 10
338.2291063906416
 20
374.866748800456
 30
0.0
 40
6.4
 41
0.0
 71
     7
 72
     1
  1
13
  7
CONVERTER_7
 11
0.9999999999970621
 21
2.424068405545307E-6
 31
0.0
 73
     1
 44
0.60024009603842
  0
ENDBLK
  5
21B
330
20F
100
AcDbEntity
  8
0
100
AcDbBlockEnd
  0
BLOCK
  5
229
330
21E
100
AcDbEntity
  8
0
100
AcDbBlockBegin
  2
*D47
 70
     1
 71
     0
 10
0.0
 20
0.0
 30
0.0
  3
*D47
  1

  0
LINE
  5
21F
330
21E
100
AcDbEntity
  8
1
  6
Continuous
 62
     2
100
AcDbLine
 10
389.9568623463619
 20
189.255670545059
 30
0.0
 11
400.1968623463618
 21
189.255670545059
 31
0.0
  0
LINE
  5
220
330
21E
100
AcDbEntity
  8
1
  6
Continuous
 62
     2
100
AcDbLine
 10
400.1968623463618
 20
189.255670545059
 30
0.0
 11
408.1968623463623
 21
189.255670545059
 31
0.0
  0
LINE
  5
221
330
21E
100
AcDbEntity
  8
1
  6
Continuous
 62
     2
100
AcDbLine
 10
408.1968623463623
 20
189.255670545059
 30
0.0
 11
473.0845914594256
 21
189.255670545059
 31
0.0
  0
LINE
  5
222
330
21E
100
AcDbEntity
  8
1
  6
Continuous
 62
     2
100
AcDbLine
 10
400.1968623463618
 20
205.330716456306
 30
0.0
 11
400.1968623463618
 21
187.255670545059
 31
0.0
  0
LINE
  5
223
330
21E
100
AcDbEntity
  8
1
  6
Continuous
 62
     2
100
AcDbLine
 10
408.1968623463623
 20
205.330716456306
 30
0.0
 11
408.1968623463623
 21
187.255670545059
 31
0.0
  0
LINE
  5
224
330
21E
100
AcDbEntity
  8
1
 62
     2
100
AcDbLine
 10
400.1968623463618
 20
189.255670545059
 30
0.0
 11
395.0768623463618
 21
187.8837706798117
 31
0.0
  0
LINE
  5
225
330
21E
100
AcDbEntity
  8
1
 62
     2
100
AcDbLine
 10
400.1968623463618
 20
189.255670545059
 30
0.0
 11
395.0768623463618
 21
190.6275704103064
 31
0.0
  0
LINE
  5
226
330
21E
100
AcDbEntity
  8
1
 62
     2
100
AcDbLine
 10
408.1968623463623
 20
189.255670545059
 30
0.0
 11
413.3168623463623
 21
190.6275704103064
 31
0.0
  0
LINE
  5
227
330
21E
100
AcDbEntity
  8
1
 62
     2
100
AcDbLine
 10
408.1968623463623
 20
189.255670545059
 30
0.0
 11
413.3168623463623
 21
187.8837706798117
 31
0.0
  0
MTEXT
  5
228
330
21E
100
AcDbEntity
  8
1
 62
     2
100
AcDbMText
 10
415.8685914594565
 20
191.255645102037
 30
0.0
 40
6.4
 41
0.0
 71
     7
 72
     1
  1
\C2;{\Fgdt;n}\C2;8\C2; SUS303
  7
CONVERTER_1
 11
0.9999999999970621
 21
2.424068405545307E-6
 31
0.0
 73
     1
 44
0.60024009603842
  0
ENDBLK
  5
22A
330
21E
100
AcDbEntity
  8
0
100
AcDbBlockEnd
  0
BLOCK
  5
236
330
22D
100
AcDbEntity
  8
0
100
AcDbBlockBegin
  2
*D58
 70
     1
 71
     0
 10
0.0
 20
0.0
 30
0.0
  3
*D58
  1

  0
LINE
  5
22E
330
22D
100
AcDbEntity
  8
1
  6
Continuous
 62
     2
100
AcDbLine
 10
377.1968623463618
 20
156.866748800456
 30
0.0
 11
404.1968623463617
 21
156.866748800456
 31
0.0
  0
LINE
  5
22F
330
22D
100
AcDbEntity
  8
1
  6
Continuous
 62
     2
100
AcDbLine
 10
377.1968623463618
 20
207.330716456306
 30
0.0
 11
377.1968623463618
 21
154.866748800456
 31
0.0
  0
LINE
  5
230
330
22D
100
AcDbEntity
  8
1
  6
Continuous
 62
     2
100
AcDbLine
 10
404.1968623463617
 20
200.4339255900935
 30
0.0
 11
404.1968623463617
 21
154.866748800456
 31
0.0
  0
LINE
  5
231
330
22D
100
AcDbEntity
  8
1
 62
     2
100
AcDbLine
 10
377.1968623463618
 20
156.866748800456
 30
0.0
 11
382.3168623463618
 21
158.2386486657034
 31
0.0
  0
LINE
  5
232
330
22D
100
AcDbEntity
  8
1
 62
     2
100
AcDbLine
 10
377.1968623463618
 20
156.866748800456
 30
0.0
 11
382.3168623463618
 21
155.4948489352087
 31
0.0
  0
LINE
  5
233
330
22D
100
AcDbEntity
  8
1
 62
     2
100
AcDbLine
 10
404.1968623463617
 20
156.866748800456
 30
0.0
 11
399.0768623463617
 21
155.4948489352087
 31
0.0
  0
LINE
  5
234
330
22D
100
AcDbEntity
  8
1
 62
     2
100
AcDbLine
 10
404.1968623463617
 20
156.866748800456
 30
0.0
 11
399.0768623463617
 21
158.2386486657034
 31
0.0
  0
MTEXT
  5
235
330
22D
100
AcDbEntity
  8
1
 62
     2
100
AcDbMText
 10
385.8030770309986
 20
158.866748800456
 30
0.0
 40
6.4
 41
0.0
 71
     7
 72
     1
  1
27
  7
CONVERTER_1
 11
0.9999999999970621
 21
2.424068405545307E-6
 31
0.0
 73
     1
 44
0.60024009603842
  0
ENDBLK
  5
237
330
22D
100
AcDbEntity
  8
0
100
AcDbBlockEnd
  0
BLOCK
  5
243
330
23A
100
AcDbEntity
  8
0
100
AcDbBlockBegin
  2
*D69
 70
     1
 71
     0
 10
0.0
 20
0.0
 30
0.0
  3
*D69
  1

  0
LINE
  5
23B
330
23A
100
AcDbEntity
  8
1
  6
Continuous
 62
     2
100
AcDbLine
 10
158.1968623463626
 20
156.866748800456
 30
0.0
 11
177.1968623463626
 21
156.866748800456
 31
0.0
  0
LINE
  5
23C
330
23A
100
AcDbEntity
  8
1
  6
Continuous
 62
     2
100
AcDbLine
 10
158.1968623463626
 20
232.330716456306
 30
0.0
 11
158.1968623463626
 21
154.866748800456
 31
0.0
  0
LINE
  5
23D
330
23A
100
AcDbEntity
  8
1
  6
Continuous
 62
     2
100
AcDbLine
 10
177.1968623463626
 20
207.330716456306
 30
0.0
 11
177.1968623463626
 21
154.866748800456
 31
0.0
  0
LINE
  5
23E
330
23A
100
AcDbEntity
  8
1
 62
     2
100
AcDbLine
 10
158.1968623463626
 20
156.866748800456
 30
0.0
 11
163.3168623463626
 21
158.2386486657033
 31
0.0
  0
LINE
  5
23F
330
23A
100
AcDbEntity
  8
1
 62
     2
100
AcDbLine
 10
158.1968623463626
 20
156.866748800456
 30
0.0
 11
163.3168623463626
 21
155.4948489352086
 31
0.0
  0
LINE
  5
240
330
23A
100
AcDbEntity
  8
1
 62
     2
100
AcDbLine
 10
177.1968623463626
 20
156.866748800456
 30
0.0
 11
172.0768623463626
 21
155.4948489352086
 31
0.0
  0
LINE
  5
241
330
23A
100
AcDbEntity
  8
1
 62
     2
100
AcDbLine
 10
177.1968623463626
 20
156.866748800456
 30
0.0
 11
172.0768623463626
 21
158.2386486657033
 31
0.0
  0
MTEXT
  5
242
330
23A
100
AcDbEntity
  8
1
 62
     2
100
AcDbMText
 10
164.6967868387021
 20
159.826748800456
 30
0.0
 40
6.4
 41
0.0
 71
     7
 72
     1
  1
19
  7
CONVERTER_1
 11
0.9999999999970621
 21
2.424068405545307E-6
 31
0.0
 73
     1
 44
0.60024009603842
  0
ENDBLK
  5
244
330
23A
100
AcDbEntity
  8
0
100
AcDbBlockEnd
  0
BLOCK
  5
250
330
247
100
AcDbEntity
  8
0
100
AcDbBlockBegin
  2
*D710
 70
     1
 71
     0
 10
0.0
 20
0.0
 30
0.0
  3
*D710
  1

  0
LINE
  5
248
330
247
100
AcDbEntity
  8
1
  6
Continuous
 62
     2
100
AcDbLine
 10
135.2288270948779
 20
240.330716456306
 30
0.0
 11
135.2288270948779
 21
258.3307164563061
 31
0.0
  0
LINE
  5
249
330
247
100
AcDbEntity
  8
1
  6
Continuous
 62
     2
100
AcDbLine
 10
151.1968623463628
 20
258.3307164563061
 30
0.0
 11
133.2288270948779
 21
258.3307164563061
 31
0.0
  0
LINE
  5
24A
330
247
100
AcDbEntity
  8
1
  6
Continuous
 62
     2
100
AcDbLine
 10
149.5969568630104
 20
240.330716456306
 30
0.0
 11
133.2288270948779
 21
240.330716456306
 31
0.0
  0
LINE
  5
24B
330
247
100
AcDbEntity
  8
1
 62
     2
100
AcDbLine
 10
135.2288270948779
 20
258.3307164563061
 30
0.0
 11
136.6007269601253
 21
253.2107164563061
 31
0.0
  0
LINE
  5
24C
330
247
100
AcDbEntity
  8
1
 62
     2
100
AcDbLine
 10
135.2288270948779
 20
258.3307164563061
 30
0.0
 11
133.8569272296306
 21
253.2107164563061
 31
0.0
  0
LINE
  5
24D
330
247
100
AcDbEntity
  8
1
 62
     2
100
AcDbLine
 10
135.2288270948779
 20
240.330716456306
 30
0.0
 11
133.8569272296306
 21
245.450716456306
 31
0.0
  0
LINE
  5
24E
330
247
100
AcDbEntity
  8
1
 62
     2
100
AcDbLine
 10
135.2288270948779
 20
240.330716456306
 30
0.0
 11
136.6007269601253
 21
245.450716456306
 31
0.0
  0
MTEXT
  5
24F
330
247
100
AcDbEntity
  8
1
 62
     2
100
AcDbMText
 10
131.2407778379357
 20
251.474314000958
 30
0.0
 40
6.4
 41
0.0
 71
     7
 72
     1
  1
18
  7
CONVERTER_1
 11
0.0
 21
1.0
 31
0.0
 73
     1
 44
0.60024009603842
  0
ENDBLK
  5
251
330
247
100
AcDbEntity
  8
0
100
AcDbBlockEnd
  0
BLOCK
  5
25D
330
254
100
AcDbEntity
  8
0
100
AcDbBlockBegin
  2
*D811
 70
     1
 71
     0
 10
0.0
 20
0.0
 30
0.0
  3
*D811
  1

  0
LINE
  5
255
330
254
100
AcDbEntity
  8
1
  6
Continuous
 62
     2
100
AcDbLine
 10
118.5748472229657
 20
249.3307164563059
 30
0.0
 11
118.5748472229657
 21
279.3307164563059
 31
0.0
  0
LINE
  5
256
330
254
100
AcDbEntity
  8
1
  6
Continuous
 62
     2
100
AcDbLine
 10
147.0502525622416
 20
249.3307164563059
 30
0.0
 11
116.5748472229657
 21
249.3307164563059
 31
0.0
  0
LINE
  5
257
330
254
100
AcDbEntity
  8
1
  6
Continuous
 62
     2
100
AcDbLine
 10
178.1968623463627
 20
279.3307164563059
 30
0.0
 11
116.5748472229657
 21
279.3307164563059
 31
0.0
  0
LINE
  5
258
330
254
100
AcDbEntity
  8
1
 62
     2
100
AcDbLine
 10
118.5748472229657
 20
279.3307164563059
 30
0.0
 11
119.946747088213
 21
274.2107164563059
 31
0.0
  0
LINE
  5
259
330
254
100
AcDbEntity
  8
1
 62
     2
100
AcDbLine
 10
118.5748472229657
 20
279.3307164563059
 30
0.0
 11
117.2029473577184
 21
274.2107164563059
 31
0.0
  0
LINE
  5
25A
330
254
100
AcDbEntity
  8
1
 62
     2
100
AcDbLine
 10
118.5748472229657
 20
249.3307164563059
 30
0.0
 11
117.2029473577184
 21
254.4507164563059
 31
0.0
  0
LINE
  5
25B
330
254
100
AcDbEntity
  8
1
 62
     2
100
AcDbLine
 10
118.5748472229657
 20
249.3307164563059
 30
0.0
 11
119.946747088213
 21
254.4507164563059
 31
0.0
  0
MTEXT
  5
25C
330
254
100
AcDbEntity
  8
1
 62
     2
100
AcDbMText
 10
116.5748472229657
 20
259.627206032972
 30
0.0
 40
6.4
 41
0.0
 71
     7
 72
     1
  1
30
  7
CONVERTER_1
 11
0.0
 21
1.0
 31
0.0
 73
     1
 44
0.60024009603842
  0
ENDBLK
  5
25E
330
254
100
AcDbEntity
  8
0
100
AcDbBlockEnd
  0
BLOCK
  5
26A
330
261
100
AcDbEntity
  8
0
100
AcDbBlockBegin
  2
*D912
 70
     1
 71
     0
 10
0.0
 20
0.0
 30
0.0
  3
*D912
  1

  0
LINE
  5
262
330
261
100
AcDbEntity
  8
1
  6
Continuous
 62
     2
100
AcDbLine
 10
96.36954072708285
 20
209.330716456306
 30
0.0
 11
96.36954072708285
 21
279.3307164563059
 31
0.0
  0
LINE
  5
263
330
261
100
AcDbEntity
  8
1
  6
Continuous
 62
     2
100
AcDbLine
 10
177.1968623463627
 20
209.330716456306
 30
0.0
 11
94.36954072708285
 21
209.330716456306
 31
0.0
  0
LINE
  5
264
330
261
100
AcDbEntity
  8
1
  6
Continuous
 62
     2
100
AcDbLine
 10
178.1968623463627
 20
279.3307164563059
 30
0.0
 11
94.36954072708285
 21
279.3307164563059
 31
0.0
  0
LINE
  5
265
330
261
100
AcDbEntity
  8
1
 62
     2
100
AcDbLine
 10
96.36954072708285
 20
279.3307164563059
 30
0.0
 11
97.74144059233019
 21
274.2107164563059
 31
0.0
  0
LINE
  5
266
330
261
100
AcDbEntity
  8
1
 62
     2
100
AcDbLine
 10
96.36954072708285
 20
279.3307164563059
 30
0.0
 11
94.99764086183551
 21
274.2107164563059
 31
0.0
  0
LINE
  5
267
330
261
100
AcDbEntity
  8
1
 62
     2
100
AcDbLine
 10
96.36954072708285
 20
209.330716456306
 30
0.0
 11
94.99764086183551
 21
214.450716456306
 31
0.0
  0
LINE
  5
268
330
261
100
AcDbEntity
  8
1
 62
     2
100
AcDbLine
 10
96.36954072708285
 20
209.330716456306
 30
0.0
 11
97.74144059233019
 21
214.450716456306
 31
0.0
  0
MTEXT
  5
269
330
261
100
AcDbEntity
  8
1
 62
     2
100
AcDbMText
 10
94.36954072708285
 20
243.766272821627
 30
0.0
 40
6.4
 41
0.0
 71
     7
 72
     1
  1
70
  7
CONVERTER_1
 11
0.0
 21
1.0
 31
0.0
 73
     1
 44
0.60024009603842
  0
ENDBLK
  5
26B
330
261
100
AcDbEntity
  8
0
100
AcDbBlockEnd
  0
BLOCK
  5
277
330
26E
100
AcDbEntity
  8
0
100
AcDbBlockBegin
  2
*D1013
 70
     1
 71
     0
 10
0.0
 20
0.0
 30
0.0
  3
*D1013
  1

  0
LINE
  5
26F
330
26E
100
AcDbEntity
  8
1
  6
Continuous
 62
     2
100
AcDbLine
 10
526.5139999944938
 20
189.255670545059
 30
0.0
 11
558.5139999944938
 21
189.255670545059
 31
0.0
  0
LINE
  5
270
330
26E
100
AcDbEntity
  8
1
  6
Continuous
 62
     2
100
AcDbLine
 10
526.5139999944938
 20
234.330716456306
 30
0.0
 11
526.5139999944938
 21
187.255670545059
 31
0.0
  0
LINE
  5
271
330
26E
100
AcDbEntity
  8
1
  6
Continuous
 62
     2
100
AcDbLine
 10
558.5139999944938
 20
232.330716456306
 30
0.0
 11
558.5139999944938
 21
187.255670545059
 31
0.0
  0
LINE
  5
272
330
26E
100
AcDbEntity
  8
1
 62
     2
100
AcDbLine
 10
526.5139999944938
 20
189.255670545059
 30
0.0
 11
531.6339999944938
 21
190.6275704103064
 31
0.0
  0
LINE
  5
273
330
26E
100
AcDbEntity
  8
1
 62
     2
100
AcDbLine
 10
526.5139999944938
 20
189.255670545059
 30
0.0
 11
531.6339999944938
 21
187.8837706798117
 31
0.0
  0
LINE
  5
274
330
26E
100
AcDbEntity
  8
1
 62
     2
100
AcDbLine
 10
558.5139999944938
 20
189.255670545059
 30
0.0
 11
553.3939999944938
 21
187.8837706798117
 31
0.0
  0
LINE
  5
275
330
26E
100
AcDbEntity
  8
1
 62
     2
100
AcDbLine
 10
558.5139999944938
 20
189.255670545059
 30
0.0
 11
553.3939999944938
 21
190.6275704103064
 31
0.0
  0
MTEXT
  5
276
330
26E
100
AcDbEntity
  8
1
 62
     2
100
AcDbMText
 10
537.0012527684938
 20
191.255670545059
 30
0.0
 40
6.4
 41
0.0
 71
     7
 72
     1
  1
32
  7
CONVERTER_1
 11
0.9999999999970621
 21
2.424068405545307E-6
 31
0.0
 73
     1
 44
0.60024009603842
  0
ENDBLK
  5
278
330
26E
100
AcDbEntity
  8
0
100
AcDbBlockEnd
  0
BLOCK
  5
286
330
27B
100
AcDbEntity
  8
0
100
AcDbBlockBegin
  2
*D1114
 70
     1
 71
     0
 10
0.0
 20
0.0
 30
0.0
  3
*D1114
  1

  0
LINE
  5
27C
330
27B
100
AcDbEntity
  8
1
  6
Continuous
 62
     2
100
AcDbLine
 10
208.1912014904075
 20
372.866748800456
 30
0.0
 11
221.15159985602
 21
372.866748800456
 31
0.0
  0
LINE
  5
27D
330
27B
100
AcDbEntity
  8
1
  6
Continuous
 62
     2
100
AcDbLine
 10
208.1912014904075
 20
372.866748800456
 30
0.0
 11
197.9512014904075
 21
372.866748800456
 31
0.0
  0
LINE
  5
27E
330
27B
100
AcDbEntity
  8
1
  6
Continuous
 62
     2
100
AcDbLine
 10
221.15159985602
 20
372.866748800456
 30
0.0
 11
231.39159985602
 21
372.866748800456
 31
0.0
  0
LINE
  5
27F
330
27B
100
AcDbEntity
  8
1
  6
Continuous
 62
     2
100
AcDbLine
 10
208.1912014904075
 20
325.3770819547364
 30
0.0
 11
208.1912014904075
 21
374.866748800456
 31
0.0
  0
LINE
  5
280
330
27B
100
AcDbEntity
  8
1
  6
Continuous
 62
     2
100
AcDbLine
 10
221.15159985602
 20
324.9880013069325
 30
0.0
 11
221.15159985602
 21
374.866748800456
 31
0.0
  0
LINE
  5
281
330
27B
100
AcDbEntity
  8
1
 62
     2
100
AcDbLine
 10
208.1912014904075
 20
372.866748800456
 30
0.0
 11
203.0712014904075
 21
371.4948489352087
 31
0.0
  0
LINE
  5
282
330
27B
100
AcDbEntity
  8
1
 62
     2
100
AcDbLine
 10
208.1912014904075
 20
372.866748800456
 30
0.0
 11
203.0712014904075
 21
374.2386486657034
 31
0.0
  0
LINE
  5
283
330
27B
100
AcDbEntity
  8
1
 62
     2
100
AcDbLine
 10
221.15159985602
 20
372.866748800456
 30
0.0
 11
226.27159985602
 21
374.2386486657034
 31
0.0
  0
LINE
  5
284
330
27B
100
AcDbEntity
  8
1
 62
     2
100
AcDbLine
 10
221.15159985602
 20
372.866748800456
 30
0.0
 11
226.27159985602
 21
371.4948489352087
 31
0.0
  0
MTEXT
  5
285
330
27B
100
AcDbEntity
  8
1
 62
     4
100
AcDbMText
 10
211.691724360854
 20
374.866748800456
 30
0.0
 40
6.4
 41
0.0
 71
     7
 72
     1
  1
13
  7
CONVERTER_7
 11
0.9999999999970621
 21
2.424068405545307E-6
 31
0.0
 73
     1
 44
0.60024009603842
  0
ENDBLK
  5
287
330
27B
100
AcDbEntity
  8
0
100
AcDbBlockEnd
  0
BLOCK
  5
293
330
28A
100
AcDbEntity
  8
0
100
AcDbBlockBegin
  2
*D1215
 70
     1
 71
     0
 10
0.0
 20
0.0
 30
0.0
  3
*D1215
  1

  0
LINE
  5
28B
330
28A
100
AcDbEntity
  8
1
  6
Continuous
 62
     2
100
AcDbLine
 10
221.1515998560201
 20
372.866748800456
 30
0.0
 11
333.2421248367064
 21
372.866748800456
 31
0.0
  0
LINE
  5
28C
330
28A
100
AcDbEntity
  8
1
  6
Continuous
 62
     2
100
AcDbLine
 10
221.1515998560201
 20
324.9880013069325
 30
0.0
 11
221.1515998560201
 21
374.866748800456
 31
0.0
  0
LINE
  5
28D
330
28A
100
AcDbEntity
  8
1
  6
Continuous
 62
     2
100
AcDbLine
 10
333.2421248367064
 20
324.9880013069325
 30
0.0
 11
333.2421248367064
 21
374.866748800456
 31
0.0
  0
LINE
  5
28E
330
28A
100
AcDbEntity
  8
1
 62
     2
100
AcDbLine
 10
221.1515998560201
 20
372.866748800456
 30
0.0
 11
226.2715998560201
 21
374.2386486657034
 31
0.0
  0
LINE
  5
28F
330
28A
100
AcDbEntity
  8
1
 62
     2
100
AcDbLine
 10
221.1515998560201
 20
372.866748800456
 30
0.0
 11
226.2715998560201
 21
371.4948489352087
 31
0.0
  0
LINE
  5
290
330
28A
100
AcDbEntity
  8
1
 62
     2
100
AcDbLine
 10
333.2421248367064
 20
372.866748800456
 30
0.0
 11
328.1221248367064
 21
371.4948489352087
 31
0.0
  0
LINE
  5
291
330
28A
100
AcDbEntity
  8
1
 62
     2
100
AcDbLine
 10
333.2421248367064
 20
372.866748800456
 30
0.0
 11
328.1221248367064
 21
374.2386486657034
 31
0.0
  0
MTEXT
  5
292
330
28A
100
AcDbEntity
  8
1
 62
     4
100
AcDbMText
 10
229.8392152875397
 20
374.866748800456
 30
0.0
 40
6.4
 41
0.0
 71
     7
 72
     1
  1
ベルト幅 BW (BW-40～BW+70)
  7
CONVERTER_8
 11
0.9999999999970621
 21
2.424068405545307E-6
 31
0.0
 73
     1
 44
0.60024009603842
  0
ENDBLK
  5
294
330
28A
100
AcDbEntity
  8
0
100
AcDbBlockEnd
  0
BLOCK
  5
2A0
330
297
100
AcDbEntity
  8
0
100
AcDbBlockBegin
  2
*D1316
 70
     1
 71
     0
 10
0.0
 20
0.0
 30
0.0
  3
*D1316
  1

  0
LINE
  5
298
330
297
100
AcDbEntity
  8
1
  6
Continuous
 62
     2
100
AcDbLine
 10
177.1968623463627
 20
156.866748800456
 30
0.0
 11
377.1968623463618
 21
156.866748800456
 31
0.0
  0
LINE
  5
299
330
297
100
AcDbEntity
  8
1
  6
Continuous
 62
     2
100
AcDbLine
 10
177.1968623463627
 20
207.330716456306
 30
0.0
 11
177.1968623463627
 21
154.866748800456
 31
0.0
  0
LINE
  5
29A
330
297
100
AcDbEntity
  8
1
  6
Continuous
 62
     2
100
AcDbLine
 10
377.1968623463618
 20
207.330716456306
 30
0.0
 11
377.1968623463618
 21
154.866748800456
 31
0.0
  0
LINE
  5
29B
330
297
100
AcDbEntity
  8
1
 62
     2
100
AcDbLine
 10
177.1968623463627
 20
156.866748800456
 30
0.0
 11
182.3168623463627
 21
158.2386486657034
 31
0.0
  0
LINE
  5
29C
330
297
100
AcDbEntity
  8
1
 62
     2
100
AcDbLine
 10
177.1968623463627
 20
156.866748800456
 30
0.0
 11
182.3168623463627
 21
155.4948489352087
 31
0.0
  0
LINE
  5
29D
330
297
100
AcDbEntity
  8
1
 62
     2
100
AcDbLine
 10
377.1968623463618
 20
156.866748800456
 30
0.0
 11
372.0768623463618
 21
155.4948489352087
 31
0.0
  0
LINE
  5
29E
330
297
100
AcDbEntity
  8
1
 62
     2
100
AcDbLine
 10
377.1968623463618
 20
156.866748800456
 30
0.0
 11
372.0768623463618
 21
158.2386486657034
 31
0.0
  0
MTEXT
  5
29F
330
297
100
AcDbEntity
  8
1
 62
     2
100
AcDbMText
 10
262.4366274822294
 20
158.866748800456
 30
0.0
 40
6.4
 41
0.0
 71
     7
 72
     1
  1
BW+50
  7
CONVERTER_1
 11
0.9999999999970621
 21
2.424068405545307E-6
 31
0.0
 73
     1
 44
0.60024009603842
  0
ENDBLK
  5
2A1
330
297
100
AcDbEntity
  8
0
100
AcDbBlockEnd
  0
BLOCK
  5
2AA
330
2A4
100
AcDbEntity
  8
0
100
AcDbBlockBegin
  2
*D1417
 70
     1
 71
     0
 10
0.0
 20
0.0
 30
0.0
  3
*D1417
  1

  0
LINE
  5
2A5
330
2A4
100
AcDbEntity
  8
1
  6
Continuous
 62
     2
100
AcDbLine
 10
156.5634257567414
 20
261.9820018337708
 30
0.0
 11
139.9873686593357
 21
299.0351175043387
 31
0.0
  0
LINE
  5
2A6
330
2A4
100
AcDbEntity
  8
1
  6
Continuous
 62
     2
100
AcDbLine
 10
139.9873686593357
 20
299.0351175043387
 30
0.0
 11
75.18736865933566
 21
299.0351175043387
 31
0.0
  0
LINE
  5
2A7
330
2A4
100
AcDbEntity
  8
1
 62
     2
100
AcDbLine
 10
156.5634257567414
 20
261.9820018337708
 30
0.0
 11
152.3845528641838
 21
267.1237736135917
 31
0.0
  0
LINE
  5
2A8
330
2A4
100
AcDbEntity
  8
1
 62
     2
100
AcDbLine
 10
156.5634257567414
 20
261.9820018337708
 30
0.0
 11
155.5153015625108
 21
268.5243432618364
 31
0.0
  0
MTEXT
  5
2A9
330
2A4
100
AcDbEntity
  8
1
 62
     2
100
AcDbMText
 10
72.37136865936655
 20
300.4350920613168
 30
0.0
 40
6.4
 41
0.0
 71
     7
 72
     1
  1
\C2;{\Fgdt;n}\C2;8\C2; SUS303
  7
CONVERTER_1
 11
0.9999999999970621
 21
2.424068405545307E-6
 31
0.0
 73
     1
 44
0.60024009603842
  0
ENDBLK
  5
2AB
330
2A4
100
AcDbEntity
  8
0
100
AcDbBlockEnd
  0
ENDSEC
  0
SECTION
  2
ENTITIES
  0
INSERT
  5
35
330
1F
100
AcDbEntity
  8
0
100
AcDbBlockReference
  2
Zuwaku-A3-web
 10
393.9999999999996
 20
268.0
 30
0.0
 41
2.0
 42
2.0
 43
2.0
  0
LINE
  5
66
330
1F
100
AcDbEntity
  8
1
  6
Continuous
 62
     3
100
AcDbLine
 10
333.2421248367062
 20
308.3380013069321
 30
0.0
 11
333.2421248367062
 21
293.6880013069321
 31
0.0
  0
LINE
  5
67
330
1F
100
AcDbEntity
  8
1
  6
Continuous
 62
     3
100
AcDbLine
 10
336.2421248367062
 20
308.3380013069321
 30
0.0
 11
336.2421248367062
 21
294.1880013069321
 31
0.0
  0
LINE
  5
68
330
1F
100
AcDbEntity
  8
1
  6
Continuous
 62
     3
100
AcDbLine
 10
336.2421248367062
 20
294.1880013069321
 30
0.0
 11
341.5211359704807
 21
293.7167885635957
 31
0.0
  0
LINE
  5
69
330
1F
100
AcDbEntity
  8
1
  6
Continuous
 62
     3
100
AcDbLine
 10
341.5211359704807
 20
293.7167885635957
 30
0.0
 11
341.6900612935635
 21
295.609264253062
 31
0.0
  0
LINE
  5
6A
330
1F
100
AcDbEntity
  8
1
  6
Continuous
 62
     3
100
AcDbLine
 10
343.0935844791563
 20
295.4839835908588
 30
0.0
 11
341.6900612935635
 21
295.609264253062
 31
0.0
  0
LINE
  5
6B
330
1F
100
AcDbEntity
  8
1
  6
Continuous
 62
     3
100
AcDbLine
 10
335.2421248367062
 20
291.6880013069321
 30
0.0
 11
345.9802530403675
 21
290.8088210677242
 31
0.0
  0
LINE
  5
6C
330
1F
100
AcDbEntity
  8
1
  6
Continuous
 62
     3
100
AcDbLine
 10
345.9802530403675
 20
290.8088210677242
 30
0.0
 11
346.2025232023187
 21
293.2989206591279
 31
0.0
  0
LINE
  5
6D
330
1F
100
AcDbEntity
  8
1
  6
Continuous
 62
     3
100
AcDbLine
 10
343.0935844791563
 20
295.4839835908588
 30
0.0
 11
346.2025232023187
 21
293.2989206591279
 31
0.0
  0
LINE
  5
6E
330
1F
100
AcDbEntity
  8
1
  6
Continuous
 62
     3
100
AcDbLine
 10
333.2421248367062
 20
322.9880013069324
 30
0.0
 11
333.2421248367062
 21
308.3380013069321
 31
0.0
  0
LINE
  5
6F
330
1F
100
AcDbEntity
  8
1
  6
Continuous
 62
     3
100
AcDbLine
 10
345.9802530403675
 20
325.8671815461399
 30
0.0
 11
335.2421248367062
 21
324.9880013069324
 31
0.0
  0
LINE
  5
70
330
1F
100
AcDbEntity
  8
1
  6
Continuous
 62
     3
100
AcDbLine
 10
336.2421248367062
 20
322.4880013069324
 30
0.0
 11
336.2421248367062
 21
308.3380013069321
 31
0.0
  0
LINE
  5
71
330
1F
100
AcDbEntity
  8
1
  6
Continuous
 62
     3
100
AcDbLine
 10
341.5211359704807
 20
322.9592140502683
 30
0.0
 11
336.2421248367062
 21
322.4880013069324
 31
0.0
  0
LINE
  5
72
330
1F
100
AcDbEntity
  8
1
  6
Continuous
 62
     3
100
AcDbLine
 10
341.6900612935635
 20
321.066738360802
 30
0.0
 11
341.5211359704807
 21
322.9592140502683
 31
0.0
  0
LINE
  5
73
330
1F
100
AcDbEntity
  8
1
  6
Continuous
 62
     3
100
AcDbLine
 10
341.6900612935635
 20
321.066738360802
 30
0.0
 11
343.0935844791563
 21
321.1920190230052
 31
0.0
  0
LINE
  5
74
330
1F
100
AcDbEntity
  8
1
  6
Continuous
 62
     3
100
AcDbLine
 10
346.2025232023187
 20
323.3770819547362
 30
0.0
 11
343.0935844791563
 21
321.1920190230052
 31
0.0
  0
LINE
  5
75
330
1F
100
AcDbEntity
  8
1
  6
Continuous
 62
     3
100
AcDbLine
 10
346.2025232023187
 20
323.3770819547362
 30
0.0
 11
345.9802530403675
 21
325.8671815461399
 31
0.0
  0
LINE
  5
76
330
1F
100
AcDbEntity
  8
1
  6
Continuous
 62
     3
100
AcDbLine
 10
221.15159985602
 20
293.6880013069321
 30
0.0
 11
221.15159985602
 21
308.3380013069321
 31
0.0
  0
LINE
  5
77
330
1F
100
AcDbEntity
  8
1
  6
Continuous
 62
     3
100
AcDbLine
 10
218.15159985602
 20
294.1880013069321
 30
0.0
 11
218.15159985602
 21
308.3380013069321
 31
0.0
  0
LINE
  5
78
330
1F
100
AcDbEntity
  8
1
  6
Continuous
 62
     3
100
AcDbLine
 10
212.8725887222454
 20
293.7167885635957
 30
0.0
 11
218.15159985602
 21
294.1880013069321
 31
0.0
  0
LINE
  5
79
330
1F
100
AcDbEntity
  8
1
  6
Continuous
 62
     3
100
AcDbLine
 10
212.7036633991626
 20
295.609264253062
 30
0.0
 11
212.8725887222454
 21
293.7167885635957
 31
0.0
  0
LINE
  5
7A
330
1F
100
AcDbEntity
  8
1
  6
Continuous
 62
     3
100
AcDbLine
 10
212.7036633991626
 20
295.609264253062
 30
0.0
 11
211.3001402135699
 21
295.4839835908588
 31
0.0
  0
LINE
  5
7B
330
1F
100
AcDbEntity
  8
1
  6
Continuous
 62
     3
100
AcDbLine
 10
208.4134716523587
 20
290.8088210677242
 30
0.0
 11
219.15159985602
 21
291.6880013069321
 31
0.0
  0
LINE
  5
7C
330
1F
100
AcDbEntity
  8
1
  6
Continuous
 62
     3
100
AcDbLine
 10
208.1912014904075
 20
293.2989206591279
 30
0.0
 11
208.4134716523587
 21
290.8088210677242
 31
0.0
  0
LINE
  5
7D
330
1F
100
AcDbEntity
  8
1
  6
Continuous
 62
     3
100
AcDbLine
 10
208.1912014904075
 20
293.2989206591279
 30
0.0
 11
211.3001402135699
 21
295.4839835908588
 31
0.0
  0
LINE
  5
7E
330
1F
100
AcDbEntity
  8
1
  6
Continuous
 62
     3
100
AcDbLine
 10
221.15159985602
 20
308.3380013069321
 30
0.0
 11
221.15159985602
 21
322.9880013069324
 31
0.0
  0
LINE
  5
7F
330
1F
100
AcDbEntity
  8
1
  6
Continuous
 62
     3
100
AcDbLine
 10
219.15159985602
 20
324.9880013069324
 30
0.0
 11
208.4134716523587
 21
325.8671815461399
 31
0.0
  0
LINE
  5
80
330
1F
100
AcDbEntity
  8
1
  6
Continuous
 62
     3
100
AcDbLine
 10
218.15159985602
 20
308.3380013069321
 30
0.0
 11
218.15159985602
 21
322.4880013069324
 31
0.0
  0
LINE
  5
81
330
1F
100
AcDbEntity
  8
1
  6
Continuous
 62
     3
100
AcDbLine
 10
218.15159985602
 20
322.4880013069324
 30
0.0
 11
212.8725887222454
 21
322.9592140502683
 31
0.0
  0
LINE
  5
82
330
1F
100
AcDbEntity
  8
1
  6
Continuous
 62
     3
100
AcDbLine
 10
212.8725887222454
 20
322.9592140502683
 30
0.0
 11
212.7036633991626
 21
321.066738360802
 31
0.0
  0
LINE
  5
83
330
1F
100
AcDbEntity
  8
1
  6
Continuous
 62
     3
100
AcDbLine
 10
211.3001402135699
 20
321.1920190230052
 30
0.0
 11
212.7036633991626
 21
321.066738360802
 31
0.0
  0
LINE
  5
84
330
1F
100
AcDbEntity
  8
1
  6
Continuous
 62
     3
100
AcDbLine
 10
211.3001402135699
 20
321.1920190230052
 30
0.0
 11
208.1912014904075
 21
323.3770819547362
 31
0.0
  0
LINE
  5
85
330
1F
100
AcDbEntity
  8
1
  6
Continuous
 62
     3
100
AcDbLine
 10
208.4134716523587
 20
325.8671815461399
 30
0.0
 11
208.1912014904075
 21
323.3770819547362
 31
0.0
  0
LINE
  5
86
330
1F
100
AcDbEntity
  8
1
  6
DASH_CENTER
 62
     3
100
AcDbLine
 10
340.2421248367062
 20
305.2700562845261
 30
0.0
 11
340.2421248367062
 21
293.2700562845261
 31
0.0
  0
LINE
  5
87
330
1F
100
AcDbEntity
  8
1
  6
DASH_CENTER
 62
     3
100
AcDbLine
 10
333.6422193533541
 20
299.2700562845261
 30
0.0
 11
346.2421248367062
 21
299.2700562845261
 31
0.0
  0
LINE
  5
88
330
1F
100
AcDbEntity
  8
1
  6
DASH_CENTER
 62
     3
100
AcDbLine
 10
340.2421248367062
 20
323.2700562845261
 30
0.0
 11
340.2421248367062
 21
311.2700562845261
 31
0.0
  0
LINE
  5
89
330
1F
100
AcDbEntity
  8
1
  6
DASH_CENTER
 62
     3
100
AcDbLine
 10
333.6422193533541
 20
317.2700562845261
 30
0.0
 11
346.2421248367062
 21
317.2700562845261
 31
0.0
  0
LINE
  5
8A
330
1F
100
AcDbEntity
  8
1
  6
DASH_CENTER
 62
     3
100
AcDbLine
 10
214.15159985602
 20
293.2700562845261
 30
0.0
 11
214.15159985602
 21
305.2700562845261
 31
0.0
  0
LINE
  5
8B
330
1F
100
AcDbEntity
  8
1
  6
DASH_CENTER
 62
     3
100
AcDbLine
 10
208.15159985602
 20
299.2700562845261
 30
0.0
 11
220.7515053393723
 21
299.2700562845261
 31
0.0
  0
LINE
  5
8C
330
1F
100
AcDbEntity
  8
1
  6
DASH_CENTER
 62
     3
100
AcDbLine
 10
214.15159985602
 20
311.2700562845261
 30
0.0
 11
214.15159985602
 21
323.2700562845261
 31
0.0
  0
LINE
  5
8D
330
1F
100
AcDbEntity
  8
1
  6
DASH_CENTER
 62
     3
100
AcDbLine
 10
208.15159985602
 20
317.2700562845261
 30
0.0
 11
220.7515053393723
 21
317.2700562845261
 31
0.0
  0
LINE
  5
8E
330
1F
100
AcDbEntity
  8
1
  6
Continuous
 62
     3
100
AcDbLine
 10
398.6968623463617
 20
246.330716456306
 30
0.0
 11
392.1968623463617
 21
246.330716456306
 31
0.0
  0
LINE
  5
8F
330
1F
100
AcDbEntity
  8
1
  6
Continuous
 62
     3
100
AcDbLine
 10
392.1968623463617
 20
252.3307164563061
 30
0.0
 11
398.6968623463617
 21
252.3307164563061
 31
0.0
  0
LINE
  5
90
330
1F
100
AcDbEntity
  8
1
  6
Continuous
 62
     3
100
AcDbLine
 10
385.1968623463617
 20
245.0005894373837
 30
0.0
 11
385.1968623463617
 21
253.6608434752283
 31
0.0
  0
LINE
  5
91
330
1F
100
AcDbEntity
  8
1
  6
Continuous
 62
     3
100
AcDbLine
 10
389.1968623463617
 20
246.4439651103579
 30
0.0
 11
385.6434443337471
 21
246.4439651103579
 31
0.0
  0
LINE
  5
92
330
1F
100
AcDbEntity
  8
1
  6
Continuous
 62
     3
100
AcDbLine
 10
389.1968623463617
 20
252.2174678022542
 30
0.0
 11
385.6434443337471
 21
252.2174678022542
 31
0.0
  0
LINE
  5
93
330
1F
100
AcDbEntity
  8
1
  6
Continuous
 62
     3
100
AcDbLine
 10
389.1968623463617
 20
243.5572137644098
 30
0.0
 11
385.6434443337471
 21
243.5572137644098
 31
0.0
  0
LINE
  5
94
330
1F
100
AcDbEntity
  8
1
  6
Continuous
 62
     3
100
AcDbLine
 10
389.1968623463617
 20
255.1042191482023
 30
0.0
 11
389.1968623463617
 21
243.5572137644098
 31
0.0
  0
LINE
  5
95
330
1F
100
AcDbEntity
  8
1
  6
Continuous
 62
     3
100
AcDbLine
 10
385.6434443337471
 20
255.1042191482023
 30
0.0
 11
389.1968623463617
 21
255.1042191482023
 31
0.0
  0
LINE
  5
96
330
1F
100
AcDbEntity
  8
1
  6
Continuous
 62
     3
100
AcDbLine
 10
392.1968623463617
 20
260.3307164563061
 30
0.0
 11
389.1968623463617
 21
260.3307164563061
 31
0.0
  0
LINE
  5
97
330
1F
100
AcDbEntity
  8
1
  6
Continuous
 62
     3
100
AcDbLine
 10
389.1968623463617
 20
260.3307164563061
 30
0.0
 11
389.1968623463617
 21
238.330716456306
 31
0.0
  0
LINE
  5
98
330
1F
100
AcDbEntity
  8
1
  6
Continuous
 62
     3
100
AcDbLine
 10
389.1968623463617
 20
238.330716456306
 30
0.0
 11
392.1968623463617
 21
238.330716456306
 31
0.0
  0
LINE
  5
99
330
1F
100
AcDbEntity
  8
1
  6
Continuous
 62
     3
100
AcDbLine
 10
392.1968623463617
 20
238.330716456306
 30
0.0
 11
392.1968623463617
 21
260.3307164563061
 31
0.0
  0
LINE
  5
9A
330
1F
100
AcDbEntity
  8
1
  6
DASH_CENTER
 62
     3
100
AcDbLine
 10
156.1968623463628
 20
249.330716456306
 30
0.0
 11
147.6968623463628
 21
249.330716456306
 31
0.0
  0
LINE
  5
9B
330
1F
100
AcDbEntity
  8
1
  6
Continuous
 62
     3
100
AcDbLine
 10
147.6968623463628
 20
245.0005894373837
 30
0.0
 11
147.6968623463628
 21
253.6608434752283
 31
0.0
  0
LINE
  5
9C
330
1F
100
AcDbEntity
  8
1
  6
Continuous
 62
     3
100
AcDbLine
 10
151.6968623463628
 20
246.4439651103579
 30
0.0
 11
148.1434443337482
 21
246.4439651103579
 31
0.0
  0
LINE
  5
9D
330
1F
100
AcDbEntity
  8
1
  6
Continuous
 62
     3
100
AcDbLine
 10
151.6968623463628
 20
252.2174678022542
 30
0.0
 11
148.1434443337482
 21
252.2174678022542
 31
0.0
  0
LINE
  5
9E
330
1F
100
AcDbEntity
  8
1
  6
Continuous
 62
     3
100
AcDbLine
 10
151.6968623463628
 20
243.5572137644098
 30
0.0
 11
148.1434443337482
 21
243.5572137644098
 31
0.0
  0
LINE
  5
9F
330
1F
100
AcDbEntity
  8
1
  6
Continuous
 62
     3
100
AcDbLine
 10
151.6968623463628
 20
255.1042191482023
 30
0.0
 11
151.6968623463628
 21
243.5572137644098
 31
0.0
  0
LINE
  5
A0
330
1F
100
AcDbEntity
  8
1
  6
Continuous
 62
     3
100
AcDbLine
 10
148.1434443337482
 20
255.1042191482023
 30
0.0
 11
151.6968623463628
 21
255.1042191482023
 31
0.0
  0
LINE
  5
A1
330
1F
100
AcDbEntity
  8
1
  6
Continuous
 62
     3
100
AcDbLine
 10
151.6968623463628
 20
259.3307164563059
 30
0.0
 11
151.6968623463628
 21
239.330716456306
 31
0.0
  0
LINE
  5
A2
330
1F
100
AcDbEntity
  8
1
  6
Continuous
 62
     3
100
AcDbLine
 10
154.1968623463628
 20
259.3307164563061
 30
0.0
 11
151.6968623463628
 21
259.3307164563059
 31
0.0
  0
LINE
  5
A3
330
1F
100
AcDbEntity
  8
1
  6
Continuous
 62
     3
100
AcDbLine
 10
154.1968623463628
 20
239.330716456306
 30
0.0
 11
154.1968623463628
 21
259.3307164563061
 31
0.0
  0
LINE
  5
A4
330
1F
100
AcDbEntity
  8
1
  6
Continuous
 62
     3
100
AcDbLine
 10
151.6968623463628
 20
239.330716456306
 30
0.0
 11
154.1968623463628
 21
239.330716456306
 31
0.0
  0
LINE
  5
A5
330
1F
100
AcDbEntity
  8
1
  6
Continuous
 62
     3
100
AcDbLine
 10
186.7603624109987
 20
252.3307164563061
 30
0.0
 11
187.7603624109987
 21
251.3307164563061
 31
0.0
  0
LINE
  5
A6
330
1F
100
AcDbEntity
  8
1
  6
Continuous
 62
     3
100
AcDbLine
 10
187.7603624109987
 20
251.3307164563061
 30
0.0
 11
187.7603624109987
 21
247.330716456306
 31
0.0
  0
LINE
  5
A7
330
1F
100
AcDbEntity
  8
1
  6
Continuous
 62
     3
100
AcDbLine
 10
187.7603624109987
 20
247.330716456306
 30
0.0
 11
186.7603624109987
 21
246.330716456306
 31
0.0
  0
LINE
  5
A8
330
1F
100
AcDbEntity
  8
1
  6
Continuous
 62
     3
100
AcDbLine
 10
186.7603624109987
 20
246.330716456306
 30
0.0
 11
185.6968623463628
 21
246.330716456306
 31
0.0
  0
LINE
  5
A9
330
1F
100
AcDbEntity
  8
1
  6
Continuous
 62
     3
100
AcDbLine
 10
186.7603624109987
 20
252.3307164563061
 30
0.0
 11
186.7603624109987
 21
246.330716456306
 31
0.0
  0
LINE
  5
AA
330
1F
100
AcDbEntity
  8
1
  6
Continuous
 62
     3
100
AcDbLine
 10
187.3018624109986
 20
246.8722164563061
 30
0.0
 11
185.6968623463628
 21
246.8722164563061
 31
0.0
  0
LINE
  5
AB
330
1F
100
AcDbEntity
  8
1
  6
Continuous
 62
     3
100
AcDbLine
 10
185.6968623463628
 20
252.3307164563061
 30
0.0
 11
186.7603624109987
 21
252.3307164563061
 31
0.0
  0
LINE
  5
AC
330
1F
100
AcDbEntity
  8
1
  6
Continuous
 62
     3
100
AcDbLine
 10
185.6968623463628
 20
251.789216456306
 30
0.0
 11
187.3018624109986
 21
251.789216456306
 31
0.0
  0
LINE
  5
AD
330
1F
100
AcDbEntity
  8
1
  6
Continuous
 62
     3
100
AcDbLine
 10
179.1968623463628
 20
243.230716456306
 30
0.0
 11
179.1968623463628
 21
255.4307164563061
 31
0.0
  0
LINE
  5
AE
330
1F
100
AcDbEntity
  8
1
  6
Continuous
 62
     3
100
AcDbLine
 10
179.1968623463628
 20
255.4307164563061
 30
0.0
 11
180.6968623463628
 21
255.4307164563061
 31
0.0
  0
LINE
  5
AF
330
1F
100
AcDbEntity
  8
1
  6
Continuous
 62
     3
100
AcDbLine
 10
180.6968623463628
 20
255.4307164563061
 30
0.0
 11
180.6968623463628
 21
243.230716456306
 31
0.0
  0
LINE
  5
B0
330
1F
100
AcDbEntity
  8
1
  6
Continuous
 62
     3
100
AcDbLine
 10
180.6968623463628
 20
243.230716456306
 30
0.0
 11
179.1968623463628
 21
243.230716456306
 31
0.0
  0
LINE
  5
B1
330
1F
100
AcDbEntity
  8
1
  6
Continuous
 62
     3
100
AcDbLine
 10
179.1968623463628
 20
246.2807164563061
 30
0.0
 11
180.6968623463628
 21
246.2807164563061
 31
0.0
  0
LINE
  5
B2
330
1F
100
AcDbEntity
  8
1
  6
Continuous
 62
     3
100
AcDbLine
 10
179.1968623463628
 20
252.380716456306
 30
0.0
 11
180.6968623463628
 21
252.380716456306
 31
0.0
  0
LINE
  5
B3
330
1F
100
AcDbEntity
  8
1
  6
Continuous
 62
     3
100
AcDbLine
 10
185.2502803589775
 20
243.5572137644098
 30
0.0
 11
180.6968623463628
 21
243.5572137644098
 31
0.0
  0
LINE
  5
B4
330
1F
100
AcDbEntity
  8
1
  6
Continuous
 62
     3
100
AcDbLine
 10
180.6968623463628
 20
243.5572137644098
 30
0.0
 11
180.6968623463628
 21
255.1042191482023
 31
0.0
  0
LINE
  5
B5
330
1F
100
AcDbEntity
  8
1
  6
Continuous
 62
     3
100
AcDbLine
 10
180.6968623463628
 20
255.1042191482023
 30
0.0
 11
185.2502803589775
 21
255.1042191482023
 31
0.0
  0
LINE
  5
B6
330
1F
100
AcDbEntity
  8
1
  6
Continuous
 62
     3
100
AcDbLine
 10
180.6968623463628
 20
246.4439651103579
 30
0.0
 11
185.2502803589775
 21
246.4439651103579
 31
0.0
  0
LINE
  5
B7
330
1F
100
AcDbEntity
  8
1
  6
Continuous
 62
     3
100
AcDbLine
 10
180.6968623463628
 20
252.2174678022542
 30
0.0
 11
185.2502803589775
 21
252.2174678022542
 31
0.0
  0
LINE
  5
B8
330
1F
100
AcDbEntity
  8
1
  6
Continuous
 62
     3
100
AcDbLine
 10
185.6968623463628
 20
253.6608434752283
 30
0.0
 11
185.6968623463628
 21
245.0005894373837
 31
0.0
  0
LINE
  5
B9
330
1F
100
AcDbEntity
  8
1
  6
DASH_CENTER
 62
     3
100
AcDbLine
 10
179.2434721304841
 20
249.330716456306
 30
0.0
 11
189.2434721304841
 21
249.330716456306
 31
0.0
  0
LINE
  5
BA
330
1F
100
AcDbEntity
  8
1
  6
Continuous
 62
     7
100
AcDbLine
 10
344.7468623463618
 20
299.2700562845261
 30
0.0
 11
344.7468623463618
 21
317.2700562845261
 31
0.0
  0
LINE
  5
BB
330
1F
100
AcDbEntity
  8
1
  6
Continuous
 62
     7
100
AcDbLine
 10
352.7468623463618
 20
325.2700562845261
 30
0.0
 11
362.2468623463618
 21
325.2700562845261
 31
0.0
  0
LINE
  5
BC
330
1F
100
AcDbEntity
  8
1
  6
Continuous
 62
     7
100
AcDbLine
 10
361.7468623463618
 20
325.2700562845261
 30
0.0
 11
367.7468623463618
 21
325.2700562845261
 31
0.0
  0
LINE
  5
BD
330
1F
100
AcDbEntity
  8
1
  6
Continuous
 62
     7
100
AcDbLine
 10
364.2468623463618
 20
315.2700562845261
 30
0.0
 11
367.7468623463618
 21
315.2700562845261
 31
0.0
  0
LINE
  5
BE
330
1F
100
AcDbEntity
  8
1
  6
Continuous
 62
     3
100
AcDbLine
 10
349.2468623463618
 20
321.2700562845261
 30
0.0
 11
349.2468623463618
 21
311.2700562845261
 31
0.0
  0
LINE
  5
BF
330
1F
100
AcDbEntity
  8
1
  6
Continuous
 62
     3
100
AcDbLine
 10
359.2468623463618
 20
321.2700562845261
 30
0.0
 11
349.2468623463618
 21
321.2700562845261
 31
0.0
  0
LINE
  5
C0
330
1F
100
AcDbEntity
  8
1
  6
Continuous
 62
     3
100
AcDbLine
 10
359.2468623463618
 20
311.2700562845261
 30
0.0
 11
359.2468623463618
 21
321.2700562845261
 31
0.0
  0
LINE
  5
C1
330
1F
100
AcDbEntity
  8
1
  6
Continuous
 62
     3
100
AcDbLine
 10
349.2468623463618
 20
311.2700562845261
 30
0.0
 11
359.2468623463618
 21
311.2700562845261
 31
0.0
  0
LINE
  5
C2
330
1F
100
AcDbEntity
  8
1
  6
Continuous
 62
     7
100
AcDbLine
 10
362.2468623463618
 20
293.2700562845261
 30
0.0
 11
362.2468623463618
 21
323.2700562845261
 31
0.0
  0
LINE
  5
C3
330
1F
100
AcDbEntity
  8
1
  6
Continuous
 62
     7
100
AcDbLine
 10
364.2468623463618
 20
301.2700562845261
 30
0.0
 11
367.7468623463618
 21
301.2700562845261
 31
0.0
  0
LINE
  5
C4
330
1F
100
AcDbEntity
  8
1
  6
Continuous
 62
     7
100
AcDbLine
 10
367.7468623463618
 20
291.2700562845261
 30
0.0
 11
352.7468623463618
 21
291.2700562845261
 31
0.0
  0
LINE
  5
C5
330
1F
100
AcDbEntity
  8
1
  6
Continuous
 62
     7
100
AcDbLine
 10
369.7468623463618
 20
323.2700562845261
 30
0.0
 11
369.7468623463618
 21
293.2700562845261
 31
0.0
  0
LINE
  5
C6
330
1F
100
AcDbEntity
  8
1
  6
Continuous
 62
     7
100
AcDbLine
 10
523.5139999944937
 20
323.2700562845261
 30
0.0
 11
523.5139999944937
 21
293.2700562845263
 31
0.0
  0
LINE
  5
C7
330
1F
100
AcDbEntity
  8
1
  6
Continuous
 62
     7
100
AcDbLine
 10
547.5139999944937
 20
325.2700562845261
 30
0.0
 11
525.5139999944937
 21
325.2700562845261
 31
0.0
  0
LINE
  5
C8
330
1F
100
AcDbEntity
  8
1
  6
DASH_CENTER
 62
     3
100
AcDbLine
 10
556.1139999944938
 20
316.2700562845263
 30
0.0
 11
521.8139999944937
 21
316.2700562845263
 31
0.0
  0
LINE
  5
C9
330
1F
100
AcDbEntity
  8
1
  6
DASH_CENTER
 62
     3
100
AcDbLine
 10
530.5139999944937
 20
292.6200562845262
 30
0.0
 11
530.5139999944937
 21
315.9200562845261
 31
0.0
  0
LINE
  5
CA
330
1F
100
AcDbEntity
  8
1
  6
Continuous
 62
     7
100
AcDbLine
 10
535.5139999944937
 20
320.2700562845263
 30
0.0
 11
535.5139999944937
 21
323.2700562845261
 31
0.0
  0
LINE
  5
CB
330
1F
100
AcDbEntity
  8
1
  6
Continuous
 62
     7
100
AcDbLine
 10
549.5139999944937
 20
293.2700562845263
 30
0.0
 11
549.5139999944937
 21
323.2700562845261
 31
0.0
  0
LINE
  5
CC
330
1F
100
AcDbEntity
  8
1
  6
Continuous
 62
     7
100
AcDbLine
 10
525.5139999944937
 20
291.2700562845261
 30
0.0
 11
547.5139999944937
 21
291.2700562845261
 31
0.0
  0
LINE
  5
CD
330
1F
100
AcDbEntity
  8
1
  6
Continuous
 62
     7
100
AcDbLine
 10
535.5139999944937
 20
293.2700562845261
 30
0.0
 11
535.5139999944937
 21
296.2700562845263
 31
0.0
  0
LINE
  5
CE
330
1F
100
AcDbEntity
  8
1
  6
DASH_CENTER
 62
     3
100
AcDbLine
 10
540.1639999944938
 20
308.2700562845263
 30
0.0
 11
519.4639999944938
 21
308.2700562845263
 31
0.0
  0
LINE
  5
CF
330
1F
100
AcDbEntity
  8
1
  6
DASH_CENTER
 62
     3
100
AcDbLine
 10
542.5139999944937
 20
290.1668471507388
 30
0.0
 11
542.5139999944937
 21
330.1668471507388
 31
0.0
  0
LINE
  5
D0
330
1F
100
AcDbEntity
  8
1
  6
DASH_CENTER
 62
     3
100
AcDbLine
 10
550.7139999944938
 20
300.2700562845263
 30
0.0
 11
516.9139999944938
 21
300.2700562845263
 31
0.0
  0
LINE
  5
D1
330
1F
100
AcDbEntity
  8
1
  6
Continuous
 62
     3
100
AcDbLine
 10
371.2468623463618
 20
338.2700562845261
 30
0.0
 11
395.2468623463618
 21
338.2700562845261
 31
0.0
  0
LINE
  5
D2
330
1F
100
AcDbEntity
  8
1
  6
Continuous
 62
     3
100
AcDbLine
 10
361.2468623463618
 20
288.2700562845261
 30
0.0
 11
363.2468623463618
 21
288.2700562845261
 31
0.0
  0
LINE
  5
D3
330
1F
100
AcDbEntity
  8
1
  6
Continuous
 62
     3
100
AcDbLine
 10
371.2468623463618
 20
330.2700562845261
 30
0.0
 11
395.1468623463617
 21
330.2700562845261
 31
0.0
  0
LINE
  5
D4
330
1F
100
AcDbEntity
  8
1
  6
Continuous
 62
     3
100
AcDbLine
 10
408.1968623463617
 20
266.3307164563061
 30
0.0
 11
408.1968623463617
 21
325.2700562845261
 31
0.0
  0
LINE
  5
D5
330
1F
100
AcDbEntity
  8
1
  6
Continuous
 62
     3
100
AcDbLine
 10
400.1968623463617
 20
266.3307164563061
 30
0.0
 11
400.1968623463617
 21
325.2700562845261
 31
0.0
  0
LINE
  5
D6
330
1F
100
AcDbEntity
  8
1
  6
Continuous
 62
     3
100
AcDbLine
 10
400.1968623463617
 20
207.330716456306
 30
0.0
 11
400.1968623463617
 21
232.330716456306
 31
0.0
  0
LINE
  5
D7
330
1F
100
AcDbEntity
  8
1
  6
Continuous
 62
     3
100
AcDbLine
 10
408.1968623463623
 20
207.330716456306
 30
0.0
 11
408.1968623463617
 21
232.330716456306
 31
0.0
  0
LINE
  5
D8
330
1F
100
AcDbEntity
  8
1
  6
Continuous
 62
     3
100
AcDbLine
 10
403.1468623463617
 20
204.330716456306
 30
0.0
 11
405.246862346362
 21
204.330716456306
 31
0.0
  0
LINE
  5
D9
330
1F
100
AcDbEntity
  8
1
  6
DASH_CENTER
 62
     3
100
AcDbLine
 10
404.1968623463617
 20
325.2700562845261
 30
0.0
 11
404.1968623463617
 21
202.4339255900935
 31
0.0
  0
LINE
  5
DA
330
1F
100
AcDbEntity
  8
1
  6
DASH_CENTER
 62
     3
100
AcDbLine
 10
395.1968623463617
 20
334.2700562845261
 30
0.0
 11
371.2468623463618
 21
334.2700562845261
 31
0.0
  0
LINE
  5
DB
330
1F
100
AcDbEntity
  8
1
  6
DASH_CENTER
 62
     3
100
AcDbLine
 10
362.2468623463618
 20
325.2700562845261
 30
0.0
 11
362.2468623463618
 21
285.3929405867682
 31
0.0
  0
LINE
  5
DC
330
1F
100
AcDbEntity
  8
1
  6
Continuous
 62
     3
100
AcDbLine
 10
538.4639999944935
 20
207.330716456306
 30
0.0
 11
538.4639999944935
 21
232.330716456306
 31
0.0
  0
LINE
  5
DD
330
1F
100
AcDbEntity
  8
1
  6
Continuous
 62
     3
100
AcDbLine
 10
546.463999994494
 20
207.330716456306
 30
0.0
 11
546.463999994494
 21
232.330716456306
 31
0.0
  0
LINE
  5
DE
330
1F
100
AcDbEntity
  8
1
  6
Continuous
 62
     3
100
AcDbLine
 10
541.4639999944935
 20
204.330716456306
 30
0.0
 11
543.5639999944939
 21
204.330716456306
 31
0.0
  0
LINE
  5
DF
330
1F
100
AcDbEntity
  8
1
  6
Continuous
 62
     3
100
AcDbLine
 10
538.5139999944937
 20
266.3307164563061
 30
0.0
 11
538.5139999944937
 21
291.2700562845261
 31
0.0
  0
LINE
  5
E0
330
1F
100
AcDbEntity
  8
1
  6
Continuous
 62
     3
100
AcDbLine
 10
546.5139999944937
 20
266.3307164563061
 30
0.0
 11
546.5139999944937
 21
291.2700562845261
 31
0.0
  0
LINE
  5
E1
330
1F
100
AcDbEntity
  8
1
  6
DASH_CENTER
 62
     3
100
AcDbLine
 10
542.5139999944937
 20
200.919172107005
 30
0.0
 11
542.5139999944937
 21
344.919172107005
 31
0.0
  0
LINE
  5
E2
330
1F
100
AcDbEntity
  8
1
  6
DASH_CENTER
 62
     3
100
AcDbLine
 10
538.5139999944937
 20
338.2700562845261
 30
0.0
 11
546.5139999944937
 21
338.2700562845261
 31
0.0
  0
LINE
  5
E3
330
1F
100
AcDbEntity
  8
1
  6
Continuous
 62
     3
100
AcDbLine
 10
538.5139999944937
 20
325.2700562845261
 30
0.0
 11
538.5139999944937
 21
338.2700562845261
 31
0.0
  0
LINE
  5
E4
330
1F
100
AcDbEntity
  8
1
  6
Continuous
 62
     3
100
AcDbLine
 10
546.5139999944937
 20
325.2700562845261
 30
0.0
 11
546.5139999944937
 21
338.2700562845261
 31
0.0
  0
LINE
  5
E5
330
1F
100
AcDbEntity
  8
1
  6
Continuous
 62
     7
100
AcDbLine
 10
526.5139999944937
 20
262.3307164563061
 30
0.0
 11
513.5139999944937
 21
262.3307164563061
 31
0.0
  0
LINE
  5
E6
330
1F
100
AcDbEntity
  8
1
  6
Continuous
 62
     7
100
AcDbLine
 10
526.5139999944937
 20
254.3307164563061
 30
0.0
 11
513.5139999944937
 21
254.3307164563061
 31
0.0
  0
LINE
  5
E7
330
1F
100
AcDbEntity
  8
1
  6
Continuous
 62
     7
100
AcDbLine
 10
513.5139999944937
 20
236.330716456306
 30
0.0
 11
526.5139999944937
 21
236.330716456306
 31
0.0
  0
LINE
  5
E8
330
1F
100
AcDbEntity
  8
1
  6
Continuous
 62
     7
100
AcDbLine
 10
513.5139999944937
 20
244.330716456306
 30
0.0
 11
526.5139999944937
 21
244.330716456306
 31
0.0
  0
LINE
  5
E9
330
1F
100
AcDbEntity
  8
1
  6
Continuous
 62
     7
100
AcDbLine
 10
161.1968623463628
 20
269.3307164563061
 30
0.0
 11
177.1968623463628
 21
269.3307164563061
 31
0.0
  0
LINE
  5
EA
330
1F
100
AcDbEntity
  8
1
  6
Continuous
 62
     7
100
AcDbLine
 10
156.1968623463628
 20
262.8307164563061
 30
0.0
 11
156.1968623463628
 21
264.3307164563061
 31
0.0
  0
LINE
  5
EB
330
1F
100
AcDbEntity
  8
1
  6
Continuous
 62
     7
100
AcDbLine
 10
158.1968623463628
 20
262.3307164563061
 30
0.0
 11
156.6968623463628
 21
262.3307164563061
 31
0.0
  0
LINE
  5
EC
330
1F
100
AcDbEntity
  8
1
  6
DASH_CENTER
 62
     3
100
AcDbLine
 10
158.1968623463628
 20
264.3307164563061
 30
0.0
 11
158.1968623463628
 21
252.3307164563061
 31
0.0
  0
LINE
  5
ED
330
1F
100
AcDbEntity
  8
1
  6
DASH_CENTER
 62
     3
100
AcDbLine
 10
153.1968623463628
 20
258.3307164563061
 30
0.0
 11
164.1968623463628
 21
258.3307164563061
 31
0.0
  0
LINE
  5
EE
330
1F
100
AcDbEntity
  8
1
  6
Continuous
 62
     7
100
AcDbLine
 10
158.1968623463628
 20
254.3307164563061
 30
0.0
 11
157.1968623463628
 21
254.3307164563061
 31
0.0
  0
LINE
  5
EF
330
1F
100
AcDbEntity
  8
1
  6
Continuous
 62
     7
100
AcDbLine
 10
157.1968623463628
 20
254.3307164563061
 30
0.0
 11
156.1968623463628
 21
253.8307164563061
 31
0.0
  0
LINE
  5
F0
330
1F
100
AcDbEntity
  8
1
  6
Continuous
 62
     7
100
AcDbLine
 10
156.1968623463628
 20
253.8307164563061
 30
0.0
 11
156.1968623463628
 21
244.830716456306
 31
0.0
  0
LINE
  5
F1
330
1F
100
AcDbEntity
  8
1
  6
Continuous
 62
     7
100
AcDbLine
 10
158.1968623463628
 20
244.330716456306
 30
0.0
 11
157.1968623463628
 21
244.330716456306
 31
0.0
  0
LINE
  5
F2
330
1F
100
AcDbEntity
  8
1
  6
Continuous
 62
     7
100
AcDbLine
 10
156.1968623463628
 20
244.830716456306
 30
0.0
 11
157.1968623463628
 21
244.330716456306
 31
0.0
  0
LINE
  5
F3
330
1F
100
AcDbEntity
  8
1
  6
DASH_CENTER
 62
     3
100
AcDbLine
 10
151.5969568630104
 20
240.330716456306
 30
0.0
 11
164.1968623463628
 21
240.330716456306
 31
0.0
  0
LINE
  5
F4
330
1F
100
AcDbEntity
  8
1
  6
DASH_CENTER
 62
     3
100
AcDbLine
 10
158.1968623463628
 20
246.330716456306
 30
0.0
 11
158.1968623463628
 21
234.330716456306
 31
0.0
  0
LINE
  5
F5
330
1F
100
AcDbEntity
  8
1
  6
Continuous
 62
     7
100
AcDbLine
 10
156.6968623463628
 20
236.330716456306
 30
0.0
 11
158.1968623463628
 21
236.330716456306
 31
0.0
  0
LINE
  5
F6
330
1F
100
AcDbEntity
  8
1
  6
Continuous
 62
     7
100
AcDbLine
 10
156.1968623463628
 20
234.330716456306
 30
0.0
 11
156.1968623463628
 21
235.830716456306
 31
0.0
  0
LINE
  5
F7
330
1F
100
AcDbEntity
  8
1
  6
Continuous
 62
     7
100
AcDbLine
 10
177.1968623463628
 20
229.330716456306
 30
0.0
 11
161.1968623463628
 21
229.330716456306
 31
0.0
  0
LINE
  5
F8
330
1F
100
AcDbEntity
  8
1
  6
Continuous
 62
     7
100
AcDbLine
 10
177.1968623463628
 20
269.3307164563061
 30
0.0
 11
177.1968623463628
 21
229.330716456306
 31
0.0
  0
LINE
  5
F9
330
1F
100
AcDbEntity
  8
1
  6
DASH_CENTER
 62
     3
100
AcDbLine
 10
508.8955280254446
 20
258.3307164563061
 30
0.0
 11
697.6932688951655
 21
258.3307164563061
 31
0.0
  0
LINE
  5
FA
330
1F
100
AcDbEntity
  8
1
  6
Continuous
 62
     7
100
AcDbLine
 10
654.9740466963043
 20
262.3307164563061
 30
0.0
 11
558.5139999944937
 21
262.3307164563061
 31
0.0
  0
LINE
  5
FB
330
1F
100
AcDbEntity
  8
1
  6
Continuous
 62
     7
100
AcDbLine
 10
654.3137926584599
 20
254.3307164563061
 30
0.0
 11
558.5139999944937
 21
254.3307164563061
 31
0.0
  0
LINE
  5
FC
330
1F
100
AcDbEntity
  8
1
  6
Continuous
 62
     7
100
AcDbLine
 10
691.9740466963043
 20
262.3307164563061
 30
0.0
 11
670.9740466963043
 21
262.3307164563061
 31
0.0
  0
LINE
  5
FD
330
1F
100
AcDbEntity
  8
1
  6
Continuous
 62
     7
100
AcDbLine
 10
691.9740466963043
 20
254.3307164563061
 30
0.0
 11
671.6343007341486
 21
254.3307164563061
 31
0.0
  0
LINE
  5
FE
330
1F
100
AcDbEntity
  8
1
  6
DASH_CENTER
 62
     3
100
AcDbLine
 10
697.6932688951655
 20
240.330716456306
 30
0.0
 11
508.8955280254446
 21
240.330716456306
 31
0.0
  0
LINE
  5
FF
330
1F
100
AcDbEntity
  8
1
  6
Continuous
 62
     7
100
AcDbLine
 10
558.5139999944937
 20
236.330716456306
 30
0.0
 11
654.9740466963043
 21
236.330716456306
 31
0.0
  0
LINE
  5
100
330
1F
100
AcDbEntity
  8
1
  6
Continuous
 62
     7
100
AcDbLine
 10
558.5139999944937
 20
244.330716456306
 30
0.0
 11
654.3137926584599
 21
244.330716456306
 31
0.0
  0
LINE
  5
101
330
1F
100
AcDbEntity
  8
1
  6
Continuous
 62
     7
100
AcDbLine
 10
670.9740466963043
 20
236.330716456306
 30
0.0
 11
691.9740466963043
 21
236.330716456306
 31
0.0
  0
LINE
  5
102
330
1F
100
AcDbEntity
  8
1
  6
Continuous
 62
     7
100
AcDbLine
 10
671.6343007341486
 20
244.330716456306
 30
0.0
 11
691.9740466963043
 21
244.330716456306
 31
0.0
  0
LINE
  5
103
330
1F
100
AcDbEntity
  8
1
  6
Continuous
 62
     7
100
AcDbLine
 10
654.9740466963043
 20
236.330716456306
 30
0.0
 11
670.9740466963043
 21
236.330716456306
 31
0.0
  0
LINE
  5
104
330
1F
100
AcDbEntity
  8
1
  6
Continuous
 62
     7
100
AcDbLine
 10
654.9740466963043
 20
262.3307164563061
 30
0.0
 11
670.9740466963043
 21
262.3307164563061
 31
0.0
  0
LINE
  5
105
330
1F
100
AcDbEntity
  8
1
  6
Continuous
 62
     7
100
AcDbLine
 10
523.5139999944937
 20
321.2700562845261
 30
0.0
 11
513.5139999944937
 21
321.2700562845261
 31
0.0
  0
LINE
  5
106
330
1F
100
AcDbEntity
  8
1
  6
Continuous
 62
     7
100
AcDbLine
 10
549.5139999944937
 20
295.2700562845261
 30
0.0
 11
571.5139999944937
 21
295.2700562845261
 31
0.0
  0
LINE
  5
107
330
1F
100
AcDbEntity
  8
1
  6
Continuous
 62
     7
100
AcDbLine
 10
523.5139999944937
 20
313.2700562845261
 30
0.0
 11
513.5139999944937
 21
313.2700562845261
 31
0.0
  0
LINE
  5
108
330
1F
100
AcDbEntity
  8
1
  6
Continuous
 62
     7
100
AcDbLine
 10
549.5139999944937
 20
303.2700562845261
 30
0.0
 11
571.5139999944937
 21
303.2700562845261
 31
0.0
  0
LINE
  5
109
330
1F
100
AcDbEntity
  8
1
  6
DASH_CENTER
 62
     3
100
AcDbLine
 10
508.8955280254446
 20
317.2700562845261
 30
0.0
 11
577.2332221933549
 21
317.2700562845261
 31
0.0
  0
LINE
  5
10A
330
1F
100
AcDbEntity
  8
1
  6
Continuous
 62
     7
100
AcDbLine
 10
571.5139999944937
 20
321.2700562845261
 30
0.0
 11
549.5139999944937
 21
321.2700562845261
 31
0.0
  0
LINE
  5
10B
330
1F
100
AcDbEntity
  8
1
  6
Continuous
 62
     7
100
AcDbLine
 10
571.5139999944937
 20
313.2700562845261
 30
0.0
 11
549.5139999944937
 21
313.2700562845261
 31
0.0
  0
LINE
  5
10C
330
1F
100
AcDbEntity
  8
1
  6
DASH_CENTER
 62
     3
100
AcDbLine
 10
577.2332221933549
 20
299.2700562845261
 30
0.0
 11
508.8955280254446
 21
299.2700562845261
 31
0.0
  0
LINE
  5
10D
330
1F
100
AcDbEntity
  8
1
  6
Continuous
 62
     7
100
AcDbLine
 10
513.5139999944937
 20
295.2700562845261
 30
0.0
 11
523.5139999944937
 21
295.2700562845261
 31
0.0
  0
LINE
  5
10E
330
1F
100
AcDbEntity
  8
1
  6
Continuous
 62
     7
100
AcDbLine
 10
513.5139999944937
 20
303.2700562845261
 30
0.0
 11
523.5139999944937
 21
303.2700562845261
 31
0.0
  0
LINE
  5
10F
330
1F
100
AcDbEntity
  8
1
  6
Continuous
 62
     7
100
AcDbLine
 10
570.5139999944937
 20
325.8671815461399
 30
0.0
 11
514.5139999944937
 21
325.8671815461399
 31
0.0
  0
LINE
  5
110
330
1F
100
AcDbEntity
  8
1
  6
Continuous
 62
     7
100
AcDbLine
 10
514.5139999944937
 20
290.8088210677242
 30
0.0
 11
570.5139999944937
 21
290.8088210677242
 31
0.0
  0
LINE
  5
111
330
1F
100
AcDbEntity
  8
1
  6
Continuous
 62
     7
100
AcDbLine
 10
526.5139999944937
 20
234.330716456306
 30
0.0
 11
526.5139999944937
 21
264.3307164563061
 31
0.0
  0
LINE
  5
112
330
1F
100
AcDbEntity
  8
1
  6
Continuous
 62
     7
100
AcDbLine
 10
558.5139999944937
 20
264.3307164563061
 30
0.0
 11
558.5139999944937
 21
234.330716456306
 31
0.0
  0
LINE
  5
113
330
1F
100
AcDbEntity
  8
1
  6
Continuous
 62
     7
100
AcDbLine
 10
556.5139999944937
 20
232.330716456306
 30
0.0
 11
528.5139999944937
 21
232.330716456306
 31
0.0
  0
LINE
  5
114
330
1F
100
AcDbEntity
  8
1
  6
Continuous
 62
     7
100
AcDbLine
 10
528.5139999944937
 20
266.3307164563061
 30
0.0
 11
556.5139999944937
 21
266.3307164563061
 31
0.0
  0
LINE
  5
115
330
1F
100
AcDbEntity
  8
1
  6
DASH_CENTER
 62
     3
100
AcDbLine
 10
534.5139999944937
 20
242.980716456306
 30
0.0
 11
534.5139999944937
 21
255.5582174571068
 31
0.0
  0
LINE
  5
116
330
1F
100
AcDbEntity
  8
1
  6
DASH_CENTER
 62
     3
100
AcDbLine
 10
550.5139999944937
 20
255.5582174571068
 30
0.0
 11
550.5139999944937
 21
242.980716456306
 31
0.0
  0
LINE
  5
117
330
1F
100
AcDbEntity
  8
1
  6
DASH_CENTER
 62
     3
100
AcDbLine
 10
542.5139999944937
 20
268.5934055389698
 30
0.0
 11
542.5139999944937
 21
229.5934055389698
 31
0.0
  0
LINE
  5
118
330
1F
100
AcDbEntity
  8
1
  6
DASH_CENTER
 62
     3
100
AcDbLine
 10
523.4840262067186
 20
249.330716456306
 30
0.0
 11
561.1930155762424
 21
249.330716456306
 31
0.0
  0
LINE
  5
119
330
1F
100
AcDbEntity
  8
1
  6
DASH_CENTER
 62
     3
100
AcDbLine
 10
396.1968623463617
 20
234.330716456306
 30
0.0
 11
396.1968623463617
 21
246.330716456306
 31
0.0
  0
LINE
  5
11A
330
1F
100
AcDbEntity
  8
1
  6
DASH_CENTER
 62
     3
100
AcDbLine
 10
390.1968623463617
 20
240.330716456306
 30
0.0
 11
402.7967678297144
 21
240.330716456306
 31
0.0
  0
LINE
  5
11B
330
1F
100
AcDbEntity
  8
1
  6
DASH_CENTER
 62
     3
100
AcDbLine
 10
396.1968623463617
 20
252.3307164563061
 30
0.0
 11
396.1968623463617
 21
264.3307164563061
 31
0.0
  0
LINE
  5
11C
330
1F
100
AcDbEntity
  8
1
  6
DASH_CENTER
 62
     3
100
AcDbLine
 10
387.1968623463617
 20
258.3307164563061
 30
0.0
 11
402.7967678297144
 21
258.3307164563061
 31
0.0
  0
LINE
  5
11D
330
1F
100
AcDbEntity
  8
1
  6
Continuous
 62
     7
100
AcDbLine
 10
411.1968623463617
 20
232.330716456306
 30
0.0
 11
396.1968623463617
 21
232.330716456306
 31
0.0
  0
LINE
  5
11E
330
1F
100
AcDbEntity
  8
1
  6
Continuous
 62
     7
100
AcDbLine
 10
396.1968623463617
 20
266.3307164563061
 30
0.0
 11
411.1968623463617
 21
266.3307164563061
 31
0.0
  0
LINE
  5
11F
330
1F
100
AcDbEntity
  8
1
  6
Continuous
 62
     7
100
AcDbLine
 10
398.6968623463617
 20
243.4532154555052
 30
0.0
 11
398.6968623463617
 21
255.2082174571068
 31
0.0
  0
LINE
  5
120
330
1F
100
AcDbEntity
  8
1
  6
Continuous
 62
     7
100
AcDbLine
 10
394.6968623463617
 20
262.3307164563061
 30
0.0
 11
396.1968623463617
 21
262.3307164563061
 31
0.0
  0
LINE
  5
121
330
1F
100
AcDbEntity
  8
1
  6
Continuous
 62
     7
100
AcDbLine
 10
394.1968623463617
 20
262.8307164563061
 30
0.0
 11
394.1968623463617
 21
264.3307164563061
 31
0.0
  0
LINE
  5
122
330
1F
100
AcDbEntity
  8
1
  6
Continuous
 62
     7
100
AcDbLine
 10
394.6968623463617
 20
236.330716456306
 30
0.0
 11
396.1968623463617
 21
236.330716456306
 31
0.0
  0
LINE
  5
123
330
1F
100
AcDbEntity
  8
1
  6
Continuous
 62
     7
100
AcDbLine
 10
394.1968623463617
 20
234.330716456306
 30
0.0
 11
394.1968623463617
 21
235.830716456306
 31
0.0
  0
LINE
  5
124
330
1F
100
AcDbEntity
  8
1
  6
DASH_CENTER
 62
     3
100
AcDbLine
 10
396.1968623463617
 20
252.3307164563061
 30
0.0
 11
396.1968623463617
 21
264.3307164563061
 31
0.0
  0
LINE
  5
125
330
1F
100
AcDbEntity
  8
1
  6
Continuous
 62
     7
100
AcDbLine
 10
413.1968623463617
 20
264.3307164563061
 30
0.0
 11
413.1968623463617
 21
234.330716456306
 31
0.0
  0
LINE
  5
126
330
1F
100
AcDbEntity
  8
1
  6
Continuous
 62
     3
100
AcDbLine
 10
413.1968623463617
 20
254.3307164563061
 30
0.0
 11
418.7968623463617
 21
254.3307164563061
 31
0.0
  0
LINE
  5
127
330
1F
100
AcDbEntity
  8
1
  6
Continuous
 62
     3
100
AcDbLine
 10
418.7968623463617
 20
254.3307164563061
 30
0.0
 11
419.1968623463618
 21
253.6378961332785
 31
0.0
  0
LINE
  5
128
330
1F
100
AcDbEntity
  8
1
  6
Continuous
 62
     3
100
AcDbLine
 10
419.1968623463618
 20
253.6378961332785
 30
0.0
 11
419.1968623463618
 21
245.0235367793335
 31
0.0
  0
LINE
  5
129
330
1F
100
AcDbEntity
  8
1
  6
Continuous
 62
     3
100
AcDbLine
 10
419.1968623463618
 20
245.0235367793335
 30
0.0
 11
418.7968623463617
 21
244.330716456306
 31
0.0
  0
LINE
  5
12A
330
1F
100
AcDbEntity
  8
1
  6
Continuous
 62
     3
100
AcDbLine
 10
418.7968623463617
 20
244.330716456306
 30
0.0
 11
413.1968623463617
 21
244.330716456306
 31
0.0
  0
LINE
  5
12B
330
1F
100
AcDbEntity
  8
1
  6
Continuous
 62
     3
100
AcDbLine
 10
418.7968623463617
 20
244.330716456306
 30
0.0
 11
418.7968623463617
 21
254.3307164563061
 31
0.0
  0
LINE
  5
12C
330
1F
100
AcDbEntity
  8
1
  6
DASH_CENTER
 62
     3
100
AcDbLine
 10
405.1968623463617
 20
249.330716456306
 30
0.0
 11
419.1968623463618
 21
249.330716456306
 31
0.0
  0
LINE
  5
12D
330
1F
100
AcDbEntity
  8
1
  6
Continuous
 62
     3
100
AcDbLine
 10
549.0706243215196
 20
251.8307164563061
 30
0.0
 11
547.6272486485456
 21
249.330716456306
 31
0.0
  0
LINE
  5
12E
330
1F
100
AcDbEntity
  8
1
  6
Continuous
 62
     3
100
AcDbLine
 10
551.9573756674678
 20
251.8307164563061
 30
0.0
 11
549.0706243215196
 21
251.8307164563061
 31
0.0
  0
LINE
  5
12F
330
1F
100
AcDbEntity
  8
1
  6
Continuous
 62
     3
100
AcDbLine
 10
553.4007513404418
 20
249.330716456306
 30
0.0
 11
551.9573756674678
 21
251.8307164563061
 31
0.0
  0
LINE
  5
130
330
1F
100
AcDbEntity
  8
1
  6
Continuous
 62
     3
100
AcDbLine
 10
551.9573756674678
 20
246.830716456306
 30
0.0
 11
553.4007513404418
 21
249.330716456306
 31
0.0
  0
LINE
  5
131
330
1F
100
AcDbEntity
  8
1
  6
Continuous
 62
     3
100
AcDbLine
 10
549.0706243215196
 20
246.830716456306
 30
0.0
 11
551.9573756674678
 21
246.830716456306
 31
0.0
  0
LINE
  5
132
330
1F
100
AcDbEntity
  8
1
  6
Continuous
 62
     3
100
AcDbLine
 10
547.6272486485456
 20
249.330716456306
 30
0.0
 11
549.0706243215196
 21
246.830716456306
 31
0.0
  0
LINE
  5
133
330
1F
100
AcDbEntity
  8
1
  6
Continuous
 62
     3
100
AcDbLine
 10
533.0706243215196
 20
251.8307164563061
 30
0.0
 11
531.6272486485456
 21
249.330716456306
 31
0.0
  0
LINE
  5
134
330
1F
100
AcDbEntity
  8
1
  6
Continuous
 62
     3
100
AcDbLine
 10
535.9573756674678
 20
251.8307164563061
 30
0.0
 11
533.0706243215196
 21
251.8307164563061
 31
0.0
  0
LINE
  5
135
330
1F
100
AcDbEntity
  8
1
  6
Continuous
 62
     3
100
AcDbLine
 10
537.4007513404418
 20
249.330716456306
 30
0.0
 11
535.9573756674678
 21
251.8307164563061
 31
0.0
  0
LINE
  5
136
330
1F
100
AcDbEntity
  8
1
  6
Continuous
 62
     3
100
AcDbLine
 10
535.9573756674678
 20
246.830716456306
 30
0.0
 11
537.4007513404418
 21
249.330716456306
 31
0.0
  0
LINE
  5
137
330
1F
100
AcDbEntity
  8
1
  6
Continuous
 62
     3
100
AcDbLine
 10
533.0706243215196
 20
246.830716456306
 30
0.0
 11
535.9573756674678
 21
246.830716456306
 31
0.0
  0
LINE
  5
138
330
1F
100
AcDbEntity
  8
1
  6
Continuous
 62
     3
100
AcDbLine
 10
531.6272486485456
 20
249.330716456306
 30
0.0
 11
533.0706243215196
 21
246.830716456306
 31
0.0
  0
LINE
  5
139
330
1F
100
AcDbEntity
  8
1
  6
DASH_CENTER
 62
     3
100
AcDbLine
 10
332.9835043096708
 20
308.2700562845261
 30
0.0
 11
346.2908325435527
 21
308.2700562845261
 31
0.0
  0
LINE
  5
13A
330
1F
100
AcDbEntity
  8
1
  6
DASHED
 62
     4
100
AcDbLine
 10
670.9740466963043
 20
236.330716456306
 30
0.0
 11
670.9740466963043
 21
239.330716456306
 31
0.0
  0
LINE
  5
13B
330
1F
100
AcDbEntity
  8
1
  6
Continuous
 62
     7
100
AcDbLine
 10
654.9740466963043
 20
236.330716456306
 30
0.0
 11
654.9740466963043
 21
232.330716456306
 31
0.0
  0
LINE
  5
13C
330
1F
100
AcDbEntity
  8
1
  6
DASHED
 62
     4
100
AcDbLine
 10
654.9740466963043
 20
262.3307164563061
 30
0.0
 11
654.9740466963043
 21
259.3307164563061
 31
0.0
  0
LINE
  5
13D
330
1F
100
AcDbEntity
  8
1
  6
Continuous
 62
     7
100
AcDbLine
 10
670.9740466963043
 20
262.3307164563061
 30
0.0
 11
670.9740466963043
 21
266.3307164563061
 31
0.0
  0
LINE
  5
13E
330
1F
100
AcDbEntity
  8
1
  6
DASH_CENTER
 62
     3
100
AcDbLine
 10
662.9740466963043
 20
284.8374406958139
 30
0.0
 11
662.9740466963043
 21
204.561060318012
 31
0.0
  0
LINE
  5
13F
330
1F
100
AcDbEntity
  8
1
  6
Continuous
 62
     3
100
AcDbLine
 10
546.463999994494
 20
209.330716456306
 30
0.0
 11
692.9421217381341
 21
209.330716456306
 31
0.0
  0
LINE
  5
140
330
1F
100
AcDbEntity
  8
1
  6
Continuous
 62
     3
100
AcDbLine
 10
546.5139999944937
 20
279.3307164563061
 30
0.0
 11
695.9421217381341
 21
279.3307164563061
 31
0.0
  0
LINE
  5
141
330
1F
100
AcDbEntity
  8
1
  6
DASH_CENTER
 62
     3
100
AcDbLine
 10
656.0458434660287
 20
249.330716456306
 30
0.0
 11
669.9022499265798
 21
249.330716456306
 31
0.0
  0
LINE
  5
142
330
1F
100
AcDbEntity
  8
1
  6
Continuous
 62
     3
100
AcDbLine
 10
660.0872953503562
 20
254.3307164563061
 30
0.0
 11
657.200544004408
 21
249.330716456306
 31
0.0
  0
LINE
  5
143
330
1F
100
AcDbEntity
  8
1
  6
Continuous
 62
     3
100
AcDbLine
 10
665.8607980422523
 20
254.3307164563061
 30
0.0
 11
660.0872953503562
 21
254.3307164563061
 31
0.0
  0
LINE
  5
144
330
1F
100
AcDbEntity
  8
1
  6
Continuous
 62
     3
100
AcDbLine
 10
668.7475493882006
 20
249.330716456306
 30
0.0
 11
665.8607980422523
 21
254.3307164563061
 31
0.0
  0
LINE
  5
145
330
1F
100
AcDbEntity
  8
1
  6
Continuous
 62
     3
100
AcDbLine
 10
665.8607980422523
 20
244.330716456306
 30
0.0
 11
668.7475493882006
 21
249.330716456306
 31
0.0
  0
LINE
  5
146
330
1F
100
AcDbEntity
  8
1
  6
Continuous
 62
     3
100
AcDbLine
 10
660.0872953503562
 20
244.330716456306
 30
0.0
 11
665.8607980422523
 21
244.330716456306
 31
0.0
  0
LINE
  5
147
330
1F
100
AcDbEntity
  8
1
  6
Continuous
 62
     3
100
AcDbLine
 10
657.200544004408
 20
249.330716456306
 30
0.0
 11
660.0872953503562
 21
244.330716456306
 31
0.0
  0
LINE
  5
148
330
1F
100
AcDbEntity
  8
1
  6
DASHED
 62
     4
100
AcDbLine
 10
670.9740466963043
 20
259.3307164563061
 30
0.0
 11
670.9740466963043
 21
262.3307164563061
 31
0.0
  0
LINE
  5
149
330
1F
100
AcDbEntity
  8
1
  6
PHANTOM
 62
     4
100
AcDbLine
 10
670.9740466963043
 20
239.330716456306
 30
0.0
 11
670.9740466963043
 21
259.3307164563061
 31
0.0
  0
LINE
  5
14A
330
1F
100
AcDbEntity
  8
1
  6
DASHED
 62
     4
100
AcDbLine
 10
654.9740466963043
 20
239.330716456306
 30
0.0
 11
654.9740466963043
 21
236.330716456306
 31
0.0
  0
LINE
  5
14B
330
1F
100
AcDbEntity
  8
1
  6
PHANTOM
 62
     4
100
AcDbLine
 10
654.9740466963043
 20
259.3307164563061
 30
0.0
 11
654.9740466963043
 21
239.330716456306
 31
0.0
  0
LINE
  5
14C
330
1F
100
AcDbEntity
  8
1
  6
Continuous
 62
     7
100
AcDbLine
 10
654.9740466963043
 20
266.3307164563061
 30
0.0
 11
654.9740466963043
 21
262.3307164563061
 31
0.0
  0
LINE
  5
14D
330
1F
100
AcDbEntity
  8
1
  6
Continuous
 62
     7
100
AcDbLine
 10
667.9740466963043
 20
269.3307164563061
 30
0.0
 11
657.9740466963043
 21
269.3307164563061
 31
0.0
  0
LINE
  5
14E
330
1F
100
AcDbEntity
  8
1
  6
Continuous
 62
     7
100
AcDbLine
 10
670.9740466963043
 20
232.330716456306
 30
0.0
 11
670.9740466963043
 21
236.330716456306
 31
0.0
  0
LINE
  5
14F
330
1F
100
AcDbEntity
  8
1
  6
Continuous
 62
     7
100
AcDbLine
 10
657.9740466963043
 20
229.330716456306
 30
0.0
 11
667.9740466963043
 21
229.330716456306
 31
0.0
  0
LINE
  5
150
330
1F
100
AcDbEntity
  8
1
  6
DASH_CENTER
 62
     3
100
AcDbLine
 10
277.1968623463632
 20
289.6366680289058
 30
0.0
 11
277.1968623463632
 21
200.887428465616
 31
0.0
  0
LINE
  5
151
330
1F
100
AcDbEntity
  8
1
  6
Continuous
 62
     7
100
AcDbLine
 10
197.1968623463628
 20
279.3307164563061
 30
0.0
 11
180.1968623463628
 21
279.3307164563061
 31
0.0
  0
LINE
  5
152
330
1F
100
AcDbEntity
  8
1
  6
Continuous
 62
     7
100
AcDbLine
 10
179.1968623463628
 20
209.330716456306
 30
0.0
 11
179.1968623463628
 21
276.3307164563061
 31
0.0
  0
LINE
  5
153
330
1F
100
AcDbEntity
  8
1
  6
Continuous
 62
     7
100
AcDbLine
 10
177.1968623463628
 20
209.330716456306
 30
0.0
 11
179.1968623463628
 21
209.330716456306
 31
0.0
  0
LINE
  5
154
330
1F
100
AcDbEntity
  8
1
  6
Continuous
 62
     7
100
AcDbLine
 10
177.1968623463628
 20
276.3307164563061
 30
0.0
 11
177.1968623463628
 21
209.330716456306
 31
0.0
  0
LINE
  5
155
330
1F
100
AcDbEntity
  8
1
  6
Continuous
 62
     7
100
AcDbLine
 10
377.1968623463617
 20
209.330716456306
 30
0.0
 11
375.1968623463617
 21
209.330716456306
 31
0.0
  0
LINE
  5
156
330
1F
100
AcDbEntity
  8
1
  6
Continuous
 62
     7
100
AcDbLine
 10
180.1968623463628
 20
277.3307164563061
 30
0.0
 11
374.1968623463617
 21
277.3307164563061
 31
0.0
  0
LINE
  5
157
330
1F
100
AcDbEntity
  8
1
  6
Continuous
 62
     7
100
AcDbLine
 10
362.1968623463617
 20
279.3307164563061
 30
0.0
 11
286.1968623463632
 21
279.3307164563061
 31
0.0
  0
LINE
  5
158
330
1F
100
AcDbEntity
  8
1
  6
Continuous
 62
     7
100
AcDbLine
 10
377.1968623463617
 20
209.330716456306
 30
0.0
 11
377.1968623463617
 21
276.3307164563061
 31
0.0
  0
LINE
  5
159
330
1F
100
AcDbEntity
  8
1
  6
Continuous
 62
     7
100
AcDbLine
 10
375.1968623463617
 20
276.3307164563061
 30
0.0
 11
375.1968623463617
 21
209.330716456306
 31
0.0
  0
LINE
  5
15A
330
1F
100
AcDbEntity
  8
1
  6
Continuous
 62
     7
100
AcDbLine
 10
286.1968623463632
 20
279.3307164563061
 30
0.0
 11
197.1968623463628
 21
279.3307164563061
 31
0.0
  0
LINE
  5
15B
330
1F
100
AcDbEntity
  8
1
  6
Continuous
 62
     7
100
AcDbLine
 10
374.1968623463617
 20
279.3307164563061
 30
0.0
 11
362.1968623463617
 21
279.3307164563061
 31
0.0
  0
LINE
  5
15C
330
1F
100
AcDbEntity
  8
1
  6
Continuous
 62
     3
100
AcDbLine
 10
332.19686234636
 20
279.3307164563058
 30
0.0
 11
332.19686234636
 21
280.3307164563058
 31
0.0
  0
LINE
  5
15D
330
1F
100
AcDbEntity
  8
1
  6
Continuous
 62
     3
100
AcDbLine
 10
332.19686234636
 20
280.3307164563058
 30
0.0
 11
312.19686234636
 21
280.3307164563058
 31
0.0
  0
LINE
  5
15E
330
1F
100
AcDbEntity
  8
1
  6
Continuous
 62
     3
100
AcDbLine
 10
312.19686234636
 20
279.3307164563058
 30
0.0
 11
312.19686234636
 21
280.3307164563058
 31
0.0
  0
LINE
  5
15F
330
1F
100
AcDbEntity
  8
1
  6
DASH_CENTER
 62
     3
100
AcDbLine
 10
322.19686234636
 20
271.1880088515648
 30
0.0
 11
322.19686234636
 21
286.1880088515648
 31
0.0
  0
LINE
  5
160
330
1F
100
AcDbEntity
  8
1
  6
Continuous
 62
     3
100
AcDbLine
 10
222.1968623463654
 20
280.3307164563058
 30
0.0
 11
222.1968623463654
 21
279.3307164563058
 31
0.0
  0
LINE
  5
161
330
1F
100
AcDbEntity
  8
1
  6
Continuous
 62
     3
100
AcDbLine
 10
242.1968623463654
 20
280.3307164563058
 30
0.0
 11
222.1968623463654
 21
280.3307164563058
 31
0.0
  0
LINE
  5
162
330
1F
100
AcDbEntity
  8
1
  6
Continuous
 62
     3
100
AcDbLine
 10
242.1968623463654
 20
280.3307164563058
 30
0.0
 11
242.1968623463654
 21
279.3307164563058
 31
0.0
  0
LINE
  5
163
330
1F
100
AcDbEntity
  8
1
  6
DASH_CENTER
 62
     3
100
AcDbLine
 10
232.1968623463654
 20
286.1880088515648
 30
0.0
 11
232.1968623463654
 21
271.1880088515648
 31
0.0
  0
LINE
  5
164
330
1F
100
AcDbEntity
  8
1
  6
DASH_CENTER
 62
     3
100
AcDbLine
 10
177.1968623463628
 20
249.330716456306
 30
0.0
 11
149.0502525622417
 21
249.330716456306
 31
0.0
  0
LINE
  5
165
330
1F
100
AcDbEntity
  8
1
  6
Continuous
 62
     3
100
AcDbLine
 10
514.5139999944937
 20
209.330716456306
 30
0.0
 11
538.4639999944935
 21
209.330716456306
 31
0.0
  0
LINE
  5
166
330
1F
100
AcDbEntity
  8
1
  6
Continuous
 62
     3
100
AcDbLine
 10
538.5139999944937
 20
279.3307164563061
 30
0.0
 11
514.5139999944937
 21
279.3307164563061
 31
0.0
  0
LINE
  5
167
330
1F
100
AcDbEntity
  8
1
  6
Continuous
 62
     3
100
AcDbLine
 10
336.2421248367062
 20
313.2700562845261
 30
0.0
 11
344.7468623463618
 21
313.2700562845261
 31
0.0
  0
LINE
  5
168
330
1F
100
AcDbEntity
  8
1
  6
Continuous
 62
     3
100
AcDbLine
 10
344.7468623463618
 20
312.2700562845261
 30
0.0
 11
336.2468623463618
 21
312.2700562845261
 31
0.0
  0
LINE
  5
169
330
1F
100
AcDbEntity
  8
1
  6
Continuous
 62
     3
100
AcDbLine
 10
336.2468623463618
 20
304.2700562845261
 30
0.0
 11
344.7468623463618
 21
304.2700562845261
 31
0.0
  0
LINE
  5
16A
330
1F
100
AcDbEntity
  8
1
  6
Continuous
 62
     3
100
AcDbLine
 10
344.7468623463618
 20
303.2700562845261
 30
0.0
 11
336.2421248367062
 21
303.2700562845261
 31
0.0
  0
ARC
  5
16B
330
1F
100
AcDbEntity
  8
1
  6
Continuous
 62
     3
100
AcDbCircle
 10
335.2421248367062
 20
293.6880013069321
 30
0.0
 40
2.0
100
AcDbArc
 50
180.0
 51
-90.0
  0
ARC
  5
16C
330
1F
100
AcDbEntity
  8
1
  6
Continuous
 62
     3
100
AcDbCircle
 10
335.2421248367062
 20
322.9880013069324
 30
0.0
 40
2.0
100
AcDbArc
 50
90.0
 51
180.0
  0
ARC
  5
16D
330
1F
100
AcDbEntity
  8
1
  6
Continuous
 62
     3
100
AcDbCircle
 10
219.15159985602
 20
293.6880013069321
 30
0.0
 40
2.0
100
AcDbArc
 50
-90.0
 51
0.0
  0
ARC
  5
16E
330
1F
100
AcDbEntity
  8
1
  6
Continuous
 62
     3
100
AcDbCircle
 10
219.15159985602
 20
322.9880013069324
 30
0.0
 40
2.0
100
AcDbArc
 50
0.0
 51
90.0
  0
ARC
  5
16F
330
1F
100
AcDbEntity
  8
1
  6
Continuous
 62
     3
100
AcDbCircle
 10
387.7526850947851
 20
253.6608434752283
 30
0.0
 40
2.555822748423163
100
AcDbArc
 50
145.6157525319596
 51
-145.615752531958
  0
ARC
  5
170
330
1F
100
AcDbEntity
  8
1
  6
Continuous
 62
     3
100
AcDbCircle
 10
394.7502803589765
 20
249.330716456306
 30
0.0
 40
9.55341801261466
100
AcDbArc
 50
162.4120462260055
 51
-162.4120462260062
  0
ARC
  5
171
330
1F
100
AcDbEntity
  8
1
  6
Continuous
 62
     3
100
AcDbCircle
 10
387.7526850947851
 20
245.0005894373837
 30
0.0
 40
2.555822748423275
100
AcDbArc
 50
145.6157525319559
 51
-145.6157525319617
  0
ARC
  5
172
330
1F
100
AcDbEntity
  8
1
  6
Continuous
 62
     3
100
AcDbCircle
 10
150.252685094786
 20
253.6608434752283
 30
0.0
 40
2.555822748422998
100
AcDbArc
 50
145.6157525319571
 51
-145.6157525319555
  0
ARC
  5
173
330
1F
100
AcDbEntity
  8
1
  6
Continuous
 62
     3
100
AcDbCircle
 10
157.2502803589774
 20
249.330716456306
 30
0.0
 40
9.553418012614444
100
AcDbArc
 50
162.4120462260051
 51
-162.4120462260058
  0
ARC
  5
174
330
1F
100
AcDbEntity
  8
1
  6
Continuous
 62
     3
100
AcDbCircle
 10
150.252685094786
 20
245.0005894373837
 30
0.0
 40
2.555822748423111
100
AcDbArc
 50
145.6157525319534
 51
-145.6157525319592
  0
ARC
  5
175
330
1F
100
AcDbEntity
  8
1
  6
Continuous
 62
     3
100
AcDbCircle
 10
183.1410395979398
 20
253.6608434752283
 30
0.0
 40
2.555822748422976
100
AcDbArc
 50
-34.38424746804558
 51
34.384247468044
  0
ARC
  5
176
330
1F
100
AcDbEntity
  8
1
  6
Continuous
 62
     3
100
AcDbCircle
 10
176.1434443337483
 20
249.330716456306
 30
0.0
 40
9.553418012614408
100
AcDbArc
 50
-17.58795377399423
 51
17.58795377399488
  0
ARC
  5
177
330
1F
100
AcDbEntity
  8
1
  6
Continuous
 62
     3
100
AcDbCircle
 10
183.1410395979398
 20
245.0005894373837
 30
0.0
 40
2.555822748422864
100
AcDbArc
 50
-34.38424746804189
 51
34.38424746804768
  0
ARC
  5
178
330
1F
100
AcDbEntity
  8
1
  6
Continuous
 62
     7
100
AcDbCircle
 10
530.5139999944937
 20
308.2700562845263
 30
0.0
 40
7.0
100
AcDbArc
 50
90.0
 51
-90.0
  0
ARC
  5
179
330
1F
100
AcDbEntity
  8
1
  6
Continuous
 62
     7
100
AcDbCircle
 10
396.1968623463617
 20
240.330716456306
 30
0.0
 40
4.0
100
AcDbArc
 50
-90.0
 51
51.31781254651052
  0
ARC
  5
17A
330
1F
100
AcDbEntity
  8
1
  6
Continuous
 62
     7
100
AcDbCircle
 10
396.1968623463617
 20
258.3307164563061
 30
0.0
 40
4.000000000000085
100
AcDbArc
 50
-51.31781254651154
 51
90.0
  0
CIRCLE
  5
17B
330
1F
100
AcDbEntity
  8
1
  6
Continuous
 62
     7
100
AcDbCircle
 10
340.2421248367062
 20
299.2700562845261
 30
0.0
 40
4.0
  0
CIRCLE
  5
17C
330
1F
100
AcDbEntity
  8
1
  6
Continuous
 62
     7
100
AcDbCircle
 10
340.2421248367062
 20
317.2700562845261
 30
0.0
 40
4.0
  0
CIRCLE
  5
17D
330
1F
100
AcDbEntity
  8
1
  6
Continuous
 62
     7
100
AcDbCircle
 10
214.15159985602
 20
299.2700562845261
 30
0.0
 40
4.0
  0
CIRCLE
  5
17E
330
1F
100
AcDbEntity
  8
1
  6
Continuous
 62
     7
100
AcDbCircle
 10
214.15159985602
 20
317.2700562845261
 30
0.0
 40
4.0
  0
CIRCLE
  5
17F
330
1F
100
AcDbEntity
  8
1
  6
Continuous
 62
     3
100
AcDbCircle
 10
354.2468623463618
 20
316.2700562845261
 30
0.0
 40
3.099999999999682
  0
CIRCLE
  5
180
330
1F
100
AcDbEntity
  8
1
  6
Continuous
 62
     3
100
AcDbCircle
 10
354.2468623463618
 20
300.2700562845261
 30
0.0
 40
5.099999999999682
  0
CIRCLE
  5
181
330
1F
100
AcDbEntity
  8
1
  6
Continuous
 62
     3
100
AcDbCircle
 10
354.2468623463618
 20
300.2700562845261
 30
0.0
 40
3.099999999999682
  0
CIRCLE
  5
182
330
1F
100
AcDbEntity
  8
1
  6
Continuous
 62
     7
100
AcDbCircle
 10
530.5139999944937
 20
308.2700562845263
 30
0.0
 40
4.050000000000182
  0
CIRCLE
  5
183
330
1F
100
AcDbEntity
  8
1
  6
Continuous
 62
     7
100
AcDbCircle
 10
158.1968623463628
 20
258.3307164563061
 30
0.0
 40
4.000000000000199
  0
CIRCLE
  5
184
330
1F
100
AcDbEntity
  8
1
  6
Continuous
 62
     7
100
AcDbCircle
 10
158.1968623463628
 20
240.330716456306
 30
0.0
 40
4.0
  0
CIRCLE
  5
185
330
1F
100
AcDbEntity
  8
1
  6
Continuous
 62
     7
100
AcDbCircle
 10
396.1968623463617
 20
240.330716456306
 30
0.0
 40
4.0
  0
CIRCLE
  5
186
330
1F
100
AcDbEntity
  8
1
  6
Continuous
 62
     7
100
AcDbCircle
 10
396.1968623463617
 20
258.3307164563061
 30
0.0
 40
4.0
  0
CIRCLE
  5
187
330
1F
100
AcDbEntity
  8
1
  6
Continuous
 62
     3
100
AcDbCircle
 10
550.5139999944937
 20
249.330716456306
 30
0.0
 40
4.307179676972282
  0
CIRCLE
  5
188
330
1F
100
AcDbEntity
  8
1
  6
Continuous
 62
     3
100
AcDbCircle
 10
550.5139999944937
 20
249.330716456306
 30
0.0
 40
5.0
  0
CIRCLE
  5
189
330
1F
100
AcDbEntity
  8
1
  6
Continuous
 62
     3
100
AcDbCircle
 10
534.5139999944937
 20
249.330716456306
 30
0.0
 40
4.307179676972282
  0
CIRCLE
  5
18A
330
1F
100
AcDbEntity
  8
1
  6
Continuous
 62
     3
100
AcDbCircle
 10
534.5139999944937
 20
249.330716456306
 30
0.0
 40
5.0
  0
CIRCLE
  5
18B
330
1F
100
AcDbEntity
  8
1
  6
Continuous
 62
     3
100
AcDbCircle
 10
662.9740466963043
 20
249.330716456306
 30
0.0
 40
5.0
  0
CIRCLE
  5
18C
330
1F
100
AcDbEntity
  8
1
  6
Continuous
 62
     3
100
AcDbCircle
 10
662.9740466963043
 20
249.330716456306
 30
0.0
 40
10.0
  0
SPLINE
  5
18D
330
1F
100
AcDbEntity
  8
1
  6
Continuous
 62
     7
100
AcDbSpline
210
0.0
220
0.0
230
1.0
 70
     8
 71
     3
 72
    12
 73
     8
 74
     6
 42
0.0000000001
 43
0.0000000001
 44
0.00000001
 40
0.0
 40
0.0
 40
0.0
 40
0.0
 40
2.898391707573504
 40
4.298565139239756
 40
6.705554025115982
 40
9.195235830749095
 40
11.55557680384674
 40
11.55557680384674
 40
11.55557680384674
 40
11.55557680384674
 10
513.5139999944937
 20
254.3307164563061
 30
0.0
 10
512.2182976185241
 20
254.5617900485604
 30
0.0
 10
510.2966591285916
 20
254.9044921359516
 30
0.0
 10
511.6543453617819
 20
257.3295354592173
 30
0.0
 10
513.3805688302371
 20
258.1238577769717
 30
0.0
 10
515.5084660864956
 20
260.3720568079909
 30
0.0
 10
514.1668963251694
 20
261.6895415059995
 30
0.0
 10
513.5139999944937
 20
262.3307164563061
 30
0.0
 11
513.5139999944937
 21
254.3307164563061
 31
0.0
 11
510.8962358524436
 21
255.5748970650313
 31
0.0
 11
511.4873993232001
 21
256.8441532998346
 31
0.0
 11
513.3804723483509
 21
258.3307164563061
 31
0.0
 11
514.8181260465028
 21
260.3633667797731
 31
0.0
 11
513.5139999944937
 21
262.3307164563061
 31
0.0
  0
SPLINE
  5
18E
330
1F
100
AcDbEntity
  8
1
  6
Continuous
 62
     7
100
AcDbSpline
210
0.0
220
0.0
230
1.0
 70
     8
 71
     3
 72
     9
 73
     5
 74
     3
 42
0.0000000001
 43
0.0000000001
 44
0.00000001
 40
0.0
 40
0.0
 40
0.0
 40
0.0
 40
2.564157932693379
 40
5.233074062469768
 40
5.233074062469768
 40
5.233074062469768
 40
5.233074062469768
 10
513.5139999944937
 20
262.3307164563061
 30
0.0
 10
512.6615517002947
 20
261.719159862305
 30
0.0
 10
510.9218284948354
 20
260.4710616430047
 30
0.0
 10
512.5500594930603
 20
259.0536231738664
 30
0.0
 10
513.380472348351
 20
258.3307164563061
 30
0.0
 11
513.5139999944937
 21
262.3307164563061
 31
0.0
 11
511.7652704162701
 21
260.4553896138489
 31
0.0
 11
513.380472348351
 21
258.3307164563061
 31
0.0
  0
SPLINE
  5
18F
330
1F
100
AcDbEntity
  8
1
  6
Continuous
 62
     7
100
AcDbSpline
210
0.0
220
0.0
230
1.0
 70
     8
 71
     3
 72
    12
 73
     8
 74
     6
 42
0.0000000001
 43
0.0000000001
 44
0.00000001
 40
0.0
 40
0.0
 40
0.0
 40
0.0
 40
2.89839170757354
 40
4.298565139239818
 40
6.70555402511601
 40
9.195235830749098
 40
11.55557680384672
 40
11.55557680384672
 40
11.55557680384672
 40
11.55557680384672
 10
513.5139999944937
 20
244.330716456306
 30
0.0
 10
512.2182976185239
 20
244.0996428640517
 30
0.0
 10
510.2966591285917
 20
243.7569407766603
 30
0.0
 10
511.6543453617819
 20
241.3318974533947
 30
0.0
 10
513.3805688302372
 20
240.5375751356404
 30
0.0
 10
515.5084660864955
 20
238.2893761046211
 30
0.0
 10
514.1668963251694
 20
236.9718914066126
 30
0.0
 10
513.5139999944937
 20
236.330716456306
 30
0.0
 11
513.5139999944937
 21
244.330716456306
 31
0.0
 11
510.8962358524436
 21
243.0865358475808
 31
0.0
 11
511.4873993232001
 21
241.8172796127774
 31
0.0
 11
513.3804723483509
 21
240.330716456306
 31
0.0
 11
514.8181260465028
 21
238.298066132839
 31
0.0
 11
513.5139999944937
 21
236.330716456306
 31
0.0
  0
SPLINE
  5
190
330
1F
100
AcDbEntity
  8
1
  6
Continuous
 62
     7
100
AcDbSpline
210
0.0
220
0.0
230
1.0
 70
     8
 71
     3
 72
     9
 73
     5
 74
     3
 42
0.0000000001
 43
0.0000000001
 44
0.00000001
 40
0.0
 40
0.0
 40
0.0
 40
0.0
 40
2.564157932693338
 40
5.233074062469772
 40
5.233074062469772
 40
5.233074062469772
 40
5.233074062469772
 10
513.5139999944937
 20
236.330716456306
 30
0.0
 10
512.6615517002948
 20
236.9422730503071
 30
0.0
 10
510.9218284948355
 20
238.1903712696073
 30
0.0
 10
512.5500594930602
 20
239.6078097387458
 30
0.0
 10
513.380472348351
 20
240.330716456306
 30
0.0
 11
513.5139999944937
 21
236.330716456306
 31
0.0
 11
511.7652704162701
 21
238.2060432987631
 31
0.0
 11
513.380472348351
 21
240.330716456306
 31
0.0
  0
SPLINE
  5
191
330
1F
100
AcDbEntity
  8
1
  6
Continuous
 62
     7
100
AcDbSpline
210
0.0
220
0.0
230
1.0
 70
     8
 71
     3
 72
    12
 73
     8
 74
     6
 42
0.0000000001
 43
0.0000000001
 44
0.00000001
 40
0.0
 40
0.0
 40
0.0
 40
0.0
 40
2.898391707573614
 40
4.298565139240015
 40
6.705554025116252
 40
9.195235830749317
 40
11.5555768038469
 40
11.5555768038469
 40
11.5555768038469
 40
11.5555768038469
 10
691.9740466963043
 20
262.3307164563061
 30
0.0
 10
693.2697490722742
 20
262.0996428640518
 30
0.0
 10
695.1913875622065
 20
261.7569407766603
 30
0.0
 10
693.8337013290158
 20
259.3318974533946
 30
0.0
 10
692.1074778605608
 20
258.5375751356403
 30
0.0
 10
689.979580604302
 20
256.2893761046209
 30
0.0
 10
691.3211503656283
 20
254.9718914066126
 30
0.0
 10
691.9740466963043
 20
254.3307164563061
 30
0.0
 11
691.9740466963043
 21
262.3307164563061
 31
0.0
 11
694.5918108383544
 21
261.0865358475807
 31
0.0
 11
694.0006473675977
 21
259.8172796127773
 31
0.0
 11
692.1075743424469
 21
258.3307164563059
 31
0.0
 11
690.669920644295
 21
256.2980661328389
 31
0.0
 11
691.9740466963043
 21
254.3307164563061
 31
0.0
  0
SPLINE
  5
192
330
1F
100
AcDbEntity
  8
1
  6
Continuous
 62
     7
100
AcDbSpline
210
0.0
220
0.0
230
1.0
 70
     8
 71
     3
 72
     9
 73
     5
 74
     3
 42
0.0000000001
 43
0.0000000001
 44
0.00000001
 40
0.0
 40
0.0
 40
0.0
 40
0.0
 40
2.564157932693296
 40
5.233074062469845
 40
5.233074062469845
 40
5.233074062469845
 40
5.233074062469845
 10
691.9740466963043
 20
254.3307164563061
 30
0.0
 10
692.8264949905032
 20
254.9422730503071
 30
0.0
 10
694.5662181959625
 20
256.1903712696073
 30
0.0
 10
692.9379871977379
 20
257.6078097387459
 30
0.0
 10
692.1075743424469
 20
258.3307164563061
 30
0.0
 11
691.9740466963043
 21
254.3307164563061
 31
0.0
 11
693.7227762745279
 21
256.2060432987632
 31
0.0
 11
692.1075743424469
 21
258.3307164563061
 31
0.0
  0
SPLINE
  5
193
330
1F
100
AcDbEntity
  8
1
  6
Continuous
 62
     7
100
AcDbSpline
210
0.0
220
0.0
230
1.0
 70
     8
 71
     3
 72
    12
 73
     8
 74
     6
 42
0.0000000001
 43
0.0000000001
 44
0.00000001
 40
0.0
 40
0.0
 40
0.0
 40
0.0
 40
2.898391707573565
 40
4.298565139239862
 40
6.705554025116099
 40
9.195235830749279
 40
11.55557680384693
 40
11.55557680384693
 40
11.55557680384693
 40
11.55557680384693
 10
691.9740466963043
 20
236.330716456306
 30
0.0
 10
693.2697490722742
 20
236.5617900485604
 30
0.0
 10
695.1913875622064
 20
236.9044921359518
 30
0.0
 10
693.8337013290158
 20
239.3295354592173
 30
0.0
 10
692.1074778605608
 20
240.1238577769717
 30
0.0
 10
689.9795806043019
 20
242.3720568079909
 30
0.0
 10
691.3211503656285
 20
243.6895415059994
 30
0.0
 10
691.9740466963043
 20
244.330716456306
 30
0.0
 11
691.9740466963043
 21
236.330716456306
 31
0.0
 11
694.5918108383544
 21
237.5748970650313
 31
0.0
 11
694.0006473675977
 21
238.8441532998346
 31
0.0
 11
692.1075743424469
 21
240.330716456306
 31
0.0
 11
690.669920644295
 21
242.3633667797731
 31
0.0
 11
691.9740466963043
 21
244.330716456306
 31
0.0
  0
SPLINE
  5
194
330
1F
100
AcDbEntity
  8
1
  6
Continuous
 62
     7
100
AcDbSpline
210
0.0
220
0.0
230
1.0
 70
     8
 71
     3
 72
     9
 73
     5
 74
     3
 42
0.0000000001
 43
0.0000000001
 44
0.00000001
 40
0.0
 40
0.0
 40
0.0
 40
0.0
 40
2.564157932693338
 40
5.233074062469841
 40
5.233074062469841
 40
5.233074062469841
 40
5.233074062469841
 10
691.9740466963043
 20
244.330716456306
 30
0.0
 10
692.8264949905032
 20
243.719159862305
 30
0.0
 10
694.5662181959625
 20
242.4710616430047
 30
0.0
 10
692.9379871977376
 20
241.0536231738661
 30
0.0
 10
692.1075743424469
 20
240.330716456306
 30
0.0
 11
691.9740466963043
 21
244.330716456306
 31
0.0
 11
693.7227762745279
 21
242.4553896138489
 31
0.0
 11
692.1075743424469
 21
240.330716456306
 31
0.0
  0
SPLINE
  5
195
330
1F
100
AcDbEntity
  8
1
  6
Continuous
 62
     7
100
AcDbSpline
210
0.0
220
0.0
230
1.0
 70
     8
 71
     3
 72
    12
 73
     8
 74
     6
 42
0.0000000001
 43
0.0000000001
 44
0.00000001
 40
0.0
 40
0.0
 40
0.0
 40
0.0
 40
2.898391707573589
 40
4.298565139239891
 40
6.705554025116163
 40
9.195235830749208
 40
11.55557680384667
 40
11.55557680384667
 40
11.55557680384667
 40
11.55557680384667
 10
571.5139999944937
 20
321.2700562845261
 30
0.0
 10
572.8097023704634
 20
321.0389826922717
 30
0.0
 10
574.7313408603957
 20
320.6962806048803
 30
0.0
 10
573.3736546272055
 20
318.2712372816147
 30
0.0
 10
571.6474311587501
 20
317.4769149638603
 30
0.0
 10
569.5195339024917
 20
315.228715932841
 30
0.0
 10
570.8611036638181
 20
313.9112312348327
 30
0.0
 10
571.5139999944937
 20
313.2700562845261
 30
0.0
 11
571.5139999944937
 21
321.2700562845261
 31
0.0
 11
574.1317641365438
 21
320.0258756758008
 31
0.0
 11
573.5406006657872
 21
318.7566194409974
 31
0.0
 11
571.6475276406364
 21
317.2700562845259
 31
0.0
 11
570.2098739424846
 21
315.2374059610589
 31
0.0
 11
571.5139999944937
 21
313.2700562845261
 31
0.0
  0
SPLINE
  5
196
330
1F
100
AcDbEntity
  8
1
  6
Continuous
 62
     7
100
AcDbSpline
210
0.0
220
0.0
230
1.0
 70
     8
 71
     3
 72
     9
 73
     5
 74
     3
 42
0.0000000001
 43
0.0000000001
 44
0.00000001
 40
0.0
 40
0.0
 40
0.0
 40
0.0
 40
2.564157932693379
 40
5.233074062469768
 40
5.233074062469768
 40
5.233074062469768
 40
5.233074062469768
 10
571.5139999944937
 20
313.2700562845261
 30
0.0
 10
572.3664482886926
 20
313.8816128785271
 30
0.0
 10
574.1061714941518
 20
315.1297110978273
 30
0.0
 10
572.4779404959273
 20
316.547149566966
 30
0.0
 10
571.6475276406364
 20
317.2700562845261
 30
0.0
 11
571.5139999944937
 21
313.2700562845261
 31
0.0
 11
573.2627295727173
 21
315.1453831269833
 31
0.0
 11
571.6475276406364
 21
317.2700562845261
 31
0.0
  0
SPLINE
  5
197
330
1F
100
AcDbEntity
  8
1
  6
Continuous
 62
     7
100
AcDbSpline
210
0.0
220
0.0
230
1.0
 70
     8
 71
     3
 72
    12
 73
     8
 74
     6
 42
0.0000000001
 43
0.0000000001
 44
0.00000001
 40
0.0
 40
0.0
 40
0.0
 40
0.0
 40
2.89839170757354
 40
4.298565139239715
 40
6.705554025115942
 40
9.195235830749054
 40
11.5555768038467
 40
11.5555768038467
 40
11.5555768038467
 40
11.5555768038467
 10
513.5139999944937
 20
313.2700562845261
 30
0.0
 10
512.2182976185239
 20
313.5011298767804
 30
0.0
 10
510.2966591285916
 20
313.8438319641717
 30
0.0
 10
511.6543453617821
 20
316.2688752874374
 30
0.0
 10
513.3805688302371
 20
317.0631976051917
 30
0.0
 10
515.5084660864955
 20
319.3113966362109
 30
0.0
 10
514.1668963251694
 20
320.6288813342195
 30
0.0
 10
513.5139999944937
 20
321.2700562845261
 30
0.0
 11
513.5139999944937
 21
313.2700562845261
 31
0.0
 11
510.8962358524436
 21
314.5142368932513
 31
0.0
 11
511.4873993232001
 21
315.7834931280546
 31
0.0
 11
513.3804723483509
 21
317.2700562845261
 31
0.0
 11
514.8181260465028
 21
319.3027066079931
 31
0.0
 11
513.5139999944937
 21
321.2700562845261
 31
0.0
  0
SPLINE
  5
198
330
1F
100
AcDbEntity
  8
1
  6
Continuous
 62
     7
100
AcDbSpline
210
0.0
220
0.0
230
1.0
 70
     8
 71
     3
 72
     9
 73
     5
 74
     3
 42
0.0000000001
 43
0.0000000001
 44
0.00000001
 40
0.0
 40
0.0
 40
0.0
 40
0.0
 40
2.564157932693296
 40
5.233074062469775
 40
5.233074062469775
 40
5.233074062469775
 40
5.233074062469775
 10
513.5139999944937
 20
321.2700562845261
 30
0.0
 10
512.6615517002947
 20
320.6584996905251
 30
0.0
 10
510.9218284948355
 20
319.4104014712249
 30
0.0
 10
512.5500594930602
 20
317.9929630020863
 30
0.0
 10
513.380472348351
 20
317.2700562845261
 30
0.0
 11
513.5139999944937
 21
321.2700562845261
 31
0.0
 11
511.7652704162701
 21
319.394729442069
 31
0.0
 11
513.380472348351
 21
317.2700562845261
 31
0.0
  0
SPLINE
  5
199
330
1F
100
AcDbEntity
  8
1
  6
Continuous
 62
     7
100
AcDbSpline
210
0.0
220
0.0
230
1.0
 70
     8
 71
     3
 72
    12
 73
     8
 74
     6
 42
0.0000000001
 43
0.0000000001
 44
0.00000001
 40
0.0
 40
0.0
 40
0.0
 40
0.0
 40
2.89839170757354
 40
4.298565139239842
 40
6.705554025116113
 40
9.195235830749251
 40
11.55557680384671
 40
11.55557680384671
 40
11.55557680384671
 40
11.55557680384671
 10
571.5139999944937
 20
295.2700562845261
 30
0.0
 10
572.8097023704634
 20
295.5011298767803
 30
0.0
 10
574.7313408603956
 20
295.8438319641717
 30
0.0
 10
573.3736546272054
 20
298.2688752874374
 30
0.0
 10
571.6474311587504
 20
299.0631976051918
 30
0.0
 10
569.5195339024917
 20
301.3113966362112
 30
0.0
 10
570.8611036638181
 20
302.6288813342196
 30
0.0
 10
571.5139999944937
 20
303.2700562845261
 30
0.0
 11
571.5139999944937
 21
295.2700562845261
 31
0.0
 11
574.1317641365438
 21
296.5142368932513
 31
0.0
 11
573.5406006657872
 21
297.7834931280547
 31
0.0
 11
571.6475276406364
 21
299.2700562845262
 31
0.0
 11
570.2098739424846
 21
301.3027066079933
 31
0.0
 11
571.5139999944937
 21
303.2700562845261
 31
0.0
  0
SPLINE
  5
19A
330
1F
100
AcDbEntity
  8
1
  6
Continuous
 62
     7
100
AcDbSpline
210
0.0
220
0.0
230
1.0
 70
     8
 71
     3
 72
     9
 73
     5
 74
     3
 42
0.0000000001
 43
0.0000000001
 44
0.00000001
 40
0.0
 40
0.0
 40
0.0
 40
0.0
 40
2.564157932693296
 40
5.233074062469775
 40
5.233074062469775
 40
5.233074062469775
 40
5.233074062469775
 10
571.5139999944937
 20
303.2700562845261
 30
0.0
 10
572.3664482886925
 20
302.6584996905251
 30
0.0
 10
574.1061714941518
 20
301.4104014712249
 30
0.0
 10
572.4779404959272
 20
299.9929630020863
 30
0.0
 10
571.6475276406364
 20
299.2700562845261
 30
0.0
 11
571.5139999944937
 21
303.2700562845261
 31
0.0
 11
573.2627295727173
 21
301.394729442069
 31
0.0
 11
571.6475276406364
 21
299.2700562845261
 31
0.0
  0
SPLINE
  5
19B
330
1F
100
AcDbEntity
  8
1
  6
Continuous
 62
     7
100
AcDbSpline
210
0.0
220
0.0
230
1.0
 70
     8
 71
     3
 72
    12
 73
     8
 74
     6
 42
0.0000000001
 43
0.0000000001
 44
0.00000001
 40
0.0
 40
0.0
 40
0.0
 40
0.0
 40
2.898391707573516
 40
4.298565139239794
 40
6.705554025115985
 40
9.19523583074905
 40
11.55557680384675
 40
11.55557680384675
 40
11.55557680384675
 40
11.55557680384675
 10
513.5139999944937
 20
303.2700562845261
 30
0.0
 10
512.2182976185241
 20
303.0389826922718
 30
0.0
 10
510.2966591285917
 20
302.6962806048804
 30
0.0
 10
511.6543453617819
 20
300.2712372816149
 30
0.0
 10
513.3805688302371
 20
299.4769149638605
 30
0.0
 10
515.5084660864958
 20
297.2287159328413
 30
0.0
 10
514.1668963251693
 20
295.9112312348327
 30
0.0
 10
513.5139999944937
 20
295.2700562845261
 30
0.0
 11
513.5139999944937
 21
303.2700562845261
 31
0.0
 11
510.8962358524436
 21
302.0258756758009
 31
0.0
 11
511.4873993232001
 21
300.7566194409976
 31
0.0
 11
513.3804723483509
 21
299.2700562845262
 31
0.0
 11
514.8181260465028
 21
297.2374059610592
 31
0.0
 11
513.5139999944937
 21
295.2700562845261
 31
0.0
  0
SPLINE
  5
19C
330
1F
100
AcDbEntity
  8
1
  6
Continuous
 62
     7
100
AcDbSpline
210
0.0
220
0.0
230
1.0
 70
     8
 71
     3
 72
     9
 73
     5
 74
     3
 42
0.0000000001
 43
0.0000000001
 44
0.00000001
 40
0.0
 40
0.0
 40
0.0
 40
0.0
 40
2.564157932693379
 40
5.233074062469768
 40
5.233074062469768
 40
5.233074062469768
 40
5.233074062469768
 10
513.5139999944937
 20
295.2700562845261
 30
0.0
 10
512.6615517002947
 20
295.8816128785271
 30
0.0
 10
510.9218284948354
 20
297.1297110978273
 30
0.0
 10
512.5500594930603
 20
298.547149566966
 30
0.0
 10
513.380472348351
 20
299.2700562845261
 30
0.0
 11
513.5139999944937
 21
295.2700562845261
 31
0.0
 11
511.7652704162701
 21
297.1453831269833
 31
0.0
 11
513.380472348351
 21
299.2700562845261
 31
0.0
  0
ARC
  5
19D
330
1F
100
AcDbEntity
  8
1
  6
Continuous
 62
     7
100
AcDbCircle
 10
352.7468623463618
 20
317.2700562845261
 30
0.0
 40
8.0
100
AcDbArc
 50
90.0
 51
180.0
  0
ARC
  5
19E
330
1F
100
AcDbEntity
  8
1
  6
Continuous
 62
     7
100
AcDbCircle
 10
360.2468623463618
 20
323.2700562845261
 30
0.0
 40
2.0
100
AcDbArc
 50
0.0
 51
90.0
  0
ARC
  5
19F
330
1F
100
AcDbEntity
  8
1
  6
Continuous
 62
     7
100
AcDbCircle
 10
367.7468623463618
 20
323.2700562845261
 30
0.0
 40
2.0
100
AcDbArc
 50
0.0
 51
90.0
  0
ARC
  5
1A0
330
1F
100
AcDbEntity
  8
1
  6
Continuous
 62
     7
100
AcDbCircle
 10
367.7468623463618
 20
313.2700562845261
 30
0.0
 40
2.0
100
AcDbArc
 50
0.0
 51
90.0
  0
ARC
  5
1A1
330
1F
100
AcDbEntity
  8
1
  6
Continuous
 62
     7
100
AcDbCircle
 10
364.2468623463618
 20
317.2700562845261
 30
0.0
 40
2.0
100
AcDbArc
 50
180.0
 51
-90.0
  0
ARC
  5
1A2
330
1F
100
AcDbEntity
  8
1
  6
Continuous
 62
     7
100
AcDbCircle
 10
352.7468623463618
 20
299.2700562845261
 30
0.0
 40
8.0
100
AcDbArc
 50
180.0
 51
-90.0
  0
ARC
  5
1A3
330
1F
100
AcDbEntity
  8
1
  6
Continuous
 62
     7
100
AcDbCircle
 10
360.2468623463618
 20
293.2700562845261
 30
0.0
 40
2.0
100
AcDbArc
 50
-90.0
 51
0.0
  0
ARC
  5
1A4
330
1F
100
AcDbEntity
  8
1
  6
Continuous
 62
     7
100
AcDbCircle
 10
364.2468623463618
 20
299.2700562845261
 30
0.0
 40
2.0
100
AcDbArc
 50
90.0
 51
180.0
  0
ARC
  5
1A5
330
1F
100
AcDbEntity
  8
1
  6
Continuous
 62
     7
100
AcDbCircle
 10
367.7468623463618
 20
303.2700562845261
 30
0.0
 40
2.0
100
AcDbArc
 50
-90.0
 51
0.0
  0
ARC
  5
1A6
330
1F
100
AcDbEntity
  8
1
  6
Continuous
 62
     7
100
AcDbCircle
 10
367.7468623463618
 20
293.2700562845261
 30
0.0
 40
2.0
100
AcDbArc
 50
-90.0
 51
0.0
  0
ARC
  5
1A7
330
1F
100
AcDbEntity
  8
1
  6
Continuous
 62
     7
100
AcDbCircle
 10
525.5139999944937
 20
323.2700562845261
 30
0.0
 40
2.0
100
AcDbArc
 50
90.0
 51
180.0
  0
ARC
  5
1A8
330
1F
100
AcDbEntity
  8
1
  6
Continuous
 62
     7
100
AcDbCircle
 10
530.5139999944937
 20
320.2700562845263
 30
0.0
 40
5.0
100
AcDbArc
 50
-90.0
 51
0.0
  0
ARC
  5
1A9
330
1F
100
AcDbEntity
  8
1
  6
Continuous
 62
     7
100
AcDbCircle
 10
537.5139999944937
 20
323.2700562845261
 30
0.0
 40
2.0
100
AcDbArc
 50
90.0
 51
180.0
  0
ARC
  5
1AA
330
1F
100
AcDbEntity
  8
1
  6
Continuous
 62
     7
100
AcDbCircle
 10
547.5139999944937
 20
323.2700562845261
 30
0.0
 40
2.0
100
AcDbArc
 50
0.0
 51
90.0
  0
ARC
  5
1AB
330
1F
100
AcDbEntity
  8
1
  6
Continuous
 62
     7
100
AcDbCircle
 10
547.5139999944937
 20
293.2700562845263
 30
0.0
 40
2.000000000000171
100
AcDbArc
 50
-90.0
 51
0.0
  0
ARC
  5
1AC
330
1F
100
AcDbEntity
  8
1
  6
Continuous
 62
     7
100
AcDbCircle
 10
525.5139999944937
 20
293.2700562845263
 30
0.0
 40
2.0
100
AcDbArc
 50
180.0
 51
-90.0
  0
ARC
  5
1AD
330
1F
100
AcDbEntity
  8
1
  6
Continuous
 62
     7
100
AcDbCircle
 10
537.5139999944937
 20
293.2700562845261
 30
0.0
 40
2.0
100
AcDbArc
 50
180.0
 51
-90.0
  0
ARC
  5
1AE
330
1F
100
AcDbEntity
  8
1
  6
Continuous
 62
     7
100
AcDbCircle
 10
530.5139999944937
 20
296.2700562845263
 30
0.0
 40
5.0
100
AcDbArc
 50
0.0
 51
90.0
  0
ARC
  5
1AF
330
1F
100
AcDbEntity
  8
1
  6
Continuous
 62
     3
100
AcDbCircle
 10
371.2468623463618
 20
325.2700562845261
 30
0.0
 40
13.0
100
AcDbArc
 50
90.0
 51
180.0
  0
ARC
  5
1B0
330
1F
100
AcDbEntity
  8
1
  6
Continuous
 62
     3
100
AcDbCircle
 10
361.2468623463618
 20
291.2700562845261
 30
0.0
 40
3.0
100
AcDbArc
 50
180.0
 51
-90.0
  0
ARC
  5
1B1
330
1F
100
AcDbEntity
  8
1
  6
Continuous
 62
     3
100
AcDbCircle
 10
363.2468623463618
 20
291.2700562845261
 30
0.0
 40
3.0
100
AcDbArc
 50
-90.0
 51
0.0
  0
ARC
  5
1B2
330
1F
100
AcDbEntity
  8
1
  6
Continuous
 62
     3
100
AcDbCircle
 10
371.2468623463618
 20
325.2700562845261
 30
0.0
 40
5.0
100
AcDbArc
 50
90.0
 51
180.0
  0
ARC
  5
1B3
330
1F
100
AcDbEntity
  8
1
  6
Continuous
 62
     3
100
AcDbCircle
 10
395.1468623463617
 20
325.2700562845261
 30
0.0
 40
5.0
100
AcDbArc
 50
0.0
 51
90.0
  0
ARC
  5
1B4
330
1F
100
AcDbEntity
  8
1
  6
Continuous
 62
     3
100
AcDbCircle
 10
395.2468623463618
 20
325.2700562845261
 30
0.0
 40
13.00000000000017
100
AcDbArc
 50
0.0
 51
90.0
  0
ARC
  5
1B5
330
1F
100
AcDbEntity
  8
1
  6
Continuous
 62
     3
100
AcDbCircle
 10
405.246862346362
 20
207.330716456306
 30
0.0
 40
3.0
100
AcDbArc
 50
-90.0
 51
0.0
  0
ARC
  5
1B6
330
1F
100
AcDbEntity
  8
1
  6
Continuous
 62
     3
100
AcDbCircle
 10
403.1468623463617
 20
207.330716456306
 30
0.0
 40
3.0
100
AcDbArc
 50
180.0
 51
-90.0
  0
ARC
  5
1B7
330
1F
100
AcDbEntity
  8
1
  6
DASH_CENTER
 62
     3
100
AcDbCircle
 10
395.1968623463617
 20
325.2700562845261
 30
0.0
 40
9.0
100
AcDbArc
 50
0.0
 51
90.0
  0
ARC
  5
1B8
330
1F
100
AcDbEntity
  8
1
  6
DASH_CENTER
 62
     3
100
AcDbCircle
 10
371.2468623463618
 20
325.2700562845261
 30
0.0
 40
9.0
100
AcDbArc
 50
90.0
 51
180.0
  0
ARC
  5
1B9
330
1F
100
AcDbEntity
  8
1
  6
Continuous
 62
     3
100
AcDbCircle
 10
541.4639999944935
 20
207.330716456306
 30
0.0
 40
3.0
100
AcDbArc
 50
180.0
 51
-90.0
  0
ARC
  5
1BA
330
1F
100
AcDbEntity
  8
1
  6
Continuous
 62
     3
100
AcDbCircle
 10
543.5139999944939
 20
207.280716456306
 30
0.0
 40
2.950423698386402
100
AcDbArc
 50
-89.02897806892173
 51
0.97102193107882
  0
ARC
  5
1BB
330
1F
100
AcDbEntity
  8
1
  6
Continuous
 62
     7
100
AcDbCircle
 10
161.1968623463628
 20
264.3307164563061
 30
0.0
 40
5.0
100
AcDbArc
 50
90.0
 51
180.0
  0
ARC
  5
1BC
330
1F
100
AcDbEntity
  8
1
  6
Continuous
 62
     7
100
AcDbCircle
 10
156.6968623463628
 20
262.8307164563061
 30
0.0
 40
0.5
100
AcDbArc
 50
180.0
 51
-90.0
  0
ARC
  5
1BD
330
1F
100
AcDbEntity
  8
1
  6
Continuous
 62
     7
100
AcDbCircle
 10
156.6968623463628
 20
235.830716456306
 30
0.0
 40
0.5
100
AcDbArc
 50
90.0
 51
180.0
  0
ARC
  5
1BE
330
1F
100
AcDbEntity
  8
1
  6
Continuous
 62
     7
100
AcDbCircle
 10
161.1968623463628
 20
234.330716456306
 30
0.0
 40
5.0
100
AcDbArc
 50
180.0
 51
-90.0
  0
ARC
  5
1BF
330
1F
100
AcDbEntity
  8
1
  6
Continuous
 62
     7
100
AcDbCircle
 10
528.5139999944937
 20
234.330716456306
 30
0.0
 40
2.0
100
AcDbArc
 50
180.0
 51
-90.0
  0
ARC
  5
1C0
330
1F
100
AcDbEntity
  8
1
  6
Continuous
 62
     7
100
AcDbCircle
 10
556.5139999944937
 20
234.330716456306
 30
0.0
 40
2.0
100
AcDbArc
 50
-90.0
 51
0.0
  0
ARC
  5
1C1
330
1F
100
AcDbEntity
  8
1
  6
Continuous
 62
     7
100
AcDbCircle
 10
528.5139999944937
 20
264.3307164563061
 30
0.0
 40
2.0
100
AcDbArc
 50
90.0
 51
180.0
  0
ARC
  5
1C2
330
1F
100
AcDbEntity
  8
1
  6
Continuous
 62
     7
100
AcDbCircle
 10
556.5139999944937
 20
264.3307164563061
 30
0.0
 40
2.0
100
AcDbArc
 50
0.0
 51
90.0
  0
ARC
  5
1C3
330
1F
100
AcDbEntity
  8
1
  6
Continuous
 62
     7
100
AcDbCircle
 10
411.1968623463617
 20
264.3307164563061
 30
0.0
 40
2.0
100
AcDbArc
 50
0.0
 51
90.0
  0
ARC
  5
1C4
330
1F
100
AcDbEntity
  8
1
  6
Continuous
 62
     7
100
AcDbCircle
 10
396.1968623463617
 20
264.3307164563061
 30
0.0
 40
2.0
100
AcDbArc
 50
90.0
 51
180.0
  0
ARC
  5
1C5
330
1F
100
AcDbEntity
  8
1
  6
Continuous
 62
     7
100
AcDbCircle
 10
396.1968623463617
 20
234.330716456306
 30
0.0
 40
2.0
100
AcDbArc
 50
180.0
 51
-90.0
  0
ARC
  5
1C6
330
1F
100
AcDbEntity
  8
1
  6
Continuous
 62
     7
100
AcDbCircle
 10
394.6968623463617
 20
235.830716456306
 30
0.0
 40
0.5
100
AcDbArc
 50
90.0
 51
180.0
  0
ARC
  5
1C7
330
1F
100
AcDbEntity
  8
1
  6
Continuous
 62
     7
100
AcDbCircle
 10
394.6968623463617
 20
262.8307164563061
 30
0.0
 40
0.5
100
AcDbArc
 50
180.0
 51
-90.0
  0
ARC
  5
1C8
330
1F
100
AcDbEntity
  8
1
  6
Continuous
 62
     7
100
AcDbCircle
 10
411.1968623463617
 20
234.330716456306
 30
0.0
 40
2.0
100
AcDbArc
 50
-90.0
 51
0.0
  0
ARC
  5
1C9
330
1F
100
AcDbEntity
  8
1
  6
Continuous
 62
     7
100
AcDbCircle
 10
667.9740466963043
 20
232.330716456306
 30
0.0
 40
3.0
100
AcDbArc
 50
-90.0
 51
0.0
  0
ARC
  5
1CA
330
1F
100
AcDbEntity
  8
1
  6
Continuous
 62
     7
100
AcDbCircle
 10
657.9740466963043
 20
232.330716456306
 30
0.0
 40
3.0
100
AcDbArc
 50
180.0
 51
-90.0
  0
ARC
  5
1CB
330
1F
100
AcDbEntity
  8
1
  6
Continuous
 62
     7
100
AcDbCircle
 10
667.9740466963043
 20
266.3307164563061
 30
0.0
 40
3.0
100
AcDbArc
 50
0.0
 51
90.0
  0
ARC
  5
1CC
330
1F
100
AcDbEntity
  8
1
  6
Continuous
 62
     7
100
AcDbCircle
 10
657.9740466963043
 20
266.3307164563061
 30
0.0
 40
3.0
100
AcDbArc
 50
90.0
 51
180.0
  0
ARC
  5
1CD
330
1F
100
AcDbEntity
  8
1
  6
Continuous
 62
     7
100
AcDbCircle
 10
374.1968623463617
 20
276.3307164563061
 30
0.0
 40
3.0
100
AcDbArc
 50
0.0
 51
90.0
  0
ARC
  5
1CE
330
1F
100
AcDbEntity
  8
1
  6
Continuous
 62
     7
100
AcDbCircle
 10
180.1968623463628
 20
276.3307164563061
 30
0.0
 40
3.0
100
AcDbArc
 50
90.0
 51
180.0
  0
ARC
  5
1CF
330
1F
100
AcDbEntity
  8
1
  6
Continuous
 62
     7
100
AcDbCircle
 10
374.1968623463617
 20
276.3307164563061
 30
0.0
 40
1.0
100
AcDbArc
 50
0.0
 51
90.0
  0
ARC
  5
1D0
330
1F
100
AcDbEntity
  8
1
  6
Continuous
 62
     7
100
AcDbCircle
 10
180.1968623463628
 20
276.3307164563061
 30
0.0
 40
1.0
100
AcDbArc
 50
90.0
 51
180.0
  0
LINE
  5
1D1
330
1F
100
AcDbEntity
  8
1
 62
     2
100
AcDbLine
 10
215.5656860093982
 20
325.9778526772441
 30
0.0
 11
219.2845608510006
 21
331.4615344331825
 31
0.0
  0
LINE
  5
1D2
330
1F
100
AcDbEntity
  8
1
 62
     2
100
AcDbLine
 10
215.5656860093982
 20
325.9778526772441
 30
0.0
 11
221.5281669736899
 21
328.8674229633548
 31
0.0
  0
LEADER
  5
1D3
330
1F
100
AcDbEntity
  8
1
  6
Continuous
 62
     2
100
AcDbLeader
  3
Standard
 71
     0
 76
     3
 10
215.5656860093982
 20
325.9778526772441
 30
0.0
 10
234.746814144744
 20
342.5673080746288
 30
0.0
 10
273.6812140038119
 20
342.5673080746288
 30
0.0
  0
MTEXT
  5
1D5
330
1F
100
AcDbEntity
  8
1
 62
     2
100
AcDbMText
 10
509.7879417722941
 20
10.96995117373945
 30
0.0
 40
8.0
 41
0.0
 71
     5
 72
     1
  1
TBC200,TBH200
  7
CONVERTER_6
 73
     1
 44
0.7202881152461
  0
MTEXT
  5
1D6
330
1F
100
AcDbEntity
  8
1
 62
     2
100
AcDbMText
 10
723.0602671760231
 20
9.72365314075259
 30
0.0
 40
6.4
 41
0.0
 71
     5
 72
     1
  1
W_TBCH200_G_030
  7
CONVERTER_1
 73
     1
 44
0.7202881152461
  0
MTEXT
  5
1D7
330
1F
100
AcDbEntity
  8
1
 62
     2
100
AcDbMText
 10
542.1693008935032
 20
25.58885269283561
 30
0.0
 40
8.0
 41
0.0
 71
     9
 72
     1
  1
フードベヤシリーズ
  7
CONVERTER_2
 73
     1
 44
1.20048019207683
  0
MTEXT
  5
1D8
330
1F
100
AcDbEntity
  8
1
 62
     2
100
AcDbMText
 10
384.5458714368932
 20
22.68259867441741
 30
0.0
 40
6.4
 41
0.0
 71
     9
 72
     1
  1
2009.4.1
  7
CONVERTER_1
 73
     1
 44
1.20048019207683
  0
MTEXT
  5
1D9
330
1F
100
AcDbEntity
  8
1
 62
     2
100
AcDbMText
 10
714.9232039400022
 20
25.57682010414921
 30
0.0
 40
8.0
 41
0.0
 71
     9
 72
     1
  1
GPN2型 ガイド
  7
CONVERTER_2
 73
     1
 44
1.20048019207683
  0
TEXT
  5
1DA
330
1F
100
AcDbEntity
  8
1
 62
     2
100
AcDbText
 10
235.7768247230271
 20
335.3572340266539
 30
0.0
 40
6.4
  1
ポリエチレン
 41
0.89
  7
CONVERTER_2
100
AcDbText
  0
TEXT
  5
1DB
330
1F
100
AcDbEntity
  8
1
 62
     2
100
AcDbText
 10
236.746814144744
 20
344.5673080746288
 30
0.0
 40
6.4
  1
高分子量
 41
0.89
  7
CONVERTER_2
100
AcDbText
  0
DIMENSION
  5
1F0
330
1F
100
AcDbEntity
  8
1
100
AcDbDimension
  2
*D02
 10
654.9740466963043
 20
189.255670545059
 30
0.0
 11
662.1377468183102
 21
194.335670545059
 31
0.0
 70
    32
  1
<>
 71
     5
 42
-1.0
 53
0.00013888888889
  3
ME10_DIM_0
100
AcDbAlignedDimension
 13
670.9740466963043
 23
232.330716456306
 33
0.0
 14
654.9740466963043
 24
232.330716456306
 34
0.0
100
AcDbRotatedDimension
  0
DIMENSION
  5
1FF
330
1F
100
AcDbEntity
  8
1
100
AcDbDimension
  2
*D14
 10
301.2151977747988
 20
290.8088210677243
 30
0.0
 11
296.0151977747988
 21
310.718625631894
 31
0.0
 70
    32
  1
33
 71
     5
 42
-1.0
 53
90.0
  3
ME10_DIM_1
100
AcDbAlignedDimension
 13
345.9802530403675
 23
325.8671815461399
 33
0.0
 14
345.9802530403675
 24
290.8088210677242
 34
0.0
 50
90.0
100
AcDbRotatedDimension
  0
DIMENSION
  5
20E
330
1F
100
AcDbEntity
  8
1
100
AcDbDimension
  2
*D25
 10
318.0067105135207
 20
279.3307164563059
 30
0.0
 11
312.8067105135207
 21
323.8967748698779
 31
0.0
 70
    32
  1
22～55
 71
     5
 42
-1.0
 53
90.0
  3
ME10_DIM_2
100
AcDbAlignedDimension
 13
332.9835043096708
 23
308.2700562845261
 33
0.0
 14
286.1968623463632
 24
279.3307164563061
 34
0.0
 50
90.0
100
AcDbRotatedDimension
  0
DIMENSION
  5
21D
330
1F
100
AcDbEntity
  8
1
100
AcDbDimension
  2
*D36
 10
333.2421248367062
 20
372.866748800456
 30
0.0
 11
341.1091063906416
 21
378.066748800456
 31
0.0
 70
    32
  1
13
 71
     5
 42
-1.0
 53
0.00013888888889
  3
ME10_DIM_3
100
AcDbAlignedDimension
 13
346.2025232023187
 23
323.3770819547362
 33
0.0
 14
333.2421248367062
 24
322.9880013069324
 34
0.0
100
AcDbRotatedDimension
  0
DIMENSION
  5
22C
330
1F
100
AcDbEntity
  8
1
100
AcDbDimension
  2
*D47
 10
400.1968623463618
 20
189.255670545059
 30
0.0
 11
445.8845914594256
 21
194.455670545059
 31
0.0
 70
    32
  1
<>
 71
     5
 42
-1.0
 53
0.00013888888889
  3
ME10_DIM_4
100
AcDbAlignedDimension
 13
408.1968623463623
 23
207.330716456306
 33
0.0
 14
400.1968623463617
 24
207.330716456306
 34
0.0
100
AcDbRotatedDimension
  0
DIMENSION
  5
239
330
1F
100
AcDbEntity
  8
1
100
AcDbDimension
  2
*D58
 10
377.1968623463618
 20
156.866748800456
 30
0.0
 11
390.6030770309986
 21
162.066748800456
 31
0.0
 70
    32
  1
<>
 71
     5
 42
-1.0
 53
0.00013888888889
  3
ME10_DIM_5
100
AcDbAlignedDimension
 13
404.1968623463617
 23
202.4339255900935
 33
0.0
 14
377.1968623463617
 24
209.330716456306
 34
0.0
100
AcDbRotatedDimension
  0
DIMENSION
  5
246
330
1F
100
AcDbEntity
  8
1
100
AcDbDimension
  2
*D69
 10
158.1968623463626
 20
156.866748800456
 30
0.0
 11
168.5367868387021
 21
162.546748800456
 31
0.0
 70
    32
  1
<>
 71
     5
 42
-1.0
 53
0.00013888888889
  3
ME10_DIM_6
100
AcDbAlignedDimension
 13
177.1968623463628
 23
209.330716456306
 33
0.0
 14
158.1968623463628
 24
234.330716456306
 34
0.0
100
AcDbRotatedDimension
  0
DIMENSION
  5
253
330
1F
100
AcDbEntity
  8
1
100
AcDbDimension
  2
*D710
 10
135.2288270948779
 20
258.3307164563061
 30
0.0
 11
128.0407778379357
 21
255.314314000958
 31
0.0
 70
    32
  1
<>
 71
     5
 42
-1.0
 53
90.0
  3
ME10_DIM_7
100
AcDbAlignedDimension
 13
151.5969568630104
 23
240.330716456306
 33
0.0
 14
153.1968623463628
 24
258.3307164563061
 34
0.0
 50
90.0
100
AcDbRotatedDimension
  0
DIMENSION
  5
260
330
1F
100
AcDbEntity
  8
1
100
AcDbDimension
  2
*D811
 10
118.5748472229657
 20
279.3307164563059
 30
0.0
 11
113.3748472229657
 21
264.427206032972
 31
0.0
 70
    32
  1
<>
 71
     5
 42
-1.0
 53
90.0
  3
ME10_DIM_8
100
AcDbAlignedDimension
 13
149.0502525622417
 23
249.330716456306
 33
0.0
 14
180.1968623463628
 24
279.3307164563061
 34
0.0
 50
90.0
100
AcDbRotatedDimension
  0
DIMENSION
  5
26D
330
1F
100
AcDbEntity
  8
1
100
AcDbDimension
  2
*D912
 10
96.36954072708285
 20
279.3307164563059
 30
0.0
 11
91.16954072708285
 21
248.566272821627
 31
0.0
 70
    32
  1
<>
 71
     5
 42
-1.0
 53
90.0
  3
ME10_DIM_9
100
AcDbAlignedDimension
 13
179.1968623463628
 23
209.330716456306
 33
0.0
 14
180.1968623463628
 24
279.3307164563061
 34
0.0
 50
90.0
100
AcDbRotatedDimension
  0
DIMENSION
  5
27A
330
1F
100
AcDbEntity
  8
1
100
AcDbDimension
  2
*D1013
 10
526.5139999944938
 20
189.255670545059
 30
0.0
 11
541.8012527684938
 21
194.455670545059
 31
0.0
 70
    32
  1
<>
 71
     5
 42
-1.0
 53
0.00013888888889
  3
ME10_DIM_10
100
AcDbAlignedDimension
 13
558.5139999944937
 23
234.330716456306
 33
0.0
 14
526.5139999944937
 24
236.330716456306
 34
0.0
100
AcDbRotatedDimension
  0
DIMENSION
  5
289
330
1F
100
AcDbEntity
  8
1
100
AcDbDimension
  2
*D1114
 10
208.1912014904075
 20
372.866748800456
 30
0.0
 11
214.571724360854
 21
378.066748800456
 31
0.0
 70
    32
  1
13
 71
     5
 42
-1.0
 53
0.00013888888889
  3
ME10_DIM_11
100
AcDbAlignedDimension
 13
221.15159985602
 23
322.9880013069324
 33
0.0
 14
208.1912014904075
 24
323.3770819547362
 34
0.0
100
AcDbRotatedDimension
  0
DIMENSION
  5
296
330
1F
100
AcDbEntity
  8
1
100
AcDbDimension
  2
*D1215
 10
221.1515998560201
 20
372.866748800456
 30
0.0
 11
277.1968623463632
 21
378.066748800456
 31
0.0
 70
    32
  1
ベルト幅 BW (BW-40～BW+70)
 71
     5
 42
-1.0
 53
0.00013888888889
  3
ME10_DIM_12
100
AcDbAlignedDimension
 13
333.2421248367062
 23
322.9880013069324
 33
0.0
 14
221.15159985602
 24
322.9880013069324
 34
0.0
100
AcDbRotatedDimension
  0
DIMENSION
  5
2A3
330
1F
100
AcDbEntity
  8
1
100
AcDbDimension
  2
*D1316
 10
177.1968623463627
 20
156.866748800456
 30
0.0
 11
276.6766274822294
 21
162.066748800456
 31
0.0
 70
    32
  1
BW+50
 71
     5
 42
-1.0
 53
0.00013888888889
  3
ME10_DIM_13
100
AcDbAlignedDimension
 13
377.1968623463617
 23
209.330716456306
 33
0.0
 14
177.1968623463628
 24
209.330716456306
 34
0.0
100
AcDbRotatedDimension
  0
INSERT
  5
2AC
330
1F
100
AcDbEntity
  8
1
100
AcDbBlockReference
  2
*D1417
 10
0.0
 20
0.0
 30
0.0
  0
ENDSEC
  0
SECTION
  2
OBJECTS
  0
DICTIONARY
  5
C
330
0
100
AcDbDictionary
281
     1
  3
ACAD_GROUP
350
D
  3
ACAD_LAYOUT
350
1A
  3
ACAD_MLINESTYLE
350
17
  3
ACAD_PLOTSETTINGS
350
19
  3
ACAD_PLOTSTYLENAME
350
E
  0
DICTIONARY
  5
D
102
{ACAD_REACTORS
330
C
102
}
330
C
100
AcDbDictionary
281
     1
  0
DICTIONARY
  5
1A
102
{ACAD_REACTORS
330
C
102
}
330
C
100
AcDbDictionary
281
     1
  3
Layout1
350
1E
  3
Layout2
350
26
  3
Model
350
22
  0
DICTIONARY
  5
17
102
{ACAD_REACTORS
330
C
102
}
330
C
100
AcDbDictionary
281
     1
  3
Standard
350
18
  0
DICTIONARY
  5
19
102
{ACAD_REACTORS
330
C
102
}
330
C
100
AcDbDictionary
281
     1
  0
ACDBDICTIONARYWDFLT
  5
E
102
{ACAD_REACTORS
330
C
102
}
330
C
100
AcDbDictionary
281
     1
  3
Normal
350
F
100
AcDbDictionaryWithDefault
340
F
  0
LAYOUT
  5
1E
102
{ACAD_REACTORS
330
1A
102
}
330
1A
100
AcDbPlotSettings
  1

  2

  4

  6

 40
0.0
 41
0.0
 42
0.0
 43
0.0
 44
0.0
 45
0.0
 46
0.0
 47
0.0
 48
0.0
 49
0.0
140
0.0
141
0.0
142
1.0
143
1.0
 70
   688
 72
     0
 73
     0
 74
     5
  7

 75
    16
147
1.0
148
0.0
149
0.0
100
AcDbLayout
  1
Layout1
 70
     1
 71
     1
 10
0.0
 20
0.0
 11
0.0
 21
0.0
 12
0.0
 22
0.0
 32
0.0
 14
0.0
 24
0.0
 34
0.0
 15
0.0
 25
0.0
 35
0.0
146
0.0
 13
0.0
 23
0.0
 33
0.0
 16
1.0
 26
0.0
 36
0.0
 17
0.0
 27
1.0
 37
0.0
 76
     0
330
1B
  0
LAYOUT
  5
26
102
{ACAD_REACTORS
330
1A
102
}
330
1A
100
AcDbPlotSettings
  1

  2

  4

  6

 40
0.0
 41
0.0
 42
0.0
 43
0.0
 44
0.0
 45
0.0
 46
0.0
 47
0.0
 48
0.0
 49
0.0
140
0.0
141
0.0
142
1.0
143
1.0
 70
   688
 72
     0
 73
     0
 74
     5
  7

 75
    16
147
1.0
148
0.0
149
0.0
100
AcDbLayout
  1
Layout2
 70
     1
 71
     2
 10
0.0
 20
0.0
 11
0.0
 21
0.0
 12
0.0
 22
0.0
 32
0.0
 14
0.0
 24
0.0
 34
0.0
 15
0.0
 25
0.0
 35
0.0
146
0.0
 13
0.0
 23
0.0
 33
0.0
 16
1.0
 26
0.0
 36
0.0
 17
0.0
 27
1.0
 37
0.0
 76
     0
330
23
  0
LAYOUT
  5
22
102
{ACAD_REACTORS
330
1A
102
}
330
1A
100
AcDbPlotSettings
  1

  2

  4

  6

 40
0.0
 41
0.0
 42
0.0
 43
0.0
 44
0.0
 45
0.0
 46
0.0
 47
0.0
 48
0.0
 49
0.0
140
0.0
141
0.0
142
1.0
143
1.0
 70
  1712
 72
     0
 73
     0
 74
     0
  7

 75
     0
147
1.0
148
0.0
149
0.0
100
AcDbLayout
  1
Model
 70
     1
 71
     0
 10
0.0
 20
0.0
 11
0.0
 21
0.0
 12
0.0
 22
0.0
 32
0.0
 14
0.0
 24
-4.51230664191138
 34
0.0
 15
788.0
 25
536.0
 35
0.0
146
0.0
 13
0.0
 23
0.0
 33
0.0
 16
1.0
 26
0.0
 36
0.0
 17
0.0
 27
1.0
 37
0.0
 76
     0
330
1F
  0
MLINESTYLE
  5
18
102
{ACAD_REACTORS
330
17
102
}
330
17
100
AcDbMlineStyle
  2
Standard
 70
     0
  3

 62
   256
 51
90.0
 52
90.0
 71
     2
 49
0.5
 62
   256
  6
BYLAYER
 49
-0.5
 62
   256
  6
BYLAYER
  0
ACDBPLACEHOLDER
  5
F
102
{ACAD_REACTORS
330
E
102
}
330
E
  0
ENDSEC
  0
EOF
