  0
SECTION
  2
HEADER
  9
$ACADVER
  1
AC1015
  9
$ACADMAINTVER
 70
     6
  9
$DWGCODEPAGE
  3
DOS932
  9
$INSBASE
 10
0.0
 20
0.0
 30
0.0
  9
$EXTMIN
 10
0.0
 20
-4.51230664191138
 30
0.0
  9
$EXTMAX
 10
788.0
 20
536.0
 30
0.0
  9
$LIMMIN
 10
0.0
 20
0.0
  9
$LIMMAX
 10
12.0
 20
9.0
  9
$ORTHOMODE
 70
     0
  9
$REGENMODE
 70
     1
  9
$FILLMODE
 70
     1
  9
$QTEXTMODE
 70
     0
  9
$MIRRTEXT
 70
     1
  9
$LTSCALE
 40
1.0
  9
$ATTMODE
 70
     1
  9
$TEXTSIZE
 40
0.2
  9
$TRACEWID
 40
0.05
  9
$TEXTSTYLE
  7
Standard
  9
$CLAYER
  8
0
  9
$CELTYPE
  6
ByLayer
  9
$CECOLOR
 62
   256
  9
$CELTSCALE
 40
1.0
  9
$DISPSILH
 70
     0
  9
$DIMSCALE
 40
1.0
  9
$DIMASZ
 40
0.18
  9
$DIMEXO
 40
0.0625
  9
$DIMDLI
 40
0.38
  9
$DIMRND
 40
0.0
  9
$DIMDLE
 40
0.0
  9
$DIMEXE
 40
0.18
  9
$DIMTP
 40
0.0
  9
$DIMTM
 40
0.0
  9
$DIMTXT
 40
0.18
  9
$DIMCEN
 40
0.09
  9
$DIMTSZ
 40
0.0
  9
$DIMTOL
 70
     0
  9
$DIMLIM
 70
     0
  9
$DIMTIH
 70
     1
  9
$DIMTOH
 70
     1
  9
$DIMSE1
 70
     0
  9
$DIMSE2
 70
     0
  9
$DIMTAD
 70
     0
  9
$DIMZIN
 70
     0
  9
$DIMBLK
  1

  9
$DIMASO
 70
     1
  9
$DIMSHO
 70
     1
  9
$DIMPOST
  1

  9
$DIMAPOST
  1

  9
$DIMALT
 70
     0
  9
$DIMALTD
 70
     2
  9
$DIMALTF
 40
25.4
  9
$DIMLFAC
 40
1.0
  9
$DIMTOFL
 70
     0
  9
$DIMTVP
 40
0.0
  9
$DIMTIX
 70
     0
  9
$DIMSOXD
 70
     0
  9
$DIMSAH
 70
     0
  9
$DIMBLK1
  1

  9
$DIMBLK2
  1

  9
$DIMSTYLE
  2
Standard
  9
$DIMCLRD
 70
     0
  9
$DIMCLRE
 70
     0
  9
$DIMCLRT
 70
     0
  9
$DIMTFAC
 40
1.0
  9
$DIMGAP
 40
0.09
  9
$DIMJUST
 70
     0
  9
$DIMSD1
 70
     0
  9
$DIMSD2
 70
     0
  9
$DIMTOLJ
 70
     1
  9
$DIMTZIN
 70
     0
  9
$DIMALTZ
 70
     0
  9
$DIMALTTZ
 70
     0
  9
$DIMUPT
 70
     0
  9
$DIMDEC
 70
     4
  9
$DIMTDEC
 70
     4
  9
$DIMALTU
 70
     2
  9
$DIMALTTD
 70
     2
  9
$DIMTXSTY
  7
Standard
  9
$DIMAUNIT
 70
     0
  9
$DIMADEC
 70
     0
  9
$DIMALTRND
 40
0.0
  9
$DIMAZIN
 70
     0
  9
$DIMDSEP
 70
    46
  9
$DIMATFIT
 70
     3
  9
$DIMFRAC
 70
     0
  9
$DIMLDRBLK
  1

  9
$DIMLUNIT
 70
     2
  9
$DIMLWD
 70
    -2
  9
$DIMLWE
 70
    -2
  9
$DIMTMOVE
 70
     0
  9
$LUNITS
 70
     2
  9
$LUPREC
 70
     4
  9
$SKETCHINC
 40
0.1
  9
$FILLETRAD
 40
0.5
  9
$AUNITS
 70
     0
  9
$AUPREC
 70
     0
  9
$MENU
  1
.
  9
$ELEVATION
 40
0.0
  9
$PELEVATION
 40
0.0
  9
$THICKNESS
 40
0.0
  9
$LIMCHECK
 70
     0
  9
$CHAMFERA
 40
0.5
  9
$CHAMFERB
 40
0.5
  9
$CHAMFERC
 40
1.0
  9
$CHAMFERD
 40
0.0
  9
$SKPOLY
 70
     0
  9
$TDCREATE
 40
2455839.620537628
  9
$TDUCREATE
 40
2455839.245537628
  9
$TDUPDATE
 40
2455839.620537639
  9
$TDUUPDATE
 40
2455839.245537639
  9
$TDINDWG
 40
0.0000000116
  9
$TDUSRTIMER
 40
0.0000000116
  9
$USRTIMER
 70
     1
  9
$ANGBASE
 50
0.0
  9
$ANGDIR
 70
     0
  9
$PDMODE
 70
     0
  9
$PDSIZE
 40
0.0
  9
$PLINEWID
 40
0.0
  9
$SPLFRAME
 70
     0
  9
$SPLINETYPE
 70
     6
  9
$SPLINESEGS
 70
     8
  9
$HANDSEED
  5
273
  9
$SURFTAB1
 70
     6
  9
$SURFTAB2
 70
     6
  9
$SURFTYPE
 70
     6
  9
$SURFU
 70
     6
  9
$SURFV
 70
     6
  9
$UCSBASE
  2

  9
$UCSNAME
  2

  9
$UCSORG
 10
0.0
 20
0.0
 30
0.0
  9
$UCSXDIR
 10
1.0
 20
0.0
 30
0.0
  9
$UCSYDIR
 10
0.0
 20
1.0
 30
0.0
  9
$UCSORTHOREF
  2

  9
$UCSORTHOVIEW
 70
     0
  9
$UCSORGTOP
 10
0.0
 20
0.0
 30
0.0
  9
$UCSORGBOTTOM
 10
0.0
 20
0.0
 30
0.0
  9
$UCSORGLEFT
 10
0.0
 20
0.0
 30
0.0
  9
$UCSORGRIGHT
 10
0.0
 20
0.0
 30
0.0
  9
$UCSORGFRONT
 10
0.0
 20
0.0
 30
0.0
  9
$UCSORGBACK
 10
0.0
 20
0.0
 30
0.0
  9
$PUCSBASE
  2

  9
$PUCSNAME
  2

  9
$PUCSORG
 10
0.0
 20
0.0
 30
0.0
  9
$PUCSXDIR
 10
1.0
 20
0.0
 30
0.0
  9
$PUCSYDIR
 10
0.0
 20
1.0
 30
0.0
  9
$PUCSORTHOREF
  2

  9
$PUCSORTHOVIEW
 70
     0
  9
$PUCSORGTOP
 10
0.0
 20
0.0
 30
0.0
  9
$PUCSORGBOTTOM
 10
0.0
 20
0.0
 30
0.0
  9
$PUCSORGLEFT
 10
0.0
 20
0.0
 30
0.0
  9
$PUCSORGRIGHT
 10
0.0
 20
0.0
 30
0.0
  9
$PUCSORGFRONT
 10
0.0
 20
0.0
 30
0.0
  9
$PUCSORGBACK
 10
0.0
 20
0.0
 30
0.0
  9
$USERI1
 70
     0
  9
$USERI2
 70
     0
  9
$USERI3
 70
     0
  9
$USERI4
 70
     0
  9
$USERI5
 70
     0
  9
$USERR1
 40
14.0
  9
$USERR2
 40
0.0
  9
$USERR3
 40
0.0
  9
$USERR4
 40
0.0
  9
$USERR5
 40
0.0
  9
$WORLDVIEW
 70
     1
  9
$SHADEDGE
 70
     3
  9
$SHADEDIF
 70
    70
  9
$TILEMODE
 70
     1
  9
$MAXACTVP
 70
    64
  9
$PINSBASE
 10
0.0
 20
0.0
 30
0.0
  9
$PLIMCHECK
 70
     0
  9
$PEXTMIN
 10
1.00000000000000E+20
 20
1.00000000000000E+20
 30
1.00000000000000E+20
  9
$PEXTMAX
 10
-1.00000000000000E+20
 20
-1.00000000000000E+20
 30
-1.00000000000000E+20
  9
$PLIMMIN
 10
0.0
 20
0.0
  9
$PLIMMAX
 10
12.0
 20
9.0
  9
$UNITMODE
 70
     0
  9
$VISRETAIN
 70
     1
  9
$PLINEGEN
 70
     0
  9
$PSLTSCALE
 70
     1
  9
$TREEDEPTH
 70
  3020
  9
$CMLSTYLE
  2
Standard
  9
$CMLJUST
 70
     0
  9
$CMLSCALE
 40
1.0
  9
$PROXYGRAPHICS
 70
     1
  9
$MEASUREMENT
 70
     1
  9
$CELWEIGHT
370
    -1
  9
$ENDCAPS
280
     0
  9
$JOINSTYLE
280
     0
  9
$LWDISPLAY
290
     0
  9
$INSUNITS
 70
     1
  9
$HYPERLINKBASE
  1

  9
$STYLESHEET
  1

  9
$XEDIT
290
     1
  9
$CEPSNTYPE
380
     0
  9
$PSTYLEMODE
290
     1
  9
$FINGERPRINTGUID
  2
{D93CD174-B41D-4065-83E1-DB54336D1C45}
  9
$VERSIONGUID
  2
{FAEB1C32-E019-11D5-929B-00C0DF256EC4}
  9
$EXTNAMES
290
     1
  9
$PSVPSCALE
 40
0.0
  9
$OLESTARTUP
290
     0
  0
ENDSEC
  0
SECTION
  2
CLASSES
  0
CLASS
  1
ACDBDICTIONARYWDFLT
  2
AcDbDictionaryWithDefault
  3
ObjectDBX Classes
 90
        0
280
     0
281
     0
  0
CLASS
  1

  2
exOdDbCircle
  3

 90
        0
280
     0
281
     1
  0
CLASS
  1

  2
exOdDbSpline
  3

 90
        0
280
     0
281
     1
  0
CLASS
  1
ACDBPLACEHOLDER
  2
AcDbPlaceHolder
  3
ObjectDBX Classes
 90
        0
280
     0
281
     0
  0
CLASS
  1
LAYOUT
  2
AcDbLayout
  3
ObjectDBX Classes
 90
        0
280
     0
281
     0
  0
ENDSEC
  0
SECTION
  2
TABLES
  0
TABLE
  2
VPORT
  5
8
330
0
100
AcDbSymbolTable
 70
     1
  0
VPORT
  5
29
330
8
100
AcDbSymbolTableRecord
100
AcDbViewportTableRecord
  2
*Active
 70
     0
 10
0.0
 20
0.0
 11
1.0
 21
1.0
 12
394.0
 22
265.7438466790443
 13
0.0
 23
0.0
 14
0.5
 24
0.5
 15
0.5
 25
0.5
 16
0.0
 26
0.0
 36
1.0
 17
0.0
 27
0.0
 37
0.0
 40
594.5635373061026
 41
1.60267857142857
 42
50.0
 43
0.0
 44
0.0
 50
0.0
 51
0.0
 71
     0
 72
   100
 73
     1
 74
     3
 75
     0
 76
     0
 77
     0
 78
     0
281
     0
 65
     1
110
0.0
120
0.0
130
0.0
111
1.0
121
0.0
131
0.0
112
0.0
122
1.0
132
0.0
 79
     0
146
0.0
  0
ENDTAB
  0
TABLE
  2
LTYPE
  5
5
330
0
100
AcDbSymbolTable
 70
     8
  0
LTYPE
  5
14
330
5
100
AcDbSymbolTableRecord
100
AcDbLinetypeTableRecord
  2
ByBlock
 70
     0
  3

 72
    65
 73
     0
 40
0.0
  0
LTYPE
  5
15
330
5
100
AcDbSymbolTableRecord
100
AcDbLinetypeTableRecord
  2
ByLayer
 70
     0
  3

 72
    65
 73
     0
 40
0.0
  0
LTYPE
  5
16
330
5
100
AcDbSymbolTableRecord
100
AcDbLinetypeTableRecord
  2
Continuous
 70
     0
  3
Solid line
 72
    65
 73
     0
 40
0.0
  0
LTYPE
  5
2A
330
5
100
AcDbSymbolTableRecord
100
AcDbLinetypeTableRecord
  2
DASHED
 70
     0
  3
Dashed
 72
    65
 73
     2
 40
15.0
 49
7.0
 74
     0
 49
-8.0
 74
     0
  0
LTYPE
  5
2B
330
5
100
AcDbSymbolTableRecord
100
AcDbLinetypeTableRecord
  2
DOTTED
 70
     0
  3
Dotted
 72
    65
 73
     2
 40
1.0
 49
0.0
 74
     0
 49
-1.0
 74
     0
  0
LTYPE
  5
2C
330
5
100
AcDbSymbolTableRecord
100
AcDbLinetypeTableRecord
  2
DOT_CENTER
 70
     0
  3
Dot_Center
 72
    65
 73
     4
 40
14.0
 49
12.0
 74
     0
 49
-1.0
 74
     0
 49
0.0
 74
     0
 49
-1.0
 74
     0
  0
LTYPE
  5
2D
330
5
100
AcDbSymbolTableRecord
100
AcDbLinetypeTableRecord
  2
LONG_DASHED
 70
     0
  3
Long_Dashed
 72
    65
 73
     2
 40
15.0
 49
10.0
 74
     0
 49
-5.0
 74
     0
  0
LTYPE
  5
2E
330
5
100
AcDbSymbolTableRecord
100
AcDbLinetypeTableRecord
  2
DASH_CENTER
 70
     0
  3
Dash_Center
 72
    65
 73
     4
 40
14.0
 49
11.0
 74
     0
 49
-1.0
 74
     0
 49
1.0
 74
     0
 49
-1.0
 74
     0
  0
LTYPE
  5
2F
330
5
100
AcDbSymbolTableRecord
100
AcDbLinetypeTableRecord
  2
PHANTOM
 70
     0
  3
Phantom
 72
    65
 73
     6
 40
13.0
 49
10.0
 74
     0
 49
-1.0
 74
     0
 49
0.0
 74
     0
 49
-1.0
 74
     0
 49
0.0
 74
     0
 49
-1.0
 74
     0
  0
LTYPE
  5
30
330
5
100
AcDbSymbolTableRecord
100
AcDbLinetypeTableRecord
  2
CENTER_DASH_DASH
 70
     0
  3
Center_Dash_Dash
 72
    65
 73
     6
 40
14.0
 49
9.0
 74
     0
 49
-1.0
 74
     0
 49
1.0
 74
     0
 49
-1.0
 74
     0
 49
1.0
 74
     0
 49
-1.0
 74
     0
  0
ENDTAB
  0
TABLE
  2
LAYER
  5
2
330
0
100
AcDbSymbolTable
 70
     2
  0
LAYER
  5
10
330
2
100
AcDbSymbolTableRecord
100
AcDbLayerTableRecord
  2
0
 70
     0
 62
     7
  6
Continuous
370
    -3
390
F
  0
LAYER
  5
31
330
2
100
AcDbSymbolTableRecord
100
AcDbLayerTableRecord
  2
1
 70
     0
 62
     7
  6
Continuous
370
    -3
390
F
  0
ENDTAB
  0
TABLE
  2
STYLE
  5
3
330
0
100
AcDbSymbolTable
 70
     8
  0
STYLE
  5
11
330
3
100
AcDbSymbolTableRecord
100
AcDbTextStyleTableRecord
  2
Standard
 70
     0
 40
0.0
 41
1.0
 50
0.0
 71
     0
 42
0.2
  3
txt
  4

  0
STYLE
  5
50
330
3
100
AcDbSymbolTableRecord
100
AcDbTextStyleTableRecord
  2
CONVERTER_1
 70
     0
 40
0.0
 41
0.9
 50
0.0
 71
     0
 42
0.2
  3
txt.shx
  4

  0
STYLE
  5
52
330
3
100
AcDbSymbolTableRecord
100
AcDbTextStyleTableRecord
  2
CONVERTER_2
 70
     0
 40
0.0
 41
0.89
 50
0.0
 71
     0
 42
0.2
  3
msmincho.ttc
  4

1001
ACAD
1000
MS Mincho
1071
    32785
  0
STYLE
  5
54
330
3
100
AcDbSymbolTableRecord
100
AcDbTextStyleTableRecord
  2
CONVERTER_3
 70
     0
 40
0.0
 41
1.068
 50
0.0
 71
     0
 42
0.2
  3
msmincho.ttc
  4

1001
ACAD
1000
MS Mincho
1071
    32785
  0
STYLE
  5
5A
330
3
100
AcDbSymbolTableRecord
100
AcDbTextStyleTableRecord
  2
CONVERTER_4
 70
     0
 40
0.0
 41
0.9025
 50
0.0
 71
     0
 42
0.2
  3
complex.shx
  4

  0
STYLE
  5
5E
330
3
100
AcDbSymbolTableRecord
100
AcDbTextStyleTableRecord
  2
CONVERTER_5
 70
     0
 40
0.0
 41
0.801
 50
0.0
 71
     0
 42
0.2
  3
msmincho.ttc
  4

1001
ACAD
1000
MS Mincho
1071
    32785
  0
STYLE
  5
19D
330
3
100
AcDbSymbolTableRecord
100
AcDbTextStyleTableRecord
  2
CONVERTER_6
 70
     0
 40
0.0
 41
0.72
 50
0.0
 71
     0
 42
0.2
  3
txt.shx
  4

  0
STYLE
  5
21E
330
3
100
AcDbSymbolTableRecord
100
AcDbTextStyleTableRecord
  2
CONVERTER_7
 70
     0
 40
0.0
 41
0.6675
 50
0.0
 71
     0
 42
0.2
  3
msmincho.ttc
  4

1001
ACAD
1000
MS Mincho
1071
    32785
  0
ENDTAB
  0
TABLE
  2
VIEW
  5
6
330
0
100
AcDbSymbolTable
 70
     0
  0
ENDTAB
  0
TABLE
  2
UCS
  5
7
330
0
100
AcDbSymbolTable
 70
     0
  0
ENDTAB
  0
TABLE
  2
APPID
  5
9
330
0
100
AcDbSymbolTable
 70
     1
  0
APPID
  5
12
330
9
100
AcDbSymbolTableRecord
100
AcDbRegAppTableRecord
  2
ACAD
 70
     0
  0
ENDTAB
  0
TABLE
  2
DIMSTYLE
  5
A
330
0
100
AcDbSymbolTable
 70
    15
100
AcDbDimStyleTable
  0
DIMSTYLE
105
27
330
A
100
AcDbSymbolTableRecord
100
AcDbDimStyleTableRecord
  2
Standard
 70
     0
340
11
  0
DIMSTYLE
105
1B6
102
{ACAD_REACTORS
330
1B7
102
}
330
A
100
AcDbSymbolTableRecord
100
AcDbDimStyleTableRecord
  2
ME10_DIM_0
 70
     0
 41
6.4
 42
2.0
 44
2.0
 73
     0
 74
     0
 77
     1
 78
     8
140
6.4
147
1.4
172
     1
173
     1
176
     2
177
     2
178
     2
271
     2
340
50
343
1B0
344
1B0
  0
DIMSTYLE
105
1C3
102
{ACAD_REACTORS
330
1C4
102
}
330
A
100
AcDbSymbolTableRecord
100
AcDbDimStyleTableRecord
  2
ME10_DIM_1
 70
     0
 41
5.12
 42
2.0
 44
2.0
 73
     0
 74
     0
 77
     1
 78
     8
140
6.4
147
2.0
172
     1
173
     1
176
     2
177
     2
178
     2
271
     2
340
50
343
1B0
344
1B0
  0
DIMSTYLE
105
1D0
102
{ACAD_REACTORS
330
1D1
102
}
330
A
100
AcDbSymbolTableRecord
100
AcDbDimStyleTableRecord
  2
ME10_DIM_2
 70
     0
 41
5.12
 42
2.0
 44
2.0
 73
     0
 74
     0
 77
     1
 78
     8
140
6.4
147
2.0
172
     1
173
     1
176
     2
177
     2
178
     2
271
     2
340
50
343
1B0
344
1B0
  0
DIMSTYLE
105
1DD
102
{ACAD_REACTORS
330
1DE
102
}
330
A
100
AcDbSymbolTableRecord
100
AcDbDimStyleTableRecord
  2
ME10_DIM_3
 70
     0
 41
5.12
 42
2.0
 44
2.0
 73
     0
 74
     0
 77
     1
 78
     8
140
6.4
147
2.0
172
     1
173
     1
176
     2
177
     2
178
     2
271
     2
340
50
343
1B0
344
1B0
  0
DIMSTYLE
105
1EA
102
{ACAD_REACTORS
330
1EB
102
}
330
A
100
AcDbSymbolTableRecord
100
AcDbDimStyleTableRecord
  2
ME10_DIM_4
 70
     0
 41
5.12
 42
2.0
 44
2.0
 73
     0
 74
     0
 77
     1
 78
     8
140
6.4
147
2.0
172
     1
173
     1
176
     2
177
     2
178
     2
271
     2
340
50
343
1B0
344
1B0
  0
DIMSTYLE
105
1F7
102
{ACAD_REACTORS
330
1F8
102
}
330
A
100
AcDbSymbolTableRecord
100
AcDbDimStyleTableRecord
  2
ME10_DIM_5
 70
     0
 41
5.12
 42
2.0
 44
2.0
 73
     0
 74
     0
 77
     1
 78
     8
140
6.4
147
2.0
172
     1
173
     1
176
     2
177
     2
178
     2
271
     2
340
50
343
1B0
344
1B0
  0
DIMSTYLE
105
204
102
{ACAD_REACTORS
330
205
102
}
330
A
100
AcDbSymbolTableRecord
100
AcDbDimStyleTableRecord
  2
ME10_DIM_6
 70
     0
 41
5.12
 42
2.0
 44
2.0
 73
     0
 74
     0
 77
     1
 78
     8
140
6.4
147
2.0
172
     1
173
     1
176
     2
177
     2
178
     2
271
     2
340
50
343
1B0
344
1B0
  0
DIMSTYLE
105
213
102
{ACAD_REACTORS
330
214
102
}
330
A
100
AcDbSymbolTableRecord
100
AcDbDimStyleTableRecord
  2
ME10_DIM_7
 70
     0
  3
{\Fgdt;n}<> SUS303
 41
5.12
 42
2.0
 44
2.0
 73
     0
 74
     0
 77
     1
 78
     8
140
6.4
147
2.0
172
     1
173
     1
176
     2
177
     2
178
     2
271
     2
340
50
343
1B0
344
1B0
  0
DIMSTYLE
105
222
102
{ACAD_REACTORS
330
223
102
}
330
A
100
AcDbSymbolTableRecord
100
AcDbDimStyleTableRecord
  2
ME10_DIM_8
 70
     0
 41
5.12
 42
2.0
 44
2.0
 73
     0
 74
     0
 77
     1
 78
     8
140
6.4
147
2.0
172
     1
173
     1
176
     2
177
     2
178
     4
271
     2
340
21E
343
1B0
344
1B0
  0
DIMSTYLE
105
231
102
{ACAD_REACTORS
330
232
102
}
330
A
100
AcDbSymbolTableRecord
100
AcDbDimStyleTableRecord
  2
ME10_DIM_9
 70
     0
 41
5.12
 42
2.0
 44
2.0
 73
     0
 74
     0
 77
     1
 78
     8
140
6.4
147
2.0
172
     1
173
     1
176
     2
177
     2
178
     2
271
     2
340
50
343
1B0
344
1B0
  0
DIMSTYLE
105
23E
102
{ACAD_REACTORS
330
23F
102
}
330
A
100
AcDbSymbolTableRecord
100
AcDbDimStyleTableRecord
  2
ME10_DIM_10
 70
     0
 41
5.12
 42
2.0
 44
2.0
 73
     0
 74
     0
 77
     1
 78
     8
140
6.4
147
2.0
172
     1
173
     1
176
     2
177
     2
178
     4
271
     2
340
21E
343
1B0
344
1B0
  0
DIMSTYLE
105
24C
102
{ACAD_REACTORS
330
24D
102
}
330
A
100
AcDbSymbolTableRecord
100
AcDbDimStyleTableRecord
  2
ME10_DIM_11
 70
     0
 41
5.12
 42
2.0
 44
2.0
 73
     0
 74
     0
 77
     1
 78
     8
140
6.4
147
2.0
172
     1
173
     1
176
     2
177
     2
178
     2
271
     2
340
50
343
1B0
344
1B0
  0
DIMSTYLE
105
25B
102
{ACAD_REACTORS
330
25C
102
}
330
A
100
AcDbSymbolTableRecord
100
AcDbDimStyleTableRecord
  2
ME10_DIM_12
 70
     0
  3
{\Fgdt;n}<> SUS303
 41
5.12
 42
2.0
 44
2.0
 73
     0
 74
     0
 77
     1
 78
     8
140
6.4
147
2.0
172
     1
173
     1
176
     2
177
     2
178
     2
271
     2
340
50
343
1B0
344
1B0
  0
DIMSTYLE
105
268
102
{ACAD_REACTORS
330
269
102
}
330
A
100
AcDbSymbolTableRecord
100
AcDbDimStyleTableRecord
  2
ME10_DIM_13
 70
     0
 41
5.12
 42
2.0
 44
2.0
 73
     0
 74
     0
 77
     1
 78
     8
140
6.4
147
2.0
172
     1
173
     1
176
     2
177
     2
178
     2
271
     2
340
50
343
1B0
344
1B0
  0
ENDTAB
  0
TABLE
  2
BLOCK_RECORD
  5
1
330
0
100
AcDbSymbolTable
 70
    18
  0
BLOCK_RECORD
  5
1F
330
1
100
AcDbSymbolTableRecord
100
AcDbBlockTableRecord
  2
*Model_Space
340
22
  0
BLOCK_RECORD
  5
1B
330
1
100
AcDbSymbolTableRecord
100
AcDbBlockTableRecord
  2
*Paper_Space
340
1E
  0
BLOCK_RECORD
  5
23
330
1
100
AcDbSymbolTableRecord
100
AcDbBlockTableRecord
  2
*Paper_Space0
340
26
  0
BLOCK_RECORD
  5
32
330
1
100
AcDbSymbolTableRecord
100
AcDbBlockTableRecord
  2
Zuwaku-A3-web
340
0
102
{BLKREFS
331
35
102
}
  0
BLOCK_RECORD
  5
1A3
330
1
100
AcDbSymbolTableRecord
100
AcDbBlockTableRecord
  2
*D02
340
0
  0
BLOCK_RECORD
  5
1B0
330
1
100
AcDbSymbolTableRecord
100
AcDbBlockTableRecord
  2
_Open30
340
0
  0
BLOCK_RECORD
  5
1B8
330
1
100
AcDbSymbolTableRecord
100
AcDbBlockTableRecord
  2
*D14
340
0
  0
BLOCK_RECORD
  5
1C5
330
1
100
AcDbSymbolTableRecord
100
AcDbBlockTableRecord
  2
*D25
340
0
  0
BLOCK_RECORD
  5
1D2
330
1
100
AcDbSymbolTableRecord
100
AcDbBlockTableRecord
  2
*D36
340
0
  0
BLOCK_RECORD
  5
1DF
330
1
100
AcDbSymbolTableRecord
100
AcDbBlockTableRecord
  2
*D47
340
0
  0
BLOCK_RECORD
  5
1EC
330
1
100
AcDbSymbolTableRecord
100
AcDbBlockTableRecord
  2
*D58
340
0
  0
BLOCK_RECORD
  5
1F9
330
1
100
AcDbSymbolTableRecord
100
AcDbBlockTableRecord
  2
*D69
340
0
  0
BLOCK_RECORD
  5
206
330
1
100
AcDbSymbolTableRecord
100
AcDbBlockTableRecord
  2
*D710
340
0
  0
BLOCK_RECORD
  5
215
330
1
100
AcDbSymbolTableRecord
100
AcDbBlockTableRecord
  2
*D811
340
0
  0
BLOCK_RECORD
  5
224
330
1
100
AcDbSymbolTableRecord
100
AcDbBlockTableRecord
  2
*D912
340
0
  0
BLOCK_RECORD
  5
233
330
1
100
AcDbSymbolTableRecord
100
AcDbBlockTableRecord
  2
*D1013
340
0
  0
BLOCK_RECORD
  5
240
330
1
100
AcDbSymbolTableRecord
100
AcDbBlockTableRecord
  2
*D1114
340
0
  0
BLOCK_RECORD
  5
24E
330
1
100
AcDbSymbolTableRecord
100
AcDbBlockTableRecord
  2
*D1215
340
0
  0
BLOCK_RECORD
  5
25D
330
1
100
AcDbSymbolTableRecord
100
AcDbBlockTableRecord
  2
*D1316
340
0
  0
BLOCK_RECORD
  5
26A
330
1
100
AcDbSymbolTableRecord
100
AcDbBlockTableRecord
  2
*D1417
340
0
102
{BLKREFS
331
272
102
}
  0
ENDTAB
  0
ENDSEC
  0
SECTION
  2
BLOCKS
  0
BLOCK
  5
20
330
1F
100
AcDbEntity
  8
0
100
AcDbBlockBegin
  2
*Model_Space
 70
     0
 71
     0
 10
0.0
 20
0.0
 30
0.0
  3
*Model_Space
  1

  0
ENDBLK
  5
21
330
1F
100
AcDbEntity
  8
0
100
AcDbBlockEnd
  0
BLOCK
  5
1C
330
1B
100
AcDbEntity
 67
     1
  8
0
100
AcDbBlockBegin
  2
*Paper_Space
 70
     0
 71
     0
 10
0.0
 20
0.0
 30
0.0
  3
*Paper_Space
  1

  0
ENDBLK
  5
1D
330
1B
100
AcDbEntity
 67
     1
  8
0
100
AcDbBlockEnd
  0
BLOCK
  5
24
330
23
100
AcDbEntity
  8
0
100
AcDbBlockBegin
  2
*Paper_Space0
 70
     0
 71
     0
 10
0.0
 20
0.0
 30
0.0
  3
*Paper_Space0
  1

  0
ENDBLK
  5
25
330
23
100
AcDbEntity
  8
0
100
AcDbBlockEnd
  0
BLOCK
  5
33
330
32
100
AcDbEntity
  8
0
100
AcDbBlockBegin
  2
Zuwaku-A3-web
 70
     0
 71
     0
 10
196.9999999999998
 20
134.0
 30
0.0
  3
Zuwaku-A3-web
  1

  0
POINT
  5
36
330
32
100
AcDbEntity
  8
1
 62
     3
 60
     1
100
AcDbPoint
 10
0.0
 20
0.0
 30
0.0
  0
POINT
  5
37
330
32
100
AcDbEntity
  8
1
 62
     3
 60
     1
100
AcDbPoint
 10
2.5
 20
12.5
 30
0.0
  0
POINT
  5
38
330
32
100
AcDbEntity
  8
1
 62
     3
 60
     1
100
AcDbPoint
 10
9.5
 20
12.5
 30
0.0
  0
POINT
  5
39
330
32
100
AcDbEntity
  8
1
 62
     3
 60
     1
100
AcDbPoint
 10
162.5
 20
15.0
 30
0.0
  0
POINT
  5
3A
330
32
100
AcDbEntity
  8
1
 62
     3
 60
     1
100
AcDbPoint
 10
202.0
 20
15.0
 30
0.0
  0
POINT
  5
3B
330
32
100
AcDbEntity
  8
1
 62
     3
 60
     1
100
AcDbPoint
 10
162.5
 20
20.0
 30
0.0
  0
LINE
  5
3C
330
32
100
AcDbEntity
  8
1
  6
Continuous
 62
     4
100
AcDbLine
 10
295.0
 20
20.0
 30
0.0
 11
295.0
 21
0.0
 31
0.0
  0
LINE
  5
3D
330
32
100
AcDbEntity
  8
1
  6
Continuous
 62
     4
100
AcDbLine
 10
394.0
 20
20.0
 30
0.0
 11
0.0
 21
20.0
 31
0.0
  0
LINE
  5
3E
330
32
100
AcDbEntity
  8
1
  6
Continuous
 62
     4
100
AcDbLine
 10
173.7445771572093
 20
2.13397584248199
 30
0.0
 11
179.4766254722454
 21
7.866024157518
 31
0.0
  0
LINE
  5
3F
330
32
100
AcDbEntity
  8
1
  6
Continuous
 62
     7
100
AcDbLine
 10
0.0
 20
268.0
 30
0.0
 11
0.0
 21
0.0
 31
0.0
  0
LINE
  5
40
330
32
100
AcDbEntity
  8
1
  6
Continuous
 62
     4
100
AcDbLine
 10
66.0
 20
20.0
 30
0.0
 11
66.0
 21
0.0
 31
0.0
  0
LINE
  5
41
330
32
100
AcDbEntity
  8
1
  6
Continuous
 62
     4
100
AcDbLine
 10
170.5
 20
10.0
 30
0.0
 11
170.5
 21
0.0
 31
0.0
  0
LINE
  5
42
330
32
100
AcDbEntity
  8
1
  6
Continuous
 62
     4
100
AcDbLine
 10
227.0
 20
20.0
 30
0.0
 11
227.0
 21
0.0
 31
0.0
  0
LINE
  5
43
330
32
100
AcDbEntity
  8
1
  6
Continuous
 62
     4
100
AcDbLine
 10
283.0
 20
20.0
 30
0.0
 11
283.0
 21
0.0
 31
0.0
  0
LINE
  5
44
330
32
100
AcDbEntity
  8
1
  6
Continuous
 62
     4
100
AcDbLine
 10
162.5
 20
0.0
 30
0.0
 11
162.5
 21
20.0
 31
0.0
  0
LINE
  5
45
330
32
100
AcDbEntity
  8
1
  6
Continuous
 62
     4
100
AcDbLine
 10
202.0
 20
0.0
 30
0.0
 11
202.0
 21
20.0
 31
0.0
  0
LINE
  5
46
330
32
100
AcDbEntity
  8
1
  6
Continuous
 62
     7
100
AcDbLine
 10
394.0
 20
0.0
 30
0.0
 11
393.9999999999996
 21
268.0
 31
0.0
  0
LINE
  5
47
330
32
100
AcDbEntity
  8
1
  6
Continuous
 62
     7
100
AcDbLine
 10
393.9999999999996
 20
268.0
 30
0.0
 11
0.0
 21
268.0
 31
0.0
  0
LINE
  5
48
330
32
100
AcDbEntity
  8
1
  6
Continuous
 62
     4
100
AcDbLine
 10
0.0
 20
10.0
 30
0.0
 11
394.0
 21
10.0
 31
0.0
  0
LINE
  5
49
330
32
100
AcDbEntity
  8
1
  6
Continuous
 62
     4
100
AcDbLine
 10
12.0
 20
20.0
 30
0.0
 11
12.0
 21
0.0
 31
0.0
  0
LINE
  5
4A
330
32
100
AcDbEntity
  8
1
  6
Continuous
 62
     3
100
AcDbLine
 10
6.0
 20
19.0
 30
0.0
 11
2.5
 21
12.5
 31
0.0
  0
LINE
  5
4B
330
32
100
AcDbEntity
  8
1
  6
Continuous
 62
     3
100
AcDbLine
 10
2.5
 20
12.5
 30
0.0
 11
9.5
 21
12.5
 31
0.0
  0
LINE
  5
4C
330
32
100
AcDbEntity
  8
1
  6
Continuous
 62
     3
100
AcDbLine
 10
9.5
 20
12.5
 30
0.0
 11
6.0
 21
19.0
 31
0.0
  0
LINE
  5
4D
330
32
100
AcDbEntity
  8
1
  6
Continuous
 62
     4
100
AcDbLine
 10
162.5
 20
15.0
 30
0.0
 11
202.0
 21
15.0
 31
0.0
  0
LINE
  5
4E
330
32
100
AcDbEntity
  8
1
  6
Continuous
 62
     7
100
AcDbLine
 10
0.0
 20
0.0
 30
0.0
 11
394.0
 21
0.0
 31
0.0
  0
LINE
  5
4F
330
32
100
AcDbEntity
  8
1
  6
Continuous
 62
     4
100
AcDbLine
 10
189.4945771572093
 20
2.13397584248199
 30
0.0
 11
195.2266254722454
 21
7.866024157518
 31
0.0
  0
MTEXT
  5
51
330
32
100
AcDbEntity
  8
1
 62
     4
100
AcDbMText
 10
393.4565543923691
 20
-0.25615332095569
 30
0.0
 40
2.0
 41
0.0
 71
     3
 72
     1
  1
A3
  7
CONVERTER_1
 73
     1
 44
1.32052821128451
  0
MTEXT
  5
53
330
32
100
AcDbEntity
  8
1
 62
     2
100
AcDbMText
 10
289.0
 20
15.0
 30
0.0
 40
4.0
 41
0.0
 71
     5
 72
     1
  1
図名
  7
CONVERTER_2
 73
     1
 44
1.32052821128451
  0
MTEXT
  5
55
330
32
100
AcDbEntity
  8
1
 62
     2
100
AcDbMText
 10
289.0
 20
7.25
 30
0.0
 40
3.5
 41
0.0
 71
     5
 72
     1
  1
図面
  7
CONVERTER_3
 73
     1
 44
0.78031212484994
  0
MTEXT
  5
56
330
32
100
AcDbEntity
  8
1
 62
     2
100
AcDbMText
 10
182.25
 20
17.5
 30
0.0
 40
3.5
 41
0.0
 71
     5
 72
     1
  1
年　　月　　日
  7
CONVERTER_2
 73
     1
 44
0.78031212484994
  0
MTEXT
  5
57
330
32
100
AcDbEntity
  8
1
 62
     2
100
AcDbMText
 10
166.5
 20
7.25
 30
0.0
 40
3.5
 41
0.0
 71
     5
 72
     1
  1
尺
  7
CONVERTER_3
 73
     1
 44
0.78031212484994
  0
MTEXT
  5
58
330
32
100
AcDbEntity
  8
1
 62
     2
100
AcDbMText
 10
39.0
 20
5.0
 30
0.0
 40
3.5
 41
0.0
 71
     5
 72
     1
  1
改　 訂　 記　 事
  7
CONVERTER_2
 73
     1
 44
1.32052821128451
  0
MTEXT
  5
59
330
32
100
AcDbEntity
  8
1
 62
     2
100
AcDbMText
 10
6.0
 20
7.25
 30
0.0
 40
3.5
 41
0.0
 71
     5
 72
     1
  1
改訂
  7
CONVERTER_2
 73
     1
 44
0.78031212484994
  0
MTEXT
  5
5B
330
32
100
AcDbEntity
  8
1
 62
     7
100
AcDbMText
 10
114.25
 20
5.0
 30
0.0
 40
4.0
 41
0.0
 71
     5
 72
     1
  1
MARUYASU KIKAI CO.,LTD.
  7
CONVERTER_4
 73
     1
 44
1.32052821128451
  0
MTEXT
  5
5C
330
32
100
AcDbEntity
  8
1
 62
     2
100
AcDbMText
 10
189.75
 20
6.5
 30
0.0
 40
4.0
 41
0.0
 71
     5
 72
     1
  1
1
  7
CONVERTER_1
 73
     1
 44
1.32052821128451
  0
MTEXT
  5
5D
330
32
100
AcDbEntity
  8
1
 62
     2
100
AcDbMText
 10
214.5
 20
5.0
 30
0.0
 40
4.0
 41
0.0
 71
     5
 72
     1
  1
機　種
  7
CONVERTER_2
 73
     1
 44
1.32052821128451
  0
MTEXT
  5
5F
330
32
100
AcDbEntity
  8
1
 62
     2
100
AcDbMText
 10
214.5
 20
15.0
 30
0.0
 40
4.0
 41
0.0
 71
     5
 72
     1
  1
シリーズ名
  7
CONVERTER_5
 73
     1
 44
1.32052821128451
  0
MTEXT
  5
60
330
32
100
AcDbEntity
  8
1
 62
     7
100
AcDbMText
 10
114.25
 20
15.0
 30
0.0
 40
5.0
 41
0.0
 71
     5
 72
     1
  1
技術情報サービス
  7
CONVERTER_2
 73
     1
 44
1.20048019207683
  0
MTEXT
  5
61
330
32
100
AcDbEntity
  8
1
 62
     2
100
AcDbMText
 10
5.67807803017169
 20
2.75
 30
0.0
 40
3.5
 41
0.0
 71
     5
 72
     1
  1
番号
  7
CONVERTER_2
 73
     1
 44
0.78031212484994
  0
MTEXT
  5
62
330
32
100
AcDbEntity
  8
1
 62
     2
100
AcDbMText
 10
166.5
 20
2.75
 30
0.0
 40
3.5
 41
0.0
 71
     5
 72
     1
  1
度
  7
CONVERTER_3
 73
     1
 44
0.78031212484994
  0
MTEXT
  5
63
330
32
100
AcDbEntity
  8
1
 62
     2
100
AcDbMText
 10
289.0
 20
2.75
 30
0.0
 40
3.5
 41
0.0
 71
     5
 72
     1
  1
番号
  7
CONVERTER_3
 73
     1
 44
0.78031212484994
  0
MTEXT
  5
64
330
32
100
AcDbEntity
  8
1
 62
     2
100
AcDbMText
 10
173.183432867907
 20
6.25
 30
0.0
 40
4.0
 41
0.0
 71
     5
 72
     1
  1
1
  7
CONVERTER_1
 73
     1
 44
0.60024009603842
  0
MTEXT
  5
65
330
32
100
AcDbEntity
  8
1
 62
     2
100
AcDbMText
 10
180.9766254722454
 20
3.75
 30
0.0
 40
4.0
 41
0.0
 71
     5
 72
     1
  1
2
  7
CONVERTER_1
 73
     1
 44
0.60024009603842
  0
ENDBLK
  5
34
330
32
100
AcDbEntity
  8
0
100
AcDbBlockEnd
  0
BLOCK
  5
1AE
330
1A3
100
AcDbEntity
  8
0
100
AcDbBlockBegin
  2
*D02
 70
     1
 71
     0
 10
0.0
 20
0.0
 30
0.0
  3
*D02
  1

  0
LINE
  5
1A4
330
1A3
100
AcDbEntity
  8
1
  6
Continuous
 62
     2
100
AcDbLine
 10
658.62862254025
 20
186.292519319216
 30
0.0
 11
671.42862254025
 21
186.292519319216
 31
0.0
  0
LINE
  5
1A5
330
1A3
100
AcDbEntity
  8
1
  6
Continuous
 62
     2
100
AcDbLine
 10
642.62862254025
 20
186.292519319216
 30
0.0
 11
658.62862254025
 21
186.292519319216
 31
0.0
  0
LINE
  5
1A6
330
1A3
100
AcDbEntity
  8
1
  6
Continuous
 62
     2
100
AcDbLine
 10
629.8286225402501
 20
186.292519319216
 30
0.0
 11
642.62862254025
 21
186.292519319216
 31
0.0
  0
LINE
  5
1A7
330
1A3
100
AcDbEntity
  8
1
  6
Continuous
 62
     2
100
AcDbLine
 10
642.62862254025
 20
225.83113444639
 30
0.0
 11
642.62862254025
 21
184.292519319216
 31
0.0
  0
LINE
  5
1A8
330
1A3
100
AcDbEntity
  8
1
  6
Continuous
 62
     2
100
AcDbLine
 10
658.62862254025
 20
225.83113444639
 30
0.0
 11
658.62862254025
 21
184.292519319216
 31
0.0
  0
LINE
  5
1A9
330
1A3
100
AcDbEntity
  8
1
 62
     2
100
AcDbLine
 10
642.62862254025
 20
186.292519319216
 30
0.0
 11
636.2286225402501
 21
184.5776444876568
 31
0.0
  0
LINE
  5
1AA
330
1A3
100
AcDbEntity
  8
1
 62
     2
100
AcDbLine
 10
642.62862254025
 20
186.292519319216
 30
0.0
 11
636.2286225402501
 21
188.0073941507752
 31
0.0
  0
LINE
  5
1AB
330
1A3
100
AcDbEntity
  8
1
 62
     2
100
AcDbLine
 10
658.62862254025
 20
186.292519319216
 30
0.0
 11
665.02862254025
 21
188.0073941507752
 31
0.0
  0
LINE
  5
1AC
330
1A3
100
AcDbEntity
  8
1
 62
     2
100
AcDbLine
 10
658.62862254025
 20
186.292519319216
 30
0.0
 11
665.02862254025
 21
184.5776444876568
 31
0.0
  0
MTEXT
  5
1AD
330
1A3
100
AcDbEntity
  8
1
 62
     2
100
AcDbMText
 10
646.4736171501329
 20
188.652519319216
 30
0.0
 40
6.4
 41
0.0
 71
     7
 72
     1
  1
16
  7
CONVERTER_1
 11
0.9999999999970621
 21
2.424068405545307E-6
 31
0.0
 73
     1
 44
0.60024009603842
  0
ENDBLK
  5
1AF
330
1A3
100
AcDbEntity
  8
0
100
AcDbBlockEnd
  0
BLOCK
  5
1B1
330
1B0
100
AcDbEntity
  8
0
100
AcDbBlockBegin
  2
_Open30
 70
     0
 71
     0
 10
0.0
 20
0.0
 30
0.0
  3
_Open30
  1

  0
LINE
  5
1B3
330
1B0
100
AcDbEntity
  8
0
  6
ByBlock
 62
     0
370
    -2
100
AcDbLine
 10
-1.0
 20
0.267949
 30
0.0
 11
0.0
 21
0.0
 31
0.0
  0
LINE
  5
1B4
330
1B0
100
AcDbEntity
  8
0
  6
ByBlock
 62
     0
370
    -2
100
AcDbLine
 10
0.0
 20
0.0
 30
0.0
 11
-1.0
 21
-0.267949
 31
0.0
  0
LINE
  5
1B5
330
1B0
100
AcDbEntity
  8
0
  6
ByBlock
 62
     0
370
    -2
100
AcDbLine
 10
0.0
 20
0.0
 30
0.0
 11
-1.0
 21
0.0
 31
0.0
  0
ENDBLK
  5
1B2
330
1B0
100
AcDbEntity
  8
0
100
AcDbBlockEnd
  0
BLOCK
  5
1C1
330
1B8
100
AcDbEntity
  8
0
100
AcDbBlockBegin
  2
*D14
 70
     1
 71
     0
 10
0.0
 20
0.0
 30
0.0
  3
*D14
  1

  0
LINE
  5
1B9
330
1B8
100
AcDbEntity
  8
1
  6
Continuous
 62
     2
100
AcDbLine
 10
529.828182376355
 20
184.756088535143
 30
0.0
 11
561.828182376355
 21
184.756088535143
 31
0.0
  0
LINE
  5
1BA
330
1B8
100
AcDbEntity
  8
1
  6
Continuous
 62
     2
100
AcDbLine
 10
561.828182376355
 20
227.83113444639
 30
0.0
 11
561.828182376355
 21
182.756088535143
 31
0.0
  0
LINE
  5
1BB
330
1B8
100
AcDbEntity
  8
1
  6
Continuous
 62
     2
100
AcDbLine
 10
529.828182376355
 20
229.83113444639
 30
0.0
 11
529.828182376355
 21
182.756088535143
 31
0.0
  0
LINE
  5
1BC
330
1B8
100
AcDbEntity
  8
1
 62
     2
100
AcDbLine
 10
529.828182376355
 20
184.756088535143
 30
0.0
 11
534.948182376355
 21
186.1279884003904
 31
0.0
  0
LINE
  5
1BD
330
1B8
100
AcDbEntity
  8
1
 62
     2
100
AcDbLine
 10
529.828182376355
 20
184.756088535143
 30
0.0
 11
534.948182376355
 21
183.3841886698957
 31
0.0
  0
LINE
  5
1BE
330
1B8
100
AcDbEntity
  8
1
 62
     2
100
AcDbLine
 10
561.828182376355
 20
184.756088535143
 30
0.0
 11
556.708182376355
 21
183.3841886698957
 31
0.0
  0
LINE
  5
1BF
330
1B8
100
AcDbEntity
  8
1
 62
     2
100
AcDbLine
 10
561.828182376355
 20
184.756088535143
 30
0.0
 11
556.708182376355
 21
186.1279884003904
 31
0.0
  0
MTEXT
  5
1C0
330
1B8
100
AcDbEntity
  8
1
 62
     2
100
AcDbMText
 10
540.315435150355
 20
186.756088535143
 30
0.0
 40
6.4
 41
0.0
 71
     7
 72
     1
  1
32
  7
CONVERTER_1
 11
0.9999999999970621
 21
2.424068405545307E-6
 31
0.0
 73
     1
 44
0.60024009603842
  0
ENDBLK
  5
1C2
330
1B8
100
AcDbEntity
  8
0
100
AcDbBlockEnd
  0
BLOCK
  5
1CE
330
1C5
100
AcDbEntity
  8
0
100
AcDbBlockBegin
  2
*D25
 70
     1
 71
     0
 10
0.0
 20
0.0
 30
0.0
  3
*D25
  1

  0
LINE
  5
1C6
330
1C5
100
AcDbEntity
  8
1
  6
Continuous
 62
     2
100
AcDbLine
 10
113.7842491163612
 20
204.83113444639
 30
0.0
 11
113.7842491163612
 21
274.83113444639
 31
0.0
  0
LINE
  5
1C7
330
1C5
100
AcDbEntity
  8
1
  6
Continuous
 62
     2
100
AcDbLine
 10
195.6115707356411
 20
274.83113444639
 30
0.0
 11
111.7842491163612
 21
274.83113444639
 31
0.0
  0
LINE
  5
1C8
330
1C5
100
AcDbEntity
  8
1
  6
Continuous
 62
     2
100
AcDbLine
 10
194.6115707356411
 20
204.83113444639
 30
0.0
 11
111.7842491163612
 21
204.83113444639
 31
0.0
  0
LINE
  5
1C9
330
1C5
100
AcDbEntity
  8
1
 62
     2
100
AcDbLine
 10
113.7842491163612
 20
274.83113444639
 30
0.0
 11
115.1561489816086
 21
269.71113444639
 31
0.0
  0
LINE
  5
1CA
330
1C5
100
AcDbEntity
  8
1
 62
     2
100
AcDbLine
 10
113.7842491163612
 20
274.83113444639
 30
0.0
 11
112.4123492511139
 21
269.71113444639
 31
0.0
  0
LINE
  5
1CB
330
1C5
100
AcDbEntity
  8
1
 62
     2
100
AcDbLine
 10
113.7842491163612
 20
204.83113444639
 30
0.0
 11
112.4123492511139
 21
209.95113444639
 31
0.0
  0
LINE
  5
1CC
330
1C5
100
AcDbEntity
  8
1
 62
     2
100
AcDbLine
 10
113.7842491163612
 20
204.83113444639
 30
0.0
 11
115.1561489816086
 21
209.95113444639
 31
0.0
  0
MTEXT
  5
1CD
330
1C5
100
AcDbEntity
  8
1
 62
     2
100
AcDbMText
 10
111.7842491163612
 20
239.266690811711
 30
0.0
 40
6.4
 41
0.0
 71
     7
 72
     1
  1
70
  7
CONVERTER_1
 11
0.0
 21
1.0
 31
0.0
 73
     1
 44
0.60024009603842
  0
ENDBLK
  5
1CF
330
1C5
100
AcDbEntity
  8
0
100
AcDbBlockEnd
  0
BLOCK
  5
1DB
330
1D2
100
AcDbEntity
  8
0
100
AcDbBlockBegin
  2
*D36
 70
     1
 71
     0
 10
0.0
 20
0.0
 30
0.0
  3
*D36
  1

  0
LINE
  5
1D3
330
1D2
100
AcDbEntity
  8
1
  6
Continuous
 62
     2
100
AcDbLine
 10
135.989555612244
 20
244.83113444639
 30
0.0
 11
135.989555612244
 21
274.83113444639
 31
0.0
  0
LINE
  5
1D4
330
1D2
100
AcDbEntity
  8
1
  6
Continuous
 62
     2
100
AcDbLine
 10
195.611570735641
 20
274.83113444639
 30
0.0
 11
133.989555612244
 21
274.83113444639
 31
0.0
  0
LINE
  5
1D5
330
1D2
100
AcDbEntity
  8
1
  6
Continuous
 62
     2
100
AcDbLine
 10
164.4649609515199
 20
244.83113444639
 30
0.0
 11
133.989555612244
 21
244.83113444639
 31
0.0
  0
LINE
  5
1D6
330
1D2
100
AcDbEntity
  8
1
 62
     2
100
AcDbLine
 10
135.989555612244
 20
274.83113444639
 30
0.0
 11
137.3614554774913
 21
269.71113444639
 31
0.0
  0
LINE
  5
1D7
330
1D2
100
AcDbEntity
  8
1
 62
     2
100
AcDbLine
 10
135.989555612244
 20
274.83113444639
 30
0.0
 11
134.6176557469966
 21
269.71113444639
 31
0.0
  0
LINE
  5
1D8
330
1D2
100
AcDbEntity
  8
1
 62
     2
100
AcDbLine
 10
135.989555612244
 20
244.83113444639
 30
0.0
 11
134.6176557469966
 21
249.95113444639
 31
0.0
  0
LINE
  5
1D9
330
1D2
100
AcDbEntity
  8
1
 62
     2
100
AcDbLine
 10
135.989555612244
 20
244.83113444639
 30
0.0
 11
137.3614554774913
 21
249.95113444639
 31
0.0
  0
MTEXT
  5
1DA
330
1D2
100
AcDbEntity
  8
1
 62
     2
100
AcDbMText
 10
133.989555612244
 20
255.127624023056
 30
0.0
 40
6.4
 41
0.0
 71
     7
 72
     1
  1
30
  7
CONVERTER_1
 11
0.0
 21
1.0
 31
0.0
 73
     1
 44
0.60024009603842
  0
ENDBLK
  5
1DC
330
1D2
100
AcDbEntity
  8
0
100
AcDbBlockEnd
  0
BLOCK
  5
1E8
330
1DF
100
AcDbEntity
  8
0
100
AcDbBlockBegin
  2
*D47
 70
     1
 71
     0
 10
0.0
 20
0.0
 30
0.0
  3
*D47
  1

  0
LINE
  5
1E0
330
1DF
100
AcDbEntity
  8
1
  6
Continuous
 62
     2
100
AcDbLine
 10
152.6435354841562
 20
235.83113444639
 30
0.0
 11
152.6435354841562
 21
253.83113444639
 31
0.0
  0
LINE
  5
1E1
330
1DF
100
AcDbEntity
  8
1
  6
Continuous
 62
     2
100
AcDbLine
 10
167.0116652522887
 20
235.83113444639
 30
0.0
 11
150.6435354841562
 21
235.83113444639
 31
0.0
  0
LINE
  5
1E2
330
1DF
100
AcDbEntity
  8
1
  6
Continuous
 62
     2
100
AcDbLine
 10
168.6115707356411
 20
253.83113444639
 30
0.0
 11
150.6435354841562
 21
253.83113444639
 31
0.0
  0
LINE
  5
1E3
330
1DF
100
AcDbEntity
  8
1
 62
     2
100
AcDbLine
 10
152.6435354841562
 20
253.83113444639
 30
0.0
 11
154.0154353494036
 21
248.71113444639
 31
0.0
  0
LINE
  5
1E4
330
1DF
100
AcDbEntity
  8
1
 62
     2
100
AcDbLine
 10
152.6435354841562
 20
253.83113444639
 30
0.0
 11
151.2716356189089
 21
248.71113444639
 31
0.0
  0
LINE
  5
1E5
330
1DF
100
AcDbEntity
  8
1
 62
     2
100
AcDbLine
 10
152.6435354841562
 20
235.83113444639
 30
0.0
 11
151.2716356189089
 21
240.95113444639
 31
0.0
  0
LINE
  5
1E6
330
1DF
100
AcDbEntity
  8
1
 62
     2
100
AcDbLine
 10
152.6435354841562
 20
235.83113444639
 30
0.0
 11
154.0154353494036
 21
240.95113444639
 31
0.0
  0
MTEXT
  5
1E7
330
1DF
100
AcDbEntity
  8
1
 62
     2
100
AcDbMText
 10
148.655486227214
 20
246.974731991042
 30
0.0
 40
6.4
 41
0.0
 71
     7
 72
     1
  1
18
  7
CONVERTER_1
 11
0.0
 21
1.0
 31
0.0
 73
     1
 44
0.60024009603842
  0
ENDBLK
  5
1E9
330
1DF
100
AcDbEntity
  8
0
100
AcDbBlockEnd
  0
BLOCK
  5
1F5
330
1EC
100
AcDbEntity
  8
0
100
AcDbBlockBegin
  2
*D58
 70
     1
 71
     0
 10
0.0
 20
0.0
 30
0.0
  3
*D58
  1

  0
LINE
  5
1ED
330
1EC
100
AcDbEntity
  8
1
  6
Continuous
 62
     2
100
AcDbLine
 10
175.611570735641
 20
152.36716679054
 30
0.0
 11
194.611570735641
 21
152.36716679054
 31
0.0
  0
LINE
  5
1EE
330
1EC
100
AcDbEntity
  8
1
  6
Continuous
 62
     2
100
AcDbLine
 10
194.611570735641
 20
202.83113444639
 30
0.0
 11
194.611570735641
 21
150.36716679054
 31
0.0
  0
LINE
  5
1EF
330
1EC
100
AcDbEntity
  8
1
  6
Continuous
 62
     2
100
AcDbLine
 10
175.611570735641
 20
227.83113444639
 30
0.0
 11
175.611570735641
 21
150.36716679054
 31
0.0
  0
LINE
  5
1F0
330
1EC
100
AcDbEntity
  8
1
 62
     2
100
AcDbLine
 10
175.611570735641
 20
152.36716679054
 30
0.0
 11
180.731570735641
 21
153.7390666557873
 31
0.0
  0
LINE
  5
1F1
330
1EC
100
AcDbEntity
  8
1
 62
     2
100
AcDbLine
 10
175.611570735641
 20
152.36716679054
 30
0.0
 11
180.731570735641
 21
150.9952669252926
 31
0.0
  0
LINE
  5
1F2
330
1EC
100
AcDbEntity
  8
1
 62
     2
100
AcDbLine
 10
194.611570735641
 20
152.36716679054
 30
0.0
 11
189.491570735641
 21
150.9952669252926
 31
0.0
  0
LINE
  5
1F3
330
1EC
100
AcDbEntity
  8
1
 62
     2
100
AcDbLine
 10
194.611570735641
 20
152.36716679054
 30
0.0
 11
189.491570735641
 21
153.7390666557873
 31
0.0
  0
MTEXT
  5
1F4
330
1EC
100
AcDbEntity
  8
1
 62
     2
100
AcDbMText
 10
182.1114952279805
 20
155.32716679054
 30
0.0
 40
6.4
 41
0.0
 71
     7
 72
     1
  1
19
  7
CONVERTER_1
 11
0.9999999999970621
 21
2.424068405545307E-6
 31
0.0
 73
     1
 44
0.60024009603842
  0
ENDBLK
  5
1F6
330
1EC
100
AcDbEntity
  8
0
100
AcDbBlockEnd
  0
BLOCK
  5
202
330
1F9
100
AcDbEntity
  8
0
100
AcDbBlockBegin
  2
*D69
 70
     1
 71
     0
 10
0.0
 20
0.0
 30
0.0
  3
*D69
  1

  0
LINE
  5
1FA
330
1F9
100
AcDbEntity
  8
1
  6
Continuous
 62
     2
100
AcDbLine
 10
394.6115707356401
 20
152.36716679054
 30
0.0
 11
421.6115707356401
 21
152.36716679054
 31
0.0
  0
LINE
  5
1FB
330
1F9
100
AcDbEntity
  8
1
  6
Continuous
 62
     2
100
AcDbLine
 10
421.6115707356401
 20
195.9343435801775
 30
0.0
 11
421.6115707356401
 21
150.36716679054
 31
0.0
  0
LINE
  5
1FC
330
1F9
100
AcDbEntity
  8
1
  6
Continuous
 62
     2
100
AcDbLine
 10
394.6115707356401
 20
202.83113444639
 30
0.0
 11
394.6115707356401
 21
150.36716679054
 31
0.0
  0
LINE
  5
1FD
330
1F9
100
AcDbEntity
  8
1
 62
     2
100
AcDbLine
 10
394.6115707356401
 20
152.36716679054
 30
0.0
 11
399.7315707356401
 21
153.7390666557874
 31
0.0
  0
LINE
  5
1FE
330
1F9
100
AcDbEntity
  8
1
 62
     2
100
AcDbLine
 10
394.6115707356401
 20
152.36716679054
 30
0.0
 11
399.7315707356401
 21
150.9952669252927
 31
0.0
  0
LINE
  5
1FF
330
1F9
100
AcDbEntity
  8
1
 62
     2
100
AcDbLine
 10
421.6115707356401
 20
152.36716679054
 30
0.0
 11
416.4915707356401
 21
150.9952669252927
 31
0.0
  0
LINE
  5
200
330
1F9
100
AcDbEntity
  8
1
 62
     2
100
AcDbLine
 10
421.6115707356401
 20
152.36716679054
 30
0.0
 11
416.4915707356401
 21
153.7390666557874
 31
0.0
  0
MTEXT
  5
201
330
1F9
100
AcDbEntity
  8
1
 62
     2
100
AcDbMText
 10
403.2177854202769
 20
154.36716679054
 30
0.0
 40
6.4
 41
0.0
 71
     7
 72
     1
  1
27
  7
CONVERTER_1
 11
0.9999999999970621
 21
2.424068405545307E-6
 31
0.0
 73
     1
 44
0.60024009603842
  0
ENDBLK
  5
203
330
1F9
100
AcDbEntity
  8
0
100
AcDbBlockEnd
  0
BLOCK
  5
211
330
206
100
AcDbEntity
  8
0
100
AcDbBlockBegin
  2
*D710
 70
     1
 71
     0
 10
0.0
 20
0.0
 30
0.0
  3
*D710
  1

  0
LINE
  5
207
330
206
100
AcDbEntity
  8
1
  6
Continuous
 62
     2
100
AcDbLine
 10
425.6115707356406
 20
184.756088535143
 30
0.0
 11
490.499299848704
 21
184.756088535143
 31
0.0
  0
LINE
  5
208
330
206
100
AcDbEntity
  8
1
  6
Continuous
 62
     2
100
AcDbLine
 10
417.6115707356402
 20
184.756088535143
 30
0.0
 11
425.6115707356406
 21
184.756088535143
 31
0.0
  0
LINE
  5
209
330
206
100
AcDbEntity
  8
1
  6
Continuous
 62
     2
100
AcDbLine
 10
407.3715707356402
 20
184.756088535143
 30
0.0
 11
417.6115707356402
 21
184.756088535143
 31
0.0
  0
LINE
  5
20A
330
206
100
AcDbEntity
  8
1
  6
Continuous
 62
     2
100
AcDbLine
 10
425.6115707356406
 20
200.83113444639
 30
0.0
 11
425.6115707356406
 21
182.756088535143
 31
0.0
  0
LINE
  5
20B
330
206
100
AcDbEntity
  8
1
  6
Continuous
 62
     2
100
AcDbLine
 10
417.6115707356402
 20
200.83113444639
 30
0.0
 11
417.6115707356402
 21
182.756088535143
 31
0.0
  0
LINE
  5
20C
330
206
100
AcDbEntity
  8
1
 62
     2
100
AcDbLine
 10
417.6115707356402
 20
184.756088535143
 30
0.0
 11
412.4915707356402
 21
183.3841886698957
 31
0.0
  0
LINE
  5
20D
330
206
100
AcDbEntity
  8
1
 62
     2
100
AcDbLine
 10
417.6115707356402
 20
184.756088535143
 30
0.0
 11
412.4915707356402
 21
186.1279884003904
 31
0.0
  0
LINE
  5
20E
330
206
100
AcDbEntity
  8
1
 62
     2
100
AcDbLine
 10
425.6115707356406
 20
184.756088535143
 30
0.0
 11
430.7315707356406
 21
186.1279884003904
 31
0.0
  0
LINE
  5
20F
330
206
100
AcDbEntity
  8
1
 62
     2
100
AcDbLine
 10
425.6115707356406
 20
184.756088535143
 30
0.0
 11
430.7315707356406
 21
183.3841886698957
 31
0.0
  0
MTEXT
  5
210
330
206
100
AcDbEntity
  8
1
 62
     2
100
AcDbMText
 10
433.2832998487348
 20
186.756063092121
 30
0.0
 40
6.4
 41
0.0
 71
     7
 72
     1
  1
\C2;{\Fgdt;n}\C2;8\C2; SUS303
  7
CONVERTER_1
 11
0.9999999999970621
 21
2.424068405545307E-6
 31
0.0
 73
     1
 44
0.60024009603842
  0
ENDBLK
  5
212
330
206
100
AcDbEntity
  8
0
100
AcDbBlockEnd
  0
BLOCK
  5
220
330
215
100
AcDbEntity
  8
0
100
AcDbBlockBegin
  2
*D811
 70
     1
 71
     0
 10
0.0
 20
0.0
 30
0.0
  3
*D811
  1

  0
LINE
  5
216
330
215
100
AcDbEntity
  8
1
  6
Continuous
 62
     2
100
AcDbLine
 10
357.44275286256
 20
274.83113444639
 30
0.0
 11
357.44275286256
 21
303.7704742746102
 31
0.0
  0
LINE
  5
217
330
215
100
AcDbEntity
  8
1
  6
Continuous
 62
     2
100
AcDbLine
 10
357.44275286256
 20
303.7704742746102
 30
0.0
 11
357.44275286256
 21
327.5140036863749
 31
0.0
  0
LINE
  5
218
330
215
100
AcDbEntity
  8
1
  6
Continuous
 62
     2
100
AcDbLine
 10
365.7240470410292
 20
303.7704742746102
 30
0.0
 11
355.44275286256
 21
303.7704742746102
 31
0.0
  0
LINE
  5
219
330
215
100
AcDbEntity
  8
1
  6
Continuous
 62
     2
100
AcDbLine
 10
377.6115707356402
 20
274.83113444639
 30
0.0
 11
355.44275286256
 21
274.83113444639
 31
0.0
  0
LINE
  5
21A
330
215
100
AcDbEntity
  8
1
 62
     2
100
AcDbLine
 10
357.44275286256
 20
274.83113444639
 30
0.0
 11
356.0708529973127
 21
279.95113444639
 31
0.0
  0
LINE
  5
21B
330
215
100
AcDbEntity
  8
1
 62
     2
100
AcDbLine
 10
357.44275286256
 20
274.83113444639
 30
0.0
 11
358.8146527278074
 21
279.95113444639
 31
0.0
  0
LINE
  5
21C
330
215
100
AcDbEntity
  8
1
 62
     2
100
AcDbLine
 10
357.44275286256
 20
303.7704742746102
 30
0.0
 11
358.8146527278074
 21
298.6504742746102
 31
0.0
  0
LINE
  5
21D
330
215
100
AcDbEntity
  8
1
 62
     2
100
AcDbLine
 10
357.44275286256
 20
303.7704742746102
 30
0.0
 11
356.0708529973127
 21
298.6504742746102
 31
0.0
  0
MTEXT
  5
21F
330
215
100
AcDbEntity
  8
1
 62
     4
100
AcDbMText
 10
355.44275286256
 20
306.0269448628455
 30
0.0
 40
6.4
 41
0.0
 71
     7
 72
     1
  1
22～55
  7
CONVERTER_7
 11
0.0
 21
1.0
 31
0.0
 73
     1
 44
0.60024009603842
  0
ENDBLK
  5
221
330
215
100
AcDbEntity
  8
0
100
AcDbBlockEnd
  0
BLOCK
  5
22F
330
224
100
AcDbEntity
  8
0
100
AcDbBlockBegin
  2
*D912
 70
     1
 71
     0
 10
0.0
 20
0.0
 30
0.0
  3
*D912
  1

  0
LINE
  5
225
330
224
100
AcDbEntity
  8
1
  6
Continuous
 62
     2
100
AcDbLine
 10
213.5615707356431
 20
384.135878022709
 30
0.0
 11
198.4338733838123
 21
384.135878022709
 31
0.0
  0
LINE
  5
226
330
224
100
AcDbEntity
  8
1
  6
Continuous
 62
     2
100
AcDbLine
 10
213.5615707356431
 20
384.135878022709
 30
0.0
 11
221.5615707356431
 21
384.135878022709
 31
0.0
  0
LINE
  5
227
330
224
100
AcDbEntity
  8
1
  6
Continuous
 62
     2
100
AcDbLine
 10
231.8015707356431
 20
384.135878022709
 30
0.0
 11
221.5615707356431
 21
384.135878022709
 31
0.0
  0
LINE
  5
228
330
224
100
AcDbEntity
  8
1
  6
Continuous
 62
     2
100
AcDbLine
 10
221.5615707356431
 20
314.7704742746102
 30
0.0
 11
221.5615707356431
 21
386.135878022709
 31
0.0
  0
LINE
  5
229
330
224
100
AcDbEntity
  8
1
  6
Continuous
 62
     2
100
AcDbLine
 10
213.5615707356431
 20
314.7704742746102
 30
0.0
 11
213.5615707356431
 21
386.135878022709
 31
0.0
  0
LINE
  5
22A
330
224
100
AcDbEntity
  8
1
 62
     2
100
AcDbLine
 10
213.5615707356431
 20
384.135878022709
 30
0.0
 11
208.4415707356431
 21
382.7639781574616
 31
0.0
  0
LINE
  5
22B
330
224
100
AcDbEntity
  8
1
 62
     2
100
AcDbLine
 10
213.5615707356431
 20
384.135878022709
 30
0.0
 11
208.4415707356431
 21
385.5077778879564
 31
0.0
  0
LINE
  5
22C
330
224
100
AcDbEntity
  8
1
 62
     2
100
AcDbLine
 10
221.5615707356431
 20
384.135878022709
 30
0.0
 11
226.6815707356431
 21
385.5077778879564
 31
0.0
  0
LINE
  5
22D
330
224
100
AcDbEntity
  8
1
 62
     2
100
AcDbLine
 10
221.5615707356431
 20
384.135878022709
 30
0.0
 11
226.6815707356431
 21
382.7639781574616
 31
0.0
  0
MTEXT
  5
22E
330
224
100
AcDbEntity
  8
1
 62
     2
100
AcDbMText
 10
198.4338733838123
 20
386.135878022709
 30
0.0
 40
6.4
 41
0.0
 71
     7
 72
     1
  1
8
  7
CONVERTER_1
 11
0.9999999999970621
 21
2.424068405545307E-6
 31
0.0
 73
     1
 44
0.60024009603842
  0
ENDBLK
  5
230
330
224
100
AcDbEntity
  8
0
100
AcDbBlockEnd
  0
BLOCK
  5
23C
330
233
100
AcDbEntity
  8
0
100
AcDbBlockBegin
  2
*D1013
 70
     1
 71
     0
 10
0.0
 20
0.0
 30
0.0
  3
*D1013
  1

  0
LINE
  5
234
330
233
100
AcDbEntity
  8
1
  6
Continuous
 62
     2
100
AcDbLine
 10
221.5615707356433
 20
384.135878022709
 30
0.0
 11
367.6615707356399
 21
384.135878022709
 31
0.0
  0
LINE
  5
235
330
233
100
AcDbEntity
  8
1
  6
Continuous
 62
     2
100
AcDbLine
 10
367.6615707356399
 20
314.7704742746102
 30
0.0
 11
367.6615707356399
 21
386.135878022709
 31
0.0
  0
LINE
  5
236
330
233
100
AcDbEntity
  8
1
  6
Continuous
 62
     2
100
AcDbLine
 10
221.5615707356433
 20
314.7704742746102
 30
0.0
 11
221.5615707356433
 21
386.135878022709
 31
0.0
  0
LINE
  5
237
330
233
100
AcDbEntity
  8
1
 62
     2
100
AcDbLine
 10
221.5615707356433
 20
384.135878022709
 30
0.0
 11
226.6815707356433
 21
385.5077778879564
 31
0.0
  0
LINE
  5
238
330
233
100
AcDbEntity
  8
1
 62
     2
100
AcDbLine
 10
221.5615707356433
 20
384.135878022709
 30
0.0
 11
226.6815707356433
 21
382.7639781574616
 31
0.0
  0
LINE
  5
239
330
233
100
AcDbEntity
  8
1
 62
     2
100
AcDbLine
 10
367.6615707356399
 20
384.135878022709
 30
0.0
 11
362.5415707356399
 21
382.7639781574616
 31
0.0
  0
LINE
  5
23A
330
233
100
AcDbEntity
  8
1
 62
     2
100
AcDbLine
 10
367.6615707356399
 20
384.135878022709
 30
0.0
 11
362.5415707356399
 21
385.5077778879564
 31
0.0
  0
MTEXT
  5
23B
330
233
100
AcDbEntity
  8
1
 62
     4
100
AcDbMText
 10
249.9699557909596
 20
386.135878022709
 30
0.0
 40
6.4
 41
0.0
 71
     7
 72
     1
  1
ベルト幅 BW (BW-4～BW+80)
  7
CONVERTER_7
 11
0.9999999999970621
 21
2.424068405545307E-6
 31
0.0
 73
     1
 44
0.60024009603842
  0
ENDBLK
  5
23D
330
233
100
AcDbEntity
  8
0
100
AcDbBlockEnd
  0
BLOCK
  5
24A
330
240
100
AcDbEntity
  8
0
100
AcDbBlockBegin
  2
*D1114
 70
     1
 71
     0
 10
0.0
 20
0.0
 30
0.0
  3
*D1114
  1

  0
LINE
  5
241
330
240
100
AcDbEntity
  8
1
  6
Continuous
 62
     2
100
AcDbLine
 10
334.680170334927
 20
290.7704742746102
 30
0.0
 11
334.680170334927
 21
316.7704742746102
 31
0.0
  0
LINE
  5
242
330
240
100
AcDbEntity
  8
1
  6
Continuous
 62
     2
100
AcDbLine
 10
369.6615707356398
 20
316.7704742746102
 30
0.0
 11
359.819729561849
 21
316.7704742746102
 31
0.0
  0
LINE
  5
243
330
240
100
AcDbEntity
  8
1
  6
Continuous
 62
     2
100
AcDbLine
 10
347.6146048400601
 20
316.7704742746102
 30
0.0
 11
332.680170334927
 21
316.7704742746102
 31
0.0
  0
LINE
  5
244
330
240
100
AcDbEntity
  8
1
  6
Continuous
 62
     2
100
AcDbLine
 10
369.6615707356398
 20
290.7704742746102
 30
0.0
 11
332.680170334927
 21
290.7704742746102
 31
0.0
  0
LINE
  5
245
330
240
100
AcDbEntity
  8
1
 62
     2
100
AcDbLine
 10
334.680170334927
 20
316.7704742746102
 30
0.0
 11
336.0520702001744
 21
311.6504742746102
 31
0.0
  0
LINE
  5
246
330
240
100
AcDbEntity
  8
1
 62
     2
100
AcDbLine
 10
334.680170334927
 20
316.7704742746102
 30
0.0
 11
333.3082704696797
 21
311.6504742746102
 31
0.0
  0
LINE
  5
247
330
240
100
AcDbEntity
  8
1
 62
     2
100
AcDbLine
 10
334.680170334927
 20
290.7704742746102
 30
0.0
 11
333.3082704696797
 21
295.8904742746102
 31
0.0
  0
LINE
  5
248
330
240
100
AcDbEntity
  8
1
 62
     2
100
AcDbLine
 10
334.680170334927
 20
290.7704742746102
 30
0.0
 11
336.0520702001744
 21
295.8904742746102
 31
0.0
  0
MTEXT
  5
249
330
240
100
AcDbEntity
  8
1
 62
     2
100
AcDbMText
 10
331.7201703349271
 20
298.343308600589
 30
0.0
 40
6.4
 41
0.0
 71
     7
 72
     1
  1
26
  7
CONVERTER_1
 11
0.0
 21
1.0
 31
0.0
 73
     1
 44
0.60024009603842
  0
ENDBLK
  5
24B
330
240
100
AcDbEntity
  8
0
100
AcDbBlockEnd
  0
BLOCK
  5
259
330
24E
100
AcDbEntity
  8
0
100
AcDbBlockBegin
  2
*D1215
 70
     1
 71
     0
 10
0.0
 20
0.0
 30
0.0
  3
*D1215
  1

  0
LINE
  5
24F
330
24E
100
AcDbEntity
  8
1
  6
Continuous
 62
     2
100
AcDbLine
 10
375.6615707356398
 20
384.135878022709
 30
0.0
 11
439.79745127094
 21
384.135878022709
 31
0.0
  0
LINE
  5
250
330
24E
100
AcDbEntity
  8
1
  6
Continuous
 62
     2
100
AcDbLine
 10
367.6615707356398
 20
384.135878022709
 30
0.0
 11
375.6615707356398
 21
384.135878022709
 31
0.0
  0
LINE
  5
251
330
24E
100
AcDbEntity
  8
1
  6
Continuous
 62
     2
100
AcDbLine
 10
357.4215707356398
 20
384.135878022709
 30
0.0
 11
367.6615707356398
 21
384.135878022709
 31
0.0
  0
LINE
  5
252
330
24E
100
AcDbEntity
  8
1
  6
Continuous
 62
     2
100
AcDbLine
 10
375.6615707356398
 20
314.7704742746102
 30
0.0
 11
375.6615707356398
 21
386.135878022709
 31
0.0
  0
LINE
  5
253
330
24E
100
AcDbEntity
  8
1
  6
Continuous
 62
     2
100
AcDbLine
 10
367.6615707356398
 20
314.7704742746102
 30
0.0
 11
367.6615707356398
 21
386.135878022709
 31
0.0
  0
LINE
  5
254
330
24E
100
AcDbEntity
  8
1
 62
     2
100
AcDbLine
 10
375.6615707356398
 20
384.135878022709
 30
0.0
 11
380.7815707356398
 21
385.5077778879564
 31
0.0
  0
LINE
  5
255
330
24E
100
AcDbEntity
  8
1
 62
     2
100
AcDbLine
 10
375.6615707356398
 20
384.135878022709
 30
0.0
 11
380.7815707356398
 21
382.7639781574616
 31
0.0
  0
LINE
  5
256
330
24E
100
AcDbEntity
  8
1
 62
     2
100
AcDbLine
 10
367.6615707356398
 20
384.135878022709
 30
0.0
 11
362.5415707356398
 21
382.7639781574616
 31
0.0
  0
LINE
  5
257
330
24E
100
AcDbEntity
  8
1
 62
     2
100
AcDbLine
 10
367.6615707356398
 20
384.135878022709
 30
0.0
 11
362.5415707356398
 21
385.5077778879564
 31
0.0
  0
MTEXT
  5
258
330
24E
100
AcDbEntity
  8
1
 62
     2
100
AcDbMText
 10
382.5814512709708
 20
386.135852579687
 30
0.0
 40
6.4
 41
0.0
 71
     7
 72
     1
  1
\C2;{\Fgdt;n}\C2;8\C2; SUS303
  7
CONVERTER_1
 11
0.9999999999970621
 21
2.424068405545307E-6
 31
0.0
 73
     1
 44
0.60024009603842
  0
ENDBLK
  5
25A
330
24E
100
AcDbEntity
  8
0
100
AcDbBlockEnd
  0
BLOCK
  5
266
330
25D
100
AcDbEntity
  8
0
100
AcDbBlockBegin
  2
*D1316
 70
     1
 71
     0
 10
0.0
 20
0.0
 30
0.0
  3
*D1316
  1

  0
LINE
  5
25E
330
25D
100
AcDbEntity
  8
1
  6
Continuous
 62
     2
100
AcDbLine
 10
194.6115707356411
 20
152.36716679054
 30
0.0
 11
394.6115707356402
 21
152.36716679054
 31
0.0
  0
LINE
  5
25F
330
25D
100
AcDbEntity
  8
1
  6
Continuous
 62
     2
100
AcDbLine
 10
394.6115707356402
 20
202.83113444639
 30
0.0
 11
394.6115707356402
 21
150.36716679054
 31
0.0
  0
LINE
  5
260
330
25D
100
AcDbEntity
  8
1
  6
Continuous
 62
     2
100
AcDbLine
 10
194.6115707356411
 20
202.83113444639
 30
0.0
 11
194.6115707356411
 21
150.36716679054
 31
0.0
  0
LINE
  5
261
330
25D
100
AcDbEntity
  8
1
 62
     2
100
AcDbLine
 10
194.6115707356411
 20
152.36716679054
 30
0.0
 11
199.7315707356411
 21
153.7390666557874
 31
0.0
  0
LINE
  5
262
330
25D
100
AcDbEntity
  8
1
 62
     2
100
AcDbLine
 10
194.6115707356411
 20
152.36716679054
 30
0.0
 11
199.7315707356411
 21
150.9952669252927
 31
0.0
  0
LINE
  5
263
330
25D
100
AcDbEntity
  8
1
 62
     2
100
AcDbLine
 10
394.6115707356402
 20
152.36716679054
 30
0.0
 11
389.4915707356402
 21
150.9952669252927
 31
0.0
  0
LINE
  5
264
330
25D
100
AcDbEntity
  8
1
 62
     2
100
AcDbLine
 10
394.6115707356402
 20
152.36716679054
 30
0.0
 11
389.4915707356402
 21
153.7390666557874
 31
0.0
  0
MTEXT
  5
265
330
25D
100
AcDbEntity
  8
1
 62
     2
100
AcDbMText
 10
279.8513358715078
 20
154.36716679054
 30
0.0
 40
6.4
 41
0.0
 71
     7
 72
     1
  1
BW+50
  7
CONVERTER_1
 11
0.9999999999970621
 21
2.424068405545307E-6
 31
0.0
 73
     1
 44
0.60024009603842
  0
ENDBLK
  5
267
330
25D
100
AcDbEntity
  8
0
100
AcDbBlockEnd
  0
BLOCK
  5
270
330
26A
100
AcDbEntity
  8
0
100
AcDbBlockBegin
  2
*D1417
 70
     1
 71
     0
 10
0.0
 20
0.0
 30
0.0
  3
*D1417
  1

  0
LINE
  5
26B
330
26A
100
AcDbEntity
  8
1
  6
Continuous
 62
     2
100
AcDbLine
 10
173.1301027269325
 20
256.9683810930147
 30
0.0
 11
143.6467966281019
 21
294.243253412689
 31
0.0
  0
LINE
  5
26C
330
26A
100
AcDbEntity
  8
1
  6
Continuous
 62
     2
100
AcDbLine
 10
143.6467966281019
 20
294.243253412689
 30
0.0
 11
78.84679662810189
 21
294.243253412689
 31
0.0
  0
LINE
  5
26D
330
26A
100
AcDbEntity
  8
1
 62
     2
100
AcDbLine
 10
173.1301027269325
 20
256.9683810930147
 30
0.0
 11
167.8147575843267
 21
260.9241239692507
 31
0.0
  0
LINE
  5
26E
330
26A
100
AcDbEntity
  8
1
 62
     2
100
AcDbLine
 10
173.1301027269325
 20
256.9683810930147
 30
0.0
 11
170.5047502416717
 21
263.0518274859774
 31
0.0
  0
MTEXT
  5
26F
330
26A
100
AcDbEntity
  8
1
 62
     2
100
AcDbMText
 10
76.03079662813275
 20
295.6432279696671
 30
0.0
 40
6.4
 41
0.0
 71
     7
 72
     1
  1
\C2;{\Fgdt;n}\C2;8\C2; SUS303
  7
CONVERTER_1
 11
0.9999999999970621
 21
2.424068405545307E-6
 31
0.0
 73
     1
 44
0.60024009603842
  0
ENDBLK
  5
271
330
26A
100
AcDbEntity
  8
0
100
AcDbBlockEnd
  0
ENDSEC
  0
SECTION
  2
ENTITIES
  0
INSERT
  5
35
330
1F
100
AcDbEntity
  8
0
100
AcDbBlockReference
  2
Zuwaku-A3-web
 10
393.9999999999996
 20
268.0
 30
0.0
 41
2.0
 42
2.0
 43
2.0
  0
LINE
  5
66
330
1F
100
AcDbEntity
  8
1
  6
Continuous
 62
     3
100
AcDbLine
 10
541.8281823763549
 20
274.83113444639
 30
0.0
 11
517.8281823763551
 21
274.83113444639
 31
0.0
  0
LINE
  5
67
330
1F
100
AcDbEntity
  8
1
  6
Continuous
 62
     3
100
AcDbLine
 10
517.8281823763551
 20
204.83113444639
 30
0.0
 11
541.7781823763547
 21
204.83113444639
 31
0.0
  0
LINE
  5
68
330
1F
100
AcDbEntity
  8
1
  6
DASH_CENTER
 62
     3
100
AcDbLine
 10
194.6115707356411
 20
244.83113444639
 30
0.0
 11
166.46496095152
 21
244.83113444639
 31
0.0
  0
LINE
  5
69
330
1F
100
AcDbEntity
  8
1
  6
DASH_CENTER
 62
     3
100
AcDbLine
 10
249.6115707356438
 20
281.6884268416487
 30
0.0
 11
249.6115707356438
 21
266.6884268416488
 31
0.0
  0
LINE
  5
6A
330
1F
100
AcDbEntity
  8
1
  6
Continuous
 62
     3
100
AcDbLine
 10
259.6115707356438
 20
275.8311344463897
 30
0.0
 11
259.6115707356438
 21
274.8311344463897
 31
0.0
  0
LINE
  5
6B
330
1F
100
AcDbEntity
  8
1
  6
Continuous
 62
     3
100
AcDbLine
 10
259.6115707356438
 20
275.8311344463897
 30
0.0
 11
239.6115707356438
 21
275.8311344463897
 31
0.0
  0
LINE
  5
6C
330
1F
100
AcDbEntity
  8
1
  6
Continuous
 62
     3
100
AcDbLine
 10
239.6115707356438
 20
275.8311344463897
 30
0.0
 11
239.6115707356438
 21
274.8311344463897
 31
0.0
  0
LINE
  5
6D
330
1F
100
AcDbEntity
  8
1
  6
DASH_CENTER
 62
     3
100
AcDbLine
 10
339.6115707356383
 20
266.6884268416488
 30
0.0
 11
339.6115707356383
 21
281.6884268416487
 31
0.0
  0
LINE
  5
6E
330
1F
100
AcDbEntity
  8
1
  6
Continuous
 62
     3
100
AcDbLine
 10
329.6115707356383
 20
274.8311344463897
 30
0.0
 11
329.6115707356383
 21
275.8311344463897
 31
0.0
  0
LINE
  5
6F
330
1F
100
AcDbEntity
  8
1
  6
Continuous
 62
     3
100
AcDbLine
 10
349.6115707356383
 20
275.8311344463897
 30
0.0
 11
329.6115707356383
 21
275.8311344463897
 31
0.0
  0
LINE
  5
70
330
1F
100
AcDbEntity
  8
1
  6
Continuous
 62
     3
100
AcDbLine
 10
349.6115707356383
 20
274.8311344463897
 30
0.0
 11
349.6115707356383
 21
275.8311344463897
 31
0.0
  0
LINE
  5
71
330
1F
100
AcDbEntity
  8
1
  6
Continuous
 62
     7
100
AcDbLine
 10
391.6115707356401
 20
274.83113444639
 30
0.0
 11
379.6115707356401
 21
274.83113444639
 31
0.0
  0
LINE
  5
72
330
1F
100
AcDbEntity
  8
1
  6
Continuous
 62
     7
100
AcDbLine
 10
379.6115707356401
 20
274.83113444639
 30
0.0
 11
214.6115707356411
 21
274.83113444639
 31
0.0
  0
LINE
  5
73
330
1F
100
AcDbEntity
  8
1
  6
Continuous
 62
     7
100
AcDbLine
 10
392.6115707356401
 20
271.83113444639
 30
0.0
 11
392.6115707356401
 21
204.83113444639
 31
0.0
  0
LINE
  5
74
330
1F
100
AcDbEntity
  8
1
  6
Continuous
 62
     7
100
AcDbLine
 10
394.6115707356401
 20
204.83113444639
 30
0.0
 11
394.6115707356401
 21
271.83113444639
 31
0.0
  0
LINE
  5
75
330
1F
100
AcDbEntity
  8
1
  6
Continuous
 62
     7
100
AcDbLine
 10
197.6115707356411
 20
272.83113444639
 30
0.0
 11
391.6115707356401
 21
272.83113444639
 31
0.0
  0
LINE
  5
76
330
1F
100
AcDbEntity
  8
1
  6
Continuous
 62
     7
100
AcDbLine
 10
394.6115707356401
 20
204.83113444639
 30
0.0
 11
392.6115707356401
 21
204.83113444639
 31
0.0
  0
LINE
  5
77
330
1F
100
AcDbEntity
  8
1
  6
Continuous
 62
     7
100
AcDbLine
 10
194.6115707356411
 20
271.83113444639
 30
0.0
 11
194.6115707356411
 21
204.83113444639
 31
0.0
  0
LINE
  5
78
330
1F
100
AcDbEntity
  8
1
  6
Continuous
 62
     7
100
AcDbLine
 10
194.6115707356411
 20
204.83113444639
 30
0.0
 11
196.6115707356411
 21
204.83113444639
 31
0.0
  0
LINE
  5
79
330
1F
100
AcDbEntity
  8
1
  6
Continuous
 62
     7
100
AcDbLine
 10
196.6115707356411
 20
204.83113444639
 30
0.0
 11
196.6115707356411
 21
271.83113444639
 31
0.0
  0
LINE
  5
7A
330
1F
100
AcDbEntity
  8
1
  6
Continuous
 62
     7
100
AcDbLine
 10
214.6115707356411
 20
274.83113444639
 30
0.0
 11
197.6115707356411
 21
274.83113444639
 31
0.0
  0
LINE
  5
7B
330
1F
100
AcDbEntity
  8
1
  6
DASH_CENTER
 62
     3
100
AcDbLine
 10
294.6115707356415
 20
285.1370860189898
 30
0.0
 11
294.6115707356415
 21
196.3878464557
 31
0.0
  0
LINE
  5
7C
330
1F
100
AcDbEntity
  8
1
  6
Continuous
 62
     7
100
AcDbLine
 10
645.62862254025
 20
224.83113444639
 30
0.0
 11
655.62862254025
 21
224.83113444639
 31
0.0
  0
LINE
  5
7D
330
1F
100
AcDbEntity
  8
1
  6
Continuous
 62
     7
100
AcDbLine
 10
658.62862254025
 20
227.83113444639
 30
0.0
 11
658.62862254025
 21
231.83113444639
 31
0.0
  0
LINE
  5
7E
330
1F
100
AcDbEntity
  8
1
  6
Continuous
 62
     7
100
AcDbLine
 10
655.62862254025
 20
264.83113444639
 30
0.0
 11
645.62862254025
 21
264.83113444639
 31
0.0
  0
LINE
  5
7F
330
1F
100
AcDbEntity
  8
1
  6
Continuous
 62
     7
100
AcDbLine
 10
642.62862254025
 20
261.83113444639
 30
0.0
 11
642.62862254025
 21
257.83113444639
 31
0.0
  0
LINE
  5
80
330
1F
100
AcDbEntity
  8
1
  6
Continuous
 62
     3
100
AcDbLine
 10
644.8551198483538
 20
244.83113444639
 30
0.0
 11
647.7418711943019
 21
239.83113444639
 31
0.0
  0
LINE
  5
81
330
1F
100
AcDbEntity
  8
1
  6
Continuous
 62
     3
100
AcDbLine
 10
647.7418711943019
 20
239.83113444639
 30
0.0
 11
653.5153738861982
 21
239.83113444639
 31
0.0
  0
LINE
  5
82
330
1F
100
AcDbEntity
  8
1
  6
Continuous
 62
     3
100
AcDbLine
 10
653.5153738861982
 20
239.83113444639
 30
0.0
 11
656.4021252321463
 21
244.83113444639
 31
0.0
  0
LINE
  5
83
330
1F
100
AcDbEntity
  8
1
  6
Continuous
 62
     3
100
AcDbLine
 10
656.4021252321463
 20
244.83113444639
 30
0.0
 11
653.5153738861982
 21
249.83113444639
 31
0.0
  0
LINE
  5
84
330
1F
100
AcDbEntity
  8
1
  6
Continuous
 62
     3
100
AcDbLine
 10
653.5153738861982
 20
249.83113444639
 30
0.0
 11
647.7418711943019
 21
249.83113444639
 31
0.0
  0
LINE
  5
85
330
1F
100
AcDbEntity
  8
1
  6
Continuous
 62
     3
100
AcDbLine
 10
647.7418711943019
 20
249.83113444639
 30
0.0
 11
644.8551198483538
 21
244.83113444639
 31
0.0
  0
LINE
  5
86
330
1F
100
AcDbEntity
  8
1
  6
DASH_CENTER
 62
     3
100
AcDbLine
 10
643.7004193099746
 20
244.83113444639
 30
0.0
 11
657.5568257705255
 21
244.83113444639
 31
0.0
  0
LINE
  5
87
330
1F
100
AcDbEntity
  8
1
  6
Continuous
 62
     3
100
AcDbLine
 10
549.8281823763549
 20
274.83113444639
 30
0.0
 11
683.59669758208
 21
274.83113444639
 31
0.0
  0
LINE
  5
88
330
1F
100
AcDbEntity
  8
1
  6
Continuous
 62
     3
100
AcDbLine
 10
549.7781823763552
 20
204.83113444639
 30
0.0
 11
680.59669758208
 21
204.83113444639
 31
0.0
  0
LINE
  5
89
330
1F
100
AcDbEntity
  8
1
  6
DASH_CENTER
 62
     3
100
AcDbLine
 10
650.62862254025
 20
280.337858685898
 30
0.0
 11
650.62862254025
 21
201.005206249706
 31
0.0
  0
LINE
  5
8A
330
1F
100
AcDbEntity
  8
1
  6
Continuous
 62
     7
100
AcDbLine
 10
658.62862254025
 20
257.83113444639
 30
0.0
 11
658.62862254025
 21
261.83113444639
 31
0.0
  0
LINE
  5
8B
330
1F
100
AcDbEntity
  8
1
  6
Continuous
 62
     7
100
AcDbLine
 10
642.62862254025
 20
231.83113444639
 30
0.0
 11
642.62862254025
 21
227.83113444639
 31
0.0
  0
LINE
  5
8C
330
1F
100
AcDbEntity
  8
1
  6
Continuous
 62
     7
100
AcDbLine
 10
529.8281823763549
 20
257.83113444639
 30
0.0
 11
516.8281823763549
 21
257.83113444639
 31
0.0
  0
LINE
  5
8D
330
1F
100
AcDbEntity
  8
1
  6
Continuous
 62
     7
100
AcDbLine
 10
561.8281823763549
 20
231.83113444639
 30
0.0
 11
574.8281823763549
 21
231.83113444639
 31
0.0
  0
LINE
  5
8E
330
1F
100
AcDbEntity
  8
1
  6
Continuous
 62
     7
100
AcDbLine
 10
529.8281823763549
 20
249.83113444639
 30
0.0
 11
516.8281823763549
 21
249.83113444639
 31
0.0
  0
LINE
  5
8F
330
1F
100
AcDbEntity
  8
1
  6
Continuous
 62
     7
100
AcDbLine
 10
561.8281823763549
 20
239.83113444639
 30
0.0
 11
574.8281823763549
 21
239.83113444639
 31
0.0
  0
LINE
  5
90
330
1F
100
AcDbEntity
  8
1
  6
Continuous
 62
     7
100
AcDbLine
 10
574.8281823763549
 20
257.83113444639
 30
0.0
 11
561.8281823763549
 21
257.83113444639
 31
0.0
  0
LINE
  5
91
330
1F
100
AcDbEntity
  8
1
  6
Continuous
 62
     7
100
AcDbLine
 10
574.8281823763549
 20
249.83113444639
 30
0.0
 11
561.8281823763549
 21
249.83113444639
 31
0.0
  0
LINE
  5
92
330
1F
100
AcDbEntity
  8
1
  6
Continuous
 62
     7
100
AcDbLine
 10
516.8281823763549
 20
231.83113444639
 30
0.0
 11
529.8281823763549
 21
231.83113444639
 31
0.0
  0
LINE
  5
93
330
1F
100
AcDbEntity
  8
1
  6
Continuous
 62
     7
100
AcDbLine
 10
516.8281823763549
 20
239.83113444639
 30
0.0
 11
529.8281823763549
 21
239.83113444639
 31
0.0
  0
LINE
  5
94
330
1F
100
AcDbEntity
  8
1
  6
Continuous
 62
     7
100
AcDbLine
 10
178.6115707356411
 20
264.83113444639
 30
0.0
 11
194.6115707356411
 21
264.83113444639
 31
0.0
  0
LINE
  5
95
330
1F
100
AcDbEntity
  8
1
  6
Continuous
 62
     7
100
AcDbLine
 10
173.6115707356411
 20
258.33113444639
 30
0.0
 11
173.6115707356411
 21
259.83113444639
 31
0.0
  0
LINE
  5
96
330
1F
100
AcDbEntity
  8
1
  6
Continuous
 62
     7
100
AcDbLine
 10
175.6115707356411
 20
257.83113444639
 30
0.0
 11
174.1115707356411
 21
257.83113444639
 31
0.0
  0
LINE
  5
97
330
1F
100
AcDbEntity
  8
1
  6
DASH_CENTER
 62
     3
100
AcDbLine
 10
175.6115707356411
 20
259.83113444639
 30
0.0
 11
175.6115707356411
 21
247.83113444639
 31
0.0
  0
LINE
  5
98
330
1F
100
AcDbEntity
  8
1
  6
DASH_CENTER
 62
     3
100
AcDbLine
 10
170.6115707356411
 20
253.83113444639
 30
0.0
 11
181.6115707356411
 21
253.83113444639
 31
0.0
  0
LINE
  5
99
330
1F
100
AcDbEntity
  8
1
  6
Continuous
 62
     7
100
AcDbLine
 10
175.6115707356411
 20
249.83113444639
 30
0.0
 11
174.6115707356411
 21
249.83113444639
 31
0.0
  0
LINE
  5
9A
330
1F
100
AcDbEntity
  8
1
  6
Continuous
 62
     7
100
AcDbLine
 10
174.6115707356411
 20
249.83113444639
 30
0.0
 11
173.6115707356411
 21
249.33113444639
 31
0.0
  0
LINE
  5
9B
330
1F
100
AcDbEntity
  8
1
  6
Continuous
 62
     7
100
AcDbLine
 10
173.6115707356411
 20
249.33113444639
 30
0.0
 11
173.6115707356411
 21
240.33113444639
 31
0.0
  0
LINE
  5
9C
330
1F
100
AcDbEntity
  8
1
  6
Continuous
 62
     7
100
AcDbLine
 10
175.6115707356411
 20
239.83113444639
 30
0.0
 11
174.6115707356411
 21
239.83113444639
 31
0.0
  0
LINE
  5
9D
330
1F
100
AcDbEntity
  8
1
  6
Continuous
 62
     7
100
AcDbLine
 10
173.6115707356411
 20
240.33113444639
 30
0.0
 11
174.6115707356411
 21
239.83113444639
 31
0.0
  0
LINE
  5
9E
330
1F
100
AcDbEntity
  8
1
  6
DASH_CENTER
 62
     3
100
AcDbLine
 10
169.0116652522887
 20
235.83113444639
 30
0.0
 11
181.6115707356411
 21
235.83113444639
 31
0.0
  0
LINE
  5
9F
330
1F
100
AcDbEntity
  8
1
  6
DASH_CENTER
 62
     3
100
AcDbLine
 10
175.6115707356411
 20
241.83113444639
 30
0.0
 11
175.6115707356411
 21
229.83113444639
 31
0.0
  0
LINE
  5
A0
330
1F
100
AcDbEntity
  8
1
  6
Continuous
 62
     7
100
AcDbLine
 10
174.1115707356411
 20
231.83113444639
 30
0.0
 11
175.6115707356411
 21
231.83113444639
 31
0.0
  0
LINE
  5
A1
330
1F
100
AcDbEntity
  8
1
  6
Continuous
 62
     7
100
AcDbLine
 10
173.6115707356411
 20
229.83113444639
 30
0.0
 11
173.6115707356411
 21
231.33113444639
 31
0.0
  0
LINE
  5
A2
330
1F
100
AcDbEntity
  8
1
  6
Continuous
 62
     7
100
AcDbLine
 10
194.6115707356411
 20
224.83113444639
 30
0.0
 11
178.6115707356411
 21
224.83113444639
 31
0.0
  0
LINE
  5
A3
330
1F
100
AcDbEntity
  8
1
  6
Continuous
 62
     7
100
AcDbLine
 10
194.6115707356411
 20
264.83113444639
 30
0.0
 11
194.6115707356411
 21
224.83113444639
 31
0.0
  0
LINE
  5
A4
330
1F
100
AcDbEntity
  8
1
  6
DASH_CENTER
 62
     3
100
AcDbLine
 10
512.209710407306
 20
253.83113444639
 30
0.0
 11
685.3478447391112
 21
253.83113444639
 31
0.0
  0
LINE
  5
A5
330
1F
100
AcDbEntity
  8
1
  6
Continuous
 62
     7
100
AcDbLine
 10
642.62862254025
 20
257.83113444639
 30
0.0
 11
574.8281823763549
 21
257.83113444639
 31
0.0
  0
LINE
  5
A6
330
1F
100
AcDbEntity
  8
1
  6
Continuous
 62
     7
100
AcDbLine
 10
641.9683685024056
 20
249.83113444639
 30
0.0
 11
574.8281823763549
 21
249.83113444639
 31
0.0
  0
LINE
  5
A7
330
1F
100
AcDbEntity
  8
1
  6
Continuous
 62
     7
100
AcDbLine
 10
679.62862254025
 20
257.83113444639
 30
0.0
 11
658.62862254025
 21
257.83113444639
 31
0.0
  0
LINE
  5
A8
330
1F
100
AcDbEntity
  8
1
  6
Continuous
 62
     7
100
AcDbLine
 10
679.62862254025
 20
249.83113444639
 30
0.0
 11
659.2888765780945
 21
249.83113444639
 31
0.0
  0
LINE
  5
A9
330
1F
100
AcDbEntity
  8
1
  6
DASH_CENTER
 62
     3
100
AcDbLine
 10
685.3478447391112
 20
235.83113444639
 30
0.0
 11
512.209710407306
 21
235.83113444639
 31
0.0
  0
LINE
  5
AA
330
1F
100
AcDbEntity
  8
1
  6
Continuous
 62
     7
100
AcDbLine
 10
574.8281823763549
 20
231.83113444639
 30
0.0
 11
642.62862254025
 21
231.83113444639
 31
0.0
  0
LINE
  5
AB
330
1F
100
AcDbEntity
  8
1
  6
Continuous
 62
     7
100
AcDbLine
 10
574.8281823763549
 20
239.83113444639
 30
0.0
 11
641.9683685024056
 21
239.83113444639
 31
0.0
  0
LINE
  5
AC
330
1F
100
AcDbEntity
  8
1
  6
Continuous
 62
     7
100
AcDbLine
 10
658.62862254025
 20
231.83113444639
 30
0.0
 11
679.62862254025
 21
231.83113444639
 31
0.0
  0
LINE
  5
AD
330
1F
100
AcDbEntity
  8
1
  6
Continuous
 62
     7
100
AcDbLine
 10
659.2888765780945
 20
239.83113444639
 30
0.0
 11
679.62862254025
 21
239.83113444639
 31
0.0
  0
LINE
  5
AE
330
1F
100
AcDbEntity
  8
1
  6
Continuous
 62
     7
100
AcDbLine
 10
642.62862254025
 20
231.83113444639
 30
0.0
 11
658.62862254025
 21
231.83113444639
 31
0.0
  0
LINE
  5
AF
330
1F
100
AcDbEntity
  8
1
  6
Continuous
 62
     7
100
AcDbLine
 10
642.62862254025
 20
257.83113444639
 30
0.0
 11
658.62862254025
 21
257.83113444639
 31
0.0
  0
LINE
  5
B0
330
1F
100
AcDbEntity
  8
1
  6
Continuous
 62
     7
100
AcDbLine
 10
529.8281823763549
 20
316.7704742746102
 30
0.0
 11
516.8281823763549
 21
316.7704742746102
 31
0.0
  0
LINE
  5
B1
330
1F
100
AcDbEntity
  8
1
  6
Continuous
 62
     7
100
AcDbLine
 10
561.8281823763549
 20
290.7704742746102
 30
0.0
 11
574.8281823763549
 21
290.7704742746102
 31
0.0
  0
LINE
  5
B2
330
1F
100
AcDbEntity
  8
1
  6
Continuous
 62
     7
100
AcDbLine
 10
529.8281823763549
 20
308.7704742746102
 30
0.0
 11
516.8281823763549
 21
308.7704742746102
 31
0.0
  0
LINE
  5
B3
330
1F
100
AcDbEntity
  8
1
  6
Continuous
 62
     7
100
AcDbLine
 10
561.8281823763549
 20
298.7704742746102
 30
0.0
 11
574.8281823763549
 21
298.7704742746102
 31
0.0
  0
LINE
  5
B4
330
1F
100
AcDbEntity
  8
1
  6
DASH_CENTER
 62
     3
100
AcDbLine
 10
512.209710407306
 20
312.7704742746102
 30
0.0
 11
580.5474045752161
 21
312.7704742746102
 31
0.0
  0
LINE
  5
B5
330
1F
100
AcDbEntity
  8
1
  6
Continuous
 62
     7
100
AcDbLine
 10
574.8281823763549
 20
316.7704742746102
 30
0.0
 11
561.8281823763549
 21
316.7704742746102
 31
0.0
  0
LINE
  5
B6
330
1F
100
AcDbEntity
  8
1
  6
Continuous
 62
     7
100
AcDbLine
 10
574.8281823763549
 20
308.7704742746102
 30
0.0
 11
561.8281823763549
 21
308.7704742746102
 31
0.0
  0
LINE
  5
B7
330
1F
100
AcDbEntity
  8
1
  6
DASH_CENTER
 62
     3
100
AcDbLine
 10
580.5474045752161
 20
294.7704742746102
 30
0.0
 11
512.209710407306
 21
294.7704742746102
 31
0.0
  0
LINE
  5
B8
330
1F
100
AcDbEntity
  8
1
  6
Continuous
 62
     7
100
AcDbLine
 10
516.8281823763549
 20
290.7704742746102
 30
0.0
 11
529.8281823763549
 21
290.7704742746102
 31
0.0
  0
LINE
  5
B9
330
1F
100
AcDbEntity
  8
1
  6
Continuous
 62
     7
100
AcDbLine
 10
516.8281823763549
 20
298.7704742746102
 30
0.0
 11
529.8281823763549
 21
298.7704742746102
 31
0.0
  0
LINE
  5
BA
330
1F
100
AcDbEntity
  8
1
  6
Continuous
 62
     3
100
AcDbLine
 10
388.6615707356401
 20
333.7704742746102
 30
0.0
 11
412.6615707356401
 21
333.7704742746102
 31
0.0
  0
LINE
  5
BB
330
1F
100
AcDbEntity
  8
1
  6
Continuous
 62
     3
100
AcDbLine
 10
378.6615707356401
 20
283.7704742746102
 30
0.0
 11
380.6615707356401
 21
283.7704742746102
 31
0.0
  0
LINE
  5
BC
330
1F
100
AcDbEntity
  8
1
  6
Continuous
 62
     3
100
AcDbLine
 10
388.6615707356401
 20
325.7704742746102
 30
0.0
 11
412.56157073564
 21
325.7704742746102
 31
0.0
  0
LINE
  5
BD
330
1F
100
AcDbEntity
  8
1
  6
Continuous
 62
     3
100
AcDbLine
 10
425.6115707356401
 20
261.83113444639
 30
0.0
 11
425.6115707356401
 21
320.7704742746102
 31
0.0
  0
LINE
  5
BE
330
1F
100
AcDbEntity
  8
1
  6
Continuous
 62
     3
100
AcDbLine
 10
417.6115707356401
 20
261.83113444639
 30
0.0
 11
417.6115707356401
 21
320.7704742746102
 31
0.0
  0
LINE
  5
BF
330
1F
100
AcDbEntity
  8
1
  6
Continuous
 62
     3
100
AcDbLine
 10
417.6115707356401
 20
202.83113444639
 30
0.0
 11
417.6115707356401
 21
227.83113444639
 31
0.0
  0
LINE
  5
C0
330
1F
100
AcDbEntity
  8
1
  6
Continuous
 62
     3
100
AcDbLine
 10
425.6115707356406
 20
202.83113444639
 30
0.0
 11
425.6115707356401
 21
227.83113444639
 31
0.0
  0
LINE
  5
C1
330
1F
100
AcDbEntity
  8
1
  6
Continuous
 62
     3
100
AcDbLine
 10
420.56157073564
 20
199.83113444639
 30
0.0
 11
422.6615707356401
 21
199.83113444639
 31
0.0
  0
LINE
  5
C2
330
1F
100
AcDbEntity
  8
1
  6
DASH_CENTER
 62
     3
100
AcDbLine
 10
421.6115707356401
 20
320.7704742746102
 30
0.0
 11
421.6115707356401
 21
197.9343435801775
 31
0.0
  0
LINE
  5
C3
330
1F
100
AcDbEntity
  8
1
  6
DASH_CENTER
 62
     3
100
AcDbLine
 10
412.6115707356401
 20
329.7704742746102
 30
0.0
 11
388.6615707356401
 21
329.7704742746102
 31
0.0
  0
LINE
  5
C4
330
1F
100
AcDbEntity
  8
1
  6
DASH_CENTER
 62
     3
100
AcDbLine
 10
379.6615707356401
 20
320.7704742746102
 30
0.0
 11
379.6615707356401
 21
280.8933585768522
 31
0.0
  0
LINE
  5
C5
330
1F
100
AcDbEntity
  8
1
  6
DASH_CENTER
 62
     3
100
AcDbLine
 10
365.6615707356399
 20
312.7704742746102
 30
0.0
 11
378.2614762189927
 21
312.7704742746102
 31
0.0
  0
LINE
  5
C6
330
1F
100
AcDbEntity
  8
1
  6
DASH_CENTER
 62
     3
100
AcDbLine
 10
371.6615707356399
 20
307.7704742746102
 30
0.0
 11
371.6615707356399
 21
318.7704742746102
 31
0.0
  0
LINE
  5
C7
330
1F
100
AcDbEntity
  8
1
  6
DASH_CENTER
 62
     3
100
AcDbLine
 10
365.6615707356399
 20
294.7704742746102
 30
0.0
 11
378.2614762189927
 21
294.7704742746102
 31
0.0
  0
LINE
  5
C8
330
1F
100
AcDbEntity
  8
1
  6
DASH_CENTER
 62
     3
100
AcDbLine
 10
371.6615707356399
 20
288.7704742746102
 30
0.0
 11
371.6615707356399
 21
299.7704742746102
 31
0.0
  0
LINE
  5
C9
330
1F
100
AcDbEntity
  8
1
  6
Continuous
 62
     7
100
AcDbLine
 10
388.6615707356399
 20
318.7704742746102
 30
0.0
 11
388.6615707356399
 21
288.7704742746102
 31
0.0
  0
LINE
  5
CA
330
1F
100
AcDbEntity
  8
1
  6
Continuous
 62
     7
100
AcDbLine
 10
371.6615707356399
 20
320.7704742746102
 30
0.0
 11
386.6615707356399
 21
320.7704742746102
 31
0.0
  0
LINE
  5
CB
330
1F
100
AcDbEntity
  8
1
  6
Continuous
 62
     7
100
AcDbLine
 10
369.6615707356399
 20
317.2704742746102
 30
0.0
 11
369.6615707356399
 21
318.7704742746102
 31
0.0
  0
LINE
  5
CC
330
1F
100
AcDbEntity
  8
1
  6
Continuous
 62
     7
100
AcDbLine
 10
386.6615707356399
 20
286.7704742746102
 30
0.0
 11
371.6615707356399
 21
286.7704742746102
 31
0.0
  0
LINE
  5
CD
330
1F
100
AcDbEntity
  8
1
  6
Continuous
 62
     7
100
AcDbLine
 10
369.6615707356399
 20
288.7704742746102
 30
0.0
 11
369.6615707356399
 21
290.2704742746102
 31
0.0
  0
LINE
  5
CE
330
1F
100
AcDbEntity
  8
1
  6
Continuous
 62
     7
100
AcDbLine
 10
370.1615707356399
 20
290.7704742746102
 30
0.0
 11
371.6615707356399
 21
290.7704742746102
 31
0.0
  0
LINE
  5
CF
330
1F
100
AcDbEntity
  8
1
  6
Continuous
 62
     7
100
AcDbLine
 10
374.1615707356399
 20
297.8929732738094
 30
0.0
 11
374.1615707356399
 21
309.6479752754109
 31
0.0
  0
LINE
  5
D0
330
1F
100
AcDbEntity
  8
1
  6
Continuous
 62
     7
100
AcDbLine
 10
370.1615707356399
 20
316.7704742746102
 30
0.0
 11
371.6615707356399
 21
316.7704742746102
 31
0.0
  0
LINE
  5
D1
330
1F
100
AcDbEntity
  8
1
  6
DASH_CENTER
 62
     3
100
AcDbLine
 10
367.7240470410292
 20
303.7704742746102
 30
0.0
 11
388.6615707356399
 21
303.7704742746102
 31
0.0
  0
LINE
  5
D2
330
1F
100
AcDbEntity
  8
1
  6
Continuous
 62
     3
100
AcDbLine
 10
369.0158194245754
 20
297.7704742746102
 30
0.0
 11
369.0158194245754
 21
303.7704742746102
 31
0.0
  0
LINE
  5
D3
330
1F
100
AcDbEntity
  8
1
  6
Continuous
 62
     3
100
AcDbLine
 10
372.0158194245754
 20
300.7704742746102
 30
0.0
 11
369.0158194245754
 21
297.7704742746102
 31
0.0
  0
LINE
  5
D4
330
1F
100
AcDbEntity
  8
1
  6
Continuous
 62
     3
100
AcDbLine
 10
369.0158194245754
 20
303.7704742746102
 30
0.0
 11
369.0158194245754
 21
309.7704742746102
 31
0.0
  0
LINE
  5
D5
330
1F
100
AcDbEntity
  8
1
  6
Continuous
 62
     3
100
AcDbLine
 10
369.0158194245754
 20
309.7704742746102
 30
0.0
 11
372.0158194245754
 21
306.7704742746103
 31
0.0
  0
LINE
  5
D6
330
1F
100
AcDbEntity
  8
1
  6
Continuous
 62
     3
100
AcDbLine
 10
372.0158194245754
 20
306.7704742746103
 30
0.0
 11
372.0158194245754
 21
300.7704742746102
 31
0.0
  0
LINE
  5
D7
330
1F
100
AcDbEntity
  8
1
  6
Continuous
 62
     3
100
AcDbLine
 10
372.0158194245754
 20
306.7704742746103
 30
0.0
 11
374.1615707356399
 21
306.7704742746102
 31
0.0
  0
LINE
  5
D8
330
1F
100
AcDbEntity
  8
1
  6
Continuous
 62
     3
100
AcDbLine
 10
374.1615707356399
 20
300.7704742746102
 30
0.0
 11
372.0158194245754
 21
300.7704742746102
 31
0.0
  0
LINE
  5
D9
330
1F
100
AcDbEntity
  8
1
  6
Continuous
 62
     3
100
AcDbLine
 10
541.7781823763547
 20
202.83113444639
 30
0.0
 11
541.7781823763547
 21
227.83113444639
 31
0.0
  0
LINE
  5
DA
330
1F
100
AcDbEntity
  8
1
  6
Continuous
 62
     3
100
AcDbLine
 10
549.7781823763552
 20
202.83113444639
 30
0.0
 11
549.7781823763552
 21
227.83113444639
 31
0.0
  0
LINE
  5
DB
330
1F
100
AcDbEntity
  8
1
  6
Continuous
 62
     3
100
AcDbLine
 10
544.7781823763547
 20
199.83113444639
 30
0.0
 11
546.8781823763551
 21
199.83113444639
 31
0.0
  0
LINE
  5
DC
330
1F
100
AcDbEntity
  8
1
  6
Continuous
 62
     3
100
AcDbLine
 10
541.8281823763549
 20
261.83113444639
 30
0.0
 11
541.8281823763549
 21
333.7704742746102
 31
0.0
  0
LINE
  5
DD
330
1F
100
AcDbEntity
  8
1
  6
Continuous
 62
     3
100
AcDbLine
 10
549.8281823763549
 20
261.83113444639
 30
0.0
 11
549.8281823763549
 21
333.7704742746102
 31
0.0
  0
LINE
  5
DE
330
1F
100
AcDbEntity
  8
1
  6
DASH_CENTER
 62
     3
100
AcDbLine
 10
545.8281823763549
 20
196.419590097089
 30
0.0
 11
545.8281823763549
 21
340.4195900970889
 31
0.0
  0
LINE
  5
DF
330
1F
100
AcDbEntity
  8
1
  6
DASH_CENTER
 62
     3
100
AcDbLine
 10
541.8281823763549
 20
333.7704742746102
 30
0.0
 11
549.8281823763549
 21
333.7704742746102
 31
0.0
  0
LINE
  5
E0
330
1F
100
AcDbEntity
  8
1
  6
DASH_CENTER
 62
     3
100
AcDbLine
 10
217.5615707356431
 20
299.7704742746102
 30
0.0
 11
217.5615707356431
 21
288.7704742746102
 31
0.0
  0
LINE
  5
E1
330
1F
100
AcDbEntity
  8
1
  6
DASH_CENTER
 62
     3
100
AcDbLine
 10
210.9616652522904
 20
294.7704742746102
 30
0.0
 11
223.5615707356431
 21
294.7704742746102
 31
0.0
  0
LINE
  5
E2
330
1F
100
AcDbEntity
  8
1
  6
DASH_CENTER
 62
     3
100
AcDbLine
 10
210.9616652522904
 20
312.7704742746102
 30
0.0
 11
223.5615707356431
 21
312.7704742746102
 31
0.0
  0
LINE
  5
E3
330
1F
100
AcDbEntity
  8
1
  6
DASH_CENTER
 62
     3
100
AcDbLine
 10
217.5615707356431
 20
318.7704742746102
 30
0.0
 11
217.5615707356431
 21
307.7704742746102
 31
0.0
  0
LINE
  5
E4
330
1F
100
AcDbEntity
  8
1
  6
Continuous
 62
     7
100
AcDbLine
 10
529.8281823763549
 20
229.83113444639
 30
0.0
 11
529.8281823763549
 21
259.83113444639
 31
0.0
  0
LINE
  5
E5
330
1F
100
AcDbEntity
  8
1
  6
Continuous
 62
     7
100
AcDbLine
 10
561.8281823763549
 20
259.83113444639
 30
0.0
 11
561.8281823763549
 21
229.83113444639
 31
0.0
  0
LINE
  5
E6
330
1F
100
AcDbEntity
  8
1
  6
Continuous
 62
     7
100
AcDbLine
 10
559.8281823763549
 20
227.83113444639
 30
0.0
 11
531.8281823763549
 21
227.83113444639
 31
0.0
  0
LINE
  5
E7
330
1F
100
AcDbEntity
  8
1
  6
Continuous
 62
     7
100
AcDbLine
 10
531.8281823763549
 20
261.83113444639
 30
0.0
 11
559.8281823763549
 21
261.83113444639
 31
0.0
  0
LINE
  5
E8
330
1F
100
AcDbEntity
  8
1
  6
DASH_CENTER
 62
     3
100
AcDbLine
 10
537.8281823763549
 20
238.48113444639
 30
0.0
 11
537.8281823763549
 21
251.0586354471908
 31
0.0
  0
LINE
  5
E9
330
1F
100
AcDbEntity
  8
1
  6
DASH_CENTER
 62
     3
100
AcDbLine
 10
553.8281823763549
 20
251.0586354471908
 30
0.0
 11
553.8281823763549
 21
238.48113444639
 31
0.0
  0
LINE
  5
EA
330
1F
100
AcDbEntity
  8
1
  6
DASH_CENTER
 62
     3
100
AcDbLine
 10
545.8281823763549
 20
264.0938235290537
 30
0.0
 11
545.8281823763549
 21
225.0938235290538
 31
0.0
  0
LINE
  5
EB
330
1F
100
AcDbEntity
  8
1
  6
DASH_CENTER
 62
     3
100
AcDbLine
 10
526.7982085885798
 20
244.83113444639
 30
0.0
 11
564.5071979581036
 21
244.83113444639
 31
0.0
  0
LINE
  5
EC
330
1F
100
AcDbEntity
  8
1
  6
DASH_CENTER
 62
     3
100
AcDbLine
 10
413.6115707356401
 20
229.83113444639
 30
0.0
 11
413.6115707356401
 21
241.83113444639
 31
0.0
  0
LINE
  5
ED
330
1F
100
AcDbEntity
  8
1
  6
DASH_CENTER
 62
     3
100
AcDbLine
 10
407.6115707356401
 20
235.83113444639
 30
0.0
 11
420.2114762189927
 21
235.83113444639
 31
0.0
  0
LINE
  5
EE
330
1F
100
AcDbEntity
  8
1
  6
DASH_CENTER
 62
     3
100
AcDbLine
 10
413.6115707356401
 20
247.83113444639
 30
0.0
 11
413.6115707356401
 21
259.83113444639
 31
0.0
  0
LINE
  5
EF
330
1F
100
AcDbEntity
  8
1
  6
DASH_CENTER
 62
     3
100
AcDbLine
 10
404.6115707356401
 20
253.83113444639
 30
0.0
 11
420.2114762189927
 21
253.83113444639
 31
0.0
  0
LINE
  5
F0
330
1F
100
AcDbEntity
  8
1
  6
Continuous
 62
     7
100
AcDbLine
 10
428.6115707356401
 20
227.83113444639
 30
0.0
 11
413.6115707356401
 21
227.83113444639
 31
0.0
  0
LINE
  5
F1
330
1F
100
AcDbEntity
  8
1
  6
Continuous
 62
     7
100
AcDbLine
 10
413.6115707356401
 20
261.83113444639
 30
0.0
 11
428.6115707356401
 21
261.83113444639
 31
0.0
  0
LINE
  5
F2
330
1F
100
AcDbEntity
  8
1
  6
Continuous
 62
     7
100
AcDbLine
 10
416.1115707356401
 20
238.9536334455892
 30
0.0
 11
416.1115707356401
 21
250.7086354471908
 31
0.0
  0
LINE
  5
F3
330
1F
100
AcDbEntity
  8
1
  6
Continuous
 62
     7
100
AcDbLine
 10
412.1115707356401
 20
257.83113444639
 30
0.0
 11
413.6115707356401
 21
257.83113444639
 31
0.0
  0
LINE
  5
F4
330
1F
100
AcDbEntity
  8
1
  6
Continuous
 62
     7
100
AcDbLine
 10
411.6115707356401
 20
258.33113444639
 30
0.0
 11
411.6115707356401
 21
259.83113444639
 31
0.0
  0
LINE
  5
F5
330
1F
100
AcDbEntity
  8
1
  6
Continuous
 62
     7
100
AcDbLine
 10
412.1115707356401
 20
231.83113444639
 30
0.0
 11
413.6115707356401
 21
231.83113444639
 31
0.0
  0
LINE
  5
F6
330
1F
100
AcDbEntity
  8
1
  6
Continuous
 62
     7
100
AcDbLine
 10
411.6115707356401
 20
229.83113444639
 30
0.0
 11
411.6115707356401
 21
231.33113444639
 31
0.0
  0
LINE
  5
F7
330
1F
100
AcDbEntity
  8
1
  6
DASH_CENTER
 62
     3
100
AcDbLine
 10
413.6115707356401
 20
247.83113444639
 30
0.0
 11
413.6115707356401
 21
259.83113444639
 31
0.0
  0
LINE
  5
F8
330
1F
100
AcDbEntity
  8
1
  6
Continuous
 62
     7
100
AcDbLine
 10
430.6115707356401
 20
259.83113444639
 30
0.0
 11
430.6115707356401
 21
229.83113444639
 31
0.0
  0
LINE
  5
F9
330
1F
100
AcDbEntity
  8
1
  6
Continuous
 62
     3
100
AcDbLine
 10
430.6115707356401
 20
249.83113444639
 30
0.0
 11
436.2115707356403
 21
249.83113444639
 31
0.0
  0
LINE
  5
FA
330
1F
100
AcDbEntity
  8
1
  6
Continuous
 62
     3
100
AcDbLine
 10
436.2115707356403
 20
249.83113444639
 30
0.0
 11
436.6115707356401
 21
249.1383141233624
 31
0.0
  0
LINE
  5
FB
330
1F
100
AcDbEntity
  8
1
  6
Continuous
 62
     3
100
AcDbLine
 10
436.6115707356401
 20
249.1383141233624
 30
0.0
 11
436.6115707356401
 21
240.5239547694175
 31
0.0
  0
LINE
  5
FC
330
1F
100
AcDbEntity
  8
1
  6
Continuous
 62
     3
100
AcDbLine
 10
436.6115707356401
 20
240.5239547694175
 30
0.0
 11
436.2115707356403
 21
239.83113444639
 31
0.0
  0
LINE
  5
FD
330
1F
100
AcDbEntity
  8
1
  6
Continuous
 62
     3
100
AcDbLine
 10
436.2115707356403
 20
239.83113444639
 30
0.0
 11
430.6115707356401
 21
239.83113444639
 31
0.0
  0
LINE
  5
FE
330
1F
100
AcDbEntity
  8
1
  6
Continuous
 62
     3
100
AcDbLine
 10
436.2115707356403
 20
239.83113444639
 30
0.0
 11
436.2115707356403
 21
249.83113444639
 31
0.0
  0
LINE
  5
FF
330
1F
100
AcDbEntity
  8
1
  6
DASH_CENTER
 62
     3
100
AcDbLine
 10
422.6115707356401
 20
244.83113444639
 30
0.0
 11
436.6115707356401
 21
244.83113444639
 31
0.0
  0
LINE
  5
100
330
1F
100
AcDbEntity
  8
1
  6
Continuous
 62
     7
100
AcDbLine
 10
529.8281823763549
 20
288.7704742746102
 30
0.0
 11
529.8281823763549
 21
318.7704742746102
 31
0.0
  0
LINE
  5
101
330
1F
100
AcDbEntity
  8
1
  6
Continuous
 62
     7
100
AcDbLine
 10
561.8281823763549
 20
318.7704742746102
 30
0.0
 11
561.8281823763549
 21
288.7704742746102
 31
0.0
  0
LINE
  5
102
330
1F
100
AcDbEntity
  8
1
  6
Continuous
 62
     7
100
AcDbLine
 10
559.8281823763549
 20
286.7704742746102
 30
0.0
 11
549.8281823763549
 21
286.7704742746102
 31
0.0
  0
LINE
  5
103
330
1F
100
AcDbEntity
  8
1
  6
Continuous
 62
     7
100
AcDbLine
 10
531.8281823763549
 20
320.7704742746102
 30
0.0
 11
541.8281823763549
 21
320.7704742746102
 31
0.0
  0
LINE
  5
104
330
1F
100
AcDbEntity
  8
1
  6
DASH_CENTER
 62
     3
100
AcDbLine
 10
537.8281823763549
 20
297.4204742746102
 30
0.0
 11
537.8281823763549
 21
309.997975275411
 31
0.0
  0
LINE
  5
105
330
1F
100
AcDbEntity
  8
1
  6
DASH_CENTER
 62
     3
100
AcDbLine
 10
553.8281823763549
 20
309.997975275411
 30
0.0
 11
553.8281823763549
 21
297.4204742746102
 31
0.0
  0
LINE
  5
106
330
1F
100
AcDbEntity
  8
1
  6
DASH_CENTER
 62
     3
100
AcDbLine
 10
526.7982085885798
 20
303.7704742746102
 30
0.0
 11
564.5071979581036
 21
303.7704742746102
 31
0.0
  0
LINE
  5
107
330
1F
100
AcDbEntity
  8
1
  6
Continuous
 62
     7
100
AcDbLine
 10
549.8281823763549
 20
320.7704742746102
 30
0.0
 11
559.8281823763549
 21
320.7704742746102
 31
0.0
  0
LINE
  5
108
330
1F
100
AcDbEntity
  8
1
  6
Continuous
 62
     7
100
AcDbLine
 10
541.8281823763549
 20
286.7704742746102
 30
0.0
 11
531.8281823763549
 21
286.7704742746102
 31
0.0
  0
LINE
  5
109
330
1F
100
AcDbEntity
  8
1
  6
Continuous
 62
     3
100
AcDbLine
 10
416.1115707356401
 20
241.83113444639
 30
0.0
 11
409.6115707356401
 21
241.83113444639
 31
0.0
  0
LINE
  5
10A
330
1F
100
AcDbEntity
  8
1
  6
Continuous
 62
     3
100
AcDbLine
 10
409.6115707356401
 20
247.83113444639
 30
0.0
 11
416.1115707356401
 21
247.83113444639
 31
0.0
  0
LINE
  5
10B
330
1F
100
AcDbEntity
  8
1
  6
Continuous
 62
     3
100
AcDbLine
 10
402.6115707356401
 20
240.5010074274677
 30
0.0
 11
402.6115707356401
 21
249.1612614653123
 31
0.0
  0
LINE
  5
10C
330
1F
100
AcDbEntity
  8
1
  6
Continuous
 62
     3
100
AcDbLine
 10
406.6115707356401
 20
241.9443831004419
 30
0.0
 11
403.0581527230257
 21
241.9443831004419
 31
0.0
  0
LINE
  5
10D
330
1F
100
AcDbEntity
  8
1
  6
Continuous
 62
     3
100
AcDbLine
 10
406.6115707356401
 20
247.7178857923382
 30
0.0
 11
403.0581527230257
 21
247.7178857923382
 31
0.0
  0
LINE
  5
10E
330
1F
100
AcDbEntity
  8
1
  6
Continuous
 62
     3
100
AcDbLine
 10
406.6115707356401
 20
239.0576317544938
 30
0.0
 11
403.0581527230257
 21
239.0576317544938
 31
0.0
  0
LINE
  5
10F
330
1F
100
AcDbEntity
  8
1
  6
Continuous
 62
     3
100
AcDbLine
 10
406.6115707356401
 20
250.6046371382863
 30
0.0
 11
406.6115707356401
 21
239.0576317544938
 31
0.0
  0
LINE
  5
110
330
1F
100
AcDbEntity
  8
1
  6
Continuous
 62
     3
100
AcDbLine
 10
403.0581527230257
 20
250.6046371382863
 30
0.0
 11
406.6115707356401
 21
250.6046371382863
 31
0.0
  0
LINE
  5
111
330
1F
100
AcDbEntity
  8
1
  6
Continuous
 62
     3
100
AcDbLine
 10
409.6115707356401
 20
255.83113444639
 30
0.0
 11
406.6115707356401
 21
255.8311344463902
 31
0.0
  0
LINE
  5
112
330
1F
100
AcDbEntity
  8
1
  6
Continuous
 62
     3
100
AcDbLine
 10
406.6115707356401
 20
255.8311344463902
 30
0.0
 11
406.6115707356401
 21
233.83113444639
 31
0.0
  0
LINE
  5
113
330
1F
100
AcDbEntity
  8
1
  6
Continuous
 62
     3
100
AcDbLine
 10
406.6115707356401
 20
233.83113444639
 30
0.0
 11
409.6115707356401
 21
233.83113444639
 31
0.0
  0
LINE
  5
114
330
1F
100
AcDbEntity
  8
1
  6
Continuous
 62
     3
100
AcDbLine
 10
409.6115707356401
 20
233.83113444639
 30
0.0
 11
409.6115707356401
 21
255.83113444639
 31
0.0
  0
LINE
  5
115
330
1F
100
AcDbEntity
  8
1
  6
DASH_CENTER
 62
     3
100
AcDbLine
 10
173.6115707356411
 20
244.83113444639
 30
0.0
 11
165.1115707356411
 21
244.83113444639
 31
0.0
  0
LINE
  5
116
330
1F
100
AcDbEntity
  8
1
  6
Continuous
 62
     3
100
AcDbLine
 10
165.1115707356411
 20
240.5010074274677
 30
0.0
 11
165.1115707356411
 21
249.1612614653123
 31
0.0
  0
LINE
  5
117
330
1F
100
AcDbEntity
  8
1
  6
Continuous
 62
     3
100
AcDbLine
 10
169.1115707356411
 20
241.9443831004419
 30
0.0
 11
165.5581527230265
 21
241.9443831004419
 31
0.0
  0
LINE
  5
118
330
1F
100
AcDbEntity
  8
1
  6
Continuous
 62
     3
100
AcDbLine
 10
169.1115707356411
 20
247.7178857923382
 30
0.0
 11
165.5581527230265
 21
247.7178857923382
 31
0.0
  0
LINE
  5
119
330
1F
100
AcDbEntity
  8
1
  6
Continuous
 62
     3
100
AcDbLine
 10
169.1115707356411
 20
239.0576317544938
 30
0.0
 11
165.5581527230265
 21
239.0576317544938
 31
0.0
  0
LINE
  5
11A
330
1F
100
AcDbEntity
  8
1
  6
Continuous
 62
     3
100
AcDbLine
 10
169.1115707356411
 20
250.6046371382863
 30
0.0
 11
169.1115707356411
 21
239.0576317544938
 31
0.0
  0
LINE
  5
11B
330
1F
100
AcDbEntity
  8
1
  6
Continuous
 62
     3
100
AcDbLine
 10
165.5581527230265
 20
250.6046371382863
 30
0.0
 11
169.1115707356411
 21
250.6046371382863
 31
0.0
  0
LINE
  5
11C
330
1F
100
AcDbEntity
  8
1
  6
Continuous
 62
     3
100
AcDbLine
 10
169.1115707356411
 20
254.8311344463899
 30
0.0
 11
169.1115707356411
 21
234.83113444639
 31
0.0
  0
LINE
  5
11D
330
1F
100
AcDbEntity
  8
1
  6
Continuous
 62
     3
100
AcDbLine
 10
171.6115707356411
 20
254.83113444639
 30
0.0
 11
169.1115707356411
 21
254.8311344463899
 31
0.0
  0
LINE
  5
11E
330
1F
100
AcDbEntity
  8
1
  6
Continuous
 62
     3
100
AcDbLine
 10
171.6115707356411
 20
234.83113444639
 30
0.0
 11
171.6115707356411
 21
254.83113444639
 31
0.0
  0
LINE
  5
11F
330
1F
100
AcDbEntity
  8
1
  6
Continuous
 62
     3
100
AcDbLine
 10
169.1115707356411
 20
234.83113444639
 30
0.0
 11
171.6115707356411
 21
234.83113444639
 31
0.0
  0
LINE
  5
120
330
1F
100
AcDbEntity
  8
1
  6
Continuous
 62
     3
100
AcDbLine
 10
204.175070800277
 20
247.83113444639
 30
0.0
 11
205.175070800277
 21
246.83113444639
 31
0.0
  0
LINE
  5
121
330
1F
100
AcDbEntity
  8
1
  6
Continuous
 62
     3
100
AcDbLine
 10
205.175070800277
 20
246.83113444639
 30
0.0
 11
205.175070800277
 21
242.83113444639
 31
0.0
  0
LINE
  5
122
330
1F
100
AcDbEntity
  8
1
  6
Continuous
 62
     3
100
AcDbLine
 10
205.175070800277
 20
242.83113444639
 30
0.0
 11
204.175070800277
 21
241.83113444639
 31
0.0
  0
LINE
  5
123
330
1F
100
AcDbEntity
  8
1
  6
Continuous
 62
     3
100
AcDbLine
 10
204.175070800277
 20
241.83113444639
 30
0.0
 11
203.1115707356411
 21
241.83113444639
 31
0.0
  0
LINE
  5
124
330
1F
100
AcDbEntity
  8
1
  6
Continuous
 62
     3
100
AcDbLine
 10
204.175070800277
 20
247.83113444639
 30
0.0
 11
204.175070800277
 21
241.83113444639
 31
0.0
  0
LINE
  5
125
330
1F
100
AcDbEntity
  8
1
  6
Continuous
 62
     3
100
AcDbLine
 10
204.716570800277
 20
242.3726344463901
 30
0.0
 11
203.1115707356411
 21
242.3726344463901
 31
0.0
  0
LINE
  5
126
330
1F
100
AcDbEntity
  8
1
  6
Continuous
 62
     3
100
AcDbLine
 10
203.1115707356411
 20
247.83113444639
 30
0.0
 11
204.175070800277
 21
247.83113444639
 31
0.0
  0
LINE
  5
127
330
1F
100
AcDbEntity
  8
1
  6
Continuous
 62
     3
100
AcDbLine
 10
203.1115707356411
 20
247.28963444639
 30
0.0
 11
204.716570800277
 21
247.28963444639
 31
0.0
  0
LINE
  5
128
330
1F
100
AcDbEntity
  8
1
  6
Continuous
 62
     3
100
AcDbLine
 10
196.6115707356411
 20
238.73113444639
 30
0.0
 11
196.6115707356411
 21
250.9311344463901
 31
0.0
  0
LINE
  5
129
330
1F
100
AcDbEntity
  8
1
  6
Continuous
 62
     3
100
AcDbLine
 10
196.6115707356411
 20
250.9311344463901
 30
0.0
 11
198.1115707356411
 21
250.9311344463901
 31
0.0
  0
LINE
  5
12A
330
1F
100
AcDbEntity
  8
1
  6
Continuous
 62
     3
100
AcDbLine
 10
198.1115707356411
 20
250.9311344463901
 30
0.0
 11
198.1115707356411
 21
238.73113444639
 31
0.0
  0
LINE
  5
12B
330
1F
100
AcDbEntity
  8
1
  6
Continuous
 62
     3
100
AcDbLine
 10
198.1115707356411
 20
238.73113444639
 30
0.0
 11
196.6115707356411
 21
238.73113444639
 31
0.0
  0
LINE
  5
12C
330
1F
100
AcDbEntity
  8
1
  6
Continuous
 62
     3
100
AcDbLine
 10
196.6115707356411
 20
241.7811344463901
 30
0.0
 11
198.1115707356411
 21
241.7811344463901
 31
0.0
  0
LINE
  5
12D
330
1F
100
AcDbEntity
  8
1
  6
Continuous
 62
     3
100
AcDbLine
 10
196.6115707356411
 20
247.88113444639
 30
0.0
 11
198.1115707356411
 21
247.88113444639
 31
0.0
  0
LINE
  5
12E
330
1F
100
AcDbEntity
  8
1
  6
Continuous
 62
     3
100
AcDbLine
 10
202.6649887482559
 20
239.0576317544938
 30
0.0
 11
198.1115707356411
 21
239.0576317544938
 31
0.0
  0
LINE
  5
12F
330
1F
100
AcDbEntity
  8
1
  6
Continuous
 62
     3
100
AcDbLine
 10
198.1115707356411
 20
239.0576317544938
 30
0.0
 11
198.1115707356411
 21
250.6046371382863
 31
0.0
  0
LINE
  5
130
330
1F
100
AcDbEntity
  8
1
  6
Continuous
 62
     3
100
AcDbLine
 10
198.1115707356411
 20
250.6046371382863
 30
0.0
 11
202.6649887482559
 21
250.6046371382863
 31
0.0
  0
LINE
  5
131
330
1F
100
AcDbEntity
  8
1
  6
Continuous
 62
     3
100
AcDbLine
 10
198.1115707356411
 20
241.9443831004419
 30
0.0
 11
202.6649887482559
 21
241.9443831004419
 31
0.0
  0
LINE
  5
132
330
1F
100
AcDbEntity
  8
1
  6
Continuous
 62
     3
100
AcDbLine
 10
198.1115707356411
 20
247.7178857923382
 30
0.0
 11
202.6649887482559
 21
247.7178857923382
 31
0.0
  0
LINE
  5
133
330
1F
100
AcDbEntity
  8
1
  6
Continuous
 62
     3
100
AcDbLine
 10
203.1115707356411
 20
249.1612614653123
 30
0.0
 11
203.1115707356411
 21
240.5010074274677
 31
0.0
  0
LINE
  5
134
330
1F
100
AcDbEntity
  8
1
  6
DASH_CENTER
 62
     3
100
AcDbLine
 10
196.6581805197624
 20
244.83113444639
 30
0.0
 11
206.6581805197624
 21
244.83113444639
 31
0.0
  0
LINE
  5
135
330
1F
100
AcDbEntity
  8
1
  6
Continuous
 62
     3
100
AcDbLine
 10
552.3848067033808
 20
247.33113444639
 30
0.0
 11
550.9414310304068
 21
244.83113444639
 31
0.0
  0
LINE
  5
136
330
1F
100
AcDbEntity
  8
1
  6
Continuous
 62
     3
100
AcDbLine
 10
555.271558049329
 20
247.33113444639
 30
0.0
 11
552.3848067033808
 21
247.33113444639
 31
0.0
  0
LINE
  5
137
330
1F
100
AcDbEntity
  8
1
  6
Continuous
 62
     3
100
AcDbLine
 10
556.714933722303
 20
244.83113444639
 30
0.0
 11
555.271558049329
 21
247.33113444639
 31
0.0
  0
LINE
  5
138
330
1F
100
AcDbEntity
  8
1
  6
Continuous
 62
     3
100
AcDbLine
 10
555.271558049329
 20
242.33113444639
 30
0.0
 11
556.714933722303
 21
244.83113444639
 31
0.0
  0
LINE
  5
139
330
1F
100
AcDbEntity
  8
1
  6
Continuous
 62
     3
100
AcDbLine
 10
552.3848067033808
 20
242.33113444639
 30
0.0
 11
555.271558049329
 21
242.33113444639
 31
0.0
  0
LINE
  5
13A
330
1F
100
AcDbEntity
  8
1
  6
Continuous
 62
     3
100
AcDbLine
 10
550.9414310304068
 20
244.83113444639
 30
0.0
 11
552.3848067033808
 21
242.33113444639
 31
0.0
  0
LINE
  5
13B
330
1F
100
AcDbEntity
  8
1
  6
Continuous
 62
     3
100
AcDbLine
 10
536.3848067033808
 20
247.33113444639
 30
0.0
 11
534.9414310304068
 21
244.83113444639
 31
0.0
  0
LINE
  5
13C
330
1F
100
AcDbEntity
  8
1
  6
Continuous
 62
     3
100
AcDbLine
 10
539.271558049329
 20
247.33113444639
 30
0.0
 11
536.3848067033808
 21
247.33113444639
 31
0.0
  0
LINE
  5
13D
330
1F
100
AcDbEntity
  8
1
  6
Continuous
 62
     3
100
AcDbLine
 10
540.714933722303
 20
244.83113444639
 30
0.0
 11
539.271558049329
 21
247.33113444639
 31
0.0
  0
LINE
  5
13E
330
1F
100
AcDbEntity
  8
1
  6
Continuous
 62
     3
100
AcDbLine
 10
539.271558049329
 20
242.33113444639
 30
0.0
 11
540.714933722303
 21
244.83113444639
 31
0.0
  0
LINE
  5
13F
330
1F
100
AcDbEntity
  8
1
  6
Continuous
 62
     3
100
AcDbLine
 10
536.3848067033808
 20
242.33113444639
 30
0.0
 11
539.271558049329
 21
242.33113444639
 31
0.0
  0
LINE
  5
140
330
1F
100
AcDbEntity
  8
1
  6
Continuous
 62
     3
100
AcDbLine
 10
534.9414310304068
 20
244.83113444639
 30
0.0
 11
536.3848067033808
 21
242.33113444639
 31
0.0
  0
ARC
  5
141
330
1F
100
AcDbEntity
  8
1
  6
Continuous
 62
     7
100
AcDbCircle
 10
371.6615707356399
 20
294.7704742746102
 30
0.0
 40
4.0
100
AcDbArc
 50
-90.0
 51
51.31781254651052
  0
ARC
  5
142
330
1F
100
AcDbEntity
  8
1
  6
Continuous
 62
     7
100
AcDbCircle
 10
371.6615707356399
 20
312.7704742746102
 30
0.0
 40
4.0
100
AcDbArc
 50
0.0
 51
90.0
  0
ARC
  5
143
330
1F
100
AcDbEntity
  8
1
  6
Continuous
 62
     7
100
AcDbCircle
 10
217.5615707356431
 20
312.7704742746102
 30
0.0
 40
4.0
100
AcDbArc
 50
0.0
 51
180.0
  0
ARC
  5
144
330
1F
100
AcDbEntity
  8
1
  6
Continuous
 62
     7
100
AcDbCircle
 10
217.5615707356431
 20
312.7704742746102
 30
0.0
 40
4.0
100
AcDbArc
 50
180.0
 51
0.0
  0
ARC
  5
145
330
1F
100
AcDbEntity
  8
1
  6
Continuous
 62
     7
100
AcDbCircle
 10
371.6615707356399
 20
312.7704742746102
 30
0.0
 40
4.0
100
AcDbArc
 50
180.0
 51
0.0
  0
ARC
  5
146
330
1F
100
AcDbEntity
  8
1
  6
Continuous
 62
     7
100
AcDbCircle
 10
371.6615707356399
 20
312.7704742746102
 30
0.0
 40
4.0
100
AcDbArc
 50
90.0
 51
180.0
  0
ARC
  5
147
330
1F
100
AcDbEntity
  8
1
  6
Continuous
 62
     7
100
AcDbCircle
 10
371.6615707356399
 20
294.7704742746102
 30
0.0
 40
4.0
100
AcDbArc
 50
90.0
 51
-90.0
  0
ARC
  5
148
330
1F
100
AcDbEntity
  8
1
  6
Continuous
 62
     7
100
AcDbCircle
 10
371.6615707356399
 20
294.7704742746102
 30
0.0
 40
4.0
100
AcDbArc
 50
-90.0
 51
90.0
  0
ARC
  5
149
330
1F
100
AcDbEntity
  8
1
  6
Continuous
 62
     7
100
AcDbCircle
 10
371.6615707356399
 20
312.7704742746102
 30
0.0
 40
4.0
100
AcDbArc
 50
0.0
 51
90.0
  0
ARC
  5
14A
330
1F
100
AcDbEntity
  8
1
  6
Continuous
 62
     7
100
AcDbCircle
 10
371.6615707356399
 20
312.7704742746102
 30
0.0
 40
4.000000000000085
100
AcDbArc
 50
-51.31781254651154
 51
0.0
  0
ARC
  5
14B
330
1F
100
AcDbEntity
  8
1
  6
Continuous
 62
     7
100
AcDbCircle
 10
413.6115707356401
 20
235.83113444639
 30
0.0
 40
4.0
100
AcDbArc
 50
-90.0
 51
51.31781254651052
  0
ARC
  5
14C
330
1F
100
AcDbEntity
  8
1
  6
Continuous
 62
     7
100
AcDbCircle
 10
413.6115707356401
 20
253.83113444639
 30
0.0
 40
3.999999999999996
100
AcDbArc
 50
-51.31781254651052
 51
90.0
  0
ARC
  5
14D
330
1F
100
AcDbEntity
  8
1
  6
Continuous
 62
     3
100
AcDbCircle
 10
405.1673934840634
 20
249.1612614653123
 30
0.0
 40
2.555822748422881
100
AcDbArc
 50
145.6157525319553
 51
-145.6157525319537
  0
ARC
  5
14E
330
1F
100
AcDbEntity
  8
1
  6
Continuous
 62
     3
100
AcDbCircle
 10
412.1649887482548
 20
244.83113444639
 30
0.0
 40
9.553418012614335
100
AcDbArc
 50
162.4120462260049
 51
-162.4120462260056
  0
ARC
  5
14F
330
1F
100
AcDbEntity
  8
1
  6
Continuous
 62
     3
100
AcDbCircle
 10
405.1673934840634
 20
240.5010074274677
 30
0.0
 40
2.555822748422993
100
AcDbArc
 50
145.6157525319516
 51
-145.6157525319574
  0
ARC
  5
150
330
1F
100
AcDbEntity
  8
1
  6
Continuous
 62
     3
100
AcDbCircle
 10
167.6673934840643
 20
249.1612614653123
 30
0.0
 40
2.555822748422998
100
AcDbArc
 50
145.6157525319571
 51
-145.6157525319555
  0
ARC
  5
151
330
1F
100
AcDbEntity
  8
1
  6
Continuous
 62
     3
100
AcDbCircle
 10
174.6649887482557
 20
244.83113444639
 30
0.0
 40
9.553418012614444
100
AcDbArc
 50
162.4120462260051
 51
-162.4120462260058
  0
ARC
  5
152
330
1F
100
AcDbEntity
  8
1
  6
Continuous
 62
     3
100
AcDbCircle
 10
167.6673934840643
 20
240.5010074274677
 30
0.0
 40
2.555822748423111
100
AcDbArc
 50
145.6157525319534
 51
-145.6157525319592
  0
ARC
  5
153
330
1F
100
AcDbEntity
  8
1
  6
Continuous
 62
     3
100
AcDbCircle
 10
200.5557479872181
 20
249.1612614653123
 30
0.0
 40
2.555822748423047
100
AcDbArc
 50
-34.3842474680445
 51
34.38424746804292
  0
ARC
  5
154
330
1F
100
AcDbEntity
  8
1
  6
Continuous
 62
     3
100
AcDbCircle
 10
193.5581527230269
 20
244.83113444639
 30
0.0
 40
9.55341801261422
100
AcDbArc
 50
-17.58795377399459
 51
17.58795377399524
  0
ARC
  5
155
330
1F
100
AcDbEntity
  8
1
  6
Continuous
 62
     3
100
AcDbCircle
 10
200.5557479872181
 20
240.5010074274677
 30
0.0
 40
2.555822748422934
100
AcDbArc
 50
-34.38424746804082
 51
34.3842474680466
  0
CIRCLE
  5
156
330
1F
100
AcDbEntity
  8
1
  6
Continuous
 62
     3
100
AcDbCircle
 10
650.62862254025
 20
244.83113444639
 30
0.0
 40
10.0
  0
CIRCLE
  5
157
330
1F
100
AcDbEntity
  8
1
  6
Continuous
 62
     3
100
AcDbCircle
 10
650.62862254025
 20
244.83113444639
 30
0.0
 40
5.0
  0
CIRCLE
  5
158
330
1F
100
AcDbEntity
  8
1
  6
Continuous
 62
     7
100
AcDbCircle
 10
175.6115707356411
 20
253.83113444639
 30
0.0
 40
4.000000000000199
  0
CIRCLE
  5
159
330
1F
100
AcDbEntity
  8
1
  6
Continuous
 62
     7
100
AcDbCircle
 10
175.6115707356411
 20
235.83113444639
 30
0.0
 40
4.0
  0
CIRCLE
  5
15A
330
1F
100
AcDbEntity
  8
1
  6
Continuous
 62
     7
100
AcDbCircle
 10
217.5615707356431
 20
294.7704742746102
 30
0.0
 40
4.0
  0
CIRCLE
  5
15B
330
1F
100
AcDbEntity
  8
1
  6
Continuous
 62
     7
100
AcDbCircle
 10
413.6115707356401
 20
235.83113444639
 30
0.0
 40
4.0
  0
CIRCLE
  5
15C
330
1F
100
AcDbEntity
  8
1
  6
Continuous
 62
     7
100
AcDbCircle
 10
413.6115707356401
 20
253.83113444639
 30
0.0
 40
4.0
  0
CIRCLE
  5
15D
330
1F
100
AcDbEntity
  8
1
  6
Continuous
 62
     3
100
AcDbCircle
 10
553.8281823763549
 20
244.83113444639
 30
0.0
 40
4.30717967697251
  0
CIRCLE
  5
15E
330
1F
100
AcDbEntity
  8
1
  6
Continuous
 62
     3
100
AcDbCircle
 10
553.8281823763549
 20
244.83113444639
 30
0.0
 40
5.0
  0
CIRCLE
  5
15F
330
1F
100
AcDbEntity
  8
1
  6
Continuous
 62
     3
100
AcDbCircle
 10
537.8281823763549
 20
244.83113444639
 30
0.0
 40
4.30717967697251
  0
CIRCLE
  5
160
330
1F
100
AcDbEntity
  8
1
  6
Continuous
 62
     3
100
AcDbCircle
 10
537.8281823763549
 20
244.83113444639
 30
0.0
 40
5.0
  0
SPLINE
  5
161
330
1F
100
AcDbEntity
  8
1
  6
Continuous
 62
     7
100
AcDbSpline
210
0.0
220
0.0
230
1.0
 70
     8
 71
     3
 72
    12
 73
     8
 74
     6
 42
0.0000000001
 43
0.0000000001
 44
0.00000001
 40
0.0
 40
0.0
 40
0.0
 40
0.0
 40
2.898391707573528
 40
4.298565139239778
 40
6.705554025116049
 40
9.195235830749208
 40
11.55557680384687
 40
11.55557680384687
 40
11.55557680384687
 40
11.55557680384687
 10
516.8281823763549
 20
249.83113444639
 30
0.0
 10
515.5324800003851
 20
250.0622080386443
 30
0.0
 10
513.610841510453
 20
250.4049101260357
 30
0.0
 10
514.9685277436432
 20
252.8299534493012
 30
0.0
 10
516.6947512120981
 20
253.6242757670555
 30
0.0
 10
518.8226484683571
 20
255.872474798075
 30
0.0
 10
517.4810787070308
 20
257.1899594960835
 30
0.0
 10
516.8281823763549
 20
257.83113444639
 30
0.0
 11
516.8281823763549
 21
249.83113444639
 31
0.0
 11
514.2104182343048
 21
251.0753150551152
 31
0.0
 11
514.8015817050614
 21
252.3445712899185
 31
0.0
 11
516.6946547302122
 21
253.83113444639
 31
0.0
 11
518.1323084283641
 21
255.863784769857
 31
0.0
 11
516.8281823763549
 21
257.83113444639
 31
0.0
  0
SPLINE
  5
162
330
1F
100
AcDbEntity
  8
1
  6
Continuous
 62
     7
100
AcDbSpline
210
0.0
220
0.0
230
1.0
 70
     8
 71
     3
 72
     9
 73
     5
 74
     3
 42
0.0000000001
 43
0.0000000001
 44
0.00000001
 40
0.0
 40
0.0
 40
0.0
 40
0.0
 40
2.564157932693358
 40
5.233074062469793
 40
5.233074062469793
 40
5.233074062469793
 40
5.233074062469793
 10
516.8281823763549
 20
257.83113444639
 30
0.0
 10
515.9757340821559
 20
257.219577852389
 30
0.0
 10
514.2360108766967
 20
255.9714796330887
 30
0.0
 10
515.8642418749213
 20
254.5540411639502
 30
0.0
 10
516.6946547302122
 20
253.83113444639
 30
0.0
 11
516.8281823763549
 21
257.83113444639
 31
0.0
 11
515.0794527981313
 21
255.9558076039329
 31
0.0
 11
516.6946547302122
 21
253.83113444639
 31
0.0
  0
SPLINE
  5
163
330
1F
100
AcDbEntity
  8
1
  6
Continuous
 62
     7
100
AcDbSpline
210
0.0
220
0.0
230
1.0
 70
     8
 71
     3
 72
    12
 73
     8
 74
     6
 42
0.0000000001
 43
0.0000000001
 44
0.00000001
 40
0.0
 40
0.0
 40
0.0
 40
0.0
 40
2.89839170757354
 40
4.298565139239816
 40
6.705554025116053
 40
9.195235830749164
 40
11.55557680384685
 40
11.55557680384685
 40
11.55557680384685
 40
11.55557680384685
 10
516.8281823763549
 20
239.83113444639
 30
0.0
 10
515.5324800003851
 20
239.6000608541357
 30
0.0
 10
513.6108415104528
 20
239.2573587667443
 30
0.0
 10
514.9685277436432
 20
236.8323154434787
 30
0.0
 10
516.6947512120981
 20
236.0379931257243
 30
0.0
 10
518.8226484683572
 20
233.7897940947051
 30
0.0
 10
517.4810787070308
 20
232.4723093966967
 30
0.0
 10
516.8281823763549
 20
231.83113444639
 30
0.0
 11
516.8281823763549
 21
239.83113444639
 31
0.0
 11
514.2104182343048
 21
238.5869538376648
 31
0.0
 11
514.8015817050614
 21
237.3176976028614
 31
0.0
 11
516.6946547302122
 21
235.83113444639
 31
0.0
 11
518.1323084283641
 21
233.798484122923
 31
0.0
 11
516.8281823763549
 21
231.83113444639
 31
0.0
  0
SPLINE
  5
164
330
1F
100
AcDbEntity
  8
1
  6
Continuous
 62
     7
100
AcDbSpline
210
0.0
220
0.0
230
1.0
 70
     8
 71
     3
 72
     9
 73
     5
 74
     3
 42
0.0000000001
 43
0.0000000001
 44
0.00000001
 40
0.0
 40
0.0
 40
0.0
 40
0.0
 40
2.564157932693358
 40
5.23307406246977
 40
5.23307406246977
 40
5.23307406246977
 40
5.23307406246977
 10
516.8281823763549
 20
231.83113444639
 30
0.0
 10
515.9757340821559
 20
232.442691040391
 30
0.0
 10
514.2360108766968
 20
233.6907892596913
 30
0.0
 10
515.8642418749214
 20
235.1082277288298
 30
0.0
 10
516.6946547302122
 20
235.83113444639
 30
0.0
 11
516.8281823763549
 21
231.83113444639
 31
0.0
 11
515.0794527981313
 21
233.7064612888472
 31
0.0
 11
516.6946547302122
 21
235.83113444639
 31
0.0
  0
SPLINE
  5
165
330
1F
100
AcDbEntity
  8
1
  6
Continuous
 62
     7
100
AcDbSpline
210
0.0
220
0.0
230
1.0
 70
     8
 71
     3
 72
    12
 73
     8
 74
     6
 42
0.0000000001
 43
0.0000000001
 44
0.00000001
 40
0.0
 40
0.0
 40
0.0
 40
0.0
 40
2.898391707573565
 40
4.29856513923994
 40
6.705554025116087
 40
9.195235830749223
 40
11.55557680384682
 40
11.55557680384682
 40
11.55557680384682
 40
11.55557680384682
 10
679.62862254025
 20
257.83113444639
 30
0.0
 10
680.9243249162198
 20
257.6000608541357
 30
0.0
 10
682.8459634061521
 20
257.2573587667442
 30
0.0
 10
681.4882771729616
 20
254.8323154434787
 30
0.0
 10
679.7620537045067
 20
254.0379931257243
 30
0.0
 10
677.634156448248
 20
251.789794094705
 30
0.0
 10
678.9757262095741
 20
250.4723093966965
 30
0.0
 10
679.62862254025
 20
249.83113444639
 30
0.0
 11
679.62862254025
 21
257.83113444639
 31
0.0
 11
682.2463866823001
 21
256.5869538376647
 31
0.0
 11
681.6552232115434
 21
255.3176976028613
 31
0.0
 11
679.7621501863928
 21
253.8311344463899
 31
0.0
 11
678.3244964882408
 21
251.7984841229229
 31
0.0
 11
679.62862254025
 21
249.83113444639
 31
0.0
  0
SPLINE
  5
166
330
1F
100
AcDbEntity
  8
1
  6
Continuous
 62
     7
100
AcDbSpline
210
0.0
220
0.0
230
1.0
 70
     8
 71
     3
 72
     9
 73
     5
 74
     3
 42
0.0000000001
 43
0.0000000001
 44
0.00000001
 40
0.0
 40
0.0
 40
0.0
 40
0.0
 40
2.564157932693317
 40
5.233074062469774
 40
5.233074062469774
 40
5.233074062469774
 40
5.233074062469774
 10
679.62862254025
 20
249.83113444639
 30
0.0
 10
680.481070834449
 20
250.442691040391
 30
0.0
 10
682.2207940399081
 20
251.6907892596912
 30
0.0
 10
680.5925630416836
 20
253.1082277288298
 30
0.0
 10
679.7621501863928
 20
253.83113444639
 30
0.0
 11
679.62862254025
 21
249.83113444639
 31
0.0
 11
681.3773521184736
 21
251.7064612888471
 31
0.0
 11
679.7621501863928
 21
253.83113444639
 31
0.0
  0
SPLINE
  5
167
330
1F
100
AcDbEntity
  8
1
  6
Continuous
 62
     7
100
AcDbSpline
210
0.0
220
0.0
230
1.0
 70
     8
 71
     3
 72
    12
 73
     8
 74
     6
 42
0.0000000001
 43
0.0000000001
 44
0.00000001
 40
0.0
 40
0.0
 40
0.0
 40
0.0
 40
2.898391707573553
 40
4.298565139239851
 40
6.705554025116015
 40
9.195235830749173
 40
11.55557680384679
 40
11.55557680384679
 40
11.55557680384679
 40
11.55557680384679
 10
679.62862254025
 20
231.83113444639
 30
0.0
 10
680.9243249162198
 20
232.0622080386443
 30
0.0
 10
682.8459634061519
 20
232.4049101260357
 30
0.0
 10
681.4882771729617
 20
234.8299534493013
 30
0.0
 10
679.7620537045063
 20
235.6242757670557
 30
0.0
 10
677.6341564482478
 20
237.872474798075
 30
0.0
 10
678.9757262095741
 20
239.1899594960834
 30
0.0
 10
679.62862254025
 20
239.83113444639
 30
0.0
 11
679.62862254025
 21
231.83113444639
 31
0.0
 11
682.2463866823001
 21
233.0753150551153
 31
0.0
 11
681.6552232115434
 21
234.3445712899186
 31
0.0
 11
679.7621501863928
 21
235.83113444639
 31
0.0
 11
678.3244964882408
 21
237.8637847698571
 31
0.0
 11
679.62862254025
 21
239.83113444639
 31
0.0
  0
SPLINE
  5
168
330
1F
100
AcDbEntity
  8
1
  6
Continuous
 62
     7
100
AcDbSpline
210
0.0
220
0.0
230
1.0
 70
     8
 71
     3
 72
     9
 73
     5
 74
     3
 42
0.0000000001
 43
0.0000000001
 44
0.00000001
 40
0.0
 40
0.0
 40
0.0
 40
0.0
 40
2.564157932693338
 40
5.233074062469772
 40
5.233074062469772
 40
5.233074062469772
 40
5.233074062469772
 10
679.62862254025
 20
239.83113444639
 30
0.0
 10
680.481070834449
 20
239.219577852389
 30
0.0
 10
682.2207940399082
 20
237.9714796330887
 30
0.0
 10
680.5925630416836
 20
236.5540411639502
 30
0.0
 10
679.7621501863928
 20
235.83113444639
 30
0.0
 11
679.62862254025
 21
239.83113444639
 31
0.0
 11
681.3773521184736
 21
237.9558076039329
 31
0.0
 11
679.7621501863928
 21
235.83113444639
 31
0.0
  0
SPLINE
  5
169
330
1F
100
AcDbEntity
  8
1
  6
Continuous
 62
     7
100
AcDbSpline
210
0.0
220
0.0
230
1.0
 70
     8
 71
     3
 72
    12
 73
     8
 74
     6
 42
0.0000000001
 43
0.0000000001
 44
0.00000001
 40
0.0
 40
0.0
 40
0.0
 40
0.0
 40
2.898391707573692
 40
4.29856513923999
 40
6.705554025116262
 40
9.195235830749374
 40
11.55557680384694
 40
11.55557680384694
 40
11.55557680384694
 40
11.55557680384694
 10
574.8281823763549
 20
316.7704742746102
 30
0.0
 10
576.1238847523247
 20
316.5394006823558
 30
0.0
 10
578.0455232422571
 20
316.1966985949644
 30
0.0
 10
576.6878370090666
 20
313.7716552716989
 30
0.0
 10
574.9616135406116
 20
312.9773329539444
 30
0.0
 10
572.8337162843527
 20
310.7291339229251
 30
0.0
 10
574.1752860456791
 20
309.4116492249167
 30
0.0
 10
574.8281823763549
 20
308.7704742746102
 30
0.0
 11
574.8281823763549
 21
316.7704742746102
 31
0.0
 11
577.4459465184051
 21
315.5262936658849
 31
0.0
 11
576.8547830476484
 21
314.2570374310815
 31
0.0
 11
574.9617100224976
 21
312.7704742746101
 31
0.0
 11
573.5240563243457
 21
310.7378239511431
 31
0.0
 11
574.8281823763549
 21
308.7704742746102
 31
0.0
  0
SPLINE
  5
16A
330
1F
100
AcDbEntity
  8
1
  6
Continuous
 62
     7
100
AcDbSpline
210
0.0
220
0.0
230
1.0
 70
     8
 71
     3
 72
     9
 73
     5
 74
     3
 42
0.0000000001
 43
0.0000000001
 44
0.00000001
 40
0.0
 40
0.0
 40
0.0
 40
0.0
 40
2.564157932693296
 40
5.233074062469775
 40
5.233074062469775
 40
5.233074062469775
 40
5.233074062469775
 10
574.8281823763549
 20
308.7704742746102
 30
0.0
 10
575.6806306705537
 20
309.3820308686111
 30
0.0
 10
577.420353876013
 20
310.6301290879114
 30
0.0
 10
575.7921228777885
 20
312.04756755705
 30
0.0
 10
574.9617100224976
 20
312.7704742746102
 30
0.0
 11
574.8281823763549
 21
308.7704742746102
 31
0.0
 11
576.5769119545785
 21
310.6458011170673
 31
0.0
 11
574.9617100224976
 21
312.7704742746102
 31
0.0
  0
SPLINE
  5
16B
330
1F
100
AcDbEntity
  8
1
  6
Continuous
 62
     7
100
AcDbSpline
210
0.0
220
0.0
230
1.0
 70
     8
 71
     3
 72
    12
 73
     8
 74
     6
 42
0.0000000001
 43
0.0000000001
 44
0.00000001
 40
0.0
 40
0.0
 40
0.0
 40
0.0
 40
2.898391707573492
 40
4.29856513923969
 40
6.705554025116031
 40
9.195235830749191
 40
11.55557680384685
 40
11.55557680384685
 40
11.55557680384685
 40
11.55557680384685
 10
516.8281823763549
 20
308.7704742746102
 30
0.0
 10
515.5324800003853
 20
309.0015478668645
 30
0.0
 10
513.6108415104529
 20
309.3442499542558
 30
0.0
 10
514.9685277436431
 20
311.7692932775212
 30
0.0
 10
516.6947512120985
 20
312.5636155952759
 30
0.0
 10
518.8226484683569
 20
314.8118146262951
 30
0.0
 10
517.4810787070306
 20
316.1292993243036
 30
0.0
 10
516.8281823763549
 20
316.7704742746102
 30
0.0
 11
516.8281823763549
 21
308.7704742746102
 31
0.0
 11
514.2104182343048
 21
310.0146548833353
 31
0.0
 11
514.8015817050614
 21
311.2839111181386
 31
0.0
 11
516.6946547302122
 21
312.7704742746101
 31
0.0
 11
518.1323084283641
 21
314.8031245980772
 31
0.0
 11
516.8281823763549
 21
316.7704742746102
 31
0.0
  0
SPLINE
  5
16C
330
1F
100
AcDbEntity
  8
1
  6
Continuous
 62
     7
100
AcDbSpline
210
0.0
220
0.0
230
1.0
 70
     8
 71
     3
 72
     9
 73
     5
 74
     3
 42
0.0000000001
 43
0.0000000001
 44
0.00000001
 40
0.0
 40
0.0
 40
0.0
 40
0.0
 40
2.564157932693338
 40
5.233074062469772
 40
5.233074062469772
 40
5.233074062469772
 40
5.233074062469772
 10
516.8281823763549
 20
316.7704742746102
 30
0.0
 10
515.975734082156
 20
316.1589176806092
 30
0.0
 10
514.2360108766968
 20
314.910819461309
 30
0.0
 10
515.8642418749214
 20
313.4933809921704
 30
0.0
 10
516.6946547302122
 20
312.7704742746102
 30
0.0
 11
516.8281823763549
 21
316.7704742746102
 31
0.0
 11
515.0794527981313
 21
314.8951474321531
 31
0.0
 11
516.6946547302122
 21
312.7704742746102
 31
0.0
  0
SPLINE
  5
16D
330
1F
100
AcDbEntity
  8
1
  6
Continuous
 62
     7
100
AcDbSpline
210
0.0
220
0.0
230
1.0
 70
     8
 71
     3
 72
    12
 73
     8
 74
     6
 42
0.0000000001
 43
0.0000000001
 44
0.00000001
 40
0.0
 40
0.0
 40
0.0
 40
0.0
 40
2.898391707573667
 40
4.298565139239965
 40
6.705554025116202
 40
9.195235830749361
 40
11.55557680384698
 40
11.55557680384698
 40
11.55557680384698
 40
11.55557680384698
 10
574.8281823763549
 20
290.7704742746102
 30
0.0
 10
576.1238847523248
 20
291.0015478668645
 30
0.0
 10
578.0455232422571
 20
291.3442499542559
 30
0.0
 10
576.6878370090665
 20
293.7692932775215
 30
0.0
 10
574.9616135406116
 20
294.5636155952759
 30
0.0
 10
572.8337162843527
 20
296.8118146262951
 30
0.0
 10
574.1752860456792
 20
298.1292993243036
 30
0.0
 10
574.8281823763549
 20
298.7704742746102
 30
0.0
 11
574.8281823763549
 21
290.7704742746102
 31
0.0
 11
577.4459465184051
 21
292.0146548833355
 31
0.0
 11
576.8547830476484
 21
293.2839111181388
 31
0.0
 11
574.9617100224976
 21
294.7704742746102
 31
0.0
 11
573.5240563243457
 21
296.8031245980773
 31
0.0
 11
574.8281823763549
 21
298.7704742746102
 31
0.0
  0
SPLINE
  5
16E
330
1F
100
AcDbEntity
  8
1
  6
Continuous
 62
     7
100
AcDbSpline
210
0.0
220
0.0
230
1.0
 70
     8
 71
     3
 72
     9
 73
     5
 74
     3
 42
0.0000000001
 43
0.0000000001
 44
0.00000001
 40
0.0
 40
0.0
 40
0.0
 40
0.0
 40
2.564157932693338
 40
5.233074062469772
 40
5.233074062469772
 40
5.233074062469772
 40
5.233074062469772
 10
574.8281823763549
 20
298.7704742746102
 30
0.0
 10
575.6806306705539
 20
298.1589176806092
 30
0.0
 10
577.4203538760131
 20
296.9108194613089
 30
0.0
 10
575.7921228777884
 20
295.4933809921704
 30
0.0
 10
574.9617100224976
 20
294.7704742746102
 30
0.0
 11
574.8281823763549
 21
298.7704742746102
 31
0.0
 11
576.5769119545785
 21
296.8951474321531
 31
0.0
 11
574.9617100224976
 21
294.7704742746102
 31
0.0
  0
SPLINE
  5
16F
330
1F
100
AcDbEntity
  8
1
  6
Continuous
 62
     7
100
AcDbSpline
210
0.0
220
0.0
230
1.0
 70
     8
 71
     3
 72
    12
 73
     8
 74
     6
 42
0.0000000001
 43
0.0000000001
 44
0.00000001
 40
0.0
 40
0.0
 40
0.0
 40
0.0
 40
2.898391707573516
 40
4.298565139239869
 40
6.70555402511607
 40
9.19523583074923
 40
11.55557680384689
 40
11.55557680384689
 40
11.55557680384689
 40
11.55557680384689
 10
516.8281823763549
 20
298.7704742746102
 30
0.0
 10
515.5324800003851
 20
298.5394006823559
 30
0.0
 10
513.6108415104529
 20
298.1966985949645
 30
0.0
 10
514.9685277436431
 20
295.7716552716989
 30
0.0
 10
516.6947512120985
 20
294.9773329539447
 30
0.0
 10
518.822648468357
 20
292.7291339229253
 30
0.0
 10
517.4810787070306
 20
291.4116492249168
 30
0.0
 10
516.8281823763549
 20
290.7704742746102
 30
0.0
 11
516.8281823763549
 21
298.7704742746102
 31
0.0
 11
514.2104182343048
 21
297.526293665885
 31
0.0
 11
514.8015817050614
 21
296.2570374310816
 31
0.0
 11
516.6946547302122
 21
294.7704742746103
 31
0.0
 11
518.1323084283641
 21
292.7378239511432
 31
0.0
 11
516.8281823763549
 21
290.7704742746102
 31
0.0
  0
SPLINE
  5
170
330
1F
100
AcDbEntity
  8
1
  6
Continuous
 62
     7
100
AcDbSpline
210
0.0
220
0.0
230
1.0
 70
     8
 71
     3
 72
     9
 73
     5
 74
     3
 42
0.0000000001
 43
0.0000000001
 44
0.00000001
 40
0.0
 40
0.0
 40
0.0
 40
0.0
 40
2.564157932693296
 40
5.233074062469775
 40
5.233074062469775
 40
5.233074062469775
 40
5.233074062469775
 10
516.8281823763549
 20
290.7704742746102
 30
0.0
 10
515.9757340821559
 20
291.3820308686112
 30
0.0
 10
514.2360108766967
 20
292.6301290879114
 30
0.0
 10
515.8642418749214
 20
294.04756755705
 30
0.0
 10
516.6946547302122
 20
294.7704742746102
 30
0.0
 11
516.8281823763549
 21
290.7704742746102
 31
0.0
 11
515.0794527981313
 21
292.6458011170673
 31
0.0
 11
516.6946547302122
 21
294.7704742746102
 31
0.0
  0
ARC
  5
171
330
1F
100
AcDbEntity
  8
1
  6
Continuous
 62
     7
100
AcDbCircle
 10
197.6115707356411
 20
271.83113444639
 30
0.0
 40
1.0
100
AcDbArc
 50
90.0
 51
180.0
  0
ARC
  5
172
330
1F
100
AcDbEntity
  8
1
  6
Continuous
 62
     7
100
AcDbCircle
 10
391.6115707356401
 20
271.83113444639
 30
0.0
 40
1.0
100
AcDbArc
 50
0.0
 51
90.0
  0
ARC
  5
173
330
1F
100
AcDbEntity
  8
1
  6
Continuous
 62
     7
100
AcDbCircle
 10
197.6115707356411
 20
271.83113444639
 30
0.0
 40
3.0
100
AcDbArc
 50
90.0
 51
180.0
  0
ARC
  5
174
330
1F
100
AcDbEntity
  8
1
  6
Continuous
 62
     7
100
AcDbCircle
 10
391.6115707356401
 20
271.83113444639
 30
0.0
 40
3.0
100
AcDbArc
 50
0.0
 51
90.0
  0
ARC
  5
175
330
1F
100
AcDbEntity
  8
1
  6
Continuous
 62
     7
100
AcDbCircle
 10
645.62862254025
 20
261.83113444639
 30
0.0
 40
3.0
100
AcDbArc
 50
90.0
 51
180.0
  0
ARC
  5
176
330
1F
100
AcDbEntity
  8
1
  6
Continuous
 62
     7
100
AcDbCircle
 10
655.62862254025
 20
261.83113444639
 30
0.0
 40
3.0
100
AcDbArc
 50
0.0
 51
90.0
  0
ARC
  5
177
330
1F
100
AcDbEntity
  8
1
  6
Continuous
 62
     7
100
AcDbCircle
 10
645.62862254025
 20
227.83113444639
 30
0.0
 40
3.0
100
AcDbArc
 50
180.0
 51
-90.0
  0
ARC
  5
178
330
1F
100
AcDbEntity
  8
1
  6
Continuous
 62
     7
100
AcDbCircle
 10
655.62862254025
 20
227.83113444639
 30
0.0
 40
3.0
100
AcDbArc
 50
-90.0
 51
0.0
  0
ARC
  5
179
330
1F
100
AcDbEntity
  8
1
  6
Continuous
 62
     7
100
AcDbCircle
 10
178.6115707356411
 20
259.83113444639
 30
0.0
 40
5.0
100
AcDbArc
 50
90.0
 51
180.0
  0
ARC
  5
17A
330
1F
100
AcDbEntity
  8
1
  6
Continuous
 62
     7
100
AcDbCircle
 10
174.1115707356411
 20
258.33113444639
 30
0.0
 40
0.5
100
AcDbArc
 50
180.0
 51
-90.0
  0
ARC
  5
17B
330
1F
100
AcDbEntity
  8
1
  6
Continuous
 62
     7
100
AcDbCircle
 10
174.1115707356411
 20
231.33113444639
 30
0.0
 40
0.5
100
AcDbArc
 50
90.0
 51
180.0
  0
ARC
  5
17C
330
1F
100
AcDbEntity
  8
1
  6
Continuous
 62
     7
100
AcDbCircle
 10
178.6115707356411
 20
229.83113444639
 30
0.0
 40
5.0
100
AcDbArc
 50
180.0
 51
-90.0
  0
ARC
  5
17D
330
1F
100
AcDbEntity
  8
1
  6
Continuous
 62
     3
100
AcDbCircle
 10
388.6615707356401
 20
320.7704742746102
 30
0.0
 40
13.0
100
AcDbArc
 50
90.0
 51
180.0
  0
ARC
  5
17E
330
1F
100
AcDbEntity
  8
1
  6
Continuous
 62
     3
100
AcDbCircle
 10
378.6615707356401
 20
286.7704742746102
 30
0.0
 40
3.0
100
AcDbArc
 50
180.0
 51
-90.0
  0
ARC
  5
17F
330
1F
100
AcDbEntity
  8
1
  6
Continuous
 62
     3
100
AcDbCircle
 10
380.6615707356401
 20
286.7704742746102
 30
0.0
 40
3.0
100
AcDbArc
 50
-90.0
 51
0.0
  0
ARC
  5
180
330
1F
100
AcDbEntity
  8
1
  6
Continuous
 62
     3
100
AcDbCircle
 10
388.6615707356401
 20
320.7704742746102
 30
0.0
 40
5.0
100
AcDbArc
 50
90.0
 51
180.0
  0
ARC
  5
181
330
1F
100
AcDbEntity
  8
1
  6
Continuous
 62
     3
100
AcDbCircle
 10
412.56157073564
 20
320.7704742746102
 30
0.0
 40
5.0
100
AcDbArc
 50
0.0
 51
90.0
  0
ARC
  5
182
330
1F
100
AcDbEntity
  8
1
  6
Continuous
 62
     3
100
AcDbCircle
 10
412.6615707356401
 20
320.7704742746102
 30
0.0
 40
13.0
100
AcDbArc
 50
0.0
 51
90.0
  0
ARC
  5
183
330
1F
100
AcDbEntity
  8
1
  6
Continuous
 62
     3
100
AcDbCircle
 10
422.6615707356401
 20
202.83113444639
 30
0.0
 40
3.0
100
AcDbArc
 50
-90.0
 51
0.0
  0
ARC
  5
184
330
1F
100
AcDbEntity
  8
1
  6
Continuous
 62
     3
100
AcDbCircle
 10
420.56157073564
 20
202.83113444639
 30
0.0
 40
3.0
100
AcDbArc
 50
180.0
 51
-90.0
  0
ARC
  5
185
330
1F
100
AcDbEntity
  8
1
  6
DASH_CENTER
 62
     3
100
AcDbCircle
 10
412.6115707356401
 20
320.7704742746102
 30
0.0
 40
9.0
100
AcDbArc
 50
0.0
 51
90.0
  0
ARC
  5
186
330
1F
100
AcDbEntity
  8
1
  6
DASH_CENTER
 62
     3
100
AcDbCircle
 10
388.6615707356401
 20
320.7704742746102
 30
0.0
 40
9.0
100
AcDbArc
 50
90.0
 51
180.0
  0
ARC
  5
187
330
1F
100
AcDbEntity
  8
1
  6
Continuous
 62
     7
100
AcDbCircle
 10
386.6615707356399
 20
318.7704742746102
 30
0.0
 40
2.0
100
AcDbArc
 50
0.0
 51
90.0
  0
ARC
  5
188
330
1F
100
AcDbEntity
  8
1
  6
Continuous
 62
     7
100
AcDbCircle
 10
371.6615707356399
 20
318.7704742746102
 30
0.0
 40
2.0
100
AcDbArc
 50
90.0
 51
180.0
  0
ARC
  5
189
330
1F
100
AcDbEntity
  8
1
  6
Continuous
 62
     7
100
AcDbCircle
 10
370.1615707356399
 20
317.2704742746102
 30
0.0
 40
0.5
100
AcDbArc
 50
180.0
 51
-90.0
  0
ARC
  5
18A
330
1F
100
AcDbEntity
  8
1
  6
Continuous
 62
     7
100
AcDbCircle
 10
386.6615707356399
 20
288.7704742746102
 30
0.0
 40
2.0
100
AcDbArc
 50
-90.0
 51
0.0
  0
ARC
  5
18B
330
1F
100
AcDbEntity
  8
1
  6
Continuous
 62
     7
100
AcDbCircle
 10
371.6615707356399
 20
288.7704742746102
 30
0.0
 40
2.0
100
AcDbArc
 50
180.0
 51
-90.0
  0
ARC
  5
18C
330
1F
100
AcDbEntity
  8
1
  6
Continuous
 62
     7
100
AcDbCircle
 10
370.1615707356399
 20
290.2704742746102
 30
0.0
 40
0.5
100
AcDbArc
 50
90.0
 51
180.0
  0
ARC
  5
18D
330
1F
100
AcDbEntity
  8
1
  6
Continuous
 62
     3
100
AcDbCircle
 10
544.7781823763547
 20
202.83113444639
 30
0.0
 40
3.0
100
AcDbArc
 50
180.0
 51
-90.0
  0
ARC
  5
18E
330
1F
100
AcDbEntity
  8
1
  6
Continuous
 62
     3
100
AcDbCircle
 10
546.8281823763551
 20
202.78113444639
 30
0.0
 40
2.950423698386402
100
AcDbArc
 50
-89.02897806892173
 51
0.97102193107882
  0
ARC
  5
18F
330
1F
100
AcDbEntity
  8
1
  6
Continuous
 62
     7
100
AcDbCircle
 10
531.8281823763549
 20
229.83113444639
 30
0.0
 40
2.0
100
AcDbArc
 50
180.0
 51
-90.0
  0
ARC
  5
190
330
1F
100
AcDbEntity
  8
1
  6
Continuous
 62
     7
100
AcDbCircle
 10
559.8281823763549
 20
229.83113444639
 30
0.0
 40
2.0
100
AcDbArc
 50
-90.0
 51
0.0
  0
ARC
  5
191
330
1F
100
AcDbEntity
  8
1
  6
Continuous
 62
     7
100
AcDbCircle
 10
531.8281823763549
 20
259.83113444639
 30
0.0
 40
2.0
100
AcDbArc
 50
90.0
 51
180.0
  0
ARC
  5
192
330
1F
100
AcDbEntity
  8
1
  6
Continuous
 62
     7
100
AcDbCircle
 10
559.8281823763549
 20
259.83113444639
 30
0.0
 40
2.0
100
AcDbArc
 50
0.0
 51
90.0
  0
ARC
  5
193
330
1F
100
AcDbEntity
  8
1
  6
Continuous
 62
     7
100
AcDbCircle
 10
428.6115707356401
 20
259.83113444639
 30
0.0
 40
2.0
100
AcDbArc
 50
0.0
 51
90.0
  0
ARC
  5
194
330
1F
100
AcDbEntity
  8
1
  6
Continuous
 62
     7
100
AcDbCircle
 10
413.6115707356401
 20
259.83113444639
 30
0.0
 40
2.0
100
AcDbArc
 50
90.0
 51
180.0
  0
ARC
  5
195
330
1F
100
AcDbEntity
  8
1
  6
Continuous
 62
     7
100
AcDbCircle
 10
413.6115707356401
 20
229.83113444639
 30
0.0
 40
2.0
100
AcDbArc
 50
180.0
 51
-90.0
  0
ARC
  5
196
330
1F
100
AcDbEntity
  8
1
  6
Continuous
 62
     7
100
AcDbCircle
 10
412.1115707356401
 20
231.33113444639
 30
0.0
 40
0.5
100
AcDbArc
 50
90.0
 51
180.0
  0
ARC
  5
197
330
1F
100
AcDbEntity
  8
1
  6
Continuous
 62
     7
100
AcDbCircle
 10
412.1115707356401
 20
258.33113444639
 30
0.0
 40
0.5
100
AcDbArc
 50
180.0
 51
-90.0
  0
ARC
  5
198
330
1F
100
AcDbEntity
  8
1
  6
Continuous
 62
     7
100
AcDbCircle
 10
428.6115707356401
 20
229.83113444639
 30
0.0
 40
2.0
100
AcDbArc
 50
-90.0
 51
0.0
  0
ARC
  5
199
330
1F
100
AcDbEntity
  8
1
  6
Continuous
 62
     7
100
AcDbCircle
 10
531.8281823763549
 20
288.7704742746102
 30
0.0
 40
2.0
100
AcDbArc
 50
180.0
 51
-90.0
  0
ARC
  5
19A
330
1F
100
AcDbEntity
  8
1
  6
Continuous
 62
     7
100
AcDbCircle
 10
559.8281823763549
 20
288.7704742746102
 30
0.0
 40
2.0
100
AcDbArc
 50
-90.0
 51
0.0
  0
ARC
  5
19B
330
1F
100
AcDbEntity
  8
1
  6
Continuous
 62
     7
100
AcDbCircle
 10
531.8281823763549
 20
318.7704742746102
 30
0.0
 40
2.0
100
AcDbArc
 50
90.0
 51
180.0
  0
ARC
  5
19C
330
1F
100
AcDbEntity
  8
1
  6
Continuous
 62
     7
100
AcDbCircle
 10
559.8281823763549
 20
318.7704742746102
 30
0.0
 40
2.0
100
AcDbArc
 50
0.0
 51
90.0
  0
MTEXT
  5
19E
330
1F
100
AcDbEntity
  8
1
 62
     2
100
AcDbMText
 10
509.7879417722941
 20
10.96995117373945
 30
0.0
 40
8.0
 41
0.0
 71
     5
 72
     1
  1
TBC200,TBH200
  7
CONVERTER_6
 73
     1
 44
0.7202881152461
  0
MTEXT
  5
19F
330
1F
100
AcDbEntity
  8
1
 62
     2
100
AcDbMText
 10
723.0602671760231
 20
9.72365314075259
 30
0.0
 40
6.4
 41
0.0
 71
     5
 72
     1
  1
W_TBCH200_G_020
  7
CONVERTER_1
 73
     1
 44
0.7202881152461
  0
MTEXT
  5
1A0
330
1F
100
AcDbEntity
  8
1
 62
     2
100
AcDbMText
 10
542.1693008935032
 20
25.58885269283561
 30
0.0
 40
8.0
 41
0.0
 71
     9
 72
     1
  1
フードベヤシリーズ
  7
CONVERTER_2
 73
     1
 44
1.20048019207683
  0
MTEXT
  5
1A1
330
1F
100
AcDbEntity
  8
1
 62
     2
100
AcDbMText
 10
384.5458714368932
 20
22.68259867441741
 30
0.0
 40
6.4
 41
0.0
 71
     9
 72
     1
  1
2009.4.1
  7
CONVERTER_1
 73
     1
 44
1.20048019207683
  0
MTEXT
  5
1A2
330
1F
100
AcDbEntity
  8
1
 62
     2
100
AcDbMText
 10
713.689499170752
 20
25.79804091437451
 30
0.0
 40
8.0
 41
0.0
 71
     9
 72
     1
  1
GN2型 ガイド
  7
CONVERTER_2
 73
     1
 44
1.20048019207683
  0
DIMENSION
  5
1B7
330
1F
100
AcDbEntity
  8
1
100
AcDbDimension
  2
*D02
 10
642.62862254025
 20
186.292519319216
 30
0.0
 11
650.3136171501329
 21
191.372519319216
 31
0.0
 70
    32
  1
<>
 71
     5
 42
-1.0
 53
0.00013888888889
  3
ME10_DIM_0
100
AcDbAlignedDimension
 13
658.62862254025
 23
227.83113444639
 33
0.0
 14
642.62862254025
 24
227.83113444639
 34
0.0
100
AcDbRotatedDimension
  0
DIMENSION
  5
1C4
330
1F
100
AcDbEntity
  8
1
100
AcDbDimension
  2
*D14
 10
529.828182376355
 20
184.756088535143
 30
0.0
 11
545.115435150355
 21
189.956088535143
 31
0.0
 70
    32
  1
<>
 71
     5
 42
-1.0
 53
0.00013888888889
  3
ME10_DIM_1
100
AcDbAlignedDimension
 13
561.8281823763549
 23
229.83113444639
 33
0.0
 14
529.8281823763549
 24
231.83113444639
 34
0.0
100
AcDbRotatedDimension
  0
DIMENSION
  5
1D1
330
1F
100
AcDbEntity
  8
1
100
AcDbDimension
  2
*D25
 10
113.7842491163612
 20
274.83113444639
 30
0.0
 11
108.5842491163612
 21
244.066690811711
 31
0.0
 70
    32
  1
<>
 71
     5
 42
-1.0
 53
90.0
  3
ME10_DIM_2
100
AcDbAlignedDimension
 13
196.6115707356411
 23
204.83113444639
 33
0.0
 14
197.6115707356411
 24
274.83113444639
 34
0.0
 50
90.0
100
AcDbRotatedDimension
  0
DIMENSION
  5
1DE
330
1F
100
AcDbEntity
  8
1
100
AcDbDimension
  2
*D36
 10
135.989555612244
 20
274.83113444639
 30
0.0
 11
130.789555612244
 21
259.927624023056
 31
0.0
 70
    32
  1
<>
 71
     5
 42
-1.0
 53
90.0
  3
ME10_DIM_3
100
AcDbAlignedDimension
 13
166.46496095152
 23
244.83113444639
 33
0.0
 14
197.6115707356411
 24
274.83113444639
 34
0.0
 50
90.0
100
AcDbRotatedDimension
  0
DIMENSION
  5
1EB
330
1F
100
AcDbEntity
  8
1
100
AcDbDimension
  2
*D47
 10
152.6435354841562
 20
253.83113444639
 30
0.0
 11
145.455486227214
 21
250.814731991042
 31
0.0
 70
    32
  1
<>
 71
     5
 42
-1.0
 53
90.0
  3
ME10_DIM_4
100
AcDbAlignedDimension
 13
169.0116652522887
 23
235.83113444639
 33
0.0
 14
170.6115707356411
 24
253.83113444639
 34
0.0
 50
90.0
100
AcDbRotatedDimension
  0
DIMENSION
  5
1F8
330
1F
100
AcDbEntity
  8
1
100
AcDbDimension
  2
*D58
 10
175.611570735641
 20
152.36716679054
 30
0.0
 11
185.9514952279805
 21
158.04716679054
 31
0.0
 70
    32
  1
<>
 71
     5
 42
-1.0
 53
0.00013888888889
  3
ME10_DIM_5
100
AcDbAlignedDimension
 13
194.6115707356411
 23
204.83113444639
 33
0.0
 14
175.6115707356411
 24
229.83113444639
 34
0.0
100
AcDbRotatedDimension
  0
DIMENSION
  5
205
330
1F
100
AcDbEntity
  8
1
100
AcDbDimension
  2
*D69
 10
394.6115707356401
 20
152.36716679054
 30
0.0
 11
408.0177854202769
 21
157.56716679054
 31
0.0
 70
    32
  1
<>
 71
     5
 42
-1.0
 53
0.00013888888889
  3
ME10_DIM_6
100
AcDbAlignedDimension
 13
421.6115707356401
 23
197.9343435801775
 33
0.0
 14
394.6115707356401
 24
204.83113444639
 34
0.0
100
AcDbRotatedDimension
  0
DIMENSION
  5
214
330
1F
100
AcDbEntity
  8
1
100
AcDbDimension
  2
*D710
 10
417.6115707356402
 20
184.756088535143
 30
0.0
 11
463.299299848704
 21
189.956088535143
 31
0.0
 70
    32
  1
<>
 71
     5
 42
-1.0
 53
0.00013888888889
  3
ME10_DIM_7
100
AcDbAlignedDimension
 13
425.6115707356406
 23
202.83113444639
 33
0.0
 14
417.6115707356401
 24
202.83113444639
 34
0.0
100
AcDbRotatedDimension
  0
DIMENSION
  5
223
330
1F
100
AcDbEntity
  8
1
100
AcDbDimension
  2
*D811
 10
357.44275286256
 20
274.83113444639
 30
0.0
 11
352.24275286256
 21
316.7704742746102
 31
0.0
 70
    32
  1
22～55
 71
     5
 42
-1.0
 53
90.0
  3
ME10_DIM_8
100
AcDbAlignedDimension
 13
367.7240470410292
 23
303.7704742746102
 33
0.0
 14
379.6115707356401
 24
274.83113444639
 34
0.0
 50
90.0
100
AcDbRotatedDimension
  0
DIMENSION
  5
232
330
1F
100
AcDbEntity
  8
1
100
AcDbDimension
  2
*D912
 10
213.5615707356431
 20
384.135878022709
 30
0.0
 11
200.3538733838123
 21
389.335878022709
 31
0.0
 70
    32
  1
<>
 71
     5
 42
-1.0
 53
0.00013888888889
  3
ME10_DIM_9
100
AcDbAlignedDimension
 13
221.5615707356431
 23
312.7704742746102
 33
0.0
 14
213.5615707356431
 24
312.7704742746102
 34
0.0
100
AcDbRotatedDimension
  0
DIMENSION
  5
23F
330
1F
100
AcDbEntity
  8
1
100
AcDbDimension
  2
*D1013
 10
221.5615707356433
 20
384.135878022709
 30
0.0
 11
295.1676028497831
 21
389.335878022709
 31
0.0
 70
    32
  1
ベルト幅 BW (BW-4～BW+80)
 71
     5
 42
-1.0
 53
0.00013888888889
  3
ME10_DIM_10
100
AcDbAlignedDimension
 13
367.6615707356399
 23
312.7704742746102
 33
0.0
 14
221.5615707356431
 24
312.7704742746102
 34
0.0
100
AcDbRotatedDimension
  0
DIMENSION
  5
24D
330
1F
100
AcDbEntity
  8
1
100
AcDbDimension
  2
*D1114
 10
334.680170334927
 20
316.7704742746102
 30
0.0
 11
329.000170334927
 21
303.143308600589
 31
0.0
 70
    32
  1
<>
 71
     5
 42
-1.0
 53
90.0
  3
ME10_DIM_11
100
AcDbAlignedDimension
 13
371.6615707356399
 23
290.7704742746102
 33
0.0
 14
371.6615707356399
 24
316.7704742746102
 34
0.0
 50
90.0
100
AcDbRotatedDimension
  0
DIMENSION
  5
25C
330
1F
100
AcDbEntity
  8
1
100
AcDbDimension
  2
*D1215
 10
375.6615707356398
 20
384.135878022709
 30
0.0
 11
412.59745127094
 21
389.335878022709
 31
0.0
 70
    32
  1
<>
 71
     5
 42
-1.0
 53
0.00013888888889
  3
ME10_DIM_12
100
AcDbAlignedDimension
 13
367.6615707356399
 23
312.7704742746102
 33
0.0
 14
375.6615707356399
 24
312.7704742746102
 34
0.0
100
AcDbRotatedDimension
  0
DIMENSION
  5
269
330
1F
100
AcDbEntity
  8
1
100
AcDbDimension
  2
*D1316
 10
194.6115707356411
 20
152.36716679054
 30
0.0
 11
294.0913358715078
 21
157.56716679054
 31
0.0
 70
    32
  1
BW+50
 71
     5
 42
-1.0
 53
0.00013888888889
  3
ME10_DIM_13
100
AcDbAlignedDimension
 13
394.6115707356401
 23
204.83113444639
 33
0.0
 14
194.6115707356411
 24
204.83113444639
 34
0.0
100
AcDbRotatedDimension
  0
INSERT
  5
272
330
1F
100
AcDbEntity
  8
1
100
AcDbBlockReference
  2
*D1417
 10
0.0
 20
0.0
 30
0.0
  0
ENDSEC
  0
SECTION
  2
OBJECTS
  0
DICTIONARY
  5
C
330
0
100
AcDbDictionary
281
     1
  3
ACAD_GROUP
350
D
  3
ACAD_LAYOUT
350
1A
  3
ACAD_MLINESTYLE
350
17
  3
ACAD_PLOTSETTINGS
350
19
  3
ACAD_PLOTSTYLENAME
350
E
  0
DICTIONARY
  5
D
102
{ACAD_REACTORS
330
C
102
}
330
C
100
AcDbDictionary
281
     1
  0
DICTIONARY
  5
1A
102
{ACAD_REACTORS
330
C
102
}
330
C
100
AcDbDictionary
281
     1
  3
Layout1
350
1E
  3
Layout2
350
26
  3
Model
350
22
  0
DICTIONARY
  5
17
102
{ACAD_REACTORS
330
C
102
}
330
C
100
AcDbDictionary
281
     1
  3
Standard
350
18
  0
DICTIONARY
  5
19
102
{ACAD_REACTORS
330
C
102
}
330
C
100
AcDbDictionary
281
     1
  0
ACDBDICTIONARYWDFLT
  5
E
102
{ACAD_REACTORS
330
C
102
}
330
C
100
AcDbDictionary
281
     1
  3
Normal
350
F
100
AcDbDictionaryWithDefault
340
F
  0
LAYOUT
  5
1E
102
{ACAD_REACTORS
330
1A
102
}
330
1A
100
AcDbPlotSettings
  1

  2

  4

  6

 40
0.0
 41
0.0
 42
0.0
 43
0.0
 44
0.0
 45
0.0
 46
0.0
 47
0.0
 48
0.0
 49
0.0
140
0.0
141
0.0
142
1.0
143
1.0
 70
   688
 72
     0
 73
     0
 74
     5
  7

 75
    16
147
1.0
148
0.0
149
0.0
100
AcDbLayout
  1
Layout1
 70
     1
 71
     1
 10
0.0
 20
0.0
 11
0.0
 21
0.0
 12
0.0
 22
0.0
 32
0.0
 14
0.0
 24
0.0
 34
0.0
 15
0.0
 25
0.0
 35
0.0
146
0.0
 13
0.0
 23
0.0
 33
0.0
 16
1.0
 26
0.0
 36
0.0
 17
0.0
 27
1.0
 37
0.0
 76
     0
330
1B
  0
LAYOUT
  5
26
102
{ACAD_REACTORS
330
1A
102
}
330
1A
100
AcDbPlotSettings
  1

  2

  4

  6

 40
0.0
 41
0.0
 42
0.0
 43
0.0
 44
0.0
 45
0.0
 46
0.0
 47
0.0
 48
0.0
 49
0.0
140
0.0
141
0.0
142
1.0
143
1.0
 70
   688
 72
     0
 73
     0
 74
     5
  7

 75
    16
147
1.0
148
0.0
149
0.0
100
AcDbLayout
  1
Layout2
 70
     1
 71
     2
 10
0.0
 20
0.0
 11
0.0
 21
0.0
 12
0.0
 22
0.0
 32
0.0
 14
0.0
 24
0.0
 34
0.0
 15
0.0
 25
0.0
 35
0.0
146
0.0
 13
0.0
 23
0.0
 33
0.0
 16
1.0
 26
0.0
 36
0.0
 17
0.0
 27
1.0
 37
0.0
 76
     0
330
23
  0
LAYOUT
  5
22
102
{ACAD_REACTORS
330
1A
102
}
330
1A
100
AcDbPlotSettings
  1

  2

  4

  6

 40
0.0
 41
0.0
 42
0.0
 43
0.0
 44
0.0
 45
0.0
 46
0.0
 47
0.0
 48
0.0
 49
0.0
140
0.0
141
0.0
142
1.0
143
1.0
 70
  1712
 72
     0
 73
     0
 74
     0
  7

 75
     0
147
1.0
148
0.0
149
0.0
100
AcDbLayout
  1
Model
 70
     1
 71
     0
 10
0.0
 20
0.0
 11
0.0
 21
0.0
 12
0.0
 22
0.0
 32
0.0
 14
0.0
 24
-4.51230664191138
 34
0.0
 15
788.0
 25
536.0
 35
0.0
146
0.0
 13
0.0
 23
0.0
 33
0.0
 16
1.0
 26
0.0
 36
0.0
 17
0.0
 27
1.0
 37
0.0
 76
     0
330
1F
  0
MLINESTYLE
  5
18
102
{ACAD_REACTORS
330
17
102
}
330
17
100
AcDbMlineStyle
  2
Standard
 70
     0
  3

 62
   256
 51
90.0
 52
90.0
 71
     2
 49
0.5
 62
   256
  6
BYLAYER
 49
-0.5
 62
   256
  6
BYLAYER
  0
ACDBPLACEHOLDER
  5
F
102
{ACAD_REACTORS
330
E
102
}
330
E
  0
ENDSEC
  0
EOF
