  0
SECTION
  2
HEADER
  9
$ACADVER
  1
AC1015
  9
$ACADMAINTVER
 70
     6
  9
$DWGCODEPAGE
  3
DOS932
  9
$INSBASE
 10
0.0
 20
0.0
 30
0.0
  9
$EXTMIN
 10
0.0
 20
-4.51230664191138
 30
0.0
  9
$EXTMAX
 10
788.0
 20
536.0
 30
0.0
  9
$LIMMIN
 10
0.0
 20
0.0
  9
$LIMMAX
 10
12.0
 20
9.0
  9
$ORTHOMODE
 70
     0
  9
$REGENMODE
 70
     1
  9
$FILLMODE
 70
     1
  9
$QTEXTMODE
 70
     0
  9
$MIRRTEXT
 70
     1
  9
$LTSCALE
 40
1.0
  9
$ATTMODE
 70
     1
  9
$TEXTSIZE
 40
0.2
  9
$TRACEWID
 40
0.05
  9
$TEXTSTYLE
  7
Standard
  9
$CLAYER
  8
0
  9
$CELTYPE
  6
ByLayer
  9
$CECOLOR
 62
   256
  9
$CELTSCALE
 40
1.0
  9
$DISPSILH
 70
     0
  9
$DIMSCALE
 40
1.0
  9
$DIMASZ
 40
0.18
  9
$DIMEXO
 40
0.0625
  9
$DIMDLI
 40
0.38
  9
$DIMRND
 40
0.0
  9
$DIMDLE
 40
0.0
  9
$DIMEXE
 40
0.18
  9
$DIMTP
 40
0.0
  9
$DIMTM
 40
0.0
  9
$DIMTXT
 40
0.18
  9
$DIMCEN
 40
0.09
  9
$DIMTSZ
 40
0.0
  9
$DIMTOL
 70
     0
  9
$DIMLIM
 70
     0
  9
$DIMTIH
 70
     1
  9
$DIMTOH
 70
     1
  9
$DIMSE1
 70
     0
  9
$DIMSE2
 70
     0
  9
$DIMTAD
 70
     0
  9
$DIMZIN
 70
     0
  9
$DIMBLK
  1

  9
$DIMASO
 70
     1
  9
$DIMSHO
 70
     1
  9
$DIMPOST
  1

  9
$DIMAPOST
  1

  9
$DIMALT
 70
     0
  9
$DIMALTD
 70
     2
  9
$DIMALTF
 40
25.4
  9
$DIMLFAC
 40
1.0
  9
$DIMTOFL
 70
     0
  9
$DIMTVP
 40
0.0
  9
$DIMTIX
 70
     0
  9
$DIMSOXD
 70
     0
  9
$DIMSAH
 70
     0
  9
$DIMBLK1
  1

  9
$DIMBLK2
  1

  9
$DIMSTYLE
  2
Standard
  9
$DIMCLRD
 70
     0
  9
$DIMCLRE
 70
     0
  9
$DIMCLRT
 70
     0
  9
$DIMTFAC
 40
1.0
  9
$DIMGAP
 40
0.09
  9
$DIMJUST
 70
     0
  9
$DIMSD1
 70
     0
  9
$DIMSD2
 70
     0
  9
$DIMTOLJ
 70
     1
  9
$DIMTZIN
 70
     0
  9
$DIMALTZ
 70
     0
  9
$DIMALTTZ
 70
     0
  9
$DIMUPT
 70
     0
  9
$DIMDEC
 70
     4
  9
$DIMTDEC
 70
     4
  9
$DIMALTU
 70
     2
  9
$DIMALTTD
 70
     2
  9
$DIMTXSTY
  7
Standard
  9
$DIMAUNIT
 70
     0
  9
$DIMADEC
 70
     0
  9
$DIMALTRND
 40
0.0
  9
$DIMAZIN
 70
     0
  9
$DIMDSEP
 70
    46
  9
$DIMATFIT
 70
     3
  9
$DIMFRAC
 70
     0
  9
$DIMLDRBLK
  1

  9
$DIMLUNIT
 70
     2
  9
$DIMLWD
 70
    -2
  9
$DIMLWE
 70
    -2
  9
$DIMTMOVE
 70
     0
  9
$LUNITS
 70
     2
  9
$LUPREC
 70
     4
  9
$SKETCHINC
 40
0.1
  9
$FILLETRAD
 40
0.5
  9
$AUNITS
 70
     0
  9
$AUPREC
 70
     0
  9
$MENU
  1
.
  9
$ELEVATION
 40
0.0
  9
$PELEVATION
 40
0.0
  9
$THICKNESS
 40
0.0
  9
$LIMCHECK
 70
     0
  9
$CHAMFERA
 40
0.5
  9
$CHAMFERB
 40
0.5
  9
$CHAMFERC
 40
1.0
  9
$CHAMFERD
 40
0.0
  9
$SKPOLY
 70
     0
  9
$TDCREATE
 40
2455839.620534375
  9
$TDUCREATE
 40
2455839.245534375
  9
$TDUPDATE
 40
2455839.620534387
  9
$TDUUPDATE
 40
2455839.245534387
  9
$TDINDWG
 40
0.0000000116
  9
$TDUSRTIMER
 40
0.0000000116
  9
$USRTIMER
 70
     1
  9
$ANGBASE
 50
0.0
  9
$ANGDIR
 70
     0
  9
$PDMODE
 70
     0
  9
$PDSIZE
 40
0.0
  9
$PLINEWID
 40
0.0
  9
$SPLFRAME
 70
     0
  9
$SPLINETYPE
 70
     6
  9
$SPLINESEGS
 70
     8
  9
$HANDSEED
  5
27F
  9
$SURFTAB1
 70
     6
  9
$SURFTAB2
 70
     6
  9
$SURFTYPE
 70
     6
  9
$SURFU
 70
     6
  9
$SURFV
 70
     6
  9
$UCSBASE
  2

  9
$UCSNAME
  2

  9
$UCSORG
 10
0.0
 20
0.0
 30
0.0
  9
$UCSXDIR
 10
1.0
 20
0.0
 30
0.0
  9
$UCSYDIR
 10
0.0
 20
1.0
 30
0.0
  9
$UCSORTHOREF
  2

  9
$UCSORTHOVIEW
 70
     0
  9
$UCSORGTOP
 10
0.0
 20
0.0
 30
0.0
  9
$UCSORGBOTTOM
 10
0.0
 20
0.0
 30
0.0
  9
$UCSORGLEFT
 10
0.0
 20
0.0
 30
0.0
  9
$UCSORGRIGHT
 10
0.0
 20
0.0
 30
0.0
  9
$UCSORGFRONT
 10
0.0
 20
0.0
 30
0.0
  9
$UCSORGBACK
 10
0.0
 20
0.0
 30
0.0
  9
$PUCSBASE
  2

  9
$PUCSNAME
  2

  9
$PUCSORG
 10
0.0
 20
0.0
 30
0.0
  9
$PUCSXDIR
 10
1.0
 20
0.0
 30
0.0
  9
$PUCSYDIR
 10
0.0
 20
1.0
 30
0.0
  9
$PUCSORTHOREF
  2

  9
$PUCSORTHOVIEW
 70
     0
  9
$PUCSORGTOP
 10
0.0
 20
0.0
 30
0.0
  9
$PUCSORGBOTTOM
 10
0.0
 20
0.0
 30
0.0
  9
$PUCSORGLEFT
 10
0.0
 20
0.0
 30
0.0
  9
$PUCSORGRIGHT
 10
0.0
 20
0.0
 30
0.0
  9
$PUCSORGFRONT
 10
0.0
 20
0.0
 30
0.0
  9
$PUCSORGBACK
 10
0.0
 20
0.0
 30
0.0
  9
$USERI1
 70
     0
  9
$USERI2
 70
     0
  9
$USERI3
 70
     0
  9
$USERI4
 70
     0
  9
$USERI5
 70
     0
  9
$USERR1
 40
14.0
  9
$USERR2
 40
0.0
  9
$USERR3
 40
0.0
  9
$USERR4
 40
0.0
  9
$USERR5
 40
0.0
  9
$WORLDVIEW
 70
     1
  9
$SHADEDGE
 70
     3
  9
$SHADEDIF
 70
    70
  9
$TILEMODE
 70
     1
  9
$MAXACTVP
 70
    64
  9
$PINSBASE
 10
0.0
 20
0.0
 30
0.0
  9
$PLIMCHECK
 70
     0
  9
$PEXTMIN
 10
1.00000000000000E+20
 20
1.00000000000000E+20
 30
1.00000000000000E+20
  9
$PEXTMAX
 10
-1.00000000000000E+20
 20
-1.00000000000000E+20
 30
-1.00000000000000E+20
  9
$PLIMMIN
 10
0.0
 20
0.0
  9
$PLIMMAX
 10
12.0
 20
9.0
  9
$UNITMODE
 70
     0
  9
$VISRETAIN
 70
     1
  9
$PLINEGEN
 70
     0
  9
$PSLTSCALE
 70
     1
  9
$TREEDEPTH
 70
  3020
  9
$CMLSTYLE
  2
Standard
  9
$CMLJUST
 70
     0
  9
$CMLSCALE
 40
1.0
  9
$PROXYGRAPHICS
 70
     1
  9
$MEASUREMENT
 70
     1
  9
$CELWEIGHT
370
    -1
  9
$ENDCAPS
280
     0
  9
$JOINSTYLE
280
     0
  9
$LWDISPLAY
290
     0
  9
$INSUNITS
 70
     1
  9
$HYPERLINKBASE
  1

  9
$STYLESHEET
  1

  9
$XEDIT
290
     1
  9
$CEPSNTYPE
380
     0
  9
$PSTYLEMODE
290
     1
  9
$FINGERPRINTGUID
  2
{CDB35C0F-4668-492F-B5FD-A12C3BB03F6F}
  9
$VERSIONGUID
  2
{FAEB1C32-E019-11D5-929B-00C0DF256EC4}
  9
$EXTNAMES
290
     1
  9
$PSVPSCALE
 40
0.0
  9
$OLESTARTUP
290
     0
  0
ENDSEC
  0
SECTION
  2
CLASSES
  0
CLASS
  1
ACDBDICTIONARYWDFLT
  2
AcDbDictionaryWithDefault
  3
ObjectDBX Classes
 90
        0
280
     0
281
     0
  0
CLASS
  1

  2
exOdDbCircle
  3

 90
        0
280
     0
281
     1
  0
CLASS
  1

  2
exOdDbSpline
  3

 90
        0
280
     0
281
     1
  0
CLASS
  1
ACDBPLACEHOLDER
  2
AcDbPlaceHolder
  3
ObjectDBX Classes
 90
        0
280
     0
281
     0
  0
CLASS
  1
LAYOUT
  2
AcDbLayout
  3
ObjectDBX Classes
 90
        0
280
     0
281
     0
  0
ENDSEC
  0
SECTION
  2
TABLES
  0
TABLE
  2
VPORT
  5
8
330
0
100
AcDbSymbolTable
 70
     1
  0
VPORT
  5
29
330
8
100
AcDbSymbolTableRecord
100
AcDbViewportTableRecord
  2
*Active
 70
     0
 10
0.0
 20
0.0
 11
1.0
 21
1.0
 12
394.0
 22
265.7438466790443
 13
0.0
 23
0.0
 14
0.5
 24
0.5
 15
0.5
 25
0.5
 16
0.0
 26
0.0
 36
1.0
 17
0.0
 27
0.0
 37
0.0
 40
594.5635373061026
 41
1.60267857142857
 42
50.0
 43
0.0
 44
0.0
 50
0.0
 51
0.0
 71
     0
 72
   100
 73
     1
 74
     3
 75
     0
 76
     0
 77
     0
 78
     0
281
     0
 65
     1
110
0.0
120
0.0
130
0.0
111
1.0
121
0.0
131
0.0
112
0.0
122
1.0
132
0.0
 79
     0
146
0.0
  0
ENDTAB
  0
TABLE
  2
LTYPE
  5
5
330
0
100
AcDbSymbolTable
 70
     8
  0
LTYPE
  5
14
330
5
100
AcDbSymbolTableRecord
100
AcDbLinetypeTableRecord
  2
ByBlock
 70
     0
  3

 72
    65
 73
     0
 40
0.0
  0
LTYPE
  5
15
330
5
100
AcDbSymbolTableRecord
100
AcDbLinetypeTableRecord
  2
ByLayer
 70
     0
  3

 72
    65
 73
     0
 40
0.0
  0
LTYPE
  5
16
330
5
100
AcDbSymbolTableRecord
100
AcDbLinetypeTableRecord
  2
Continuous
 70
     0
  3
Solid line
 72
    65
 73
     0
 40
0.0
  0
LTYPE
  5
2A
330
5
100
AcDbSymbolTableRecord
100
AcDbLinetypeTableRecord
  2
DASHED
 70
     0
  3
Dashed
 72
    65
 73
     2
 40
15.0
 49
7.0
 74
     0
 49
-8.0
 74
     0
  0
LTYPE
  5
2B
330
5
100
AcDbSymbolTableRecord
100
AcDbLinetypeTableRecord
  2
DOTTED
 70
     0
  3
Dotted
 72
    65
 73
     2
 40
1.0
 49
0.0
 74
     0
 49
-1.0
 74
     0
  0
LTYPE
  5
2C
330
5
100
AcDbSymbolTableRecord
100
AcDbLinetypeTableRecord
  2
DOT_CENTER
 70
     0
  3
Dot_Center
 72
    65
 73
     4
 40
14.0
 49
12.0
 74
     0
 49
-1.0
 74
     0
 49
0.0
 74
     0
 49
-1.0
 74
     0
  0
LTYPE
  5
2D
330
5
100
AcDbSymbolTableRecord
100
AcDbLinetypeTableRecord
  2
LONG_DASHED
 70
     0
  3
Long_Dashed
 72
    65
 73
     2
 40
15.0
 49
10.0
 74
     0
 49
-5.0
 74
     0
  0
LTYPE
  5
2E
330
5
100
AcDbSymbolTableRecord
100
AcDbLinetypeTableRecord
  2
DASH_CENTER
 70
     0
  3
Dash_Center
 72
    65
 73
     4
 40
14.0
 49
11.0
 74
     0
 49
-1.0
 74
     0
 49
1.0
 74
     0
 49
-1.0
 74
     0
  0
LTYPE
  5
2F
330
5
100
AcDbSymbolTableRecord
100
AcDbLinetypeTableRecord
  2
PHANTOM
 70
     0
  3
Phantom
 72
    65
 73
     6
 40
13.0
 49
10.0
 74
     0
 49
-1.0
 74
     0
 49
0.0
 74
     0
 49
-1.0
 74
     0
 49
0.0
 74
     0
 49
-1.0
 74
     0
  0
LTYPE
  5
30
330
5
100
AcDbSymbolTableRecord
100
AcDbLinetypeTableRecord
  2
CENTER_DASH_DASH
 70
     0
  3
Center_Dash_Dash
 72
    65
 73
     6
 40
14.0
 49
9.0
 74
     0
 49
-1.0
 74
     0
 49
1.0
 74
     0
 49
-1.0
 74
     0
 49
1.0
 74
     0
 49
-1.0
 74
     0
  0
ENDTAB
  0
TABLE
  2
LAYER
  5
2
330
0
100
AcDbSymbolTable
 70
     2
  0
LAYER
  5
10
330
2
100
AcDbSymbolTableRecord
100
AcDbLayerTableRecord
  2
0
 70
     0
 62
     7
  6
Continuous
370
    -3
390
F
  0
LAYER
  5
31
330
2
100
AcDbSymbolTableRecord
100
AcDbLayerTableRecord
  2
1
 70
     0
 62
     7
  6
Continuous
370
    -3
390
F
  0
ENDTAB
  0
TABLE
  2
STYLE
  5
3
330
0
100
AcDbSymbolTable
 70
    10
  0
STYLE
  5
11
330
3
100
AcDbSymbolTableRecord
100
AcDbTextStyleTableRecord
  2
Standard
 70
     0
 40
0.0
 41
1.0
 50
0.0
 71
     0
 42
0.2
  3
txt
  4

  0
STYLE
  5
50
330
3
100
AcDbSymbolTableRecord
100
AcDbTextStyleTableRecord
  2
CONVERTER_1
 70
     0
 40
0.0
 41
0.9
 50
0.0
 71
     0
 42
0.2
  3
txt.shx
  4

  0
STYLE
  5
52
330
3
100
AcDbSymbolTableRecord
100
AcDbTextStyleTableRecord
  2
CONVERTER_2
 70
     0
 40
0.0
 41
0.89
 50
0.0
 71
     0
 42
0.2
  3
MSMINCHO.TTC
  4

1001
ACAD
1000
MS Mincho
1071
    32785
  0
STYLE
  5
54
330
3
100
AcDbSymbolTableRecord
100
AcDbTextStyleTableRecord
  2
CONVERTER_3
 70
     0
 40
0.0
 41
1.068
 50
0.0
 71
     0
 42
0.2
  3
msmincho.ttc
  4

1001
ACAD
1000
MS Mincho
1071
    32785
  0
STYLE
  5
5A
330
3
100
AcDbSymbolTableRecord
100
AcDbTextStyleTableRecord
  2
CONVERTER_4
 70
     0
 40
0.0
 41
0.9025
 50
0.0
 71
     0
 42
0.2
  3
complex.shx
  4

  0
STYLE
  5
5E
330
3
100
AcDbSymbolTableRecord
100
AcDbTextStyleTableRecord
  2
CONVERTER_5
 70
     0
 40
0.0
 41
0.801
 50
0.0
 71
     0
 42
0.2
  3
msmincho.ttc
  4

1001
ACAD
1000
MS Mincho
1071
    32785
  0
STYLE
  5
19C
330
3
100
AcDbSymbolTableRecord
100
AcDbTextStyleTableRecord
  2
CONVERTER_6
 70
     0
 40
0.0
 41
0.9
 50
0.0
 71
     0
 42
0.2
  3
txt.shx
  4

  0
STYLE
  5
1A4
330
3
100
AcDbSymbolTableRecord
100
AcDbTextStyleTableRecord
  2
CONVERTER_7
 70
     0
 40
0.0
 41
0.72
 50
0.0
 71
     0
 42
0.2
  3
txt.shx
  4

  0
STYLE
  5
217
330
3
100
AcDbSymbolTableRecord
100
AcDbTextStyleTableRecord
  2
CONVERTER_8
 70
     0
 40
0.0
 41
0.675
 50
0.0
 71
     0
 42
0.2
  3
txt.shx
  4

  0
STYLE
  5
243
330
3
100
AcDbSymbolTableRecord
100
AcDbTextStyleTableRecord
  2
CONVERTER_9
 70
     0
 40
0.0
 41
0.6675
 50
0.0
 71
     0
 42
0.2
  3
msmincho.ttc
  4

1001
ACAD
1000
MS Mincho
1071
    32785
  0
ENDTAB
  0
TABLE
  2
VIEW
  5
6
330
0
100
AcDbSymbolTable
 70
     0
  0
ENDTAB
  0
TABLE
  2
UCS
  5
7
330
0
100
AcDbSymbolTable
 70
     0
  0
ENDTAB
  0
TABLE
  2
APPID
  5
9
330
0
100
AcDbSymbolTable
 70
     1
  0
APPID
  5
12
330
9
100
AcDbSymbolTableRecord
100
AcDbRegAppTableRecord
  2
ACAD
 70
     0
  0
ENDTAB
  0
TABLE
  2
DIMSTYLE
  5
A
330
0
100
AcDbSymbolTable
 70
    16
100
AcDbDimStyleTable
  0
DIMSTYLE
105
27
330
A
100
AcDbSymbolTableRecord
100
AcDbDimStyleTableRecord
  2
Standard
 70
     0
340
11
  0
DIMSTYLE
105
1B9
102
{ACAD_REACTORS
330
1BA
102
}
330
A
100
AcDbSymbolTableRecord
100
AcDbDimStyleTableRecord
  2
ME10_DIM_0
 70
     0
 41
5.12
 42
2.0
 44
2.0
 73
     0
 74
     0
 77
     1
 78
     8
140
6.4
147
2.0
172
     1
173
     1
176
     2
177
     2
178
     2
271
     2
340
50
343
1B3
344
1B3
  0
DIMSTYLE
105
1C8
102
{ACAD_REACTORS
330
1C9
102
}
330
A
100
AcDbSymbolTableRecord
100
AcDbDimStyleTableRecord
  2
ME10_DIM_1
 70
     0
  3
{\Fgdt;n}<> SUS303 
 41
5.12
 42
2.0
 44
2.0
 73
     0
 74
     0
 77
     1
 78
     8
140
6.4
147
2.0
172
     1
173
     1
176
     2
177
     2
178
     2
271
     2
340
50
343
1B3
344
1B3
  0
DIMSTYLE
105
1D7
102
{ACAD_REACTORS
330
1D8
102
}
330
A
100
AcDbSymbolTableRecord
100
AcDbDimStyleTableRecord
  2
ME10_DIM_2
 70
     0
  3
{\Fgdt;n}<> SUS303 
 41
5.12
 42
2.0
 44
2.0
 73
     0
 74
     0
 77
     1
 78
     8
140
6.4
147
2.0
172
     1
173
     1
176
     2
177
     2
178
     2
271
     2
340
50
343
1B3
344
1B3
  0
DIMSTYLE
105
1E4
102
{ACAD_REACTORS
330
1E5
102
}
330
A
100
AcDbSymbolTableRecord
100
AcDbDimStyleTableRecord
  2
ME10_DIM_3
 70
     0
 41
5.12
 42
2.0
 44
2.0
 73
     0
 74
     0
 77
     1
 78
     8
140
6.4
147
2.0
172
     1
173
     1
176
     2
177
     2
178
     2
271
     2
340
50
343
1B3
344
1B3
  0
DIMSTYLE
105
1F1
102
{ACAD_REACTORS
330
1F2
102
}
330
A
100
AcDbSymbolTableRecord
100
AcDbDimStyleTableRecord
  2
ME10_DIM_4
 70
     0
 41
5.12
 42
2.0
 44
2.0
 73
     0
 74
     0
 77
     1
 78
     8
140
6.4
147
2.0
172
     1
173
     1
176
     2
177
     2
178
     2
271
     2
340
50
343
1B3
344
1B3
  0
DIMSTYLE
105
1FE
102
{ACAD_REACTORS
330
1FF
102
}
330
A
100
AcDbSymbolTableRecord
100
AcDbDimStyleTableRecord
  2
ME10_DIM_5
 70
     0
 41
5.12
 42
2.0
 44
2.0
 73
     0
 74
     0
 77
     1
 78
     8
140
6.4
147
2.0
172
     1
173
     1
176
     2
177
     2
178
     2
271
     2
340
50
343
1B3
344
1B3
  0
DIMSTYLE
105
20C
102
{ACAD_REACTORS
330
20D
102
}
330
A
100
AcDbSymbolTableRecord
100
AcDbDimStyleTableRecord
  2
ME10_DIM_6
 70
     0
 41
5.12
 42
2.0
 44
2.0
 73
     0
 74
     0
 77
     1
 78
     8
140
6.4
147
2.0
172
     1
173
     1
176
     2
177
     2
178
     2
271
     2
340
50
343
1B3
344
1B3
  0
DIMSTYLE
105
21B
102
{ACAD_REACTORS
330
21C
102
}
330
A
100
AcDbSymbolTableRecord
100
AcDbDimStyleTableRecord
  2
ME10_DIM_7
 70
     0
 41
5.12
 42
2.0
 44
2.0
 73
     0
 74
     0
 77
     1
 78
     8
140
6.4
147
2.0
172
     1
173
     1
176
     2
177
     2
178
     4
271
     2
340
217
343
1B3
344
1B3
  0
DIMSTYLE
105
22A
102
{ACAD_REACTORS
330
22B
102
}
330
A
100
AcDbSymbolTableRecord
100
AcDbDimStyleTableRecord
  2
ME10_DIM_8
 70
     0
 41
5.12
 42
2.0
 44
2.0
 73
     0
 74
     0
 77
     1
 78
     8
140
6.4
147
2.0
172
     1
173
     1
176
     2
177
     2
178
     2
271
     2
340
50
343
1B3
344
1B3
  0
DIMSTYLE
105
239
102
{ACAD_REACTORS
330
23A
102
}
330
A
100
AcDbSymbolTableRecord
100
AcDbDimStyleTableRecord
  2
ME10_DIM_9
 70
     0
  3
FB32xt<> SUS304 COLD
 41
5.12
 42
2.0
 44
2.0
 73
     0
 74
     0
 77
     1
 78
     8
140
6.4
147
2.0
172
     1
173
     1
176
     2
177
     2
178
     2
271
     2
340
50
343
1B3
344
1B3
  0
DIMSTYLE
105
247
102
{ACAD_REACTORS
330
248
102
}
330
A
100
AcDbSymbolTableRecord
100
AcDbDimStyleTableRecord
  2
ME10_DIM_10
 70
     0
 41
5.12
 42
2.0
 44
2.0
 73
     0
 74
     0
 77
     1
 78
     8
140
6.4
147
2.0
172
     1
173
     1
176
     2
177
     2
178
     4
271
     2
340
243
343
1B3
344
1B3
  0
DIMSTYLE
105
254
102
{ACAD_REACTORS
330
255
102
}
330
A
100
AcDbSymbolTableRecord
100
AcDbDimStyleTableRecord
  2
ME10_DIM_11
 70
     0
 41
5.12
 42
2.0
 44
2.0
 73
     0
 74
     0
 77
     1
 78
     8
140
6.4
147
2.0
172
     1
173
     1
176
     2
177
     2
178
     2
271
     2
340
50
343
1B3
344
1B3
  0
DIMSTYLE
105
261
102
{ACAD_REACTORS
330
262
102
}
330
A
100
AcDbSymbolTableRecord
100
AcDbDimStyleTableRecord
  2
ME10_DIM_12
 70
     0
 41
5.12
 42
2.0
 44
2.0
 73
     0
 74
     0
 77
     1
 78
     8
140
6.4
147
2.0
172
     1
173
     1
176
     2
177
     2
178
     2
271
     2
340
50
343
1B3
344
1B3
  0
DIMSTYLE
105
270
102
{ACAD_REACTORS
330
271
102
}
330
A
100
AcDbSymbolTableRecord
100
AcDbDimStyleTableRecord
  2
ME10_DIM_13
 70
     0
 41
6.4
 42
2.0
 44
2.0
 73
     0
 74
     0
 77
     1
 78
     8
140
6.4
147
1.4
172
     1
173
     1
176
     2
177
     2
178
     2
271
     2
340
50
343
1B3
344
1B3
  0
DIMSTYLE
105
27D
102
{ACAD_REACTORS
330
27E
102
}
330
A
100
AcDbSymbolTableRecord
100
AcDbDimStyleTableRecord
  2
ME10_DIM_14
 70
     0
 41
5.12
 42
2.0
 44
2.0
 73
     0
 74
     0
 77
     1
 78
     8
140
6.4
147
2.0
172
     1
173
     1
176
     2
177
     2
178
     2
271
     2
340
50
343
1B3
344
1B3
  0
ENDTAB
  0
TABLE
  2
BLOCK_RECORD
  5
1
330
0
100
AcDbSymbolTable
 70
    18
  0
BLOCK_RECORD
  5
1F
330
1
100
AcDbSymbolTableRecord
100
AcDbBlockTableRecord
  2
*Model_Space
340
22
  0
BLOCK_RECORD
  5
1B
330
1
100
AcDbSymbolTableRecord
100
AcDbBlockTableRecord
  2
*Paper_Space
340
1E
  0
BLOCK_RECORD
  5
23
330
1
100
AcDbSymbolTableRecord
100
AcDbBlockTableRecord
  2
*Paper_Space0
340
26
  0
BLOCK_RECORD
  5
32
330
1
100
AcDbSymbolTableRecord
100
AcDbBlockTableRecord
  2
Zuwaku-A3-web
340
0
102
{BLKREFS
331
35
102
}
  0
BLOCK_RECORD
  5
1A8
330
1
100
AcDbSymbolTableRecord
100
AcDbBlockTableRecord
  2
*D02
340
0
  0
BLOCK_RECORD
  5
1B3
330
1
100
AcDbSymbolTableRecord
100
AcDbBlockTableRecord
  2
_Open30
340
0
  0
BLOCK_RECORD
  5
1BB
330
1
100
AcDbSymbolTableRecord
100
AcDbBlockTableRecord
  2
*D14
340
0
  0
BLOCK_RECORD
  5
1CA
330
1
100
AcDbSymbolTableRecord
100
AcDbBlockTableRecord
  2
*D25
340
0
  0
BLOCK_RECORD
  5
1D9
330
1
100
AcDbSymbolTableRecord
100
AcDbBlockTableRecord
  2
*D36
340
0
  0
BLOCK_RECORD
  5
1E6
330
1
100
AcDbSymbolTableRecord
100
AcDbBlockTableRecord
  2
*D47
340
0
  0
BLOCK_RECORD
  5
1F3
330
1
100
AcDbSymbolTableRecord
100
AcDbBlockTableRecord
  2
*D58
340
0
  0
BLOCK_RECORD
  5
200
330
1
100
AcDbSymbolTableRecord
100
AcDbBlockTableRecord
  2
*D69
340
0
  0
BLOCK_RECORD
  5
20E
330
1
100
AcDbSymbolTableRecord
100
AcDbBlockTableRecord
  2
*D710
340
0
  0
BLOCK_RECORD
  5
21D
330
1
100
AcDbSymbolTableRecord
100
AcDbBlockTableRecord
  2
*D811
340
0
  0
BLOCK_RECORD
  5
22C
330
1
100
AcDbSymbolTableRecord
100
AcDbBlockTableRecord
  2
*D912
340
0
  0
BLOCK_RECORD
  5
23B
330
1
100
AcDbSymbolTableRecord
100
AcDbBlockTableRecord
  2
*D1013
340
0
  0
BLOCK_RECORD
  5
249
330
1
100
AcDbSymbolTableRecord
100
AcDbBlockTableRecord
  2
*D1114
340
0
  0
BLOCK_RECORD
  5
256
330
1
100
AcDbSymbolTableRecord
100
AcDbBlockTableRecord
  2
*D1215
340
0
  0
BLOCK_RECORD
  5
263
330
1
100
AcDbSymbolTableRecord
100
AcDbBlockTableRecord
  2
*D1316
340
0
  0
BLOCK_RECORD
  5
272
330
1
100
AcDbSymbolTableRecord
100
AcDbBlockTableRecord
  2
*D1417
340
0
  0
ENDTAB
  0
ENDSEC
  0
SECTION
  2
BLOCKS
  0
BLOCK
  5
20
330
1F
100
AcDbEntity
  8
0
100
AcDbBlockBegin
  2
*Model_Space
 70
     0
 71
     0
 10
0.0
 20
0.0
 30
0.0
  3
*Model_Space
  1

  0
ENDBLK
  5
21
330
1F
100
AcDbEntity
  8
0
100
AcDbBlockEnd
  0
BLOCK
  5
1C
330
1B
100
AcDbEntity
 67
     1
  8
0
100
AcDbBlockBegin
  2
*Paper_Space
 70
     0
 71
     0
 10
0.0
 20
0.0
 30
0.0
  3
*Paper_Space
  1

  0
ENDBLK
  5
1D
330
1B
100
AcDbEntity
 67
     1
  8
0
100
AcDbBlockEnd
  0
BLOCK
  5
24
330
23
100
AcDbEntity
  8
0
100
AcDbBlockBegin
  2
*Paper_Space0
 70
     0
 71
     0
 10
0.0
 20
0.0
 30
0.0
  3
*Paper_Space0
  1

  0
ENDBLK
  5
25
330
23
100
AcDbEntity
  8
0
100
AcDbBlockEnd
  0
BLOCK
  5
33
330
32
100
AcDbEntity
  8
0
100
AcDbBlockBegin
  2
Zuwaku-A3-web
 70
     0
 71
     0
 10
196.9999999999998
 20
134.0
 30
0.0
  3
Zuwaku-A3-web
  1

  0
POINT
  5
36
330
32
100
AcDbEntity
  8
1
 62
     3
 60
     1
100
AcDbPoint
 10
0.0
 20
0.0
 30
0.0
  0
POINT
  5
37
330
32
100
AcDbEntity
  8
1
 62
     3
 60
     1
100
AcDbPoint
 10
2.5
 20
12.5
 30
0.0
  0
POINT
  5
38
330
32
100
AcDbEntity
  8
1
 62
     3
 60
     1
100
AcDbPoint
 10
9.5
 20
12.5
 30
0.0
  0
POINT
  5
39
330
32
100
AcDbEntity
  8
1
 62
     3
 60
     1
100
AcDbPoint
 10
162.5
 20
15.0
 30
0.0
  0
POINT
  5
3A
330
32
100
AcDbEntity
  8
1
 62
     3
 60
     1
100
AcDbPoint
 10
202.0
 20
15.0
 30
0.0
  0
POINT
  5
3B
330
32
100
AcDbEntity
  8
1
 62
     3
 60
     1
100
AcDbPoint
 10
162.5
 20
20.0
 30
0.0
  0
LINE
  5
3C
330
32
100
AcDbEntity
  8
1
  6
Continuous
 62
     4
100
AcDbLine
 10
295.0
 20
20.0
 30
0.0
 11
295.0
 21
0.0
 31
0.0
  0
LINE
  5
3D
330
32
100
AcDbEntity
  8
1
  6
Continuous
 62
     4
100
AcDbLine
 10
394.0
 20
20.0
 30
0.0
 11
0.0
 21
20.0
 31
0.0
  0
LINE
  5
3E
330
32
100
AcDbEntity
  8
1
  6
Continuous
 62
     4
100
AcDbLine
 10
173.7445771572093
 20
2.13397584248199
 30
0.0
 11
179.4766254722454
 21
7.866024157518
 31
0.0
  0
LINE
  5
3F
330
32
100
AcDbEntity
  8
1
  6
Continuous
 62
     7
100
AcDbLine
 10
0.0
 20
268.0
 30
0.0
 11
0.0
 21
0.0
 31
0.0
  0
LINE
  5
40
330
32
100
AcDbEntity
  8
1
  6
Continuous
 62
     4
100
AcDbLine
 10
66.0
 20
20.0
 30
0.0
 11
66.0
 21
0.0
 31
0.0
  0
LINE
  5
41
330
32
100
AcDbEntity
  8
1
  6
Continuous
 62
     4
100
AcDbLine
 10
170.5
 20
10.0
 30
0.0
 11
170.5
 21
0.0
 31
0.0
  0
LINE
  5
42
330
32
100
AcDbEntity
  8
1
  6
Continuous
 62
     4
100
AcDbLine
 10
227.0
 20
20.0
 30
0.0
 11
227.0
 21
0.0
 31
0.0
  0
LINE
  5
43
330
32
100
AcDbEntity
  8
1
  6
Continuous
 62
     4
100
AcDbLine
 10
283.0
 20
20.0
 30
0.0
 11
283.0
 21
0.0
 31
0.0
  0
LINE
  5
44
330
32
100
AcDbEntity
  8
1
  6
Continuous
 62
     4
100
AcDbLine
 10
162.5
 20
0.0
 30
0.0
 11
162.5
 21
20.0
 31
0.0
  0
LINE
  5
45
330
32
100
AcDbEntity
  8
1
  6
Continuous
 62
     4
100
AcDbLine
 10
202.0
 20
0.0
 30
0.0
 11
202.0
 21
20.0
 31
0.0
  0
LINE
  5
46
330
32
100
AcDbEntity
  8
1
  6
Continuous
 62
     7
100
AcDbLine
 10
394.0
 20
0.0
 30
0.0
 11
393.9999999999996
 21
268.0
 31
0.0
  0
LINE
  5
47
330
32
100
AcDbEntity
  8
1
  6
Continuous
 62
     7
100
AcDbLine
 10
393.9999999999996
 20
268.0
 30
0.0
 11
0.0
 21
268.0
 31
0.0
  0
LINE
  5
48
330
32
100
AcDbEntity
  8
1
  6
Continuous
 62
     4
100
AcDbLine
 10
0.0
 20
10.0
 30
0.0
 11
394.0
 21
10.0
 31
0.0
  0
LINE
  5
49
330
32
100
AcDbEntity
  8
1
  6
Continuous
 62
     4
100
AcDbLine
 10
12.0
 20
20.0
 30
0.0
 11
12.0
 21
0.0
 31
0.0
  0
LINE
  5
4A
330
32
100
AcDbEntity
  8
1
  6
Continuous
 62
     3
100
AcDbLine
 10
6.0
 20
19.0
 30
0.0
 11
2.5
 21
12.5
 31
0.0
  0
LINE
  5
4B
330
32
100
AcDbEntity
  8
1
  6
Continuous
 62
     3
100
AcDbLine
 10
2.5
 20
12.5
 30
0.0
 11
9.5
 21
12.5
 31
0.0
  0
LINE
  5
4C
330
32
100
AcDbEntity
  8
1
  6
Continuous
 62
     3
100
AcDbLine
 10
9.5
 20
12.5
 30
0.0
 11
6.0
 21
19.0
 31
0.0
  0
LINE
  5
4D
330
32
100
AcDbEntity
  8
1
  6
Continuous
 62
     4
100
AcDbLine
 10
162.5
 20
15.0
 30
0.0
 11
202.0
 21
15.0
 31
0.0
  0
LINE
  5
4E
330
32
100
AcDbEntity
  8
1
  6
Continuous
 62
     7
100
AcDbLine
 10
0.0
 20
0.0
 30
0.0
 11
394.0
 21
0.0
 31
0.0
  0
LINE
  5
4F
330
32
100
AcDbEntity
  8
1
  6
Continuous
 62
     4
100
AcDbLine
 10
189.4945771572093
 20
2.13397584248199
 30
0.0
 11
195.2266254722454
 21
7.866024157518
 31
0.0
  0
MTEXT
  5
51
330
32
100
AcDbEntity
  8
1
 62
     4
100
AcDbMText
 10
393.4565543923691
 20
-0.25615332095569
 30
0.0
 40
2.0
 41
0.0
 71
     3
 72
     1
  1
A3
  7
CONVERTER_1
 73
     1
 44
1.32052821128451
  0
MTEXT
  5
53
330
32
100
AcDbEntity
  8
1
 62
     2
100
AcDbMText
 10
289.0
 20
15.0
 30
0.0
 40
4.0
 41
0.0
 71
     5
 72
     1
  1
図名
  7
CONVERTER_2
 73
     1
 44
1.32052821128451
  0
MTEXT
  5
55
330
32
100
AcDbEntity
  8
1
 62
     2
100
AcDbMText
 10
289.0
 20
7.25
 30
0.0
 40
3.5
 41
0.0
 71
     5
 72
     1
  1
図面
  7
CONVERTER_3
 73
     1
 44
0.78031212484994
  0
MTEXT
  5
56
330
32
100
AcDbEntity
  8
1
 62
     2
100
AcDbMText
 10
182.25
 20
17.5
 30
0.0
 40
3.5
 41
0.0
 71
     5
 72
     1
  1
年　　月　　日
  7
CONVERTER_2
 73
     1
 44
0.78031212484994
  0
MTEXT
  5
57
330
32
100
AcDbEntity
  8
1
 62
     2
100
AcDbMText
 10
166.5
 20
7.25
 30
0.0
 40
3.5
 41
0.0
 71
     5
 72
     1
  1
尺
  7
CONVERTER_3
 73
     1
 44
0.78031212484994
  0
MTEXT
  5
58
330
32
100
AcDbEntity
  8
1
 62
     2
100
AcDbMText
 10
39.0
 20
5.0
 30
0.0
 40
3.5
 41
0.0
 71
     5
 72
     1
  1
改　 訂　 記　 事
  7
CONVERTER_2
 73
     1
 44
1.32052821128451
  0
MTEXT
  5
59
330
32
100
AcDbEntity
  8
1
 62
     2
100
AcDbMText
 10
6.0
 20
7.25
 30
0.0
 40
3.5
 41
0.0
 71
     5
 72
     1
  1
改訂
  7
CONVERTER_2
 73
     1
 44
0.78031212484994
  0
MTEXT
  5
5B
330
32
100
AcDbEntity
  8
1
 62
     7
100
AcDbMText
 10
114.25
 20
5.0
 30
0.0
 40
4.0
 41
0.0
 71
     5
 72
     1
  1
MARUYASU KIKAI CO.,LTD.
  7
CONVERTER_4
 73
     1
 44
1.32052821128451
  0
MTEXT
  5
5C
330
32
100
AcDbEntity
  8
1
 62
     2
100
AcDbMText
 10
189.75
 20
6.5
 30
0.0
 40
4.0
 41
0.0
 71
     5
 72
     1
  1
1
  7
CONVERTER_1
 73
     1
 44
1.32052821128451
  0
MTEXT
  5
5D
330
32
100
AcDbEntity
  8
1
 62
     2
100
AcDbMText
 10
214.5
 20
5.0
 30
0.0
 40
4.0
 41
0.0
 71
     5
 72
     1
  1
機　種
  7
CONVERTER_2
 73
     1
 44
1.32052821128451
  0
MTEXT
  5
5F
330
32
100
AcDbEntity
  8
1
 62
     2
100
AcDbMText
 10
214.5
 20
15.0
 30
0.0
 40
4.0
 41
0.0
 71
     5
 72
     1
  1
シリーズ名
  7
CONVERTER_5
 73
     1
 44
1.32052821128451
  0
MTEXT
  5
60
330
32
100
AcDbEntity
  8
1
 62
     7
100
AcDbMText
 10
114.25
 20
15.0
 30
0.0
 40
5.0
 41
0.0
 71
     5
 72
     1
  1
技術情報サービス
  7
CONVERTER_2
 73
     1
 44
1.20048019207683
  0
MTEXT
  5
61
330
32
100
AcDbEntity
  8
1
 62
     2
100
AcDbMText
 10
5.67807803017169
 20
2.75
 30
0.0
 40
3.5
 41
0.0
 71
     5
 72
     1
  1
番号
  7
CONVERTER_2
 73
     1
 44
0.78031212484994
  0
MTEXT
  5
62
330
32
100
AcDbEntity
  8
1
 62
     2
100
AcDbMText
 10
166.5
 20
2.75
 30
0.0
 40
3.5
 41
0.0
 71
     5
 72
     1
  1
度
  7
CONVERTER_3
 73
     1
 44
0.78031212484994
  0
MTEXT
  5
63
330
32
100
AcDbEntity
  8
1
 62
     2
100
AcDbMText
 10
289.0
 20
2.75
 30
0.0
 40
3.5
 41
0.0
 71
     5
 72
     1
  1
番号
  7
CONVERTER_3
 73
     1
 44
0.78031212484994
  0
MTEXT
  5
64
330
32
100
AcDbEntity
  8
1
 62
     2
100
AcDbMText
 10
173.183432867907
 20
6.25
 30
0.0
 40
4.0
 41
0.0
 71
     5
 72
     1
  1
1
  7
CONVERTER_1
 73
     1
 44
0.60024009603842
  0
MTEXT
  5
65
330
32
100
AcDbEntity
  8
1
 62
     2
100
AcDbMText
 10
180.9766254722454
 20
3.75
 30
0.0
 40
4.0
 41
0.0
 71
     5
 72
     1
  1
2
  7
CONVERTER_1
 73
     1
 44
0.60024009603842
  0
ENDBLK
  5
34
330
32
100
AcDbEntity
  8
0
100
AcDbBlockEnd
  0
BLOCK
  5
1B1
330
1A8
100
AcDbEntity
  8
0
100
AcDbBlockBegin
  2
*D02
 70
     1
 71
     0
 10
0.0
 20
0.0
 30
0.0
  3
*D02
  1

  0
LINE
  5
1A9
330
1A8
100
AcDbEntity
  8
1
  6
Continuous
 62
     2
100
AcDbLine
 10
580.197946218924
 20
188.4466927352036
 30
0.0
 11
612.197946218924
 21
188.4466927352036
 31
0.0
  0
LINE
  5
1AA
330
1A8
100
AcDbEntity
  8
1
  6
Continuous
 62
     2
100
AcDbLine
 10
612.1979462189239
 20
230.1730005461972
 30
0.0
 11
612.1979462189239
 21
186.4466927352036
 31
0.0
  0
LINE
  5
1AB
330
1A8
100
AcDbEntity
  8
1
  6
Continuous
 62
     2
100
AcDbLine
 10
580.1979462189239
 20
232.1730005461972
 30
0.0
 11
580.1979462189239
 21
186.4466927352036
 31
0.0
  0
LINE
  5
1AC
330
1A8
100
AcDbEntity
  8
1
 62
     2
100
AcDbLine
 10
580.197946218924
 20
188.4466927352036
 30
0.0
 11
585.317946218924
 21
189.818592600451
 31
0.0
  0
LINE
  5
1AD
330
1A8
100
AcDbEntity
  8
1
 62
     2
100
AcDbLine
 10
580.197946218924
 20
188.4466927352036
 30
0.0
 11
585.317946218924
 21
187.0747928699563
 31
0.0
  0
LINE
  5
1AE
330
1A8
100
AcDbEntity
  8
1
 62
     2
100
AcDbLine
 10
612.197946218924
 20
188.4466927352036
 30
0.0
 11
607.077946218924
 21
187.0747928699563
 31
0.0
  0
LINE
  5
1AF
330
1A8
100
AcDbEntity
  8
1
 62
     2
100
AcDbLine
 10
612.197946218924
 20
188.4466927352036
 30
0.0
 11
607.077946218924
 21
189.818592600451
 31
0.0
  0
MTEXT
  5
1B0
330
1A8
100
AcDbEntity
  8
1
 62
     2
100
AcDbMText
 10
590.8464109377642
 20
190.4466927352036
 30
0.0
 40
6.4
 41
0.0
 71
     7
 72
     1
  1
32
  7
CONVERTER_1
 11
0.9999999999970621
 21
2.424068405545307E-6
 31
0.0
 73
     1
 44
0.60024009603842
  0
ENDBLK
  5
1B2
330
1A8
100
AcDbEntity
  8
0
100
AcDbBlockEnd
  0
BLOCK
  5
1B4
330
1B3
100
AcDbEntity
  8
0
100
AcDbBlockBegin
  2
_Open30
 70
     0
 71
     0
 10
0.0
 20
0.0
 30
0.0
  3
_Open30
  1

  0
LINE
  5
1B6
330
1B3
100
AcDbEntity
  8
0
  6
ByBlock
 62
     0
370
    -2
100
AcDbLine
 10
-1.0
 20
0.267949
 30
0.0
 11
0.0
 21
0.0
 31
0.0
  0
LINE
  5
1B7
330
1B3
100
AcDbEntity
  8
0
  6
ByBlock
 62
     0
370
    -2
100
AcDbLine
 10
0.0
 20
0.0
 30
0.0
 11
-1.0
 21
-0.267949
 31
0.0
  0
LINE
  5
1B8
330
1B3
100
AcDbEntity
  8
0
  6
ByBlock
 62
     0
370
    -2
100
AcDbLine
 10
0.0
 20
0.0
 30
0.0
 11
-1.0
 21
0.0
 31
0.0
  0
ENDBLK
  5
1B5
330
1B3
100
AcDbEntity
  8
0
100
AcDbBlockEnd
  0
BLOCK
  5
1C6
330
1BB
100
AcDbEntity
  8
0
100
AcDbBlockBegin
  2
*D14
 70
     1
 71
     0
 10
0.0
 20
0.0
 30
0.0
  3
*D14
  1

  0
LINE
  5
1BC
330
1BB
100
AcDbEntity
  8
1
  6
Continuous
 62
     2
100
AcDbLine
 10
389.374917127523
 20
188.1544571118102
 30
0.0
 11
399.614917127523
 21
188.1544571118102
 31
0.0
  0
LINE
  5
1BD
330
1BB
100
AcDbEntity
  8
1
  6
Continuous
 62
     2
100
AcDbLine
 10
399.614917127523
 20
188.1544571118102
 30
0.0
 11
407.6149171275235
 21
188.1544571118102
 31
0.0
  0
LINE
  5
1BE
330
1BB
100
AcDbEntity
  8
1
  6
Continuous
 62
     2
100
AcDbLine
 10
407.6149171275235
 20
188.1544571118102
 30
0.0
 11
494.1301104064912
 21
188.1544571118102
 31
0.0
  0
LINE
  5
1BF
330
1BB
100
AcDbEntity
  8
1
  6
Continuous
 62
     2
100
AcDbLine
 10
407.6149171275235
 20
218.1730005461972
 30
0.0
 11
407.6149171275235
 21
186.1544571118102
 31
0.0
  0
LINE
  5
1C0
330
1BB
100
AcDbEntity
  8
1
  6
Continuous
 62
     2
100
AcDbLine
 10
399.614917127523
 20
218.1730005461972
 30
0.0
 11
399.614917127523
 21
186.1544571118102
 31
0.0
  0
LINE
  5
1C1
330
1BB
100
AcDbEntity
  8
1
 62
     2
100
AcDbLine
 10
399.614917127523
 20
188.1544571118102
 30
0.0
 11
394.494917127523
 21
186.7825572465629
 31
0.0
  0
LINE
  5
1C2
330
1BB
100
AcDbEntity
  8
1
 62
     2
100
AcDbLine
 10
399.614917127523
 20
188.1544571118102
 30
0.0
 11
394.494917127523
 21
189.5263569770576
 31
0.0
  0
LINE
  5
1C3
330
1BB
100
AcDbEntity
  8
1
 62
     2
100
AcDbLine
 10
407.6149171275235
 20
188.1544571118102
 30
0.0
 11
412.7349171275235
 21
189.5263569770576
 31
0.0
  0
LINE
  5
1C4
330
1BB
100
AcDbEntity
  8
1
 62
     2
100
AcDbLine
 10
407.6149171275235
 20
188.1544571118102
 30
0.0
 11
412.7349171275235
 21
186.7825572465629
 31
0.0
  0
MTEXT
  5
1C5
330
1BB
100
AcDbEntity
  8
1
 62
     2
100
AcDbMText
 10
429.8741104065219
 20
190.1544316687882
 30
0.0
 40
6.4
 41
0.0
 71
     7
 72
     1
  1
\C2;{\Fgdt;n}\C2;8\C2; SUS303 
  7
CONVERTER_1
 11
0.9999999999970621
 21
2.424068405545307E-6
 31
0.0
 73
     1
 44
0.60024009603842
  0
ENDBLK
  5
1C7
330
1BB
100
AcDbEntity
  8
0
100
AcDbBlockEnd
  0
BLOCK
  5
1D5
330
1CA
100
AcDbEntity
  8
0
100
AcDbBlockBegin
  2
*D25
 70
     1
 71
     0
 10
0.0
 20
0.0
 30
0.0
  3
*D25
  1

  0
LINE
  5
1CB
330
1CA
100
AcDbEntity
  8
1
  6
Continuous
 62
     2
100
AcDbLine
 10
501.0672998924082
 20
387.4450982927892
 30
0.0
 11
501.0672998924082
 21
305.6730005461968
 31
0.0
  0
LINE
  5
1CC
330
1CA
100
AcDbEntity
  8
1
  6
Continuous
 62
     2
100
AcDbLine
 10
501.0672998924082
 20
305.6730005461968
 30
0.0
 11
501.0672998924082
 21
297.6730005461972
 31
0.0
  0
LINE
  5
1CD
330
1CA
100
AcDbEntity
  8
1
  6
Continuous
 62
     2
100
AcDbLine
 10
501.0672998924082
 20
297.6730005461972
 30
0.0
 11
501.0672998924082
 21
287.4330005461972
 31
0.0
  0
LINE
  5
1CE
330
1CA
100
AcDbEntity
  8
1
  6
Continuous
 62
     2
100
AcDbLine
 10
433.6649171275234
 20
297.6730005461972
 30
0.0
 11
503.0672998924082
 21
297.6730005461972
 31
0.0
  0
LINE
  5
1CF
330
1CA
100
AcDbEntity
  8
1
  6
Continuous
 62
     2
100
AcDbLine
 10
433.6649171275234
 20
305.6730005461968
 30
0.0
 11
503.0672998924082
 21
305.6730005461968
 31
0.0
  0
LINE
  5
1D0
330
1CA
100
AcDbEntity
  8
1
 62
     2
100
AcDbLine
 10
501.0672998924082
 20
305.6730005461968
 30
0.0
 11
499.6954000271609
 21
310.7930005461968
 31
0.0
  0
LINE
  5
1D1
330
1CA
100
AcDbEntity
  8
1
 62
     2
100
AcDbLine
 10
501.0672998924082
 20
305.6730005461968
 30
0.0
 11
502.4391997576556
 21
310.7930005461968
 31
0.0
  0
LINE
  5
1D2
330
1CA
100
AcDbEntity
  8
1
 62
     2
100
AcDbLine
 10
501.0672998924082
 20
297.6730005461972
 30
0.0
 11
502.4391997576556
 21
292.5530005461972
 31
0.0
  0
LINE
  5
1D3
330
1CA
100
AcDbEntity
  8
1
 62
     2
100
AcDbLine
 10
501.0672998924082
 20
297.6730005461972
 30
0.0
 11
499.6954000271609
 21
292.5530005461972
 31
0.0
  0
MTEXT
  5
1D4
330
1CA
100
AcDbEntity
  8
1
 62
     2
100
AcDbMText
 10
499.0672998924082
 20
323.1890982927892
 30
0.0
 40
6.4
 41
0.0
 71
     7
 72
     1
  1
\C2;{\Fgdt;n}\C2;8\C2; SUS303 
  7
CONVERTER_1
 11
0.0
 21
1.0
 31
0.0
 73
     1
 44
0.60024009603842
  0
ENDBLK
  5
1D6
330
1CA
100
AcDbEntity
  8
0
100
AcDbBlockEnd
  0
BLOCK
  5
1E2
330
1D9
100
AcDbEntity
  8
0
100
AcDbBlockBegin
  2
*D36
 70
     1
 71
     0
 10
0.0
 20
0.0
 30
0.0
  3
*D36
  1

  0
LINE
  5
1DA
330
1D9
100
AcDbEntity
  8
1
  6
Continuous
 62
     2
100
AcDbLine
 10
157.6649171275246
 20
154.7090328903472
 30
0.0
 11
176.6649171275246
 21
154.7090328903472
 31
0.0
  0
LINE
  5
1DB
330
1D9
100
AcDbEntity
  8
1
  6
Continuous
 62
     2
100
AcDbLine
 10
176.6649171275246
 20
205.1730005461972
 30
0.0
 11
176.6649171275246
 21
152.7090328903472
 31
0.0
  0
LINE
  5
1DC
330
1D9
100
AcDbEntity
  8
1
  6
Continuous
 62
     2
100
AcDbLine
 10
157.6649171275246
 20
230.1730005461972
 30
0.0
 11
157.6649171275246
 21
152.7090328903472
 31
0.0
  0
LINE
  5
1DD
330
1D9
100
AcDbEntity
  8
1
 62
     2
100
AcDbLine
 10
157.6649171275246
 20
154.7090328903472
 30
0.0
 11
162.7849171275246
 21
156.0809327555946
 31
0.0
  0
LINE
  5
1DE
330
1D9
100
AcDbEntity
  8
1
 62
     2
100
AcDbLine
 10
157.6649171275246
 20
154.7090328903472
 30
0.0
 11
162.7849171275246
 21
153.3371330250999
 31
0.0
  0
LINE
  5
1DF
330
1D9
100
AcDbEntity
  8
1
 62
     2
100
AcDbLine
 10
176.6649171275246
 20
154.7090328903472
 30
0.0
 11
171.5449171275246
 21
153.3371330250999
 31
0.0
  0
LINE
  5
1E0
330
1D9
100
AcDbEntity
  8
1
 62
     2
100
AcDbLine
 10
176.6649171275246
 20
154.7090328903472
 30
0.0
 11
171.5449171275246
 21
156.0809327555946
 31
0.0
  0
MTEXT
  5
1E1
330
1D9
100
AcDbEntity
  8
1
 62
     2
100
AcDbMText
 10
164.1648416198642
 20
157.6690328903472
 30
0.0
 40
6.4
 41
0.0
 71
     7
 72
     1
  1
19
  7
CONVERTER_1
 11
0.9999999999970621
 21
2.424068405545307E-6
 31
0.0
 73
     1
 44
0.60024009603842
  0
ENDBLK
  5
1E3
330
1D9
100
AcDbEntity
  8
0
100
AcDbBlockEnd
  0
BLOCK
  5
1EF
330
1E6
100
AcDbEntity
  8
0
100
AcDbBlockBegin
  2
*D47
 70
     1
 71
     0
 10
0.0
 20
0.0
 30
0.0
  3
*D47
  1

  0
LINE
  5
1E7
330
1E6
100
AcDbEntity
  8
1
  6
Continuous
 62
     2
100
AcDbLine
 10
134.6968818760394
 20
256.1730005461972
 30
0.0
 11
134.6968818760394
 21
238.1730005461972
 31
0.0
  0
LINE
  5
1E8
330
1E6
100
AcDbEntity
  8
1
  6
Continuous
 62
     2
100
AcDbLine
 10
149.0650116441719
 20
238.1730005461972
 30
0.0
 11
132.6968818760394
 21
238.1730005461972
 31
0.0
  0
LINE
  5
1E9
330
1E6
100
AcDbEntity
  8
1
  6
Continuous
 62
     2
100
AcDbLine
 10
150.6649171275243
 20
256.1730005461972
 30
0.0
 11
132.6968818760394
 21
256.1730005461972
 31
0.0
  0
LINE
  5
1EA
330
1E6
100
AcDbEntity
  8
1
 62
     2
100
AcDbLine
 10
134.6968818760394
 20
256.1730005461972
 30
0.0
 11
136.0687817412868
 21
251.0530005461972
 31
0.0
  0
LINE
  5
1EB
330
1E6
100
AcDbEntity
  8
1
 62
     2
100
AcDbLine
 10
134.6968818760394
 20
256.1730005461972
 30
0.0
 11
133.3249820107921
 21
251.0530005461972
 31
0.0
  0
LINE
  5
1EC
330
1E6
100
AcDbEntity
  8
1
 62
     2
100
AcDbLine
 10
134.6968818760394
 20
238.1730005461972
 30
0.0
 11
133.3249820107921
 21
243.2930005461972
 31
0.0
  0
LINE
  5
1ED
330
1E6
100
AcDbEntity
  8
1
 62
     2
100
AcDbLine
 10
134.6968818760394
 20
238.1730005461972
 30
0.0
 11
136.0687817412868
 21
243.2930005461972
 31
0.0
  0
MTEXT
  5
1EE
330
1E6
100
AcDbEntity
  8
1
 62
     2
100
AcDbMText
 10
130.7088326190972
 20
249.3165980908492
 30
0.0
 40
6.4
 41
0.0
 71
     7
 72
     1
  1
18
  7
CONVERTER_1
 11
0.0
 21
1.0
 31
0.0
 73
     1
 44
0.60024009603842
  0
ENDBLK
  5
1F0
330
1E6
100
AcDbEntity
  8
0
100
AcDbBlockEnd
  0
BLOCK
  5
1FC
330
1F3
100
AcDbEntity
  8
0
100
AcDbBlockBegin
  2
*D58
 70
     1
 71
     0
 10
0.0
 20
0.0
 30
0.0
  3
*D58
  1

  0
LINE
  5
1F4
330
1F3
100
AcDbEntity
  8
1
  6
Continuous
 62
     2
100
AcDbLine
 10
118.0429020041271
 20
277.1730005461972
 30
0.0
 11
118.0429020041271
 21
247.1730005461972
 31
0.0
  0
LINE
  5
1F5
330
1F3
100
AcDbEntity
  8
1
  6
Continuous
 62
     2
100
AcDbLine
 10
146.5183073434029
 20
247.1730005461972
 30
0.0
 11
116.0429020041271
 21
247.1730005461972
 31
0.0
  0
LINE
  5
1F6
330
1F3
100
AcDbEntity
  8
1
  6
Continuous
 62
     2
100
AcDbLine
 10
177.6649171275241
 20
277.1730005461972
 30
0.0
 11
116.0429020041271
 21
277.1730005461972
 31
0.0
  0
LINE
  5
1F7
330
1F3
100
AcDbEntity
  8
1
 62
     2
100
AcDbLine
 10
118.0429020041271
 20
277.1730005461972
 30
0.0
 11
119.4148018693745
 21
272.0530005461972
 31
0.0
  0
LINE
  5
1F8
330
1F3
100
AcDbEntity
  8
1
 62
     2
100
AcDbLine
 10
118.0429020041271
 20
277.1730005461972
 30
0.0
 11
116.6710021388798
 21
272.0530005461972
 31
0.0
  0
LINE
  5
1F9
330
1F3
100
AcDbEntity
  8
1
 62
     2
100
AcDbLine
 10
118.0429020041271
 20
247.1730005461972
 30
0.0
 11
116.6710021388798
 21
252.2930005461972
 31
0.0
  0
LINE
  5
1FA
330
1F3
100
AcDbEntity
  8
1
 62
     2
100
AcDbLine
 10
118.0429020041271
 20
247.1730005461972
 30
0.0
 11
119.4148018693745
 21
252.2930005461972
 31
0.0
  0
MTEXT
  5
1FB
330
1F3
100
AcDbEntity
  8
1
 62
     2
100
AcDbMText
 10
116.0429020041271
 20
257.4694901228632
 30
0.0
 40
6.4
 41
0.0
 71
     7
 72
     1
  1
30
  7
CONVERTER_1
 11
0.0
 21
1.0
 31
0.0
 73
     1
 44
0.60024009603842
  0
ENDBLK
  5
1FD
330
1F3
100
AcDbEntity
  8
0
100
AcDbBlockEnd
  0
BLOCK
  5
20A
330
200
100
AcDbEntity
  8
0
100
AcDbBlockBegin
  2
*D69
 70
     1
 71
     0
 10
0.0
 20
0.0
 30
0.0
  3
*D69
  1

  0
LINE
  5
201
330
200
100
AcDbEntity
  8
1
  6
Continuous
 62
     2
100
AcDbLine
 10
316.7750445080212
 20
317.6730005461972
 30
0.0
 11
316.7750445080212
 21
285.6730005461972
 31
0.0
  0
LINE
  5
202
330
200
100
AcDbEntity
  8
1
  6
Continuous
 62
     2
100
AcDbLine
 10
349.6649171275232
 20
285.6730005461972
 30
0.0
 11
314.7750445080212
 21
285.6730005461972
 31
0.0
  0
LINE
  5
203
330
200
100
AcDbEntity
  8
1
  6
Continuous
 62
     2
100
AcDbLine
 10
349.6649171275232
 20
317.6730005461972
 30
0.0
 11
334.4484644283991
 21
317.6730005461972
 31
0.0
  0
LINE
  5
204
330
200
100
AcDbEntity
  8
1
  6
Continuous
 62
     2
100
AcDbLine
 10
328.6131413651721
 20
317.6730005461972
 30
0.0
 11
314.7750445080212
 21
317.6730005461972
 31
0.0
  0
LINE
  5
205
330
200
100
AcDbEntity
  8
1
 62
     2
100
AcDbLine
 10
316.7750445080212
 20
317.6730005461972
 30
0.0
 11
318.1469443732685
 21
312.5530005461972
 31
0.0
  0
LINE
  5
206
330
200
100
AcDbEntity
  8
1
 62
     2
100
AcDbLine
 10
316.7750445080212
 20
317.6730005461972
 30
0.0
 11
315.4031446427738
 21
312.5530005461972
 31
0.0
  0
LINE
  5
207
330
200
100
AcDbEntity
  8
1
 62
     2
100
AcDbLine
 10
316.7750445080212
 20
285.6730005461972
 30
0.0
 11
315.4031446427738
 21
290.7930005461972
 31
0.0
  0
LINE
  5
208
330
200
100
AcDbEntity
  8
1
 62
     2
100
AcDbLine
 10
316.7750445080212
 20
285.6730005461972
 30
0.0
 11
318.1469443732685
 21
290.7930005461972
 31
0.0
  0
MTEXT
  5
209
330
200
100
AcDbEntity
  8
1
 62
     2
100
AcDbMText
 10
314.7750445080211
 20
295.5893140639132
 30
0.0
 40
6.4
 41
0.0
 71
     7
 72
     1
  1
32
  7
CONVERTER_1
 11
0.0
 21
1.0
 31
0.0
 73
     1
 44
0.60024009603842
  0
ENDBLK
  5
20B
330
200
100
AcDbEntity
  8
0
100
AcDbBlockEnd
  0
BLOCK
  5
219
330
20E
100
AcDbEntity
  8
0
100
AcDbBlockBegin
  2
*D710
 70
     1
 71
     0
 10
0.0
 20
0.0
 30
0.0
  3
*D710
  1

  0
LINE
  5
20F
330
20E
100
AcDbEntity
  8
1
  6
Continuous
 62
     2
100
AcDbLine
 10
335.7532405219682
 20
327.0330005461972
 30
0.0
 11
335.7532405219682
 21
301.6730005461972
 31
0.0
  0
LINE
  5
210
330
20E
100
AcDbEntity
  8
1
  6
Continuous
 62
     2
100
AcDbLine
 10
335.7532405219682
 20
301.6730005461972
 30
0.0
 11
335.7532405219682
 21
277.1730005461972
 31
0.0
  0
LINE
  5
211
330
20E
100
AcDbEntity
  8
1
  6
Continuous
 62
     2
100
AcDbLine
 10
371.6649171275234
 20
277.1730005461972
 30
0.0
 11
333.7532405219682
 21
277.1730005461972
 31
0.0
  0
LINE
  5
212
330
20E
100
AcDbEntity
  8
1
  6
Continuous
 62
     2
100
AcDbLine
 10
353.6649171275234
 20
301.6730005461972
 30
0.0
 11
333.7532405219682
 21
301.6730005461972
 31
0.0
  0
LINE
  5
213
330
20E
100
AcDbEntity
  8
1
 62
     2
100
AcDbLine
 10
335.7532405219682
 20
301.6730005461972
 30
0.0
 11
337.1251403872156
 21
296.5530005461972
 31
0.0
  0
LINE
  5
214
330
20E
100
AcDbEntity
  8
1
 62
     2
100
AcDbLine
 10
335.7532405219682
 20
301.6730005461972
 30
0.0
 11
334.3813406567209
 21
296.5530005461972
 31
0.0
  0
LINE
  5
215
330
20E
100
AcDbEntity
  8
1
 62
     2
100
AcDbLine
 10
335.7532405219682
 20
277.1730005461972
 30
0.0
 11
334.3813406567209
 21
282.2930005461972
 31
0.0
  0
LINE
  5
216
330
20E
100
AcDbEntity
  8
1
 62
     2
100
AcDbLine
 10
335.7532405219682
 20
277.1730005461972
 30
0.0
 11
337.1251403872156
 21
282.2930005461972
 31
0.0
  0
MTEXT
  5
218
330
20E
100
AcDbEntity
  8
1
 62
     4
100
AcDbMText
 10
333.7532405219682
 20
308.3130005461972
 30
0.0
 40
6.4
 41
0.0
 71
     7
 72
     1
  1
18~45
  7
CONVERTER_8
 11
0.0
 21
1.0
 31
0.0
 73
     1
 44
0.60024009603842
  0
ENDBLK
  5
21A
330
20E
100
AcDbEntity
  8
0
100
AcDbBlockEnd
  0
BLOCK
  5
228
330
21D
100
AcDbEntity
  8
0
100
AcDbBlockBegin
  2
*D811
 70
     1
 71
     0
 10
0.0
 20
0.0
 30
0.0
  3
*D811
  1

  0
LINE
  5
21E
330
21D
100
AcDbEntity
  8
1
  6
Continuous
 62
     2
100
AcDbLine
 10
194.7593804542149
 20
384.7090328903473
 30
0.0
 11
207.6649171275243
 21
384.7090328903473
 31
0.0
  0
LINE
  5
21F
330
21D
100
AcDbEntity
  8
1
  6
Continuous
 62
     2
100
AcDbLine
 10
207.6649171275243
 20
384.7090328903473
 30
0.0
 11
211.6649171275243
 21
384.7090328903473
 31
0.0
  0
LINE
  5
220
330
21D
100
AcDbEntity
  8
1
  6
Continuous
 62
     2
100
AcDbLine
 10
211.6649171275243
 20
384.7090328903473
 30
0.0
 11
221.9049171275243
 21
384.7090328903473
 31
0.0
  0
LINE
  5
221
330
21D
100
AcDbEntity
  8
1
  6
Continuous
 62
     2
100
AcDbLine
 10
211.6649171275243
 20
319.6730005461973
 30
0.0
 11
211.6649171275243
 21
386.7090328903473
 31
0.0
  0
LINE
  5
222
330
21D
100
AcDbEntity
  8
1
  6
Continuous
 62
     2
100
AcDbLine
 10
207.6649171275243
 20
319.6730005461973
 30
0.0
 11
207.6649171275243
 21
386.7090328903473
 31
0.0
  0
LINE
  5
223
330
21D
100
AcDbEntity
  8
1
 62
     2
100
AcDbLine
 10
207.6649171275243
 20
384.7090328903473
 30
0.0
 11
202.5449171275243
 21
383.3371330250999
 31
0.0
  0
LINE
  5
224
330
21D
100
AcDbEntity
  8
1
 62
     2
100
AcDbLine
 10
207.6649171275243
 20
384.7090328903473
 30
0.0
 11
202.5449171275243
 21
386.0809327555947
 31
0.0
  0
LINE
  5
225
330
21D
100
AcDbEntity
  8
1
 62
     2
100
AcDbLine
 10
211.6649171275243
 20
384.7090328903473
 30
0.0
 11
216.7849171275243
 21
386.0809327555947
 31
0.0
  0
LINE
  5
226
330
21D
100
AcDbEntity
  8
1
 62
     2
100
AcDbLine
 10
211.6649171275243
 20
384.7090328903473
 30
0.0
 11
216.7849171275243
 21
383.3371330250999
 31
0.0
  0
MTEXT
  5
227
330
21D
100
AcDbEntity
  8
1
 62
     2
100
AcDbMText
 10
194.759380454215
 20
386.7090328903473
 30
0.0
 40
6.4
 41
0.0
 71
     7
 72
     1
  1
4
  7
CONVERTER_1
 11
0.9999999999970621
 21
2.424068405545307E-6
 31
0.0
 73
     1
 44
0.60024009603842
  0
ENDBLK
  5
229
330
21D
100
AcDbEntity
  8
0
100
AcDbBlockEnd
  0
BLOCK
  5
237
330
22C
100
AcDbEntity
  8
0
100
AcDbBlockBegin
  2
*D912
 70
     1
 71
     0
 10
0.0
 20
0.0
 30
0.0
  3
*D912
  1

  0
LINE
  5
22D
330
22C
100
AcDbEntity
  8
1
  6
Continuous
 62
     2
100
AcDbLine
 10
341.4249171275231
 20
384.7090328903473
 30
0.0
 11
351.6649171275232
 21
384.7090328903473
 31
0.0
  0
LINE
  5
22E
330
22C
100
AcDbEntity
  8
1
  6
Continuous
 62
     2
100
AcDbLine
 10
351.6649171275232
 20
384.7090328903473
 30
0.0
 11
355.6649171275232
 21
384.7090328903473
 31
0.0
  0
LINE
  5
22F
330
22C
100
AcDbEntity
  8
1
  6
Continuous
 62
     2
100
AcDbLine
 10
355.6649171275232
 20
384.7090328903473
 30
0.0
 11
474.7622483358199
 21
384.7090328903473
 31
0.0
  0
LINE
  5
230
330
22C
100
AcDbEntity
  8
1
  6
Continuous
 62
     2
100
AcDbLine
 10
355.6649171275232
 20
319.6730005461973
 30
0.0
 11
355.6649171275232
 21
386.7090328903473
 31
0.0
  0
LINE
  5
231
330
22C
100
AcDbEntity
  8
1
  6
Continuous
 62
     2
100
AcDbLine
 10
351.6649171275232
 20
319.6730005461973
 30
0.0
 11
351.6649171275232
 21
386.7090328903473
 31
0.0
  0
LINE
  5
232
330
22C
100
AcDbEntity
  8
1
 62
     2
100
AcDbLine
 10
351.6649171275232
 20
384.7090328903473
 30
0.0
 11
346.5449171275232
 21
383.3371330250999
 31
0.0
  0
LINE
  5
233
330
22C
100
AcDbEntity
  8
1
 62
     2
100
AcDbLine
 10
351.6649171275232
 20
384.7090328903473
 30
0.0
 11
346.5449171275232
 21
386.0809327555947
 31
0.0
  0
LINE
  5
234
330
22C
100
AcDbEntity
  8
1
 62
     2
100
AcDbLine
 10
355.6649171275232
 20
384.7090328903473
 30
0.0
 11
360.7849171275232
 21
386.0809327555947
 31
0.0
  0
LINE
  5
235
330
22C
100
AcDbEntity
  8
1
 62
     2
100
AcDbLine
 10
355.6649171275232
 20
384.7090328903473
 30
0.0
 11
360.7849171275232
 21
383.3371330250999
 31
0.0
  0
MTEXT
  5
236
330
22C
100
AcDbEntity
  8
1
 62
     2
100
AcDbMText
 10
367.1142483359125
 20
386.7089565612814
 30
0.0
 40
6.4
 41
0.0
 71
     7
 72
     1
  1
\C2;FB32xt\C2;4\C2; SUS304 COLD
  7
CONVERTER_1
 11
0.9999999999970621
 21
2.424068405545307E-6
 31
0.0
 73
     1
 44
0.60024009603842
  0
ENDBLK
  5
238
330
22C
100
AcDbEntity
  8
0
100
AcDbBlockEnd
  0
BLOCK
  5
245
330
23B
100
AcDbEntity
  8
0
100
AcDbBlockBegin
  2
*D1013
 70
     1
 71
     0
 10
0.0
 20
0.0
 30
0.0
  3
*D1013
  1

  0
LINE
  5
23C
330
23B
100
AcDbEntity
  8
1
  6
Continuous
 62
     2
100
AcDbLine
 10
351.6649171275227
 20
384.7090328903473
 30
0.0
 11
211.6649171275236
 21
384.7090328903473
 31
0.0
  0
LINE
  5
23D
330
23B
100
AcDbEntity
  8
1
  6
Continuous
 62
     2
100
AcDbLine
 10
211.6649171275236
 20
319.6730005461972
 30
0.0
 11
211.6649171275236
 21
386.7090328903473
 31
0.0
  0
LINE
  5
23E
330
23B
100
AcDbEntity
  8
1
  6
Continuous
 62
     2
100
AcDbLine
 10
351.6649171275227
 20
319.6730005461972
 30
0.0
 11
351.6649171275227
 21
386.7090328903473
 31
0.0
  0
LINE
  5
23F
330
23B
100
AcDbEntity
  8
1
 62
     2
100
AcDbLine
 10
351.6649171275227
 20
384.7090328903473
 30
0.0
 11
346.5449171275227
 21
383.3371330250999
 31
0.0
  0
LINE
  5
240
330
23B
100
AcDbEntity
  8
1
 62
     2
100
AcDbLine
 10
351.6649171275227
 20
384.7090328903473
 30
0.0
 11
346.5449171275227
 21
386.0809327555946
 31
0.0
  0
LINE
  5
241
330
23B
100
AcDbEntity
  8
1
 62
     2
100
AcDbLine
 10
211.6649171275236
 20
384.7090328903473
 30
0.0
 11
216.7849171275236
 21
386.0809327555946
 31
0.0
  0
LINE
  5
242
330
23B
100
AcDbEntity
  8
1
 62
     2
100
AcDbLine
 10
211.6649171275236
 20
384.7090328903473
 30
0.0
 11
216.7849171275236
 21
383.3371330250999
 31
0.0
  0
MTEXT
  5
244
330
23B
100
AcDbEntity
  8
1
 62
     4
100
AcDbMText
 10
227.0635284286782
 20
386.7151727222053
 30
0.0
 40
6.4
 41
0.0
 71
     7
 72
     1
  1
ベルト幅 BW
  7
CONVERTER_9
 11
0.9999999999970621
 21
2.424068405545307E-6
 31
0.0
 73
     1
 44
0.60024009603842
  0
ENDBLK
  5
246
330
23B
100
AcDbEntity
  8
0
100
AcDbBlockEnd
  0
BLOCK
  5
252
330
249
100
AcDbEntity
  8
0
100
AcDbBlockBegin
  2
*D1114
 70
     1
 71
     0
 10
0.0
 20
0.0
 30
0.0
  3
*D1114
  1

  0
LINE
  5
24A
330
249
100
AcDbEntity
  8
1
  6
Continuous
 62
     2
100
AcDbLine
 10
95.83759550824425
 20
277.1730005461972
 30
0.0
 11
95.83759550824425
 21
207.1730005461972
 31
0.0
  0
LINE
  5
24B
330
249
100
AcDbEntity
  8
1
  6
Continuous
 62
     2
100
AcDbLine
 10
176.6649171275241
 20
207.1730005461972
 30
0.0
 11
93.83759550824425
 21
207.1730005461972
 31
0.0
  0
LINE
  5
24C
330
249
100
AcDbEntity
  8
1
  6
Continuous
 62
     2
100
AcDbLine
 10
177.6649171275241
 20
277.1730005461972
 30
0.0
 11
93.83759550824425
 21
277.1730005461972
 31
0.0
  0
LINE
  5
24D
330
249
100
AcDbEntity
  8
1
 62
     2
100
AcDbLine
 10
95.83759550824425
 20
277.1730005461972
 30
0.0
 11
97.20949537349159
 21
272.0530005461972
 31
0.0
  0
LINE
  5
24E
330
249
100
AcDbEntity
  8
1
 62
     2
100
AcDbLine
 10
95.83759550824425
 20
277.1730005461972
 30
0.0
 11
94.46569564299691
 21
272.0530005461972
 31
0.0
  0
LINE
  5
24F
330
249
100
AcDbEntity
  8
1
 62
     2
100
AcDbLine
 10
95.83759550824425
 20
207.1730005461972
 30
0.0
 11
94.46569564299691
 21
212.2930005461972
 31
0.0
  0
LINE
  5
250
330
249
100
AcDbEntity
  8
1
 62
     2
100
AcDbLine
 10
95.83759550824425
 20
207.1730005461972
 30
0.0
 11
97.20949537349159
 21
212.2930005461972
 31
0.0
  0
MTEXT
  5
251
330
249
100
AcDbEntity
  8
1
 62
     2
100
AcDbMText
 10
93.83759550824421
 20
241.6085569115182
 30
0.0
 40
6.4
 41
0.0
 71
     7
 72
     1
  1
70
  7
CONVERTER_1
 11
0.0
 21
1.0
 31
0.0
 73
     1
 44
0.60024009603842
  0
ENDBLK
  5
253
330
249
100
AcDbEntity
  8
0
100
AcDbBlockEnd
  0
BLOCK
  5
25F
330
256
100
AcDbEntity
  8
0
100
AcDbBlockBegin
  2
*D1215
 70
     1
 71
     0
 10
0.0
 20
0.0
 30
0.0
  3
*D1215
  1

  0
LINE
  5
257
330
256
100
AcDbEntity
  8
1
  6
Continuous
 62
     2
100
AcDbLine
 10
376.6649171275232
 20
154.7090328903472
 30
0.0
 11
403.6649171275232
 21
154.7090328903472
 31
0.0
  0
LINE
  5
258
330
256
100
AcDbEntity
  8
1
  6
Continuous
 62
     2
100
AcDbLine
 10
403.6649171275232
 20
208.2762096799847
 30
0.0
 11
403.6649171275232
 21
152.7090328903472
 31
0.0
  0
LINE
  5
259
330
256
100
AcDbEntity
  8
1
  6
Continuous
 62
     2
100
AcDbLine
 10
376.6649171275232
 20
205.1730005461972
 30
0.0
 11
376.6649171275232
 21
152.7090328903472
 31
0.0
  0
LINE
  5
25A
330
256
100
AcDbEntity
  8
1
 62
     2
100
AcDbLine
 10
376.6649171275232
 20
154.7090328903472
 30
0.0
 11
381.7849171275232
 21
156.0809327555946
 31
0.0
  0
LINE
  5
25B
330
256
100
AcDbEntity
  8
1
 62
     2
100
AcDbLine
 10
376.6649171275232
 20
154.7090328903472
 30
0.0
 11
381.7849171275232
 21
153.3371330250999
 31
0.0
  0
LINE
  5
25C
330
256
100
AcDbEntity
  8
1
 62
     2
100
AcDbLine
 10
403.6649171275232
 20
154.7090328903472
 30
0.0
 11
398.5449171275232
 21
153.3371330250999
 31
0.0
  0
LINE
  5
25D
330
256
100
AcDbEntity
  8
1
 62
     2
100
AcDbLine
 10
403.6649171275232
 20
154.7090328903472
 30
0.0
 11
398.5449171275232
 21
156.0809327555946
 31
0.0
  0
MTEXT
  5
25E
330
256
100
AcDbEntity
  8
1
 62
     2
100
AcDbMText
 10
384.502920302389
 20
156.7090328903472
 30
0.0
 40
6.4
 41
0.0
 71
     7
 72
     1
  1
27
  7
CONVERTER_1
 11
0.9999999999970621
 21
2.424068405545307E-6
 31
0.0
 73
     1
 44
0.60024009603842
  0
ENDBLK
  5
260
330
256
100
AcDbEntity
  8
0
100
AcDbBlockEnd
  0
BLOCK
  5
26E
330
263
100
AcDbEntity
  8
0
100
AcDbBlockBegin
  2
*D1316
 70
     1
 71
     0
 10
0.0
 20
0.0
 30
0.0
  3
*D1316
  1

  0
LINE
  5
264
330
263
100
AcDbEntity
  8
1
  6
Continuous
 62
     2
100
AcDbLine
 10
657.7290972965292
 20
189.2559159870136
 30
0.0
 11
670.5290972965291
 21
189.2559159870136
 31
0.0
  0
LINE
  5
265
330
263
100
AcDbEntity
  8
1
  6
Continuous
 62
     2
100
AcDbLine
 10
670.5290972965291
 20
189.2559159870136
 30
0.0
 11
686.5290972965291
 21
189.2559159870136
 31
0.0
  0
LINE
  5
266
330
263
100
AcDbEntity
  8
1
  6
Continuous
 62
     2
100
AcDbLine
 10
686.5290972965291
 20
189.2559159870136
 30
0.0
 11
699.3290972965291
 21
189.2559159870136
 31
0.0
  0
LINE
  5
267
330
263
100
AcDbEntity
  8
1
  6
Continuous
 62
     2
100
AcDbLine
 10
686.5290972965291
 20
228.1730005461972
 30
0.0
 11
686.5290972965291
 21
187.2559159870136
 31
0.0
  0
LINE
  5
268
330
263
100
AcDbEntity
  8
1
  6
Continuous
 62
     2
100
AcDbLine
 10
670.5290972965291
 20
228.1730005461972
 30
0.0
 11
670.5290972965291
 21
187.2559159870136
 31
0.0
  0
LINE
  5
269
330
263
100
AcDbEntity
  8
1
 62
     2
100
AcDbLine
 10
670.5290972965291
 20
189.2559159870136
 30
0.0
 11
664.1290972965292
 21
187.5410411554544
 31
0.0
  0
LINE
  5
26A
330
263
100
AcDbEntity
  8
1
 62
     2
100
AcDbLine
 10
670.5290972965291
 20
189.2559159870136
 30
0.0
 11
664.1290972965292
 21
190.9707908185728
 31
0.0
  0
LINE
  5
26B
330
263
100
AcDbEntity
  8
1
 62
     2
100
AcDbLine
 10
686.5290972965291
 20
189.2559159870136
 30
0.0
 11
692.9290972965291
 21
190.9707908185728
 31
0.0
  0
LINE
  5
26C
330
263
100
AcDbEntity
  8
1
 62
     2
100
AcDbLine
 10
686.5290972965291
 20
189.2559159870136
 30
0.0
 11
692.9290972965291
 21
187.5410411554544
 31
0.0
  0
MTEXT
  5
26D
330
263
100
AcDbEntity
  8
1
 62
     2
100
AcDbMText
 10
673.9425709965241
 20
191.6159159870136
 30
0.0
 40
6.4
 41
0.0
 71
     7
 72
     1
  1
16
  7
CONVERTER_1
 11
0.9999999999970621
 21
2.424068405545307E-6
 31
0.0
 73
     1
 44
0.60024009603842
  0
ENDBLK
  5
26F
330
263
100
AcDbEntity
  8
0
100
AcDbBlockEnd
  0
BLOCK
  5
27B
330
272
100
AcDbEntity
  8
0
100
AcDbBlockBegin
  2
*D1417
 70
     1
 71
     0
 10
0.0
 20
0.0
 30
0.0
  3
*D1417
  1

  0
LINE
  5
273
330
272
100
AcDbEntity
  8
1
  6
Continuous
 62
     2
100
AcDbLine
 10
176.6649171275244
 20
154.7090328903472
 30
0.0
 11
376.6649171275235
 21
154.7090328903472
 31
0.0
  0
LINE
  5
274
330
272
100
AcDbEntity
  8
1
  6
Continuous
 62
     2
100
AcDbLine
 10
376.6649171275235
 20
205.1730005461972
 30
0.0
 11
376.6649171275235
 21
152.7090328903472
 31
0.0
  0
LINE
  5
275
330
272
100
AcDbEntity
  8
1
  6
Continuous
 62
     2
100
AcDbLine
 10
176.6649171275244
 20
205.1730005461972
 30
0.0
 11
176.6649171275244
 21
152.7090328903472
 31
0.0
  0
LINE
  5
276
330
272
100
AcDbEntity
  8
1
 62
     2
100
AcDbLine
 10
176.6649171275244
 20
154.7090328903472
 30
0.0
 11
181.7849171275244
 21
156.0809327555946
 31
0.0
  0
LINE
  5
277
330
272
100
AcDbEntity
  8
1
 62
     2
100
AcDbLine
 10
176.6649171275244
 20
154.7090328903472
 30
0.0
 11
181.7849171275244
 21
153.3371330250999
 31
0.0
  0
LINE
  5
278
330
272
100
AcDbEntity
  8
1
 62
     2
100
AcDbLine
 10
376.6649171275235
 20
154.7090328903472
 30
0.0
 11
371.5449171275235
 21
153.3371330250999
 31
0.0
  0
LINE
  5
279
330
272
100
AcDbEntity
  8
1
 62
     2
100
AcDbLine
 10
376.6649171275235
 20
154.7090328903472
 30
0.0
 11
371.5449171275235
 21
156.0809327555946
 31
0.0
  0
MTEXT
  5
27A
330
272
100
AcDbEntity
  8
1
 62
     2
100
AcDbMText
 10
261.9046822633911
 20
156.7090328903472
 30
0.0
 40
6.4
 41
0.0
 71
     7
 72
     1
  1
BW+50
  7
CONVERTER_1
 11
0.9999999999970621
 21
2.424068405545307E-6
 31
0.0
 73
     1
 44
0.60024009603842
  0
ENDBLK
  5
27C
330
272
100
AcDbEntity
  8
0
100
AcDbBlockEnd
  0
ENDSEC
  0
SECTION
  2
ENTITIES
  0
INSERT
  5
35
330
1F
100
AcDbEntity
  8
0
100
AcDbBlockReference
  2
Zuwaku-A3-web
 10
393.9999999999996
 20
268.0
 30
0.0
 41
2.0
 42
2.0
 43
2.0
  0
LINE
  5
66
330
1F
100
AcDbEntity
  8
1
  6
Continuous
 62
     3
100
AcDbLine
 10
585.3111948729757
 20
247.1730005461972
 30
0.0
 11
586.7545705459497
 21
244.6730005461972
 31
0.0
  0
LINE
  5
67
330
1F
100
AcDbEntity
  8
1
  6
Continuous
 62
     3
100
AcDbLine
 10
586.7545705459497
 20
244.6730005461972
 30
0.0
 11
589.6413218918979
 21
244.6730005461972
 31
0.0
  0
LINE
  5
68
330
1F
100
AcDbEntity
  8
1
  6
Continuous
 62
     3
100
AcDbLine
 10
589.6413218918979
 20
244.6730005461972
 30
0.0
 11
591.0846975648719
 21
247.1730005461972
 31
0.0
  0
LINE
  5
69
330
1F
100
AcDbEntity
  8
1
  6
Continuous
 62
     3
100
AcDbLine
 10
591.0846975648719
 20
247.1730005461972
 30
0.0
 11
589.6413218918979
 21
249.6730005461972
 31
0.0
  0
LINE
  5
6A
330
1F
100
AcDbEntity
  8
1
  6
Continuous
 62
     3
100
AcDbLine
 10
589.6413218918979
 20
249.6730005461972
 30
0.0
 11
586.7545705459497
 21
249.6730005461972
 31
0.0
  0
LINE
  5
6B
330
1F
100
AcDbEntity
  8
1
  6
Continuous
 62
     3
100
AcDbLine
 10
586.7545705459497
 20
249.6730005461972
 30
0.0
 11
585.3111948729757
 21
247.1730005461972
 31
0.0
  0
LINE
  5
6C
330
1F
100
AcDbEntity
  8
1
  6
DASH_CENTER
 62
     3
100
AcDbLine
 10
582.1979462189238
 20
247.1730005461972
 30
0.0
 11
594.1979462189238
 21
247.1730005461972
 31
0.0
  0
LINE
  5
6D
330
1F
100
AcDbEntity
  8
1
  6
DASH_CENTER
 62
     3
100
AcDbLine
 10
588.1979462189238
 20
241.1730005461972
 30
0.0
 11
588.1979462189238
 21
253.1730005461972
 31
0.0
  0
LINE
  5
6E
330
1F
100
AcDbEntity
  8
1
  6
Continuous
 62
     3
100
AcDbLine
 10
601.3111948729757
 20
247.1730005461972
 30
0.0
 11
602.7545705459497
 21
244.6730005461972
 31
0.0
  0
LINE
  5
6F
330
1F
100
AcDbEntity
  8
1
  6
Continuous
 62
     3
100
AcDbLine
 10
602.7545705459497
 20
244.6730005461972
 30
0.0
 11
605.6413218918979
 21
244.6730005461972
 31
0.0
  0
LINE
  5
70
330
1F
100
AcDbEntity
  8
1
  6
Continuous
 62
     3
100
AcDbLine
 10
605.6413218918979
 20
244.6730005461972
 30
0.0
 11
607.0846975648719
 21
247.1730005461972
 31
0.0
  0
LINE
  5
71
330
1F
100
AcDbEntity
  8
1
  6
Continuous
 62
     3
100
AcDbLine
 10
607.0846975648719
 20
247.1730005461972
 30
0.0
 11
605.6413218918979
 21
249.6730005461972
 31
0.0
  0
LINE
  5
72
330
1F
100
AcDbEntity
  8
1
  6
Continuous
 62
     3
100
AcDbLine
 10
605.6413218918979
 20
249.6730005461972
 30
0.0
 11
602.7545705459497
 21
249.6730005461972
 31
0.0
  0
LINE
  5
73
330
1F
100
AcDbEntity
  8
1
  6
Continuous
 62
     3
100
AcDbLine
 10
602.7545705459497
 20
249.6730005461972
 30
0.0
 11
601.3111948729757
 21
247.1730005461972
 31
0.0
  0
LINE
  5
74
330
1F
100
AcDbEntity
  8
1
  6
DASH_CENTER
 62
     3
100
AcDbLine
 10
598.1979462189238
 20
247.1730005461972
 30
0.0
 11
610.1979462189238
 21
247.1730005461972
 31
0.0
  0
LINE
  5
75
330
1F
100
AcDbEntity
  8
1
  6
DASH_CENTER
 62
     3
100
AcDbLine
 10
604.1979462189238
 20
241.1730005461972
 30
0.0
 11
604.1979462189238
 21
253.1730005461972
 31
0.0
  0
LINE
  5
76
330
1F
100
AcDbEntity
  8
1
  6
Continuous
 62
     7
100
AcDbLine
 10
603.1979462189238
 20
286.6730005461974
 30
0.0
 11
603.1979462189238
 21
316.6730005461972
 31
0.0
  0
LINE
  5
77
330
1F
100
AcDbEntity
  8
1
  6
Continuous
 62
     7
100
AcDbLine
 10
601.1979462189238
 20
318.6730005461974
 30
0.0
 11
579.1979462189238
 21
318.6730005461974
 31
0.0
  0
LINE
  5
78
330
1F
100
AcDbEntity
  8
1
  6
Continuous
 62
     7
100
AcDbLine
 10
577.1979462189238
 20
316.6730005461972
 30
0.0
 11
577.1979462189238
 21
286.6730005461974
 31
0.0
  0
LINE
  5
79
330
1F
100
AcDbEntity
  8
1
  6
Continuous
 62
     7
100
AcDbLine
 10
579.1979462189238
 20
284.6730005461974
 30
0.0
 11
601.1979462189238
 21
284.6730005461974
 31
0.0
  0
LINE
  5
7A
330
1F
100
AcDbEntity
  8
1
  6
DASH_CENTER
 62
     3
100
AcDbLine
 10
584.1979462189238
 20
294.0230005461972
 30
0.0
 11
584.1979462189238
 21
317.3230005461973
 31
0.0
  0
LINE
  5
7B
330
1F
100
AcDbEntity
  8
1
  6
Continuous
 62
     7
100
AcDbLine
 10
589.1979462189238
 20
313.6730005461972
 30
0.0
 11
589.1979462189238
 21
316.6730005461974
 31
0.0
  0
LINE
  5
7C
330
1F
100
AcDbEntity
  8
1
  6
Continuous
 62
     7
100
AcDbLine
 10
589.1979462189238
 20
286.6730005461974
 30
0.0
 11
589.1979462189238
 21
289.6730005461972
 31
0.0
  0
LINE
  5
7D
330
1F
100
AcDbEntity
  8
1
  6
Continuous
 62
     3
100
AcDbLine
 10
592.1979462189238
 20
264.1730005461972
 30
0.0
 11
592.1979462189238
 21
284.6730005461972
 31
0.0
  0
LINE
  5
7E
330
1F
100
AcDbEntity
  8
1
  6
DASH_CENTER
 62
     3
100
AcDbLine
 10
596.1979462189238
 20
331.2483813224344
 30
0.0
 11
596.1979462189238
 21
210.2762096799847
 31
0.0
  0
LINE
  5
7F
330
1F
100
AcDbEntity
  8
1
  6
Continuous
 62
     3
100
AcDbLine
 10
600.1979462189238
 20
264.1730005461972
 30
0.0
 11
600.1979462189238
 21
284.6730005461972
 31
0.0
  0
LINE
  5
80
330
1F
100
AcDbEntity
  8
1
  6
Continuous
 62
     3
100
AcDbLine
 10
600.1479462189241
 20
220.1730005461972
 30
0.0
 11
600.1479462189241
 21
230.1730005461972
 31
0.0
  0
LINE
  5
81
330
1F
100
AcDbEntity
  8
1
  6
Continuous
 62
     3
100
AcDbLine
 10
592.1479462189236
 20
220.1730005461972
 30
0.0
 11
592.1479462189236
 21
230.1730005461972
 31
0.0
  0
LINE
  5
82
330
1F
100
AcDbEntity
  8
1
  6
Continuous
 62
     3
100
AcDbLine
 10
595.1479462189236
 20
217.1730005461972
 30
0.0
 11
597.247946218924
 21
217.1730005461972
 31
0.0
  0
LINE
  5
83
330
1F
100
AcDbEntity
  8
1
  6
Continuous
 62
     3
100
AcDbLine
 10
600.247946218924
 20
324.1730005461972
 30
0.0
 11
600.247946218924
 21
318.6730005461972
 31
0.0
  0
LINE
  5
84
330
1F
100
AcDbEntity
  8
1
  6
Continuous
 62
     3
100
AcDbLine
 10
595.1479462189236
 20
327.1730005461972
 30
0.0
 11
597.247946218924
 21
327.1730005461972
 31
0.0
  0
LINE
  5
85
330
1F
100
AcDbEntity
  8
1
  6
Continuous
 62
     3
100
AcDbLine
 10
592.1479462189236
 20
318.6730005461972
 30
0.0
 11
592.1479462189236
 21
324.1730005461972
 31
0.0
  0
LINE
  5
86
330
1F
100
AcDbEntity
  8
1
  6
Continuous
 62
     3
100
AcDbLine
 10
602.9299970264926
 20
285.6730005461972
 30
0.0
 11
712.5280279148601
 21
285.6730005461972
 31
0.0
  0
LINE
  5
87
330
1F
100
AcDbEntity
  8
1
  6
Continuous
 62
     3
100
AcDbLine
 10
712.5280279148603
 20
317.6730005461972
 30
0.0
 11
602.9299970264929
 21
317.6730005461972
 31
0.0
  0
LINE
  5
88
330
1F
100
AcDbEntity
  8
1
  6
Continuous
 62
     3
100
AcDbLine
 10
577.465895411355
 20
317.6730005461972
 30
0.0
 11
568.197946218924
 21
317.6730005461972
 31
0.0
  0
LINE
  5
89
330
1F
100
AcDbEntity
  8
1
  6
Continuous
 62
     3
100
AcDbLine
 10
568.197946218924
 20
285.6730005461972
 30
0.0
 11
577.465895411355
 21
285.6730005461972
 31
0.0
  0
LINE
  5
8A
330
1F
100
AcDbEntity
  8
1
  6
DASH_CENTER
 62
     3
100
AcDbLine
 10
564.47039852023
 20
301.6730005461972
 30
0.0
 11
721.957423971377
 21
301.6730005461973
 31
0.0
  0
LINE
  5
8B
330
1F
100
AcDbEntity
  8
1
  6
Continuous
 62
     7
100
AcDbLine
 10
567.1979462189238
 20
242.1730005461972
 30
0.0
 11
580.1979462189238
 21
242.1730005461972
 31
0.0
  0
LINE
  5
8C
330
1F
100
AcDbEntity
  8
1
  6
Continuous
 62
     7
100
AcDbLine
 10
567.1979462189238
 20
234.1730005461972
 30
0.0
 11
580.1979462189238
 21
234.1730005461972
 31
0.0
  0
LINE
  5
8D
330
1F
100
AcDbEntity
  8
1
  6
Continuous
 62
     7
100
AcDbLine
 10
580.1979462189238
 20
252.1730005461972
 30
0.0
 11
567.1979462189238
 21
252.1730005461972
 31
0.0
  0
LINE
  5
8E
330
1F
100
AcDbEntity
  8
1
  6
Continuous
 62
     7
100
AcDbLine
 10
580.1979462189238
 20
260.1730005461972
 30
0.0
 11
567.1979462189238
 21
260.1730005461972
 31
0.0
  0
LINE
  5
8F
330
1F
100
AcDbEntity
  8
1
  6
DASH_CENTER
 62
     3
100
AcDbLine
 10
577.1679724311487
 20
247.1730005461972
 30
0.0
 11
614.8769618006725
 21
247.1730005461972
 31
0.0
  0
LINE
  5
90
330
1F
100
AcDbEntity
  8
1
  6
Continuous
 62
     7
100
AcDbLine
 10
582.1979462189238
 20
264.1730005461972
 30
0.0
 11
610.1979462189238
 21
264.1730005461972
 31
0.0
  0
LINE
  5
91
330
1F
100
AcDbEntity
  8
1
  6
Continuous
 62
     7
100
AcDbLine
 10
610.1979462189238
 20
230.1730005461972
 30
0.0
 11
582.1979462189238
 21
230.1730005461972
 31
0.0
  0
LINE
  5
92
330
1F
100
AcDbEntity
  8
1
  6
Continuous
 62
     7
100
AcDbLine
 10
612.1979462189238
 20
262.1730005461972
 30
0.0
 11
612.1979462189238
 21
232.1730005461972
 31
0.0
  0
LINE
  5
93
330
1F
100
AcDbEntity
  8
1
  6
Continuous
 62
     7
100
AcDbLine
 10
580.1979462189238
 20
232.1730005461972
 30
0.0
 11
580.1979462189238
 21
262.1730005461972
 31
0.0
  0
LINE
  5
94
330
1F
100
AcDbEntity
  8
1
  6
Continuous
 62
     7
100
AcDbLine
 10
568.197946218924
 20
207.1730005461972
 30
0.0
 11
652.4971723383592
 21
207.1730005461972
 31
0.0
  0
LINE
  5
95
330
1F
100
AcDbEntity
  8
1
  6
Continuous
 62
     7
100
AcDbLine
 10
652.4971723383592
 20
277.1730005461972
 30
0.0
 11
600.1979462189238
 21
277.1730005461972
 31
0.0
  0
LINE
  5
96
330
1F
100
AcDbEntity
  8
1
  6
Continuous
 62
     7
100
AcDbLine
 10
592.1979462189238
 20
277.1730005461972
 30
0.0
 11
568.197946218924
 21
277.1730005461972
 31
0.0
  0
LINE
  5
97
330
1F
100
AcDbEntity
  8
1
  6
DASH_CENTER
 62
     3
100
AcDbLine
 10
176.6649171275241
 20
247.1730005461972
 30
0.0
 11
148.5183073434031
 21
247.1730005461972
 31
0.0
  0
LINE
  5
98
330
1F
100
AcDbEntity
  8
1
  6
DASH_CENTER
 62
     3
100
AcDbLine
 10
231.6649171275271
 20
284.0302929414559
 30
0.0
 11
231.6649171275271
 21
269.030292941456
 31
0.0
  0
LINE
  5
99
330
1F
100
AcDbEntity
  8
1
  6
Continuous
 62
     3
100
AcDbLine
 10
241.6649171275271
 20
278.173000546197
 30
0.0
 11
241.6649171275271
 21
277.173000546197
 31
0.0
  0
LINE
  5
9A
330
1F
100
AcDbEntity
  8
1
  6
Continuous
 62
     3
100
AcDbLine
 10
241.6649171275271
 20
278.173000546197
 30
0.0
 11
221.6649171275271
 21
278.173000546197
 31
0.0
  0
LINE
  5
9B
330
1F
100
AcDbEntity
  8
1
  6
Continuous
 62
     3
100
AcDbLine
 10
221.6649171275271
 20
278.173000546197
 30
0.0
 11
221.6649171275271
 21
277.173000546197
 31
0.0
  0
LINE
  5
9C
330
1F
100
AcDbEntity
  8
1
  6
DASH_CENTER
 62
     3
100
AcDbLine
 10
321.6649171275212
 20
269.030292941456
 30
0.0
 11
321.6649171275212
 21
284.0302929414559
 31
0.0
  0
LINE
  5
9D
330
1F
100
AcDbEntity
  8
1
  6
Continuous
 62
     3
100
AcDbLine
 10
311.6649171275212
 20
277.173000546197
 30
0.0
 11
311.6649171275212
 21
278.173000546197
 31
0.0
  0
LINE
  5
9E
330
1F
100
AcDbEntity
  8
1
  6
Continuous
 62
     3
100
AcDbLine
 10
331.6649171275212
 20
278.173000546197
 30
0.0
 11
311.6649171275212
 21
278.173000546197
 31
0.0
  0
LINE
  5
9F
330
1F
100
AcDbEntity
  8
1
  6
Continuous
 62
     3
100
AcDbLine
 10
331.6649171275212
 20
277.173000546197
 30
0.0
 11
331.6649171275212
 21
278.173000546197
 31
0.0
  0
LINE
  5
A0
330
1F
100
AcDbEntity
  8
1
  6
Continuous
 62
     7
100
AcDbLine
 10
373.6649171275232
 20
277.1730005461972
 30
0.0
 11
361.6649171275232
 21
277.1730005461972
 31
0.0
  0
LINE
  5
A1
330
1F
100
AcDbEntity
  8
1
  6
Continuous
 62
     7
100
AcDbLine
 10
361.6649171275232
 20
277.1730005461972
 30
0.0
 11
196.6649171275241
 21
277.1730005461972
 31
0.0
  0
LINE
  5
A2
330
1F
100
AcDbEntity
  8
1
  6
Continuous
 62
     7
100
AcDbLine
 10
374.6649171275232
 20
274.1730005461972
 30
0.0
 11
374.6649171275232
 21
207.1730005461972
 31
0.0
  0
LINE
  5
A3
330
1F
100
AcDbEntity
  8
1
  6
Continuous
 62
     7
100
AcDbLine
 10
376.6649171275232
 20
207.1730005461972
 30
0.0
 11
376.6649171275232
 21
274.1730005461972
 31
0.0
  0
LINE
  5
A4
330
1F
100
AcDbEntity
  8
1
  6
Continuous
 62
     7
100
AcDbLine
 10
179.6649171275241
 20
275.1730005461972
 30
0.0
 11
373.6649171275232
 21
275.1730005461972
 31
0.0
  0
LINE
  5
A5
330
1F
100
AcDbEntity
  8
1
  6
Continuous
 62
     7
100
AcDbLine
 10
376.6649171275232
 20
207.1730005461972
 30
0.0
 11
374.6649171275232
 21
207.1730005461972
 31
0.0
  0
LINE
  5
A6
330
1F
100
AcDbEntity
  8
1
  6
Continuous
 62
     7
100
AcDbLine
 10
176.6649171275241
 20
274.1730005461972
 30
0.0
 11
176.6649171275241
 21
207.1730005461972
 31
0.0
  0
LINE
  5
A7
330
1F
100
AcDbEntity
  8
1
  6
Continuous
 62
     7
100
AcDbLine
 10
176.6649171275241
 20
207.1730005461972
 30
0.0
 11
178.6649171275241
 21
207.1730005461972
 31
0.0
  0
LINE
  5
A8
330
1F
100
AcDbEntity
  8
1
  6
Continuous
 62
     7
100
AcDbLine
 10
178.6649171275241
 20
207.1730005461972
 30
0.0
 11
178.6649171275241
 21
274.1730005461972
 31
0.0
  0
LINE
  5
A9
330
1F
100
AcDbEntity
  8
1
  6
Continuous
 62
     7
100
AcDbLine
 10
196.6649171275241
 20
277.1730005461972
 30
0.0
 11
179.6649171275241
 21
277.1730005461972
 31
0.0
  0
LINE
  5
AA
330
1F
100
AcDbEntity
  8
1
  6
DASH_CENTER
 62
     3
100
AcDbLine
 10
276.6649171275241
 20
287.478952118797
 30
0.0
 11
276.6649171275241
 21
198.7297125555072
 31
0.0
  0
LINE
  5
AB
330
1F
100
AcDbEntity
  8
1
  6
Continuous
 62
     7
100
AcDbLine
 10
673.5290972965292
 20
227.1730005461972
 30
0.0
 11
683.5290972965292
 21
227.1730005461972
 31
0.0
  0
LINE
  5
AC
330
1F
100
AcDbEntity
  8
1
  6
Continuous
 62
     7
100
AcDbLine
 10
686.5290972965292
 20
230.1730005461972
 30
0.0
 11
686.5290972965292
 21
234.1730005461972
 31
0.0
  0
LINE
  5
AD
330
1F
100
AcDbEntity
  8
1
  6
Continuous
 62
     7
100
AcDbLine
 10
683.5290972965292
 20
267.1730005461972
 30
0.0
 11
673.5290972965292
 21
267.1730005461972
 31
0.0
  0
LINE
  5
AE
330
1F
100
AcDbEntity
  8
1
  6
Continuous
 62
     7
100
AcDbLine
 10
670.5290972965292
 20
264.1730005461972
 30
0.0
 11
670.5290972965292
 21
260.1730005461972
 31
0.0
  0
LINE
  5
AF
330
1F
100
AcDbEntity
  8
1
  6
PHANTOM
 62
     4
100
AcDbLine
 10
670.5290972965292
 20
257.1730005461972
 30
0.0
 11
670.5290972965292
 21
237.1730005461972
 31
0.0
  0
LINE
  5
B0
330
1F
100
AcDbEntity
  8
1
  6
DASHED
 62
     4
100
AcDbLine
 10
670.5290972965292
 20
237.1730005461972
 30
0.0
 11
670.5290972965292
 21
234.1730005461972
 31
0.0
  0
LINE
  5
B1
330
1F
100
AcDbEntity
  8
1
  6
PHANTOM
 62
     4
100
AcDbLine
 10
686.5290972965292
 20
237.1730005461972
 30
0.0
 11
686.5290972965292
 21
257.1730005461972
 31
0.0
  0
LINE
  5
B2
330
1F
100
AcDbEntity
  8
1
  6
DASHED
 62
     4
100
AcDbLine
 10
686.5290972965292
 20
257.1730005461972
 30
0.0
 11
686.5290972965292
 21
260.1730005461972
 31
0.0
  0
LINE
  5
B3
330
1F
100
AcDbEntity
  8
1
  6
Continuous
 62
     3
100
AcDbLine
 10
672.755594604633
 20
247.1730005461972
 30
0.0
 11
675.6423459505811
 21
242.1730005461972
 31
0.0
  0
LINE
  5
B4
330
1F
100
AcDbEntity
  8
1
  6
Continuous
 62
     3
100
AcDbLine
 10
675.6423459505811
 20
242.1730005461972
 30
0.0
 11
681.4158486424774
 21
242.1730005461972
 31
0.0
  0
LINE
  5
B5
330
1F
100
AcDbEntity
  8
1
  6
Continuous
 62
     3
100
AcDbLine
 10
681.4158486424774
 20
242.1730005461972
 30
0.0
 11
684.3025999884255
 21
247.1730005461972
 31
0.0
  0
LINE
  5
B6
330
1F
100
AcDbEntity
  8
1
  6
Continuous
 62
     3
100
AcDbLine
 10
684.3025999884255
 20
247.1730005461972
 30
0.0
 11
681.4158486424774
 21
252.1730005461972
 31
0.0
  0
LINE
  5
B7
330
1F
100
AcDbEntity
  8
1
  6
Continuous
 62
     3
100
AcDbLine
 10
681.4158486424774
 20
252.1730005461972
 30
0.0
 11
675.6423459505811
 21
252.1730005461972
 31
0.0
  0
LINE
  5
B8
330
1F
100
AcDbEntity
  8
1
  6
Continuous
 62
     3
100
AcDbLine
 10
675.6423459505811
 20
252.1730005461972
 30
0.0
 11
672.755594604633
 21
247.1730005461972
 31
0.0
  0
LINE
  5
B9
330
1F
100
AcDbEntity
  8
1
  6
DASH_CENTER
 62
     3
100
AcDbLine
 10
671.6008940662537
 20
247.1730005461972
 30
0.0
 11
685.4573005268046
 21
247.1730005461972
 31
0.0
  0
LINE
  5
BA
330
1F
100
AcDbEntity
  8
1
  6
Continuous
 62
     7
100
AcDbLine
 10
652.4971723383592
 20
277.1730005461972
 30
0.0
 11
711.4971723383592
 21
277.1730005461972
 31
0.0
  0
LINE
  5
BB
330
1F
100
AcDbEntity
  8
1
  6
Continuous
 62
     7
100
AcDbLine
 10
652.4971723383592
 20
207.1730005461972
 30
0.0
 11
708.4971723383592
 21
207.1730005461972
 31
0.0
  0
LINE
  5
BC
330
1F
100
AcDbEntity
  8
1
  6
DASH_CENTER
 62
     3
100
AcDbLine
 10
678.5290972965292
 20
282.6797247857052
 30
0.0
 11
678.5290972965292
 21
200.9896531382656
 31
0.0
  0
LINE
  5
BD
330
1F
100
AcDbEntity
  8
1
  6
Continuous
 62
     7
100
AcDbLine
 10
686.5290972965292
 20
260.1730005461972
 30
0.0
 11
686.5290972965292
 21
264.1730005461972
 31
0.0
  0
LINE
  5
BE
330
1F
100
AcDbEntity
  8
1
  6
DASHED
 62
     4
100
AcDbLine
 10
670.5290972965292
 20
260.1730005461972
 30
0.0
 11
670.5290972965292
 21
257.1730005461972
 31
0.0
  0
LINE
  5
BF
330
1F
100
AcDbEntity
  8
1
  6
Continuous
 62
     7
100
AcDbLine
 10
670.5290972965292
 20
234.1730005461972
 30
0.0
 11
670.5290972965292
 21
230.1730005461972
 31
0.0
  0
LINE
  5
C0
330
1F
100
AcDbEntity
  8
1
  6
DASHED
 62
     4
100
AcDbLine
 10
686.5290972965292
 20
234.1730005461972
 30
0.0
 11
686.5290972965292
 21
237.1730005461972
 31
0.0
  0
LINE
  5
C1
330
1F
100
AcDbEntity
  8
1
  6
Continuous
 62
     7
100
AcDbLine
 10
160.6649171275241
 20
267.1730005461972
 30
0.0
 11
176.6649171275241
 21
267.1730005461972
 31
0.0
  0
LINE
  5
C2
330
1F
100
AcDbEntity
  8
1
  6
Continuous
 62
     7
100
AcDbLine
 10
155.6649171275241
 20
260.6730005461972
 30
0.0
 11
155.6649171275241
 21
262.1730005461972
 31
0.0
  0
LINE
  5
C3
330
1F
100
AcDbEntity
  8
1
  6
Continuous
 62
     7
100
AcDbLine
 10
157.6649171275241
 20
260.1730005461972
 30
0.0
 11
156.1649171275241
 21
260.1730005461972
 31
0.0
  0
LINE
  5
C4
330
1F
100
AcDbEntity
  8
1
  6
DASH_CENTER
 62
     3
100
AcDbLine
 10
157.6649171275241
 20
262.1730005461972
 30
0.0
 11
157.6649171275241
 21
250.1730005461972
 31
0.0
  0
LINE
  5
C5
330
1F
100
AcDbEntity
  8
1
  6
DASH_CENTER
 62
     3
100
AcDbLine
 10
152.6649171275241
 20
256.1730005461972
 30
0.0
 11
163.6649171275241
 21
256.1730005461972
 31
0.0
  0
LINE
  5
C6
330
1F
100
AcDbEntity
  8
1
  6
Continuous
 62
     7
100
AcDbLine
 10
157.6649171275241
 20
252.1730005461972
 30
0.0
 11
156.6649171275241
 21
252.1730005461972
 31
0.0
  0
LINE
  5
C7
330
1F
100
AcDbEntity
  8
1
  6
Continuous
 62
     7
100
AcDbLine
 10
156.6649171275241
 20
252.1730005461972
 30
0.0
 11
155.6649171275241
 21
251.6730005461972
 31
0.0
  0
LINE
  5
C8
330
1F
100
AcDbEntity
  8
1
  6
Continuous
 62
     7
100
AcDbLine
 10
155.6649171275241
 20
251.6730005461972
 30
0.0
 11
155.6649171275241
 21
242.6730005461972
 31
0.0
  0
LINE
  5
C9
330
1F
100
AcDbEntity
  8
1
  6
Continuous
 62
     7
100
AcDbLine
 10
157.6649171275241
 20
242.1730005461972
 30
0.0
 11
156.6649171275241
 21
242.1730005461972
 31
0.0
  0
LINE
  5
CA
330
1F
100
AcDbEntity
  8
1
  6
Continuous
 62
     7
100
AcDbLine
 10
155.6649171275241
 20
242.6730005461972
 30
0.0
 11
156.6649171275241
 21
242.1730005461972
 31
0.0
  0
LINE
  5
CB
330
1F
100
AcDbEntity
  8
1
  6
DASH_CENTER
 62
     3
100
AcDbLine
 10
151.0650116441722
 20
238.1730005461972
 30
0.0
 11
163.6649171275241
 21
238.1730005461972
 31
0.0
  0
LINE
  5
CC
330
1F
100
AcDbEntity
  8
1
  6
DASH_CENTER
 62
     3
100
AcDbLine
 10
157.6649171275241
 20
244.1730005461972
 30
0.0
 11
157.6649171275241
 21
232.1730005461972
 31
0.0
  0
LINE
  5
CD
330
1F
100
AcDbEntity
  8
1
  6
Continuous
 62
     7
100
AcDbLine
 10
156.1649171275241
 20
234.1730005461972
 30
0.0
 11
157.6649171275241
 21
234.1730005461972
 31
0.0
  0
LINE
  5
CE
330
1F
100
AcDbEntity
  8
1
  6
Continuous
 62
     7
100
AcDbLine
 10
155.6649171275241
 20
232.1730005461972
 30
0.0
 11
155.6649171275241
 21
233.6730005461972
 31
0.0
  0
LINE
  5
CF
330
1F
100
AcDbEntity
  8
1
  6
Continuous
 62
     7
100
AcDbLine
 10
176.6649171275241
 20
227.1730005461972
 30
0.0
 11
160.6649171275241
 21
227.1730005461972
 31
0.0
  0
LINE
  5
D0
330
1F
100
AcDbEntity
  8
1
  6
Continuous
 62
     7
100
AcDbLine
 10
176.6649171275241
 20
267.1730005461972
 30
0.0
 11
176.6649171275241
 21
227.1730005461972
 31
0.0
  0
LINE
  5
D1
330
1F
100
AcDbEntity
  8
1
  6
DASH_CENTER
 62
     3
100
AcDbLine
 10
562.5794742498749
 20
256.1730005461972
 30
0.0
 11
713.2483194953904
 21
256.1730005461972
 31
0.0
  0
LINE
  5
D2
330
1F
100
AcDbEntity
  8
1
  6
Continuous
 62
     7
100
AcDbLine
 10
670.5290972965292
 20
260.1730005461972
 30
0.0
 11
612.1979462189238
 21
260.1730005461972
 31
0.0
  0
LINE
  5
D3
330
1F
100
AcDbEntity
  8
1
  6
Continuous
 62
     7
100
AcDbLine
 10
669.8688432586848
 20
252.1730005461972
 30
0.0
 11
612.1979462189238
 21
252.1730005461972
 31
0.0
  0
LINE
  5
D4
330
1F
100
AcDbEntity
  8
1
  6
Continuous
 62
     7
100
AcDbLine
 10
707.5290972965292
 20
260.1730005461972
 30
0.0
 11
686.5290972965292
 21
260.1730005461972
 31
0.0
  0
LINE
  5
D5
330
1F
100
AcDbEntity
  8
1
  6
Continuous
 62
     7
100
AcDbLine
 10
707.5290972965292
 20
252.1730005461972
 30
0.0
 11
687.1893513343737
 21
252.1730005461972
 31
0.0
  0
LINE
  5
D6
330
1F
100
AcDbEntity
  8
1
  6
DASH_CENTER
 62
     3
100
AcDbLine
 10
713.2483194953904
 20
238.1730005461972
 30
0.0
 11
562.5794742498749
 21
238.1730005461972
 31
0.0
  0
LINE
  5
D7
330
1F
100
AcDbEntity
  8
1
  6
Continuous
 62
     7
100
AcDbLine
 10
612.1979462189238
 20
234.1730005461972
 30
0.0
 11
670.5290972965292
 21
234.1730005461972
 31
0.0
  0
LINE
  5
D8
330
1F
100
AcDbEntity
  8
1
  6
Continuous
 62
     7
100
AcDbLine
 10
612.1979462189238
 20
242.1730005461972
 30
0.0
 11
669.8688432586848
 21
242.1730005461972
 31
0.0
  0
LINE
  5
D9
330
1F
100
AcDbEntity
  8
1
  6
Continuous
 62
     7
100
AcDbLine
 10
686.5290972965292
 20
234.1730005461972
 30
0.0
 11
707.5290972965292
 21
234.1730005461972
 31
0.0
  0
LINE
  5
DA
330
1F
100
AcDbEntity
  8
1
  6
Continuous
 62
     7
100
AcDbLine
 10
687.1893513343737
 20
242.1730005461972
 30
0.0
 11
707.5290972965292
 21
242.1730005461972
 31
0.0
  0
LINE
  5
DB
330
1F
100
AcDbEntity
  8
1
  6
Continuous
 62
     7
100
AcDbLine
 10
670.5290972965292
 20
234.1730005461972
 30
0.0
 11
686.5290972965292
 21
234.1730005461972
 31
0.0
  0
LINE
  5
DC
330
1F
100
AcDbEntity
  8
1
  6
Continuous
 62
     7
100
AcDbLine
 10
670.5290972965292
 20
260.1730005461972
 30
0.0
 11
686.5290972965292
 21
260.1730005461972
 31
0.0
  0
LINE
  5
DD
330
1F
100
AcDbEntity
  8
1
  6
Continuous
 62
     7
100
AcDbLine
 10
413.1649171275232
 20
284.6730005461972
 30
0.0
 11
398.1649171275232
 21
284.673000546197
 31
0.0
  0
LINE
  5
DE
330
1F
100
AcDbEntity
  8
1
  6
Continuous
 62
     7
100
AcDbLine
 10
396.1649171275232
 20
286.673000546197
 30
0.0
 11
396.1649171275232
 21
316.6730005461972
 31
0.0
  0
LINE
  5
DF
330
1F
100
AcDbEntity
  8
1
  6
Continuous
 62
     7
100
AcDbLine
 10
398.1649171275232
 20
294.6730005461972
 30
0.0
 11
401.6649171275232
 21
294.6730005461972
 31
0.0
  0
LINE
  5
E0
330
1F
100
AcDbEntity
  8
1
  6
Continuous
 62
     7
100
AcDbLine
 10
398.1649171275232
 20
308.673000546197
 30
0.0
 11
401.6649171275232
 21
308.6730005461972
 31
0.0
  0
LINE
  5
E1
330
1F
100
AcDbEntity
  8
1
  6
Continuous
 62
     7
100
AcDbLine
 10
398.1649171275232
 20
318.6730005461972
 30
0.0
 11
404.1649171275232
 21
318.6730005461972
 31
0.0
  0
LINE
  5
E2
330
1F
100
AcDbEntity
  8
1
  6
Continuous
 62
     7
100
AcDbLine
 10
403.6649171275232
 20
316.6730005461972
 30
0.0
 11
403.6649171275232
 21
286.6730005461972
 31
0.0
  0
LINE
  5
E3
330
1F
100
AcDbEntity
  8
1
  6
Continuous
 62
     7
100
AcDbLine
 10
403.6649171275232
 20
318.6730005461972
 30
0.0
 11
413.1649171275232
 21
318.6730005461972
 31
0.0
  0
LINE
  5
E4
330
1F
100
AcDbEntity
  8
1
  6
Continuous
 62
     7
100
AcDbLine
 10
421.1649171275232
 20
310.6730005461972
 30
0.0
 11
421.1649171275232
 21
292.6730005461972
 31
0.0
  0
LINE
  5
E5
330
1F
100
AcDbEntity
  8
1
  6
Continuous
 62
     3
100
AcDbLine
 10
406.6649171275232
 20
304.673000546197
 30
0.0
 11
416.6649171275241
 21
304.673000546197
 31
0.0
  0
LINE
  5
E6
330
1F
100
AcDbEntity
  8
1
  6
Continuous
 62
     3
100
AcDbLine
 10
416.6649171275241
 20
304.673000546197
 30
0.0
 11
416.6649171275241
 21
314.6730005461972
 31
0.0
  0
LINE
  5
E7
330
1F
100
AcDbEntity
  8
1
  6
Continuous
 62
     3
100
AcDbLine
 10
416.6649171275241
 20
314.6730005461972
 30
0.0
 11
406.6649171275232
 21
314.6730005461972
 31
0.0
  0
LINE
  5
E8
330
1F
100
AcDbEntity
  8
1
  6
Continuous
 62
     3
100
AcDbLine
 10
406.6649171275232
 20
314.6730005461972
 30
0.0
 11
406.6649171275232
 21
304.673000546197
 31
0.0
  0
LINE
  5
E9
330
1F
100
AcDbEntity
  8
1
  6
DASH_CENTER
 62
     3
100
AcDbLine
 10
405.193049132041
 20
309.6730005461972
 30
0.0
 11
419.0392151516752
 21
309.6730005461972
 31
0.0
  0
LINE
  5
EA
330
1F
100
AcDbEntity
  8
1
  6
DASH_CENTER
 62
     3
100
AcDbLine
 10
421.1649171275232
 20
293.6730005461972
 30
0.0
 11
403.6649171275232
 21
293.6730005461972
 31
0.0
  0
LINE
  5
EB
330
1F
100
AcDbEntity
  8
1
  6
DASH_CENTER
 62
     3
100
AcDbLine
 10
411.6649171275241
 20
321.8122907459932
 30
0.0
 11
411.6649171275241
 21
279.8122907459932
 31
0.0
  0
LINE
  5
EC
330
1F
100
AcDbEntity
  8
1
  6
DASH_CENTER
 62
     3
100
AcDbLine
 10
382.6019361526391
 20
247.1730005461972
 30
0.0
 11
416.6019361526391
 21
247.1730005461972
 31
0.0
  0
LINE
  5
ED
330
1F
100
AcDbEntity
  8
1
  6
DASH_CENTER
 62
     3
100
AcDbLine
 10
395.6649171275232
 20
232.1730005461972
 30
0.0
 11
395.6649171275232
 21
244.1730005461972
 31
0.0
  0
LINE
  5
EE
330
1F
100
AcDbEntity
  8
1
  6
DASH_CENTER
 62
     3
100
AcDbLine
 10
389.6649171275232
 20
238.1730005461972
 30
0.0
 11
402.2648226108762
 21
238.1730005461972
 31
0.0
  0
LINE
  5
EF
330
1F
100
AcDbEntity
  8
1
  6
DASH_CENTER
 62
     3
100
AcDbLine
 10
395.6649171275232
 20
250.1730005461972
 30
0.0
 11
395.6649171275232
 21
262.1730005461972
 31
0.0
  0
LINE
  5
F0
330
1F
100
AcDbEntity
  8
1
  6
DASH_CENTER
 62
     3
100
AcDbLine
 10
386.6649171275232
 20
256.1730005461972
 30
0.0
 11
402.2648226108762
 21
256.1730005461972
 31
0.0
  0
LINE
  5
F1
330
1F
100
AcDbEntity
  8
1
  6
Continuous
 62
     7
100
AcDbLine
 10
410.6649171275232
 20
230.1730005461972
 30
0.0
 11
395.6649171275232
 21
230.1730005461972
 31
0.0
  0
LINE
  5
F2
330
1F
100
AcDbEntity
  8
1
  6
Continuous
 62
     7
100
AcDbLine
 10
395.6649171275232
 20
264.1730005461972
 30
0.0
 11
410.6649171275232
 21
264.1730005461972
 31
0.0
  0
LINE
  5
F3
330
1F
100
AcDbEntity
  8
1
  6
Continuous
 62
     7
100
AcDbLine
 10
398.1649171275232
 20
241.2954995453964
 30
0.0
 11
398.1649171275232
 21
253.050501546998
 31
0.0
  0
LINE
  5
F4
330
1F
100
AcDbEntity
  8
1
  6
Continuous
 62
     7
100
AcDbLine
 10
394.1649171275232
 20
260.1730005461972
 30
0.0
 11
395.6649171275232
 21
260.1730005461972
 31
0.0
  0
LINE
  5
F5
330
1F
100
AcDbEntity
  8
1
  6
Continuous
 62
     7
100
AcDbLine
 10
393.6649171275232
 20
260.6730005461972
 30
0.0
 11
393.6649171275232
 21
262.1730005461972
 31
0.0
  0
LINE
  5
F6
330
1F
100
AcDbEntity
  8
1
  6
Continuous
 62
     7
100
AcDbLine
 10
394.1649171275232
 20
234.1730005461972
 30
0.0
 11
395.6649171275232
 21
234.1730005461972
 31
0.0
  0
LINE
  5
F7
330
1F
100
AcDbEntity
  8
1
  6
Continuous
 62
     7
100
AcDbLine
 10
393.6649171275232
 20
232.1730005461972
 30
0.0
 11
393.6649171275232
 21
233.6730005461972
 31
0.0
  0
LINE
  5
F8
330
1F
100
AcDbEntity
  8
1
  6
DASH_CENTER
 62
     3
100
AcDbLine
 10
395.6649171275232
 20
250.1730005461972
 30
0.0
 11
395.6649171275232
 21
262.1730005461972
 31
0.0
  0
LINE
  5
F9
330
1F
100
AcDbEntity
  8
1
  6
Continuous
 62
     7
100
AcDbLine
 10
412.6649171275232
 20
262.1730005461972
 30
0.0
 11
412.6649171275232
 21
232.1730005461972
 31
0.0
  0
LINE
  5
FA
330
1F
100
AcDbEntity
  8
1
  6
Continuous
 62
     3
100
AcDbLine
 10
412.6649171275232
 20
242.1730005461972
 30
0.0
 11
412.6649171275232
 21
252.1730005461972
 31
0.0
  0
LINE
  5
FB
330
1F
100
AcDbEntity
  8
1
  6
Continuous
 62
     3
100
AcDbLine
 10
412.6649171275232
 20
252.1730005461972
 30
0.0
 11
418.2649171275231
 21
252.1730005461972
 31
0.0
  0
LINE
  5
FC
330
1F
100
AcDbEntity
  8
1
  6
Continuous
 62
     3
100
AcDbLine
 10
418.2649171275231
 20
252.1730005461972
 30
0.0
 11
418.6649171275232
 21
251.4801802231696
 31
0.0
  0
LINE
  5
FD
330
1F
100
AcDbEntity
  8
1
  6
Continuous
 62
     3
100
AcDbLine
 10
418.6649171275232
 20
251.4801802231696
 30
0.0
 11
418.6649171275232
 21
242.8658208692247
 31
0.0
  0
LINE
  5
FE
330
1F
100
AcDbEntity
  8
1
  6
Continuous
 62
     3
100
AcDbLine
 10
418.6649171275232
 20
242.8658208692247
 30
0.0
 11
418.2649171275231
 21
242.1730005461972
 31
0.0
  0
LINE
  5
FF
330
1F
100
AcDbEntity
  8
1
  6
Continuous
 62
     3
100
AcDbLine
 10
418.2649171275231
 20
242.1730005461972
 30
0.0
 11
412.6649171275232
 21
242.1730005461972
 31
0.0
  0
LINE
  5
100
330
1F
100
AcDbEntity
  8
1
  6
Continuous
 62
     3
100
AcDbLine
 10
418.2649171275231
 20
242.1730005461972
 30
0.0
 11
418.2649171275231
 21
252.1730005461972
 31
0.0
  0
LINE
  5
101
330
1F
100
AcDbEntity
  8
1
  6
DASH_CENTER
 62
     3
100
AcDbLine
 10
404.6649171275232
 20
247.1730005461972
 30
0.0
 11
418.6649171275232
 21
247.1730005461972
 31
0.0
  0
LINE
  5
102
330
1F
100
AcDbEntity
  8
1
  6
DASH_CENTER
 62
     3
100
AcDbLine
 10
403.6649171275232
 20
331.2483813224344
 30
0.0
 11
403.6649171275232
 21
210.2762096799847
 31
0.0
  0
LINE
  5
103
330
1F
100
AcDbEntity
  8
1
  6
Continuous
 62
     3
100
AcDbLine
 10
407.6649171275232
 20
264.1730005461972
 30
0.0
 11
407.6649171275232
 21
284.6730005461972
 31
0.0
  0
LINE
  5
104
330
1F
100
AcDbEntity
  8
1
  6
Continuous
 62
     3
100
AcDbLine
 10
399.6649171275232
 20
264.1730005461972
 30
0.0
 11
399.6649171275232
 21
284.6730005461972
 31
0.0
  0
LINE
  5
105
330
1F
100
AcDbEntity
  8
1
  6
Continuous
 62
     3
100
AcDbLine
 10
399.614917127523
 20
318.6730005461972
 30
0.0
 11
399.614917127523
 21
324.1730005461972
 31
0.0
  0
LINE
  5
106
330
1F
100
AcDbEntity
  8
1
  6
Continuous
 62
     3
100
AcDbLine
 10
402.614917127523
 20
327.1730005461972
 30
0.0
 11
404.7149171275232
 21
327.1730005461972
 31
0.0
  0
LINE
  5
107
330
1F
100
AcDbEntity
  8
1
  6
Continuous
 62
     3
100
AcDbLine
 10
407.7149171275232
 20
324.1730005461972
 30
0.0
 11
407.7149171275232
 21
318.6730005461972
 31
0.0
  0
LINE
  5
108
330
1F
100
AcDbEntity
  8
1
  6
Continuous
 62
     3
100
AcDbLine
 10
402.614917127523
 20
217.1730005461972
 30
0.0
 11
404.7149171275232
 21
217.1730005461972
 31
0.0
  0
LINE
  5
109
330
1F
100
AcDbEntity
  8
1
  6
Continuous
 62
     3
100
AcDbLine
 10
351.6649171275232
 20
285.6730005461972
 30
0.0
 11
355.6649171275232
 21
285.6730005461972
 31
0.0
  0
LINE
  5
10A
330
1F
100
AcDbEntity
  8
1
  6
Continuous
 62
     3
100
AcDbLine
 10
355.6649171275232
 20
285.6730005461972
 30
0.0
 11
355.6649171275232
 21
317.6730005461972
 31
0.0
  0
LINE
  5
10B
330
1F
100
AcDbEntity
  8
1
  6
Continuous
 62
     3
100
AcDbLine
 10
355.6649171275232
 20
317.6730005461972
 30
0.0
 11
351.6649171275232
 21
317.6730005461972
 31
0.0
  0
LINE
  5
10C
330
1F
100
AcDbEntity
  8
1
  6
Continuous
 62
     3
100
AcDbLine
 10
351.6649171275232
 20
317.6730005461972
 30
0.0
 11
351.6649171275232
 21
285.6730005461972
 31
0.0
  0
LINE
  5
10D
330
1F
100
AcDbEntity
  8
1
  6
Continuous
 62
     3
100
AcDbLine
 10
435.6649171275232
 20
302.6869215847718
 30
0.0
 11
435.6649171275232
 21
300.6730005461972
 31
0.0
  0
LINE
  5
10E
330
1F
100
AcDbEntity
  8
1
  6
Continuous
 62
     3
100
AcDbLine
 10
431.6649171275232
 20
297.6730005461972
 30
0.0
 11
421.1649171275232
 21
297.6730005461972
 31
0.0
  0
LINE
  5
10F
330
1F
100
AcDbEntity
  8
1
  6
DASH_CENTER
 62
     3
100
AcDbLine
 10
355.6649171275232
 20
301.6730005461972
 30
0.0
 11
447.6649171275241
 21
301.6730005461972
 31
0.0
  0
LINE
  5
110
330
1F
100
AcDbEntity
  8
1
  6
Continuous
 62
     3
100
AcDbLine
 10
421.1649171275232
 20
305.6730005461972
 30
0.0
 11
431.6649171275232
 21
305.6730005461968
 31
0.0
  0
LINE
  5
111
330
1F
100
AcDbEntity
  8
1
  6
Continuous
 62
     3
100
AcDbLine
 10
396.1649171275232
 20
305.6730005461972
 30
0.0
 11
355.6649171275232
 21
305.6730005461972
 31
0.0
  0
LINE
  5
112
330
1F
100
AcDbEntity
  8
1
  6
Continuous
 62
     3
100
AcDbLine
 10
396.1649171275232
 20
297.6730005461972
 30
0.0
 11
355.6649171275232
 21
297.6730005461972
 31
0.0
  0
LINE
  5
113
330
1F
100
AcDbEntity
  8
1
  6
Continuous
 62
     3
100
AcDbLine
 10
399.614917127523
 20
220.1730005461972
 30
0.0
 11
399.614917127523
 21
230.1730005461972
 31
0.0
  0
LINE
  5
114
330
1F
100
AcDbEntity
  8
1
  6
Continuous
 62
     3
100
AcDbLine
 10
407.614917127523
 20
220.1730005461972
 30
0.0
 11
407.614917127523
 21
230.1730005461972
 31
0.0
  0
LINE
  5
115
330
1F
100
AcDbEntity
  8
1
  6
Continuous
 62
     3
100
AcDbLine
 10
207.6649171275241
 20
285.6730005461972
 30
0.0
 11
211.6649171275241
 21
285.6730005461972
 31
0.0
  0
LINE
  5
116
330
1F
100
AcDbEntity
  8
1
  6
Continuous
 62
     3
100
AcDbLine
 10
207.6649171275241
 20
317.6730005461972
 30
0.0
 11
207.6649171275241
 21
285.6730005461972
 31
0.0
  0
LINE
  5
117
330
1F
100
AcDbEntity
  8
1
  6
Continuous
 62
     3
100
AcDbLine
 10
211.6649171275241
 20
317.6730005461972
 30
0.0
 11
207.6649171275241
 21
317.6730005461972
 31
0.0
  0
LINE
  5
118
330
1F
100
AcDbEntity
  8
1
  6
Continuous
 62
     3
100
AcDbLine
 10
211.6649171275241
 20
285.6730005461972
 30
0.0
 11
211.6649171275241
 21
317.6730005461972
 31
0.0
  0
LINE
  5
119
330
1F
100
AcDbEntity
  8
1
  6
Continuous
 62
     3
100
AcDbLine
 10
398.1649171275232
 20
244.1730005461972
 30
0.0
 11
391.6649171275232
 21
244.1730005461972
 31
0.0
  0
LINE
  5
11A
330
1F
100
AcDbEntity
  8
1
  6
Continuous
 62
     3
100
AcDbLine
 10
391.6649171275232
 20
250.1730005461972
 30
0.0
 11
398.1649171275232
 21
250.1730005461972
 31
0.0
  0
LINE
  5
11B
330
1F
100
AcDbEntity
  8
1
  6
Continuous
 62
     3
100
AcDbLine
 10
384.6649171275232
 20
242.8428735272749
 30
0.0
 11
384.6649171275232
 21
251.5031275651195
 31
0.0
  0
LINE
  5
11C
330
1F
100
AcDbEntity
  8
1
  6
Continuous
 62
     3
100
AcDbLine
 10
388.6649171275232
 20
244.2862492002491
 30
0.0
 11
385.1114991149092
 21
244.2862492002491
 31
0.0
  0
LINE
  5
11D
330
1F
100
AcDbEntity
  8
1
  6
Continuous
 62
     3
100
AcDbLine
 10
388.6649171275232
 20
250.0597518921454
 30
0.0
 11
385.1114991149092
 21
250.0597518921454
 31
0.0
  0
LINE
  5
11E
330
1F
100
AcDbEntity
  8
1
  6
Continuous
 62
     3
100
AcDbLine
 10
388.6649171275232
 20
241.399497854301
 30
0.0
 11
385.1114991149092
 21
241.399497854301
 31
0.0
  0
LINE
  5
11F
330
1F
100
AcDbEntity
  8
1
  6
Continuous
 62
     3
100
AcDbLine
 10
388.6649171275232
 20
252.9465032380935
 30
0.0
 11
388.6649171275232
 21
241.399497854301
 31
0.0
  0
LINE
  5
120
330
1F
100
AcDbEntity
  8
1
  6
Continuous
 62
     3
100
AcDbLine
 10
385.1114991149092
 20
252.9465032380935
 30
0.0
 11
388.6649171275232
 21
252.9465032380935
 31
0.0
  0
LINE
  5
121
330
1F
100
AcDbEntity
  8
1
  6
Continuous
 62
     3
100
AcDbLine
 10
391.6649171275232
 20
258.1730005461972
 30
0.0
 11
388.6649171275232
 21
258.1730005461975
 31
0.0
  0
LINE
  5
122
330
1F
100
AcDbEntity
  8
1
  6
Continuous
 62
     3
100
AcDbLine
 10
388.6649171275232
 20
258.1730005461975
 30
0.0
 11
388.6649171275232
 21
236.1730005461972
 31
0.0
  0
LINE
  5
123
330
1F
100
AcDbEntity
  8
1
  6
Continuous
 62
     3
100
AcDbLine
 10
388.6649171275232
 20
236.1730005461972
 30
0.0
 11
391.6649171275232
 21
236.1730005461972
 31
0.0
  0
LINE
  5
124
330
1F
100
AcDbEntity
  8
1
  6
Continuous
 62
     3
100
AcDbLine
 10
391.6649171275232
 20
236.1730005461972
 30
0.0
 11
391.6649171275232
 21
258.1730005461972
 31
0.0
  0
LINE
  5
125
330
1F
100
AcDbEntity
  8
1
  6
DASH_CENTER
 62
     3
100
AcDbLine
 10
155.6649171275241
 20
247.1730005461972
 30
0.0
 11
147.1649171275241
 21
247.1730005461972
 31
0.0
  0
LINE
  5
126
330
1F
100
AcDbEntity
  8
1
  6
Continuous
 62
     3
100
AcDbLine
 10
147.1649171275241
 20
242.8428735272749
 30
0.0
 11
147.1649171275241
 21
251.5031275651195
 31
0.0
  0
LINE
  5
127
330
1F
100
AcDbEntity
  8
1
  6
Continuous
 62
     3
100
AcDbLine
 10
151.1649171275241
 20
244.2862492002491
 30
0.0
 11
147.6114991149101
 21
244.2862492002491
 31
0.0
  0
LINE
  5
128
330
1F
100
AcDbEntity
  8
1
  6
Continuous
 62
     3
100
AcDbLine
 10
151.1649171275241
 20
250.0597518921454
 30
0.0
 11
147.6114991149101
 21
250.0597518921454
 31
0.0
  0
LINE
  5
129
330
1F
100
AcDbEntity
  8
1
  6
Continuous
 62
     3
100
AcDbLine
 10
151.1649171275241
 20
241.399497854301
 30
0.0
 11
147.6114991149101
 21
241.399497854301
 31
0.0
  0
LINE
  5
12A
330
1F
100
AcDbEntity
  8
1
  6
Continuous
 62
     3
100
AcDbLine
 10
151.1649171275241
 20
252.9465032380935
 30
0.0
 11
151.1649171275241
 21
241.399497854301
 31
0.0
  0
LINE
  5
12B
330
1F
100
AcDbEntity
  8
1
  6
Continuous
 62
     3
100
AcDbLine
 10
147.6114991149101
 20
252.9465032380935
 30
0.0
 11
151.1649171275241
 21
252.9465032380935
 31
0.0
  0
LINE
  5
12C
330
1F
100
AcDbEntity
  8
1
  6
Continuous
 62
     3
100
AcDbLine
 10
151.1649171275241
 20
257.173000546197
 30
0.0
 11
151.1649171275241
 21
237.1730005461972
 31
0.0
  0
LINE
  5
12D
330
1F
100
AcDbEntity
  8
1
  6
Continuous
 62
     3
100
AcDbLine
 10
153.6649171275241
 20
257.1730005461972
 30
0.0
 11
151.1649171275241
 21
257.173000546197
 31
0.0
  0
LINE
  5
12E
330
1F
100
AcDbEntity
  8
1
  6
Continuous
 62
     3
100
AcDbLine
 10
153.6649171275241
 20
237.1730005461972
 30
0.0
 11
153.6649171275241
 21
257.1730005461972
 31
0.0
  0
LINE
  5
12F
330
1F
100
AcDbEntity
  8
1
  6
Continuous
 62
     3
100
AcDbLine
 10
151.1649171275241
 20
237.1730005461972
 30
0.0
 11
153.6649171275241
 21
237.1730005461972
 31
0.0
  0
LINE
  5
130
330
1F
100
AcDbEntity
  8
1
  6
Continuous
 62
     3
100
AcDbLine
 10
186.2284171921601
 20
250.1730005461972
 30
0.0
 11
187.2284171921601
 21
249.1730005461972
 31
0.0
  0
LINE
  5
131
330
1F
100
AcDbEntity
  8
1
  6
Continuous
 62
     3
100
AcDbLine
 10
187.2284171921601
 20
249.1730005461972
 30
0.0
 11
187.2284171921601
 21
245.1730005461972
 31
0.0
  0
LINE
  5
132
330
1F
100
AcDbEntity
  8
1
  6
Continuous
 62
     3
100
AcDbLine
 10
187.2284171921601
 20
245.1730005461972
 30
0.0
 11
186.2284171921601
 21
244.1730005461972
 31
0.0
  0
LINE
  5
133
330
1F
100
AcDbEntity
  8
1
  6
Continuous
 62
     3
100
AcDbLine
 10
186.2284171921601
 20
244.1730005461972
 30
0.0
 11
185.1649171275241
 21
244.1730005461972
 31
0.0
  0
LINE
  5
134
330
1F
100
AcDbEntity
  8
1
  6
Continuous
 62
     3
100
AcDbLine
 10
186.2284171921601
 20
250.1730005461972
 30
0.0
 11
186.2284171921601
 21
244.1730005461972
 31
0.0
  0
LINE
  5
135
330
1F
100
AcDbEntity
  8
1
  6
Continuous
 62
     3
100
AcDbLine
 10
186.7699171921601
 20
244.7145005461973
 30
0.0
 11
185.1649171275241
 21
244.7145005461973
 31
0.0
  0
LINE
  5
136
330
1F
100
AcDbEntity
  8
1
  6
Continuous
 62
     3
100
AcDbLine
 10
185.1649171275241
 20
250.1730005461972
 30
0.0
 11
186.2284171921601
 21
250.1730005461972
 31
0.0
  0
LINE
  5
137
330
1F
100
AcDbEntity
  8
1
  6
Continuous
 62
     3
100
AcDbLine
 10
185.1649171275241
 20
249.6315005461972
 30
0.0
 11
186.7699171921601
 21
249.6315005461972
 31
0.0
  0
LINE
  5
138
330
1F
100
AcDbEntity
  8
1
  6
Continuous
 62
     3
100
AcDbLine
 10
178.6649171275241
 20
241.0730005461972
 30
0.0
 11
178.6649171275241
 21
253.2730005461973
 31
0.0
  0
LINE
  5
139
330
1F
100
AcDbEntity
  8
1
  6
Continuous
 62
     3
100
AcDbLine
 10
178.6649171275241
 20
253.2730005461973
 30
0.0
 11
180.1649171275241
 21
253.2730005461973
 31
0.0
  0
LINE
  5
13A
330
1F
100
AcDbEntity
  8
1
  6
Continuous
 62
     3
100
AcDbLine
 10
180.1649171275241
 20
253.2730005461973
 30
0.0
 11
180.1649171275241
 21
241.0730005461972
 31
0.0
  0
LINE
  5
13B
330
1F
100
AcDbEntity
  8
1
  6
Continuous
 62
     3
100
AcDbLine
 10
180.1649171275241
 20
241.0730005461972
 30
0.0
 11
178.6649171275241
 21
241.0730005461972
 31
0.0
  0
LINE
  5
13C
330
1F
100
AcDbEntity
  8
1
  6
Continuous
 62
     3
100
AcDbLine
 10
178.6649171275241
 20
244.1230005461973
 30
0.0
 11
180.1649171275241
 21
244.1230005461973
 31
0.0
  0
LINE
  5
13D
330
1F
100
AcDbEntity
  8
1
  6
Continuous
 62
     3
100
AcDbLine
 10
178.6649171275241
 20
250.2230005461972
 30
0.0
 11
180.1649171275241
 21
250.2230005461972
 31
0.0
  0
LINE
  5
13E
330
1F
100
AcDbEntity
  8
1
  6
Continuous
 62
     3
100
AcDbLine
 10
184.7183351401392
 20
241.399497854301
 30
0.0
 11
180.1649171275241
 21
241.399497854301
 31
0.0
  0
LINE
  5
13F
330
1F
100
AcDbEntity
  8
1
  6
Continuous
 62
     3
100
AcDbLine
 10
180.1649171275241
 20
241.399497854301
 30
0.0
 11
180.1649171275241
 21
252.9465032380935
 31
0.0
  0
LINE
  5
140
330
1F
100
AcDbEntity
  8
1
  6
Continuous
 62
     3
100
AcDbLine
 10
180.1649171275241
 20
252.9465032380935
 30
0.0
 11
184.7183351401392
 21
252.9465032380935
 31
0.0
  0
LINE
  5
141
330
1F
100
AcDbEntity
  8
1
  6
Continuous
 62
     3
100
AcDbLine
 10
180.1649171275241
 20
244.2862492002491
 30
0.0
 11
184.7183351401392
 21
244.2862492002491
 31
0.0
  0
LINE
  5
142
330
1F
100
AcDbEntity
  8
1
  6
Continuous
 62
     3
100
AcDbLine
 10
180.1649171275241
 20
250.0597518921454
 30
0.0
 11
184.7183351401392
 21
250.0597518921454
 31
0.0
  0
LINE
  5
143
330
1F
100
AcDbEntity
  8
1
  6
Continuous
 62
     3
100
AcDbLine
 10
185.1649171275241
 20
251.5031275651195
 30
0.0
 11
185.1649171275241
 21
242.8428735272749
 31
0.0
  0
LINE
  5
144
330
1F
100
AcDbEntity
  8
1
  6
DASH_CENTER
 62
     3
100
AcDbLine
 10
178.7115269116452
 20
247.1730005461972
 30
0.0
 11
188.7115269116452
 21
247.1730005461972
 31
0.0
  0
ARC
  5
145
330
1F
100
AcDbEntity
  8
1
  6
Continuous
 62
     7
100
AcDbCircle
 10
584.1979462189238
 20
301.6730005461972
 30
0.0
 40
7.0
100
AcDbArc
 50
90.0
 51
-90.0
  0
ARC
  5
146
330
1F
100
AcDbEntity
  8
1
  6
Continuous
 62
     7
100
AcDbCircle
 10
395.6649171275232
 20
238.1730005461972
 30
0.0
 40
4.0
100
AcDbArc
 50
-90.0
 51
51.31781254651077
  0
ARC
  5
147
330
1F
100
AcDbEntity
  8
1
  6
Continuous
 62
     7
100
AcDbCircle
 10
395.6649171275232
 20
256.1730005461972
 30
0.0
 40
4.000000000000019
100
AcDbArc
 50
-51.31781254651077
 51
90.0
  0
ARC
  5
148
330
1F
100
AcDbEntity
  8
1
  6
Continuous
 62
     3
100
AcDbCircle
 10
387.2207398759462
 20
251.5031275651195
 30
0.0
 40
2.555822748422349
100
AcDbArc
 50
145.6157525319479
 51
-145.6157525319458
  0
ARC
  5
149
330
1F
100
AcDbEntity
  8
1
  6
Continuous
 62
     3
100
AcDbCircle
 10
394.2183351401381
 20
247.1730005461972
 30
0.0
 40
9.553418012614181
100
AcDbArc
 50
162.4120462260044
 51
-162.4120462260053
  0
ARC
  5
14A
330
1F
100
AcDbEntity
  8
1
  6
Continuous
 62
     3
100
AcDbCircle
 10
387.2207398759462
 20
242.8428735272749
 30
0.0
 40
2.555822748422477
100
AcDbArc
 50
145.6157525319437
 51
-145.6157525319495
  0
ARC
  5
14B
330
1F
100
AcDbEntity
  8
1
  6
Continuous
 62
     3
100
AcDbCircle
 10
149.7207398759471
 20
251.5031275651195
 30
0.0
 40
2.555822748422326
100
AcDbArc
 50
145.6157525319476
 51
-145.6157525319454
  0
ARC
  5
14C
330
1F
100
AcDbEntity
  8
1
  6
Continuous
 62
     3
100
AcDbCircle
 10
156.7183351401392
 20
247.1730005461972
 30
0.0
 40
9.553418012614371
100
AcDbArc
 50
162.4120462260048
 51
-162.4120462260056
  0
ARC
  5
14D
330
1F
100
AcDbEntity
  8
1
  6
Continuous
 62
     3
100
AcDbCircle
 10
149.7207398759471
 20
242.8428735272749
 30
0.0
 40
2.555822748422454
100
AcDbArc
 50
145.6157525319433
 51
-145.6157525319491
  0
ARC
  5
14E
330
1F
100
AcDbEntity
  8
1
  6
Continuous
 62
     3
100
AcDbCircle
 10
182.6090943791011
 20
251.5031275651195
 30
0.0
 40
2.555822748423304
100
AcDbArc
 50
-34.38424746804054
 51
34.38424746803843
  0
ARC
  5
14F
330
1F
100
AcDbEntity
  8
1
  6
Continuous
 62
     3
100
AcDbCircle
 10
175.6114991149101
 20
247.1730005461972
 30
0.0
 40
9.553418012614328
100
AcDbArc
 50
-17.58795377399439
 51
17.5879537739952
  0
ARC
  5
150
330
1F
100
AcDbEntity
  8
1
  6
Continuous
 62
     3
100
AcDbCircle
 10
182.6090943791011
 20
242.8428735272749
 30
0.0
 40
2.555822748423192
100
AcDbArc
 50
-34.38424746803686
 51
34.38424746804265
  0
CIRCLE
  5
151
330
1F
100
AcDbEntity
  8
1
  6
Continuous
 62
     3
100
AcDbCircle
 10
588.1979462189238
 20
247.1730005461972
 30
0.0
 40
5.0
  0
CIRCLE
  5
152
330
1F
100
AcDbEntity
  8
1
  6
Continuous
 62
     3
100
AcDbCircle
 10
588.1979462189238
 20
247.1730005461972
 30
0.0
 40
4.30717967697251
  0
CIRCLE
  5
153
330
1F
100
AcDbEntity
  8
1
  6
Continuous
 62
     3
100
AcDbCircle
 10
604.1979462189238
 20
247.1730005461972
 30
0.0
 40
5.0
  0
CIRCLE
  5
154
330
1F
100
AcDbEntity
  8
1
  6
Continuous
 62
     3
100
AcDbCircle
 10
604.1979462189238
 20
247.1730005461972
 30
0.0
 40
4.30717967697251
  0
CIRCLE
  5
155
330
1F
100
AcDbEntity
  8
1
  6
Continuous
 62
     7
100
AcDbCircle
 10
584.1979462189238
 20
301.6730005461972
 30
0.0
 40
4.050000000000182
  0
CIRCLE
  5
156
330
1F
100
AcDbEntity
  8
1
  6
Continuous
 62
     3
100
AcDbCircle
 10
678.5290972965292
 20
247.1730005461972
 30
0.0
 40
10.0
  0
CIRCLE
  5
157
330
1F
100
AcDbEntity
  8
1
  6
Continuous
 62
     3
100
AcDbCircle
 10
678.5290972965292
 20
247.1730005461972
 30
0.0
 40
5.0
  0
CIRCLE
  5
158
330
1F
100
AcDbEntity
  8
1
  6
Continuous
 62
     7
100
AcDbCircle
 10
157.6649171275241
 20
256.1730005461972
 30
0.0
 40
4.0
  0
CIRCLE
  5
159
330
1F
100
AcDbEntity
  8
1
  6
Continuous
 62
     7
100
AcDbCircle
 10
157.6649171275241
 20
238.1730005461972
 30
0.0
 40
4.0
  0
CIRCLE
  5
15A
330
1F
100
AcDbEntity
  8
1
  6
Continuous
 62
     3
100
AcDbCircle
 10
411.6649171275232
 20
293.6730005461972
 30
0.0
 40
3.099999999999909
  0
CIRCLE
  5
15B
330
1F
100
AcDbEntity
  8
1
  6
Continuous
 62
     3
100
AcDbCircle
 10
411.6649171275232
 20
293.6730005461972
 30
0.0
 40
5.099999999999909
  0
CIRCLE
  5
15C
330
1F
100
AcDbEntity
  8
1
  6
Continuous
 62
     3
100
AcDbCircle
 10
411.6649171275232
 20
309.6730005461972
 30
0.0
 40
3.099999999999909
  0
CIRCLE
  5
15D
330
1F
100
AcDbEntity
  8
1
  6
Continuous
 62
     7
100
AcDbCircle
 10
395.6649171275232
 20
238.1730005461972
 30
0.0
 40
4.0
  0
CIRCLE
  5
15E
330
1F
100
AcDbEntity
  8
1
  6
Continuous
 62
     7
100
AcDbCircle
 10
395.6649171275232
 20
256.1730005461972
 30
0.0
 40
4.0
  0
SPLINE
  5
15F
330
1F
100
AcDbEntity
  8
1
  6
Continuous
 62
     7
100
AcDbSpline
210
0.0
220
0.0
230
1.0
 70
     8
 71
     3
 72
     9
 73
     5
 74
     3
 42
0.0000000001
 43
0.0000000001
 44
0.00000001
 40
0.0
 40
0.0
 40
0.0
 40
0.0
 40
2.564157932693358
 40
5.23307406246977
 40
5.23307406246977
 40
5.23307406246977
 40
5.23307406246977
 10
567.1979462189238
 20
234.1730005461972
 30
0.0
 10
566.3454979247248
 20
234.7845571401982
 30
0.0
 10
564.6057747192658
 20
236.0326553594985
 30
0.0
 10
566.2340057174903
 20
237.450093828637
 30
0.0
 10
567.0644185727811
 20
238.1730005461972
 30
0.0
 11
567.1979462189238
 21
234.1730005461972
 31
0.0
 11
565.4492166407002
 21
236.0483273886543
 31
0.0
 11
567.0644185727811
 21
238.1730005461972
 31
0.0
  0
SPLINE
  5
160
330
1F
100
AcDbEntity
  8
1
  6
Continuous
 62
     7
100
AcDbSpline
210
0.0
220
0.0
230
1.0
 70
     8
 71
     3
 72
    12
 73
     8
 74
     6
 42
0.0000000001
 43
0.0000000001
 44
0.00000001
 40
0.0
 40
0.0
 40
0.0
 40
0.0
 40
2.898391707573655
 40
4.298565139239905
 40
6.70555402511623
 40
9.195235830749342
 40
11.55557680384703
 40
11.55557680384703
 40
11.55557680384703
 40
11.55557680384703
 10
567.1979462189238
 20
242.1730005461972
 30
0.0
 10
565.902243842954
 20
241.9419269539429
 30
0.0
 10
563.9806053530216
 20
241.5992248665515
 30
0.0
 10
565.338291586212
 20
239.1741815432858
 30
0.0
 10
567.0645150546673
 20
238.3798592255317
 30
0.0
 10
569.1924123109259
 20
236.1316601945122
 30
0.0
 10
567.8508425495998
 20
234.8141754965038
 30
0.0
 10
567.1979462189238
 20
234.1730005461972
 30
0.0
 11
567.1979462189238
 21
242.1730005461972
 31
0.0
 11
564.5801820768736
 21
240.9288199374719
 31
0.0
 11
565.1713455476302
 21
239.6595637026686
 31
0.0
 11
567.0644185727811
 21
238.1730005461972
 31
0.0
 11
568.502072270933
 21
236.1403502227302
 31
0.0
 11
567.1979462189238
 21
234.1730005461972
 31
0.0
  0
SPLINE
  5
161
330
1F
100
AcDbEntity
  8
1
  6
Continuous
 62
     7
100
AcDbSpline
210
0.0
220
0.0
230
1.0
 70
     8
 71
     3
 72
     9
 73
     5
 74
     3
 42
0.0000000001
 43
0.0000000001
 44
0.00000001
 40
0.0
 40
0.0
 40
0.0
 40
0.0
 40
2.564157932693338
 40
5.233074062469772
 40
5.233074062469772
 40
5.233074062469772
 40
5.233074062469772
 10
567.1979462189238
 20
260.1730005461972
 30
0.0
 10
566.3454979247249
 20
259.5614439521962
 30
0.0
 10
564.6057747192657
 20
258.313345732896
 30
0.0
 10
566.2340057174902
 20
256.8959072637574
 30
0.0
 10
567.0644185727811
 20
256.1730005461972
 30
0.0
 11
567.1979462189238
 21
260.1730005461972
 31
0.0
 11
565.4492166407002
 21
258.2976737037401
 31
0.0
 11
567.0644185727811
 21
256.1730005461972
 31
0.0
  0
SPLINE
  5
162
330
1F
100
AcDbEntity
  8
1
  6
Continuous
 62
     7
100
AcDbSpline
210
0.0
220
0.0
230
1.0
 70
     8
 71
     3
 72
    12
 73
     8
 74
     6
 42
0.0000000001
 43
0.0000000001
 44
0.00000001
 40
0.0
 40
0.0
 40
0.0
 40
0.0
 40
2.898391707573631
 40
4.298565139239907
 40
6.70555402511625
 40
9.195235830749407
 40
11.55557680384707
 40
11.55557680384707
 40
11.55557680384707
 40
11.55557680384707
 10
567.1979462189238
 20
252.1730005461972
 30
0.0
 10
565.9022438429541
 20
252.4040741384515
 30
0.0
 10
563.9806053530218
 20
252.7467762258428
 30
0.0
 10
565.3382915862119
 20
255.1718195491085
 30
0.0
 10
567.0645150546673
 20
255.9661418668627
 30
0.0
 10
569.1924123109258
 20
258.2143408978822
 30
0.0
 10
567.8508425495996
 20
259.5318255958907
 30
0.0
 10
567.1979462189238
 20
260.1730005461972
 30
0.0
 11
567.1979462189238
 21
252.1730005461972
 31
0.0
 11
564.5801820768736
 21
253.4171811549224
 31
0.0
 11
565.1713455476302
 21
254.6864373897257
 31
0.0
 11
567.0644185727811
 21
256.1730005461972
 31
0.0
 11
568.502072270933
 21
258.2056508696642
 31
0.0
 11
567.1979462189238
 21
260.1730005461972
 31
0.0
  0
SPLINE
  5
163
330
1F
100
AcDbEntity
  8
1
  6
Continuous
 62
     7
100
AcDbSpline
210
0.0
220
0.0
230
1.0
 70
     8
 71
     3
 72
    12
 73
     8
 74
     6
 42
0.0000000001
 43
0.0000000001
 44
0.00000001
 40
0.0
 40
0.0
 40
0.0
 40
0.0
 40
2.89839170757354
 40
4.298565139239938
 40
6.705554025116209
 40
9.195235830749212
 40
11.55557680384683
 40
11.55557680384683
 40
11.55557680384683
 40
11.55557680384683
 10
707.5290972965292
 20
260.1730005461972
 30
0.0
 10
708.8247996724991
 20
259.9419269539429
 30
0.0
 10
710.7464381624313
 20
259.5992248665515
 30
0.0
 10
709.3887519292406
 20
257.174181543286
 30
0.0
 10
707.6625284607856
 20
256.3798592255315
 30
0.0
 10
705.5346312045274
 20
254.1316601945122
 30
0.0
 10
706.8762009658535
 20
252.8141754965038
 30
0.0
 10
707.5290972965292
 20
252.1730005461972
 30
0.0
 11
707.5290972965292
 21
260.1730005461972
 31
0.0
 11
710.1468614385793
 21
258.928819937472
 31
0.0
 11
709.5556979678225
 21
257.6595637026686
 31
0.0
 11
707.6626249426718
 21
256.1730005461972
 31
0.0
 11
706.22497124452
 21
254.1403502227301
 31
0.0
 11
707.5290972965292
 21
252.1730005461972
 31
0.0
  0
SPLINE
  5
164
330
1F
100
AcDbEntity
  8
1
  6
Continuous
 62
     7
100
AcDbSpline
210
0.0
220
0.0
230
1.0
 70
     8
 71
     3
 72
     9
 73
     5
 74
     3
 42
0.0000000001
 43
0.0000000001
 44
0.00000001
 40
0.0
 40
0.0
 40
0.0
 40
0.0
 40
2.564157932693239
 40
5.23307406246965
 40
5.23307406246965
 40
5.23307406246965
 40
5.23307406246965
 10
707.5290972965292
 20
252.1730005461972
 30
0.0
 10
708.3815455907281
 20
252.7845571401983
 30
0.0
 10
710.1212687961872
 20
254.0326553594985
 30
0.0
 10
708.4930377979626
 20
255.450093828637
 30
0.0
 10
707.662624942672
 20
256.1730005461972
 30
0.0
 11
707.5290972965292
 21
252.1730005461972
 31
0.0
 11
709.2778268747527
 21
254.0483273886543
 31
0.0
 11
707.662624942672
 21
256.1730005461972
 31
0.0
  0
SPLINE
  5
165
330
1F
100
AcDbEntity
  8
1
  6
Continuous
 62
     7
100
AcDbSpline
210
0.0
220
0.0
230
1.0
 70
     8
 71
     3
 72
    12
 73
     8
 74
     6
 42
0.0000000001
 43
0.0000000001
 44
0.00000001
 40
0.0
 40
0.0
 40
0.0
 40
0.0
 40
2.898391707573553
 40
4.298565139239924
 40
6.705554025116179
 40
9.195235830749184
 40
11.5555768038468
 40
11.5555768038468
 40
11.5555768038468
 40
11.5555768038468
 10
707.5290972965292
 20
234.1730005461972
 30
0.0
 10
708.8247996724991
 20
234.4040741384516
 30
0.0
 10
710.7464381624311
 20
234.746776225843
 30
0.0
 10
709.3887519292408
 20
237.1718195491084
 30
0.0
 10
707.6625284607856
 20
237.9661418668628
 30
0.0
 10
705.5346312045274
 20
240.2143408978823
 30
0.0
 10
706.8762009658535
 20
241.5318255958906
 30
0.0
 10
707.5290972965292
 20
242.1730005461972
 30
0.0
 11
707.5290972965292
 21
234.1730005461972
 31
0.0
 11
710.1468614385793
 21
235.4171811549225
 31
0.0
 11
709.5556979678225
 21
236.6864373897258
 31
0.0
 11
707.6626249426718
 21
238.1730005461972
 31
0.0
 11
706.22497124452
 21
240.2056508696643
 31
0.0
 11
707.5290972965292
 21
242.1730005461972
 31
0.0
  0
SPLINE
  5
166
330
1F
100
AcDbEntity
  8
1
  6
Continuous
 62
     7
100
AcDbSpline
210
0.0
220
0.0
230
1.0
 70
     8
 71
     3
 72
     9
 73
     5
 74
     3
 42
0.0000000001
 43
0.0000000001
 44
0.00000001
 40
0.0
 40
0.0
 40
0.0
 40
0.0
 40
2.564157932693281
 40
5.233074062469624
 40
5.233074062469624
 40
5.233074062469624
 40
5.233074062469624
 10
707.5290972965292
 20
242.1730005461972
 30
0.0
 10
708.3815455907281
 20
241.5614439521962
 30
0.0
 10
710.1212687961871
 20
240.3133457328959
 30
0.0
 10
708.4930377979626
 20
238.8959072637574
 30
0.0
 10
707.662624942672
 20
238.1730005461972
 30
0.0
 11
707.5290972965292
 21
242.1730005461972
 31
0.0
 11
709.2778268747527
 21
240.29767370374
 31
0.0
 11
707.662624942672
 21
238.1730005461972
 31
0.0
  0
ARC
  5
167
330
1F
100
AcDbEntity
  8
1
  6
Continuous
 62
     7
100
AcDbCircle
 10
601.1979462189238
 20
316.6730005461972
 30
0.0
 40
2.0
100
AcDbArc
 50
0.0
 51
90.0
  0
ARC
  5
168
330
1F
100
AcDbEntity
  8
1
  6
Continuous
 62
     7
100
AcDbCircle
 10
601.1979462189238
 20
286.6730005461974
 30
0.0
 40
2.0
100
AcDbArc
 50
-90.0
 51
0.0
  0
ARC
  5
169
330
1F
100
AcDbEntity
  8
1
  6
Continuous
 62
     7
100
AcDbCircle
 10
579.1979462189238
 20
286.6730005461974
 30
0.0
 40
2.0
100
AcDbArc
 50
180.0
 51
-90.0
  0
ARC
  5
16A
330
1F
100
AcDbEntity
  8
1
  6
Continuous
 62
     7
100
AcDbCircle
 10
579.1979462189238
 20
316.6730005461972
 30
0.0
 40
2.000000000000171
100
AcDbArc
 50
90.0
 51
180.0
  0
ARC
  5
16B
330
1F
100
AcDbEntity
  8
1
  6
Continuous
 62
     7
100
AcDbCircle
 10
584.1979462189238
 20
313.6730005461972
 30
0.0
 40
5.0
100
AcDbArc
 50
-90.0
 51
0.0
  0
ARC
  5
16C
330
1F
100
AcDbEntity
  8
1
  6
Continuous
 62
     7
100
AcDbCircle
 10
584.1979462189238
 20
289.6730005461972
 30
0.0
 40
5.0
100
AcDbArc
 50
0.0
 51
90.0
  0
ARC
  5
16D
330
1F
100
AcDbEntity
  8
1
  6
Continuous
 62
     7
100
AcDbCircle
 10
591.1979462189238
 20
316.6730005461974
 30
0.0
 40
2.0
100
AcDbArc
 50
90.0
 51
180.0
  0
ARC
  5
16E
330
1F
100
AcDbEntity
  8
1
  6
Continuous
 62
     7
100
AcDbCircle
 10
591.1979462189238
 20
286.6730005461974
 30
0.0
 40
2.0
100
AcDbArc
 50
180.0
 51
-90.0
  0
ARC
  5
16F
330
1F
100
AcDbEntity
  8
1
  6
Continuous
 62
     3
100
AcDbCircle
 10
597.197946218924
 20
220.1230005461972
 30
0.0
 40
2.950423698386402
100
AcDbArc
 50
-89.02897806892173
 51
0.97102193107882
  0
ARC
  5
170
330
1F
100
AcDbEntity
  8
1
  6
Continuous
 62
     3
100
AcDbCircle
 10
595.1479462189236
 20
220.1730005461972
 30
0.0
 40
3.0
100
AcDbArc
 50
180.0
 51
-90.0
  0
ARC
  5
171
330
1F
100
AcDbEntity
  8
1
  6
Continuous
 62
     3
100
AcDbCircle
 10
597.247946218924
 20
324.1730005461972
 30
0.0
 40
3.0
100
AcDbArc
 50
0.0
 51
90.0
  0
ARC
  5
172
330
1F
100
AcDbEntity
  8
1
  6
Continuous
 62
     3
100
AcDbCircle
 10
595.1479462189236
 20
324.1730005461972
 30
0.0
 40
3.0
100
AcDbArc
 50
90.0
 51
180.0
  0
ARC
  5
173
330
1F
100
AcDbEntity
  8
1
  6
Continuous
 62
     7
100
AcDbCircle
 10
610.1979462189238
 20
262.1730005461972
 30
0.0
 40
2.0
100
AcDbArc
 50
0.0
 51
90.0
  0
ARC
  5
174
330
1F
100
AcDbEntity
  8
1
  6
Continuous
 62
     7
100
AcDbCircle
 10
582.1979462189238
 20
262.1730005461972
 30
0.0
 40
2.0
100
AcDbArc
 50
90.0
 51
180.0
  0
ARC
  5
175
330
1F
100
AcDbEntity
  8
1
  6
Continuous
 62
     7
100
AcDbCircle
 10
610.1979462189238
 20
232.1730005461972
 30
0.0
 40
2.0
100
AcDbArc
 50
-90.0
 51
0.0
  0
ARC
  5
176
330
1F
100
AcDbEntity
  8
1
  6
Continuous
 62
     7
100
AcDbCircle
 10
582.1979462189238
 20
232.1730005461972
 30
0.0
 40
2.0
100
AcDbArc
 50
180.0
 51
-90.0
  0
ARC
  5
177
330
1F
100
AcDbEntity
  8
1
  6
Continuous
 62
     7
100
AcDbCircle
 10
179.6649171275241
 20
274.1730005461972
 30
0.0
 40
1.0
100
AcDbArc
 50
90.0
 51
180.0
  0
ARC
  5
178
330
1F
100
AcDbEntity
  8
1
  6
Continuous
 62
     7
100
AcDbCircle
 10
373.6649171275232
 20
274.1730005461972
 30
0.0
 40
1.0
100
AcDbArc
 50
0.0
 51
90.0
  0
ARC
  5
179
330
1F
100
AcDbEntity
  8
1
  6
Continuous
 62
     7
100
AcDbCircle
 10
179.6649171275241
 20
274.1730005461972
 30
0.0
 40
3.0
100
AcDbArc
 50
90.0
 51
180.0
  0
ARC
  5
17A
330
1F
100
AcDbEntity
  8
1
  6
Continuous
 62
     7
100
AcDbCircle
 10
373.6649171275232
 20
274.1730005461972
 30
0.0
 40
3.0
100
AcDbArc
 50
0.0
 51
90.0
  0
ARC
  5
17B
330
1F
100
AcDbEntity
  8
1
  6
Continuous
 62
     7
100
AcDbCircle
 10
673.5290972965292
 20
264.1730005461972
 30
0.0
 40
3.0
100
AcDbArc
 50
90.0
 51
180.0
  0
ARC
  5
17C
330
1F
100
AcDbEntity
  8
1
  6
Continuous
 62
     7
100
AcDbCircle
 10
683.5290972965292
 20
264.1730005461972
 30
0.0
 40
3.0
100
AcDbArc
 50
0.0
 51
90.0
  0
ARC
  5
17D
330
1F
100
AcDbEntity
  8
1
  6
Continuous
 62
     7
100
AcDbCircle
 10
673.5290972965292
 20
230.1730005461972
 30
0.0
 40
3.0
100
AcDbArc
 50
180.0
 51
-90.0
  0
ARC
  5
17E
330
1F
100
AcDbEntity
  8
1
  6
Continuous
 62
     7
100
AcDbCircle
 10
683.5290972965292
 20
230.1730005461972
 30
0.0
 40
3.0
100
AcDbArc
 50
-90.0
 51
0.0
  0
ARC
  5
17F
330
1F
100
AcDbEntity
  8
1
  6
Continuous
 62
     7
100
AcDbCircle
 10
160.6649171275241
 20
262.1730005461972
 30
0.0
 40
5.0
100
AcDbArc
 50
90.0
 51
180.0
  0
ARC
  5
180
330
1F
100
AcDbEntity
  8
1
  6
Continuous
 62
     7
100
AcDbCircle
 10
156.1649171275241
 20
260.6730005461972
 30
0.0
 40
0.5
100
AcDbArc
 50
180.0
 51
-90.0
  0
ARC
  5
181
330
1F
100
AcDbEntity
  8
1
  6
Continuous
 62
     7
100
AcDbCircle
 10
156.1649171275241
 20
233.6730005461972
 30
0.0
 40
0.5
100
AcDbArc
 50
90.0
 51
180.0
  0
ARC
  5
182
330
1F
100
AcDbEntity
  8
1
  6
Continuous
 62
     7
100
AcDbCircle
 10
160.6649171275241
 20
232.1730005461972
 30
0.0
 40
5.0
100
AcDbArc
 50
180.0
 51
-90.0
  0
ARC
  5
183
330
1F
100
AcDbEntity
  8
1
  6
Continuous
 62
     7
100
AcDbCircle
 10
398.1649171275232
 20
286.673000546197
 30
0.0
 40
2.0
100
AcDbArc
 50
180.0
 51
-90.0
  0
ARC
  5
184
330
1F
100
AcDbEntity
  8
1
  6
Continuous
 62
     7
100
AcDbCircle
 10
405.6649171275232
 20
286.6730005461972
 30
0.0
 40
2.0
100
AcDbArc
 50
180.0
 51
-90.0
  0
ARC
  5
185
330
1F
100
AcDbEntity
  8
1
  6
Continuous
 62
     7
100
AcDbCircle
 10
398.1649171275232
 20
296.673000546197
 30
0.0
 40
2.0
100
AcDbArc
 50
180.0
 51
-90.0
  0
ARC
  5
186
330
1F
100
AcDbEntity
  8
1
  6
Continuous
 62
     7
100
AcDbCircle
 10
398.1649171275232
 20
306.673000546197
 30
0.0
 40
2.0
100
AcDbArc
 50
90.0
 51
180.0
  0
ARC
  5
187
330
1F
100
AcDbEntity
  8
1
  6
Continuous
 62
     7
100
AcDbCircle
 10
405.6649171275232
 20
316.6730005461972
 30
0.0
 40
2.0
100
AcDbArc
 50
90.0
 51
180.0
  0
ARC
  5
188
330
1F
100
AcDbEntity
  8
1
  6
Continuous
 62
     7
100
AcDbCircle
 10
401.6649171275232
 20
292.6730005461972
 30
0.0
 40
2.0
100
AcDbArc
 50
0.0
 51
90.0
  0
ARC
  5
189
330
1F
100
AcDbEntity
  8
1
  6
Continuous
 62
     7
100
AcDbCircle
 10
401.6649171275232
 20
310.6730005461972
 30
0.0
 40
2.0
100
AcDbArc
 50
-90.0
 51
0.0
  0
ARC
  5
18A
330
1F
100
AcDbEntity
  8
1
  6
Continuous
 62
     7
100
AcDbCircle
 10
413.1649171275232
 20
310.6730005461972
 30
0.0
 40
8.0
100
AcDbArc
 50
0.0
 51
90.0
  0
ARC
  5
18B
330
1F
100
AcDbEntity
  8
1
  6
Continuous
 62
     7
100
AcDbCircle
 10
413.1649171275232
 20
292.6730005461972
 30
0.0
 40
8.0
100
AcDbArc
 50
-90.0
 51
0.0
  0
ARC
  5
18C
330
1F
100
AcDbEntity
  8
1
  6
Continuous
 62
     7
100
AcDbCircle
 10
398.1649171275232
 20
316.6730005461972
 30
0.0
 40
2.0
100
AcDbArc
 50
90.0
 51
180.0
  0
ARC
  5
18D
330
1F
100
AcDbEntity
  8
1
  6
Continuous
 62
     7
100
AcDbCircle
 10
410.6649171275232
 20
262.1730005461972
 30
0.0
 40
2.0
100
AcDbArc
 50
0.0
 51
90.0
  0
ARC
  5
18E
330
1F
100
AcDbEntity
  8
1
  6
Continuous
 62
     7
100
AcDbCircle
 10
395.6649171275232
 20
262.1730005461972
 30
0.0
 40
2.0
100
AcDbArc
 50
90.0
 51
180.0
  0
ARC
  5
18F
330
1F
100
AcDbEntity
  8
1
  6
Continuous
 62
     7
100
AcDbCircle
 10
395.6649171275232
 20
232.1730005461972
 30
0.0
 40
2.0
100
AcDbArc
 50
180.0
 51
-90.0
  0
ARC
  5
190
330
1F
100
AcDbEntity
  8
1
  6
Continuous
 62
     7
100
AcDbCircle
 10
394.1649171275232
 20
233.6730005461972
 30
0.0
 40
0.5
100
AcDbArc
 50
90.0
 51
180.0
  0
ARC
  5
191
330
1F
100
AcDbEntity
  8
1
  6
Continuous
 62
     7
100
AcDbCircle
 10
394.1649171275232
 20
260.6730005461972
 30
0.0
 40
0.5
100
AcDbArc
 50
180.0
 51
-90.0
  0
ARC
  5
192
330
1F
100
AcDbEntity
  8
1
  6
Continuous
 62
     7
100
AcDbCircle
 10
410.6649171275232
 20
232.1730005461972
 30
0.0
 40
2.0
100
AcDbArc
 50
-90.0
 51
0.0
  0
ARC
  5
193
330
1F
100
AcDbEntity
  8
1
  6
Continuous
 62
     3
100
AcDbCircle
 10
402.614917127523
 20
220.1730005461972
 30
0.0
 40
3.0
100
AcDbArc
 50
180.0
 51
-90.0
  0
ARC
  5
194
330
1F
100
AcDbEntity
  8
1
  6
Continuous
 62
     3
100
AcDbCircle
 10
404.6649171275232
 20
220.1230005461972
 30
0.0
 40
2.950423698386403
100
AcDbArc
 50
-89.02897806892062
 51
0.97102193107891
  0
ARC
  5
195
330
1F
100
AcDbEntity
  8
1
  6
Continuous
 62
     3
100
AcDbCircle
 10
402.614917127523
 20
324.1730005461972
 30
0.0
 40
3.0
100
AcDbArc
 50
90.0
 51
180.0
  0
ARC
  5
196
330
1F
100
AcDbEntity
  8
1
  6
Continuous
 62
     3
100
AcDbCircle
 10
404.7149171275232
 20
324.1730005461972
 30
0.0
 40
3.0
100
AcDbArc
 50
0.0
 51
90.0
  0
ARC
  5
197
330
1F
100
AcDbEntity
  8
1
  6
Continuous
 62
     3
100
AcDbCircle
 10
432.1649171275232
 20
301.1730005461972
 30
0.0
 40
3.535533905932738
100
AcDbArc
 50
-98.13010235415598
 51
-8.13010235415598
  0
ARC
  5
198
330
1F
100
AcDbEntity
  8
1
  6
Continuous
 62
     3
100
AcDbCircle
 10
432.1649171275232
 20
302.1730005461972
 30
0.0
 40
3.535533905932738
100
AcDbArc
 50
8.13010235415598
 51
98.1301023541569
  0
SOLID
  5
199
330
1F
100
AcDbEntity
  8
1
 62
     2
100
AcDbTrace
 10
153.3610437385909
 20
264.3233366767938
 30
0.0
 11
154.7528969567729
 21
265.2733270862511
 31
0.0
 12
157.6649171275241
 22
259.5122444783644
 32
0.0
 13
157.6649171275241
 23
259.5122444783644
 33
0.0
  0
LEADER
  5
19A
330
1F
100
AcDbEntity
  8
1
  6
Continuous
 62
     2
100
AcDbLeader
  3
Standard
 71
     0
 76
     3
 10
157.6649171275241
 20
259.5122444783644
 30
0.0
 10
132.0613732717512
 20
297.0245967692503
 30
0.0
 10
52.63652747966023
 20
297.0245967692503
 30
0.0
  0
MTEXT
  5
19B
330
1F
100
AcDbEntity
  8
1
 62
     2
100
AcDbMText
 10
618.6358631851172
 20
337.3656396172177
 30
0.0
 40
4.0
 41
0.0
 71
     8
 72
     1
  1
1
  7
CONVERTER_1
 73
     1
 44
0.60024009603842
  0
MTEXT
  5
19D
330
1F
100
AcDbEntity
  8
1
 62
     2
100
AcDbMText
 10
618.9967076000812
 20
344.2892934600976
 30
0.0
 40
8.0
 41
0.0
 71
     8
 72
     1
  1
3
  7
CONVERTER_6
 11
-1.0
 21
0.0
 31
0.0
 73
     1
 44
0.45454545454545
  0
TEXT
  5
19E
330
1F
100
AcDbEntity
  8
1
 62
     2
100
AcDbText
 10
37.6424009779794
 20
26.4651076517114
 30
0.0
 40
6.4
  1
側面図追加
 41
0.89
  7
CONVERTER_2
100
AcDbText
  0
TEXT
  5
19F
330
1F
100
AcDbEntity
  8
1
 62
     2
100
AcDbText
 10
10.3677474790467
 20
26.9436103446751
 30
0.0
 40
6.4
  1
1
 41
0.9
  7
CONVERTER_1
100
AcDbText
  0
MTEXT
  5
1A0
330
1F
100
AcDbEntity
  8
1
 62
     2
100
AcDbMText
 10
714.9232039400022
 20
25.57682010414921
 30
0.0
 40
8.0
 41
0.0
 71
     9
 72
     1
  1
GN1型 ガイド
  7
CONVERTER_2
 73
     1
 44
1.20048019207683
  0
MTEXT
  5
1A1
330
1F
100
AcDbEntity
  8
1
 62
     2
100
AcDbMText
 10
384.5458714368932
 20
22.68259867441741
 30
0.0
 40
6.4
 41
0.0
 71
     9
 72
     1
  1
2009.4.1
  7
CONVERTER_1
 73
     1
 44
1.20048019207683
  0
MTEXT
  5
1A2
330
1F
100
AcDbEntity
  8
1
 62
     2
100
AcDbMText
 10
542.1693008935032
 20
25.58885269283561
 30
0.0
 40
8.0
 41
0.0
 71
     9
 72
     1
  1
フードベヤシリーズ
  7
CONVERTER_2
 73
     1
 44
1.20048019207683
  0
MTEXT
  5
1A3
330
1F
100
AcDbEntity
  8
1
 62
     2
100
AcDbMText
 10
723.0602671760231
 20
9.72365314075259
 30
0.0
 40
6.4
 41
0.0
 71
     5
 72
     1
  1
W_TBCH200_G_010_1
  7
CONVERTER_1
 73
     1
 44
0.7202881152461
  0
MTEXT
  5
1A5
330
1F
100
AcDbEntity
  8
1
 62
     2
100
AcDbMText
 10
509.7879417722941
 20
10.96995117373945
 30
0.0
 40
8.0
 41
0.0
 71
     5
 72
     1
  1
TBC200,TBH200
  7
CONVERTER_7
 73
     1
 44
0.7202881152461
  0
MTEXT
  5
1A6
330
1F
100
AcDbEntity
  8
1
 62
     2
100
AcDbMText
 10
83.18835549312632
 20
304.2054674979203
 30
0.0
 40
6.4
 41
0.0
 71
     5
 72
     1
  1
{\Fgdt;n}8 SUS303
  7
CONVERTER_1
 73
     1
 44
0.7202881152461
  0
MTEXT
  5
1A7
330
1F
100
AcDbEntity
  8
1
 62
     2
100
AcDbMText
 10
303.1824267775802
 20
390.4858987398172
 30
0.0
 40
6.4
 41
0.0
 71
     5
 72
     1
  1
(BW-30~BW+80)
  7
CONVERTER_1
 73
     1
 44
0.7202881152461
  0
DIMENSION
  5
1BA
330
1F
100
AcDbEntity
  8
1
100
AcDbDimension
  2
*D02
 10
580.197946218924
 20
188.4466927352036
 30
0.0
 11
595.6464109377641
 21
193.6466927352036
 31
0.0
 70
    32
  1
<>
 71
     5
 42
-1.0
 53
0.00013888888889
  3
ME10_DIM_0
100
AcDbAlignedDimension
 13
612.1979462189238
 23
232.1730005461972
 33
0.0
 14
580.1979462189238
 24
234.1730005461972
 34
0.0
100
AcDbRotatedDimension
  0
DIMENSION
  5
1C9
330
1F
100
AcDbEntity
  8
1
100
AcDbDimension
  2
*D14
 10
399.614917127523
 20
188.1544571118102
 30
0.0
 11
463.4101104064911
 21
193.3544571118102
 31
0.0
 70
    32
  1
<>
 71
     5
 42
-1.0
 53
0.00013888888889
  3
ME10_DIM_1
100
AcDbAlignedDimension
 13
407.614917127523
 23
220.1730005461972
 33
0.0
 14
399.614917127523
 24
220.1730005461972
 34
0.0
100
AcDbRotatedDimension
  0
DIMENSION
  5
1D8
330
1F
100
AcDbEntity
  8
1
100
AcDbDimension
  2
*D25
 10
501.0672998924082
 20
305.6730005461968
 30
0.0
 11
495.8672998924082
 21
356.7250982927892
 31
0.0
 70
    32
  1
<>
 71
     5
 42
-1.0
 53
90.0
  3
ME10_DIM_2
100
AcDbAlignedDimension
 13
431.6649171275232
 23
297.6730005461972
 33
0.0
 14
431.6649171275232
 24
305.6730005461968
 34
0.0
 50
90.0
100
AcDbRotatedDimension
  0
DIMENSION
  5
1E5
330
1F
100
AcDbEntity
  8
1
100
AcDbDimension
  2
*D36
 10
157.6649171275246
 20
154.7090328903472
 30
0.0
 11
168.0048416198642
 21
160.3890328903472
 31
0.0
 70
    32
  1
<>
 71
     5
 42
-1.0
 53
0.00013888888889
  3
ME10_DIM_3
100
AcDbAlignedDimension
 13
176.6649171275241
 23
207.1730005461972
 33
0.0
 14
157.6649171275241
 24
232.1730005461972
 34
0.0
100
AcDbRotatedDimension
  0
DIMENSION
  5
1F2
330
1F
100
AcDbEntity
  8
1
100
AcDbDimension
  2
*D47
 10
134.6968818760394
 20
256.1730005461972
 30
0.0
 11
127.5088326190972
 21
253.1565980908492
 31
0.0
 70
    32
  1
<>
 71
     5
 42
-1.0
 53
90.0
  3
ME10_DIM_4
100
AcDbAlignedDimension
 13
151.0650116441722
 23
238.1730005461972
 33
0.0
 14
152.6649171275241
 24
256.1730005461972
 34
0.0
 50
90.0
100
AcDbRotatedDimension
  0
DIMENSION
  5
1FF
330
1F
100
AcDbEntity
  8
1
100
AcDbDimension
  2
*D58
 10
118.0429020041271
 20
277.1730005461972
 30
0.0
 11
112.8429020041271
 21
262.2694901228632
 31
0.0
 70
    32
  1
<>
 71
     5
 42
-1.0
 53
90.0
  3
ME10_DIM_5
100
AcDbAlignedDimension
 13
148.5183073434031
 23
247.1730005461972
 33
0.0
 14
179.6649171275241
 24
277.1730005461972
 34
0.0
 50
90.0
100
AcDbRotatedDimension
  0
DIMENSION
  5
20D
330
1F
100
AcDbEntity
  8
1
100
AcDbDimension
  2
*D69
 10
316.7750445080212
 20
317.6730005461972
 30
0.0
 11
311.5750445080211
 21
300.3893140639132
 31
0.0
 70
    32
  1
<>
 71
     5
 42
-1.0
 53
90.0
  3
ME10_DIM_6
100
AcDbAlignedDimension
 13
351.6649171275232
 23
285.6730005461972
 33
0.0
 14
351.6649171275232
 24
317.6730005461972
 34
0.0
 50
90.0
100
AcDbRotatedDimension
  0
DIMENSION
  5
21C
330
1F
100
AcDbEntity
  8
1
100
AcDbDimension
  2
*D710
 10
335.7532405219682
 20
301.6730005461972
 30
0.0
 11
330.5532405219682
 21
317.6730005461972
 31
0.0
 70
    32
  1
18~45
 71
     5
 42
-1.0
 53
90.0
  3
ME10_DIM_7
100
AcDbAlignedDimension
 13
373.6649171275232
 23
277.1730005461972
 33
0.0
 14
355.6649171275232
 24
301.6730005461972
 34
0.0
 50
90.0
100
AcDbRotatedDimension
  0
DIMENSION
  5
22B
330
1F
100
AcDbEntity
  8
1
100
AcDbDimension
  2
*D811
 10
207.6649171275243
 20
384.7090328903473
 30
0.0
 11
196.679380454215
 21
389.9090328903473
 31
0.0
 70
    32
  1
<>
 71
     5
 42
-1.0
 53
0.00013888888889
  3
ME10_DIM_8
100
AcDbAlignedDimension
 13
211.6649171275241
 23
317.6730005461972
 33
0.0
 14
207.6649171275241
 24
317.6730005461972
 34
0.0
100
AcDbRotatedDimension
  0
DIMENSION
  5
23A
330
1F
100
AcDbEntity
  8
1
100
AcDbDimension
  2
*D912
 10
351.6649171275232
 20
384.7090328903473
 30
0.0
 11
419.40224833582
 21
389.9090328903473
 31
0.0
 70
    32
  1
<>
 71
     5
 42
-1.0
 53
0.00013888888889
  3
ME10_DIM_9
100
AcDbAlignedDimension
 13
355.6649171275232
 23
317.6730005461972
 33
0.0
 14
351.6649171275232
 24
317.6730005461972
 34
0.0
100
AcDbRotatedDimension
  0
DIMENSION
  5
248
330
1F
100
AcDbEntity
  8
1
100
AcDbDimension
  2
*D1013
 10
351.6649171275227
 20
384.7090328903473
 30
0.0
 11
244.717646075737
 21
389.9151727222053
 31
0.0
 70
    32
  1
ベルト幅 BW
 71
     5
 42
-1.0
 53
0.00013888888889
  3
ME10_DIM_10
100
AcDbAlignedDimension
 13
211.6649171275241
 23
317.6730005461972
 33
0.0
 14
351.6649171275232
 24
317.6730005461972
 34
0.0
100
AcDbRotatedDimension
  0
DIMENSION
  5
255
330
1F
100
AcDbEntity
  8
1
100
AcDbDimension
  2
*D1114
 10
95.83759550824425
 20
277.1730005461972
 30
0.0
 11
90.6375955082442
 21
246.4085569115182
 31
0.0
 70
    32
  1
<>
 71
     5
 42
-1.0
 53
90.0
  3
ME10_DIM_11
100
AcDbAlignedDimension
 13
178.6649171275241
 23
207.1730005461972
 33
0.0
 14
179.6649171275241
 24
277.1730005461972
 34
0.0
 50
90.0
100
AcDbRotatedDimension
  0
DIMENSION
  5
262
330
1F
100
AcDbEntity
  8
1
100
AcDbDimension
  2
*D1215
 10
376.6649171275232
 20
154.7090328903472
 30
0.0
 11
389.302920302389
 21
159.9090328903472
 31
0.0
 70
    32
  1
<>
 71
     5
 42
-1.0
 53
0.00013888888889
  3
ME10_DIM_12
100
AcDbAlignedDimension
 13
403.6649171275232
 23
210.2762096799847
 33
0.0
 14
376.6649171275232
 24
207.1730005461972
 34
0.0
100
AcDbRotatedDimension
  0
DIMENSION
  5
271
330
1F
100
AcDbEntity
  8
1
100
AcDbDimension
  2
*D1316
 10
670.5290972965291
 20
189.2559159870136
 30
0.0
 11
677.7825709965241
 21
194.3359159870136
 31
0.0
 70
    32
  1
<>
 71
     5
 42
-1.0
 53
0.00013888888889
  3
ME10_DIM_13
100
AcDbAlignedDimension
 13
686.5290972965292
 23
230.1730005461972
 33
0.0
 14
670.5290972965292
 24
230.1730005461972
 34
0.0
100
AcDbRotatedDimension
  0
DIMENSION
  5
27E
330
1F
100
AcDbEntity
  8
1
100
AcDbDimension
  2
*D1417
 10
176.6649171275244
 20
154.7090328903472
 30
0.0
 11
276.1446822633911
 21
159.9090328903472
 31
0.0
 70
    32
  1
BW+50
 71
     5
 42
-1.0
 53
0.00013888888889
  3
ME10_DIM_14
100
AcDbAlignedDimension
 13
376.6649171275232
 23
207.1730005461972
 33
0.0
 14
176.6649171275241
 24
207.1730005461972
 34
0.0
100
AcDbRotatedDimension
  0
ENDSEC
  0
SECTION
  2
OBJECTS
  0
DICTIONARY
  5
C
330
0
100
AcDbDictionary
281
     1
  3
ACAD_GROUP
350
D
  3
ACAD_LAYOUT
350
1A
  3
ACAD_MLINESTYLE
350
17
  3
ACAD_PLOTSETTINGS
350
19
  3
ACAD_PLOTSTYLENAME
350
E
  0
DICTIONARY
  5
D
102
{ACAD_REACTORS
330
C
102
}
330
C
100
AcDbDictionary
281
     1
  0
DICTIONARY
  5
1A
102
{ACAD_REACTORS
330
C
102
}
330
C
100
AcDbDictionary
281
     1
  3
Layout1
350
1E
  3
Layout2
350
26
  3
Model
350
22
  0
DICTIONARY
  5
17
102
{ACAD_REACTORS
330
C
102
}
330
C
100
AcDbDictionary
281
     1
  3
Standard
350
18
  0
DICTIONARY
  5
19
102
{ACAD_REACTORS
330
C
102
}
330
C
100
AcDbDictionary
281
     1
  0
ACDBDICTIONARYWDFLT
  5
E
102
{ACAD_REACTORS
330
C
102
}
330
C
100
AcDbDictionary
281
     1
  3
Normal
350
F
100
AcDbDictionaryWithDefault
340
F
  0
LAYOUT
  5
1E
102
{ACAD_REACTORS
330
1A
102
}
330
1A
100
AcDbPlotSettings
  1

  2

  4

  6

 40
0.0
 41
0.0
 42
0.0
 43
0.0
 44
0.0
 45
0.0
 46
0.0
 47
0.0
 48
0.0
 49
0.0
140
0.0
141
0.0
142
1.0
143
1.0
 70
   688
 72
     0
 73
     0
 74
     5
  7

 75
    16
147
1.0
148
0.0
149
0.0
100
AcDbLayout
  1
Layout1
 70
     1
 71
     1
 10
0.0
 20
0.0
 11
0.0
 21
0.0
 12
0.0
 22
0.0
 32
0.0
 14
0.0
 24
0.0
 34
0.0
 15
0.0
 25
0.0
 35
0.0
146
0.0
 13
0.0
 23
0.0
 33
0.0
 16
1.0
 26
0.0
 36
0.0
 17
0.0
 27
1.0
 37
0.0
 76
     0
330
1B
  0
LAYOUT
  5
26
102
{ACAD_REACTORS
330
1A
102
}
330
1A
100
AcDbPlotSettings
  1

  2

  4

  6

 40
0.0
 41
0.0
 42
0.0
 43
0.0
 44
0.0
 45
0.0
 46
0.0
 47
0.0
 48
0.0
 49
0.0
140
0.0
141
0.0
142
1.0
143
1.0
 70
   688
 72
     0
 73
     0
 74
     5
  7

 75
    16
147
1.0
148
0.0
149
0.0
100
AcDbLayout
  1
Layout2
 70
     1
 71
     2
 10
0.0
 20
0.0
 11
0.0
 21
0.0
 12
0.0
 22
0.0
 32
0.0
 14
0.0
 24
0.0
 34
0.0
 15
0.0
 25
0.0
 35
0.0
146
0.0
 13
0.0
 23
0.0
 33
0.0
 16
1.0
 26
0.0
 36
0.0
 17
0.0
 27
1.0
 37
0.0
 76
     0
330
23
  0
LAYOUT
  5
22
102
{ACAD_REACTORS
330
1A
102
}
330
1A
100
AcDbPlotSettings
  1

  2

  4

  6

 40
0.0
 41
0.0
 42
0.0
 43
0.0
 44
0.0
 45
0.0
 46
0.0
 47
0.0
 48
0.0
 49
0.0
140
0.0
141
0.0
142
1.0
143
1.0
 70
  1712
 72
     0
 73
     0
 74
     0
  7

 75
     0
147
1.0
148
0.0
149
0.0
100
AcDbLayout
  1
Model
 70
     1
 71
     0
 10
0.0
 20
0.0
 11
0.0
 21
0.0
 12
0.0
 22
0.0
 32
0.0
 14
0.0
 24
-4.51230664191138
 34
0.0
 15
788.0
 25
536.0
 35
0.0
146
0.0
 13
0.0
 23
0.0
 33
0.0
 16
1.0
 26
0.0
 36
0.0
 17
0.0
 27
1.0
 37
0.0
 76
     0
330
1F
  0
MLINESTYLE
  5
18
102
{ACAD_REACTORS
330
17
102
}
330
17
100
AcDbMlineStyle
  2
Standard
 70
     0
  3

 62
   256
 51
90.0
 52
90.0
 71
     2
 49
0.5
 62
   256
  6
BYLAYER
 49
-0.5
 62
   256
  6
BYLAYER
  0
ACDBPLACEHOLDER
  5
F
102
{ACAD_REACTORS
330
E
102
}
330
E
  0
ENDSEC
  0
EOF
