  0
SECTION
  2
HEADER
  9
$ACADVER
  1
AC1015
  9
$ACADMAINTVER
 70
     6
  9
$DWGCODEPAGE
  3
DOS932
  9
$INSBASE
 10
0.0
 20
0.0
 30
0.0
  9
$EXTMIN
 10
0.0
 20
-6.76845996286707
 30
0.0
  9
$EXTMAX
 10
1182.0
 20
804.0
 30
0.0
  9
$LIMMIN
 10
0.0
 20
0.0
  9
$LIMMAX
 10
12.0
 20
9.0
  9
$ORTHOMODE
 70
     0
  9
$REGENMODE
 70
     1
  9
$FILLMODE
 70
     1
  9
$QTEXTMODE
 70
     0
  9
$MIRRTEXT
 70
     1
  9
$LTSCALE
 40
1.0
  9
$ATTMODE
 70
     1
  9
$TEXTSIZE
 40
0.2
  9
$TRACEWID
 40
0.05
  9
$TEXTSTYLE
  7
Standard
  9
$CLAYER
  8
0
  9
$CELTYPE
  6
ByLayer
  9
$CECOLOR
 62
   256
  9
$CELTSCALE
 40
1.0
  9
$DISPSILH
 70
     0
  9
$DIMSCALE
 40
1.0
  9
$DIMASZ
 40
0.18
  9
$DIMEXO
 40
0.0625
  9
$DIMDLI
 40
0.38
  9
$DIMRND
 40
0.0
  9
$DIMDLE
 40
0.0
  9
$DIMEXE
 40
0.18
  9
$DIMTP
 40
0.0
  9
$DIMTM
 40
0.0
  9
$DIMTXT
 40
0.18
  9
$DIMCEN
 40
0.09
  9
$DIMTSZ
 40
0.0
  9
$DIMTOL
 70
     0
  9
$DIMLIM
 70
     0
  9
$DIMTIH
 70
     1
  9
$DIMTOH
 70
     1
  9
$DIMSE1
 70
     0
  9
$DIMSE2
 70
     0
  9
$DIMTAD
 70
     0
  9
$DIMZIN
 70
     0
  9
$DIMBLK
  1

  9
$DIMASO
 70
     1
  9
$DIMSHO
 70
     1
  9
$DIMPOST
  1

  9
$DIMAPOST
  1

  9
$DIMALT
 70
     0
  9
$DIMALTD
 70
     2
  9
$DIMALTF
 40
25.4
  9
$DIMLFAC
 40
1.0
  9
$DIMTOFL
 70
     0
  9
$DIMTVP
 40
0.0
  9
$DIMTIX
 70
     0
  9
$DIMSOXD
 70
     0
  9
$DIMSAH
 70
     0
  9
$DIMBLK1
  1

  9
$DIMBLK2
  1

  9
$DIMSTYLE
  2
Standard
  9
$DIMCLRD
 70
     0
  9
$DIMCLRE
 70
     0
  9
$DIMCLRT
 70
     0
  9
$DIMTFAC
 40
1.0
  9
$DIMGAP
 40
0.09
  9
$DIMJUST
 70
     0
  9
$DIMSD1
 70
     0
  9
$DIMSD2
 70
     0
  9
$DIMTOLJ
 70
     1
  9
$DIMTZIN
 70
     0
  9
$DIMALTZ
 70
     0
  9
$DIMALTTZ
 70
     0
  9
$DIMUPT
 70
     0
  9
$DIMDEC
 70
     4
  9
$DIMTDEC
 70
     4
  9
$DIMALTU
 70
     2
  9
$DIMALTTD
 70
     2
  9
$DIMTXSTY
  7
Standard
  9
$DIMAUNIT
 70
     0
  9
$DIMADEC
 70
     0
  9
$DIMALTRND
 40
0.0
  9
$DIMAZIN
 70
     0
  9
$DIMDSEP
 70
    46
  9
$DIMATFIT
 70
     3
  9
$DIMFRAC
 70
     0
  9
$DIMLDRBLK
  1

  9
$DIMLUNIT
 70
     2
  9
$DIMLWD
 70
    -2
  9
$DIMLWE
 70
    -2
  9
$DIMTMOVE
 70
     0
  9
$LUNITS
 70
     2
  9
$LUPREC
 70
     4
  9
$SKETCHINC
 40
0.1
  9
$FILLETRAD
 40
0.5
  9
$AUNITS
 70
     0
  9
$AUPREC
 70
     0
  9
$MENU
  1
.
  9
$ELEVATION
 40
0.0
  9
$PELEVATION
 40
0.0
  9
$THICKNESS
 40
0.0
  9
$LIMCHECK
 70
     0
  9
$CHAMFERA
 40
0.5
  9
$CHAMFERB
 40
0.5
  9
$CHAMFERC
 40
1.0
  9
$CHAMFERD
 40
0.0
  9
$SKPOLY
 70
     0
  9
$TDCREATE
 40
2456611.388464144
  9
$TDUCREATE
 40
2456611.013464144
  9
$TDUPDATE
 40
2456611.388464155
  9
$TDUUPDATE
 40
2456611.013464155
  9
$TDINDWG
 40
0.0000000116
  9
$TDUSRTIMER
 40
0.0000000116
  9
$USRTIMER
 70
     1
  9
$ANGBASE
 50
0.0
  9
$ANGDIR
 70
     0
  9
$PDMODE
 70
     0
  9
$PDSIZE
 40
0.0
  9
$PLINEWID
 40
0.0
  9
$SPLFRAME
 70
     0
  9
$SPLINETYPE
 70
     6
  9
$SPLINESEGS
 70
     8
  9
$HANDSEED
  5
4D4
  9
$SURFTAB1
 70
     6
  9
$SURFTAB2
 70
     6
  9
$SURFTYPE
 70
     6
  9
$SURFU
 70
     6
  9
$SURFV
 70
     6
  9
$UCSBASE
  2

  9
$UCSNAME
  2

  9
$UCSORG
 10
0.0
 20
0.0
 30
0.0
  9
$UCSXDIR
 10
1.0
 20
0.0
 30
0.0
  9
$UCSYDIR
 10
0.0
 20
1.0
 30
0.0
  9
$UCSORTHOREF
  2

  9
$UCSORTHOVIEW
 70
     0
  9
$UCSORGTOP
 10
0.0
 20
0.0
 30
0.0
  9
$UCSORGBOTTOM
 10
0.0
 20
0.0
 30
0.0
  9
$UCSORGLEFT
 10
0.0
 20
0.0
 30
0.0
  9
$UCSORGRIGHT
 10
0.0
 20
0.0
 30
0.0
  9
$UCSORGFRONT
 10
0.0
 20
0.0
 30
0.0
  9
$UCSORGBACK
 10
0.0
 20
0.0
 30
0.0
  9
$PUCSBASE
  2

  9
$PUCSNAME
  2

  9
$PUCSORG
 10
0.0
 20
0.0
 30
0.0
  9
$PUCSXDIR
 10
1.0
 20
0.0
 30
0.0
  9
$PUCSYDIR
 10
0.0
 20
1.0
 30
0.0
  9
$PUCSORTHOREF
  2

  9
$PUCSORTHOVIEW
 70
     0
  9
$PUCSORGTOP
 10
0.0
 20
0.0
 30
0.0
  9
$PUCSORGBOTTOM
 10
0.0
 20
0.0
 30
0.0
  9
$PUCSORGLEFT
 10
0.0
 20
0.0
 30
0.0
  9
$PUCSORGRIGHT
 10
0.0
 20
0.0
 30
0.0
  9
$PUCSORGFRONT
 10
0.0
 20
0.0
 30
0.0
  9
$PUCSORGBACK
 10
0.0
 20
0.0
 30
0.0
  9
$USERI1
 70
     0
  9
$USERI2
 70
     0
  9
$USERI3
 70
     0
  9
$USERI4
 70
     0
  9
$USERI5
 70
     0
  9
$USERR1
 40
14.0
  9
$USERR2
 40
0.0
  9
$USERR3
 40
0.0
  9
$USERR4
 40
0.0
  9
$USERR5
 40
0.0
  9
$WORLDVIEW
 70
     1
  9
$SHADEDGE
 70
     3
  9
$SHADEDIF
 70
    70
  9
$TILEMODE
 70
     1
  9
$MAXACTVP
 70
    64
  9
$PINSBASE
 10
0.0
 20
0.0
 30
0.0
  9
$PLIMCHECK
 70
     0
  9
$PEXTMIN
 10
1.00000000000000E+20
 20
1.00000000000000E+20
 30
1.00000000000000E+20
  9
$PEXTMAX
 10
-1.00000000000000E+20
 20
-1.00000000000000E+20
 30
-1.00000000000000E+20
  9
$PLIMMIN
 10
0.0
 20
0.0
  9
$PLIMMAX
 10
12.0
 20
9.0
  9
$UNITMODE
 70
     0
  9
$VISRETAIN
 70
     1
  9
$PLINEGEN
 70
     0
  9
$PSLTSCALE
 70
     1
  9
$TREEDEPTH
 70
  3020
  9
$CMLSTYLE
  2
Standard
  9
$CMLJUST
 70
     0
  9
$CMLSCALE
 40
1.0
  9
$PROXYGRAPHICS
 70
     1
  9
$MEASUREMENT
 70
     1
  9
$CELWEIGHT
370
    -1
  9
$ENDCAPS
280
     0
  9
$JOINSTYLE
280
     0
  9
$LWDISPLAY
290
     0
  9
$INSUNITS
 70
     1
  9
$HYPERLINKBASE
  1

  9
$STYLESHEET
  1

  9
$XEDIT
290
     1
  9
$CEPSNTYPE
380
     0
  9
$PSTYLEMODE
290
     1
  9
$FINGERPRINTGUID
  2
{6586ECF6-8AB4-4DAA-9D0A-C35EA4AA5230}
  9
$VERSIONGUID
  2
{FAEB1C32-E019-11D5-929B-00C0DF256EC4}
  9
$EXTNAMES
290
     1
  9
$PSVPSCALE
 40
0.0
  9
$OLESTARTUP
290
     0
  0
ENDSEC
  0
SECTION
  2
CLASSES
  0
CLASS
  1
ACDBDICTIONARYWDFLT
  2
AcDbDictionaryWithDefault
  3
ObjectDBX Classes
 90
        0
280
     0
281
     0
  0
CLASS
  1

  2
exOdDbCircle
  3

 90
        0
280
     0
281
     1
  0
CLASS
  1
ACDBPLACEHOLDER
  2
AcDbPlaceHolder
  3
ObjectDBX Classes
 90
        0
280
     0
281
     0
  0
CLASS
  1
LAYOUT
  2
AcDbLayout
  3
ObjectDBX Classes
 90
        0
280
     0
281
     0
  0
ENDSEC
  0
SECTION
  2
TABLES
  0
TABLE
  2
VPORT
  5
8
330
0
100
AcDbSymbolTable
 70
     1
  0
VPORT
  5
29
330
8
100
AcDbSymbolTableRecord
100
AcDbViewportTableRecord
  2
*Active
 70
     0
 10
0.0
 20
0.0
 11
1.0
 21
1.0
 12
591.0
 22
398.6157700185665
 13
0.0
 23
0.0
 14
0.5
 24
0.5
 15
0.5
 25
0.5
 16
0.0
 26
0.0
 36
1.0
 17
0.0
 27
0.0
 37
0.0
 40
891.8453059591539
 41
1.60267857142857
 42
50.0
 43
0.0
 44
0.0
 50
0.0
 51
0.0
 71
     0
 72
   100
 73
     1
 74
     3
 75
     0
 76
     0
 77
     0
 78
     0
281
     0
 65
     1
110
0.0
120
0.0
130
0.0
111
1.0
121
0.0
131
0.0
112
0.0
122
1.0
132
0.0
 79
     0
146
0.0
  0
ENDTAB
  0
TABLE
  2
LTYPE
  5
5
330
0
100
AcDbSymbolTable
 70
     9
  0
LTYPE
  5
14
330
5
100
AcDbSymbolTableRecord
100
AcDbLinetypeTableRecord
  2
ByBlock
 70
     0
  3

 72
    65
 73
     0
 40
0.0
  0
LTYPE
  5
15
330
5
100
AcDbSymbolTableRecord
100
AcDbLinetypeTableRecord
  2
ByLayer
 70
     0
  3

 72
    65
 73
     0
 40
0.0
  0
LTYPE
  5
16
330
5
100
AcDbSymbolTableRecord
100
AcDbLinetypeTableRecord
  2
Continuous
 70
     0
  3
Solid line
 72
    65
 73
     0
 40
0.0
  0
LTYPE
  5
2A
330
5
100
AcDbSymbolTableRecord
100
AcDbLinetypeTableRecord
  2
DASHED
 70
     0
  3
Dashed
 72
    65
 73
     2
 40
15.0
 49
7.0
 74
     0
 49
-8.0
 74
     0
  0
LTYPE
  5
2B
330
5
100
AcDbSymbolTableRecord
100
AcDbLinetypeTableRecord
  2
DOTTED
 70
     0
  3
Dotted
 72
    65
 73
     2
 40
1.0
 49
0.0
 74
     0
 49
-1.0
 74
     0
  0
LTYPE
  5
2C
330
5
100
AcDbSymbolTableRecord
100
AcDbLinetypeTableRecord
  2
DOT_CENTER
 70
     0
  3
Dot_Center
 72
    65
 73
     4
 40
14.0
 49
12.0
 74
     0
 49
-1.0
 74
     0
 49
0.0
 74
     0
 49
-1.0
 74
     0
  0
LTYPE
  5
2D
330
5
100
AcDbSymbolTableRecord
100
AcDbLinetypeTableRecord
  2
LONG_DASHED
 70
     0
  3
Long_Dashed
 72
    65
 73
     2
 40
15.0
 49
10.0
 74
     0
 49
-5.0
 74
     0
  0
LTYPE
  5
2E
330
5
100
AcDbSymbolTableRecord
100
AcDbLinetypeTableRecord
  2
DASH_CENTER
 70
     0
  3
Dash_Center
 72
    65
 73
     4
 40
14.0
 49
11.0
 74
     0
 49
-1.0
 74
     0
 49
1.0
 74
     0
 49
-1.0
 74
     0
  0
LTYPE
  5
2F
330
5
100
AcDbSymbolTableRecord
100
AcDbLinetypeTableRecord
  2
PHANTOM
 70
     0
  3
Phantom
 72
    65
 73
     6
 40
13.0
 49
10.0
 74
     0
 49
-1.0
 74
     0
 49
0.0
 74
     0
 49
-1.0
 74
     0
 49
0.0
 74
     0
 49
-1.0
 74
     0
  0
LTYPE
  5
30
330
5
100
AcDbSymbolTableRecord
100
AcDbLinetypeTableRecord
  2
CENTER_DASH_DASH
 70
     0
  3
Center_Dash_Dash
 72
    65
 73
     6
 40
14.0
 49
9.0
 74
     0
 49
-1.0
 74
     0
 49
1.0
 74
     0
 49
-1.0
 74
     0
 49
1.0
 74
     0
 49
-1.0
 74
     0
  0
LTYPE
  5
33
330
5
100
AcDbSymbolTableRecord
100
AcDbLinetypeTableRecord
  2
CENTER
 70
     0
  3
CENTER
 72
    65
 73
     4
 40
40.0
 49
25.0
 74
     0
 49
-5.0
 74
     0
 49
5.0
 74
     0
 49
-5.0
 74
     0
  0
ENDTAB
  0
TABLE
  2
LAYER
  5
2
330
0
100
AcDbSymbolTable
 70
     3
  0
LAYER
  5
10
330
2
100
AcDbSymbolTableRecord
100
AcDbLayerTableRecord
  2
0
 70
     0
 62
     7
  6
Continuous
370
    -3
390
F
  0
LAYER
  5
31
330
2
100
AcDbSymbolTableRecord
100
AcDbLayerTableRecord
  2
1
 70
     0
 62
     7
  6
Continuous
370
    -3
390
F
  0
LAYER
  5
32
330
2
100
AcDbSymbolTableRecord
100
AcDbLayerTableRecord
  2
4
 70
     0
 62
     1
  6
CENTER
370
    -3
390
F
  0
ENDTAB
  0
TABLE
  2
STYLE
  5
3
330
0
100
AcDbSymbolTable
 70
     8
  0
STYLE
  5
11
330
3
100
AcDbSymbolTableRecord
100
AcDbTextStyleTableRecord
  2
Standard
 70
     0
 40
0.0
 41
1.0
 50
0.0
 71
     0
 42
0.2
  3
txt
  4

  0
STYLE
  5
4C
330
3
100
AcDbSymbolTableRecord
100
AcDbTextStyleTableRecord
  2
CONVERTER_1
 70
     0
 40
0.0
 41
0.9
 50
0.0
 71
     0
 42
0.2
  3
txt.shx
  4

  0
STYLE
  5
4E
330
3
100
AcDbSymbolTableRecord
100
AcDbTextStyleTableRecord
  2
CONVERTER_2
 70
     0
 40
0.0
 41
0.89
 50
0.0
 71
     0
 42
0.2
  3
MSMINCHO.TTC
  4

1001
ACAD
1000
MS Mincho
1071
    32785
  0
STYLE
  5
50
330
3
100
AcDbSymbolTableRecord
100
AcDbTextStyleTableRecord
  2
CONVERTER_3
 70
     0
 40
0.0
 41
1.068
 50
0.0
 71
     0
 42
0.2
  3
msmincho.ttc
  4

1001
ACAD
1000
MS Mincho
1071
    32785
  0
STYLE
  5
56
330
3
100
AcDbSymbolTableRecord
100
AcDbTextStyleTableRecord
  2
CONVERTER_4
 70
     0
 40
0.0
 41
0.9025
 50
0.0
 71
     0
 42
0.2
  3
complex.shx
  4

  0
STYLE
  5
5A
330
3
100
AcDbSymbolTableRecord
100
AcDbTextStyleTableRecord
  2
CONVERTER_5
 70
     0
 40
0.0
 41
0.801
 50
0.0
 71
     0
 42
0.2
  3
msmincho.ttc
  4

1001
ACAD
1000
MS Mincho
1071
    32785
  0
STYLE
  5
39F
330
3
100
AcDbSymbolTableRecord
100
AcDbTextStyleTableRecord
  2
CONVERTER_6
 70
     0
 40
0.0
 41
0.5785
 50
0.0
 71
     0
 42
0.2
  3
MSMINCHO.TTC
  4

1001
ACAD
1000
MS Mincho
1071
    32785
  0
STYLE
  5
3AF
330
3
100
AcDbSymbolTableRecord
100
AcDbTextStyleTableRecord
  2
CONVERTER_7
 70
     0
 40
0.0
 41
0.63
 50
0.0
 71
     0
 42
0.2
  3
txt.shx
  4

  0
ENDTAB
  0
TABLE
  2
VIEW
  5
6
330
0
100
AcDbSymbolTable
 70
     0
  0
ENDTAB
  0
TABLE
  2
UCS
  5
7
330
0
100
AcDbSymbolTable
 70
     0
  0
ENDTAB
  0
TABLE
  2
APPID
  5
9
330
0
100
AcDbSymbolTable
 70
     1
  0
APPID
  5
12
330
9
100
AcDbSymbolTableRecord
100
AcDbRegAppTableRecord
  2
ACAD
 70
     0
  0
ENDTAB
  0
TABLE
  2
DIMSTYLE
  5
A
330
0
100
AcDbSymbolTable
 70
    19
100
AcDbDimStyleTable
  0
DIMSTYLE
105
27
330
A
100
AcDbSymbolTableRecord
100
AcDbDimStyleTableRecord
  2
Standard
 70
     0
340
11
  0
DIMSTYLE
105
3B9
102
{ACAD_REACTORS
330
3BA
102
}
330
A
100
AcDbSymbolTableRecord
100
AcDbDimStyleTableRecord
  2
ME10_DIM_0
 70
     0
 41
9.6
 42
3.0
 44
3.0
 73
     0
 74
     0
 77
     1
 78
     8
140
9.6
147
2.1
172
     1
173
     1
176
     2
177
     2
178
     2
271
     2
340
3AF
343
3B3
344
3B3
  0
DIMSTYLE
105
3C6
102
{ACAD_REACTORS
330
3C7
102
}
330
A
100
AcDbSymbolTableRecord
100
AcDbDimStyleTableRecord
  2
ME10_DIM_1
 70
     0
 41
9.6
 42
3.0
 44
3.0
 73
     0
 74
     0
 77
     1
 78
     8
140
9.6
147
2.1
172
     1
173
     1
176
     2
177
     2
178
     2
271
     2
340
4E
343
3B3
344
3B3
  0
DIMSTYLE
105
3D3
102
{ACAD_REACTORS
330
3D4
102
}
330
A
100
AcDbSymbolTableRecord
100
AcDbDimStyleTableRecord
  2
ME10_DIM_2
 70
     0
 41
9.6
 42
3.0
 44
3.0
 73
     0
 74
     0
 77
     1
 78
     8
140
9.6
147
2.1
172
     1
173
     1
176
     2
177
     2
178
     2
271
     2
340
4E
343
3B3
344
3B3
  0
DIMSTYLE
105
3E2
102
{ACAD_REACTORS
330
3E3
102
}
330
A
100
AcDbSymbolTableRecord
100
AcDbDimStyleTableRecord
  2
ME10_DIM_3
 70
     0
 41
9.6
 42
3.0
 44
3.0
 73
     0
 74
     0
 77
     1
 78
     8
140
9.6
147
3.0
172
     1
173
     1
176
     2
177
     2
178
     2
271
     2
340
4C
343
3B3
344
3B3
  0
DIMSTYLE
105
3F1
102
{ACAD_REACTORS
330
3F2
102
}
330
A
100
AcDbSymbolTableRecord
100
AcDbDimStyleTableRecord
  2
ME10_DIM_4
 70
     0
 41
9.6
 42
3.0
 44
3.0
 73
     0
 74
     0
 77
     1
 78
     8
140
9.6
147
3.0
172
     1
173
     1
176
     2
177
     2
178
     2
271
     2
340
4C
343
3B3
344
3B3
  0
DIMSTYLE
105
3FE
102
{ACAD_REACTORS
330
3FF
102
}
330
A
100
AcDbSymbolTableRecord
100
AcDbDimStyleTableRecord
  2
ME10_DIM_5
 70
     0
 41
9.6
 42
3.0
 44
3.0
 73
     0
 74
     0
 77
     1
 78
     8
140
9.6
147
3.0
172
     1
173
     1
176
     2
177
     2
178
     2
271
     2
340
4E
343
3B3
344
3B3
  0
DIMSTYLE
105
40B
102
{ACAD_REACTORS
330
40C
102
}
330
A
100
AcDbSymbolTableRecord
100
AcDbDimStyleTableRecord
  2
ME10_DIM_6
 70
     0
 41
9.6
 42
3.0
 44
3.0
 73
     0
 74
     0
 77
     1
 78
     8
140
9.6
147
3.0
172
     1
173
     1
176
     2
177
     2
178
     2
271
     2
340
4C
343
3B3
344
3B3
  0
DIMSTYLE
105
41A
102
{ACAD_REACTORS
330
41B
102
}
330
A
100
AcDbSymbolTableRecord
100
AcDbDimStyleTableRecord
  2
ME10_DIM_7
 70
     0
 41
9.6
 42
3.0
 44
3.0
 73
     0
 74
     0
 77
     1
 78
     8
140
9.6
147
3.0
172
     1
173
     1
176
     2
177
     2
178
     2
271
     2
340
4C
343
3B3
344
3B3
  0
DIMSTYLE
105
427
102
{ACAD_REACTORS
330
428
102
}
330
A
100
AcDbSymbolTableRecord
100
AcDbDimStyleTableRecord
  2
ME10_DIM_8
 70
     0
 41
9.6
 42
3.0
 44
3.0
 73
     0
 74
     0
 77
     1
 78
     8
140
9.6
147
3.0
172
     1
173
     1
176
     2
177
     2
178
     2
271
     2
340
4E
343
3B3
344
3B3
  0
DIMSTYLE
105
434
102
{ACAD_REACTORS
330
435
102
}
330
A
100
AcDbSymbolTableRecord
100
AcDbDimStyleTableRecord
  2
ME10_DIM_9
 70
     0
 41
9.6
 42
3.0
 44
3.0
 77
     1
 78
     8
140
9.6
147
2.1
172
     1
173
     1
176
     2
177
     2
178
     2
271
     2
340
4C
343
3B3
344
3B3
  0
DIMSTYLE
105
442
102
{ACAD_REACTORS
330
443
102
}
330
A
100
AcDbSymbolTableRecord
100
AcDbDimStyleTableRecord
  2
ME10_DIM_10
 70
     0
 41
9.6
 42
3.0
 44
3.0
 77
     1
 78
     8
140
9.6
147
2.1
172
     1
173
     1
176
     2
177
     2
178
     2
271
     2
340
4C
343
3B3
344
3B3
  0
DIMSTYLE
105
451
102
{ACAD_REACTORS
330
452
102
}
330
A
100
AcDbSymbolTableRecord
100
AcDbDimStyleTableRecord
  2
ME10_DIM_11
 70
     0
 41
9.6
 42
3.0
 44
3.0
 73
     0
 74
     0
 77
     1
 78
     8
140
9.6
147
3.0
172
     1
173
     1
176
     2
177
     2
178
     2
271
     2
340
4C
343
3B3
344
3B3
  0
DIMSTYLE
105
460
102
{ACAD_REACTORS
330
461
102
}
330
A
100
AcDbSymbolTableRecord
100
AcDbDimStyleTableRecord
  2
ME10_DIM_12
 70
     0
 41
9.6
 42
3.0
 44
3.0
 73
     0
 74
     0
 77
     1
 78
     8
140
9.6
147
3.0
172
     1
173
     1
176
     2
177
     2
178
     2
271
     2
340
4C
343
3B3
344
3B3
  0
DIMSTYLE
105
46F
102
{ACAD_REACTORS
330
470
102
}
330
A
100
AcDbSymbolTableRecord
100
AcDbDimStyleTableRecord
  2
ME10_DIM_13
 70
     0
 41
9.6
 42
3.0
 44
3.0
 73
     0
 74
     0
 77
     1
 78
     8
140
9.6
147
2.1
172
     1
173
     1
176
     2
177
     2
178
     2
271
     2
340
4C
343
3B3
344
3B3
  0
DIMSTYLE
105
47E
102
{ACAD_REACTORS
330
47F
102
}
330
A
100
AcDbSymbolTableRecord
100
AcDbDimStyleTableRecord
  2
ME10_DIM_14
 70
     0
 41
9.6
 42
3.0
 44
3.0
 73
     0
 74
     0
 77
     1
 78
     8
140
9.6
147
2.1
172
     1
173
     1
176
     2
177
     2
178
     2
271
     2
340
4C
343
3B3
344
3B3
  0
DIMSTYLE
105
48B
102
{ACAD_REACTORS
330
48C
102
}
330
A
100
AcDbSymbolTableRecord
100
AcDbDimStyleTableRecord
  2
ME10_DIM_15
 70
     0
 41
9.6
 42
3.0
 44
3.0
 73
     0
 74
     0
 77
     1
 78
     8
140
9.6
147
2.1
172
     1
173
     1
176
     2
177
     2
178
     2
271
     2
340
4E
343
3B3
344
3B3
  0
DIMSTYLE
105
498
102
{ACAD_REACTORS
330
499
102
}
330
A
100
AcDbSymbolTableRecord
100
AcDbDimStyleTableRecord
  2
ME10_DIM_16
 70
     0
 41
9.6
 42
3.0
 44
3.0
 73
     0
 74
     0
 77
     1
 78
     8
140
9.6
147
3.0
172
     1
173
     1
176
     2
177
     2
178
     2
271
     2
340
4C
343
3B3
344
3B3
  0
DIMSTYLE
105
4A5
102
{ACAD_REACTORS
330
4A6
102
}
330
A
100
AcDbSymbolTableRecord
100
AcDbDimStyleTableRecord
  2
ME10_DIM_17
 70
     0
 41
9.6
 42
3.0
 44
3.0
 73
     0
 74
     0
 77
     1
 78
     8
140
9.6
147
3.0
172
     1
173
     1
176
     2
177
     2
178
     2
271
     2
340
4C
343
3B3
344
3B3
  0
ENDTAB
  0
TABLE
  2
BLOCK_RECORD
  5
1
330
0
100
AcDbSymbolTable
 70
    26
  0
BLOCK_RECORD
  5
1F
330
1
100
AcDbSymbolTableRecord
100
AcDbBlockTableRecord
  2
*Model_Space
340
22
  0
BLOCK_RECORD
  5
1B
330
1
100
AcDbSymbolTableRecord
100
AcDbBlockTableRecord
  2
*Paper_Space
340
1E
  0
BLOCK_RECORD
  5
23
330
1
100
AcDbSymbolTableRecord
100
AcDbBlockTableRecord
  2
*Paper_Space0
340
26
  0
BLOCK_RECORD
  5
34
330
1
100
AcDbSymbolTableRecord
100
AcDbBlockTableRecord
  2
Zuwaku-A3-web
340
0
102
{BLKREFS
331
37
102
}
  0
BLOCK_RECORD
  5
3A7
330
1
100
AcDbSymbolTableRecord
100
AcDbBlockTableRecord
  2
*D02
340
0
  0
BLOCK_RECORD
  5
3B3
330
1
100
AcDbSymbolTableRecord
100
AcDbBlockTableRecord
  2
_Open30
340
0
  0
BLOCK_RECORD
  5
3BB
330
1
100
AcDbSymbolTableRecord
100
AcDbBlockTableRecord
  2
*D14
340
0
  0
BLOCK_RECORD
  5
3C8
330
1
100
AcDbSymbolTableRecord
100
AcDbBlockTableRecord
  2
*D25
340
0
  0
BLOCK_RECORD
  5
3D5
330
1
100
AcDbSymbolTableRecord
100
AcDbBlockTableRecord
  2
*D36
340
0
  0
BLOCK_RECORD
  5
3E4
330
1
100
AcDbSymbolTableRecord
100
AcDbBlockTableRecord
  2
*D47
340
0
  0
BLOCK_RECORD
  5
3F3
330
1
100
AcDbSymbolTableRecord
100
AcDbBlockTableRecord
  2
*D58
340
0
  0
BLOCK_RECORD
  5
400
330
1
100
AcDbSymbolTableRecord
100
AcDbBlockTableRecord
  2
*D69
340
0
  0
BLOCK_RECORD
  5
40D
330
1
100
AcDbSymbolTableRecord
100
AcDbBlockTableRecord
  2
*D710
340
0
  0
BLOCK_RECORD
  5
41C
330
1
100
AcDbSymbolTableRecord
100
AcDbBlockTableRecord
  2
*D811
340
0
  0
BLOCK_RECORD
  5
429
330
1
100
AcDbSymbolTableRecord
100
AcDbBlockTableRecord
  2
*D912
340
0
  0
BLOCK_RECORD
  5
436
330
1
100
AcDbSymbolTableRecord
100
AcDbBlockTableRecord
  2
*D1013
340
0
  0
BLOCK_RECORD
  5
444
330
1
100
AcDbSymbolTableRecord
100
AcDbBlockTableRecord
  2
*D1114
340
0
  0
BLOCK_RECORD
  5
453
330
1
100
AcDbSymbolTableRecord
100
AcDbBlockTableRecord
  2
*D1215
340
0
  0
BLOCK_RECORD
  5
462
330
1
100
AcDbSymbolTableRecord
100
AcDbBlockTableRecord
  2
*D1316
340
0
  0
BLOCK_RECORD
  5
471
330
1
100
AcDbSymbolTableRecord
100
AcDbBlockTableRecord
  2
*D1417
340
0
  0
BLOCK_RECORD
  5
480
330
1
100
AcDbSymbolTableRecord
100
AcDbBlockTableRecord
  2
*D1518
340
0
  0
BLOCK_RECORD
  5
48D
330
1
100
AcDbSymbolTableRecord
100
AcDbBlockTableRecord
  2
*D1619
340
0
  0
BLOCK_RECORD
  5
49A
330
1
100
AcDbSymbolTableRecord
100
AcDbBlockTableRecord
  2
*D1720
340
0
  0
BLOCK_RECORD
  5
4A7
330
1
100
AcDbSymbolTableRecord
100
AcDbBlockTableRecord
  2
*D1821
340
0
102
{BLKREFS
331
4AF
102
}
  0
BLOCK_RECORD
  5
4B0
330
1
100
AcDbSymbolTableRecord
100
AcDbBlockTableRecord
  2
*D1922
340
0
102
{BLKREFS
331
4B8
102
}
  0
BLOCK_RECORD
  5
4B9
330
1
100
AcDbSymbolTableRecord
100
AcDbBlockTableRecord
  2
*D2023
340
0
102
{BLKREFS
331
4C1
102
}
  0
BLOCK_RECORD
  5
4C2
330
1
100
AcDbSymbolTableRecord
100
AcDbBlockTableRecord
  2
*D2124
340
0
102
{BLKREFS
331
4CA
102
}
  0
BLOCK_RECORD
  5
4CB
330
1
100
AcDbSymbolTableRecord
100
AcDbBlockTableRecord
  2
*D2225
340
0
102
{BLKREFS
331
4D3
102
}
  0
ENDTAB
  0
ENDSEC
  0
SECTION
  2
BLOCKS
  0
BLOCK
  5
20
330
1F
100
AcDbEntity
  8
0
100
AcDbBlockBegin
  2
*Model_Space
 70
     0
 71
     0
 10
0.0
 20
0.0
 30
0.0
  3
*Model_Space
  1

  0
ENDBLK
  5
21
330
1F
100
AcDbEntity
  8
0
100
AcDbBlockEnd
  0
BLOCK
  5
1C
330
1B
100
AcDbEntity
 67
     1
  8
0
100
AcDbBlockBegin
  2
*Paper_Space
 70
     0
 71
     0
 10
0.0
 20
0.0
 30
0.0
  3
*Paper_Space
  1

  0
ENDBLK
  5
1D
330
1B
100
AcDbEntity
 67
     1
  8
0
100
AcDbBlockEnd
  0
BLOCK
  5
24
330
23
100
AcDbEntity
  8
0
100
AcDbBlockBegin
  2
*Paper_Space0
 70
     0
 71
     0
 10
0.0
 20
0.0
 30
0.0
  3
*Paper_Space0
  1

  0
ENDBLK
  5
25
330
23
100
AcDbEntity
  8
0
100
AcDbBlockEnd
  0
BLOCK
  5
35
330
34
100
AcDbEntity
  8
0
100
AcDbBlockBegin
  2
Zuwaku-A3-web
 70
     0
 71
     0
 10
196.9999999999998
 20
134.0
 30
0.0
  3
Zuwaku-A3-web
  1

  0
LINE
  5
38
330
34
100
AcDbEntity
  8
1
  6
Continuous
 62
     4
100
AcDbLine
 10
295.0
 20
20.0
 30
0.0
 11
295.0
 21
0.0
 31
0.0
  0
LINE
  5
39
330
34
100
AcDbEntity
  8
1
  6
Continuous
 62
     4
100
AcDbLine
 10
394.0
 20
20.0
 30
0.0
 11
0.0
 21
20.0
 31
0.0
  0
LINE
  5
3A
330
34
100
AcDbEntity
  8
1
  6
Continuous
 62
     4
100
AcDbLine
 10
173.7445771572093
 20
2.13397584248199
 30
0.0
 11
179.4766254722454
 21
7.866024157518
 31
0.0
  0
LINE
  5
3B
330
34
100
AcDbEntity
  8
1
  6
Continuous
 62
     7
100
AcDbLine
 10
0.0
 20
268.0
 30
0.0
 11
0.0
 21
0.0
 31
0.0
  0
LINE
  5
3C
330
34
100
AcDbEntity
  8
1
  6
Continuous
 62
     4
100
AcDbLine
 10
66.0
 20
20.0
 30
0.0
 11
66.0
 21
0.0
 31
0.0
  0
LINE
  5
3D
330
34
100
AcDbEntity
  8
1
  6
Continuous
 62
     4
100
AcDbLine
 10
170.5
 20
10.0
 30
0.0
 11
170.5
 21
0.0
 31
0.0
  0
LINE
  5
3E
330
34
100
AcDbEntity
  8
1
  6
Continuous
 62
     4
100
AcDbLine
 10
227.0
 20
20.0
 30
0.0
 11
227.0
 21
0.0
 31
0.0
  0
LINE
  5
3F
330
34
100
AcDbEntity
  8
1
  6
Continuous
 62
     4
100
AcDbLine
 10
283.0
 20
20.0
 30
0.0
 11
283.0
 21
0.0
 31
0.0
  0
LINE
  5
40
330
34
100
AcDbEntity
  8
1
  6
Continuous
 62
     4
100
AcDbLine
 10
162.5
 20
0.0
 30
0.0
 11
162.5
 21
20.0
 31
0.0
  0
LINE
  5
41
330
34
100
AcDbEntity
  8
1
  6
Continuous
 62
     4
100
AcDbLine
 10
202.0
 20
0.0
 30
0.0
 11
202.0
 21
20.0
 31
0.0
  0
LINE
  5
42
330
34
100
AcDbEntity
  8
1
  6
Continuous
 62
     7
100
AcDbLine
 10
394.0
 20
0.0
 30
0.0
 11
393.9999999999996
 21
268.0
 31
0.0
  0
LINE
  5
43
330
34
100
AcDbEntity
  8
1
  6
Continuous
 62
     7
100
AcDbLine
 10
393.9999999999996
 20
268.0
 30
0.0
 11
0.0
 21
268.0
 31
0.0
  0
LINE
  5
44
330
34
100
AcDbEntity
  8
1
  6
Continuous
 62
     4
100
AcDbLine
 10
0.0
 20
10.0
 30
0.0
 11
394.0
 21
10.0
 31
0.0
  0
LINE
  5
45
330
34
100
AcDbEntity
  8
1
  6
Continuous
 62
     4
100
AcDbLine
 10
12.0
 20
20.0
 30
0.0
 11
12.0
 21
0.0
 31
0.0
  0
LINE
  5
46
330
34
100
AcDbEntity
  8
1
  6
Continuous
 62
     3
100
AcDbLine
 10
6.0
 20
19.0
 30
0.0
 11
2.5
 21
12.5
 31
0.0
  0
LINE
  5
47
330
34
100
AcDbEntity
  8
1
  6
Continuous
 62
     3
100
AcDbLine
 10
2.5
 20
12.5
 30
0.0
 11
9.5
 21
12.5
 31
0.0
  0
LINE
  5
48
330
34
100
AcDbEntity
  8
1
  6
Continuous
 62
     3
100
AcDbLine
 10
9.5
 20
12.5
 30
0.0
 11
6.0
 21
19.0
 31
0.0
  0
LINE
  5
49
330
34
100
AcDbEntity
  8
1
  6
Continuous
 62
     4
100
AcDbLine
 10
162.5
 20
15.0
 30
0.0
 11
202.0
 21
15.0
 31
0.0
  0
LINE
  5
4A
330
34
100
AcDbEntity
  8
1
  6
Continuous
 62
     7
100
AcDbLine
 10
0.0
 20
0.0
 30
0.0
 11
394.0
 21
0.0
 31
0.0
  0
LINE
  5
4B
330
34
100
AcDbEntity
  8
1
  6
Continuous
 62
     4
100
AcDbLine
 10
189.4945771572093
 20
2.13397584248199
 30
0.0
 11
195.2266254722454
 21
7.866024157518
 31
0.0
  0
MTEXT
  5
4D
330
34
100
AcDbEntity
  8
1
 62
     4
100
AcDbMText
 10
393.4565543923691
 20
-0.25615332095569
 30
0.0
 40
2.0
 41
0.0
 71
     3
 72
     1
  1
A3
  7
CONVERTER_1
 73
     1
 44
1.32052821128451
  0
MTEXT
  5
4F
330
34
100
AcDbEntity
  8
1
 62
     2
100
AcDbMText
 10
289.0
 20
15.0
 30
0.0
 40
4.0
 41
0.0
 71
     5
 72
     1
  1
図名
  7
CONVERTER_2
 73
     1
 44
1.32052821128451
  0
MTEXT
  5
51
330
34
100
AcDbEntity
  8
1
 62
     2
100
AcDbMText
 10
289.0
 20
7.25
 30
0.0
 40
3.5
 41
0.0
 71
     5
 72
     1
  1
図面
  7
CONVERTER_3
 73
     1
 44
0.78031212484994
  0
MTEXT
  5
52
330
34
100
AcDbEntity
  8
1
 62
     2
100
AcDbMText
 10
182.25
 20
17.5
 30
0.0
 40
3.5
 41
0.0
 71
     5
 72
     1
  1
年　　月　　日
  7
CONVERTER_2
 73
     1
 44
0.78031212484994
  0
MTEXT
  5
53
330
34
100
AcDbEntity
  8
1
 62
     2
100
AcDbMText
 10
166.5
 20
7.25
 30
0.0
 40
3.5
 41
0.0
 71
     5
 72
     1
  1
尺
  7
CONVERTER_3
 73
     1
 44
0.78031212484994
  0
MTEXT
  5
54
330
34
100
AcDbEntity
  8
1
 62
     2
100
AcDbMText
 10
39.0
 20
5.0
 30
0.0
 40
3.5
 41
0.0
 71
     5
 72
     1
  1
改　 訂　 記　 事
  7
CONVERTER_2
 73
     1
 44
1.32052821128451
  0
MTEXT
  5
55
330
34
100
AcDbEntity
  8
1
 62
     2
100
AcDbMText
 10
6.0
 20
7.25
 30
0.0
 40
3.5
 41
0.0
 71
     5
 72
     1
  1
改訂
  7
CONVERTER_2
 73
     1
 44
0.78031212484994
  0
MTEXT
  5
57
330
34
100
AcDbEntity
  8
1
 62
     7
100
AcDbMText
 10
114.25
 20
5.0
 30
0.0
 40
4.0
 41
0.0
 71
     5
 72
     1
  1
MARUYASU KIKAI CO.,LTD.
  7
CONVERTER_4
 73
     1
 44
1.32052821128451
  0
MTEXT
  5
58
330
34
100
AcDbEntity
  8
1
 62
     2
100
AcDbMText
 10
189.75
 20
6.5
 30
0.0
 40
4.0
 41
0.0
 71
     5
 72
     1
  1
1
  7
CONVERTER_1
 73
     1
 44
1.32052821128451
  0
MTEXT
  5
59
330
34
100
AcDbEntity
  8
1
 62
     2
100
AcDbMText
 10
214.5
 20
5.0
 30
0.0
 40
4.0
 41
0.0
 71
     5
 72
     1
  1
機　種
  7
CONVERTER_2
 73
     1
 44
1.32052821128451
  0
MTEXT
  5
5B
330
34
100
AcDbEntity
  8
1
 62
     2
100
AcDbMText
 10
214.5
 20
15.0
 30
0.0
 40
4.0
 41
0.0
 71
     5
 72
     1
  1
シリーズ名
  7
CONVERTER_5
 73
     1
 44
1.32052821128451
  0
MTEXT
  5
5C
330
34
100
AcDbEntity
  8
1
 62
     7
100
AcDbMText
 10
114.25
 20
15.0
 30
0.0
 40
5.0
 41
0.0
 71
     5
 72
     1
  1
技術情報サービス
  7
CONVERTER_2
 73
     1
 44
1.20048019207683
  0
MTEXT
  5
5D
330
34
100
AcDbEntity
  8
1
 62
     2
100
AcDbMText
 10
5.67807803017169
 20
2.75
 30
0.0
 40
3.5
 41
0.0
 71
     5
 72
     1
  1
番号
  7
CONVERTER_2
 73
     1
 44
0.78031212484994
  0
MTEXT
  5
5E
330
34
100
AcDbEntity
  8
1
 62
     2
100
AcDbMText
 10
166.5
 20
2.75
 30
0.0
 40
3.5
 41
0.0
 71
     5
 72
     1
  1
度
  7
CONVERTER_3
 73
     1
 44
0.78031212484994
  0
MTEXT
  5
5F
330
34
100
AcDbEntity
  8
1
 62
     2
100
AcDbMText
 10
289.0
 20
2.75
 30
0.0
 40
3.5
 41
0.0
 71
     5
 72
     1
  1
番号
  7
CONVERTER_3
 73
     1
 44
0.78031212484994
  0
MTEXT
  5
60
330
34
100
AcDbEntity
  8
1
 62
     2
100
AcDbMText
 10
173.183432867907
 20
6.25
 30
0.0
 40
4.0
 41
0.0
 71
     5
 72
     1
  1
1
  7
CONVERTER_1
 73
     1
 44
0.60024009603842
  0
MTEXT
  5
61
330
34
100
AcDbEntity
  8
1
 62
     2
100
AcDbMText
 10
180.9766254722454
 20
3.75
 30
0.0
 40
4.0
 41
0.0
 71
     5
 72
     1
  1
3
  7
CONVERTER_1
 73
     1
 44
0.60024009603842
  0
ENDBLK
  5
36
330
34
100
AcDbEntity
  8
0
100
AcDbBlockEnd
  0
BLOCK
  5
3B1
330
3A7
100
AcDbEntity
  8
0
100
AcDbBlockBegin
  2
*D02
 70
     1
 71
     0
 10
0.0
 20
0.0
 30
0.0
  3
*D02
  1

  0
LINE
  5
3A8
330
3A7
100
AcDbEntity
  8
1
  6
Continuous
 62
     2
100
AcDbLine
 10
492.42216379767
 20
223.419810664238
 30
0.0
 11
542.4221637976689
 21
223.419810664238
 31
0.0
  0
LINE
  5
3A9
330
3A7
100
AcDbEntity
  8
1
  6
Continuous
 62
     2
100
AcDbLine
 10
492.42216379767
 20
267.3892047233961
 30
0.0
 11
492.42216379767
 21
220.419810664238
 31
0.0
  0
LINE
  5
3AA
330
3A7
100
AcDbEntity
  8
1
  6
Continuous
 62
     2
100
AcDbLine
 10
542.4221637976689
 20
290.4892047233964
 30
0.0
 11
542.4221637976689
 21
220.419810664238
 31
0.0
  0
LINE
  5
3AB
330
3A7
100
AcDbEntity
  8
1
 62
     2
100
AcDbLine
 10
492.42216379767
 20
223.419810664238
 30
0.0
 11
502.02216379767
 21
225.9921229115768
 31
0.0
  0
LINE
  5
3AC
330
3A7
100
AcDbEntity
  8
1
 62
     2
100
AcDbLine
 10
492.42216379767
 20
223.419810664238
 30
0.0
 11
502.02216379767
 21
220.8474984168992
 31
0.0
  0
LINE
  5
3AD
330
3A7
100
AcDbEntity
  8
1
 62
     2
100
AcDbLine
 10
542.4221637976689
 20
223.419810664238
 30
0.0
 11
532.8221637976689
 21
220.8474984168992
 31
0.0
  0
LINE
  5
3AE
330
3A7
100
AcDbEntity
  8
1
 62
     2
100
AcDbLine
 10
542.4221637976689
 20
223.419810664238
 30
0.0
 11
532.8221637976689
 21
225.9921229115768
 31
0.0
  0
MTEXT
  5
3B0
330
3A7
100
AcDbEntity
  8
1
 62
     2
100
AcDbMText
 10
510.357496359779
 20
225.519810664238
 30
0.0
 40
9.6
 41
0.0
 71
     7
 72
     1
  1
1~50
  7
CONVERTER_7
 11
0.9999999999970621
 21
2.424068405545307E-6
 31
0.0
 73
     1
 44
0.60024009603842
  0
ENDBLK
  5
3B2
330
3A7
100
AcDbEntity
  8
0
100
AcDbBlockEnd
  0
BLOCK
  5
3B4
330
3B3
100
AcDbEntity
  8
0
100
AcDbBlockBegin
  2
_Open30
 70
     0
 71
     0
 10
0.0
 20
0.0
 30
0.0
  3
_Open30
  1

  0
LINE
  5
3B6
330
3B3
100
AcDbEntity
  8
0
  6
ByBlock
 62
     0
370
    -2
100
AcDbLine
 10
-1.0
 20
0.267949
 30
0.0
 11
0.0
 21
0.0
 31
0.0
  0
LINE
  5
3B7
330
3B3
100
AcDbEntity
  8
0
  6
ByBlock
 62
     0
370
    -2
100
AcDbLine
 10
0.0
 20
0.0
 30
0.0
 11
-1.0
 21
-0.267949
 31
0.0
  0
LINE
  5
3B8
330
3B3
100
AcDbEntity
  8
0
  6
ByBlock
 62
     0
370
    -2
100
AcDbLine
 10
0.0
 20
0.0
 30
0.0
 11
-1.0
 21
0.0
 31
0.0
  0
ENDBLK
  5
3B5
330
3B3
100
AcDbEntity
  8
0
100
AcDbBlockEnd
  0
BLOCK
  5
3C4
330
3BB
100
AcDbEntity
  8
0
100
AcDbBlockBegin
  2
*D14
 70
     1
 71
     0
 10
0.0
 20
0.0
 30
0.0
  3
*D14
  1

  0
LINE
  5
3BC
330
3BB
100
AcDbEntity
  8
1
  6
Continuous
 62
     2
100
AcDbLine
 10
542.4221637976689
 20
347.8289157588025
 30
0.0
 11
242.4221637976701
 21
347.8289157588025
 31
0.0
  0
LINE
  5
3BD
330
3BB
100
AcDbEntity
  8
1
  6
Continuous
 62
     2
100
AcDbLine
 10
542.4221637976689
 20
297.4892047233964
 30
0.0
 11
542.4221637976689
 21
350.8289157588025
 31
0.0
  0
LINE
  5
3BE
330
3BB
100
AcDbEntity
  8
1
  6
Continuous
 62
     2
100
AcDbLine
 10
242.4221637976701
 20
273.389204723396
 30
0.0
 11
242.4221637976701
 21
350.8289157588025
 31
0.0
  0
LINE
  5
3BF
330
3BB
100
AcDbEntity
  8
1
 62
     2
100
AcDbLine
 10
542.4221637976689
 20
347.8289157588025
 30
0.0
 11
532.8221637976689
 21
345.2566035114637
 31
0.0
  0
LINE
  5
3C0
330
3BB
100
AcDbEntity
  8
1
 62
     2
100
AcDbLine
 10
542.4221637976689
 20
347.8289157588025
 30
0.0
 11
532.8221637976689
 21
350.4012280061413
 31
0.0
  0
LINE
  5
3C1
330
3BB
100
AcDbEntity
  8
1
 62
     2
100
AcDbLine
 10
242.4221637976701
 20
347.8289157588025
 30
0.0
 11
252.0221637976701
 21
350.4012280061413
 31
0.0
  0
LINE
  5
3C2
330
3BB
100
AcDbEntity
  8
1
 62
     2
100
AcDbLine
 10
242.4221637976701
 20
347.8289157588025
 30
0.0
 11
252.0221637976701
 21
345.2566035114637
 31
0.0
  0
MTEXT
  5
3C3
330
3BB
100
AcDbEntity
  8
1
 62
     2
100
AcDbMText
 10
369.8668759256048
 20
349.9289157588025
 30
0.0
 40
9.6
 41
0.0
 71
     7
 72
     1
  1
呼称機長
  7
CONVERTER_2
 11
0.9999999999970621
 21
2.424068405545307E-6
 31
0.0
 73
     1
 44
0.60024009603842
  0
ENDBLK
  5
3C5
330
3BB
100
AcDbEntity
  8
0
100
AcDbBlockEnd
  0
BLOCK
  5
3D1
330
3C8
100
AcDbEntity
  8
0
100
AcDbBlockBegin
  2
*D25
 70
     1
 71
     0
 10
0.0
 20
0.0
 30
0.0
  3
*D25
  1

  0
LINE
  5
3C9
330
3C8
100
AcDbEntity
  8
1
  6
Continuous
 62
     2
100
AcDbLine
 10
739.441690134303
 20
325.0649901951497
 30
0.0
 11
939.4416901343037
 21
325.0649901951497
 31
0.0
  0
LINE
  5
3CA
330
3C8
100
AcDbEntity
  8
1
  6
Continuous
 62
     2
100
AcDbLine
 10
739.441690134303
 20
304.2892047233963
 30
0.0
 11
739.441690134303
 21
328.0649901951497
 31
0.0
  0
LINE
  5
3CB
330
3C8
100
AcDbEntity
  8
1
  6
Continuous
 62
     2
100
AcDbLine
 10
939.4416901343037
 20
304.2892047233963
 30
0.0
 11
939.4416901343037
 21
328.0649901951497
 31
0.0
  0
LINE
  5
3CC
330
3C8
100
AcDbEntity
  8
1
 62
     2
100
AcDbLine
 10
739.441690134303
 20
325.0649901951497
 30
0.0
 11
749.0416901343031
 21
327.6373024424885
 31
0.0
  0
LINE
  5
3CD
330
3C8
100
AcDbEntity
  8
1
 62
     2
100
AcDbLine
 10
739.441690134303
 20
325.0649901951497
 30
0.0
 11
749.0416901343031
 21
322.4926779478109
 31
0.0
  0
LINE
  5
3CE
330
3C8
100
AcDbEntity
  8
1
 62
     2
100
AcDbLine
 10
939.4416901343037
 20
325.0649901951497
 30
0.0
 11
929.8416901343037
 21
322.4926779478109
 31
0.0
  0
LINE
  5
3CF
330
3C8
100
AcDbEntity
  8
1
 62
     2
100
AcDbLine
 10
939.4416901343037
 20
325.0649901951497
 30
0.0
 11
929.8416901343037
 21
327.6373024424885
 31
0.0
  0
MTEXT
  5
3D0
330
3C8
100
AcDbEntity
  8
1
 62
     2
100
AcDbMText
 10
821.9221242370683
 20
327.1649901951497
 30
0.0
 40
9.6
 41
0.0
 71
     7
 72
     1
  1
ベルト幅
  7
CONVERTER_2
 11
0.9999999999970621
 21
2.424068405545307E-6
 31
0.0
 73
     1
 44
0.60024009603842
  0
ENDBLK
  5
3D2
330
3C8
100
AcDbEntity
  8
0
100
AcDbBlockEnd
  0
BLOCK
  5
3E0
330
3D5
100
AcDbEntity
  8
0
100
AcDbBlockBegin
  2
*D36
 70
     1
 71
     0
 10
0.0
 20
0.0
 30
0.0
  3
*D36
  1

  0
LINE
  5
3D6
330
3D5
100
AcDbEntity
  8
1
  6
Continuous
 62
     2
100
AcDbLine
 10
160.6004431111099
 20
714.3527020160295
 30
0.0
 11
160.6004431111099
 21
733.5527020160296
 31
0.0
  0
LINE
  5
3D7
330
3D5
100
AcDbEntity
  8
1
  6
Continuous
 62
     2
100
AcDbLine
 10
160.6004431111099
 20
694.3527020160295
 30
0.0
 11
160.6004431111099
 21
714.3527020160295
 31
0.0
  0
LINE
  5
3D8
330
3D5
100
AcDbEntity
  8
1
  6
Continuous
 62
     2
100
AcDbLine
 10
160.6004431111099
 20
675.1527020160295
 30
0.0
 11
160.6004431111099
 21
694.3527020160295
 31
0.0
  0
LINE
  5
3D9
330
3D5
100
AcDbEntity
  8
1
  6
Continuous
 62
     2
100
AcDbLine
 10
239.4221637976683
 20
694.3527020160295
 30
0.0
 11
157.6004431111099
 21
694.3527020160295
 31
0.0
  0
LINE
  5
3DA
330
3D5
100
AcDbEntity
  8
1
  6
Continuous
 62
     2
100
AcDbLine
 10
271.4221637976682
 20
714.3527020160295
 30
0.0
 11
157.6004431111099
 21
714.3527020160295
 31
0.0
  0
LINE
  5
3DB
330
3D5
100
AcDbEntity
  8
1
 62
     2
100
AcDbLine
 10
160.6004431111099
 20
694.3527020160295
 30
0.0
 11
163.1727553584487
 21
684.7527020160295
 31
0.0
  0
LINE
  5
3DC
330
3D5
100
AcDbEntity
  8
1
 62
     2
100
AcDbLine
 10
160.6004431111099
 20
694.3527020160295
 30
0.0
 11
158.0281308637711
 21
684.7527020160295
 31
0.0
  0
LINE
  5
3DD
330
3D5
100
AcDbEntity
  8
1
 62
     2
100
AcDbLine
 10
160.6004431111099
 20
714.3527020160295
 30
0.0
 11
158.0281308637711
 21
723.9527020160296
 31
0.0
  0
LINE
  5
3DE
330
3D5
100
AcDbEntity
  8
1
 62
     2
100
AcDbLine
 10
160.6004431111099
 20
714.3527020160295
 30
0.0
 11
163.1727553584487
 21
723.9527020160296
 31
0.0
  0
MTEXT
  5
3DF
330
3D5
100
AcDbEntity
  8
1
 62
     2
100
AcDbMText
 10
157.6004431111099
 20
697.0815798918055
 30
0.0
 40
9.6
 41
0.0
 71
     7
 72
     1
  1
20
  7
CONVERTER_1
 11
0.0
 21
1.0
 31
0.0
 73
     1
 44
0.60024009603842
  0
ENDBLK
  5
3E1
330
3D5
100
AcDbEntity
  8
0
100
AcDbBlockEnd
  0
BLOCK
  5
3EF
330
3E4
100
AcDbEntity
  8
0
100
AcDbBlockBegin
  2
*D47
 70
     1
 71
     0
 10
0.0
 20
0.0
 30
0.0
  3
*D47
  1

  0
LINE
  5
3E5
330
3E4
100
AcDbEntity
  8
1
  6
Continuous
 62
     2
100
AcDbLine
 10
160.6004431111099
 20
411.6527020160298
 30
0.0
 11
160.6004431111099
 21
430.8527020160298
 31
0.0
  0
LINE
  5
3E6
330
3E4
100
AcDbEntity
  8
1
  6
Continuous
 62
     2
100
AcDbLine
 10
160.6004431111099
 20
430.8527020160298
 30
0.0
 11
160.6004431111099
 21
450.8527020160298
 31
0.0
  0
LINE
  5
3E7
330
3E4
100
AcDbEntity
  8
1
  6
Continuous
 62
     2
100
AcDbLine
 10
160.6004431111099
 20
450.8527020160298
 30
0.0
 11
160.6004431111099
 21
470.0527020160298
 31
0.0
  0
LINE
  5
3E8
330
3E4
100
AcDbEntity
  8
1
  6
Continuous
 62
     2
100
AcDbLine
 10
239.4221637976683
 20
450.8527020160298
 30
0.0
 11
157.6004431111099
 21
450.8527020160298
 31
0.0
  0
LINE
  5
3E9
330
3E4
100
AcDbEntity
  8
1
  6
Continuous
 62
     2
100
AcDbLine
 10
271.4221637976682
 20
430.8527020160298
 30
0.0
 11
157.6004431111099
 21
430.8527020160298
 31
0.0
  0
LINE
  5
3EA
330
3E4
100
AcDbEntity
  8
1
 62
     2
100
AcDbLine
 10
160.6004431111099
 20
430.8527020160298
 30
0.0
 11
163.1727553584487
 21
421.2527020160298
 31
0.0
  0
LINE
  5
3EB
330
3E4
100
AcDbEntity
  8
1
 62
     2
100
AcDbLine
 10
160.6004431111099
 20
430.8527020160298
 30
0.0
 11
158.0281308637711
 21
421.2527020160298
 31
0.0
  0
LINE
  5
3EC
330
3E4
100
AcDbEntity
  8
1
 62
     2
100
AcDbLine
 10
160.6004431111099
 20
450.8527020160298
 30
0.0
 11
158.0281308637711
 21
460.4527020160298
 31
0.0
  0
LINE
  5
3ED
330
3E4
100
AcDbEntity
  8
1
 62
     2
100
AcDbLine
 10
160.6004431111099
 20
450.8527020160298
 30
0.0
 11
163.1727553584487
 21
460.4527020160298
 31
0.0
  0
MTEXT
  5
3EE
330
3E4
100
AcDbEntity
  8
1
 62
     2
100
AcDbMText
 10
157.6004431111099
 20
431.8146724638335
 30
0.0
 40
9.6
 41
0.0
 71
     7
 72
     1
  1
20
  7
CONVERTER_1
 11
0.0
 21
1.0
 31
0.0
 73
     1
 44
0.60024009603842
  0
ENDBLK
  5
3F0
330
3E4
100
AcDbEntity
  8
0
100
AcDbBlockEnd
  0
BLOCK
  5
3FC
330
3F3
100
AcDbEntity
  8
0
100
AcDbBlockBegin
  2
*D58
 70
     1
 71
     0
 10
0.0
 20
0.0
 30
0.0
  3
*D58
  1

  0
LINE
  5
3F4
330
3F3
100
AcDbEntity
  8
1
  6
Continuous
 62
     2
100
AcDbLine
 10
160.6004431111098
 20
450.8527020160299
 30
0.0
 11
160.6004431111098
 21
694.3527020160298
 31
0.0
  0
LINE
  5
3F5
330
3F3
100
AcDbEntity
  8
1
  6
Continuous
 62
     2
100
AcDbLine
 10
239.4221637976682
 20
450.8527020160299
 30
0.0
 11
157.6004431111098
 21
450.8527020160299
 31
0.0
  0
LINE
  5
3F6
330
3F3
100
AcDbEntity
  8
1
  6
Continuous
 62
     2
100
AcDbLine
 10
239.4221637976682
 20
694.3527020160298
 30
0.0
 11
157.6004431111098
 21
694.3527020160298
 31
0.0
  0
LINE
  5
3F7
330
3F3
100
AcDbEntity
  8
1
 62
     2
100
AcDbLine
 10
160.6004431111098
 20
450.8527020160299
 30
0.0
 11
158.028130863771
 21
460.4527020160299
 31
0.0
  0
LINE
  5
3F8
330
3F3
100
AcDbEntity
  8
1
 62
     2
100
AcDbLine
 10
160.6004431111098
 20
450.8527020160299
 30
0.0
 11
163.1727553584485
 21
460.4527020160299
 31
0.0
  0
LINE
  5
3F9
330
3F3
100
AcDbEntity
  8
1
 62
     2
100
AcDbLine
 10
160.6004431111098
 20
694.3527020160298
 30
0.0
 11
163.1727553584485
 21
684.7527020160297
 31
0.0
  0
LINE
  5
3FA
330
3F3
100
AcDbEntity
  8
1
 62
     2
100
AcDbLine
 10
160.6004431111098
 20
694.3527020160298
 30
0.0
 11
158.028130863771
 21
684.7527020160297
 31
0.0
  0
MTEXT
  5
3FB
330
3F3
100
AcDbEntity
  8
1
 62
     2
100
AcDbMText
 10
157.6004431111098
 20
560.8334672598903
 30
0.0
 40
9.6
 41
0.0
 71
     7
 72
     1
  1
機幅
  7
CONVERTER_2
 11
0.0
 21
1.0
 31
0.0
 73
     1
 44
0.60024009603842
  0
ENDBLK
  5
3FD
330
3F3
100
AcDbEntity
  8
0
100
AcDbBlockEnd
  0
BLOCK
  5
409
330
400
100
AcDbEntity
  8
0
100
AcDbBlockBegin
  2
*D69
 70
     1
 71
     0
 10
0.0
 20
0.0
 30
0.0
  3
*D69
  1

  0
LINE
  5
401
330
400
100
AcDbEntity
  8
1
  6
Continuous
 62
     2
100
AcDbLine
 10
193.697958250674
 20
450.8527020160297
 30
0.0
 11
193.697958250674
 21
481.8527020160299
 31
0.0
  0
LINE
  5
402
330
400
100
AcDbEntity
  8
1
  6
Continuous
 62
     2
100
AcDbLine
 10
239.4221637976683
 20
450.8527020160297
 30
0.0
 11
190.697958250674
 21
450.8527020160297
 31
0.0
  0
LINE
  5
403
330
400
100
AcDbEntity
  8
1
  6
Continuous
 62
     2
100
AcDbLine
 10
239.4221637976683
 20
481.8527020160299
 30
0.0
 11
190.697958250674
 21
481.8527020160299
 31
0.0
  0
LINE
  5
404
330
400
100
AcDbEntity
  8
1
 62
     2
100
AcDbLine
 10
193.697958250674
 20
450.8527020160297
 30
0.0
 11
191.1256460033353
 21
460.4527020160297
 31
0.0
  0
LINE
  5
405
330
400
100
AcDbEntity
  8
1
 62
     2
100
AcDbLine
 10
193.697958250674
 20
450.8527020160297
 30
0.0
 11
196.2702704980128
 21
460.4527020160297
 31
0.0
  0
LINE
  5
406
330
400
100
AcDbEntity
  8
1
 62
     2
100
AcDbLine
 10
193.697958250674
 20
481.8527020160299
 30
0.0
 11
196.2702704980128
 21
472.2527020160299
 31
0.0
  0
LINE
  5
407
330
400
100
AcDbEntity
  8
1
 62
     2
100
AcDbLine
 10
193.697958250674
 20
481.8527020160299
 30
0.0
 11
191.1256460033353
 21
472.2527020160299
 31
0.0
  0
MTEXT
  5
408
330
400
100
AcDbEntity
  8
1
 62
     2
100
AcDbMText
 10
190.697958250674
 20
459.5932306481706
 30
0.0
 40
9.6
 41
0.0
 71
     7
 72
     1
  1
31
  7
CONVERTER_1
 11
0.0
 21
1.0
 31
0.0
 73
     1
 44
0.60024009603842
  0
ENDBLK
  5
40A
330
400
100
AcDbEntity
  8
0
100
AcDbBlockEnd
  0
BLOCK
  5
418
330
40D
100
AcDbEntity
  8
0
100
AcDbBlockBegin
  2
*D710
 70
     1
 71
     0
 10
0.0
 20
0.0
 30
0.0
  3
*D710
  1

  0
LINE
  5
40E
330
40D
100
AcDbEntity
  8
1
  6
Continuous
 62
     2
100
AcDbLine
 10
193.697958250674
 20
694.3527020160296
 30
0.0
 11
193.697958250674
 21
748.3744462260786
 31
0.0
  0
LINE
  5
40F
330
40D
100
AcDbEntity
  8
1
  6
Continuous
 62
     2
100
AcDbLine
 10
193.697958250674
 20
681.8527020160298
 30
0.0
 11
193.697958250674
 21
694.3527020160296
 31
0.0
  0
LINE
  5
410
330
40D
100
AcDbEntity
  8
1
  6
Continuous
 62
     2
100
AcDbLine
 10
193.697958250674
 20
662.6527020160297
 30
0.0
 11
193.697958250674
 21
681.8527020160298
 31
0.0
  0
LINE
  5
411
330
40D
100
AcDbEntity
  8
1
  6
Continuous
 62
     2
100
AcDbLine
 10
239.4221637976683
 20
681.8527020160298
 30
0.0
 11
190.697958250674
 21
681.8527020160298
 31
0.0
  0
LINE
  5
412
330
40D
100
AcDbEntity
  8
1
  6
Continuous
 62
     2
100
AcDbLine
 10
239.4221637976683
 20
694.3527020160296
 30
0.0
 11
190.697958250674
 21
694.3527020160296
 31
0.0
  0
LINE
  5
413
330
40D
100
AcDbEntity
  8
1
 62
     2
100
AcDbLine
 10
193.697958250674
 20
681.8527020160298
 30
0.0
 11
196.2702704980128
 21
672.2527020160297
 31
0.0
  0
LINE
  5
414
330
40D
100
AcDbEntity
  8
1
 62
     2
100
AcDbLine
 10
193.697958250674
 20
681.8527020160298
 30
0.0
 11
191.1256460033353
 21
672.2527020160297
 31
0.0
  0
LINE
  5
415
330
40D
100
AcDbEntity
  8
1
 62
     2
100
AcDbLine
 10
193.697958250674
 20
694.3527020160296
 30
0.0
 11
191.1256460033353
 21
703.9527020160297
 31
0.0
  0
LINE
  5
416
330
40D
100
AcDbEntity
  8
1
 62
     2
100
AcDbLine
 10
193.697958250674
 20
694.3527020160296
 30
0.0
 11
196.2702704980128
 21
703.9527020160297
 31
0.0
  0
MTEXT
  5
417
330
40D
100
AcDbEntity
  8
1
 62
     2
100
AcDbMText
 10
190.697958250674
 20
725.0944462260786
 30
0.0
 40
9.6
 41
0.0
 71
     7
 72
     1
  1
12.5
  7
CONVERTER_1
 11
0.0
 21
1.0
 31
0.0
 73
     1
 44
0.60024009603842
  0
ENDBLK
  5
419
330
40D
100
AcDbEntity
  8
0
100
AcDbBlockEnd
  0
BLOCK
  5
425
330
41C
100
AcDbEntity
  8
0
100
AcDbBlockBegin
  2
*D811
 70
     1
 71
     0
 10
0.0
 20
0.0
 30
0.0
  3
*D811
  1

  0
LINE
  5
41D
330
41C
100
AcDbEntity
  8
1
  6
Continuous
 62
     2
100
AcDbLine
 10
193.697958250674
 20
681.8527020160298
 30
0.0
 11
193.697958250674
 21
481.85270201603
 31
0.0
  0
LINE
  5
41E
330
41C
100
AcDbEntity
  8
1
  6
Continuous
 62
     2
100
AcDbLine
 10
239.4221637976683
 20
681.8527020160298
 30
0.0
 11
190.697958250674
 21
681.8527020160298
 31
0.0
  0
LINE
  5
41F
330
41C
100
AcDbEntity
  8
1
  6
Continuous
 62
     2
100
AcDbLine
 10
239.4221637976683
 20
481.85270201603
 30
0.0
 11
190.697958250674
 21
481.85270201603
 31
0.0
  0
LINE
  5
420
330
41C
100
AcDbEntity
  8
1
 62
     2
100
AcDbLine
 10
193.697958250674
 20
681.8527020160298
 30
0.0
 11
196.2702704980128
 21
672.2527020160297
 31
0.0
  0
LINE
  5
421
330
41C
100
AcDbEntity
  8
1
 62
     2
100
AcDbLine
 10
193.697958250674
 20
681.8527020160298
 30
0.0
 11
191.1256460033353
 21
672.2527020160297
 31
0.0
  0
LINE
  5
422
330
41C
100
AcDbEntity
  8
1
 62
     2
100
AcDbLine
 10
193.697958250674
 20
481.85270201603
 30
0.0
 11
191.1256460033353
 21
491.45270201603
 31
0.0
  0
LINE
  5
423
330
41C
100
AcDbEntity
  8
1
 62
     2
100
AcDbLine
 10
193.697958250674
 20
481.85270201603
 30
0.0
 11
196.2702704980128
 21
491.45270201603
 31
0.0
  0
MTEXT
  5
424
330
41C
100
AcDbEntity
  8
1
 62
     2
100
AcDbMText
 10
190.697958250674
 20
540.3707773470109
 30
0.0
 40
9.6
 41
0.0
 71
     7
 72
     1
  1
200(ベルト幅)
  7
CONVERTER_2
 11
0.0
 21
1.0
 31
0.0
 73
     1
 44
0.60024009603842
  0
ENDBLK
  5
426
330
41C
100
AcDbEntity
  8
0
100
AcDbBlockEnd
  0
BLOCK
  5
432
330
429
100
AcDbEntity
  8
0
100
AcDbBlockBegin
  2
*D912
 70
     1
 71
     0
 10
0.0
 20
0.0
 30
0.0
  3
*D912
  1

  0
LINE
  5
42A
330
429
100
AcDbEntity
  8
1
  6
Continuous
 62
     2
100
AcDbLine
 10
371.4221637976689
 20
397.4931460430278
 30
0.0
 11
278.4221637976693
 21
397.4931460430278
 31
0.0
  0
LINE
  5
42B
330
429
100
AcDbEntity
  8
1
  6
Continuous
 62
     2
100
AcDbLine
 10
278.4221637976693
 20
428.7277020160298
 30
0.0
 11
278.4221637976693
 21
394.4931460430278
 31
0.0
  0
LINE
  5
42C
330
429
100
AcDbEntity
  8
1
  6
Continuous
 62
     2
100
AcDbLine
 10
371.4221637976689
 20
428.7277020160298
 30
0.0
 11
371.4221637976689
 21
394.4931460430278
 31
0.0
  0
LINE
  5
42D
330
429
100
AcDbEntity
  8
1
 62
     2
100
AcDbLine
 10
371.4221637976689
 20
397.4931460430278
 30
0.0
 11
361.8221637976689
 21
394.920833795689
 31
0.0
  0
LINE
  5
42E
330
429
100
AcDbEntity
  8
1
 62
     2
100
AcDbLine
 10
371.4221637976689
 20
397.4931460430278
 30
0.0
 11
361.8221637976689
 21
400.0654582903666
 31
0.0
  0
LINE
  5
42F
330
429
100
AcDbEntity
  8
1
 62
     2
100
AcDbLine
 10
278.4221637976693
 20
397.4931460430278
 30
0.0
 11
288.0221637976694
 21
400.0654582903666
 31
0.0
  0
LINE
  5
430
330
429
100
AcDbEntity
  8
1
 62
     2
100
AcDbLine
 10
278.4221637976693
 20
397.4931460430278
 30
0.0
 11
288.0221637976694
 21
394.920833795689
 31
0.0
  0
MTEXT
  5
431
330
429
100
AcDbEntity
  8
1
 62
     2
100
AcDbMText
 10
313.4562819629984
 20
401.0331460430278
 30
0.0
 40
9.6
 41
0.0
 71
     7
 72
     1
  1
93
  7
CONVERTER_1
 11
0.9999999999970621
 21
2.424068405545307E-6
 31
0.0
 73
     1
 44
0.60024009603842
  0
ENDBLK
  5
433
330
429
100
AcDbEntity
  8
0
100
AcDbBlockEnd
  0
BLOCK
  5
440
330
436
100
AcDbEntity
  8
0
100
AcDbBlockBegin
  2
*D1013
 70
     1
 71
     0
 10
0.0
 20
0.0
 30
0.0
  3
*D1013
  1

  0
LINE
  5
437
330
436
100
AcDbEntity
  8
1
  6
Continuous
 62
     2
100
AcDbLine
 10
377.4221637976688
 20
375.2613839518926
 30
0.0
 11
272.4221637976681
 21
375.2613839518926
 31
0.0
  0
LINE
  5
438
330
436
100
AcDbEntity
  8
1
  6
Continuous
 62
     2
100
AcDbLine
 10
272.4221637976681
 20
389.4633336302319
 30
0.0
 11
272.4221637976681
 21
372.2613839518926
 31
0.0
  0
LINE
  5
439
330
436
100
AcDbEntity
  8
1
  6
Continuous
 62
     2
100
AcDbLine
 10
272.4221637976681
 20
429.8527020160298
 30
0.0
 11
272.4221637976681
 21
409.4773592547111
 31
0.0
  0
LINE
  5
43A
330
436
100
AcDbEntity
  8
1
  6
Continuous
 62
     2
100
AcDbLine
 10
377.4221637976688
 20
429.8527020160298
 30
0.0
 11
377.4221637976688
 21
372.2613839518926
 31
0.0
  0
LINE
  5
43B
330
436
100
AcDbEntity
  8
1
 62
     2
100
AcDbLine
 10
377.4221637976688
 20
375.2613839518926
 30
0.0
 11
367.8221637976687
 21
372.6890717045538
 31
0.0
  0
LINE
  5
43C
330
436
100
AcDbEntity
  8
1
 62
     2
100
AcDbLine
 10
377.4221637976688
 20
375.2613839518926
 30
0.0
 11
367.8221637976687
 21
377.8336961992314
 31
0.0
  0
LINE
  5
43D
330
436
100
AcDbEntity
  8
1
 62
     2
100
AcDbLine
 10
272.4221637976681
 20
375.2613839518926
 30
0.0
 11
282.0221637976681
 21
377.8336961992314
 31
0.0
  0
LINE
  5
43E
330
436
100
AcDbEntity
  8
1
 62
     2
100
AcDbLine
 10
272.4221637976681
 20
375.2613839518926
 30
0.0
 11
282.0221637976681
 21
372.6890717045538
 31
0.0
  0
MTEXT
  5
43F
330
436
100
AcDbEntity
  8
1
 62
     2
100
AcDbMText
 10
311.5408133183949
 20
377.3613839518926
 30
0.0
 40
9.6
 41
0.0
 71
     7
 72
     1
  1
105
  7
CONVERTER_1
 11
0.9999999999970621
 21
2.424068405545307E-6
 31
0.0
 73
     1
 44
0.60024009603842
  0
ENDBLK
  5
441
330
436
100
AcDbEntity
  8
0
100
AcDbBlockEnd
  0
BLOCK
  5
44F
330
444
100
AcDbEntity
  8
0
100
AcDbBlockBegin
  2
*D1114
 70
     1
 71
     0
 10
0.0
 20
0.0
 30
0.0
  3
*D1114
  1

  0
LINE
  5
445
330
444
100
AcDbEntity
  8
1
  6
Continuous
 62
     2
100
AcDbLine
 10
227.3301438769163
 20
709.3527020160296
 30
0.0
 11
227.3301438769163
 21
728.5527020160297
 31
0.0
  0
LINE
  5
446
330
444
100
AcDbEntity
  8
1
  6
Continuous
 62
     2
100
AcDbLine
 10
227.3301438769163
 20
694.3527020160296
 30
0.0
 11
227.3301438769163
 21
709.3527020160296
 31
0.0
  0
LINE
  5
447
330
444
100
AcDbEntity
  8
1
  6
Continuous
 62
     2
100
AcDbLine
 10
227.3301438769163
 20
675.1527020160296
 30
0.0
 11
227.3301438769163
 21
694.3527020160296
 31
0.0
  0
LINE
  5
448
330
444
100
AcDbEntity
  8
1
  6
Continuous
 62
     2
100
AcDbLine
 10
239.4221637976683
 20
694.3527020160296
 30
0.0
 11
224.3301438769163
 21
694.3527020160296
 31
0.0
  0
LINE
  5
449
330
444
100
AcDbEntity
  8
1
  6
Continuous
 62
     2
100
AcDbLine
 10
271.2971637976693
 20
709.3527020160296
 30
0.0
 11
224.3301438769163
 21
709.3527020160296
 31
0.0
  0
LINE
  5
44A
330
444
100
AcDbEntity
  8
1
 62
     2
100
AcDbLine
 10
227.3301438769163
 20
694.3527020160296
 30
0.0
 11
229.9024561242551
 21
684.7527020160296
 31
0.0
  0
LINE
  5
44B
330
444
100
AcDbEntity
  8
1
 62
     2
100
AcDbLine
 10
227.3301438769163
 20
694.3527020160296
 30
0.0
 11
224.7578316295775
 21
684.7527020160296
 31
0.0
  0
LINE
  5
44C
330
444
100
AcDbEntity
  8
1
 62
     2
100
AcDbLine
 10
227.3301438769163
 20
709.3527020160296
 30
0.0
 11
224.7578316295775
 21
718.9527020160297
 31
0.0
  0
LINE
  5
44D
330
444
100
AcDbEntity
  8
1
 62
     2
100
AcDbLine
 10
227.3301438769163
 20
709.3527020160296
 30
0.0
 11
229.9024561242551
 21
718.9527020160297
 31
0.0
  0
MTEXT
  5
44E
330
444
100
AcDbEntity
  8
1
 62
     2
100
AcDbMText
 10
224.3301438769163
 20
697.146123152036
 30
0.0
 40
9.6
 41
0.0
 71
     7
 72
     1
  1
15
  7
CONVERTER_1
 11
0.0
 21
1.0
 31
0.0
 73
     1
 44
0.60024009603842
  0
ENDBLK
  5
450
330
444
100
AcDbEntity
  8
0
100
AcDbBlockEnd
  0
BLOCK
  5
45E
330
453
100
AcDbEntity
  8
0
100
AcDbBlockBegin
  2
*D1215
 70
     1
 71
     0
 10
0.0
 20
0.0
 30
0.0
  3
*D1215
  1

  0
LINE
  5
454
330
453
100
AcDbEntity
  8
1
  6
Continuous
 62
     2
100
AcDbLine
 10
227.3301438769163
 20
470.0527020160296
 30
0.0
 11
227.3301438769163
 21
450.8527020160296
 31
0.0
  0
LINE
  5
455
330
453
100
AcDbEntity
  8
1
  6
Continuous
 62
     2
100
AcDbLine
 10
227.3301438769163
 20
450.8527020160296
 30
0.0
 11
227.3301438769163
 21
435.8527020160296
 31
0.0
  0
LINE
  5
456
330
453
100
AcDbEntity
  8
1
  6
Continuous
 62
     2
100
AcDbLine
 10
227.3301438769163
 20
435.8527020160296
 30
0.0
 11
227.3301438769163
 21
416.6527020160297
 31
0.0
  0
LINE
  5
457
330
453
100
AcDbEntity
  8
1
  6
Continuous
 62
     2
100
AcDbLine
 10
271.2971637976693
 20
435.8527020160296
 30
0.0
 11
224.3301438769163
 21
435.8527020160296
 31
0.0
  0
LINE
  5
458
330
453
100
AcDbEntity
  8
1
  6
Continuous
 62
     2
100
AcDbLine
 10
239.4221637976683
 20
450.8527020160296
 30
0.0
 11
224.3301438769163
 21
450.8527020160296
 31
0.0
  0
LINE
  5
459
330
453
100
AcDbEntity
  8
1
 62
     2
100
AcDbLine
 10
227.3301438769163
 20
450.8527020160296
 30
0.0
 11
224.7578316295775
 21
460.4527020160297
 31
0.0
  0
LINE
  5
45A
330
453
100
AcDbEntity
  8
1
 62
     2
100
AcDbLine
 10
227.3301438769163
 20
450.8527020160296
 30
0.0
 11
229.9024561242551
 21
460.4527020160297
 31
0.0
  0
LINE
  5
45B
330
453
100
AcDbEntity
  8
1
 62
     2
100
AcDbLine
 10
227.3301438769163
 20
435.8527020160296
 30
0.0
 11
229.9024561242551
 21
426.2527020160296
 31
0.0
  0
LINE
  5
45C
330
453
100
AcDbEntity
  8
1
 62
     2
100
AcDbLine
 10
227.3301438769163
 20
435.8527020160296
 30
0.0
 11
224.7578316295775
 21
426.2527020160296
 31
0.0
  0
MTEXT
  5
45D
330
453
100
AcDbEntity
  8
1
 62
     2
100
AcDbMText
 10
224.3301438769163
 20
437.9784023546115
 30
0.0
 40
9.6
 41
0.0
 71
     7
 72
     1
  1
15
  7
CONVERTER_1
 11
0.0
 21
1.0
 31
0.0
 73
     1
 44
0.60024009603842
  0
ENDBLK
  5
45F
330
453
100
AcDbEntity
  8
0
100
AcDbBlockEnd
  0
BLOCK
  5
46D
330
462
100
AcDbEntity
  8
0
100
AcDbBlockBegin
  2
*D1316
 70
     1
 71
     0
 10
0.0
 20
0.0
 30
0.0
  3
*D1316
  1

  0
LINE
  5
463
330
462
100
AcDbEntity
  8
1
  6
Continuous
 62
     2
100
AcDbLine
 10
951.9416901343037
 20
343.1959748444027
 30
0.0
 11
932.7416901343037
 21
343.1959748444027
 31
0.0
  0
LINE
  5
464
330
462
100
AcDbEntity
  8
1
  6
Continuous
 62
     2
100
AcDbLine
 10
963.9416901343037
 20
343.1959748444027
 30
0.0
 11
951.9416901343037
 21
343.1959748444027
 31
0.0
  0
LINE
  5
465
330
462
100
AcDbEntity
  8
1
  6
Continuous
 62
     2
100
AcDbLine
 10
983.1416901343038
 20
343.1959748444027
 30
0.0
 11
963.9416901343037
 21
343.1959748444027
 31
0.0
  0
LINE
  5
466
330
462
100
AcDbEntity
  8
1
  6
Continuous
 62
     2
100
AcDbLine
 10
963.9416901343037
 20
274.3892047233962
 30
0.0
 11
963.9416901343037
 21
346.1959748444027
 31
0.0
  0
LINE
  5
467
330
462
100
AcDbEntity
  8
1
  6
Continuous
 62
     2
100
AcDbLine
 10
951.9416901343037
 20
286.2392047233959
 30
0.0
 11
951.9416901343037
 21
346.1959748444027
 31
0.0
  0
LINE
  5
468
330
462
100
AcDbEntity
  8
1
 62
     2
100
AcDbLine
 10
963.9416901343037
 20
343.1959748444027
 30
0.0
 11
973.5416901343037
 21
345.7682870917415
 31
0.0
  0
LINE
  5
469
330
462
100
AcDbEntity
  8
1
 62
     2
100
AcDbLine
 10
963.9416901343037
 20
343.1959748444027
 30
0.0
 11
973.5416901343037
 21
340.6236625970639
 31
0.0
  0
LINE
  5
46A
330
462
100
AcDbEntity
  8
1
 62
     2
100
AcDbLine
 10
951.9416901343037
 20
343.1959748444027
 30
0.0
 11
942.3416901343037
 21
340.6236625970639
 31
0.0
  0
LINE
  5
46B
330
462
100
AcDbEntity
  8
1
 62
     2
100
AcDbLine
 10
951.9416901343037
 20
343.1959748444027
 30
0.0
 11
942.3416901343037
 21
345.7682870917415
 31
0.0
  0
MTEXT
  5
46C
330
462
100
AcDbEntity
  8
1
 62
     2
100
AcDbMText
 10
951.2742559812456
 20
345.2959748444027
 30
0.0
 40
9.6
 41
0.0
 71
     7
 72
     1
  1
12
  7
CONVERTER_1
 11
0.9999999999970621
 21
2.424068405545307E-6
 31
0.0
 73
     1
 44
0.60024009603842
  0
ENDBLK
  5
46E
330
462
100
AcDbEntity
  8
0
100
AcDbBlockEnd
  0
BLOCK
  5
47C
330
471
100
AcDbEntity
  8
0
100
AcDbBlockBegin
  2
*D1417
 70
     1
 71
     0
 10
0.0
 20
0.0
 30
0.0
  3
*D1417
  1

  0
LINE
  5
472
330
471
100
AcDbEntity
  8
1
  6
Continuous
 62
     2
100
AcDbLine
 10
696.4416901343028
 20
343.1959748444027
 30
0.0
 11
677.2416901343028
 21
343.1959748444027
 31
0.0
  0
LINE
  5
473
330
471
100
AcDbEntity
  8
1
  6
Continuous
 62
     2
100
AcDbLine
 10
708.4416901343028
 20
343.1959748444027
 30
0.0
 11
696.4416901343028
 21
343.1959748444027
 31
0.0
  0
LINE
  5
474
330
471
100
AcDbEntity
  8
1
  6
Continuous
 62
     2
100
AcDbLine
 10
727.6416901343029
 20
343.1959748444027
 30
0.0
 11
708.4416901343028
 21
343.1959748444027
 31
0.0
  0
LINE
  5
475
330
471
100
AcDbEntity
  8
1
  6
Continuous
 62
     2
100
AcDbLine
 10
708.4416901343028
 20
286.389204723396
 30
0.0
 11
708.4416901343028
 21
346.1959748444027
 31
0.0
  0
LINE
  5
476
330
471
100
AcDbEntity
  8
1
  6
Continuous
 62
     2
100
AcDbLine
 10
696.4416901343028
 20
274.3892047233962
 30
0.0
 11
696.4416901343028
 21
346.1959748444027
 31
0.0
  0
LINE
  5
477
330
471
100
AcDbEntity
  8
1
 62
     2
100
AcDbLine
 10
708.4416901343028
 20
343.1959748444027
 30
0.0
 11
718.0416901343028
 21
345.7682870917415
 31
0.0
  0
LINE
  5
478
330
471
100
AcDbEntity
  8
1
 62
     2
100
AcDbLine
 10
708.4416901343028
 20
343.1959748444027
 30
0.0
 11
718.0416901343028
 21
340.6236625970639
 31
0.0
  0
LINE
  5
479
330
471
100
AcDbEntity
  8
1
 62
     2
100
AcDbLine
 10
696.4416901343028
 20
343.1959748444027
 30
0.0
 11
686.8416901343028
 21
340.6236625970639
 31
0.0
  0
LINE
  5
47A
330
471
100
AcDbEntity
  8
1
 62
     2
100
AcDbLine
 10
696.4416901343028
 20
343.1959748444027
 30
0.0
 11
686.8416901343028
 21
345.7682870917415
 31
0.0
  0
MTEXT
  5
47B
330
471
100
AcDbEntity
  8
1
 62
     2
100
AcDbMText
 10
695.9236904472735
 20
345.2959748444027
 30
0.0
 40
9.6
 41
0.0
 71
     7
 72
     1
  1
12
  7
CONVERTER_1
 11
0.9999999999970621
 21
2.424068405545307E-6
 31
0.0
 73
     1
 44
0.60024009603842
  0
ENDBLK
  5
47D
330
471
100
AcDbEntity
  8
0
100
AcDbBlockEnd
  0
BLOCK
  5
489
330
480
100
AcDbEntity
  8
0
100
AcDbBlockBegin
  2
*D1518
 70
     1
 71
     0
 10
0.0
 20
0.0
 30
0.0
  3
*D1518
  1

  0
LINE
  5
481
330
480
100
AcDbEntity
  8
1
  6
Continuous
 62
     2
100
AcDbLine
 10
951.9416901343037
 20
343.1959748444027
 30
0.0
 11
708.4416901343028
 21
343.1959748444027
 31
0.0
  0
LINE
  5
482
330
480
100
AcDbEntity
  8
1
  6
Continuous
 62
     2
100
AcDbLine
 10
951.9416901343037
 20
286.2392047233959
 30
0.0
 11
951.9416901343037
 21
346.1959748444027
 31
0.0
  0
LINE
  5
483
330
480
100
AcDbEntity
  8
1
  6
Continuous
 62
     2
100
AcDbLine
 10
708.4416901343028
 20
286.389204723396
 30
0.0
 11
708.4416901343028
 21
346.1959748444027
 31
0.0
  0
LINE
  5
484
330
480
100
AcDbEntity
  8
1
 62
     2
100
AcDbLine
 10
951.9416901343037
 20
343.1959748444027
 30
0.0
 11
942.3416901343037
 21
340.6236625970639
 31
0.0
  0
LINE
  5
485
330
480
100
AcDbEntity
  8
1
 62
     2
100
AcDbLine
 10
951.9416901343037
 20
343.1959748444027
 30
0.0
 11
942.3416901343037
 21
345.7682870917415
 31
0.0
  0
LINE
  5
486
330
480
100
AcDbEntity
  8
1
 62
     2
100
AcDbLine
 10
708.4416901343028
 20
343.1959748444027
 30
0.0
 11
718.0416901343028
 21
345.7682870917415
 31
0.0
  0
LINE
  5
487
330
480
100
AcDbEntity
  8
1
 62
     2
100
AcDbLine
 10
708.4416901343028
 20
343.1959748444027
 30
0.0
 11
718.0416901343028
 21
340.6236625970639
 31
0.0
  0
MTEXT
  5
488
330
480
100
AcDbEntity
  8
1
 62
     2
100
AcDbMText
 10
814.7645774751404
 20
345.2959748444027
 30
0.0
 40
9.6
 41
0.0
 71
     7
 72
     1
  1
機幅
  7
CONVERTER_2
 11
0.9999999999970621
 21
2.424068405545307E-6
 31
0.0
 73
     1
 44
0.60024009603842
  0
ENDBLK
  5
48A
330
480
100
AcDbEntity
  8
0
100
AcDbBlockEnd
  0
BLOCK
  5
496
330
48D
100
AcDbEntity
  8
0
100
AcDbBlockBegin
  2
*D1619
 70
     1
 71
     0
 10
0.0
 20
0.0
 30
0.0
  3
*D1619
  1

  0
LINE
  5
48E
330
48D
100
AcDbEntity
  8
1
  6
Continuous
 62
     2
100
AcDbLine
 10
242.4221637976683
 20
375.2613839518927
 30
0.0
 11
272.4221637976682
 21
375.2613839518927
 31
0.0
  0
LINE
  5
48F
330
48D
100
AcDbEntity
  8
1
  6
Continuous
 62
     2
100
AcDbLine
 10
272.4221637976682
 20
429.8527020160298
 30
0.0
 11
272.4221637976682
 21
372.2613839518927
 31
0.0
  0
LINE
  5
490
330
48D
100
AcDbEntity
  8
1
  6
Continuous
 62
     2
100
AcDbLine
 10
242.4221637976683
 20
447.8527020160298
 30
0.0
 11
242.4221637976683
 21
372.2613839518927
 31
0.0
  0
LINE
  5
491
330
48D
100
AcDbEntity
  8
1
 62
     2
100
AcDbLine
 10
242.4221637976683
 20
375.2613839518927
 30
0.0
 11
252.0221637976682
 21
377.8336961992315
 31
0.0
  0
LINE
  5
492
330
48D
100
AcDbEntity
  8
1
 62
     2
100
AcDbLine
 10
242.4221637976683
 20
375.2613839518927
 30
0.0
 11
252.0221637976682
 21
372.6890717045539
 31
0.0
  0
LINE
  5
493
330
48D
100
AcDbEntity
  8
1
 62
     2
100
AcDbLine
 10
272.4221637976682
 20
375.2613839518927
 30
0.0
 11
262.8221637976682
 21
372.6890717045539
 31
0.0
  0
LINE
  5
494
330
48D
100
AcDbEntity
  8
1
 62
     2
100
AcDbLine
 10
272.4221637976682
 20
375.2613839518927
 30
0.0
 11
262.8221637976682
 21
377.8336961992315
 31
0.0
  0
MTEXT
  5
495
330
48D
100
AcDbEntity
  8
1
 62
     2
100
AcDbMText
 10
249.6098066404119
 20
378.2613839518927
 30
0.0
 40
9.6
 41
0.0
 71
     7
 72
     1
  1
30
  7
CONVERTER_1
 11
0.9999999999970621
 21
2.424068405545307E-6
 31
0.0
 73
     1
 44
0.60024009603842
  0
ENDBLK
  5
497
330
48D
100
AcDbEntity
  8
0
100
AcDbBlockEnd
  0
BLOCK
  5
4A3
330
49A
100
AcDbEntity
  8
0
100
AcDbBlockBegin
  2
*D1720
 70
     1
 71
     0
 10
0.0
 20
0.0
 30
0.0
  3
*D1720
  1

  0
LINE
  5
49B
330
49A
100
AcDbEntity
  8
1
  6
Continuous
 62
     2
100
AcDbLine
 10
242.4221637976683
 20
397.4931460430277
 30
0.0
 11
278.4221637976693
 21
397.4931460430277
 31
0.0
  0
LINE
  5
49C
330
49A
100
AcDbEntity
  8
1
  6
Continuous
 62
     2
100
AcDbLine
 10
278.4221637976693
 20
428.7277020160297
 30
0.0
 11
278.4221637976693
 21
394.4931460430277
 31
0.0
  0
LINE
  5
49D
330
49A
100
AcDbEntity
  8
1
  6
Continuous
 62
     2
100
AcDbLine
 10
242.4221637976683
 20
447.8527020160297
 30
0.0
 11
242.4221637976683
 21
394.4931460430277
 31
0.0
  0
LINE
  5
49E
330
49A
100
AcDbEntity
  8
1
 62
     2
100
AcDbLine
 10
242.4221637976683
 20
397.4931460430277
 30
0.0
 11
252.0221637976682
 21
400.0654582903665
 31
0.0
  0
LINE
  5
49F
330
49A
100
AcDbEntity
  8
1
 62
     2
100
AcDbLine
 10
242.4221637976683
 20
397.4931460430277
 30
0.0
 11
252.0221637976682
 21
394.9208337956889
 31
0.0
  0
LINE
  5
4A0
330
49A
100
AcDbEntity
  8
1
 62
     2
100
AcDbLine
 10
278.4221637976693
 20
397.4931460430277
 30
0.0
 11
268.8221637976693
 21
394.9208337956889
 31
0.0
  0
LINE
  5
4A1
330
49A
100
AcDbEntity
  8
1
 62
     2
100
AcDbLine
 10
278.4221637976693
 20
397.4931460430277
 30
0.0
 11
268.8221637976693
 21
400.0654582903665
 31
0.0
  0
MTEXT
  5
4A2
330
49A
100
AcDbEntity
  8
1
 62
     2
100
AcDbMText
 10
253.9310898070236
 20
401.9331460430277
 30
0.0
 40
9.6
 41
0.0
 71
     7
 72
     1
  1
36
  7
CONVERTER_1
 11
0.9999999999970621
 21
2.424068405545307E-6
 31
0.0
 73
     1
 44
0.60024009603842
  0
ENDBLK
  5
4A4
330
49A
100
AcDbEntity
  8
0
100
AcDbBlockEnd
  0
BLOCK
  5
4AD
330
4A7
100
AcDbEntity
  8
0
100
AcDbBlockBegin
  2
*D1821
 70
     1
 71
     0
 10
0.0
 20
0.0
 30
0.0
  3
*D1821
  1

  0
LINE
  5
4A8
330
4A7
100
AcDbEntity
  8
1
  6
Continuous
 62
     2
100
AcDbLine
 10
566.5294957453409
 20
271.120807924871
 30
0.0
 11
616.809495745341
 21
271.120807924871
 31
0.0
  0
LINE
  5
4A9
330
4A7
100
AcDbEntity
  8
1
  6
Continuous
 62
     2
100
AcDbLine
 10
541.4975888965903
 20
281.2763742504288
 30
0.0
 11
566.5294957453409
 21
271.120807924871
 31
0.0
  0
LINE
  5
4AA
330
4A7
100
AcDbEntity
  8
1
 62
     2
100
AcDbLine
 10
541.4975888965903
 20
281.2763742504288
 30
0.0
 11
551.3604019147059
 21
280.0509316089727
 31
0.0
  0
LINE
  5
4AB
330
4A7
100
AcDbEntity
  8
1
 62
     2
100
AcDbLine
 10
541.4975888965903
 20
281.2763742504288
 30
0.0
 11
549.4263142023262
 21
275.2837032829893
 31
0.0
  0
MTEXT
  5
4AC
330
4A7
100
AcDbEntity
  8
1
 62
     2
100
AcDbMText
 10
574.9054957453872
 20
273.220769760338
 30
0.0
 40
9.6
 41
0.0
 71
     7
 72
     1
  1
\C2;{\Fgdt;n}\C2;27.2
  7
CONVERTER_1
 11
0.9999999999970621
 21
2.424068405545307E-6
 31
0.0
 73
     1
 44
0.60024009603842
  0
ENDBLK
  5
4AE
330
4A7
100
AcDbEntity
  8
0
100
AcDbBlockEnd
  0
BLOCK
  5
4B6
330
4B0
100
AcDbEntity
  8
0
100
AcDbBlockBegin
  2
*D1922
 70
     1
 71
     0
 10
0.0
 20
0.0
 30
0.0
  3
*D1922
  1

  0
LINE
  5
4B1
330
4B0
100
AcDbEntity
  8
1
  6
Continuous
 62
     2
100
AcDbLine
 10
222.172257449253
 20
207.489658510987
 30
0.0
 11
143.812257449253
 21
207.489658510987
 31
0.0
  0
LINE
  5
4B2
330
4B0
100
AcDbEntity
  8
1
  6
Continuous
 62
     2
100
AcDbLine
 10
251.3979959063436
 20
217.7096478996197
 30
0.0
 11
222.172257449253
 21
207.489658510987
 31
0.0
  0
LINE
  5
4B3
330
4B0
100
AcDbEntity
  8
1
 62
     2
100
AcDbLine
 10
251.3979959063436
 20
217.7096478996197
 30
0.0
 11
243.1851809288069
 21
212.1126433040742
 31
0.0
  0
LINE
  5
4B4
330
4B0
100
AcDbEntity
  8
1
 62
     2
100
AcDbLine
 10
251.3979959063436
 20
217.7096478996197
 30
0.0
 11
241.4869872014427
 21
216.9689072235474
 31
0.0
  0
MTEXT
  5
4B5
330
4B0
100
AcDbEntity
  8
1
 62
     2
100
AcDbMText
 10
142.1802574493918
 20
209.5895440173881
 30
0.0
 40
9.6
 41
0.0
 71
     7
 72
     1
  1
\C2;P.C.D{\Fgdt;n}\C2;105
  7
CONVERTER_1
 11
0.9999999999970621
 21
2.424068405545307E-6
 31
0.0
 73
     1
 44
0.60024009603842
  0
ENDBLK
  5
4B7
330
4B0
100
AcDbEntity
  8
0
100
AcDbBlockEnd
  0
BLOCK
  5
4BF
330
4B9
100
AcDbEntity
  8
0
100
AcDbBlockBegin
  2
*D2023
 70
     1
 71
     0
 10
0.0
 20
0.0
 30
0.0
  3
*D2023
  1

  0
LINE
  5
4BA
330
4B9
100
AcDbEntity
  8
1
  6
Continuous
 62
     2
100
AcDbLine
 10
221.951837941196
 20
252.912324005956
 30
0.0
 11
137.591837941196
 21
252.912324005956
 31
0.0
  0
LINE
  5
4BB
330
4B9
100
AcDbEntity
  8
1
  6
Continuous
 62
     2
100
AcDbLine
 10
250.6500998803389
 20
276.2849244365164
 30
0.0
 11
221.951837941196
 21
252.912324005956
 31
0.0
  0
LINE
  5
4BC
330
4B9
100
AcDbEntity
  8
1
 62
     2
100
AcDbLine
 10
250.6500998803389
 20
276.2849244365164
 30
0.0
 11
244.8308191689751
 21
268.22807875721
 31
0.0
  0
LINE
  5
4BD
330
4B9
100
AcDbEntity
  8
1
 62
     2
100
AcDbLine
 10
250.6500998803389
 20
276.2849244365164
 30
0.0
 11
241.5820321128919
 21
272.2171317595481
 31
0.0
  0
MTEXT
  5
4BE
330
4B9
100
AcDbEntity
  8
1
 62
     2
100
AcDbMText
 10
135.9598379413347
 20
255.012209512357
 30
0.0
 40
9.6
 41
0.0
 71
     7
 72
     1
  1
\C2;P.C.D{\Fgdt;n}\C2;22.5
  7
CONVERTER_1
 11
0.9999999999970621
 21
2.424068405545307E-6
 31
0.0
 73
     1
 44
0.60024009603842
  0
ENDBLK
  5
4C0
330
4B9
100
AcDbEntity
  8
0
100
AcDbBlockEnd
  0
BLOCK
  5
4C8
330
4C2
100
AcDbEntity
  8
0
100
AcDbBlockBegin
  2
*D2124
 70
     1
 71
     0
 10
0.0
 20
0.0
 30
0.0
  3
*D2124
  1

  0
LINE
  5
4C3
330
4C2
100
AcDbEntity
  8
1
  6
Continuous
 62
     2
100
AcDbLine
 10
220.81808416609
 20
333.712462666757
 30
0.0
 11
182.29808416609
 21
333.712462666757
 31
0.0
  0
LINE
  5
4C4
330
4C2
100
AcDbEntity
  8
1
  6
Continuous
 62
     2
100
AcDbLine
 10
249.0201149622039
 20
296.886706573015
 30
0.0
 11
220.81808416609
 21
333.712462666757
 31
0.0
  0
LINE
  5
4C5
330
4C2
100
AcDbEntity
  8
1
 62
     2
100
AcDbLine
 10
249.0201149622039
 20
296.886706573015
 30
0.0
 11
241.1409857075738
 21
302.9444382018214
 31
0.0
  0
LINE
  5
4C6
330
4C2
100
AcDbEntity
  8
1
 62
     2
100
AcDbLine
 10
249.0201149622039
 20
296.886706573015
 30
0.0
 11
245.2254546823963
 21
306.0724206801849
 31
0.0
  0
MTEXT
  5
4C7
330
4C2
100
AcDbEntity
  8
1
 62
     2
100
AcDbMText
 10
178.0740841661362
 20
335.812424502224
 30
0.0
 40
9.6
 41
0.0
 71
     7
 72
     1
  1
\C2;{\Fgdt;n}\C2;34
  7
CONVERTER_1
 11
0.9999999999970621
 21
2.424068405545307E-6
 31
0.0
 73
     1
 44
0.60024009603842
  0
ENDBLK
  5
4C9
330
4C2
100
AcDbEntity
  8
0
100
AcDbBlockEnd
  0
BLOCK
  5
4D1
330
4CB
100
AcDbEntity
  8
0
100
AcDbBlockBegin
  2
*D2225
 70
     1
 71
     0
 10
0.0
 20
0.0
 30
0.0
  3
*D2225
  1

  0
LINE
  5
4CC
330
4CB
100
AcDbEntity
  8
1
  6
Continuous
 62
     2
100
AcDbLine
 10
399.8997636137959
 20
406.5167856803179
 30
0.0
 11
457.8597636137959
 21
406.5167856803179
 31
0.0
  0
LINE
  5
4CD
330
4CB
100
AcDbEntity
  8
1
  6
Continuous
 62
     2
100
AcDbLine
 10
373.3376270927872
 20
433.8795065454656
 30
0.0
 11
399.8997636137959
 21
406.5167856803179
 31
0.0
  0
LINE
  5
4CE
330
4CB
100
AcDbEntity
  8
1
 62
     2
100
AcDbLine
 10
373.3376270927872
 20
433.8795065454656
 30
0.0
 11
381.8700352776821
 21
428.7829586094458
 31
0.0
  0
LINE
  5
4CF
330
4CB
100
AcDbEntity
  8
1
 62
     2
100
AcDbLine
 10
373.3376270927872
 20
433.8795065454656
 30
0.0
 11
378.1786353683546
 21
425.1995624688199
 31
0.0
  0
MTEXT
  5
4D0
330
4CB
100
AcDbEntity
  8
1
 62
     2
100
AcDbMText
 10
416.7237636138653
 20
408.6167284335184
 30
0.0
 40
9.6
 41
0.0
 71
     7
 72
     1
  1
\C2;4-{\Fgdt;n}\C2;5.5
  7
CONVERTER_1
 11
0.9999999999970621
 21
2.424068405545307E-6
 31
0.0
 73
     1
 44
0.60024009603842
  0
ENDBLK
  5
4D2
330
4CB
100
AcDbEntity
  8
0
100
AcDbBlockEnd
  0
ENDSEC
  0
SECTION
  2
ENTITIES
  0
INSERT
  5
37
330
1F
100
AcDbEntity
  8
0
100
AcDbBlockReference
  2
Zuwaku-A3-web
 10
590.9999999999994
 20
402.0
 30
0.0
 41
3.0
 42
3.0
 43
3.0
  0
LINE
  5
62
330
1F
100
AcDbEntity
  8
1
  6
Continuous
 62
     3
100
AcDbLine
 10
525.0115853065393
 20
283.2892047233964
 30
0.0
 11
525.0115853065393
 21
278.8892047233967
 31
0.0
  0
LINE
  5
63
330
1F
100
AcDbEntity
  8
1
  6
Continuous
 62
     3
100
AcDbLine
 10
523.5973717441659
 20
277.4749911610236
 30
0.0
 11
525.0115853065393
 21
278.8892047233967
 31
0.0
  0
LINE
  5
64
330
1F
100
AcDbEntity
  8
1
  6
Continuous
 62
     3
100
AcDbLine
 10
526.4257988689121
 20
277.4749911610236
 30
0.0
 11
525.0115853065393
 21
278.8892047233967
 31
0.0
  0
LINE
  5
65
330
1F
100
AcDbEntity
  8
1
  6
Continuous
 62
     3
100
AcDbLine
 10
525.0115853065393
 20
293.8892047233967
 30
0.0
 11
525.0115853065393
 21
289.4892047233966
 31
0.0
  0
LINE
  5
66
330
1F
100
AcDbEntity
  8
1
  6
Continuous
 62
     3
100
AcDbLine
 10
525.0115853065393
 20
293.8892047233967
 30
0.0
 11
523.5973717441659
 21
295.3034182857698
 31
0.0
  0
LINE
  5
67
330
1F
100
AcDbEntity
  8
1
  6
Continuous
 62
     3
100
AcDbLine
 10
525.0115853065393
 20
293.8892047233967
 30
0.0
 11
526.4257988689121
 21
295.3034182857698
 31
0.0
  0
LINE
  5
68
330
1F
100
AcDbEntity
  8
1
  6
DASH_CENTER
 62
     3
100
AcDbLine
 10
482.4384998536791
 20
202.0142047233961
 30
0.0
 11
482.4384998536791
 21
208.7642047233961
 31
0.0
  0
LINE
  5
69
330
1F
100
AcDbEntity
  8
1
  6
DASH_CENTER
 62
     3
100
AcDbLine
 10
479.0634998536791
 20
205.3892047233961
 30
0.0
 11
485.8134998536791
 21
205.3892047233961
 31
0.0
  0
LINE
  5
6A
330
1F
100
AcDbEntity
  8
1
  6
DASH_CENTER
 62
     3
100
AcDbLine
 10
252.4384998536791
 20
247.0142047233961
 30
0.0
 11
252.4384998536791
 21
253.7642047233962
 31
0.0
  0
LINE
  5
6B
330
1F
100
AcDbEntity
  8
1
  6
DASH_CENTER
 62
     3
100
AcDbLine
 10
249.0634998536791
 20
250.3892047233962
 30
0.0
 11
255.8134998536791
 21
250.3892047233962
 31
0.0
  0
LINE
  5
6C
330
1F
100
AcDbEntity
  8
1
  6
DASH_CENTER
 62
     3
100
AcDbLine
 10
252.4384998536791
 20
202.0142047233961
 30
0.0
 11
252.4384998536791
 21
208.7642047233961
 31
0.0
  0
LINE
  5
6D
330
1F
100
AcDbEntity
  8
1
  6
DASH_CENTER
 62
     3
100
AcDbLine
 10
249.0634998536791
 20
205.3892047233961
 30
0.0
 11
255.8134998536791
 21
205.3892047233961
 31
0.0
  0
LINE
  5
6E
330
1F
100
AcDbEntity
  8
1
  6
DASH_CENTER
 62
     3
100
AcDbLine
 10
482.4384998536791
 20
247.0142047233961
 30
0.0
 11
482.4384998536791
 21
253.7642047233962
 31
0.0
  0
LINE
  5
6F
330
1F
100
AcDbEntity
  8
1
  6
DASH_CENTER
 62
     3
100
AcDbLine
 10
479.0634998536791
 20
250.3892047233962
 30
0.0
 11
485.8134998536791
 21
250.3892047233962
 31
0.0
  0
LINE
  5
70
330
1F
100
AcDbEntity
  8
1
  6
Continuous
 62
     3
100
AcDbLine
 10
805.602218214847
 20
148.577308480105
 30
0.0
 11
870.3241502683361
 21
148.577308480105
 31
0.0
  0
LINE
  5
71
330
1F
100
AcDbEntity
  8
1
  6
DASH_CENTER
 62
     3
100
AcDbLine
 10
528.8952492505289
 20
265.9892047233955
 30
0.0
 11
504.8981115045565
 21
265.9892047233956
 31
0.0
  0
LINE
  5
72
330
1F
100
AcDbEntity
  8
1
  6
DASH_CENTER
 62
     3
100
AcDbLine
 10
504.8981115045565
 20
265.9892047233956
 30
0.0
 11
504.8981115045565
 21
153.2317878512558
 31
0.0
  0
LINE
  5
73
330
1F
100
AcDbEntity
  8
1
  6
Continuous
 62
     7
100
AcDbLine
 10
377.4221637976689
 20
438.8527020160296
 30
0.0
 11
377.4221637976689
 21
432.8527020160297
 31
0.0
  0
LINE
  5
74
330
1F
100
AcDbEntity
  8
1
  6
DASH_CENTER
 62
     3
100
AcDbLine
 10
236.802086138256
 20
283.3892047233962
 30
0.0
 11
281.4591857848872
 21
283.3892047233962
 31
0.0
  0
LINE
  5
75
330
1F
100
AcDbEntity
  8
1
  6
DASH_CENTER
 62
     3
100
AcDbLine
 10
259.373155629642
 20
261.191696020083
 30
0.0
 11
259.373155629642
 21
307.0342491256239
 31
0.0
  0
LINE
  5
76
330
1F
100
AcDbEntity
  8
1
  6
DASH_CENTER
 62
     3
100
AcDbLine
 10
278.42216379767
 20
177.4992781733834
 30
0.0
 11
278.42216379767
 21
171.4992781733834
 31
0.0
  0
LINE
  5
77
330
1F
100
AcDbEntity
  8
1
  6
DASH_CENTER
 62
     3
100
AcDbLine
 10
371.4221637976689
 20
177.5793812339891
 30
0.0
 11
371.4221637976689
 21
171.5793812339891
 31
0.0
  0
LINE
  5
78
330
1F
100
AcDbEntity
  8
1
  6
Continuous
 62
     7
100
AcDbLine
 10
272.4221637976691
 20
175.8892047233958
 30
0.0
 11
377.4221637976689
 21
175.8892047233958
 31
0.0
  0
LINE
  5
79
330
1F
100
AcDbEntity
  8
1
  6
Continuous
 62
     7
100
AcDbLine
 10
272.4221637976691
 20
173.8892047233958
 30
0.0
 11
272.4221637976691
 21
203.8892047233958
 31
0.0
  0
LINE
  5
7A
330
1F
100
AcDbEntity
  8
1
  6
Continuous
 62
     7
100
AcDbLine
 10
377.4221637976689
 20
173.8892047233956
 30
0.0
 11
272.4221637976691
 21
173.8892047233958
 31
0.0
  0
LINE
  5
7B
330
1F
100
AcDbEntity
  8
1
  6
Continuous
 62
     7
100
AcDbLine
 10
377.4221637976689
 20
203.889204723396
 30
0.0
 11
377.4221637976689
 21
173.8892047233956
 31
0.0
  0
LINE
  5
7C
330
1F
100
AcDbEntity
  8
1
  6
Continuous
 62
     7
100
AcDbLine
 10
274.4221637976691
 20
205.8892047233958
 30
0.0
 11
375.4221637976689
 21
205.8892047233958
 31
0.0
  0
LINE
  5
7D
330
1F
100
AcDbEntity
  8
1
  6
DOT_CENTER
 62
     3
100
AcDbLine
 10
371.4221637976689
 20
204.3892047233958
 30
0.0
 11
371.4221637976689
 21
191.3892047233958
 31
0.0
  0
LINE
  5
7E
330
1F
100
AcDbEntity
  8
1
  6
DOT_CENTER
 62
     3
100
AcDbLine
 10
366.9221637976689
 20
197.8892047233958
 30
0.0
 11
375.9221637976689
 21
197.8892047233958
 31
0.0
  0
LINE
  5
7F
330
1F
100
AcDbEntity
  8
1
  6
DOT_CENTER
 62
     3
100
AcDbLine
 10
278.4221637976691
 20
204.3892047233958
 30
0.0
 11
278.4221637976691
 21
191.3892047233958
 31
0.0
  0
LINE
  5
80
330
1F
100
AcDbEntity
  8
1
  6
DOT_CENTER
 62
     3
100
AcDbLine
 10
273.9221637976691
 20
197.8892047233958
 30
0.0
 11
282.9221637976691
 21
197.8892047233958
 31
0.0
  0
LINE
  5
81
330
1F
100
AcDbEntity
  8
1
  6
Continuous
100
AcDbLine
 10
301.9221637976689
 20
274.3892047233965
 30
0.0
 11
303.4058277416609
 21
274.3892047233965
 31
0.0
  0
LINE
  5
82
330
1F
100
AcDbEntity
  8
1
  6
Continuous
100
AcDbLine
 10
301.9221637976689
 20
271.3892047233965
 30
0.0
 11
303.4221637976689
 21
271.3892047233965
 31
0.0
  0
LINE
  5
83
330
1F
100
AcDbEntity
  8
4
  6
DASH_CENTER
100
AcDbLine
 10
296.4221637976689
 20
272.8892047233965
 30
0.0
 11
325.4221637976689
 21
272.8892047233965
 31
0.0
  0
LINE
  5
84
330
1F
100
AcDbEntity
  8
1
  6
Continuous
100
AcDbLine
 10
301.9221637976689
 20
269.3892047233965
 30
0.0
 11
301.9221637976689
 21
275.3892047233965
 31
0.0
  0
LINE
  5
85
330
1F
100
AcDbEntity
  8
4
  6
DASH_CENTER
100
AcDbLine
 10
310.9221637976689
 20
212.8892047233962
 30
0.0
 11
310.9221637976689
 21
287.3953059357726
 31
0.0
  0
LINE
  5
86
330
1F
100
AcDbEntity
  8
1
  6
Continuous
100
AcDbLine
 10
318.4058277416609
 20
274.3892047233965
 30
0.0
 11
319.9221637976689
 21
274.3892047233965
 31
0.0
  0
LINE
  5
87
330
1F
100
AcDbEntity
  8
1
  6
Continuous
100
AcDbLine
 10
318.4221637976689
 20
271.3892047233965
 30
0.0
 11
319.9221637976689
 21
271.3892047233965
 31
0.0
  0
LINE
  5
88
330
1F
100
AcDbEntity
  8
1
  6
Continuous
100
AcDbLine
 10
299.4221637976689
 20
271.7892047233963
 30
0.0
 11
299.4221637976689
 21
273.9892047233964
 31
0.0
  0
LINE
  5
89
330
1F
100
AcDbEntity
  8
1
  6
Continuous
100
AcDbLine
 10
322.4221637976689
 20
271.7892047233963
 30
0.0
 11
322.4221637976689
 21
273.9892047233964
 31
0.0
  0
LINE
  5
8A
330
1F
100
AcDbEntity
  8
1
  6
Continuous
100
AcDbLine
 10
300.4221637976689
 20
234.3892047233964
 30
0.0
 11
300.4221637976689
 21
240.3892047233964
 31
0.0
  0
LINE
  5
8B
330
1F
100
AcDbEntity
  8
1
  6
Continuous
100
AcDbLine
 10
300.4221637976689
 20
275.3892047233965
 30
0.0
 11
301.9221637976689
 21
275.3892047233965
 31
0.0
  0
LINE
  5
8C
330
1F
100
AcDbEntity
  8
1
  6
Continuous
100
AcDbLine
 10
321.4221637976689
 20
271.7892047233963
 30
0.0
 11
322.4221637976689
 21
271.7892047233963
 31
0.0
  0
LINE
  5
8D
330
1F
100
AcDbEntity
  8
1
  6
Continuous
100
AcDbLine
 10
321.4221637976689
 20
273.9892047233964
 30
0.0
 11
322.4221637976689
 21
273.9892047233964
 31
0.0
  0
LINE
  5
8E
330
1F
100
AcDbEntity
  8
1
  6
Continuous
100
AcDbLine
 10
299.4221637976689
 20
273.9892047233964
 30
0.0
 11
300.4221637976689
 21
273.9892047233964
 31
0.0
  0
LINE
  5
8F
330
1F
100
AcDbEntity
  8
1
  6
Continuous
100
AcDbLine
 10
299.4221637976689
 20
271.7892047233963
 30
0.0
 11
300.4221637976689
 21
271.7892047233963
 31
0.0
  0
LINE
  5
90
330
1F
100
AcDbEntity
  8
1
  6
Continuous
100
AcDbLine
 10
295.4221637976689
 20
261.1652047233966
 30
0.0
 11
295.4221637976689
 21
267.8892047233965
 31
0.0
  0
LINE
  5
91
330
1F
100
AcDbEntity
  8
1
  6
Continuous
100
AcDbLine
 10
296.9221637976689
 20
267.8892047233965
 30
0.0
 11
300.4221637976689
 21
267.8892047233965
 31
0.0
  0
LINE
  5
92
330
1F
100
AcDbEntity
  8
1
  6
Continuous
100
AcDbLine
 10
295.4221637976689
 20
245.8892047233964
 30
0.0
 11
296.9221637976689
 21
245.8892047233964
 31
0.0
  0
LINE
  5
93
330
1F
100
AcDbEntity
  8
4
  6
DASH_CENTER
100
AcDbLine
 10
296.4221637976689
 20
237.3892047233964
 30
0.0
 11
325.4221637976689
 21
237.3892047233964
 31
0.0
  0
LINE
  5
94
330
1F
100
AcDbEntity
  8
1
  6
Continuous
100
AcDbLine
 10
296.9221637976689
 20
261.0342047233967
 30
0.0
 11
296.9221637976689
 21
267.8892047233965
 31
0.0
  0
LINE
  5
95
330
1F
100
AcDbEntity
  8
1
  6
Continuous
100
AcDbLine
 10
296.9221637976689
 20
269.3892047233965
 30
0.0
 11
300.4221637976689
 21
269.3892047233965
 31
0.0
  0
LINE
  5
96
330
1F
100
AcDbEntity
  8
1
  6
Continuous
100
AcDbLine
 10
295.4221637976689
 20
248.8892047233964
 30
0.0
 11
296.9221637976689
 21
248.8892047233964
 31
0.0
  0
LINE
  5
97
330
1F
100
AcDbEntity
  8
1
  6
Continuous
100
AcDbLine
 10
298.4221637976689
 20
260.9032047233962
 30
0.0
 11
298.4221637976689
 21
264.3892047233965
 31
0.0
  0
LINE
  5
98
330
1F
100
AcDbEntity
  8
1
  6
Continuous
100
AcDbLine
 10
296.9221637976689
 20
261.3892047233965
 30
0.0
 11
298.4221637976689
 21
261.3892047233965
 31
0.0
  0
LINE
  5
99
330
1F
100
AcDbEntity
  8
1
  6
Continuous
100
AcDbLine
 10
300.4221637976689
 20
234.3892047233964
 30
0.0
 11
301.9221637976689
 21
234.3892047233964
 31
0.0
  0
LINE
  5
9A
330
1F
100
AcDbEntity
  8
1
  6
Continuous
100
AcDbLine
 10
301.3540637976689
 20
241.5642047233969
 30
0.0
 11
298.4221637976689
 21
243.8892047233964
 31
0.0
  0
LINE
  5
9B
330
1F
100
AcDbEntity
  8
1
  6
Continuous
100
AcDbLine
 10
297.49016379767
 20
242.7132047233966
 30
0.0
 11
300.4221637976689
 21
240.3892047233964
 31
0.0
  0
LINE
  5
9C
330
1F
100
AcDbEntity
  8
1
  6
Continuous
100
AcDbLine
 10
300.4221637976689
 20
269.3892047233965
 30
0.0
 11
300.4221637976689
 21
275.3892047233965
 31
0.0
  0
LINE
  5
9D
330
1F
100
AcDbEntity
  8
1
  6
Continuous
100
AcDbLine
 10
301.9221637976689
 20
234.3892047233964
 30
0.0
 11
301.9221637976689
 21
240.3892047233964
 31
0.0
  0
LINE
  5
9E
330
1F
100
AcDbEntity
  8
1
  6
Continuous
100
AcDbLine
 10
319.9221637976689
 20
269.3892047233965
 30
0.0
 11
319.9221637976689
 21
275.3892047233965
 31
0.0
  0
LINE
  5
9F
330
1F
100
AcDbEntity
  8
1
  6
Continuous
100
AcDbLine
 10
319.9221637976689
 20
234.3892047233964
 30
0.0
 11
319.9221637976689
 21
240.3892047233964
 31
0.0
  0
LINE
  5
A0
330
1F
100
AcDbEntity
  8
1
  6
Continuous
100
AcDbLine
 10
324.3540637976689
 20
242.7132047233966
 30
0.0
 11
321.42206379767
 21
240.3892047233964
 31
0.0
  0
LINE
  5
A1
330
1F
100
AcDbEntity
  8
1
  6
Continuous
100
AcDbLine
 10
321.4221637976689
 20
234.3892047233964
 30
0.0
 11
321.4221637976689
 21
240.3892047233964
 31
0.0
  0
LINE
  5
A2
330
1F
100
AcDbEntity
  8
1
  6
Continuous
100
AcDbLine
 10
321.4221637976689
 20
275.3892047233965
 30
0.0
 11
319.9221637976689
 21
275.3892047233965
 31
0.0
  0
LINE
  5
A3
330
1F
100
AcDbEntity
  8
1
  6
Continuous
100
AcDbLine
 10
320.49016379767
 20
241.5642047233969
 30
0.0
 11
323.42206379767
 21
243.8892047233964
 31
0.0
  0
LINE
  5
A4
330
1F
100
AcDbEntity
  8
1
  6
Continuous
100
AcDbLine
 10
326.4221637976689
 20
260.9032047233962
 30
0.0
 11
326.4221637976689
 21
267.8892047233965
 31
0.0
  0
LINE
  5
A5
330
1F
100
AcDbEntity
  8
1
  6
Continuous
100
AcDbLine
 10
324.9221637976689
 20
267.8892047233965
 30
0.0
 11
321.4221637976689
 21
267.8892047233965
 31
0.0
  0
LINE
  5
A6
330
1F
100
AcDbEntity
  8
1
  6
Continuous
100
AcDbLine
 10
326.4221637976689
 20
245.8892047233964
 30
0.0
 11
324.9221637976689
 21
245.8892047233964
 31
0.0
  0
LINE
  5
A7
330
1F
100
AcDbEntity
  8
1
  6
Continuous
100
AcDbLine
 10
324.9221637976689
 20
261.0342047233967
 30
0.0
 11
324.9221637976689
 21
267.8892047233965
 31
0.0
  0
LINE
  5
A8
330
1F
100
AcDbEntity
  8
1
  6
Continuous
100
AcDbLine
 10
324.9221637976689
 20
269.3892047233965
 30
0.0
 11
321.4221637976689
 21
269.3892047233965
 31
0.0
  0
LINE
  5
A9
330
1F
100
AcDbEntity
  8
1
  6
Continuous
100
AcDbLine
 10
326.4221637976689
 20
248.8892047233964
 30
0.0
 11
324.9221637976689
 21
248.8892047233964
 31
0.0
  0
LINE
  5
AA
330
1F
100
AcDbEntity
  8
1
  6
Continuous
100
AcDbLine
 10
323.4221637976689
 20
261.1652047233966
 30
0.0
 11
323.4221637976689
 21
264.3892047233965
 31
0.0
  0
LINE
  5
AB
330
1F
100
AcDbEntity
  8
1
  6
Continuous
100
AcDbLine
 10
324.9221637976689
 20
261.3892047233965
 30
0.0
 11
323.4221637976689
 21
261.3892047233965
 31
0.0
  0
LINE
  5
AC
330
1F
100
AcDbEntity
  8
1
  6
Continuous
100
AcDbLine
 10
321.4221637976689
 20
234.3892047233964
 30
0.0
 11
319.9221637976689
 21
234.3892047233964
 31
0.0
  0
LINE
  5
AD
330
1F
100
AcDbEntity
  8
1
  6
Continuous
100
AcDbLine
 10
321.4221637976689
 20
269.3892047233965
 30
0.0
 11
321.4221637976689
 21
275.3892047233965
 31
0.0
  0
LINE
  5
AE
330
1F
100
AcDbEntity
  8
1
  6
Continuous
100
AcDbLine
 10
318.1721637976689
 20
233.3892047233964
 30
0.0
 11
319.1721637976689
 21
233.3892047233964
 31
0.0
  0
LINE
  5
AF
330
1F
100
AcDbEntity
  8
1
  6
Continuous
100
AcDbLine
 10
317.1721637976689
 20
224.1392047233962
 30
0.0
 11
317.1721637976689
 21
232.3892047233964
 31
0.0
  0
LINE
  5
B0
330
1F
100
AcDbEntity
  8
1
  6
Continuous
100
AcDbLine
 10
304.6721637976689
 20
224.1392047233962
 30
0.0
 11
304.6721637976689
 21
232.3892047233964
 31
0.0
  0
LINE
  5
B1
330
1F
100
AcDbEntity
  8
1
  6
Continuous
100
AcDbLine
 10
303.1721637976689
 20
257.8892047233965
 30
0.0
 11
318.6721637976689
 21
257.8892047233965
 31
0.0
  0
LINE
  5
B2
330
1F
100
AcDbEntity
  8
1
  6
Continuous
100
AcDbLine
 10
319.1721637976689
 20
233.3892047233964
 30
0.0
 11
319.1721637976689
 21
256.3892047233965
 31
0.0
  0
LINE
  5
B3
330
1F
100
AcDbEntity
  8
1
  6
Continuous
100
AcDbLine
 10
302.6721637976689
 20
233.3892047233964
 30
0.0
 11
302.6721637976689
 21
256.3892047233965
 31
0.0
  0
LINE
  5
B4
330
1F
100
AcDbEntity
  8
1
  6
Continuous
100
AcDbLine
 10
318.6721637976689
 20
256.3892047233965
 30
0.0
 11
319.1721637976689
 21
256.3892047233965
 31
0.0
  0
LINE
  5
B5
330
1F
100
AcDbEntity
  8
1
  6
Continuous
100
AcDbLine
 10
318.6721637976689
 20
256.3892047233965
 30
0.0
 11
318.6721637976689
 21
257.8892047233965
 31
0.0
  0
LINE
  5
B6
330
1F
100
AcDbEntity
  8
1
  6
Continuous
100
AcDbLine
 10
303.1721637976689
 20
256.3892047233965
 30
0.0
 11
303.1721637976689
 21
257.8892047233965
 31
0.0
  0
LINE
  5
B7
330
1F
100
AcDbEntity
  8
1
  6
Continuous
100
AcDbLine
 10
304.1721637976689
 20
256.3892047233965
 30
0.0
 11
317.6721637976689
 21
256.3892047233965
 31
0.0
  0
LINE
  5
B8
330
1F
100
AcDbEntity
  8
1
  6
Continuous
100
AcDbLine
 10
302.6721637976689
 20
256.3892047233965
 30
0.0
 11
303.1721637976689
 21
256.3892047233965
 31
0.0
  0
LINE
  5
B9
330
1F
100
AcDbEntity
  8
1
  6
Continuous
100
AcDbLine
 10
305.6721637976689
 20
233.3892047233964
 30
0.0
 11
316.1721637976689
 21
233.3892047233964
 31
0.0
  0
LINE
  5
BA
330
1F
100
AcDbEntity
  8
1
  6
Continuous
100
AcDbLine
 10
302.6721637976689
 20
233.3892047233964
 30
0.0
 11
303.6721637976689
 21
233.3892047233964
 31
0.0
  0
LINE
  5
BB
330
1F
100
AcDbEntity
  8
1
  6
Continuous
100
AcDbLine
 10
323.4221637976689
 20
264.3892047233965
 30
0.0
 11
324.9221637976689
 21
264.3892047233965
 31
0.0
  0
LINE
  5
BC
330
1F
100
AcDbEntity
  8
1
  6
Continuous
100
AcDbLine
 10
296.9221637976689
 20
264.3892047233965
 30
0.0
 11
298.4221637976689
 21
264.3892047233965
 31
0.0
  0
LINE
  5
BD
330
1F
100
AcDbEntity
  8
1
  6
Continuous
100
AcDbLine
 10
319.1721637976689
 20
235.8892047233964
 30
0.0
 11
319.9221637976689
 21
235.8892047233964
 31
0.0
  0
LINE
  5
BE
330
1F
100
AcDbEntity
  8
1
  6
Continuous
100
AcDbLine
 10
319.1721637976689
 20
238.8892047233964
 30
0.0
 11
319.9221637976689
 21
238.8892047233964
 31
0.0
  0
LINE
  5
BF
330
1F
100
AcDbEntity
  8
1
  6
Continuous
100
AcDbLine
 10
301.9221637976689
 20
238.8892047233964
 30
0.0
 11
302.6721637976689
 21
238.8892047233964
 31
0.0
  0
LINE
  5
C0
330
1F
100
AcDbEntity
  8
1
  6
Continuous
100
AcDbLine
 10
301.9221637976689
 20
235.8892047233964
 30
0.0
 11
302.6721637976689
 21
235.8892047233964
 31
0.0
  0
LINE
  5
C1
330
1F
100
AcDbEntity
  8
1
  6
Continuous
100
AcDbLine
 10
322.4221637976689
 20
236.2892047233963
 30
0.0
 11
322.4221637976689
 21
238.4892047233964
 31
0.0
  0
LINE
  5
C2
330
1F
100
AcDbEntity
  8
1
  6
Continuous
100
AcDbLine
 10
299.4221637976689
 20
236.2892047233963
 30
0.0
 11
299.4221637976689
 21
238.4892047233964
 31
0.0
  0
LINE
  5
C3
330
1F
100
AcDbEntity
  8
1
  6
Continuous
100
AcDbLine
 10
321.4221637976689
 20
236.2892047233963
 30
0.0
 11
322.4221637976689
 21
236.2892047233963
 31
0.0
  0
LINE
  5
C4
330
1F
100
AcDbEntity
  8
1
  6
Continuous
100
AcDbLine
 10
321.4221637976689
 20
238.4892047233964
 30
0.0
 11
322.4221637976689
 21
238.4892047233964
 31
0.0
  0
LINE
  5
C5
330
1F
100
AcDbEntity
  8
1
  6
Continuous
100
AcDbLine
 10
299.4221637976689
 20
238.4892047233964
 30
0.0
 11
300.4221637976689
 21
238.4892047233964
 31
0.0
  0
LINE
  5
C6
330
1F
100
AcDbEntity
  8
1
  6
Continuous
100
AcDbLine
 10
299.4221637976689
 20
236.2892047233963
 30
0.0
 11
300.4221637976689
 21
236.2892047233963
 31
0.0
  0
LINE
  5
C7
330
1F
100
AcDbEntity
  8
1
  6
Continuous
100
AcDbLine
 10
320.9331637976691
 20
261.3832047233966
 30
0.0
 11
329.033163797669
 21
260.6752047233965
 31
0.0
  0
LINE
  5
C8
330
1F
100
AcDbEntity
  8
1
  6
Continuous
100
AcDbLine
 10
320.811063797669
 20
259.9892047233964
 30
0.0
 11
328.9110637976701
 21
259.2802047233965
 31
0.0
  0
LINE
  5
C9
330
1F
100
AcDbEntity
  8
1
  6
Continuous
100
AcDbLine
 10
320.9331637976691
 20
259.6572047233967
 30
0.0
 11
329.033163797669
 21
258.9482047233965
 31
0.0
  0
LINE
  5
CA
330
1F
100
AcDbEntity
  8
1
  6
Continuous
100
AcDbLine
 10
320.811063797669
 20
258.2622047233963
 30
0.0
 11
328.9110637976701
 21
257.5532047233969
 31
0.0
  0
LINE
  5
CB
330
1F
100
AcDbEntity
  8
1
  6
Continuous
100
AcDbLine
 10
320.9331637976691
 20
257.9302047233967
 30
0.0
 11
329.033163797669
 21
257.2212047233963
 31
0.0
  0
LINE
  5
CC
330
1F
100
AcDbEntity
  8
1
  6
Continuous
100
AcDbLine
 10
320.811063797669
 20
256.5352047233965
 30
0.0
 11
328.9110637976701
 21
255.8272047233963
 31
0.0
  0
LINE
  5
CD
330
1F
100
AcDbEntity
  8
1
  6
Continuous
100
AcDbLine
 10
320.9331637976691
 20
256.2042047233965
 30
0.0
 11
329.033163797669
 21
255.4952047233963
 31
0.0
  0
LINE
  5
CE
330
1F
100
AcDbEntity
  8
1
  6
Continuous
100
AcDbLine
 10
320.811063797669
 20
254.8092047233968
 30
0.0
 11
328.9110637976701
 21
254.1002047233966
 31
0.0
  0
LINE
  5
CF
330
1F
100
AcDbEntity
  8
1
  6
Continuous
100
AcDbLine
 10
320.9331637976691
 20
254.4772047233964
 30
0.0
 11
329.033163797669
 21
253.7682047233964
 31
0.0
  0
LINE
  5
D0
330
1F
100
AcDbEntity
  8
1
  6
Continuous
100
AcDbLine
 10
320.811063797669
 20
253.0822047233968
 30
0.0
 11
328.9110637976701
 21
252.3742047233963
 31
0.0
  0
LINE
  5
D1
330
1F
100
AcDbEntity
  8
1
  6
Continuous
100
AcDbLine
 10
320.9331637976691
 20
252.7502047233963
 30
0.0
 11
329.033163797669
 21
252.0422047233965
 31
0.0
  0
LINE
  5
D2
330
1F
100
AcDbEntity
  8
1
  6
Continuous
100
AcDbLine
 10
320.811063797669
 20
251.3562047233965
 30
0.0
 11
328.9110637976701
 21
250.6472047233966
 31
0.0
  0
LINE
  5
D3
330
1F
100
AcDbEntity
  8
1
  6
Continuous
100
AcDbLine
 10
320.9331637976691
 20
251.0242047233962
 30
0.0
 11
329.033163797669
 21
250.3152047233965
 31
0.0
  0
LINE
  5
D4
330
1F
100
AcDbEntity
  8
1
  6
Continuous
100
AcDbLine
 10
320.811063797669
 20
249.6292047233965
 30
0.0
 11
328.9110637976701
 21
248.9202047233966
 31
0.0
  0
LINE
  5
D5
330
1F
100
AcDbEntity
  8
1
  6
Continuous
100
AcDbLine
 10
320.9331637976691
 20
259.6572047233967
 30
0.0
 11
322.4400637976701
 21
259.8462047233963
 31
0.0
  0
LINE
  5
D6
330
1F
100
AcDbEntity
  8
1
  6
Continuous
100
AcDbLine
 10
327.4041637976691
 20
259.0912047233965
 30
0.0
 11
328.9110637976701
 21
259.2802047233965
 31
0.0
  0
LINE
  5
D7
330
1F
100
AcDbEntity
  8
1
  6
Continuous
100
AcDbLine
 10
320.9331637976691
 20
257.9302047233967
 30
0.0
 11
322.4400637976701
 21
258.1192047233965
 31
0.0
  0
LINE
  5
D8
330
1F
100
AcDbEntity
  8
1
  6
Continuous
100
AcDbLine
 10
327.4041637976691
 20
257.3642047233964
 30
0.0
 11
328.9110637976701
 21
257.5532047233969
 31
0.0
  0
LINE
  5
D9
330
1F
100
AcDbEntity
  8
1
  6
Continuous
100
AcDbLine
 10
320.9331637976691
 20
256.2042047233965
 30
0.0
 11
322.4400637976701
 21
256.3932047233964
 31
0.0
  0
LINE
  5
DA
330
1F
100
AcDbEntity
  8
1
  6
Continuous
100
AcDbLine
 10
327.4041637976691
 20
255.6372047233963
 30
0.0
 11
328.9110637976701
 21
255.8272047233963
 31
0.0
  0
LINE
  5
DB
330
1F
100
AcDbEntity
  8
1
  6
Continuous
100
AcDbLine
 10
320.9331637976691
 20
254.4772047233964
 30
0.0
 11
322.4400637976701
 21
254.6662047233963
 31
0.0
  0
LINE
  5
DC
330
1F
100
AcDbEntity
  8
1
  6
Continuous
100
AcDbLine
 10
327.4041637976691
 20
253.9112047233966
 30
0.0
 11
328.9110637976701
 21
254.1002047233966
 31
0.0
  0
LINE
  5
DD
330
1F
100
AcDbEntity
  8
1
  6
Continuous
100
AcDbLine
 10
320.9331637976691
 20
252.7502047233963
 30
0.0
 11
322.4400637976701
 21
252.9402047233965
 31
0.0
  0
LINE
  5
DE
330
1F
100
AcDbEntity
  8
1
  6
Continuous
100
AcDbLine
 10
327.4041637976691
 20
252.1842047233967
 30
0.0
 11
328.9110637976701
 21
252.3742047233963
 31
0.0
  0
LINE
  5
DF
330
1F
100
AcDbEntity
  8
1
  6
Continuous
100
AcDbLine
 10
320.9331637976691
 20
251.0242047233962
 30
0.0
 11
322.4400637976701
 21
251.2132047233966
 31
0.0
  0
LINE
  5
E0
330
1F
100
AcDbEntity
  8
1
  6
Continuous
100
AcDbLine
 10
327.4041637976691
 20
250.4582047233964
 30
0.0
 11
328.9110637976701
 21
250.6472047233966
 31
0.0
  0
LINE
  5
E1
330
1F
100
AcDbEntity
  8
1
  6
Continuous
100
AcDbLine
 10
292.9331637976691
 20
261.3832047233966
 30
0.0
 11
301.033163797669
 21
260.6752047233965
 31
0.0
  0
LINE
  5
E2
330
1F
100
AcDbEntity
  8
1
  6
Continuous
100
AcDbLine
 10
292.811063797669
 20
259.9892047233964
 30
0.0
 11
300.9110637976701
 21
259.2802047233965
 31
0.0
  0
LINE
  5
E3
330
1F
100
AcDbEntity
  8
1
  6
Continuous
100
AcDbLine
 10
292.9331637976691
 20
259.6572047233967
 30
0.0
 11
301.033163797669
 21
258.9482047233965
 31
0.0
  0
LINE
  5
E4
330
1F
100
AcDbEntity
  8
1
  6
Continuous
100
AcDbLine
 10
292.811063797669
 20
258.2622047233963
 30
0.0
 11
300.9110637976701
 21
257.5532047233969
 31
0.0
  0
LINE
  5
E5
330
1F
100
AcDbEntity
  8
1
  6
Continuous
100
AcDbLine
 10
292.9331637976691
 20
257.9302047233967
 30
0.0
 11
301.033163797669
 21
257.2212047233963
 31
0.0
  0
LINE
  5
E6
330
1F
100
AcDbEntity
  8
1
  6
Continuous
100
AcDbLine
 10
292.811063797669
 20
256.5352047233965
 30
0.0
 11
300.9110637976701
 21
255.8272047233963
 31
0.0
  0
LINE
  5
E7
330
1F
100
AcDbEntity
  8
1
  6
Continuous
100
AcDbLine
 10
292.9331637976691
 20
256.2042047233965
 30
0.0
 11
301.033163797669
 21
255.4952047233963
 31
0.0
  0
LINE
  5
E8
330
1F
100
AcDbEntity
  8
1
  6
Continuous
100
AcDbLine
 10
292.811063797669
 20
254.8092047233968
 30
0.0
 11
300.9110637976701
 21
254.1002047233966
 31
0.0
  0
LINE
  5
E9
330
1F
100
AcDbEntity
  8
1
  6
Continuous
100
AcDbLine
 10
292.9331637976691
 20
254.4772047233964
 30
0.0
 11
301.033163797669
 21
253.7682047233964
 31
0.0
  0
LINE
  5
EA
330
1F
100
AcDbEntity
  8
1
  6
Continuous
100
AcDbLine
 10
292.811063797669
 20
253.0822047233968
 30
0.0
 11
300.9110637976701
 21
252.3742047233963
 31
0.0
  0
LINE
  5
EB
330
1F
100
AcDbEntity
  8
1
  6
Continuous
100
AcDbLine
 10
292.9331637976691
 20
252.7502047233963
 30
0.0
 11
301.033163797669
 21
252.0422047233965
 31
0.0
  0
LINE
  5
EC
330
1F
100
AcDbEntity
  8
1
  6
Continuous
100
AcDbLine
 10
292.811063797669
 20
251.3562047233965
 30
0.0
 11
300.9110637976701
 21
250.6472047233966
 31
0.0
  0
LINE
  5
ED
330
1F
100
AcDbEntity
  8
1
  6
Continuous
100
AcDbLine
 10
292.9331637976691
 20
251.0242047233962
 30
0.0
 11
301.033163797669
 21
250.3152047233965
 31
0.0
  0
LINE
  5
EE
330
1F
100
AcDbEntity
  8
1
  6
Continuous
100
AcDbLine
 10
292.811063797669
 20
249.6292047233965
 30
0.0
 11
300.9110637976701
 21
248.9202047233966
 31
0.0
  0
LINE
  5
EF
330
1F
100
AcDbEntity
  8
1
  6
Continuous
100
AcDbLine
 10
292.9331637976691
 20
259.6572047233967
 30
0.0
 11
294.4400637976701
 21
259.8462047233963
 31
0.0
  0
LINE
  5
F0
330
1F
100
AcDbEntity
  8
1
  6
Continuous
100
AcDbLine
 10
299.4041637976691
 20
259.0912047233965
 30
0.0
 11
300.9110637976701
 21
259.2802047233965
 31
0.0
  0
LINE
  5
F1
330
1F
100
AcDbEntity
  8
1
  6
Continuous
100
AcDbLine
 10
292.9331637976691
 20
257.9302047233967
 30
0.0
 11
294.4400637976701
 21
258.1192047233965
 31
0.0
  0
LINE
  5
F2
330
1F
100
AcDbEntity
  8
1
  6
Continuous
100
AcDbLine
 10
299.4041637976691
 20
257.3642047233964
 30
0.0
 11
300.9110637976701
 21
257.5532047233969
 31
0.0
  0
LINE
  5
F3
330
1F
100
AcDbEntity
  8
1
  6
Continuous
100
AcDbLine
 10
292.9331637976691
 20
256.2042047233965
 30
0.0
 11
294.4400637976701
 21
256.3932047233964
 31
0.0
  0
LINE
  5
F4
330
1F
100
AcDbEntity
  8
1
  6
Continuous
100
AcDbLine
 10
299.4041637976691
 20
255.6372047233963
 30
0.0
 11
300.9110637976701
 21
255.8272047233963
 31
0.0
  0
LINE
  5
F5
330
1F
100
AcDbEntity
  8
1
  6
Continuous
100
AcDbLine
 10
292.9331637976691
 20
254.4772047233964
 30
0.0
 11
294.4400637976701
 21
254.6662047233963
 31
0.0
  0
LINE
  5
F6
330
1F
100
AcDbEntity
  8
1
  6
Continuous
100
AcDbLine
 10
299.4041637976691
 20
253.9112047233966
 30
0.0
 11
300.9110637976701
 21
254.1002047233966
 31
0.0
  0
LINE
  5
F7
330
1F
100
AcDbEntity
  8
1
  6
Continuous
100
AcDbLine
 10
292.9331637976691
 20
252.7502047233963
 30
0.0
 11
294.4400637976701
 21
252.9402047233965
 31
0.0
  0
LINE
  5
F8
330
1F
100
AcDbEntity
  8
1
  6
Continuous
100
AcDbLine
 10
299.4041637976691
 20
252.1842047233967
 30
0.0
 11
300.9110637976701
 21
252.3742047233963
 31
0.0
  0
LINE
  5
F9
330
1F
100
AcDbEntity
  8
1
  6
Continuous
100
AcDbLine
 10
292.9331637976691
 20
251.0242047233962
 30
0.0
 11
294.4400637976701
 21
251.2132047233966
 31
0.0
  0
LINE
  5
FA
330
1F
100
AcDbEntity
  8
1
  6
Continuous
100
AcDbLine
 10
299.4041637976691
 20
250.4582047233964
 30
0.0
 11
300.9110637976701
 21
250.6472047233966
 31
0.0
  0
LINE
  5
FB
330
1F
100
AcDbEntity
  8
1
  6
Continuous
100
AcDbLine
 10
326.4221637976689
 20
259.1762047233967
 30
0.0
 11
326.4221637976689
 21
259.4982047233964
 31
0.0
  0
LINE
  5
FC
330
1F
100
AcDbEntity
  8
1
  6
Continuous
100
AcDbLine
 10
324.9221637976689
 20
259.3082047233964
 30
0.0
 11
324.9221637976689
 21
259.6292047233965
 31
0.0
  0
LINE
  5
FD
330
1F
100
AcDbEntity
  8
1
  6
Continuous
100
AcDbLine
 10
323.4221637976689
 20
259.4392047233969
 30
0.0
 11
323.4221637976689
 21
259.7602047233964
 31
0.0
  0
LINE
  5
FE
330
1F
100
AcDbEntity
  8
1
  6
Continuous
100
AcDbLine
 10
323.4221637976689
 20
257.7122047233963
 30
0.0
 11
323.4221637976689
 21
258.0342047233967
 31
0.0
  0
LINE
  5
FF
330
1F
100
AcDbEntity
  8
1
  6
Continuous
100
AcDbLine
 10
324.9221637976689
 20
257.5812047233962
 30
0.0
 11
324.9221637976689
 21
257.9022047233964
 31
0.0
  0
LINE
  5
100
330
1F
100
AcDbEntity
  8
1
  6
Continuous
100
AcDbLine
 10
326.4221637976689
 20
257.4502047233964
 30
0.0
 11
326.4221637976689
 21
257.7712047233965
 31
0.0
  0
LINE
  5
101
330
1F
100
AcDbEntity
  8
1
  6
Continuous
100
AcDbLine
 10
326.4221637976689
 20
255.7232047233965
 30
0.0
 11
326.4221637976689
 21
256.0452047233966
 31
0.0
  0
LINE
  5
102
330
1F
100
AcDbEntity
  8
1
  6
Continuous
100
AcDbLine
 10
324.9221637976689
 20
255.8552047233962
 30
0.0
 11
324.9221637976689
 21
256.1762047233967
 31
0.0
  0
LINE
  5
103
330
1F
100
AcDbEntity
  8
1
  6
Continuous
100
AcDbLine
 10
323.4221637976689
 20
255.9862047233964
 30
0.0
 11
323.4221637976689
 21
256.3072047233966
 31
0.0
  0
LINE
  5
104
330
1F
100
AcDbEntity
  8
1
  6
Continuous
100
AcDbLine
 10
323.4221637976689
 20
254.2592047233966
 30
0.0
 11
323.4221637976689
 21
254.5802047233967
 31
0.0
  0
LINE
  5
105
330
1F
100
AcDbEntity
  8
1
  6
Continuous
100
AcDbLine
 10
324.9221637976689
 20
254.1282047233967
 30
0.0
 11
324.9221637976689
 21
254.4492047233969
 31
0.0
  0
LINE
  5
106
330
1F
100
AcDbEntity
  8
1
  6
Continuous
100
AcDbLine
 10
326.4221637976689
 20
253.9972047233966
 30
0.0
 11
326.4221637976689
 21
254.318204723397
 31
0.0
  0
LINE
  5
107
330
1F
100
AcDbEntity
  8
1
  6
Continuous
100
AcDbLine
 10
326.4221637976689
 20
252.2702047233969
 30
0.0
 11
326.4221637976689
 21
252.5912047233964
 31
0.0
  0
LINE
  5
108
330
1F
100
AcDbEntity
  8
1
  6
Continuous
100
AcDbLine
 10
324.9221637976689
 20
252.4012047233968
 30
0.0
 11
324.9221637976689
 21
252.7232047233964
 31
0.0
  0
LINE
  5
109
330
1F
100
AcDbEntity
  8
1
  6
Continuous
100
AcDbLine
 10
323.4221637976689
 20
252.5332047233962
 30
0.0
 11
323.4221637976689
 21
252.8542047233964
 31
0.0
  0
LINE
  5
10A
330
1F
100
AcDbEntity
  8
1
  6
Continuous
100
AcDbLine
 10
323.4221637976689
 20
250.8062047233964
 30
0.0
 11
323.4221637976689
 21
251.1272047233964
 31
0.0
  0
LINE
  5
10B
330
1F
100
AcDbEntity
  8
1
  6
Continuous
100
AcDbLine
 10
324.9221637976689
 20
250.6752047233964
 30
0.0
 11
324.9221637976689
 21
250.9962047233966
 31
0.0
  0
LINE
  5
10C
330
1F
100
AcDbEntity
  8
1
  6
Continuous
100
AcDbLine
 10
326.4221637976689
 20
250.5442047233966
 30
0.0
 11
326.4221637976689
 21
250.8652047233967
 31
0.0
  0
LINE
  5
10D
330
1F
100
AcDbEntity
  8
1
  6
Continuous
100
AcDbLine
 10
326.4221637976689
 20
245.8892047233964
 30
0.0
 11
326.4221637976689
 21
249.1382047233965
 31
0.0
  0
LINE
  5
10E
330
1F
100
AcDbEntity
  8
1
  6
Continuous
100
AcDbLine
 10
324.9221637976689
 20
243.8892047233964
 30
0.0
 11
324.9221637976689
 21
249.2692047233966
 31
0.0
  0
LINE
  5
10F
330
1F
100
AcDbEntity
  8
1
  6
Continuous
100
AcDbLine
 10
323.4221637976689
 20
243.8892047233964
 30
0.0
 11
323.4221637976689
 21
249.4012047233968
 31
0.0
  0
LINE
  5
110
330
1F
100
AcDbEntity
  8
1
  6
Continuous
100
AcDbLine
 10
298.4221637976689
 20
259.1762047233967
 30
0.0
 11
298.4221637976689
 21
259.4982047233964
 31
0.0
  0
LINE
  5
111
330
1F
100
AcDbEntity
  8
1
  6
Continuous
100
AcDbLine
 10
296.9221637976689
 20
259.3082047233964
 30
0.0
 11
296.9221637976689
 21
259.6292047233965
 31
0.0
  0
LINE
  5
112
330
1F
100
AcDbEntity
  8
1
  6
Continuous
100
AcDbLine
 10
295.4221637976689
 20
259.4392047233969
 30
0.0
 11
295.4221637976689
 21
259.7602047233964
 31
0.0
  0
LINE
  5
113
330
1F
100
AcDbEntity
  8
1
  6
Continuous
100
AcDbLine
 10
295.4221637976689
 20
257.7122047233963
 30
0.0
 11
295.4221637976689
 21
258.0342047233967
 31
0.0
  0
LINE
  5
114
330
1F
100
AcDbEntity
  8
1
  6
Continuous
100
AcDbLine
 10
296.9221637976689
 20
257.5812047233962
 30
0.0
 11
296.9221637976689
 21
257.9022047233964
 31
0.0
  0
LINE
  5
115
330
1F
100
AcDbEntity
  8
1
  6
Continuous
100
AcDbLine
 10
298.4221637976689
 20
257.4502047233964
 30
0.0
 11
298.4221637976689
 21
257.7712047233965
 31
0.0
  0
LINE
  5
116
330
1F
100
AcDbEntity
  8
1
  6
Continuous
100
AcDbLine
 10
298.4221637976689
 20
255.7232047233965
 30
0.0
 11
298.4221637976689
 21
256.0452047233966
 31
0.0
  0
LINE
  5
117
330
1F
100
AcDbEntity
  8
1
  6
Continuous
100
AcDbLine
 10
296.9221637976689
 20
255.8552047233962
 30
0.0
 11
296.9221637976689
 21
256.1762047233967
 31
0.0
  0
LINE
  5
118
330
1F
100
AcDbEntity
  8
1
  6
Continuous
100
AcDbLine
 10
295.4221637976689
 20
255.9862047233964
 30
0.0
 11
295.4221637976689
 21
256.3072047233966
 31
0.0
  0
LINE
  5
119
330
1F
100
AcDbEntity
  8
1
  6
Continuous
100
AcDbLine
 10
295.4221637976689
 20
254.2592047233966
 30
0.0
 11
295.4221637976689
 21
254.5802047233967
 31
0.0
  0
LINE
  5
11A
330
1F
100
AcDbEntity
  8
1
  6
Continuous
100
AcDbLine
 10
296.9221637976689
 20
254.1282047233967
 30
0.0
 11
296.9221637976689
 21
254.4492047233969
 31
0.0
  0
LINE
  5
11B
330
1F
100
AcDbEntity
  8
1
  6
Continuous
100
AcDbLine
 10
298.4221637976689
 20
253.9972047233966
 30
0.0
 11
298.4221637976689
 21
254.318204723397
 31
0.0
  0
LINE
  5
11C
330
1F
100
AcDbEntity
  8
1
  6
Continuous
100
AcDbLine
 10
298.4221637976689
 20
252.2702047233969
 30
0.0
 11
298.4221637976689
 21
252.5912047233964
 31
0.0
  0
LINE
  5
11D
330
1F
100
AcDbEntity
  8
1
  6
Continuous
100
AcDbLine
 10
296.9221637976689
 20
252.4012047233968
 30
0.0
 11
296.9221637976689
 21
252.7232047233964
 31
0.0
  0
LINE
  5
11E
330
1F
100
AcDbEntity
  8
1
  6
Continuous
100
AcDbLine
 10
295.4221637976689
 20
252.5332047233962
 30
0.0
 11
295.4221637976689
 21
252.8542047233964
 31
0.0
  0
LINE
  5
11F
330
1F
100
AcDbEntity
  8
1
  6
Continuous
100
AcDbLine
 10
295.4221637976689
 20
250.8062047233964
 30
0.0
 11
295.4221637976689
 21
251.1272047233964
 31
0.0
  0
LINE
  5
120
330
1F
100
AcDbEntity
  8
1
  6
Continuous
100
AcDbLine
 10
296.9221637976689
 20
250.6752047233964
 30
0.0
 11
296.9221637976689
 21
250.9962047233966
 31
0.0
  0
LINE
  5
121
330
1F
100
AcDbEntity
  8
1
  6
Continuous
100
AcDbLine
 10
298.4221637976689
 20
250.5442047233966
 30
0.0
 11
298.4221637976689
 21
250.8652047233967
 31
0.0
  0
LINE
  5
122
330
1F
100
AcDbEntity
  8
1
  6
Continuous
100
AcDbLine
 10
298.4221637976689
 20
243.8892047233964
 30
0.0
 11
298.4221637976689
 21
249.1382047233965
 31
0.0
  0
LINE
  5
123
330
1F
100
AcDbEntity
  8
1
  6
Continuous
100
AcDbLine
 10
296.9221637976689
 20
243.8892047233964
 30
0.0
 11
296.9221637976689
 21
249.2692047233966
 31
0.0
  0
LINE
  5
124
330
1F
100
AcDbEntity
  8
1
  6
Continuous
100
AcDbLine
 10
295.4221637976689
 20
245.8892047233964
 30
0.0
 11
295.4221637976689
 21
249.4012047233968
 31
0.0
  0
LINE
  5
125
330
1F
100
AcDbEntity
  8
4
  6
DASH_CENTER
100
AcDbLine
 10
308.4221637976689
 20
225.8892047233962
 30
0.0
 11
313.4221637976689
 21
225.8892047233962
 31
0.0
  0
LINE
  5
126
330
1F
100
AcDbEntity
  8
1
  6
Continuous
100
AcDbLine
 10
320.2220637976689
 20
269.3892047233965
 30
0.0
 11
321.1221637976701
 21
269.3892047233965
 31
0.0
  0
LINE
  5
127
330
1F
100
AcDbEntity
  8
1
  6
Continuous
100
AcDbLine
 10
300.7220637976689
 20
269.3892047233965
 30
0.0
 11
301.6221637976701
 21
269.3892047233965
 31
0.0
  0
LINE
  5
128
330
1F
100
AcDbEntity
  8
0
  6
PHANTOM
 62
   140
100
AcDbLine
 10
330.862934288007
 20
249.9470131266996
 30
0.0
 11
337.5343672880081
 21
256.6184611266997
 31
0.0
  0
LINE
  5
129
330
1F
100
AcDbEntity
  8
0
  6
PHANTOM
 62
   140
100
AcDbLine
 10
330.874332288008
 20
190.1204061266994
 30
0.0
 11
337.684940288008
 21
183.3097981266994
 31
0.0
  0
LINE
  5
12A
330
1F
100
AcDbEntity
  8
0
  6
PHANTOM
 62
   140
100
AcDbLine
 10
340.9553262880079
 20
253.2394471266996
 30
0.0
 11
340.9553262880079
 21
186.8394381266996
 31
0.0
  0
LINE
  5
12B
330
1F
100
AcDbEntity
  8
0
  6
PHANTOM
 62
   140
100
AcDbLine
 10
300.9553262880079
 20
260.0394201266997
 30
0.0
 11
334.155338288007
 21
260.0394351266996
 31
0.0
  0
LINE
  5
12C
330
1F
100
AcDbEntity
  8
0
  6
PHANTOM
 62
   140
100
AcDbLine
 10
255.540410288007
 20
220.0394201266995
 30
0.0
 11
345.336320288008
 21
220.0394201266995
 31
0.0
  0
LINE
  5
12D
330
1F
100
AcDbEntity
  8
0
  6
PHANTOM
 62
     4
100
AcDbLine
 10
300.9553262880079
 20
265.0394201266997
 30
0.0
 11
300.9553262880079
 21
175.0394201266995
 31
0.0
  0
LINE
  5
12E
330
1F
100
AcDbEntity
  8
0
  6
PHANTOM
 62
   140
100
AcDbLine
 10
271.047718288007
 20
249.9470131266996
 30
0.0
 11
264.3762852880079
 21
256.6184611266997
 31
0.0
  0
LINE
  5
12F
330
1F
100
AcDbEntity
  8
0
  6
PHANTOM
 62
   140
100
AcDbLine
 10
271.0363202880078
 20
190.1204061266994
 30
0.0
 11
264.225712288008
 21
183.3097981266994
 31
0.0
  0
LINE
  5
130
330
1F
100
AcDbEntity
  8
0
  6
PHANTOM
 62
   140
100
AcDbLine
 10
300.9553262880079
 20
260.0394201266997
 30
0.0
 11
267.7553142880079
 21
260.0394351266996
 31
0.0
  0
LINE
  5
131
330
1F
100
AcDbEntity
  8
0
  6
PHANTOM
 62
   140
100
AcDbLine
 10
260.9553262880079
 20
253.2394471266996
 30
0.0
 11
260.9553262880079
 21
186.8394381266996
 31
0.0
  0
LINE
  5
132
330
1F
100
AcDbEntity
  8
0
  6
PHANTOM
 62
   140
100
AcDbLine
 10
267.7553142880079
 20
180.0394351266995
 30
0.0
 11
300.9553262880079
 21
180.0394201266995
 31
0.0
  0
LINE
  5
133
330
1F
100
AcDbEntity
  8
0
  6
PHANTOM
 62
   140
100
AcDbLine
 10
300.9553262880079
 20
180.0394201266995
 30
0.0
 11
334.4553262880079
 21
180.0394201266995
 31
0.0
  0
LINE
  5
134
330
1F
100
AcDbEntity
  8
1
  6
DASH_CENTER
 62
     3
100
AcDbLine
 10
246.0676749225891
 20
235.0394201266997
 30
0.0
 11
357.755326288011
 21
235.0394201266997
 31
0.0
  0
LINE
  5
135
330
1F
100
AcDbEntity
  8
1
  6
DASH_CENTER
 62
     3
100
AcDbLine
 10
300.955326288009
 20
181.0394201266995
 30
0.0
 11
300.955326288009
 21
289.0394201266997
 31
0.0
  0
LINE
  5
136
330
1F
100
AcDbEntity
  8
1
  6
Continuous
 62
     7
100
AcDbLine
 10
526.2494979394651
 20
283.3892047233965
 30
0.0
 11
531.5410005615941
 21
283.3892047233965
 31
0.0
  0
LINE
  5
137
330
1F
100
AcDbEntity
  8
1
  6
Continuous
 62
     7
100
AcDbLine
 10
526.2494979394651
 20
289.3892047233965
 30
0.0
 11
531.5410005615941
 21
289.3892047233965
 31
0.0
  0
LINE
  5
138
330
1F
100
AcDbEntity
  8
1
  6
DASH_CENTER
 62
     3
100
AcDbLine
 10
507.9011328761569
 20
286.3892047233965
 30
0.0
 11
542.458434717078
 21
286.3892047233965
 31
0.0
  0
LINE
  5
139
330
1F
100
AcDbEntity
  8
1
  6
DASH_CENTER
 62
     3
100
AcDbLine
 10
528.8952492505289
 20
265.9892047233955
 30
0.0
 11
528.8952492505289
 21
306.7892047233959
 31
0.0
  0
LINE
  5
13A
330
1F
100
AcDbEntity
  8
1
  6
Continuous
 62
     7
100
AcDbLine
 10
524.8339786058959
 20
283.2892047233963
 30
0.0
 11
534.4536726736119
 21
283.2892047233963
 31
0.0
  0
LINE
  5
13B
330
1F
100
AcDbEntity
  8
1
  6
Continuous
 62
     7
100
AcDbLine
 10
523.4221637976689
 20
282.270402569879
 30
0.0
 11
523.4221637976689
 21
275.8892047233965
 31
0.0
  0
LINE
  5
13C
330
1F
100
AcDbEntity
  8
1
  6
Continuous
 62
     7
100
AcDbLine
 10
524.8384998536769
 20
289.4892047233964
 30
0.0
 11
534.4536726736119
 21
289.4892047233964
 31
0.0
  0
LINE
  5
13D
330
1F
100
AcDbEntity
  8
1
  6
Continuous
 62
     7
100
AcDbLine
 10
515.2221637976691
 20
284.3892047233965
 30
0.0
 11
515.2221637976691
 21
275.3892047233961
 31
0.0
  0
LINE
  5
13E
330
1F
100
AcDbEntity
  8
1
  6
Continuous
 62
     7
100
AcDbLine
 10
498.4221637976689
 20
269.8892047233965
 30
0.0
 11
492.42216379767
 21
269.8892047233961
 31
0.0
  0
LINE
  5
13F
330
1F
100
AcDbEntity
  8
1
  6
Continuous
 62
     7
100
AcDbLine
 10
515.2221637976691
 20
275.3892047233961
 30
0.0
 11
515.2221637976691
 21
271.8892047233974
 31
0.0
  0
LINE
  5
140
330
1F
100
AcDbEntity
  8
1
  6
Continuous
 62
     7
100
AcDbLine
 10
539.4221637976689
 20
282.9717804183525
 30
0.0
 11
539.4221637976689
 21
290.8892047233965
 31
0.0
  0
LINE
  5
141
330
1F
100
AcDbEntity
  8
1
  6
Continuous
 62
     7
100
AcDbLine
 10
521.3384998536769
 20
291.5080068769133
 30
0.0
 11
524.481234263769
 21
291.5080068769133
 31
0.0
  0
LINE
  5
142
330
1F
100
AcDbEntity
  8
1
  6
Continuous
 62
     7
100
AcDbLine
 10
524.481234263769
 20
289.1986058001548
 30
0.0
 11
521.3384998536769
 21
289.1986058001548
 31
0.0
  0
LINE
  5
143
330
1F
100
AcDbEntity
  8
1
  6
Continuous
 62
     7
100
AcDbLine
 10
524.8384998536769
 20
290.3533063385341
 30
0.0
 11
524.8384998536769
 21
283.4251031082587
 31
0.0
  0
LINE
  5
144
330
1F
100
AcDbEntity
  8
1
  6
Continuous
 62
     7
100
AcDbLine
 10
524.481234263769
 20
282.270402569879
 30
0.0
 11
521.3384998536769
 21
282.270402569879
 31
0.0
  0
LINE
  5
145
330
1F
100
AcDbEntity
  8
1
  6
Continuous
 62
     7
100
AcDbLine
 10
524.481234263769
 20
284.579803646638
 30
0.0
 11
521.3384998536769
 21
284.579803646638
 31
0.0
  0
LINE
  5
146
330
1F
100
AcDbEntity
  8
1
  6
Continuous
 62
     7
100
AcDbLine
 10
521.3384998536769
 20
282.270402569879
 30
0.0
 11
521.3384998536769
 21
291.5080068769133
 31
0.0
  0
LINE
  5
147
330
1F
100
AcDbEntity
  8
1
  6
Continuous
 62
     7
100
AcDbLine
 10
505.422163797668
 20
289.3892047233965
 30
0.0
 11
520.588521854
 21
289.3892047233962
 31
0.0
  0
LINE
  5
148
330
1F
100
AcDbEntity
  8
1
  6
Continuous
 62
     3
100
AcDbLine
 10
505.422163797668
 20
288.9562047233962
 30
0.0
 11
520.588521854
 21
288.9562047233962
 31
0.0
  0
LINE
  5
149
330
1F
100
AcDbEntity
  8
1
  6
Continuous
 62
     7
100
AcDbLine
 10
520.588521854
 20
289.3892047233962
 30
0.0
 11
521.3384998536769
 21
289.3892047233965
 31
0.0
  0
LINE
  5
14A
330
1F
100
AcDbEntity
  8
1
  6
Continuous
 62
     3
100
AcDbLine
 10
520.588521854
 20
288.9562047233962
 30
0.0
 11
521.3384998536769
 21
289.3892047233965
 31
0.0
  0
LINE
  5
14B
330
1F
100
AcDbEntity
  8
1
  6
Continuous
 62
     7
100
AcDbLine
 10
520.588521854
 20
284.3892047233962
 30
0.0
 11
520.588521854
 21
289.3892047233962
 31
0.0
  0
LINE
  5
14C
330
1F
100
AcDbEntity
  8
1
  6
Continuous
 62
     7
100
AcDbLine
 10
521.3384998536769
 20
284.3892047233965
 30
0.0
 11
520.588521854
 21
284.3892047233962
 31
0.0
  0
LINE
  5
14D
330
1F
100
AcDbEntity
  8
1
  6
Continuous
 62
     3
100
AcDbLine
 10
521.3384998536769
 20
284.3892047233965
 30
0.0
 11
520.588521854
 21
284.8222047233962
 31
0.0
  0
LINE
  5
14E
330
1F
100
AcDbEntity
  8
1
  6
Continuous
 62
     3
100
AcDbLine
 10
520.588521854
 20
284.8222047233962
 30
0.0
 11
505.422163797668
 21
284.8222047233966
 31
0.0
  0
LINE
  5
14F
330
1F
100
AcDbEntity
  8
1
  6
Continuous
 62
     7
100
AcDbLine
 10
505.422163797668
 20
284.3892047233965
 30
0.0
 11
520.588521854
 21
284.3892047233962
 31
0.0
  0
LINE
  5
150
330
1F
100
AcDbEntity
  8
1
  6
Continuous
 62
     7
100
AcDbLine
 10
505.422163797668
 20
290.3533063385341
 30
0.0
 11
505.422163797668
 21
283.4251031082587
 31
0.0
  0
LINE
  5
151
330
1F
100
AcDbEntity
  8
1
  6
Continuous
 62
     7
100
AcDbLine
 10
501.422163797668
 20
291.5080068769133
 30
0.0
 11
505.0648982077601
 21
291.5080068769133
 31
0.0
  0
LINE
  5
152
330
1F
100
AcDbEntity
  8
1
  6
Continuous
 62
     7
100
AcDbLine
 10
501.422163797668
 20
289.1986058001548
 30
0.0
 11
505.0648982077601
 21
289.1986058001548
 31
0.0
  0
LINE
  5
153
330
1F
100
AcDbEntity
  8
1
  6
Continuous
 62
     7
100
AcDbLine
 10
501.422163797668
 20
284.579803646638
 30
0.0
 11
505.0648982077601
 21
284.579803646638
 31
0.0
  0
LINE
  5
154
330
1F
100
AcDbEntity
  8
1
  6
Continuous
 62
     7
100
AcDbLine
 10
505.0648982077601
 20
282.270402569879
 30
0.0
 11
501.422163797668
 21
282.270402569879
 31
0.0
  0
LINE
  5
155
330
1F
100
AcDbEntity
  8
1
  6
Continuous
 62
     7
100
AcDbLine
 10
492.2421637976679
 20
289.3892047233965
 30
0.0
 11
495.422163797668
 21
289.3892047233965
 31
0.0
  0
LINE
  5
156
330
1F
100
AcDbEntity
  8
1
  6
Continuous
 62
     3
100
AcDbLine
 10
491.8091637976679
 20
288.9562047233962
 30
0.0
 11
495.422163797668
 21
288.9562047233962
 31
0.0
  0
LINE
  5
157
330
1F
100
AcDbEntity
  8
1
  6
Continuous
 62
     7
100
AcDbLine
 10
491.3421637976669
 20
288.4892047233964
 30
0.0
 11
492.2421637976679
 21
289.3892047233965
 31
0.0
  0
LINE
  5
158
330
1F
100
AcDbEntity
  8
1
  6
Continuous
 62
     7
100
AcDbLine
 10
491.3421637976669
 20
285.2892047233963
 30
0.0
 11
491.3421637976669
 21
288.4892047233964
 31
0.0
  0
LINE
  5
159
330
1F
100
AcDbEntity
  8
1
  6
Continuous
 62
     7
100
AcDbLine
 10
492.2421637976679
 20
284.3892047233965
 30
0.0
 11
491.3421637976669
 21
285.2892047233963
 31
0.0
  0
LINE
  5
15A
330
1F
100
AcDbEntity
  8
1
  6
Continuous
 62
     3
100
AcDbLine
 10
492.2421637976679
 20
284.3892047233965
 30
0.0
 11
492.2421637976679
 21
289.3892047233965
 31
0.0
  0
LINE
  5
15B
330
1F
100
AcDbEntity
  8
1
  6
Continuous
 62
     3
100
AcDbLine
 10
495.422163797668
 20
284.8222047233966
 30
0.0
 11
491.8091637976679
 21
284.8222047233966
 31
0.0
  0
LINE
  5
15C
330
1F
100
AcDbEntity
  8
1
  6
Continuous
 62
     7
100
AcDbLine
 10
495.422163797668
 20
284.3892047233965
 30
0.0
 11
492.2421637976679
 21
284.3892047233965
 31
0.0
  0
LINE
  5
15D
330
1F
100
AcDbEntity
  8
1
  6
Continuous
 62
     7
100
AcDbLine
 10
539.4221637976689
 20
275.8892047233965
 30
0.0
 11
539.4221637976689
 21
282.9717804183525
 31
0.0
  0
LINE
  5
15E
330
1F
100
AcDbEntity
  8
1
  6
Continuous
 62
     7
100
AcDbLine
 10
516.694318865716
 20
289.4892047233964
 30
0.0
 11
521.3384998536769
 21
289.4892047233964
 31
0.0
  0
LINE
  5
15F
330
1F
100
AcDbEntity
  8
1
  6
Continuous
 62
   140
100
AcDbLine
 10
318.4221637976689
 20
278.3841598945198
 30
0.0
 11
318.4221637976689
 21
269.8892047233961
 31
0.0
  0
LINE
  5
160
330
1F
100
AcDbEntity
  8
1
  6
Continuous
 62
   140
100
AcDbLine
 10
303.4221637976689
 20
269.8892047233961
 30
0.0
 11
303.4221637976689
 21
278.3841598945198
 31
0.0
  0
LINE
  5
161
330
1F
100
AcDbEntity
  8
1
  6
Continuous
 62
   140
100
AcDbLine
 10
303.4221637976689
 20
278.3841598945198
 30
0.0
 11
318.4221637976689
 21
278.3841598945198
 31
0.0
  0
LINE
  5
162
330
1F
100
AcDbEntity
  8
1
  6
Continuous
 62
   140
100
AcDbLine
 10
303.4221637976689
 20
277.6341598945198
 30
0.0
 11
318.4221637976689
 21
277.6341598945198
 31
0.0
  0
LINE
  5
163
330
1F
100
AcDbEntity
  8
1
  6
Continuous
 62
     7
100
AcDbLine
 10
273.4221637976691
 20
269.8892047233974
 30
0.0
 11
251.8063906918051
 21
269.8892047233974
 31
0.0
  0
LINE
  5
164
330
1F
100
AcDbEntity
  8
1
  6
Continuous
 62
     7
100
AcDbLine
 10
451.9221637976741
 20
269.8892047233936
 30
0.0
 11
351.9221637976689
 21
269.8892047233974
 31
0.0
  0
LINE
  5
165
330
1F
100
AcDbEntity
  8
1
  6
Continuous
 62
     7
100
AcDbLine
 10
513.2221637976691
 20
269.8892047233974
 30
0.0
 11
498.4221637976689
 21
269.8892047233965
 31
0.0
  0
LINE
  5
166
330
1F
100
AcDbEntity
  8
1
  6
Continuous
 62
     7
100
AcDbLine
 10
531.4221637976689
 20
298.8892047233965
 30
0.0
 11
259.4221637976689
 21
298.8892047233965
 31
0.0
  0
LINE
  5
167
330
1F
100
AcDbEntity
  8
1
  6
Continuous
 62
     7
100
AcDbLine
 10
273.4221637976691
 20
269.8892047233974
 30
0.0
 11
273.4221637976691
 21
271.3892047233974
 31
0.0
  0
LINE
  5
168
330
1F
100
AcDbEntity
  8
1
  6
Continuous
 62
     7
100
AcDbLine
 10
351.938499853678
 20
271.3892047233965
 30
0.0
 11
451.9384998536762
 21
271.3892047233965
 31
0.0
  0
LINE
  5
169
330
1F
100
AcDbEntity
  8
1
  6
Continuous
 62
     7
100
AcDbLine
 10
351.9221637976689
 20
269.8892047233974
 30
0.0
 11
351.9221637976689
 21
271.3892047233974
 31
0.0
  0
LINE
  5
16A
330
1F
100
AcDbEntity
  8
1
  6
Continuous
 62
     7
100
AcDbLine
 10
290.9221637976691
 20
269.8892047233974
 30
0.0
 11
290.9221637976691
 21
271.3892047233974
 31
0.0
  0
LINE
  5
16B
330
1F
100
AcDbEntity
  8
1
  6
Continuous
 62
     7
100
AcDbLine
 10
273.4221637976691
 20
271.3892047233974
 30
0.0
 11
290.9221637976691
 21
271.3892047233974
 31
0.0
  0
LINE
  5
16C
330
1F
100
AcDbEntity
  8
1
  6
Continuous
 62
     7
100
AcDbLine
 10
495.422163797668
 20
293.3892047233965
 30
0.0
 11
501.422163797668
 21
293.3892047233965
 31
0.0
  0
LINE
  5
16D
330
1F
100
AcDbEntity
  8
1
  6
Continuous
 62
     7
100
AcDbLine
 10
495.422163797668
 20
280.3892047233965
 30
0.0
 11
495.422163797668
 21
293.3892047233965
 31
0.0
  0
LINE
  5
16E
330
1F
100
AcDbEntity
  8
1
  6
Continuous
 62
     7
100
AcDbLine
 10
501.422163797668
 20
280.3892047233965
 30
0.0
 11
495.422163797668
 21
280.3892047233965
 31
0.0
  0
LINE
  5
16F
330
1F
100
AcDbEntity
  8
1
  6
Continuous
 62
     7
100
AcDbLine
 10
501.422163797668
 20
293.3892047233965
 30
0.0
 11
501.422163797668
 21
280.3892047233965
 31
0.0
  0
LINE
  5
170
330
1F
100
AcDbEntity
  8
1
  6
DASH_CENTER
 62
     3
100
AcDbLine
 10
489.8098207185631
 20
286.8892047233965
 30
0.0
 11
525.4301178983449
 21
286.8892047233965
 31
0.0
  0
LINE
  5
171
330
1F
100
AcDbEntity
  8
1
  6
Continuous
 62
     7
100
AcDbLine
 10
525.4221637976689
 20
273.8892047233965
 30
0.0
 11
537.4221637976689
 21
273.8892047233965
 31
0.0
  0
LINE
  5
172
330
1F
100
AcDbEntity
  8
1
  6
Continuous
 62
     7
100
AcDbLine
 10
451.9221637976673
 20
271.3892047233974
 30
0.0
 11
451.9221637976741
 21
269.8892047233936
 31
0.0
  0
LINE
  5
173
330
1F
100
AcDbEntity
  8
1
  6
Continuous
 62
     7
100
AcDbLine
 10
452.4221637976705
 20
269.8892047233961
 30
0.0
 11
451.9221637976741
 21
269.8892047233936
 31
0.0
  0
LINE
  5
174
330
1F
100
AcDbEntity
  8
1
  6
PHANTOM
 62
   140
100
AcDbLine
 10
528.8952492505289
 20
299.9892047233964
 30
0.0
 11
259.422164638517
 21
300.3900797452943
 31
0.0
  0
LINE
  5
175
330
1F
100
AcDbEntity
  8
1
  6
PHANTOM
 62
   140
100
AcDbLine
 10
260.3327733611
 20
266.4136107655111
 30
0.0
 11
529.6237369012749
 21
272.8087295570883
 31
0.0
  0
LINE
  5
176
330
1F
100
AcDbEntity
  8
1
  6
Continuous
 62
     7
100
AcDbLine
 10
273.42216379767
 20
269.8892047233961
 30
0.0
 11
452.4221637976705
 21
269.8892047233961
 31
0.0
  0
LINE
  5
177
330
1F
100
AcDbEntity
  8
1
  6
Continuous
 62
     7
100
AcDbLine
 10
270.42216379767
 20
275.3892047233961
 30
0.0
 11
247.42216379767
 21
275.3892047233961
 31
0.0
  0
LINE
  5
178
330
1F
100
AcDbEntity
  8
1
  6
Continuous
 62
     7
100
AcDbLine
 10
452.4221637976705
 20
269.8892047233961
 30
0.0
 11
452.4221637976702
 21
272.3892047233961
 31
0.0
  0
LINE
  5
179
330
1F
100
AcDbEntity
  8
1
  6
Continuous
 62
     7
100
AcDbLine
 10
487.42216379767
 20
275.3892047233961
 30
0.0
 11
455.4221637976702
 21
275.3892047233961
 31
0.0
  0
LINE
  5
17A
330
1F
100
AcDbEntity
  8
1
  6
Continuous
 62
     7
100
AcDbLine
 10
273.42216379767
 20
269.8892047233961
 30
0.0
 11
273.42216379767
 21
272.3892047233961
 31
0.0
  0
LINE
  5
17B
330
1F
100
AcDbEntity
  8
1
  6
Continuous
 62
     7
100
AcDbLine
 10
242.42216379767
 20
270.3892047233961
 30
0.0
 11
242.42216379767
 21
176.889204723396
 31
0.0
  0
LINE
  5
17C
330
1F
100
AcDbEntity
  8
1
  6
Continuous
 62
     7
100
AcDbLine
 10
245.42216379767
 20
173.889204723396
 30
0.0
 11
489.42216379767
 21
173.889204723396
 31
0.0
  0
LINE
  5
17D
330
1F
100
AcDbEntity
  8
1
  6
Continuous
 62
     7
100
AcDbLine
 10
492.42216379767
 20
176.8892047233961
 30
0.0
 11
492.42216379767
 21
270.3892047233961
 31
0.0
  0
LINE
  5
17E
330
1F
100
AcDbEntity
  8
1
  6
PHANTOM
 62
     4
100
AcDbLine
 10
542.4221637976689
 20
287.1892047233965
 30
0.0
 11
542.4221637976689
 21
286.1892047233965
 31
0.0
  0
LINE
  5
17F
330
1F
100
AcDbEntity
  8
1
  6
PHANTOM
 62
     4
100
AcDbLine
 10
542.4221637976689
 20
294.4892047233964
 30
0.0
 11
542.4221637976689
 21
293.4892047233964
 31
0.0
  0
LINE
  5
180
330
1F
100
AcDbEntity
  8
1
  6
PHANTOM
 62
     4
100
AcDbLine
 10
242.4221637976689
 20
287.7892047233963
 30
0.0
 11
242.4221637976689
 21
286.7892047233963
 31
0.0
  0
LINE
  5
181
330
1F
100
AcDbEntity
  8
1
  6
Continuous
 62
     7
100
AcDbLine
 10
711.4416901343028
 20
175.3892047233958
 30
0.0
 11
814.441690134303
 21
175.3892047233958
 31
0.0
  0
LINE
  5
182
330
1F
100
AcDbEntity
  8
1
  6
Continuous
 62
     7
100
AcDbLine
 10
711.4416901343028
 20
263.389204723396
 30
0.0
 11
716.9416901343028
 21
263.389204723396
 31
0.0
  0
LINE
  5
183
330
1F
100
AcDbEntity
  8
1
  6
Continuous
 62
     7
100
AcDbLine
 10
711.4416901343028
 20
271.1166113337085
 30
0.0
 11
947.9416901343037
 21
271.1166113337085
 31
0.0
  0
LINE
  5
184
330
1F
100
AcDbEntity
  8
1
  6
DASH_CENTER
 62
     3
100
AcDbLine
 10
715.1416901343038
 20
250.3892047233958
 30
0.0
 11
703.6416901343038
 21
250.3892047233958
 31
0.0
  0
LINE
  5
185
330
1F
100
AcDbEntity
  8
1
  6
DASH_CENTER
 62
     3
100
AcDbLine
 10
956.7416901343046
 20
250.3892047233958
 30
0.0
 11
945.2416901343046
 21
250.3892047233958
 31
0.0
  0
LINE
  5
186
330
1F
100
AcDbEntity
  8
1
  6
Continuous
 62
     7
100
AcDbLine
 10
716.9416901343028
 20
263.389204723396
 30
0.0
 11
948.9416901343037
 21
263.389204723396
 31
0.0
  0
LINE
  5
187
330
1F
100
AcDbEntity
  8
1
  6
Continuous
 62
     7
100
AcDbLine
 10
814.441690134303
 20
175.3892047233958
 30
0.0
 11
948.9416901343026
 21
175.3892047233958
 31
0.0
  0
LINE
  5
188
330
1F
100
AcDbEntity
  8
1
  6
Continuous
 62
     3
100
AcDbLine
 10
242.4221637976682
 20
455.8527020160297
 30
0.0
 11
242.4221637976682
 21
689.3527020160296
 31
0.0
  0
LINE
  5
189
330
1F
100
AcDbEntity
  8
1
  6
Continuous
 62
     7
100
AcDbLine
 10
953.9416901343026
 20
205.8892047233959
 30
0.0
 11
951.9416901343026
 21
205.8892047233958
 31
0.0
  0
LINE
  5
18A
330
1F
100
AcDbEntity
  8
1
  6
Continuous
 62
     7
100
AcDbLine
 10
971.9416901343026
 20
175.8892047233958
 30
0.0
 11
953.9416901343026
 21
175.8892047233958
 31
0.0
  0
LINE
  5
18B
330
1F
100
AcDbEntity
  8
1
  6
Continuous
 62
     7
100
AcDbLine
 10
971.9416901343026
 20
173.8892047233958
 30
0.0
 11
971.9416901343026
 21
175.8892047233958
 31
0.0
  0
LINE
  5
18C
330
1F
100
AcDbEntity
  8
1
  6
Continuous
 62
     7
100
AcDbLine
 10
951.9416901343026
 20
173.8892047233958
 30
0.0
 11
971.9416901343026
 21
173.8892047233958
 31
0.0
  0
LINE
  5
18D
330
1F
100
AcDbEntity
  8
1
  6
Continuous
 62
     7
100
AcDbLine
 10
951.9416901343026
 20
205.8892047233958
 30
0.0
 11
951.9416901343026
 21
173.8892047233958
 31
0.0
  0
LINE
  5
18E
330
1F
100
AcDbEntity
  8
1
  6
DASH_CENTER
 62
     3
100
AcDbLine
 10
966.9416901343026
 20
180.6892047233959
 30
0.0
 11
966.9416901343026
 21
169.1892047233959
 31
0.0
  0
LINE
  5
18F
330
1F
100
AcDbEntity
  8
1
  6
DASH_CENTER
 62
     3
100
AcDbLine
 10
958.7416901343037
 20
197.8892047233958
 30
0.0
 11
947.2416901343037
 21
197.8892047233958
 31
0.0
  0
LINE
  5
190
330
1F
100
AcDbEntity
  8
1
  6
DASH_CENTER
 62
     3
100
AcDbLine
 10
713.1416901343038
 20
197.8892047233958
 30
0.0
 11
701.6416901343038
 21
197.8892047233958
 31
0.0
  0
LINE
  5
191
330
1F
100
AcDbEntity
  8
1
  6
DASH_CENTER
 62
     3
100
AcDbLine
 10
693.4416901343028
 20
169.1892047233959
 30
0.0
 11
693.4416901343028
 21
180.6892047233959
 31
0.0
  0
LINE
  5
192
330
1F
100
AcDbEntity
  8
1
  6
Continuous
 62
     7
100
AcDbLine
 10
708.4416901343028
 20
173.8892047233958
 30
0.0
 11
708.4416901343028
 21
205.8892047233958
 31
0.0
  0
LINE
  5
193
330
1F
100
AcDbEntity
  8
1
  6
Continuous
 62
     7
100
AcDbLine
 10
688.4416901343028
 20
173.8892047233958
 30
0.0
 11
708.4416901343028
 21
173.8892047233958
 31
0.0
  0
LINE
  5
194
330
1F
100
AcDbEntity
  8
1
  6
Continuous
 62
     7
100
AcDbLine
 10
688.4416901343028
 20
175.8892047233958
 30
0.0
 11
688.4416901343028
 21
173.8892047233958
 31
0.0
  0
LINE
  5
195
330
1F
100
AcDbEntity
  8
1
  6
Continuous
 62
     7
100
AcDbLine
 10
706.4416901343028
 20
175.8892047233958
 30
0.0
 11
688.4416901343028
 21
175.8892047233958
 31
0.0
  0
LINE
  5
196
330
1F
100
AcDbEntity
  8
1
  6
Continuous
 62
     7
100
AcDbLine
 10
706.4416901343028
 20
205.8892047233958
 30
0.0
 11
706.4416901343028
 21
175.8892047233958
 31
0.0
  0
LINE
  5
197
330
1F
100
AcDbEntity
  8
1
  6
Continuous
 62
     7
100
AcDbLine
 10
708.4416901343028
 20
205.8892047233958
 30
0.0
 11
706.4416901343028
 21
205.8892047233958
 31
0.0
  0
LINE
  5
198
330
1F
100
AcDbEntity
  8
1
  6
Continuous
 62
     7
100
AcDbLine
 10
274.4221637976682
 20
714.3527020160296
 30
0.0
 11
375.4221637976687
 21
714.3527020160296
 31
0.0
  0
LINE
  5
199
330
1F
100
AcDbEntity
  8
1
  6
DASH_CENTER
 62
     3
100
AcDbLine
 10
375.5471637976689
 20
709.3527020160296
 30
0.0
 11
367.2971637976689
 21
709.3527020160296
 31
0.0
  0
LINE
  5
19A
330
1F
100
AcDbEntity
  8
1
  6
DASH_CENTER
 62
     3
100
AcDbLine
 10
371.4221637976689
 20
705.2277020160296
 30
0.0
 11
371.4221637976689
 21
713.4777020160296
 31
0.0
  0
LINE
  5
19B
330
1F
100
AcDbEntity
  8
1
  6
DASH_CENTER
 62
     3
100
AcDbLine
 10
282.5471637976702
 20
709.3527020160296
 30
0.0
 11
274.2971637976693
 21
709.3527020160296
 31
0.0
  0
LINE
  5
19C
330
1F
100
AcDbEntity
  8
1
  6
DASH_CENTER
 62
     3
100
AcDbLine
 10
278.4221637976693
 20
705.2277020160296
 30
0.0
 11
278.4221637976693
 21
713.4777020160296
 31
0.0
  0
LINE
  5
19D
330
1F
100
AcDbEntity
  8
1
  6
Continuous
 62
     7
100
AcDbLine
 10
272.4221637976682
 20
694.3527020160296
 30
0.0
 11
272.4221637976682
 21
712.3527020160296
 31
0.0
  0
LINE
  5
19E
330
1F
100
AcDbEntity
  8
1
  6
DASH_CENTER
 62
     3
100
AcDbLine
 10
278.4221637976693
 20
431.7277020160297
 30
0.0
 11
278.4221637976693
 21
439.9777020160297
 31
0.0
  0
LINE
  5
19F
330
1F
100
AcDbEntity
  8
1
  6
DASH_CENTER
 62
     3
100
AcDbLine
 10
274.2971637976693
 20
435.8527020160297
 30
0.0
 11
282.5471637976702
 21
435.8527020160297
 31
0.0
  0
LINE
  5
1A0
330
1F
100
AcDbEntity
  8
1
  6
DASH_CENTER
 62
     3
100
AcDbLine
 10
371.4221637976689
 20
431.7277020160297
 30
0.0
 11
371.4221637976689
 21
439.9777020160297
 31
0.0
  0
LINE
  5
1A1
330
1F
100
AcDbEntity
  8
1
  6
DASH_CENTER
 62
     3
100
AcDbLine
 10
367.2971637976689
 20
435.8527020160297
 30
0.0
 11
375.5471637976689
 21
435.8527020160297
 31
0.0
  0
LINE
  5
1A2
330
1F
100
AcDbEntity
  8
1
  6
Continuous
 62
     7
100
AcDbLine
 10
375.4221637976689
 20
430.8527020160297
 30
0.0
 11
274.4221637976682
 21
430.8527020160297
 31
0.0
  0
LINE
  5
1A3
330
1F
100
AcDbEntity
  8
1
  6
Continuous
 62
     7
100
AcDbLine
 10
272.4221637976682
 20
432.8527020160297
 30
0.0
 11
272.4221637976682
 21
450.8527020160297
 31
0.0
  0
LINE
  5
1A4
330
1F
100
AcDbEntity
  8
1
  6
Continuous
 62
     7
100
AcDbLine
 10
377.4221637976689
 20
712.3527020160296
 30
0.0
 11
377.4221637976689
 21
705.8482075285991
 31
0.0
  0
LINE
  5
1A5
330
1F
100
AcDbEntity
  8
1
  6
Continuous
 62
     7
100
AcDbLine
 10
953.9416901343026
 20
175.8892047233958
 30
0.0
 11
953.9416901343026
 21
205.8892047233959
 31
0.0
  0
LINE
  5
1A6
330
1F
100
AcDbEntity
  8
1
  6
Continuous
 62
     7
100
AcDbLine
 10
814.441690134303
 20
272.7892047233957
 30
0.0
 11
864.441690134303
 21
272.7892047233956
 31
0.0
  0
LINE
  5
1A7
330
1F
100
AcDbEntity
  8
1
  6
Continuous
 62
     7
100
AcDbLine
 10
814.441690134303
 20
299.9892047233959
 30
0.0
 11
864.441690134303
 21
299.9892047233959
 31
0.0
  0
LINE
  5
1A8
330
1F
100
AcDbEntity
  8
1
  6
Continuous
 62
     3
100
AcDbLine
 10
959.9416901343026
 20
283.389204723396
 30
0.0
 11
959.9416901343026
 21
289.389204723396
 31
0.0
  0
LINE
  5
1A9
330
1F
100
AcDbEntity
  8
1
  6
Continuous
 62
     7
100
AcDbLine
 10
961.4416901343026
 20
283.889204723396
 30
0.0
 11
960.9416901343037
 21
283.389204723396
 31
0.0
  0
LINE
  5
1AA
330
1F
100
AcDbEntity
  8
1
  6
Continuous
 62
     7
100
AcDbLine
 10
946.4416901343026
 20
282.389204723396
 30
0.0
 11
946.4416901343026
 21
283.389204723396
 31
0.0
  0
LINE
  5
1AB
330
1F
100
AcDbEntity
  8
1
  6
Continuous
 62
     7
100
AcDbLine
 10
946.4416901343026
 20
290.389204723396
 30
0.0
 11
946.4416901343026
 21
289.389204723396
 31
0.0
  0
LINE
  5
1AC
330
1F
100
AcDbEntity
  8
1
  6
Continuous
 62
     7
100
AcDbLine
 10
960.9416901343026
 20
289.389204723396
 30
0.0
 11
946.4416901343026
 21
289.389204723396
 31
0.0
  0
LINE
  5
1AD
330
1F
100
AcDbEntity
  8
1
  6
Continuous
 62
     7
100
AcDbLine
 10
960.9416901343037
 20
283.389204723396
 30
0.0
 11
946.4416901343026
 21
283.389204723396
 31
0.0
  0
LINE
  5
1AE
330
1F
100
AcDbEntity
  8
1
  6
Continuous
 62
     7
100
AcDbLine
 10
744.441690134303
 20
290.389204723396
 30
0.0
 11
713.4416901343028
 21
290.389204723396
 31
0.0
  0
LINE
  5
1AF
330
1F
100
AcDbEntity
  8
1
  6
Continuous
 62
     3
100
AcDbLine
 10
699.9416901343028
 20
283.389204723396
 30
0.0
 11
699.9416901343028
 21
289.389204723396
 31
0.0
  0
LINE
  5
1B0
330
1F
100
AcDbEntity
  8
1
  6
Continuous
 62
     7
100
AcDbLine
 10
744.441690134303
 20
282.389204723396
 30
0.0
 11
713.4416901343028
 21
282.389204723396
 31
0.0
  0
LINE
  5
1B1
330
1F
100
AcDbEntity
  8
1
  6
Continuous
 62
     7
100
AcDbLine
 10
713.4416901343028
 20
282.389204723396
 30
0.0
 11
713.4416901343028
 21
283.389204723396
 31
0.0
  0
LINE
  5
1B2
330
1F
100
AcDbEntity
  8
1
  6
Continuous
 62
     7
100
AcDbLine
 10
713.4416901343028
 20
290.389204723396
 30
0.0
 11
713.4416901343028
 21
289.389204723396
 31
0.0
  0
LINE
  5
1B3
330
1F
100
AcDbEntity
  8
1
  6
Continuous
 62
     7
100
AcDbLine
 10
713.4416901343028
 20
283.389204723396
 30
0.0
 11
698.9416901343028
 21
283.389204723396
 31
0.0
  0
LINE
  5
1B4
330
1F
100
AcDbEntity
  8
1
  6
Continuous
 62
     7
100
AcDbLine
 10
713.4416901343028
 20
289.389204723396
 30
0.0
 11
698.9416901343028
 21
289.389204723396
 31
0.0
  0
LINE
  5
1B5
330
1F
100
AcDbEntity
  8
1
  6
Continuous
 62
     7
100
AcDbLine
 10
934.4416901343026
 20
273.389204723396
 30
0.0
 11
934.4416901343037
 21
282.389204723396
 31
0.0
  0
LINE
  5
1B6
330
1F
100
AcDbEntity
  8
1
  6
Continuous
 62
     7
100
AcDbLine
 10
744.441690134303
 20
299.389204723396
 30
0.0
 11
744.441690134303
 21
290.389204723396
 31
0.0
  0
LINE
  5
1B7
330
1F
100
AcDbEntity
  8
1
  6
Continuous
 62
     7
100
AcDbLine
 10
934.4416901343037
 20
299.389204723396
 30
0.0
 11
864.441690134303
 21
299.9892047233959
 31
0.0
  0
LINE
  5
1B8
330
1F
100
AcDbEntity
  8
1
  6
DASH_CENTER
 62
     3
100
AcDbLine
 10
962.4506494743206
 20
286.389204723396
 30
0.0
 11
698.4416901343028
 21
286.389204723396
 31
0.0
  0
LINE
  5
1B9
330
1F
100
AcDbEntity
  8
1
  6
Continuous
 62
     7
100
AcDbLine
 10
934.4416901343026
 20
273.389204723396
 30
0.0
 11
864.441690134303
 21
272.7892047233956
 31
0.0
  0
LINE
  5
1BA
330
1F
100
AcDbEntity
  8
1
  6
Continuous
 62
     7
100
AcDbLine
 10
961.4416901343026
 20
283.889204723396
 30
0.0
 11
961.4416901343026
 21
288.889204723396
 31
0.0
  0
LINE
  5
1BB
330
1F
100
AcDbEntity
  8
1
  6
Continuous
 62
     7
100
AcDbLine
 10
960.9416901343026
 20
289.389204723396
 30
0.0
 11
961.4416901343026
 21
288.889204723396
 31
0.0
  0
LINE
  5
1BC
330
1F
100
AcDbEntity
  8
1
  6
Continuous
 62
     7
100
AcDbLine
 10
698.4416901343028
 20
288.889204723396
 30
0.0
 11
698.4416901343028
 21
283.889204723396
 31
0.0
  0
LINE
  5
1BD
330
1F
100
AcDbEntity
  8
1
  6
Continuous
 62
     7
100
AcDbLine
 10
698.9416901343028
 20
283.389204723396
 30
0.0
 11
698.4416901343028
 21
283.889204723396
 31
0.0
  0
LINE
  5
1BE
330
1F
100
AcDbEntity
  8
1
  6
Continuous
 62
     7
100
AcDbLine
 10
698.9416901343028
 20
289.389204723396
 30
0.0
 11
698.4416901343028
 21
288.889204723396
 31
0.0
  0
LINE
  5
1BF
330
1F
100
AcDbEntity
  8
1
  6
Continuous
 62
     7
100
AcDbLine
 10
934.4416901343037
 20
290.389204723396
 30
0.0
 11
934.4416901343037
 21
299.389204723396
 31
0.0
  0
LINE
  5
1C0
330
1F
100
AcDbEntity
  8
1
  6
Continuous
 62
     7
100
AcDbLine
 10
744.441690134303
 20
282.389204723396
 30
0.0
 11
744.441690134303
 21
273.389204723396
 31
0.0
  0
LINE
  5
1C1
330
1F
100
AcDbEntity
  8
1
  6
Continuous
 62
     7
100
AcDbLine
 10
814.441690134303
 20
272.7892047233957
 30
0.0
 11
744.441690134303
 21
273.389204723396
 31
0.0
  0
LINE
  5
1C2
330
1F
100
AcDbEntity
  8
1
  6
Continuous
 62
     7
100
AcDbLine
 10
814.441690134303
 20
299.9892047233959
 30
0.0
 11
744.441690134303
 21
299.389204723396
 31
0.0
  0
LINE
  5
1C3
330
1F
100
AcDbEntity
  8
1
  6
Continuous
 62
     7
100
AcDbLine
 10
524.8952492505289
 20
702.3527020160296
 30
0.0
 11
524.8952492505289
 21
690.8527020160296
 31
0.0
  0
LINE
  5
1C4
330
1F
100
AcDbEntity
  8
1
  6
Continuous
 62
     7
100
AcDbLine
 10
532.8952492505289
 20
702.3527020160296
 30
0.0
 11
532.8952492505289
 21
690.8527020160296
 31
0.0
  0
LINE
  5
1C5
330
1F
100
AcDbEntity
  8
1
  6
DASHED
 62
     4
100
AcDbLine
 10
515.2952492505299
 20
606.8527020160296
 30
0.0
 11
515.2952492505299
 21
556.8527020160296
 31
0.0
  0
LINE
  5
1C6
330
1F
100
AcDbEntity
  8
1
  6
DASHED
 62
     4
100
AcDbLine
 10
542.4952492505297
 20
556.8527020160296
 30
0.0
 11
542.4952492505297
 21
606.8527020160294
 31
0.0
  0
LINE
  5
1C7
330
1F
100
AcDbEntity
  8
1
  6
DASHED
 62
     4
100
AcDbLine
 10
515.8952492505289
 20
676.8527020160299
 30
0.0
 11
515.2952492505299
 21
606.8527020160296
 31
0.0
  0
LINE
  5
1C8
330
1F
100
AcDbEntity
  8
1
  6
DASH_CENTER
 62
     3
100
AcDbLine
 10
528.8952492505289
 20
704.8616613560463
 30
0.0
 11
528.8952492505289
 21
440.8527020160297
 31
0.0
  0
LINE
  5
1C9
330
1F
100
AcDbEntity
  8
1
  6
DASHED
 62
     4
100
AcDbLine
 10
541.8952492505289
 20
676.8527020160296
 30
0.0
 11
542.4952492505297
 21
606.8527020160294
 31
0.0
  0
LINE
  5
1CA
330
1F
100
AcDbEntity
  8
1
  6
Continuous
 62
     7
100
AcDbLine
 10
524.8952492505289
 20
453.8527020160297
 30
0.0
 11
524.8952492505289
 21
442.3527020160297
 31
0.0
  0
LINE
  5
1CB
330
1F
100
AcDbEntity
  8
1
  6
Continuous
 62
     7
100
AcDbLine
 10
532.8952492505289
 20
453.8527020160297
 30
0.0
 11
532.8952492505289
 21
442.3527020160297
 31
0.0
  0
LINE
  5
1CC
330
1F
100
AcDbEntity
  8
1
  6
Continuous
 62
     7
100
AcDbLine
 10
531.3952492505289
 20
703.8527020160296
 30
0.0
 11
526.3952492505289
 21
703.8527020160296
 31
0.0
  0
LINE
  5
1CD
330
1F
100
AcDbEntity
  8
1
  6
Continuous
 62
     7
100
AcDbLine
 10
531.3952492505289
 20
703.8527020160296
 30
0.0
 11
532.8952492505289
 21
702.3527020160296
 31
0.0
  0
LINE
  5
1CE
330
1F
100
AcDbEntity
  8
1
  6
Continuous
 62
     7
100
AcDbLine
 10
524.8952492505289
 20
702.3527020160296
 30
0.0
 11
526.3952492505289
 21
703.8527020160296
 31
0.0
  0
LINE
  5
1CF
330
1F
100
AcDbEntity
  8
1
  6
Continuous
 62
     7
100
AcDbLine
 10
526.3952492505289
 20
440.8527020160297
 30
0.0
 11
531.3952492505289
 21
440.8527020160297
 31
0.0
  0
LINE
  5
1D0
330
1F
100
AcDbEntity
  8
1
  6
Continuous
 62
     7
100
AcDbLine
 10
532.8952492505289
 20
442.3527020160297
 30
0.0
 11
531.3952492505289
 21
440.8527020160297
 31
0.0
  0
LINE
  5
1D1
330
1F
100
AcDbEntity
  8
1
  6
Continuous
 62
     7
100
AcDbLine
 10
524.8952492505289
 20
442.3527020160297
 30
0.0
 11
526.3952492505289
 21
440.8527020160297
 31
0.0
  0
LINE
  5
1D2
330
1F
100
AcDbEntity
  8
1
  6
Continuous
 62
     3
100
AcDbLine
 10
526.2494979394649
 20
442.3527020160297
 30
0.0
 11
532.8952492505289
 21
442.3527020160297
 31
0.0
  0
LINE
  5
1D3
330
1F
100
AcDbEntity
  8
1
  6
Continuous
 62
     3
100
AcDbLine
 10
526.2494979394649
 20
442.3527020160297
 30
0.0
 11
524.8952492505289
 21
442.3527020160297
 31
0.0
  0
LINE
  5
1D4
330
1F
100
AcDbEntity
  8
1
  6
Continuous
 62
     3
100
AcDbLine
 10
526.2494979394649
 20
702.3527020160296
 30
0.0
 11
532.8952492505289
 21
702.3527020160296
 31
0.0
  0
LINE
  5
1D5
330
1F
100
AcDbEntity
  8
1
  6
Continuous
 62
     3
100
AcDbLine
 10
526.2494979394649
 20
702.3527020160296
 30
0.0
 11
524.8952492505289
 21
702.3527020160296
 31
0.0
  0
LINE
  5
1D6
330
1F
100
AcDbEntity
  8
1
  6
DASHED
 62
     4
100
AcDbLine
 10
541.8952492505289
 20
676.8527020160296
 30
0.0
 11
515.8952492505289
 21
676.8527020160299
 31
0.0
  0
LINE
  5
1D7
330
1F
100
AcDbEntity
  8
1
  6
DASHED
 62
     4
100
AcDbLine
 10
515.8952492505289
 20
486.8527020160299
 30
0.0
 11
541.8952492505289
 21
486.8527020160299
 31
0.0
  0
LINE
  5
1D8
330
1F
100
AcDbEntity
  8
1
  6
DASHED
 62
     4
100
AcDbLine
 10
542.4952492505297
 20
556.8527020160296
 30
0.0
 11
541.8952492505289
 21
486.8527020160299
 31
0.0
  0
LINE
  5
1D9
330
1F
100
AcDbEntity
  8
1
  6
DASHED
 62
     4
100
AcDbLine
 10
515.2952492505299
 20
556.8527020160296
 30
0.0
 11
515.8952492505289
 21
486.8527020160299
 31
0.0
  0
LINE
  5
1DA
330
1F
100
AcDbEntity
  8
1
  6
Continuous
 62
     7
100
AcDbLine
 10
744.441690134303
 20
282.389204723396
 30
0.0
 11
744.441690134303
 21
290.389204723396
 31
0.0
  0
LINE
  5
1DB
330
1F
100
AcDbEntity
  8
1
  6
Continuous
 62
     7
100
AcDbLine
 10
934.4416901343037
 20
282.389204723396
 30
0.0
 11
934.4416901343037
 21
290.389204723396
 31
0.0
  0
LINE
  5
1DC
330
1F
100
AcDbEntity
  8
1
  6
Continuous
 62
     7
100
AcDbLine
 10
946.4416901343026
 20
290.389204723396
 30
0.0
 11
934.4416901343037
 21
290.389204723396
 31
0.0
  0
LINE
  5
1DD
330
1F
100
AcDbEntity
  8
1
  6
Continuous
 62
     7
100
AcDbLine
 10
946.4416901343026
 20
282.389204723396
 30
0.0
 11
934.4416901343037
 21
282.389204723396
 31
0.0
  0
LINE
  5
1DE
330
1F
100
AcDbEntity
  8
1
  6
Continuous
100
AcDbLine
 10
301.9221637976682
 20
693.3527020160285
 30
0.0
 11
300.4221637976682
 21
693.3527020160285
 31
0.0
  0
LINE
  5
1DF
330
1F
100
AcDbEntity
  8
1
  6
Continuous
100
AcDbLine
 10
321.4221637976682
 20
693.3527020160285
 30
0.0
 11
319.9221637976682
 21
693.3527020160285
 31
0.0
  0
LINE
  5
1E0
330
1F
100
AcDbEntity
  8
1
  6
Continuous
100
AcDbLine
 10
319.9221637976682
 20
694.3527020160285
 30
0.0
 11
301.9221637976682
 21
694.3527020160283
 31
0.0
  0
LINE
  5
1E1
330
1F
100
AcDbEntity
  8
1
  6
Continuous
100
AcDbLine
 10
295.4221637976682
 20
693.3457020160284
 30
0.0
 11
295.4221637976682
 21
693.1027020160285
 31
0.0
  0
LINE
  5
1E2
330
1F
100
AcDbEntity
  8
1
  6
Continuous
100
AcDbLine
 10
295.4221637976682
 20
700.8487020160284
 30
0.0
 11
295.4221637976682
 21
694.8577020160284
 31
0.0
  0
LINE
  5
1E3
330
1F
100
AcDbEntity
  8
1
  6
Continuous
100
AcDbLine
 10
326.4221637976682
 20
693.3467020160282
 30
0.0
 11
326.4221637976682
 21
693.1027020160285
 31
0.0
  0
LINE
  5
1E4
330
1F
100
AcDbEntity
  8
1
  6
Continuous
100
AcDbLine
 10
326.4221637976682
 20
700.8487020160284
 30
0.0
 11
326.4221637976682
 21
694.8577020160284
 31
0.0
  0
LINE
  5
1E5
330
1F
100
AcDbEntity
  8
1
  6
Continuous
100
AcDbLine
 10
298.4221637976682
 20
695.3527020160283
 30
0.0
 11
298.4221637976682
 21
693.1027020160285
 31
0.0
  0
LINE
  5
1E6
330
1F
100
AcDbEntity
  8
1
  6
Continuous
100
AcDbLine
 10
296.9221637976682
 20
695.3527020160283
 30
0.0
 11
296.9221637976682
 21
693.1027020160285
 31
0.0
  0
LINE
  5
1E7
330
1F
100
AcDbEntity
  8
1
  6
Continuous
100
AcDbLine
 10
324.9221637976682
 20
695.3527020160283
 30
0.0
 11
324.9221637976682
 21
693.1027020160285
 31
0.0
  0
LINE
  5
1E8
330
1F
100
AcDbEntity
  8
1
  6
Continuous
100
AcDbLine
 10
323.4221637976682
 20
695.3527020160283
 30
0.0
 11
323.4221637976682
 21
693.1027020160285
 31
0.0
  0
LINE
  5
1E9
330
1F
100
AcDbEntity
  8
1
  6
Continuous
100
AcDbLine
 10
299.4221637976682
 20
695.3527020160283
 30
0.0
 11
295.4221637976682
 21
695.3527020160283
 31
0.0
  0
LINE
  5
1EA
330
1F
100
AcDbEntity
  8
1
  6
Continuous
100
AcDbLine
 10
301.9221637976682
 20
700.3527020160283
 30
0.0
 11
295.4221637976682
 21
700.3527020160283
 31
0.0
  0
LINE
  5
1EB
330
1F
100
AcDbEntity
  8
1
  6
Continuous
100
AcDbLine
 10
298.4221637976682
 20
693.1027020160285
 30
0.0
 11
295.4221637976682
 21
693.1027020160285
 31
0.0
  0
LINE
  5
1EC
330
1F
100
AcDbEntity
  8
1
  6
Continuous
100
AcDbLine
 10
298.4221637976682
 20
702.6027020160283
 30
0.0
 11
295.4221637976682
 21
702.6027020160283
 31
0.0
  0
LINE
  5
1ED
330
1F
100
AcDbEntity
  8
1
  6
Continuous
100
AcDbLine
 10
326.4221637976682
 20
693.1027020160285
 30
0.0
 11
323.4221637976682
 21
693.1027020160285
 31
0.0
  0
LINE
  5
1EE
330
1F
100
AcDbEntity
  8
1
  6
Continuous
100
AcDbLine
 10
326.4221637976682
 20
702.6027020160283
 30
0.0
 11
323.4221637976682
 21
702.6027020160283
 31
0.0
  0
LINE
  5
1EF
330
1F
100
AcDbEntity
  8
1
  6
Continuous
100
AcDbLine
 10
323.4221637976682
 20
702.6027020160283
 30
0.0
 11
323.4221637976682
 21
700.3527020160283
 31
0.0
  0
LINE
  5
1F0
330
1F
100
AcDbEntity
  8
1
  6
Continuous
100
AcDbLine
 10
324.9221637976682
 20
702.6027020160283
 30
0.0
 11
324.9221637976682
 21
700.3527020160283
 31
0.0
  0
LINE
  5
1F1
330
1F
100
AcDbEntity
  8
1
  6
Continuous
100
AcDbLine
 10
326.4221637976682
 20
700.3527020160283
 30
0.0
 11
319.9221637976682
 21
700.3527020160283
 31
0.0
  0
LINE
  5
1F2
330
1F
100
AcDbEntity
  8
1
  6
Continuous
100
AcDbLine
 10
326.4221637976682
 20
695.3527020160283
 30
0.0
 11
322.4221637976682
 21
695.3527020160283
 31
0.0
  0
LINE
  5
1F3
330
1F
100
AcDbEntity
  8
1
  6
Continuous
100
AcDbLine
 10
298.4221637976682
 20
702.6027020160283
 30
0.0
 11
298.4221637976682
 21
700.3527020160283
 31
0.0
  0
LINE
  5
1F4
330
1F
100
AcDbEntity
  8
1
  6
Continuous
100
AcDbLine
 10
296.9221637976682
 20
702.6027020160283
 30
0.0
 11
296.9221637976682
 21
700.3527020160283
 31
0.0
  0
LINE
  5
1F5
330
1F
100
AcDbEntity
  8
1
  6
Continuous
100
AcDbLine
 10
295.4221637976682
 20
702.6027020160283
 30
0.0
 11
295.4221637976682
 21
702.3597020160283
 31
0.0
  0
LINE
  5
1F6
330
1F
100
AcDbEntity
  8
1
  6
Continuous
100
AcDbLine
 10
326.4221637976682
 20
702.6027020160283
 30
0.0
 11
326.4221637976682
 21
702.3597020160283
 31
0.0
  0
LINE
  5
1F7
330
1F
100
AcDbEntity
  8
1
  6
Continuous
100
AcDbLine
 10
319.1721637976682
 20
704.8527020160283
 30
0.0
 11
319.1721637976682
 21
697.3527020160283
 31
0.0
  0
LINE
  5
1F8
330
1F
100
AcDbEntity
  8
1
  6
Continuous
100
AcDbLine
 10
302.6721637976682
 20
704.8527020160283
 30
0.0
 11
302.6721637976682
 21
697.3527020160283
 31
0.0
  0
LINE
  5
1F9
330
1F
100
AcDbEntity
  8
1
  6
Continuous
100
AcDbLine
 10
319.9221637976682
 20
697.3527020160283
 30
0.0
 11
301.9221637976682
 21
697.3527020160283
 31
0.0
  0
LINE
  5
1FA
330
1F
100
AcDbEntity
  8
1
  6
Continuous
100
AcDbLine
 10
300.4221637976682
 20
694.7527020160281
 30
0.0
 11
299.4221637976682
 21
694.7527020160281
 31
0.0
  0
LINE
  5
1FB
330
1F
100
AcDbEntity
  8
1
  6
Continuous
100
AcDbLine
 10
300.4221637976682
 20
696.9527020160282
 30
0.0
 11
299.4221637976682
 21
696.9527020160282
 31
0.0
  0
LINE
  5
1FC
330
1F
100
AcDbEntity
  8
1
  6
Continuous
100
AcDbLine
 10
299.4221637976682
 20
696.9527020160282
 30
0.0
 11
299.4221637976682
 21
694.7527020160281
 31
0.0
  0
LINE
  5
1FD
330
1F
100
AcDbEntity
  8
1
  6
Continuous
100
AcDbLine
 10
322.4221637976682
 20
696.9527020160282
 30
0.0
 11
322.4221637976682
 21
694.7527020160281
 31
0.0
  0
LINE
  5
1FE
330
1F
100
AcDbEntity
  8
1
  6
Continuous
100
AcDbLine
 10
321.4221637976682
 20
700.3527020160283
 30
0.0
 11
321.4221637976682
 21
693.3527020160285
 31
0.0
  0
LINE
  5
1FF
330
1F
100
AcDbEntity
  8
1
  6
Continuous
100
AcDbLine
 10
300.4221637976682
 20
700.3527020160283
 30
0.0
 11
300.4221637976682
 21
693.3527020160285
 31
0.0
  0
LINE
  5
200
330
1F
100
AcDbEntity
  8
1
  6
Continuous
100
AcDbLine
 10
319.9221637976682
 20
700.3527020160283
 30
0.0
 11
319.9221637976682
 21
693.3527020160285
 31
0.0
  0
LINE
  5
201
330
1F
100
AcDbEntity
  8
1
  6
Continuous
100
AcDbLine
 10
301.9221637976682
 20
700.3527020160283
 30
0.0
 11
301.9221637976682
 21
693.3527020160285
 31
0.0
  0
LINE
  5
202
330
1F
100
AcDbEntity
  8
4
  6
DASH_CENTER
100
AcDbLine
 10
310.9221637976682
 20
709.3527020160283
 30
0.0
 11
310.9221637976682
 21
688.3527020160285
 31
0.0
  0
LINE
  5
203
330
1F
100
AcDbEntity
  8
4
  6
DASH_CENTER
100
AcDbLine
 10
325.4221637976682
 20
695.8527020160283
 30
0.0
 11
296.4221637976682
 21
695.8527020160283
 31
0.0
  0
LINE
  5
204
330
1F
100
AcDbEntity
  8
1
  6
Continuous
100
AcDbLine
 10
322.4221637976682
 20
696.9527020160282
 30
0.0
 11
321.4221637976682
 21
696.9527020160282
 31
0.0
  0
LINE
  5
205
330
1F
100
AcDbEntity
  8
1
  6
Continuous
100
AcDbLine
 10
322.4221637976682
 20
694.7527020160281
 30
0.0
 11
321.4221637976682
 21
694.7527020160281
 31
0.0
  0
LINE
  5
206
330
1F
100
AcDbEntity
  8
1
  6
Continuous
100
AcDbLine
 10
317.6721637976682
 20
706.3527020160283
 30
0.0
 11
304.1721637976682
 21
706.3527020160283
 31
0.0
  0
LINE
  5
207
330
1F
100
AcDbEntity
  8
1
  6
Continuous
100
AcDbLine
 10
304.1721637976682
 20
438.8527020160297
 30
0.0
 11
317.6721637976682
 21
438.8527020160297
 31
0.0
  0
LINE
  5
208
330
1F
100
AcDbEntity
  8
1
  6
Continuous
100
AcDbLine
 10
321.4221637976682
 20
450.4527020160298
 30
0.0
 11
322.4221637976682
 21
450.4527020160298
 31
0.0
  0
LINE
  5
209
330
1F
100
AcDbEntity
  8
1
  6
Continuous
100
AcDbLine
 10
321.4221637976682
 20
448.2527020160298
 30
0.0
 11
322.4221637976682
 21
448.2527020160298
 31
0.0
  0
LINE
  5
20A
330
1F
100
AcDbEntity
  8
4
  6
DASH_CENTER
100
AcDbLine
 10
296.4221637976682
 20
449.3527020160297
 30
0.0
 11
325.4221637976682
 21
449.3527020160297
 31
0.0
  0
LINE
  5
20B
330
1F
100
AcDbEntity
  8
4
  6
DASH_CENTER
100
AcDbLine
 10
310.9221637976682
 20
453.8527020160297
 30
0.0
 11
310.9221637976682
 21
435.8527020160297
 31
0.0
  0
LINE
  5
20C
330
1F
100
AcDbEntity
  8
1
  6
Continuous
100
AcDbLine
 10
301.9221637976682
 20
451.8527020160297
 30
0.0
 11
301.9221637976682
 21
444.8527020160297
 31
0.0
  0
LINE
  5
20D
330
1F
100
AcDbEntity
  8
1
  6
Continuous
100
AcDbLine
 10
319.9221637976682
 20
451.8527020160297
 30
0.0
 11
319.9221637976682
 21
444.8527020160297
 31
0.0
  0
LINE
  5
20E
330
1F
100
AcDbEntity
  8
1
  6
Continuous
100
AcDbLine
 10
300.4221637976682
 20
451.8527020160297
 30
0.0
 11
300.4221637976682
 21
444.8527020160297
 31
0.0
  0
LINE
  5
20F
330
1F
100
AcDbEntity
  8
1
  6
Continuous
100
AcDbLine
 10
321.4221637976682
 20
451.8527020160297
 30
0.0
 11
321.4221637976682
 21
444.8527020160297
 31
0.0
  0
LINE
  5
210
330
1F
100
AcDbEntity
  8
1
  6
Continuous
100
AcDbLine
 10
322.4221637976682
 20
450.4527020160298
 30
0.0
 11
322.4221637976682
 21
448.2527020160298
 31
0.0
  0
LINE
  5
211
330
1F
100
AcDbEntity
  8
1
  6
Continuous
100
AcDbLine
 10
299.4221637976682
 20
450.4527020160298
 30
0.0
 11
299.4221637976682
 21
448.2527020160298
 31
0.0
  0
LINE
  5
212
330
1F
100
AcDbEntity
  8
1
  6
Continuous
100
AcDbLine
 10
299.4221637976682
 20
448.2527020160298
 30
0.0
 11
300.4221637976682
 21
448.2527020160298
 31
0.0
  0
LINE
  5
213
330
1F
100
AcDbEntity
  8
1
  6
Continuous
100
AcDbLine
 10
299.4221637976682
 20
450.4527020160298
 30
0.0
 11
300.4221637976682
 21
450.4527020160298
 31
0.0
  0
LINE
  5
214
330
1F
100
AcDbEntity
  8
1
  6
Continuous
100
AcDbLine
 10
301.9221637976682
 20
447.8527020160297
 30
0.0
 11
319.9221637976682
 21
447.8527020160297
 31
0.0
  0
LINE
  5
215
330
1F
100
AcDbEntity
  8
1
  6
Continuous
100
AcDbLine
 10
302.6721637976682
 20
447.8527020160297
 30
0.0
 11
302.6721637976682
 21
440.3527020160297
 31
0.0
  0
LINE
  5
216
330
1F
100
AcDbEntity
  8
1
  6
Continuous
100
AcDbLine
 10
319.1721637976682
 20
447.8527020160297
 30
0.0
 11
319.1721637976682
 21
440.3527020160297
 31
0.0
  0
LINE
  5
217
330
1F
100
AcDbEntity
  8
1
  6
Continuous
100
AcDbLine
 10
326.4221637976682
 20
442.8457020160299
 30
0.0
 11
326.4221637976682
 21
442.6027020160297
 31
0.0
  0
LINE
  5
218
330
1F
100
AcDbEntity
  8
1
  6
Continuous
100
AcDbLine
 10
295.4221637976682
 20
442.8457020160299
 30
0.0
 11
295.4221637976682
 21
442.6027020160297
 31
0.0
  0
LINE
  5
219
330
1F
100
AcDbEntity
  8
1
  6
Continuous
100
AcDbLine
 10
296.9221637976682
 20
444.8527020160297
 30
0.0
 11
296.9221637976682
 21
442.6027020160297
 31
0.0
  0
LINE
  5
21A
330
1F
100
AcDbEntity
  8
1
  6
Continuous
100
AcDbLine
 10
298.4221637976682
 20
444.8527020160297
 30
0.0
 11
298.4221637976682
 21
442.6027020160297
 31
0.0
  0
LINE
  5
21B
330
1F
100
AcDbEntity
  8
1
  6
Continuous
100
AcDbLine
 10
322.4221637976682
 20
449.8527020160297
 30
0.0
 11
326.4221637976682
 21
449.8527020160297
 31
0.0
  0
LINE
  5
21C
330
1F
100
AcDbEntity
  8
1
  6
Continuous
100
AcDbLine
 10
319.9221637976682
 20
444.8527020160297
 30
0.0
 11
326.4221637976682
 21
444.8527020160297
 31
0.0
  0
LINE
  5
21D
330
1F
100
AcDbEntity
  8
1
  6
Continuous
100
AcDbLine
 10
324.9221637976682
 20
444.8527020160297
 30
0.0
 11
324.9221637976682
 21
442.6027020160297
 31
0.0
  0
LINE
  5
21E
330
1F
100
AcDbEntity
  8
1
  6
Continuous
100
AcDbLine
 10
323.4221637976682
 20
444.8527020160297
 30
0.0
 11
323.4221637976682
 21
442.6027020160297
 31
0.0
  0
LINE
  5
21F
330
1F
100
AcDbEntity
  8
1
  6
Continuous
100
AcDbLine
 10
323.4221637976682
 20
442.6027020160297
 30
0.0
 11
326.4221637976682
 21
442.6027020160297
 31
0.0
  0
LINE
  5
220
330
1F
100
AcDbEntity
  8
1
  6
Continuous
100
AcDbLine
 10
323.4221637976682
 20
452.1027020160297
 30
0.0
 11
326.4221637976682
 21
452.1027020160297
 31
0.0
  0
LINE
  5
221
330
1F
100
AcDbEntity
  8
1
  6
Continuous
100
AcDbLine
 10
295.4221637976682
 20
442.6027020160297
 30
0.0
 11
298.4221637976682
 21
442.6027020160297
 31
0.0
  0
LINE
  5
222
330
1F
100
AcDbEntity
  8
1
  6
Continuous
100
AcDbLine
 10
295.4221637976682
 20
452.1027020160297
 30
0.0
 11
298.4221637976682
 21
452.1027020160297
 31
0.0
  0
LINE
  5
223
330
1F
100
AcDbEntity
  8
1
  6
Continuous
100
AcDbLine
 10
295.4221637976682
 20
444.8527020160297
 30
0.0
 11
301.9221637976682
 21
444.8527020160297
 31
0.0
  0
LINE
  5
224
330
1F
100
AcDbEntity
  8
1
  6
Continuous
100
AcDbLine
 10
295.4221637976682
 20
449.8527020160297
 30
0.0
 11
299.4221637976682
 21
449.8527020160297
 31
0.0
  0
LINE
  5
225
330
1F
100
AcDbEntity
  8
1
  6
Continuous
100
AcDbLine
 10
323.4221637976682
 20
452.1027020160297
 30
0.0
 11
323.4221637976682
 21
449.8527020160297
 31
0.0
  0
LINE
  5
226
330
1F
100
AcDbEntity
  8
1
  6
Continuous
100
AcDbLine
 10
324.9221637976682
 20
452.1027020160297
 30
0.0
 11
324.9221637976682
 21
449.8527020160297
 31
0.0
  0
LINE
  5
227
330
1F
100
AcDbEntity
  8
1
  6
Continuous
100
AcDbLine
 10
296.9221637976682
 20
452.1027020160297
 30
0.0
 11
296.9221637976682
 21
449.8527020160297
 31
0.0
  0
LINE
  5
228
330
1F
100
AcDbEntity
  8
1
  6
Continuous
100
AcDbLine
 10
298.4221637976682
 20
452.1027020160297
 30
0.0
 11
298.4221637976682
 21
449.8527020160297
 31
0.0
  0
LINE
  5
229
330
1F
100
AcDbEntity
  8
1
  6
Continuous
100
AcDbLine
 10
326.4221637976682
 20
450.34770201603
 30
0.0
 11
326.4221637976682
 21
444.3567020160298
 31
0.0
  0
LINE
  5
22A
330
1F
100
AcDbEntity
  8
1
  6
Continuous
100
AcDbLine
 10
326.4221637976682
 20
452.1027020160297
 30
0.0
 11
326.4221637976682
 21
451.8587020160298
 31
0.0
  0
LINE
  5
22B
330
1F
100
AcDbEntity
  8
1
  6
Continuous
100
AcDbLine
 10
295.4221637976682
 20
450.34770201603
 30
0.0
 11
295.4221637976682
 21
444.3567020160298
 31
0.0
  0
LINE
  5
22C
330
1F
100
AcDbEntity
  8
1
  6
Continuous
100
AcDbLine
 10
295.4221637976682
 20
452.1027020160297
 30
0.0
 11
295.4221637976682
 21
451.8597020160298
 31
0.0
  0
LINE
  5
22D
330
1F
100
AcDbEntity
  8
1
  6
Continuous
100
AcDbLine
 10
301.9221637976682
 20
450.8527020160297
 30
0.0
 11
319.9221637976682
 21
450.8527020160297
 31
0.0
  0
LINE
  5
22E
330
1F
100
AcDbEntity
  8
1
  6
Continuous
100
AcDbLine
 10
319.9221637976682
 20
451.8527020160297
 30
0.0
 11
321.4221637976682
 21
451.8527020160297
 31
0.0
  0
LINE
  5
22F
330
1F
100
AcDbEntity
  8
1
  6
Continuous
100
AcDbLine
 10
300.4221637976682
 20
451.8527020160297
 30
0.0
 11
301.9221637976682
 21
451.8527020160297
 31
0.0
  0
LINE
  5
230
330
1F
100
AcDbEntity
  8
1
  6
DASH_CENTER
 62
     3
100
AcDbLine
 10
839.441690134303
 20
308.9477117967751
 30
0.0
 11
839.441690134303
 21
168.5703872171661
 31
0.0
  0
LINE
  5
231
330
1F
100
AcDbEntity
  8
1
  6
Continuous
 62
     7
100
AcDbLine
 10
948.9416901343037
 20
173.8892047233958
 30
0.0
 11
951.9416901343037
 21
173.8892047233958
 31
0.0
  0
LINE
  5
232
330
1F
100
AcDbEntity
  8
1
  6
Continuous
 62
     7
100
AcDbLine
 10
948.9416901343037
 20
283.2392047233959
 30
0.0
 11
948.9416901343037
 21
173.8892047233958
 31
0.0
  0
LINE
  5
233
330
1F
100
AcDbEntity
  8
1
  6
Continuous
 62
     7
100
AcDbLine
 10
951.9416901343037
 20
283.2392047233959
 30
0.0
 11
948.9416901343037
 21
283.2392047233959
 31
0.0
  0
LINE
  5
234
330
1F
100
AcDbEntity
  8
1
  6
Continuous
 62
     7
100
AcDbLine
 10
708.4416901343028
 20
173.8892047233958
 30
0.0
 11
711.4416901343028
 21
173.8892047233958
 31
0.0
  0
LINE
  5
235
330
1F
100
AcDbEntity
  8
1
  6
DASH_CENTER
 62
     3
100
AcDbLine
 10
958.4204299009426
 20
185.3892047233958
 30
0.0
 11
947.4204299009426
 21
185.3892047233958
 31
0.0
  0
LINE
  5
236
330
1F
100
AcDbEntity
  8
1
  6
DASH_CENTER
 62
     3
100
AcDbLine
 10
703.4515633573107
 20
185.3892047233958
 30
0.0
 11
713.4515633573107
 21
185.3892047233958
 31
0.0
  0
LINE
  5
237
330
1F
100
AcDbEntity
  8
1
  6
Continuous
 62
     7
100
AcDbLine
 10
708.4416901343028
 20
283.389204723396
 30
0.0
 11
708.4416901343028
 21
173.8892047233958
 31
0.0
  0
LINE
  5
238
330
1F
100
AcDbEntity
  8
1
  6
Continuous
 62
     7
100
AcDbLine
 10
711.4416901343028
 20
173.8892047233958
 30
0.0
 11
711.4416901343028
 21
283.389204723396
 31
0.0
  0
LINE
  5
239
330
1F
100
AcDbEntity
  8
1
  6
Continuous
 62
     7
100
AcDbLine
 10
711.4416901343028
 20
283.389204723396
 30
0.0
 11
708.4416901343028
 21
283.389204723396
 31
0.0
  0
LINE
  5
23A
330
1F
100
AcDbEntity
  8
1
  6
Continuous
 62
     7
100
AcDbLine
 10
951.9416901343037
 20
173.8892047233958
 30
0.0
 11
951.9416901343037
 21
283.2392047233959
 31
0.0
  0
LINE
  5
23B
330
1F
100
AcDbEntity
  8
1
  6
Continuous
 62
     7
100
AcDbLine
 10
492.4221637976689
 20
691.3527020160295
 30
0.0
 11
451.9384998536762
 21
691.3527020160298
 31
0.0
  0
LINE
  5
23C
330
1F
100
AcDbEntity
  8
1
  6
Continuous
 62
     7
100
AcDbLine
 10
492.422163797669
 20
694.3527020160295
 30
0.0
 11
492.4221637976689
 21
691.3527020160295
 31
0.0
  0
LINE
  5
23D
330
1F
100
AcDbEntity
  8
1
  6
Continuous
 62
     7
100
AcDbLine
 10
451.9384998536762
 20
694.3527020160296
 30
0.0
 11
492.422163797669
 21
694.3527020160295
 31
0.0
  0
LINE
  5
23E
330
1F
100
AcDbEntity
  8
1
  6
Continuous
 62
     7
100
AcDbLine
 10
318.4221637976679
 20
691.3527020160296
 30
0.0
 11
351.938499853678
 21
691.3527020160295
 31
0.0
  0
LINE
  5
23F
330
1F
100
AcDbEntity
  8
1
  6
Continuous
 62
     7
100
AcDbLine
 10
328.1334719423357
 20
694.3527020160296
 30
0.0
 11
351.938499853678
 21
694.35270201603
 31
0.0
  0
LINE
  5
240
330
1F
100
AcDbEntity
  8
1
  6
Continuous
 62
     7
100
AcDbLine
 10
318.4221637976679
 20
694.3527020160285
 30
0.0
 11
319.9221637976682
 21
694.3527020160285
 31
0.0
  0
LINE
  5
241
330
1F
100
AcDbEntity
  8
1
  6
Continuous
 62
     7
100
AcDbLine
 10
291.1721637976682
 20
691.3527020160296
 30
0.0
 11
303.4221637976679
 21
691.3527020160296
 31
0.0
  0
LINE
  5
242
330
1F
100
AcDbEntity
  8
1
  6
Continuous
 62
     7
100
AcDbLine
 10
293.7108556530006
 20
694.3527020160296
 30
0.0
 11
291.1721637976682
 21
694.3527020160296
 31
0.0
  0
LINE
  5
243
330
1F
100
AcDbEntity
  8
1
  6
Continuous
 62
     7
100
AcDbLine
 10
242.4221637976682
 20
694.3527020160296
 30
0.0
 11
273.6721637976682
 21
694.3527020160296
 31
0.0
  0
LINE
  5
244
330
1F
100
AcDbEntity
  8
1
  6
Continuous
 62
     7
100
AcDbLine
 10
242.4221637976681
 20
691.3527020160296
 30
0.0
 11
242.4221637976682
 21
694.3527020160296
 31
0.0
  0
LINE
  5
245
330
1F
100
AcDbEntity
  8
1
  6
Continuous
 62
     7
100
AcDbLine
 10
273.6721637976682
 20
691.3527020160296
 30
0.0
 11
242.4221637976681
 21
691.3527020160296
 31
0.0
  0
LINE
  5
246
330
1F
100
AcDbEntity
  8
1
  6
Continuous
 62
     7
100
AcDbLine
 10
242.4221637976682
 20
450.8527020160297
 30
0.0
 11
242.4221637976682
 21
453.8527020160297
 31
0.0
  0
LINE
  5
247
330
1F
100
AcDbEntity
  8
1
  6
Continuous
 62
     7
100
AcDbLine
 10
273.6721637976682
 20
450.8527020160297
 30
0.0
 11
242.4221637976682
 21
450.8527020160297
 31
0.0
  0
LINE
  5
248
330
1F
100
AcDbEntity
  8
1
  6
Continuous
 62
     7
100
AcDbLine
 10
291.1721637976682
 20
450.8527020160297
 30
0.0
 11
293.7108556530006
 21
450.8527020160297
 31
0.0
  0
LINE
  5
249
330
1F
100
AcDbEntity
  8
1
  6
Continuous
 62
     7
100
AcDbLine
 10
319.9221637976682
 20
450.8527020160308
 30
0.0
 11
318.4221637976679
 21
450.8527020160308
 31
0.0
  0
LINE
  5
24A
330
1F
100
AcDbEntity
  8
1
  6
Continuous
 62
     7
100
AcDbLine
 10
351.688499853678
 20
450.8527020160295
 30
0.0
 11
328.1334719423357
 21
450.8527020160297
 31
0.0
  0
LINE
  5
24B
330
1F
100
AcDbEntity
  8
1
  6
Continuous
 62
     7
100
AcDbLine
 10
492.4221637976689
 20
450.8527020160298
 30
0.0
 11
451.9384998536762
 21
450.8527020160298
 31
0.0
  0
LINE
  5
24C
330
1F
100
AcDbEntity
  8
1
  6
Continuous
 62
     7
100
AcDbLine
 10
492.4221637976689
 20
453.8527020160297
 30
0.0
 11
492.4221637976689
 21
450.8527020160298
 31
0.0
  0
LINE
  5
24D
330
1F
100
AcDbEntity
  8
1
  6
Continuous
 62
     7
100
AcDbLine
 10
242.4221637976682
 20
453.8527020160297
 30
0.0
 11
244.4221637976682
 21
453.8527020160296
 31
0.0
  0
LINE
  5
24E
330
1F
100
AcDbEntity
  8
1
  6
DASH_CENTER
 62
     3
100
AcDbLine
 10
259.4221637976682
 20
696.3527020160296
 30
0.0
 11
259.4221637976682
 21
448.7715574266474
 31
0.0
  0
LINE
  5
24F
330
1F
100
AcDbEntity
  8
1
  6
DASHED
 62
     4
100
AcDbLine
 10
253.4221637976682
 20
676.8527020160296
 30
0.0
 11
265.4221637976682
 21
676.8527020160296
 31
0.0
  0
LINE
  5
250
330
1F
100
AcDbEntity
  8
1
  6
DASHED
 62
     4
100
AcDbLine
 10
243.422163797669
 20
486.8527020160299
 30
0.0
 11
242.4221637976682
 21
556.8527020160299
 31
0.0
  0
LINE
  5
251
330
1F
100
AcDbEntity
  8
1
  6
DASHED
 62
     4
100
AcDbLine
 10
275.4221637976682
 20
486.8527020160299
 30
0.0
 11
276.4221637976682
 21
556.8527020160296
 31
0.0
  0
LINE
  5
252
330
1F
100
AcDbEntity
  8
1
  6
DASHED
 62
     4
100
AcDbLine
 10
275.4221637976682
 20
676.8527020160296
 30
0.0
 11
276.4221637976682
 21
556.8527020160296
 31
0.0
  0
LINE
  5
253
330
1F
100
AcDbEntity
  8
1
  6
DASHED
 62
     4
100
AcDbLine
 10
242.4221637976682
 20
556.8527020160299
 30
0.0
 11
243.4221637976682
 21
676.8527020160292
 31
0.0
  0
LINE
  5
254
330
1F
100
AcDbEntity
  8
1
  6
DASHED
 62
     4
100
AcDbLine
 10
275.4221637976682
 20
486.8527020160299
 30
0.0
 11
243.422163797669
 21
486.8527020160299
 31
0.0
  0
LINE
  5
255
330
1F
100
AcDbEntity
  8
1
  6
DASHED
 62
     4
100
AcDbLine
 10
243.4221637976682
 20
676.8527020160292
 30
0.0
 11
253.4221637976682
 21
676.8527020160296
 31
0.0
  0
LINE
  5
256
330
1F
100
AcDbEntity
  8
1
  6
DASHED
 62
     4
100
AcDbLine
 10
265.4221637976682
 20
676.8527020160296
 30
0.0
 11
275.4221637976682
 21
676.8527020160296
 31
0.0
  0
LINE
  5
257
330
1F
100
AcDbEntity
  8
1
  6
PHANTOM
 62
   140
100
AcDbLine
 10
739.441690134303
 20
272.789204723396
 30
0.0
 11
739.441690134303
 21
300.389204723396
 31
0.0
  0
LINE
  5
258
330
1F
100
AcDbEntity
  8
1
  6
PHANTOM
 62
   140
100
AcDbLine
 10
939.4416901343037
 20
272.789204723396
 30
0.0
 11
939.4416901343037
 21
301.2892047233963
 31
0.0
  0
LINE
  5
259
330
1F
100
AcDbEntity
  8
1
  6
Continuous
 62
     3
100
AcDbLine
 10
939.4416901343037
 20
271.889204723396
 30
0.0
 11
739.441690134303
 21
271.889204723396
 31
0.0
  0
LINE
  5
25A
330
1F
100
AcDbEntity
  8
1
  6
Continuous
 62
     3
100
AcDbLine
 10
939.4416901343037
 20
272.789204723396
 30
0.0
 11
939.4416901343037
 21
271.889204723396
 31
0.0
  0
LINE
  5
25B
330
1F
100
AcDbEntity
  8
1
  6
Continuous
 62
     3
100
AcDbLine
 10
739.441690134303
 20
272.789204723396
 30
0.0
 11
939.4416901343037
 21
272.789204723396
 31
0.0
  0
LINE
  5
25C
330
1F
100
AcDbEntity
  8
1
  6
Continuous
 62
     3
100
AcDbLine
 10
739.441690134303
 20
271.889204723396
 30
0.0
 11
739.441690134303
 21
272.789204723396
 31
0.0
  0
LINE
  5
25D
330
1F
100
AcDbEntity
  8
1
  6
Continuous
 62
     3
100
AcDbLine
 10
739.441690134303
 20
300.389204723396
 30
0.0
 11
739.441690134303
 21
301.2892047233963
 31
0.0
  0
LINE
  5
25E
330
1F
100
AcDbEntity
  8
1
  6
Continuous
 62
     3
100
AcDbLine
 10
939.4416901343037
 20
301.2892047233963
 30
0.0
 11
939.4416901343037
 21
300.389204723396
 31
0.0
  0
LINE
  5
25F
330
1F
100
AcDbEntity
  8
1
  6
Continuous
 62
     3
100
AcDbLine
 10
939.4416901343037
 20
300.389204723396
 30
0.0
 11
739.441690134303
 21
300.389204723396
 31
0.0
  0
LINE
  5
260
330
1F
100
AcDbEntity
  8
1
  6
Continuous
 62
     3
100
AcDbLine
 10
739.441690134303
 20
301.2892047233963
 30
0.0
 11
939.4416901343037
 21
301.2892047233963
 31
0.0
  0
LINE
  5
261
330
1F
100
AcDbEntity
  8
1
  6
Continuous
 62
     3
100
AcDbLine
 10
542.4952492505297
 20
681.8527020160296
 30
0.0
 11
242.4221637976682
 21
681.8527020160296
 31
0.0
  0
LINE
  5
262
330
1F
100
AcDbEntity
  8
1
  6
Continuous
 62
     3
100
AcDbLine
 10
542.4952492505297
 20
481.8527020160299
 30
0.0
 11
542.4952492505297
 21
681.8527020160296
 31
0.0
  0
LINE
  5
263
330
1F
100
AcDbEntity
  8
1
  6
Continuous
 62
     3
100
AcDbLine
 10
242.4221637976682
 20
481.8527020160299
 30
0.0
 11
542.4952492505297
 21
481.8527020160299
 31
0.0
  0
LINE
  5
264
330
1F
100
AcDbEntity
  8
1
  6
Continuous
 62
     3
100
AcDbLine
 10
242.4221637976682
 20
681.8527020160296
 30
0.0
 11
242.4221637976682
 21
481.8527020160299
 31
0.0
  0
LINE
  5
265
330
1F
100
AcDbEntity
  8
1
  6
Continuous
 62
     7
100
AcDbLine
 10
356.938499853678
 20
705.8482075285991
 30
0.0
 11
446.9384998536762
 21
705.8482075285991
 31
0.0
  0
LINE
  5
266
330
1F
100
AcDbEntity
  8
1
  6
Continuous
 62
     7
100
AcDbLine
 10
704.2096393267347
 20
271.3892047233956
 30
0.0
 11
700.5756647305187
 21
277.6834333574562
 31
0.0
  0
LINE
  5
267
330
1F
100
AcDbEntity
  8
1
  6
Continuous
 62
     7
100
AcDbLine
 10
701.8747028361958
 20
278.4334333574561
 30
0.0
 11
705.6530149997087
 21
271.8892047233962
 31
0.0
  0
LINE
  5
268
330
1F
100
AcDbEntity
  8
1
  6
Continuous
 62
     7
100
AcDbLine
 10
707.4377740698018
 20
269.8892047233962
 30
0.0
 11
706.5190404034928
 21
269.8892047233962
 31
0.0
  0
LINE
  5
269
330
1F
100
AcDbEntity
  8
1
  6
PHANTOM
 62
     4
100
AcDbLine
 10
706.5190404034928
 20
271.3892047233962
 30
0.0
 11
705.9416901343037
 21
271.3892047233962
 31
0.0
  0
LINE
  5
26A
330
1F
100
AcDbEntity
  8
1
  6
Continuous
 62
     7
100
AcDbLine
 10
700.5756647305187
 20
277.6834333574562
 30
0.0
 11
701.8747028361958
 21
278.4334333574561
 31
0.0
  0
LINE
  5
26B
330
1F
100
AcDbEntity
  8
1
  6
Continuous
 62
     7
100
AcDbLine
 10
958.0086774324096
 20
278.4334333574561
 30
0.0
 11
959.3077155380867
 21
277.6834333574562
 31
0.0
  0
LINE
  5
26C
330
1F
100
AcDbEntity
  8
1
  6
Continuous
 62
     7
100
AcDbLine
 10
959.3077155380867
 20
277.6834333574562
 30
0.0
 11
955.6737409418707
 21
271.3892047233956
 31
0.0
  0
LINE
  5
26D
330
1F
100
AcDbEntity
  8
1
  6
Continuous
 62
     7
100
AcDbLine
 10
954.2303652688967
 20
271.8892047233961
 30
0.0
 11
958.0086774324096
 21
278.4334333574561
 31
0.0
  0
LINE
  5
26E
330
1F
100
AcDbEntity
  8
1
  6
Continuous
 62
     7
100
AcDbLine
 10
303.4221637976679
 20
450.8527020160297
 30
0.0
 11
303.4221637976679
 21
453.8527020160297
 31
0.0
  0
LINE
  5
26F
330
1F
100
AcDbEntity
  8
1
  6
Continuous
 62
     7
100
AcDbLine
 10
318.4221637976679
 20
442.9866766122452
 30
0.0
 11
303.4221637976679
 21
442.9866766122452
 31
0.0
  0
LINE
  5
270
330
1F
100
AcDbEntity
  8
1
  6
Continuous
 62
     7
100
AcDbLine
 10
318.4221637976679
 20
447.8527020160297
 30
0.0
 11
318.4221637976679
 21
442.9866766122452
 31
0.0
  0
LINE
  5
271
330
1F
100
AcDbEntity
  8
1
  6
Continuous
 62
     7
100
AcDbLine
 10
318.4221637976679
 20
694.3527020160285
 30
0.0
 11
318.4221637976679
 21
690.8527020160296
 31
0.0
  0
LINE
  5
272
330
1F
100
AcDbEntity
  8
1
  6
Continuous
 62
     7
100
AcDbLine
 10
303.4221637976679
 20
701.7227020160295
 30
0.0
 11
318.4221637976679
 21
701.7227020160295
 31
0.0
  0
LINE
  5
273
330
1F
100
AcDbEntity
  8
1
  6
Continuous
 62
     7
100
AcDbLine
 10
303.4221637976679
 20
697.3527020160283
 30
0.0
 11
303.4221637976679
 21
701.7227020160295
 31
0.0
  0
LINE
  5
274
330
1F
100
AcDbEntity
  8
1
  6
Continuous
 62
     7
100
AcDbLine
 10
318.4221637976679
 20
690.8527020160296
 30
0.0
 11
303.4221637976679
 21
690.8527020160296
 31
0.0
  0
LINE
  5
275
330
1F
100
AcDbEntity
  8
1
  6
Continuous
 62
     7
100
AcDbLine
 10
696.4416901343028
 20
269.8892047233962
 30
0.0
 11
708.4416901343028
 21
269.8892047233962
 31
0.0
  0
LINE
  5
276
330
1F
100
AcDbEntity
  8
1
  6
Continuous
 62
     7
100
AcDbLine
 10
963.9416901343037
 20
271.3892047233962
 30
0.0
 11
951.9416901343037
 21
271.389204723396
 31
0.0
  0
LINE
  5
277
330
1F
100
AcDbEntity
  8
1
  6
Continuous
 62
     7
100
AcDbLine
 10
712.9416901343028
 20
289.389204723396
 30
0.0
 11
712.9416901343028
 21
290.889204723396
 31
0.0
  0
LINE
  5
278
330
1F
100
AcDbEntity
  8
1
  6
Continuous
 62
     7
100
AcDbLine
 10
712.9416901343028
 20
290.889204723396
 30
0.0
 11
740.4416901343021
 21
290.889204723396
 31
0.0
  0
LINE
  5
279
330
1F
100
AcDbEntity
  8
1
  6
Continuous
 62
     7
100
AcDbLine
 10
946.9416901343026
 20
290.889204723396
 30
0.0
 11
938.4416901343037
 21
290.889204723396
 31
0.0
  0
LINE
  5
27A
330
1F
100
AcDbEntity
  8
1
  6
Continuous
 62
     7
100
AcDbLine
 10
936.4416901343037
 20
292.8892047233962
 30
0.0
 11
936.4416901343037
 21
297.3892047233962
 31
0.0
  0
LINE
  5
27B
330
1F
100
AcDbEntity
  8
1
  6
Continuous
 62
     7
100
AcDbLine
 10
742.4416901343021
 20
292.8892047233962
 30
0.0
 11
742.4416901343021
 21
297.389204723396
 31
0.0
  0
LINE
  5
27C
330
1F
100
AcDbEntity
  8
1
  6
Continuous
 62
     7
100
AcDbLine
 10
948.4416901343037
 20
280.3892047233962
 30
0.0
 11
948.9416901343037
 21
280.3892047233962
 31
0.0
  0
LINE
  5
27D
330
1F
100
AcDbEntity
  8
1
  6
Continuous
 62
     7
100
AcDbLine
 10
703.4416901343028
 20
280.3892047233962
 30
0.0
 11
708.4416901343028
 21
280.3892047233962
 31
0.0
  0
LINE
  5
27E
330
1F
100
AcDbEntity
  8
1
  6
Continuous
 62
     7
100
AcDbLine
 10
711.4416901343028
 20
297.3892047233962
 30
0.0
 11
711.4416901343028
 21
289.389204723396
 31
0.0
  0
LINE
  5
27F
330
1F
100
AcDbEntity
  8
1
  6
Continuous
 62
     7
100
AcDbLine
 10
946.9416901343026
 20
290.889204723396
 30
0.0
 11
946.9416901343026
 21
289.389204723396
 31
0.0
  0
LINE
  5
280
330
1F
100
AcDbEntity
  8
1
  6
Continuous
 62
     7
100
AcDbLine
 10
948.4416901343037
 20
270.9826367374928
 30
0.0
 11
948.4416901343037
 21
283.2392047233959
 31
0.0
  0
LINE
  5
281
330
1F
100
AcDbEntity
  8
1
  6
DASH_CENTER
 62
     3
100
AcDbLine
 10
961.9842527185248
 20
286.889204723396
 30
0.0
 11
950.8991275500827
 21
286.889204723396
 31
0.0
  0
LINE
  5
282
330
1F
100
AcDbEntity
  8
1
  6
DASH_CENTER
 62
     3
100
AcDbLine
 10
956.4416901343037
 20
292.4317673076166
 30
0.0
 11
956.4416901343037
 21
281.3466421391758
 31
0.0
  0
LINE
  5
283
330
1F
100
AcDbEntity
  8
1
  6
Continuous
 62
     7
100
AcDbLine
 10
961.4416901343037
 20
285.389204723396
 30
0.0
 11
961.4416901343037
 21
288.389204723396
 31
0.0
  0
LINE
  5
284
330
1F
100
AcDbEntity
  8
1
  6
Continuous
 62
     7
100
AcDbLine
 10
951.9416901343037
 20
280.3892047233962
 30
0.0
 11
956.4416901343037
 21
280.3892047233962
 31
0.0
  0
LINE
  5
285
330
1F
100
AcDbEntity
  8
1
  6
Continuous
 62
     7
100
AcDbLine
 10
956.4416901343037
 20
293.3892047233962
 30
0.0
 11
948.4416901343037
 21
293.3892047233962
 31
0.0
  0
LINE
  5
286
330
1F
100
AcDbEntity
  8
1
  6
Continuous
 62
     7
100
AcDbLine
 10
946.9416901343026
 20
283.2392047233959
 30
0.0
 11
948.4416901343037
 21
283.2392047233959
 31
0.0
  0
LINE
  5
287
330
1F
100
AcDbEntity
  8
1
  6
Continuous
 62
     7
100
AcDbLine
 10
946.9416901343026
 20
289.5392047233959
 30
0.0
 11
948.4416901343037
 21
289.5392047233959
 31
0.0
  0
LINE
  5
288
330
1F
100
AcDbEntity
  8
1
  6
Continuous
 62
     7
100
AcDbLine
 10
946.9416901343037
 20
298.889204723396
 30
0.0
 11
936.4416901343037
 21
298.8892047233962
 31
0.0
  0
LINE
  5
289
330
1F
100
AcDbEntity
  8
1
  6
Continuous
 62
     7
100
AcDbLine
 10
696.4416901343028
 20
271.3892047233962
 30
0.0
 11
696.4416901343028
 21
269.8892047233962
 31
0.0
  0
LINE
  5
28A
330
1F
100
AcDbEntity
  8
1
  6
Continuous
 62
     7
100
AcDbLine
 10
708.4416901343028
 20
271.389204723396
 30
0.0
 11
696.4416901343028
 21
271.3892047233962
 31
0.0
  0
LINE
  5
28B
330
1F
100
AcDbEntity
  8
1
  6
Continuous
 62
     7
100
AcDbLine
 10
951.9416901343037
 20
269.8892047233962
 30
0.0
 11
963.9416901343037
 21
269.8892047233962
 31
0.0
  0
LINE
  5
28C
330
1F
100
AcDbEntity
  8
1
  6
Continuous
 62
     7
100
AcDbLine
 10
948.9416901343037
 20
271.389204723396
 30
0.0
 11
948.4416901343037
 21
271.389204723396
 31
0.0
  0
LINE
  5
28D
330
1F
100
AcDbEntity
  8
1
  6
Continuous
 62
     7
100
AcDbLine
 10
963.9416901343037
 20
271.3892047233962
 30
0.0
 11
963.9416901343037
 21
269.8892047233962
 31
0.0
  0
LINE
  5
28E
330
1F
100
AcDbEntity
  8
1
  6
Continuous
 62
     7
100
AcDbLine
 10
948.4416901343037
 20
289.389204723396
 30
0.0
 11
948.4416901343037
 21
297.3892047233962
 31
0.0
  0
LINE
  5
28F
330
1F
100
AcDbEntity
  8
1
  6
Continuous
 62
     7
100
AcDbLine
 10
742.4416901343021
 20
297.389204723396
 30
0.0
 11
742.4416901343021
 21
298.889204723396
 31
0.0
  0
LINE
  5
290
330
1F
100
AcDbEntity
  8
1
  6
Continuous
 62
     7
100
AcDbLine
 10
742.4416901343021
 20
298.889204723396
 30
0.0
 11
712.9416901343028
 21
298.889204723396
 31
0.0
  0
LINE
  5
291
330
1F
100
AcDbEntity
  8
1
  6
Continuous
 62
     7
100
AcDbLine
 10
936.4416901343037
 20
298.8892047233962
 30
0.0
 11
936.4416901343037
 21
297.3892047233962
 31
0.0
  0
LINE
  5
292
330
1F
100
AcDbEntity
  8
1
  6
Continuous
 62
     7
100
AcDbLine
 10
711.4416901343028
 20
293.3892047233962
 30
0.0
 11
703.4416901343028
 21
293.3892047233962
 31
0.0
  0
LINE
  5
293
330
1F
100
AcDbEntity
  8
1
  6
Continuous
 62
     7
100
AcDbLine
 10
698.4416901343028
 20
288.389204723396
 30
0.0
 11
698.4416901343028
 21
285.389204723396
 31
0.0
  0
LINE
  5
294
330
1F
100
AcDbEntity
  8
1
  6
DASH_CENTER
 62
     3
100
AcDbLine
 10
703.4416901343028
 20
281.3466421391758
 30
0.0
 11
703.4416901343028
 21
292.4317673076166
 31
0.0
  0
LINE
  5
295
330
1F
100
AcDbEntity
  8
1
  6
DASH_CENTER
 62
     3
100
AcDbLine
 10
708.9842527185248
 20
286.889204723396
 30
0.0
 11
697.8991275500827
 21
286.889204723396
 31
0.0
  0
LINE
  5
296
330
1F
100
AcDbEntity
  8
1
  6
Continuous
 62
     7
100
AcDbLine
 10
501.4952492505287
 20
690.8527020160296
 30
0.0
 11
501.4952492505287
 21
703.8527020160295
 31
0.0
  0
LINE
  5
297
330
1F
100
AcDbEntity
  8
1
  6
Continuous
 62
     7
100
AcDbLine
 10
501.4952492505287
 20
703.8527020160295
 30
0.0
 11
495.4952492505287
 21
703.8527020160295
 31
0.0
  0
LINE
  5
298
330
1F
100
AcDbEntity
  8
1
  6
Continuous
 62
     7
100
AcDbLine
 10
495.4952492505287
 20
690.8527020160296
 30
0.0
 11
495.4952492505287
 21
703.8527020160295
 31
0.0
  0
LINE
  5
299
330
1F
100
AcDbEntity
  8
1
  6
Continuous
 62
     7
100
AcDbLine
 10
505.1379836606208
 20
694.2338998625123
 30
0.0
 11
501.4952492505287
 21
694.2338998625123
 31
0.0
  0
LINE
  5
29A
330
1F
100
AcDbEntity
  8
1
  6
Continuous
 62
     7
100
AcDbLine
 10
501.4952492505287
 20
703.4715041695463
 30
0.0
 11
505.1379836606208
 21
703.4715041695463
 31
0.0
  0
LINE
  5
29B
330
1F
100
AcDbEntity
  8
1
  6
Continuous
 62
     7
100
AcDbLine
 10
501.4952492505287
 20
696.5433009392712
 30
0.0
 11
505.1379836606208
 21
696.5433009392712
 31
0.0
  0
LINE
  5
29C
330
1F
100
AcDbEntity
  8
1
  6
Continuous
 62
     7
100
AcDbLine
 10
501.4952492505287
 20
701.1621030927884
 30
0.0
 11
505.1379836606208
 21
701.1621030927884
 31
0.0
  0
LINE
  5
29D
330
1F
100
AcDbEntity
  8
1
  6
Continuous
 62
     7
100
AcDbLine
 10
505.4952492505287
 20
702.3168036311674
 30
0.0
 11
505.4952492505287
 21
695.3886004008912
 31
0.0
  0
LINE
  5
29E
330
1F
100
AcDbEntity
  8
1
  6
Continuous
 62
     7
100
AcDbLine
 10
492.3152492505288
 20
696.3527020160295
 30
0.0
 11
491.4152492505278
 21
697.2527020160292
 31
0.0
  0
LINE
  5
29F
330
1F
100
AcDbEntity
  8
1
  6
Continuous
 62
     7
100
AcDbLine
 10
491.4152492505278
 20
697.2527020160292
 30
0.0
 11
491.4152492505278
 21
700.4527020160292
 31
0.0
  0
LINE
  5
2A0
330
1F
100
AcDbEntity
  8
1
  6
Continuous
 62
     7
100
AcDbLine
 10
491.4152492505278
 20
700.4527020160292
 30
0.0
 11
492.3152492505288
 21
701.3527020160295
 31
0.0
  0
LINE
  5
2A1
330
1F
100
AcDbEntity
  8
1
  6
Continuous
 62
     7
100
AcDbLine
 10
492.3152492505288
 20
701.3527020160295
 30
0.0
 11
495.4952492505287
 21
701.3527020160295
 31
0.0
  0
LINE
  5
2A2
330
1F
100
AcDbEntity
  8
1
  6
Continuous
 62
     3
100
AcDbLine
 10
492.3152492505288
 20
696.3527020160295
 30
0.0
 11
492.3152492505288
 21
701.3527020160295
 31
0.0
  0
LINE
  5
2A3
330
1F
100
AcDbEntity
  8
1
  6
Continuous
 62
     3
100
AcDbLine
 10
491.8822492505288
 20
700.9197020160293
 30
0.0
 11
495.4952492505287
 21
700.9197020160293
 31
0.0
  0
LINE
  5
2A4
330
1F
100
AcDbEntity
  8
1
  6
Continuous
 62
     7
100
AcDbLine
 10
495.4952492505287
 20
696.3527020160295
 30
0.0
 11
492.3152492505288
 21
696.3527020160295
 31
0.0
  0
LINE
  5
2A5
330
1F
100
AcDbEntity
  8
1
  6
Continuous
 62
     3
100
AcDbLine
 10
495.4952492505287
 20
696.7857020160295
 30
0.0
 11
491.8822492505288
 21
696.7857020160295
 31
0.0
  0
LINE
  5
2A6
330
1F
100
AcDbEntity
  8
1
  6
DASH_CENTER
 62
     3
100
AcDbLine
 10
491.4152492505278
 20
698.8527020160295
 30
0.0
 11
524.8952492505289
 21
698.8527020160295
 31
0.0
  0
LINE
  5
2A7
330
1F
100
AcDbEntity
  8
1
  6
Continuous
 62
     7
100
AcDbLine
 10
521.3952492505289
 20
696.3527020160295
 30
0.0
 11
505.4952492505287
 21
696.3527020160295
 31
0.0
  0
LINE
  5
2A8
330
1F
100
AcDbEntity
  8
1
  6
Continuous
 62
     7
100
AcDbLine
 10
524.5379836606205
 20
694.2338998625123
 30
0.0
 11
521.3952492505289
 21
694.2338998625123
 31
0.0
  0
LINE
  5
2A9
330
1F
100
AcDbEntity
  8
1
  6
Continuous
 62
     7
100
AcDbLine
 10
521.3952492505289
 20
694.2338998625123
 30
0.0
 11
521.3952492505289
 21
703.4715041695463
 31
0.0
  0
LINE
  5
2AA
330
1F
100
AcDbEntity
  8
1
  6
Continuous
 62
     7
100
AcDbLine
 10
521.3952492505289
 20
703.4715041695463
 30
0.0
 11
524.5379836606205
 21
703.4715041695463
 31
0.0
  0
LINE
  5
2AB
330
1F
100
AcDbEntity
  8
1
  6
Continuous
 62
     7
100
AcDbLine
 10
521.3952492505289
 20
696.5433009392712
 30
0.0
 11
524.5379836606205
 21
696.5433009392712
 31
0.0
  0
LINE
  5
2AC
330
1F
100
AcDbEntity
  8
1
  6
Continuous
 62
     7
100
AcDbLine
 10
521.3952492505289
 20
701.1621030927884
 30
0.0
 11
524.5379836606205
 21
701.1621030927884
 31
0.0
  0
LINE
  5
2AD
330
1F
100
AcDbEntity
  8
1
  6
Continuous
 62
     7
100
AcDbLine
 10
520.6452712508515
 20
696.3527020160295
 30
0.0
 11
520.6452712508515
 21
701.3527020160295
 31
0.0
  0
LINE
  5
2AE
330
1F
100
AcDbEntity
  8
1
  6
Continuous
 62
     3
100
AcDbLine
 10
521.3952492505289
 20
696.3527020160295
 30
0.0
 11
520.6452712508515
 21
696.7857020160295
 31
0.0
  0
LINE
  5
2AF
330
1F
100
AcDbEntity
  8
1
  6
Continuous
 62
     3
100
AcDbLine
 10
520.6452712508515
 20
696.7857020160295
 30
0.0
 11
505.4952492505287
 21
696.7857020160295
 31
0.0
  0
LINE
  5
2B0
330
1F
100
AcDbEntity
  8
1
  6
Continuous
 62
     3
100
AcDbLine
 10
520.6452712508515
 20
700.9197020160293
 30
0.0
 11
521.3952492505289
 21
701.3527020160295
 31
0.0
  0
LINE
  5
2B1
330
1F
100
AcDbEntity
  8
1
  6
Continuous
 62
     7
100
AcDbLine
 10
505.4952492505287
 20
701.3527020160295
 30
0.0
 11
521.3952492505289
 21
701.3527020160295
 31
0.0
  0
LINE
  5
2B2
330
1F
100
AcDbEntity
  8
1
  6
Continuous
 62
     3
100
AcDbLine
 10
505.4952492505287
 20
700.9197020160293
 30
0.0
 11
520.6452712508515
 21
700.9197020160293
 31
0.0
  0
LINE
  5
2B3
330
1F
100
AcDbEntity
  8
1
  6
Continuous
 62
     7
100
AcDbLine
 10
524.8952492505289
 20
702.3168036311674
 30
0.0
 11
524.8952492505289
 21
695.3886004008912
 31
0.0
  0
LINE
  5
2B4
330
1F
100
AcDbEntity
  8
1
  6
Continuous
 62
     7
100
AcDbLine
 10
451.9384998536762
 20
700.8482075285989
 30
0.0
 11
451.9384998536762
 21
690.7971965034602
 31
0.0
  0
LINE
  5
2B5
330
1F
100
AcDbEntity
  8
1
  6
Continuous
 62
     7
100
AcDbLine
 10
273.6721637976682
 20
700.8482075285979
 30
0.0
 11
273.6721637976682
 21
690.8527020160296
 31
0.0
  0
LINE
  5
2B6
330
1F
100
AcDbEntity
  8
1
  6
Continuous
 62
     7
100
AcDbLine
 10
351.938499853678
 20
700.8482075285991
 30
0.0
 11
351.938499853678
 21
690.8527020160296
 31
0.0
  0
LINE
  5
2B7
330
1F
100
AcDbEntity
  8
1
  6
Continuous
 62
     7
100
AcDbLine
 10
291.1721637976682
 20
700.8482075285979
 30
0.0
 11
291.1721637976682
 21
690.8527020160296
 31
0.0
  0
LINE
  5
2B8
330
1F
100
AcDbEntity
  8
1
  6
Continuous
 62
     7
100
AcDbLine
 10
286.1721637976682
 20
705.8482075285979
 30
0.0
 11
278.6721637976682
 21
705.8482075285979
 31
0.0
  0
LINE
  5
2B9
330
1F
100
AcDbEntity
  8
1
  6
Continuous
 62
     7
100
AcDbLine
 10
278.4221637976682
 20
438.8527020160297
 30
0.0
 11
285.9221637976682
 21
438.8527020160297
 31
0.0
  0
LINE
  5
2BA
330
1F
100
AcDbEntity
  8
1
  6
Continuous
 62
     7
100
AcDbLine
 10
290.9221637976682
 20
453.8527020160297
 30
0.0
 11
290.9221637976682
 21
443.8527020160297
 31
0.0
  0
LINE
  5
2BB
330
1F
100
AcDbEntity
  8
1
  6
Continuous
 62
     7
100
AcDbLine
 10
351.688499853678
 20
453.8527020160297
 30
0.0
 11
351.688499853678
 21
443.8527020160297
 31
0.0
  0
LINE
  5
2BC
330
1F
100
AcDbEntity
  8
1
  6
Continuous
 62
     7
100
AcDbLine
 10
356.688499853678
 20
438.8527020160297
 30
0.0
 11
446.9384998536762
 21
438.8527020160297
 31
0.0
  0
LINE
  5
2BD
330
1F
100
AcDbEntity
  8
1
  6
Continuous
 62
     7
100
AcDbLine
 10
273.4221637976682
 20
453.8527020160297
 30
0.0
 11
273.4221637976682
 21
443.8527020160297
 31
0.0
  0
LINE
  5
2BE
330
1F
100
AcDbEntity
  8
1
  6
Continuous
 62
     7
100
AcDbLine
 10
451.9384998536762
 20
453.8527020160297
 30
0.0
 11
451.9384998536762
 21
443.8527020160297
 31
0.0
  0
LINE
  5
2BF
330
1F
100
AcDbEntity
  8
1
  6
Continuous
 62
     7
100
AcDbLine
 10
524.8952492505289
 20
449.3168036311676
 30
0.0
 11
524.8952492505289
 21
442.388600400892
 31
0.0
  0
LINE
  5
2C0
330
1F
100
AcDbEntity
  8
1
  6
Continuous
 62
     3
100
AcDbLine
 10
520.6452712508515
 20
443.7857020160297
 30
0.0
 11
505.4952492505287
 21
443.7857020160297
 31
0.0
  0
LINE
  5
2C1
330
1F
100
AcDbEntity
  8
1
  6
Continuous
 62
     7
100
AcDbLine
 10
521.3952492505289
 20
443.3527020160297
 30
0.0
 11
505.4952492505287
 21
443.3527020160297
 31
0.0
  0
LINE
  5
2C2
330
1F
100
AcDbEntity
  8
1
  6
Continuous
 62
     3
100
AcDbLine
 10
521.3952492505289
 20
443.3527020160297
 30
0.0
 11
520.6452712508515
 21
443.7857020160297
 31
0.0
  0
LINE
  5
2C3
330
1F
100
AcDbEntity
  8
1
  6
Continuous
 62
     3
100
AcDbLine
 10
505.4952492505287
 20
447.9197020160297
 30
0.0
 11
520.6452712508515
 21
447.9197020160297
 31
0.0
  0
LINE
  5
2C4
330
1F
100
AcDbEntity
  8
1
  6
Continuous
 62
     3
100
AcDbLine
 10
520.6452712508515
 20
447.9197020160297
 30
0.0
 11
521.3952492505289
 21
448.3527020160297
 31
0.0
  0
LINE
  5
2C5
330
1F
100
AcDbEntity
  8
1
  6
Continuous
 62
     7
100
AcDbLine
 10
520.6452712508515
 20
443.3527020160297
 30
0.0
 11
520.6452712508515
 21
448.3527020160297
 31
0.0
  0
LINE
  5
2C6
330
1F
100
AcDbEntity
  8
1
  6
Continuous
 62
     7
100
AcDbLine
 10
524.5379836606205
 20
443.5433009392711
 30
0.0
 11
521.3952492505289
 21
443.5433009392711
 31
0.0
  0
LINE
  5
2C7
330
1F
100
AcDbEntity
  8
1
  6
Continuous
 62
     7
100
AcDbLine
 10
524.5379836606205
 20
448.1621030927883
 30
0.0
 11
521.3952492505289
 21
448.1621030927883
 31
0.0
  0
LINE
  5
2C8
330
1F
100
AcDbEntity
  8
1
  6
Continuous
 62
     7
100
AcDbLine
 10
524.5379836606205
 20
441.2338998625127
 30
0.0
 11
521.3952492505289
 21
441.2338998625127
 31
0.0
  0
LINE
  5
2C9
330
1F
100
AcDbEntity
  8
1
  6
Continuous
 62
     7
100
AcDbLine
 10
521.3952492505289
 20
441.2338998625127
 30
0.0
 11
521.3952492505289
 21
450.4715041695469
 31
0.0
  0
LINE
  5
2CA
330
1F
100
AcDbEntity
  8
1
  6
Continuous
 62
     7
100
AcDbLine
 10
521.3952492505289
 20
450.4715041695469
 30
0.0
 11
524.5379836606205
 21
450.4715041695469
 31
0.0
  0
LINE
  5
2CB
330
1F
100
AcDbEntity
  8
1
  6
Continuous
 62
     7
100
AcDbLine
 10
505.4952492505287
 20
448.3527020160297
 30
0.0
 11
521.3952492505289
 21
448.3527020160297
 31
0.0
  0
LINE
  5
2CC
330
1F
100
AcDbEntity
  8
1
  6
DASH_CENTER
 62
     3
100
AcDbLine
 10
524.8952492505289
 20
445.8527020160297
 30
0.0
 11
491.4152492505278
 21
445.8527020160297
 31
0.0
  0
LINE
  5
2CD
330
1F
100
AcDbEntity
  8
1
  6
Continuous
 62
     3
100
AcDbLine
 10
491.8822492505288
 20
447.9197020160297
 30
0.0
 11
495.4952492505287
 21
447.9197020160297
 31
0.0
  0
LINE
  5
2CE
330
1F
100
AcDbEntity
  8
1
  6
Continuous
 62
     7
100
AcDbLine
 10
492.3152492505288
 20
448.3527020160297
 30
0.0
 11
495.4952492505287
 21
448.3527020160297
 31
0.0
  0
LINE
  5
2CF
330
1F
100
AcDbEntity
  8
1
  6
Continuous
 62
     3
100
AcDbLine
 10
495.4952492505287
 20
443.7857020160297
 30
0.0
 11
491.8822492505288
 21
443.7857020160297
 31
0.0
  0
LINE
  5
2D0
330
1F
100
AcDbEntity
  8
1
  6
Continuous
 62
     3
100
AcDbLine
 10
492.3152492505288
 20
443.3527020160297
 30
0.0
 11
492.3152492505288
 21
448.3527020160297
 31
0.0
  0
LINE
  5
2D1
330
1F
100
AcDbEntity
  8
1
  6
Continuous
 62
     7
100
AcDbLine
 10
495.4952492505287
 20
443.3527020160297
 30
0.0
 11
492.3152492505288
 21
443.3527020160297
 31
0.0
  0
LINE
  5
2D2
330
1F
100
AcDbEntity
  8
1
  6
Continuous
 62
     7
100
AcDbLine
 10
492.3152492505288
 20
443.3527020160297
 30
0.0
 11
491.4152492505278
 21
444.2527020160298
 31
0.0
  0
LINE
  5
2D3
330
1F
100
AcDbEntity
  8
1
  6
Continuous
 62
     7
100
AcDbLine
 10
491.4152492505278
 20
444.2527020160298
 30
0.0
 11
491.4152492505278
 21
447.4527020160296
 31
0.0
  0
LINE
  5
2D4
330
1F
100
AcDbEntity
  8
1
  6
Continuous
 62
     7
100
AcDbLine
 10
491.4152492505278
 20
447.4527020160296
 30
0.0
 11
492.3152492505288
 21
448.3527020160297
 31
0.0
  0
LINE
  5
2D5
330
1F
100
AcDbEntity
  8
1
  6
Continuous
 62
     7
100
AcDbLine
 10
505.4952492505287
 20
449.3168036311676
 30
0.0
 11
505.4952492505287
 21
442.388600400892
 31
0.0
  0
LINE
  5
2D6
330
1F
100
AcDbEntity
  8
1
  6
Continuous
 62
     7
100
AcDbLine
 10
505.1379836606208
 20
443.5433009392711
 30
0.0
 11
501.4952492505287
 21
443.5433009392711
 31
0.0
  0
LINE
  5
2D7
330
1F
100
AcDbEntity
  8
1
  6
Continuous
 62
     7
100
AcDbLine
 10
505.1379836606208
 20
448.1621030927883
 30
0.0
 11
501.4952492505287
 21
448.1621030927883
 31
0.0
  0
LINE
  5
2D8
330
1F
100
AcDbEntity
  8
1
  6
Continuous
 62
     7
100
AcDbLine
 10
505.1379836606208
 20
441.2338998625127
 30
0.0
 11
501.4952492505287
 21
441.2338998625127
 31
0.0
  0
LINE
  5
2D9
330
1F
100
AcDbEntity
  8
1
  6
Continuous
 62
     7
100
AcDbLine
 10
501.4952492505287
 20
450.4715041695469
 30
0.0
 11
505.1379836606208
 21
450.4715041695469
 31
0.0
  0
LINE
  5
2DA
330
1F
100
AcDbEntity
  8
1
  6
Continuous
 62
     7
100
AcDbLine
 10
495.4952492505287
 20
440.8527020160297
 30
0.0
 11
495.4952492505287
 21
453.8527020160297
 31
0.0
  0
LINE
  5
2DB
330
1F
100
AcDbEntity
  8
1
  6
Continuous
 62
     7
100
AcDbLine
 10
495.4952492505287
 20
440.8527020160297
 30
0.0
 11
501.4952492505287
 21
440.8527020160297
 31
0.0
  0
LINE
  5
2DC
330
1F
100
AcDbEntity
  8
1
  6
Continuous
 62
     7
100
AcDbLine
 10
501.4952492505287
 20
440.8527020160297
 30
0.0
 11
501.4952492505287
 21
453.8527020160297
 31
0.0
  0
LINE
  5
2DD
330
1F
100
AcDbEntity
  8
1
  6
Continuous
 62
     7
100
AcDbLine
 10
243.9221637976682
 20
453.8527020160297
 30
0.0
 11
243.9221637976682
 21
455.3527020160297
 31
0.0
  0
LINE
  5
2DE
330
1F
100
AcDbEntity
  8
1
  6
Continuous
 62
     7
100
AcDbLine
 10
243.9221637976682
 20
690.8527020160296
 30
0.0
 11
539.4952492505295
 21
690.8527020160296
 31
0.0
  0
LINE
  5
2DF
330
1F
100
AcDbEntity
  8
1
  6
Continuous
 62
     7
100
AcDbLine
 10
539.4952492505295
 20
690.8527020160296
 30
0.0
 11
539.4952492505295
 21
681.8527020160294
 31
0.0
  0
LINE
  5
2E0
330
1F
100
AcDbEntity
  8
1
  6
Continuous
 62
     7
100
AcDbLine
 10
539.4952492505295
 20
455.3527020160295
 30
0.0
 11
539.4952492505295
 21
453.8527020160297
 31
0.0
  0
LINE
  5
2E1
330
1F
100
AcDbEntity
  8
1
  6
DASH_CENTER
 62
     3
100
AcDbLine
 10
233.8669647839454
 20
581.8527020160296
 30
0.0
 11
554.2781057382622
 21
581.8527020160296
 31
0.0
  0
LINE
  5
2E2
330
1F
100
AcDbEntity
  8
1
  6
Continuous
 62
     7
100
AcDbLine
 10
243.9221637976682
 20
681.8527020160294
 30
0.0
 11
243.9221637976682
 21
690.8527020160296
 31
0.0
  0
LINE
  5
2E3
330
1F
100
AcDbEntity
  8
1
  6
Continuous
 62
     7
100
AcDbLine
 10
243.9221637976682
 20
455.3527020160297
 30
0.0
 11
243.9221637976682
 21
481.8527020160299
 31
0.0
  0
LINE
  5
2E4
330
1F
100
AcDbEntity
  8
1
  6
Continuous
 62
     7
100
AcDbLine
 10
539.4952492505295
 20
481.8527020160299
 30
0.0
 11
539.4952492505295
 21
455.3527020160295
 31
0.0
  0
LINE
  5
2E5
330
1F
100
AcDbEntity
  8
1
  6
Continuous
 62
     7
100
AcDbLine
 10
946.9416901343026
 20
283.389204723396
 30
0.0
 11
946.9416901343026
 21
271.1166113337085
 31
0.0
  0
LINE
  5
2E6
330
1F
100
AcDbEntity
  8
1
  6
Continuous
 62
     7
100
AcDbLine
 10
318.4221637976679
 20
701.7227020160295
 30
0.0
 11
318.4221637976679
 21
697.3527020160285
 31
0.0
  0
LINE
  5
2E7
330
1F
100
AcDbEntity
  8
1
  6
Continuous
 62
     7
100
AcDbLine
 10
303.4221637976679
 20
690.8527020160296
 30
0.0
 11
303.4221637976679
 21
694.3527020160285
 31
0.0
  0
LINE
  5
2E8
330
1F
100
AcDbEntity
  8
1
  6
Continuous
 62
     7
100
AcDbLine
 10
318.4221637976679
 20
453.8527020160297
 30
0.0
 11
318.4221637976679
 21
450.8527020160308
 31
0.0
  0
LINE
  5
2E9
330
1F
100
AcDbEntity
  8
1
  6
Continuous
 62
     7
100
AcDbLine
 10
303.4221637976679
 20
442.9866766122452
 30
0.0
 11
303.4221637976679
 21
447.8527020160297
 31
0.0
  0
LINE
  5
2EA
330
1F
100
AcDbEntity
  8
1
  6
Continuous
 62
     7
100
AcDbLine
 10
708.4416901343028
 20
271.389204723396
 30
0.0
 11
706.5190404034928
 21
271.3892047233962
 31
0.0
  0
LINE
  5
2EB
330
1F
100
AcDbEntity
  8
1
  6
Continuous
 62
     7
100
AcDbLine
 10
243.9221637976682
 20
453.8527020160297
 30
0.0
 11
539.4952492505295
 21
453.8527020160297
 31
0.0
  0
LINE
  5
2EC
330
1F
100
AcDbEntity
  8
1
  6
Continuous
 62
     4
100
AcDbLine
 10
353.3337835827087
 20
581.8527020160296
 30
0.0
 11
382.1701268015708
 21
590.503604981688
 31
0.0
  0
LINE
  5
2ED
330
1F
100
AcDbEntity
  8
1
  6
Continuous
 62
     4
100
AcDbLine
 10
382.1701268015708
 20
590.503604981688
 30
0.0
 11
382.1701268015708
 21
585.3130632022929
 31
0.0
  0
LINE
  5
2EE
330
1F
100
AcDbEntity
  8
1
  6
Continuous
 62
     4
100
AcDbLine
 10
382.1701268015708
 20
585.3130632022929
 30
0.0
 11
401.3943556141434
 21
585.3130632022929
 31
0.0
  0
LINE
  5
2EF
330
1F
100
AcDbEntity
  8
1
  6
Continuous
 62
     4
100
AcDbLine
 10
401.3943556141434
 20
585.3130632022929
 30
0.0
 11
401.3943556141434
 21
578.3923408297663
 31
0.0
  0
LINE
  5
2F0
330
1F
100
AcDbEntity
  8
1
  6
Continuous
 62
     4
100
AcDbLine
 10
401.3943556141434
 20
578.3923408297663
 30
0.0
 11
382.1701268015708
 21
578.3923408297663
 31
0.0
  0
LINE
  5
2F1
330
1F
100
AcDbEntity
  8
1
  6
Continuous
 62
     4
100
AcDbLine
 10
382.1701268015708
 20
578.3923408297663
 30
0.0
 11
382.1701268015708
 21
573.2017990503713
 31
0.0
  0
LINE
  5
2F2
330
1F
100
AcDbEntity
  8
1
  6
Continuous
 62
     4
100
AcDbLine
 10
382.1701268015708
 20
573.2017990503713
 30
0.0
 11
353.3337835827087
 21
581.8527020160296
 31
0.0
  0
ARC
  5
2F3
330
1F
100
AcDbEntity
  8
1
  6
Continuous
 62
     7
100
AcDbCircle
 10
528.8952492505289
 20
286.3892047233965
 30
0.0
 40
13.60000000000005
100
AcDbArc
 50
-171.5434806647273
 51
-66.7974269427644
  0
ARC
  5
2F4
330
1F
100
AcDbEntity
  8
1
  6
DASHED
 62
     4
100
AcDbCircle
 10
528.8952492505289
 20
286.3892047233965
 30
0.0
 40
13.59999999999898
100
AcDbArc
 50
113.2025730572264
 51
-171.5434806647273
  0
ARC
  5
2F5
330
1F
100
AcDbEntity
  8
1
  6
PHANTOM
 62
   140
100
AcDbCircle
 10
259.356819573633
 20
283.3892047233965
 30
0.0
 40
17.00088287132134
100
AcDbArc
 50
89.94494195440723
 51
-86.87449047433699
  0
ARC
  5
2F6
330
1F
100
AcDbEntity
  8
1
  6
Continuous
100
AcDbCircle
 10
300.4221637976689
 20
269.3892047233965
 30
0.0
 40
1.5
100
AcDbArc
 50
-90.0
 51
0.0
  0
ARC
  5
2F7
330
1F
100
AcDbEntity
  8
1
  6
Continuous
100
AcDbCircle
 10
298.4221637976689
 20
243.8892047233964
 30
0.0
 40
1.5
100
AcDbArc
 50
180.0
 51
-128.409999999926
  0
ARC
  5
2F8
330
1F
100
AcDbEntity
  8
1
  6
Continuous
100
AcDbCircle
 10
300.4221637976689
 20
240.3892047233964
 30
0.0
 40
1.5
100
AcDbArc
 50
0.0
 51
51.58999999997967
  0
ARC
  5
2F9
330
1F
100
AcDbEntity
  8
1
  6
Continuous
100
AcDbCircle
 10
323.4221637976689
 20
243.8892047233964
 30
0.0
 40
1.500000000000683
100
AcDbArc
 50
-51.59000000000598
 51
0.0
  0
ARC
  5
2FA
330
1F
100
AcDbEntity
  8
1
  6
Continuous
100
AcDbCircle
 10
321.4221637976689
 20
269.3892047233965
 30
0.0
 40
1.5
100
AcDbArc
 50
180.0
 51
-90.0
  0
ARC
  5
2FB
330
1F
100
AcDbEntity
  8
1
  6
Continuous
100
AcDbCircle
 10
321.4221637976689
 20
240.3892047233964
 30
0.0
 40
1.499999999999263
100
AcDbArc
 50
128.4096999999348
 51
180.0
  0
ARC
  5
2FC
330
1F
100
AcDbEntity
  8
1
  6
Continuous
100
AcDbCircle
 10
318.1721637976689
 20
232.3892047233964
 30
0.0
 40
1.0
100
AcDbArc
 50
90.0
 51
180.0
  0
ARC
  5
2FD
330
1F
100
AcDbEntity
  8
1
  6
Continuous
100
AcDbCircle
 10
303.6721637976689
 20
232.3892047233964
 30
0.0
 40
1.0
100
AcDbArc
 50
0.0
 51
90.0
  0
ARC
  5
2FE
330
1F
100
AcDbEntity
  8
1
  6
Continuous
100
AcDbCircle
 10
310.9221637976689
 20
224.1392047233962
 30
0.0
 40
6.250000000000095
100
AcDbArc
 50
179.9999899999943
 51
0.0
  0
ARC
  5
2FF
330
1F
100
AcDbEntity
  8
1
  6
Continuous
100
AcDbCircle
 10
324.9221637976689
 20
267.8892047233965
 30
0.0
 40
1.5
100
AcDbArc
 50
0.0
 51
90.0
  0
ARC
  5
300
330
1F
100
AcDbEntity
  8
1
  6
Continuous
100
AcDbCircle
 10
296.9221637976689
 20
267.8892047233965
 30
0.0
 40
1.5
100
AcDbArc
 50
90.0
 51
180.0
  0
ARC
  5
301
330
1F
100
AcDbEntity
  8
1
  6
Continuous
100
AcDbCircle
 10
328.9720637976689
 20
259.9772047233964
 30
0.0
 40
0.6999999999995969
100
AcDbArc
 50
-94.99999999997372
 51
84.9999999998538
  0
ARC
  5
302
330
1F
100
AcDbEntity
  8
1
  6
Continuous
100
AcDbCircle
 10
320.8721637976701
 20
260.6862047233965
 30
0.0
 40
0.6999999999995304
100
AcDbArc
 50
85.00000000003514
 51
-94.99999999989632
  0
ARC
  5
303
330
1F
100
AcDbEntity
  8
1
  6
Continuous
100
AcDbCircle
 10
320.8721637976701
 20
258.9592047233966
 30
0.0
 40
0.70000000000004
100
AcDbArc
 50
85.0000000000388
 51
-94.99999999989673
  0
ARC
  5
304
330
1F
100
AcDbEntity
  8
1
  6
Continuous
100
AcDbCircle
 10
328.9720637976689
 20
258.2512047233965
 30
0.0
 40
0.6999999999997102
100
AcDbArc
 50
-94.99999999997291
 51
84.99999999985218
  0
ARC
  5
305
330
1F
100
AcDbEntity
  8
1
  6
Continuous
100
AcDbCircle
 10
328.9720637976689
 20
256.5242047233962
 30
0.0
 40
0.6999999999992855
100
AcDbArc
 50
-94.99999999997596
 51
84.9999999998534
  0
ARC
  5
306
330
1F
100
AcDbEntity
  8
1
  6
Continuous
100
AcDbCircle
 10
320.8721637976701
 20
257.2332047233963
 30
0.0
 40
0.7000000000002665
100
AcDbArc
 50
85.00000000004042
 51
-94.9999999999016
  0
ARC
  5
307
330
1F
100
AcDbEntity
  8
1
  6
Continuous
100
AcDbCircle
 10
320.8721637976701
 20
255.5062047233964
 30
0.0
 40
0.7000000000000684
100
AcDbArc
 50
85.000000000039
 51
-94.99999999990199
  0
ARC
  5
308
330
1F
100
AcDbEntity
  8
1
  6
Continuous
100
AcDbCircle
 10
328.9720637976689
 20
254.7982047233963
 30
0.0
 40
0.6999999999991723
100
AcDbArc
 50
-94.99999999997677
 51
84.99999999985036
  0
ARC
  5
309
330
1F
100
AcDbEntity
  8
1
  6
Continuous
100
AcDbCircle
 10
328.9720637976689
 20
253.0712047233965
 30
0.0
 40
0.6999999999998517
100
AcDbArc
 50
-94.99999999997191
 51
84.99999999985258
  0
ARC
  5
30A
330
1F
100
AcDbEntity
  8
1
  6
Continuous
100
AcDbCircle
 10
320.8721637976701
 20
253.7802047233965
 30
0.0
 40
0.6999999999996437
100
AcDbArc
 50
85.00000000003595
 51
-94.99999999989774
  0
ARC
  5
30B
330
1F
100
AcDbEntity
  8
1
  6
Continuous
100
AcDbCircle
 10
320.8721637976701
 20
252.0532047233968
 30
0.0
 40
0.6999999999991623
100
AcDbArc
 50
85.00000000003251
 51
-94.99999999989653
  0
ARC
  5
30C
330
1F
100
AcDbEntity
  8
1
  6
Continuous
100
AcDbCircle
 10
328.9720637976689
 20
251.3442047233965
 30
0.0
 40
0.6999999999998517
100
AcDbArc
 50
-94.99999999997191
 51
84.9999999998534
  0
ARC
  5
30D
330
1F
100
AcDbEntity
  8
1
  6
Continuous
100
AcDbCircle
 10
320.8721637976701
 20
250.3262047233963
 30
0.0
 40
0.6999999999998419
100
AcDbArc
 50
85.00000000003738
 51
-94.99999999989855
  0
ARC
  5
30E
330
1F
100
AcDbEntity
  8
1
  6
Continuous
100
AcDbCircle
 10
328.9720637976689
 20
249.6182047233966
 30
0.0
 40
0.6999999999998234
100
AcDbArc
 50
-94.9999999999721
 51
84.99999999984995
  0
ARC
  5
30F
330
1F
100
AcDbEntity
  8
1
  6
Continuous
100
AcDbCircle
 10
300.9720637976689
 20
259.9772047233964
 30
0.0
 40
0.6999999999995969
100
AcDbArc
 50
-94.99999999997372
 51
84.9999999998538
  0
ARC
  5
310
330
1F
100
AcDbEntity
  8
1
  6
Continuous
100
AcDbCircle
 10
292.8721637976698
 20
260.6862047233965
 30
0.0
 40
0.6999999999995552
100
AcDbArc
 50
85.00000000001197
 51
-94.99999999987315
  0
ARC
  5
311
330
1F
100
AcDbEntity
  8
1
  6
Continuous
100
AcDbCircle
 10
292.8721637976698
 20
258.9592047233966
 30
0.0
 40
0.7000000000000648
100
AcDbArc
 50
85.00000000001562
 51
-94.99999999987355
  0
ARC
  5
312
330
1F
100
AcDbEntity
  8
1
  6
Continuous
100
AcDbCircle
 10
300.9720637976689
 20
258.2512047233965
 30
0.0
 40
0.6999999999997102
100
AcDbArc
 50
-94.99999999997291
 51
84.99999999985218
  0
ARC
  5
313
330
1F
100
AcDbEntity
  8
1
  6
Continuous
100
AcDbCircle
 10
300.9720637976689
 20
256.5242047233962
 30
0.0
 40
0.6999999999992855
100
AcDbArc
 50
-94.99999999997596
 51
84.9999999998534
  0
ARC
  5
314
330
1F
100
AcDbEntity
  8
1
  6
Continuous
100
AcDbCircle
 10
292.8721637976698
 20
257.2332047233963
 30
0.0
 40
0.7000000000002914
100
AcDbArc
 50
85.00000000001724
 51
-94.99999999987843
  0
ARC
  5
315
330
1F
100
AcDbEntity
  8
1
  6
Continuous
100
AcDbCircle
 10
292.8721637976698
 20
255.5062047233964
 30
0.0
 40
0.7000000000000931
100
AcDbArc
 50
85.00000000001582
 51
-94.99999999987882
  0
ARC
  5
316
330
1F
100
AcDbEntity
  8
1
  6
Continuous
100
AcDbCircle
 10
300.9720637976689
 20
254.7982047233963
 30
0.0
 40
0.6999999999991723
100
AcDbArc
 50
-94.99999999997677
 51
84.99999999985036
  0
ARC
  5
317
330
1F
100
AcDbEntity
  8
1
  6
Continuous
100
AcDbCircle
 10
300.9720637976689
 20
253.0712047233965
 30
0.0
 40
0.6999999999998517
100
AcDbArc
 50
-94.99999999997191
 51
84.99999999985258
  0
ARC
  5
318
330
1F
100
AcDbEntity
  8
1
  6
Continuous
100
AcDbCircle
 10
292.8721637976698
 20
253.7802047233965
 30
0.0
 40
0.6999999999996684
100
AcDbArc
 50
85.00000000001278
 51
-94.99999999987456
  0
ARC
  5
319
330
1F
100
AcDbEntity
  8
1
  6
Continuous
100
AcDbCircle
 10
292.8721637976698
 20
252.0532047233968
 30
0.0
 40
0.6999999999991872
100
AcDbArc
 50
85.00000000000934
 51
-94.99999999987334
  0
ARC
  5
31A
330
1F
100
AcDbEntity
  8
1
  6
Continuous
100
AcDbCircle
 10
300.9720637976689
 20
251.3442047233965
 30
0.0
 40
0.6999999999998517
100
AcDbArc
 50
-94.99999999997191
 51
84.9999999998534
  0
ARC
  5
31B
330
1F
100
AcDbEntity
  8
1
  6
Continuous
100
AcDbCircle
 10
292.8721637976698
 20
250.3262047233963
 30
0.0
 40
0.6999999999998666
100
AcDbArc
 50
85.0000000000142
 51
-94.99999999987539
  0
ARC
  5
31C
330
1F
100
AcDbEntity
  8
1
  6
Continuous
100
AcDbCircle
 10
300.9720637976689
 20
249.6182047233966
 30
0.0
 40
0.6999999999998234
100
AcDbArc
 50
-94.9999999999721
 51
84.99999999984995
  0
ARC
  5
31D
330
1F
100
AcDbEntity
  8
0
  6
PHANTOM
 62
   140
100
AcDbCircle
 10
300.9553262880079
 20
220.0394201266995
 30
0.0
 40
46.99999999999922
100
AcDbArc
 50
36.55220000000004
 51
50.8112340000007
  0
ARC
  5
31E
330
1F
100
AcDbEntity
  8
0
  6
PHANTOM
 62
   140
100
AcDbCircle
 10
334.155338288007
 20
186.8394231266995
 30
0.0
 40
6.80000000000021
100
AcDbArc
 50
-90.0
 51
0.00012899999837
  0
ARC
  5
31F
330
1F
100
AcDbEntity
  8
0
  6
PHANTOM
 62
   140
100
AcDbCircle
 10
334.155338288007
 20
253.2394171266994
 30
0.0
 40
6.800000000000434
100
AcDbArc
 50
0.0002570000016
 51
90.0
  0
ARC
  5
320
330
1F
100
AcDbEntity
  8
0
  6
PHANTOM
 62
   140
100
AcDbCircle
 10
300.9553262880079
 20
220.0394201266995
 30
0.0
 40
47.00000000000018
100
AcDbArc
 50
129.1887659999993
 51
143.1036930000001
  0
ARC
  5
321
330
1F
100
AcDbEntity
  8
0
  6
PHANTOM
 62
   140
100
AcDbCircle
 10
300.9553262880079
 20
220.0394201266995
 30
0.0
 40
47.00000000000045
100
AcDbArc
 50
-141.1530089999993
 51
-128.783600000001
  0
ARC
  5
322
330
1F
100
AcDbEntity
  8
0
  6
PHANTOM
 62
   140
100
AcDbCircle
 10
267.7553142880079
 20
253.2394171266994
 30
0.0
 40
6.80000000000021
100
AcDbArc
 50
90.0
 51
179.9997429999984
  0
ARC
  5
323
330
1F
100
AcDbEntity
  8
0
  6
PHANTOM
 62
   140
100
AcDbCircle
 10
267.7553142880079
 20
186.8394231266995
 30
0.0
 40
6.800000000000137
100
AcDbArc
 50
179.9998710000017
 51
-90.0
  0
ARC
  5
324
330
1F
100
AcDbEntity
  8
0
  6
PHANTOM
 62
   140
100
AcDbCircle
 10
300.9553262880079
 20
220.0394201266995
 30
0.0
 40
46.99999999999955
100
AcDbArc
 50
-51.21640000000067
 51
-37.32412900000076
  0
ARC
  5
325
330
1F
100
AcDbEntity
  8
1
  6
DASHED
 62
     4
100
AcDbCircle
 10
528.8952492505289
 20
286.3892047233965
 30
0.0
 40
3.999999999999618
100
AcDbArc
 50
49.6850908252753
 51
130.3149091747123
  0
ARC
  5
326
330
1F
100
AcDbEntity
  8
1
  6
Continuous
 62
     7
100
AcDbCircle
 10
528.8952492505289
 20
286.3892047233965
 30
0.0
 40
3.999999999998882
100
AcDbArc
 50
130.3149091747123
 51
-130.3149091747028
  0
ARC
  5
327
330
1F
100
AcDbEntity
  8
1
  6
Continuous
 62
     7
100
AcDbCircle
 10
528.8952492505289
 20
286.3892047233965
 30
0.0
 40
3.999999999999091
100
AcDbArc
 50
0.0
 51
49.6850908252753
  0
ARC
  5
328
330
1F
100
AcDbEntity
  8
1
  6
DASHED
 62
     4
100
AcDbCircle
 10
528.8952492505289
 20
286.3892047233965
 30
0.0
 40
3.999999999999662
100
AcDbArc
 50
-130.3149091747028
 51
-49.68509082528478
  0
ARC
  5
329
330
1F
100
AcDbEntity
  8
1
  6
Continuous
 62
     7
100
AcDbCircle
 10
528.8952492505289
 20
286.3892047233965
 30
0.0
 40
13.6
100
AcDbArc
 50
-39.2821194221544
 51
113.2025730572264
  0
ARC
  5
32A
330
1F
100
AcDbEntity
  8
1
  6
Continuous
 62
     7
100
AcDbCircle
 10
528.8952492505289
 20
286.3892047233965
 30
0.0
 40
4.000000000000398
100
AcDbArc
 50
-49.68509082528478
 51
0.0
  0
ARC
  5
32B
330
1F
100
AcDbEntity
  8
1
  6
DASHED
 62
     4
100
AcDbCircle
 10
528.8952492505289
 20
286.3892047233965
 30
0.0
 40
13.59999999999992
100
AcDbArc
 50
-66.7974269427644
 51
-39.2821194221544
  0
ARC
  5
32C
330
1F
100
AcDbEntity
  8
1
  6
Continuous
 62
     7
100
AcDbCircle
 10
519.2221637976691
 20
286.3892047233965
 30
0.0
 40
4.000000000000013
100
AcDbArc
 50
129.1949674259853
 51
131.4096221092803
  0
ARC
  5
32D
330
1F
100
AcDbEntity
  8
1
  6
DASHED
 62
     4
100
AcDbCircle
 10
531.9258277416589
 20
286.3892047233965
 30
0.0
 40
4.000000000000234
100
AcDbArc
 50
-50.80503257401733
 51
-48.59037789073837
  0
ARC
  5
32E
330
1F
100
AcDbEntity
  8
1
  6
Continuous
 62
     7
100
AcDbCircle
 10
522.793841654938
 20
290.3533063385341
 30
0.0
 40
2.044658198739107
100
AcDbArc
 50
-34.38424746803243
 51
34.38424746803112
  0
ARC
  5
32F
330
1F
100
AcDbEntity
  8
1
  6
Continuous
 62
     7
100
AcDbCircle
 10
517.195765443586
 20
286.8892047233965
 30
0.0
 40
7.64273441009123
100
AcDbArc
 50
-17.58795377399511
 51
17.58795377399349
  0
ARC
  5
330
330
1F
100
AcDbEntity
  8
1
  6
Continuous
 62
     7
100
AcDbCircle
 10
522.793841654938
 20
283.4251031082587
 30
0.0
 40
2.044658198739331
100
AcDbArc
 50
-34.38424746804164
 51
34.38424746803243
  0
ARC
  5
331
330
1F
100
AcDbEntity
  8
1
  6
Continuous
 62
     7
100
AcDbCircle
 10
503.377505598929
 20
290.3533063385341
 30
0.0
 40
2.044658198739154
100
AcDbArc
 50
-34.38424746803153
 51
34.38424746803022
  0
ARC
  5
332
330
1F
100
AcDbEntity
  8
1
  6
Continuous
 62
     7
100
AcDbCircle
 10
497.779429387575
 20
286.8892047233965
 30
0.0
 40
7.642734410093182
100
AcDbArc
 50
-17.58795377399048
 51
17.58795377398885
  0
ARC
  5
333
330
1F
100
AcDbEntity
  8
1
  6
Continuous
 62
     7
100
AcDbCircle
 10
503.377505598929
 20
283.4251031082587
 30
0.0
 40
2.044658198739378
100
AcDbArc
 50
-34.38424746804073
 51
34.38424746803153
  0
ARC
  5
334
330
1F
100
AcDbEntity
  8
1
  6
Continuous
 62
     7
100
AcDbCircle
 10
531.9258277416589
 20
286.3892047233965
 30
0.0
 40
4.0
100
AcDbArc
 50
0.0
 51
50.80503257401475
  0
ARC
  5
335
330
1F
100
AcDbEntity
  8
1
  6
Continuous
 62
     7
100
AcDbCircle
 10
531.9258277416589
 20
286.3892047233965
 30
0.0
 40
3.999999999999886
100
AcDbArc
 50
-48.59037789073837
 51
0.0
  0
ARC
  5
336
330
1F
100
AcDbEntity
  8
1
  6
Continuous
 62
     7
100
AcDbCircle
 10
259.4221637976689
 20
283.3892047233965
 30
0.0
 40
15.49999999999997
100
AcDbArc
 50
180.0
 51
-119.4287071768682
  0
ARC
  5
337
330
1F
100
AcDbEntity
  8
1
  6
Continuous
 62
     7
100
AcDbCircle
 10
259.4221637976689
 20
283.3892047233965
 30
0.0
 40
15.5
100
AcDbArc
 50
90.0
 51
180.0
  0
ARC
  5
338
330
1F
100
AcDbEntity
  8
1
  6
Continuous
 62
     7
100
AcDbCircle
 10
531.4221637976689
 20
290.8892047233965
 30
0.0
 40
8.0
100
AcDbArc
 50
0.0
 51
90.0
  0
ARC
  5
339
330
1F
100
AcDbEntity
  8
1
  6
PHANTOM
 62
   140
100
AcDbCircle
 10
259.40582774166
 20
283.3892047233965
 30
0.0
 40
17.00088287132134
100
AcDbArc
 50
89.94494195440377
 51
-86.8744904743366
  0
ARC
  5
33A
330
1F
100
AcDbEntity
  8
1
  6
PHANTOM
 62
   140
100
AcDbCircle
 10
528.8952492505289
 20
286.3892047233965
 30
0.0
 40
13.60000000000011
100
AcDbArc
 50
-86.92946664611621
 51
90.0
  0
ARC
  5
33B
330
1F
100
AcDbEntity
  8
1
  6
Continuous
100
AcDbCircle
 10
304.1721637976682
 20
704.8527020160283
 30
0.0
 40
1.5
100
AcDbArc
 50
90.0
 51
180.0
  0
ARC
  5
33C
330
1F
100
AcDbEntity
  8
1
  6
Continuous
100
AcDbCircle
 10
317.6721637976682
 20
704.8527020160283
 30
0.0
 40
1.5
100
AcDbArc
 50
0.0
 51
90.0
  0
ARC
  5
33D
330
1F
100
AcDbEntity
  8
1
  6
Continuous
100
AcDbCircle
 10
324.9221637976682
 20
697.8527020160283
 30
0.0
 40
4.750000000001193
100
AcDbArc
 50
-137.4631000000086
 51
-108.4084999999964
  0
ARC
  5
33E
330
1F
100
AcDbEntity
  8
1
  6
Continuous
100
AcDbCircle
 10
296.9221637976682
 20
697.8527020160283
 30
0.0
 40
3.349999999999909
100
AcDbArc
 50
90.0
 51
-90.0
  0
ARC
  5
33F
330
1F
100
AcDbEntity
  8
1
  6
Continuous
100
AcDbCircle
 10
296.9221637976682
 20
697.8527020160283
 30
0.0
 40
3.350000000000085
100
AcDbArc
 50
48.26799999998804
 51
63.39999999999694
  0
ARC
  5
340
330
1F
100
AcDbEntity
  8
1
  6
Continuous
100
AcDbCircle
 10
296.9221637976682
 20
697.8527020160283
 30
0.0
 40
4.75
100
AcDbArc
 50
90.0
 51
-90.0
  0
ARC
  5
341
330
1F
100
AcDbEntity
  8
1
  6
Continuous
100
AcDbCircle
 10
296.9221637976682
 20
697.8527020160283
 30
0.0
 40
4.750000000000222
100
AcDbArc
 50
31.75700000000004
 51
71.59200000000158
  0
ARC
  5
342
330
1F
100
AcDbEntity
  8
1
  6
Continuous
100
AcDbCircle
 10
324.9221637976682
 20
697.8527020160283
 30
0.0
 40
3.349999999999459
100
AcDbArc
 50
-131.7318000000036
 51
-116.6000999999957
  0
ARC
  5
343
330
1F
100
AcDbEntity
  8
1
  6
Continuous
100
AcDbCircle
 10
324.9221637976682
 20
697.8527020160283
 30
0.0
 40
4.749999999999798
100
AcDbArc
 50
108.4080000000095
 51
148.2429999999957
  0
ARC
  5
344
330
1F
100
AcDbEntity
  8
1
  6
Continuous
100
AcDbCircle
 10
324.9221637976682
 20
697.8527020160283
 30
0.0
 40
3.350000000000569
100
AcDbArc
 50
116.6000000000178
 51
131.7320000000003
  0
ARC
  5
345
330
1F
100
AcDbEntity
  8
1
  6
Continuous
100
AcDbCircle
 10
296.9221637976682
 20
697.8527020160283
 30
0.0
 40
3.35000000000034
100
AcDbArc
 50
-63.39999999999868
 51
-48.26799999999063
  0
ARC
  5
346
330
1F
100
AcDbEntity
  8
1
  6
Continuous
100
AcDbCircle
 10
296.9221637976682
 20
697.8527020160283
 30
0.0
 40
4.749999999999494
100
AcDbArc
 50
-71.59200000000158
 51
-40.74000000000619
  0
ARC
  5
347
330
1F
100
AcDbEntity
  8
1
  6
Continuous
100
AcDbCircle
 10
324.9221637976682
 20
697.8527020160283
 30
0.0
 40
3.350000000000136
100
AcDbArc
 50
-90.0
 51
90.0
  0
ARC
  5
348
330
1F
100
AcDbEntity
  8
1
  6
Continuous
100
AcDbCircle
 10
324.9221637976682
 20
697.8527020160283
 30
0.0
 40
4.749999999999773
100
AcDbArc
 50
-90.0
 51
90.0
  0
ARC
  5
349
330
1F
100
AcDbEntity
  8
1
  6
Continuous
100
AcDbCircle
 10
324.9221637976682
 20
447.3527020160297
 30
0.0
 40
4.75
100
AcDbArc
 50
-90.0
 51
90.0
  0
ARC
  5
34A
330
1F
100
AcDbEntity
  8
1
  6
Continuous
100
AcDbCircle
 10
324.9221637976682
 20
447.3527020160297
 30
0.0
 40
3.349999999999909
100
AcDbArc
 50
-90.0
 51
90.0
  0
ARC
  5
34B
330
1F
100
AcDbEntity
  8
1
  6
Continuous
100
AcDbCircle
 10
296.9221637976682
 20
447.3527020160297
 30
0.0
 40
4.750000000000184
100
AcDbArc
 50
40.74000000000775
 51
71.59200000000222
  0
ARC
  5
34C
330
1F
100
AcDbEntity
  8
1
  6
Continuous
100
AcDbCircle
 10
296.9221637976682
 20
447.3527020160297
 30
0.0
 40
3.350000000000212
100
AcDbArc
 50
48.26799999998999
 51
63.39999999999911
  0
ARC
  5
34D
330
1F
100
AcDbEntity
  8
1
  6
Continuous
100
AcDbCircle
 10
324.9221637976682
 20
447.3527020160297
 30
0.0
 40
3.349999999999479
100
AcDbArc
 50
-131.7320000000003
 51
-116.6000000000196
  0
ARC
  5
34E
330
1F
100
AcDbEntity
  8
1
  6
Continuous
100
AcDbCircle
 10
324.9221637976682
 20
447.3527020160297
 30
0.0
 40
4.749999999999642
100
AcDbArc
 50
-148.2429999999957
 51
-108.4080000000104
  0
ARC
  5
34F
330
1F
100
AcDbEntity
  8
1
  6
Continuous
100
AcDbCircle
 10
324.9221637976682
 20
447.3527020160297
 30
0.0
 40
3.350000000000366
100
AcDbArc
 50
116.6000999999957
 51
131.7317999999978
  0
ARC
  5
350
330
1F
100
AcDbEntity
  8
1
  6
Continuous
100
AcDbCircle
 10
296.9221637976682
 20
447.3527020160297
 30
0.0
 40
4.749999999999278
100
AcDbArc
 50
-71.59200000000071
 51
-31.75700000000004
  0
ARC
  5
351
330
1F
100
AcDbEntity
  8
1
  6
Continuous
100
AcDbCircle
 10
296.9221637976682
 20
447.3527020160297
 30
0.0
 40
4.75
100
AcDbArc
 50
90.0
 51
-90.0
  0
ARC
  5
352
330
1F
100
AcDbEntity
  8
1
  6
Continuous
100
AcDbCircle
 10
296.9221637976682
 20
447.3527020160297
 30
0.0
 40
3.349999999999934
100
AcDbArc
 50
-63.39999999999519
 51
-48.26799999998804
  0
ARC
  5
353
330
1F
100
AcDbEntity
  8
1
  6
Continuous
100
AcDbCircle
 10
296.9221637976682
 20
447.3527020160297
 30
0.0
 40
3.35000000000008
100
AcDbArc
 50
90.0
 51
-90.0
  0
ARC
  5
354
330
1F
100
AcDbEntity
  8
1
  6
Continuous
100
AcDbCircle
 10
324.9221637976682
 20
447.3527020160297
 30
0.0
 40
4.750000000000447
100
AcDbArc
 50
108.4084999999955
 51
137.4631000000091
  0
ARC
  5
355
330
1F
100
AcDbEntity
  8
1
  6
Continuous
100
AcDbCircle
 10
317.6721637976682
 20
440.3527020160297
 30
0.0
 40
1.5
100
AcDbArc
 50
-90.0
 51
0.0
  0
ARC
  5
356
330
1F
100
AcDbEntity
  8
1
  6
Continuous
100
AcDbCircle
 10
304.1721637976682
 20
440.3527020160297
 30
0.0
 40
1.5
100
AcDbArc
 50
180.0
 51
-90.0
  0
ARC
  5
357
330
1F
100
AcDbEntity
  8
1
  6
Continuous
 62
     7
100
AcDbCircle
 10
503.4505910517897
 20
702.3168036311674
 30
0.0
 40
2.044658198739072
100
AcDbArc
 50
-34.38424746802537
 51
34.38424746802011
  0
ARC
  5
358
330
1F
100
AcDbEntity
  8
1
  6
Continuous
 62
     7
100
AcDbCircle
 10
497.8525148404366
 20
698.8527020160295
 30
0.0
 40
7.642734410092334
100
AcDbArc
 50
-17.5879537739916
 51
17.58795377399485
  0
ARC
  5
359
330
1F
100
AcDbEntity
  8
1
  6
Continuous
 62
     7
100
AcDbCircle
 10
503.4505910517897
 20
695.3886004008912
 30
0.0
 40
2.044658198738944
100
AcDbArc
 50
-34.38424746802011
 51
34.3842474680464
  0
ARC
  5
35A
330
1F
100
AcDbEntity
  8
1
  6
Continuous
 62
     7
100
AcDbCircle
 10
522.8505910517895
 20
702.3168036311674
 30
0.0
 40
2.044658198738978
100
AcDbArc
 50
-34.38424746802718
 51
34.38424746802191
  0
ARC
  5
35B
330
1F
100
AcDbEntity
  8
1
  6
Continuous
 62
     7
100
AcDbCircle
 10
517.2525148404377
 20
698.8527020160295
 30
0.0
 40
7.64273441009098
100
AcDbArc
 50
-17.58795377399482
 51
17.58795377399807
  0
ARC
  5
35C
330
1F
100
AcDbEntity
  8
1
  6
Continuous
 62
     7
100
AcDbCircle
 10
522.8505910517895
 20
695.3886004008912
 30
0.0
 40
2.04465819873885
100
AcDbArc
 50
-34.38424746802191
 51
34.38424746804821
  0
ARC
  5
35D
330
1F
100
AcDbEntity
  8
1
  6
Continuous
 62
     7
100
AcDbCircle
 10
522.8505910517895
 20
449.3168036311676
 30
0.0
 40
2.044658198739107
100
AcDbArc
 50
-34.38424746803243
 51
34.38424746803243
  0
ARC
  5
35E
330
1F
100
AcDbEntity
  8
1
  6
Continuous
 62
     7
100
AcDbCircle
 10
517.2525148404377
 20
445.8527020160297
 30
0.0
 40
7.642734410091048
100
AcDbArc
 50
-17.58795377399644
 51
17.58795377399644
  0
ARC
  5
35F
330
1F
100
AcDbEntity
  8
1
  6
Continuous
 62
     7
100
AcDbCircle
 10
522.8505910517895
 20
442.388600400892
 30
0.0
 40
2.044658198739107
100
AcDbArc
 50
-34.38424746803243
 51
34.38424746802718
  0
ARC
  5
360
330
1F
100
AcDbEntity
  8
1
  6
Continuous
 62
     7
100
AcDbCircle
 10
503.4505910517897
 20
449.3168036311676
 30
0.0
 40
2.044658198739201
100
AcDbArc
 50
-34.38424746803063
 51
34.38424746803063
  0
ARC
  5
361
330
1F
100
AcDbEntity
  8
1
  6
Continuous
 62
     7
100
AcDbCircle
 10
497.8525148404366
 20
445.8527020160297
 30
0.0
 40
7.642734410092403
100
AcDbArc
 50
-17.58795377399322
 51
17.58795377399322
  0
ARC
  5
362
330
1F
100
AcDbEntity
  8
1
  6
Continuous
 62
     7
100
AcDbCircle
 10
503.4505910517897
 20
442.388600400892
 30
0.0
 40
2.044658198739201
100
AcDbArc
 50
-34.38424746803063
 51
34.38424746802537
  0
CIRCLE
  5
363
330
1F
100
AcDbEntity
  8
1
  6
DASH_CENTER
 62
     3
100
AcDbCircle
 10
259.373155629642
 20
283.3892047233962
 30
0.0
 40
11.24999999999997
  0
CIRCLE
  5
364
330
1F
100
AcDbEntity
  8
1
  6
DASHED
 62
     4
100
AcDbCircle
 10
259.373155629642
 20
283.3892047233962
 30
0.0
 40
12.74999999999997
  0
CIRCLE
  5
365
330
1F
100
AcDbEntity
  8
1
  6
Continuous
 62
     7
100
AcDbCircle
 10
259.4221637976689
 20
283.3892047233965
 30
0.0
 40
17.0
  0
CIRCLE
  5
366
330
1F
100
AcDbEntity
  8
1
  6
DASH_CENTER
 62
     3
100
AcDbCircle
 10
300.9553262880099
 20
235.0394201266997
 30
0.0
 40
52.50000000000094
  0
CIRCLE
  5
367
330
1F
100
AcDbEntity
  8
1
  6
Continuous
 62
     7
100
AcDbCircle
 10
371.4221637976689
 20
709.3527020160296
 30
0.0
 40
2.75
  0
CIRCLE
  5
368
330
1F
100
AcDbEntity
  8
1
  6
Continuous
 62
     7
100
AcDbCircle
 10
278.4221637976693
 20
709.3527020160296
 30
0.0
 40
2.75
  0
CIRCLE
  5
369
330
1F
100
AcDbEntity
  8
1
  6
Continuous
 62
     7
100
AcDbCircle
 10
371.4221637976689
 20
435.8527020160296
 30
0.0
 40
2.75
  0
CIRCLE
  5
36A
330
1F
100
AcDbEntity
  8
1
  6
Continuous
 62
     7
100
AcDbCircle
 10
278.4221637976693
 20
435.8527020160296
 30
0.0
 40
2.75
  0
ARC
  5
36B
330
1F
100
AcDbEntity
  8
1
  6
Continuous
 62
     7
100
AcDbCircle
 10
375.4221637976689
 20
203.8892047233958
 30
0.0
 40
2.0
100
AcDbArc
 50
0.0000000000057
 51
90.0
  0
ARC
  5
36C
330
1F
100
AcDbEntity
  8
1
  6
Continuous
 62
     7
100
AcDbCircle
 10
274.4221637976691
 20
203.8892047233958
 30
0.0
 40
2.0
100
AcDbArc
 50
90.0
 51
180.0
  0
ARC
  5
36D
330
1F
100
AcDbEntity
  8
1
  6
Continuous
 62
     7
100
AcDbCircle
 10
513.2221637976691
 20
271.8892047233974
 30
0.0
 40
2.0
100
AcDbArc
 50
-90.0
 51
0.0
  0
ARC
  5
36E
330
1F
100
AcDbEntity
  8
1
  6
Continuous
 62
     7
100
AcDbCircle
 10
525.4221637976689
 20
275.8892047233965
 30
0.0
 40
2.0
100
AcDbArc
 50
180.0
 51
-90.0
  0
ARC
  5
36F
330
1F
100
AcDbEntity
  8
1
  6
Continuous
 62
     7
100
AcDbCircle
 10
537.4221637976689
 20
275.8892047233965
 30
0.0
 40
2.0
100
AcDbArc
 50
-90.0
 51
0.0
  0
ARC
  5
370
330
1F
100
AcDbEntity
  8
1
  6
Continuous
 62
     7
100
AcDbCircle
 10
455.4221637976702
 20
272.3892047233961
 30
0.0
 40
3.0
100
AcDbArc
 50
90.0
 51
180.0
  0
ARC
  5
371
330
1F
100
AcDbEntity
  8
1
  6
Continuous
 62
     7
100
AcDbCircle
 10
270.42216379767
 20
272.3892047233961
 30
0.0
 40
3.0
100
AcDbArc
 50
0.0
 51
90.0
  0
ARC
  5
372
330
1F
100
AcDbEntity
  8
1
  6
Continuous
 62
     7
100
AcDbCircle
 10
487.42216379767
 20
270.3892047233961
 30
0.0
 40
5.0
100
AcDbArc
 50
0.0
 51
90.0
  0
ARC
  5
373
330
1F
100
AcDbEntity
  8
1
  6
Continuous
 62
     7
100
AcDbCircle
 10
245.42216379767
 20
176.889204723396
 30
0.0
 40
3.0
100
AcDbArc
 50
180.0
 51
-90.0
  0
ARC
  5
374
330
1F
100
AcDbEntity
  8
1
  6
Continuous
 62
     7
100
AcDbCircle
 10
247.42216379767
 20
270.3892047233961
 30
0.0
 40
5.0
100
AcDbArc
 50
90.0
 51
180.0
  0
ARC
  5
375
330
1F
100
AcDbEntity
  8
1
  6
Continuous
 62
     7
100
AcDbCircle
 10
489.42216379767
 20
176.889204723396
 30
0.0
 40
3.0
100
AcDbArc
 50
-90.0
 51
0.00000000000163
  0
ARC
  5
376
330
1F
100
AcDbEntity
  8
1
  6
Continuous
 62
     7
100
AcDbCircle
 10
947.9416901343037
 20
270.1166113337085
 30
0.0
 40
1.0
100
AcDbArc
 50
0.0
 51
90.0
  0
ARC
  5
377
330
1F
100
AcDbEntity
  8
1
  6
Continuous
 62
     3
100
AcDbCircle
 10
244.4221637976682
 20
689.3527020160296
 30
0.0
 40
2.0
100
AcDbArc
 50
90.0
 51
180.0
  0
ARC
  5
378
330
1F
100
AcDbEntity
  8
1
  6
Continuous
 62
     3
100
AcDbCircle
 10
244.4221637976682
 20
455.8527020160297
 30
0.0
 40
2.0
100
AcDbArc
 50
180.0
 51
-90.0
  0
ARC
  5
379
330
1F
100
AcDbEntity
  8
1
  6
Continuous
 62
     7
100
AcDbCircle
 10
375.4221637976689
 20
712.3527020160296
 30
0.0
 40
2.0
100
AcDbArc
 50
0.0
 51
90.00000000000489
  0
ARC
  5
37A
330
1F
100
AcDbEntity
  8
1
  6
Continuous
 62
     7
100
AcDbCircle
 10
274.4221637976682
 20
712.3527020160296
 30
0.0
 40
2.0
100
AcDbArc
 50
90.0
 51
180.0
  0
ARC
  5
37B
330
1F
100
AcDbEntity
  8
1
  6
Continuous
 62
     7
100
AcDbCircle
 10
274.4221637976682
 20
432.8527020160297
 30
0.0
 40
2.0
100
AcDbArc
 50
180.0
 51
-90.0
  0
ARC
  5
37C
330
1F
100
AcDbEntity
  8
1
  6
Continuous
 62
     7
100
AcDbCircle
 10
375.4221637976689
 20
432.8527020160297
 30
0.0
 40
2.0
100
AcDbArc
 50
-90.0
 51
0.0
  0
ARC
  5
37D
330
1F
100
AcDbEntity
  8
1
  6
Continuous
 62
     7
100
AcDbCircle
 10
446.9384998536762
 20
700.8482075285991
 30
0.0
 40
4.999999999999513
100
AcDbArc
 50
5.73917047726735
 51
90.0
  0
ARC
  5
37E
330
1F
100
AcDbEntity
  8
1
  6
Continuous
 62
     7
100
AcDbCircle
 10
706.5190404034928
 20
272.3892047233962
 30
0.0
 40
0.9999999999996883
100
AcDbArc
 50
-149.9999999999897
 51
-90.0
  0
ARC
  5
37F
330
1F
100
AcDbEntity
  8
1
  6
Continuous
 62
     7
100
AcDbCircle
 10
953.3643398651126
 20
272.3892047233962
 30
0.0
 40
1.0
100
AcDbArc
 50
-90.0
 51
-30.00000000001313
  0
ARC
  5
380
330
1F
100
AcDbEntity
  8
1
  6
Continuous
 62
     7
100
AcDbCircle
 10
740.4416901343021
 20
292.8892047233962
 30
0.0
 40
2.000000000000171
100
AcDbArc
 50
-90.0
 51
0.0
  0
ARC
  5
381
330
1F
100
AcDbEntity
  8
1
  6
Continuous
 62
     7
100
AcDbCircle
 10
938.4416901343037
 20
292.8892047233962
 30
0.0
 40
2.0
100
AcDbArc
 50
180.0
 51
-90.0
  0
ARC
  5
382
330
1F
100
AcDbEntity
  8
1
  6
Continuous
 62
     7
100
AcDbCircle
 10
956.4416901343037
 20
285.389204723396
 30
0.0
 40
4.99999999999983
100
AcDbArc
 50
-90.0
 51
0.0
  0
ARC
  5
383
330
1F
100
AcDbEntity
  8
1
  6
Continuous
 62
     7
100
AcDbCircle
 10
956.4416901343037
 20
288.389204723396
 30
0.0
 40
5.0
100
AcDbArc
 50
0.0
 51
90.0
  0
ARC
  5
384
330
1F
100
AcDbEntity
  8
1
  6
Continuous
 62
     7
100
AcDbCircle
 10
712.9416901343028
 20
297.389204723396
 30
0.0
 40
1.5
100
AcDbArc
 50
90.0
 51
179.9999999999935
  0
ARC
  5
385
330
1F
100
AcDbEntity
  8
1
  6
Continuous
 62
     7
100
AcDbCircle
 10
946.9416901343026
 20
297.389204723396
 30
0.0
 40
1.500000000001137
100
AcDbArc
 50
0.00000000000651
 51
89.99999999995657
  0
ARC
  5
386
330
1F
100
AcDbEntity
  8
1
  6
Continuous
 62
     7
100
AcDbCircle
 10
703.4416901343028
 20
288.389204723396
 30
0.0
 40
5.000000000000171
100
AcDbArc
 50
90.0
 51
180.0
  0
ARC
  5
387
330
1F
100
AcDbEntity
  8
1
  6
Continuous
 62
     7
100
AcDbCircle
 10
703.4416901343028
 20
285.389204723396
 30
0.0
 40
5.0
100
AcDbArc
 50
180.0
 51
-90.0
  0
ARC
  5
388
330
1F
100
AcDbEntity
  8
1
  6
Continuous
 62
     7
100
AcDbCircle
 10
278.6721637976682
 20
700.8482075285979
 30
0.0
 40
5.0
100
AcDbArc
 50
90.0
 51
180.0
  0
ARC
  5
389
330
1F
100
AcDbEntity
  8
1
  6
PHANTOM
 62
     7
100
AcDbCircle
 10
446.9384998536762
 20
700.8482075285991
 30
0.0
 40
5.0
100
AcDbArc
 50
-0.00000000000261
 51
5.73917047726735
  0
ARC
  5
38A
330
1F
100
AcDbEntity
  8
1
  6
Continuous
 62
     7
100
AcDbCircle
 10
286.1721637976682
 20
700.8482075285979
 30
0.0
 40
5.0
100
AcDbArc
 50
0.0
 51
90.0
  0
ARC
  5
38B
330
1F
100
AcDbEntity
  8
1
  6
Continuous
 62
     7
100
AcDbCircle
 10
356.938499853678
 20
700.8482075285991
 30
0.0
 40
5.0
100
AcDbArc
 50
90.0
 51
180.0
  0
ARC
  5
38C
330
1F
100
AcDbEntity
  8
1
  6
Continuous
 62
     7
100
AcDbCircle
 10
356.688499853678
 20
443.8527020160297
 30
0.0
 40
5.0
100
AcDbArc
 50
180.0
 51
-90.0
  0
ARC
  5
38D
330
1F
100
AcDbEntity
  8
1
  6
Continuous
 62
     7
100
AcDbCircle
 10
285.9221637976682
 20
443.8527020160297
 30
0.0
 40
5.0
100
AcDbArc
 50
-90.0
 51
0.0
  0
ARC
  5
38E
330
1F
100
AcDbEntity
  8
1
  6
Continuous
 62
     7
100
AcDbCircle
 10
446.9384998536762
 20
443.8527020160297
 30
0.0
 40
5.0
100
AcDbArc
 50
-90.0
 51
0.0
  0
ARC
  5
38F
330
1F
100
AcDbEntity
  8
1
  6
Continuous
 62
     7
100
AcDbCircle
 10
278.4221637976682
 20
443.8527020160297
 30
0.0
 40
5.0
100
AcDbArc
 50
180.0
 51
-90.0
  0
ARC
  5
390
330
1F
100
AcDbEntity
  8
1
  6
Continuous
 62
     7
100
AcDbCircle
 10
949.4416901343037
 20
272.3892047233962
 30
0.0
 40
1.0
100
AcDbArc
 50
180.0
 51
-120.0000000000135
  0
LINE
  5
391
330
1F
100
AcDbEntity
  8
1
 62
     2
100
AcDbLine
 10
504.8981115045565
 20
156.6048509063627
 30
0.0
 11
512.3981115045565
 21
158.6144698495961
 31
0.0
  0
LINE
  5
392
330
1F
100
AcDbEntity
  8
1
 62
     2
100
AcDbLine
 10
504.8981115045565
 20
156.6048509063627
 30
0.0
 11
512.3981115045565
 21
154.5952319631293
 31
0.0
  0
LEADER
  5
393
330
1F
100
AcDbEntity
  8
1
  6
Continuous
 62
     2
100
AcDbLeader
  3
Standard
 71
     0
 76
     2
 10
504.8981115045565
 20
156.6048509063627
 30
0.0
 10
530.6299830423438
 20
156.6048509063627
 30
0.0
  0
LINE
  5
394
330
1F
100
AcDbEntity
  8
1
 62
     2
100
AcDbLine
 10
528.8952492505289
 20
306.7892047233959
 30
0.0
 11
536.3952492505289
 21
308.7988236666294
 31
0.0
  0
LINE
  5
395
330
1F
100
AcDbEntity
  8
1
 62
     2
100
AcDbLine
 10
528.8952492505289
 20
306.7892047233959
 30
0.0
 11
536.3952492505289
 21
304.7795857801625
 31
0.0
  0
LEADER
  5
396
330
1F
100
AcDbEntity
  8
1
  6
Continuous
 62
     2
100
AcDbLeader
  3
Standard
 71
     0
 76
     2
 10
528.8952492505289
 20
306.7892047233959
 30
0.0
 10
557.1299830423443
 20
306.7892047233959
 30
0.0
  0
TEXT
  5
397
330
1F
100
AcDbEntity
  8
1
 62
     2
100
AcDbText
 10
145.413978828302
 20
194.127162836903
 30
0.0
 40
9.6
  1
MCナイロン
 41
0.89
  7
CONVERTER_2
100
AcDbText
  0
MTEXT
  5
398
330
1F
100
AcDbEntity
  8
1
 62
     2
100
AcDbMText
 10
836.8496398488762
 20
156.4899712027459
 30
0.0
 40
9.6
 41
0.0
 71
     5
 72
     1
  1
A-A矢視図
  7
CONVERTER_2
 73
     1
 44
0.60024009603842
  0
MTEXT
  5
399
330
1F
100
AcDbEntity
  8
1
 62
     2
100
AcDbMText
 10
527.6559201947846
 20
162.9483479035192
 30
0.0
 40
9.6
 41
0.0
 71
     5
 72
     1
  1
A
  7
CONVERTER_1
 73
     1
 44
0.60024009603842
  0
MTEXT
  5
39A
330
1F
100
AcDbEntity
  8
1
 62
     2
100
AcDbMText
 10
553.5264583240989
 20
313.1327017205522
 30
0.0
 40
9.6
 41
0.0
 71
     5
 72
     1
  1
A
  7
CONVERTER_1
 73
     1
 44
0.60024009603842
  0
TEXT
  5
39B
330
1F
100
AcDbEntity
  8
1
 62
     2
100
AcDbText
 10
396.7604328834599
 20
362.778389718483
 30
0.0
 40
9.6
  1
※1
 41
0.89
  7
CONVERTER_2
100
AcDbText
  0
TEXT
  5
39C
330
1F
100
AcDbEntity
  8
1
 62
     2
100
AcDbText
 10
517.984822271455
 20
240.514658543233
 30
0.0
 40
9.6
  1
※2
 41
0.89
  7
CONVERTER_2
100
AcDbText
  0
TEXT
  5
39D
330
1F
100
AcDbEntity
  8
1
 62
     2
100
AcDbText
 10
731.420776143189
 20
37.80861606360593
 30
0.0
 40
12.0
  1
N1シリーズ
 41
0.89
  7
CONVERTER_2
100
AcDbText
  0
TEXT
  5
39E
330
1F
100
AcDbEntity
  8
1
 62
     2
100
AcDbText
 10
1064.52760791472
 20
10.91621729302562
 30
0.0
 40
9.6
  1
W_SL_S_015
 41
0.9
  7
CONVERTER_1
100
AcDbText
  0
TEXT
  5
3A0
330
1F
100
AcDbEntity
  8
1
 62
     2
100
AcDbText
 10
896.7994647310384
 20
39.57888596490002
 30
0.0
 40
9.6
  1
本体組立図 ベルト幅 150 200 250 mm 呼称機長 25 cm 以上 30 cm以下
 41
0.5785
  7
CONVERTER_6
100
AcDbText
  0
TEXT
  5
3A1
330
1F
100
AcDbEntity
  8
1
 62
     2
100
AcDbText
 10
758.6943894188769
 20
9.97900346315983
 30
0.0
 40
12.0
  1
SL
 41
0.9
  7
CONVERTER_1
100
AcDbText
  0
TEXT
  5
3A2
330
1F
100
AcDbEntity
  8
1
 62
     2
100
AcDbText
 10
514.523827208694
 20
33.37102369799023
 30
0.0
 40
9.6
  1
2013.11.18
 41
0.9
  7
CONVERTER_1
100
AcDbText
  0
TEXT
  5
3A3
330
1F
100
AcDbEntity
  8
1
 62
     2
100
AcDbText
 10
249.2587673479341
 20
126.603380241054
 30
0.0
 40
12.0
  1
※1 呼称機長はベルトのテークアップにより最大5 mm伸びます
 41
0.89
  7
CONVERTER_2
100
AcDbText
  0
TEXT
  5
3A4
330
1F
100
AcDbEntity
  8
1
 62
     2
100
AcDbText
 10
248.8306217018
 20
105.1687458597482
 30
0.0
 40
12.0
  1
※2 呼称機長25cm以外の場合は、原動部より上流側に機長が飛び出ます
 41
0.89
  7
CONVERTER_2
100
AcDbText
  0
TEXT
  5
3A5
330
1F
100
AcDbEntity
  8
1
 62
     2
100
AcDbText
 10
248.6874837989492
 20
83.84427493191578
 30
0.0
 40
12.0
  1
※3 テールローラシャフトはケガキ線より上流側にして下さい
 41
0.89
  7
CONVERTER_2
100
AcDbText
  0
TEXT
  5
3A6
330
1F
100
AcDbEntity
  8
1
 62
     2
100
AcDbText
 10
894.535062611807
 20
99.15110096668801
 30
0.0
 40
15.0
  1
本図はLタイプです
 41
0.89
  7
CONVERTER_2
100
AcDbText
  0
DIMENSION
  5
3BA
330
1F
100
AcDbEntity
  8
1
100
AcDbDimension
  2
*D02
 10
492.42216379767
 20
223.419810664238
 30
0.0
 11
520.437496359779
 21
230.319810664238
 31
0.0
 70
    32
  1
1~50
 71
     5
 42
-1.0
 53
0.00013888888889
  3
ME10_DIM_0
100
AcDbAlignedDimension
 13
542.4221637976689
 23
293.4892047233964
 33
0.0
 14
492.42216379767
 24
270.3892047233961
 34
0.0
100
AcDbRotatedDimension
  0
DIMENSION
  5
3C7
330
1F
100
AcDbEntity
  8
1
100
AcDbDimension
  2
*D14
 10
542.4221637976689
 20
347.8289157588025
 30
0.0
 11
388.4002092589381
 21
354.5789157588025
 31
0.0
 70
    32
  1
呼称機長
 71
     5
 42
-1.0
 53
0.00013888888889
  3
ME10_DIM_1
100
AcDbAlignedDimension
 13
242.42216379767
 23
270.3892047233961
 33
0.0
 14
542.4221637976689
 24
294.4892047233964
 34
0.0
100
AcDbRotatedDimension
  0
DIMENSION
  5
3D4
330
1F
100
AcDbEntity
  8
1
100
AcDbDimension
  2
*D25
 10
739.441690134303
 20
325.0649901951497
 30
0.0
 11
840.4554575704016
 21
331.8149901951497
 31
0.0
 70
    32
  1
ベルト幅
 71
     5
 42
-1.0
 53
0.00013888888889
  3
ME10_DIM_2
100
AcDbAlignedDimension
 13
939.4416901343037
 23
301.2892047233963
 33
0.0
 14
739.441690134303
 24
301.2892047233963
 34
0.0
100
AcDbRotatedDimension
  0
DIMENSION
  5
3E3
330
1F
100
AcDbEntity
  8
1
100
AcDbDimension
  2
*D36
 10
160.6004431111099
 20
694.3527020160295
 30
0.0
 11
152.8004431111099
 21
704.2815798918056
 31
0.0
 70
    32
  1
<>
 71
     5
 42
-1.0
 53
90.0
  3
ME10_DIM_3
100
AcDbAlignedDimension
 13
274.4221637976682
 23
714.3527020160296
 33
0.0
 14
242.4221637976682
 24
694.3527020160296
 34
0.0
 50
90.0
100
AcDbRotatedDimension
  0
DIMENSION
  5
3F2
330
1F
100
AcDbEntity
  8
1
100
AcDbDimension
  2
*D47
 10
160.6004431111099
 20
430.8527020160298
 30
0.0
 11
152.8004431111099
 21
439.0146724638335
 31
0.0
 70
    32
  1
<>
 71
     5
 42
-1.0
 53
90.0
  3
ME10_DIM_4
100
AcDbAlignedDimension
 13
242.4221637976682
 23
450.8527020160297
 33
0.0
 14
274.4221637976682
 24
430.8527020160297
 34
0.0
 50
90.0
100
AcDbRotatedDimension
  0
DIMENSION
  5
3FF
330
1F
100
AcDbEntity
  8
1
100
AcDbDimension
  2
*D58
 10
160.6004431111098
 20
450.8527020160299
 30
0.0
 11
152.9504431111098
 21
569.7668005932236
 31
0.0
 70
    32
  1
機幅
 71
     5
 42
-1.0
 53
90.0
  3
ME10_DIM_5
100
AcDbAlignedDimension
 13
242.4221637976682
 23
694.3527020160296
 33
0.0
 14
242.4221637976682
 24
450.8527020160297
 34
0.0
 50
90.0
100
AcDbRotatedDimension
  0
DIMENSION
  5
40C
330
1F
100
AcDbEntity
  8
1
100
AcDbDimension
  2
*D69
 10
193.697958250674
 20
450.8527020160297
 30
0.0
 11
185.897958250674
 21
465.3532306481706
 31
0.0
 70
    32
  1
<>
 71
     5
 42
-1.0
 53
90.0
  3
ME10_DIM_6
100
AcDbAlignedDimension
 13
242.4221637976682
 23
481.8527020160299
 33
0.0
 14
242.4221637976682
 24
450.8527020160297
 34
0.0
 50
90.0
100
AcDbRotatedDimension
  0
DIMENSION
  5
41B
330
1F
100
AcDbEntity
  8
1
100
AcDbDimension
  2
*D710
 10
193.697958250674
 20
681.8527020160298
 30
0.0
 11
185.897958250674
 21
736.7344462260786
 31
0.0
 70
    32
  1
<>
 71
     5
 42
-1.0
 53
90.0
  3
ME10_DIM_7
100
AcDbAlignedDimension
 13
242.4221637976682
 23
694.3527020160296
 33
0.0
 14
242.4221637976682
 24
681.8527020160296
 34
0.0
 50
90.0
100
AcDbRotatedDimension
  0
DIMENSION
  5
428
330
1F
100
AcDbEntity
  8
1
100
AcDbDimension
  2
*D811
 10
193.697958250674
 20
681.8527020160298
 30
0.0
 11
185.897958250674
 21
575.4107773470108
 31
0.0
 70
    32
  1
200(ベルト幅)
 71
     5
 42
-1.0
 53
90.0
  3
ME10_DIM_8
100
AcDbAlignedDimension
 13
242.4221637976682
 23
481.8527020160299
 33
0.0
 14
242.4221637976682
 24
681.8527020160296
 34
0.0
 50
90.0
100
AcDbRotatedDimension
  0
DIMENSION
  5
435
330
1F
100
AcDbEntity
  8
1
100
AcDbDimension
  2
*D912
 10
371.4221637976689
 20
397.4931460430278
 30
0.0
 11
320.6562819629984
 21
405.1131460430278
 31
0.0
 70
    32
  1
<>
 71
     5
 42
-1.0
 53
0.00013888888889
  3
ME10_DIM_9
100
AcDbAlignedDimension
 13
278.4221637976693
 23
431.7277020160297
 33
0.0
 14
371.4221637976689
 24
431.7277020160297
 34
0.0
100
AcDbRotatedDimension
  0
DIMENSION
  5
443
330
1F
100
AcDbEntity
  8
1
100
AcDbDimension
  2
*D1013
 10
377.4221637976688
 20
375.2613839518926
 30
0.0
 11
321.6208133183949
 21
382.1613839518926
 31
0.0
 70
    32
  1
<>
 71
     5
 42
-1.0
 53
0.00013888888889
  3
ME10_DIM_10
100
AcDbAlignedDimension
 13
272.4221637976682
 23
432.8527020160297
 33
0.0
 14
377.4221637976689
 24
432.8527020160297
 34
0.0
100
AcDbRotatedDimension
  0
DIMENSION
  5
452
330
1F
100
AcDbEntity
  8
1
100
AcDbDimension
  2
*D1114
 10
227.3301438769163
 20
694.3527020160296
 30
0.0
 11
219.5301438769163
 21
702.906123152036
 31
0.0
 70
    32
  1
<>
 71
     5
 42
-1.0
 53
90.0
  3
ME10_DIM_11
100
AcDbAlignedDimension
 13
274.2971637976693
 23
709.3527020160296
 33
0.0
 14
242.4221637976682
 24
694.3527020160296
 34
0.0
 50
90.0
100
AcDbRotatedDimension
  0
DIMENSION
  5
461
330
1F
100
AcDbEntity
  8
1
100
AcDbDimension
  2
*D1215
 10
227.3301438769163
 20
450.8527020160296
 30
0.0
 11
219.5301438769163
 21
443.7384023546115
 31
0.0
 70
    32
  1
<>
 71
     5
 42
-1.0
 53
90.0
  3
ME10_DIM_12
100
AcDbAlignedDimension
 13
274.2971637976693
 23
435.8527020160297
 33
0.0
 14
242.4221637976682
 24
450.8527020160297
 34
0.0
 50
90.0
100
AcDbRotatedDimension
  0
DIMENSION
  5
470
330
1F
100
AcDbEntity
  8
1
100
AcDbDimension
  2
*D1316
 10
963.9416901343037
 20
343.1959748444027
 30
0.0
 11
957.0342559812456
 21
350.0959748444027
 31
0.0
 70
    32
  1
<>
 71
     5
 42
-1.0
 53
0.00013888888889
  3
ME10_DIM_13
100
AcDbAlignedDimension
 13
951.9416901343037
 23
283.2392047233959
 33
0.0
 14
963.9416901343037
 24
271.3892047233962
 34
0.0
100
AcDbRotatedDimension
  0
DIMENSION
  5
47F
330
1F
100
AcDbEntity
  8
1
100
AcDbDimension
  2
*D1417
 10
708.4416901343028
 20
343.1959748444027
 30
0.0
 11
701.6836904472735
 21
350.0959748444027
 31
0.0
 70
    32
  1
<>
 71
     5
 42
-1.0
 53
0.00013888888889
  3
ME10_DIM_14
100
AcDbAlignedDimension
 13
696.4416901343028
 23
271.3892047233962
 33
0.0
 14
708.4416901343028
 24
283.389204723396
 34
0.0
100
AcDbRotatedDimension
  0
DIMENSION
  5
48C
330
1F
100
AcDbEntity
  8
1
100
AcDbDimension
  2
*D1518
 10
951.9416901343037
 20
343.1959748444027
 30
0.0
 11
823.6979108084737
 21
349.9459748444027
 31
0.0
 70
    32
  1
機幅
 71
     5
 42
-1.0
 53
0.00013888888889
  3
ME10_DIM_15
100
AcDbAlignedDimension
 13
708.4416901343028
 23
283.389204723396
 33
0.0
 14
951.9416901343037
 24
283.2392047233959
 34
0.0
100
AcDbRotatedDimension
  0
DIMENSION
  5
499
330
1F
100
AcDbEntity
  8
1
100
AcDbDimension
  2
*D1619
 10
242.4221637976683
 20
375.2613839518927
 30
0.0
 11
256.8098066404119
 21
383.0613839518927
 31
0.0
 70
    32
  1
<>
 71
     5
 42
-1.0
 53
0.00013888888889
  3
ME10_DIM_16
100
AcDbAlignedDimension
 13
272.4221637976682
 23
432.8527020160297
 33
0.0
 14
242.4221637976682
 24
450.8527020160297
 34
0.0
100
AcDbRotatedDimension
  0
DIMENSION
  5
4A6
330
1F
100
AcDbEntity
  8
1
100
AcDbDimension
  2
*D1720
 10
242.4221637976683
 20
397.4931460430277
 30
0.0
 11
261.1310898070236
 21
406.0131460430277
 31
0.0
 70
    32
  1
<>
 71
     5
 42
-1.0
 53
0.00013888888889
  3
ME10_DIM_17
100
AcDbAlignedDimension
 13
278.4221637976693
 23
431.7277020160297
 33
0.0
 14
242.4221637976682
 24
450.8527020160297
 34
0.0
100
AcDbRotatedDimension
  0
INSERT
  5
4AF
330
1F
100
AcDbEntity
  8
1
100
AcDbBlockReference
  2
*D1821
 10
0.0
 20
0.0
 30
0.0
  0
INSERT
  5
4B8
330
1F
100
AcDbEntity
  8
1
100
AcDbBlockReference
  2
*D1922
 10
0.0
 20
0.0
 30
0.0
  0
INSERT
  5
4C1
330
1F
100
AcDbEntity
  8
1
100
AcDbBlockReference
  2
*D2023
 10
0.0
 20
0.0
 30
0.0
  0
INSERT
  5
4CA
330
1F
100
AcDbEntity
  8
1
100
AcDbBlockReference
  2
*D2124
 10
0.0
 20
0.0
 30
0.0
  0
INSERT
  5
4D3
330
1F
100
AcDbEntity
  8
1
100
AcDbBlockReference
  2
*D2225
 10
0.0
 20
0.0
 30
0.0
  0
ENDSEC
  0
SECTION
  2
OBJECTS
  0
DICTIONARY
  5
C
330
0
100
AcDbDictionary
281
     1
  3
ACAD_GROUP
350
D
  3
ACAD_LAYOUT
350
1A
  3
ACAD_MLINESTYLE
350
17
  3
ACAD_PLOTSETTINGS
350
19
  3
ACAD_PLOTSTYLENAME
350
E
  0
DICTIONARY
  5
D
102
{ACAD_REACTORS
330
C
102
}
330
C
100
AcDbDictionary
281
     1
  0
DICTIONARY
  5
1A
102
{ACAD_REACTORS
330
C
102
}
330
C
100
AcDbDictionary
281
     1
  3
Layout1
350
1E
  3
Layout2
350
26
  3
Model
350
22
  0
DICTIONARY
  5
17
102
{ACAD_REACTORS
330
C
102
}
330
C
100
AcDbDictionary
281
     1
  3
Standard
350
18
  0
DICTIONARY
  5
19
102
{ACAD_REACTORS
330
C
102
}
330
C
100
AcDbDictionary
281
     1
  0
ACDBDICTIONARYWDFLT
  5
E
102
{ACAD_REACTORS
330
C
102
}
330
C
100
AcDbDictionary
281
     1
  3
Normal
350
F
100
AcDbDictionaryWithDefault
340
F
  0
LAYOUT
  5
1E
102
{ACAD_REACTORS
330
1A
102
}
330
1A
100
AcDbPlotSettings
  1

  2

  4

  6

 40
0.0
 41
0.0
 42
0.0
 43
0.0
 44
0.0
 45
0.0
 46
0.0
 47
0.0
 48
0.0
 49
0.0
140
0.0
141
0.0
142
1.0
143
1.0
 70
   688
 72
     0
 73
     0
 74
     5
  7

 75
    16
147
1.0
148
0.0
149
0.0
100
AcDbLayout
  1
Layout1
 70
     1
 71
     1
 10
0.0
 20
0.0
 11
0.0
 21
0.0
 12
0.0
 22
0.0
 32
0.0
 14
0.0
 24
0.0
 34
0.0
 15
0.0
 25
0.0
 35
0.0
146
0.0
 13
0.0
 23
0.0
 33
0.0
 16
1.0
 26
0.0
 36
0.0
 17
0.0
 27
1.0
 37
0.0
 76
     0
330
1B
  0
LAYOUT
  5
26
102
{ACAD_REACTORS
330
1A
102
}
330
1A
100
AcDbPlotSettings
  1

  2

  4

  6

 40
0.0
 41
0.0
 42
0.0
 43
0.0
 44
0.0
 45
0.0
 46
0.0
 47
0.0
 48
0.0
 49
0.0
140
0.0
141
0.0
142
1.0
143
1.0
 70
   688
 72
     0
 73
     0
 74
     5
  7

 75
    16
147
1.0
148
0.0
149
0.0
100
AcDbLayout
  1
Layout2
 70
     1
 71
     2
 10
0.0
 20
0.0
 11
0.0
 21
0.0
 12
0.0
 22
0.0
 32
0.0
 14
0.0
 24
0.0
 34
0.0
 15
0.0
 25
0.0
 35
0.0
146
0.0
 13
0.0
 23
0.0
 33
0.0
 16
1.0
 26
0.0
 36
0.0
 17
0.0
 27
1.0
 37
0.0
 76
     0
330
23
  0
LAYOUT
  5
22
102
{ACAD_REACTORS
330
1A
102
}
330
1A
100
AcDbPlotSettings
  1

  2

  4

  6

 40
0.0
 41
0.0
 42
0.0
 43
0.0
 44
0.0
 45
0.0
 46
0.0
 47
0.0
 48
0.0
 49
0.0
140
0.0
141
0.0
142
1.0
143
1.0
 70
  1712
 72
     0
 73
     0
 74
     0
  7

 75
     0
147
1.0
148
0.0
149
0.0
100
AcDbLayout
  1
Model
 70
     1
 71
     0
 10
0.0
 20
0.0
 11
0.0
 21
0.0
 12
0.0
 22
0.0
 32
0.0
 14
0.0
 24
-6.76845996286707
 34
0.0
 15
1182.0
 25
804.0
 35
0.0
146
0.0
 13
0.0
 23
0.0
 33
0.0
 16
1.0
 26
0.0
 36
0.0
 17
0.0
 27
1.0
 37
0.0
 76
     0
330
1F
  0
MLINESTYLE
  5
18
102
{ACAD_REACTORS
330
17
102
}
330
17
100
AcDbMlineStyle
  2
Standard
 70
     0
  3

 62
   256
 51
90.0
 52
90.0
 71
     2
 49
0.5
 62
   256
  6
BYLAYER
 49
-0.5
 62
   256
  6
BYLAYER
  0
ACDBPLACEHOLDER
  5
F
102
{ACAD_REACTORS
330
E
102
}
330
E
  0
ENDSEC
  0
EOF
