  0
SECTION
  2
HEADER
  9
$ACADVER
  1
AC1015
  9
$ACADMAINTVER
 70
     6
  9
$DWGCODEPAGE
  3
DOS932
  9
$INSBASE
 10
0.0
 20
0.0
 30
0.0
  9
$EXTMIN
 10
0.0
 20
-6.76845996286707
 30
0.0
  9
$EXTMAX
 10
1182.0
 20
804.0
 30
0.0
  9
$LIMMIN
 10
0.0
 20
0.0
  9
$LIMMAX
 10
12.0
 20
9.0
  9
$ORTHOMODE
 70
     0
  9
$REGENMODE
 70
     1
  9
$FILLMODE
 70
     1
  9
$QTEXTMODE
 70
     0
  9
$MIRRTEXT
 70
     1
  9
$LTSCALE
 40
1.0
  9
$ATTMODE
 70
     1
  9
$TEXTSIZE
 40
0.2
  9
$TRACEWID
 40
0.05
  9
$TEXTSTYLE
  7
Standard
  9
$CLAYER
  8
0
  9
$CELTYPE
  6
ByLayer
  9
$CECOLOR
 62
   256
  9
$CELTSCALE
 40
1.0
  9
$DISPSILH
 70
     0
  9
$DIMSCALE
 40
1.0
  9
$DIMASZ
 40
0.18
  9
$DIMEXO
 40
0.0625
  9
$DIMDLI
 40
0.38
  9
$DIMRND
 40
0.0
  9
$DIMDLE
 40
0.0
  9
$DIMEXE
 40
0.18
  9
$DIMTP
 40
0.0
  9
$DIMTM
 40
0.0
  9
$DIMTXT
 40
0.18
  9
$DIMCEN
 40
0.09
  9
$DIMTSZ
 40
0.0
  9
$DIMTOL
 70
     0
  9
$DIMLIM
 70
     0
  9
$DIMTIH
 70
     1
  9
$DIMTOH
 70
     1
  9
$DIMSE1
 70
     0
  9
$DIMSE2
 70
     0
  9
$DIMTAD
 70
     0
  9
$DIMZIN
 70
     0
  9
$DIMBLK
  1

  9
$DIMASO
 70
     1
  9
$DIMSHO
 70
     1
  9
$DIMPOST
  1

  9
$DIMAPOST
  1

  9
$DIMALT
 70
     0
  9
$DIMALTD
 70
     2
  9
$DIMALTF
 40
25.4
  9
$DIMLFAC
 40
1.0
  9
$DIMTOFL
 70
     0
  9
$DIMTVP
 40
0.0
  9
$DIMTIX
 70
     0
  9
$DIMSOXD
 70
     0
  9
$DIMSAH
 70
     0
  9
$DIMBLK1
  1

  9
$DIMBLK2
  1

  9
$DIMSTYLE
  2
Standard
  9
$DIMCLRD
 70
     0
  9
$DIMCLRE
 70
     0
  9
$DIMCLRT
 70
     0
  9
$DIMTFAC
 40
1.0
  9
$DIMGAP
 40
0.09
  9
$DIMJUST
 70
     0
  9
$DIMSD1
 70
     0
  9
$DIMSD2
 70
     0
  9
$DIMTOLJ
 70
     1
  9
$DIMTZIN
 70
     0
  9
$DIMALTZ
 70
     0
  9
$DIMALTTZ
 70
     0
  9
$DIMUPT
 70
     0
  9
$DIMDEC
 70
     4
  9
$DIMTDEC
 70
     4
  9
$DIMALTU
 70
     2
  9
$DIMALTTD
 70
     2
  9
$DIMTXSTY
  7
Standard
  9
$DIMAUNIT
 70
     0
  9
$DIMADEC
 70
     0
  9
$DIMALTRND
 40
0.0
  9
$DIMAZIN
 70
     0
  9
$DIMDSEP
 70
    46
  9
$DIMATFIT
 70
     3
  9
$DIMFRAC
 70
     0
  9
$DIMLDRBLK
  1

  9
$DIMLUNIT
 70
     2
  9
$DIMLWD
 70
    -2
  9
$DIMLWE
 70
    -2
  9
$DIMTMOVE
 70
     0
  9
$LUNITS
 70
     2
  9
$LUPREC
 70
     4
  9
$SKETCHINC
 40
0.1
  9
$FILLETRAD
 40
0.5
  9
$AUNITS
 70
     0
  9
$AUPREC
 70
     0
  9
$MENU
  1
.
  9
$ELEVATION
 40
0.0
  9
$PELEVATION
 40
0.0
  9
$THICKNESS
 40
0.0
  9
$LIMCHECK
 70
     0
  9
$CHAMFERA
 40
0.5
  9
$CHAMFERB
 40
0.5
  9
$CHAMFERC
 40
1.0
  9
$CHAMFERD
 40
0.0
  9
$SKPOLY
 70
     0
  9
$TDCREATE
 40
2456611.388441018
  9
$TDUCREATE
 40
2456611.013441018
  9
$TDUPDATE
 40
2456611.38844103
  9
$TDUUPDATE
 40
2456611.01344103
  9
$TDINDWG
 40
0.0000000116
  9
$TDUSRTIMER
 40
0.0000000116
  9
$USRTIMER
 70
     1
  9
$ANGBASE
 50
0.0
  9
$ANGDIR
 70
     0
  9
$PDMODE
 70
     0
  9
$PDSIZE
 40
0.0
  9
$PLINEWID
 40
0.0
  9
$SPLFRAME
 70
     0
  9
$SPLINETYPE
 70
     6
  9
$SPLINESEGS
 70
     8
  9
$HANDSEED
  5
4D9
  9
$SURFTAB1
 70
     6
  9
$SURFTAB2
 70
     6
  9
$SURFTYPE
 70
     6
  9
$SURFU
 70
     6
  9
$SURFV
 70
     6
  9
$UCSBASE
  2

  9
$UCSNAME
  2

  9
$UCSORG
 10
0.0
 20
0.0
 30
0.0
  9
$UCSXDIR
 10
1.0
 20
0.0
 30
0.0
  9
$UCSYDIR
 10
0.0
 20
1.0
 30
0.0
  9
$UCSORTHOREF
  2

  9
$UCSORTHOVIEW
 70
     0
  9
$UCSORGTOP
 10
0.0
 20
0.0
 30
0.0
  9
$UCSORGBOTTOM
 10
0.0
 20
0.0
 30
0.0
  9
$UCSORGLEFT
 10
0.0
 20
0.0
 30
0.0
  9
$UCSORGRIGHT
 10
0.0
 20
0.0
 30
0.0
  9
$UCSORGFRONT
 10
0.0
 20
0.0
 30
0.0
  9
$UCSORGBACK
 10
0.0
 20
0.0
 30
0.0
  9
$PUCSBASE
  2

  9
$PUCSNAME
  2

  9
$PUCSORG
 10
0.0
 20
0.0
 30
0.0
  9
$PUCSXDIR
 10
1.0
 20
0.0
 30
0.0
  9
$PUCSYDIR
 10
0.0
 20
1.0
 30
0.0
  9
$PUCSORTHOREF
  2

  9
$PUCSORTHOVIEW
 70
     0
  9
$PUCSORGTOP
 10
0.0
 20
0.0
 30
0.0
  9
$PUCSORGBOTTOM
 10
0.0
 20
0.0
 30
0.0
  9
$PUCSORGLEFT
 10
0.0
 20
0.0
 30
0.0
  9
$PUCSORGRIGHT
 10
0.0
 20
0.0
 30
0.0
  9
$PUCSORGFRONT
 10
0.0
 20
0.0
 30
0.0
  9
$PUCSORGBACK
 10
0.0
 20
0.0
 30
0.0
  9
$USERI1
 70
     0
  9
$USERI2
 70
     0
  9
$USERI3
 70
     0
  9
$USERI4
 70
     0
  9
$USERI5
 70
     0
  9
$USERR1
 40
14.0
  9
$USERR2
 40
0.0
  9
$USERR3
 40
0.0
  9
$USERR4
 40
0.0
  9
$USERR5
 40
0.0
  9
$WORLDVIEW
 70
     1
  9
$SHADEDGE
 70
     3
  9
$SHADEDIF
 70
    70
  9
$TILEMODE
 70
     1
  9
$MAXACTVP
 70
    64
  9
$PINSBASE
 10
0.0
 20
0.0
 30
0.0
  9
$PLIMCHECK
 70
     0
  9
$PEXTMIN
 10
1.00000000000000E+20
 20
1.00000000000000E+20
 30
1.00000000000000E+20
  9
$PEXTMAX
 10
-1.00000000000000E+20
 20
-1.00000000000000E+20
 30
-1.00000000000000E+20
  9
$PLIMMIN
 10
0.0
 20
0.0
  9
$PLIMMAX
 10
12.0
 20
9.0
  9
$UNITMODE
 70
     0
  9
$VISRETAIN
 70
     1
  9
$PLINEGEN
 70
     0
  9
$PSLTSCALE
 70
     1
  9
$TREEDEPTH
 70
  3020
  9
$CMLSTYLE
  2
Standard
  9
$CMLJUST
 70
     0
  9
$CMLSCALE
 40
1.0
  9
$PROXYGRAPHICS
 70
     1
  9
$MEASUREMENT
 70
     1
  9
$CELWEIGHT
370
    -1
  9
$ENDCAPS
280
     0
  9
$JOINSTYLE
280
     0
  9
$LWDISPLAY
290
     0
  9
$INSUNITS
 70
     1
  9
$HYPERLINKBASE
  1

  9
$STYLESHEET
  1

  9
$XEDIT
290
     1
  9
$CEPSNTYPE
380
     0
  9
$PSTYLEMODE
290
     1
  9
$FINGERPRINTGUID
  2
{8DD2BBD6-B1E8-4876-BCB1-7CDB5EFD1332}
  9
$VERSIONGUID
  2
{FAEB1C32-E019-11D5-929B-00C0DF256EC4}
  9
$EXTNAMES
290
     1
  9
$PSVPSCALE
 40
0.0
  9
$OLESTARTUP
290
     0
  0
ENDSEC
  0
SECTION
  2
CLASSES
  0
CLASS
  1
ACDBDICTIONARYWDFLT
  2
AcDbDictionaryWithDefault
  3
ObjectDBX Classes
 90
        0
280
     0
281
     0
  0
CLASS
  1

  2
exOdDbCircle
  3

 90
        0
280
     0
281
     1
  0
CLASS
  1
ACDBPLACEHOLDER
  2
AcDbPlaceHolder
  3
ObjectDBX Classes
 90
        0
280
     0
281
     0
  0
CLASS
  1
LAYOUT
  2
AcDbLayout
  3
ObjectDBX Classes
 90
        0
280
     0
281
     0
  0
ENDSEC
  0
SECTION
  2
TABLES
  0
TABLE
  2
VPORT
  5
8
330
0
100
AcDbSymbolTable
 70
     1
  0
VPORT
  5
29
330
8
100
AcDbSymbolTableRecord
100
AcDbViewportTableRecord
  2
*Active
 70
     0
 10
0.0
 20
0.0
 11
1.0
 21
1.0
 12
591.0
 22
398.6157700185665
 13
0.0
 23
0.0
 14
0.5
 24
0.5
 15
0.5
 25
0.5
 16
0.0
 26
0.0
 36
1.0
 17
0.0
 27
0.0
 37
0.0
 40
891.8453059591539
 41
1.60267857142857
 42
50.0
 43
0.0
 44
0.0
 50
0.0
 51
0.0
 71
     0
 72
   100
 73
     1
 74
     3
 75
     0
 76
     0
 77
     0
 78
     0
281
     0
 65
     1
110
0.0
120
0.0
130
0.0
111
1.0
121
0.0
131
0.0
112
0.0
122
1.0
132
0.0
 79
     0
146
0.0
  0
ENDTAB
  0
TABLE
  2
LTYPE
  5
5
330
0
100
AcDbSymbolTable
 70
     9
  0
LTYPE
  5
14
330
5
100
AcDbSymbolTableRecord
100
AcDbLinetypeTableRecord
  2
ByBlock
 70
     0
  3

 72
    65
 73
     0
 40
0.0
  0
LTYPE
  5
15
330
5
100
AcDbSymbolTableRecord
100
AcDbLinetypeTableRecord
  2
ByLayer
 70
     0
  3

 72
    65
 73
     0
 40
0.0
  0
LTYPE
  5
16
330
5
100
AcDbSymbolTableRecord
100
AcDbLinetypeTableRecord
  2
Continuous
 70
     0
  3
Solid line
 72
    65
 73
     0
 40
0.0
  0
LTYPE
  5
2A
330
5
100
AcDbSymbolTableRecord
100
AcDbLinetypeTableRecord
  2
DASHED
 70
     0
  3
Dashed
 72
    65
 73
     2
 40
15.0
 49
7.0
 74
     0
 49
-8.0
 74
     0
  0
LTYPE
  5
2B
330
5
100
AcDbSymbolTableRecord
100
AcDbLinetypeTableRecord
  2
DOTTED
 70
     0
  3
Dotted
 72
    65
 73
     2
 40
1.0
 49
0.0
 74
     0
 49
-1.0
 74
     0
  0
LTYPE
  5
2C
330
5
100
AcDbSymbolTableRecord
100
AcDbLinetypeTableRecord
  2
DOT_CENTER
 70
     0
  3
Dot_Center
 72
    65
 73
     4
 40
14.0
 49
12.0
 74
     0
 49
-1.0
 74
     0
 49
0.0
 74
     0
 49
-1.0
 74
     0
  0
LTYPE
  5
2D
330
5
100
AcDbSymbolTableRecord
100
AcDbLinetypeTableRecord
  2
LONG_DASHED
 70
     0
  3
Long_Dashed
 72
    65
 73
     2
 40
15.0
 49
10.0
 74
     0
 49
-5.0
 74
     0
  0
LTYPE
  5
2E
330
5
100
AcDbSymbolTableRecord
100
AcDbLinetypeTableRecord
  2
DASH_CENTER
 70
     0
  3
Dash_Center
 72
    65
 73
     4
 40
14.0
 49
11.0
 74
     0
 49
-1.0
 74
     0
 49
1.0
 74
     0
 49
-1.0
 74
     0
  0
LTYPE
  5
2F
330
5
100
AcDbSymbolTableRecord
100
AcDbLinetypeTableRecord
  2
PHANTOM
 70
     0
  3
Phantom
 72
    65
 73
     6
 40
13.0
 49
10.0
 74
     0
 49
-1.0
 74
     0
 49
0.0
 74
     0
 49
-1.0
 74
     0
 49
0.0
 74
     0
 49
-1.0
 74
     0
  0
LTYPE
  5
30
330
5
100
AcDbSymbolTableRecord
100
AcDbLinetypeTableRecord
  2
CENTER_DASH_DASH
 70
     0
  3
Center_Dash_Dash
 72
    65
 73
     6
 40
14.0
 49
9.0
 74
     0
 49
-1.0
 74
     0
 49
1.0
 74
     0
 49
-1.0
 74
     0
 49
1.0
 74
     0
 49
-1.0
 74
     0
  0
LTYPE
  5
33
330
5
100
AcDbSymbolTableRecord
100
AcDbLinetypeTableRecord
  2
CENTER
 70
     0
  3
CENTER
 72
    65
 73
     4
 40
40.0
 49
25.0
 74
     0
 49
-5.0
 74
     0
 49
5.0
 74
     0
 49
-5.0
 74
     0
  0
ENDTAB
  0
TABLE
  2
LAYER
  5
2
330
0
100
AcDbSymbolTable
 70
     3
  0
LAYER
  5
10
330
2
100
AcDbSymbolTableRecord
100
AcDbLayerTableRecord
  2
0
 70
     0
 62
     7
  6
Continuous
370
    -3
390
F
  0
LAYER
  5
31
330
2
100
AcDbSymbolTableRecord
100
AcDbLayerTableRecord
  2
1
 70
     0
 62
     7
  6
Continuous
370
    -3
390
F
  0
LAYER
  5
32
330
2
100
AcDbSymbolTableRecord
100
AcDbLayerTableRecord
  2
4
 70
     0
 62
     1
  6
CENTER
370
    -3
390
F
  0
ENDTAB
  0
TABLE
  2
STYLE
  5
3
330
0
100
AcDbSymbolTable
 70
     8
  0
STYLE
  5
11
330
3
100
AcDbSymbolTableRecord
100
AcDbTextStyleTableRecord
  2
Standard
 70
     0
 40
0.0
 41
1.0
 50
0.0
 71
     0
 42
0.2
  3
txt
  4

  0
STYLE
  5
4C
330
3
100
AcDbSymbolTableRecord
100
AcDbTextStyleTableRecord
  2
CONVERTER_1
 70
     0
 40
0.0
 41
0.9
 50
0.0
 71
     0
 42
0.2
  3
txt.shx
  4

  0
STYLE
  5
4F
330
3
100
AcDbSymbolTableRecord
100
AcDbTextStyleTableRecord
  2
CONVERTER_2
 70
     0
 40
0.0
 41
1.068
 50
0.0
 71
     0
 42
0.2
  3
msmincho.ttc
  4

1001
ACAD
1000
MS Mincho
1071
    32785
  0
STYLE
  5
52
330
3
100
AcDbSymbolTableRecord
100
AcDbTextStyleTableRecord
  2
CONVERTER_3
 70
     0
 40
0.0
 41
0.89
 50
0.0
 71
     0
 42
0.2
  3
MSMINCHO.TTC
  4

1001
ACAD
1000
MS Mincho
1071
    32785
  0
STYLE
  5
55
330
3
100
AcDbSymbolTableRecord
100
AcDbTextStyleTableRecord
  2
CONVERTER_4
 70
     0
 40
0.0
 41
0.801
 50
0.0
 71
     0
 42
0.2
  3
msmincho.ttc
  4

1001
ACAD
1000
MS Mincho
1071
    32785
  0
STYLE
  5
59
330
3
100
AcDbSymbolTableRecord
100
AcDbTextStyleTableRecord
  2
CONVERTER_5
 70
     0
 40
0.0
 41
0.9025
 50
0.0
 71
     0
 42
0.2
  3
complex.shx
  4

  0
STYLE
  5
3A7
330
3
100
AcDbSymbolTableRecord
100
AcDbTextStyleTableRecord
  2
CONVERTER_6
 70
     0
 40
0.0
 41
0.5785
 50
0.0
 71
     0
 42
0.2
  3
MSMINCHO.TTC
  4

1001
ACAD
1000
MS Mincho
1071
    32785
  0
STYLE
  5
3F3
330
3
100
AcDbSymbolTableRecord
100
AcDbTextStyleTableRecord
  2
CONVERTER_7
 70
     0
 40
0.0
 41
0.712
 50
0.0
 71
     0
 42
0.2
  3
msmincho.ttc
  4

1001
ACAD
1000
MS Mincho
1071
    32785
  0
ENDTAB
  0
TABLE
  2
VIEW
  5
6
330
0
100
AcDbSymbolTable
 70
     0
  0
ENDTAB
  0
TABLE
  2
UCS
  5
7
330
0
100
AcDbSymbolTable
 70
     0
  0
ENDTAB
  0
TABLE
  2
APPID
  5
9
330
0
100
AcDbSymbolTable
 70
     1
  0
APPID
  5
12
330
9
100
AcDbSymbolTableRecord
100
AcDbRegAppTableRecord
  2
ACAD
 70
     0
  0
ENDTAB
  0
TABLE
  2
DIMSTYLE
  5
A
330
0
100
AcDbSymbolTable
 70
    19
100
AcDbDimStyleTable
  0
DIMSTYLE
105
27
330
A
100
AcDbSymbolTableRecord
100
AcDbDimStyleTableRecord
  2
Standard
 70
     0
340
11
  0
DIMSTYLE
105
3BF
102
{ACAD_REACTORS
330
3C0
102
}
330
A
100
AcDbSymbolTableRecord
100
AcDbDimStyleTableRecord
  2
ME10_DIM_0
 70
     0
 41
9.6
 42
3.0
 44
3.0
 73
     0
 74
     0
 77
     1
 78
     8
140
9.6
147
3.0
172
     1
173
     1
176
     2
177
     2
178
     2
271
     2
340
4C
343
3B9
344
3B9
  0
DIMSTYLE
105
3CE
102
{ACAD_REACTORS
330
3CF
102
}
330
A
100
AcDbSymbolTableRecord
100
AcDbDimStyleTableRecord
  2
ME10_DIM_1
 70
     0
 41
9.6
 42
3.0
 44
3.0
 73
     0
 74
     0
 77
     1
 78
     8
140
9.6
147
3.0
172
     1
173
     1
176
     2
177
     2
178
     2
271
     2
340
4C
343
3B9
344
3B9
  0
DIMSTYLE
105
3DC
102
{ACAD_REACTORS
330
3DD
102
}
330
A
100
AcDbSymbolTableRecord
100
AcDbDimStyleTableRecord
  2
ME10_DIM_2
 70
     0
 41
9.6
 42
3.0
 44
3.0
 77
     1
 78
     8
140
9.6
147
2.1
172
     1
173
     1
176
     2
177
     2
178
     2
271
     2
340
4C
343
3B9
344
3B9
  0
DIMSTYLE
105
3E9
102
{ACAD_REACTORS
330
3EA
102
}
330
A
100
AcDbSymbolTableRecord
100
AcDbDimStyleTableRecord
  2
ME10_DIM_3
 70
     0
 41
9.6
 42
3.0
 44
3.0
 77
     1
 78
     8
140
9.6
147
2.1
172
     1
173
     1
176
     2
177
     2
178
     2
271
     2
340
4C
343
3B9
344
3B9
  0
DIMSTYLE
105
3F7
102
{ACAD_REACTORS
330
3F8
102
}
330
A
100
AcDbSymbolTableRecord
100
AcDbDimStyleTableRecord
  2
ME10_DIM_4
 70
     0
 41
9.6
 42
3.0
 44
3.0
 77
     1
 78
     8
140
9.6
147
2.1
172
     1
173
     1
176
     2
177
     2
178
     2
271
     2
340
3F3
343
3B9
344
3B9
  0
DIMSTYLE
105
404
102
{ACAD_REACTORS
330
405
102
}
330
A
100
AcDbSymbolTableRecord
100
AcDbDimStyleTableRecord
  2
ME10_DIM_5
 70
     0
 41
9.6
 42
3.0
 44
3.0
 73
     0
 74
     0
 77
     1
 78
     8
140
9.6
147
2.1
172
     1
173
     1
176
     2
177
     2
178
     2
271
     2
340
52
343
3B9
344
3B9
  0
DIMSTYLE
105
411
102
{ACAD_REACTORS
330
412
102
}
330
A
100
AcDbSymbolTableRecord
100
AcDbDimStyleTableRecord
  2
ME10_DIM_6
 70
     0
 41
9.6
 42
3.0
 44
3.0
 73
     0
 74
     0
 77
     1
 78
     8
140
9.6
147
3.0
172
     1
173
     1
176
     2
177
     2
178
     2
271
     2
340
52
343
3B9
344
3B9
  0
DIMSTYLE
105
420
102
{ACAD_REACTORS
330
421
102
}
330
A
100
AcDbSymbolTableRecord
100
AcDbDimStyleTableRecord
  2
ME10_DIM_7
 70
     0
 41
9.6
 42
3.0
 44
3.0
 73
     0
 74
     0
 77
     1
 78
     8
140
9.6
147
3.0
172
     1
173
     1
176
     2
177
     2
178
     2
271
     2
340
4C
343
3B9
344
3B9
  0
DIMSTYLE
105
42D
102
{ACAD_REACTORS
330
42E
102
}
330
A
100
AcDbSymbolTableRecord
100
AcDbDimStyleTableRecord
  2
ME10_DIM_8
 70
     0
 41
9.6
 42
3.0
 44
3.0
 73
     0
 74
     0
 77
     1
 78
     8
140
9.6
147
3.0
172
     1
173
     1
176
     2
177
     2
178
     2
271
     2
340
4C
343
3B9
344
3B9
  0
DIMSTYLE
105
43A
102
{ACAD_REACTORS
330
43B
102
}
330
A
100
AcDbSymbolTableRecord
100
AcDbDimStyleTableRecord
  2
ME10_DIM_9
 70
     0
 41
9.6
 42
3.0
 44
3.0
 73
     0
 74
     0
 77
     1
 78
     8
140
9.6
147
3.0
172
     1
173
     1
176
     2
177
     2
178
     2
271
     2
340
52
343
3B9
344
3B9
  0
DIMSTYLE
105
449
102
{ACAD_REACTORS
330
44A
102
}
330
A
100
AcDbSymbolTableRecord
100
AcDbDimStyleTableRecord
  2
ME10_DIM_10
 70
     0
 41
9.6
 42
3.0
 44
3.0
 73
     0
 74
     0
 77
     1
 78
     8
140
9.6
147
3.0
172
     1
173
     1
176
     2
177
     2
178
     2
271
     2
340
4C
343
3B9
344
3B9
  0
DIMSTYLE
105
458
102
{ACAD_REACTORS
330
459
102
}
330
A
100
AcDbSymbolTableRecord
100
AcDbDimStyleTableRecord
  2
ME10_DIM_11
 70
     0
 41
9.6
 42
3.0
 44
3.0
 73
     0
 74
     0
 77
     1
 78
     8
140
9.6
147
3.0
172
     1
173
     1
176
     2
177
     2
178
     2
271
     2
340
4C
343
3B9
344
3B9
  0
DIMSTYLE
105
465
102
{ACAD_REACTORS
330
466
102
}
330
A
100
AcDbSymbolTableRecord
100
AcDbDimStyleTableRecord
  2
ME10_DIM_12
 70
     0
 41
9.6
 42
3.0
 44
3.0
 73
     0
 74
     0
 77
     1
 78
     8
140
9.6
147
2.1
172
     1
173
     1
176
     2
177
     2
178
     2
271
     2
340
52
343
3B9
344
3B9
  0
DIMSTYLE
105
472
102
{ACAD_REACTORS
330
473
102
}
330
A
100
AcDbSymbolTableRecord
100
AcDbDimStyleTableRecord
  2
ME10_DIM_13
 70
     0
 41
9.6
 42
3.0
 44
3.0
 73
     0
 74
     0
 77
     1
 78
     8
140
9.6
147
3.0
172
     1
173
     1
176
     2
177
     2
178
     2
271
     2
340
4C
343
3B9
344
3B9
  0
DIMSTYLE
105
47F
102
{ACAD_REACTORS
330
480
102
}
330
A
100
AcDbSymbolTableRecord
100
AcDbDimStyleTableRecord
  2
ME10_DIM_14
 70
     0
 41
9.6
 42
3.0
 44
3.0
 73
     0
 74
     0
 77
     1
 78
     8
140
9.6
147
3.0
172
     1
173
     1
176
     2
177
     2
178
     2
271
     2
340
4C
343
3B9
344
3B9
  0
DIMSTYLE
105
48E
102
{ACAD_REACTORS
330
48F
102
}
330
A
100
AcDbSymbolTableRecord
100
AcDbDimStyleTableRecord
  2
ME10_DIM_15
 70
     0
 41
9.6
 42
3.0
 44
3.0
 73
     0
 74
     0
 77
     1
 78
     8
140
9.6
147
2.1
172
     1
173
     1
176
     2
177
     2
178
     2
271
     2
340
4C
343
3B9
344
3B9
  0
DIMSTYLE
105
49D
102
{ACAD_REACTORS
330
49E
102
}
330
A
100
AcDbSymbolTableRecord
100
AcDbDimStyleTableRecord
  2
ME10_DIM_16
 70
     0
 41
9.6
 42
3.0
 44
3.0
 73
     0
 74
     0
 77
     1
 78
     8
140
9.6
147
2.1
172
     1
173
     1
176
     2
177
     2
178
     2
271
     2
340
4C
343
3B9
344
3B9
  0
DIMSTYLE
105
4AA
102
{ACAD_REACTORS
330
4AB
102
}
330
A
100
AcDbSymbolTableRecord
100
AcDbDimStyleTableRecord
  2
ME10_DIM_17
 70
     0
 41
9.6
 42
3.0
 44
3.0
 73
     0
 74
     0
 77
     1
 78
     8
140
9.6
147
2.1
172
     1
173
     1
176
     2
177
     2
178
     2
271
     2
340
52
343
3B9
344
3B9
  0
ENDTAB
  0
TABLE
  2
BLOCK_RECORD
  5
1
330
0
100
AcDbSymbolTable
 70
    26
  0
BLOCK_RECORD
  5
1F
330
1
100
AcDbSymbolTableRecord
100
AcDbBlockTableRecord
  2
*Model_Space
340
22
  0
BLOCK_RECORD
  5
1B
330
1
100
AcDbSymbolTableRecord
100
AcDbBlockTableRecord
  2
*Paper_Space
340
1E
  0
BLOCK_RECORD
  5
23
330
1
100
AcDbSymbolTableRecord
100
AcDbBlockTableRecord
  2
*Paper_Space0
340
26
  0
BLOCK_RECORD
  5
34
330
1
100
AcDbSymbolTableRecord
100
AcDbBlockTableRecord
  2
Zuwaku-A3-web
340
0
102
{BLKREFS
331
37
102
}
  0
BLOCK_RECORD
  5
3AC
330
1
100
AcDbSymbolTableRecord
100
AcDbBlockTableRecord
  2
*D02
340
0
  0
BLOCK_RECORD
  5
3B9
330
1
100
AcDbSymbolTableRecord
100
AcDbBlockTableRecord
  2
_Open30
340
0
  0
BLOCK_RECORD
  5
3C1
330
1
100
AcDbSymbolTableRecord
100
AcDbBlockTableRecord
  2
*D14
340
0
  0
BLOCK_RECORD
  5
3D0
330
1
100
AcDbSymbolTableRecord
100
AcDbBlockTableRecord
  2
*D25
340
0
  0
BLOCK_RECORD
  5
3DE
330
1
100
AcDbSymbolTableRecord
100
AcDbBlockTableRecord
  2
*D36
340
0
  0
BLOCK_RECORD
  5
3EB
330
1
100
AcDbSymbolTableRecord
100
AcDbBlockTableRecord
  2
*D47
340
0
  0
BLOCK_RECORD
  5
3F9
330
1
100
AcDbSymbolTableRecord
100
AcDbBlockTableRecord
  2
*D58
340
0
  0
BLOCK_RECORD
  5
406
330
1
100
AcDbSymbolTableRecord
100
AcDbBlockTableRecord
  2
*D69
340
0
  0
BLOCK_RECORD
  5
413
330
1
100
AcDbSymbolTableRecord
100
AcDbBlockTableRecord
  2
*D710
340
0
  0
BLOCK_RECORD
  5
422
330
1
100
AcDbSymbolTableRecord
100
AcDbBlockTableRecord
  2
*D811
340
0
  0
BLOCK_RECORD
  5
42F
330
1
100
AcDbSymbolTableRecord
100
AcDbBlockTableRecord
  2
*D912
340
0
  0
BLOCK_RECORD
  5
43C
330
1
100
AcDbSymbolTableRecord
100
AcDbBlockTableRecord
  2
*D1013
340
0
  0
BLOCK_RECORD
  5
44B
330
1
100
AcDbSymbolTableRecord
100
AcDbBlockTableRecord
  2
*D1114
340
0
  0
BLOCK_RECORD
  5
45A
330
1
100
AcDbSymbolTableRecord
100
AcDbBlockTableRecord
  2
*D1215
340
0
  0
BLOCK_RECORD
  5
467
330
1
100
AcDbSymbolTableRecord
100
AcDbBlockTableRecord
  2
*D1316
340
0
  0
BLOCK_RECORD
  5
474
330
1
100
AcDbSymbolTableRecord
100
AcDbBlockTableRecord
  2
*D1417
340
0
  0
BLOCK_RECORD
  5
481
330
1
100
AcDbSymbolTableRecord
100
AcDbBlockTableRecord
  2
*D1518
340
0
  0
BLOCK_RECORD
  5
490
330
1
100
AcDbSymbolTableRecord
100
AcDbBlockTableRecord
  2
*D1619
340
0
  0
BLOCK_RECORD
  5
49F
330
1
100
AcDbSymbolTableRecord
100
AcDbBlockTableRecord
  2
*D1720
340
0
  0
BLOCK_RECORD
  5
4AC
330
1
100
AcDbSymbolTableRecord
100
AcDbBlockTableRecord
  2
*D1821
340
0
102
{BLKREFS
331
4B4
102
}
  0
BLOCK_RECORD
  5
4B5
330
1
100
AcDbSymbolTableRecord
100
AcDbBlockTableRecord
  2
*D1922
340
0
102
{BLKREFS
331
4BD
102
}
  0
BLOCK_RECORD
  5
4BE
330
1
100
AcDbSymbolTableRecord
100
AcDbBlockTableRecord
  2
*D2023
340
0
102
{BLKREFS
331
4C6
102
}
  0
BLOCK_RECORD
  5
4C7
330
1
100
AcDbSymbolTableRecord
100
AcDbBlockTableRecord
  2
*D2124
340
0
102
{BLKREFS
331
4CF
102
}
  0
BLOCK_RECORD
  5
4D0
330
1
100
AcDbSymbolTableRecord
100
AcDbBlockTableRecord
  2
*D2225
340
0
102
{BLKREFS
331
4D8
102
}
  0
ENDTAB
  0
ENDSEC
  0
SECTION
  2
BLOCKS
  0
BLOCK
  5
20
330
1F
100
AcDbEntity
  8
0
100
AcDbBlockBegin
  2
*Model_Space
 70
     0
 71
     0
 10
0.0
 20
0.0
 30
0.0
  3
*Model_Space
  1

  0
ENDBLK
  5
21
330
1F
100
AcDbEntity
  8
0
100
AcDbBlockEnd
  0
BLOCK
  5
1C
330
1B
100
AcDbEntity
 67
     1
  8
0
100
AcDbBlockBegin
  2
*Paper_Space
 70
     0
 71
     0
 10
0.0
 20
0.0
 30
0.0
  3
*Paper_Space
  1

  0
ENDBLK
  5
1D
330
1B
100
AcDbEntity
 67
     1
  8
0
100
AcDbBlockEnd
  0
BLOCK
  5
24
330
23
100
AcDbEntity
  8
0
100
AcDbBlockBegin
  2
*Paper_Space0
 70
     0
 71
     0
 10
0.0
 20
0.0
 30
0.0
  3
*Paper_Space0
  1

  0
ENDBLK
  5
25
330
23
100
AcDbEntity
  8
0
100
AcDbBlockEnd
  0
BLOCK
  5
35
330
34
100
AcDbEntity
  8
0
100
AcDbBlockBegin
  2
Zuwaku-A3-web
 70
     0
 71
     0
 10
196.9999999999998
 20
134.0
 30
0.0
  3
Zuwaku-A3-web
  1

  0
LINE
  5
38
330
34
100
AcDbEntity
  8
1
  6
Continuous
 62
     4
100
AcDbLine
 10
189.4945771572093
 20
2.13397584248199
 30
0.0
 11
195.2266254722454
 21
7.866024157518
 31
0.0
  0
LINE
  5
39
330
34
100
AcDbEntity
  8
1
  6
Continuous
 62
     7
100
AcDbLine
 10
0.0
 20
0.0
 30
0.0
 11
394.0
 21
0.0
 31
0.0
  0
LINE
  5
3A
330
34
100
AcDbEntity
  8
1
  6
Continuous
 62
     4
100
AcDbLine
 10
162.5
 20
15.0
 30
0.0
 11
202.0
 21
15.0
 31
0.0
  0
LINE
  5
3B
330
34
100
AcDbEntity
  8
1
  6
Continuous
 62
     3
100
AcDbLine
 10
9.5
 20
12.5
 30
0.0
 11
6.0
 21
19.0
 31
0.0
  0
LINE
  5
3C
330
34
100
AcDbEntity
  8
1
  6
Continuous
 62
     3
100
AcDbLine
 10
2.5
 20
12.5
 30
0.0
 11
9.5
 21
12.5
 31
0.0
  0
LINE
  5
3D
330
34
100
AcDbEntity
  8
1
  6
Continuous
 62
     3
100
AcDbLine
 10
6.0
 20
19.0
 30
0.0
 11
2.5
 21
12.5
 31
0.0
  0
LINE
  5
3E
330
34
100
AcDbEntity
  8
1
  6
Continuous
 62
     4
100
AcDbLine
 10
12.0
 20
20.0
 30
0.0
 11
12.0
 21
0.0
 31
0.0
  0
LINE
  5
3F
330
34
100
AcDbEntity
  8
1
  6
Continuous
 62
     4
100
AcDbLine
 10
0.0
 20
10.0
 30
0.0
 11
394.0
 21
10.0
 31
0.0
  0
LINE
  5
40
330
34
100
AcDbEntity
  8
1
  6
Continuous
 62
     7
100
AcDbLine
 10
393.9999999999996
 20
268.0
 30
0.0
 11
0.0
 21
268.0
 31
0.0
  0
LINE
  5
41
330
34
100
AcDbEntity
  8
1
  6
Continuous
 62
     7
100
AcDbLine
 10
394.0
 20
0.0
 30
0.0
 11
393.9999999999996
 21
268.0
 31
0.0
  0
LINE
  5
42
330
34
100
AcDbEntity
  8
1
  6
Continuous
 62
     4
100
AcDbLine
 10
202.0
 20
0.0
 30
0.0
 11
202.0
 21
20.0
 31
0.0
  0
LINE
  5
43
330
34
100
AcDbEntity
  8
1
  6
Continuous
 62
     4
100
AcDbLine
 10
162.5
 20
0.0
 30
0.0
 11
162.5
 21
20.0
 31
0.0
  0
LINE
  5
44
330
34
100
AcDbEntity
  8
1
  6
Continuous
 62
     4
100
AcDbLine
 10
283.0
 20
20.0
 30
0.0
 11
283.0
 21
0.0
 31
0.0
  0
LINE
  5
45
330
34
100
AcDbEntity
  8
1
  6
Continuous
 62
     4
100
AcDbLine
 10
227.0
 20
20.0
 30
0.0
 11
227.0
 21
0.0
 31
0.0
  0
LINE
  5
46
330
34
100
AcDbEntity
  8
1
  6
Continuous
 62
     4
100
AcDbLine
 10
170.5
 20
10.0
 30
0.0
 11
170.5
 21
0.0
 31
0.0
  0
LINE
  5
47
330
34
100
AcDbEntity
  8
1
  6
Continuous
 62
     4
100
AcDbLine
 10
66.0
 20
20.0
 30
0.0
 11
66.0
 21
0.0
 31
0.0
  0
LINE
  5
48
330
34
100
AcDbEntity
  8
1
  6
Continuous
 62
     7
100
AcDbLine
 10
0.0
 20
268.0
 30
0.0
 11
0.0
 21
0.0
 31
0.0
  0
LINE
  5
49
330
34
100
AcDbEntity
  8
1
  6
Continuous
 62
     4
100
AcDbLine
 10
173.7445771572093
 20
2.13397584248199
 30
0.0
 11
179.4766254722454
 21
7.866024157518
 31
0.0
  0
LINE
  5
4A
330
34
100
AcDbEntity
  8
1
  6
Continuous
 62
     4
100
AcDbLine
 10
394.0
 20
20.0
 30
0.0
 11
0.0
 21
20.0
 31
0.0
  0
LINE
  5
4B
330
34
100
AcDbEntity
  8
1
  6
Continuous
 62
     4
100
AcDbLine
 10
295.0
 20
20.0
 30
0.0
 11
295.0
 21
0.0
 31
0.0
  0
MTEXT
  5
4D
330
34
100
AcDbEntity
  8
1
 62
     2
100
AcDbMText
 10
180.9766254722454
 20
3.75
 30
0.0
 40
4.0
 41
0.0
 71
     5
 72
     1
  1
3
  7
CONVERTER_1
 73
     1
 44
0.60024009603842
  0
MTEXT
  5
4E
330
34
100
AcDbEntity
  8
1
 62
     2
100
AcDbMText
 10
173.183432867907
 20
6.25
 30
0.0
 40
4.0
 41
0.0
 71
     5
 72
     1
  1
1
  7
CONVERTER_1
 73
     1
 44
0.60024009603842
  0
MTEXT
  5
50
330
34
100
AcDbEntity
  8
1
 62
     2
100
AcDbMText
 10
289.0
 20
2.75
 30
0.0
 40
3.5
 41
0.0
 71
     5
 72
     1
  1
番号
  7
CONVERTER_2
 73
     1
 44
0.78031212484994
  0
MTEXT
  5
51
330
34
100
AcDbEntity
  8
1
 62
     2
100
AcDbMText
 10
166.5
 20
2.75
 30
0.0
 40
3.5
 41
0.0
 71
     5
 72
     1
  1
度
  7
CONVERTER_2
 73
     1
 44
0.78031212484994
  0
MTEXT
  5
53
330
34
100
AcDbEntity
  8
1
 62
     2
100
AcDbMText
 10
5.67807803017169
 20
2.75
 30
0.0
 40
3.5
 41
0.0
 71
     5
 72
     1
  1
番号
  7
CONVERTER_3
 73
     1
 44
0.78031212484994
  0
MTEXT
  5
54
330
34
100
AcDbEntity
  8
1
 62
     7
100
AcDbMText
 10
114.25
 20
15.0
 30
0.0
 40
5.0
 41
0.0
 71
     5
 72
     1
  1
技術情報サービス
  7
CONVERTER_3
 73
     1
 44
1.20048019207683
  0
MTEXT
  5
56
330
34
100
AcDbEntity
  8
1
 62
     2
100
AcDbMText
 10
214.5
 20
15.0
 30
0.0
 40
4.0
 41
0.0
 71
     5
 72
     1
  1
シリーズ名
  7
CONVERTER_4
 73
     1
 44
1.32052821128451
  0
MTEXT
  5
57
330
34
100
AcDbEntity
  8
1
 62
     2
100
AcDbMText
 10
214.5
 20
5.0
 30
0.0
 40
4.0
 41
0.0
 71
     5
 72
     1
  1
機　種
  7
CONVERTER_3
 73
     1
 44
1.32052821128451
  0
MTEXT
  5
58
330
34
100
AcDbEntity
  8
1
 62
     2
100
AcDbMText
 10
189.75
 20
6.5
 30
0.0
 40
4.0
 41
0.0
 71
     5
 72
     1
  1
1
  7
CONVERTER_1
 73
     1
 44
1.32052821128451
  0
MTEXT
  5
5A
330
34
100
AcDbEntity
  8
1
 62
     7
100
AcDbMText
 10
114.25
 20
5.0
 30
0.0
 40
4.0
 41
0.0
 71
     5
 72
     1
  1
MARUYASU KIKAI CO.,LTD.
  7
CONVERTER_5
 73
     1
 44
1.32052821128451
  0
MTEXT
  5
5B
330
34
100
AcDbEntity
  8
1
 62
     2
100
AcDbMText
 10
6.0
 20
7.25
 30
0.0
 40
3.5
 41
0.0
 71
     5
 72
     1
  1
改訂
  7
CONVERTER_3
 73
     1
 44
0.78031212484994
  0
MTEXT
  5
5C
330
34
100
AcDbEntity
  8
1
 62
     2
100
AcDbMText
 10
39.0
 20
5.0
 30
0.0
 40
3.5
 41
0.0
 71
     5
 72
     1
  1
改　 訂　 記　 事
  7
CONVERTER_3
 73
     1
 44
1.32052821128451
  0
MTEXT
  5
5D
330
34
100
AcDbEntity
  8
1
 62
     2
100
AcDbMText
 10
166.5
 20
7.25
 30
0.0
 40
3.5
 41
0.0
 71
     5
 72
     1
  1
尺
  7
CONVERTER_2
 73
     1
 44
0.78031212484994
  0
MTEXT
  5
5E
330
34
100
AcDbEntity
  8
1
 62
     2
100
AcDbMText
 10
182.25
 20
17.5
 30
0.0
 40
3.5
 41
0.0
 71
     5
 72
     1
  1
年　　月　　日
  7
CONVERTER_3
 73
     1
 44
0.78031212484994
  0
MTEXT
  5
5F
330
34
100
AcDbEntity
  8
1
 62
     2
100
AcDbMText
 10
289.0
 20
7.25
 30
0.0
 40
3.5
 41
0.0
 71
     5
 72
     1
  1
図面
  7
CONVERTER_2
 73
     1
 44
0.78031212484994
  0
MTEXT
  5
60
330
34
100
AcDbEntity
  8
1
 62
     2
100
AcDbMText
 10
289.0
 20
15.0
 30
0.0
 40
4.0
 41
0.0
 71
     5
 72
     1
  1
図名
  7
CONVERTER_3
 73
     1
 44
1.32052821128451
  0
MTEXT
  5
61
330
34
100
AcDbEntity
  8
1
 62
     4
100
AcDbMText
 10
393.4565543923691
 20
-0.25615332095569
 30
0.0
 40
2.0
 41
0.0
 71
     3
 72
     1
  1
A3
  7
CONVERTER_1
 73
     1
 44
1.32052821128451
  0
ENDBLK
  5
36
330
34
100
AcDbEntity
  8
0
100
AcDbBlockEnd
  0
BLOCK
  5
3B7
330
3AC
100
AcDbEntity
  8
0
100
AcDbBlockBegin
  2
*D02
 70
     1
 71
     0
 10
0.0
 20
0.0
 30
0.0
  3
*D02
  1

  0
LINE
  5
3AD
330
3AC
100
AcDbEntity
  8
1
  6
Continuous
 62
     2
100
AcDbLine
 10
323.0546029198574
 20
435.8527020160296
 30
0.0
 11
323.0546029198574
 21
416.6527020160297
 31
0.0
  0
LINE
  5
3AE
330
3AC
100
AcDbEntity
  8
1
  6
Continuous
 62
     2
100
AcDbLine
 10
323.0546029198574
 20
450.8527020160296
 30
0.0
 11
323.0546029198574
 21
435.8527020160296
 31
0.0
  0
LINE
  5
3AF
330
3AC
100
AcDbEntity
  8
1
  6
Continuous
 62
     2
100
AcDbLine
 10
323.0546029198574
 20
470.0527020160296
 30
0.0
 11
323.0546029198574
 21
450.8527020160296
 31
0.0
  0
LINE
  5
3B0
330
3AC
100
AcDbEntity
  8
1
  6
Continuous
 62
     2
100
AcDbLine
 10
335.1466228406094
 20
450.8527020160296
 30
0.0
 11
320.0546029198574
 21
450.8527020160296
 31
0.0
  0
LINE
  5
3B1
330
3AC
100
AcDbEntity
  8
1
  6
Continuous
 62
     2
100
AcDbLine
 10
367.0216228406105
 20
435.8527020160296
 30
0.0
 11
320.0546029198574
 21
435.8527020160296
 31
0.0
  0
LINE
  5
3B2
330
3AC
100
AcDbEntity
  8
1
 62
     2
100
AcDbLine
 10
323.0546029198574
 20
450.8527020160296
 30
0.0
 11
320.4822906725186
 21
460.4527020160297
 31
0.0
  0
LINE
  5
3B3
330
3AC
100
AcDbEntity
  8
1
 62
     2
100
AcDbLine
 10
323.0546029198574
 20
450.8527020160296
 30
0.0
 11
325.6269151671962
 21
460.4527020160297
 31
0.0
  0
LINE
  5
3B4
330
3AC
100
AcDbEntity
  8
1
 62
     2
100
AcDbLine
 10
323.0546029198574
 20
435.8527020160296
 30
0.0
 11
325.6269151671962
 21
426.2527020160296
 31
0.0
  0
LINE
  5
3B5
330
3AC
100
AcDbEntity
  8
1
 62
     2
100
AcDbLine
 10
323.0546029198574
 20
435.8527020160296
 30
0.0
 11
320.4822906725186
 21
426.2527020160296
 31
0.0
  0
MTEXT
  5
3B6
330
3AC
100
AcDbEntity
  8
1
 62
     2
100
AcDbMText
 10
320.0546029198574
 20
437.9784023546115
 30
0.0
 40
9.6
 41
0.0
 71
     7
 72
     1
  1
15
  7
CONVERTER_1
 11
0.0
 21
1.0
 31
0.0
 73
     1
 44
0.60024009603842
  0
ENDBLK
  5
3B8
330
3AC
100
AcDbEntity
  8
0
100
AcDbBlockEnd
  0
BLOCK
  5
3BA
330
3B9
100
AcDbEntity
  8
0
100
AcDbBlockBegin
  2
_Open30
 70
     0
 71
     0
 10
0.0
 20
0.0
 30
0.0
  3
_Open30
  1

  0
LINE
  5
3BC
330
3B9
100
AcDbEntity
  8
0
  6
ByBlock
 62
     0
370
    -2
100
AcDbLine
 10
-1.0
 20
0.267949
 30
0.0
 11
0.0
 21
0.0
 31
0.0
  0
LINE
  5
3BD
330
3B9
100
AcDbEntity
  8
0
  6
ByBlock
 62
     0
370
    -2
100
AcDbLine
 10
0.0
 20
0.0
 30
0.0
 11
-1.0
 21
-0.267949
 31
0.0
  0
LINE
  5
3BE
330
3B9
100
AcDbEntity
  8
0
  6
ByBlock
 62
     0
370
    -2
100
AcDbLine
 10
0.0
 20
0.0
 30
0.0
 11
-1.0
 21
0.0
 31
0.0
  0
ENDBLK
  5
3BB
330
3B9
100
AcDbEntity
  8
0
100
AcDbBlockEnd
  0
BLOCK
  5
3CC
330
3C1
100
AcDbEntity
  8
0
100
AcDbBlockBegin
  2
*D14
 70
     1
 71
     0
 10
0.0
 20
0.0
 30
0.0
  3
*D14
  1

  0
LINE
  5
3C2
330
3C1
100
AcDbEntity
  8
1
  6
Continuous
 62
     2
100
AcDbLine
 10
323.0546029198574
 20
675.1527020160296
 30
0.0
 11
323.0546029198574
 21
694.3527020160296
 31
0.0
  0
LINE
  5
3C3
330
3C1
100
AcDbEntity
  8
1
  6
Continuous
 62
     2
100
AcDbLine
 10
323.0546029198574
 20
694.3527020160296
 30
0.0
 11
323.0546029198574
 21
709.3527020160296
 31
0.0
  0
LINE
  5
3C4
330
3C1
100
AcDbEntity
  8
1
  6
Continuous
 62
     2
100
AcDbLine
 10
323.0546029198574
 20
709.3527020160296
 30
0.0
 11
323.0546029198574
 21
728.5527020160297
 31
0.0
  0
LINE
  5
3C5
330
3C1
100
AcDbEntity
  8
1
  6
Continuous
 62
     2
100
AcDbLine
 10
367.0216228406105
 20
709.3527020160296
 30
0.0
 11
320.0546029198574
 21
709.3527020160296
 31
0.0
  0
LINE
  5
3C6
330
3C1
100
AcDbEntity
  8
1
  6
Continuous
 62
     2
100
AcDbLine
 10
335.1466228406094
 20
694.3527020160296
 30
0.0
 11
320.0546029198574
 21
694.3527020160296
 31
0.0
  0
LINE
  5
3C7
330
3C1
100
AcDbEntity
  8
1
 62
     2
100
AcDbLine
 10
323.0546029198574
 20
694.3527020160296
 30
0.0
 11
325.6269151671962
 21
684.7527020160296
 31
0.0
  0
LINE
  5
3C8
330
3C1
100
AcDbEntity
  8
1
 62
     2
100
AcDbLine
 10
323.0546029198574
 20
694.3527020160296
 30
0.0
 11
320.4822906725186
 21
684.7527020160296
 31
0.0
  0
LINE
  5
3C9
330
3C1
100
AcDbEntity
  8
1
 62
     2
100
AcDbLine
 10
323.0546029198574
 20
709.3527020160296
 30
0.0
 11
320.4822906725186
 21
718.9527020160297
 31
0.0
  0
LINE
  5
3CA
330
3C1
100
AcDbEntity
  8
1
 62
     2
100
AcDbLine
 10
323.0546029198574
 20
709.3527020160296
 30
0.0
 11
325.6269151671962
 21
718.9527020160297
 31
0.0
  0
MTEXT
  5
3CB
330
3C1
100
AcDbEntity
  8
1
 62
     2
100
AcDbMText
 10
320.0546029198574
 20
697.146123152036
 30
0.0
 40
9.6
 41
0.0
 71
     7
 72
     1
  1
15
  7
CONVERTER_1
 11
0.0
 21
1.0
 31
0.0
 73
     1
 44
0.60024009603842
  0
ENDBLK
  5
3CD
330
3C1
100
AcDbEntity
  8
0
100
AcDbBlockEnd
  0
BLOCK
  5
3DA
330
3D0
100
AcDbEntity
  8
0
100
AcDbBlockBegin
  2
*D25
 70
     1
 71
     0
 10
0.0
 20
0.0
 30
0.0
  3
*D25
  1

  0
LINE
  5
3D1
330
3D0
100
AcDbEntity
  8
1
  6
Continuous
 62
     2
100
AcDbLine
 10
473.14662284061
 20
375.2613839518926
 30
0.0
 11
368.1466228406093
 21
375.2613839518926
 31
0.0
  0
LINE
  5
3D2
330
3D0
100
AcDbEntity
  8
1
  6
Continuous
 62
     2
100
AcDbLine
 10
473.14662284061
 20
429.8527020160298
 30
0.0
 11
473.14662284061
 21
372.2613839518926
 31
0.0
  0
LINE
  5
3D3
330
3D0
100
AcDbEntity
  8
1
  6
Continuous
 62
     2
100
AcDbLine
 10
368.1466228406093
 20
429.8527020160298
 30
0.0
 11
368.1466228406093
 21
409.4773592547111
 31
0.0
  0
LINE
  5
3D4
330
3D0
100
AcDbEntity
  8
1
  6
Continuous
 62
     2
100
AcDbLine
 10
368.1466228406093
 20
389.4633336302319
 30
0.0
 11
368.1466228406093
 21
372.2613839518926
 31
0.0
  0
LINE
  5
3D5
330
3D0
100
AcDbEntity
  8
1
 62
     2
100
AcDbLine
 10
473.14662284061
 20
375.2613839518926
 30
0.0
 11
463.5466228406099
 21
372.6890717045538
 31
0.0
  0
LINE
  5
3D6
330
3D0
100
AcDbEntity
  8
1
 62
     2
100
AcDbLine
 10
473.14662284061
 20
375.2613839518926
 30
0.0
 11
463.5466228406099
 21
377.8336961992314
 31
0.0
  0
LINE
  5
3D7
330
3D0
100
AcDbEntity
  8
1
 62
     2
100
AcDbLine
 10
368.1466228406093
 20
375.2613839518926
 30
0.0
 11
377.7466228406093
 21
377.8336961992314
 31
0.0
  0
LINE
  5
3D8
330
3D0
100
AcDbEntity
  8
1
 62
     2
100
AcDbLine
 10
368.1466228406093
 20
375.2613839518926
 30
0.0
 11
377.7466228406093
 21
372.6890717045538
 31
0.0
  0
MTEXT
  5
3D9
330
3D0
100
AcDbEntity
  8
1
 62
     2
100
AcDbMText
 10
407.2652723613361
 20
377.3613839518926
 30
0.0
 40
9.6
 41
0.0
 71
     7
 72
     1
  1
105
  7
CONVERTER_1
 11
0.9999999999970621
 21
2.424068405545307E-6
 31
0.0
 73
     1
 44
0.60024009603842
  0
ENDBLK
  5
3DB
330
3D0
100
AcDbEntity
  8
0
100
AcDbBlockEnd
  0
BLOCK
  5
3E7
330
3DE
100
AcDbEntity
  8
0
100
AcDbBlockBegin
  2
*D36
 70
     1
 71
     0
 10
0.0
 20
0.0
 30
0.0
  3
*D36
  1

  0
LINE
  5
3DF
330
3DE
100
AcDbEntity
  8
1
  6
Continuous
 62
     2
100
AcDbLine
 10
467.14662284061
 20
397.4931460430278
 30
0.0
 11
374.1466228406105
 21
397.4931460430278
 31
0.0
  0
LINE
  5
3E0
330
3DE
100
AcDbEntity
  8
1
  6
Continuous
 62
     2
100
AcDbLine
 10
467.14662284061
 20
428.7277020160298
 30
0.0
 11
467.14662284061
 21
394.4931460430278
 31
0.0
  0
LINE
  5
3E1
330
3DE
100
AcDbEntity
  8
1
  6
Continuous
 62
     2
100
AcDbLine
 10
374.1466228406105
 20
428.7277020160298
 30
0.0
 11
374.1466228406105
 21
394.4931460430278
 31
0.0
  0
LINE
  5
3E2
330
3DE
100
AcDbEntity
  8
1
 62
     2
100
AcDbLine
 10
467.14662284061
 20
397.4931460430278
 30
0.0
 11
457.54662284061
 21
394.920833795689
 31
0.0
  0
LINE
  5
3E3
330
3DE
100
AcDbEntity
  8
1
 62
     2
100
AcDbLine
 10
467.14662284061
 20
397.4931460430278
 30
0.0
 11
457.54662284061
 21
400.0654582903666
 31
0.0
  0
LINE
  5
3E4
330
3DE
100
AcDbEntity
  8
1
 62
     2
100
AcDbLine
 10
374.1466228406105
 20
397.4931460430278
 30
0.0
 11
383.7466228406105
 21
400.0654582903666
 31
0.0
  0
LINE
  5
3E5
330
3DE
100
AcDbEntity
  8
1
 62
     2
100
AcDbLine
 10
374.1466228406105
 20
397.4931460430278
 30
0.0
 11
383.7466228406105
 21
394.920833795689
 31
0.0
  0
MTEXT
  5
3E6
330
3DE
100
AcDbEntity
  8
1
 62
     2
100
AcDbMText
 10
409.1807410059395
 20
401.0331460430278
 30
0.0
 40
9.6
 41
0.0
 71
     7
 72
     1
  1
93
  7
CONVERTER_1
 11
0.9999999999970621
 21
2.424068405545307E-6
 31
0.0
 73
     1
 44
0.60024009603842
  0
ENDBLK
  5
3E8
330
3DE
100
AcDbEntity
  8
0
100
AcDbBlockEnd
  0
BLOCK
  5
3F5
330
3EB
100
AcDbEntity
  8
0
100
AcDbBlockBegin
  2
*D47
 70
     1
 71
     0
 10
0.0
 20
0.0
 30
0.0
  3
*D47
  1

  0
LINE
  5
3EC
330
3EB
100
AcDbEntity
  8
1
  6
Continuous
 62
     2
100
AcDbLine
 10
538.1497202100011
 20
214.6823195447763
 30
0.0
 11
488.14295889662
 21
214.6823195447763
 31
0.0
  0
LINE
  5
3ED
330
3EB
100
AcDbEntity
  8
1
  6
Continuous
 62
     2
100
AcDbLine
 10
538.1497202100011
 20
291.4892047233959
 30
0.0
 11
538.1497202100011
 21
211.6823195447763
 31
0.0
  0
LINE
  5
3EE
330
3EB
100
AcDbEntity
  8
1
  6
Continuous
 62
     2
100
AcDbLine
 10
488.14295889662
 20
267.3892047233956
 30
0.0
 11
488.14295889662
 21
211.6823195447763
 31
0.0
  0
LINE
  5
3EF
330
3EB
100
AcDbEntity
  8
1
 62
     2
100
AcDbLine
 10
538.1497202100011
 20
214.6823195447763
 30
0.0
 11
528.5497202100011
 21
212.1100072974375
 31
0.0
  0
LINE
  5
3F0
330
3EB
100
AcDbEntity
  8
1
 62
     2
100
AcDbLine
 10
538.1497202100011
 20
214.6823195447763
 30
0.0
 11
528.5497202100011
 21
217.254631792115
 31
0.0
  0
LINE
  5
3F1
330
3EB
100
AcDbEntity
  8
1
 62
     2
100
AcDbLine
 10
488.14295889662
 20
214.6823195447763
 30
0.0
 11
497.7429588966201
 21
217.254631792115
 31
0.0
  0
LINE
  5
3F2
330
3EB
100
AcDbEntity
  8
1
 62
     2
100
AcDbLine
 10
488.14295889662
 20
214.6823195447763
 30
0.0
 11
497.7429588966201
 21
212.1100072974375
 31
0.0
  0
MTEXT
  5
3F4
330
3EB
100
AcDbEntity
  8
1
 62
     2
100
AcDbMText
 10
508.4024519093
 20
220.7919661669757
 30
0.0
 40
9.6
 41
0.0
 71
     7
 72
     1
  1
1～99
  7
CONVERTER_7
 11
0.9999999999970621
 21
2.424068405545307E-6
 31
0.0
 73
     1
 44
0.60024009603842
  0
ENDBLK
  5
3F6
330
3EB
100
AcDbEntity
  8
0
100
AcDbBlockEnd
  0
BLOCK
  5
402
330
3F9
100
AcDbEntity
  8
0
100
AcDbBlockBegin
  2
*D58
 70
     1
 71
     0
 10
0.0
 20
0.0
 30
0.0
  3
*D58
  1

  0
LINE
  5
3FA
330
3F9
100
AcDbEntity
  8
1
  6
Continuous
 62
     2
100
AcDbLine
 10
538.149720210001
 20
335.8176827748602
 30
0.0
 11
338.1466228406093
 21
335.8176827748602
 31
0.0
  0
LINE
  5
3FB
330
3F9
100
AcDbEntity
  8
1
  6
Continuous
 62
     2
100
AcDbLine
 10
538.149720210001
 20
297.4892047233959
 30
0.0
 11
538.149720210001
 21
338.8176827748602
 31
0.0
  0
LINE
  5
3FC
330
3F9
100
AcDbEntity
  8
1
  6
Continuous
 62
     2
100
AcDbLine
 10
338.1466228406093
 20
273.3892047233956
 30
0.0
 11
338.1466228406093
 21
338.8176827748602
 31
0.0
  0
LINE
  5
3FD
330
3F9
100
AcDbEntity
  8
1
 62
     2
100
AcDbLine
 10
538.149720210001
 20
335.8176827748602
 30
0.0
 11
528.5497202100009
 21
333.2453705275214
 31
0.0
  0
LINE
  5
3FE
330
3F9
100
AcDbEntity
  8
1
 62
     2
100
AcDbLine
 10
538.149720210001
 20
335.8176827748602
 30
0.0
 11
528.5497202100009
 21
338.389995022199
 31
0.0
  0
LINE
  5
3FF
330
3F9
100
AcDbEntity
  8
1
 62
     2
100
AcDbLine
 10
338.1466228406093
 20
335.8176827748602
 30
0.0
 11
347.7466228406093
 21
338.389995022199
 31
0.0
  0
LINE
  5
400
330
3F9
100
AcDbEntity
  8
1
 62
     2
100
AcDbLine
 10
338.1466228406093
 20
335.8176827748602
 30
0.0
 11
347.7466228406093
 21
333.2453705275214
 31
0.0
  0
MTEXT
  5
401
330
3F9
100
AcDbEntity
  8
1
 62
     2
100
AcDbMText
 10
400.6101788908766
 20
337.9176827748602
 30
0.0
 40
9.6
 41
0.0
 71
     7
 72
     1
  1
呼称機長　※1
  7
CONVERTER_3
 11
0.9999999999970621
 21
2.424068405545307E-6
 31
0.0
 73
     1
 44
0.60024009603842
  0
ENDBLK
  5
403
330
3F9
100
AcDbEntity
  8
0
100
AcDbBlockEnd
  0
BLOCK
  5
40F
330
406
100
AcDbEntity
  8
0
100
AcDbBlockBegin
  2
*D69
 70
     1
 71
     0
 10
0.0
 20
0.0
 30
0.0
  3
*D69
  1

  0
LINE
  5
407
330
406
100
AcDbEntity
  8
1
  6
Continuous
 62
     2
100
AcDbLine
 10
289.4224172936151
 20
681.8527020160298
 30
0.0
 11
289.4224172936151
 21
481.85270201603
 31
0.0
  0
LINE
  5
408
330
406
100
AcDbEntity
  8
1
  6
Continuous
 62
     2
100
AcDbLine
 10
335.1466228406094
 20
481.85270201603
 30
0.0
 11
286.4224172936151
 21
481.85270201603
 31
0.0
  0
LINE
  5
409
330
406
100
AcDbEntity
  8
1
  6
Continuous
 62
     2
100
AcDbLine
 10
335.1466228406094
 20
681.8527020160298
 30
0.0
 11
286.4224172936151
 21
681.8527020160298
 31
0.0
  0
LINE
  5
40A
330
406
100
AcDbEntity
  8
1
 62
     2
100
AcDbLine
 10
289.4224172936151
 20
681.8527020160298
 30
0.0
 11
291.9947295409539
 21
672.2527020160297
 31
0.0
  0
LINE
  5
40B
330
406
100
AcDbEntity
  8
1
 62
     2
100
AcDbLine
 10
289.4224172936151
 20
681.8527020160298
 30
0.0
 11
286.8501050462763
 21
672.2527020160297
 31
0.0
  0
LINE
  5
40C
330
406
100
AcDbEntity
  8
1
 62
     2
100
AcDbLine
 10
289.4224172936151
 20
481.85270201603
 30
0.0
 11
286.8501050462763
 21
491.45270201603
 31
0.0
  0
LINE
  5
40D
330
406
100
AcDbEntity
  8
1
 62
     2
100
AcDbLine
 10
289.4224172936151
 20
481.85270201603
 30
0.0
 11
291.9947295409539
 21
491.45270201603
 31
0.0
  0
MTEXT
  5
40E
330
406
100
AcDbEntity
  8
1
 62
     2
100
AcDbMText
 10
286.4224172936151
 20
540.3707773470109
 30
0.0
 40
9.6
 41
0.0
 71
     7
 72
     1
  1
200(ベルト幅)
  7
CONVERTER_3
 11
0.0
 21
1.0
 31
0.0
 73
     1
 44
0.60024009603842
  0
ENDBLK
  5
410
330
406
100
AcDbEntity
  8
0
100
AcDbBlockEnd
  0
BLOCK
  5
41E
330
413
100
AcDbEntity
  8
0
100
AcDbBlockBegin
  2
*D710
 70
     1
 71
     0
 10
0.0
 20
0.0
 30
0.0
  3
*D710
  1

  0
LINE
  5
414
330
413
100
AcDbEntity
  8
1
  6
Continuous
 62
     2
100
AcDbLine
 10
289.4224172936151
 20
662.6527020160297
 30
0.0
 11
289.4224172936151
 21
681.8527020160298
 31
0.0
  0
LINE
  5
415
330
413
100
AcDbEntity
  8
1
  6
Continuous
 62
     2
100
AcDbLine
 10
289.4224172936151
 20
681.8527020160298
 30
0.0
 11
289.4224172936151
 21
694.3527020160296
 31
0.0
  0
LINE
  5
416
330
413
100
AcDbEntity
  8
1
  6
Continuous
 62
     2
100
AcDbLine
 10
289.4224172936151
 20
694.3527020160296
 30
0.0
 11
289.4224172936151
 21
748.3744462260786
 31
0.0
  0
LINE
  5
417
330
413
100
AcDbEntity
  8
1
  6
Continuous
 62
     2
100
AcDbLine
 10
335.1466228406094
 20
694.3527020160296
 30
0.0
 11
286.4224172936151
 21
694.3527020160296
 31
0.0
  0
LINE
  5
418
330
413
100
AcDbEntity
  8
1
  6
Continuous
 62
     2
100
AcDbLine
 10
335.1466228406094
 20
681.8527020160298
 30
0.0
 11
286.4224172936151
 21
681.8527020160298
 31
0.0
  0
LINE
  5
419
330
413
100
AcDbEntity
  8
1
 62
     2
100
AcDbLine
 10
289.4224172936151
 20
681.8527020160298
 30
0.0
 11
291.9947295409539
 21
672.2527020160297
 31
0.0
  0
LINE
  5
41A
330
413
100
AcDbEntity
  8
1
 62
     2
100
AcDbLine
 10
289.4224172936151
 20
681.8527020160298
 30
0.0
 11
286.8501050462763
 21
672.2527020160297
 31
0.0
  0
LINE
  5
41B
330
413
100
AcDbEntity
  8
1
 62
     2
100
AcDbLine
 10
289.4224172936151
 20
694.3527020160296
 30
0.0
 11
286.8501050462763
 21
703.9527020160297
 31
0.0
  0
LINE
  5
41C
330
413
100
AcDbEntity
  8
1
 62
     2
100
AcDbLine
 10
289.4224172936151
 20
694.3527020160296
 30
0.0
 11
291.9947295409539
 21
703.9527020160297
 31
0.0
  0
MTEXT
  5
41D
330
413
100
AcDbEntity
  8
1
 62
     2
100
AcDbMText
 10
286.4224172936151
 20
725.0944462260786
 30
0.0
 40
9.6
 41
0.0
 71
     7
 72
     1
  1
12.5
  7
CONVERTER_1
 11
0.0
 21
1.0
 31
0.0
 73
     1
 44
0.60024009603842
  0
ENDBLK
  5
41F
330
413
100
AcDbEntity
  8
0
100
AcDbBlockEnd
  0
BLOCK
  5
42B
330
422
100
AcDbEntity
  8
0
100
AcDbBlockBegin
  2
*D811
 70
     1
 71
     0
 10
0.0
 20
0.0
 30
0.0
  3
*D811
  1

  0
LINE
  5
423
330
422
100
AcDbEntity
  8
1
  6
Continuous
 62
     2
100
AcDbLine
 10
289.4224172936151
 20
450.8527020160297
 30
0.0
 11
289.4224172936151
 21
481.8527020160299
 31
0.0
  0
LINE
  5
424
330
422
100
AcDbEntity
  8
1
  6
Continuous
 62
     2
100
AcDbLine
 10
335.1466228406094
 20
481.8527020160299
 30
0.0
 11
286.4224172936151
 21
481.8527020160299
 31
0.0
  0
LINE
  5
425
330
422
100
AcDbEntity
  8
1
  6
Continuous
 62
     2
100
AcDbLine
 10
335.1466228406094
 20
450.8527020160297
 30
0.0
 11
286.4224172936151
 21
450.8527020160297
 31
0.0
  0
LINE
  5
426
330
422
100
AcDbEntity
  8
1
 62
     2
100
AcDbLine
 10
289.4224172936151
 20
450.8527020160297
 30
0.0
 11
286.8501050462763
 21
460.4527020160297
 31
0.0
  0
LINE
  5
427
330
422
100
AcDbEntity
  8
1
 62
     2
100
AcDbLine
 10
289.4224172936151
 20
450.8527020160297
 30
0.0
 11
291.9947295409539
 21
460.4527020160297
 31
0.0
  0
LINE
  5
428
330
422
100
AcDbEntity
  8
1
 62
     2
100
AcDbLine
 10
289.4224172936151
 20
481.8527020160299
 30
0.0
 11
291.9947295409539
 21
472.2527020160299
 31
0.0
  0
LINE
  5
429
330
422
100
AcDbEntity
  8
1
 62
     2
100
AcDbLine
 10
289.4224172936151
 20
481.8527020160299
 30
0.0
 11
286.8501050462763
 21
472.2527020160299
 31
0.0
  0
MTEXT
  5
42A
330
422
100
AcDbEntity
  8
1
 62
     2
100
AcDbMText
 10
286.4224172936151
 20
459.5932306481706
 30
0.0
 40
9.6
 41
0.0
 71
     7
 72
     1
  1
31
  7
CONVERTER_1
 11
0.0
 21
1.0
 31
0.0
 73
     1
 44
0.60024009603842
  0
ENDBLK
  5
42C
330
422
100
AcDbEntity
  8
0
100
AcDbBlockEnd
  0
BLOCK
  5
438
330
42F
100
AcDbEntity
  8
0
100
AcDbBlockBegin
  2
*D912
 70
     1
 71
     0
 10
0.0
 20
0.0
 30
0.0
  3
*D912
  1

  0
LINE
  5
430
330
42F
100
AcDbEntity
  8
1
  6
Continuous
 62
     2
100
AcDbLine
 10
256.3249021540509
 20
450.8527020160299
 30
0.0
 11
256.3249021540509
 21
694.3527020160298
 31
0.0
  0
LINE
  5
431
330
42F
100
AcDbEntity
  8
1
  6
Continuous
 62
     2
100
AcDbLine
 10
335.1466228406093
 20
694.3527020160298
 30
0.0
 11
253.3249021540509
 21
694.3527020160298
 31
0.0
  0
LINE
  5
432
330
42F
100
AcDbEntity
  8
1
  6
Continuous
 62
     2
100
AcDbLine
 10
335.1466228406093
 20
450.8527020160299
 30
0.0
 11
253.3249021540509
 21
450.8527020160299
 31
0.0
  0
LINE
  5
433
330
42F
100
AcDbEntity
  8
1
 62
     2
100
AcDbLine
 10
256.3249021540509
 20
450.8527020160299
 30
0.0
 11
253.7525899067121
 21
460.4527020160299
 31
0.0
  0
LINE
  5
434
330
42F
100
AcDbEntity
  8
1
 62
     2
100
AcDbLine
 10
256.3249021540509
 20
450.8527020160299
 30
0.0
 11
258.8972144013897
 21
460.4527020160299
 31
0.0
  0
LINE
  5
435
330
42F
100
AcDbEntity
  8
1
 62
     2
100
AcDbLine
 10
256.3249021540509
 20
694.3527020160298
 30
0.0
 11
258.8972144013897
 21
684.7527020160297
 31
0.0
  0
LINE
  5
436
330
42F
100
AcDbEntity
  8
1
 62
     2
100
AcDbLine
 10
256.3249021540509
 20
694.3527020160298
 30
0.0
 11
253.7525899067121
 21
684.7527020160297
 31
0.0
  0
MTEXT
  5
437
330
42F
100
AcDbEntity
  8
1
 62
     2
100
AcDbMText
 10
253.3249021540509
 20
560.8334672598903
 30
0.0
 40
9.6
 41
0.0
 71
     7
 72
     1
  1
機幅
  7
CONVERTER_3
 11
0.0
 21
1.0
 31
0.0
 73
     1
 44
0.60024009603842
  0
ENDBLK
  5
439
330
42F
100
AcDbEntity
  8
0
100
AcDbBlockEnd
  0
BLOCK
  5
447
330
43C
100
AcDbEntity
  8
0
100
AcDbBlockBegin
  2
*D1013
 70
     1
 71
     0
 10
0.0
 20
0.0
 30
0.0
  3
*D1013
  1

  0
LINE
  5
43D
330
43C
100
AcDbEntity
  8
1
  6
Continuous
 62
     2
100
AcDbLine
 10
256.324902154051
 20
450.8527020160298
 30
0.0
 11
256.324902154051
 21
470.0527020160298
 31
0.0
  0
LINE
  5
43E
330
43C
100
AcDbEntity
  8
1
  6
Continuous
 62
     2
100
AcDbLine
 10
256.324902154051
 20
430.8527020160298
 30
0.0
 11
256.324902154051
 21
450.8527020160298
 31
0.0
  0
LINE
  5
43F
330
43C
100
AcDbEntity
  8
1
  6
Continuous
 62
     2
100
AcDbLine
 10
256.324902154051
 20
411.6527020160298
 30
0.0
 11
256.324902154051
 21
430.8527020160298
 31
0.0
  0
LINE
  5
440
330
43C
100
AcDbEntity
  8
1
  6
Continuous
 62
     2
100
AcDbLine
 10
367.1466228406093
 20
430.8527020160298
 30
0.0
 11
253.324902154051
 21
430.8527020160298
 31
0.0
  0
LINE
  5
441
330
43C
100
AcDbEntity
  8
1
  6
Continuous
 62
     2
100
AcDbLine
 10
335.1466228406094
 20
450.8527020160298
 30
0.0
 11
253.324902154051
 21
450.8527020160298
 31
0.0
  0
LINE
  5
442
330
43C
100
AcDbEntity
  8
1
 62
     2
100
AcDbLine
 10
256.324902154051
 20
430.8527020160298
 30
0.0
 11
258.8972144013898
 21
421.2527020160298
 31
0.0
  0
LINE
  5
443
330
43C
100
AcDbEntity
  8
1
 62
     2
100
AcDbLine
 10
256.324902154051
 20
430.8527020160298
 30
0.0
 11
253.7525899067123
 21
421.2527020160298
 31
0.0
  0
LINE
  5
444
330
43C
100
AcDbEntity
  8
1
 62
     2
100
AcDbLine
 10
256.324902154051
 20
450.8527020160298
 30
0.0
 11
253.7525899067123
 21
460.4527020160298
 31
0.0
  0
LINE
  5
445
330
43C
100
AcDbEntity
  8
1
 62
     2
100
AcDbLine
 10
256.324902154051
 20
450.8527020160298
 30
0.0
 11
258.8972144013898
 21
460.4527020160298
 31
0.0
  0
MTEXT
  5
446
330
43C
100
AcDbEntity
  8
1
 62
     2
100
AcDbMText
 10
253.324902154051
 20
431.8146724638335
 30
0.0
 40
9.6
 41
0.0
 71
     7
 72
     1
  1
20
  7
CONVERTER_1
 11
0.0
 21
1.0
 31
0.0
 73
     1
 44
0.60024009603842
  0
ENDBLK
  5
448
330
43C
100
AcDbEntity
  8
0
100
AcDbBlockEnd
  0
BLOCK
  5
456
330
44B
100
AcDbEntity
  8
0
100
AcDbBlockBegin
  2
*D1114
 70
     1
 71
     0
 10
0.0
 20
0.0
 30
0.0
  3
*D1114
  1

  0
LINE
  5
44C
330
44B
100
AcDbEntity
  8
1
  6
Continuous
 62
     2
100
AcDbLine
 10
256.324902154051
 20
675.1527020160295
 30
0.0
 11
256.324902154051
 21
694.3527020160295
 31
0.0
  0
LINE
  5
44D
330
44B
100
AcDbEntity
  8
1
  6
Continuous
 62
     2
100
AcDbLine
 10
256.324902154051
 20
694.3527020160295
 30
0.0
 11
256.324902154051
 21
714.3527020160295
 31
0.0
  0
LINE
  5
44E
330
44B
100
AcDbEntity
  8
1
  6
Continuous
 62
     2
100
AcDbLine
 10
256.324902154051
 20
714.3527020160295
 30
0.0
 11
256.324902154051
 21
733.5527020160296
 31
0.0
  0
LINE
  5
44F
330
44B
100
AcDbEntity
  8
1
  6
Continuous
 62
     2
100
AcDbLine
 10
367.1466228406093
 20
714.3527020160295
 30
0.0
 11
253.324902154051
 21
714.3527020160295
 31
0.0
  0
LINE
  5
450
330
44B
100
AcDbEntity
  8
1
  6
Continuous
 62
     2
100
AcDbLine
 10
335.1466228406094
 20
694.3527020160295
 30
0.0
 11
253.324902154051
 21
694.3527020160295
 31
0.0
  0
LINE
  5
451
330
44B
100
AcDbEntity
  8
1
 62
     2
100
AcDbLine
 10
256.324902154051
 20
694.3527020160295
 30
0.0
 11
258.8972144013898
 21
684.7527020160295
 31
0.0
  0
LINE
  5
452
330
44B
100
AcDbEntity
  8
1
 62
     2
100
AcDbLine
 10
256.324902154051
 20
694.3527020160295
 30
0.0
 11
253.7525899067123
 21
684.7527020160295
 31
0.0
  0
LINE
  5
453
330
44B
100
AcDbEntity
  8
1
 62
     2
100
AcDbLine
 10
256.324902154051
 20
714.3527020160295
 30
0.0
 11
253.7525899067123
 21
723.9527020160296
 31
0.0
  0
LINE
  5
454
330
44B
100
AcDbEntity
  8
1
 62
     2
100
AcDbLine
 10
256.324902154051
 20
714.3527020160295
 30
0.0
 11
258.8972144013898
 21
723.9527020160296
 31
0.0
  0
MTEXT
  5
455
330
44B
100
AcDbEntity
  8
1
 62
     2
100
AcDbMText
 10
253.324902154051
 20
697.0815798918055
 30
0.0
 40
9.6
 41
0.0
 71
     7
 72
     1
  1
20
  7
CONVERTER_1
 11
0.0
 21
1.0
 31
0.0
 73
     1
 44
0.60024009603842
  0
ENDBLK
  5
457
330
44B
100
AcDbEntity
  8
0
100
AcDbBlockEnd
  0
BLOCK
  5
463
330
45A
100
AcDbEntity
  8
0
100
AcDbBlockBegin
  2
*D1215
 70
     1
 71
     0
 10
0.0
 20
0.0
 30
0.0
  3
*D1215
  1

  0
LINE
  5
45B
330
45A
100
AcDbEntity
  8
1
  6
Continuous
 62
     2
100
AcDbLine
 10
685.6542976610695
 20
325.0649901951497
 30
0.0
 11
885.6542976610701
 21
325.0649901951497
 31
0.0
  0
LINE
  5
45C
330
45A
100
AcDbEntity
  8
1
  6
Continuous
 62
     2
100
AcDbLine
 10
885.6542976610701
 20
304.2892047233963
 30
0.0
 11
885.6542976610701
 21
328.0649901951497
 31
0.0
  0
LINE
  5
45D
330
45A
100
AcDbEntity
  8
1
  6
Continuous
 62
     2
100
AcDbLine
 10
685.6542976610695
 20
304.2892047233963
 30
0.0
 11
685.6542976610695
 21
328.0649901951497
 31
0.0
  0
LINE
  5
45E
330
45A
100
AcDbEntity
  8
1
 62
     2
100
AcDbLine
 10
685.6542976610695
 20
325.0649901951497
 30
0.0
 11
695.2542976610695
 21
327.6373024424885
 31
0.0
  0
LINE
  5
45F
330
45A
100
AcDbEntity
  8
1
 62
     2
100
AcDbLine
 10
685.6542976610695
 20
325.0649901951497
 30
0.0
 11
695.2542976610695
 21
322.4926779478109
 31
0.0
  0
LINE
  5
460
330
45A
100
AcDbEntity
  8
1
 62
     2
100
AcDbLine
 10
885.6542976610701
 20
325.0649901951497
 30
0.0
 11
876.0542976610701
 21
322.4926779478109
 31
0.0
  0
LINE
  5
461
330
45A
100
AcDbEntity
  8
1
 62
     2
100
AcDbLine
 10
885.6542976610701
 20
325.0649901951497
 30
0.0
 11
876.0542976610701
 21
327.6373024424885
 31
0.0
  0
MTEXT
  5
462
330
45A
100
AcDbEntity
  8
1
 62
     2
100
AcDbMText
 10
768.1347317638347
 20
327.1649901951497
 30
0.0
 40
9.6
 41
0.0
 71
     7
 72
     1
  1
ベルト幅
  7
CONVERTER_3
 11
0.9999999999970621
 21
2.424068405545307E-6
 31
0.0
 73
     1
 44
0.60024009603842
  0
ENDBLK
  5
464
330
45A
100
AcDbEntity
  8
0
100
AcDbBlockEnd
  0
BLOCK
  5
470
330
467
100
AcDbEntity
  8
0
100
AcDbBlockBegin
  2
*D1316
 70
     1
 71
     0
 10
0.0
 20
0.0
 30
0.0
  3
*D1316
  1

  0
LINE
  5
468
330
467
100
AcDbEntity
  8
1
  6
Continuous
 62
     2
100
AcDbLine
 10
338.1466228406093
 20
397.4931460430277
 30
0.0
 11
374.1466228406104
 21
397.4931460430277
 31
0.0
  0
LINE
  5
469
330
467
100
AcDbEntity
  8
1
  6
Continuous
 62
     2
100
AcDbLine
 10
338.1466228406093
 20
447.8527020160297
 30
0.0
 11
338.1466228406093
 21
394.4931460430277
 31
0.0
  0
LINE
  5
46A
330
467
100
AcDbEntity
  8
1
  6
Continuous
 62
     2
100
AcDbLine
 10
374.1466228406104
 20
428.7277020160297
 30
0.0
 11
374.1466228406104
 21
394.4931460430277
 31
0.0
  0
LINE
  5
46B
330
467
100
AcDbEntity
  8
1
 62
     2
100
AcDbLine
 10
338.1466228406093
 20
397.4931460430277
 30
0.0
 11
347.7466228406094
 21
400.0654582903665
 31
0.0
  0
LINE
  5
46C
330
467
100
AcDbEntity
  8
1
 62
     2
100
AcDbLine
 10
338.1466228406093
 20
397.4931460430277
 30
0.0
 11
347.7466228406094
 21
394.9208337956889
 31
0.0
  0
LINE
  5
46D
330
467
100
AcDbEntity
  8
1
 62
     2
100
AcDbLine
 10
374.1466228406104
 20
397.4931460430277
 30
0.0
 11
364.5466228406104
 21
394.9208337956889
 31
0.0
  0
LINE
  5
46E
330
467
100
AcDbEntity
  8
1
 62
     2
100
AcDbLine
 10
374.1466228406104
 20
397.4931460430277
 30
0.0
 11
364.5466228406104
 21
400.0654582903665
 31
0.0
  0
MTEXT
  5
46F
330
467
100
AcDbEntity
  8
1
 62
     2
100
AcDbMText
 10
349.6555488499647
 20
401.9331460430277
 30
0.0
 40
9.6
 41
0.0
 71
     7
 72
     1
  1
36
  7
CONVERTER_1
 11
0.9999999999970621
 21
2.424068405545307E-6
 31
0.0
 73
     1
 44
0.60024009603842
  0
ENDBLK
  5
471
330
467
100
AcDbEntity
  8
0
100
AcDbBlockEnd
  0
BLOCK
  5
47D
330
474
100
AcDbEntity
  8
0
100
AcDbBlockBegin
  2
*D1417
 70
     1
 71
     0
 10
0.0
 20
0.0
 30
0.0
  3
*D1417
  1

  0
LINE
  5
475
330
474
100
AcDbEntity
  8
1
  6
Continuous
 62
     2
100
AcDbLine
 10
338.1466228406093
 20
375.2613839518927
 30
0.0
 11
368.1466228406093
 21
375.2613839518927
 31
0.0
  0
LINE
  5
476
330
474
100
AcDbEntity
  8
1
  6
Continuous
 62
     2
100
AcDbLine
 10
338.1466228406093
 20
447.8527020160298
 30
0.0
 11
338.1466228406093
 21
372.2613839518927
 31
0.0
  0
LINE
  5
477
330
474
100
AcDbEntity
  8
1
  6
Continuous
 62
     2
100
AcDbLine
 10
368.1466228406093
 20
429.8527020160298
 30
0.0
 11
368.1466228406093
 21
372.2613839518927
 31
0.0
  0
LINE
  5
478
330
474
100
AcDbEntity
  8
1
 62
     2
100
AcDbLine
 10
338.1466228406093
 20
375.2613839518927
 30
0.0
 11
347.7466228406094
 21
377.8336961992315
 31
0.0
  0
LINE
  5
479
330
474
100
AcDbEntity
  8
1
 62
     2
100
AcDbLine
 10
338.1466228406093
 20
375.2613839518927
 30
0.0
 11
347.7466228406094
 21
372.6890717045539
 31
0.0
  0
LINE
  5
47A
330
474
100
AcDbEntity
  8
1
 62
     2
100
AcDbLine
 10
368.1466228406093
 20
375.2613839518927
 30
0.0
 11
358.5466228406093
 21
372.6890717045539
 31
0.0
  0
LINE
  5
47B
330
474
100
AcDbEntity
  8
1
 62
     2
100
AcDbLine
 10
368.1466228406093
 20
375.2613839518927
 30
0.0
 11
358.5466228406093
 21
377.8336961992315
 31
0.0
  0
MTEXT
  5
47C
330
474
100
AcDbEntity
  8
1
 62
     2
100
AcDbMText
 10
345.334265683353
 20
378.2613839518927
 30
0.0
 40
9.6
 41
0.0
 71
     7
 72
     1
  1
30
  7
CONVERTER_1
 11
0.9999999999970621
 21
2.424068405545307E-6
 31
0.0
 73
     1
 44
0.60024009603842
  0
ENDBLK
  5
47E
330
474
100
AcDbEntity
  8
0
100
AcDbBlockEnd
  0
BLOCK
  5
48C
330
481
100
AcDbEntity
  8
0
100
AcDbBlockBegin
  2
*D1518
 70
     1
 71
     0
 10
0.0
 20
0.0
 30
0.0
  3
*D1518
  1

  0
LINE
  5
482
330
481
100
AcDbEntity
  8
1
  6
Continuous
 62
     2
100
AcDbLine
 10
929.3542976610702
 20
343.1959748444027
 30
0.0
 11
910.1542976610701
 21
343.1959748444027
 31
0.0
  0
LINE
  5
483
330
481
100
AcDbEntity
  8
1
  6
Continuous
 62
     2
100
AcDbLine
 10
910.1542976610701
 20
343.1959748444027
 30
0.0
 11
898.1542976610701
 21
343.1959748444027
 31
0.0
  0
LINE
  5
484
330
481
100
AcDbEntity
  8
1
  6
Continuous
 62
     2
100
AcDbLine
 10
898.1542976610701
 20
343.1959748444027
 30
0.0
 11
878.9542976610701
 21
343.1959748444027
 31
0.0
  0
LINE
  5
485
330
481
100
AcDbEntity
  8
1
  6
Continuous
 62
     2
100
AcDbLine
 10
898.1542976610701
 20
286.2392047233959
 30
0.0
 11
898.1542976610701
 21
346.1959748444027
 31
0.0
  0
LINE
  5
486
330
481
100
AcDbEntity
  8
1
  6
Continuous
 62
     2
100
AcDbLine
 10
910.1542976610701
 20
274.3892047233962
 30
0.0
 11
910.1542976610701
 21
346.1959748444027
 31
0.0
  0
LINE
  5
487
330
481
100
AcDbEntity
  8
1
 62
     2
100
AcDbLine
 10
910.1542976610701
 20
343.1959748444027
 30
0.0
 11
919.7542976610702
 21
345.7682870917415
 31
0.0
  0
LINE
  5
488
330
481
100
AcDbEntity
  8
1
 62
     2
100
AcDbLine
 10
910.1542976610701
 20
343.1959748444027
 30
0.0
 11
919.7542976610702
 21
340.6236625970639
 31
0.0
  0
LINE
  5
489
330
481
100
AcDbEntity
  8
1
 62
     2
100
AcDbLine
 10
898.1542976610701
 20
343.1959748444027
 30
0.0
 11
888.5542976610701
 21
340.6236625970639
 31
0.0
  0
LINE
  5
48A
330
481
100
AcDbEntity
  8
1
 62
     2
100
AcDbLine
 10
898.1542976610701
 20
343.1959748444027
 30
0.0
 11
888.5542976610701
 21
345.7682870917415
 31
0.0
  0
MTEXT
  5
48B
330
481
100
AcDbEntity
  8
1
 62
     2
100
AcDbMText
 10
897.486863508012
 20
345.2959748444027
 30
0.0
 40
9.6
 41
0.0
 71
     7
 72
     1
  1
12
  7
CONVERTER_1
 11
0.9999999999970621
 21
2.424068405545307E-6
 31
0.0
 73
     1
 44
0.60024009603842
  0
ENDBLK
  5
48D
330
481
100
AcDbEntity
  8
0
100
AcDbBlockEnd
  0
BLOCK
  5
49B
330
490
100
AcDbEntity
  8
0
100
AcDbBlockBegin
  2
*D1619
 70
     1
 71
     0
 10
0.0
 20
0.0
 30
0.0
  3
*D1619
  1

  0
LINE
  5
491
330
490
100
AcDbEntity
  8
1
  6
Continuous
 62
     2
100
AcDbLine
 10
673.8542976610693
 20
343.1959748444027
 30
0.0
 11
654.6542976610692
 21
343.1959748444027
 31
0.0
  0
LINE
  5
492
330
490
100
AcDbEntity
  8
1
  6
Continuous
 62
     2
100
AcDbLine
 10
654.6542976610692
 20
343.1959748444027
 30
0.0
 11
642.6542976610692
 21
343.1959748444027
 31
0.0
  0
LINE
  5
493
330
490
100
AcDbEntity
  8
1
  6
Continuous
 62
     2
100
AcDbLine
 10
642.6542976610692
 20
343.1959748444027
 30
0.0
 11
623.4542976610692
 21
343.1959748444027
 31
0.0
  0
LINE
  5
494
330
490
100
AcDbEntity
  8
1
  6
Continuous
 62
     2
100
AcDbLine
 10
642.6542976610692
 20
274.3892047233962
 30
0.0
 11
642.6542976610692
 21
346.1959748444027
 31
0.0
  0
LINE
  5
495
330
490
100
AcDbEntity
  8
1
  6
Continuous
 62
     2
100
AcDbLine
 10
654.6542976610692
 20
286.389204723396
 30
0.0
 11
654.6542976610692
 21
346.1959748444027
 31
0.0
  0
LINE
  5
496
330
490
100
AcDbEntity
  8
1
 62
     2
100
AcDbLine
 10
654.6542976610692
 20
343.1959748444027
 30
0.0
 11
664.2542976610692
 21
345.7682870917415
 31
0.0
  0
LINE
  5
497
330
490
100
AcDbEntity
  8
1
 62
     2
100
AcDbLine
 10
654.6542976610692
 20
343.1959748444027
 30
0.0
 11
664.2542976610692
 21
340.6236625970639
 31
0.0
  0
LINE
  5
498
330
490
100
AcDbEntity
  8
1
 62
     2
100
AcDbLine
 10
642.6542976610692
 20
343.1959748444027
 30
0.0
 11
633.0542976610692
 21
340.6236625970639
 31
0.0
  0
LINE
  5
499
330
490
100
AcDbEntity
  8
1
 62
     2
100
AcDbLine
 10
642.6542976610692
 20
343.1959748444027
 30
0.0
 11
633.0542976610692
 21
345.7682870917415
 31
0.0
  0
MTEXT
  5
49A
330
490
100
AcDbEntity
  8
1
 62
     2
100
AcDbMText
 10
642.13629797404
 20
345.2959748444027
 30
0.0
 40
9.6
 41
0.0
 71
     7
 72
     1
  1
12
  7
CONVERTER_1
 11
0.9999999999970621
 21
2.424068405545307E-6
 31
0.0
 73
     1
 44
0.60024009603842
  0
ENDBLK
  5
49C
330
490
100
AcDbEntity
  8
0
100
AcDbBlockEnd
  0
BLOCK
  5
4A8
330
49F
100
AcDbEntity
  8
0
100
AcDbBlockBegin
  2
*D1720
 70
     1
 71
     0
 10
0.0
 20
0.0
 30
0.0
  3
*D1720
  1

  0
LINE
  5
4A0
330
49F
100
AcDbEntity
  8
1
  6
Continuous
 62
     2
100
AcDbLine
 10
898.1542976610701
 20
343.1959748444027
 30
0.0
 11
654.6542976610692
 21
343.1959748444027
 31
0.0
  0
LINE
  5
4A1
330
49F
100
AcDbEntity
  8
1
  6
Continuous
 62
     2
100
AcDbLine
 10
654.6542976610692
 20
286.389204723396
 30
0.0
 11
654.6542976610692
 21
346.1959748444027
 31
0.0
  0
LINE
  5
4A2
330
49F
100
AcDbEntity
  8
1
  6
Continuous
 62
     2
100
AcDbLine
 10
898.1542976610701
 20
286.2392047233959
 30
0.0
 11
898.1542976610701
 21
346.1959748444027
 31
0.0
  0
LINE
  5
4A3
330
49F
100
AcDbEntity
  8
1
 62
     2
100
AcDbLine
 10
898.1542976610701
 20
343.1959748444027
 30
0.0
 11
888.5542976610701
 21
340.6236625970639
 31
0.0
  0
LINE
  5
4A4
330
49F
100
AcDbEntity
  8
1
 62
     2
100
AcDbLine
 10
898.1542976610701
 20
343.1959748444027
 30
0.0
 11
888.5542976610701
 21
345.7682870917415
 31
0.0
  0
LINE
  5
4A5
330
49F
100
AcDbEntity
  8
1
 62
     2
100
AcDbLine
 10
654.6542976610692
 20
343.1959748444027
 30
0.0
 11
664.2542976610692
 21
345.7682870917415
 31
0.0
  0
LINE
  5
4A6
330
49F
100
AcDbEntity
  8
1
 62
     2
100
AcDbLine
 10
654.6542976610692
 20
343.1959748444027
 30
0.0
 11
664.2542976610692
 21
340.6236625970639
 31
0.0
  0
MTEXT
  5
4A7
330
49F
100
AcDbEntity
  8
1
 62
     2
100
AcDbMText
 10
760.9771850019068
 20
345.2959748444027
 30
0.0
 40
9.6
 41
0.0
 71
     7
 72
     1
  1
機幅
  7
CONVERTER_3
 11
0.9999999999970621
 21
2.424068405545307E-6
 31
0.0
 73
     1
 44
0.60024009603842
  0
ENDBLK
  5
4A9
330
49F
100
AcDbEntity
  8
0
100
AcDbBlockEnd
  0
BLOCK
  5
4B2
330
4AC
100
AcDbEntity
  8
0
100
AcDbBlockBegin
  2
*D1821
 70
     1
 71
     0
 10
0.0
 20
0.0
 30
0.0
  3
*D1821
  1

  0
LINE
  5
4AD
330
4AC
100
AcDbEntity
  8
1
  6
Continuous
 62
     2
100
AcDbLine
 10
545.2893587450114
 20
249.0013899442565
 30
0.0
 11
598.5693587450115
 21
249.0013899442565
 31
0.0
  0
LINE
  5
4AE
330
4AC
100
AcDbEntity
  8
1
  6
Continuous
 62
     2
100
AcDbLine
 10
531.1444936802064
 20
274.4968500203111
 30
0.0
 11
545.2893587450114
 21
249.0013899442565
 31
0.0
  0
LINE
  5
4AF
330
4AC
100
AcDbEntity
  8
1
 62
     2
100
AcDbLine
 10
531.1444936802064
 20
274.4968500203111
 30
0.0
 11
538.0511414531901
 21
267.3501719921816
 31
0.0
  0
LINE
  5
4B0
330
4AC
100
AcDbEntity
  8
1
 62
     2
100
AcDbLine
 10
531.1444936802064
 20
274.4968500203111
 30
0.0
 11
533.5524870925367
 21
264.8543214087911
 31
0.0
  0
MTEXT
  5
4B1
330
4AC
100
AcDbEntity
  8
1
 62
     2
100
AcDbMText
 10
556.6653587450577
 20
251.1013517797235
 30
0.0
 40
9.6
 41
0.0
 71
     7
 72
     1
  1
\C2;{\Fgdt;n}\C2;27.2
  7
CONVERTER_1
 11
0.9999999999970621
 21
2.424068405545307E-6
 31
0.0
 73
     1
 44
0.60024009603842
  0
ENDBLK
  5
4B3
330
4AC
100
AcDbEntity
  8
0
100
AcDbBlockEnd
  0
BLOCK
  5
4BB
330
4B5
100
AcDbEntity
  8
0
100
AcDbBlockBegin
  2
*D1922
 70
     1
 71
     0
 10
0.0
 20
0.0
 30
0.0
  3
*D1922
  1

  0
LINE
  5
4B6
330
4B5
100
AcDbEntity
  8
1
  6
Continuous
 62
     2
100
AcDbLine
 10
346.654834970966
 20
298.1268006928596
 30
0.0
 11
327.5924320868219
 21
331.273587211276
 31
0.0
  0
LINE
  5
4B7
330
4B5
100
AcDbEntity
  8
1
  6
Continuous
 62
     2
100
AcDbLine
 10
327.5924320868219
 20
331.273587211276
 30
0.0
 11
289.0724320868219
 21
331.273587211276
 31
0.0
  0
LINE
  5
4B8
330
4B5
100
AcDbEntity
  8
1
 62
     2
100
AcDbLine
 10
346.654834970966
 20
298.1268006928596
 30
0.0
 11
339.6390795586004
 21
305.1664005601583
 31
0.0
  0
LINE
  5
4B9
330
4B5
100
AcDbEntity
  8
1
 62
     2
100
AcDbLine
 10
346.654834970966
 20
298.1268006928596
 30
0.0
 11
344.0988124907686
 21
307.7311507166007
 31
0.0
  0
MTEXT
  5
4BA
330
4B5
100
AcDbEntity
  8
1
 62
     2
100
AcDbMText
 10
284.8484320868682
 20
334.273549046743
 30
0.0
 40
9.6
 41
0.0
 71
     7
 72
     1
  1
\C2;{\Fgdt;n}\C2;34
  7
CONVERTER_1
 11
0.9999999999970621
 21
2.424068405545307E-6
 31
0.0
 73
     1
 44
0.60024009603842
  0
ENDBLK
  5
4BC
330
4B5
100
AcDbEntity
  8
0
100
AcDbBlockEnd
  0
BLOCK
  5
4C4
330
4BE
100
AcDbEntity
  8
0
100
AcDbBlockBegin
  2
*D2023
 70
     1
 71
     0
 10
0.0
 20
0.0
 30
0.0
  3
*D2023
  1

  0
LINE
  5
4BF
330
4BE
100
AcDbEntity
  8
1
  6
Continuous
 62
     2
100
AcDbLine
 10
469.0620861357283
 20
433.8795065454656
 30
0.0
 11
495.624222656737
 21
406.5167856803179
 31
0.0
  0
LINE
  5
4C0
330
4BE
100
AcDbEntity
  8
1
  6
Continuous
 62
     2
100
AcDbLine
 10
495.624222656737
 20
406.5167856803179
 30
0.0
 11
553.584222656737
 21
406.5167856803179
 31
0.0
  0
LINE
  5
4C1
330
4BE
100
AcDbEntity
  8
1
 62
     2
100
AcDbLine
 10
469.0620861357283
 20
433.8795065454656
 30
0.0
 11
477.5944943206232
 21
428.7829586094458
 31
0.0
  0
LINE
  5
4C2
330
4BE
100
AcDbEntity
  8
1
 62
     2
100
AcDbLine
 10
469.0620861357283
 20
433.8795065454656
 30
0.0
 11
473.9030944112957
 21
425.1995624688199
 31
0.0
  0
MTEXT
  5
4C3
330
4BE
100
AcDbEntity
  8
1
 62
     2
100
AcDbMText
 10
512.4482226568064
 20
408.6167284335184
 30
0.0
 40
9.6
 41
0.0
 71
     7
 72
     1
  1
\C2;4-{\Fgdt;n}\C2;5.5
  7
CONVERTER_1
 11
0.9999999999970621
 21
2.424068405545307E-6
 31
0.0
 73
     1
 44
0.60024009603842
  0
ENDBLK
  5
4C5
330
4BE
100
AcDbEntity
  8
0
100
AcDbBlockEnd
  0
BLOCK
  5
4CD
330
4C7
100
AcDbEntity
  8
0
100
AcDbBlockBegin
  2
*D2124
 70
     1
 71
     0
 10
0.0
 20
0.0
 30
0.0
  3
*D2124
  1

  0
LINE
  5
4C8
330
4C7
100
AcDbEntity
  8
1
  6
Continuous
 62
     2
100
AcDbLine
 10
344.4688859094952
 20
279.7979610139955
 30
0.0
 11
326.447699156108
 21
273.727607378278
 31
0.0
  0
LINE
  5
4C9
330
4C7
100
AcDbEntity
  8
1
  6
Continuous
 62
     2
100
AcDbLine
 10
326.447699156108
 20
273.727607378278
 30
0.0
 11
242.087699156108
 21
273.727607378278
 31
0.0
  0
LINE
  5
4CA
330
4C7
100
AcDbEntity
  8
1
 62
     2
100
AcDbLine
 10
344.4688859094952
 20
279.7979610139955
 30
0.0
 11
336.1922949562382
 21
274.2957039779897
 31
0.0
  0
LINE
  5
4CB
330
4C7
100
AcDbEntity
  8
1
 62
     2
100
AcDbLine
 10
344.4688859094952
 20
279.7979610139955
 30
0.0
 11
334.5500193692394
 21
279.1711621192912
 31
0.0
  0
MTEXT
  5
4CC
330
4C7
100
AcDbEntity
  8
1
 62
     2
100
AcDbMText
 10
240.4556991562468
 20
275.8274928846791
 30
0.0
 40
9.6
 41
0.0
 71
     7
 72
     1
  1
\C2;P.C.D{\Fgdt;n}\C2;22.5
  7
CONVERTER_1
 11
0.9999999999970621
 21
2.424068405545307E-6
 31
0.0
 73
     1
 44
0.60024009603842
  0
ENDBLK
  5
4CE
330
4C7
100
AcDbEntity
  8
0
100
AcDbBlockEnd
  0
BLOCK
  5
4D6
330
4D0
100
AcDbEntity
  8
0
100
AcDbBlockBegin
  2
*D2225
 70
     1
 71
     0
 10
0.0
 20
0.0
 30
0.0
  3
*D2225
  1

  0
LINE
  5
4D1
330
4D0
100
AcDbEntity
  8
1
  6
Continuous
 62
     2
100
AcDbLine
 10
347.285409938564
 20
217.2504999909447
 30
0.0
 11
322.1370178666859
 21
208.193542907158
 31
0.0
  0
LINE
  5
4D2
330
4D0
100
AcDbEntity
  8
1
  6
Continuous
 62
     2
100
AcDbLine
 10
322.1370178666859
 20
208.193542907158
 30
0.0
 11
243.7770178666859
 21
208.193542907158
 31
0.0
  0
LINE
  5
4D3
330
4D0
100
AcDbEntity
  8
1
 62
     2
100
AcDbLine
 10
347.285409938564
 20
217.2504999909447
 30
0.0
 11
339.1248890502831
 21
211.5775211323785
 31
0.0
  0
LINE
  5
4D4
330
4D0
100
AcDbEntity
  8
1
 62
     2
100
AcDbLine
 10
347.285409938564
 20
217.2504999909447
 30
0.0
 11
337.3817021119161
 21
216.4178166284349
 31
0.0
  0
MTEXT
  5
4D5
330
4D0
100
AcDbEntity
  8
1
 62
     2
100
AcDbMText
 10
242.1450178668247
 20
210.293428413559
 30
0.0
 40
9.6
 41
0.0
 71
     7
 72
     1
  1
\C2;P.C.D{\Fgdt;n}\C2;105
  7
CONVERTER_1
 11
0.9999999999970621
 21
2.424068405545307E-6
 31
0.0
 73
     1
 44
0.60024009603842
  0
ENDBLK
  5
4D7
330
4D0
100
AcDbEntity
  8
0
100
AcDbBlockEnd
  0
ENDSEC
  0
SECTION
  2
ENTITIES
  0
INSERT
  5
37
330
1F
100
AcDbEntity
  8
0
100
AcDbBlockReference
  2
Zuwaku-A3-web
 10
590.9999999999994
 20
402.0
 30
0.0
 41
3.0
 42
3.0
 43
3.0
  0
LINE
  5
62
330
1F
100
AcDbEntity
  8
1
  6
DASH_CENTER
 62
     3
100
AcDbLine
 10
473.2968805794169
 20
250.3892047233956
 30
0.0
 11
482.9963651018018
 21
250.3892047233956
 31
0.0
  0
LINE
  5
63
330
1F
100
AcDbEntity
  8
1
  6
DASH_CENTER
 62
     3
100
AcDbLine
 10
478.1466228406109
 20
255.2389469845886
 30
0.0
 11
478.1466228406109
 21
245.539462462203
 31
0.0
  0
LINE
  5
64
330
1F
100
AcDbEntity
  8
1
  6
DASH_CENTER
 62
     3
100
AcDbLine
 10
473.2968805794169
 20
205.3892047233956
 30
0.0
 11
482.9963651018018
 21
205.3892047233956
 31
0.0
  0
LINE
  5
65
330
1F
100
AcDbEntity
  8
1
  6
DASH_CENTER
 62
     3
100
AcDbLine
 10
478.1466228406109
 20
210.2389469845886
 30
0.0
 11
478.1466228406109
 21
200.5394624622028
 31
0.0
  0
LINE
  5
66
330
1F
100
AcDbEntity
  8
1
  6
DASH_CENTER
 62
     3
100
AcDbLine
 10
343.2968805794174
 20
205.3892047233956
 30
0.0
 11
352.9963651018018
 21
205.3892047233956
 31
0.0
  0
LINE
  5
67
330
1F
100
AcDbEntity
  8
1
  6
DASH_CENTER
 62
     3
100
AcDbLine
 10
348.1466228406098
 20
210.2389469845886
 30
0.0
 11
348.1466228406098
 21
200.5394624622028
 31
0.0
  0
LINE
  5
68
330
1F
100
AcDbEntity
  8
1
  6
DASH_CENTER
 62
     3
100
AcDbLine
 10
352.996365101802
 20
250.3892047233956
 30
0.0
 11
343.2968805794174
 21
250.3892047233956
 31
0.0
  0
LINE
  5
69
330
1F
100
AcDbEntity
  8
1
  6
DASH_CENTER
 62
     3
100
AcDbLine
 10
348.1466228406098
 20
245.539462462203
 30
0.0
 11
348.1466228406098
 21
255.2389469845886
 31
0.0
  0
LINE
  5
6A
330
1F
100
AcDbEntity
  8
1
  6
DASH_CENTER
 62
     3
100
AcDbLine
 10
500.5576531226404
 20
268.2097927443778
 30
0.0
 11
500.5576531226404
 21
155.452375872238
 31
0.0
  0
LINE
  5
6B
330
1F
100
AcDbEntity
  8
1
  6
DASH_CENTER
 62
     3
100
AcDbLine
 10
524.5547908686131
 20
268.2097927443777
 30
0.0
 11
500.5576531226404
 21
268.2097927443778
 31
0.0
  0
LINE
  5
6C
330
1F
100
AcDbEntity
  8
1
  6
Continuous
 62
     3
100
AcDbLine
 10
751.0403658942259
 20
147.809012527711
 30
0.0
 11
815.7622979477151
 21
147.809012527711
 31
0.0
  0
LINE
  5
6D
330
1F
100
AcDbEntity
  8
1
  6
PHANTOM
 62
     4
100
AcDbLine
 10
538.1497202100011
 20
294.4892047233959
 30
0.0
 11
538.1497202100011
 21
293.4892047233959
 31
0.0
  0
LINE
  5
6E
330
1F
100
AcDbEntity
  8
1
  6
PHANTOM
 62
     4
100
AcDbLine
 10
338.146622840609
 20
287.7892047233959
 30
0.0
 11
338.146622840609
 21
286.7892047233959
 31
0.0
  0
LINE
  5
6F
330
1F
100
AcDbEntity
  8
1
  6
Continuous
 62
     4
100
AcDbLine
 10
429.8340138130772
 20
573.2017990503713
 30
0.0
 11
400.9976705942151
 21
581.8527020160296
 31
0.0
  0
LINE
  5
70
330
1F
100
AcDbEntity
  8
1
  6
Continuous
 62
     4
100
AcDbLine
 10
429.8340138130772
 20
578.3923408297663
 30
0.0
 11
429.8340138130772
 21
573.2017990503713
 31
0.0
  0
LINE
  5
71
330
1F
100
AcDbEntity
  8
1
  6
Continuous
 62
     4
100
AcDbLine
 10
449.0582426256498
 20
578.3923408297663
 30
0.0
 11
429.8340138130772
 21
578.3923408297663
 31
0.0
  0
LINE
  5
72
330
1F
100
AcDbEntity
  8
1
  6
Continuous
 62
     4
100
AcDbLine
 10
449.0582426256498
 20
585.3130632022929
 30
0.0
 11
449.0582426256498
 21
578.3923408297663
 31
0.0
  0
LINE
  5
73
330
1F
100
AcDbEntity
  8
1
  6
Continuous
 62
     4
100
AcDbLine
 10
429.8340138130772
 20
585.3130632022929
 30
0.0
 11
449.0582426256498
 21
585.3130632022929
 31
0.0
  0
LINE
  5
74
330
1F
100
AcDbEntity
  8
1
  6
Continuous
 62
     4
100
AcDbLine
 10
429.8340138130772
 20
590.503604981688
 30
0.0
 11
429.8340138130772
 21
585.3130632022929
 31
0.0
  0
LINE
  5
75
330
1F
100
AcDbEntity
  8
1
  6
Continuous
 62
     4
100
AcDbLine
 10
400.9976705942151
 20
581.8527020160296
 30
0.0
 11
429.8340138130772
 21
590.503604981688
 31
0.0
  0
LINE
  5
76
330
1F
100
AcDbEntity
  8
1
  6
Continuous
 62
     7
100
AcDbLine
 10
339.6466228406093
 20
453.8527020160297
 30
0.0
 11
535.1466228406091
 21
453.8527020160297
 31
0.0
  0
LINE
  5
77
330
1F
100
AcDbEntity
  8
1
  6
Continuous
 62
     7
100
AcDbLine
 10
654.6542976610692
 20
271.389204723396
 30
0.0
 11
652.7316479302592
 21
271.3892047233962
 31
0.0
  0
LINE
  5
78
330
1F
100
AcDbEntity
  8
1
  6
Continuous
 62
     7
100
AcDbLine
 10
510.946622840609
 20
284.3892047233958
 30
0.0
 11
510.9466228406092
 21
271.8892047233969
 31
0.0
  0
LINE
  5
79
330
1F
100
AcDbEntity
  8
1
  6
Continuous
 62
     7
100
AcDbLine
 10
520.5629588966176
 20
289.489204723396
 30
0.0
 11
521.9586699816873
 21
289.489204723396
 31
0.0
  0
LINE
  5
7A
330
1F
100
AcDbEntity
  8
1
  6
Continuous
 62
     7
100
AcDbLine
 10
527.0744677725609
 20
289.489204723396
 30
0.0
 11
530.1781317165519
 21
289.4892047233961
 31
0.0
  0
LINE
  5
7B
330
1F
100
AcDbEntity
  8
1
  6
Continuous
 62
     7
100
AcDbLine
 10
399.146622840609
 20
442.9866766122452
 30
0.0
 11
399.146622840609
 21
447.8527020160297
 31
0.0
  0
LINE
  5
7C
330
1F
100
AcDbEntity
  8
1
  6
Continuous
 62
     7
100
AcDbLine
 10
414.146622840609
 20
453.8527020160297
 30
0.0
 11
414.146622840609
 21
450.8527020160308
 31
0.0
  0
LINE
  5
7D
330
1F
100
AcDbEntity
  8
1
  6
Continuous
 62
     7
100
AcDbLine
 10
399.146622840609
 20
690.8527020160296
 30
0.0
 11
399.146622840609
 21
694.3527020160285
 31
0.0
  0
LINE
  5
7E
330
1F
100
AcDbEntity
  8
1
  6
Continuous
 62
     7
100
AcDbLine
 10
414.146622840609
 20
701.7227020160295
 30
0.0
 11
414.146622840609
 21
697.3527020160285
 31
0.0
  0
LINE
  5
7F
330
1F
100
AcDbEntity
  8
1
  6
DASH_CENTER
 62
     3
100
AcDbLine
 10
485.5342797615037
 20
286.889204723396
 30
0.0
 11
521.1545769412853
 21
286.889204723396
 31
0.0
  0
LINE
  5
80
330
1F
100
AcDbEntity
  8
1
  6
Continuous
 62
     7
100
AcDbLine
 10
497.1466228406084
 20
293.389204723396
 30
0.0
 11
497.1466228406084
 21
280.389204723396
 31
0.0
  0
LINE
  5
81
330
1F
100
AcDbEntity
  8
1
  6
Continuous
 62
     7
100
AcDbLine
 10
497.1466228406084
 20
280.389204723396
 30
0.0
 11
491.1466228406084
 21
280.389204723396
 31
0.0
  0
LINE
  5
82
330
1F
100
AcDbEntity
  8
1
  6
Continuous
 62
     7
100
AcDbLine
 10
491.1466228406084
 20
280.389204723396
 30
0.0
 11
491.1466228406084
 21
293.389204723396
 31
0.0
  0
LINE
  5
83
330
1F
100
AcDbEntity
  8
1
  6
Continuous
 62
     7
100
AcDbLine
 10
491.1466228406084
 20
293.389204723396
 30
0.0
 11
497.1466228406084
 21
293.389204723396
 31
0.0
  0
LINE
  5
84
330
1F
100
AcDbEntity
  8
1
  6
Continuous
 62
     7
100
AcDbLine
 10
426.1466228406093
 20
269.8892047233971
 30
0.0
 11
426.1466228406093
 21
271.3892047233971
 31
0.0
  0
LINE
  5
85
330
1F
100
AcDbEntity
  8
1
  6
Continuous
 62
     3
100
AcDbLine
 10
399.1466228406093
 20
277.6341598945193
 30
0.0
 11
414.1466228406093
 21
277.6341598945193
 31
0.0
  0
LINE
  5
86
330
1F
100
AcDbEntity
  8
1
  6
Continuous
 62
     7
100
AcDbLine
 10
399.1466228406093
 20
278.3841598945193
 30
0.0
 11
414.1466228406093
 21
278.3841598945193
 31
0.0
  0
LINE
  5
87
330
1F
100
AcDbEntity
  8
1
  6
Continuous
 62
     7
100
AcDbLine
 10
399.1466228406093
 20
269.8892047233957
 30
0.0
 11
399.1466228406093
 21
278.3841598945193
 31
0.0
  0
LINE
  5
88
330
1F
100
AcDbEntity
  8
1
  6
Continuous
 62
     7
100
AcDbLine
 10
414.1466228406093
 20
278.3841598945193
 30
0.0
 11
414.1466228406093
 21
269.8892047233957
 31
0.0
  0
LINE
  5
89
330
1F
100
AcDbEntity
  8
1
  6
Continuous
 62
     7
100
AcDbLine
 10
510.946622840609
 20
284.4895799173059
 30
0.0
 11
510.946622840609
 21
284.3892047233958
 31
0.0
  0
LINE
  5
8A
330
1F
100
AcDbEntity
  8
1
  6
Continuous
 62
     7
100
AcDbLine
 10
491.1466228406084
 20
284.389204723396
 30
0.0
 11
487.9666228406085
 21
284.389204723396
 31
0.0
  0
LINE
  5
8B
330
1F
100
AcDbEntity
  8
1
  6
Continuous
 62
     3
100
AcDbLine
 10
491.1466228406084
 20
284.822204723396
 30
0.0
 11
487.5336228406085
 21
284.822204723396
 31
0.0
  0
LINE
  5
8C
330
1F
100
AcDbEntity
  8
1
  6
Continuous
 62
     3
100
AcDbLine
 10
487.9666228406085
 20
284.389204723396
 30
0.0
 11
487.9666228406085
 21
289.389204723396
 31
0.0
  0
LINE
  5
8D
330
1F
100
AcDbEntity
  8
1
  6
Continuous
 62
     7
100
AcDbLine
 10
487.9666228406085
 20
284.389204723396
 30
0.0
 11
487.0666228406075
 21
285.2892047233959
 31
0.0
  0
LINE
  5
8E
330
1F
100
AcDbEntity
  8
1
  6
Continuous
 62
     7
100
AcDbLine
 10
487.0666228406075
 20
285.2892047233959
 30
0.0
 11
487.0666228406075
 21
288.4892047233959
 31
0.0
  0
LINE
  5
8F
330
1F
100
AcDbEntity
  8
1
  6
Continuous
 62
     7
100
AcDbLine
 10
487.0666228406075
 20
288.4892047233959
 30
0.0
 11
487.9666228406085
 21
289.389204723396
 31
0.0
  0
LINE
  5
90
330
1F
100
AcDbEntity
  8
1
  6
Continuous
 62
     3
100
AcDbLine
 10
487.5336228406085
 20
288.9562047233959
 30
0.0
 11
491.1466228406084
 21
288.9562047233959
 31
0.0
  0
LINE
  5
91
330
1F
100
AcDbEntity
  8
1
  6
Continuous
 62
     7
100
AcDbLine
 10
487.9666228406085
 20
289.389204723396
 30
0.0
 11
491.1466228406084
 21
289.389204723396
 31
0.0
  0
LINE
  5
92
330
1F
100
AcDbEntity
  8
1
  6
Continuous
 62
     7
100
AcDbLine
 10
500.7893572507005
 20
282.2704025698787
 30
0.0
 11
497.1466228406084
 21
282.2704025698787
 31
0.0
  0
LINE
  5
93
330
1F
100
AcDbEntity
  8
1
  6
Continuous
 62
     7
100
AcDbLine
 10
497.1466228406084
 20
284.5798036466374
 30
0.0
 11
500.7893572507005
 21
284.5798036466374
 31
0.0
  0
LINE
  5
94
330
1F
100
AcDbEntity
  8
1
  6
Continuous
 62
     7
100
AcDbLine
 10
497.1466228406084
 20
289.1986058001544
 30
0.0
 11
500.7893572507005
 21
289.1986058001544
 31
0.0
  0
LINE
  5
95
330
1F
100
AcDbEntity
  8
1
  6
Continuous
 62
     7
100
AcDbLine
 10
497.1466228406084
 20
291.5080068769129
 30
0.0
 11
500.7893572507005
 21
291.5080068769129
 31
0.0
  0
LINE
  5
96
330
1F
100
AcDbEntity
  8
1
  6
Continuous
 62
     7
100
AcDbLine
 10
501.1466228406084
 20
290.3533063385338
 30
0.0
 11
501.1466228406084
 21
283.4251031082581
 31
0.0
  0
LINE
  5
97
330
1F
100
AcDbEntity
  8
1
  6
Continuous
 62
     7
100
AcDbLine
 10
501.1466228406086
 20
284.389204723396
 30
0.0
 11
516.3129808969402
 21
284.3892047233958
 31
0.0
  0
LINE
  5
98
330
1F
100
AcDbEntity
  8
1
  6
Continuous
 62
     3
100
AcDbLine
 10
516.3129808969402
 20
284.8222047233958
 30
0.0
 11
501.1466228406086
 21
284.8222047233961
 31
0.0
  0
LINE
  5
99
330
1F
100
AcDbEntity
  8
1
  6
Continuous
 62
     3
100
AcDbLine
 10
517.0629588966176
 20
284.389204723396
 30
0.0
 11
516.3129808969402
 21
284.8222047233958
 31
0.0
  0
LINE
  5
9A
330
1F
100
AcDbEntity
  8
1
  6
Continuous
 62
     7
100
AcDbLine
 10
517.0629588966176
 20
284.389204723396
 30
0.0
 11
516.3129808969402
 21
284.3892047233958
 31
0.0
  0
LINE
  5
9B
330
1F
100
AcDbEntity
  8
1
  6
Continuous
 62
     7
100
AcDbLine
 10
516.3129808969402
 20
284.3892047233958
 30
0.0
 11
516.3129808969402
 21
289.3892047233958
 31
0.0
  0
LINE
  5
9C
330
1F
100
AcDbEntity
  8
1
  6
Continuous
 62
     3
100
AcDbLine
 10
516.3129808969402
 20
288.9562047233959
 30
0.0
 11
517.0629588966176
 21
289.389204723396
 31
0.0
  0
LINE
  5
9D
330
1F
100
AcDbEntity
  8
1
  6
Continuous
 62
     7
100
AcDbLine
 10
516.3129808969402
 20
289.3892047233958
 30
0.0
 11
517.0629588966176
 21
289.389204723396
 31
0.0
  0
LINE
  5
9E
330
1F
100
AcDbEntity
  8
1
  6
Continuous
 62
     3
100
AcDbLine
 10
501.1466228406084
 20
288.9562047233959
 30
0.0
 11
516.3129808969402
 21
288.9562047233959
 31
0.0
  0
LINE
  5
9F
330
1F
100
AcDbEntity
  8
1
  6
Continuous
 62
     7
100
AcDbLine
 10
501.1466228406086
 20
289.389204723396
 30
0.0
 11
516.3129808969402
 21
289.3892047233958
 31
0.0
  0
LINE
  5
A0
330
1F
100
AcDbEntity
  8
1
  6
Continuous
 62
     7
100
AcDbLine
 10
517.0629588966176
 20
282.2704025698787
 30
0.0
 11
517.0629588966176
 21
291.5080068769129
 31
0.0
  0
LINE
  5
A1
330
1F
100
AcDbEntity
  8
1
  6
Continuous
 62
     7
100
AcDbLine
 10
520.2056933067092
 20
284.5798036466374
 30
0.0
 11
517.0629588966176
 21
284.5798036466374
 31
0.0
  0
LINE
  5
A2
330
1F
100
AcDbEntity
  8
1
  6
Continuous
 62
     7
100
AcDbLine
 10
520.2056933067092
 20
282.2704025698787
 30
0.0
 11
517.0629588966176
 21
282.2704025698787
 31
0.0
  0
LINE
  5
A3
330
1F
100
AcDbEntity
  8
1
  6
Continuous
 62
     7
100
AcDbLine
 10
520.5629588966176
 20
290.3533063385338
 30
0.0
 11
520.5629588966176
 21
283.4251031082581
 31
0.0
  0
LINE
  5
A4
330
1F
100
AcDbEntity
  8
1
  6
Continuous
 62
     7
100
AcDbLine
 10
520.2056933067092
 20
289.1986058001544
 30
0.0
 11
517.0629588966176
 21
289.1986058001544
 31
0.0
  0
LINE
  5
A5
330
1F
100
AcDbEntity
  8
1
  6
Continuous
 62
     7
100
AcDbLine
 10
517.0629588966176
 20
291.5080068769129
 30
0.0
 11
520.2056933067092
 21
291.5080068769129
 31
0.0
  0
LINE
  5
A6
330
1F
100
AcDbEntity
  8
1
  6
Continuous
 62
     7
100
AcDbLine
 10
893.154297661069
 20
283.389204723396
 30
0.0
 11
893.154297661069
 21
271.1166113337085
 31
0.0
  0
LINE
  5
A7
330
1F
100
AcDbEntity
  8
1
  6
Continuous
 62
     7
100
AcDbLine
 10
535.1466228406091
 20
481.8527020160299
 30
0.0
 11
535.1466228406091
 21
455.3527020160295
 31
0.0
  0
LINE
  5
A8
330
1F
100
AcDbEntity
  8
1
  6
Continuous
 62
     7
100
AcDbLine
 10
339.6466228406093
 20
455.3527020160297
 30
0.0
 11
339.6466228406093
 21
481.8527020160299
 31
0.0
  0
LINE
  5
A9
330
1F
100
AcDbEntity
  8
1
  6
Continuous
 62
     7
100
AcDbLine
 10
339.6466228406093
 20
681.8527020160294
 30
0.0
 11
339.6466228406093
 21
690.8527020160296
 31
0.0
  0
LINE
  5
AA
330
1F
100
AcDbEntity
  8
1
  6
DASH_CENTER
 62
     3
100
AcDbLine
 10
329.5914238268865
 20
581.8527020160296
 30
0.0
 11
549.9294793283418
 21
581.8527020160296
 31
0.0
  0
LINE
  5
AB
330
1F
100
AcDbEntity
  8
1
  6
Continuous
 62
     7
100
AcDbLine
 10
535.1466228406091
 20
455.3527020160295
 30
0.0
 11
535.1466228406091
 21
453.8527020160297
 31
0.0
  0
LINE
  5
AC
330
1F
100
AcDbEntity
  8
1
  6
Continuous
 62
     7
100
AcDbLine
 10
535.1466228406091
 20
690.8527020160296
 30
0.0
 11
535.1466228406091
 21
681.8527020160294
 31
0.0
  0
LINE
  5
AD
330
1F
100
AcDbEntity
  8
1
  6
Continuous
 62
     7
100
AcDbLine
 10
339.6466228406093
 20
690.8527020160296
 30
0.0
 11
535.1466228406091
 21
690.8527020160296
 31
0.0
  0
LINE
  5
AE
330
1F
100
AcDbEntity
  8
1
  6
Continuous
 62
     7
100
AcDbLine
 10
339.6466228406093
 20
453.8527020160297
 30
0.0
 11
339.6466228406093
 21
455.3527020160297
 31
0.0
  0
LINE
  5
AF
330
1F
100
AcDbEntity
  8
1
  6
Continuous
 62
     7
100
AcDbLine
 10
497.1466228406084
 20
440.8527020160297
 30
0.0
 11
497.1466228406084
 21
453.8527020160297
 31
0.0
  0
LINE
  5
B0
330
1F
100
AcDbEntity
  8
1
  6
Continuous
 62
     7
100
AcDbLine
 10
491.1466228406084
 20
440.8527020160297
 30
0.0
 11
497.1466228406084
 21
440.8527020160297
 31
0.0
  0
LINE
  5
B1
330
1F
100
AcDbEntity
  8
1
  6
Continuous
 62
     7
100
AcDbLine
 10
491.1466228406084
 20
440.8527020160297
 30
0.0
 11
491.1466228406084
 21
453.8527020160297
 31
0.0
  0
LINE
  5
B2
330
1F
100
AcDbEntity
  8
1
  6
Continuous
 62
     7
100
AcDbLine
 10
497.1466228406084
 20
450.4715041695469
 30
0.0
 11
500.7893572507005
 21
450.4715041695469
 31
0.0
  0
LINE
  5
B3
330
1F
100
AcDbEntity
  8
1
  6
Continuous
 62
     7
100
AcDbLine
 10
500.7893572507005
 20
441.2338998625127
 30
0.0
 11
497.1466228406084
 21
441.2338998625127
 31
0.0
  0
LINE
  5
B4
330
1F
100
AcDbEntity
  8
1
  6
Continuous
 62
     7
100
AcDbLine
 10
500.7893572507005
 20
448.1621030927883
 30
0.0
 11
497.1466228406084
 21
448.1621030927883
 31
0.0
  0
LINE
  5
B5
330
1F
100
AcDbEntity
  8
1
  6
Continuous
 62
     7
100
AcDbLine
 10
500.7893572507005
 20
443.5433009392711
 30
0.0
 11
497.1466228406084
 21
443.5433009392711
 31
0.0
  0
LINE
  5
B6
330
1F
100
AcDbEntity
  8
1
  6
Continuous
 62
     7
100
AcDbLine
 10
501.1466228406084
 20
449.3168036311676
 30
0.0
 11
501.1466228406084
 21
442.388600400892
 31
0.0
  0
LINE
  5
B7
330
1F
100
AcDbEntity
  8
1
  6
Continuous
 62
     7
100
AcDbLine
 10
487.0666228406075
 20
447.4527020160296
 30
0.0
 11
487.9666228406085
 21
448.3527020160297
 31
0.0
  0
LINE
  5
B8
330
1F
100
AcDbEntity
  8
1
  6
Continuous
 62
     7
100
AcDbLine
 10
487.0666228406075
 20
444.2527020160298
 30
0.0
 11
487.0666228406075
 21
447.4527020160296
 31
0.0
  0
LINE
  5
B9
330
1F
100
AcDbEntity
  8
1
  6
Continuous
 62
     7
100
AcDbLine
 10
487.9666228406085
 20
443.3527020160297
 30
0.0
 11
487.0666228406075
 21
444.2527020160298
 31
0.0
  0
LINE
  5
BA
330
1F
100
AcDbEntity
  8
1
  6
Continuous
 62
     7
100
AcDbLine
 10
491.1466228406084
 20
443.3527020160297
 30
0.0
 11
487.9666228406085
 21
443.3527020160297
 31
0.0
  0
LINE
  5
BB
330
1F
100
AcDbEntity
  8
1
  6
Continuous
 62
     3
100
AcDbLine
 10
487.9666228406085
 20
443.3527020160297
 30
0.0
 11
487.9666228406085
 21
448.3527020160297
 31
0.0
  0
LINE
  5
BC
330
1F
100
AcDbEntity
  8
1
  6
Continuous
 62
     3
100
AcDbLine
 10
491.1466228406084
 20
443.7857020160297
 30
0.0
 11
487.5336228406085
 21
443.7857020160297
 31
0.0
  0
LINE
  5
BD
330
1F
100
AcDbEntity
  8
1
  6
Continuous
 62
     7
100
AcDbLine
 10
487.9666228406085
 20
448.3527020160297
 30
0.0
 11
491.1466228406084
 21
448.3527020160297
 31
0.0
  0
LINE
  5
BE
330
1F
100
AcDbEntity
  8
1
  6
Continuous
 62
     3
100
AcDbLine
 10
487.5336228406085
 20
447.9197020160297
 30
0.0
 11
491.1466228406084
 21
447.9197020160297
 31
0.0
  0
LINE
  5
BF
330
1F
100
AcDbEntity
  8
1
  6
DASH_CENTER
 62
     3
100
AcDbLine
 10
520.5466228406085
 20
445.8527020160297
 30
0.0
 11
487.0666228406075
 21
445.8527020160297
 31
0.0
  0
LINE
  5
C0
330
1F
100
AcDbEntity
  8
1
  6
Continuous
 62
     7
100
AcDbLine
 10
501.1466228406084
 20
448.3527020160297
 30
0.0
 11
517.0466228406085
 21
448.3527020160297
 31
0.0
  0
LINE
  5
C1
330
1F
100
AcDbEntity
  8
1
  6
Continuous
 62
     7
100
AcDbLine
 10
517.0466228406085
 20
450.4715041695469
 30
0.0
 11
520.1893572507001
 21
450.4715041695469
 31
0.0
  0
LINE
  5
C2
330
1F
100
AcDbEntity
  8
1
  6
Continuous
 62
     7
100
AcDbLine
 10
517.0466228406085
 20
441.2338998625127
 30
0.0
 11
517.0466228406085
 21
450.4715041695469
 31
0.0
  0
LINE
  5
C3
330
1F
100
AcDbEntity
  8
1
  6
Continuous
 62
     7
100
AcDbLine
 10
520.1893572507001
 20
441.2338998625127
 30
0.0
 11
517.0466228406085
 21
441.2338998625127
 31
0.0
  0
LINE
  5
C4
330
1F
100
AcDbEntity
  8
1
  6
Continuous
 62
     7
100
AcDbLine
 10
520.1893572507001
 20
448.1621030927883
 30
0.0
 11
517.0466228406085
 21
448.1621030927883
 31
0.0
  0
LINE
  5
C5
330
1F
100
AcDbEntity
  8
1
  6
Continuous
 62
     7
100
AcDbLine
 10
520.1893572507001
 20
443.5433009392711
 30
0.0
 11
517.0466228406085
 21
443.5433009392711
 31
0.0
  0
LINE
  5
C6
330
1F
100
AcDbEntity
  8
1
  6
Continuous
 62
     7
100
AcDbLine
 10
516.2966448409311
 20
443.3527020160297
 30
0.0
 11
516.2966448409311
 21
448.3527020160297
 31
0.0
  0
LINE
  5
C7
330
1F
100
AcDbEntity
  8
1
  6
Continuous
 62
     3
100
AcDbLine
 10
516.2966448409311
 20
447.9197020160297
 30
0.0
 11
517.0466228406085
 21
448.3527020160297
 31
0.0
  0
LINE
  5
C8
330
1F
100
AcDbEntity
  8
1
  6
Continuous
 62
     3
100
AcDbLine
 10
501.1466228406084
 20
447.9197020160297
 30
0.0
 11
516.2966448409311
 21
447.9197020160297
 31
0.0
  0
LINE
  5
C9
330
1F
100
AcDbEntity
  8
1
  6
Continuous
 62
     3
100
AcDbLine
 10
517.0466228406085
 20
443.3527020160297
 30
0.0
 11
516.2966448409311
 21
443.7857020160297
 31
0.0
  0
LINE
  5
CA
330
1F
100
AcDbEntity
  8
1
  6
Continuous
 62
     7
100
AcDbLine
 10
517.0466228406085
 20
443.3527020160297
 30
0.0
 11
501.1466228406084
 21
443.3527020160297
 31
0.0
  0
LINE
  5
CB
330
1F
100
AcDbEntity
  8
1
  6
Continuous
 62
     3
100
AcDbLine
 10
516.2966448409311
 20
443.7857020160297
 30
0.0
 11
501.1466228406084
 21
443.7857020160297
 31
0.0
  0
LINE
  5
CC
330
1F
100
AcDbEntity
  8
1
  6
Continuous
 62
     7
100
AcDbLine
 10
520.5466228406085
 20
449.3168036311676
 30
0.0
 11
520.5466228406085
 21
442.388600400892
 31
0.0
  0
LINE
  5
CD
330
1F
100
AcDbEntity
  8
1
  6
Continuous
 62
     7
100
AcDbLine
 10
457.6466228406075
 20
453.8527020160297
 30
0.0
 11
457.6466228406075
 21
443.8527020160297
 31
0.0
  0
LINE
  5
CE
330
1F
100
AcDbEntity
  8
1
  6
Continuous
 62
     7
100
AcDbLine
 10
369.1466228406093
 20
453.8527020160297
 30
0.0
 11
369.1466228406093
 21
443.8527020160297
 31
0.0
  0
LINE
  5
CF
330
1F
100
AcDbEntity
  8
1
  6
Continuous
 62
     7
100
AcDbLine
 10
431.1466228406093
 20
438.8527020160297
 30
0.0
 11
452.6466228406075
 21
438.8527020160297
 31
0.0
  0
LINE
  5
D0
330
1F
100
AcDbEntity
  8
1
  6
Continuous
 62
     7
100
AcDbLine
 10
426.1466228406093
 20
453.8527020160297
 30
0.0
 11
426.1466228406093
 21
443.8527020160297
 31
0.0
  0
LINE
  5
D1
330
1F
100
AcDbEntity
  8
1
  6
Continuous
 62
     7
100
AcDbLine
 10
386.6466228406093
 20
453.8527020160297
 30
0.0
 11
386.6466228406093
 21
443.8527020160297
 31
0.0
  0
LINE
  5
D2
330
1F
100
AcDbEntity
  8
1
  6
Continuous
 62
     7
100
AcDbLine
 10
374.1466228406093
 20
438.8527020160297
 30
0.0
 11
381.6466228406093
 21
438.8527020160297
 31
0.0
  0
LINE
  5
D3
330
1F
100
AcDbEntity
  8
1
  6
Continuous
 62
     7
100
AcDbLine
 10
381.8966228406093
 20
705.8482075285979
 30
0.0
 11
374.3966228406093
 21
705.8482075285979
 31
0.0
  0
LINE
  5
D4
330
1F
100
AcDbEntity
  8
1
  6
Continuous
 62
     7
100
AcDbLine
 10
386.8966228406093
 20
700.8482075285979
 30
0.0
 11
386.8966228406093
 21
690.8527020160296
 31
0.0
  0
LINE
  5
D5
330
1F
100
AcDbEntity
  8
1
  6
Continuous
 62
     7
100
AcDbLine
 10
426.3966228406093
 20
700.8482075285991
 30
0.0
 11
426.3966228406093
 21
690.8527020160296
 31
0.0
  0
LINE
  5
D6
330
1F
100
AcDbEntity
  8
1
  6
Continuous
 62
     7
100
AcDbLine
 10
369.3966228406093
 20
700.8482075285979
 30
0.0
 11
369.3966228406093
 21
690.8527020160296
 31
0.0
  0
LINE
  5
D7
330
1F
100
AcDbEntity
  8
1
  6
Continuous
 62
     7
100
AcDbLine
 10
457.6466228406103
 20
700.8482075285989
 30
0.0
 11
457.6466228406103
 21
690.7971965034602
 31
0.0
  0
LINE
  5
D8
330
1F
100
AcDbEntity
  8
1
  6
Continuous
 62
     7
100
AcDbLine
 10
520.5466228406085
 20
702.3168036311674
 30
0.0
 11
520.5466228406085
 21
695.3886004008912
 31
0.0
  0
LINE
  5
D9
330
1F
100
AcDbEntity
  8
1
  6
Continuous
 62
     3
100
AcDbLine
 10
501.1466228406084
 20
700.9197020160293
 30
0.0
 11
516.2966448409311
 21
700.9197020160293
 31
0.0
  0
LINE
  5
DA
330
1F
100
AcDbEntity
  8
1
  6
Continuous
 62
     7
100
AcDbLine
 10
501.1466228406084
 20
701.3527020160295
 30
0.0
 11
517.0466228406085
 21
701.3527020160295
 31
0.0
  0
LINE
  5
DB
330
1F
100
AcDbEntity
  8
1
  6
Continuous
 62
     3
100
AcDbLine
 10
516.2966448409311
 20
700.9197020160293
 30
0.0
 11
517.0466228406085
 21
701.3527020160295
 31
0.0
  0
LINE
  5
DC
330
1F
100
AcDbEntity
  8
1
  6
Continuous
 62
     3
100
AcDbLine
 10
516.2966448409311
 20
696.7857020160295
 30
0.0
 11
501.1466228406084
 21
696.7857020160295
 31
0.0
  0
LINE
  5
DD
330
1F
100
AcDbEntity
  8
1
  6
Continuous
 62
     3
100
AcDbLine
 10
517.0466228406085
 20
696.3527020160295
 30
0.0
 11
516.2966448409311
 21
696.7857020160295
 31
0.0
  0
LINE
  5
DE
330
1F
100
AcDbEntity
  8
1
  6
Continuous
 62
     7
100
AcDbLine
 10
516.2966448409311
 20
696.3527020160295
 30
0.0
 11
516.2966448409311
 21
701.3527020160295
 31
0.0
  0
LINE
  5
DF
330
1F
100
AcDbEntity
  8
1
  6
Continuous
 62
     7
100
AcDbLine
 10
517.0466228406085
 20
701.1621030927884
 30
0.0
 11
520.1893572507001
 21
701.1621030927884
 31
0.0
  0
LINE
  5
E0
330
1F
100
AcDbEntity
  8
1
  6
Continuous
 62
     7
100
AcDbLine
 10
517.0466228406085
 20
696.5433009392712
 30
0.0
 11
520.1893572507001
 21
696.5433009392712
 31
0.0
  0
LINE
  5
E1
330
1F
100
AcDbEntity
  8
1
  6
Continuous
 62
     7
100
AcDbLine
 10
517.0466228406085
 20
703.4715041695463
 30
0.0
 11
520.1893572507001
 21
703.4715041695463
 31
0.0
  0
LINE
  5
E2
330
1F
100
AcDbEntity
  8
1
  6
Continuous
 62
     7
100
AcDbLine
 10
517.0466228406085
 20
694.2338998625123
 30
0.0
 11
517.0466228406085
 21
703.4715041695463
 31
0.0
  0
LINE
  5
E3
330
1F
100
AcDbEntity
  8
1
  6
Continuous
 62
     7
100
AcDbLine
 10
520.1893572507001
 20
694.2338998625123
 30
0.0
 11
517.0466228406085
 21
694.2338998625123
 31
0.0
  0
LINE
  5
E4
330
1F
100
AcDbEntity
  8
1
  6
Continuous
 62
     7
100
AcDbLine
 10
517.0466228406085
 20
696.3527020160295
 30
0.0
 11
501.1466228406084
 21
696.3527020160295
 31
0.0
  0
LINE
  5
E5
330
1F
100
AcDbEntity
  8
1
  6
DASH_CENTER
 62
     3
100
AcDbLine
 10
487.0666228406075
 20
698.8527020160295
 30
0.0
 11
520.5466228406085
 21
698.8527020160295
 31
0.0
  0
LINE
  5
E6
330
1F
100
AcDbEntity
  8
1
  6
Continuous
 62
     3
100
AcDbLine
 10
491.1466228406084
 20
696.7857020160295
 30
0.0
 11
487.5336228406085
 21
696.7857020160295
 31
0.0
  0
LINE
  5
E7
330
1F
100
AcDbEntity
  8
1
  6
Continuous
 62
     7
100
AcDbLine
 10
491.1466228406084
 20
696.3527020160295
 30
0.0
 11
487.9666228406085
 21
696.3527020160295
 31
0.0
  0
LINE
  5
E8
330
1F
100
AcDbEntity
  8
1
  6
Continuous
 62
     3
100
AcDbLine
 10
487.5336228406085
 20
700.9197020160293
 30
0.0
 11
491.1466228406084
 21
700.9197020160293
 31
0.0
  0
LINE
  5
E9
330
1F
100
AcDbEntity
  8
1
  6
Continuous
 62
     3
100
AcDbLine
 10
487.9666228406085
 20
696.3527020160295
 30
0.0
 11
487.9666228406085
 21
701.3527020160295
 31
0.0
  0
LINE
  5
EA
330
1F
100
AcDbEntity
  8
1
  6
Continuous
 62
     7
100
AcDbLine
 10
487.9666228406085
 20
701.3527020160295
 30
0.0
 11
491.1466228406084
 21
701.3527020160295
 31
0.0
  0
LINE
  5
EB
330
1F
100
AcDbEntity
  8
1
  6
Continuous
 62
     7
100
AcDbLine
 10
487.0666228406075
 20
700.4527020160292
 30
0.0
 11
487.9666228406085
 21
701.3527020160295
 31
0.0
  0
LINE
  5
EC
330
1F
100
AcDbEntity
  8
1
  6
Continuous
 62
     7
100
AcDbLine
 10
487.0666228406075
 20
697.2527020160292
 30
0.0
 11
487.0666228406075
 21
700.4527020160292
 31
0.0
  0
LINE
  5
ED
330
1F
100
AcDbEntity
  8
1
  6
Continuous
 62
     7
100
AcDbLine
 10
487.9666228406085
 20
696.3527020160295
 30
0.0
 11
487.0666228406075
 21
697.2527020160292
 31
0.0
  0
LINE
  5
EE
330
1F
100
AcDbEntity
  8
1
  6
Continuous
 62
     7
100
AcDbLine
 10
501.1466228406084
 20
702.3168036311674
 30
0.0
 11
501.1466228406084
 21
695.3886004008912
 31
0.0
  0
LINE
  5
EF
330
1F
100
AcDbEntity
  8
1
  6
Continuous
 62
     7
100
AcDbLine
 10
497.1466228406084
 20
701.1621030927884
 30
0.0
 11
500.7893572507005
 21
701.1621030927884
 31
0.0
  0
LINE
  5
F0
330
1F
100
AcDbEntity
  8
1
  6
Continuous
 62
     7
100
AcDbLine
 10
497.1466228406084
 20
696.5433009392712
 30
0.0
 11
500.7893572507005
 21
696.5433009392712
 31
0.0
  0
LINE
  5
F1
330
1F
100
AcDbEntity
  8
1
  6
Continuous
 62
     7
100
AcDbLine
 10
497.1466228406084
 20
703.4715041695463
 30
0.0
 11
500.7893572507005
 21
703.4715041695463
 31
0.0
  0
LINE
  5
F2
330
1F
100
AcDbEntity
  8
1
  6
Continuous
 62
     7
100
AcDbLine
 10
500.7893572507005
 20
694.2338998625123
 30
0.0
 11
497.1466228406084
 21
694.2338998625123
 31
0.0
  0
LINE
  5
F3
330
1F
100
AcDbEntity
  8
1
  6
Continuous
 62
     7
100
AcDbLine
 10
491.1466228406084
 20
690.8527020160296
 30
0.0
 11
491.1466228406084
 21
703.8527020160295
 31
0.0
  0
LINE
  5
F4
330
1F
100
AcDbEntity
  8
1
  6
Continuous
 62
     7
100
AcDbLine
 10
497.1466228406084
 20
703.8527020160295
 30
0.0
 11
491.1466228406084
 21
703.8527020160295
 31
0.0
  0
LINE
  5
F5
330
1F
100
AcDbEntity
  8
1
  6
Continuous
 62
     7
100
AcDbLine
 10
497.1466228406084
 20
690.8527020160296
 30
0.0
 11
497.1466228406084
 21
703.8527020160295
 31
0.0
  0
LINE
  5
F6
330
1F
100
AcDbEntity
  8
1
  6
DASH_CENTER
 62
     3
100
AcDbLine
 10
655.1968602452912
 20
286.889204723396
 30
0.0
 11
644.1117350768491
 21
286.889204723396
 31
0.0
  0
LINE
  5
F7
330
1F
100
AcDbEntity
  8
1
  6
DASH_CENTER
 62
     3
100
AcDbLine
 10
649.6542976610692
 20
281.3466421391758
 30
0.0
 11
649.6542976610692
 21
292.4317673076166
 31
0.0
  0
LINE
  5
F8
330
1F
100
AcDbEntity
  8
1
  6
Continuous
 62
     7
100
AcDbLine
 10
644.6542976610692
 20
288.389204723396
 30
0.0
 11
644.6542976610692
 21
285.389204723396
 31
0.0
  0
LINE
  5
F9
330
1F
100
AcDbEntity
  8
1
  6
Continuous
 62
     7
100
AcDbLine
 10
657.6542976610692
 20
293.3892047233962
 30
0.0
 11
649.6542976610692
 21
293.3892047233962
 31
0.0
  0
LINE
  5
FA
330
1F
100
AcDbEntity
  8
1
  6
Continuous
 62
     7
100
AcDbLine
 10
882.6542976610701
 20
298.8892047233962
 30
0.0
 11
882.6542976610701
 21
297.3892047233962
 31
0.0
  0
LINE
  5
FB
330
1F
100
AcDbEntity
  8
1
  6
Continuous
 62
     7
100
AcDbLine
 10
688.6542976610685
 20
298.889204723396
 30
0.0
 11
659.1542976610692
 21
298.889204723396
 31
0.0
  0
LINE
  5
FC
330
1F
100
AcDbEntity
  8
1
  6
Continuous
 62
     7
100
AcDbLine
 10
688.6542976610685
 20
297.389204723396
 30
0.0
 11
688.6542976610685
 21
298.889204723396
 31
0.0
  0
LINE
  5
FD
330
1F
100
AcDbEntity
  8
1
  6
Continuous
 62
     7
100
AcDbLine
 10
894.6542976610701
 20
289.389204723396
 30
0.0
 11
894.6542976610701
 21
297.3892047233962
 31
0.0
  0
LINE
  5
FE
330
1F
100
AcDbEntity
  8
1
  6
Continuous
 62
     7
100
AcDbLine
 10
910.1542976610701
 20
271.3892047233962
 30
0.0
 11
910.1542976610701
 21
269.8892047233962
 31
0.0
  0
LINE
  5
FF
330
1F
100
AcDbEntity
  8
1
  6
Continuous
 62
     7
100
AcDbLine
 10
895.1542976610701
 20
271.389204723396
 30
0.0
 11
894.6542976610701
 21
271.389204723396
 31
0.0
  0
LINE
  5
100
330
1F
100
AcDbEntity
  8
1
  6
Continuous
 62
     7
100
AcDbLine
 10
898.1542976610701
 20
269.8892047233962
 30
0.0
 11
910.1542976610701
 21
269.8892047233962
 31
0.0
  0
LINE
  5
101
330
1F
100
AcDbEntity
  8
1
  6
Continuous
 62
     7
100
AcDbLine
 10
654.6542976610692
 20
271.389204723396
 30
0.0
 11
642.6542976610692
 21
271.3892047233962
 31
0.0
  0
LINE
  5
102
330
1F
100
AcDbEntity
  8
1
  6
Continuous
 62
     7
100
AcDbLine
 10
642.6542976610692
 20
271.3892047233962
 30
0.0
 11
642.6542976610692
 21
269.8892047233962
 31
0.0
  0
LINE
  5
103
330
1F
100
AcDbEntity
  8
1
  6
Continuous
 62
     7
100
AcDbLine
 10
893.1542976610701
 20
298.889204723396
 30
0.0
 11
882.6542976610701
 21
298.8892047233962
 31
0.0
  0
LINE
  5
104
330
1F
100
AcDbEntity
  8
1
  6
Continuous
 62
     7
100
AcDbLine
 10
893.154297661069
 20
289.5392047233959
 30
0.0
 11
894.6542976610701
 21
289.5392047233959
 31
0.0
  0
LINE
  5
105
330
1F
100
AcDbEntity
  8
1
  6
Continuous
 62
     7
100
AcDbLine
 10
893.154297661069
 20
283.2392047233959
 30
0.0
 11
894.6542976610701
 21
283.2392047233959
 31
0.0
  0
LINE
  5
106
330
1F
100
AcDbEntity
  8
1
  6
Continuous
 62
     7
100
AcDbLine
 10
902.6542976610701
 20
293.3892047233962
 30
0.0
 11
894.6542976610701
 21
293.3892047233962
 31
0.0
  0
LINE
  5
107
330
1F
100
AcDbEntity
  8
1
  6
Continuous
 62
     7
100
AcDbLine
 10
898.1542976610701
 20
280.3892047233962
 30
0.0
 11
902.6542976610701
 21
280.3892047233962
 31
0.0
  0
LINE
  5
108
330
1F
100
AcDbEntity
  8
1
  6
Continuous
 62
     7
100
AcDbLine
 10
907.6542976610701
 20
285.389204723396
 30
0.0
 11
907.6542976610701
 21
288.389204723396
 31
0.0
  0
LINE
  5
109
330
1F
100
AcDbEntity
  8
1
  6
DASH_CENTER
 62
     3
100
AcDbLine
 10
902.6542976610701
 20
292.4317673076166
 30
0.0
 11
902.6542976610701
 21
281.3466421391758
 31
0.0
  0
LINE
  5
10A
330
1F
100
AcDbEntity
  8
1
  6
DASH_CENTER
 62
     3
100
AcDbLine
 10
908.1968602452912
 20
286.889204723396
 30
0.0
 11
897.1117350768491
 21
286.889204723396
 31
0.0
  0
LINE
  5
10B
330
1F
100
AcDbEntity
  8
1
  6
Continuous
 62
     7
100
AcDbLine
 10
894.6542976610701
 20
270.9826367374928
 30
0.0
 11
894.6542976610701
 21
283.2392047233959
 31
0.0
  0
LINE
  5
10C
330
1F
100
AcDbEntity
  8
1
  6
Continuous
 62
     7
100
AcDbLine
 10
893.154297661069
 20
290.889204723396
 30
0.0
 11
893.154297661069
 21
289.389204723396
 31
0.0
  0
LINE
  5
10D
330
1F
100
AcDbEntity
  8
1
  6
Continuous
 62
     7
100
AcDbLine
 10
657.6542976610692
 20
297.3892047233962
 30
0.0
 11
657.6542976610692
 21
289.389204723396
 31
0.0
  0
LINE
  5
10E
330
1F
100
AcDbEntity
  8
1
  6
Continuous
 62
     7
100
AcDbLine
 10
649.6542976610692
 20
280.3892047233962
 30
0.0
 11
654.6542976610692
 21
280.3892047233962
 31
0.0
  0
LINE
  5
10F
330
1F
100
AcDbEntity
  8
1
  6
Continuous
 62
     7
100
AcDbLine
 10
894.6542976610701
 20
280.3892047233962
 30
0.0
 11
895.1542976610701
 21
280.3892047233962
 31
0.0
  0
LINE
  5
110
330
1F
100
AcDbEntity
  8
1
  6
Continuous
 62
     7
100
AcDbLine
 10
688.6542976610685
 20
292.8892047233962
 30
0.0
 11
688.6542976610685
 21
297.389204723396
 31
0.0
  0
LINE
  5
111
330
1F
100
AcDbEntity
  8
1
  6
Continuous
 62
     7
100
AcDbLine
 10
882.6542976610701
 20
292.8892047233962
 30
0.0
 11
882.6542976610701
 21
297.3892047233962
 31
0.0
  0
LINE
  5
112
330
1F
100
AcDbEntity
  8
1
  6
Continuous
 62
     7
100
AcDbLine
 10
893.154297661069
 20
290.889204723396
 30
0.0
 11
884.6542976610701
 21
290.889204723396
 31
0.0
  0
LINE
  5
113
330
1F
100
AcDbEntity
  8
1
  6
Continuous
 62
     7
100
AcDbLine
 10
659.1542976610692
 20
290.889204723396
 30
0.0
 11
686.6542976610685
 21
290.889204723396
 31
0.0
  0
LINE
  5
114
330
1F
100
AcDbEntity
  8
1
  6
Continuous
 62
     7
100
AcDbLine
 10
659.1542976610692
 20
289.389204723396
 30
0.0
 11
659.1542976610692
 21
290.889204723396
 31
0.0
  0
LINE
  5
115
330
1F
100
AcDbEntity
  8
1
  6
Continuous
 62
     7
100
AcDbLine
 10
910.1542976610701
 20
271.3892047233962
 30
0.0
 11
898.1542976610701
 21
271.389204723396
 31
0.0
  0
LINE
  5
116
330
1F
100
AcDbEntity
  8
1
  6
Continuous
 62
     7
100
AcDbLine
 10
642.6542976610692
 20
269.8892047233962
 30
0.0
 11
654.6542976610692
 21
269.8892047233962
 31
0.0
  0
LINE
  5
117
330
1F
100
AcDbEntity
  8
1
  6
Continuous
 62
     7
100
AcDbLine
 10
414.146622840609
 20
690.8527020160296
 30
0.0
 11
399.146622840609
 21
690.8527020160296
 31
0.0
  0
LINE
  5
118
330
1F
100
AcDbEntity
  8
1
  6
Continuous
 62
     7
100
AcDbLine
 10
399.146622840609
 20
697.3527020160283
 30
0.0
 11
399.146622840609
 21
701.7227020160295
 31
0.0
  0
LINE
  5
119
330
1F
100
AcDbEntity
  8
1
  6
Continuous
 62
     7
100
AcDbLine
 10
399.146622840609
 20
701.7227020160295
 30
0.0
 11
414.146622840609
 21
701.7227020160295
 31
0.0
  0
LINE
  5
11A
330
1F
100
AcDbEntity
  8
1
  6
Continuous
 62
     7
100
AcDbLine
 10
414.146622840609
 20
694.3527020160285
 30
0.0
 11
414.146622840609
 21
690.8527020160296
 31
0.0
  0
LINE
  5
11B
330
1F
100
AcDbEntity
  8
1
  6
Continuous
 62
     7
100
AcDbLine
 10
414.146622840609
 20
447.8527020160297
 30
0.0
 11
414.146622840609
 21
442.9866766122452
 31
0.0
  0
LINE
  5
11C
330
1F
100
AcDbEntity
  8
1
  6
Continuous
 62
     7
100
AcDbLine
 10
414.146622840609
 20
442.9866766122452
 30
0.0
 11
399.146622840609
 21
442.9866766122452
 31
0.0
  0
LINE
  5
11D
330
1F
100
AcDbEntity
  8
1
  6
Continuous
 62
     7
100
AcDbLine
 10
399.146622840609
 20
450.8527020160297
 30
0.0
 11
399.146622840609
 21
453.8527020160297
 31
0.0
  0
LINE
  5
11E
330
1F
100
AcDbEntity
  8
1
  6
Continuous
 62
     7
100
AcDbLine
 10
900.4429727956631
 20
271.8892047233961
 30
0.0
 11
904.2212849591761
 21
278.4334333574561
 31
0.0
  0
LINE
  5
11F
330
1F
100
AcDbEntity
  8
1
  6
Continuous
 62
     7
100
AcDbLine
 10
905.5203230648531
 20
277.6834333574562
 30
0.0
 11
901.8863484686372
 21
271.3892047233956
 31
0.0
  0
LINE
  5
120
330
1F
100
AcDbEntity
  8
1
  6
Continuous
 62
     7
100
AcDbLine
 10
904.2212849591761
 20
278.4334333574561
 30
0.0
 11
905.5203230648531
 21
277.6834333574562
 31
0.0
  0
LINE
  5
121
330
1F
100
AcDbEntity
  8
1
  6
Continuous
 62
     7
100
AcDbLine
 10
646.7882722572851
 20
277.6834333574562
 30
0.0
 11
648.0873103629622
 21
278.4334333574561
 31
0.0
  0
LINE
  5
122
330
1F
100
AcDbEntity
  8
1
  6
PHANTOM
 62
     4
100
AcDbLine
 10
652.7316479302592
 20
271.3892047233962
 30
0.0
 11
652.1542976610701
 21
271.3892047233962
 31
0.0
  0
LINE
  5
123
330
1F
100
AcDbEntity
  8
1
  6
Continuous
 62
     7
100
AcDbLine
 10
653.6503815965682
 20
269.8892047233962
 30
0.0
 11
652.7316479302592
 21
269.8892047233962
 31
0.0
  0
LINE
  5
124
330
1F
100
AcDbEntity
  8
1
  6
Continuous
 62
     7
100
AcDbLine
 10
648.0873103629622
 20
278.4334333574561
 30
0.0
 11
651.8656225264751
 21
271.8892047233962
 31
0.0
  0
LINE
  5
125
330
1F
100
AcDbEntity
  8
1
  6
Continuous
 62
     7
100
AcDbLine
 10
650.4222468535011
 20
271.3892047233956
 30
0.0
 11
646.7882722572851
 21
277.6834333574562
 31
0.0
  0
LINE
  5
126
330
1F
100
AcDbEntity
  8
1
  6
Continuous
 62
     7
100
AcDbLine
 10
535.1466228406091
 20
282.971780418352
 30
0.0
 11
535.1466228406091
 21
289.4119027712305
 31
0.0
  0
LINE
  5
127
330
1F
100
AcDbEntity
  8
1
  6
Continuous
 62
     7
100
AcDbLine
 10
508.9466228406092
 20
269.8892047233969
 30
0.0
 11
508.4466228406095
 21
269.8892047233971
 31
0.0
  0
LINE
  5
128
330
1F
100
AcDbEntity
  8
1
  6
Continuous
 62
     7
100
AcDbLine
 10
431.3966228406093
 20
705.8482075285991
 30
0.0
 11
452.6466228406103
 21
705.8482075285991
 31
0.0
  0
LINE
  5
129
330
1F
100
AcDbEntity
  8
1
  6
Continuous
 62
     3
100
AcDbLine
 10
520.6629588966189
 20
293.8892047233962
 30
0.0
 11
519.2487453342455
 21
295.3034182857693
 31
0.0
  0
LINE
  5
12A
330
1F
100
AcDbEntity
  8
1
  6
Continuous
 62
     3
100
AcDbLine
 10
520.6629588966189
 20
293.8892047233962
 30
0.0
 11
522.0771724589918
 21
295.3034182857693
 31
0.0
  0
LINE
  5
12B
330
1F
100
AcDbEntity
  8
1
  6
Continuous
 62
     3
100
AcDbLine
 10
520.6629588966189
 20
293.8892047233962
 30
0.0
 11
520.6629588966189
 21
289.4892047233961
 31
0.0
  0
LINE
  5
12C
330
1F
100
AcDbEntity
  8
1
  6
Continuous
 62
     3
100
AcDbLine
 10
520.6629588966189
 20
283.2892047233959
 30
0.0
 11
520.6629588966189
 21
278.8892047233962
 31
0.0
  0
LINE
  5
12D
330
1F
100
AcDbEntity
  8
1
  6
Continuous
 62
     3
100
AcDbLine
 10
519.2487453342455
 20
277.4749911610231
 30
0.0
 11
520.6629588966189
 21
278.8892047233962
 31
0.0
  0
LINE
  5
12E
330
1F
100
AcDbEntity
  8
1
  6
Continuous
 62
     3
100
AcDbLine
 10
522.0771724589918
 20
277.4749911610231
 30
0.0
 11
520.6629588966189
 21
278.8892047233962
 31
0.0
  0
LINE
  5
12F
330
1F
100
AcDbEntity
  8
1
  6
Continuous
 62
     7
100
AcDbLine
 10
525.2759266677481
 20
298.889204723396
 30
0.0
 11
355.1466228406093
 21
298.889204723396
 31
0.0
  0
LINE
  5
130
330
1F
100
AcDbEntity
  8
1
  6
Continuous
 62
     7
100
AcDbLine
 10
520.5584376488362
 20
283.2892047233959
 30
0.0
 11
522.0187779086562
 21
283.2892047233959
 31
0.0
  0
LINE
  5
131
330
1F
100
AcDbEntity
  8
1
  6
Continuous
 62
     7
100
AcDbLine
 10
519.1466228406091
 20
282.2704025698787
 30
0.0
 11
519.1466228406091
 21
275.889204723396
 31
0.0
  0
LINE
  5
132
330
1F
100
AcDbEntity
  8
1
  6
Continuous
 62
     7
100
AcDbLine
 10
521.1466228406091
 20
273.889204723396
 30
0.0
 11
530.1466228406091
 21
273.889204723396
 31
0.0
  0
LINE
  5
133
330
1F
100
AcDbEntity
  8
1
  6
Continuous
 62
     7
100
AcDbLine
 10
535.1466228406091
 20
278.8892047233961
 30
0.0
 11
535.1466228406091
 21
282.971780418352
 31
0.0
  0
LINE
  5
134
330
1F
100
AcDbEntity
  8
1
  6
Continuous
 62
     7
100
AcDbLine
 10
527.0744677725613
 20
283.2892047233959
 30
0.0
 11
530.1781317165517
 21
283.289204723396
 31
0.0
  0
LINE
  5
135
330
1F
100
AcDbEntity
  8
1
  6
Continuous
 62
     3
100
AcDbLine
 10
338.1466228406093
 20
681.8527020160296
 30
0.0
 11
338.1466228406093
 21
481.8527020160299
 31
0.0
  0
LINE
  5
136
330
1F
100
AcDbEntity
  8
1
  6
Continuous
 62
     3
100
AcDbLine
 10
338.1466228406093
 20
481.8527020160299
 30
0.0
 11
538.1466228406093
 21
481.8527020160299
 31
0.0
  0
LINE
  5
137
330
1F
100
AcDbEntity
  8
1
  6
Continuous
 62
     3
100
AcDbLine
 10
538.1466228406093
 20
481.8527020160299
 30
0.0
 11
538.1466228406093
 21
681.8527020160296
 31
0.0
  0
LINE
  5
138
330
1F
100
AcDbEntity
  8
1
  6
Continuous
 62
     3
100
AcDbLine
 10
538.1466228406093
 20
681.8527020160296
 30
0.0
 11
338.1466228406093
 21
681.8527020160296
 31
0.0
  0
LINE
  5
139
330
1F
100
AcDbEntity
  8
1
  6
PHANTOM
 62
   140
100
AcDbLine
 10
356.0572324040394
 20
266.4136107655108
 30
0.0
 11
525.2751104913541
 21
272.8087295570877
 31
0.0
  0
LINE
  5
13A
330
1F
100
AcDbEntity
  8
1
  6
PHANTOM
 62
   140
100
AcDbLine
 10
524.5466228406085
 20
299.9892047233961
 30
0.0
 11
355.1466236814562
 21
300.3900797452938
 31
0.0
  0
LINE
  5
13B
330
1F
100
AcDbEntity
  8
1
  6
Continuous
 62
     3
100
AcDbLine
 10
685.6542976610695
 20
301.2892047233963
 30
0.0
 11
885.6542976610701
 21
301.2892047233963
 31
0.0
  0
LINE
  5
13C
330
1F
100
AcDbEntity
  8
1
  6
Continuous
 62
     3
100
AcDbLine
 10
885.6542976610701
 20
300.389204723396
 30
0.0
 11
685.6542976610695
 21
300.389204723396
 31
0.0
  0
LINE
  5
13D
330
1F
100
AcDbEntity
  8
1
  6
Continuous
 62
     3
100
AcDbLine
 10
885.6542976610701
 20
301.2892047233963
 30
0.0
 11
885.6542976610701
 21
300.389204723396
 31
0.0
  0
LINE
  5
13E
330
1F
100
AcDbEntity
  8
1
  6
Continuous
 62
     3
100
AcDbLine
 10
685.6542976610695
 20
300.389204723396
 30
0.0
 11
685.6542976610695
 21
301.2892047233963
 31
0.0
  0
LINE
  5
13F
330
1F
100
AcDbEntity
  8
1
  6
Continuous
 62
     3
100
AcDbLine
 10
685.6542976610695
 20
271.889204723396
 30
0.0
 11
685.6542976610695
 21
272.789204723396
 31
0.0
  0
LINE
  5
140
330
1F
100
AcDbEntity
  8
1
  6
Continuous
 62
     3
100
AcDbLine
 10
685.6542976610695
 20
272.789204723396
 30
0.0
 11
885.6542976610701
 21
272.789204723396
 31
0.0
  0
LINE
  5
141
330
1F
100
AcDbEntity
  8
1
  6
Continuous
 62
     3
100
AcDbLine
 10
885.6542976610701
 20
272.789204723396
 30
0.0
 11
885.6542976610701
 21
271.889204723396
 31
0.0
  0
LINE
  5
142
330
1F
100
AcDbEntity
  8
1
  6
Continuous
 62
     3
100
AcDbLine
 10
885.6542976610701
 20
271.889204723396
 30
0.0
 11
685.6542976610695
 21
271.889204723396
 31
0.0
  0
LINE
  5
143
330
1F
100
AcDbEntity
  8
1
  6
PHANTOM
 62
   140
100
AcDbLine
 10
885.6542976610701
 20
272.789204723396
 30
0.0
 11
885.6542976610701
 21
301.2892047233963
 31
0.0
  0
LINE
  5
144
330
1F
100
AcDbEntity
  8
1
  6
PHANTOM
 62
   140
100
AcDbLine
 10
685.6542976610695
 20
272.789204723396
 30
0.0
 11
685.6542976610695
 21
300.389204723396
 31
0.0
  0
LINE
  5
145
330
1F
100
AcDbEntity
  8
1
  6
DASH_CENTER
 62
     3
100
AcDbLine
 10
396.6797853309481
 20
181.0394201266991
 30
0.0
 11
396.6797853309481
 21
289.0394201266994
 31
0.0
  0
LINE
  5
146
330
1F
100
AcDbEntity
  8
1
  6
DASH_CENTER
 62
     3
100
AcDbLine
 10
341.7921339655272
 20
235.0394201266994
 30
0.0
 11
450.6797853309494
 21
235.0394201266994
 31
0.0
  0
LINE
  5
147
330
1F
100
AcDbEntity
  8
1
  6
DASH_CENTER
 62
     3
100
AcDbLine
 10
355.1466228406093
 20
265.5960377802078
 30
0.0
 11
355.1466228406093
 21
300.5960377802078
 31
0.0
  0
LINE
  5
148
330
1F
100
AcDbEntity
  8
1
  6
DASH_CENTER
 62
     3
100
AcDbLine
 10
337.4744111068721
 20
283.389204723396
 30
0.0
 11
372.4744111068721
 21
283.389204723396
 31
0.0
  0
LINE
  5
149
330
1F
100
AcDbEntity
  8
1
  6
DASHED
 62
     4
100
AcDbLine
 10
361.1466228406093
 20
676.8527020160296
 30
0.0
 11
371.1466228406093
 21
676.8527020160296
 31
0.0
  0
LINE
  5
14A
330
1F
100
AcDbEntity
  8
1
  6
DASHED
 62
     4
100
AcDbLine
 10
339.1466228406093
 20
676.8527020160292
 30
0.0
 11
349.1466228406093
 21
676.8527020160296
 31
0.0
  0
LINE
  5
14B
330
1F
100
AcDbEntity
  8
1
  6
DASHED
 62
     4
100
AcDbLine
 10
371.1466228406093
 20
486.8527020160299
 30
0.0
 11
339.1466228406102
 21
486.8527020160299
 31
0.0
  0
LINE
  5
14C
330
1F
100
AcDbEntity
  8
1
  6
DASHED
 62
     4
100
AcDbLine
 10
338.1466228406093
 20
556.8527020160299
 30
0.0
 11
339.1466228406093
 21
676.8527020160292
 31
0.0
  0
LINE
  5
14D
330
1F
100
AcDbEntity
  8
1
  6
DASHED
 62
     4
100
AcDbLine
 10
371.1466228406093
 20
676.8527020160296
 30
0.0
 11
372.1466228406093
 21
556.8527020160296
 31
0.0
  0
LINE
  5
14E
330
1F
100
AcDbEntity
  8
1
  6
DASHED
 62
     4
100
AcDbLine
 10
371.1466228406093
 20
486.8527020160299
 30
0.0
 11
372.1466228406093
 21
556.8527020160296
 31
0.0
  0
LINE
  5
14F
330
1F
100
AcDbEntity
  8
1
  6
DASHED
 62
     4
100
AcDbLine
 10
339.1466228406102
 20
486.8527020160299
 30
0.0
 11
338.1466228406093
 21
556.8527020160299
 31
0.0
  0
LINE
  5
150
330
1F
100
AcDbEntity
  8
1
  6
DASHED
 62
     4
100
AcDbLine
 10
349.1466228406093
 20
676.8527020160296
 30
0.0
 11
361.1466228406093
 21
676.8527020160296
 31
0.0
  0
LINE
  5
151
330
1F
100
AcDbEntity
  8
1
  6
DASH_CENTER
 62
     3
100
AcDbLine
 10
355.1466228406093
 20
696.3527020160296
 30
0.0
 11
355.1466228406093
 21
448.7715574266474
 31
0.0
  0
LINE
  5
152
330
1F
100
AcDbEntity
  8
1
  6
Continuous
 62
     7
100
AcDbLine
 10
338.1466228406093
 20
453.8527020160297
 30
0.0
 11
340.1466228406093
 21
453.8527020160296
 31
0.0
  0
LINE
  5
153
330
1F
100
AcDbEntity
  8
1
  6
Continuous
 62
     7
100
AcDbLine
 10
488.14295889662
 20
269.889204723396
 30
0.0
 11
508.4466228406095
 21
269.889204723396
 31
0.0
  0
LINE
  5
154
330
1F
100
AcDbEntity
  8
1
  6
Continuous
 62
     7
100
AcDbLine
 10
488.1466228406109
 20
453.8527020160297
 30
0.0
 11
488.1466228406109
 21
450.8527020160297
 31
0.0
  0
LINE
  5
155
330
1F
100
AcDbEntity
  8
1
  6
Continuous
 62
     7
100
AcDbLine
 10
488.1466228406109
 20
450.8527020160297
 30
0.0
 11
457.6466228406075
 21
450.8527020160297
 31
0.0
  0
LINE
  5
156
330
1F
100
AcDbEntity
  8
1
  6
Continuous
 62
     7
100
AcDbLine
 10
426.3966228406093
 20
450.8527020160297
 30
0.0
 11
423.8579309852768
 21
450.8527020160297
 31
0.0
  0
LINE
  5
157
330
1F
100
AcDbEntity
  8
1
  6
Continuous
 62
     7
100
AcDbLine
 10
415.6466228406093
 20
450.8527020160308
 30
0.0
 11
414.146622840609
 21
450.8527020160308
 31
0.0
  0
LINE
  5
158
330
1F
100
AcDbEntity
  8
1
  6
Continuous
 62
     7
100
AcDbLine
 10
386.8966228406093
 20
450.8527020160297
 30
0.0
 11
389.4353146959417
 21
450.8527020160297
 31
0.0
  0
LINE
  5
159
330
1F
100
AcDbEntity
  8
1
  6
Continuous
 62
     7
100
AcDbLine
 10
369.3966228406093
 20
450.8527020160297
 30
0.0
 11
338.1466228406093
 21
450.8527020160297
 31
0.0
  0
LINE
  5
15A
330
1F
100
AcDbEntity
  8
1
  6
Continuous
 62
     7
100
AcDbLine
 10
338.1466228406093
 20
450.8527020160297
 30
0.0
 11
338.1466228406093
 21
453.8527020160297
 31
0.0
  0
LINE
  5
15B
330
1F
100
AcDbEntity
  8
1
  6
Continuous
 62
     7
100
AcDbLine
 10
369.3966228406093
 20
691.3527020160296
 30
0.0
 11
338.1466228406092
 21
691.3527020160296
 31
0.0
  0
LINE
  5
15C
330
1F
100
AcDbEntity
  8
1
  6
Continuous
 62
     7
100
AcDbLine
 10
338.1466228406092
 20
691.3527020160296
 30
0.0
 11
338.1466228406093
 21
694.3527020160296
 31
0.0
  0
LINE
  5
15D
330
1F
100
AcDbEntity
  8
1
  6
Continuous
 62
     7
100
AcDbLine
 10
338.1466228406093
 20
694.3527020160296
 30
0.0
 11
369.3966228406093
 21
694.3527020160296
 31
0.0
  0
LINE
  5
15E
330
1F
100
AcDbEntity
  8
1
  6
Continuous
 62
     7
100
AcDbLine
 10
389.4353146959417
 20
694.3527020160296
 30
0.0
 11
386.8966228406093
 21
694.3527020160296
 31
0.0
  0
LINE
  5
15F
330
1F
100
AcDbEntity
  8
1
  6
Continuous
 62
     7
100
AcDbLine
 10
386.8966228406093
 20
691.3527020160296
 30
0.0
 11
399.146622840609
 21
691.3527020160296
 31
0.0
  0
LINE
  5
160
330
1F
100
AcDbEntity
  8
1
  6
Continuous
 62
     7
100
AcDbLine
 10
414.146622840609
 20
694.3527020160285
 30
0.0
 11
415.6466228406093
 21
694.3527020160285
 31
0.0
  0
LINE
  5
161
330
1F
100
AcDbEntity
  8
1
  6
Continuous
 62
     7
100
AcDbLine
 10
423.8579309852768
 20
694.3527020160296
 30
0.0
 11
426.3966228406093
 21
694.3527020160296
 31
0.0
  0
LINE
  5
162
330
1F
100
AcDbEntity
  8
1
  6
Continuous
 62
     7
100
AcDbLine
 10
414.146622840609
 20
691.3527020160296
 30
0.0
 11
426.3966228406093
 21
691.3527020160296
 31
0.0
  0
LINE
  5
163
330
1F
100
AcDbEntity
  8
1
  6
Continuous
 62
     7
100
AcDbLine
 10
457.6466228406103
 20
694.3527020160296
 30
0.0
 11
488.1466228406109
 21
694.3527020160296
 31
0.0
  0
LINE
  5
164
330
1F
100
AcDbEntity
  8
1
  6
Continuous
 62
     7
100
AcDbLine
 10
488.1466228406109
 20
694.3527020160296
 30
0.0
 11
488.1466228406109
 21
691.3527020160296
 31
0.0
  0
LINE
  5
165
330
1F
100
AcDbEntity
  8
1
  6
Continuous
 62
     7
100
AcDbLine
 10
488.1466228406109
 20
691.3527020160296
 30
0.0
 11
457.6466228406103
 21
691.3527020160296
 31
0.0
  0
LINE
  5
166
330
1F
100
AcDbEntity
  8
1
  6
Continuous
 62
     7
100
AcDbLine
 10
488.14295889662
 20
175.8892047233958
 30
0.0
 11
488.14295889662
 21
270.3892047233956
 31
0.0
  0
LINE
  5
167
330
1F
100
AcDbEntity
  8
1
  6
Continuous
 62
     7
100
AcDbLine
 10
340.1466228406093
 20
173.8892047233958
 30
0.0
 11
486.14295889662
 21
173.8892047233958
 31
0.0
  0
LINE
  5
168
330
1F
100
AcDbEntity
  8
1
  6
Continuous
 62
     7
100
AcDbLine
 10
338.1466228406093
 20
270.3892047233956
 30
0.0
 11
338.1466228406093
 21
175.8892047233958
 31
0.0
  0
LINE
  5
169
330
1F
100
AcDbEntity
  8
1
  6
Continuous
 62
     7
100
AcDbLine
 10
369.1466228406093
 20
269.889204723396
 30
0.0
 11
369.1466228406093
 21
270.3892047233956
 31
0.0
  0
LINE
  5
16A
330
1F
100
AcDbEntity
  8
1
  6
PHANTOM
 62
     4
100
AcDbLine
 10
488.14295889662
 20
173.8892047233958
 30
0.0
 11
488.14295889662
 21
175.8892047233958
 31
0.0
  0
LINE
  5
16B
330
1F
100
AcDbEntity
  8
1
  6
PHANTOM
 62
     4
100
AcDbLine
 10
486.14295889662
 20
173.8892047233958
 30
0.0
 11
488.14295889662
 21
173.8892047233958
 31
0.0
  0
LINE
  5
16C
330
1F
100
AcDbEntity
  8
1
  6
Continuous
 62
     7
100
AcDbLine
 10
417.1466228406093
 20
269.889204723396
 30
0.0
 11
458.14295889662
 21
269.889204723396
 31
0.0
  0
LINE
  5
16D
330
1F
100
AcDbEntity
  8
1
  6
Continuous
 62
     7
100
AcDbLine
 10
364.1466228406093
 20
275.3892047233956
 30
0.0
 11
343.1466228406093
 21
275.3892047233956
 31
0.0
  0
LINE
  5
16E
330
1F
100
AcDbEntity
  8
1
  6
Continuous
 62
     7
100
AcDbLine
 10
397.6466228406093
 20
269.889204723396
 30
0.0
 11
415.6266228406093
 21
269.889204723396
 31
0.0
  0
LINE
  5
16F
330
1F
100
AcDbEntity
  8
1
  6
Continuous
 62
     7
100
AcDbLine
 10
369.1466228406093
 20
269.889204723396
 30
0.0
 11
396.1466228406093
 21
269.889204723396
 31
0.0
  0
LINE
  5
170
330
1F
100
AcDbEntity
  8
1
  6
Continuous
 62
     7
100
AcDbLine
 10
898.1542976610701
 20
173.8892047233958
 30
0.0
 11
898.1542976610701
 21
283.2392047233959
 31
0.0
  0
LINE
  5
171
330
1F
100
AcDbEntity
  8
1
  6
Continuous
 62
     7
100
AcDbLine
 10
657.6542976610692
 20
283.389204723396
 30
0.0
 11
654.6542976610692
 21
283.389204723396
 31
0.0
  0
LINE
  5
172
330
1F
100
AcDbEntity
  8
1
  6
Continuous
 62
     7
100
AcDbLine
 10
657.6542976610692
 20
173.8892047233958
 30
0.0
 11
657.6542976610692
 21
283.389204723396
 31
0.0
  0
LINE
  5
173
330
1F
100
AcDbEntity
  8
1
  6
Continuous
 62
     7
100
AcDbLine
 10
654.6542976610692
 20
283.389204723396
 30
0.0
 11
654.6542976610692
 21
173.8892047233958
 31
0.0
  0
LINE
  5
174
330
1F
100
AcDbEntity
  8
1
  6
DASH_CENTER
 62
     3
100
AcDbLine
 10
649.6641708840771
 20
185.3892047233958
 30
0.0
 11
659.6641708840771
 21
185.3892047233958
 31
0.0
  0
LINE
  5
175
330
1F
100
AcDbEntity
  8
1
  6
DASH_CENTER
 62
     3
100
AcDbLine
 10
904.633037427709
 20
185.3892047233958
 30
0.0
 11
893.633037427709
 21
185.3892047233958
 31
0.0
  0
LINE
  5
176
330
1F
100
AcDbEntity
  8
1
  6
Continuous
 62
     7
100
AcDbLine
 10
654.6542976610692
 20
173.8892047233958
 30
0.0
 11
657.6542976610692
 21
173.8892047233958
 31
0.0
  0
LINE
  5
177
330
1F
100
AcDbEntity
  8
1
  6
Continuous
 62
     7
100
AcDbLine
 10
898.1542976610701
 20
283.2392047233959
 30
0.0
 11
895.1542976610701
 21
283.2392047233959
 31
0.0
  0
LINE
  5
178
330
1F
100
AcDbEntity
  8
1
  6
Continuous
 62
     7
100
AcDbLine
 10
895.1542976610701
 20
283.2392047233959
 30
0.0
 11
895.1542976610701
 21
173.8892047233958
 31
0.0
  0
LINE
  5
179
330
1F
100
AcDbEntity
  8
1
  6
Continuous
 62
     7
100
AcDbLine
 10
895.1542976610701
 20
173.8892047233958
 30
0.0
 11
898.1542976610701
 21
173.8892047233958
 31
0.0
  0
LINE
  5
17A
330
1F
100
AcDbEntity
  8
1
  6
DASH_CENTER
 62
     3
100
AcDbLine
 10
785.6542976610695
 20
308.9477117967751
 30
0.0
 11
785.6542976610695
 21
168.5703872171661
 31
0.0
  0
LINE
  5
17B
330
1F
100
AcDbEntity
  8
1
  6
Continuous
 62
     7
100
AcDbLine
 10
463.14295889662
 20
275.3892047233957
 30
0.0
 11
483.14295889662
 21
275.3892047233958
 31
0.0
  0
LINE
  5
17C
330
1F
100
AcDbEntity
  8
1
  6
Continuous
 62
     7
100
AcDbLine
 10
369.1466228406093
 20
271.3892047233971
 30
0.0
 11
386.6466228406093
 21
271.3892047233971
 31
0.0
  0
LINE
  5
17D
330
1F
100
AcDbEntity
  8
1
  6
Continuous
 62
     7
100
AcDbLine
 10
458.14295889662
 20
270.3892047233956
 30
0.0
 11
458.14295889662
 21
269.889204723396
 31
0.0
  0
LINE
  5
17E
330
1F
100
AcDbEntity
  8
1
  6
Continuous
 62
     7
100
AcDbLine
 10
457.6429588966166
 20
271.3892047233971
 30
0.0
 11
457.6429588966168
 21
269.8892047233971
 31
0.0
  0
LINE
  5
17F
330
1F
100
AcDbEntity
  8
1
  6
Continuous
 62
     7
100
AcDbLine
 10
426.1429588966186
 20
269.8892047233971
 30
0.0
 11
426.1429588966186
 21
271.3892047233971
 31
0.0
  0
LINE
  5
180
330
1F
100
AcDbEntity
  8
1
  6
Continuous
 62
     7
100
AcDbLine
 10
426.1592949526277
 20
271.389204723396
 30
0.0
 11
457.6592949526257
 21
271.389204723396
 31
0.0
  0
LINE
  5
181
330
1F
100
AcDbEntity
  8
1
  6
Continuous
 62
     7
100
AcDbLine
 10
386.6466228406093
 20
269.8892047233971
 30
0.0
 11
386.6466228406093
 21
271.3892047233971
 31
0.0
  0
LINE
  5
182
330
1F
100
AcDbEntity
  8
1
  6
Continuous
 62
     7
100
AcDbLine
 10
386.6629588966186
 20
269.8892047233971
 30
0.0
 11
386.6629588966186
 21
271.3892047233971
 31
0.0
  0
LINE
  5
183
330
1F
100
AcDbEntity
  8
1
  6
Continuous
 62
     7
100
AcDbLine
 10
369.1629588966186
 20
271.3892047233971
 30
0.0
 11
386.6629588966186
 21
271.3892047233971
 31
0.0
  0
LINE
  5
184
330
1F
100
AcDbEntity
  8
1
  6
Continuous
 62
     7
100
AcDbLine
 10
369.1466228406093
 20
269.8892047233971
 30
0.0
 11
369.1466228406093
 21
271.3892047233971
 31
0.0
  0
LINE
  5
185
330
1F
100
AcDbEntity
  8
1
  6
Continuous
100
AcDbLine
 10
396.1466228406093
 20
451.8527020160297
 30
0.0
 11
397.6466228406093
 21
451.8527020160297
 31
0.0
  0
LINE
  5
186
330
1F
100
AcDbEntity
  8
1
  6
Continuous
100
AcDbLine
 10
415.6466228406093
 20
451.8527020160297
 30
0.0
 11
417.1466228406093
 21
451.8527020160297
 31
0.0
  0
LINE
  5
187
330
1F
100
AcDbEntity
  8
1
  6
Continuous
100
AcDbLine
 10
397.6466228406093
 20
450.8527020160297
 30
0.0
 11
415.6466228406093
 21
450.8527020160297
 31
0.0
  0
LINE
  5
188
330
1F
100
AcDbEntity
  8
1
  6
Continuous
100
AcDbLine
 10
391.1466228406093
 20
452.1027020160297
 30
0.0
 11
391.1466228406093
 21
451.8597020160298
 31
0.0
  0
LINE
  5
189
330
1F
100
AcDbEntity
  8
1
  6
Continuous
100
AcDbLine
 10
391.1466228406093
 20
450.34770201603
 30
0.0
 11
391.1466228406093
 21
444.3567020160298
 31
0.0
  0
LINE
  5
18A
330
1F
100
AcDbEntity
  8
1
  6
Continuous
100
AcDbLine
 10
422.1466228406093
 20
452.1027020160297
 30
0.0
 11
422.1466228406093
 21
451.8587020160298
 31
0.0
  0
LINE
  5
18B
330
1F
100
AcDbEntity
  8
1
  6
Continuous
100
AcDbLine
 10
422.1466228406093
 20
450.34770201603
 30
0.0
 11
422.1466228406093
 21
444.3567020160298
 31
0.0
  0
LINE
  5
18C
330
1F
100
AcDbEntity
  8
1
  6
Continuous
100
AcDbLine
 10
394.1466228406093
 20
452.1027020160297
 30
0.0
 11
394.1466228406093
 21
449.8527020160297
 31
0.0
  0
LINE
  5
18D
330
1F
100
AcDbEntity
  8
1
  6
Continuous
100
AcDbLine
 10
392.6466228406093
 20
452.1027020160297
 30
0.0
 11
392.6466228406093
 21
449.8527020160297
 31
0.0
  0
LINE
  5
18E
330
1F
100
AcDbEntity
  8
1
  6
Continuous
100
AcDbLine
 10
420.6466228406093
 20
452.1027020160297
 30
0.0
 11
420.6466228406093
 21
449.8527020160297
 31
0.0
  0
LINE
  5
18F
330
1F
100
AcDbEntity
  8
1
  6
Continuous
100
AcDbLine
 10
419.1466228406093
 20
452.1027020160297
 30
0.0
 11
419.1466228406093
 21
449.8527020160297
 31
0.0
  0
LINE
  5
190
330
1F
100
AcDbEntity
  8
1
  6
Continuous
100
AcDbLine
 10
391.1466228406093
 20
449.8527020160297
 30
0.0
 11
395.1466228406093
 21
449.8527020160297
 31
0.0
  0
LINE
  5
191
330
1F
100
AcDbEntity
  8
1
  6
Continuous
100
AcDbLine
 10
391.1466228406093
 20
444.8527020160297
 30
0.0
 11
397.6466228406093
 21
444.8527020160297
 31
0.0
  0
LINE
  5
192
330
1F
100
AcDbEntity
  8
1
  6
Continuous
100
AcDbLine
 10
391.1466228406093
 20
452.1027020160297
 30
0.0
 11
394.1466228406093
 21
452.1027020160297
 31
0.0
  0
LINE
  5
193
330
1F
100
AcDbEntity
  8
1
  6
Continuous
100
AcDbLine
 10
391.1466228406093
 20
442.6027020160297
 30
0.0
 11
394.1466228406093
 21
442.6027020160297
 31
0.0
  0
LINE
  5
194
330
1F
100
AcDbEntity
  8
1
  6
Continuous
100
AcDbLine
 10
419.1466228406093
 20
452.1027020160297
 30
0.0
 11
422.1466228406093
 21
452.1027020160297
 31
0.0
  0
LINE
  5
195
330
1F
100
AcDbEntity
  8
1
  6
Continuous
100
AcDbLine
 10
419.1466228406093
 20
442.6027020160297
 30
0.0
 11
422.1466228406093
 21
442.6027020160297
 31
0.0
  0
LINE
  5
196
330
1F
100
AcDbEntity
  8
1
  6
Continuous
100
AcDbLine
 10
419.1466228406093
 20
444.8527020160297
 30
0.0
 11
419.1466228406093
 21
442.6027020160297
 31
0.0
  0
LINE
  5
197
330
1F
100
AcDbEntity
  8
1
  6
Continuous
100
AcDbLine
 10
420.6466228406093
 20
444.8527020160297
 30
0.0
 11
420.6466228406093
 21
442.6027020160297
 31
0.0
  0
LINE
  5
198
330
1F
100
AcDbEntity
  8
1
  6
Continuous
100
AcDbLine
 10
415.6466228406093
 20
444.8527020160297
 30
0.0
 11
422.1466228406093
 21
444.8527020160297
 31
0.0
  0
LINE
  5
199
330
1F
100
AcDbEntity
  8
1
  6
Continuous
100
AcDbLine
 10
418.1466228406093
 20
449.8527020160297
 30
0.0
 11
422.1466228406093
 21
449.8527020160297
 31
0.0
  0
LINE
  5
19A
330
1F
100
AcDbEntity
  8
1
  6
Continuous
100
AcDbLine
 10
394.1466228406093
 20
444.8527020160297
 30
0.0
 11
394.1466228406093
 21
442.6027020160297
 31
0.0
  0
LINE
  5
19B
330
1F
100
AcDbEntity
  8
1
  6
Continuous
100
AcDbLine
 10
392.6466228406093
 20
444.8527020160297
 30
0.0
 11
392.6466228406093
 21
442.6027020160297
 31
0.0
  0
LINE
  5
19C
330
1F
100
AcDbEntity
  8
1
  6
Continuous
100
AcDbLine
 10
391.1466228406093
 20
442.8457020160299
 30
0.0
 11
391.1466228406093
 21
442.6027020160297
 31
0.0
  0
LINE
  5
19D
330
1F
100
AcDbEntity
  8
1
  6
Continuous
100
AcDbLine
 10
422.1466228406093
 20
442.8457020160299
 30
0.0
 11
422.1466228406093
 21
442.6027020160297
 31
0.0
  0
LINE
  5
19E
330
1F
100
AcDbEntity
  8
1
  6
Continuous
100
AcDbLine
 10
414.8966228406093
 20
447.8527020160297
 30
0.0
 11
414.8966228406093
 21
440.3527020160297
 31
0.0
  0
LINE
  5
19F
330
1F
100
AcDbEntity
  8
1
  6
Continuous
100
AcDbLine
 10
398.3966228406093
 20
447.8527020160297
 30
0.0
 11
398.3966228406093
 21
440.3527020160297
 31
0.0
  0
LINE
  5
1A0
330
1F
100
AcDbEntity
  8
1
  6
Continuous
100
AcDbLine
 10
397.6466228406093
 20
447.8527020160297
 30
0.0
 11
415.6466228406093
 21
447.8527020160297
 31
0.0
  0
LINE
  5
1A1
330
1F
100
AcDbEntity
  8
1
  6
Continuous
100
AcDbLine
 10
395.1466228406093
 20
450.4527020160298
 30
0.0
 11
396.1466228406093
 21
450.4527020160298
 31
0.0
  0
LINE
  5
1A2
330
1F
100
AcDbEntity
  8
1
  6
Continuous
100
AcDbLine
 10
395.1466228406093
 20
448.2527020160298
 30
0.0
 11
396.1466228406093
 21
448.2527020160298
 31
0.0
  0
LINE
  5
1A3
330
1F
100
AcDbEntity
  8
1
  6
Continuous
100
AcDbLine
 10
395.1466228406093
 20
450.4527020160298
 30
0.0
 11
395.1466228406093
 21
448.2527020160298
 31
0.0
  0
LINE
  5
1A4
330
1F
100
AcDbEntity
  8
1
  6
Continuous
100
AcDbLine
 10
418.1466228406093
 20
450.4527020160298
 30
0.0
 11
418.1466228406093
 21
448.2527020160298
 31
0.0
  0
LINE
  5
1A5
330
1F
100
AcDbEntity
  8
1
  6
Continuous
100
AcDbLine
 10
417.1466228406093
 20
451.8527020160297
 30
0.0
 11
417.1466228406093
 21
444.8527020160297
 31
0.0
  0
LINE
  5
1A6
330
1F
100
AcDbEntity
  8
1
  6
Continuous
100
AcDbLine
 10
396.1466228406093
 20
451.8527020160297
 30
0.0
 11
396.1466228406093
 21
444.8527020160297
 31
0.0
  0
LINE
  5
1A7
330
1F
100
AcDbEntity
  8
1
  6
Continuous
100
AcDbLine
 10
415.6466228406093
 20
451.8527020160297
 30
0.0
 11
415.6466228406093
 21
444.8527020160297
 31
0.0
  0
LINE
  5
1A8
330
1F
100
AcDbEntity
  8
1
  6
Continuous
100
AcDbLine
 10
397.6466228406093
 20
451.8527020160297
 30
0.0
 11
397.6466228406093
 21
444.8527020160297
 31
0.0
  0
LINE
  5
1A9
330
1F
100
AcDbEntity
  8
4
  6
DASH_CENTER
100
AcDbLine
 10
406.6466228406093
 20
453.8527020160297
 30
0.0
 11
406.6466228406093
 21
435.8527020160297
 31
0.0
  0
LINE
  5
1AA
330
1F
100
AcDbEntity
  8
4
  6
DASH_CENTER
100
AcDbLine
 10
392.1466228406093
 20
449.3527020160297
 30
0.0
 11
421.1466228406093
 21
449.3527020160297
 31
0.0
  0
LINE
  5
1AB
330
1F
100
AcDbEntity
  8
1
  6
Continuous
100
AcDbLine
 10
417.1466228406093
 20
448.2527020160298
 30
0.0
 11
418.1466228406093
 21
448.2527020160298
 31
0.0
  0
LINE
  5
1AC
330
1F
100
AcDbEntity
  8
1
  6
Continuous
100
AcDbLine
 10
417.1466228406093
 20
450.4527020160298
 30
0.0
 11
418.1466228406093
 21
450.4527020160298
 31
0.0
  0
LINE
  5
1AD
330
1F
100
AcDbEntity
  8
1
  6
Continuous
100
AcDbLine
 10
399.8966228406093
 20
438.8527020160297
 30
0.0
 11
413.3966228406093
 21
438.8527020160297
 31
0.0
  0
LINE
  5
1AE
330
1F
100
AcDbEntity
  8
1
  6
Continuous
100
AcDbLine
 10
396.4465228406093
 20
269.389204723396
 30
0.0
 11
397.3466228406082
 21
269.389204723396
 31
0.0
  0
LINE
  5
1AF
330
1F
100
AcDbEntity
  8
1
  6
Continuous
100
AcDbLine
 10
415.9465228406093
 20
269.389204723396
 30
0.0
 11
416.8466228406082
 21
269.389204723396
 31
0.0
  0
LINE
  5
1B0
330
1F
100
AcDbEntity
  8
4
  6
DASH_CENTER
100
AcDbLine
 10
404.1466228406093
 20
225.889204723396
 30
0.0
 11
409.1466228406093
 21
225.889204723396
 31
0.0
  0
LINE
  5
1B1
330
1F
100
AcDbEntity
  8
1
  6
Continuous
100
AcDbLine
 10
391.1466228406093
 20
245.889204723396
 30
0.0
 11
391.1466228406093
 21
249.4012047233962
 31
0.0
  0
LINE
  5
1B2
330
1F
100
AcDbEntity
  8
1
  6
Continuous
100
AcDbLine
 10
392.6466228406093
 20
243.889204723396
 30
0.0
 11
392.6466228406093
 21
249.2692047233961
 31
0.0
  0
LINE
  5
1B3
330
1F
100
AcDbEntity
  8
1
  6
Continuous
100
AcDbLine
 10
394.1466228406093
 20
243.889204723396
 30
0.0
 11
394.1466228406093
 21
249.1382047233962
 31
0.0
  0
LINE
  5
1B4
330
1F
100
AcDbEntity
  8
1
  6
Continuous
100
AcDbLine
 10
394.1466228406093
 20
250.5442047233962
 30
0.0
 11
394.1466228406093
 21
250.8652047233961
 31
0.0
  0
LINE
  5
1B5
330
1F
100
AcDbEntity
  8
1
  6
Continuous
100
AcDbLine
 10
392.6466228406093
 20
250.675204723396
 30
0.0
 11
392.6466228406093
 21
250.9962047233962
 31
0.0
  0
LINE
  5
1B6
330
1F
100
AcDbEntity
  8
1
  6
Continuous
100
AcDbLine
 10
391.1466228406093
 20
250.8062047233961
 30
0.0
 11
391.1466228406093
 21
251.127204723396
 31
0.0
  0
LINE
  5
1B7
330
1F
100
AcDbEntity
  8
1
  6
Continuous
100
AcDbLine
 10
391.1466228406093
 20
252.533204723396
 30
0.0
 11
391.1466228406093
 21
252.8542047233961
 31
0.0
  0
LINE
  5
1B8
330
1F
100
AcDbEntity
  8
1
  6
Continuous
100
AcDbLine
 10
392.6466228406093
 20
252.4012047233962
 30
0.0
 11
392.6466228406093
 21
252.723204723396
 31
0.0
  0
LINE
  5
1B9
330
1F
100
AcDbEntity
  8
1
  6
Continuous
100
AcDbLine
 10
394.1466228406093
 20
252.2702047233962
 30
0.0
 11
394.1466228406093
 21
252.591204723396
 31
0.0
  0
LINE
  5
1BA
330
1F
100
AcDbEntity
  8
1
  6
Continuous
100
AcDbLine
 10
394.1466228406093
 20
253.9972047233962
 30
0.0
 11
394.1466228406093
 21
254.3182047233962
 31
0.0
  0
LINE
  5
1BB
330
1F
100
AcDbEntity
  8
1
  6
Continuous
100
AcDbLine
 10
392.6466228406093
 20
254.1282047233962
 30
0.0
 11
392.6466228406093
 21
254.4492047233962
 31
0.0
  0
LINE
  5
1BC
330
1F
100
AcDbEntity
  8
1
  6
Continuous
100
AcDbLine
 10
391.1466228406093
 20
254.2592047233961
 30
0.0
 11
391.1466228406093
 21
254.5802047233962
 31
0.0
  0
LINE
  5
1BD
330
1F
100
AcDbEntity
  8
1
  6
Continuous
100
AcDbLine
 10
391.1466228406093
 20
255.9862047233961
 30
0.0
 11
391.1466228406093
 21
256.3072047233961
 31
0.0
  0
LINE
  5
1BE
330
1F
100
AcDbEntity
  8
1
  6
Continuous
100
AcDbLine
 10
392.6466228406093
 20
255.8552047233961
 30
0.0
 11
392.6466228406093
 21
256.1762047233961
 31
0.0
  0
LINE
  5
1BF
330
1F
100
AcDbEntity
  8
1
  6
Continuous
100
AcDbLine
 10
394.1466228406093
 20
255.723204723396
 30
0.0
 11
394.1466228406093
 21
256.0452047233962
 31
0.0
  0
LINE
  5
1C0
330
1F
100
AcDbEntity
  8
1
  6
Continuous
100
AcDbLine
 10
394.1466228406093
 20
257.4502047233961
 30
0.0
 11
394.1466228406093
 21
257.771204723396
 31
0.0
  0
LINE
  5
1C1
330
1F
100
AcDbEntity
  8
1
  6
Continuous
100
AcDbLine
 10
392.6466228406093
 20
257.581204723396
 30
0.0
 11
392.6466228406093
 21
257.9022047233961
 31
0.0
  0
LINE
  5
1C2
330
1F
100
AcDbEntity
  8
1
  6
Continuous
100
AcDbLine
 10
391.1466228406093
 20
257.7122047233961
 30
0.0
 11
391.1466228406093
 21
258.0342047233961
 31
0.0
  0
LINE
  5
1C3
330
1F
100
AcDbEntity
  8
1
  6
Continuous
100
AcDbLine
 10
391.1466228406093
 20
259.4392047233963
 30
0.0
 11
391.1466228406093
 21
259.7602047233961
 31
0.0
  0
LINE
  5
1C4
330
1F
100
AcDbEntity
  8
1
  6
Continuous
100
AcDbLine
 10
392.6466228406093
 20
259.3082047233961
 30
0.0
 11
392.6466228406093
 21
259.6292047233962
 31
0.0
  0
LINE
  5
1C5
330
1F
100
AcDbEntity
  8
1
  6
Continuous
100
AcDbLine
 10
394.1466228406093
 20
259.1762047233961
 30
0.0
 11
394.1466228406093
 21
259.4982047233961
 31
0.0
  0
LINE
  5
1C6
330
1F
100
AcDbEntity
  8
1
  6
Continuous
100
AcDbLine
 10
419.1466228406093
 20
243.889204723396
 30
0.0
 11
419.1466228406093
 21
249.4012047233962
 31
0.0
  0
LINE
  5
1C7
330
1F
100
AcDbEntity
  8
1
  6
Continuous
100
AcDbLine
 10
420.6466228406093
 20
243.889204723396
 30
0.0
 11
420.6466228406093
 21
249.2692047233961
 31
0.0
  0
LINE
  5
1C8
330
1F
100
AcDbEntity
  8
1
  6
Continuous
100
AcDbLine
 10
422.1466228406093
 20
245.889204723396
 30
0.0
 11
422.1466228406093
 21
249.1382047233962
 31
0.0
  0
LINE
  5
1C9
330
1F
100
AcDbEntity
  8
1
  6
Continuous
100
AcDbLine
 10
422.1466228406093
 20
250.5442047233962
 30
0.0
 11
422.1466228406093
 21
250.8652047233961
 31
0.0
  0
LINE
  5
1CA
330
1F
100
AcDbEntity
  8
1
  6
Continuous
100
AcDbLine
 10
420.6466228406093
 20
250.675204723396
 30
0.0
 11
420.6466228406093
 21
250.9962047233962
 31
0.0
  0
LINE
  5
1CB
330
1F
100
AcDbEntity
  8
1
  6
Continuous
100
AcDbLine
 10
419.1466228406093
 20
250.8062047233961
 30
0.0
 11
419.1466228406093
 21
251.127204723396
 31
0.0
  0
LINE
  5
1CC
330
1F
100
AcDbEntity
  8
1
  6
Continuous
100
AcDbLine
 10
419.1466228406093
 20
252.533204723396
 30
0.0
 11
419.1466228406093
 21
252.8542047233961
 31
0.0
  0
LINE
  5
1CD
330
1F
100
AcDbEntity
  8
1
  6
Continuous
100
AcDbLine
 10
420.6466228406093
 20
252.4012047233962
 30
0.0
 11
420.6466228406093
 21
252.723204723396
 31
0.0
  0
LINE
  5
1CE
330
1F
100
AcDbEntity
  8
1
  6
Continuous
100
AcDbLine
 10
422.1466228406093
 20
252.2702047233962
 30
0.0
 11
422.1466228406093
 21
252.591204723396
 31
0.0
  0
LINE
  5
1CF
330
1F
100
AcDbEntity
  8
1
  6
Continuous
100
AcDbLine
 10
422.1466228406093
 20
253.9972047233962
 30
0.0
 11
422.1466228406093
 21
254.3182047233962
 31
0.0
  0
LINE
  5
1D0
330
1F
100
AcDbEntity
  8
1
  6
Continuous
100
AcDbLine
 10
420.6466228406093
 20
254.1282047233962
 30
0.0
 11
420.6466228406093
 21
254.4492047233962
 31
0.0
  0
LINE
  5
1D1
330
1F
100
AcDbEntity
  8
1
  6
Continuous
100
AcDbLine
 10
419.1466228406093
 20
254.2592047233961
 30
0.0
 11
419.1466228406093
 21
254.5802047233962
 31
0.0
  0
LINE
  5
1D2
330
1F
100
AcDbEntity
  8
1
  6
Continuous
100
AcDbLine
 10
419.1466228406093
 20
255.9862047233961
 30
0.0
 11
419.1466228406093
 21
256.3072047233961
 31
0.0
  0
LINE
  5
1D3
330
1F
100
AcDbEntity
  8
1
  6
Continuous
100
AcDbLine
 10
420.6466228406093
 20
255.8552047233961
 30
0.0
 11
420.6466228406093
 21
256.1762047233961
 31
0.0
  0
LINE
  5
1D4
330
1F
100
AcDbEntity
  8
1
  6
Continuous
100
AcDbLine
 10
422.1466228406093
 20
255.723204723396
 30
0.0
 11
422.1466228406093
 21
256.0452047233962
 31
0.0
  0
LINE
  5
1D5
330
1F
100
AcDbEntity
  8
1
  6
Continuous
100
AcDbLine
 10
422.1466228406093
 20
257.4502047233961
 30
0.0
 11
422.1466228406093
 21
257.771204723396
 31
0.0
  0
LINE
  5
1D6
330
1F
100
AcDbEntity
  8
1
  6
Continuous
100
AcDbLine
 10
420.6466228406093
 20
257.581204723396
 30
0.0
 11
420.6466228406093
 21
257.9022047233961
 31
0.0
  0
LINE
  5
1D7
330
1F
100
AcDbEntity
  8
1
  6
Continuous
100
AcDbLine
 10
419.1466228406093
 20
257.7122047233961
 30
0.0
 11
419.1466228406093
 21
258.0342047233961
 31
0.0
  0
LINE
  5
1D8
330
1F
100
AcDbEntity
  8
1
  6
Continuous
100
AcDbLine
 10
419.1466228406093
 20
259.4392047233963
 30
0.0
 11
419.1466228406093
 21
259.7602047233961
 31
0.0
  0
LINE
  5
1D9
330
1F
100
AcDbEntity
  8
1
  6
Continuous
100
AcDbLine
 10
420.6466228406093
 20
259.3082047233961
 30
0.0
 11
420.6466228406093
 21
259.6292047233962
 31
0.0
  0
LINE
  5
1DA
330
1F
100
AcDbEntity
  8
1
  6
Continuous
100
AcDbLine
 10
422.1466228406093
 20
259.1762047233961
 30
0.0
 11
422.1466228406093
 21
259.4982047233961
 31
0.0
  0
LINE
  5
1DB
330
1F
100
AcDbEntity
  8
1
  6
Continuous
100
AcDbLine
 10
395.1286228406092
 20
250.4582047233961
 30
0.0
 11
396.6355228406091
 21
250.6472047233961
 31
0.0
  0
LINE
  5
1DC
330
1F
100
AcDbEntity
  8
1
  6
Continuous
100
AcDbLine
 10
388.6576228406083
 20
251.0242047233959
 30
0.0
 11
390.1645228406091
 21
251.2132047233961
 31
0.0
  0
LINE
  5
1DD
330
1F
100
AcDbEntity
  8
1
  6
Continuous
100
AcDbLine
 10
395.1286228406092
 20
252.1842047233961
 30
0.0
 11
396.6355228406091
 21
252.3742047233961
 31
0.0
  0
LINE
  5
1DE
330
1F
100
AcDbEntity
  8
1
  6
Continuous
100
AcDbLine
 10
388.6576228406083
 20
252.7502047233961
 30
0.0
 11
390.1645228406091
 21
252.9402047233961
 31
0.0
  0
LINE
  5
1DF
330
1F
100
AcDbEntity
  8
1
  6
Continuous
100
AcDbLine
 10
395.1286228406092
 20
253.9112047233961
 30
0.0
 11
396.6355228406091
 21
254.1002047233962
 31
0.0
  0
LINE
  5
1E0
330
1F
100
AcDbEntity
  8
1
  6
Continuous
100
AcDbLine
 10
388.6576228406083
 20
254.4772047233962
 30
0.0
 11
390.1645228406091
 21
254.666204723396
 31
0.0
  0
LINE
  5
1E1
330
1F
100
AcDbEntity
  8
1
  6
Continuous
100
AcDbLine
 10
395.1286228406092
 20
255.637204723396
 30
0.0
 11
396.6355228406091
 21
255.8272047233961
 31
0.0
  0
LINE
  5
1E2
330
1F
100
AcDbEntity
  8
1
  6
Continuous
100
AcDbLine
 10
388.6576228406083
 20
256.204204723396
 30
0.0
 11
390.1645228406091
 21
256.3932047233961
 31
0.0
  0
LINE
  5
1E3
330
1F
100
AcDbEntity
  8
1
  6
Continuous
100
AcDbLine
 10
395.1286228406092
 20
257.3642047233961
 30
0.0
 11
396.6355228406091
 21
257.5532047233961
 31
0.0
  0
LINE
  5
1E4
330
1F
100
AcDbEntity
  8
1
  6
Continuous
100
AcDbLine
 10
388.6576228406083
 20
257.9302047233962
 30
0.0
 11
390.1645228406091
 21
258.1192047233962
 31
0.0
  0
LINE
  5
1E5
330
1F
100
AcDbEntity
  8
1
  6
Continuous
100
AcDbLine
 10
395.1286228406092
 20
259.091204723396
 30
0.0
 11
396.6355228406091
 21
259.2802047233961
 31
0.0
  0
LINE
  5
1E6
330
1F
100
AcDbEntity
  8
1
  6
Continuous
100
AcDbLine
 10
388.6576228406083
 20
259.6572047233962
 30
0.0
 11
390.1645228406091
 21
259.8462047233961
 31
0.0
  0
LINE
  5
1E7
330
1F
100
AcDbEntity
  8
1
  6
Continuous
100
AcDbLine
 10
388.5355228406092
 20
249.6292047233962
 30
0.0
 11
396.6355228406091
 21
248.9202047233962
 31
0.0
  0
LINE
  5
1E8
330
1F
100
AcDbEntity
  8
1
  6
Continuous
100
AcDbLine
 10
388.6576228406083
 20
251.0242047233959
 30
0.0
 11
396.7576228406082
 21
250.3152047233961
 31
0.0
  0
LINE
  5
1E9
330
1F
100
AcDbEntity
  8
1
  6
Continuous
100
AcDbLine
 10
388.5355228406092
 20
251.3562047233961
 30
0.0
 11
396.6355228406091
 21
250.6472047233961
 31
0.0
  0
LINE
  5
1EA
330
1F
100
AcDbEntity
  8
1
  6
Continuous
100
AcDbLine
 10
388.6576228406083
 20
252.7502047233961
 30
0.0
 11
396.7576228406082
 21
252.0422047233962
 31
0.0
  0
LINE
  5
1EB
330
1F
100
AcDbEntity
  8
1
  6
Continuous
100
AcDbLine
 10
388.5355228406092
 20
253.0822047233961
 30
0.0
 11
396.6355228406091
 21
252.3742047233961
 31
0.0
  0
LINE
  5
1EC
330
1F
100
AcDbEntity
  8
1
  6
Continuous
100
AcDbLine
 10
388.6576228406083
 20
254.4772047233962
 30
0.0
 11
396.7576228406082
 21
253.7682047233961
 31
0.0
  0
LINE
  5
1ED
330
1F
100
AcDbEntity
  8
1
  6
Continuous
100
AcDbLine
 10
388.5355228406092
 20
254.8092047233961
 30
0.0
 11
396.6355228406091
 21
254.1002047233962
 31
0.0
  0
LINE
  5
1EE
330
1F
100
AcDbEntity
  8
1
  6
Continuous
100
AcDbLine
 10
388.6576228406083
 20
256.204204723396
 30
0.0
 11
396.7576228406082
 21
255.495204723396
 31
0.0
  0
LINE
  5
1EF
330
1F
100
AcDbEntity
  8
1
  6
Continuous
100
AcDbLine
 10
388.5355228406092
 20
256.5352047233961
 30
0.0
 11
396.6355228406091
 21
255.8272047233961
 31
0.0
  0
LINE
  5
1F0
330
1F
100
AcDbEntity
  8
1
  6
Continuous
100
AcDbLine
 10
388.6576228406083
 20
257.9302047233962
 30
0.0
 11
396.7576228406082
 21
257.2212047233961
 31
0.0
  0
LINE
  5
1F1
330
1F
100
AcDbEntity
  8
1
  6
Continuous
100
AcDbLine
 10
388.5355228406092
 20
258.262204723396
 30
0.0
 11
396.6355228406091
 21
257.5532047233961
 31
0.0
  0
LINE
  5
1F2
330
1F
100
AcDbEntity
  8
1
  6
Continuous
100
AcDbLine
 10
388.6576228406083
 20
259.6572047233962
 30
0.0
 11
396.7576228406082
 21
258.9482047233962
 31
0.0
  0
LINE
  5
1F3
330
1F
100
AcDbEntity
  8
1
  6
Continuous
100
AcDbLine
 10
388.5355228406092
 20
259.9892047233961
 30
0.0
 11
396.6355228406091
 21
259.2802047233961
 31
0.0
  0
LINE
  5
1F4
330
1F
100
AcDbEntity
  8
1
  6
Continuous
100
AcDbLine
 10
388.6576228406083
 20
261.3832047233961
 30
0.0
 11
396.7576228406082
 21
260.675204723396
 31
0.0
  0
LINE
  5
1F5
330
1F
100
AcDbEntity
  8
1
  6
Continuous
100
AcDbLine
 10
423.1286228406092
 20
250.4582047233961
 30
0.0
 11
424.6355228406091
 21
250.6472047233961
 31
0.0
  0
LINE
  5
1F6
330
1F
100
AcDbEntity
  8
1
  6
Continuous
100
AcDbLine
 10
416.6576228406083
 20
251.0242047233959
 30
0.0
 11
418.1645228406091
 21
251.2132047233961
 31
0.0
  0
LINE
  5
1F7
330
1F
100
AcDbEntity
  8
1
  6
Continuous
100
AcDbLine
 10
423.1286228406092
 20
252.1842047233961
 30
0.0
 11
424.6355228406091
 21
252.3742047233961
 31
0.0
  0
LINE
  5
1F8
330
1F
100
AcDbEntity
  8
1
  6
Continuous
100
AcDbLine
 10
416.6576228406083
 20
252.7502047233961
 30
0.0
 11
418.1645228406091
 21
252.9402047233961
 31
0.0
  0
LINE
  5
1F9
330
1F
100
AcDbEntity
  8
1
  6
Continuous
100
AcDbLine
 10
423.1286228406092
 20
253.9112047233961
 30
0.0
 11
424.6355228406091
 21
254.1002047233962
 31
0.0
  0
LINE
  5
1FA
330
1F
100
AcDbEntity
  8
1
  6
Continuous
100
AcDbLine
 10
416.6576228406083
 20
254.4772047233962
 30
0.0
 11
418.1645228406091
 21
254.666204723396
 31
0.0
  0
LINE
  5
1FB
330
1F
100
AcDbEntity
  8
1
  6
Continuous
100
AcDbLine
 10
423.1286228406092
 20
255.637204723396
 30
0.0
 11
424.6355228406091
 21
255.8272047233961
 31
0.0
  0
LINE
  5
1FC
330
1F
100
AcDbEntity
  8
1
  6
Continuous
100
AcDbLine
 10
416.6576228406083
 20
256.204204723396
 30
0.0
 11
418.1645228406091
 21
256.3932047233961
 31
0.0
  0
LINE
  5
1FD
330
1F
100
AcDbEntity
  8
1
  6
Continuous
100
AcDbLine
 10
423.1286228406092
 20
257.3642047233961
 30
0.0
 11
424.6355228406091
 21
257.5532047233961
 31
0.0
  0
LINE
  5
1FE
330
1F
100
AcDbEntity
  8
1
  6
Continuous
100
AcDbLine
 10
416.6576228406083
 20
257.9302047233962
 30
0.0
 11
418.1645228406091
 21
258.1192047233962
 31
0.0
  0
LINE
  5
1FF
330
1F
100
AcDbEntity
  8
1
  6
Continuous
100
AcDbLine
 10
423.1286228406092
 20
259.091204723396
 30
0.0
 11
424.6355228406091
 21
259.2802047233961
 31
0.0
  0
LINE
  5
200
330
1F
100
AcDbEntity
  8
1
  6
Continuous
100
AcDbLine
 10
416.6576228406083
 20
259.6572047233962
 30
0.0
 11
418.1645228406091
 21
259.8462047233961
 31
0.0
  0
LINE
  5
201
330
1F
100
AcDbEntity
  8
1
  6
Continuous
100
AcDbLine
 10
416.5355228406092
 20
249.6292047233962
 30
0.0
 11
424.6355228406091
 21
248.9202047233962
 31
0.0
  0
LINE
  5
202
330
1F
100
AcDbEntity
  8
1
  6
Continuous
100
AcDbLine
 10
416.6576228406083
 20
251.0242047233959
 30
0.0
 11
424.7576228406082
 21
250.3152047233961
 31
0.0
  0
LINE
  5
203
330
1F
100
AcDbEntity
  8
1
  6
Continuous
100
AcDbLine
 10
416.5355228406092
 20
251.3562047233961
 30
0.0
 11
424.6355228406091
 21
250.6472047233961
 31
0.0
  0
LINE
  5
204
330
1F
100
AcDbEntity
  8
1
  6
Continuous
100
AcDbLine
 10
416.6576228406083
 20
252.7502047233961
 30
0.0
 11
424.7576228406082
 21
252.0422047233962
 31
0.0
  0
LINE
  5
205
330
1F
100
AcDbEntity
  8
1
  6
Continuous
100
AcDbLine
 10
416.5355228406092
 20
253.0822047233961
 30
0.0
 11
424.6355228406091
 21
252.3742047233961
 31
0.0
  0
LINE
  5
206
330
1F
100
AcDbEntity
  8
1
  6
Continuous
100
AcDbLine
 10
416.6576228406083
 20
254.4772047233962
 30
0.0
 11
424.7576228406082
 21
253.7682047233961
 31
0.0
  0
LINE
  5
207
330
1F
100
AcDbEntity
  8
1
  6
Continuous
100
AcDbLine
 10
416.5355228406092
 20
254.8092047233961
 30
0.0
 11
424.6355228406091
 21
254.1002047233962
 31
0.0
  0
LINE
  5
208
330
1F
100
AcDbEntity
  8
1
  6
Continuous
100
AcDbLine
 10
416.6576228406083
 20
256.204204723396
 30
0.0
 11
424.7576228406082
 21
255.495204723396
 31
0.0
  0
LINE
  5
209
330
1F
100
AcDbEntity
  8
1
  6
Continuous
100
AcDbLine
 10
416.5355228406092
 20
256.5352047233961
 30
0.0
 11
424.6355228406091
 21
255.8272047233961
 31
0.0
  0
LINE
  5
20A
330
1F
100
AcDbEntity
  8
1
  6
Continuous
100
AcDbLine
 10
416.6576228406083
 20
257.9302047233962
 30
0.0
 11
424.7576228406082
 21
257.2212047233961
 31
0.0
  0
LINE
  5
20B
330
1F
100
AcDbEntity
  8
1
  6
Continuous
100
AcDbLine
 10
416.5355228406092
 20
258.262204723396
 30
0.0
 11
424.6355228406091
 21
257.5532047233961
 31
0.0
  0
LINE
  5
20C
330
1F
100
AcDbEntity
  8
1
  6
Continuous
100
AcDbLine
 10
416.6576228406083
 20
259.6572047233962
 30
0.0
 11
424.7576228406082
 21
258.9482047233962
 31
0.0
  0
LINE
  5
20D
330
1F
100
AcDbEntity
  8
1
  6
Continuous
100
AcDbLine
 10
416.5355228406092
 20
259.9892047233961
 30
0.0
 11
424.6355228406091
 21
259.2802047233961
 31
0.0
  0
LINE
  5
20E
330
1F
100
AcDbEntity
  8
1
  6
Continuous
100
AcDbLine
 10
416.6576228406083
 20
261.3832047233961
 30
0.0
 11
424.7576228406082
 21
260.675204723396
 31
0.0
  0
LINE
  5
20F
330
1F
100
AcDbEntity
  8
1
  6
Continuous
100
AcDbLine
 10
395.1466228406093
 20
236.289204723396
 30
0.0
 11
396.1466228406093
 21
236.289204723396
 31
0.0
  0
LINE
  5
210
330
1F
100
AcDbEntity
  8
1
  6
Continuous
100
AcDbLine
 10
395.1466228406093
 20
238.4892047233961
 30
0.0
 11
396.1466228406093
 21
238.4892047233961
 31
0.0
  0
LINE
  5
211
330
1F
100
AcDbEntity
  8
1
  6
Continuous
100
AcDbLine
 10
417.1466228406093
 20
238.4892047233961
 30
0.0
 11
418.1466228406093
 21
238.4892047233961
 31
0.0
  0
LINE
  5
212
330
1F
100
AcDbEntity
  8
1
  6
Continuous
100
AcDbLine
 10
417.1466228406093
 20
236.289204723396
 30
0.0
 11
418.1466228406093
 21
236.289204723396
 31
0.0
  0
LINE
  5
213
330
1F
100
AcDbEntity
  8
1
  6
Continuous
100
AcDbLine
 10
395.1466228406093
 20
236.289204723396
 30
0.0
 11
395.1466228406093
 21
238.4892047233961
 31
0.0
  0
LINE
  5
214
330
1F
100
AcDbEntity
  8
1
  6
Continuous
100
AcDbLine
 10
418.1466228406093
 20
236.289204723396
 30
0.0
 11
418.1466228406093
 21
238.4892047233961
 31
0.0
  0
LINE
  5
215
330
1F
100
AcDbEntity
  8
1
  6
Continuous
100
AcDbLine
 10
397.6466228406093
 20
235.889204723396
 30
0.0
 11
398.3966228406093
 21
235.889204723396
 31
0.0
  0
LINE
  5
216
330
1F
100
AcDbEntity
  8
1
  6
Continuous
100
AcDbLine
 10
397.6466228406093
 20
238.889204723396
 30
0.0
 11
398.3966228406093
 21
238.889204723396
 31
0.0
  0
LINE
  5
217
330
1F
100
AcDbEntity
  8
1
  6
Continuous
100
AcDbLine
 10
414.8966228406093
 20
238.889204723396
 30
0.0
 11
415.6466228406093
 21
238.889204723396
 31
0.0
  0
LINE
  5
218
330
1F
100
AcDbEntity
  8
1
  6
Continuous
100
AcDbLine
 10
414.8966228406093
 20
235.889204723396
 30
0.0
 11
415.6466228406093
 21
235.889204723396
 31
0.0
  0
LINE
  5
219
330
1F
100
AcDbEntity
  8
1
  6
Continuous
100
AcDbLine
 10
392.6466228406093
 20
264.389204723396
 30
0.0
 11
394.1466228406093
 21
264.389204723396
 31
0.0
  0
LINE
  5
21A
330
1F
100
AcDbEntity
  8
1
  6
Continuous
100
AcDbLine
 10
419.1466228406093
 20
264.389204723396
 30
0.0
 11
420.6466228406093
 21
264.389204723396
 31
0.0
  0
LINE
  5
21B
330
1F
100
AcDbEntity
  8
1
  6
Continuous
100
AcDbLine
 10
398.3966228406093
 20
233.389204723396
 30
0.0
 11
399.3966228406093
 21
233.389204723396
 31
0.0
  0
LINE
  5
21C
330
1F
100
AcDbEntity
  8
1
  6
Continuous
100
AcDbLine
 10
401.3966228406093
 20
233.389204723396
 30
0.0
 11
411.8966228406093
 21
233.389204723396
 31
0.0
  0
LINE
  5
21D
330
1F
100
AcDbEntity
  8
1
  6
Continuous
100
AcDbLine
 10
398.3966228406093
 20
256.389204723396
 30
0.0
 11
398.8966228406093
 21
256.389204723396
 31
0.0
  0
LINE
  5
21E
330
1F
100
AcDbEntity
  8
1
  6
Continuous
100
AcDbLine
 10
399.8966228406093
 20
256.389204723396
 30
0.0
 11
413.3966228406093
 21
256.389204723396
 31
0.0
  0
LINE
  5
21F
330
1F
100
AcDbEntity
  8
1
  6
Continuous
100
AcDbLine
 10
398.8966228406093
 20
256.389204723396
 30
0.0
 11
398.8966228406093
 21
257.889204723396
 31
0.0
  0
LINE
  5
220
330
1F
100
AcDbEntity
  8
1
  6
Continuous
100
AcDbLine
 10
414.3966228406093
 20
256.389204723396
 30
0.0
 11
414.3966228406093
 21
257.889204723396
 31
0.0
  0
LINE
  5
221
330
1F
100
AcDbEntity
  8
1
  6
Continuous
100
AcDbLine
 10
414.3966228406093
 20
256.389204723396
 30
0.0
 11
414.8966228406093
 21
256.389204723396
 31
0.0
  0
LINE
  5
222
330
1F
100
AcDbEntity
  8
1
  6
Continuous
100
AcDbLine
 10
398.3966228406093
 20
233.389204723396
 30
0.0
 11
398.3966228406093
 21
256.389204723396
 31
0.0
  0
LINE
  5
223
330
1F
100
AcDbEntity
  8
1
  6
Continuous
100
AcDbLine
 10
414.8966228406093
 20
233.389204723396
 30
0.0
 11
414.8966228406093
 21
256.389204723396
 31
0.0
  0
LINE
  5
224
330
1F
100
AcDbEntity
  8
1
  6
Continuous
100
AcDbLine
 10
398.8966228406093
 20
257.889204723396
 30
0.0
 11
414.3966228406093
 21
257.889204723396
 31
0.0
  0
LINE
  5
225
330
1F
100
AcDbEntity
  8
1
  6
Continuous
100
AcDbLine
 10
400.3966228406093
 20
224.139204723396
 30
0.0
 11
400.3966228406093
 21
232.389204723396
 31
0.0
  0
LINE
  5
226
330
1F
100
AcDbEntity
  8
1
  6
Continuous
100
AcDbLine
 10
412.8966228406093
 20
224.139204723396
 30
0.0
 11
412.8966228406093
 21
232.389204723396
 31
0.0
  0
LINE
  5
227
330
1F
100
AcDbEntity
  8
1
  6
Continuous
100
AcDbLine
 10
413.8966228406093
 20
233.389204723396
 30
0.0
 11
414.8966228406093
 21
233.389204723396
 31
0.0
  0
LINE
  5
228
330
1F
100
AcDbEntity
  8
1
  6
Continuous
100
AcDbLine
 10
417.1466228406093
 20
269.389204723396
 30
0.0
 11
417.1466228406093
 21
275.389204723396
 31
0.0
  0
LINE
  5
229
330
1F
100
AcDbEntity
  8
1
  6
Continuous
100
AcDbLine
 10
417.1466228406093
 20
234.389204723396
 30
0.0
 11
415.6466228406093
 21
234.389204723396
 31
0.0
  0
LINE
  5
22A
330
1F
100
AcDbEntity
  8
1
  6
Continuous
100
AcDbLine
 10
420.6466228406093
 20
261.389204723396
 30
0.0
 11
419.1466228406093
 21
261.389204723396
 31
0.0
  0
LINE
  5
22B
330
1F
100
AcDbEntity
  8
1
  6
Continuous
100
AcDbLine
 10
419.1466228406093
 20
261.1652047233961
 30
0.0
 11
419.1466228406093
 21
264.389204723396
 31
0.0
  0
LINE
  5
22C
330
1F
100
AcDbEntity
  8
1
  6
Continuous
100
AcDbLine
 10
422.1466228406093
 20
248.889204723396
 30
0.0
 11
420.6466228406093
 21
248.889204723396
 31
0.0
  0
LINE
  5
22D
330
1F
100
AcDbEntity
  8
1
  6
Continuous
100
AcDbLine
 10
420.6466228406093
 20
269.389204723396
 30
0.0
 11
417.1466228406093
 21
269.389204723396
 31
0.0
  0
LINE
  5
22E
330
1F
100
AcDbEntity
  8
1
  6
Continuous
100
AcDbLine
 10
420.6466228406093
 20
261.0342047233961
 30
0.0
 11
420.6466228406093
 21
267.8892047233962
 31
0.0
  0
LINE
  5
22F
330
1F
100
AcDbEntity
  8
1
  6
Continuous
100
AcDbLine
 10
422.1466228406093
 20
245.889204723396
 30
0.0
 11
420.6466228406093
 21
245.889204723396
 31
0.0
  0
LINE
  5
230
330
1F
100
AcDbEntity
  8
1
  6
Continuous
100
AcDbLine
 10
420.6466228406093
 20
267.8892047233962
 30
0.0
 11
417.1466228406093
 21
267.889204723396
 31
0.0
  0
LINE
  5
231
330
1F
100
AcDbEntity
  8
1
  6
Continuous
100
AcDbLine
 10
422.1466228406093
 20
260.9032047233961
 30
0.0
 11
422.1466228406093
 21
267.889204723396
 31
0.0
  0
LINE
  5
232
330
1F
100
AcDbEntity
  8
1
  6
Continuous
100
AcDbLine
 10
416.2146228406095
 20
241.5642047233963
 30
0.0
 11
419.1465228406082
 21
243.889204723396
 31
0.0
  0
LINE
  5
233
330
1F
100
AcDbEntity
  8
1
  6
Continuous
100
AcDbLine
 10
417.1466228406093
 20
275.389204723396
 30
0.0
 11
415.6466228406093
 21
275.389204723396
 31
0.0
  0
LINE
  5
234
330
1F
100
AcDbEntity
  8
1
  6
Continuous
100
AcDbLine
 10
417.1466228406093
 20
234.389204723396
 30
0.0
 11
417.1466228406093
 21
240.389204723396
 31
0.0
  0
LINE
  5
235
330
1F
100
AcDbEntity
  8
1
  6
Continuous
100
AcDbLine
 10
420.0785228406084
 20
242.7132047233961
 30
0.0
 11
417.1465228406082
 21
240.389204723396
 31
0.0
  0
LINE
  5
236
330
1F
100
AcDbEntity
  8
1
  6
Continuous
100
AcDbLine
 10
415.6466228406093
 20
234.389204723396
 30
0.0
 11
415.6466228406093
 21
240.389204723396
 31
0.0
  0
LINE
  5
237
330
1F
100
AcDbEntity
  8
1
  6
Continuous
100
AcDbLine
 10
415.6466228406093
 20
269.389204723396
 30
0.0
 11
415.6466228406093
 21
275.389204723396
 31
0.0
  0
LINE
  5
238
330
1F
100
AcDbEntity
  8
1
  6
Continuous
100
AcDbLine
 10
397.6466228406093
 20
234.389204723396
 30
0.0
 11
397.6466228406093
 21
240.389204723396
 31
0.0
  0
LINE
  5
239
330
1F
100
AcDbEntity
  8
1
  6
Continuous
100
AcDbLine
 10
396.1466228406093
 20
269.389204723396
 30
0.0
 11
396.1466228406093
 21
275.389204723396
 31
0.0
  0
LINE
  5
23A
330
1F
100
AcDbEntity
  8
1
  6
Continuous
100
AcDbLine
 10
393.2146228406095
 20
242.7132047233961
 30
0.0
 11
396.1466228406093
 21
240.389204723396
 31
0.0
  0
LINE
  5
23B
330
1F
100
AcDbEntity
  8
1
  6
Continuous
100
AcDbLine
 10
397.0785228406084
 20
241.5642047233963
 30
0.0
 11
394.1466228406093
 21
243.889204723396
 31
0.0
  0
LINE
  5
23C
330
1F
100
AcDbEntity
  8
1
  6
Continuous
100
AcDbLine
 10
396.1466228406093
 20
234.389204723396
 30
0.0
 11
397.6466228406093
 21
234.389204723396
 31
0.0
  0
LINE
  5
23D
330
1F
100
AcDbEntity
  8
1
  6
Continuous
100
AcDbLine
 10
392.6466228406093
 20
261.389204723396
 30
0.0
 11
394.1466228406093
 21
261.389204723396
 31
0.0
  0
LINE
  5
23E
330
1F
100
AcDbEntity
  8
1
  6
Continuous
100
AcDbLine
 10
394.1466228406093
 20
260.9032047233961
 30
0.0
 11
394.1466228406093
 21
264.389204723396
 31
0.0
  0
LINE
  5
23F
330
1F
100
AcDbEntity
  8
1
  6
Continuous
100
AcDbLine
 10
391.1466228406093
 20
248.889204723396
 30
0.0
 11
392.6466228406093
 21
248.889204723396
 31
0.0
  0
LINE
  5
240
330
1F
100
AcDbEntity
  8
1
  6
Continuous
100
AcDbLine
 10
392.6466228406093
 20
269.389204723396
 30
0.0
 11
396.1466228406093
 21
269.389204723396
 31
0.0
  0
LINE
  5
241
330
1F
100
AcDbEntity
  8
1
  6
Continuous
100
AcDbLine
 10
392.6466228406093
 20
261.0342047233961
 30
0.0
 11
392.6466228406093
 21
267.8892047233962
 31
0.0
  0
LINE
  5
242
330
1F
100
AcDbEntity
  8
4
  6
DASH_CENTER
100
AcDbLine
 10
392.1466228406093
 20
237.389204723396
 30
0.0
 11
421.1466228406093
 21
237.389204723396
 31
0.0
  0
LINE
  5
243
330
1F
100
AcDbEntity
  8
1
  6
Continuous
100
AcDbLine
 10
391.1466228406093
 20
245.889204723396
 30
0.0
 11
392.6466228406093
 21
245.889204723396
 31
0.0
  0
LINE
  5
244
330
1F
100
AcDbEntity
  8
1
  6
Continuous
100
AcDbLine
 10
392.6466228406093
 20
267.8892047233962
 30
0.0
 11
396.1466228406093
 21
267.889204723396
 31
0.0
  0
LINE
  5
245
330
1F
100
AcDbEntity
  8
1
  6
Continuous
100
AcDbLine
 10
391.1466228406093
 20
261.1652047233961
 30
0.0
 11
391.1466228406093
 21
267.889204723396
 31
0.0
  0
LINE
  5
246
330
1F
100
AcDbEntity
  8
1
  6
Continuous
100
AcDbLine
 10
395.1466228406093
 20
271.789204723396
 30
0.0
 11
396.1466228406093
 21
271.789204723396
 31
0.0
  0
LINE
  5
247
330
1F
100
AcDbEntity
  8
1
  6
Continuous
100
AcDbLine
 10
395.1466228406093
 20
273.9892047233961
 30
0.0
 11
396.1466228406093
 21
273.9892047233961
 31
0.0
  0
LINE
  5
248
330
1F
100
AcDbEntity
  8
1
  6
Continuous
100
AcDbLine
 10
417.1466228406093
 20
273.9892047233961
 30
0.0
 11
418.1466228406093
 21
273.9892047233961
 31
0.0
  0
LINE
  5
249
330
1F
100
AcDbEntity
  8
1
  6
Continuous
100
AcDbLine
 10
417.1466228406093
 20
271.789204723396
 30
0.0
 11
418.1466228406093
 21
271.789204723396
 31
0.0
  0
LINE
  5
24A
330
1F
100
AcDbEntity
  8
1
  6
Continuous
100
AcDbLine
 10
396.1466228406093
 20
275.389204723396
 30
0.0
 11
397.6466228406093
 21
275.389204723396
 31
0.0
  0
LINE
  5
24B
330
1F
100
AcDbEntity
  8
1
  6
Continuous
100
AcDbLine
 10
396.1466228406093
 20
234.389204723396
 30
0.0
 11
396.1466228406093
 21
240.389204723396
 31
0.0
  0
LINE
  5
24C
330
1F
100
AcDbEntity
  8
1
  6
Continuous
100
AcDbLine
 10
418.1466228406093
 20
271.789204723396
 30
0.0
 11
418.1466228406093
 21
273.9892047233961
 31
0.0
  0
LINE
  5
24D
330
1F
100
AcDbEntity
  8
1
  6
Continuous
100
AcDbLine
 10
395.1466228406093
 20
271.789204723396
 30
0.0
 11
395.1466228406093
 21
273.9892047233961
 31
0.0
  0
LINE
  5
24E
330
1F
100
AcDbEntity
  8
1
  6
Continuous
100
AcDbLine
 10
414.1466228406093
 20
271.389204723396
 30
0.0
 11
415.6466228406093
 21
271.389204723396
 31
0.0
  0
LINE
  5
24F
330
1F
100
AcDbEntity
  8
1
  6
Continuous
100
AcDbLine
 10
414.146622840609
 20
274.389204723396
 30
0.0
 11
415.6466228406093
 21
274.389204723396
 31
0.0
  0
LINE
  5
250
330
1F
100
AcDbEntity
  8
4
  6
DASH_CENTER
100
AcDbLine
 10
406.6466228406093
 20
212.889204723396
 30
0.0
 11
406.6466228406093
 21
279.389204723396
 31
0.0
  0
LINE
  5
251
330
1F
100
AcDbEntity
  8
1
  6
Continuous
100
AcDbLine
 10
397.6466228406093
 20
269.389204723396
 30
0.0
 11
397.6466228406093
 21
275.389204723396
 31
0.0
  0
LINE
  5
252
330
1F
100
AcDbEntity
  8
1
  6
Continuous
100
AcDbLine
 10
413.3966228406093
 20
706.3527020160283
 30
0.0
 11
399.8966228406093
 21
706.3527020160283
 31
0.0
  0
LINE
  5
253
330
1F
100
AcDbEntity
  8
1
  6
Continuous
100
AcDbLine
 10
418.1466228406093
 20
694.7527020160281
 30
0.0
 11
417.1466228406093
 21
694.7527020160281
 31
0.0
  0
LINE
  5
254
330
1F
100
AcDbEntity
  8
1
  6
Continuous
100
AcDbLine
 10
418.1466228406093
 20
696.9527020160282
 30
0.0
 11
417.1466228406093
 21
696.9527020160282
 31
0.0
  0
LINE
  5
255
330
1F
100
AcDbEntity
  8
4
  6
DASH_CENTER
100
AcDbLine
 10
421.1466228406093
 20
695.8527020160283
 30
0.0
 11
392.1466228406093
 21
695.8527020160283
 31
0.0
  0
LINE
  5
256
330
1F
100
AcDbEntity
  8
4
  6
DASH_CENTER
100
AcDbLine
 10
406.6466228406093
 20
709.3527020160283
 30
0.0
 11
406.6466228406093
 21
688.3527020160285
 31
0.0
  0
LINE
  5
257
330
1F
100
AcDbEntity
  8
1
  6
Continuous
100
AcDbLine
 10
397.6466228406093
 20
700.3527020160283
 30
0.0
 11
397.6466228406093
 21
693.3527020160285
 31
0.0
  0
LINE
  5
258
330
1F
100
AcDbEntity
  8
1
  6
Continuous
100
AcDbLine
 10
415.6466228406093
 20
700.3527020160283
 30
0.0
 11
415.6466228406093
 21
693.3527020160285
 31
0.0
  0
LINE
  5
259
330
1F
100
AcDbEntity
  8
1
  6
Continuous
100
AcDbLine
 10
396.1466228406093
 20
700.3527020160283
 30
0.0
 11
396.1466228406093
 21
693.3527020160285
 31
0.0
  0
LINE
  5
25A
330
1F
100
AcDbEntity
  8
1
  6
Continuous
100
AcDbLine
 10
417.1466228406093
 20
700.3527020160283
 30
0.0
 11
417.1466228406093
 21
693.3527020160285
 31
0.0
  0
LINE
  5
25B
330
1F
100
AcDbEntity
  8
1
  6
Continuous
100
AcDbLine
 10
418.1466228406093
 20
696.9527020160282
 30
0.0
 11
418.1466228406093
 21
694.7527020160281
 31
0.0
  0
LINE
  5
25C
330
1F
100
AcDbEntity
  8
1
  6
Continuous
100
AcDbLine
 10
395.1466228406093
 20
696.9527020160282
 30
0.0
 11
395.1466228406093
 21
694.7527020160281
 31
0.0
  0
LINE
  5
25D
330
1F
100
AcDbEntity
  8
1
  6
Continuous
100
AcDbLine
 10
396.1466228406093
 20
696.9527020160282
 30
0.0
 11
395.1466228406093
 21
696.9527020160282
 31
0.0
  0
LINE
  5
25E
330
1F
100
AcDbEntity
  8
1
  6
Continuous
100
AcDbLine
 10
396.1466228406093
 20
694.7527020160281
 30
0.0
 11
395.1466228406093
 21
694.7527020160281
 31
0.0
  0
LINE
  5
25F
330
1F
100
AcDbEntity
  8
1
  6
Continuous
100
AcDbLine
 10
415.6466228406093
 20
697.3527020160283
 30
0.0
 11
397.6466228406093
 21
697.3527020160283
 31
0.0
  0
LINE
  5
260
330
1F
100
AcDbEntity
  8
1
  6
Continuous
100
AcDbLine
 10
398.3966228406093
 20
704.8527020160283
 30
0.0
 11
398.3966228406093
 21
697.3527020160283
 31
0.0
  0
LINE
  5
261
330
1F
100
AcDbEntity
  8
1
  6
Continuous
100
AcDbLine
 10
414.8966228406093
 20
704.8527020160283
 30
0.0
 11
414.8966228406093
 21
697.3527020160283
 31
0.0
  0
LINE
  5
262
330
1F
100
AcDbEntity
  8
1
  6
Continuous
100
AcDbLine
 10
422.1466228406093
 20
702.6027020160283
 30
0.0
 11
422.1466228406093
 21
702.3597020160283
 31
0.0
  0
LINE
  5
263
330
1F
100
AcDbEntity
  8
1
  6
Continuous
100
AcDbLine
 10
391.1466228406093
 20
702.6027020160283
 30
0.0
 11
391.1466228406093
 21
702.3597020160283
 31
0.0
  0
LINE
  5
264
330
1F
100
AcDbEntity
  8
1
  6
Continuous
100
AcDbLine
 10
392.6466228406093
 20
702.6027020160283
 30
0.0
 11
392.6466228406093
 21
700.3527020160283
 31
0.0
  0
LINE
  5
265
330
1F
100
AcDbEntity
  8
1
  6
Continuous
100
AcDbLine
 10
394.1466228406093
 20
702.6027020160283
 30
0.0
 11
394.1466228406093
 21
700.3527020160283
 31
0.0
  0
LINE
  5
266
330
1F
100
AcDbEntity
  8
1
  6
Continuous
100
AcDbLine
 10
422.1466228406093
 20
695.3527020160283
 30
0.0
 11
418.1466228406093
 21
695.3527020160283
 31
0.0
  0
LINE
  5
267
330
1F
100
AcDbEntity
  8
1
  6
Continuous
100
AcDbLine
 10
422.1466228406093
 20
700.3527020160283
 30
0.0
 11
415.6466228406093
 21
700.3527020160283
 31
0.0
  0
LINE
  5
268
330
1F
100
AcDbEntity
  8
1
  6
Continuous
100
AcDbLine
 10
420.6466228406093
 20
702.6027020160283
 30
0.0
 11
420.6466228406093
 21
700.3527020160283
 31
0.0
  0
LINE
  5
269
330
1F
100
AcDbEntity
  8
1
  6
Continuous
100
AcDbLine
 10
419.1466228406093
 20
702.6027020160283
 30
0.0
 11
419.1466228406093
 21
700.3527020160283
 31
0.0
  0
LINE
  5
26A
330
1F
100
AcDbEntity
  8
1
  6
Continuous
100
AcDbLine
 10
422.1466228406093
 20
702.6027020160283
 30
0.0
 11
419.1466228406093
 21
702.6027020160283
 31
0.0
  0
LINE
  5
26B
330
1F
100
AcDbEntity
  8
1
  6
Continuous
100
AcDbLine
 10
422.1466228406093
 20
693.1027020160285
 30
0.0
 11
419.1466228406093
 21
693.1027020160285
 31
0.0
  0
LINE
  5
26C
330
1F
100
AcDbEntity
  8
1
  6
Continuous
100
AcDbLine
 10
394.1466228406093
 20
702.6027020160283
 30
0.0
 11
391.1466228406093
 21
702.6027020160283
 31
0.0
  0
LINE
  5
26D
330
1F
100
AcDbEntity
  8
1
  6
Continuous
100
AcDbLine
 10
394.1466228406093
 20
693.1027020160285
 30
0.0
 11
391.1466228406093
 21
693.1027020160285
 31
0.0
  0
LINE
  5
26E
330
1F
100
AcDbEntity
  8
1
  6
Continuous
100
AcDbLine
 10
397.6466228406093
 20
700.3527020160283
 30
0.0
 11
391.1466228406093
 21
700.3527020160283
 31
0.0
  0
LINE
  5
26F
330
1F
100
AcDbEntity
  8
1
  6
Continuous
100
AcDbLine
 10
395.1466228406093
 20
695.3527020160283
 30
0.0
 11
391.1466228406093
 21
695.3527020160283
 31
0.0
  0
LINE
  5
270
330
1F
100
AcDbEntity
  8
1
  6
Continuous
100
AcDbLine
 10
419.1466228406093
 20
695.3527020160283
 30
0.0
 11
419.1466228406093
 21
693.1027020160285
 31
0.0
  0
LINE
  5
271
330
1F
100
AcDbEntity
  8
1
  6
Continuous
100
AcDbLine
 10
420.6466228406093
 20
695.3527020160283
 30
0.0
 11
420.6466228406093
 21
693.1027020160285
 31
0.0
  0
LINE
  5
272
330
1F
100
AcDbEntity
  8
1
  6
Continuous
100
AcDbLine
 10
392.6466228406093
 20
695.3527020160283
 30
0.0
 11
392.6466228406093
 21
693.1027020160285
 31
0.0
  0
LINE
  5
273
330
1F
100
AcDbEntity
  8
1
  6
Continuous
100
AcDbLine
 10
394.1466228406093
 20
695.3527020160283
 30
0.0
 11
394.1466228406093
 21
693.1027020160285
 31
0.0
  0
LINE
  5
274
330
1F
100
AcDbEntity
  8
1
  6
Continuous
100
AcDbLine
 10
422.1466228406093
 20
700.8487020160284
 30
0.0
 11
422.1466228406093
 21
694.8577020160284
 31
0.0
  0
LINE
  5
275
330
1F
100
AcDbEntity
  8
1
  6
Continuous
100
AcDbLine
 10
422.1466228406093
 20
693.3467020160282
 30
0.0
 11
422.1466228406093
 21
693.1027020160285
 31
0.0
  0
LINE
  5
276
330
1F
100
AcDbEntity
  8
1
  6
Continuous
100
AcDbLine
 10
391.1466228406093
 20
700.8487020160284
 30
0.0
 11
391.1466228406093
 21
694.8577020160284
 31
0.0
  0
LINE
  5
277
330
1F
100
AcDbEntity
  8
1
  6
Continuous
100
AcDbLine
 10
391.1466228406093
 20
693.3457020160284
 30
0.0
 11
391.1466228406093
 21
693.1027020160285
 31
0.0
  0
LINE
  5
278
330
1F
100
AcDbEntity
  8
1
  6
Continuous
100
AcDbLine
 10
415.6466228406093
 20
694.3527020160285
 30
0.0
 11
397.6466228406093
 21
694.3527020160283
 31
0.0
  0
LINE
  5
279
330
1F
100
AcDbEntity
  8
1
  6
Continuous
100
AcDbLine
 10
417.1466228406093
 20
693.3527020160285
 30
0.0
 11
415.6466228406093
 21
693.3527020160285
 31
0.0
  0
LINE
  5
27A
330
1F
100
AcDbEntity
  8
1
  6
Continuous
100
AcDbLine
 10
397.6466228406093
 20
693.3527020160285
 30
0.0
 11
396.1466228406093
 21
693.3527020160285
 31
0.0
  0
LINE
  5
27B
330
1F
100
AcDbEntity
  8
4
  6
DASH_CENTER
100
AcDbLine
 10
392.1466228406093
 20
272.889204723396
 30
0.0
 11
421.1466228406093
 21
272.889204723396
 31
0.0
  0
LINE
  5
27C
330
1F
100
AcDbEntity
  8
1
  6
Continuous
100
AcDbLine
 10
397.6466228406093
 20
271.389204723396
 30
0.0
 11
399.1466228406093
 21
271.389204723396
 31
0.0
  0
LINE
  5
27D
330
1F
100
AcDbEntity
  8
1
  6
Continuous
100
AcDbLine
 10
397.6466228406093
 20
274.389204723396
 30
0.0
 11
399.146622840609
 21
274.389204723396
 31
0.0
  0
LINE
  5
27E
330
1F
100
AcDbEntity
  8
0
  6
DASHED
 62
     4
100
AcDbLine
 10
396.6797853309481
 20
180.0394201266994
 30
0.0
 11
430.1797853309481
 21
180.0394201266994
 31
0.0
  0
LINE
  5
27F
330
1F
100
AcDbEntity
  8
0
  6
DASHED
 62
     4
100
AcDbLine
 10
363.4797733309483
 20
180.0394351266993
 30
0.0
 11
396.6797853309481
 21
180.0394201266994
 31
0.0
  0
LINE
  5
280
330
1F
100
AcDbEntity
  8
0
  6
DASHED
 62
     4
100
AcDbLine
 10
356.6797853309481
 20
253.2394471266993
 30
0.0
 11
356.6797853309481
 21
186.8394381266994
 31
0.0
  0
LINE
  5
281
330
1F
100
AcDbEntity
  8
0
  6
DASHED
 62
     4
100
AcDbLine
 10
396.6797853309481
 20
260.0394201266994
 30
0.0
 11
363.4797733309483
 21
260.0394351266993
 31
0.0
  0
LINE
  5
282
330
1F
100
AcDbEntity
  8
0
  6
DASH_CENTER
 62
     3
100
AcDbLine
 10
366.7607793309484
 20
190.1204061266992
 30
0.0
 11
359.9501713309482
 21
183.3097981266992
 31
0.0
  0
LINE
  5
283
330
1F
100
AcDbEntity
  8
0
  6
DASH_CENTER
 62
     3
100
AcDbLine
 10
366.7721773309472
 20
249.9470131266994
 30
0.0
 11
360.1007443309481
 21
256.6184611266994
 31
0.0
  0
LINE
  5
284
330
1F
100
AcDbEntity
  8
0
  6
DASHED
 62
     4
100
AcDbLine
 10
413.6107853309481
 20
180.0394201266994
 30
0.0
 11
413.6107853309481
 21
179.3394201266994
 31
0.0
  0
LINE
  5
285
330
1F
100
AcDbEntity
  8
0
  6
DASHED
 62
     4
100
AcDbLine
 10
420.1107853309481
 20
180.0394201266994
 30
0.0
 11
420.1107853309481
 21
179.3394201266994
 31
0.0
  0
LINE
  5
286
330
1F
100
AcDbEntity
  8
0
  6
DASHED
 62
     4
100
AcDbLine
 10
413.6107853309481
 20
179.3394201266994
 30
0.0
 11
420.1107853309481
 21
179.3394201266994
 31
0.0
  0
LINE
  5
287
330
1F
100
AcDbEntity
  8
0
  6
DASHED
 62
     4
100
AcDbLine
 10
396.6797853309481
 20
260.0394201266994
 30
0.0
 11
429.8797973309474
 21
260.0394351266993
 31
0.0
  0
LINE
  5
288
330
1F
100
AcDbEntity
  8
0
  6
DASHED
 62
     4
100
AcDbLine
 10
436.6797853309481
 20
253.2394471266993
 30
0.0
 11
436.6797853309481
 21
186.8394381266994
 31
0.0
  0
LINE
  5
289
330
1F
100
AcDbEntity
  8
0
  6
DASH_CENTER
 62
     3
100
AcDbLine
 10
426.5987913309481
 20
190.1204061266992
 30
0.0
 11
433.4093993309484
 21
183.3097981266992
 31
0.0
  0
LINE
  5
28A
330
1F
100
AcDbEntity
  8
0
  6
DASH_CENTER
 62
     3
100
AcDbLine
 10
426.5873933309471
 20
249.9470131266992
 30
0.0
 11
433.2588263309485
 21
256.6184611266994
 31
0.0
  0
LINE
  5
28B
330
1F
100
AcDbEntity
  8
0
  6
DASHED
 62
     4
100
AcDbLine
 10
414.0607853309475
 20
178.0716041266991
 30
0.0
 11
414.0607853309475
 21
179.3394201266994
 31
0.0
  0
LINE
  5
28C
330
1F
100
AcDbEntity
  8
0
  6
DASHED
 62
     4
100
AcDbLine
 10
419.6607853309483
 20
178.0716041266991
 30
0.0
 11
419.6607853309483
 21
179.3394201266994
 31
0.0
  0
LINE
  5
28D
330
1F
100
AcDbEntity
  8
1
  6
Continuous
 62
     7
100
AcDbLine
 10
892.654297661069
 20
282.389204723396
 30
0.0
 11
880.6542976610701
 21
282.389204723396
 31
0.0
  0
LINE
  5
28E
330
1F
100
AcDbEntity
  8
1
  6
Continuous
 62
     7
100
AcDbLine
 10
892.654297661069
 20
290.389204723396
 30
0.0
 11
880.6542976610701
 21
290.389204723396
 31
0.0
  0
LINE
  5
28F
330
1F
100
AcDbEntity
  8
1
  6
Continuous
 62
     7
100
AcDbLine
 10
880.6542976610701
 20
282.389204723396
 30
0.0
 11
880.6542976610701
 21
290.389204723396
 31
0.0
  0
LINE
  5
290
330
1F
100
AcDbEntity
  8
1
  6
Continuous
 62
     7
100
AcDbLine
 10
690.6542976610695
 20
282.389204723396
 30
0.0
 11
690.6542976610695
 21
290.389204723396
 31
0.0
  0
LINE
  5
291
330
1F
100
AcDbEntity
  8
1
  6
DASHED
 62
     4
100
AcDbLine
 10
510.9466228406095
 20
556.8527020160296
 30
0.0
 11
511.5466228406085
 21
486.8527020160299
 31
0.0
  0
LINE
  5
292
330
1F
100
AcDbEntity
  8
1
  6
DASHED
 62
     4
100
AcDbLine
 10
538.1466228406093
 20
556.8527020160296
 30
0.0
 11
537.5466228406085
 21
486.8527020160299
 31
0.0
  0
LINE
  5
293
330
1F
100
AcDbEntity
  8
1
  6
DASHED
 62
     4
100
AcDbLine
 10
511.5466228406085
 20
486.8527020160299
 30
0.0
 11
537.5466228406085
 21
486.8527020160299
 31
0.0
  0
LINE
  5
294
330
1F
100
AcDbEntity
  8
1
  6
DASHED
 62
     4
100
AcDbLine
 10
537.5466228406085
 20
676.8527020160296
 30
0.0
 11
511.5466228406085
 21
676.8527020160299
 31
0.0
  0
LINE
  5
295
330
1F
100
AcDbEntity
  8
1
  6
Continuous
 62
     3
100
AcDbLine
 10
521.9008715295445
 20
702.3527020160296
 30
0.0
 11
520.5466228406085
 21
702.3527020160296
 31
0.0
  0
LINE
  5
296
330
1F
100
AcDbEntity
  8
1
  6
Continuous
 62
     3
100
AcDbLine
 10
521.9008715295445
 20
702.3527020160296
 30
0.0
 11
528.5466228406085
 21
702.3527020160296
 31
0.0
  0
LINE
  5
297
330
1F
100
AcDbEntity
  8
1
  6
Continuous
 62
     3
100
AcDbLine
 10
521.9008715295445
 20
442.3527020160297
 30
0.0
 11
520.5466228406085
 21
442.3527020160297
 31
0.0
  0
LINE
  5
298
330
1F
100
AcDbEntity
  8
1
  6
Continuous
 62
     3
100
AcDbLine
 10
521.9008715295445
 20
442.3527020160297
 30
0.0
 11
528.5466228406085
 21
442.3527020160297
 31
0.0
  0
LINE
  5
299
330
1F
100
AcDbEntity
  8
1
  6
Continuous
 62
     7
100
AcDbLine
 10
520.5466228406085
 20
442.3527020160297
 30
0.0
 11
522.0466228406085
 21
440.8527020160297
 31
0.0
  0
LINE
  5
29A
330
1F
100
AcDbEntity
  8
1
  6
Continuous
 62
     7
100
AcDbLine
 10
528.5466228406085
 20
442.3527020160297
 30
0.0
 11
527.0466228406085
 21
440.8527020160297
 31
0.0
  0
LINE
  5
29B
330
1F
100
AcDbEntity
  8
1
  6
Continuous
 62
     7
100
AcDbLine
 10
522.0466228406085
 20
440.8527020160297
 30
0.0
 11
527.0466228406085
 21
440.8527020160297
 31
0.0
  0
LINE
  5
29C
330
1F
100
AcDbEntity
  8
1
  6
Continuous
 62
     7
100
AcDbLine
 10
520.5466228406085
 20
702.3527020160296
 30
0.0
 11
522.0466228406085
 21
703.8527020160296
 31
0.0
  0
LINE
  5
29D
330
1F
100
AcDbEntity
  8
1
  6
Continuous
 62
     7
100
AcDbLine
 10
527.0466228406085
 20
703.8527020160296
 30
0.0
 11
528.5466228406085
 21
702.3527020160296
 31
0.0
  0
LINE
  5
29E
330
1F
100
AcDbEntity
  8
1
  6
Continuous
 62
     7
100
AcDbLine
 10
527.0466228406085
 20
703.8527020160296
 30
0.0
 11
522.0466228406085
 21
703.8527020160296
 31
0.0
  0
LINE
  5
29F
330
1F
100
AcDbEntity
  8
1
  6
Continuous
 62
     7
100
AcDbLine
 10
528.5466228406085
 20
453.8527020160297
 30
0.0
 11
528.5466228406085
 21
442.3527020160297
 31
0.0
  0
LINE
  5
2A0
330
1F
100
AcDbEntity
  8
1
  6
Continuous
 62
     7
100
AcDbLine
 10
520.5466228406085
 20
453.8527020160297
 30
0.0
 11
520.5466228406085
 21
442.3527020160297
 31
0.0
  0
LINE
  5
2A1
330
1F
100
AcDbEntity
  8
1
  6
DASHED
 62
     4
100
AcDbLine
 10
537.5466228406085
 20
676.8527020160296
 30
0.0
 11
538.1466228406093
 21
606.8527020160294
 31
0.0
  0
LINE
  5
2A2
330
1F
100
AcDbEntity
  8
1
  6
DASH_CENTER
 62
     3
100
AcDbLine
 10
524.5466228406085
 20
704.8616613560463
 30
0.0
 11
524.5466228406085
 21
440.8527020160297
 31
0.0
  0
LINE
  5
2A3
330
1F
100
AcDbEntity
  8
1
  6
Continuous
 62
     7
100
AcDbLine
 10
521.9008715295445
 20
283.389204723396
 30
0.0
 11
527.1923741516744
 21
283.389204723396
 31
0.0
  0
LINE
  5
2A4
330
1F
100
AcDbEntity
  8
1
  6
Continuous
 62
     7
100
AcDbLine
 10
521.9008715295445
 20
289.389204723396
 30
0.0
 11
527.1923741516744
 21
289.389204723396
 31
0.0
  0
LINE
  5
2A5
330
1F
100
AcDbEntity
  8
1
  6
DASHED
 62
     4
100
AcDbLine
 10
511.5466228406085
 20
676.8527020160299
 30
0.0
 11
510.9466228406095
 21
606.8527020160296
 31
0.0
  0
LINE
  5
2A6
330
1F
100
AcDbEntity
  8
1
  6
DASH_CENTER
 62
     3
100
AcDbLine
 10
503.5525064662365
 20
286.389204723396
 30
0.0
 11
538.1098083071584
 21
286.389204723396
 31
0.0
  0
LINE
  5
2A7
330
1F
100
AcDbEntity
  8
1
  6
DASHED
 62
     4
100
AcDbLine
 10
538.1466228406093
 20
556.8527020160296
 30
0.0
 11
538.1466228406093
 21
606.8527020160294
 31
0.0
  0
LINE
  5
2A8
330
1F
100
AcDbEntity
  8
1
  6
DASHED
 62
     4
100
AcDbLine
 10
510.9466228406095
 20
606.8527020160296
 30
0.0
 11
510.9466228406095
 21
556.8527020160296
 31
0.0
  0
LINE
  5
2A9
330
1F
100
AcDbEntity
  8
1
  6
Continuous
 62
     7
100
AcDbLine
 10
528.5466228406085
 20
702.3527020160296
 30
0.0
 11
528.5466228406085
 21
690.8527020160296
 31
0.0
  0
LINE
  5
2AA
330
1F
100
AcDbEntity
  8
1
  6
Continuous
 62
     7
100
AcDbLine
 10
520.5466228406085
 20
702.3527020160296
 30
0.0
 11
520.5466228406085
 21
690.8527020160296
 31
0.0
  0
LINE
  5
2AB
330
1F
100
AcDbEntity
  8
1
  6
Continuous
 62
     7
100
AcDbLine
 10
760.6542976610695
 20
299.9892047233959
 30
0.0
 11
690.6542976610695
 21
299.389204723396
 31
0.0
  0
LINE
  5
2AC
330
1F
100
AcDbEntity
  8
1
  6
Continuous
 62
     7
100
AcDbLine
 10
760.6542976610695
 20
272.7892047233957
 30
0.0
 11
690.6542976610695
 21
273.389204723396
 31
0.0
  0
LINE
  5
2AD
330
1F
100
AcDbEntity
  8
1
  6
Continuous
 62
     7
100
AcDbLine
 10
690.6542976610695
 20
282.389204723396
 30
0.0
 11
690.6542976610695
 21
273.389204723396
 31
0.0
  0
LINE
  5
2AE
330
1F
100
AcDbEntity
  8
1
  6
Continuous
 62
     7
100
AcDbLine
 10
880.6542976610701
 20
290.389204723396
 30
0.0
 11
880.6542976610701
 21
299.389204723396
 31
0.0
  0
LINE
  5
2AF
330
1F
100
AcDbEntity
  8
1
  6
Continuous
 62
     7
100
AcDbLine
 10
645.1542976610692
 20
289.389204723396
 30
0.0
 11
644.6542976610692
 21
288.889204723396
 31
0.0
  0
LINE
  5
2B0
330
1F
100
AcDbEntity
  8
1
  6
Continuous
 62
     7
100
AcDbLine
 10
645.1542976610692
 20
283.389204723396
 30
0.0
 11
644.6542976610692
 21
283.889204723396
 31
0.0
  0
LINE
  5
2B1
330
1F
100
AcDbEntity
  8
1
  6
Continuous
 62
     7
100
AcDbLine
 10
644.6542976610692
 20
288.889204723396
 30
0.0
 11
644.6542976610692
 21
283.889204723396
 31
0.0
  0
LINE
  5
2B2
330
1F
100
AcDbEntity
  8
1
  6
Continuous
 62
     7
100
AcDbLine
 10
907.154297661069
 20
289.389204723396
 30
0.0
 11
907.654297661069
 21
288.889204723396
 31
0.0
  0
LINE
  5
2B3
330
1F
100
AcDbEntity
  8
1
  6
Continuous
 62
     7
100
AcDbLine
 10
907.654297661069
 20
283.889204723396
 30
0.0
 11
907.654297661069
 21
288.889204723396
 31
0.0
  0
LINE
  5
2B4
330
1F
100
AcDbEntity
  8
1
  6
Continuous
 62
     7
100
AcDbLine
 10
880.654297661069
 20
273.389204723396
 30
0.0
 11
810.6542976610695
 21
272.7892047233956
 31
0.0
  0
LINE
  5
2B5
330
1F
100
AcDbEntity
  8
1
  6
DASH_CENTER
 62
     3
100
AcDbLine
 10
908.663257001087
 20
286.389204723396
 30
0.0
 11
644.6542976610692
 21
286.389204723396
 31
0.0
  0
LINE
  5
2B6
330
1F
100
AcDbEntity
  8
1
  6
Continuous
 62
     7
100
AcDbLine
 10
880.6542976610701
 20
299.389204723396
 30
0.0
 11
810.6542976610695
 21
299.9892047233959
 31
0.0
  0
LINE
  5
2B7
330
1F
100
AcDbEntity
  8
1
  6
Continuous
 62
     7
100
AcDbLine
 10
690.6542976610695
 20
299.389204723396
 30
0.0
 11
690.6542976610695
 21
290.389204723396
 31
0.0
  0
LINE
  5
2B8
330
1F
100
AcDbEntity
  8
1
  6
Continuous
 62
     7
100
AcDbLine
 10
880.654297661069
 20
273.389204723396
 30
0.0
 11
880.6542976610701
 21
282.389204723396
 31
0.0
  0
LINE
  5
2B9
330
1F
100
AcDbEntity
  8
1
  6
Continuous
 62
     7
100
AcDbLine
 10
659.6542976610692
 20
289.389204723396
 30
0.0
 11
645.1542976610692
 21
289.389204723396
 31
0.0
  0
LINE
  5
2BA
330
1F
100
AcDbEntity
  8
1
  6
Continuous
 62
     7
100
AcDbLine
 10
659.6542976610692
 20
283.389204723396
 30
0.0
 11
645.1542976610692
 21
283.389204723396
 31
0.0
  0
LINE
  5
2BB
330
1F
100
AcDbEntity
  8
1
  6
Continuous
 62
     7
100
AcDbLine
 10
659.6542976610692
 20
290.389204723396
 30
0.0
 11
659.6542976610692
 21
289.389204723396
 31
0.0
  0
LINE
  5
2BC
330
1F
100
AcDbEntity
  8
1
  6
Continuous
 62
     7
100
AcDbLine
 10
659.6542976610692
 20
282.389204723396
 30
0.0
 11
659.6542976610692
 21
283.389204723396
 31
0.0
  0
LINE
  5
2BD
330
1F
100
AcDbEntity
  8
1
  6
Continuous
 62
     7
100
AcDbLine
 10
690.6542976610695
 20
282.389204723396
 30
0.0
 11
659.6542976610692
 21
282.389204723396
 31
0.0
  0
LINE
  5
2BE
330
1F
100
AcDbEntity
  8
1
  6
Continuous
 62
     3
100
AcDbLine
 10
646.1542976610692
 20
283.389204723396
 30
0.0
 11
646.1542976610692
 21
289.389204723396
 31
0.0
  0
LINE
  5
2BF
330
1F
100
AcDbEntity
  8
1
  6
Continuous
 62
     7
100
AcDbLine
 10
690.6542976610695
 20
290.389204723396
 30
0.0
 11
659.6542976610692
 21
290.389204723396
 31
0.0
  0
LINE
  5
2C0
330
1F
100
AcDbEntity
  8
1
  6
Continuous
 62
     7
100
AcDbLine
 10
907.1542976610701
 20
283.389204723396
 30
0.0
 11
892.654297661069
 21
283.389204723396
 31
0.0
  0
LINE
  5
2C1
330
1F
100
AcDbEntity
  8
1
  6
Continuous
 62
     7
100
AcDbLine
 10
907.154297661069
 20
289.389204723396
 30
0.0
 11
892.654297661069
 21
289.389204723396
 31
0.0
  0
LINE
  5
2C2
330
1F
100
AcDbEntity
  8
1
  6
Continuous
 62
     7
100
AcDbLine
 10
892.654297661069
 20
290.389204723396
 30
0.0
 11
892.654297661069
 21
289.389204723396
 31
0.0
  0
LINE
  5
2C3
330
1F
100
AcDbEntity
  8
1
  6
Continuous
 62
     7
100
AcDbLine
 10
892.654297661069
 20
282.389204723396
 30
0.0
 11
892.654297661069
 21
283.389204723396
 31
0.0
  0
LINE
  5
2C4
330
1F
100
AcDbEntity
  8
1
  6
Continuous
 62
     7
100
AcDbLine
 10
907.654297661069
 20
283.889204723396
 30
0.0
 11
907.1542976610701
 21
283.389204723396
 31
0.0
  0
LINE
  5
2C5
330
1F
100
AcDbEntity
  8
1
  6
Continuous
 62
     3
100
AcDbLine
 10
906.154297661069
 20
283.389204723396
 30
0.0
 11
906.154297661069
 21
289.389204723396
 31
0.0
  0
LINE
  5
2C6
330
1F
100
AcDbEntity
  8
1
  6
Continuous
 62
     7
100
AcDbLine
 10
760.6542976610695
 20
299.9892047233959
 30
0.0
 11
810.6542976610695
 21
299.9892047233959
 31
0.0
  0
LINE
  5
2C7
330
1F
100
AcDbEntity
  8
1
  6
Continuous
 62
     7
100
AcDbLine
 10
760.6542976610695
 20
272.7892047233957
 30
0.0
 11
810.6542976610695
 21
272.7892047233956
 31
0.0
  0
LINE
  5
2C8
330
1F
100
AcDbEntity
  8
1
  6
DASH_CENTER
 62
     3
100
AcDbLine
 10
524.5547908686131
 20
304.1071339946757
 30
0.0
 11
524.5547908686131
 21
268.2097927443777
 31
0.0
  0
LINE
  5
2C9
330
1F
100
AcDbEntity
  8
1
  6
DASH_CENTER
 62
     3
100
AcDbLine
 10
371.4688753076186
 20
197.8892047233958
 30
0.0
 11
376.6861242009315
 21
197.8892047233958
 31
0.0
  0
LINE
  5
2CA
330
1F
100
AcDbEntity
  8
1
  6
DASH_CENTER
 62
     3
100
AcDbLine
 10
374.1466228406104
 20
201.1388330585087
 30
0.0
 11
374.1466228406104
 21
194.8672143916787
 31
0.0
  0
LINE
  5
2CB
330
1F
100
AcDbEntity
  8
1
  6
DASH_CENTER
 62
     3
100
AcDbLine
 10
467.14662284061
 20
201.1388330585087
 30
0.0
 11
467.14662284061
 21
194.8672143916787
 31
0.0
  0
LINE
  5
2CC
330
1F
100
AcDbEntity
  8
1
  6
DASH_CENTER
 62
     3
100
AcDbLine
 10
464.468875307618
 20
197.8892047233958
 30
0.0
 11
469.686124200931
 21
197.8892047233958
 31
0.0
  0
LINE
  5
2CD
330
1F
100
AcDbEntity
  8
1
  6
DASH_CENTER
 62
     3
100
AcDbLine
 10
374.1466228406104
 20
178.4798437339967
 30
0.0
 11
374.1466228406104
 21
170.3662212257477
 31
0.0
  0
LINE
  5
2CE
330
1F
100
AcDbEntity
  8
1
  6
DASH_CENTER
 62
     3
100
AcDbLine
 10
467.14662284061
 20
178.4798437339967
 30
0.0
 11
467.14662284061
 21
170.3662212257477
 31
0.0
  0
LINE
  5
2CF
330
1F
100
AcDbEntity
  8
1
  6
Continuous
 62
     7
100
AcDbLine
 10
900.154297661069
 20
175.8892047233958
 30
0.0
 11
900.154297661069
 21
205.8892047233959
 31
0.0
  0
LINE
  5
2D0
330
1F
100
AcDbEntity
  8
1
  6
Continuous
 62
     7
100
AcDbLine
 10
473.14662284061
 20
712.3527020160296
 30
0.0
 11
473.14662284061
 21
694.3527020160296
 31
0.0
  0
LINE
  5
2D1
330
1F
100
AcDbEntity
  8
1
  6
Continuous
 62
     7
100
AcDbLine
 10
368.1466228406093
 20
432.8527020160297
 30
0.0
 11
368.1466228406093
 21
450.8527020160297
 31
0.0
  0
LINE
  5
2D2
330
1F
100
AcDbEntity
  8
1
  6
Continuous
 62
     7
100
AcDbLine
 10
370.1466228406093
 20
205.8892047233954
 30
0.0
 11
471.1629588966191
 21
205.8892047233954
 31
0.0
  0
LINE
  5
2D3
330
1F
100
AcDbEntity
  8
1
  6
Continuous
 62
     7
100
AcDbLine
 10
368.1466228406093
 20
173.8892047233957
 30
0.0
 11
368.1466228406093
 21
203.8892047233954
 31
0.0
  0
LINE
  5
2D4
330
1F
100
AcDbEntity
  8
1
  6
Continuous
 62
     7
100
AcDbLine
 10
473.1629588966191
 20
203.8892047233954
 30
0.0
 11
473.1629588966191
 21
173.8892047233957
 31
0.0
  0
LINE
  5
2D5
330
1F
100
AcDbEntity
  8
1
  6
Continuous
 62
     7
100
AcDbLine
 10
368.1466228406093
 20
175.8892047233957
 30
0.0
 11
473.1629588966191
 21
175.8892047233957
 31
0.0
  0
LINE
  5
2D6
330
1F
100
AcDbEntity
  8
1
  6
Continuous
 62
     7
100
AcDbLine
 10
471.14662284061
 20
430.8527020160297
 30
0.0
 11
370.1466228406093
 21
430.8527020160297
 31
0.0
  0
LINE
  5
2D7
330
1F
100
AcDbEntity
  8
1
  6
Continuous
 62
     7
100
AcDbLine
 10
473.14662284061
 20
450.8527020160297
 30
0.0
 11
473.14662284061
 21
432.8527020160297
 31
0.0
  0
LINE
  5
2D8
330
1F
100
AcDbEntity
  8
1
  6
DASH_CENTER
 62
     3
100
AcDbLine
 10
463.02162284061
 20
435.8527020160297
 30
0.0
 11
471.27162284061
 21
435.8527020160297
 31
0.0
  0
LINE
  5
2D9
330
1F
100
AcDbEntity
  8
1
  6
DASH_CENTER
 62
     3
100
AcDbLine
 10
467.14662284061
 20
431.7277020160297
 30
0.0
 11
467.14662284061
 21
439.9777020160297
 31
0.0
  0
LINE
  5
2DA
330
1F
100
AcDbEntity
  8
1
  6
DASH_CENTER
 62
     3
100
AcDbLine
 10
370.0216228406104
 20
435.8527020160297
 30
0.0
 11
378.2716228406113
 21
435.8527020160297
 31
0.0
  0
LINE
  5
2DB
330
1F
100
AcDbEntity
  8
1
  6
DASH_CENTER
 62
     3
100
AcDbLine
 10
374.1466228406104
 20
431.7277020160297
 30
0.0
 11
374.1466228406104
 21
439.9777020160297
 31
0.0
  0
LINE
  5
2DC
330
1F
100
AcDbEntity
  8
1
  6
Continuous
 62
     7
100
AcDbLine
 10
368.1466228406093
 20
694.3527020160296
 30
0.0
 11
368.1466228406093
 21
712.3527020160296
 31
0.0
  0
LINE
  5
2DD
330
1F
100
AcDbEntity
  8
1
  6
DASH_CENTER
 62
     3
100
AcDbLine
 10
374.1466228406104
 20
705.2277020160296
 30
0.0
 11
374.1466228406104
 21
713.4777020160296
 31
0.0
  0
LINE
  5
2DE
330
1F
100
AcDbEntity
  8
1
  6
DASH_CENTER
 62
     3
100
AcDbLine
 10
378.2716228406113
 20
709.3527020160296
 30
0.0
 11
370.0216228406104
 21
709.3527020160296
 31
0.0
  0
LINE
  5
2DF
330
1F
100
AcDbEntity
  8
1
  6
DASH_CENTER
 62
     3
100
AcDbLine
 10
467.14662284061
 20
705.2277020160296
 30
0.0
 11
467.14662284061
 21
713.4777020160296
 31
0.0
  0
LINE
  5
2E0
330
1F
100
AcDbEntity
  8
1
  6
DASH_CENTER
 62
     3
100
AcDbLine
 10
471.27162284061
 20
709.3527020160296
 30
0.0
 11
463.02162284061
 21
709.3527020160296
 31
0.0
  0
LINE
  5
2E1
330
1F
100
AcDbEntity
  8
1
  6
Continuous
 62
     7
100
AcDbLine
 10
370.1466228406093
 20
714.3527020160296
 30
0.0
 11
471.1466228406098
 21
714.3527020160296
 31
0.0
  0
LINE
  5
2E2
330
1F
100
AcDbEntity
  8
1
  6
Continuous
 62
     7
100
AcDbLine
 10
654.6542976610692
 20
205.8892047233958
 30
0.0
 11
652.6542976610692
 21
205.8892047233958
 31
0.0
  0
LINE
  5
2E3
330
1F
100
AcDbEntity
  8
1
  6
Continuous
 62
     7
100
AcDbLine
 10
652.6542976610692
 20
205.8892047233958
 30
0.0
 11
652.6542976610692
 21
175.8892047233958
 31
0.0
  0
LINE
  5
2E4
330
1F
100
AcDbEntity
  8
1
  6
Continuous
 62
     7
100
AcDbLine
 10
652.6542976610692
 20
175.8892047233958
 30
0.0
 11
634.6542976610692
 21
175.8892047233958
 31
0.0
  0
LINE
  5
2E5
330
1F
100
AcDbEntity
  8
1
  6
Continuous
 62
     7
100
AcDbLine
 10
634.6542976610692
 20
175.8892047233958
 30
0.0
 11
634.6542976610692
 21
173.8892047233958
 31
0.0
  0
LINE
  5
2E6
330
1F
100
AcDbEntity
  8
1
  6
Continuous
 62
     7
100
AcDbLine
 10
634.6542976610692
 20
173.8892047233958
 30
0.0
 11
654.6542976610692
 21
173.8892047233958
 31
0.0
  0
LINE
  5
2E7
330
1F
100
AcDbEntity
  8
1
  6
Continuous
 62
     7
100
AcDbLine
 10
654.6542976610692
 20
173.8892047233958
 30
0.0
 11
654.6542976610692
 21
205.8892047233958
 31
0.0
  0
LINE
  5
2E8
330
1F
100
AcDbEntity
  8
1
  6
DASH_CENTER
 62
     3
100
AcDbLine
 10
639.6542976610692
 20
169.1892047233959
 30
0.0
 11
639.6542976610692
 21
180.6892047233959
 31
0.0
  0
LINE
  5
2E9
330
1F
100
AcDbEntity
  8
1
  6
DASH_CENTER
 62
     3
100
AcDbLine
 10
659.3542976610702
 20
197.8892047233958
 30
0.0
 11
647.8542976610702
 21
197.8892047233958
 31
0.0
  0
LINE
  5
2EA
330
1F
100
AcDbEntity
  8
1
  6
DASH_CENTER
 62
     3
100
AcDbLine
 10
904.9542976610701
 20
197.8892047233958
 30
0.0
 11
893.4542976610701
 21
197.8892047233958
 31
0.0
  0
LINE
  5
2EB
330
1F
100
AcDbEntity
  8
1
  6
DASH_CENTER
 62
     3
100
AcDbLine
 10
913.154297661069
 20
180.6892047233959
 30
0.0
 11
913.154297661069
 21
169.1892047233959
 31
0.0
  0
LINE
  5
2EC
330
1F
100
AcDbEntity
  8
1
  6
Continuous
 62
     7
100
AcDbLine
 10
898.154297661069
 20
205.8892047233958
 30
0.0
 11
898.154297661069
 21
173.8892047233958
 31
0.0
  0
LINE
  5
2ED
330
1F
100
AcDbEntity
  8
1
  6
Continuous
 62
     7
100
AcDbLine
 10
898.154297661069
 20
173.8892047233958
 30
0.0
 11
918.154297661069
 21
173.8892047233958
 31
0.0
  0
LINE
  5
2EE
330
1F
100
AcDbEntity
  8
1
  6
Continuous
 62
     7
100
AcDbLine
 10
918.154297661069
 20
173.8892047233958
 30
0.0
 11
918.154297661069
 21
175.8892047233958
 31
0.0
  0
LINE
  5
2EF
330
1F
100
AcDbEntity
  8
1
  6
Continuous
 62
     7
100
AcDbLine
 10
918.154297661069
 20
175.8892047233958
 30
0.0
 11
900.154297661069
 21
175.8892047233958
 31
0.0
  0
LINE
  5
2F0
330
1F
100
AcDbEntity
  8
1
  6
Continuous
 62
     7
100
AcDbLine
 10
900.154297661069
 20
205.8892047233959
 30
0.0
 11
898.154297661069
 21
205.8892047233958
 31
0.0
  0
LINE
  5
2F1
330
1F
100
AcDbEntity
  8
1
  6
Continuous
 62
     3
100
AcDbLine
 10
338.1466228406093
 20
455.8527020160297
 30
0.0
 11
338.1466228406093
 21
689.3527020160296
 31
0.0
  0
LINE
  5
2F2
330
1F
100
AcDbEntity
  8
1
  6
Continuous
 62
     7
100
AcDbLine
 10
760.6542976610695
 20
175.3892047233958
 30
0.0
 11
895.154297661069
 21
175.3892047233958
 31
0.0
  0
LINE
  5
2F3
330
1F
100
AcDbEntity
  8
1
  6
Continuous
 62
     7
100
AcDbLine
 10
663.1542976610692
 20
263.389204723396
 30
0.0
 11
895.1542976610701
 21
263.389204723396
 31
0.0
  0
LINE
  5
2F4
330
1F
100
AcDbEntity
  8
1
  6
DASH_CENTER
 62
     3
100
AcDbLine
 10
902.954297661071
 20
250.3892047233958
 30
0.0
 11
891.454297661071
 21
250.3892047233958
 31
0.0
  0
LINE
  5
2F5
330
1F
100
AcDbEntity
  8
1
  6
DASH_CENTER
 62
     3
100
AcDbLine
 10
661.3542976610702
 20
250.3892047233958
 30
0.0
 11
649.8542976610702
 21
250.3892047233958
 31
0.0
  0
LINE
  5
2F6
330
1F
100
AcDbEntity
  8
1
  6
Continuous
 62
     7
100
AcDbLine
 10
657.6542976610692
 20
271.1166113337085
 30
0.0
 11
894.1542976610701
 21
271.1166113337085
 31
0.0
  0
LINE
  5
2F7
330
1F
100
AcDbEntity
  8
1
  6
Continuous
 62
     7
100
AcDbLine
 10
657.6542976610692
 20
263.389204723396
 30
0.0
 11
663.1542976610692
 21
263.389204723396
 31
0.0
  0
LINE
  5
2F8
330
1F
100
AcDbEntity
  8
1
  6
Continuous
 62
     7
100
AcDbLine
 10
657.6542976610692
 20
175.3892047233958
 30
0.0
 11
760.6542976610695
 21
175.3892047233958
 31
0.0
  0
ARC
  5
2F9
330
1F
100
AcDbEntity
  8
1
  6
Continuous
 62
     7
100
AcDbCircle
 10
355.1466228406093
 20
283.389204723396
 30
0.0
 40
15.5
100
AcDbArc
 50
180.0
 51
-148.3065320658417
  0
ARC
  5
2FA
330
1F
100
AcDbEntity
  8
1
  6
Continuous
 62
     7
100
AcDbCircle
 10
355.1466228406093
 20
283.389204723396
 30
0.0
 40
15.5
100
AcDbArc
 50
90.0
 51
180.0
  0
ARC
  5
2FB
330
1F
100
AcDbEntity
  8
1
  6
Continuous
 62
     7
100
AcDbCircle
 10
527.6502867845989
 20
286.389204723396
 30
0.0
 40
4.000000000000102
100
AcDbArc
 50
-48.59037789073241
 51
0.0
  0
ARC
  5
2FC
330
1F
100
AcDbEntity
  8
1
  6
Continuous
 62
     7
100
AcDbCircle
 10
527.6502867845989
 20
286.389204723396
 30
0.0
 40
4.0
100
AcDbArc
 50
0.0
 51
50.8050325740163
  0
ARC
  5
2FD
330
1F
100
AcDbEntity
  8
1
  6
Continuous
 62
     7
100
AcDbCircle
 10
499.1019646418694
 20
283.4251031082581
 30
0.0
 40
2.044658198739218
100
AcDbArc
 50
-34.38424746803416
 51
34.38424746803153
  0
ARC
  5
2FE
330
1F
100
AcDbEntity
  8
1
  6
Continuous
 62
     7
100
AcDbCircle
 10
493.5038884305154
 20
286.889204723396
 30
0.0
 40
7.642734410093215
100
AcDbArc
 50
-17.58795377399129
 51
17.58795377398966
  0
ARC
  5
2FF
330
1F
100
AcDbEntity
  8
1
  6
Continuous
 62
     7
100
AcDbCircle
 10
499.1019646418694
 20
290.3533063385338
 30
0.0
 40
2.044658198739218
100
AcDbArc
 50
-34.38424746803416
 51
34.38424746802627
  0
ARC
  5
300
330
1F
100
AcDbEntity
  8
1
  6
Continuous
 62
     7
100
AcDbCircle
 10
518.5183006978782
 20
283.4251031082581
 30
0.0
 40
2.044658198739171
100
AcDbArc
 50
-34.38424746803506
 51
34.38424746803243
  0
ARC
  5
301
330
1F
100
AcDbEntity
  8
1
  6
Continuous
 62
     7
100
AcDbCircle
 10
512.9202244865264
 20
286.889204723396
 30
0.0
 40
7.642734410091048
100
AcDbArc
 50
-17.58795377399644
 51
17.58795377399482
  0
ARC
  5
302
330
1F
100
AcDbEntity
  8
1
  6
Continuous
 62
     7
100
AcDbCircle
 10
518.5183006978782
 20
290.3533063385338
 30
0.0
 40
2.044658198739171
100
AcDbArc
 50
-34.38424746803506
 51
34.38424746802718
  0
ARC
  5
303
330
1F
100
AcDbEntity
  8
1
  6
Continuous
 62
     7
100
AcDbCircle
 10
499.1019646418694
 20
442.388600400892
 30
0.0
 40
2.044658198739154
100
AcDbArc
 50
-34.38424746803153
 51
34.38424746802627
  0
ARC
  5
304
330
1F
100
AcDbEntity
  8
1
  6
Continuous
 62
     7
100
AcDbCircle
 10
493.5038884305163
 20
445.8527020160297
 30
0.0
 40
7.642734410092348
100
AcDbArc
 50
-17.58795377399335
 51
17.58795377399335
  0
ARC
  5
305
330
1F
100
AcDbEntity
  8
1
  6
Continuous
 62
     7
100
AcDbCircle
 10
499.1019646418694
 20
449.3168036311676
 30
0.0
 40
2.044658198739154
100
AcDbArc
 50
-34.38424746803153
 51
34.38424746803153
  0
ARC
  5
306
330
1F
100
AcDbEntity
  8
1
  6
Continuous
 62
     7
100
AcDbCircle
 10
518.5019646418691
 20
442.388600400892
 30
0.0
 40
2.044658198739107
100
AcDbArc
 50
-34.38424746803243
 51
34.38424746802718
  0
ARC
  5
307
330
1F
100
AcDbEntity
  8
1
  6
Continuous
 62
     7
100
AcDbCircle
 10
512.9038884305173
 20
445.8527020160297
 30
0.0
 40
7.642734410091048
100
AcDbArc
 50
-17.58795377399644
 51
17.58795377399644
  0
ARC
  5
308
330
1F
100
AcDbEntity
  8
1
  6
Continuous
 62
     7
100
AcDbCircle
 10
518.5019646418691
 20
449.3168036311676
 30
0.0
 40
2.044658198739107
100
AcDbArc
 50
-34.38424746803243
 51
34.38424746803243
  0
ARC
  5
309
330
1F
100
AcDbEntity
  8
1
  6
Continuous
 62
     7
100
AcDbCircle
 10
518.5019646418691
 20
695.3886004008912
 30
0.0
 40
2.04465819873885
100
AcDbArc
 50
-34.38424746802191
 51
34.38424746804821
  0
ARC
  5
30A
330
1F
100
AcDbEntity
  8
1
  6
Continuous
 62
     7
100
AcDbCircle
 10
512.9038884305173
 20
698.8527020160295
 30
0.0
 40
7.64273441009098
100
AcDbArc
 50
-17.58795377399482
 51
17.58795377399807
  0
ARC
  5
30B
330
1F
100
AcDbEntity
  8
1
  6
Continuous
 62
     7
100
AcDbCircle
 10
518.5019646418691
 20
702.3168036311674
 30
0.0
 40
2.044658198738978
100
AcDbArc
 50
-34.38424746802718
 51
34.38424746802191
  0
ARC
  5
30C
330
1F
100
AcDbEntity
  8
1
  6
Continuous
 62
     7
100
AcDbCircle
 10
499.1019646418694
 20
695.3886004008912
 30
0.0
 40
2.044658198738897
100
AcDbArc
 50
-34.38424746802102
 51
34.38424746804731
  0
ARC
  5
30D
330
1F
100
AcDbEntity
  8
1
  6
Continuous
 62
     7
100
AcDbCircle
 10
493.5038884305163
 20
698.8527020160295
 30
0.0
 40
7.64273441009228
100
AcDbArc
 50
-17.58795377399173
 51
17.58795377399498
  0
ARC
  5
30E
330
1F
100
AcDbEntity
  8
1
  6
Continuous
 62
     7
100
AcDbCircle
 10
499.1019646418694
 20
702.3168036311674
 30
0.0
 40
2.044658198739025
100
AcDbArc
 50
-34.38424746802627
 51
34.38424746802102
  0
ARC
  5
30F
330
1F
100
AcDbEntity
  8
1
  6
Continuous
 62
     7
100
AcDbCircle
 10
525.1629588966184
 20
288.8892047233959
 30
0.0
 40
10.0
100
AcDbArc
 50
0.0000000000013
 51
90.0
  0
ARC
  5
310
330
1F
100
AcDbEntity
  8
1
  6
Continuous
 62
     7
100
AcDbCircle
 10
527.6502867845989
 20
286.389204723396
 30
0.0
 40
3.999999999999958
100
AcDbArc
 50
-50.80503257401831
 51
-48.59037789073241
  0
ARC
  5
311
330
1F
100
AcDbEntity
  8
1
  6
PHANTOM
 62
   140
100
AcDbCircle
 10
524.5466228406085
 20
286.389204723396
 30
0.0
 40
13.6000000000002
100
AcDbArc
 50
-86.92946664611816
 51
90.0
  0
ARC
  5
312
330
1F
100
AcDbEntity
  8
1
  6
PHANTOM
 62
   140
100
AcDbCircle
 10
355.1302867846002
 20
283.389204723396
 30
0.0
 40
17.00088287132134
100
AcDbArc
 50
89.94494195440703
 51
-86.87449047433924
  0
ARC
  5
313
330
1F
100
AcDbEntity
  8
1
  6
Continuous
100
AcDbCircle
 10
399.8966228406093
 20
440.3527020160297
 30
0.0
 40
1.5
100
AcDbArc
 50
180.0
 51
-90.0
  0
ARC
  5
314
330
1F
100
AcDbEntity
  8
1
  6
Continuous
100
AcDbCircle
 10
413.3966228406093
 20
440.3527020160297
 30
0.0
 40
1.5
100
AcDbArc
 50
-90.0
 51
0.0
  0
ARC
  5
315
330
1F
100
AcDbEntity
  8
1
  6
Continuous
100
AcDbCircle
 10
420.6466228406093
 20
447.3527020160297
 30
0.0
 40
4.750000000000465
100
AcDbArc
 50
108.4084999999962
 51
137.4631000000096
  0
ARC
  5
316
330
1F
100
AcDbEntity
  8
1
  6
Continuous
100
AcDbCircle
 10
392.6466228406093
 20
447.3527020160297
 30
0.0
 40
3.35000000000008
100
AcDbArc
 50
90.0
 51
-90.0
  0
ARC
  5
317
330
1F
100
AcDbEntity
  8
1
  6
Continuous
100
AcDbCircle
 10
392.6466228406093
 20
447.3527020160297
 30
0.0
 40
3.349999999999934
100
AcDbArc
 50
-63.39999999999519
 51
-48.26799999998804
  0
ARC
  5
318
330
1F
100
AcDbEntity
  8
1
  6
Continuous
100
AcDbCircle
 10
392.6466228406093
 20
447.3527020160297
 30
0.0
 40
4.75
100
AcDbArc
 50
90.0
 51
-90.0
  0
ARC
  5
319
330
1F
100
AcDbEntity
  8
1
  6
Continuous
100
AcDbCircle
 10
392.6466228406093
 20
447.3527020160297
 30
0.0
 40
4.74999999999926
100
AcDbArc
 50
-71.59200000000135
 51
-31.75700000000004
  0
ARC
  5
31A
330
1F
100
AcDbEntity
  8
1
  6
Continuous
100
AcDbCircle
 10
420.6466228406093
 20
447.3527020160297
 30
0.0
 40
3.35000000000034
100
AcDbArc
 50
116.6000999999949
 51
131.7317999999978
  0
ARC
  5
31B
330
1F
100
AcDbEntity
  8
1
  6
Continuous
100
AcDbCircle
 10
420.6466228406093
 20
447.3527020160297
 30
0.0
 40
4.749999999999593
100
AcDbArc
 50
-148.2429999999953
 51
-108.4080000000104
  0
ARC
  5
31C
330
1F
100
AcDbEntity
  8
1
  6
Continuous
100
AcDbCircle
 10
420.6466228406093
 20
447.3527020160297
 30
0.0
 40
3.349999999999517
100
AcDbArc
 50
-131.7320000000011
 51
-116.6000000000205
  0
ARC
  5
31D
330
1F
100
AcDbEntity
  8
1
  6
Continuous
100
AcDbCircle
 10
392.6466228406093
 20
447.3527020160297
 30
0.0
 40
3.350000000000212
100
AcDbArc
 50
48.26799999998999
 51
63.39999999999911
  0
ARC
  5
31E
330
1F
100
AcDbEntity
  8
1
  6
Continuous
100
AcDbCircle
 10
392.6466228406093
 20
447.3527020160297
 30
0.0
 40
4.75000000000014
100
AcDbArc
 50
40.7400000000082
 51
71.59200000000287
  0
ARC
  5
31F
330
1F
100
AcDbEntity
  8
1
  6
Continuous
100
AcDbCircle
 10
420.6466228406093
 20
447.3527020160297
 30
0.0
 40
3.349999999999909
100
AcDbArc
 50
-90.0
 51
90.0
  0
ARC
  5
320
330
1F
100
AcDbEntity
  8
1
  6
Continuous
100
AcDbCircle
 10
420.6466228406093
 20
447.3527020160297
 30
0.0
 40
4.75
100
AcDbArc
 50
-90.0
 51
90.0
  0
ARC
  5
321
330
1F
100
AcDbEntity
  8
1
  6
Continuous
100
AcDbCircle
 10
396.6965228406093
 20
249.6182047233961
 30
0.0
 40
0.6999999999997328
100
AcDbArc
 50
-95.00000000004749
 51
85.00000000003595
  0
ARC
  5
322
330
1F
100
AcDbEntity
  8
1
  6
Continuous
100
AcDbCircle
 10
388.5966228406082
 20
250.3262047233961
 30
0.0
 40
0.6999999999998524
100
AcDbArc
 50
84.99999999992069
 51
-94.99999999989855
  0
ARC
  5
323
330
1F
100
AcDbEntity
  8
1
  6
Continuous
100
AcDbCircle
 10
396.6965228406093
 20
251.3442047233961
 30
0.0
 40
0.6999999999998178
100
AcDbArc
 50
-95.00000000004688
 51
85.00000000003738
  0
ARC
  5
324
330
1F
100
AcDbEntity
  8
1
  6
Continuous
100
AcDbCircle
 10
388.5966228406082
 20
252.0532047233961
 30
0.0
 40
0.6999999999997675
100
AcDbArc
 50
84.99999999992008
 51
-94.99999999989916
  0
ARC
  5
325
330
1F
100
AcDbEntity
  8
1
  6
Continuous
100
AcDbCircle
 10
388.5966228406082
 20
253.7802047233961
 30
0.0
 40
0.6999999999998524
100
AcDbArc
 50
84.99999999992069
 51
-94.99999999989774
  0
ARC
  5
326
330
1F
100
AcDbEntity
  8
1
  6
Continuous
100
AcDbCircle
 10
396.6965228406093
 20
253.0712047233962
 30
0.0
 40
0.7000000000000159
100
AcDbArc
 50
-95.00000000004545
 51
85.00000000003595
  0
ARC
  5
327
330
1F
100
AcDbEntity
  8
1
  6
Continuous
100
AcDbCircle
 10
396.6965228406093
 20
254.7982047233961
 30
0.0
 40
0.6999999999997328
100
AcDbArc
 50
-95.00000000004749
 51
85.00000000003657
  0
ARC
  5
328
330
1F
100
AcDbEntity
  8
1
  6
Continuous
100
AcDbCircle
 10
388.5966228406082
 20
255.5062047233961
 30
0.0
 40
0.6999999999998524
100
AcDbArc
 50
84.99999999992069
 51
-94.99999999989916
  0
ARC
  5
329
330
1F
100
AcDbEntity
  8
1
  6
Continuous
100
AcDbCircle
 10
388.5966228406082
 20
257.233204723396
 30
0.0
 40
0.6999999999999373
100
AcDbArc
 50
84.99999999992129
 51
-94.99999999989997
  0
ARC
  5
32A
330
1F
100
AcDbEntity
  8
1
  6
Continuous
100
AcDbCircle
 10
396.6965228406093
 20
256.5242047233959
 30
0.0
 40
0.6999999999995064
100
AcDbArc
 50
-95.0000000000491
 51
85.0000000000388
  0
ARC
  5
32B
330
1F
100
AcDbEntity
  8
1
  6
Continuous
100
AcDbCircle
 10
396.6965228406093
 20
258.2512047233962
 30
0.0
 40
0.7000000000000159
100
AcDbArc
 50
-95.00000000004545
 51
85.00000000003595
  0
ARC
  5
32C
330
1F
100
AcDbEntity
  8
1
  6
Continuous
100
AcDbCircle
 10
388.5966228406082
 20
258.9592047233962
 30
0.0
 40
0.6999999999999373
100
AcDbArc
 50
84.99999999992129
 51
-94.99999999989754
  0
ARC
  5
32D
330
1F
100
AcDbEntity
  8
1
  6
Continuous
100
AcDbCircle
 10
388.5966228406082
 20
260.6862047233962
 30
0.0
 40
0.6999999999996542
100
AcDbArc
 50
84.99999999991927
 51
-94.99999999989714
  0
ARC
  5
32E
330
1F
100
AcDbEntity
  8
1
  6
Continuous
100
AcDbCircle
 10
396.6965228406093
 20
259.9772047233962
 30
0.0
 40
0.6999999999998461
100
AcDbArc
 50
-95.00000000004667
 51
85.00000000003595
  0
ARC
  5
32F
330
1F
100
AcDbEntity
  8
1
  6
Continuous
100
AcDbCircle
 10
424.6965228406093
 20
249.6182047233961
 30
0.0
 40
0.6999999999997328
100
AcDbArc
 50
-95.00000000004749
 51
85.00000000003595
  0
ARC
  5
330
330
1F
100
AcDbEntity
  8
1
  6
Continuous
100
AcDbCircle
 10
416.5966228406082
 20
250.3262047233961
 30
0.0
 40
0.6999999999998524
100
AcDbArc
 50
84.99999999992069
 51
-94.99999999989855
  0
ARC
  5
331
330
1F
100
AcDbEntity
  8
1
  6
Continuous
100
AcDbCircle
 10
424.6965228406093
 20
251.3442047233961
 30
0.0
 40
0.6999999999998178
100
AcDbArc
 50
-95.00000000004688
 51
85.00000000003738
  0
ARC
  5
332
330
1F
100
AcDbEntity
  8
1
  6
Continuous
100
AcDbCircle
 10
416.5966228406082
 20
252.0532047233961
 30
0.0
 40
0.6999999999997675
100
AcDbArc
 50
84.99999999992008
 51
-94.99999999989916
  0
ARC
  5
333
330
1F
100
AcDbEntity
  8
1
  6
Continuous
100
AcDbCircle
 10
416.5966228406082
 20
253.7802047233961
 30
0.0
 40
0.6999999999998524
100
AcDbArc
 50
84.99999999992069
 51
-94.99999999989774
  0
ARC
  5
334
330
1F
100
AcDbEntity
  8
1
  6
Continuous
100
AcDbCircle
 10
424.6965228406093
 20
253.0712047233962
 30
0.0
 40
0.7000000000000159
100
AcDbArc
 50
-95.00000000004545
 51
85.00000000003595
  0
ARC
  5
335
330
1F
100
AcDbEntity
  8
1
  6
Continuous
100
AcDbCircle
 10
424.6965228406093
 20
254.7982047233961
 30
0.0
 40
0.6999999999997328
100
AcDbArc
 50
-95.00000000004749
 51
85.00000000003657
  0
ARC
  5
336
330
1F
100
AcDbEntity
  8
1
  6
Continuous
100
AcDbCircle
 10
416.5966228406082
 20
255.5062047233961
 30
0.0
 40
0.6999999999998524
100
AcDbArc
 50
84.99999999992069
 51
-94.99999999989916
  0
ARC
  5
337
330
1F
100
AcDbEntity
  8
1
  6
Continuous
100
AcDbCircle
 10
416.5966228406082
 20
257.233204723396
 30
0.0
 40
0.6999999999999373
100
AcDbArc
 50
84.99999999992129
 51
-94.99999999989997
  0
ARC
  5
338
330
1F
100
AcDbEntity
  8
1
  6
Continuous
100
AcDbCircle
 10
424.6965228406093
 20
256.5242047233959
 30
0.0
 40
0.6999999999995064
100
AcDbArc
 50
-95.0000000000491
 51
85.0000000000388
  0
ARC
  5
339
330
1F
100
AcDbEntity
  8
1
  6
Continuous
100
AcDbCircle
 10
424.6965228406093
 20
258.2512047233962
 30
0.0
 40
0.7000000000000159
100
AcDbArc
 50
-95.00000000004545
 51
85.00000000003595
  0
ARC
  5
33A
330
1F
100
AcDbEntity
  8
1
  6
Continuous
100
AcDbCircle
 10
416.5966228406082
 20
258.9592047233962
 30
0.0
 40
0.6999999999999373
100
AcDbArc
 50
84.99999999992129
 51
-94.99999999989754
  0
ARC
  5
33B
330
1F
100
AcDbEntity
  8
1
  6
Continuous
100
AcDbCircle
 10
416.5966228406082
 20
260.6862047233962
 30
0.0
 40
0.6999999999996542
100
AcDbArc
 50
84.99999999991927
 51
-94.99999999989714
  0
ARC
  5
33C
330
1F
100
AcDbEntity
  8
1
  6
Continuous
100
AcDbCircle
 10
424.6965228406093
 20
259.9772047233962
 30
0.0
 40
0.6999999999998461
100
AcDbArc
 50
-95.00000000004667
 51
85.00000000003595
  0
ARC
  5
33D
330
1F
100
AcDbEntity
  8
1
  6
Continuous
100
AcDbCircle
 10
392.6466228406093
 20
267.8892047233962
 30
0.0
 40
1.49999999999983
100
AcDbArc
 50
90.0
 51
-179.9999999999935
  0
ARC
  5
33E
330
1F
100
AcDbEntity
  8
1
  6
Continuous
100
AcDbCircle
 10
420.6466228406093
 20
267.8892047233962
 30
0.0
 40
1.5
100
AcDbArc
 50
-0.00000000000651
 51
90.0
  0
ARC
  5
33F
330
1F
100
AcDbEntity
  8
1
  6
Continuous
100
AcDbCircle
 10
406.6466228406093
 20
224.139204723396
 30
0.0
 40
6.250000000000095
100
AcDbArc
 50
179.9999899999972
 51
0.0
  0
ARC
  5
340
330
1F
100
AcDbEntity
  8
1
  6
Continuous
100
AcDbCircle
 10
399.3966228406093
 20
232.389204723396
 30
0.0
 40
1.0
100
AcDbArc
 50
0.0
 51
90.0
  0
ARC
  5
341
330
1F
100
AcDbEntity
  8
1
  6
Continuous
100
AcDbCircle
 10
413.8966228406093
 20
232.389204723396
 30
0.0
 40
1.0
100
AcDbArc
 50
90.0
 51
180.0
  0
ARC
  5
342
330
1F
100
AcDbEntity
  8
1
  6
Continuous
100
AcDbCircle
 10
417.1466228406093
 20
240.389204723396
 30
0.0
 40
1.500000000000555
100
AcDbArc
 50
128.4097000000092
 51
180.0
  0
ARC
  5
343
330
1F
100
AcDbEntity
  8
1
  6
Continuous
100
AcDbCircle
 10
417.1466228406093
 20
269.389204723396
 30
0.0
 40
1.5
100
AcDbArc
 50
180.0
 51
-90.0
  0
ARC
  5
344
330
1F
100
AcDbEntity
  8
1
  6
Continuous
100
AcDbCircle
 10
419.1466228406093
 20
243.889204723396
 30
0.0
 40
1.499999999999679
100
AcDbArc
 50
-51.59000000004209
 51
0.0
  0
ARC
  5
345
330
1F
100
AcDbEntity
  8
1
  6
Continuous
100
AcDbCircle
 10
396.1466228406093
 20
240.389204723396
 30
0.0
 40
1.5
100
AcDbArc
 50
0.0
 51
51.5900000000205
  0
ARC
  5
346
330
1F
100
AcDbEntity
  8
1
  6
Continuous
100
AcDbCircle
 10
394.1466228406093
 20
243.889204723396
 30
0.0
 40
1.5
100
AcDbArc
 50
180.0
 51
-128.4100000000005
  0
ARC
  5
347
330
1F
100
AcDbEntity
  8
1
  6
Continuous
100
AcDbCircle
 10
396.1466228406093
 20
269.389204723396
 30
0.0
 40
1.5
100
AcDbArc
 50
-90.0
 51
0.0
  0
ARC
  5
348
330
1F
100
AcDbEntity
  8
1
  6
Continuous
100
AcDbCircle
 10
420.6466228406093
 20
697.8527020160283
 30
0.0
 40
4.749999999999773
100
AcDbArc
 50
-90.0
 51
90.0
  0
ARC
  5
349
330
1F
100
AcDbEntity
  8
1
  6
Continuous
100
AcDbCircle
 10
420.6466228406093
 20
697.8527020160283
 30
0.0
 40
3.350000000000136
100
AcDbArc
 50
-90.0
 51
90.0
  0
ARC
  5
34A
330
1F
100
AcDbEntity
  8
1
  6
Continuous
100
AcDbCircle
 10
392.6466228406093
 20
697.8527020160283
 30
0.0
 40
4.749999999999476
100
AcDbArc
 50
-71.59200000000222
 51
-40.74000000000665
  0
ARC
  5
34B
330
1F
100
AcDbEntity
  8
1
  6
Continuous
100
AcDbCircle
 10
392.6466228406093
 20
697.8527020160283
 30
0.0
 40
3.35000000000034
100
AcDbArc
 50
-63.39999999999868
 51
-48.26799999999063
  0
ARC
  5
34C
330
1F
100
AcDbEntity
  8
1
  6
Continuous
100
AcDbCircle
 10
420.6466228406093
 20
697.8527020160283
 30
0.0
 40
3.350000000000595
100
AcDbArc
 50
116.6000000000187
 51
131.7320000000011
  0
ARC
  5
34D
330
1F
100
AcDbEntity
  8
1
  6
Continuous
100
AcDbCircle
 10
420.6466228406093
 20
697.8527020160283
 30
0.0
 40
4.749999999999798
100
AcDbArc
 50
108.4080000000095
 51
148.2429999999953
  0
ARC
  5
34E
330
1F
100
AcDbEntity
  8
1
  6
Continuous
100
AcDbCircle
 10
420.6466228406093
 20
697.8527020160283
 30
0.0
 40
3.349999999999459
100
AcDbArc
 50
-131.7318000000036
 51
-116.6000999999949
  0
ARC
  5
34F
330
1F
100
AcDbEntity
  8
1
  6
Continuous
100
AcDbCircle
 10
392.6466228406093
 20
697.8527020160283
 30
0.0
 40
4.750000000000222
100
AcDbArc
 50
31.75700000000004
 51
71.59200000000222
  0
ARC
  5
350
330
1F
100
AcDbEntity
  8
1
  6
Continuous
100
AcDbCircle
 10
392.6466228406093
 20
697.8527020160283
 30
0.0
 40
4.75
100
AcDbArc
 50
90.0
 51
-90.0
  0
ARC
  5
351
330
1F
100
AcDbEntity
  8
1
  6
Continuous
100
AcDbCircle
 10
392.6466228406093
 20
697.8527020160283
 30
0.0
 40
3.350000000000085
100
AcDbArc
 50
48.26799999998804
 51
63.39999999999694
  0
ARC
  5
352
330
1F
100
AcDbEntity
  8
1
  6
Continuous
100
AcDbCircle
 10
392.6466228406093
 20
697.8527020160283
 30
0.0
 40
3.349999999999909
100
AcDbArc
 50
90.0
 51
-90.0
  0
ARC
  5
353
330
1F
100
AcDbEntity
  8
1
  6
Continuous
100
AcDbCircle
 10
420.6466228406093
 20
697.8527020160283
 30
0.0
 40
4.750000000001235
100
AcDbArc
 50
-137.4631000000091
 51
-108.408499999997
  0
ARC
  5
354
330
1F
100
AcDbEntity
  8
1
  6
Continuous
100
AcDbCircle
 10
413.3966228406093
 20
704.8527020160283
 30
0.0
 40
1.5
100
AcDbArc
 50
0.0
 51
90.0
  0
ARC
  5
355
330
1F
100
AcDbEntity
  8
1
  6
Continuous
100
AcDbCircle
 10
399.8966228406093
 20
704.8527020160283
 30
0.0
 40
1.5
100
AcDbArc
 50
90.0
 51
180.0
  0
ARC
  5
356
330
1F
100
AcDbEntity
  8
0
  6
DASHED
 62
     4
100
AcDbCircle
 10
363.4797733309483
 20
186.8394231266993
 30
0.0
 40
6.800000000000137
100
AcDbArc
 50
179.9998710000026
 51
-90.0
  0
ARC
  5
357
330
1F
100
AcDbEntity
  8
0
  6
DASHED
 62
     4
100
AcDbCircle
 10
363.4797733309483
 20
253.2394171266992
 30
0.0
 40
6.800000000000068
100
AcDbArc
 50
90.0
 51
179.9997429999994
  0
ARC
  5
358
330
1F
100
AcDbEntity
  8
0
  6
DASH_CENTER
 62
     3
100
AcDbCircle
 10
396.6797853309481
 20
220.0394201266994
 30
0.0
 40
47.00000000000038
100
AcDbArc
 50
-141.1530089999991
 51
-128.7836000000009
  0
ARC
  5
359
330
1F
100
AcDbEntity
  8
0
  6
DASH_CENTER
 62
     3
100
AcDbCircle
 10
396.6797853309481
 20
220.0394201266994
 30
0.0
 40
46.99999999999977
100
AcDbArc
 50
129.1887659999991
 51
143.1036930000003
  0
ARC
  5
35A
330
1F
100
AcDbEntity
  8
0
  6
DASHED
 62
     4
100
AcDbCircle
 10
429.8797973309474
 20
253.2394171266992
 30
0.0
 40
6.800000000000434
100
AcDbArc
 50
0.00025700000064
 51
90.0
  0
ARC
  5
35B
330
1F
100
AcDbEntity
  8
0
  6
DASHED
 62
     4
100
AcDbCircle
 10
429.8797973309474
 20
186.8394231266993
 30
0.0
 40
6.80000000000021
100
AcDbArc
 50
-90.0
 51
0.00012899999741
  0
ARC
  5
35C
330
1F
100
AcDbEntity
  8
0
  6
DASH_CENTER
 62
     3
100
AcDbCircle
 10
396.6797853309481
 20
220.0394201266994
 30
0.0
 40
46.99999999999938
100
AcDbArc
 50
36.55219999999985
 51
50.81123400000061
  0
ARC
  5
35D
330
1F
100
AcDbEntity
  8
0
  6
DASH_CENTER
 62
     3
100
AcDbCircle
 10
396.6797853309481
 20
220.0394201266994
 30
0.0
 40
46.99999999999954
100
AcDbArc
 50
-51.21640000000092
 51
-37.32412900000075
  0
ARC
  5
35E
330
1F
100
AcDbEntity
  8
0
  6
DASHED
 62
     4
100
AcDbCircle
 10
416.8607853309481
 20
181.9394201266993
 30
0.0
 40
4.999999999999624
100
AcDbArc
 50
-120.7378689999984
 51
-59.26213099999723
  0
ARC
  5
35F
330
1F
100
AcDbEntity
  8
0
  6
DASHED
 62
     4
100
AcDbCircle
 10
414.5607853309475
 20
178.0716041266991
 30
0.0
 40
0.5
100
AcDbArc
 50
180.0
 51
-120.7378690000629
  0
ARC
  5
360
330
1F
100
AcDbEntity
  8
0
  6
DASHED
 62
     4
100
AcDbCircle
 10
419.1607853309483
 20
178.0716041266991
 30
0.0
 40
0.4999999999991303
100
AcDbArc
 50
-59.26213100007147
 51
0.0
  0
ARC
  5
361
330
1F
100
AcDbEntity
  8
1
  6
DASHED
 62
     4
100
AcDbCircle
 10
524.5466228406085
 20
286.389204723396
 30
0.0
 40
13.60000000000008
100
AcDbArc
 50
-66.91970998755154
 51
-39.76394029743608
  0
ARC
  5
362
330
1F
100
AcDbEntity
  8
1
  6
Continuous
 62
     7
100
AcDbCircle
 10
524.5466228406085
 20
286.389204723396
 30
0.0
 40
13.60000000000053
100
AcDbArc
 50
-171.5434806647286
 51
-66.91970998755154
  0
ARC
  5
363
330
1F
100
AcDbEntity
  8
1
  6
DASHED
 62
     4
100
AcDbCircle
 10
524.5466228406085
 20
286.389204723396
 30
0.0
 40
13.59999999999958
100
AcDbArc
 50
127.4280055430409
 51
-171.5434806647286
  0
ARC
  5
364
330
1F
100
AcDbEntity
  8
1
  6
DASHED
 62
     4
100
AcDbCircle
 10
524.5466228406085
 20
286.389204723396
 30
0.0
 40
4.000000000000017
100
AcDbArc
 50
49.6850908252887
 51
130.3149091747063
  0
ARC
  5
365
330
1F
100
AcDbEntity
  8
1
  6
Continuous
 62
     7
100
AcDbCircle
 10
524.5466228406085
 20
286.389204723396
 30
0.0
 40
3.999999999999723
100
AcDbArc
 50
130.3149091747063
 51
-130.3149091747053
  0
ARC
  5
366
330
1F
100
AcDbEntity
  8
1
  6
Continuous
 62
     7
100
AcDbCircle
 10
524.5466228406085
 20
286.389204723396
 30
0.0
 40
4.000000000000103
100
AcDbArc
 50
-49.68509082528975
 51
49.6850908252887
  0
ARC
  5
367
330
1F
100
AcDbEntity
  8
1
  6
DASHED
 62
     4
100
AcDbCircle
 10
524.5466228406085
 20
286.389204723396
 30
0.0
 40
3.99999999999981
100
AcDbArc
 50
-130.3149091747053
 51
-49.68509082528975
  0
ARC
  5
368
330
1F
100
AcDbEntity
  8
1
  6
DASHED
 62
     4
100
AcDbCircle
 10
524.5466228406085
 20
286.389204723396
 30
0.0
 40
13.59999999999916
100
AcDbArc
 50
113.2025730572281
 51
127.4280055430409
  0
ARC
  5
369
330
1F
100
AcDbEntity
  8
1
  6
Continuous
 62
     7
100
AcDbCircle
 10
524.5466228406085
 20
286.389204723396
 30
0.0
 40
13.60000000000012
100
AcDbArc
 50
-39.76394029743608
 51
113.2025730572281
  0
CIRCLE
  5
36A
330
1F
100
AcDbEntity
  8
1
  6
DASH_CENTER
 62
     3
100
AcDbCircle
 10
396.6797853309494
 20
235.0394201266994
 30
0.0
 40
52.50000000000131
  0
CIRCLE
  5
36B
330
1F
100
AcDbEntity
  8
1
  6
Continuous
 62
     3
100
AcDbCircle
 10
355.1466228406093
 20
283.389204723396
 30
0.0
 40
17.0
  0
CIRCLE
  5
36C
330
1F
100
AcDbEntity
  8
1
  6
Continuous
 62
     7
100
AcDbCircle
 10
374.1466228406104
 20
435.8527020160296
 30
0.0
 40
2.75
  0
CIRCLE
  5
36D
330
1F
100
AcDbEntity
  8
1
  6
Continuous
 62
     7
100
AcDbCircle
 10
467.14662284061
 20
435.8527020160296
 30
0.0
 40
2.75
  0
CIRCLE
  5
36E
330
1F
100
AcDbEntity
  8
1
  6
Continuous
 62
     7
100
AcDbCircle
 10
374.1466228406104
 20
709.3527020160296
 30
0.0
 40
2.75
  0
CIRCLE
  5
36F
330
1F
100
AcDbEntity
  8
1
  6
Continuous
 62
     7
100
AcDbCircle
 10
467.14662284061
 20
709.3527020160296
 30
0.0
 40
2.75
  0
CIRCLE
  5
370
330
1F
100
AcDbEntity
  8
1
  6
DASH_CENTER
 62
     3
100
AcDbCircle
 10
355.1302867846002
 20
283.389204723396
 30
0.0
 40
11.25
  0
ARC
  5
371
330
1F
100
AcDbEntity
  8
1
  6
Continuous
 62
     7
100
AcDbCircle
 10
895.6542976610701
 20
272.3892047233962
 30
0.0
 40
1.0
100
AcDbArc
 50
180.0
 51
-120.0000000000135
  0
ARC
  5
372
330
1F
100
AcDbEntity
  8
1
  6
Continuous
 62
     7
100
AcDbCircle
 10
374.1466228406093
 20
443.8527020160297
 30
0.0
 40
5.0
100
AcDbArc
 50
180.0
 51
-90.0
  0
ARC
  5
373
330
1F
100
AcDbEntity
  8
1
  6
Continuous
 62
     7
100
AcDbCircle
 10
452.6466228406075
 20
443.8527020160297
 30
0.0
 40
5.0
100
AcDbArc
 50
-90.0
 51
0.0
  0
ARC
  5
374
330
1F
100
AcDbEntity
  8
1
  6
Continuous
 62
     7
100
AcDbCircle
 10
381.6466228406093
 20
443.8527020160297
 30
0.0
 40
5.0
100
AcDbArc
 50
-90.0
 51
0.0
  0
ARC
  5
375
330
1F
100
AcDbEntity
  8
1
  6
Continuous
 62
     7
100
AcDbCircle
 10
431.1466228406093
 20
443.8527020160297
 30
0.0
 40
5.0
100
AcDbArc
 50
180.0
 51
-90.0
  0
ARC
  5
376
330
1F
100
AcDbEntity
  8
1
  6
Continuous
 62
     7
100
AcDbCircle
 10
431.3966228406093
 20
700.8482075285991
 30
0.0
 40
5.0
100
AcDbArc
 50
90.0
 51
180.0
  0
ARC
  5
377
330
1F
100
AcDbEntity
  8
1
  6
Continuous
 62
     7
100
AcDbCircle
 10
381.8966228406093
 20
700.8482075285979
 30
0.0
 40
5.0
100
AcDbArc
 50
0.0
 51
90.0
  0
ARC
  5
378
330
1F
100
AcDbEntity
  8
1
  6
PHANTOM
 62
     7
100
AcDbCircle
 10
452.6466228406103
 20
700.8482075285991
 30
0.0
 40
5.0
100
AcDbArc
 50
-0.00000000000261
 51
5.73917047726715
  0
ARC
  5
379
330
1F
100
AcDbEntity
  8
1
  6
Continuous
 62
     7
100
AcDbCircle
 10
374.3966228406093
 20
700.8482075285979
 30
0.0
 40
5.0
100
AcDbArc
 50
90.0
 51
180.0
  0
ARC
  5
37A
330
1F
100
AcDbEntity
  8
1
  6
Continuous
 62
     7
100
AcDbCircle
 10
649.6542976610692
 20
285.389204723396
 30
0.0
 40
5.0
100
AcDbArc
 50
180.0
 51
-90.0
  0
ARC
  5
37B
330
1F
100
AcDbEntity
  8
1
  6
Continuous
 62
     7
100
AcDbCircle
 10
649.6542976610692
 20
288.389204723396
 30
0.0
 40
5.000000000000171
100
AcDbArc
 50
90.0
 51
180.0
  0
ARC
  5
37C
330
1F
100
AcDbEntity
  8
1
  6
Continuous
 62
     7
100
AcDbCircle
 10
893.154297661069
 20
297.389204723396
 30
0.0
 40
1.500000000001137
100
AcDbArc
 50
0.00000000000651
 51
89.99999999995657
  0
ARC
  5
37D
330
1F
100
AcDbEntity
  8
1
  6
Continuous
 62
     7
100
AcDbCircle
 10
659.1542976610692
 20
297.389204723396
 30
0.0
 40
1.5
100
AcDbArc
 50
90.0
 51
179.9999999999935
  0
ARC
  5
37E
330
1F
100
AcDbEntity
  8
1
  6
Continuous
 62
     7
100
AcDbCircle
 10
902.6542976610701
 20
288.389204723396
 30
0.0
 40
5.0
100
AcDbArc
 50
0.0
 51
90.0
  0
ARC
  5
37F
330
1F
100
AcDbEntity
  8
1
  6
Continuous
 62
     7
100
AcDbCircle
 10
902.6542976610701
 20
285.389204723396
 30
0.0
 40
4.99999999999983
100
AcDbArc
 50
-90.0
 51
0.0
  0
ARC
  5
380
330
1F
100
AcDbEntity
  8
1
  6
Continuous
 62
     7
100
AcDbCircle
 10
884.6542976610701
 20
292.8892047233962
 30
0.0
 40
2.0
100
AcDbArc
 50
180.0
 51
-90.0
  0
ARC
  5
381
330
1F
100
AcDbEntity
  8
1
  6
Continuous
 62
     7
100
AcDbCircle
 10
686.6542976610685
 20
292.8892047233962
 30
0.0
 40
2.000000000000171
100
AcDbArc
 50
-90.0
 51
0.0
  0
ARC
  5
382
330
1F
100
AcDbEntity
  8
1
  6
Continuous
 62
     7
100
AcDbCircle
 10
899.576947391879
 20
272.3892047233962
 30
0.0
 40
1.0
100
AcDbArc
 50
-90.0
 51
-30.00000000001313
  0
ARC
  5
383
330
1F
100
AcDbEntity
  8
1
  6
Continuous
 62
     7
100
AcDbCircle
 10
652.7316479302592
 20
272.3892047233962
 30
0.0
 40
0.9999999999996883
100
AcDbArc
 50
-149.9999999999897
 51
-90.0
  0
ARC
  5
384
330
1F
100
AcDbEntity
  8
1
  6
Continuous
 62
     7
100
AcDbCircle
 10
452.6466228406103
 20
700.8482075285991
 30
0.0
 40
4.999999999999683
100
AcDbArc
 50
5.73917047726715
 51
90.0
  0
ARC
  5
385
330
1F
100
AcDbEntity
  8
1
  6
Continuous
 62
     7
100
AcDbCircle
 10
508.9466228406092
 20
271.8892047233969
 30
0.0
 40
2.0
100
AcDbArc
 50
-90.0
 51
0.0
  0
ARC
  5
386
330
1F
100
AcDbEntity
  8
1
  6
Continuous
 62
     7
100
AcDbCircle
 10
521.1466228406091
 20
275.889204723396
 30
0.0
 40
2.0
100
AcDbArc
 50
180.0
 51
-90.0
  0
ARC
  5
387
330
1F
100
AcDbEntity
  8
1
  6
Continuous
 62
     7
100
AcDbCircle
 10
530.1466228406091
 20
278.8892047233961
 30
0.0
 40
5.000000000000114
100
AcDbArc
 50
-90.0
 51
0.0
  0
ARC
  5
388
330
1F
100
AcDbEntity
  8
1
  6
Continuous
 62
     7
100
AcDbCircle
 10
486.14295889662
 20
175.8892047233958
 30
0.0
 40
2.0
100
AcDbArc
 50
-90.0
 51
0.0
  0
ARC
  5
389
330
1F
100
AcDbEntity
  8
1
  6
Continuous
 62
     7
100
AcDbCircle
 10
343.1466228406093
 20
270.3892047233956
 30
0.0
 40
5.0
100
AcDbArc
 50
90.0
 51
180.0
  0
ARC
  5
38A
330
1F
100
AcDbEntity
  8
1
  6
Continuous
 62
     7
100
AcDbCircle
 10
340.1466228406093
 20
175.8892047233958
 30
0.0
 40
2.0
100
AcDbArc
 50
180.0
 51
-90.0
  0
ARC
  5
38B
330
1F
100
AcDbEntity
  8
1
  6
Continuous
 62
     7
100
AcDbCircle
 10
364.1466228406093
 20
270.3892047233956
 30
0.0
 40
5.0
100
AcDbArc
 50
0.0
 51
90.0
  0
ARC
  5
38C
330
1F
100
AcDbEntity
  8
1
  6
Continuous
 62
     7
100
AcDbCircle
 10
483.14295889662
 20
270.3892047233956
 30
0.0
 40
5.0
100
AcDbArc
 50
0.0
 51
90.0
  0
ARC
  5
38D
330
1F
100
AcDbEntity
  8
1
  6
Continuous
 62
     7
100
AcDbCircle
 10
463.14295889662
 20
270.3892047233957
 30
0.0
 40
5.0
100
AcDbArc
 50
90.0
 51
-179.9999999999987
  0
ARC
  5
38E
330
1F
100
AcDbEntity
  8
1
  6
Continuous
 62
     7
100
AcDbCircle
 10
471.1629588966191
 20
203.8892047233957
 30
0.0
 40
2.0
100
AcDbArc
 50
-0.00000000000814
 51
90.0
  0
ARC
  5
38F
330
1F
100
AcDbEntity
  8
1
  6
Continuous
 62
     7
100
AcDbCircle
 10
370.1466228406093
 20
203.8892047233957
 30
0.0
 40
1.999999999999716
100
AcDbArc
 50
90.0
 51
-179.9999999999918
  0
ARC
  5
390
330
1F
100
AcDbEntity
  8
1
  6
Continuous
 62
     7
100
AcDbCircle
 10
471.14662284061
 20
432.8527020160297
 30
0.0
 40
2.0
100
AcDbArc
 50
-90.0
 51
0.0
  0
ARC
  5
391
330
1F
100
AcDbEntity
  8
1
  6
Continuous
 62
     7
100
AcDbCircle
 10
370.1466228406093
 20
432.8527020160297
 30
0.0
 40
2.0
100
AcDbArc
 50
180.0
 51
-90.0
  0
ARC
  5
392
330
1F
100
AcDbEntity
  8
1
  6
Continuous
 62
     7
100
AcDbCircle
 10
370.1466228406093
 20
712.3527020160296
 30
0.0
 40
2.0
100
AcDbArc
 50
90.0
 51
180.0
  0
ARC
  5
393
330
1F
100
AcDbEntity
  8
1
  6
Continuous
 62
     7
100
AcDbCircle
 10
471.14662284061
 20
712.3527020160296
 30
0.0
 40
2.0
100
AcDbArc
 50
0.0
 51
90.00000000000651
  0
ARC
  5
394
330
1F
100
AcDbEntity
  8
1
  6
Continuous
 62
     3
100
AcDbCircle
 10
340.1466228406093
 20
455.8527020160297
 30
0.0
 40
2.0
100
AcDbArc
 50
180.0
 51
-90.0
  0
ARC
  5
395
330
1F
100
AcDbEntity
  8
1
  6
Continuous
 62
     3
100
AcDbCircle
 10
340.1466228406093
 20
689.3527020160296
 30
0.0
 40
2.0
100
AcDbArc
 50
90.0
 51
180.0
  0
ARC
  5
396
330
1F
100
AcDbEntity
  8
1
  6
Continuous
 62
     7
100
AcDbCircle
 10
894.1542976610701
 20
270.1166113337085
 30
0.0
 40
1.0
100
AcDbArc
 50
0.0
 51
90.0
  0
LINE
  5
397
330
1F
100
AcDbEntity
  8
1
 62
     2
100
AcDbLine
 10
500.5576531226404
 20
158.8254389273449
 30
0.0
 11
508.0576531226404
 21
160.8350578705783
 31
0.0
  0
LINE
  5
398
330
1F
100
AcDbEntity
  8
1
 62
     2
100
AcDbLine
 10
500.5576531226404
 20
158.8254389273449
 30
0.0
 11
508.0576531226404
 21
156.8158199841115
 31
0.0
  0
LEADER
  5
399
330
1F
100
AcDbEntity
  8
1
  6
Continuous
 62
     2
100
AcDbLeader
  3
Standard
 71
     0
 76
     2
 10
500.5576531226404
 20
158.8254389273449
 30
0.0
 10
526.2895246604278
 20
158.8254389273449
 30
0.0
  0
LINE
  5
39A
330
1F
100
AcDbEntity
  8
1
 62
     2
100
AcDbLine
 10
524.5547908686131
 20
304.1071339946757
 30
0.0
 11
532.0547908686131
 21
306.1167529379091
 31
0.0
  0
LINE
  5
39B
330
1F
100
AcDbEntity
  8
1
 62
     2
100
AcDbLine
 10
524.5547908686131
 20
304.1071339946757
 30
0.0
 11
532.0547908686131
 21
302.0975150514423
 31
0.0
  0
LEADER
  5
39C
330
1F
100
AcDbEntity
  8
1
  6
Continuous
 62
     2
100
AcDbLeader
  3
Standard
 71
     0
 76
     2
 10
524.5547908686131
 20
304.1071339946757
 30
0.0
 10
552.7895246604282
 20
304.1071339946757
 30
0.0
  0
MTEXT
  5
39D
330
1F
100
AcDbEntity
  8
1
 62
     2
100
AcDbMText
 10
523.3154618128685
 20
165.1689359245014
 30
0.0
 40
9.6
 41
0.0
 71
     5
 72
     1
  1
A
  7
CONVERTER_1
 73
     1
 44
0.60024009603842
  0
MTEXT
  5
39E
330
1F
100
AcDbEntity
  8
1
 62
     2
100
AcDbMText
 10
549.1859999421829
 20
310.450630991832
 30
0.0
 40
9.6
 41
0.0
 71
     5
 72
     1
  1
A
  7
CONVERTER_1
 73
     1
 44
0.60024009603842
  0
MTEXT
  5
39F
330
1F
100
AcDbEntity
  8
1
 62
     2
100
AcDbMText
 10
782.2877875282552
 20
155.7216752503519
 30
0.0
 40
9.6
 41
0.0
 71
     5
 72
     1
  1
A-A矢視図
  7
CONVERTER_3
 73
     1
 44
0.60024009603842
  0
TEXT
  5
3A0
330
1F
100
AcDbEntity
  8
1
 62
     2
100
AcDbText
 10
893.372093023256
 20
101.47704014379
 30
0.0
 40
15.0
  1
本図はLタイプです
 41
0.89
  7
CONVERTER_3
100
AcDbText
  0
TEXT
  5
3A1
330
1F
100
AcDbEntity
  8
1
 62
     2
100
AcDbText
 10
247.0535824578142
 20
83.84427493191578
 30
0.0
 40
12.0
  1
※3 テールローラシャフトはケガキ線より上流側にして下さい
 41
0.89
  7
CONVERTER_3
100
AcDbText
  0
TEXT
  5
3A2
330
1F
100
AcDbEntity
  8
1
 62
     2
100
AcDbText
 10
248.8306217018
 20
105.1687458597482
 30
0.0
 40
12.0
  1
※2 呼称機長15cm，25cm以外の場合は、原動部より上流側に機長が飛び出ます
 41
0.89
  7
CONVERTER_3
100
AcDbText
  0
TEXT
  5
3A3
330
1F
100
AcDbEntity
  8
1
 62
     2
100
AcDbText
 10
515.2561713594637
 20
234.5364078374582
 30
0.0
 40
9.6
  1
※2
 41
0.89
  7
CONVERTER_3
100
AcDbText
  0
TEXT
  5
3A4
330
1F
100
AcDbEntity
  8
1
 62
     2
100
AcDbText
 10
249.2587673479341
 20
126.603380241054
 30
0.0
 40
12.0
  1
※1 呼称機長はベルトのテークアップにより最大5 mm伸びます
 41
0.89
  7
CONVERTER_3
100
AcDbText
  0
TEXT
  5
3A5
330
1F
100
AcDbEntity
  8
1
 62
     2
100
AcDbText
 10
514.523827208694
 20
33.37102369799023
 30
0.0
 40
9.6
  1
2013.11.18
 41
0.9
  7
CONVERTER_1
100
AcDbText
  0
TEXT
  5
3A6
330
1F
100
AcDbEntity
  8
1
 62
     2
100
AcDbText
 10
758.6943894188769
 20
9.97900346315983
 30
0.0
 40
12.0
  1
SL
 41
0.9
  7
CONVERTER_1
100
AcDbText
  0
TEXT
  5
3A8
330
1F
100
AcDbEntity
  8
1
 62
     2
100
AcDbText
 10
896.7994647310384
 20
39.57888596490002
 30
0.0
 40
9.6
  1
本体組立図 ベルト幅 150 200 250 mm 呼称機長 15 cm 以上 25 cm未満
 41
0.5785
  7
CONVERTER_6
100
AcDbText
  0
TEXT
  5
3A9
330
1F
100
AcDbEntity
  8
1
 62
     2
100
AcDbText
 10
1063.49026178552
 20
9.61953463152502
 30
0.0
 40
9.6
  1
W_SL_S_010A
 41
0.9
  7
CONVERTER_1
100
AcDbText
  0
TEXT
  5
3AA
330
1F
100
AcDbEntity
  8
1
 62
     2
100
AcDbText
 10
731.420776143189
 20
37.80861606360593
 30
0.0
 40
12.0
  1
N1シリーズ
 41
0.89
  7
CONVERTER_3
100
AcDbText
  0
TEXT
  5
3AB
330
1F
100
AcDbEntity
  8
1
 62
     2
100
AcDbText
 10
244.809542980212
 20
194.841237326979
 30
0.0
 40
9.6
  1
MCナイロン
 41
0.89
  7
CONVERTER_3
100
AcDbText
  0
DIMENSION
  5
3C0
330
1F
100
AcDbEntity
  8
1
100
AcDbDimension
  2
*D02
 10
323.0546029198574
 20
450.8527020160296
 30
0.0
 11
315.2546029198574
 21
443.7384023546115
 31
0.0
 70
    32
  1
<>
 71
     5
 42
-1.0
 53
90.0
  3
ME10_DIM_0
100
AcDbAlignedDimension
 13
370.0216228406104
 23
435.8527020160297
 33
0.0
 14
338.1466228406093
 24
450.8527020160297
 34
0.0
 50
90.0
100
AcDbRotatedDimension
  0
DIMENSION
  5
3CF
330
1F
100
AcDbEntity
  8
1
100
AcDbDimension
  2
*D14
 10
323.0546029198574
 20
694.3527020160296
 30
0.0
 11
315.2546029198574
 21
702.906123152036
 31
0.0
 70
    32
  1
<>
 71
     5
 42
-1.0
 53
90.0
  3
ME10_DIM_1
100
AcDbAlignedDimension
 13
370.0216228406104
 23
709.3527020160296
 33
0.0
 14
338.1466228406093
 24
694.3527020160296
 34
0.0
 50
90.0
100
AcDbRotatedDimension
  0
DIMENSION
  5
3DD
330
1F
100
AcDbEntity
  8
1
100
AcDbDimension
  2
*D25
 10
473.14662284061
 20
375.2613839518926
 30
0.0
 11
417.3452723613361
 21
382.1613839518926
 31
0.0
 70
    32
  1
<>
 71
     5
 42
-1.0
 53
0.00013888888889
  3
ME10_DIM_2
100
AcDbAlignedDimension
 13
368.1466228406093
 23
432.8527020160297
 33
0.0
 14
473.14662284061
 24
432.8527020160297
 34
0.0
100
AcDbRotatedDimension
  0
DIMENSION
  5
3EA
330
1F
100
AcDbEntity
  8
1
100
AcDbDimension
  2
*D36
 10
467.14662284061
 20
397.4931460430278
 30
0.0
 11
416.3807410059395
 21
405.1131460430278
 31
0.0
 70
    32
  1
<>
 71
     5
 42
-1.0
 53
0.00013888888889
  3
ME10_DIM_3
100
AcDbAlignedDimension
 13
374.1466228406104
 23
431.7277020160297
 33
0.0
 14
467.14662284061
 24
431.7277020160297
 34
0.0
100
AcDbRotatedDimension
  0
DIMENSION
  5
3F8
330
1F
100
AcDbEntity
  8
1
100
AcDbDimension
  2
*D47
 10
538.1497202100011
 20
214.6823195447763
 30
0.0
 11
520.3064519093
 21
224.8719661669757
 31
0.0
 70
    32
  1
1～99
 71
     5
 42
-1.0
 53
0.00013888888889
  3
ME10_DIM_4
100
AcDbAlignedDimension
 13
488.14295889662
 23
270.3892047233956
 33
0.0
 14
538.1497202100011
 24
294.4892047233959
 34
0.0
100
AcDbRotatedDimension
  0
DIMENSION
  5
405
330
1F
100
AcDbEntity
  8
1
100
AcDbDimension
  2
*D58
 10
538.149720210001
 20
335.8176827748602
 30
0.0
 11
430.8501788908766
 21
342.7176827748602
 31
0.0
 70
    32
  1
呼称機長　※1
 71
     5
 42
-1.0
 53
0.00013888888889
  3
ME10_DIM_5
100
AcDbAlignedDimension
 13
338.1466228406093
 23
270.3892047233956
 33
0.0
 14
538.1497202100011
 24
294.4892047233959
 34
0.0
100
AcDbRotatedDimension
  0
DIMENSION
  5
412
330
1F
100
AcDbEntity
  8
1
100
AcDbDimension
  2
*D69
 10
289.4224172936151
 20
681.8527020160298
 30
0.0
 11
281.6224172936151
 21
575.4107773470108
 31
0.0
 70
    32
  1
200(ベルト幅)
 71
     5
 42
-1.0
 53
90.0
  3
ME10_DIM_6
100
AcDbAlignedDimension
 13
338.1466228406093
 23
481.8527020160299
 33
0.0
 14
338.1466228406093
 24
681.8527020160296
 34
0.0
 50
90.0
100
AcDbRotatedDimension
  0
DIMENSION
  5
421
330
1F
100
AcDbEntity
  8
1
100
AcDbDimension
  2
*D710
 10
289.4224172936151
 20
681.8527020160298
 30
0.0
 11
281.6224172936151
 21
736.7344462260786
 31
0.0
 70
    32
  1
<>
 71
     5
 42
-1.0
 53
90.0
  3
ME10_DIM_7
100
AcDbAlignedDimension
 13
338.1466228406093
 23
694.3527020160296
 33
0.0
 14
338.1466228406093
 24
681.8527020160296
 34
0.0
 50
90.0
100
AcDbRotatedDimension
  0
DIMENSION
  5
42E
330
1F
100
AcDbEntity
  8
1
100
AcDbDimension
  2
*D811
 10
289.4224172936151
 20
450.8527020160297
 30
0.0
 11
281.6224172936151
 21
465.3532306481706
 31
0.0
 70
    32
  1
<>
 71
     5
 42
-1.0
 53
90.0
  3
ME10_DIM_8
100
AcDbAlignedDimension
 13
338.1466228406093
 23
481.8527020160299
 33
0.0
 14
338.1466228406093
 24
450.8527020160297
 34
0.0
 50
90.0
100
AcDbRotatedDimension
  0
DIMENSION
  5
43B
330
1F
100
AcDbEntity
  8
1
100
AcDbDimension
  2
*D912
 10
256.3249021540509
 20
450.8527020160299
 30
0.0
 11
248.6749021540509
 21
569.7668005932236
 31
0.0
 70
    32
  1
機幅
 71
     5
 42
-1.0
 53
90.0
  3
ME10_DIM_9
100
AcDbAlignedDimension
 13
338.1466228406093
 23
694.3527020160296
 33
0.0
 14
338.1466228406093
 24
450.8527020160297
 34
0.0
 50
90.0
100
AcDbRotatedDimension
  0
DIMENSION
  5
44A
330
1F
100
AcDbEntity
  8
1
100
AcDbDimension
  2
*D1013
 10
256.324902154051
 20
430.8527020160298
 30
0.0
 11
248.524902154051
 21
439.0146724638335
 31
0.0
 70
    32
  1
<>
 71
     5
 42
-1.0
 53
90.0
  3
ME10_DIM_10
100
AcDbAlignedDimension
 13
338.1466228406093
 23
450.8527020160297
 33
0.0
 14
370.1466228406093
 24
430.8527020160297
 34
0.0
 50
90.0
100
AcDbRotatedDimension
  0
DIMENSION
  5
459
330
1F
100
AcDbEntity
  8
1
100
AcDbDimension
  2
*D1114
 10
256.324902154051
 20
694.3527020160295
 30
0.0
 11
248.524902154051
 21
704.2815798918056
 31
0.0
 70
    32
  1
<>
 71
     5
 42
-1.0
 53
90.0
  3
ME10_DIM_11
100
AcDbAlignedDimension
 13
370.1466228406093
 23
714.3527020160296
 33
0.0
 14
338.1466228406093
 24
694.3527020160296
 34
0.0
 50
90.0
100
AcDbRotatedDimension
  0
DIMENSION
  5
466
330
1F
100
AcDbEntity
  8
1
100
AcDbDimension
  2
*D1215
 10
685.6542976610695
 20
325.0649901951497
 30
0.0
 11
786.668065097168
 21
331.8149901951497
 31
0.0
 70
    32
  1
ベルト幅
 71
     5
 42
-1.0
 53
0.00013888888889
  3
ME10_DIM_12
100
AcDbAlignedDimension
 13
885.6542976610701
 23
301.2892047233963
 33
0.0
 14
685.6542976610695
 24
301.2892047233963
 34
0.0
100
AcDbRotatedDimension
  0
DIMENSION
  5
473
330
1F
100
AcDbEntity
  8
1
100
AcDbDimension
  2
*D1316
 10
338.1466228406093
 20
397.4931460430277
 30
0.0
 11
356.8555488499647
 21
406.0131460430277
 31
0.0
 70
    32
  1
<>
 71
     5
 42
-1.0
 53
0.00013888888889
  3
ME10_DIM_13
100
AcDbAlignedDimension
 13
374.1466228406104
 23
431.7277020160297
 33
0.0
 14
338.1466228406093
 24
450.8527020160297
 34
0.0
100
AcDbRotatedDimension
  0
DIMENSION
  5
480
330
1F
100
AcDbEntity
  8
1
100
AcDbDimension
  2
*D1417
 10
338.1466228406093
 20
375.2613839518927
 30
0.0
 11
352.534265683353
 21
383.0613839518927
 31
0.0
 70
    32
  1
<>
 71
     5
 42
-1.0
 53
0.00013888888889
  3
ME10_DIM_14
100
AcDbAlignedDimension
 13
368.1466228406093
 23
432.8527020160297
 33
0.0
 14
338.1466228406093
 24
450.8527020160297
 34
0.0
100
AcDbRotatedDimension
  0
DIMENSION
  5
48F
330
1F
100
AcDbEntity
  8
1
100
AcDbDimension
  2
*D1518
 10
910.1542976610701
 20
343.1959748444027
 30
0.0
 11
903.246863508012
 21
350.0959748444027
 31
0.0
 70
    32
  1
<>
 71
     5
 42
-1.0
 53
0.00013888888889
  3
ME10_DIM_15
100
AcDbAlignedDimension
 13
898.1542976610701
 23
283.2392047233959
 33
0.0
 14
910.1542976610701
 24
271.3892047233962
 34
0.0
100
AcDbRotatedDimension
  0
DIMENSION
  5
49E
330
1F
100
AcDbEntity
  8
1
100
AcDbDimension
  2
*D1619
 10
654.6542976610692
 20
343.1959748444027
 30
0.0
 11
647.89629797404
 21
350.0959748444027
 31
0.0
 70
    32
  1
<>
 71
     5
 42
-1.0
 53
0.00013888888889
  3
ME10_DIM_16
100
AcDbAlignedDimension
 13
642.6542976610692
 23
271.3892047233962
 33
0.0
 14
654.6542976610692
 24
283.389204723396
 34
0.0
100
AcDbRotatedDimension
  0
DIMENSION
  5
4AB
330
1F
100
AcDbEntity
  8
1
100
AcDbDimension
  2
*D1720
 10
898.1542976610701
 20
343.1959748444027
 30
0.0
 11
769.9105183352401
 21
349.9459748444027
 31
0.0
 70
    32
  1
機幅
 71
     5
 42
-1.0
 53
0.00013888888889
  3
ME10_DIM_17
100
AcDbAlignedDimension
 13
654.6542976610692
 23
283.389204723396
 33
0.0
 14
898.1542976610701
 24
283.2392047233959
 34
0.0
100
AcDbRotatedDimension
  0
INSERT
  5
4B4
330
1F
100
AcDbEntity
  8
1
100
AcDbBlockReference
  2
*D1821
 10
0.0
 20
0.0
 30
0.0
  0
INSERT
  5
4BD
330
1F
100
AcDbEntity
  8
1
100
AcDbBlockReference
  2
*D1922
 10
0.0
 20
0.0
 30
0.0
  0
INSERT
  5
4C6
330
1F
100
AcDbEntity
  8
1
100
AcDbBlockReference
  2
*D2023
 10
0.0
 20
0.0
 30
0.0
  0
INSERT
  5
4CF
330
1F
100
AcDbEntity
  8
1
100
AcDbBlockReference
  2
*D2124
 10
0.0
 20
0.0
 30
0.0
  0
INSERT
  5
4D8
330
1F
100
AcDbEntity
  8
1
100
AcDbBlockReference
  2
*D2225
 10
0.0
 20
0.0
 30
0.0
  0
ENDSEC
  0
SECTION
  2
OBJECTS
  0
DICTIONARY
  5
C
330
0
100
AcDbDictionary
281
     1
  3
ACAD_GROUP
350
D
  3
ACAD_LAYOUT
350
1A
  3
ACAD_MLINESTYLE
350
17
  3
ACAD_PLOTSETTINGS
350
19
  3
ACAD_PLOTSTYLENAME
350
E
  0
DICTIONARY
  5
D
102
{ACAD_REACTORS
330
C
102
}
330
C
100
AcDbDictionary
281
     1
  0
DICTIONARY
  5
1A
102
{ACAD_REACTORS
330
C
102
}
330
C
100
AcDbDictionary
281
     1
  3
Layout1
350
1E
  3
Layout2
350
26
  3
Model
350
22
  0
DICTIONARY
  5
17
102
{ACAD_REACTORS
330
C
102
}
330
C
100
AcDbDictionary
281
     1
  3
Standard
350
18
  0
DICTIONARY
  5
19
102
{ACAD_REACTORS
330
C
102
}
330
C
100
AcDbDictionary
281
     1
  0
ACDBDICTIONARYWDFLT
  5
E
102
{ACAD_REACTORS
330
C
102
}
330
C
100
AcDbDictionary
281
     1
  3
Normal
350
F
100
AcDbDictionaryWithDefault
340
F
  0
LAYOUT
  5
1E
102
{ACAD_REACTORS
330
1A
102
}
330
1A
100
AcDbPlotSettings
  1

  2

  4

  6

 40
0.0
 41
0.0
 42
0.0
 43
0.0
 44
0.0
 45
0.0
 46
0.0
 47
0.0
 48
0.0
 49
0.0
140
0.0
141
0.0
142
1.0
143
1.0
 70
   688
 72
     0
 73
     0
 74
     5
  7

 75
    16
147
1.0
148
0.0
149
0.0
100
AcDbLayout
  1
Layout1
 70
     1
 71
     1
 10
0.0
 20
0.0
 11
0.0
 21
0.0
 12
0.0
 22
0.0
 32
0.0
 14
0.0
 24
0.0
 34
0.0
 15
0.0
 25
0.0
 35
0.0
146
0.0
 13
0.0
 23
0.0
 33
0.0
 16
1.0
 26
0.0
 36
0.0
 17
0.0
 27
1.0
 37
0.0
 76
     0
330
1B
  0
LAYOUT
  5
26
102
{ACAD_REACTORS
330
1A
102
}
330
1A
100
AcDbPlotSettings
  1

  2

  4

  6

 40
0.0
 41
0.0
 42
0.0
 43
0.0
 44
0.0
 45
0.0
 46
0.0
 47
0.0
 48
0.0
 49
0.0
140
0.0
141
0.0
142
1.0
143
1.0
 70
   688
 72
     0
 73
     0
 74
     5
  7

 75
    16
147
1.0
148
0.0
149
0.0
100
AcDbLayout
  1
Layout2
 70
     1
 71
     2
 10
0.0
 20
0.0
 11
0.0
 21
0.0
 12
0.0
 22
0.0
 32
0.0
 14
0.0
 24
0.0
 34
0.0
 15
0.0
 25
0.0
 35
0.0
146
0.0
 13
0.0
 23
0.0
 33
0.0
 16
1.0
 26
0.0
 36
0.0
 17
0.0
 27
1.0
 37
0.0
 76
     0
330
23
  0
LAYOUT
  5
22
102
{ACAD_REACTORS
330
1A
102
}
330
1A
100
AcDbPlotSettings
  1

  2

  4

  6

 40
0.0
 41
0.0
 42
0.0
 43
0.0
 44
0.0
 45
0.0
 46
0.0
 47
0.0
 48
0.0
 49
0.0
140
0.0
141
0.0
142
1.0
143
1.0
 70
  1712
 72
     0
 73
     0
 74
     0
  7

 75
     0
147
1.0
148
0.0
149
0.0
100
AcDbLayout
  1
Model
 70
     1
 71
     0
 10
0.0
 20
0.0
 11
0.0
 21
0.0
 12
0.0
 22
0.0
 32
0.0
 14
0.0
 24
-6.76845996286707
 34
0.0
 15
1182.0
 25
804.0
 35
0.0
146
0.0
 13
0.0
 23
0.0
 33
0.0
 16
1.0
 26
0.0
 36
0.0
 17
0.0
 27
1.0
 37
0.0
 76
     0
330
1F
  0
MLINESTYLE
  5
18
102
{ACAD_REACTORS
330
17
102
}
330
17
100
AcDbMlineStyle
  2
Standard
 70
     0
  3

 62
   256
 51
90.0
 52
90.0
 71
     2
 49
0.5
 62
   256
  6
BYLAYER
 49
-0.5
 62
   256
  6
BYLAYER
  0
ACDBPLACEHOLDER
  5
F
102
{ACAD_REACTORS
330
E
102
}
330
E
  0
ENDSEC
  0
EOF
