  0
SECTION
  2
HEADER
  9
$ACADVER
  1
AC1015
  9
$ACADMAINTVER
 70
     6
  9
$DWGCODEPAGE
  3
DOS932
  9
$INSBASE
 10
0.0
 20
0.0
 30
0.0
  9
$EXTMIN
 10
1240.09548385845
 20
-192.5494913200585
 30
0.0
  9
$EXTMAX
 10
3210.09548385845
 20
1158.73127528472
 30
0.0
  9
$LIMMIN
 10
0.0
 20
0.0
  9
$LIMMAX
 10
12.0
 20
9.0
  9
$ORTHOMODE
 70
     0
  9
$REGENMODE
 70
     1
  9
$FILLMODE
 70
     1
  9
$QTEXTMODE
 70
     0
  9
$MIRRTEXT
 70
     1
  9
$LTSCALE
 40
1.0
  9
$ATTMODE
 70
     1
  9
$TEXTSIZE
 40
0.2
  9
$TRACEWID
 40
0.05
  9
$TEXTSTYLE
  7
Standard
  9
$CLAYER
  8
0
  9
$CELTYPE
  6
ByLayer
  9
$CECOLOR
 62
   256
  9
$CELTSCALE
 40
1.0
  9
$DISPSILH
 70
     0
  9
$DIMSCALE
 40
1.0
  9
$DIMASZ
 40
0.18
  9
$DIMEXO
 40
0.0625
  9
$DIMDLI
 40
0.38
  9
$DIMRND
 40
0.0
  9
$DIMDLE
 40
0.0
  9
$DIMEXE
 40
0.18
  9
$DIMTP
 40
0.0
  9
$DIMTM
 40
0.0
  9
$DIMTXT
 40
0.18
  9
$DIMCEN
 40
0.09
  9
$DIMTSZ
 40
0.0
  9
$DIMTOL
 70
     0
  9
$DIMLIM
 70
     0
  9
$DIMTIH
 70
     1
  9
$DIMTOH
 70
     1
  9
$DIMSE1
 70
     0
  9
$DIMSE2
 70
     0
  9
$DIMTAD
 70
     0
  9
$DIMZIN
 70
     0
  9
$DIMBLK
  1

  9
$DIMASO
 70
     1
  9
$DIMSHO
 70
     1
  9
$DIMPOST
  1

  9
$DIMAPOST
  1

  9
$DIMALT
 70
     0
  9
$DIMALTD
 70
     2
  9
$DIMALTF
 40
25.4
  9
$DIMLFAC
 40
1.0
  9
$DIMTOFL
 70
     0
  9
$DIMTVP
 40
0.0
  9
$DIMTIX
 70
     0
  9
$DIMSOXD
 70
     0
  9
$DIMSAH
 70
     0
  9
$DIMBLK1
  1

  9
$DIMBLK2
  1

  9
$DIMSTYLE
  2
Standard
  9
$DIMCLRD
 70
     0
  9
$DIMCLRE
 70
     0
  9
$DIMCLRT
 70
     0
  9
$DIMTFAC
 40
1.0
  9
$DIMGAP
 40
0.09
  9
$DIMJUST
 70
     0
  9
$DIMSD1
 70
     0
  9
$DIMSD2
 70
     0
  9
$DIMTOLJ
 70
     1
  9
$DIMTZIN
 70
     0
  9
$DIMALTZ
 70
     0
  9
$DIMALTTZ
 70
     0
  9
$DIMUPT
 70
     0
  9
$DIMDEC
 70
     4
  9
$DIMTDEC
 70
     4
  9
$DIMALTU
 70
     2
  9
$DIMALTTD
 70
     2
  9
$DIMTXSTY
  7
Standard
  9
$DIMAUNIT
 70
     0
  9
$DIMADEC
 70
     0
  9
$DIMALTRND
 40
0.0
  9
$DIMAZIN
 70
     0
  9
$DIMDSEP
 70
    46
  9
$DIMATFIT
 70
     3
  9
$DIMFRAC
 70
     0
  9
$DIMLDRBLK
  1

  9
$DIMLUNIT
 70
     2
  9
$DIMLWD
 70
    -2
  9
$DIMLWE
 70
    -2
  9
$DIMTMOVE
 70
     0
  9
$LUNITS
 70
     2
  9
$LUPREC
 70
     4
  9
$SKETCHINC
 40
0.1
  9
$FILLETRAD
 40
0.5
  9
$AUNITS
 70
     0
  9
$AUPREC
 70
     0
  9
$MENU
  1
.
  9
$ELEVATION
 40
0.0
  9
$PELEVATION
 40
0.0
  9
$THICKNESS
 40
0.0
  9
$LIMCHECK
 70
     0
  9
$CHAMFERA
 40
0.5
  9
$CHAMFERB
 40
0.5
  9
$CHAMFERC
 40
1.0
  9
$CHAMFERD
 40
0.0
  9
$SKPOLY
 70
     0
  9
$TDCREATE
 40
2455806.647088275
  9
$TDUCREATE
 40
2455806.272088275
  9
$TDUPDATE
 40
2455806.647088287
  9
$TDUUPDATE
 40
2455806.272088287
  9
$TDINDWG
 40
0.0000000116
  9
$TDUSRTIMER
 40
0.0000000116
  9
$USRTIMER
 70
     1
  9
$ANGBASE
 50
0.0
  9
$ANGDIR
 70
     0
  9
$PDMODE
 70
     0
  9
$PDSIZE
 40
0.0
  9
$PLINEWID
 40
0.0
  9
$SPLFRAME
 70
     0
  9
$SPLINETYPE
 70
     6
  9
$SPLINESEGS
 70
     8
  9
$HANDSEED
  5
44B
  9
$SURFTAB1
 70
     6
  9
$SURFTAB2
 70
     6
  9
$SURFTYPE
 70
     6
  9
$SURFU
 70
     6
  9
$SURFV
 70
     6
  9
$UCSBASE
  2

  9
$UCSNAME
  2

  9
$UCSORG
 10
0.0
 20
0.0
 30
0.0
  9
$UCSXDIR
 10
1.0
 20
0.0
 30
0.0
  9
$UCSYDIR
 10
0.0
 20
1.0
 30
0.0
  9
$UCSORTHOREF
  2

  9
$UCSORTHOVIEW
 70
     0
  9
$UCSORGTOP
 10
0.0
 20
0.0
 30
0.0
  9
$UCSORGBOTTOM
 10
0.0
 20
0.0
 30
0.0
  9
$UCSORGLEFT
 10
0.0
 20
0.0
 30
0.0
  9
$UCSORGRIGHT
 10
0.0
 20
0.0
 30
0.0
  9
$UCSORGFRONT
 10
0.0
 20
0.0
 30
0.0
  9
$UCSORGBACK
 10
0.0
 20
0.0
 30
0.0
  9
$PUCSBASE
  2

  9
$PUCSNAME
  2

  9
$PUCSORG
 10
0.0
 20
0.0
 30
0.0
  9
$PUCSXDIR
 10
1.0
 20
0.0
 30
0.0
  9
$PUCSYDIR
 10
0.0
 20
1.0
 30
0.0
  9
$PUCSORTHOREF
  2

  9
$PUCSORTHOVIEW
 70
     0
  9
$PUCSORGTOP
 10
0.0
 20
0.0
 30
0.0
  9
$PUCSORGBOTTOM
 10
0.0
 20
0.0
 30
0.0
  9
$PUCSORGLEFT
 10
0.0
 20
0.0
 30
0.0
  9
$PUCSORGRIGHT
 10
0.0
 20
0.0
 30
0.0
  9
$PUCSORGFRONT
 10
0.0
 20
0.0
 30
0.0
  9
$PUCSORGBACK
 10
0.0
 20
0.0
 30
0.0
  9
$USERI1
 70
     0
  9
$USERI2
 70
     0
  9
$USERI3
 70
     0
  9
$USERI4
 70
     0
  9
$USERI5
 70
     0
  9
$USERR1
 40
14.0
  9
$USERR2
 40
0.0
  9
$USERR3
 40
0.0
  9
$USERR4
 40
0.0
  9
$USERR5
 40
0.0
  9
$WORLDVIEW
 70
     1
  9
$SHADEDGE
 70
     3
  9
$SHADEDIF
 70
    70
  9
$TILEMODE
 70
     1
  9
$MAXACTVP
 70
    64
  9
$PINSBASE
 10
0.0
 20
0.0
 30
0.0
  9
$PLIMCHECK
 70
     0
  9
$PEXTMIN
 10
1.00000000000000E+20
 20
1.00000000000000E+20
 30
1.00000000000000E+20
  9
$PEXTMAX
 10
-1.00000000000000E+20
 20
-1.00000000000000E+20
 30
-1.00000000000000E+20
  9
$PLIMMIN
 10
0.0
 20
0.0
  9
$PLIMMAX
 10
12.0
 20
9.0
  9
$UNITMODE
 70
     0
  9
$VISRETAIN
 70
     1
  9
$PLINEGEN
 70
     0
  9
$PSLTSCALE
 70
     1
  9
$TREEDEPTH
 70
  3020
  9
$CMLSTYLE
  2
Standard
  9
$CMLJUST
 70
     0
  9
$CMLSCALE
 40
1.0
  9
$PROXYGRAPHICS
 70
     1
  9
$MEASUREMENT
 70
     1
  9
$CELWEIGHT
370
    -1
  9
$ENDCAPS
280
     0
  9
$JOINSTYLE
280
     0
  9
$LWDISPLAY
290
     0
  9
$INSUNITS
 70
     1
  9
$HYPERLINKBASE
  1

  9
$STYLESHEET
  1

  9
$XEDIT
290
     1
  9
$CEPSNTYPE
380
     0
  9
$PSTYLEMODE
290
     1
  9
$FINGERPRINTGUID
  2
{FE6C8FD7-6445-4FEA-8709-BA1513D5CB1E}
  9
$VERSIONGUID
  2
{FAEB1C32-E019-11D5-929B-00C0DF256EC4}
  9
$EXTNAMES
290
     1
  9
$PSVPSCALE
 40
0.0
  9
$OLESTARTUP
290
     0
  0
ENDSEC
  0
SECTION
  2
CLASSES
  0
CLASS
  1
ACDBDICTIONARYWDFLT
  2
AcDbDictionaryWithDefault
  3
ObjectDBX Classes
 90
        0
280
     0
281
     0
  0
CLASS
  1

  2
exOdDbCircle
  3

 90
        0
280
     0
281
     1
  0
CLASS
  1
ACDBPLACEHOLDER
  2
AcDbPlaceHolder
  3
ObjectDBX Classes
 90
        0
280
     0
281
     0
  0
CLASS
  1
LAYOUT
  2
AcDbLayout
  3
ObjectDBX Classes
 90
        0
280
     0
281
     0
  0
ENDSEC
  0
SECTION
  2
TABLES
  0
TABLE
  2
VPORT
  5
8
330
0
100
AcDbSymbolTable
 70
     1
  0
VPORT
  5
29
330
8
100
AcDbSymbolTableRecord
100
AcDbViewportTableRecord
  2
*Active
 70
     0
 10
0.0
 20
0.0
 11
1.0
 21
1.0
 12
2225.09548385845
 22
483.0908919823307
 13
0.0
 23
0.0
 14
0.5
 24
0.5
 15
0.5
 25
0.5
 16
0.0
 26
0.0
 36
1.0
 17
0.0
 27
0.0
 37
0.0
 40
1486.408843265256
 41
1.60267857142857
 42
50.0
 43
0.0
 44
0.0
 50
0.0
 51
0.0
 71
     0
 72
   100
 73
     1
 74
     3
 75
     0
 76
     0
 77
     0
 78
     0
281
     0
 65
     1
110
0.0
120
0.0
130
0.0
111
1.0
121
0.0
131
0.0
112
0.0
122
1.0
132
0.0
 79
     0
146
0.0
  0
ENDTAB
  0
TABLE
  2
LTYPE
  5
5
330
0
100
AcDbSymbolTable
 70
     8
  0
LTYPE
  5
14
330
5
100
AcDbSymbolTableRecord
100
AcDbLinetypeTableRecord
  2
ByBlock
 70
     0
  3

 72
    65
 73
     0
 40
0.0
  0
LTYPE
  5
15
330
5
100
AcDbSymbolTableRecord
100
AcDbLinetypeTableRecord
  2
ByLayer
 70
     0
  3

 72
    65
 73
     0
 40
0.0
  0
LTYPE
  5
16
330
5
100
AcDbSymbolTableRecord
100
AcDbLinetypeTableRecord
  2
Continuous
 70
     0
  3
Solid line
 72
    65
 73
     0
 40
0.0
  0
LTYPE
  5
2A
330
5
100
AcDbSymbolTableRecord
100
AcDbLinetypeTableRecord
  2
DASHED
 70
     0
  3
Dashed
 72
    65
 73
     2
 40
15.0
 49
7.0
 74
     0
 49
-8.0
 74
     0
  0
LTYPE
  5
2B
330
5
100
AcDbSymbolTableRecord
100
AcDbLinetypeTableRecord
  2
DOTTED
 70
     0
  3
Dotted
 72
    65
 73
     2
 40
1.0
 49
0.0
 74
     0
 49
-1.0
 74
     0
  0
LTYPE
  5
2C
330
5
100
AcDbSymbolTableRecord
100
AcDbLinetypeTableRecord
  2
DOT_CENTER
 70
     0
  3
Dot_Center
 72
    65
 73
     4
 40
14.0
 49
12.0
 74
     0
 49
-1.0
 74
     0
 49
0.0
 74
     0
 49
-1.0
 74
     0
  0
LTYPE
  5
2D
330
5
100
AcDbSymbolTableRecord
100
AcDbLinetypeTableRecord
  2
LONG_DASHED
 70
     0
  3
Long_Dashed
 72
    65
 73
     2
 40
15.0
 49
10.0
 74
     0
 49
-5.0
 74
     0
  0
LTYPE
  5
2E
330
5
100
AcDbSymbolTableRecord
100
AcDbLinetypeTableRecord
  2
DASH_CENTER
 70
     0
  3
Dash_Center
 72
    65
 73
     4
 40
14.0
 49
11.0
 74
     0
 49
-1.0
 74
     0
 49
1.0
 74
     0
 49
-1.0
 74
     0
  0
LTYPE
  5
2F
330
5
100
AcDbSymbolTableRecord
100
AcDbLinetypeTableRecord
  2
PHANTOM
 70
     0
  3
Phantom
 72
    65
 73
     6
 40
13.0
 49
10.0
 74
     0
 49
-1.0
 74
     0
 49
0.0
 74
     0
 49
-1.0
 74
     0
 49
0.0
 74
     0
 49
-1.0
 74
     0
  0
LTYPE
  5
30
330
5
100
AcDbSymbolTableRecord
100
AcDbLinetypeTableRecord
  2
CENTER_DASH_DASH
 70
     0
  3
Center_Dash_Dash
 72
    65
 73
     6
 40
14.0
 49
9.0
 74
     0
 49
-1.0
 74
     0
 49
1.0
 74
     0
 49
-1.0
 74
     0
 49
1.0
 74
     0
 49
-1.0
 74
     0
  0
ENDTAB
  0
TABLE
  2
LAYER
  5
2
330
0
100
AcDbSymbolTable
 70
     2
  0
LAYER
  5
10
330
2
100
AcDbSymbolTableRecord
100
AcDbLayerTableRecord
  2
0
 70
     0
 62
     7
  6
Continuous
370
    -3
390
F
  0
LAYER
  5
31
330
2
100
AcDbSymbolTableRecord
100
AcDbLayerTableRecord
  2
1
 70
     0
 62
     7
  6
Continuous
370
    -3
390
F
  0
ENDTAB
  0
TABLE
  2
STYLE
  5
3
330
0
100
AcDbSymbolTable
 70
     6
  0
STYLE
  5
11
330
3
100
AcDbSymbolTableRecord
100
AcDbTextStyleTableRecord
  2
Standard
 70
     0
 40
0.0
 41
1.0
 50
0.0
 71
     0
 42
0.2
  3
txt
  4

  0
STYLE
  5
50
330
3
100
AcDbSymbolTableRecord
100
AcDbTextStyleTableRecord
  2
CONVERTER_1
 70
     0
 40
0.0
 41
0.9
 50
0.0
 71
     0
 42
0.2
  3
txt.shx
  4

  0
STYLE
  5
53
330
3
100
AcDbSymbolTableRecord
100
AcDbTextStyleTableRecord
  2
CONVERTER_2
 70
     0
 40
0.0
 41
1.068
 50
0.0
 71
     0
 42
0.2
  3
msmincho.ttc
  4

1001
ACAD
1000
MS Mincho
1071
    32785
  0
STYLE
  5
56
330
3
100
AcDbSymbolTableRecord
100
AcDbTextStyleTableRecord
  2
CONVERTER_3
 70
     0
 40
0.0
 41
0.89
 50
0.0
 71
     0
 42
0.2
  3
MSMINCHO.TTC
  4

1001
ACAD
1000
MS Mincho
1071
    32785
  0
STYLE
  5
59
330
3
100
AcDbSymbolTableRecord
100
AcDbTextStyleTableRecord
  2
CONVERTER_4
 70
     0
 40
0.0
 41
0.801
 50
0.0
 71
     0
 42
0.2
  3
msmincho.ttc
  4

1001
ACAD
1000
MS Mincho
1071
    32785
  0
STYLE
  5
5D
330
3
100
AcDbSymbolTableRecord
100
AcDbTextStyleTableRecord
  2
CONVERTER_5
 70
     0
 40
0.0
 41
0.9025
 50
0.0
 71
     0
 42
0.2
  3
complex.shx
  4

  0
ENDTAB
  0
TABLE
  2
VIEW
  5
6
330
0
100
AcDbSymbolTable
 70
     0
  0
ENDTAB
  0
TABLE
  2
UCS
  5
7
330
0
100
AcDbSymbolTable
 70
     0
  0
ENDTAB
  0
TABLE
  2
APPID
  5
9
330
0
100
AcDbSymbolTable
 70
     1
  0
APPID
  5
12
330
9
100
AcDbSymbolTableRecord
100
AcDbRegAppTableRecord
  2
ACAD
 70
     0
  0
ENDTAB
  0
TABLE
  2
DIMSTYLE
  5
A
330
0
100
AcDbSymbolTable
 70
    19
100
AcDbDimStyleTable
  0
DIMSTYLE
105
27
330
A
100
AcDbSymbolTableRecord
100
AcDbDimStyleTableRecord
  2
Standard
 70
     0
340
11
  0
DIMSTYLE
105
345
102
{ACAD_REACTORS
330
346
102
}
330
A
100
AcDbSymbolTableRecord
100
AcDbDimStyleTableRecord
  2
ME10_DIM_0
 70
     0
 41
16.0
 42
5.0
 44
5.0
 73
     0
 74
     0
 77
     1
 78
     8
140
16.0
147
3.5
172
     1
173
     1
176
     2
177
     2
178
     2
271
     2
340
50
343
33F
344
33F
  0
DIMSTYLE
105
354
102
{ACAD_REACTORS
330
355
102
}
330
A
100
AcDbSymbolTableRecord
100
AcDbDimStyleTableRecord
  2
ME10_DIM_1
 70
     0
 41
16.0
 42
5.0
 44
5.0
 73
     0
 74
     0
 77
     1
 78
     8
140
16.0
147
3.5
172
     1
173
     1
176
     2
177
     2
178
     2
271
     2
340
50
343
33F
344
33F
  0
DIMSTYLE
105
361
102
{ACAD_REACTORS
330
362
102
}
330
A
100
AcDbSymbolTableRecord
100
AcDbDimStyleTableRecord
  2
ME10_DIM_2
 70
     0
 41
16.0
 42
5.0
 44
5.0
 73
     0
 74
     0
 77
     1
 78
     8
140
16.0
147
3.5
172
     1
173
     1
176
     2
177
     2
178
     2
271
     2
340
56
343
33F
344
33F
  0
DIMSTYLE
105
36E
102
{ACAD_REACTORS
330
36F
102
}
330
A
100
AcDbSymbolTableRecord
100
AcDbDimStyleTableRecord
  2
ME10_DIM_3
 70
     0
 41
16.0
 42
5.0
 44
5.0
 73
     0
 74
     0
 77
     1
 78
     8
140
16.0
147
3.5
172
     1
173
     1
176
     2
177
     2
178
     2
271
     2
340
50
343
33F
344
33F
  0
DIMSTYLE
105
37B
102
{ACAD_REACTORS
330
37C
102
}
330
A
100
AcDbSymbolTableRecord
100
AcDbDimStyleTableRecord
  2
ME10_DIM_4
 70
     0
 41
16.0
 42
5.0
 44
5.0
 73
     0
 74
     0
 77
     1
 78
     8
140
16.0
147
3.5
172
     1
173
     1
176
     2
177
     2
178
     2
271
     2
340
50
343
33F
344
33F
  0
DIMSTYLE
105
388
102
{ACAD_REACTORS
330
389
102
}
330
A
100
AcDbSymbolTableRecord
100
AcDbDimStyleTableRecord
  2
ME10_DIM_5
 70
     0
 41
16.0
 42
5.0
 44
5.0
 73
     0
 74
     0
 77
     1
 78
     8
140
16.0
147
3.5
172
     1
173
     1
176
     2
177
     2
178
     2
271
     2
340
50
343
33F
344
33F
  0
DIMSTYLE
105
397
102
{ACAD_REACTORS
330
398
102
}
330
A
100
AcDbSymbolTableRecord
100
AcDbDimStyleTableRecord
  2
ME10_DIM_6
 70
     0
 41
16.0
 42
5.0
 44
5.0
 73
     0
 74
     0
 77
     1
 78
     8
140
16.0
147
3.5
172
     1
173
     1
176
     2
177
     2
178
     2
271
     2
340
50
343
33F
344
33F
  0
DIMSTYLE
105
3A4
102
{ACAD_REACTORS
330
3A5
102
}
330
A
100
AcDbSymbolTableRecord
100
AcDbDimStyleTableRecord
  2
ME10_DIM_7
 70
     0
 41
16.0
 42
5.0
 44
5.0
 73
     0
 74
     0
 77
     1
 78
     8
140
16.0
147
3.5
172
     1
173
     1
176
     2
177
     2
178
     2
271
     2
340
50
343
33F
344
33F
  0
DIMSTYLE
105
3B1
102
{ACAD_REACTORS
330
3B2
102
}
330
A
100
AcDbSymbolTableRecord
100
AcDbDimStyleTableRecord
  2
ME10_DIM_8
 70
     0
  3
□<>
 41
16.0
 42
5.0
 44
5.0
 73
     0
 74
     0
 77
     1
 78
     8
140
16.0
147
3.5
172
     1
173
     1
176
     2
177
     2
178
     2
271
     2
340
56
343
33F
344
33F
  0
DIMSTYLE
105
3BE
102
{ACAD_REACTORS
330
3BF
102
}
330
A
100
AcDbSymbolTableRecord
100
AcDbDimStyleTableRecord
  2
ME10_DIM_9
 70
     0
 41
16.0
 42
5.0
 44
5.0
 73
     0
 74
     0
 77
     1
 78
     8
140
16.0
147
3.5
172
     1
173
     1
176
     2
177
     2
178
     2
271
     2
340
50
343
33F
344
33F
  0
DIMSTYLE
105
3CB
102
{ACAD_REACTORS
330
3CC
102
}
330
A
100
AcDbSymbolTableRecord
100
AcDbDimStyleTableRecord
  2
ME10_DIM_10
 70
     0
 41
16.0
 42
5.0
 44
5.0
 73
     0
 74
     0
 77
     1
 78
     8
140
16.0
147
3.5
172
     1
173
     1
176
     2
177
     2
178
     2
271
     2
340
50
343
33F
344
33F
  0
DIMSTYLE
105
3D8
102
{ACAD_REACTORS
330
3D9
102
}
330
A
100
AcDbSymbolTableRecord
100
AcDbDimStyleTableRecord
  2
ME10_DIM_11
 70
     0
 41
16.0
 42
5.0
 44
5.0
 73
     0
 74
     0
 77
     1
 78
     8
140
16.0
147
3.5
172
     1
173
     1
176
     2
177
     2
178
     2
271
     2
340
50
343
33F
344
33F
  0
DIMSTYLE
105
3E7
102
{ACAD_REACTORS
330
3E8
102
}
330
A
100
AcDbSymbolTableRecord
100
AcDbDimStyleTableRecord
  2
ME10_DIM_12
 70
     0
 41
16.0
 42
5.0
 44
5.0
 77
     1
 78
     8
140
16.0
147
5.0
172
     1
173
     1
176
     2
177
     2
178
     2
271
     2
340
50
343
33F
344
33F
  0
DIMSTYLE
105
3F6
102
{ACAD_REACTORS
330
3F7
102
}
330
A
100
AcDbSymbolTableRecord
100
AcDbDimStyleTableRecord
  2
ME10_DIM_13
 70
     0
 41
16.0
 42
5.0
 44
5.0
 73
     0
 74
     0
 77
     1
 78
     8
140
16.0
147
5.0
172
     1
173
     1
176
     2
177
     2
178
     2
271
     2
340
50
343
33F
344
33F
  0
DIMSTYLE
105
403
102
{ACAD_REACTORS
330
404
102
}
330
A
100
AcDbSymbolTableRecord
100
AcDbDimStyleTableRecord
  2
ME10_DIM_14
 70
     0
 41
16.0
 42
5.0
 44
5.0
 77
     1
 78
     8
140
16.0
147
5.0
172
     1
173
     1
176
     2
177
     2
178
     2
271
     2
340
50
343
33F
344
33F
  0
DIMSTYLE
105
410
102
{ACAD_REACTORS
330
411
102
}
330
A
100
AcDbSymbolTableRecord
100
AcDbDimStyleTableRecord
  2
ME10_DIM_15
 70
     0
 41
16.0
 42
5.0
 44
5.0
 73
     0
 74
     0
 77
     1
 78
     8
140
16.0
147
5.0
172
     1
173
     1
176
     2
177
     2
178
     2
271
     2
340
50
343
33F
344
33F
  0
DIMSTYLE
105
41F
102
{ACAD_REACTORS
330
420
102
}
330
A
100
AcDbSymbolTableRecord
100
AcDbDimStyleTableRecord
  2
ME10_DIM_16
 70
     0
 41
16.0
 42
5.0
 44
5.0
 77
     1
 78
     8
140
16.0
147
5.0
172
     1
173
     1
176
     2
177
     2
178
     2
271
     2
340
50
343
33F
344
33F
  0
DIMSTYLE
105
42E
102
{ACAD_REACTORS
330
42F
102
}
330
A
100
AcDbSymbolTableRecord
100
AcDbDimStyleTableRecord
  2
ME10_DIM_17
 70
     0
 41
16.0
 42
5.0
 44
5.0
 77
     1
 78
     8
140
16.0
147
5.0
172
     1
173
     1
176
     2
177
     2
178
     2
271
     2
340
50
343
33F
344
33F
  0
ENDTAB
  0
TABLE
  2
BLOCK_RECORD
  5
1
330
0
100
AcDbSymbolTable
 70
    24
  0
BLOCK_RECORD
  5
1F
330
1
100
AcDbSymbolTableRecord
100
AcDbBlockTableRecord
  2
*Model_Space
340
22
  0
BLOCK_RECORD
  5
1B
330
1
100
AcDbSymbolTableRecord
100
AcDbBlockTableRecord
  2
*Paper_Space
340
1E
  0
BLOCK_RECORD
  5
23
330
1
100
AcDbSymbolTableRecord
100
AcDbBlockTableRecord
  2
*Paper_Space0
340
26
  0
BLOCK_RECORD
  5
32
330
1
100
AcDbSymbolTableRecord
100
AcDbBlockTableRecord
  2
Zuwaku-A3-web
340
0
102
{BLKREFS
331
35
102
}
  0
BLOCK_RECORD
  5
334
330
1
100
AcDbSymbolTableRecord
100
AcDbBlockTableRecord
  2
*D02
340
0
  0
BLOCK_RECORD
  5
33F
330
1
100
AcDbSymbolTableRecord
100
AcDbBlockTableRecord
  2
_Open30
340
0
  0
BLOCK_RECORD
  5
347
330
1
100
AcDbSymbolTableRecord
100
AcDbBlockTableRecord
  2
*D14
340
0
  0
BLOCK_RECORD
  5
356
330
1
100
AcDbSymbolTableRecord
100
AcDbBlockTableRecord
  2
*D25
340
0
  0
BLOCK_RECORD
  5
363
330
1
100
AcDbSymbolTableRecord
100
AcDbBlockTableRecord
  2
*D36
340
0
  0
BLOCK_RECORD
  5
370
330
1
100
AcDbSymbolTableRecord
100
AcDbBlockTableRecord
  2
*D47
340
0
  0
BLOCK_RECORD
  5
37D
330
1
100
AcDbSymbolTableRecord
100
AcDbBlockTableRecord
  2
*D58
340
0
  0
BLOCK_RECORD
  5
38A
330
1
100
AcDbSymbolTableRecord
100
AcDbBlockTableRecord
  2
*D69
340
0
  0
BLOCK_RECORD
  5
399
330
1
100
AcDbSymbolTableRecord
100
AcDbBlockTableRecord
  2
*D710
340
0
  0
BLOCK_RECORD
  5
3A6
330
1
100
AcDbSymbolTableRecord
100
AcDbBlockTableRecord
  2
*D811
340
0
  0
BLOCK_RECORD
  5
3B3
330
1
100
AcDbSymbolTableRecord
100
AcDbBlockTableRecord
  2
*D912
340
0
  0
BLOCK_RECORD
  5
3C0
330
1
100
AcDbSymbolTableRecord
100
AcDbBlockTableRecord
  2
*D1013
340
0
  0
BLOCK_RECORD
  5
3CD
330
1
100
AcDbSymbolTableRecord
100
AcDbBlockTableRecord
  2
*D1114
340
0
  0
BLOCK_RECORD
  5
3DA
330
1
100
AcDbSymbolTableRecord
100
AcDbBlockTableRecord
  2
*D1215
340
0
  0
BLOCK_RECORD
  5
3E9
330
1
100
AcDbSymbolTableRecord
100
AcDbBlockTableRecord
  2
*D1316
340
0
  0
BLOCK_RECORD
  5
3F8
330
1
100
AcDbSymbolTableRecord
100
AcDbBlockTableRecord
  2
*D1417
340
0
  0
BLOCK_RECORD
  5
405
330
1
100
AcDbSymbolTableRecord
100
AcDbBlockTableRecord
  2
*D1518
340
0
  0
BLOCK_RECORD
  5
412
330
1
100
AcDbSymbolTableRecord
100
AcDbBlockTableRecord
  2
*D1619
340
0
  0
BLOCK_RECORD
  5
421
330
1
100
AcDbSymbolTableRecord
100
AcDbBlockTableRecord
  2
*D1720
340
0
  0
BLOCK_RECORD
  5
430
330
1
100
AcDbSymbolTableRecord
100
AcDbBlockTableRecord
  2
*D1821
340
0
102
{BLKREFS
331
438
102
}
  0
BLOCK_RECORD
  5
439
330
1
100
AcDbSymbolTableRecord
100
AcDbBlockTableRecord
  2
*D1922
340
0
102
{BLKREFS
331
441
102
}
  0
BLOCK_RECORD
  5
442
330
1
100
AcDbSymbolTableRecord
100
AcDbBlockTableRecord
  2
*D2023
340
0
102
{BLKREFS
331
44A
102
}
  0
ENDTAB
  0
ENDSEC
  0
SECTION
  2
BLOCKS
  0
BLOCK
  5
20
330
1F
100
AcDbEntity
  8
0
100
AcDbBlockBegin
  2
*Model_Space
 70
     0
 71
     0
 10
0.0
 20
0.0
 30
0.0
  3
*Model_Space
  1

  0
ENDBLK
  5
21
330
1F
100
AcDbEntity
  8
0
100
AcDbBlockEnd
  0
BLOCK
  5
1C
330
1B
100
AcDbEntity
 67
     1
  8
0
100
AcDbBlockBegin
  2
*Paper_Space
 70
     0
 71
     0
 10
0.0
 20
0.0
 30
0.0
  3
*Paper_Space
  1

  0
ENDBLK
  5
1D
330
1B
100
AcDbEntity
 67
     1
  8
0
100
AcDbBlockEnd
  0
BLOCK
  5
24
330
23
100
AcDbEntity
  8
0
100
AcDbBlockBegin
  2
*Paper_Space0
 70
     0
 71
     0
 10
0.0
 20
0.0
 30
0.0
  3
*Paper_Space0
  1

  0
ENDBLK
  5
25
330
23
100
AcDbEntity
  8
0
100
AcDbBlockEnd
  0
BLOCK
  5
33
330
32
100
AcDbEntity
  8
0
100
AcDbBlockBegin
  2
Zuwaku-A3-web
 70
     0
 71
     0
 10
445.0190967716898
 20
97.74625505694399
 30
0.0
  3
Zuwaku-A3-web
  1

  0
POINT
  5
36
330
32
100
AcDbEntity
  8
1
 62
     3
 60
     1
100
AcDbPoint
 10
410.51909677169
 20
-16.253744943056
 30
0.0
  0
POINT
  5
37
330
32
100
AcDbEntity
  8
1
 62
     3
 60
     1
100
AcDbPoint
 10
450.01909677169
 20
-21.253744943056
 30
0.0
  0
POINT
  5
38
330
32
100
AcDbEntity
  8
1
 62
     3
 60
     1
100
AcDbPoint
 10
410.51909677169
 20
-21.253744943056
 30
0.0
  0
POINT
  5
39
330
32
100
AcDbEntity
  8
1
 62
     3
 60
     1
100
AcDbPoint
 10
257.51909677169
 20
-23.753744943056
 30
0.0
  0
POINT
  5
3A
330
32
100
AcDbEntity
  8
1
 62
     3
 60
     1
100
AcDbPoint
 10
250.51909677169
 20
-23.753744943056
 30
0.0
  0
POINT
  5
3B
330
32
100
AcDbEntity
  8
1
 62
     3
 60
     1
100
AcDbPoint
 10
248.01909677169
 20
-36.253744943056
 30
0.0
  0
LINE
  5
3C
330
32
100
AcDbEntity
  8
1
  6
Continuous
 62
     4
100
AcDbLine
 10
437.5136739288993
 20
-34.11976910057401
 30
0.0
 11
443.2457222439354
 21
-28.387720785538
 31
0.0
  0
LINE
  5
3D
330
32
100
AcDbEntity
  8
1
  6
Continuous
 62
     7
100
AcDbLine
 10
248.01909677169
 20
-36.253744943056
 30
0.0
 11
642.0190967716901
 21
-36.253744943056
 31
0.0
  0
LINE
  5
3E
330
32
100
AcDbEntity
  8
1
  6
Continuous
 62
     4
100
AcDbLine
 10
410.51909677169
 20
-21.253744943056
 30
0.0
 11
450.01909677169
 21
-21.253744943056
 31
0.0
  0
LINE
  5
3F
330
32
100
AcDbEntity
  8
1
  6
Continuous
 62
     3
100
AcDbLine
 10
257.51909677169
 20
-23.753744943056
 30
0.0
 11
254.01909677169
 21
-17.253744943056
 31
0.0
  0
LINE
  5
40
330
32
100
AcDbEntity
  8
1
  6
Continuous
 62
     3
100
AcDbLine
 10
250.51909677169
 20
-23.753744943056
 30
0.0
 11
257.51909677169
 21
-23.753744943056
 31
0.0
  0
LINE
  5
41
330
32
100
AcDbEntity
  8
1
  6
Continuous
 62
     3
100
AcDbLine
 10
254.01909677169
 20
-17.253744943056
 30
0.0
 11
250.51909677169
 21
-23.753744943056
 31
0.0
  0
LINE
  5
42
330
32
100
AcDbEntity
  8
1
  6
Continuous
 62
     4
100
AcDbLine
 10
260.01909677169
 20
-16.253744943056
 30
0.0
 11
260.01909677169
 21
-36.253744943056
 31
0.0
  0
LINE
  5
43
330
32
100
AcDbEntity
  8
1
  6
Continuous
 62
     4
100
AcDbLine
 10
248.01909677169
 20
-26.253744943056
 30
0.0
 11
642.0190967716901
 21
-26.253744943056
 31
0.0
  0
LINE
  5
44
330
32
100
AcDbEntity
  8
1
  6
Continuous
 62
     7
100
AcDbLine
 10
642.0190967716897
 20
231.746255056944
 30
0.0
 11
248.01909677169
 21
231.746255056944
 31
0.0
  0
LINE
  5
45
330
32
100
AcDbEntity
  8
1
  6
Continuous
 62
     7
100
AcDbLine
 10
642.0190967716901
 20
-36.253744943056
 30
0.0
 11
642.0190967716897
 21
231.746255056944
 31
0.0
  0
LINE
  5
46
330
32
100
AcDbEntity
  8
1
  6
Continuous
 62
     4
100
AcDbLine
 10
450.01909677169
 20
-36.253744943056
 30
0.0
 11
450.01909677169
 21
-16.253744943056
 31
0.0
  0
LINE
  5
47
330
32
100
AcDbEntity
  8
1
  6
Continuous
 62
     4
100
AcDbLine
 10
410.51909677169
 20
-36.253744943056
 30
0.0
 11
410.51909677169
 21
-16.253744943056
 31
0.0
  0
LINE
  5
48
330
32
100
AcDbEntity
  8
1
  6
Continuous
 62
     4
100
AcDbLine
 10
531.0190967716901
 20
-16.253744943056
 30
0.0
 11
531.0190967716901
 21
-36.253744943056
 31
0.0
  0
LINE
  5
49
330
32
100
AcDbEntity
  8
1
  6
Continuous
 62
     4
100
AcDbLine
 10
475.01909677169
 20
-16.253744943056
 30
0.0
 11
475.01909677169
 21
-36.253744943056
 31
0.0
  0
LINE
  5
4A
330
32
100
AcDbEntity
  8
1
  6
Continuous
 62
     4
100
AcDbLine
 10
418.51909677169
 20
-26.253744943056
 30
0.0
 11
418.51909677169
 21
-36.253744943056
 31
0.0
  0
LINE
  5
4B
330
32
100
AcDbEntity
  8
1
  6
Continuous
 62
     4
100
AcDbLine
 10
314.01909677169
 20
-16.253744943056
 30
0.0
 11
314.01909677169
 21
-36.253744943056
 31
0.0
  0
LINE
  5
4C
330
32
100
AcDbEntity
  8
1
  6
Continuous
 62
     7
100
AcDbLine
 10
248.01909677169
 20
231.746255056944
 30
0.0
 11
248.01909677169
 21
-36.253744943056
 31
0.0
  0
LINE
  5
4D
330
32
100
AcDbEntity
  8
1
  6
Continuous
 62
     4
100
AcDbLine
 10
421.7636739288993
 20
-34.11976910057401
 30
0.0
 11
427.4957222439354
 21
-28.387720785538
 31
0.0
  0
LINE
  5
4E
330
32
100
AcDbEntity
  8
1
  6
Continuous
 62
     4
100
AcDbLine
 10
642.0190967716901
 20
-16.253744943056
 30
0.0
 11
248.01909677169
 21
-16.253744943056
 31
0.0
  0
LINE
  5
4F
330
32
100
AcDbEntity
  8
1
  6
Continuous
 62
     4
100
AcDbLine
 10
543.0190967716901
 20
-16.253744943056
 30
0.0
 11
543.0190967716901
 21
-36.253744943056
 31
0.0
  0
MTEXT
  5
51
330
32
100
AcDbEntity
  8
1
 62
     2
100
AcDbMText
 10
428.9957222439354
 20
-32.503744943056
 30
0.0
 40
4.0
 41
0.0
 71
     5
 72
     1
  1
5
  7
CONVERTER_1
 73
     1
 44
0.60024009603842
  0
MTEXT
  5
52
330
32
100
AcDbEntity
  8
1
 62
     2
100
AcDbMText
 10
421.202529639597
 20
-30.003744943056
 30
0.0
 40
4.0
 41
0.0
 71
     5
 72
     1
  1
1
  7
CONVERTER_1
 73
     1
 44
0.60024009603842
  0
MTEXT
  5
54
330
32
100
AcDbEntity
  8
1
 62
     2
100
AcDbMText
 10
537.0190967716901
 20
-33.503744943056
 30
0.0
 40
3.5
 41
0.0
 71
     5
 72
     1
  1
番号
  7
CONVERTER_2
 73
     1
 44
0.78031212484994
  0
MTEXT
  5
55
330
32
100
AcDbEntity
  8
1
 62
     2
100
AcDbMText
 10
414.51909677169
 20
-33.503744943056
 30
0.0
 40
3.5
 41
0.0
 71
     5
 72
     1
  1
度
  7
CONVERTER_2
 73
     1
 44
0.78031212484994
  0
MTEXT
  5
57
330
32
100
AcDbEntity
  8
1
 62
     2
100
AcDbMText
 10
253.6971748018617
 20
-33.503744943056
 30
0.0
 40
3.5
 41
0.0
 71
     5
 72
     1
  1
番号
  7
CONVERTER_3
 73
     1
 44
0.78031212484994
  0
MTEXT
  5
58
330
32
100
AcDbEntity
  8
1
 62
     7
100
AcDbMText
 10
362.26909677169
 20
-21.253744943056
 30
0.0
 40
5.0
 41
0.0
 71
     5
 72
     1
  1
技術情報サービス
  7
CONVERTER_3
 73
     1
 44
1.20048019207683
  0
MTEXT
  5
5A
330
32
100
AcDbEntity
  8
1
 62
     2
100
AcDbMText
 10
462.51909677169
 20
-21.253744943056
 30
0.0
 40
4.0
 41
0.0
 71
     5
 72
     1
  1
シリーズ名
  7
CONVERTER_4
 73
     1
 44
1.32052821128451
  0
MTEXT
  5
5B
330
32
100
AcDbEntity
  8
1
 62
     2
100
AcDbMText
 10
462.51909677169
 20
-31.253744943056
 30
0.0
 40
4.0
 41
0.0
 71
     5
 72
     1
  1
機　種
  7
CONVERTER_3
 73
     1
 44
1.32052821128451
  0
MTEXT
  5
5C
330
32
100
AcDbEntity
  8
1
 62
     2
100
AcDbMText
 10
437.76909677169
 20
-29.753744943056
 30
0.0
 40
4.0
 41
0.0
 71
     5
 72
     1
  1
1
  7
CONVERTER_1
 73
     1
 44
1.32052821128451
  0
MTEXT
  5
5E
330
32
100
AcDbEntity
  8
1
 62
     7
100
AcDbMText
 10
362.26909677169
 20
-31.253744943056
 30
0.0
 40
4.0
 41
0.0
 71
     5
 72
     1
  1
MARUYASU KIKAI CO.,LTD.
  7
CONVERTER_5
 73
     1
 44
1.32052821128451
  0
MTEXT
  5
5F
330
32
100
AcDbEntity
  8
1
 62
     2
100
AcDbMText
 10
254.01909677169
 20
-29.003744943056
 30
0.0
 40
3.5
 41
0.0
 71
     5
 72
     1
  1
改訂
  7
CONVERTER_3
 73
     1
 44
0.78031212484994
  0
MTEXT
  5
60
330
32
100
AcDbEntity
  8
1
 62
     2
100
AcDbMText
 10
287.01909677169
 20
-31.253744943056
 30
0.0
 40
3.5
 41
0.0
 71
     5
 72
     1
  1
改　 訂　 記　 事
  7
CONVERTER_3
 73
     1
 44
1.32052821128451
  0
MTEXT
  5
61
330
32
100
AcDbEntity
  8
1
 62
     2
100
AcDbMText
 10
414.51909677169
 20
-29.003744943056
 30
0.0
 40
3.5
 41
0.0
 71
     5
 72
     1
  1
尺
  7
CONVERTER_2
 73
     1
 44
0.78031212484994
  0
MTEXT
  5
62
330
32
100
AcDbEntity
  8
1
 62
     2
100
AcDbMText
 10
430.26909677169
 20
-18.753744943056
 30
0.0
 40
3.5
 41
0.0
 71
     5
 72
     1
  1
年　　月　　日
  7
CONVERTER_3
 73
     1
 44
0.78031212484994
  0
MTEXT
  5
63
330
32
100
AcDbEntity
  8
1
 62
     2
100
AcDbMText
 10
537.0190967716901
 20
-29.003744943056
 30
0.0
 40
3.5
 41
0.0
 71
     5
 72
     1
  1
図面
  7
CONVERTER_2
 73
     1
 44
0.78031212484994
  0
MTEXT
  5
64
330
32
100
AcDbEntity
  8
1
 62
     2
100
AcDbMText
 10
537.0190967716901
 20
-21.253744943056
 30
0.0
 40
4.0
 41
0.0
 71
     5
 72
     1
  1
図名
  7
CONVERTER_3
 73
     1
 44
1.32052821128451
  0
MTEXT
  5
65
330
32
100
AcDbEntity
  8
1
 62
     4
100
AcDbMText
 10
641.4756511640592
 20
-36.50989826401169
 30
0.0
 40
2.0
 41
0.0
 71
     3
 72
     1
  1
A3
  7
CONVERTER_1
 73
     1
 44
1.32052821128451
  0
ENDBLK
  5
34
330
32
100
AcDbEntity
  8
0
100
AcDbBlockEnd
  0
BLOCK
  5
33D
330
334
100
AcDbEntity
  8
0
100
AcDbBlockBegin
  2
*D02
 70
     1
 71
     0
 10
0.0
 20
0.0
 30
0.0
  3
*D02
  1

  0
LINE
  5
335
330
334
100
AcDbEntity
  8
1
  6
Continuous
 62
     2
100
AcDbLine
 10
2312.134854851369
 20
874.3297410841369
 30
0.0
 11
2312.134854851369
 21
804.3297410820142
 31
0.0
  0
LINE
  5
336
330
334
100
AcDbEntity
  8
1
  6
Continuous
 62
     2
100
AcDbLine
 10
2207.644376722434
 20
804.3297410820142
 30
0.0
 11
2317.134854851369
 21
804.3297410820142
 31
0.0
  0
LINE
  5
337
330
334
100
AcDbEntity
  8
1
  6
Continuous
 62
     2
100
AcDbLine
 10
2238.644376722478
 20
874.3297410841369
 30
0.0
 11
2317.134854851369
 21
874.3297410841369
 31
0.0
  0
LINE
  5
338
330
334
100
AcDbEntity
  8
1
 62
     2
100
AcDbLine
 10
2312.134854851369
 20
874.3297410841369
 30
0.0
 11
2316.422041930267
 21
858.3297410841369
 31
0.0
  0
LINE
  5
339
330
334
100
AcDbEntity
  8
1
 62
     2
100
AcDbLine
 10
2312.134854851369
 20
874.3297410841369
 30
0.0
 11
2307.847667772471
 21
858.3297410841369
 31
0.0
  0
LINE
  5
33A
330
334
100
AcDbEntity
  8
1
 62
     2
100
AcDbLine
 10
2312.134854851369
 20
804.3297410820142
 30
0.0
 11
2307.847667772471
 21
820.3297410820142
 31
0.0
  0
LINE
  5
33B
330
334
100
AcDbEntity
  8
1
 62
     2
100
AcDbLine
 10
2312.134854851369
 20
804.3297410820142
 30
0.0
 11
2316.422041930267
 21
820.3297410820142
 31
0.0
  0
MTEXT
  5
33C
330
334
100
AcDbEntity
  8
1
 62
     2
100
AcDbMText
 10
2308.634854851369
 20
827.3028931676108
 30
0.0
 40
16.0
 41
0.0
 71
     7
 72
     1
  1
70
  7
CONVERTER_1
 11
0.0
 21
1.0
 31
0.0
 73
     1
 44
0.60024009603842
  0
ENDBLK
  5
33E
330
334
100
AcDbEntity
  8
0
100
AcDbBlockEnd
  0
BLOCK
  5
340
330
33F
100
AcDbEntity
  8
0
100
AcDbBlockBegin
  2
_Open30
 70
     0
 71
     0
 10
0.0
 20
0.0
 30
0.0
  3
_Open30
  1

  0
LINE
  5
342
330
33F
100
AcDbEntity
  8
0
  6
ByBlock
 62
     0
370
    -2
100
AcDbLine
 10
-1.0
 20
0.267949
 30
0.0
 11
0.0
 21
0.0
 31
0.0
  0
LINE
  5
343
330
33F
100
AcDbEntity
  8
0
  6
ByBlock
 62
     0
370
    -2
100
AcDbLine
 10
0.0
 20
0.0
 30
0.0
 11
-1.0
 21
-0.267949
 31
0.0
  0
LINE
  5
344
330
33F
100
AcDbEntity
  8
0
  6
ByBlock
 62
     0
370
    -2
100
AcDbLine
 10
0.0
 20
0.0
 30
0.0
 11
-1.0
 21
0.0
 31
0.0
  0
ENDBLK
  5
341
330
33F
100
AcDbEntity
  8
0
100
AcDbBlockEnd
  0
BLOCK
  5
352
330
347
100
AcDbEntity
  8
0
100
AcDbBlockBegin
  2
*D14
 70
     1
 71
     0
 10
0.0
 20
0.0
 30
0.0
  3
*D14
  1

  0
LINE
  5
348
330
347
100
AcDbEntity
  8
1
  6
Continuous
 62
     2
100
AcDbLine
 10
1823.644376722547
 20
806.3297410828204
 30
0.0
 11
1823.644376722547
 21
838.3297410828204
 31
0.0
  0
LINE
  5
349
330
347
100
AcDbEntity
  8
1
  6
Continuous
 62
     2
100
AcDbLine
 10
1823.644376722547
 20
804.3297410820128
 30
0.0
 11
1823.644376722547
 21
806.3297410828204
 31
0.0
  0
LINE
  5
34A
330
347
100
AcDbEntity
  8
1
  6
Continuous
 62
     2
100
AcDbLine
 10
1823.644376722547
 20
772.3297410820128
 30
0.0
 11
1823.644376722547
 21
804.3297410820128
 31
0.0
  0
LINE
  5
34B
330
347
100
AcDbEntity
  8
1
  6
Continuous
 62
     2
100
AcDbLine
 10
1950.644376722444
 20
804.3297410820128
 30
0.0
 11
1818.644376722547
 21
804.3297410820128
 31
0.0
  0
LINE
  5
34C
330
347
100
AcDbEntity
  8
1
  6
Continuous
 62
     2
100
AcDbLine
 10
1858.644376722553
 20
806.3297410828204
 30
0.0
 11
1818.644376722547
 21
806.3297410828204
 31
0.0
  0
LINE
  5
34D
330
347
100
AcDbEntity
  8
1
 62
     2
100
AcDbLine
 10
1823.644376722547
 20
804.3297410820128
 30
0.0
 11
1827.931563801445
 21
788.3297410820128
 31
0.0
  0
LINE
  5
34E
330
347
100
AcDbEntity
  8
1
 62
     2
100
AcDbLine
 10
1823.644376722547
 20
804.3297410820128
 30
0.0
 11
1819.357189643649
 21
788.3297410820128
 31
0.0
  0
LINE
  5
34F
330
347
100
AcDbEntity
  8
1
 62
     2
100
AcDbLine
 10
1823.644376722547
 20
806.3297410828204
 30
0.0
 11
1819.357189643649
 21
822.3297410828204
 31
0.0
  0
LINE
  5
350
330
347
100
AcDbEntity
  8
1
 62
     2
100
AcDbLine
 10
1823.644376722547
 20
806.3297410828204
 30
0.0
 11
1827.931563801445
 21
822.3297410828204
 31
0.0
  0
MTEXT
  5
351
330
347
100
AcDbEntity
  8
1
 62
     2
100
AcDbMText
 10
1820.144376722547
 20
775.2504229086369
 30
0.0
 40
16.0
 41
0.0
 71
     7
 72
     1
  1
2
  7
CONVERTER_1
 11
0.0
 21
1.0
 31
0.0
 73
     1
 44
0.60024009603842
  0
ENDBLK
  5
353
330
347
100
AcDbEntity
  8
0
100
AcDbBlockEnd
  0
BLOCK
  5
35F
330
356
100
AcDbEntity
  8
0
100
AcDbBlockBegin
  2
*D25
 70
     1
 71
     0
 10
0.0
 20
0.0
 30
0.0
  3
*D25
  1

  0
LINE
  5
357
330
356
100
AcDbEntity
  8
1
  6
Continuous
 62
     2
100
AcDbLine
 10
2255.644376722517
 20
716.6539510163198
 30
0.0
 11
1855.644376722467
 21
716.6539510163198
 31
0.0
  0
LINE
  5
358
330
356
100
AcDbEntity
  8
1
  6
Continuous
 62
     2
100
AcDbLine
 10
2255.644376722517
 20
822.6297410819898
 30
0.0
 11
2255.644376722517
 21
711.6539510163198
 31
0.0
  0
LINE
  5
359
330
356
100
AcDbEntity
  8
1
  6
Continuous
 62
     2
100
AcDbLine
 10
1855.644376722467
 20
809.5297410827875
 30
0.0
 11
1855.644376722467
 21
711.6539510163198
 31
0.0
  0
LINE
  5
35A
330
356
100
AcDbEntity
  8
1
 62
     2
100
AcDbLine
 10
2255.644376722517
 20
716.6539510163198
 30
0.0
 11
2239.644376722517
 21
712.3667639374218
 31
0.0
  0
LINE
  5
35B
330
356
100
AcDbEntity
  8
1
 62
     2
100
AcDbLine
 10
2255.644376722517
 20
716.6539510163198
 30
0.0
 11
2239.644376722517
 21
720.9411380952178
 31
0.0
  0
LINE
  5
35C
330
356
100
AcDbEntity
  8
1
 62
     2
100
AcDbLine
 10
1855.644376722467
 20
716.6539510163198
 30
0.0
 11
1871.644376722467
 21
720.9411380952178
 31
0.0
  0
LINE
  5
35D
330
356
100
AcDbEntity
  8
1
 62
     2
100
AcDbLine
 10
1855.644376722467
 20
716.6539510163198
 30
0.0
 11
1871.644376722467
 21
712.3667639374218
 31
0.0
  0
MTEXT
  5
35E
330
356
100
AcDbEntity
  8
1
 62
     2
100
AcDbMText
 10
2023.879741461312
 20
720.1539510163198
 30
0.0
 40
16.0
 41
0.0
 71
     7
 72
     1
  1
呼称機長 
  7
CONVERTER_3
 11
0.9999999999970621
 21
2.424068405545307E-6
 31
0.0
 73
     1
 44
0.60024009603842
  0
ENDBLK
  5
360
330
356
100
AcDbEntity
  8
0
100
AcDbBlockEnd
  0
BLOCK
  5
36C
330
363
100
AcDbEntity
  8
0
100
AcDbBlockBegin
  2
*D36
 70
     1
 71
     0
 10
0.0
 20
0.0
 30
0.0
  3
*D36
  1

  0
LINE
  5
364
330
363
100
AcDbEntity
  8
1
  6
Continuous
 62
     2
100
AcDbLine
 10
2312.134854851369
 20
467.1758487463735
 30
0.0
 11
2312.134854851369
 21
413.1758487463735
 31
0.0
  0
LINE
  5
365
330
363
100
AcDbEntity
  8
1
  6
Continuous
 62
     2
100
AcDbLine
 10
2261.544376722554
 20
413.1758487463735
 30
0.0
 11
2317.134854851369
 21
413.1758487463735
 31
0.0
  0
LINE
  5
366
330
363
100
AcDbEntity
  8
1
  6
Continuous
 62
     2
100
AcDbLine
 10
2261.544376722554
 20
467.1758487463735
 30
0.0
 11
2317.134854851369
 21
467.1758487463735
 31
0.0
  0
LINE
  5
367
330
363
100
AcDbEntity
  8
1
 62
     2
100
AcDbLine
 10
2312.134854851369
 20
467.1758487463735
 30
0.0
 11
2316.422041930267
 21
451.1758487463735
 31
0.0
  0
LINE
  5
368
330
363
100
AcDbEntity
  8
1
 62
     2
100
AcDbLine
 10
2312.134854851369
 20
467.1758487463735
 30
0.0
 11
2307.847667772471
 21
451.1758487463735
 31
0.0
  0
LINE
  5
369
330
363
100
AcDbEntity
  8
1
 62
     2
100
AcDbLine
 10
2312.134854851369
 20
413.1758487463735
 30
0.0
 11
2307.847667772471
 21
429.1758487463735
 31
0.0
  0
LINE
  5
36A
330
363
100
AcDbEntity
  8
1
 62
     2
100
AcDbLine
 10
2312.134854851369
 20
413.1758487463735
 30
0.0
 11
2316.422041930267
 21
429.1758487463735
 31
0.0
  0
MTEXT
  5
36B
330
363
100
AcDbEntity
  8
1
 62
     2
100
AcDbMText
 10
2308.634854851369
 20
429.5794676985588
 30
0.0
 40
16.0
 41
0.0
 71
     7
 72
     1
  1
54
  7
CONVERTER_1
 11
0.0
 21
1.0
 31
0.0
 73
     1
 44
0.60024009603842
  0
ENDBLK
  5
36D
330
363
100
AcDbEntity
  8
0
100
AcDbBlockEnd
  0
BLOCK
  5
379
330
370
100
AcDbEntity
  8
0
100
AcDbBlockBegin
  2
*D47
 70
     1
 71
     0
 10
0.0
 20
0.0
 30
0.0
  3
*D47
  1

  0
LINE
  5
371
330
370
100
AcDbEntity
  8
1
  6
Continuous
 62
     2
100
AcDbLine
 10
2352.544376722553
 20
493.1758487463626
 30
0.0
 11
2352.544376722553
 21
413.1758487463726
 31
0.0
  0
LINE
  5
372
330
370
100
AcDbEntity
  8
1
  6
Continuous
 62
     2
100
AcDbLine
 10
2261.544376722553
 20
413.1758487463726
 30
0.0
 11
2357.544376722553
 21
413.1758487463726
 31
0.0
  0
LINE
  5
373
330
370
100
AcDbEntity
  8
1
  6
Continuous
 62
     2
100
AcDbLine
 10
2257.444376722468
 20
493.1758487463626
 30
0.0
 11
2357.544376722553
 21
493.1758487463626
 31
0.0
  0
LINE
  5
374
330
370
100
AcDbEntity
  8
1
 62
     2
100
AcDbLine
 10
2352.544376722553
 20
493.1758487463626
 30
0.0
 11
2356.831563801451
 21
477.1758487463626
 31
0.0
  0
LINE
  5
375
330
370
100
AcDbEntity
  8
1
 62
     2
100
AcDbLine
 10
2352.544376722553
 20
493.1758487463626
 30
0.0
 11
2348.257189643655
 21
477.1758487463626
 31
0.0
  0
LINE
  5
376
330
370
100
AcDbEntity
  8
1
 62
     2
100
AcDbLine
 10
2352.544376722553
 20
413.1758487463726
 30
0.0
 11
2348.257189643655
 21
429.1758487463726
 31
0.0
  0
LINE
  5
377
330
370
100
AcDbEntity
  8
1
 62
     2
100
AcDbLine
 10
2352.544376722553
 20
413.1758487463726
 30
0.0
 11
2356.831563801451
 21
429.1758487463726
 31
0.0
  0
MTEXT
  5
378
330
370
100
AcDbEntity
  8
1
 62
     2
100
AcDbMText
 10
2349.044376722553
 20
440.2501597447408
 30
0.0
 40
16.0
 41
0.0
 71
     7
 72
     1
  1
80
  7
CONVERTER_1
 11
0.0
 21
1.0
 31
0.0
 73
     1
 44
0.60024009603842
  0
ENDBLK
  5
37A
330
370
100
AcDbEntity
  8
0
100
AcDbBlockEnd
  0
BLOCK
  5
386
330
37D
100
AcDbEntity
  8
0
100
AcDbBlockBegin
  2
*D58
 70
     1
 71
     0
 10
0.0
 20
0.0
 30
0.0
  3
*D58
  1

  0
LINE
  5
37E
330
37D
100
AcDbEntity
  8
1
  6
Continuous
 62
     2
100
AcDbLine
 10
1823.644376722551
 20
469.1758487463625
 30
0.0
 11
1823.644376722551
 21
413.1758487463725
 31
0.0
  0
LINE
  5
37F
330
37D
100
AcDbEntity
  8
1
  6
Continuous
 62
     2
100
AcDbLine
 10
1864.744376722581
 20
413.1758487463725
 30
0.0
 11
1818.644376722551
 21
413.1758487463725
 31
0.0
  0
LINE
  5
380
330
37D
100
AcDbEntity
  8
1
  6
Continuous
 62
     2
100
AcDbLine
 10
1850.644376722576
 20
469.1758487463625
 30
0.0
 11
1818.644376722551
 21
469.1758487463625
 31
0.0
  0
LINE
  5
381
330
37D
100
AcDbEntity
  8
1
 62
     2
100
AcDbLine
 10
1823.644376722551
 20
469.1758487463625
 30
0.0
 11
1827.931563801449
 21
453.1758487463625
 31
0.0
  0
LINE
  5
382
330
37D
100
AcDbEntity
  8
1
 62
     2
100
AcDbLine
 10
1823.644376722551
 20
469.1758487463625
 30
0.0
 11
1819.357189643653
 21
453.1758487463625
 31
0.0
  0
LINE
  5
383
330
37D
100
AcDbEntity
  8
1
 62
     2
100
AcDbLine
 10
1823.644376722551
 20
413.1758487463725
 30
0.0
 11
1819.357189643653
 21
429.1758487463725
 31
0.0
  0
LINE
  5
384
330
37D
100
AcDbEntity
  8
1
 62
     2
100
AcDbLine
 10
1823.644376722551
 20
413.1758487463725
 30
0.0
 11
1827.931563801449
 21
429.1758487463725
 31
0.0
  0
MTEXT
  5
385
330
37D
100
AcDbEntity
  8
1
 62
     2
100
AcDbMText
 10
1817.744376722551
 20
427.8046570801998
 30
0.0
 40
16.0
 41
0.0
 71
     7
 72
     1
  1
56
  7
CONVERTER_1
 11
0.0
 21
1.0
 31
0.0
 73
     1
 44
0.60024009603842
  0
ENDBLK
  5
387
330
37D
100
AcDbEntity
  8
0
100
AcDbBlockEnd
  0
BLOCK
  5
395
330
38A
100
AcDbEntity
  8
0
100
AcDbBlockBegin
  2
*D69
 70
     1
 71
     0
 10
0.0
 20
0.0
 30
0.0
  3
*D69
  1

  0
LINE
  5
38B
330
38A
100
AcDbEntity
  8
1
  6
Continuous
 62
     2
100
AcDbLine
 10
1823.64437672255
 20
437.1758487463626
 30
0.0
 11
1823.64437672255
 21
469.1758487463626
 31
0.0
  0
LINE
  5
38C
330
38A
100
AcDbEntity
  8
1
  6
Continuous
 62
     2
100
AcDbLine
 10
1823.64437672255
 20
469.1758487463626
 30
0.0
 11
1823.64437672255
 21
475.1758487463626
 31
0.0
  0
LINE
  5
38D
330
38A
100
AcDbEntity
  8
1
  6
Continuous
 62
     2
100
AcDbLine
 10
1823.64437672255
 20
475.1758487463626
 30
0.0
 11
1823.64437672255
 21
507.1758487463626
 31
0.0
  0
LINE
  5
38E
330
38A
100
AcDbEntity
  8
1
  6
Continuous
 62
     2
100
AcDbLine
 10
1850.644376722577
 20
475.1758487463626
 30
0.0
 11
1818.64437672255
 21
475.1758487463626
 31
0.0
  0
LINE
  5
38F
330
38A
100
AcDbEntity
  8
1
  6
Continuous
 62
     2
100
AcDbLine
 10
1850.644376722577
 20
469.1758487463626
 30
0.0
 11
1818.64437672255
 21
469.1758487463626
 31
0.0
  0
LINE
  5
390
330
38A
100
AcDbEntity
  8
1
 62
     2
100
AcDbLine
 10
1823.64437672255
 20
469.1758487463626
 30
0.0
 11
1827.931563801448
 21
453.1758487463626
 31
0.0
  0
LINE
  5
391
330
38A
100
AcDbEntity
  8
1
 62
     2
100
AcDbLine
 10
1823.64437672255
 20
469.1758487463626
 30
0.0
 11
1819.357189643652
 21
453.1758487463626
 31
0.0
  0
LINE
  5
392
330
38A
100
AcDbEntity
  8
1
 62
     2
100
AcDbLine
 10
1823.64437672255
 20
475.1758487463626
 30
0.0
 11
1819.357189643652
 21
491.1758487463626
 31
0.0
  0
LINE
  5
393
330
38A
100
AcDbEntity
  8
1
 62
     2
100
AcDbLine
 10
1823.64437672255
 20
475.1758487463626
 30
0.0
 11
1827.931563801448
 21
491.1758487463626
 31
0.0
  0
MTEXT
  5
394
330
38A
100
AcDbEntity
  8
1
 62
     2
100
AcDbMText
 10
1815.77251835306
 20
467.5778480509095
 30
0.0
 40
16.0
 41
0.0
 71
     7
 72
     1
  1
6
  7
CONVERTER_1
 11
0.0
 21
1.0
 31
0.0
 73
     1
 44
0.60024009603842
  0
ENDBLK
  5
396
330
38A
100
AcDbEntity
  8
0
100
AcDbBlockEnd
  0
BLOCK
  5
3A2
330
399
100
AcDbEntity
  8
0
100
AcDbBlockBegin
  2
*D710
 70
     1
 71
     0
 10
0.0
 20
0.0
 30
0.0
  3
*D710
  1

  0
LINE
  5
39A
330
399
100
AcDbEntity
  8
1
  6
Continuous
 62
     2
100
AcDbLine
 10
1823.644376722547
 20
475.1758487463635
 30
0.0
 11
1823.644376722547
 21
622.1758487463744
 31
0.0
  0
LINE
  5
39B
330
399
100
AcDbEntity
  8
1
  6
Continuous
 62
     2
100
AcDbLine
 10
1854.944376722548
 20
622.1758487463744
 30
0.0
 11
1818.644376722547
 21
622.1758487463744
 31
0.0
  0
LINE
  5
39C
330
399
100
AcDbEntity
  8
1
  6
Continuous
 62
     2
100
AcDbLine
 10
1850.644376722575
 20
475.1758487463635
 30
0.0
 11
1818.644376722547
 21
475.1758487463635
 31
0.0
  0
LINE
  5
39D
330
399
100
AcDbEntity
  8
1
 62
     2
100
AcDbLine
 10
1823.644376722547
 20
475.1758487463635
 30
0.0
 11
1819.357189643649
 21
491.1758487463635
 31
0.0
  0
LINE
  5
39E
330
399
100
AcDbEntity
  8
1
 62
     2
100
AcDbLine
 10
1823.644376722547
 20
475.1758487463635
 30
0.0
 11
1827.931563801445
 21
491.1758487463635
 31
0.0
  0
LINE
  5
39F
330
399
100
AcDbEntity
  8
1
 62
     2
100
AcDbLine
 10
1823.644376722547
 20
622.1758487463744
 30
0.0
 11
1827.931563801445
 21
606.1758487463744
 31
0.0
  0
LINE
  5
3A0
330
399
100
AcDbEntity
  8
1
 62
     2
100
AcDbLine
 10
1823.644376722547
 20
622.1758487463744
 30
0.0
 11
1819.357189643649
 21
606.1758487463744
 31
0.0
  0
MTEXT
  5
3A1
330
399
100
AcDbEntity
  8
1
 62
     2
100
AcDbMText
 10
1820.144376722547
 20
534.2580767655807
 30
0.0
 40
16.0
 41
0.0
 71
     7
 72
     1
  1
ML
  7
CONVERTER_1
 11
0.0
 21
1.0
 31
0.0
 73
     1
 44
0.60024009603842
  0
ENDBLK
  5
3A3
330
399
100
AcDbEntity
  8
0
100
AcDbBlockEnd
  0
BLOCK
  5
3AF
330
3A6
100
AcDbEntity
  8
0
100
AcDbBlockBegin
  2
*D811
 70
     1
 71
     0
 10
0.0
 20
0.0
 30
0.0
  3
*D811
  1

  0
LINE
  5
3A7
330
3A6
100
AcDbEntity
  8
1
  6
Continuous
 62
     2
100
AcDbLine
 10
1823.644376722551
 20
896.3297410827877
 30
0.0
 11
1823.644376722551
 21
806.3297410828204
 31
0.0
  0
LINE
  5
3A8
330
3A6
100
AcDbEntity
  8
1
  6
Continuous
 62
     2
100
AcDbLine
 10
1858.644376722554
 20
806.3297410828204
 30
0.0
 11
1818.644376722551
 21
806.3297410828204
 31
0.0
  0
LINE
  5
3A9
330
3A6
100
AcDbEntity
  8
1
  6
Continuous
 62
     2
100
AcDbLine
 10
1858.844376722416
 20
896.3297410827877
 30
0.0
 11
1818.644376722551
 21
896.3297410827877
 31
0.0
  0
LINE
  5
3AA
330
3A6
100
AcDbEntity
  8
1
 62
     2
100
AcDbLine
 10
1823.644376722551
 20
896.3297410827877
 30
0.0
 11
1827.931563801449
 21
880.3297410827877
 31
0.0
  0
LINE
  5
3AB
330
3A6
100
AcDbEntity
  8
1
 62
     2
100
AcDbLine
 10
1823.644376722551
 20
896.3297410827877
 30
0.0
 11
1819.357189643653
 21
880.3297410827877
 31
0.0
  0
LINE
  5
3AC
330
3A6
100
AcDbEntity
  8
1
 62
     2
100
AcDbLine
 10
1823.644376722551
 20
806.3297410828204
 30
0.0
 11
1819.357189643653
 21
822.3297410828204
 31
0.0
  0
LINE
  5
3AD
330
3A6
100
AcDbEntity
  8
1
 62
     2
100
AcDbLine
 10
1823.644376722551
 20
806.3297410828204
 30
0.0
 11
1827.931563801449
 21
822.3297410828204
 31
0.0
  0
MTEXT
  5
3AE
330
3A6
100
AcDbEntity
  8
1
 62
     2
100
AcDbMText
 10
1817.744376722551
 20
818.808769351664
 30
0.0
 40
16.0
 41
0.0
 71
     7
 72
     1
  1
\C2;□\C2;90
  7
CONVERTER_3
 11
0.0
 21
1.0
 31
0.0
 73
     1
 44
0.60024009603842
  0
ENDBLK
  5
3B0
330
3A6
100
AcDbEntity
  8
0
100
AcDbBlockEnd
  0
BLOCK
  5
3BC
330
3B3
100
AcDbEntity
  8
0
100
AcDbBlockBegin
  2
*D912
 70
     1
 71
     0
 10
0.0
 20
0.0
 30
0.0
  3
*D912
  1

  0
LINE
  5
3B4
330
3B3
100
AcDbEntity
  8
1
  6
Continuous
 62
     2
100
AcDbLine
 10
1775.413909618736
 20
896.3297410827886
 30
0.0
 11
1775.413909618736
 21
804.3297410820137
 31
0.0
  0
LINE
  5
3B5
330
3B3
100
AcDbEntity
  8
1
  6
Continuous
 62
     2
100
AcDbLine
 10
1858.844376722416
 20
896.3297410827886
 30
0.0
 11
1770.413909618736
 21
896.3297410827886
 31
0.0
  0
LINE
  5
3B6
330
3B3
100
AcDbEntity
  8
1
  6
Continuous
 62
     2
100
AcDbLine
 10
1950.644376722446
 20
804.3297410820137
 30
0.0
 11
1770.413909618736
 21
804.3297410820137
 31
0.0
  0
LINE
  5
3B7
330
3B3
100
AcDbEntity
  8
1
 62
     2
100
AcDbLine
 10
1775.413909618736
 20
896.3297410827886
 30
0.0
 11
1779.701096697634
 21
880.3297410827886
 31
0.0
  0
LINE
  5
3B8
330
3B3
100
AcDbEntity
  8
1
 62
     2
100
AcDbLine
 10
1775.413909618736
 20
896.3297410827886
 30
0.0
 11
1771.126722539838
 21
880.3297410827886
 31
0.0
  0
LINE
  5
3B9
330
3B3
100
AcDbEntity
  8
1
 62
     2
100
AcDbLine
 10
1775.413909618736
 20
804.3297410820137
 30
0.0
 11
1771.126722539838
 21
820.3297410820137
 31
0.0
  0
LINE
  5
3BA
330
3B3
100
AcDbEntity
  8
1
 62
     2
100
AcDbLine
 10
1775.413909618736
 20
804.3297410820137
 30
0.0
 11
1779.701096697634
 21
820.3297410820137
 31
0.0
  0
MTEXT
  5
3BB
330
3B3
100
AcDbEntity
  8
1
 62
     2
100
AcDbMText
 10
1769.513909618736
 20
838.3954536996798
 30
0.0
 40
16.0
 41
0.0
 71
     7
 72
     1
  1
92
  7
CONVERTER_1
 11
0.0
 21
1.0
 31
0.0
 73
     1
 44
0.60024009603842
  0
ENDBLK
  5
3BD
330
3B3
100
AcDbEntity
  8
0
100
AcDbBlockEnd
  0
BLOCK
  5
3C9
330
3C0
100
AcDbEntity
  8
0
100
AcDbBlockBegin
  2
*D1013
 70
     1
 71
     0
 10
0.0
 20
0.0
 30
0.0
  3
*D1013
  1

  0
LINE
  5
3C1
330
3C0
100
AcDbEntity
  8
1
  6
Continuous
 62
     2
100
AcDbLine
 10
2025.644376722641
 20
770.4308000551646
 30
0.0
 11
2105.644376722608
 21
770.4308000551646
 31
0.0
  0
LINE
  5
3C2
330
3C0
100
AcDbEntity
  8
1
  6
Continuous
 62
     2
100
AcDbLine
 10
2025.644376722641
 20
815.0797410828091
 30
0.0
 11
2025.644376722641
 21
765.4308000551646
 31
0.0
  0
LINE
  5
3C3
330
3C0
100
AcDbEntity
  8
1
  6
Continuous
 62
     2
100
AcDbLine
 10
2105.644376722608
 20
815.0797410828091
 30
0.0
 11
2105.644376722608
 21
765.4308000551646
 31
0.0
  0
LINE
  5
3C4
330
3C0
100
AcDbEntity
  8
1
 62
     2
100
AcDbLine
 10
2025.644376722641
 20
770.4308000551646
 30
0.0
 11
2041.644376722641
 21
774.7179871340626
 31
0.0
  0
LINE
  5
3C5
330
3C0
100
AcDbEntity
  8
1
 62
     2
100
AcDbLine
 10
2025.644376722641
 20
770.4308000551646
 30
0.0
 11
2041.644376722641
 21
766.1436129762666
 31
0.0
  0
LINE
  5
3C6
330
3C0
100
AcDbEntity
  8
1
 62
     2
100
AcDbLine
 10
2105.644376722608
 20
770.4308000551646
 30
0.0
 11
2089.644376722608
 21
766.1436129762666
 31
0.0
  0
LINE
  5
3C7
330
3C0
100
AcDbEntity
  8
1
 62
     2
100
AcDbLine
 10
2105.644376722608
 20
770.4308000551646
 30
0.0
 11
2089.644376722608
 21
774.7179871340626
 31
0.0
  0
MTEXT
  5
3C8
330
3C0
100
AcDbEntity
  8
1
 62
     2
100
AcDbMText
 10
2054.277405589771
 20
773.9308000551646
 30
0.0
 40
16.0
 41
0.0
 71
     7
 72
     1
  1
80
  7
CONVERTER_1
 11
0.9999999999970621
 21
2.424068405545307E-6
 31
0.0
 73
     1
 44
0.60024009603842
  0
ENDBLK
  5
3CA
330
3C0
100
AcDbEntity
  8
0
100
AcDbBlockEnd
  0
BLOCK
  5
3D6
330
3CD
100
AcDbEntity
  8
0
100
AcDbBlockBegin
  2
*D1114
 70
     1
 71
     0
 10
0.0
 20
0.0
 30
0.0
  3
*D1114
  1

  0
LINE
  5
3CE
330
3CD
100
AcDbEntity
  8
1
  6
Continuous
 62
     2
100
AcDbLine
 10
1855.644376722554
 20
770.4308000551646
 30
0.0
 11
2025.64437672264
 21
770.4308000551646
 31
0.0
  0
LINE
  5
3CF
330
3CD
100
AcDbEntity
  8
1
  6
Continuous
 62
     2
100
AcDbLine
 10
1855.644376722554
 20
809.32974108282
 30
0.0
 11
1855.644376722554
 21
765.4308000551646
 31
0.0
  0
LINE
  5
3D0
330
3CD
100
AcDbEntity
  8
1
  6
Continuous
 62
     2
100
AcDbLine
 10
2025.64437672264
 20
815.0797410828091
 30
0.0
 11
2025.64437672264
 21
765.4308000551646
 31
0.0
  0
LINE
  5
3D1
330
3CD
100
AcDbEntity
  8
1
 62
     2
100
AcDbLine
 10
1855.644376722554
 20
770.4308000551646
 30
0.0
 11
1871.644376722554
 21
774.7179871340626
 31
0.0
  0
LINE
  5
3D2
330
3CD
100
AcDbEntity
  8
1
 62
     2
100
AcDbLine
 10
1855.644376722554
 20
770.4308000551646
 30
0.0
 11
1871.644376722554
 21
766.1436129762666
 31
0.0
  0
LINE
  5
3D3
330
3CD
100
AcDbEntity
  8
1
 62
     2
100
AcDbLine
 10
2025.64437672264
 20
770.4308000551646
 30
0.0
 11
2009.64437672264
 21
766.1436129762666
 31
0.0
  0
LINE
  5
3D4
330
3CD
100
AcDbEntity
  8
1
 62
     2
100
AcDbLine
 10
2025.64437672264
 20
770.4308000551646
 30
0.0
 11
2009.64437672264
 21
774.7179871340626
 31
0.0
  0
MTEXT
  5
3D5
330
3CD
100
AcDbEntity
  8
1
 62
     2
100
AcDbMText
 10
1923.16455454256
 20
773.9308000551646
 30
0.0
 40
16.0
 41
0.0
 71
     7
 72
     1
  1
170
  7
CONVERTER_1
 11
0.9999999999970621
 21
2.424068405545307E-6
 31
0.0
 73
     1
 44
0.60024009603842
  0
ENDBLK
  5
3D7
330
3CD
100
AcDbEntity
  8
0
100
AcDbBlockEnd
  0
BLOCK
  5
3E5
330
3DA
100
AcDbEntity
  8
0
100
AcDbBlockBegin
  2
*D1215
 70
     1
 71
     0
 10
0.0
 20
0.0
 30
0.0
  3
*D1215
  1

  0
LINE
  5
3DB
330
3DA
100
AcDbEntity
  8
1
  6
Continuous
 62
     2
100
AcDbLine
 10
2032.366503536485
 20
240.9123650073225
 30
0.0
 11
2064.366503536485
 21
240.9123650073225
 31
0.0
  0
LINE
  5
3DC
330
3DA
100
AcDbEntity
  8
1
  6
Continuous
 62
     2
100
AcDbLine
 10
2064.366503536485
 20
240.9123650073225
 30
0.0
 11
2084.366503536452
 21
240.9123650073225
 31
0.0
  0
LINE
  5
3DD
330
3DA
100
AcDbEntity
  8
1
  6
Continuous
 62
     2
100
AcDbLine
 10
2084.366503536452
 20
240.9123650073225
 30
0.0
 11
2134.306393780997
 21
240.9123650073225
 31
0.0
  0
LINE
  5
3DE
330
3DA
100
AcDbEntity
  8
1
  6
Continuous
 62
     2
100
AcDbLine
 10
2084.366503536452
 20
204.2785866527984
 30
0.0
 11
2084.366503536452
 21
245.9123650073225
 31
0.0
  0
LINE
  5
3DF
330
3DA
100
AcDbEntity
  8
1
  6
Continuous
 62
     2
100
AcDbLine
 10
2064.366503536485
 20
196.3543087980734
 30
0.0
 11
2064.366503536485
 21
245.9123650073225
 31
0.0
  0
LINE
  5
3E0
330
3DA
100
AcDbEntity
  8
1
 62
     2
100
AcDbLine
 10
2064.366503536485
 20
240.9123650073225
 30
0.0
 11
2048.366503536485
 21
236.6251779284245
 31
0.0
  0
LINE
  5
3E1
330
3DA
100
AcDbEntity
  8
1
 62
     2
100
AcDbLine
 10
2064.366503536485
 20
240.9123650073225
 30
0.0
 11
2048.366503536485
 21
245.1995520862205
 31
0.0
  0
LINE
  5
3E2
330
3DA
100
AcDbEntity
  8
1
 62
     2
100
AcDbLine
 10
2084.366503536452
 20
240.9123650073225
 30
0.0
 11
2100.366503536452
 21
245.1995520862205
 31
0.0
  0
LINE
  5
3E3
330
3DA
100
AcDbEntity
  8
1
 62
     2
100
AcDbLine
 10
2084.366503536452
 20
240.9123650073225
 30
0.0
 11
2100.366503536452
 21
236.6251779284245
 31
0.0
  0
MTEXT
  5
3E4
330
3DA
100
AcDbEntity
  8
1
 62
     2
100
AcDbMText
 10
2110.306393780997
 20
245.9123650073225
 30
0.0
 40
16.0
 41
0.0
 71
     7
 72
     1
  1
20
  7
CONVERTER_1
 11
0.9999999999970621
 21
2.424068405545307E-6
 31
0.0
 73
     1
 44
0.60024009603842
  0
ENDBLK
  5
3E6
330
3DA
100
AcDbEntity
  8
0
100
AcDbBlockEnd
  0
BLOCK
  5
3F4
330
3E9
100
AcDbEntity
  8
0
100
AcDbBlockBegin
  2
*D1316
 70
     1
 71
     0
 10
0.0
 20
0.0
 30
0.0
  3
*D1316
  1

  0
LINE
  5
3EA
330
3E9
100
AcDbEntity
  8
1
  6
Continuous
 62
     2
100
AcDbLine
 10
2153.638895580727
 20
227.540913581704
 30
0.0
 11
2153.638895580727
 21
195.3543087980743
 31
0.0
  0
LINE
  5
3EB
330
3E9
100
AcDbEntity
  8
1
  6
Continuous
 62
     2
100
AcDbLine
 10
2153.638895580727
 20
195.3543087980743
 30
0.0
 11
2153.638895580727
 21
191.3543087980743
 31
0.0
  0
LINE
  5
3EC
330
3E9
100
AcDbEntity
  8
1
  6
Continuous
 62
     2
100
AcDbLine
 10
2153.638895580727
 20
191.3543087980743
 30
0.0
 11
2153.638895580727
 21
159.3543087980743
 31
0.0
  0
LINE
  5
3ED
330
3E9
100
AcDbEntity
  8
1
  6
Continuous
 62
     2
100
AcDbLine
 10
2104.366503536453
 20
191.3543087980743
 30
0.0
 11
2158.638895580727
 21
191.3543087980743
 31
0.0
  0
LINE
  5
3EE
330
3E9
100
AcDbEntity
  8
1
  6
Continuous
 62
     2
100
AcDbLine
 10
2104.366503536453
 20
195.3543087980743
 30
0.0
 11
2158.638895580727
 21
195.3543087980743
 31
0.0
  0
LINE
  5
3EF
330
3E9
100
AcDbEntity
  8
1
 62
     2
100
AcDbLine
 10
2153.638895580727
 20
195.3543087980743
 30
0.0
 11
2149.351708501829
 21
211.3543087980743
 31
0.0
  0
LINE
  5
3F0
330
3E9
100
AcDbEntity
  8
1
 62
     2
100
AcDbLine
 10
2153.638895580727
 20
195.3543087980743
 30
0.0
 11
2157.926082659625
 21
211.3543087980743
 31
0.0
  0
LINE
  5
3F1
330
3E9
100
AcDbEntity
  8
1
 62
     2
100
AcDbLine
 10
2153.638895580727
 20
191.3543087980743
 30
0.0
 11
2157.926082659625
 21
175.3543087980743
 31
0.0
  0
LINE
  5
3F2
330
3E9
100
AcDbEntity
  8
1
 62
     2
100
AcDbLine
 10
2153.638895580727
 20
191.3543087980743
 30
0.0
 11
2149.351708501829
 21
175.3543087980743
 31
0.0
  0
MTEXT
  5
3F3
330
3E9
100
AcDbEntity
  8
1
 62
     2
100
AcDbMText
 10
2148.638895580727
 20
217.9409135817038
 30
0.0
 40
16.0
 41
0.0
 71
     7
 72
     1
  1
4
  7
CONVERTER_1
 11
0.0
 21
1.0
 31
0.0
 73
     1
 44
0.60024009603842
  0
ENDBLK
  5
3F5
330
3E9
100
AcDbEntity
  8
0
100
AcDbBlockEnd
  0
BLOCK
  5
401
330
3F8
100
AcDbEntity
  8
0
100
AcDbBlockBegin
  2
*D1417
 70
     1
 71
     0
 10
0.0
 20
0.0
 30
0.0
  3
*D1417
  1

  0
LINE
  5
3F9
330
3F8
100
AcDbEntity
  8
1
  6
Continuous
 62
     2
100
AcDbLine
 10
2015.64437672263
 20
595.0665901047764
 30
0.0
 11
2115.644376722628
 21
595.0665901047764
 31
0.0
  0
LINE
  5
3FA
330
3F8
100
AcDbEntity
  8
1
  6
Continuous
 62
     2
100
AcDbLine
 10
2115.644376722628
 20
538.1758487463781
 30
0.0
 11
2115.644376722628
 21
600.0665901047764
 31
0.0
  0
LINE
  5
3FB
330
3F8
100
AcDbEntity
  8
1
  6
Continuous
 62
     2
100
AcDbLine
 10
2015.64437672263
 20
538.1758487463781
 30
0.0
 11
2015.64437672263
 21
600.0665901047764
 31
0.0
  0
LINE
  5
3FC
330
3F8
100
AcDbEntity
  8
1
 62
     2
100
AcDbLine
 10
2015.64437672263
 20
595.0665901047764
 30
0.0
 11
2031.64437672263
 21
599.3537771836744
 31
0.0
  0
LINE
  5
3FD
330
3F8
100
AcDbEntity
  8
1
 62
     2
100
AcDbLine
 10
2015.64437672263
 20
595.0665901047764
 30
0.0
 11
2031.64437672263
 21
590.7794030258784
 31
0.0
  0
LINE
  5
3FE
330
3F8
100
AcDbEntity
  8
1
 62
     2
100
AcDbLine
 10
2115.644376722628
 20
595.0665901047764
 30
0.0
 11
2099.644376722628
 21
590.7794030258784
 31
0.0
  0
LINE
  5
3FF
330
3F8
100
AcDbEntity
  8
1
 62
     2
100
AcDbLine
 10
2115.644376722628
 20
595.0665901047764
 30
0.0
 11
2099.644376722628
 21
599.3537771836744
 31
0.0
  0
MTEXT
  5
400
330
3F8
100
AcDbEntity
  8
1
 62
     2
100
AcDbMText
 10
2049.886820611726
 20
600.0665901047764
 30
0.0
 40
16.0
 41
0.0
 71
     7
 72
     1
  1
100
  7
CONVERTER_1
 11
0.9999999999970621
 21
2.424068405545307E-6
 31
0.0
 73
     1
 44
0.60024009603842
  0
ENDBLK
  5
402
330
3F8
100
AcDbEntity
  8
0
100
AcDbBlockEnd
  0
BLOCK
  5
40E
330
405
100
AcDbEntity
  8
0
100
AcDbBlockBegin
  2
*D1518
 70
     1
 71
     0
 10
0.0
 20
0.0
 30
0.0
  3
*D1518
  1

  0
LINE
  5
406
330
405
100
AcDbEntity
  8
1
  6
Continuous
 62
     2
100
AcDbLine
 10
2023.020552401848
 20
195.3543087980734
 30
0.0
 11
2023.020552401848
 21
75.35430879807339
 31
0.0
  0
LINE
  5
407
330
405
100
AcDbEntity
  8
1
  6
Continuous
 62
     2
100
AcDbLine
 10
2056.466503536447
 20
75.35430879807339
 30
0.0
 11
2018.020552401848
 21
75.35430879807339
 31
0.0
  0
LINE
  5
408
330
405
100
AcDbEntity
  8
1
  6
Continuous
 62
     2
100
AcDbLine
 10
2063.366503536486
 20
195.3543087980734
 30
0.0
 11
2018.020552401848
 21
195.3543087980734
 31
0.0
  0
LINE
  5
409
330
405
100
AcDbEntity
  8
1
 62
     2
100
AcDbLine
 10
2023.020552401848
 20
195.3543087980734
 30
0.0
 11
2027.307739480746
 21
179.3543087980734
 31
0.0
  0
LINE
  5
40A
330
405
100
AcDbEntity
  8
1
 62
     2
100
AcDbLine
 10
2023.020552401848
 20
195.3543087980734
 30
0.0
 11
2018.73336532295
 21
179.3543087980734
 31
0.0
  0
LINE
  5
40B
330
405
100
AcDbEntity
  8
1
 62
     2
100
AcDbLine
 10
2023.020552401848
 20
75.35430879807339
 30
0.0
 11
2018.73336532295
 21
91.35430879807339
 31
0.0
  0
LINE
  5
40C
330
405
100
AcDbEntity
  8
1
 62
     2
100
AcDbLine
 10
2023.020552401848
 20
75.35430879807339
 30
0.0
 11
2027.307739480746
 21
91.35430879807339
 31
0.0
  0
MTEXT
  5
40D
330
405
100
AcDbEntity
  8
1
 62
     2
100
AcDbMText
 10
2018.020552401848
 20
116.1510617600927
 30
0.0
 40
16.0
 41
0.0
 71
     7
 72
     1
  1
120
  7
CONVERTER_1
 11
0.0
 21
1.0
 31
0.0
 73
     1
 44
0.60024009603842
  0
ENDBLK
  5
40F
330
405
100
AcDbEntity
  8
0
100
AcDbBlockEnd
  0
BLOCK
  5
41D
330
412
100
AcDbEntity
  8
0
100
AcDbBlockBegin
  2
*D1619
 70
     1
 71
     0
 10
0.0
 20
0.0
 30
0.0
  3
*D1619
  1

  0
LINE
  5
413
330
412
100
AcDbEntity
  8
1
  6
Continuous
 62
     2
100
AcDbLine
 10
2031.366503536454
 20
272.2404217531735
 30
0.0
 11
2063.366503536454
 21
272.2404217531735
 31
0.0
  0
LINE
  5
414
330
412
100
AcDbEntity
  8
1
  6
Continuous
 62
     2
100
AcDbLine
 10
2063.366503536454
 20
272.2404217531735
 30
0.0
 11
2064.366503536485
 21
272.2404217531735
 31
0.0
  0
LINE
  5
415
330
412
100
AcDbEntity
  8
1
  6
Continuous
 62
     2
100
AcDbLine
 10
2064.366503536485
 20
272.2404217531735
 30
0.0
 11
2096.366503536485
 21
272.2404217531735
 31
0.0
  0
LINE
  5
416
330
412
100
AcDbEntity
  8
1
  6
Continuous
 62
     2
100
AcDbLine
 10
2064.366503536485
 20
196.3543087980734
 30
0.0
 11
2064.366503536485
 21
277.2404217531735
 31
0.0
  0
LINE
  5
417
330
412
100
AcDbEntity
  8
1
  6
Continuous
 62
     2
100
AcDbLine
 10
2063.366503536454
 20
136.3543087980734
 30
0.0
 11
2063.366503536454
 21
277.2404217531735
 31
0.0
  0
LINE
  5
418
330
412
100
AcDbEntity
  8
1
 62
     2
100
AcDbLine
 10
2063.366503536454
 20
272.2404217531735
 30
0.0
 11
2047.366503536454
 21
267.9532346742756
 31
0.0
  0
LINE
  5
419
330
412
100
AcDbEntity
  8
1
 62
     2
100
AcDbLine
 10
2063.366503536454
 20
272.2404217531735
 30
0.0
 11
2047.366503536454
 21
276.5276088320715
 31
0.0
  0
LINE
  5
41A
330
412
100
AcDbEntity
  8
1
 62
     2
100
AcDbLine
 10
2064.366503536485
 20
272.2404217531735
 30
0.0
 11
2080.366503536485
 21
276.5276088320715
 31
0.0
  0
LINE
  5
41B
330
412
100
AcDbEntity
  8
1
 62
     2
100
AcDbLine
 10
2064.366503536485
 20
272.2404217531735
 30
0.0
 11
2080.366503536485
 21
267.9532346742756
 31
0.0
  0
MTEXT
  5
41C
330
412
100
AcDbEntity
  8
1
 62
     2
100
AcDbMText
 10
2037.971476138008
 20
277.2404217531735
 30
0.0
 40
16.0
 41
0.0
 71
     7
 72
     1
  1
1
  7
CONVERTER_1
 11
0.9999999999970621
 21
2.424068405545307E-6
 31
0.0
 73
     1
 44
0.60024009603842
  0
ENDBLK
  5
41E
330
412
100
AcDbEntity
  8
0
100
AcDbBlockEnd
  0
BLOCK
  5
42C
330
421
100
AcDbEntity
  8
0
100
AcDbBlockBegin
  2
*D1720
 70
     1
 71
     0
 10
0.0
 20
0.0
 30
0.0
  3
*D1720
  1

  0
LINE
  5
422
330
421
100
AcDbEntity
  8
1
  6
Continuous
 62
     2
100
AcDbLine
 10
2032.366503536486
 20
272.2404217531735
 30
0.0
 11
2064.366503536486
 21
272.2404217531735
 31
0.0
  0
LINE
  5
423
330
421
100
AcDbEntity
  8
1
  6
Continuous
 62
     2
100
AcDbLine
 10
2064.366503536486
 20
272.2404217531735
 30
0.0
 11
2099.366503536454
 21
272.2404217531735
 31
0.0
  0
LINE
  5
424
330
421
100
AcDbEntity
  8
1
  6
Continuous
 62
     2
100
AcDbLine
 10
2099.366503536454
 20
272.2404217531735
 30
0.0
 11
2131.366503536454
 21
272.2404217531735
 31
0.0
  0
LINE
  5
425
330
421
100
AcDbEntity
  8
1
  6
Continuous
 62
     2
100
AcDbLine
 10
2099.366503536454
 20
200.3543087980734
 30
0.0
 11
2099.366503536454
 21
277.2404217531735
 31
0.0
  0
LINE
  5
426
330
421
100
AcDbEntity
  8
1
  6
Continuous
 62
     2
100
AcDbLine
 10
2064.366503536486
 20
196.3543087980734
 30
0.0
 11
2064.366503536486
 21
277.2404217531735
 31
0.0
  0
LINE
  5
427
330
421
100
AcDbEntity
  8
1
 62
     2
100
AcDbLine
 10
2064.366503536486
 20
272.2404217531735
 30
0.0
 11
2048.366503536486
 21
267.9532346742756
 31
0.0
  0
LINE
  5
428
330
421
100
AcDbEntity
  8
1
 62
     2
100
AcDbLine
 10
2064.366503536486
 20
272.2404217531735
 30
0.0
 11
2048.366503536486
 21
276.5276088320715
 31
0.0
  0
LINE
  5
429
330
421
100
AcDbEntity
  8
1
 62
     2
100
AcDbLine
 10
2099.366503536454
 20
272.2404217531735
 30
0.0
 11
2115.366503536454
 21
276.5276088320715
 31
0.0
  0
LINE
  5
42A
330
421
100
AcDbEntity
  8
1
 62
     2
100
AcDbLine
 10
2099.366503536454
 20
272.2404217531735
 30
0.0
 11
2115.366503536454
 21
267.9532346742756
 31
0.0
  0
MTEXT
  5
42B
330
421
100
AcDbEntity
  8
1
 62
     2
100
AcDbMText
 10
2071.748785478418
 20
277.2404217531735
 30
0.0
 40
16.0
 41
0.0
 71
     7
 72
     1
  1
35
  7
CONVERTER_1
 11
0.9999999999970621
 21
2.424068405545307E-6
 31
0.0
 73
     1
 44
0.60024009603842
  0
ENDBLK
  5
42D
330
421
100
AcDbEntity
  8
0
100
AcDbBlockEnd
  0
BLOCK
  5
436
330
430
100
AcDbEntity
  8
0
100
AcDbBlockBegin
  2
*D1821
 70
     1
 71
     0
 10
0.0
 20
0.0
 30
0.0
  3
*D1821
  1

  0
LINE
  5
431
330
430
100
AcDbEntity
  8
1
  6
Continuous
 62
     2
100
AcDbLine
 10
1881.710016695688
 20
856.5996789937166
 30
0.0
 11
1823.344462583082
 21
928.3297410828197
 31
0.0
  0
LINE
  5
432
330
430
100
AcDbEntity
  8
1
  6
Continuous
 62
     2
100
AcDbLine
 10
1823.344462583082
 20
928.3297410828197
 30
0.0
 11
1759.144462583082
 21
928.3297410828197
 31
0.0
  0
LINE
  5
433
330
430
100
AcDbEntity
  8
1
 62
     2
100
AcDbLine
 10
1881.710016695688
 20
856.5996789937166
 30
0.0
 11
1868.286272110142
 21
866.304474424404
 31
0.0
  0
LINE
  5
434
330
430
100
AcDbEntity
  8
1
 62
     2
100
AcDbLine
 10
1881.710016695688
 20
856.5996789937166
 30
0.0
 11
1874.937110586036
 21
871.7161506679961
 31
0.0
  0
MTEXT
  5
435
330
430
100
AcDbEntity
  8
1
 62
     2
100
AcDbMText
 10
1752.104462583159
 20
934.2296774752649
 30
0.0
 40
16.0
 41
0.0
 71
     7
 72
     1
  1
\C2;{\Fgdt;n}\C2;60
  7
CONVERTER_1
 11
0.9999999999970621
 21
2.424068405545307E-6
 31
0.0
 73
     1
 44
0.60024009603842
  0
ENDBLK
  5
437
330
430
100
AcDbEntity
  8
0
100
AcDbBlockEnd
  0
BLOCK
  5
43F
330
439
100
AcDbEntity
  8
0
100
AcDbBlockBegin
  2
*D1922
 70
     1
 71
     0
 10
0.0
 20
0.0
 30
0.0
  3
*D1922
  1

  0
LINE
  5
43A
330
439
100
AcDbEntity
  8
1
  6
Continuous
 62
     2
100
AcDbLine
 10
2248.459580434825
 20
810.379819288365
 30
0.0
 11
2288.096606646501
 21
770.4308000551625
 31
0.0
  0
LINE
  5
43B
330
439
100
AcDbEntity
  8
1
  6
Continuous
 62
     2
100
AcDbLine
 10
2288.096606646501
 20
770.4308000551625
 30
0.0
 11
2371.896606646501
 21
770.4308000551625
 31
0.0
  0
LINE
  5
43C
330
439
100
AcDbEntity
  8
1
 62
     2
100
AcDbLine
 10
2248.459580434825
 20
810.379819288365
 30
0.0
 11
2262.772210114767
 21
802.0414378690305
 31
0.0
  0
LINE
  5
43D
330
439
100
AcDbEntity
  8
1
 62
     2
100
AcDbLine
 10
2248.459580434825
 20
810.379819288365
 30
0.0
 11
2256.685490622947
 21
796.0022543128059
 31
0.0
  0
MTEXT
  5
43E
330
439
100
AcDbEntity
  8
1
 62
     2
100
AcDbMText
 10
2302.056606646578
 20
776.3307364476077
 30
0.0
 40
16.0
 41
0.0
 71
     7
 72
     1
  1
\C2;{\Fgdt;n}\C2;48.6
  7
CONVERTER_1
 11
0.9999999999970621
 21
2.424068405545307E-6
 31
0.0
 73
     1
 44
0.60024009603842
  0
ENDBLK
  5
440
330
439
100
AcDbEntity
  8
0
100
AcDbBlockEnd
  0
BLOCK
  5
448
330
442
100
AcDbEntity
  8
0
100
AcDbBlockBegin
  2
*D2023
 70
     1
 71
     0
 10
0.0
 20
0.0
 30
0.0
  3
*D2023
  1

  0
LINE
  5
443
330
442
100
AcDbEntity
  8
1
  6
Continuous
 62
     2
100
AcDbLine
 10
2106.417114199443
 20
828.7433721103021
 30
0.0
 11
2126.116784039866
 21
915.7682754114398
 31
0.0
  0
LINE
  5
444
330
442
100
AcDbEntity
  8
1
  6
Continuous
 62
     2
100
AcDbLine
 10
2126.116784039866
 20
915.7682754114398
 30
0.0
 11
2208.116784039866
 21
915.7682754114398
 31
0.0
  0
LINE
  5
445
330
442
100
AcDbEntity
  8
1
 62
     2
100
AcDbLine
 10
2106.417114199443
 20
828.7433721103021
 30
0.0
 11
2105.768235569771
 21
845.2950768434533
 31
0.0
  0
LINE
  5
446
330
442
100
AcDbEntity
  8
1
 62
     2
100
AcDbLine
 10
2106.417114199443
 20
828.7433721103021
 30
0.0
 11
2114.131021188749
 21
843.4020081999867
 31
0.0
  0
MTEXT
  5
447
330
442
100
AcDbEntity
  8
1
 62
     2
100
AcDbMText
 10
2159.156784039982
 20
920.7681800001074
 30
0.0
 40
16.0
 41
0.0
 71
     7
 72
     1
  1
\C2;2-{\Fgdt;n}\C2;7
  7
CONVERTER_1
 11
0.9999999999970621
 21
2.424068405545307E-6
 31
0.0
 73
     1
 44
0.60024009603842
  0
ENDBLK
  5
449
330
442
100
AcDbEntity
  8
0
100
AcDbBlockEnd
  0
ENDSEC
  0
SECTION
  2
ENTITIES
  0
INSERT
  5
35
330
1F
100
AcDbEntity
  8
0
100
AcDbBlockReference
  2
Zuwaku-A3-web
 10
2225.095483858449
 20
488.73127528472
 30
0.0
 41
5.0
 42
5.0
 43
5.0
  0
LINE
  5
66
330
1F
100
AcDbEntity
  8
1
  6
Continuous
 62
     2
100
AcDbLine
 10
2175.29132856581
 20
396.8771697162147
 30
0.0
 11
2175.29132856581
 21
369.7037902054044
 31
0.0
  0
LINE
  5
67
330
1F
100
AcDbEntity
  8
1
  6
Continuous
 62
     2
100
AcDbLine
 10
2175.29132856581
 20
557.2001088299967
 30
0.0
 11
2175.29132856581
 21
530.0267293191864
 31
0.0
  0
LINE
  5
68
330
1F
100
AcDbEntity
  8
1
  6
Continuous
 62
     7
100
AcDbLine
 10
2080.516503536455
 20
131.3543087980738
 30
0.0
 11
2081.216503536457
 21
131.3543087980738
 31
0.0
  0
LINE
  5
69
330
1F
100
AcDbEntity
  8
1
  6
Continuous
 62
     7
100
AcDbLine
 10
2075.866503536455
 20
131.7543087980735
 30
0.0
 11
2080.816503536456
 21
131.7543087980735
 31
0.0
  0
LINE
  5
6A
330
1F
100
AcDbEntity
  8
1
  6
Continuous
 62
     7
100
AcDbLine
 10
2075.866503536455
 20
130.7543087980735
 30
0.0
 11
2078.666503536455
 21
130.7543087980735
 31
0.0
  0
LINE
  5
6B
330
1F
100
AcDbEntity
  8
1
  6
Continuous
 62
     7
100
AcDbLine
 10
2078.966503536457
 20
130.4543087980755
 30
0.0
 11
2078.966503536457
 21
129.5867839633638
 31
0.0
  0
LINE
  5
6C
330
1F
100
AcDbEntity
  8
1
  6
Continuous
 62
     7
100
AcDbLine
 10
2080.516503536455
 20
131.3543087980738
 30
0.0
 11
2080.416503536455
 21
131.3543087980738
 31
0.0
  0
LINE
  5
6D
330
1F
100
AcDbEntity
  8
1
  6
Continuous
 62
     7
100
AcDbLine
 10
2071.316503536459
 20
131.3543087980738
 30
0.0
 11
2071.216503536457
 21
131.3543087980738
 31
0.0
  0
LINE
  5
6E
330
1F
100
AcDbEntity
  8
1
  6
Continuous
 62
     7
100
AcDbLine
 10
2072.766503536459
 20
129.5867839633638
 30
0.0
 11
2072.766503536459
 21
130.4543087980755
 31
0.0
  0
LINE
  5
6F
330
1F
100
AcDbEntity
  8
1
  6
Continuous
 62
     7
100
AcDbLine
 10
2073.066503536459
 20
130.7543087980735
 30
0.0
 11
2075.866503536455
 21
130.7543087980735
 31
0.0
  0
LINE
  5
70
330
1F
100
AcDbEntity
  8
1
  6
Continuous
 62
     7
100
AcDbLine
 10
2070.916503536457
 20
131.7543087980735
 30
0.0
 11
2075.866503536455
 21
131.7543087980735
 31
0.0
  0
LINE
  5
71
330
1F
100
AcDbEntity
  8
1
  6
Continuous
 62
     7
100
AcDbLine
 10
2070.516503536459
 20
131.3543087980738
 30
0.0
 11
2071.216503536457
 21
131.3543087980738
 31
0.0
  0
LINE
  5
72
330
1F
100
AcDbEntity
  8
1
  6
DASH_CENTER
 62
     3
100
AcDbLine
 10
2099.866503536448
 20
88.35430879807745
 30
0.0
 11
2079.366503536448
 21
88.35430879807154
 31
0.0
  0
LINE
  5
73
330
1F
100
AcDbEntity
  8
1
  6
Continuous
 62
     7
100
AcDbLine
 10
2099.866503536445
 20
93.98347392267851
 30
0.0
 11
2099.866503536451
 21
82.72514367347776
 31
0.0
  0
LINE
  5
74
330
1F
100
AcDbEntity
  8
1
  6
Continuous
 62
     7
100
AcDbLine
 10
2099.285946952849
 20
84.60153204834478
 30
0.0
 11
2094.366503536451
 21
84.60153204834251
 31
0.0
  0
LINE
  5
75
330
1F
100
AcDbEntity
  8
1
  6
Continuous
 62
     7
100
AcDbLine
 10
2099.285946952845
 20
92.10708554781149
 30
0.0
 11
2094.366503536448
 21
92.1070855478074
 31
0.0
  0
LINE
  5
76
330
1F
100
AcDbEntity
  8
1
  6
Continuous
 62
     7
100
AcDbLine
 10
2099.285946952849
 20
80.84875529861483
 30
0.0
 11
2094.366503536451
 21
80.84875529861256
 31
0.0
  0
LINE
  5
77
330
1F
100
AcDbEntity
  8
1
  6
Continuous
 62
     7
100
AcDbLine
 10
2094.366503536445
 20
95.85986229754144
 30
0.0
 11
2099.285946952845
 21
95.85986229754462
 31
0.0
  0
LINE
  5
78
330
1F
100
AcDbEntity
  8
1
  6
Continuous
 62
     7
100
AcDbLine
 10
2092.366503536439
 20
96.05430879807545
 30
0.0
 11
2094.366503536443
 21
96.05430879807545
 31
0.0
  0
LINE
  5
79
330
1F
100
AcDbEntity
  8
1
  6
Continuous
 62
     7
100
AcDbLine
 10
2094.366503536443
 20
96.05430879807545
 30
0.0
 11
2094.366503536454
 21
80.65430879807764
 31
0.0
  0
LINE
  5
7A
330
1F
100
AcDbEntity
  8
1
  6
Continuous
 62
     7
100
AcDbLine
 10
2094.366503536454
 20
80.65430879807764
 30
0.0
 11
2092.366503536455
 21
80.65430879807764
 31
0.0
  0
LINE
  5
7B
330
1F
100
AcDbEntity
  8
1
  6
Continuous
 62
     7
100
AcDbLine
 10
2092.366503536455
 20
80.65430879807764
 30
0.0
 11
2092.366503536439
 21
96.05430879807545
 31
0.0
  0
LINE
  5
7C
330
1F
100
AcDbEntity
  8
1
  6
Continuous
 62
     7
100
AcDbLine
 10
2092.366503536455
 20
100.6543087980776
 30
0.0
 11
2092.366503536439
 21
116.0543087980755
 31
0.0
  0
LINE
  5
7D
330
1F
100
AcDbEntity
  8
1
  6
Continuous
 62
     7
100
AcDbLine
 10
2094.366503536454
 20
100.6543087980776
 30
0.0
 11
2092.366503536455
 21
100.6543087980776
 31
0.0
  0
LINE
  5
7E
330
1F
100
AcDbEntity
  8
1
  6
Continuous
 62
     7
100
AcDbLine
 10
2094.366503536443
 20
116.0543087980755
 30
0.0
 11
2094.366503536454
 21
100.6543087980776
 31
0.0
  0
LINE
  5
7F
330
1F
100
AcDbEntity
  8
1
  6
Continuous
 62
     7
100
AcDbLine
 10
2092.366503536439
 20
116.0543087980755
 30
0.0
 11
2094.366503536443
 21
116.0543087980755
 31
0.0
  0
LINE
  5
80
330
1F
100
AcDbEntity
  8
1
  6
Continuous
 62
     7
100
AcDbLine
 10
2094.366503536445
 20
115.8598622975414
 30
0.0
 11
2099.285946952845
 21
115.8598622975446
 31
0.0
  0
LINE
  5
81
330
1F
100
AcDbEntity
  8
1
  6
Continuous
 62
     7
100
AcDbLine
 10
2099.285946952849
 20
100.8487552986148
 30
0.0
 11
2094.366503536451
 21
100.8487552986126
 31
0.0
  0
LINE
  5
82
330
1F
100
AcDbEntity
  8
1
  6
Continuous
 62
     7
100
AcDbLine
 10
2099.285946952845
 20
112.1070855478115
 30
0.0
 11
2094.366503536448
 21
112.1070855478074
 31
0.0
  0
LINE
  5
83
330
1F
100
AcDbEntity
  8
1
  6
Continuous
 62
     7
100
AcDbLine
 10
2099.285946952849
 20
104.6015320483448
 30
0.0
 11
2094.366503536451
 21
104.6015320483425
 31
0.0
  0
LINE
  5
84
330
1F
100
AcDbEntity
  8
1
  6
Continuous
 62
     7
100
AcDbLine
 10
2099.866503536445
 20
113.9834739226785
 30
0.0
 11
2099.866503536451
 21
102.7251436734778
 31
0.0
  0
LINE
  5
85
330
1F
100
AcDbEntity
  8
1
  6
DASH_CENTER
 62
     3
100
AcDbLine
 10
2099.866503536448
 20
108.3543087980775
 30
0.0
 11
2079.366503536448
 21
108.3543087980715
 31
0.0
  0
LINE
  5
86
330
1F
100
AcDbEntity
  8
1
  6
Continuous
 62
     3
100
AcDbLine
 10
2061.466503536447
 20
129.3543087980738
 30
0.0
 11
2062.366503536455
 21
129.3543087980738
 31
0.0
  0
LINE
  5
87
330
1F
100
AcDbEntity
  8
1
  6
Continuous
 62
     3
100
AcDbLine
 10
2123.266503536449
 20
129.3543087980738
 30
0.0
 11
2123.266503536449
 21
77.35430879807382
 31
0.0
  0
LINE
  5
88
330
1F
100
AcDbEntity
  8
1
  6
Continuous
 62
     3
100
AcDbLine
 10
2061.466503536447
 20
75.35430879807382
 30
0.0
 11
2062.366503536455
 21
75.35430879807382
 31
0.0
  0
LINE
  5
89
330
1F
100
AcDbEntity
  8
1
  6
Continuous
 62
     3
100
AcDbLine
 10
2123.266503536449
 20
77.35430879807382
 30
0.0
 11
2123.266503536449
 21
75.35430879807382
 31
0.0
  0
LINE
  5
8A
330
1F
100
AcDbEntity
  8
1
  6
Continuous
 62
     3
100
AcDbLine
 10
2122.366503536446
 20
75.35430879807382
 30
0.0
 11
2122.366503536446
 21
129.3543087980738
 31
0.0
  0
LINE
  5
8B
330
1F
100
AcDbEntity
  8
0
  6
Continuous
 62
     3
100
AcDbLine
 10
2122.366503536446
 20
105.8543087980738
 30
0.0
 11
2119.366503536446
 21
107.3543087980738
 31
0.0
  0
LINE
  5
8C
330
1F
100
AcDbEntity
  8
0
  6
Continuous
 62
     3
100
AcDbLine
 10
2122.366503536446
 20
110.8543087980738
 30
0.0
 11
2119.366503536446
 21
109.3543087980738
 31
0.0
  0
LINE
  5
8D
330
1F
100
AcDbEntity
  8
0
  6
Continuous
 62
     3
100
AcDbLine
 10
2119.366503536446
 20
109.3543087980738
 30
0.0
 11
2119.366503536446
 21
108.3543087980738
 31
0.0
  0
LINE
  5
8E
330
1F
100
AcDbEntity
  8
0
  6
Continuous
 62
     3
100
AcDbLine
 10
2119.366503536446
 20
108.3543087980738
 30
0.0
 11
2119.366503536446
 21
107.3543087980738
 31
0.0
  0
LINE
  5
8F
330
1F
100
AcDbEntity
  8
1
  6
Continuous
 62
     3
100
AcDbLine
 10
2061.466503536447
 20
75.35430879807382
 30
0.0
 11
2061.466503536447
 21
129.3543087980738
 31
0.0
  0
LINE
  5
90
330
1F
100
AcDbEntity
  8
1
  6
Continuous
 62
     3
100
AcDbLine
 10
2062.366503536455
 20
129.3543087980738
 30
0.0
 11
2062.366503536455
 21
75.35430879807382
 31
0.0
  0
LINE
  5
91
330
1F
100
AcDbEntity
  8
0
  6
Continuous
 62
     3
100
AcDbLine
 10
2065.366503536455
 20
107.3543087980738
 30
0.0
 11
2062.366503536455
 21
105.8543087980738
 31
0.0
  0
LINE
  5
92
330
1F
100
AcDbEntity
  8
0
  6
Continuous
 62
     3
100
AcDbLine
 10
2065.366503536455
 20
109.3543087980738
 30
0.0
 11
2062.366503536455
 21
110.8543087980738
 31
0.0
  0
LINE
  5
93
330
1F
100
AcDbEntity
  8
0
  6
Continuous
 62
     3
100
AcDbLine
 10
2065.366503536455
 20
108.3543087980738
 30
0.0
 11
2065.366503536455
 21
109.3543087980738
 31
0.0
  0
LINE
  5
94
330
1F
100
AcDbEntity
  8
0
  6
Continuous
 62
     3
100
AcDbLine
 10
2065.366503536455
 20
107.3543087980738
 30
0.0
 11
2065.366503536455
 21
108.3543087980738
 31
0.0
  0
LINE
  5
95
330
1F
100
AcDbEntity
  8
1
  6
Continuous
 62
     3
100
AcDbLine
 10
2122.366503536446
 20
75.35430879807382
 30
0.0
 11
2123.266503536449
 21
75.35430879807382
 31
0.0
  0
LINE
  5
96
330
1F
100
AcDbEntity
  8
1
  6
PHANTOM
 62
     3
100
AcDbLine
 10
2062.366503536455
 20
75.35430879807382
 30
0.0
 11
2122.366503536446
 21
75.35430879807382
 31
0.0
  0
LINE
  5
97
330
1F
100
AcDbEntity
  8
1
  6
PHANTOM
 62
     3
100
AcDbLine
 10
2062.366503536455
 20
129.3543087980738
 30
0.0
 11
2104.966503536475
 21
129.3543087980738
 31
0.0
  0
LINE
  5
98
330
1F
100
AcDbEntity
  8
1
  6
Continuous
 62
     3
100
AcDbLine
 10
2122.366503536446
 20
129.3543087980738
 30
0.0
 11
2123.266503536449
 21
129.3543087980738
 31
0.0
  0
LINE
  5
99
330
1F
100
AcDbEntity
  8
1
  6
PHANTOM
 62
     3
100
AcDbLine
 10
2104.966503536475
 20
129.3543087980738
 30
0.0
 11
2122.366503536446
 21
129.3543087980738
 31
0.0
  0
LINE
  5
9A
330
1F
100
AcDbEntity
  8
1
  6
Continuous
 62
     7
100
AcDbLine
 10
2064.366503536449
 20
180.3543087980756
 30
0.0
 11
2068.366503536509
 21
180.3543087980756
 31
0.0
  0
LINE
  5
9B
330
1F
100
AcDbEntity
  8
1
  6
Continuous
 62
     7
100
AcDbLine
 10
2064.366503536465
 20
138.3543087980816
 30
0.0
 11
2064.366503536485
 21
191.3543087980738
 31
0.0
  0
LINE
  5
9C
330
1F
100
AcDbEntity
  8
1
  6
Continuous
 62
     7
100
AcDbLine
 10
2099.366503536454
 20
195.3543087980738
 30
0.0
 11
2099.366503536454
 21
191.3543087980738
 31
0.0
  0
LINE
  5
9D
330
1F
100
AcDbEntity
  8
1
  6
Continuous
 62
     7
100
AcDbLine
 10
2068.366503536485
 20
195.3543087980738
 30
0.0
 11
2099.366503536454
 21
195.3543087980738
 31
0.0
  0
LINE
  5
9E
330
1F
100
AcDbEntity
  8
1
  6
Continuous
 62
     7
100
AcDbLine
 10
2099.366503536454
 20
191.3543087980738
 30
0.0
 11
2068.366503536454
 21
191.3543087980738
 31
0.0
  0
LINE
  5
9F
330
1F
100
AcDbEntity
  8
1
  6
DASH_CENTER
 62
     3
100
AcDbLine
 10
2084.366503536453
 20
199.2785866527988
 30
0.0
 11
2084.366503536455
 21
186.5069344228496
 31
0.0
  0
LINE
  5
A0
330
1F
100
AcDbEntity
  8
1
  6
Continuous
 62
     7
100
AcDbLine
 10
2088.366503536454
 20
134.3543087980816
 30
0.0
 11
2068.366503536465
 21
134.3543087980816
 31
0.0
  0
LINE
  5
A1
330
1F
100
AcDbEntity
  8
1
  6
Continuous
 62
     7
100
AcDbLine
 10
2088.366503536454
 20
75.35430879807382
 30
0.0
 11
2088.366503536454
 21
134.3543087980816
 31
0.0
  0
LINE
  5
A2
330
1F
100
AcDbEntity
  8
1
  6
Continuous
 62
     7
100
AcDbLine
 10
2092.366503536454
 20
75.35430879807382
 30
0.0
 11
2088.366503536454
 21
75.35430879807382
 31
0.0
  0
LINE
  5
A3
330
1F
100
AcDbEntity
  8
1
  6
Continuous
 62
     7
100
AcDbLine
 10
2092.366503536454
 20
134.3543087980816
 30
0.0
 11
2092.366503536454
 21
75.35430879807382
 31
0.0
  0
LINE
  5
A4
330
1F
100
AcDbEntity
  8
1
  6
Continuous
 62
     7
100
AcDbLine
 10
2068.366503536454
 20
138.3543087980816
 30
0.0
 11
2088.366503536454
 21
138.3543087980816
 31
0.0
  0
LINE
  5
A5
330
1F
100
AcDbEntity
  8
1
  6
Continuous
 62
     7
100
AcDbLine
 10
2068.366503536454
 20
191.3543087980738
 30
0.0
 11
2068.366503536454
 21
138.3543087980816
 31
0.0
  0
LINE
  5
A6
330
1F
100
AcDbEntity
  8
1
  6
Continuous
 62
     7
100
AcDbLine
 10
2109.616503536526
 20
155.3543087980697
 30
0.0
 11
2097.116503536526
 21
155.3543087980697
 31
0.0
  0
LINE
  5
A7
330
1F
100
AcDbEntity
  8
1
  6
Continuous
 62
     7
100
AcDbLine
 10
2109.616503536526
 20
156.9543087980715
 30
0.0
 11
2109.616503536526
 21
155.3543087980697
 31
0.0
  0
LINE
  5
A8
330
1F
100
AcDbEntity
  8
1
  6
Continuous
 62
     7
100
AcDbLine
 10
2097.116503536526
 20
156.9543087980715
 30
0.0
 11
2109.616503536526
 21
156.9543087980715
 31
0.0
  0
LINE
  5
A9
330
1F
100
AcDbEntity
  8
1
  6
Continuous
 62
     7
100
AcDbLine
 10
2097.116503536526
 20
155.3543087980697
 30
0.0
 11
2097.116503536526
 21
156.9543087980715
 31
0.0
  0
LINE
  5
AA
330
1F
100
AcDbEntity
  8
1
  6
Continuous
 62
     7
100
AcDbLine
 10
2109.466503536525
 20
158.4543087980715
 30
0.0
 11
2109.466503536525
 21
156.9543087980715
 31
0.0
  0
LINE
  5
AB
330
1F
100
AcDbEntity
  8
1
  6
Continuous
 62
     7
100
AcDbLine
 10
2097.266503536525
 20
158.4543087980715
 30
0.0
 11
2109.466503536525
 21
158.4543087980715
 31
0.0
  0
LINE
  5
AC
330
1F
100
AcDbEntity
  8
1
  6
Continuous
 62
     7
100
AcDbLine
 10
2097.266503536525
 20
156.9543087980715
 30
0.0
 11
2097.266503536525
 21
158.4543087980715
 31
0.0
  0
LINE
  5
AD
330
1F
100
AcDbEntity
  8
1
  6
Continuous
 62
     7
100
AcDbLine
 10
2097.593000844626
 20
158.4543087980715
 30
0.0
 11
2097.593000844626
 21
162.0077268106875
 31
0.0
  0
LINE
  5
AE
330
1F
100
AcDbEntity
  8
1
  6
Continuous
 62
     7
100
AcDbLine
 10
2109.140006228415
 20
162.0077268106875
 30
0.0
 11
2109.140006228415
 21
158.4543087980715
 31
0.0
  0
LINE
  5
AF
330
1F
100
AcDbEntity
  8
1
  6
Continuous
 62
     7
100
AcDbLine
 10
2100.479752190576
 20
162.0077268106875
 30
0.0
 11
2100.479752190576
 21
158.4543087980715
 31
0.0
  0
LINE
  5
B0
330
1F
100
AcDbEntity
  8
1
  6
Continuous
 62
     7
100
AcDbLine
 10
2106.253254882476
 20
162.0077268106875
 30
0.0
 11
2106.253254882476
 21
158.4543087980715
 31
0.0
  0
LINE
  5
B1
330
1F
100
AcDbEntity
  8
1
  6
Continuous
 62
     7
100
AcDbLine
 10
2099.036376517605
 20
162.4543087980715
 30
0.0
 11
2107.696630555447
 21
162.4543087980715
 31
0.0
  0
LINE
  5
B2
330
1F
100
AcDbEntity
  8
1
  6
DASH_CENTER
 62
     3
100
AcDbLine
 10
2103.366503536526
 20
162.4543087980715
 30
0.0
 11
2103.366503536527
 21
148.4543087980715
 31
0.0
  0
LINE
  5
B3
330
1F
100
AcDbEntity
  8
1
  6
Continuous
 62
     7
100
AcDbLine
 10
2091.366503536454
 20
151.1543087980695
 30
0.0
 11
2091.366503536454
 21
137.0000601091456
 31
0.0
  0
LINE
  5
B4
330
1F
100
AcDbEntity
  8
1
  6
Continuous
 62
     7
100
AcDbLine
 10
2123.366503536454
 20
151.1543087980695
 30
0.0
 11
2091.366503536454
 21
151.1543087980695
 31
0.0
  0
LINE
  5
B5
330
1F
100
AcDbEntity
  8
1
  6
Continuous
 62
     7
100
AcDbLine
 10
2123.366503536454
 20
154.1543087980695
 30
0.0
 11
2123.366503536454
 21
151.1543087980695
 31
0.0
  0
LINE
  5
B6
330
1F
100
AcDbEntity
  8
1
  6
Continuous
 62
     7
100
AcDbLine
 10
2091.366503536454
 20
154.1543087980695
 30
0.0
 11
2123.366503536454
 21
154.1543087980695
 31
0.0
  0
LINE
  5
B7
330
1F
100
AcDbEntity
  8
1
  6
Continuous
 62
     7
100
AcDbLine
 10
2088.366503536454
 20
138.3543087980816
 30
0.0
 11
2088.366503536454
 21
151.1543087980695
 31
0.0
  0
LINE
  5
B8
330
1F
100
AcDbEntity
  8
1
  6
Continuous
 62
     7
100
AcDbLine
 10
2068.366503536454
 20
154.1543087980617
 30
0.0
 11
2069.866503535293
 21
154.1543087980595
 31
0.0
  0
LINE
  5
B9
330
1F
100
AcDbEntity
  8
1
  6
Continuous
 62
     7
100
AcDbLine
 10
2071.066503535293
 20
154.1543087980617
 30
0.0
 11
2132.166503537127
 21
154.1543087980617
 31
0.0
  0
LINE
  5
BA
330
1F
100
AcDbEntity
  8
1
  6
Continuous
 62
     7
100
AcDbLine
 10
2068.366503536454
 20
155.3543087980625
 30
0.0
 11
2071.066503535293
 21
155.3543087980615
 31
0.0
  0
LINE
  5
BB
330
1F
100
AcDbEntity
  8
1
  6
Continuous
 62
     7
100
AcDbLine
 10
2071.066503535293
 20
139.3543087980625
 30
0.0
 11
2071.066503535293
 21
154.1543087980617
 31
0.0
  0
LINE
  5
BC
330
1F
100
AcDbEntity
  8
1
  6
Continuous
 62
     7
100
AcDbLine
 10
2069.866503535293
 20
154.1543087980595
 30
0.0
 11
2069.866503535293
 21
139.3543087980625
 31
0.0
  0
LINE
  5
BD
330
1F
100
AcDbEntity
  8
1
  6
Continuous
 62
     7
100
AcDbLine
 10
2069.866503535293
 20
139.3543087980625
 30
0.0
 11
2071.066503535293
 21
139.3543087980625
 31
0.0
  0
LINE
  5
BE
330
1F
100
AcDbEntity
  8
1
  6
Continuous
 62
     7
100
AcDbLine
 10
2132.166503537127
 20
77.35430879806245
 30
0.0
 11
2132.166503537127
 21
154.1543087980617
 31
0.0
  0
LINE
  5
BF
330
1F
100
AcDbEntity
  8
1
  6
Continuous
 62
     7
100
AcDbLine
 10
2065.066503535293
 20
136.0937778887028
 30
0.0
 11
2065.066503535291
 21
131.3543087980625
 31
0.0
  0
LINE
  5
C0
330
1F
100
AcDbEntity
  8
1
  6
Continuous
 62
     7
100
AcDbLine
 10
2063.866503535293
 20
131.3543087980625
 30
0.0
 11
2063.866503535293
 21
154.1543087980617
 31
0.0
  0
LINE
  5
C1
330
1F
100
AcDbEntity
  8
1
  6
Continuous
 62
     7
100
AcDbLine
 10
2071.066503535293
 20
155.3543087980615
 30
0.0
 11
2132.166503537127
 21
155.3543087980625
 31
0.0
  0
LINE
  5
C2
330
1F
100
AcDbEntity
  8
1
  6
Continuous
 62
     7
100
AcDbLine
 10
2133.366503537127
 20
154.1543087980617
 30
0.0
 11
2133.366503537127
 21
77.35430879806245
 31
0.0
  0
LINE
  5
C3
330
1F
100
AcDbEntity
  8
1
  6
Continuous
 62
     7
100
AcDbLine
 10
2133.366503537127
 20
77.35430879806245
 30
0.0
 11
2132.166503537127
 21
77.35430879806245
 31
0.0
  0
LINE
  5
C4
330
1F
100
AcDbEntity
  8
1
  6
Continuous
 62
     7
100
AcDbLine
 10
2065.066503535291
 20
131.3543087980625
 30
0.0
 11
2063.866503535293
 21
131.3543087980625
 31
0.0
  0
LINE
  5
C5
330
1F
100
AcDbEntity
  8
1
  6
PHANTOM
 62
     4
100
AcDbLine
 10
2132.166503537127
 20
154.1543087980617
 30
0.0
 11
2133.366503537127
 21
154.1543087980617
 31
0.0
  0
LINE
  5
C6
330
1F
100
AcDbEntity
  8
1
  6
Continuous
 62
     7
100
AcDbLine
 10
2075.866503536454
 20
75.35430879807382
 30
0.0
 11
2088.366503536454
 21
75.35430879807382
 31
0.0
  0
LINE
  5
C7
330
1F
100
AcDbEntity
  8
1
  6
Continuous
 62
     7
100
AcDbLine
 10
2088.366503536454
 20
84.10430879807382
 30
0.0
 11
2088.366503536454
 21
75.35430879807382
 31
0.0
  0
LINE
  5
C8
330
1F
100
AcDbEntity
  8
1
  6
Continuous
 62
     7
100
AcDbLine
 10
2088.366503536454
 20
84.10430879807382
 30
0.0
 11
2085.866503536454
 21
84.10430879807382
 31
0.0
  0
LINE
  5
C9
330
1F
100
AcDbEntity
  8
1
  6
Continuous
 62
     7
100
AcDbLine
 10
2085.866503536454
 20
84.10430879807382
 30
0.0
 11
2085.866503536454
 21
81.55430879807454
 31
0.0
  0
LINE
  5
CA
330
1F
100
AcDbEntity
  8
1
  6
Continuous
 62
     7
100
AcDbLine
 10
2085.866503536454
 20
81.55430879807454
 30
0.0
 11
2077.866503536454
 21
81.55430879807454
 31
0.0
  0
LINE
  5
CB
330
1F
100
AcDbEntity
  8
1
  6
Continuous
 62
     7
100
AcDbLine
 10
2077.866503536454
 20
81.55430879807454
 30
0.0
 11
2077.866503536454
 21
95.15430879807354
 31
0.0
  0
LINE
  5
CC
330
1F
100
AcDbEntity
  8
1
  6
Continuous
 62
     7
100
AcDbLine
 10
2077.866503536454
 20
95.15430879807354
 30
0.0
 11
2085.866503536454
 21
95.15430879807354
 31
0.0
  0
LINE
  5
CD
330
1F
100
AcDbEntity
  8
1
  6
Continuous
 62
     7
100
AcDbLine
 10
2085.866503536454
 20
95.15430879807354
 30
0.0
 11
2085.866503536454
 21
92.60430879807382
 31
0.0
  0
LINE
  5
CE
330
1F
100
AcDbEntity
  8
1
  6
Continuous
 62
     7
100
AcDbLine
 10
2085.866503536454
 20
92.60430879807382
 30
0.0
 11
2088.366503536454
 21
92.60430879807382
 31
0.0
  0
LINE
  5
CF
330
1F
100
AcDbEntity
  8
1
  6
Continuous
 62
     7
100
AcDbLine
 10
2088.366503536454
 20
92.60430879807382
 30
0.0
 11
2088.366503536454
 21
104.1043087980738
 31
0.0
  0
LINE
  5
D0
330
1F
100
AcDbEntity
  8
1
  6
Continuous
 62
     7
100
AcDbLine
 10
2088.366503536454
 20
104.1043087980738
 30
0.0
 11
2085.866503536454
 21
104.1043087980738
 31
0.0
  0
LINE
  5
D1
330
1F
100
AcDbEntity
  8
1
  6
Continuous
 62
     7
100
AcDbLine
 10
2085.866503536454
 20
104.1043087980738
 30
0.0
 11
2085.866503536454
 21
101.5543087980745
 31
0.0
  0
LINE
  5
D2
330
1F
100
AcDbEntity
  8
1
  6
Continuous
 62
     7
100
AcDbLine
 10
2085.866503536454
 20
101.5543087980745
 30
0.0
 11
2077.866503536454
 21
101.5543087980745
 31
0.0
  0
LINE
  5
D3
330
1F
100
AcDbEntity
  8
1
  6
Continuous
 62
     7
100
AcDbLine
 10
2077.866503536454
 20
101.5543087980745
 30
0.0
 11
2077.866503536454
 21
115.1543087980735
 31
0.0
  0
LINE
  5
D4
330
1F
100
AcDbEntity
  8
1
  6
Continuous
 62
     7
100
AcDbLine
 10
2077.866503536454
 20
115.1543087980735
 30
0.0
 11
2085.866503536454
 21
115.1543087980735
 31
0.0
  0
LINE
  5
D5
330
1F
100
AcDbEntity
  8
1
  6
Continuous
 62
     7
100
AcDbLine
 10
2088.366503536454
 20
112.6043087980738
 30
0.0
 11
2088.366503536454
 21
131.3543087980738
 31
0.0
  0
LINE
  5
D6
330
1F
100
AcDbEntity
  8
1
  6
Continuous
 62
     7
100
AcDbLine
 10
2085.866503536454
 20
115.1543087980735
 30
0.0
 11
2085.866503536454
 21
112.6043087980738
 31
0.0
  0
LINE
  5
D7
330
1F
100
AcDbEntity
  8
1
  6
Continuous
 62
     7
100
AcDbLine
 10
2085.866503536454
 20
112.6043087980738
 30
0.0
 11
2088.366503536454
 21
112.6043087980738
 31
0.0
  0
LINE
  5
D8
330
1F
100
AcDbEntity
  8
1
  6
Continuous
 62
     7
100
AcDbLine
 10
2080.116503536454
 20
131.3543087980738
 30
0.0
 11
2088.366503536454
 21
131.3543087980738
 31
0.0
  0
LINE
  5
D9
330
1F
100
AcDbEntity
  8
1
  6
Continuous
 62
     7
100
AcDbLine
 10
2080.116503536454
 20
131.3543087980738
 30
0.0
 11
2080.116503536454
 21
128.8543087980738
 31
0.0
  0
LINE
  5
DA
330
1F
100
AcDbEntity
  8
1
  6
Continuous
 62
     7
100
AcDbLine
 10
2080.116503536454
 20
128.8543087980738
 30
0.0
 11
2082.666503536455
 21
128.8543087980738
 31
0.0
  0
LINE
  5
DB
330
1F
100
AcDbEntity
  8
1
  6
Continuous
 62
     7
100
AcDbLine
 10
2082.666503536455
 20
128.8543087980738
 30
0.0
 11
2082.666503536455
 21
120.8543087980738
 31
0.0
  0
LINE
  5
DC
330
1F
100
AcDbEntity
  8
1
  6
Continuous
 62
     7
100
AcDbLine
 10
2082.666503536455
 20
120.8543087980738
 30
0.0
 11
2075.866503536454
 21
120.8543087980738
 31
0.0
  0
LINE
  5
DD
330
1F
100
AcDbEntity
  8
1
  6
Continuous
 62
     7
100
AcDbLine
 10
2075.866503536454
 20
120.8543087980738
 30
0.0
 11
2069.066503536454
 21
120.8543087980738
 31
0.0
  0
LINE
  5
DE
330
1F
100
AcDbEntity
  8
1
  6
Continuous
 62
     7
100
AcDbLine
 10
2069.066503536454
 20
120.8543087980738
 30
0.0
 11
2069.066503536454
 21
128.8543087980738
 31
0.0
  0
LINE
  5
DF
330
1F
100
AcDbEntity
  8
1
  6
Continuous
 62
     7
100
AcDbLine
 10
2069.066503536454
 20
128.8543087980738
 30
0.0
 11
2071.616503536454
 21
128.8543087980738
 31
0.0
  0
LINE
  5
E0
330
1F
100
AcDbEntity
  8
1
  6
Continuous
 62
     7
100
AcDbLine
 10
2071.616503536454
 20
128.8543087980738
 30
0.0
 11
2071.616503536454
 21
131.3543087980738
 31
0.0
  0
LINE
  5
E1
330
1F
100
AcDbEntity
  8
1
  6
Continuous
 62
     7
100
AcDbLine
 10
2071.616503536454
 20
131.3543087980738
 30
0.0
 11
2063.366503536454
 21
131.3543087980738
 31
0.0
  0
LINE
  5
E2
330
1F
100
AcDbEntity
  8
1
  6
Continuous
 62
     7
100
AcDbLine
 10
2063.366503536454
 20
112.6043087980738
 30
0.0
 11
2065.866503536454
 21
112.6043087980738
 31
0.0
  0
LINE
  5
E3
330
1F
100
AcDbEntity
  8
1
  6
Continuous
 62
     7
100
AcDbLine
 10
2065.866503536454
 20
112.6043087980738
 30
0.0
 11
2065.866503536454
 21
115.1543087980735
 31
0.0
  0
LINE
  5
E4
330
1F
100
AcDbEntity
  8
1
  6
Continuous
 62
     7
100
AcDbLine
 10
2063.366503536454
 20
112.6043087980738
 30
0.0
 11
2063.366503536454
 21
131.3543087980738
 31
0.0
  0
LINE
  5
E5
330
1F
100
AcDbEntity
  8
1
  6
Continuous
 62
     7
100
AcDbLine
 10
2065.866503536454
 20
115.1543087980735
 30
0.0
 11
2073.866503536454
 21
115.1543087980735
 31
0.0
  0
LINE
  5
E6
330
1F
100
AcDbEntity
  8
1
  6
Continuous
 62
     7
100
AcDbLine
 10
2073.866503536454
 20
115.1543087980735
 30
0.0
 11
2073.866503536454
 21
101.5543087980745
 31
0.0
  0
LINE
  5
E7
330
1F
100
AcDbEntity
  8
1
  6
Continuous
 62
     7
100
AcDbLine
 10
2073.866503536454
 20
101.5543087980745
 30
0.0
 11
2065.866503536454
 21
101.5543087980745
 31
0.0
  0
LINE
  5
E8
330
1F
100
AcDbEntity
  8
1
  6
Continuous
 62
     7
100
AcDbLine
 10
2065.866503536454
 20
101.5543087980745
 30
0.0
 11
2065.866503536454
 21
104.1043087980738
 31
0.0
  0
LINE
  5
E9
330
1F
100
AcDbEntity
  8
1
  6
Continuous
 62
     7
100
AcDbLine
 10
2065.866503536454
 20
104.1043087980738
 30
0.0
 11
2063.366503536454
 21
104.1043087980738
 31
0.0
  0
LINE
  5
EA
330
1F
100
AcDbEntity
  8
1
  6
Continuous
 62
     7
100
AcDbLine
 10
2063.366503536454
 20
104.1043087980738
 30
0.0
 11
2063.366503536454
 21
92.60430879807382
 31
0.0
  0
LINE
  5
EB
330
1F
100
AcDbEntity
  8
1
  6
Continuous
 62
     7
100
AcDbLine
 10
2063.366503536454
 20
92.60430879807382
 30
0.0
 11
2065.866503536454
 21
92.60430879807382
 31
0.0
  0
LINE
  5
EC
330
1F
100
AcDbEntity
  8
1
  6
Continuous
 62
     7
100
AcDbLine
 10
2065.866503536454
 20
92.60430879807382
 30
0.0
 11
2065.866503536454
 21
95.15430879807354
 31
0.0
  0
LINE
  5
ED
330
1F
100
AcDbEntity
  8
1
  6
Continuous
 62
     7
100
AcDbLine
 10
2065.866503536454
 20
95.15430879807354
 30
0.0
 11
2073.866503536454
 21
95.15430879807354
 31
0.0
  0
LINE
  5
EE
330
1F
100
AcDbEntity
  8
1
  6
Continuous
 62
     7
100
AcDbLine
 10
2073.866503536454
 20
95.15430879807354
 30
0.0
 11
2073.866503536454
 21
81.55430879807454
 31
0.0
  0
LINE
  5
EF
330
1F
100
AcDbEntity
  8
1
  6
Continuous
 62
     7
100
AcDbLine
 10
2073.866503536454
 20
81.55430879807454
 30
0.0
 11
2065.866503536454
 21
81.55430879807454
 31
0.0
  0
LINE
  5
F0
330
1F
100
AcDbEntity
  8
1
  6
Continuous
 62
     7
100
AcDbLine
 10
2065.866503536454
 20
81.55430879807454
 30
0.0
 11
2065.866503536454
 21
84.10430879807382
 31
0.0
  0
LINE
  5
F1
330
1F
100
AcDbEntity
  8
1
  6
Continuous
 62
     7
100
AcDbLine
 10
2065.866503536454
 20
84.10430879807382
 30
0.0
 11
2063.366503536454
 21
84.10430879807382
 31
0.0
  0
LINE
  5
F2
330
1F
100
AcDbEntity
  8
1
  6
Continuous
 62
     7
100
AcDbLine
 10
2063.366503536454
 20
84.10430879807382
 30
0.0
 11
2063.366503536454
 21
75.35430879807382
 31
0.0
  0
LINE
  5
F3
330
1F
100
AcDbEntity
  8
1
  6
Continuous
 62
     7
100
AcDbLine
 10
2075.866503536454
 20
75.35430879807382
 30
0.0
 11
2063.366503536454
 21
75.35430879807382
 31
0.0
  0
LINE
  5
F4
330
1F
100
AcDbEntity
  8
1
  6
Continuous
 62
     2
100
AcDbLine
 10
2044.029157183687
 20
43.35430879807382
 30
0.0
 11
2165.029157183687
 21
43.35430879807382
 31
0.0
  0
LINE
  5
F5
330
1F
100
AcDbEntity
  8
1
  6
Continuous
 62
     7
100
AcDbLine
 10
2136.444376722688
 20
469.5758487463627
 30
0.0
 11
2044.844376722761
 21
469.5758487463645
 31
0.0
  0
LINE
  5
F6
330
1F
100
AcDbEntity
  8
1
  6
Continuous
 62
     7
100
AcDbLine
 10
2137.644376722546
 20
469.1758487463626
 30
0.0
 11
2025.644376722437
 21
469.1758487463626
 31
0.0
  0
LINE
  5
F7
330
1F
100
AcDbEntity
  8
1
  6
Continuous
 62
     7
100
AcDbLine
 10
2503.944376722528
 20
469.1758487463767
 30
0.0
 11
2503.944376722528
 21
467.1758487463785
 31
0.0
  0
LINE
  5
F8
330
1F
100
AcDbEntity
  8
1
  6
Continuous
 62
     7
100
AcDbLine
 10
2525.944376722528
 20
467.1758487463785
 30
0.0
 11
2525.944376722528
 21
469.1758487463767
 31
0.0
  0
LINE
  5
F9
330
1F
100
AcDbEntity
  8
1
  6
Continuous
 62
     7
100
AcDbLine
 10
2503.944376722528
 20
469.1758487463767
 30
0.0
 11
2509.844376722525
 21
469.1758487463767
 31
0.0
  0
LINE
  5
FA
330
1F
100
AcDbEntity
  8
1
  6
Continuous
 62
     7
100
AcDbLine
 10
2520.044376722527
 20
469.1758487463767
 30
0.0
 11
2525.944376722528
 21
469.1758487463767
 31
0.0
  0
LINE
  5
FB
330
1F
100
AcDbEntity
  8
1
  6
Continuous
 62
     7
100
AcDbLine
 10
2531.850148088494
 20
467.1758487463685
 30
0.0
 11
2529.644376722553
 21
468.4493514382657
 31
0.0
  0
LINE
  5
FC
330
1F
100
AcDbEntity
  8
1
  6
Continuous
 62
     7
100
AcDbLine
 10
2529.644376722553
 20
468.4493514382657
 30
0.0
 11
2527.438605356612
 21
467.1758487463685
 31
0.0
  0
LINE
  5
FD
330
1F
100
AcDbEntity
  8
1
  6
DASHED
 62
     4
100
AcDbLine
 10
2137.644376722451
 20
469.1758487463726
 30
0.0
 11
2143.44437672243
 21
469.1758487463726
 31
0.0
  0
LINE
  5
FE
330
1F
100
AcDbEntity
  8
1
  6
DASHED
 62
     4
100
AcDbLine
 10
2242.64437672244
 20
469.1758487463726
 30
0.0
 11
2201.844376722439
 21
469.1758487463726
 31
0.0
  0
LINE
  5
FF
330
1F
100
AcDbEntity
  8
1
  6
DASHED
 62
     4
100
AcDbLine
 10
2193.444376722439
 20
469.1758487463726
 30
0.0
 11
2151.84437672243
 21
469.1758487463726
 31
0.0
  0
LINE
  5
100
330
1F
100
AcDbEntity
  8
1
  6
DASHED
 62
     4
100
AcDbLine
 10
2143.44437672243
 20
469.1758487463726
 30
0.0
 11
2151.84437672243
 21
469.1758487463726
 31
0.0
  0
LINE
  5
101
330
1F
100
AcDbEntity
  8
1
  6
DASHED
 62
     4
100
AcDbLine
 10
2193.444376722439
 20
469.1758487463726
 30
0.0
 11
2201.844376722439
 21
469.1758487463726
 31
0.0
  0
LINE
  5
102
330
1F
100
AcDbEntity
  8
1
  6
Continuous
 62
     7
100
AcDbLine
 10
2499.944376722553
 20
469.1758487463685
 30
0.0
 11
2499.94437672255
 21
467.1758487463685
 31
0.0
  0
LINE
  5
103
330
1F
100
AcDbEntity
  8
1
  6
Continuous
 62
     7
100
AcDbLine
 10
1955.444376722586
 20
469.1758487463626
 30
0.0
 11
1955.444376722586
 21
467.1758487463735
 31
0.0
  0
LINE
  5
104
330
1F
100
AcDbEntity
  8
1
  6
Continuous
 62
     7
100
AcDbLine
 10
1945.644376722496
 20
469.1758487463626
 30
0.0
 11
1945.644376722496
 21
467.1758487463735
 31
0.0
  0
LINE
  5
105
330
1F
100
AcDbEntity
  8
1
  6
Continuous
 62
     7
100
AcDbLine
 10
1955.444376722586
 20
469.1758487463626
 30
0.0
 11
2025.644376722547
 21
469.1758487464535
 31
0.0
  0
LINE
  5
106
330
1F
100
AcDbEntity
  8
1
  6
Continuous
 62
     7
100
AcDbLine
 10
1954.244376722587
 20
475.1758487463626
 30
0.0
 11
1955.644376722467
 21
475.1758487463626
 31
0.0
  0
LINE
  5
107
330
1F
100
AcDbEntity
  8
1
  6
Continuous
 62
     7
100
AcDbLine
 10
1947.644376722559
 20
872.3297410828195
 30
0.0
 11
1955.644376722517
 21
872.3297410828195
 31
0.0
  0
LINE
  5
108
330
1F
100
AcDbEntity
  8
1
  6
DASH_CENTER
 62
     3
100
AcDbLine
 10
1903.644376722567
 20
890.3297410828195
 30
0.0
 11
1897.644376722567
 21
890.3297410828195
 31
0.0
  0
LINE
  5
109
330
1F
100
AcDbEntity
  8
1
  6
Continuous
 62
     7
100
AcDbLine
 10
1939.644376722496
 20
467.1758487463735
 30
0.0
 11
1939.644376722496
 21
469.1758487463626
 31
0.0
  0
LINE
  5
10A
330
1F
100
AcDbEntity
  8
1
  6
Continuous
 62
     7
100
AcDbLine
 10
1955.444376722586
 20
469.1758487463626
 30
0.0
 11
1855.644376722577
 21
469.1758487463626
 31
0.0
  0
LINE
  5
10B
330
1F
100
AcDbEntity
  8
1
  6
Continuous
 62
     7
100
AcDbLine
 10
1855.644376722577
 20
469.1758487463626
 30
0.0
 11
1855.644376722577
 21
475.1758487463626
 31
0.0
  0
LINE
  5
10C
330
1F
100
AcDbEntity
  8
1
  6
Continuous
 62
     7
100
AcDbLine
 10
1855.644376722577
 20
475.1758487463626
 30
0.0
 11
1954.244376722587
 21
475.1758487463626
 31
0.0
  0
LINE
  5
10D
330
1F
100
AcDbEntity
  8
1
  6
Continuous
 62
     7
100
AcDbLine
 10
1869.744376722581
 20
415.1758487463626
 30
0.0
 11
1865.644376722829
 21
415.1758487463626
 31
0.0
  0
LINE
  5
10E
330
1F
100
AcDbEntity
  8
1
  6
Continuous
 62
     7
100
AcDbLine
 10
1865.644376722829
 20
415.1758487463626
 30
0.0
 11
1865.644376722829
 21
469.1758487463626
 31
0.0
  0
LINE
  5
10F
330
1F
100
AcDbEntity
  8
1
  6
Continuous
 62
     7
100
AcDbLine
 10
1866.844376722827
 20
415.1758487463626
 30
0.0
 11
1866.844376722827
 21
469.1758487463626
 31
0.0
  0
LINE
  5
110
330
1F
100
AcDbEntity
  8
1
  6
Continuous
 62
     7
100
AcDbLine
 10
1945.644376722559
 20
874.3297410828195
 30
0.0
 11
1945.644376722577
 21
888.3297410828304
 31
0.0
  0
LINE
  5
111
330
1F
100
AcDbEntity
  8
1
  6
Continuous
 62
     7
100
AcDbLine
 10
1863.644376722556
 20
896.3297410828195
 30
0.0
 11
1937.644376722556
 21
896.3297410828195
 31
0.0
  0
LINE
  5
112
330
1F
100
AcDbEntity
  8
1
  6
Continuous
 62
     7
100
AcDbLine
 10
1955.644376722555
 20
806.3297410828195
 30
0.0
 11
1863.644376722556
 21
806.3297410828195
 31
0.0
  0
LINE
  5
113
330
1F
100
AcDbEntity
  8
1
  6
Continuous
 62
     7
100
AcDbLine
 10
1855.644376722556
 20
814.3297410828195
 30
0.0
 11
1855.644376722556
 21
888.3297410828195
 31
0.0
  0
LINE
  5
114
330
1F
100
AcDbEntity
  8
1
  6
Continuous
 62
     7
100
AcDbLine
 10
2561.644376723226
 20
469.1758487463626
 30
0.0
 11
2583.644373722554
 21
469.1758487463626
 31
0.0
  0
LINE
  5
115
330
1F
100
AcDbEntity
  8
1
  6
Continuous
 62
     7
100
AcDbLine
 10
2583.644373722554
 20
469.1758487463626
 30
0.0
 11
2583.644373722554
 21
475.1758487463626
 31
0.0
  0
LINE
  5
116
330
1F
100
AcDbEntity
  8
1
  6
DASH_CENTER
 62
     3
100
AcDbLine
 10
2577.644376722535
 20
465.0648480347804
 30
0.0
 11
2577.644376722535
 21
478.6908269384926
 31
0.0
  0
LINE
  5
117
330
1F
100
AcDbEntity
  8
1
  6
Continuous
 62
     7
100
AcDbLine
 10
2583.644373722554
 20
475.1758487463626
 30
0.0
 11
2561.644376722553
 21
475.1758487463685
 31
0.0
  0
LINE
  5
118
330
1F
100
AcDbEntity
  8
1
  6
Continuous
 62
     4
100
AcDbLine
 10
2055.644376722467
 20
428.9337473560686
 30
0.0
 11
2018.17070542147
 21
440.1758487463685
 31
0.0
  0
LINE
  5
119
330
1F
100
AcDbEntity
  8
1
  6
Continuous
 62
     4
100
AcDbLine
 10
2055.644376722467
 20
435.6790081902495
 30
0.0
 11
2055.644376722467
 21
428.9337473560686
 31
0.0
  0
LINE
  5
11A
330
1F
100
AcDbEntity
  8
1
  6
Continuous
 62
     4
100
AcDbLine
 10
2080.62682425646
 20
435.6790081902495
 30
0.0
 11
2055.644376722467
 21
435.6790081902495
 31
0.0
  0
LINE
  5
11B
330
1F
100
AcDbEntity
  8
1
  6
Continuous
 62
     4
100
AcDbLine
 10
2080.62682425646
 20
444.6726893024875
 30
0.0
 11
2080.62682425646
 21
435.6790081902495
 31
0.0
  0
LINE
  5
11C
330
1F
100
AcDbEntity
  8
1
  6
Continuous
 62
     4
100
AcDbLine
 10
2055.644376722467
 20
444.6726893024875
 30
0.0
 11
2080.62682425646
 21
444.6726893024875
 31
0.0
  0
LINE
  5
11D
330
1F
100
AcDbEntity
  8
1
  6
Continuous
 62
     4
100
AcDbLine
 10
2055.644376722467
 20
451.4179501366666
 30
0.0
 11
2055.644376722467
 21
444.6726893024875
 31
0.0
  0
LINE
  5
11E
330
1F
100
AcDbEntity
  8
1
  6
Continuous
 62
     4
100
AcDbLine
 10
2018.17070542147
 20
440.1758487463685
 30
0.0
 11
2055.644376722467
 21
451.4179501366666
 31
0.0
  0
LINE
  5
11F
330
1F
100
AcDbEntity
  8
1
  6
DASHED
 62
     4
100
AcDbLine
 10
1930.644376722437
 20
415.1758487463717
 30
0.0
 11
1870.644376722467
 21
415.1758487463717
 31
0.0
  0
LINE
  5
120
330
1F
100
AcDbEntity
  8
1
  6
DASHED
 62
     4
100
AcDbLine
 10
1870.644376722467
 20
465.1758487463726
 30
0.0
 11
1930.644376722437
 21
465.1758487463726
 31
0.0
  0
LINE
  5
121
330
1F
100
AcDbEntity
  8
1
  6
DASHED
 62
     4
100
AcDbLine
 10
1870.644376722467
 20
449.8172258829945
 30
0.0
 11
1930.644376722437
 21
449.8172258829945
 31
0.0
  0
LINE
  5
122
330
1F
100
AcDbEntity
  8
1
  6
DASHED
 62
     4
100
AcDbLine
 10
1927.644376722437
 20
447.0630479582337
 30
0.0
 11
1873.644376722467
 21
447.0630479582337
 31
0.0
  0
LINE
  5
123
330
1F
100
AcDbEntity
  8
1
  6
DASHED
 62
     4
100
AcDbLine
 10
1873.644376722467
 20
445.2886495345106
 30
0.0
 11
1927.644376722437
 21
445.2886495345106
 31
0.0
  0
LINE
  5
124
330
1F
100
AcDbEntity
  8
1
  6
DASHED
 62
     4
100
AcDbLine
 10
1930.644376722437
 20
442.5344716097507
 30
0.0
 11
1870.644376722467
 21
442.5344716097507
 31
0.0
  0
LINE
  5
125
330
1F
100
AcDbEntity
  8
1
  6
DASHED
 62
     4
100
AcDbLine
 10
1930.644376722437
 20
463.6758487463717
 30
0.0
 11
1930.644376722437
 21
465.1758487463726
 31
0.0
  0
LINE
  5
126
330
1F
100
AcDbEntity
  8
1
  6
DASHED
 62
     4
100
AcDbLine
 10
1930.644376722437
 20
456.6758487463717
 30
0.0
 11
1930.644376722437
 21
463.6758487463717
 31
0.0
  0
LINE
  5
127
330
1F
100
AcDbEntity
  8
1
  6
DASHED
 62
     4
100
AcDbLine
 10
1894.644376722437
 20
467.1758487463726
 30
0.0
 11
1906.644376722437
 21
467.1758487463726
 31
0.0
  0
LINE
  5
128
330
1F
100
AcDbEntity
  8
1
  6
DASHED
 62
     4
100
AcDbLine
 10
1872.644376722467
 20
413.1758487463735
 30
0.0
 11
1875.644376722437
 21
413.1758487463717
 31
0.0
  0
LINE
  5
129
330
1F
100
AcDbEntity
  8
1
  6
DASHED
 62
     4
100
AcDbLine
 10
1875.644376722437
 20
413.1758487463717
 30
0.0
 11
1925.644376722437
 21
413.1758487463717
 31
0.0
  0
LINE
  5
12A
330
1F
100
AcDbEntity
  8
1
  6
DASHED
 62
     4
100
AcDbLine
 10
1872.644376722467
 20
467.1758487463726
 30
0.0
 11
1894.644376722437
 21
467.1758487463726
 31
0.0
  0
LINE
  5
12B
330
1F
100
AcDbEntity
  8
1
  6
DASHED
 62
     4
100
AcDbLine
 10
1871.190386222727
 20
443.4254781339387
 30
0.0
 11
1873.098367222207
 21
444.3976430103198
 31
0.0
  0
LINE
  5
12C
330
1F
100
AcDbEntity
  8
1
  6
DASHED
 62
     4
100
AcDbLine
 10
1873.644376722467
 20
445.2886495345106
 30
0.0
 11
1873.644376722467
 21
447.0630479582305
 31
0.0
  0
LINE
  5
12D
330
1F
100
AcDbEntity
  8
1
  6
DASHED
 62
     4
100
AcDbLine
 10
1873.098367222207
 20
447.9540544824195
 30
0.0
 11
1871.190386222727
 21
448.9262193588015
 31
0.0
  0
LINE
  5
12E
330
1F
100
AcDbEntity
  8
1
  6
DASHED
 62
     4
100
AcDbLine
 10
1930.098367222176
 20
443.4254781339387
 30
0.0
 11
1928.190386222696
 21
444.3976430103198
 31
0.0
  0
LINE
  5
12F
330
1F
100
AcDbEntity
  8
1
  6
DASHED
 62
     4
100
AcDbLine
 10
1927.644376722437
 20
445.2886495345106
 30
0.0
 11
1927.644376722437
 21
447.0630479582305
 31
0.0
  0
LINE
  5
130
330
1F
100
AcDbEntity
  8
1
  6
DASHED
 62
     4
100
AcDbLine
 10
1928.190386222696
 20
447.9540544824195
 30
0.0
 11
1930.098367222176
 21
448.9262193588015
 31
0.0
  0
LINE
  5
131
330
1F
100
AcDbEntity
  8
1
  6
DASHED
 62
     4
100
AcDbLine
 10
1906.644376722437
 20
467.1758487463726
 30
0.0
 11
1928.644376722437
 21
467.1758487463726
 31
0.0
  0
LINE
  5
132
330
1F
100
AcDbEntity
  8
1
  6
DASHED
 62
     4
100
AcDbLine
 10
1870.644376722467
 20
450.6758487463717
 30
0.0
 11
1870.644376722467
 21
449.8172258829895
 31
0.0
  0
LINE
  5
133
330
1F
100
AcDbEntity
  8
1
  6
DASHED
 62
     4
100
AcDbLine
 10
1925.644376722437
 20
413.1758487463717
 30
0.0
 11
1928.644376722437
 21
413.1758487463735
 31
0.0
  0
LINE
  5
134
330
1F
100
AcDbEntity
  8
1
  6
DASHED
 62
     4
100
AcDbLine
 10
1930.644376722437
 20
415.1758487463717
 30
0.0
 11
1930.644376722437
 21
442.5344716097507
 31
0.0
  0
LINE
  5
135
330
1F
100
AcDbEntity
  8
1
  6
PHANTOM
 62
     4
100
AcDbLine
 10
1870.644376722467
 20
446.1758487463735
 30
0.0
 11
1930.644376722437
 21
446.1758487463685
 31
0.0
  0
LINE
  5
136
330
1F
100
AcDbEntity
  8
1
  6
DASHED
 62
     4
100
AcDbLine
 10
1930.644376722437
 20
449.8172258829895
 30
0.0
 11
1930.644376722437
 21
456.6758487463717
 31
0.0
  0
LINE
  5
137
330
1F
100
AcDbEntity
  8
1
  6
DASHED
 62
     4
100
AcDbLine
 10
1870.644376722467
 20
442.5344716097507
 30
0.0
 11
1870.644376722467
 21
415.1758487463717
 31
0.0
  0
LINE
  5
138
330
1F
100
AcDbEntity
  8
1
  6
DASHED
 62
     4
100
AcDbLine
 10
1870.644376722467
 20
465.1758487463726
 30
0.0
 11
1870.644376722467
 21
450.6758487463717
 31
0.0
  0
LINE
  5
139
330
1F
100
AcDbEntity
  8
1
  6
DASH_CENTER
 62
     3
100
AcDbLine
 10
1900.644376722437
 20
800.3297410828095
 30
0.0
 11
1900.644376722437
 21
866.3297410828095
 31
0.0
  0
LINE
  5
13A
330
1F
100
AcDbEntity
  8
1
  6
DASH_CENTER
 62
     3
100
AcDbLine
 10
1867.644376722437
 20
833.3297410828095
 30
0.0
 11
1933.644376722437
 21
833.3297410828095
 31
0.0
  0
LINE
  5
13B
330
1F
100
AcDbEntity
  8
1
  6
Continuous
 62
     7
100
AcDbLine
 10
2496.644376722553
 20
529.1758487463685
 30
0.0
 11
2496.644376722553
 21
493.1758487463576
 31
0.0
  0
LINE
  5
13C
330
1F
100
AcDbEntity
  8
1
  6
Continuous
 62
     7
100
AcDbLine
 10
2492.644376722547
 20
518.1758487463694
 30
0.0
 11
2496.644376722607
 21
518.1758487463694
 31
0.0
  0
LINE
  5
13D
330
1F
100
AcDbEntity
  8
1
  6
Continuous
 62
     7
100
AcDbLine
 10
2492.644376722568
 20
492.9505281816855
 30
0.0
 11
2492.644376722583
 21
529.1758487463685
 31
0.0
  0
LINE
  5
13E
330
1F
100
AcDbEntity
  8
1
  6
Continuous
 62
     7
100
AcDbLine
 10
2527.644376722553
 20
533.1758487463685
 30
0.0
 11
2527.644376722553
 21
529.1758487463685
 31
0.0
  0
LINE
  5
13F
330
1F
100
AcDbEntity
  8
1
  6
Continuous
 62
     7
100
AcDbLine
 10
2496.644376722583
 20
533.1758487463685
 30
0.0
 11
2527.644376722553
 21
533.1758487463685
 31
0.0
  0
LINE
  5
140
330
1F
100
AcDbEntity
  8
1
  6
Continuous
 62
     7
100
AcDbLine
 10
2527.644376722553
 20
529.1758487463685
 30
0.0
 11
2496.644376722553
 21
529.1758487463685
 31
0.0
  0
LINE
  5
141
330
1F
100
AcDbEntity
  8
1
  6
DASH_CENTER
 62
     3
100
AcDbLine
 10
2512.644376722551
 20
537.1001266010935
 30
0.0
 11
2512.644376722553
 21
524.3284743711465
 31
0.0
  0
LINE
  5
142
330
1F
100
AcDbEntity
  8
1
  6
DASH_CENTER
 62
     3
100
AcDbLine
 10
2105.644376722608
 20
830.5797410828095
 30
0.0
 11
2105.644376722608
 21
820.0797410828095
 31
0.0
  0
LINE
  5
143
330
1F
100
AcDbEntity
  8
1
  6
DASH_CENTER
 62
     3
100
AcDbLine
 10
2110.894376722608
 20
825.3297410828045
 30
0.0
 11
2100.394376722608
 21
825.3297410828045
 31
0.0
  0
LINE
  5
144
330
1F
100
AcDbEntity
  8
1
  6
Continuous
 62
     7
100
AcDbLine
 10
2115.64437672261
 20
838.3297410828027
 30
0.0
 11
2115.64437672261
 21
805.3297410828027
 31
0.0
  0
LINE
  5
145
330
1F
100
AcDbEntity
  8
1
  6
Continuous
 62
     7
100
AcDbLine
 10
2015.644376722627
 20
838.3297410828227
 30
0.0
 11
2015.644376722587
 21
805.3297410828295
 31
0.0
  0
LINE
  5
146
330
1F
100
AcDbEntity
  8
1
  6
Continuous
 62
     7
100
AcDbLine
 10
2113.6443767226
 20
840.3297410828027
 30
0.0
 11
2017.644376722627
 21
840.3297410828295
 31
0.0
  0
LINE
  5
147
330
1F
100
AcDbEntity
  8
1
  6
Continuous
 62
     7
100
AcDbLine
 10
2065.644376722583
 20
805.3297410828195
 30
0.0
 11
2015.644376722587
 21
805.3297410828295
 31
0.0
  0
LINE
  5
148
330
1F
100
AcDbEntity
  8
1
  6
Continuous
 62
     7
100
AcDbLine
 10
2115.644376722572
 20
805.3297410828027
 30
0.0
 11
2065.644376722583
 21
805.3297410828195
 31
0.0
  0
LINE
  5
149
330
1F
100
AcDbEntity
  8
1
  6
DASH_CENTER
 62
     3
100
AcDbLine
 10
2030.894376722642
 20
825.3297410828045
 30
0.0
 11
2020.394376722642
 21
825.3297410828045
 31
0.0
  0
LINE
  5
14A
330
1F
100
AcDbEntity
  8
1
  6
DASH_CENTER
 62
     3
100
AcDbLine
 10
2025.644376722642
 20
830.5797410828095
 30
0.0
 11
2025.644376722642
 21
820.0797410828095
 31
0.0
  0
LINE
  5
14B
330
1F
100
AcDbEntity
  8
1
  6
Continuous
 62
     7
100
AcDbLine
 10
2084.644376722643
 20
472.1758487463767
 30
0.0
 11
2046.644376722628
 21
472.1758487463767
 31
0.0
  0
LINE
  5
14C
330
1F
100
AcDbEntity
  8
1
  6
Continuous
 62
     7
100
AcDbLine
 10
2046.644376722628
 20
493.1758487463785
 30
0.0
 11
2046.644376722628
 21
516.1758487463785
 31
0.0
  0
LINE
  5
14D
330
1F
100
AcDbEntity
  8
1
  6
Continuous
 62
     7
100
AcDbLine
 10
2084.644376722643
 20
493.1758487463785
 30
0.0
 11
2084.644376722643
 21
469.5758487463645
 31
0.0
  0
LINE
  5
14E
330
1F
100
AcDbEntity
  8
1
  6
Continuous
 62
     7
100
AcDbLine
 10
2084.644376722663
 20
516.1758487463826
 30
0.0
 11
2084.644376722643
 21
493.1758487463785
 31
0.0
  0
LINE
  5
14F
330
1F
100
AcDbEntity
  8
1
  6
Continuous
 62
     7
100
AcDbLine
 10
2015.644376722632
 20
520.1758487463785
 30
0.0
 11
2015.64437672263
 21
533.1758487463785
 31
0.0
  0
LINE
  5
150
330
1F
100
AcDbEntity
  8
1
  6
Continuous
 62
     7
100
AcDbLine
 10
2044.644376722628
 20
518.1758487463785
 30
0.0
 11
2017.64437672263
 21
518.1758487463794
 31
0.0
  0
LINE
  5
151
330
1F
100
AcDbEntity
  8
1
  6
Continuous
 62
     7
100
AcDbLine
 10
2015.644376722628
 20
533.1758487463785
 30
0.0
 11
2115.644376722628
 21
533.1758487463785
 31
0.0
  0
LINE
  5
152
330
1F
100
AcDbEntity
  8
1
  6
DASH_CENTER
 62
     3
100
AcDbLine
 10
2025.644376722662
 20
537.1001266011035
 30
0.0
 11
2025.644376722662
 21
524.3284743711547
 31
0.0
  0
LINE
  5
153
330
1F
100
AcDbEntity
  8
1
  6
DASH_CENTER
 62
     3
100
AcDbLine
 10
2105.64437672263
 20
537.1001266011035
 30
0.0
 11
2105.64437672263
 21
524.3284743711547
 31
0.0
  0
LINE
  5
154
330
1F
100
AcDbEntity
  8
1
  6
Continuous
 62
     7
100
AcDbLine
 10
2086.644376722663
 20
518.1758487463785
 30
0.0
 11
2113.64437672263
 21
518.1758487463826
 31
0.0
  0
LINE
  5
155
330
1F
100
AcDbEntity
  8
1
  6
Continuous
 62
     7
100
AcDbLine
 10
2115.64437672263
 20
520.1758487463826
 30
0.0
 11
2115.644376722628
 21
533.1758487463785
 31
0.0
  0
LINE
  5
156
330
1F
100
AcDbEntity
  8
1
  6
Continuous
 62
     7
100
AcDbLine
 10
2046.644376722628
 20
469.5758487463645
 30
0.0
 11
2046.644376722628
 21
493.1758487463785
 31
0.0
  0
LINE
  5
157
330
1F
100
AcDbEntity
  8
1
  6
Continuous
 62
     7
100
AcDbLine
 10
2153.394381782247
 20
493.1758487463735
 30
0.0
 11
2140.894381782247
 21
493.1758487463735
 31
0.0
  0
LINE
  5
158
330
1F
100
AcDbEntity
  8
1
  6
Continuous
 62
     7
100
AcDbLine
 10
2140.894381782247
 20
493.1758487463735
 30
0.0
 11
2140.894381782247
 21
494.7758487463725
 31
0.0
  0
LINE
  5
159
330
1F
100
AcDbEntity
  8
1
  6
Continuous
 62
     7
100
AcDbLine
 10
2140.894381782247
 20
494.7758487463725
 30
0.0
 11
2153.394381782247
 21
494.7758487463725
 31
0.0
  0
LINE
  5
15A
330
1F
100
AcDbEntity
  8
1
  6
Continuous
 62
     7
100
AcDbLine
 10
2153.394381782247
 20
494.7758487463725
 30
0.0
 11
2153.394381782247
 21
493.1758487463735
 31
0.0
  0
LINE
  5
15B
330
1F
100
AcDbEntity
  8
1
  6
Continuous
 62
     7
100
AcDbLine
 10
2141.044381782245
 20
494.7758487463725
 30
0.0
 11
2141.044381782245
 21
496.2758487463725
 31
0.0
  0
LINE
  5
15C
330
1F
100
AcDbEntity
  8
1
  6
Continuous
 62
     7
100
AcDbLine
 10
2141.044381782245
 20
496.2758487463725
 30
0.0
 11
2153.244381782246
 21
496.2758487463725
 31
0.0
  0
LINE
  5
15D
330
1F
100
AcDbEntity
  8
1
  6
Continuous
 62
     7
100
AcDbLine
 10
2153.244381782246
 20
496.2758487463725
 30
0.0
 11
2153.244381782246
 21
494.7758487463725
 31
0.0
  0
LINE
  5
15E
330
1F
100
AcDbEntity
  8
1
  6
Continuous
 62
     7
100
AcDbLine
 10
2152.917884474146
 20
499.8292667589885
 30
0.0
 11
2152.917884474146
 21
496.2758487463725
 31
0.0
  0
LINE
  5
15F
330
1F
100
AcDbEntity
  8
1
  6
Continuous
 62
     7
100
AcDbLine
 10
2141.370879090357
 20
496.2758487463725
 30
0.0
 11
2141.370879090357
 21
499.8292667589885
 31
0.0
  0
LINE
  5
160
330
1F
100
AcDbEntity
  8
1
  6
Continuous
 62
     7
100
AcDbLine
 10
2150.031133128196
 20
496.2758487463725
 30
0.0
 11
2150.031133128196
 21
499.8292667589885
 31
0.0
  0
LINE
  5
161
330
1F
100
AcDbEntity
  8
1
  6
Continuous
 62
     7
100
AcDbLine
 10
2144.257630436296
 20
496.2758487463725
 30
0.0
 11
2144.257630436296
 21
499.8292667589885
 31
0.0
  0
LINE
  5
162
330
1F
100
AcDbEntity
  8
1
  6
Continuous
 62
     7
100
AcDbLine
 10
2142.814254763327
 20
500.2758487463725
 30
0.0
 11
2151.474508801166
 21
500.2758487463725
 31
0.0
  0
LINE
  5
163
330
1F
100
AcDbEntity
  8
1
  6
DASH_CENTER
 62
     3
100
AcDbLine
 10
2147.144381782247
 20
486.2758487463725
 30
0.0
 11
2147.144381782247
 21
500.2758487463725
 31
0.0
  0
LINE
  5
164
330
1F
100
AcDbEntity
  8
1
  6
DASH_CENTER
 62
     3
100
AcDbLine
 10
2140.216178551978
 20
844.3297410827036
 30
0.0
 11
2154.072585012526
 21
844.3297410826926
 31
0.0
  0
LINE
  5
165
330
1F
100
AcDbEntity
  8
1
  6
DASH_CENTER
 62
     3
100
AcDbLine
 10
2147.144381782247
 20
837.4015378524236
 30
0.0
 11
2147.144381782257
 21
851.2579443129725
 31
0.0
  0
LINE
  5
166
330
1F
100
AcDbEntity
  8
1
  6
Continuous
 62
     7
100
AcDbLine
 10
2041.394376722556
 20
493.1758487463735
 30
0.0
 11
2028.894376722556
 21
493.1758487463735
 31
0.0
  0
LINE
  5
167
330
1F
100
AcDbEntity
  8
1
  6
Continuous
 62
     7
100
AcDbLine
 10
2028.894376722556
 20
493.1758487463735
 30
0.0
 11
2028.894376722556
 21
494.7758487463725
 31
0.0
  0
LINE
  5
168
330
1F
100
AcDbEntity
  8
1
  6
Continuous
 62
     7
100
AcDbLine
 10
2028.894376722556
 20
494.7758487463725
 30
0.0
 11
2041.394376722556
 21
494.7758487463725
 31
0.0
  0
LINE
  5
169
330
1F
100
AcDbEntity
  8
1
  6
Continuous
 62
     7
100
AcDbLine
 10
2041.394376722556
 20
494.7758487463725
 30
0.0
 11
2041.394376722556
 21
493.1758487463735
 31
0.0
  0
LINE
  5
16A
330
1F
100
AcDbEntity
  8
1
  6
Continuous
 62
     7
100
AcDbLine
 10
2041.244376722555
 20
494.7758487463725
 30
0.0
 11
2029.044376722557
 21
494.7758487463725
 31
0.0
  0
LINE
  5
16B
330
1F
100
AcDbEntity
  8
1
  6
Continuous
 62
     7
100
AcDbLine
 10
2029.044376722557
 20
494.7758487463725
 30
0.0
 11
2029.044376722557
 21
496.2758487463725
 31
0.0
  0
LINE
  5
16C
330
1F
100
AcDbEntity
  8
1
  6
Continuous
 62
     7
100
AcDbLine
 10
2029.044376722557
 20
496.2758487463725
 30
0.0
 11
2041.244376722555
 21
496.2758487463725
 31
0.0
  0
LINE
  5
16D
330
1F
100
AcDbEntity
  8
1
  6
Continuous
 62
     7
100
AcDbLine
 10
2041.244376722555
 20
496.2758487463725
 30
0.0
 11
2041.244376722555
 21
494.7758487463725
 31
0.0
  0
LINE
  5
16E
330
1F
100
AcDbEntity
  8
1
  6
Continuous
 62
     7
100
AcDbLine
 10
2040.917879414456
 20
499.8292667589885
 30
0.0
 11
2040.917879414456
 21
496.2758487463725
 31
0.0
  0
LINE
  5
16F
330
1F
100
AcDbEntity
  8
1
  6
Continuous
 62
     7
100
AcDbLine
 10
2029.370874030655
 20
496.2758487463725
 30
0.0
 11
2029.370874030655
 21
499.8292667589885
 31
0.0
  0
LINE
  5
170
330
1F
100
AcDbEntity
  8
1
  6
Continuous
 62
     7
100
AcDbLine
 10
2038.031128068506
 20
496.2758487463725
 30
0.0
 11
2038.031128068506
 21
499.8292667589885
 31
0.0
  0
LINE
  5
171
330
1F
100
AcDbEntity
  8
1
  6
Continuous
 62
     7
100
AcDbLine
 10
2032.257625376605
 20
496.2758487463725
 30
0.0
 11
2032.257625376605
 21
499.8292667589885
 31
0.0
  0
LINE
  5
172
330
1F
100
AcDbEntity
  8
1
  6
Continuous
 62
     7
100
AcDbLine
 10
2030.814249703637
 20
500.2758487463725
 30
0.0
 11
2039.474503741476
 21
500.2758487463725
 31
0.0
  0
LINE
  5
173
330
1F
100
AcDbEntity
  8
1
  6
DASH_CENTER
 62
     3
100
AcDbLine
 10
2035.144376722556
 20
486.2758487463725
 30
0.0
 11
2035.144376722556
 21
500.2758487463725
 31
0.0
  0
LINE
  5
174
330
1F
100
AcDbEntity
  8
1
  6
DASH_CENTER
 62
     3
100
AcDbLine
 10
2028.216173492275
 20
844.3297410827036
 30
0.0
 11
2042.072579952836
 21
844.3297410826926
 31
0.0
  0
LINE
  5
175
330
1F
100
AcDbEntity
  8
1
  6
DASH_CENTER
 62
     3
100
AcDbLine
 10
2035.144376722556
 20
837.4015378524236
 30
0.0
 11
2035.144376722556
 21
851.2579443129725
 31
0.0
  0
LINE
  5
176
330
1F
100
AcDbEntity
  8
1
  6
Continuous
 62
     7
100
AcDbLine
 10
2537.894376722624
 20
493.1758487463667
 30
0.0
 11
2525.394376722624
 21
493.1758487463667
 31
0.0
  0
LINE
  5
177
330
1F
100
AcDbEntity
  8
1
  6
Continuous
 62
     7
100
AcDbLine
 10
2537.894376722624
 20
494.7758487463666
 30
0.0
 11
2537.894376722624
 21
493.1758487463667
 31
0.0
  0
LINE
  5
178
330
1F
100
AcDbEntity
  8
1
  6
Continuous
 62
     7
100
AcDbLine
 10
2525.394376722624
 20
494.7758487463666
 30
0.0
 11
2537.894376722624
 21
494.7758487463666
 31
0.0
  0
LINE
  5
179
330
1F
100
AcDbEntity
  8
1
  6
Continuous
 62
     7
100
AcDbLine
 10
2525.394376722624
 20
493.1758487463667
 30
0.0
 11
2525.394376722624
 21
494.7758487463666
 31
0.0
  0
LINE
  5
17A
330
1F
100
AcDbEntity
  8
1
  6
Continuous
 62
     7
100
AcDbLine
 10
2537.744376722622
 20
496.2758487463666
 30
0.0
 11
2537.744376722622
 21
494.7758487463666
 31
0.0
  0
LINE
  5
17B
330
1F
100
AcDbEntity
  8
1
  6
Continuous
 62
     7
100
AcDbLine
 10
2525.544376722624
 20
496.2758487463666
 30
0.0
 11
2537.744376722622
 21
496.2758487463666
 31
0.0
  0
LINE
  5
17C
330
1F
100
AcDbEntity
  8
1
  6
Continuous
 62
     7
100
AcDbLine
 10
2525.544376722624
 20
494.7758487463666
 30
0.0
 11
2525.544376722624
 21
496.2758487463666
 31
0.0
  0
LINE
  5
17D
330
1F
100
AcDbEntity
  8
1
  6
Continuous
 62
     7
100
AcDbLine
 10
2525.870874030724
 20
496.2758487463666
 30
0.0
 11
2525.870874030724
 21
499.8292667589826
 31
0.0
  0
LINE
  5
17E
330
1F
100
AcDbEntity
  8
1
  6
Continuous
 62
     7
100
AcDbLine
 10
2537.417879414513
 20
499.8292667589826
 30
0.0
 11
2537.417879414513
 21
496.2758487463666
 31
0.0
  0
LINE
  5
17F
330
1F
100
AcDbEntity
  8
1
  6
Continuous
 62
     7
100
AcDbLine
 10
2528.757625376674
 20
499.8292667589826
 30
0.0
 11
2528.757625376674
 21
496.2758487463666
 31
0.0
  0
LINE
  5
180
330
1F
100
AcDbEntity
  8
1
  6
Continuous
 62
     7
100
AcDbLine
 10
2534.531128068575
 20
499.8292667589826
 30
0.0
 11
2534.531128068575
 21
496.2758487463666
 31
0.0
  0
LINE
  5
181
330
1F
100
AcDbEntity
  8
1
  6
Continuous
 62
     7
100
AcDbLine
 10
2527.314249703703
 20
500.2758487463666
 30
0.0
 11
2535.974503741543
 21
500.2758487463666
 31
0.0
  0
LINE
  5
182
330
1F
100
AcDbEntity
  8
1
  6
DASH_CENTER
 62
     3
100
AcDbLine
 10
2531.644376722624
 20
500.2758487463666
 30
0.0
 11
2531.644376722625
 21
486.2758487463666
 31
0.0
  0
LINE
  5
183
330
1F
100
AcDbEntity
  8
1
  6
DASH_CENTER
 62
     3
100
AcDbLine
 10
2231.344376722515
 20
467.1758487463817
 30
0.0
 11
2231.344376722515
 21
496.9758487463605
 31
0.0
  0
LINE
  5
184
330
1F
100
AcDbEntity
  8
1
  6
DASH_CENTER
 62
     3
100
AcDbLine
 10
2231.344376722515
 20
410.3355008083295
 30
0.0
 11
2231.344376722515
 21
413.1758487463685
 31
0.0
  0
LINE
  5
185
330
1F
100
AcDbEntity
  8
1
  6
DASHED
 62
     4
100
AcDbLine
 10
2252.644376722517
 20
447.0630479582305
 30
0.0
 11
2210.044376722515
 21
447.0630479582305
 31
0.0
  0
LINE
  5
186
330
1F
100
AcDbEntity
  8
1
  6
DASHED
 62
     4
100
AcDbLine
 10
2255.644376722517
 20
449.8172258829895
 30
0.0
 11
2207.044376722515
 21
449.8172258829895
 31
0.0
  0
LINE
  5
187
330
1F
100
AcDbEntity
  8
1
  6
DASHED
 62
     4
100
AcDbLine
 10
2210.044376722515
 20
445.2886495345106
 30
0.0
 11
2252.644376722517
 21
445.2886495345106
 31
0.0
  0
LINE
  5
188
330
1F
100
AcDbEntity
  8
1
  6
DASHED
 62
     4
100
AcDbLine
 10
2207.044376722515
 20
442.5344716097516
 30
0.0
 11
2255.644376722517
 21
442.5344716097516
 31
0.0
  0
LINE
  5
189
330
1F
100
AcDbEntity
  8
1
  6
DASHED
 62
     4
100
AcDbLine
 10
2207.044376722515
 20
465.1758487463817
 30
0.0
 11
2255.644376722517
 21
465.1758487463817
 31
0.0
  0
LINE
  5
18A
330
1F
100
AcDbEntity
  8
1
  6
DASHED
 62
     4
100
AcDbLine
 10
2207.044376722517
 20
415.1758487463685
 30
0.0
 11
2255.644376722517
 21
415.1758487463685
 31
0.0
  0
LINE
  5
18B
330
1F
100
AcDbEntity
  8
1
  6
PHANTOM
 62
     4
100
AcDbLine
 10
2255.644376722517
 20
446.1758487463685
 30
0.0
 11
2207.044376722515
 21
446.1758487463685
 31
0.0
  0
LINE
  5
18C
330
1F
100
AcDbEntity
  8
1
  6
DASH_CENTER
 62
     3
100
AcDbLine
 10
2231.344376722515
 20
413.1758487463685
 30
0.0
 11
2231.344376722515
 21
467.1758487463817
 31
0.0
  0
LINE
  5
18D
330
1F
100
AcDbEntity
  8
1
  6
DASHED
 62
     4
100
AcDbLine
 10
2248.544376722515
 20
467.1758487463817
 30
0.0
 11
2214.144376722517
 21
467.1758487463817
 31
0.0
  0
LINE
  5
18E
330
1F
100
AcDbEntity
  8
1
  6
DASHED
 62
     4
100
AcDbLine
 10
2251.344376722515
 20
413.1758487463685
 30
0.0
 11
2211.344376722515
 21
413.1758487463685
 31
0.0
  0
LINE
  5
18F
330
1F
100
AcDbEntity
  8
1
  6
DASHED
 62
     4
100
AcDbLine
 10
2253.644376722517
 20
413.1758487463717
 30
0.0
 11
2251.344376722515
 21
413.1758487463685
 31
0.0
  0
LINE
  5
190
330
1F
100
AcDbEntity
  8
1
  6
DASHED
 62
     4
100
AcDbLine
 10
2255.644376722517
 20
465.1758487463817
 30
0.0
 11
2255.644376722517
 21
449.8172258830018
 31
0.0
  0
LINE
  5
191
330
1F
100
AcDbEntity
  8
1
  6
DASHED
 62
     4
100
AcDbLine
 10
2255.098367222255
 20
448.9262193587997
 30
0.0
 11
2253.190386222777
 21
447.9540544824226
 31
0.0
  0
LINE
  5
192
330
1F
100
AcDbEntity
  8
1
  6
DASHED
 62
     4
100
AcDbLine
 10
2255.098367222255
 20
443.4254781339387
 30
0.0
 11
2253.190386222777
 21
444.3976430103198
 31
0.0
  0
LINE
  5
193
330
1F
100
AcDbEntity
  8
1
  6
DASHED
 62
     4
100
AcDbLine
 10
2252.644376722517
 20
445.2886495345106
 30
0.0
 11
2252.644376722517
 21
447.0630479582305
 31
0.0
  0
LINE
  5
194
330
1F
100
AcDbEntity
  8
1
  6
DASHED
 62
     4
100
AcDbLine
 10
2248.544376722515
 20
467.1758487463817
 30
0.0
 11
2253.644376722517
 21
467.1758487463817
 31
0.0
  0
LINE
  5
195
330
1F
100
AcDbEntity
  8
1
  6
DASHED
 62
     4
100
AcDbLine
 10
2255.644376722517
 20
442.5344716097516
 30
0.0
 11
2255.644376722517
 21
415.1758487463685
 31
0.0
  0
LINE
  5
196
330
1F
100
AcDbEntity
  8
1
  6
DASHED
 62
     4
100
AcDbLine
 10
2207.044376722517
 20
415.1758487463685
 30
0.0
 11
2207.044376722515
 21
442.5344716097516
 31
0.0
  0
LINE
  5
197
330
1F
100
AcDbEntity
  8
1
  6
DASHED
 62
     4
100
AcDbLine
 10
2209.044376722515
 20
467.1758487463817
 30
0.0
 11
2214.144376722517
 21
467.1758487463817
 31
0.0
  0
LINE
  5
198
330
1F
100
AcDbEntity
  8
1
  6
DASHED
 62
     4
100
AcDbLine
 10
2210.044376722515
 20
447.0630479582305
 30
0.0
 11
2210.044376722515
 21
445.2886495345106
 31
0.0
  0
LINE
  5
199
330
1F
100
AcDbEntity
  8
1
  6
DASHED
 62
     4
100
AcDbLine
 10
2209.498367222253
 20
444.3976430103198
 30
0.0
 11
2207.590386222775
 21
443.4254781339387
 31
0.0
  0
LINE
  5
19A
330
1F
100
AcDbEntity
  8
1
  6
DASHED
 62
     4
100
AcDbLine
 10
2209.498367222253
 20
447.9540544824226
 30
0.0
 11
2207.590386222775
 21
448.9262193587997
 31
0.0
  0
LINE
  5
19B
330
1F
100
AcDbEntity
  8
1
  6
DASHED
 62
     4
100
AcDbLine
 10
2207.044376722515
 20
449.8172258830018
 30
0.0
 11
2207.044376722515
 21
465.1758487463817
 31
0.0
  0
LINE
  5
19C
330
1F
100
AcDbEntity
  8
1
  6
DASHED
 62
     4
100
AcDbLine
 10
2211.344376722515
 20
413.1758487463685
 30
0.0
 11
2209.044376722515
 21
413.1758487463717
 31
0.0
  0
LINE
  5
19D
330
1F
100
AcDbEntity
  8
1
  6
DASHED
 62
     4
100
AcDbLine
 10
2536.244376722527
 20
447.0630479582305
 30
0.0
 11
2493.644376722527
 21
447.0630479582305
 31
0.0
  0
LINE
  5
19E
330
1F
100
AcDbEntity
  8
1
  6
DASHED
 62
     4
100
AcDbLine
 10
2539.244376722527
 20
449.8172258829886
 30
0.0
 11
2490.644376722527
 21
449.8172258829877
 31
0.0
  0
LINE
  5
19F
330
1F
100
AcDbEntity
  8
1
  6
DASHED
 62
     4
100
AcDbLine
 10
2493.644376722527
 20
445.2886495345078
 30
0.0
 11
2536.244376722527
 21
445.2886495345097
 31
0.0
  0
LINE
  5
1A0
330
1F
100
AcDbEntity
  8
1
  6
DASHED
 62
     4
100
AcDbLine
 10
2490.644376722527
 20
442.5344716097507
 30
0.0
 11
2539.244376722527
 21
442.5344716097507
 31
0.0
  0
LINE
  5
1A1
330
1F
100
AcDbEntity
  8
1
  6
DASHED
 62
     4
100
AcDbLine
 10
2490.644376722527
 20
465.1758487463785
 30
0.0
 11
2539.244376722527
 21
465.1758487463785
 31
0.0
  0
LINE
  5
1A2
330
1F
100
AcDbEntity
  8
1
  6
DASHED
 62
     4
100
AcDbLine
 10
2490.644376722527
 20
415.1758487463685
 30
0.0
 11
2539.244376722527
 21
415.1758487463685
 31
0.0
  0
LINE
  5
1A3
330
1F
100
AcDbEntity
  8
1
  6
PHANTOM
 62
     4
100
AcDbLine
 10
2539.244376722527
 20
446.1758487463685
 30
0.0
 11
2490.644376722527
 21
446.1758487463685
 31
0.0
  0
LINE
  5
1A4
330
1F
100
AcDbEntity
  8
1
  6
DASH_CENTER
 62
     3
100
AcDbLine
 10
2514.944376722529
 20
467.1758487463785
 30
0.0
 11
2514.944376722528
 21
413.1758487463685
 31
0.0
  0
LINE
  5
1A5
330
1F
100
AcDbEntity
  8
1
  6
DASHED
 62
     4
100
AcDbLine
 10
2532.144376722527
 20
467.1758487463785
 30
0.0
 11
2497.744376722527
 21
467.1758487463785
 31
0.0
  0
LINE
  5
1A6
330
1F
100
AcDbEntity
  8
1
  6
DASHED
 62
     4
100
AcDbLine
 10
2534.944376722528
 20
413.1758487463685
 30
0.0
 11
2494.944376722528
 21
413.1758487463685
 31
0.0
  0
LINE
  5
1A7
330
1F
100
AcDbEntity
  8
1
  6
DASHED
 62
     4
100
AcDbLine
 10
2494.944376722528
 20
413.1758487463685
 30
0.0
 11
2492.644376722527
 21
413.1758487463685
 31
0.0
  0
LINE
  5
1A8
330
1F
100
AcDbEntity
  8
1
  6
DASHED
 62
     4
100
AcDbLine
 10
2490.644376722527
 20
449.8172258829986
 30
0.0
 11
2490.644376722527
 21
465.1758487463785
 31
0.0
  0
LINE
  5
1A9
330
1F
100
AcDbEntity
  8
1
  6
DASHED
 62
     4
100
AcDbLine
 10
2493.098367222267
 20
447.9540544824185
 30
0.0
 11
2491.190386222787
 21
448.9262193587965
 31
0.0
  0
LINE
  5
1AA
330
1F
100
AcDbEntity
  8
1
  6
DASHED
 62
     4
100
AcDbLine
 10
2493.098367222267
 20
444.3976430103185
 30
0.0
 11
2491.190386222787
 21
443.4254781339387
 31
0.0
  0
LINE
  5
1AB
330
1F
100
AcDbEntity
  8
1
  6
DASHED
 62
     4
100
AcDbLine
 10
2493.644376722527
 20
447.0630479582305
 30
0.0
 11
2493.644376722527
 21
445.2886495345078
 31
0.0
  0
LINE
  5
1AC
330
1F
100
AcDbEntity
  8
1
  6
DASHED
 62
     4
100
AcDbLine
 10
2492.644376722527
 20
467.1758487463785
 30
0.0
 11
2497.744376722527
 21
467.1758487463785
 31
0.0
  0
LINE
  5
1AD
330
1F
100
AcDbEntity
  8
1
  6
DASHED
 62
     4
100
AcDbLine
 10
2490.644376722527
 20
415.1758487463685
 30
0.0
 11
2490.644376722527
 21
442.5344716097507
 31
0.0
  0
LINE
  5
1AE
330
1F
100
AcDbEntity
  8
1
  6
DASHED
 62
     4
100
AcDbLine
 10
2539.244376722527
 20
442.5344716097507
 30
0.0
 11
2539.244376722527
 21
415.1758487463685
 31
0.0
  0
LINE
  5
1AF
330
1F
100
AcDbEntity
  8
1
  6
DASHED
 62
     4
100
AcDbLine
 10
2532.144376722527
 20
467.1758487463785
 30
0.0
 11
2537.244376722527
 21
467.1758487463785
 31
0.0
  0
LINE
  5
1B0
330
1F
100
AcDbEntity
  8
1
  6
DASHED
 62
     4
100
AcDbLine
 10
2536.244376722527
 20
445.2886495345097
 30
0.0
 11
2536.244376722527
 21
447.0630479582305
 31
0.0
  0
LINE
  5
1B1
330
1F
100
AcDbEntity
  8
1
  6
DASHED
 62
     4
100
AcDbLine
 10
2538.698367222267
 20
443.4254781339387
 30
0.0
 11
2536.79038622279
 21
444.3976430103176
 31
0.0
  0
LINE
  5
1B2
330
1F
100
AcDbEntity
  8
1
  6
DASHED
 62
     4
100
AcDbLine
 10
2538.698367222267
 20
448.9262193587965
 30
0.0
 11
2536.79038622279
 21
447.9540544824195
 31
0.0
  0
LINE
  5
1B3
330
1F
100
AcDbEntity
  8
1
  6
DASHED
 62
     4
100
AcDbLine
 10
2539.244376722527
 20
465.1758487463785
 30
0.0
 11
2539.244376722527
 21
449.8172258829995
 31
0.0
  0
LINE
  5
1B4
330
1F
100
AcDbEntity
  8
1
  6
DASHED
 62
     4
100
AcDbLine
 10
2537.244376722527
 20
413.1758487463685
 30
0.0
 11
2534.944376722528
 21
413.1758487463685
 31
0.0
  0
LINE
  5
1B5
330
1F
100
AcDbEntity
  8
1
  6
DASH_CENTER
 62
     3
100
AcDbLine
 10
2514.944376722528
 20
496.9758487463705
 30
0.0
 11
2514.944376722529
 21
467.1758487463785
 31
0.0
  0
LINE
  5
1B6
330
1F
100
AcDbEntity
  8
1
  6
DASH_CENTER
 62
     3
100
AcDbLine
 10
2514.944376722528
 20
410.3355008083245
 30
0.0
 11
2514.944376722528
 21
413.1758487463685
 31
0.0
  0
LINE
  5
1B7
330
1F
100
AcDbEntity
  8
1
  6
DASH_CENTER
 62
     3
100
AcDbLine
 10
2204.614376722516
 20
827.6297410819898
 30
0.0
 11
2258.074376722517
 21
827.6297410819898
 31
0.0
  0
LINE
  5
1B8
330
1F
100
AcDbEntity
  8
1
  6
DASH_CENTER
 62
     3
100
AcDbLine
 10
2231.344376722515
 20
854.3597410819907
 30
0.0
 11
2231.344376722515
 21
800.8997410819916
 31
0.0
  0
LINE
  5
1B9
330
1F
100
AcDbEntity
  8
1
  6
Continuous
 62
     7
100
AcDbLine
 10
2134.644376722644
 20
493.1758487463576
 30
0.0
 11
2084.644376722643
 21
493.1758487463576
 31
0.0
  0
LINE
  5
1BA
330
1F
100
AcDbEntity
  8
1
  6
Continuous
 62
     7
100
AcDbLine
 10
2135.644376722685
 20
493.1758487463576
 30
0.0
 11
2134.644376722644
 21
493.1758487463576
 31
0.0
  0
LINE
  5
1BB
330
1F
100
AcDbEntity
  8
1
  6
Continuous
 62
     7
100
AcDbLine
 10
2135.644376722685
 20
810.8297410830796
 30
0.0
 11
2115.644376722561
 21
810.8297410823666
 31
0.0
  0
LINE
  5
1BC
330
1F
100
AcDbEntity
  8
1
  6
Continuous
 62
     7
100
AcDbLine
 10
2252.444376722464
 20
469.1758487463626
 30
0.0
 11
2252.444376722464
 21
467.1758487463735
 31
0.0
  0
LINE
  5
1BD
330
1F
100
AcDbEntity
  8
1
  6
Continuous
 62
     7
100
AcDbLine
 10
2135.644376722685
 20
804.8297410834825
 30
0.0
 11
2218.644376722467
 21
804.8297410835658
 31
0.0
  0
LINE
  5
1BE
330
1F
100
AcDbEntity
  8
1
  6
Continuous
 62
     7
100
AcDbLine
 10
2233.644376722478
 20
874.3297410841365
 30
0.0
 11
2218.644376722467
 21
874.3297410841228
 31
0.0
  0
LINE
  5
1BF
330
1F
100
AcDbEntity
  8
1
  6
Continuous
 62
     7
100
AcDbLine
 10
2137.644376722685
 20
469.1758487463626
 30
0.0
 11
2218.644376722467
 21
469.1758487463626
 31
0.0
  0
LINE
  5
1C0
330
1F
100
AcDbEntity
  8
1
  6
Continuous
 62
     7
100
AcDbLine
 10
1955.644376722516
 20
873.9660838304048
 30
0.0
 11
1955.644376722534
 21
804.8297410822524
 31
0.0
  0
LINE
  5
1C1
330
1F
100
AcDbEntity
  8
1
  6
Continuous
 62
     7
100
AcDbLine
 10
1955.644376722534
 20
804.8297410822524
 30
0.0
 11
2045.644376722745
 21
804.8297410823366
 31
0.0
  0
LINE
  5
1C2
330
1F
100
AcDbEntity
  8
1
  6
Continuous
 62
     7
100
AcDbLine
 10
1955.644376722472
 20
874.3297410828095
 30
0.0
 11
1955.644376722516
 21
873.9660838304048
 31
0.0
  0
LINE
  5
1C3
330
1F
100
AcDbEntity
  8
1
  6
Continuous
 62
     7
100
AcDbLine
 10
2253.644376722497
 20
847.3297410836026
 30
0.0
 11
2253.644376722497
 21
854.3297410841365
 31
0.0
  0
LINE
  5
1C4
330
1F
100
AcDbEntity
  8
1
  6
Continuous
 62
     7
100
AcDbLine
 10
2218.644376722467
 20
874.3297410841228
 30
0.0
 11
1955.644376722472
 21
874.3297410828095
 31
0.0
  0
LINE
  5
1C5
330
1F
100
AcDbEntity
  8
1
  6
Continuous
 62
     7
100
AcDbLine
 10
2253.644376722518
 20
824.8297410835985
 30
0.0
 11
2253.644376722497
 21
847.3297410836026
 31
0.0
  0
LINE
  5
1C6
330
1F
100
AcDbEntity
  8
1
  6
Continuous
 62
     7
100
AcDbLine
 10
2135.644376722685
 20
804.8297410834825
 30
0.0
 11
2135.644376722685
 21
810.8297410834025
 31
0.0
  0
LINE
  5
1C7
330
1F
100
AcDbEntity
  8
1
  6
Continuous
 62
     7
100
AcDbLine
 10
2218.644376722467
 20
804.8297410835658
 30
0.0
 11
2233.644376722537
 21
804.8297410835817
 31
0.0
  0
LINE
  5
1C8
330
1F
100
AcDbEntity
  8
1
  6
Continuous
 62
     7
100
AcDbLine
 10
2084.644376722643
 20
477.1758487463617
 30
0.0
 11
2133.644376722685
 21
477.1758487463617
 31
0.0
  0
LINE
  5
1C9
330
1F
100
AcDbEntity
  8
1
  6
Continuous
 62
     7
100
AcDbLine
 10
2045.644376722745
 20
493.1758487463558
 30
0.0
 11
1956.844376722469
 21
493.1758487463626
 31
0.0
  0
LINE
  5
1CA
330
1F
100
AcDbEntity
  8
1
  6
Continuous
 62
     7
100
AcDbLine
 10
2045.644376722745
 20
491.9758487463546
 30
0.0
 11
2045.644376722745
 21
493.1758487463558
 31
0.0
  0
LINE
  5
1CB
330
1F
100
AcDbEntity
  8
1
  6
Continuous
 62
     7
100
AcDbLine
 10
2046.644376722644
 20
493.1758487463558
 30
0.0
 11
2045.644376722747
 21
493.1758487463558
 31
0.0
  0
LINE
  5
1CC
330
1F
100
AcDbEntity
  8
1
  6
Continuous
 62
     7
100
AcDbLine
 10
2135.644376722685
 20
491.9758487463578
 30
0.0
 11
2135.644376722685
 21
493.1758487463576
 31
0.0
  0
LINE
  5
1CD
330
1F
100
AcDbEntity
  8
1
  6
Continuous
 62
     7
100
AcDbLine
 10
2253.644376722467
 20
467.1758487463735
 30
0.0
 11
2253.644376722467
 21
491.9758487463605
 31
0.0
  0
LINE
  5
1CE
330
1F
100
AcDbEntity
  8
1
  6
PHANTOM
 62
     4
100
AcDbLine
 10
1956.844376722465
 20
475.1758487463626
 30
0.0
 11
1955.644376722467
 21
475.1758487463626
 31
0.0
  0
LINE
  5
1CF
330
1F
100
AcDbEntity
  8
1
  6
Continuous
 62
     7
100
AcDbLine
 10
1955.644376722468
 20
471.1758487463485
 30
0.0
 11
1955.644376722467
 21
475.1758487463626
 31
0.0
  0
LINE
  5
1D0
330
1F
100
AcDbEntity
  8
1
  6
Continuous
 62
     7
100
AcDbLine
 10
2135.644376722685
 20
479.1758487463585
 30
0.0
 11
2135.644376722686
 21
471.1758487463626
 31
0.0
  0
LINE
  5
1D1
330
1F
100
AcDbEntity
  8
1
  6
Continuous
 62
     7
100
AcDbLine
 10
2045.644376722745
 20
471.1758487463485
 30
0.0
 11
2045.644376722746
 21
479.1758487463526
 31
0.0
  0
LINE
  5
1D2
330
1F
100
AcDbEntity
  8
1
  6
Continuous
 62
     7
100
AcDbLine
 10
1957.644376722468
 20
469.1758487463485
 30
0.0
 11
2043.644376722745
 21
469.1758487463526
 31
0.0
  0
LINE
  5
1D3
330
1F
100
AcDbEntity
  8
1
  6
Continuous
 62
     7
100
AcDbLine
 10
2045.644376722746
 20
479.1758487463526
 30
0.0
 11
2045.644376722745
 21
491.9758487463546
 31
0.0
  0
LINE
  5
1D4
330
1F
100
AcDbEntity
  8
1
  6
Continuous
 62
     7
100
AcDbLine
 10
2135.644376722685
 20
491.9758487463578
 30
0.0
 11
2135.644376722685
 21
479.1758487463585
 31
0.0
  0
LINE
  5
1D5
330
1F
100
AcDbEntity
  8
1
  6
Continuous
 62
     7
100
AcDbLine
 10
2252.444376722464
 20
469.1758487463626
 30
0.0
 11
2253.644376722467
 21
469.1758487463626
 31
0.0
  0
LINE
  5
1D6
330
1F
100
AcDbEntity
  8
1
  6
Continuous
 62
     7
100
AcDbLine
 10
2218.644376722467
 20
469.1758487463626
 30
0.0
 11
2252.444376722464
 21
469.1758487463626
 31
0.0
  0
LINE
  5
1D7
330
1F
100
AcDbEntity
  8
1
  6
Continuous
 62
     7
100
AcDbLine
 10
2252.444376722469
 20
493.1758487463626
 30
0.0
 11
2135.644376722685
 21
493.1758487463576
 31
0.0
  0
LINE
  5
1D8
330
1F
100
AcDbEntity
  8
1
  6
Continuous
 62
     7
100
AcDbLine
 10
1955.644376722468
 20
491.9758487463605
 30
0.0
 11
1955.644376722467
 21
475.1758487463626
 31
0.0
  0
LINE
  5
1D9
330
1F
100
AcDbEntity
  8
1
  6
Continuous
 62
     7
100
AcDbLine
 10
2532.644376723226
 20
469.1758487463576
 30
0.0
 11
2493.34437672139
 21
469.1758487463576
 31
0.0
  0
LINE
  5
1DA
330
1F
100
AcDbEntity
  8
1
  6
Continuous
 62
     7
100
AcDbLine
 10
2536.644376723226
 20
415.1758487463567
 30
0.0
 11
2560.444376723223
 21
415.1758487463567
 31
0.0
  0
LINE
  5
1DB
330
1F
100
AcDbEntity
  8
1
  6
Continuous
 62
     7
100
AcDbLine
 10
2534.644376723226
 20
467.1758487463576
 30
0.0
 11
2534.644376723226
 21
417.1758487463567
 31
0.0
  0
LINE
  5
1DC
330
1F
100
AcDbEntity
  8
1
  6
Continuous
 62
     7
100
AcDbLine
 10
2560.444376723223
 20
415.1758487463567
 30
0.0
 11
2561.644376723226
 21
415.1758487463567
 31
0.0
  0
LINE
  5
1DD
330
1F
100
AcDbEntity
  8
1
  6
Continuous
 62
     7
100
AcDbLine
 10
2561.644376723226
 20
491.9758487463578
 30
0.0
 11
2561.644376723226
 21
415.1758487463567
 31
0.0
  0
LINE
  5
1DE
330
1F
100
AcDbEntity
  8
1
  6
Continuous
 62
     7
100
AcDbLine
 10
2493.34437672139
 20
493.1758487463576
 30
0.0
 11
2560.444376723223
 21
493.1758487463576
 31
0.0
  0
LINE
  5
1DF
330
1F
100
AcDbEntity
  8
1
  6
Continuous
 62
     7
100
AcDbLine
 10
2492.144376721392
 20
469.1758487463576
 30
0.0
 11
2492.144376721392
 21
491.9758487463578
 31
0.0
  0
LINE
  5
1E0
330
1F
100
AcDbEntity
  8
1
  6
Continuous
 62
     7
100
AcDbLine
 10
2493.34437672139
 20
469.1758487463576
 30
0.0
 11
2492.144376721392
 21
469.1758487463576
 31
0.0
  0
LINE
  5
1E1
330
1F
100
AcDbEntity
  8
1
  6
Continuous
 62
     7
100
AcDbLine
 10
2045.644376722745
 20
805.3297410828218
 30
0.0
 11
2045.644376722745
 21
804.8297410823366
 31
0.0
  0
LINE
  5
1E2
330
1F
100
AcDbEntity
  8
1
  6
PHANTOM
 62
     3
100
AcDbLine
 10
1901.678239519579
 20
863.3119212523156
 30
0.0
 11
2232.181805588165
 21
851.9153070184625
 31
0.0
  0
LINE
  5
1E3
330
1F
100
AcDbEntity
  8
1
  6
PHANTOM
 62
     3
100
AcDbLine
 10
2231.344376722505
 20
803.3297410828095
 30
0.0
 11
1900.644376722436
 21
803.3297410828095
 31
0.0
  0
LINE
  5
1E4
330
1F
100
AcDbEntity
  8
1
  6
Continuous
 62
     3
100
AcDbLine
 10
2256.544376722554
 20
467.1758487463735
 30
0.0
 11
2256.544376722554
 21
413.1758487463735
 31
0.0
  0
LINE
  5
1E5
330
1F
100
AcDbEntity
  8
0
  6
PHANTOM
 62
     4
100
AcDbLine
 10
1873.644376722579
 20
445.1758487463735
 30
0.0
 11
1873.644376722579
 21
446.1758487463735
 31
0.0
  0
LINE
  5
1E6
330
1F
100
AcDbEntity
  8
0
  6
PHANTOM
 62
     4
100
AcDbLine
 10
1873.644376722579
 20
446.1758487463735
 30
0.0
 11
1873.644376722579
 21
447.1758487463735
 31
0.0
  0
LINE
  5
1E7
330
1F
100
AcDbEntity
  8
1
  6
Continuous
 62
     3
100
AcDbLine
 10
1869.744376722581
 20
413.1758487463735
 30
0.0
 11
1869.744376722581
 21
467.1758487463735
 31
0.0
  0
LINE
  5
1E8
330
1F
100
AcDbEntity
  8
1
  6
Continuous
 62
     3
100
AcDbLine
 10
2256.544376722554
 20
413.1758487463735
 30
0.0
 11
1869.744376722581
 21
413.1758487463735
 31
0.0
  0
LINE
  5
1E9
330
1F
100
AcDbEntity
  8
1
  6
Continuous
 62
     3
100
AcDbLine
 10
1869.744376722581
 20
467.1758487463735
 30
0.0
 11
2256.544376722554
 21
467.1758487463735
 31
0.0
  0
LINE
  5
1EA
330
1F
100
AcDbEntity
  8
1
  6
Continuous
 62
     3
100
AcDbLine
 10
2489.744376722545
 20
467.1758487463685
 30
0.0
 11
2490.644376722553
 21
467.1758487463685
 31
0.0
  0
LINE
  5
1EB
330
1F
100
AcDbEntity
  8
1
  6
PHANTOM
 62
     3
100
AcDbLine
 10
2551.544376722544
 20
467.1758487463685
 30
0.0
 11
2551.544376722544
 21
415.1758487463685
 31
0.0
  0
LINE
  5
1EC
330
1F
100
AcDbEntity
  8
1
  6
Continuous
 62
     3
100
AcDbLine
 10
2489.744376722545
 20
413.1758487463685
 30
0.0
 11
2490.644376722553
 21
413.1758487463685
 31
0.0
  0
LINE
  5
1ED
330
1F
100
AcDbEntity
  8
1
  6
Continuous
 62
     3
100
AcDbLine
 10
2551.544376722544
 20
415.1758487463685
 30
0.0
 11
2551.544376722544
 21
413.1758487463685
 31
0.0
  0
LINE
  5
1EE
330
1F
100
AcDbEntity
  8
1
  6
Continuous
 62
     3
100
AcDbLine
 10
2489.744376722545
 20
413.1758487463685
 30
0.0
 11
2489.744376722545
 21
467.1758487463685
 31
0.0
  0
LINE
  5
1EF
330
1F
100
AcDbEntity
  8
1
  6
Continuous
 62
     3
100
AcDbLine
 10
2550.644376722545
 20
413.1758487463685
 30
0.0
 11
2551.544376722544
 21
413.1758487463685
 31
0.0
  0
LINE
  5
1F0
330
1F
100
AcDbEntity
  8
1
  6
Continuous
 62
     3
100
AcDbLine
 10
2490.644376722553
 20
413.1758487463685
 30
0.0
 11
2550.644376722545
 21
413.1758487463685
 31
0.0
  0
LINE
  5
1F1
330
1F
100
AcDbEntity
  8
1
  6
Continuous
 62
     3
100
AcDbLine
 10
2490.644376722553
 20
467.1758487463685
 30
0.0
 11
2534.644376723225
 21
467.1758487463685
 31
0.0
  0
LINE
  5
1F2
330
1F
100
AcDbEntity
  8
1
  6
Continuous
 62
     3
100
AcDbLine
 10
2550.644376722545
 20
467.1758487463685
 30
0.0
 11
2551.544376722544
 21
467.1758487463685
 31
0.0
  0
LINE
  5
1F3
330
1F
100
AcDbEntity
  8
1
  6
PHANTOM
 62
     3
100
AcDbLine
 10
2534.644376723225
 20
467.1758487463685
 30
0.0
 11
2550.644376722545
 21
467.1758487463685
 31
0.0
  0
LINE
  5
1F4
330
1F
100
AcDbEntity
  8
1
  6
DASH_CENTER
 62
     3
100
AcDbLine
 10
1863.874824222393
 20
530.5746089132217
 30
0.0
 11
1863.874824222393
 21
464.5746089132217
 31
0.0
  0
LINE
  5
1F5
330
1F
100
AcDbEntity
  8
1
  6
DASH_CENTER
 62
     3
100
AcDbLine
 10
1937.413929222445
 20
530.5746089132217
 30
0.0
 11
1937.413929222445
 21
464.5746089132217
 31
0.0
  0
LINE
  5
1F6
330
1F
100
AcDbEntity
  8
0
  6
Continuous
 62
     7
100
AcDbLine
 10
1875.585524722266
 20
896.8598410827108
 30
0.0
 11
1875.392583722265
 21
896.3297410827036
 31
0.0
  0
LINE
  5
1F7
330
1F
100
AcDbEntity
  8
0
  6
Continuous
 62
     7
100
AcDbLine
 10
1876.163537722267
 20
897.1769910827075
 30
0.0
 11
1878.208980722257
 21
896.3297410827086
 31
0.0
  0
LINE
  5
1F8
330
1F
100
AcDbEntity
  8
0
  6
Continuous
 62
     7
100
AcDbLine
 10
1878.370168722277
 20
902.0411780827067
 30
0.0
 11
1885.763936722273
 21
898.9785790827004
 31
0.0
  0
LINE
  5
1F9
330
1F
100
AcDbEntity
  8
0
  6
Continuous
 62
     7
100
AcDbLine
 10
1892.366396722262
 20
904.8713910826955
 30
0.0
 11
1889.889609722275
 21
900.6666400827016
 31
0.0
  0
LINE
  5
1FA
330
1F
100
AcDbEntity
  8
0
  6
Continuous
 62
     7
100
AcDbLine
 10
1890.212323722253
 20
906.1402360827015
 30
0.0
 11
1892.366396722262
 21
904.8713910826955
 31
0.0
  0
LINE
  5
1FB
330
1F
100
AcDbEntity
  8
0
  6
Continuous
 62
     7
100
AcDbLine
 10
1887.735536722272
 20
901.9354860826966
 30
0.0
 11
1889.889609722275
 21
900.6666400827016
 31
0.0
  0
LINE
  5
1FC
330
1F
100
AcDbEntity
  8
0
  6
Continuous
 62
     7
100
AcDbLine
 10
1890.212323722253
 20
906.1402360827015
 30
0.0
 11
1887.735536722272
 21
901.9354860826966
 31
0.0
  0
LINE
  5
1FD
330
1F
100
AcDbEntity
  8
0
  6
Continuous
 62
     7
100
AcDbLine
 10
1892.624054722272
 20
903.3385130826987
 30
0.0
 11
1891.355208722265
 21
901.1844410826998
 31
0.0
  0
LINE
  5
1FE
330
1F
100
AcDbEntity
  8
0
  6
Continuous
 62
     7
100
AcDbLine
 10
1880.992061722265
 20
910.1902810827014
 30
0.0
 11
1879.723215722266
 21
908.0362080827035
 31
0.0
  0
LINE
  5
1FF
330
1F
100
AcDbEntity
  8
0
  6
Continuous
 62
     7
100
AcDbLine
 10
1890.493579722275
 20
901.6919790827014
 30
0.0
 11
1891.355208722265
 21
901.1844410826998
 31
0.0
  0
LINE
  5
200
330
1F
100
AcDbEntity
  8
0
  6
Continuous
 62
     7
100
AcDbLine
 10
1879.723215722266
 20
908.0362080827035
 30
0.0
 11
1888.339506722261
 21
902.9608250827046
 31
0.0
  0
LINE
  5
201
330
1F
100
AcDbEntity
  8
0
  6
Continuous
 62
     7
100
AcDbLine
 10
1891.762425722265
 20
903.8460520827007
 30
0.0
 11
1892.624054722272
 21
903.3385130826987
 31
0.0
  0
LINE
  5
202
330
1F
100
AcDbEntity
  8
0
  6
Continuous
 62
     7
100
AcDbLine
 10
1880.992061722265
 20
910.1902810827014
 30
0.0
 11
1889.608352722266
 21
905.1148980826924
 31
0.0
  0
LINE
  5
203
330
1F
100
AcDbEntity
  8
0
  6
Continuous
 62
     7
100
AcDbLine
 10
1880.394376722276
 20
897.0297410827006
 30
0.0
 11
1880.394376722256
 21
896.3297410827086
 31
0.0
  0
LINE
  5
204
330
1F
100
AcDbEntity
  8
0
  6
Continuous
 62
     7
100
AcDbLine
 10
1886.89437672226
 20
897.0297410827006
 30
0.0
 11
1886.894376722268
 21
896.3297410826995
 31
0.0
  0
LINE
  5
205
330
1F
100
AcDbEntity
  8
0
  6
Continuous
 62
     7
100
AcDbLine
 10
1886.89437672226
 20
897.0297410827006
 30
0.0
 11
1880.394376722276
 21
897.0297410827006
 31
0.0
  0
LINE
  5
206
330
1F
100
AcDbEntity
  8
0
  6
Continuous
 62
     7
100
AcDbLine
 10
1876.422384722266
 20
897.0697730827064
 30
0.0
 11
1877.106495722275
 21
898.7213620827074
 31
0.0
  0
LINE
  5
207
330
1F
100
AcDbEntity
  8
0
  6
Continuous
 62
     7
100
AcDbLine
 10
1878.930073722265
 20
896.3297410826995
 30
0.0
 11
1879.158730722265
 21
896.8817680827065
 31
0.0
  0
LINE
  5
208
330
1F
100
AcDbEntity
  8
0
  6
Continuous
 62
     7
100
AcDbLine
 10
1880.280636722277
 20
899.5902880827066
 30
0.0
 11
1880.867375722266
 21
901.0068010826994
 31
0.0
  0
LINE
  5
209
330
1F
100
AcDbEntity
  8
0
  6
Continuous
 62
     7
100
AcDbLine
 10
1945.644376722465
 20
814.5297410828366
 30
0.0
 11
1945.644376722422
 21
888.1297410828424
 31
0.0
  0
LINE
  5
20A
330
1F
100
AcDbEntity
  8
0
  6
Continuous
 62
     7
100
AcDbLine
 10
1900.644376722483
 20
806.3297410828104
 30
0.0
 11
1937.444376722472
 21
806.3297410828304
 31
0.0
  0
LINE
  5
20B
330
1F
100
AcDbEntity
  8
0
  6
Continuous
 62
     7
100
AcDbLine
 10
1900.644376722417
 20
896.3297410828054
 30
0.0
 11
1937.444376722423
 21
896.3297410828304
 31
0.0
  0
LINE
  5
20C
330
1F
100
AcDbEntity
  8
0
  6
DASH_CENTER
 62
     3
100
AcDbLine
 10
1932.081356722461
 20
819.8927600828315
 30
0.0
 11
1941.561089722463
 21
810.4130270828318
 31
0.0
  0
LINE
  5
20D
330
1F
100
AcDbEntity
  8
0
  6
DASH_CENTER
 62
     3
100
AcDbLine
 10
1932.193584722425
 20
882.8789490828276
 30
0.0
 11
1943.242651722423
 21
893.9280160828348
 31
0.0
  0
LINE
  5
20E
330
1F
100
AcDbEntity
  8
0
  6
Continuous
 62
     7
100
AcDbLine
 10
1880.844376722265
 20
897.0297410827006
 30
0.0
 11
1880.844376722265
 21
898.2975570827034
 31
0.0
  0
LINE
  5
20F
330
1F
100
AcDbEntity
  8
0
  6
Continuous
 62
     7
100
AcDbLine
 10
1886.444376722269
 20
897.0297410826966
 30
0.0
 11
1886.444376722269
 21
898.2975570826966
 31
0.0
  0
LINE
  5
210
330
1F
100
AcDbEntity
  8
0
  6
Continuous
 62
     7
100
AcDbLine
 10
1855.644376722467
 20
814.5297410827875
 30
0.0
 11
1855.644376722436
 21
888.1297410827806
 31
0.0
  0
LINE
  5
211
330
1F
100
AcDbEntity
  8
0
  6
Continuous
 62
     7
100
AcDbLine
 10
1900.644376722483
 20
806.3297410828104
 30
0.0
 11
1863.844376722476
 21
806.3297410827904
 31
0.0
  0
LINE
  5
212
330
1F
100
AcDbEntity
  8
0
  6
Continuous
 62
     7
100
AcDbLine
 10
1900.644376722417
 20
896.3297410828054
 30
0.0
 11
1863.844376722416
 21
896.3297410827886
 31
0.0
  0
LINE
  5
213
330
1F
100
AcDbEntity
  8
0
  6
DASH_CENTER
 62
     3
100
AcDbLine
 10
1869.207395722466
 20
819.8927600827915
 30
0.0
 11
1859.727662722477
 21
810.4130270827895
 31
0.0
  0
LINE
  5
214
330
1F
100
AcDbEntity
  8
0
  6
DASH_CENTER
 62
     3
100
AcDbLine
 10
1869.095168722435
 20
882.8789490827926
 30
0.0
 11
1858.046100722426
 21
893.9280160827834
 31
0.0
  0
LINE
  5
215
330
1F
100
AcDbEntity
  8
0
  6
Continuous
 62
     7
100
AcDbLine
 10
1945.644376722556
 20
476.1758487463735
 30
0.0
 11
1945.644376722556
 21
524.1758487463735
 31
0.0
  0
LINE
  5
216
330
1F
100
AcDbEntity
  8
0
  6
Continuous
 62
     7
100
AcDbLine
 10
1856.644376722551
 20
475.1758487463735
 30
0.0
 11
1944.644376722556
 21
475.1758487463735
 31
0.0
  0
LINE
  5
217
330
1F
100
AcDbEntity
  8
0
  6
Continuous
 62
     7
100
AcDbLine
 10
1855.644376722551
 20
524.1758487463735
 30
0.0
 11
1855.644376722551
 21
476.1758487463735
 31
0.0
  0
LINE
  5
218
330
1F
100
AcDbEntity
  8
0
  6
Continuous
 62
     7
100
AcDbLine
 10
1945.144376722556
 20
517.1758487463735
 30
0.0
 11
1856.144376722551
 21
517.1758487463735
 31
0.0
  0
LINE
  5
219
330
1F
100
AcDbEntity
  8
0
  6
Continuous
 62
     7
100
AcDbLine
 10
1945.644376722556
 20
517.1758487463735
 30
0.0
 11
1855.644376722551
 21
517.1758487463735
 31
0.0
  0
LINE
  5
21A
330
1F
100
AcDbEntity
  8
0
  6
Continuous
 62
     7
100
AcDbLine
 10
1869.37482472255
 20
524.8758487463706
 30
0.0
 11
1869.37482472255
 21
524.1758487463735
 31
0.0
  0
LINE
  5
21B
330
1F
100
AcDbEntity
  8
0
  6
Continuous
 62
     7
100
AcDbLine
 10
1858.37482472255
 20
524.8758487463706
 30
0.0
 11
1869.37482472255
 21
524.8758487463706
 31
0.0
  0
LINE
  5
21C
330
1F
100
AcDbEntity
  8
0
  6
Continuous
 62
     7
100
AcDbLine
 10
1858.37482472255
 20
524.8758487463706
 30
0.0
 11
1858.37482472255
 21
524.1758487463735
 31
0.0
  0
LINE
  5
21D
330
1F
100
AcDbEntity
  8
0
  6
Continuous
 62
     7
100
AcDbLine
 10
1856.144376722551
 20
613.1758487463735
 30
0.0
 11
1856.144376722551
 21
524.1758487463735
 31
0.0
  0
LINE
  5
21E
330
1F
100
AcDbEntity
  8
0
  6
Continuous
 62
     7
100
AcDbLine
 10
1857.444376722549
 20
619.6758487463735
 30
0.0
 11
1857.444376722549
 21
613.1758487463735
 31
0.0
  0
LINE
  5
21F
330
1F
100
AcDbEntity
  8
0
  6
Continuous
 62
     7
100
AcDbLine
 10
1857.444376722549
 20
619.6758487463735
 30
0.0
 11
1859.944376722549
 21
622.1758487463735
 31
0.0
  0
LINE
  5
220
330
1F
100
AcDbEntity
  8
0
  6
Continuous
 62
     7
100
AcDbLine
 10
1931.913929722555
 20
524.8758487463706
 30
0.0
 11
1931.913929722555
 21
524.1758487463735
 31
0.0
  0
LINE
  5
221
330
1F
100
AcDbEntity
  8
0
  6
Continuous
 62
     7
100
AcDbLine
 10
1942.913929722555
 20
524.8758487463706
 30
0.0
 11
1942.913929722555
 21
524.1758487463735
 31
0.0
  0
LINE
  5
222
330
1F
100
AcDbEntity
  8
0
  6
Continuous
 62
     7
100
AcDbLine
 10
1943.844376722555
 20
619.6758487463735
 30
0.0
 11
1941.344376722555
 21
622.1758487463735
 31
0.0
  0
LINE
  5
223
330
1F
100
AcDbEntity
  8
0
  6
Continuous
 62
     7
100
AcDbLine
 10
1943.844376722555
 20
619.6758487463735
 30
0.0
 11
1943.844376722555
 21
613.1758487463735
 31
0.0
  0
LINE
  5
224
330
1F
100
AcDbEntity
  8
0
  6
Continuous
 62
     7
100
AcDbLine
 10
1945.144376722556
 20
613.1758487463735
 30
0.0
 11
1856.144376722551
 21
613.1758487463735
 31
0.0
  0
LINE
  5
225
330
1F
100
AcDbEntity
  8
0
  6
Continuous
 62
     7
100
AcDbLine
 10
1943.844376722555
 20
619.6758487463735
 30
0.0
 11
1857.444376722549
 21
619.6758487463735
 31
0.0
  0
LINE
  5
226
330
1F
100
AcDbEntity
  8
0
  6
Continuous
 62
     7
100
AcDbLine
 10
1942.913929722555
 20
524.8758487463706
 30
0.0
 11
1931.913929722555
 21
524.8758487463706
 31
0.0
  0
LINE
  5
227
330
1F
100
AcDbEntity
  8
0
  6
Continuous
 62
     7
100
AcDbLine
 10
1945.644376722556
 20
524.1758487463735
 30
0.0
 11
1855.644376722551
 21
524.1758487463735
 31
0.0
  0
LINE
  5
228
330
1F
100
AcDbEntity
  8
0
  6
Continuous
 62
     7
100
AcDbLine
 10
1945.144376722556
 20
613.1758487463735
 30
0.0
 11
1945.144376722556
 21
524.1758487463735
 31
0.0
  0
LINE
  5
229
330
1F
100
AcDbEntity
  8
0
  6
DASH_CENTER
 62
     3
100
AcDbLine
 10
1900.644376722551
 20
627.1758487463735
 30
0.0
 11
1900.644376722551
 21
409.3223270892436
 31
0.0
  0
LINE
  5
22A
330
1F
100
AcDbEntity
  8
0
  6
Continuous
 62
     7
100
AcDbLine
 10
1941.344376722555
 20
622.1758487463735
 30
0.0
 11
1859.944376722549
 21
622.1758487463735
 31
0.0
  0
LINE
  5
22B
330
1F
100
AcDbEntity
  8
0
  6
Continuous
 62
     7
100
AcDbLine
 10
1906.644376722551
 20
469.1758487463735
 30
0.0
 11
1906.644376722551
 21
467.1758487463735
 31
0.0
  0
LINE
  5
22C
330
1F
100
AcDbEntity
  8
0
  6
Continuous
 62
     7
100
AcDbLine
 10
1894.644376722551
 20
467.1758487463735
 30
0.0
 11
1894.644376722551
 21
469.1758487463735
 31
0.0
  0
LINE
  5
22D
330
1F
100
AcDbEntity
  8
1
  6
Continuous
 62
     7
100
AcDbLine
 10
2598.568403824786
 20
452.6064913412665
 30
0.0
 11
2595.020280978371
 21
455.0909137048188
 31
0.0
  0
LINE
  5
22E
330
1F
100
AcDbEntity
  8
1
  6
Continuous
 62
     7
100
AcDbLine
 10
2593.658263015294
 20
446.2784122396515
 30
0.0
 11
2589.150914282736
 21
449.4344917995295
 31
0.0
  0
LINE
  5
22F
330
1F
100
AcDbEntity
  8
1
  6
Continuous
 62
     7
100
AcDbLine
 10
2593.750669054923
 20
455.9799055442204
 30
0.0
 11
2586.330752932006
 21
461.1753867463685
 31
0.0
  0
LINE
  5
230
330
1F
100
AcDbEntity
  8
1
  6
Continuous
 62
     7
100
AcDbLine
 10
2587.895514008366
 20
450.3135325351127
 30
0.0
 11
2571.35006797715
 21
461.8987785692116
 31
0.0
  0
LINE
  5
231
330
1F
100
AcDbEntity
  8
1
  6
Continuous
 62
     7
100
AcDbLine
 10
2573.644373722556
 20
461.1753867463685
 30
0.0
 11
2595.247802192718
 21
461.1753867463685
 31
0.0
  0
LINE
  5
232
330
1F
100
AcDbEntity
  8
1
  6
Continuous
 62
     7
100
AcDbLine
 10
2573.644373722555
 20
469.1758487463685
 30
0.0
 11
2595.394373722555
 21
469.1758487463685
 31
0.0
  0
LINE
  5
233
330
1F
100
AcDbEntity
  8
0
  6
Continuous
 62
     7
100
AcDbLine
 10
2584.344373722554
 20
517.6258487463665
 30
0.0
 11
2585.612189722555
 21
517.6258487463665
 31
0.0
  0
LINE
  5
234
330
1F
100
AcDbEntity
  8
0
  6
Continuous
 62
     7
100
AcDbLine
 10
2584.344373722554
 20
523.2258487463687
 30
0.0
 11
2585.612189722555
 21
523.2258487463687
 31
0.0
  0
LINE
  5
235
330
1F
100
AcDbEntity
  8
0
  6
Continuous
 62
     7
100
AcDbLine
 10
2595.394373722555
 20
524.3758487463656
 30
0.0
 11
2595.394373722555
 21
534.3758487463697
 31
0.0
  0
LINE
  5
236
330
1F
100
AcDbEntity
  8
0
  6
Continuous
 62
     7
100
AcDbLine
 10
2595.394373722555
 20
536.8758487463697
 30
0.0
 11
2595.394373722555
 21
537.8758487463697
 31
0.0
  0
LINE
  5
237
330
1F
100
AcDbEntity
  8
0
  6
Continuous
 62
     7
100
AcDbLine
 10
2592.894373722555
 20
524.3758487463656
 30
0.0
 11
2592.894373722555
 21
534.3758487463697
 31
0.0
  0
LINE
  5
238
330
1F
100
AcDbEntity
  8
0
  6
Continuous
 62
     7
100
AcDbLine
 10
2592.894373722555
 20
536.8758487463697
 30
0.0
 11
2592.894373722555
 21
537.8758487463697
 31
0.0
  0
LINE
  5
239
330
1F
100
AcDbEntity
  8
0
  6
Continuous
 62
     7
100
AcDbLine
 10
2595.394373722555
 20
524.3758487463656
 30
0.0
 11
2592.894373722555
 21
524.3758487463656
 31
0.0
  0
LINE
  5
23A
330
1F
100
AcDbEntity
  8
0
  6
Continuous
 62
     7
100
AcDbLine
 10
2595.394373722555
 20
537.8758487463697
 30
0.0
 11
2592.894373722555
 21
537.8758487463697
 31
0.0
  0
LINE
  5
23B
330
1F
100
AcDbEntity
  8
0
  6
Continuous
 62
     7
100
AcDbLine
 10
2596.584373722553
 20
534.3758487463697
 30
0.0
 11
2591.704373722555
 21
534.3758487463697
 31
0.0
  0
LINE
  5
23C
330
1F
100
AcDbEntity
  8
0
  6
Continuous
 62
     7
100
AcDbLine
 10
2591.704373722555
 20
534.3758487463697
 30
0.0
 11
2591.704373722555
 21
536.8758487463697
 31
0.0
  0
LINE
  5
23D
330
1F
100
AcDbEntity
  8
0
  6
Continuous
 62
     7
100
AcDbLine
 10
2596.584373722553
 20
534.3758487463697
 30
0.0
 11
2596.584373722553
 21
536.8758487463697
 31
0.0
  0
LINE
  5
23E
330
1F
100
AcDbEntity
  8
0
  6
Continuous
 62
     7
100
AcDbLine
 10
2596.584373722553
 20
536.8758487463697
 30
0.0
 11
2591.704373722555
 21
536.8758487463697
 31
0.0
  0
LINE
  5
23F
330
1F
100
AcDbEntity
  8
0
  6
Continuous
 62
     7
100
AcDbLine
 10
2583.644373722555
 20
534.1758487463685
 30
0.0
 11
2583.144373722555
 21
534.1758487463685
 31
0.0
  0
LINE
  5
240
330
1F
100
AcDbEntity
  8
0
  6
Continuous
 62
     7
100
AcDbLine
 10
2584.144373722555
 20
524.9535927463676
 30
0.0
 11
2584.144373722555
 21
533.6758487463685
 31
0.0
  0
LINE
  5
241
330
1F
100
AcDbEntity
  8
0
  6
Continuous
 62
     7
100
AcDbLine
 10
2584.344373722554
 20
517.4258487463667
 30
0.0
 11
2583.644373722555
 21
517.4258487463667
 31
0.0
  0
LINE
  5
242
330
1F
100
AcDbEntity
  8
0
  6
Continuous
 62
     7
100
AcDbLine
 10
2584.344373722554
 20
523.4258487463667
 30
0.0
 11
2583.644373722555
 21
523.4258487463667
 31
0.0
  0
LINE
  5
243
330
1F
100
AcDbEntity
  8
0
  6
Continuous
 62
     7
100
AcDbLine
 10
2584.344373722554
 20
517.4258487463667
 30
0.0
 11
2584.344373722554
 21
523.4258487463667
 31
0.0
  0
LINE
  5
244
330
1F
100
AcDbEntity
  8
0
  6
Continuous
 62
     7
100
AcDbLine
 10
2592.894373722555
 20
525.6758487463667
 30
0.0
 11
2588.144373722555
 21
525.6758487463667
 31
0.0
  0
LINE
  5
245
330
1F
100
AcDbEntity
  8
0
  6
Continuous
 62
     7
100
AcDbLine
 10
2592.894373722555
 20
533.6758487463685
 30
0.0
 11
2588.144373722555
 21
533.6758487463685
 31
0.0
  0
LINE
  5
246
330
1F
100
AcDbEntity
  8
0
  6
Continuous
 62
     7
100
AcDbLine
 10
2586.150352722553
 20
527.5758487463686
 30
0.0
 11
2584.144373722555
 21
527.5758487463686
 31
0.0
  0
LINE
  5
247
330
1F
100
AcDbEntity
  8
0
  6
Continuous
 62
     7
100
AcDbLine
 10
2588.144373722555
 20
532.7758487463666
 30
0.0
 11
2584.144373722555
 21
532.7758487463666
 31
0.0
  0
LINE
  5
248
330
1F
100
AcDbEntity
  8
0
  6
Continuous
 62
     7
100
AcDbLine
 10
2588.144373722555
 20
525.6758487463667
 30
0.0
 11
2588.144373722555
 21
533.6758487463685
 31
0.0
  0
LINE
  5
249
330
1F
100
AcDbEntity
  8
0
  6
Continuous
 62
     7
100
AcDbLine
 10
2588.144373722555
 20
530.1758487463667
 30
0.0
 11
2584.144373722555
 21
530.1758487463667
 31
0.0
  0
LINE
  5
24A
330
1F
100
AcDbEntity
  8
0
  6
Continuous
 62
     7
100
AcDbLine
 10
2579.344373722554
 20
622.1758487463685
 30
0.0
 11
2497.944373722554
 21
622.1758487463685
 31
0.0
  0
LINE
  5
24B
330
1F
100
AcDbEntity
  8
0
  6
DASH_CENTER
 62
     3
100
AcDbLine
 10
2538.644373722556
 20
466.0047547463655
 30
0.0
 11
2538.644373722556
 21
627.1758487463685
 31
0.0
  0
LINE
  5
24C
330
1F
100
AcDbEntity
  8
0
  6
Continuous
 62
     7
100
AcDbLine
 10
2494.144373722555
 20
532.3839467763446
 30
0.0
 11
2494.144373722556
 21
613.1758487463685
 31
0.0
  0
LINE
  5
24D
330
1F
100
AcDbEntity
  8
0
  6
Continuous
 62
     7
100
AcDbLine
 10
2581.844373722554
 20
619.6758487463685
 30
0.0
 11
2495.444373722554
 21
619.6758487463685
 31
0.0
  0
LINE
  5
24E
330
1F
100
AcDbEntity
  8
0
  6
Continuous
 62
     7
100
AcDbLine
 10
2583.144373722556
 20
613.1758487463685
 30
0.0
 11
2494.144373722556
 21
613.1758487463685
 31
0.0
  0
LINE
  5
24F
330
1F
100
AcDbEntity
  8
0
  6
Continuous
 62
     7
100
AcDbLine
 10
2495.444373722554
 20
613.1758487463685
 30
0.0
 11
2495.444373722554
 21
619.6758487463685
 31
0.0
  0
LINE
  5
250
330
1F
100
AcDbEntity
  8
0
  6
Continuous
 62
     7
100
AcDbLine
 10
2497.944373722554
 20
622.1758487463685
 30
0.0
 11
2495.444373722554
 21
619.6758487463685
 31
0.0
  0
LINE
  5
251
330
1F
100
AcDbEntity
  8
0
  6
Continuous
 62
     7
100
AcDbLine
 10
2507.374820722555
 20
524.1758487463667
 30
0.0
 11
2507.374820722555
 21
524.8758487463656
 31
0.0
  0
LINE
  5
252
330
1F
100
AcDbEntity
  8
0
  6
Continuous
 62
     7
100
AcDbLine
 10
2579.344373722554
 20
622.1758487463685
 30
0.0
 11
2581.844373722554
 21
619.6758487463685
 31
0.0
  0
LINE
  5
253
330
1F
100
AcDbEntity
  8
0
  6
Continuous
 62
     7
100
AcDbLine
 10
2581.844373722554
 20
613.1758487463685
 30
0.0
 11
2581.844373722554
 21
619.6758487463685
 31
0.0
  0
LINE
  5
254
330
1F
100
AcDbEntity
  8
0
  6
Continuous
 62
     7
100
AcDbLine
 10
2583.144373722556
 20
524.1758487463667
 30
0.0
 11
2583.144373722556
 21
613.1758487463685
 31
0.0
  0
LINE
  5
255
330
1F
100
AcDbEntity
  8
0
  6
Continuous
 62
     7
100
AcDbLine
 10
2580.913925722553
 20
524.1758487463667
 30
0.0
 11
2580.913925722553
 21
524.8758487463656
 31
0.0
  0
LINE
  5
256
330
1F
100
AcDbEntity
  8
0
  6
Continuous
 62
     7
100
AcDbLine
 10
2569.913925722553
 20
524.8758487463656
 30
0.0
 11
2580.913925722553
 21
524.8758487463656
 31
0.0
  0
LINE
  5
257
330
1F
100
AcDbEntity
  8
0
  6
Continuous
 62
     7
100
AcDbLine
 10
2569.913925722553
 20
524.1758487463667
 30
0.0
 11
2569.913925722553
 21
524.8758487463656
 31
0.0
  0
LINE
  5
258
330
1F
100
AcDbEntity
  8
0
  6
Continuous
 62
     7
100
AcDbLine
 10
2583.644373722556
 20
476.1758487463667
 30
0.0
 11
2583.644373722556
 21
524.1758487463667
 31
0.0
  0
LINE
  5
259
330
1F
100
AcDbEntity
  8
0
  6
Continuous
 62
     7
100
AcDbLine
 10
2561.644376722553
 20
475.1758487463685
 30
0.0
 11
2582.644373722556
 21
475.1758487463667
 31
0.0
  0
LINE
  5
25A
330
1F
100
AcDbEntity
  8
0
  6
Continuous
 62
     7
100
AcDbLine
 10
2583.644373722556
 20
517.1758487463667
 30
0.0
 11
2496.644376722553
 21
517.1758487463667
 31
0.0
  0
LINE
  5
25B
330
1F
100
AcDbEntity
  8
0
  6
Continuous
 62
     7
100
AcDbLine
 10
2583.644373722556
 20
524.1758487463667
 30
0.0
 11
2496.644376722553
 21
524.1758487463667
 31
0.0
  0
LINE
  5
25C
330
1F
100
AcDbEntity
  8
0
  6
Continuous
 62
     7
100
AcDbLine
 10
2507.374820722555
 20
524.8758487463656
 30
0.0
 11
2496.644376722553
 21
524.8758487463656
 31
0.0
  0
LINE
  5
25D
330
1F
100
AcDbEntity
  8
1
  6
DASH_CENTER
 62
     3
100
AcDbLine
 10
1854.994376722445
 20
851.3297410828104
 30
0.0
 11
1946.294376722456
 21
851.3297410828104
 31
0.0
  0
LINE
  5
25E
330
1F
100
AcDbEntity
  8
1
  6
DASH_CENTER
 62
     3
100
AcDbLine
 10
1900.64437672245
 20
805.6797410828035
 30
0.0
 11
1900.64437672245
 21
896.9797410828155
 31
0.0
  0
LINE
  5
25F
330
1F
100
AcDbEntity
  8
1
  6
Continuous
 62
     7
100
AcDbLine
 10
2202.644376722434
 20
804.3297410820137
 30
0.0
 11
2202.644376722434
 21
804.8297410835498
 31
0.0
  0
LINE
  5
260
330
1F
100
AcDbEntity
  8
1
  6
Continuous
 62
     7
100
AcDbLine
 10
1955.644376722557
 20
469.1758487463626
 30
0.0
 11
1955.644376722557
 21
467.1758487463735
 31
0.0
  0
LINE
  5
261
330
1F
100
AcDbEntity
  8
1
  6
Continuous
 62
     7
100
AcDbLine
 10
2202.644376722554
 20
467.1758487463735
 30
0.0
 11
2202.644376722554
 21
469.1758487463735
 31
0.0
  0
LINE
  5
262
330
1F
100
AcDbEntity
  8
1
  6
Continuous
 62
     7
100
AcDbLine
 10
1955.644376722555
 20
413.1758487463626
 30
0.0
 11
2202.644376722554
 21
413.1758487463735
 31
0.0
  0
LINE
  5
263
330
1F
100
AcDbEntity
  8
1
  6
Continuous
 62
     7
100
AcDbLine
 10
2202.644376722554
 20
469.1758487463735
 30
0.0
 11
1955.644376722557
 21
469.1758487463626
 31
0.0
  0
LINE
  5
264
330
1F
100
AcDbEntity
  8
1
  6
Continuous
 62
     7
100
AcDbLine
 10
1955.644376722446
 20
804.3297410820137
 30
0.0
 11
2202.644376722434
 21
804.3297410820137
 31
0.0
  0
LINE
  5
265
330
1F
100
AcDbEntity
  8
1
  6
Continuous
 62
     7
100
AcDbLine
 10
1955.644376722555
 20
806.3297410828195
 30
0.0
 11
1955.644376722446
 21
804.3297410820137
 31
0.0
  0
LINE
  5
266
330
1F
100
AcDbEntity
  8
1
  6
Continuous
 62
     7
100
AcDbLine
 10
2491.644376722552
 20
467.1758487463685
 30
0.0
 11
2491.644376722552
 21
469.1758487463685
 31
0.0
  0
LINE
  5
267
330
1F
100
AcDbEntity
  8
1
  6
Continuous
 62
     7
100
AcDbLine
 10
2499.894376722552
 20
469.1758487463685
 30
0.0
 11
2491.644376722552
 21
469.1758487463685
 31
0.0
  0
LINE
  5
268
330
1F
100
AcDbEntity
  8
1
  6
Continuous
 62
     7
100
AcDbLine
 10
2499.894376722552
 20
467.1758487463685
 30
0.0
 11
2499.894376722552
 21
469.1758487463685
 31
0.0
  0
LINE
  5
269
330
1F
100
AcDbEntity
  8
1
  6
PHANTOM
 62
     4
100
AcDbLine
 10
2508.394376722552
 20
469.1758487463685
 30
0.0
 11
2516.644376722552
 21
469.1758487463685
 31
0.0
  0
LINE
  5
26A
330
1F
100
AcDbEntity
  8
1
  6
Continuous
 62
     2
100
AcDbLine
 10
1349.599061675981
 20
222.2183517318836
 30
0.0
 11
1769.599061675981
 21
222.2183517318836
 31
0.0
  0
LINE
  5
26B
330
1F
100
AcDbEntity
  8
1
  6
Continuous
 62
     2
100
AcDbLine
 10
1769.599061675981
 20
222.2183517318836
 30
0.0
 11
1769.599061675981
 21
102.2183517318836
 31
0.0
  0
LINE
  5
26C
330
1F
100
AcDbEntity
  8
1
  6
Continuous
 62
     2
100
AcDbLine
 10
1769.599061675981
 20
102.2183517318836
 30
0.0
 11
1349.599061675981
 21
102.2183517318836
 31
0.0
  0
LINE
  5
26D
330
1F
100
AcDbEntity
  8
1
  6
Continuous
 62
     2
100
AcDbLine
 10
1349.599061675981
 20
102.2183517318836
 30
0.0
 11
1349.599061675981
 21
222.2183517318836
 31
0.0
  0
LINE
  5
26E
330
1F
100
AcDbEntity
  8
1
  6
DOTTED
 62
     2
100
AcDbLine
 10
1349.599061675981
 20
162.2183517318836
 30
0.0
 11
1769.599061675981
 21
162.2183517318836
 31
0.0
  0
LINE
  5
26F
330
1F
100
AcDbEntity
  8
1
  6
Continuous
 62
     2
100
AcDbLine
 10
1489.599061675981
 20
102.2183517318836
 30
0.0
 11
1489.599061675981
 21
222.2183517318836
 31
0.0
  0
LINE
  5
270
330
1F
100
AcDbEntity
  8
1
  6
DOTTED
 62
     2
100
AcDbLine
 10
1629.599061675981
 20
102.2183517318836
 30
0.0
 11
1629.599061675981
 21
192.2183517318836
 31
0.0
  0
LINE
  5
271
330
1F
100
AcDbEntity
  8
1
  6
DOTTED
 62
     2
100
AcDbLine
 10
1489.599061675981
 20
192.2183517318836
 30
0.0
 11
1769.599061675981
 21
192.2183517318836
 31
0.0
  0
LINE
  5
272
330
1F
100
AcDbEntity
  8
1
  6
DOTTED
 62
     2
100
AcDbLine
 10
1489.599061675981
 20
192.2183517318836
 30
0.0
 11
1349.599061675981
 21
192.2183517318836
 31
0.0
  0
ARC
  5
273
330
1F
100
AcDbEntity
  8
1
  6
Continuous
 62
     7
100
AcDbCircle
 10
2078.966503536457
 20
128.4543087980755
 30
0.0
 40
1.699999999997999
100
AcDbArc
 50
0.0
 51
13.60896063080709
  0
ARC
  5
274
330
1F
100
AcDbEntity
  8
1
  6
Continuous
 62
     7
100
AcDbCircle
 10
2072.766503536459
 20
128.4543087980755
 30
0.0
 40
1.699999999999818
100
AcDbArc
 50
180.0
 51
-90.0
  0
ARC
  5
275
330
1F
100
AcDbEntity
  8
1
  6
Continuous
 62
     7
100
AcDbCircle
 10
2078.966503536457
 20
127.3793087980735
 30
0.0
 40
0.625
100
AcDbArc
 50
180.0
 51
-90.0
  0
ARC
  5
276
330
1F
100
AcDbEntity
  8
1
  6
Continuous
 62
     7
100
AcDbCircle
 10
2072.766503536459
 20
127.3793087980735
 30
0.0
 40
0.625
100
AcDbArc
 50
0.0
 51
90.0
  0
ARC
  5
277
330
1F
100
AcDbEntity
  8
1
  6
Continuous
 62
     7
100
AcDbCircle
 10
2078.966503536457
 20
128.4543087980755
 30
0.0
 40
0.4500000000019782
100
AcDbArc
 50
-90.0
 51
43.3417582272418
  0
ARC
  5
278
330
1F
100
AcDbEntity
  8
1
  6
Continuous
 62
     7
100
AcDbCircle
 10
2078.966503536457
 20
127.3793087980735
 30
0.0
 40
0.6250000000000142
100
AcDbArc
 50
90.0
 51
180.0
  0
ARC
  5
279
330
1F
100
AcDbEntity
  8
1
  6
Continuous
 62
     7
100
AcDbCircle
 10
2078.966503536457
 20
128.4543087980755
 30
0.0
 40
1.700000000001992
100
AcDbArc
 50
-90.0
 51
0.0
  0
ARC
  5
27A
330
1F
100
AcDbEntity
  8
1
  6
Continuous
 62
     7
100
AcDbCircle
 10
2072.766503536459
 20
127.3793087980735
 30
0.0
 40
0.625
100
AcDbArc
 50
-90.0
 51
0.0
  0
ARC
  5
27B
330
1F
100
AcDbEntity
  8
1
  6
Continuous
 62
     7
100
AcDbCircle
 10
2072.766503536459
 20
128.4543087980755
 30
0.0
 40
0.4500000000003185
100
AcDbArc
 50
136.6582417733543
 51
-90.0
  0
ARC
  5
27C
330
1F
100
AcDbEntity
  8
1
  6
Continuous
 62
     7
100
AcDbCircle
 10
2072.766503536459
 20
128.4543087980755
 30
0.0
 40
1.700000000004175
100
AcDbArc
 50
166.391039369247
 51
180.0
  0
ARC
  5
27D
330
1F
100
AcDbEntity
  8
1
  6
Continuous
 62
     7
100
AcDbCircle
 10
2096.543933963498
 20
93.98347392267442
 30
0.0
 40
3.32256957294601
100
AcDbArc
 50
-34.38424746802003
 51
34.38424746812357
  0
ARC
  5
27E
330
1F
100
AcDbEntity
  8
1
  6
Continuous
 62
     7
100
AcDbCircle
 10
2087.447060120052
 20
88.35430879807382
 30
0.0
 40
12.41944341639678
100
AcDbArc
 50
-17.58795377398027
 51
17.58795377402397
  0
ARC
  5
27F
330
1F
100
AcDbEntity
  8
1
  6
Continuous
 62
     7
100
AcDbCircle
 10
2096.543933963498
 20
82.72514367347549
 30
0.0
 40
3.322569572948104
100
AcDbArc
 50
-34.38424746794781
 51
34.38424746807077
  0
ARC
  5
280
330
1F
100
AcDbEntity
  8
1
  6
Continuous
 62
     7
100
AcDbCircle
 10
2096.543933963498
 20
102.7251436734755
 30
0.0
 40
3.322569572948128
100
AcDbArc
 50
-34.38424746794842
 51
34.38424746807077
  0
ARC
  5
281
330
1F
100
AcDbEntity
  8
1
  6
Continuous
 62
     7
100
AcDbCircle
 10
2087.447060120052
 20
108.3543087980738
 30
0.0
 40
12.41944341639677
100
AcDbArc
 50
-17.58795377398015
 51
17.58795377402404
  0
ARC
  5
282
330
1F
100
AcDbEntity
  8
1
  6
Continuous
 62
     7
100
AcDbCircle
 10
2096.543933963498
 20
113.9834739226744
 30
0.0
 40
3.322569572946002
100
AcDbArc
 50
-34.38424746801982
 51
34.38424746812337
  0
ARC
  5
283
330
1F
100
AcDbEntity
  8
1
  6
Continuous
 62
     7
100
AcDbCircle
 10
2107.696630555447
 20
159.8984860496475
 30
0.0
 40
2.555822748421521
100
AcDbArc
 50
55.61575253209347
 51
124.384247467957
  0
ARC
  5
284
330
1F
100
AcDbEntity
  8
1
  6
Continuous
 62
     7
100
AcDbCircle
 10
2103.366503536526
 20
152.9008907854486
 30
0.0
 40
9.553418012624215
100
AcDbArc
 50
72.41204622601262
 51
107.5879537739874
  0
ARC
  5
285
330
1F
100
AcDbEntity
  8
1
  6
Continuous
 62
     7
100
AcDbCircle
 10
2099.036376517605
 20
159.8984860496475
 30
0.0
 40
2.555822748423319
100
AcDbArc
 50
55.61575253203458
 51
124.3842474681
  0
ARC
  5
286
330
1F
100
AcDbEntity
  8
1
  6
Continuous
 62
     7
100
AcDbCircle
 10
2529.644376722553
 20
462.6758487463685
 30
0.0
 40
5.000000000000298
100
AcDbArc
 50
64.1580672368258
 51
115.8419327631836
  0
ARC
  5
287
330
1F
100
AcDbEntity
  8
1
  6
Continuous
 62
     7
100
AcDbCircle
 10
1959.644376722556
 20
816.8297410828195
 30
0.0
 40
4.199999999999874
100
AcDbArc
 50
162.2472098391777
 51
-162.2472098391659
  0
ARC
  5
288
330
1F
100
AcDbEntity
  8
1
  6
Continuous
 62
     7
100
AcDbCircle
 10
1900.644376722436
 20
833.3297410828095
 30
0.0
 40
30.00000000000052
100
AcDbArc
 50
-115.841932763213
 51
-64.158067236853
  0
ARC
  5
289
330
1F
100
AcDbEntity
  8
1
  6
DASHED
 62
     4
100
AcDbCircle
 10
1900.644376722436
 20
833.3297410828095
 30
0.0
 40
30.00000000000146
100
AcDbArc
 50
-64.158067236853
 51
0.0
  0
ARC
  5
28A
330
1F
100
AcDbEntity
  8
1
  6
DASHED
 62
     4
100
AcDbCircle
 10
1900.644376722436
 20
833.3297410828095
 30
0.0
 40
29.99999999999886
100
AcDbArc
 50
180.0
 51
-115.841932763213
  0
ARC
  5
28B
330
1F
100
AcDbEntity
  8
1
  6
DASHED
 62
     4
100
AcDbCircle
 10
1900.644376722436
 20
833.3297410828095
 30
0.0
 40
30.00000000000114
100
AcDbArc
 50
0.0
 51
180.0
  0
ARC
  5
28C
330
1F
100
AcDbEntity
  8
1
  6
Continuous
 62
     7
100
AcDbCircle
 10
2142.814254763327
 20
497.7200259979504
 30
0.0
 40
2.555822748420463
100
AcDbArc
 50
55.61575253205253
 51
124.3842474679643
  0
ARC
  5
28D
330
1F
100
AcDbEntity
  8
1
  6
Continuous
 62
     7
100
AcDbCircle
 10
2147.144381782247
 20
490.7224307337538
 30
0.0
 40
9.553418012619957
100
AcDbArc
 50
72.41204622601023
 51
107.5879537740002
  0
ARC
  5
28E
330
1F
100
AcDbEntity
  8
1
  6
Continuous
 62
     7
100
AcDbCircle
 10
2151.474508801166
 20
497.7200259979504
 30
0.0
 40
2.555822748426627
100
AcDbArc
 50
55.61575253185062
 51
124.3842474679643
  0
ARC
  5
28F
330
1F
100
AcDbEntity
  8
1
  6
Continuous
 62
     7
100
AcDbCircle
 10
2030.814249703637
 20
497.7200259979504
 30
0.0
 40
2.555822748419822
100
AcDbArc
 50
55.61575253207356
 51
124.3842474681872
  0
ARC
  5
290
330
1F
100
AcDbEntity
  8
1
  6
Continuous
 62
     7
100
AcDbCircle
 10
2035.144376722556
 20
490.7224307337538
 30
0.0
 40
9.553418012620231
100
AcDbArc
 50
72.41204622600503
 51
107.5879537740015
  0
ARC
  5
291
330
1F
100
AcDbEntity
  8
1
  6
Continuous
 62
     7
100
AcDbCircle
 10
2039.474503741476
 20
497.7200259979504
 30
0.0
 40
2.555822748426627
100
AcDbArc
 50
55.61575253185062
 51
124.3842474679643
  0
ARC
  5
292
330
1F
100
AcDbEntity
  8
1
  6
Continuous
 62
     7
100
AcDbCircle
 10
2535.974503741543
 20
497.7200259979427
 30
0.0
 40
2.555822748422735
100
AcDbArc
 50
55.61575253205032
 51
124.3842474678992
  0
ARC
  5
293
330
1F
100
AcDbEntity
  8
1
  6
Continuous
 62
     7
100
AcDbCircle
 10
2531.644376722624
 20
490.7224307337438
 30
0.0
 40
9.553418012624409
100
AcDbArc
 50
72.41204622600726
 51
107.5879537739901
  0
ARC
  5
294
330
1F
100
AcDbEntity
  8
1
  6
Continuous
 62
     7
100
AcDbCircle
 10
2527.314249703703
 20
497.7200259979427
 30
0.0
 40
2.555822748422992
100
AcDbArc
 50
55.6157525320419
 51
124.3842474681095
  0
ARC
  5
295
330
1F
100
AcDbEntity
  8
1
  6
DASHED
 62
     4
100
AcDbCircle
 10
2231.344376722515
 20
827.6297410819898
 30
0.0
 40
24.3000000000022
100
AcDbArc
 50
23.40853234227315
 51
-110.2367082002764
  0
ARC
  5
296
330
1F
100
AcDbEntity
  8
1
  6
Continuous
 62
     7
100
AcDbCircle
 10
2231.344376722515
 20
827.6297410819898
 30
0.0
 40
24.300000000002
100
AcDbArc
 50
0.0
 51
23.40853234227315
  0
ARC
  5
297
330
1F
100
AcDbEntity
  8
1
  6
Continuous
 62
     7
100
AcDbCircle
 10
2231.344376722515
 20
827.6297410819898
 30
0.0
 40
24.30000000000099
100
AcDbArc
 50
-110.2367082002764
 51
0.0
  0
ARC
  5
298
330
1F
100
AcDbEntity
  8
1
  6
PHANTOM
 62
     3
100
AcDbCircle
 10
1900.644376722436
 20
833.3297410828095
 30
0.0
 40
30.00000000000072
100
AcDbArc
 50
88.02507645764187
 51
-90.0
  0
ARC
  5
299
330
1F
100
AcDbEntity
  8
1
  6
PHANTOM
 62
     3
100
AcDbCircle
 10
2231.344376722505
 20
827.6297410819866
 30
0.0
 40
24.29999999917709
100
AcDbArc
 50
-90.0
 51
88.02507645763565
  0
ARC
  5
29A
330
1F
100
AcDbEntity
  8
0
  6
Continuous
 62
     7
100
AcDbCircle
 10
1876.055370722266
 20
896.6888310827067
 30
0.0
 40
0.4999999999964535
100
AcDbArc
 50
70.00000000044471
 51
160.0000000003404
  0
ARC
  5
29B
330
1F
100
AcDbEntity
  8
0
  6
Continuous
 62
     7
100
AcDbCircle
 10
1918.725477722266
 20
886.9648090826845
 30
0.0
 40
34.92462900000679
100
AcDbArc
 50
128.7136769999814
 51
148.0880159999711
  0
ARC
  5
29C
330
1F
100
AcDbEntity
  8
0
  6
Continuous
 62
     7
100
AcDbCircle
 10
1918.418193722255
 20
886.5919250826846
 30
0.0
 40
34.9246289999919
100
AcDbArc
 50
155.1251504809802
 51
159.2268909999585
  0
ARC
  5
29D
330
1F
100
AcDbEntity
  8
0
  6
Continuous
 62
     7
100
AcDbCircle
 10
1918.725477722266
 20
886.9648090826845
 30
0.0
 40
42.92462900000244
100
AcDbArc
 50
127.8344929999717
 51
148.3512109999686
  0
ARC
  5
29E
330
1F
100
AcDbEntity
  8
0
  6
Continuous
 62
     7
100
AcDbCircle
 10
1918.418193722255
 20
886.5919250826846
 30
0.0
 40
42.92462899999301
100
AcDbArc
 50
155.8598665380011
 51
158.9049729999572
  0
ARC
  5
29F
330
1F
100
AcDbEntity
  8
0
  6
Continuous
 62
     7
100
AcDbCircle
 10
1882.689404722264
 20
902.8850800827058
 30
0.0
 40
6.964582999998472
100
AcDbArc
 50
-148.601146999965
 51
-109.2401490000165
  0
ARC
  5
2A0
330
1F
100
AcDbEntity
  8
0
  6
Continuous
 62
     7
100
AcDbCircle
 10
1878.674332722275
 20
899.9589620827064
 30
0.0
 40
2.053483999999459
100
AcDbArc
 50
95.84283400045206
 51
-159.998655000185
  0
ARC
  5
2A1
330
1F
100
AcDbEntity
  8
0
  6
Continuous
 62
     7
100
AcDbCircle
 10
1884.464537722268
 20
904.6289250827044
 30
0.0
 40
6.549266999992719
100
AcDbArc
 50
-156.3507840000045
 51
-118.4389019999598
  0
ARC
  5
2A2
330
1F
100
AcDbEntity
  8
0
  6
Continuous
 62
     7
100
AcDbCircle
 10
1889.875754722283
 20
916.4032570827017
 30
0.0
 40
5.125394999993722
100
AcDbArc
 50
7.29520999998484
 51
60.54320299997662
  0
ARC
  5
2A3
330
1F
100
AcDbEntity
  8
0
  6
Continuous
 62
     7
100
AcDbCircle
 10
1899.630226722276
 20
918.1498470826955
 30
0.0
 40
4.797382000011075
100
AcDbArc
 50
-166.7966660000069
 51
-124.9781329999932
  0
ARC
  5
2A4
330
1F
100
AcDbEntity
  8
0
  6
Continuous
 62
     7
100
AcDbCircle
 10
1937.444376722468
 20
814.5297410828366
 30
0.0
 40
8.200000000006185
100
AcDbArc
 50
-89.99999999997139
 51
0.0
  0
ARC
  5
2A5
330
1F
100
AcDbEntity
  8
0
  6
Continuous
 62
     7
100
AcDbCircle
 10
1937.44437672242
 20
888.1297410828338
 30
0.0
 40
8.200000000002092
100
AcDbArc
 50
0.00000000006037
 51
89.99999999997935
  0
ARC
  5
2A6
330
1F
100
AcDbEntity
  8
0
  6
DASH_CENTER
 62
     3
100
AcDbCircle
 10
1900.64437672245
 20
851.3297410828104
 30
0.0
 40
51.99999999999622
100
AcDbArc
 50
-52.27860799997237
 51
-38.16537199996588
  0
ARC
  5
2A7
330
1F
100
AcDbEntity
  8
0
  6
DASH_CENTER
 62
     3
100
AcDbCircle
 10
1900.64437672245
 20
851.3297410828104
 30
0.0
 40
51.99999999999673
100
AcDbArc
 50
37.49128900003418
 51
53.56321100004399
  0
ARC
  5
2A8
330
1F
100
AcDbEntity
  8
0
  6
Continuous
 62
     7
100
AcDbCircle
 10
1883.64437672226
 20
894.4297410827026
 30
0.0
 40
5.000000000002344
100
AcDbArc
 50
59.26213100005879
 51
120.7378689999865
  0
ARC
  5
2A9
330
1F
100
AcDbEntity
  8
0
  6
Continuous
 62
     7
100
AcDbCircle
 10
1881.344376722256
 20
898.2975570827075
 30
0.0
 40
0.49999999998718
100
AcDbArc
 50
120.7378689988937
 51
-179.999999999531
  0
ARC
  5
2AA
330
1F
100
AcDbEntity
  8
0
  6
Continuous
 62
     7
100
AcDbCircle
 10
1885.944376722268
 20
898.2975570827016
 30
0.0
 40
0.5000000000009095
100
AcDbArc
 50
-0.00000000057321
 51
59.26213100013788
  0
ARC
  5
2AB
330
1F
100
AcDbEntity
  8
0
  6
Continuous
 62
     7
100
AcDbCircle
 10
1863.844376722465
 20
814.5297410827875
 30
0.0
 40
8.199999999997999
100
AcDbArc
 50
180.0
 51
-89.99999999992375
  0
ARC
  5
2AC
330
1F
100
AcDbEntity
  8
0
  6
Continuous
 62
     7
100
AcDbCircle
 10
1863.844376722436
 20
888.1297410827865
 30
0.0
 40
8.200000000002092
100
AcDbArc
 50
90.00000000013982
 51
-179.9999999999587
  0
ARC
  5
2AD
330
1F
100
AcDbEntity
  8
0
  6
DASH_CENTER
 62
     3
100
AcDbCircle
 10
1900.64437672245
 20
851.3297410828104
 30
0.0
 40
52.00000000000323
100
AcDbArc
 50
126.4367890000358
 51
142.0999270000363
  0
ARC
  5
2AE
330
1F
100
AcDbEntity
  8
0
  6
DASH_CENTER
 62
     3
100
AcDbCircle
 10
1900.64437672245
 20
851.3297410828104
 30
0.0
 40
51.99999999999918
100
AcDbArc
 50
-144.1475909999795
 51
-125.5735649999688
  0
ARC
  5
2AF
330
1F
100
AcDbEntity
  8
0
  6
Continuous
 62
     7
100
AcDbCircle
 10
1944.644376722556
 20
476.1758487463735
 30
0.0
 40
1.0
100
AcDbArc
 50
-90.0
 51
0.0
  0
ARC
  5
2B0
330
1F
100
AcDbEntity
  8
0
  6
Continuous
 62
     7
100
AcDbCircle
 10
1856.644376722551
 20
476.1758487463735
 30
0.0
 40
1.0
100
AcDbArc
 50
180.0
 51
-90.0
  0
ARC
  5
2B1
330
1F
100
AcDbEntity
  8
0
  6
Continuous
 62
     7
100
AcDbCircle
 10
1918.418193722255
 20
886.5919250826846
 30
0.0
 40
34.92462899999769
100
AcDbArc
 50
151.4069489999576
 51
155.1251504809802
  0
ARC
  5
2B2
330
1F
100
AcDbEntity
  8
0
  6
Continuous
 62
     7
100
AcDbCircle
 10
1918.418193722255
 20
886.5919250826846
 30
0.0
 40
42.92462899999577
100
AcDbArc
 50
151.0514479999553
 51
155.8598665380011
  0
ARC
  5
2B3
330
1F
100
AcDbEntity
  8
0
  6
Continuous
 62
     7
100
AcDbCircle
 10
2588.886708397121
 20
457.5959379156006
 30
0.0
 40
6.625395000003065
100
AcDbArc
 50
-22.21569024594183
 51
-10.29652499996668
  0
ARC
  5
2B4
330
1F
100
AcDbEntity
  8
0
  6
Continuous
 62
     7
100
AcDbCircle
 10
2592.235579362428
 20
448.2693439977265
 30
0.0
 40
3.297381999999093
100
AcDbArc
 50
159.3073145032667
 51
-179.3958179999702
  0
ARC
  5
2B5
330
1F
100
AcDbEntity
  8
0
  6
Continuous
 62
     7
100
AcDbCircle
 10
2592.235579362428
 20
448.2693439977265
 30
0.0
 40
3.297381999994697
100
AcDbArc
 50
112.803333999983
 51
159.3073145032667
  0
ARC
  5
2B6
330
1F
100
AcDbEntity
  8
0
  6
Continuous
 62
     7
100
AcDbCircle
 10
2588.886708397121
 20
457.5959379156006
 30
0.0
 40
6.625395000002287
100
AcDbArc
 50
-73.10478999997191
 51
-22.21569024594183
  0
ARC
  5
2B7
330
1F
100
AcDbEntity
  8
0
  6
Continuous
 62
     7
100
AcDbCircle
 10
2592.235579362428
 20
448.2693439977265
 30
0.0
 40
4.797381999997554
100
AcDbArc
 50
112.803334000006
 51
172.9207749999819
  0
ARC
  5
2B8
330
1F
100
AcDbEntity
  8
0
  6
Continuous
 62
     7
100
AcDbCircle
 10
2588.886708397121
 20
457.5959379156006
 30
0.0
 40
5.125394999999289
100
AcDbArc
 50
-73.10479000003419
 51
-3.4970510000058
  0
ARC
  5
2B9
330
1F
100
AcDbEntity
  8
1
  6
Continuous
 62
     7
100
AcDbCircle
 10
2573.644373722555
 20
465.1753867463685
 30
0.0
 40
4.000000000001791
100
AcDbArc
 50
89.76010546575927
 51
180.0
  0
ARC
  5
2BA
330
1F
100
AcDbEntity
  8
1
  6
Continuous
 62
     7
100
AcDbCircle
 10
2573.644373722555
 20
465.1753867463685
 30
0.0
 40
4.0
100
AcDbArc
 50
180.0
 51
-89.99999999998697
  0
ARC
  5
2BB
330
1F
100
AcDbEntity
  8
1
  6
Continuous
 62
     7
100
AcDbCircle
 10
2595.394373722555
 20
497.4258487463685
 30
0.0
 40
36.25
100
AcDbArc
 50
-90.0
 51
90.0
  0
ARC
  5
2BC
330
1F
100
AcDbEntity
  8
1
  6
Continuous
 62
     7
100
AcDbCircle
 10
2595.394373722555
 20
497.4258487463685
 30
0.0
 40
28.25
100
AcDbArc
 50
-90.0
 51
90.0
  0
ARC
  5
2BD
330
1F
100
AcDbEntity
  8
0
  6
Continuous
 62
     7
100
AcDbCircle
 10
2585.612189722555
 20
518.1258487463665
 30
0.0
 40
0.5
100
AcDbArc
 50
-90.0
 51
-30.73786900010967
  0
ARC
  5
2BE
330
1F
100
AcDbEntity
  8
0
  6
Continuous
 62
     7
100
AcDbCircle
 10
2585.612189722555
 20
522.7258487463687
 30
0.0
 40
0.4999999999977867
100
AcDbArc
 50
30.73786900002009
 51
90.0
  0
ARC
  5
2BF
330
1F
100
AcDbEntity
  8
0
  6
Continuous
 62
     7
100
AcDbCircle
 10
2581.744373722554
 20
520.4258487463667
 30
0.0
 40
4.999999999987682
100
AcDbArc
 50
-30.73786900005628
 51
30.73786900008315
  0
ARC
  5
2C0
330
1F
100
AcDbEntity
  8
0
  6
Continuous
 62
     7
100
AcDbCircle
 10
2583.644373722555
 20
533.6758487463685
 30
0.0
 40
0.5
100
AcDbArc
 50
0.0
 51
90.0
  0
ARC
  5
2C1
330
1F
100
AcDbEntity
  8
0
  6
Continuous
 62
     7
100
AcDbCircle
 10
2591.496944722555
 20
521.4074037463665
 30
0.0
 40
8.163072999999397
100
AcDbArc
 50
114.2487959999832
 51
163.8656269999969
  0
ARC
  5
2C2
330
1F
100
AcDbEntity
  8
0
  6
Continuous
 62
     7
100
AcDbCircle
 10
2591.496944722555
 20
521.4074037463665
 30
0.0
 40
5.563073000005352
100
AcDbArc
 50
127.0597410000186
 51
165.0582640000001
  0
ARC
  5
2C3
330
1F
100
AcDbEntity
  8
0
  6
Continuous
 62
     7
100
AcDbCircle
 10
2582.644373722556
 20
476.1758487463667
 30
0.0
 40
1.0
100
AcDbArc
 50
-90.0
 51
0.0
  0
CIRCLE
  5
2C4
330
1F
100
AcDbEntity
  8
1
  6
Continuous
 62
     7
100
AcDbCircle
 10
2105.644376722608
 20
825.3297410828045
 30
0.0
 40
3.5
  0
CIRCLE
  5
2C5
330
1F
100
AcDbEntity
  8
1
  6
Continuous
 62
     7
100
AcDbCircle
 10
2025.644376722642
 20
825.3297410828045
 30
0.0
 40
3.5
  0
CIRCLE
  5
2C6
330
1F
100
AcDbEntity
  8
0
  6
Continuous
 62
     7
100
AcDbCircle
 10
1900.64437672245
 20
851.3297410828104
 30
0.0
 40
41.50000000000296
  0
ARC
  5
2C7
330
1F
100
AcDbEntity
  8
1
  6
Continuous
 62
     7
100
AcDbCircle
 10
2080.166503536455
 20
129.5867839633638
 30
0.0
 40
1.199999999997999
100
AcDbArc
 50
180.0
 51
-136.6582417727987
  0
ARC
  5
2C8
330
1F
100
AcDbEntity
  8
1
  6
Continuous
 62
     7
100
AcDbCircle
 10
2071.566503536459
 20
129.5867839633638
 30
0.0
 40
1.19999999999798
100
AcDbArc
 50
-43.34175822736523
 51
0.0
  0
ARC
  5
2C9
330
1F
100
AcDbEntity
  8
1
  6
Continuous
 62
     7
100
AcDbCircle
 10
2080.816503536456
 20
131.3543087980756
 30
0.0
 40
0.4000000000010004
100
AcDbArc
 50
-0.00000000026055
 51
90.0
  0
ARC
  5
2CA
330
1F
100
AcDbEntity
  8
1
  6
Continuous
 62
     7
100
AcDbCircle
 10
2078.666503536455
 20
130.4543087980755
 30
0.0
 40
0.3000000000020009
100
AcDbArc
 50
0.0
 51
90.0
  0
ARC
  5
2CB
330
1F
100
AcDbEntity
  8
1
  6
Continuous
 62
     7
100
AcDbCircle
 10
2073.066503536459
 20
130.4543087980755
 30
0.0
 40
0.2999999999980219
100
AcDbArc
 50
90.0
 51
180.0
  0
ARC
  5
2CC
330
1F
100
AcDbEntity
  8
1
  6
Continuous
 62
     7
100
AcDbCircle
 10
2070.916503536457
 20
131.3543087980756
 30
0.0
 40
0.3999999999979025
100
AcDbArc
 50
90.0
 51
-179.9999999997395
  0
ARC
  5
2CD
330
1F
100
AcDbEntity
  8
1
  6
Continuous
 62
     7
100
AcDbCircle
 10
2068.366503536485
 20
191.3543087980738
 30
0.0
 40
4.0
100
AcDbArc
 50
90.0
 51
180.0
  0
ARC
  5
2CE
330
1F
100
AcDbEntity
  8
1
  6
Continuous
 62
     7
100
AcDbCircle
 10
2068.366503536465
 20
138.3543087980816
 30
0.0
 40
4.0
100
AcDbArc
 50
180.0
 51
-90.0
  0
ARC
  5
2CF
330
1F
100
AcDbEntity
  8
1
  6
Continuous
 62
     7
100
AcDbCircle
 10
2088.366503536454
 20
134.3543087980816
 30
0.0
 40
4.0
100
AcDbArc
 50
0.0
 51
90.0
  0
ARC
  5
2D0
330
1F
100
AcDbEntity
  8
1
  6
Continuous
 62
     7
100
AcDbCircle
 10
2091.366503536454
 20
151.1543087980695
 30
0.0
 40
3.0
100
AcDbArc
 50
90.0
 51
180.0
  0
ARC
  5
2D1
330
1F
100
AcDbEntity
  8
1
  6
Continuous
 62
     7
100
AcDbCircle
 10
2065.066503535291
 20
154.1543087980617
 30
0.0
 40
1.199999999999404
100
AcDbArc
 50
125.6853346431854
 51
180.0
  0
ARC
  5
2D2
330
1F
100
AcDbEntity
  8
1
  6
Continuous
 62
     7
100
AcDbCircle
 10
2071.066503535293
 20
154.1543087980595
 30
0.0
 40
1.200000000002007
100
AcDbArc
 50
90.0
 51
180.0
  0
ARC
  5
2D3
330
1F
100
AcDbEntity
  8
1
  6
Continuous
 62
     7
100
AcDbCircle
 10
2132.166503537127
 20
154.1543087980617
 30
0.0
 40
1.199999999999818
100
AcDbArc
 50
0.0
 51
90.0
  0
ARC
  5
2D4
330
1F
100
AcDbEntity
  8
1
  6
Continuous
 62
     7
100
AcDbCircle
 10
1937.644376722556
 20
888.3297410828195
 30
0.0
 40
8.0
100
AcDbArc
 50
0.0
 51
90.0
  0
ARC
  5
2D5
330
1F
100
AcDbEntity
  8
1
  6
Continuous
 62
     7
100
AcDbCircle
 10
1863.644376722556
 20
814.3297410828195
 30
0.0
 40
8.0
100
AcDbArc
 50
180.0
 51
-90.0
  0
ARC
  5
2D6
330
1F
100
AcDbEntity
  8
1
  6
Continuous
 62
     7
100
AcDbCircle
 10
1863.644376722556
 20
888.3297410828195
 30
0.0
 40
8.0
100
AcDbArc
 50
90.0
 51
180.0
  0
ARC
  5
2D7
330
1F
100
AcDbEntity
  8
1
  6
Continuous
 62
     7
100
AcDbCircle
 10
1947.644376722559
 20
874.3297410828195
 30
0.0
 40
2.0
100
AcDbArc
 50
180.0
 51
-90.0
  0
ARC
  5
2D8
330
1F
100
AcDbEntity
  8
1
  6
DASHED
 62
     4
100
AcDbCircle
 10
1872.644376722467
 20
415.1758487463717
 30
0.0
 40
2.0
100
AcDbArc
 50
180.0
 51
-90.0
  0
ARC
  5
2D9
330
1F
100
AcDbEntity
  8
1
  6
DASHED
 62
     4
100
AcDbCircle
 10
1872.644376722467
 20
465.1758487463735
 30
0.0
 40
1.999999999999091
100
AcDbArc
 50
90.0
 51
-179.9999999999739
  0
ARC
  5
2DA
330
1F
100
AcDbEntity
  8
1
  6
DASHED
 62
     4
100
AcDbCircle
 10
1928.644376722437
 20
465.1758487463735
 30
0.0
 40
2.0
100
AcDbArc
 50
-0.00000000002606
 51
90.0
  0
ARC
  5
2DB
330
1F
100
AcDbEntity
  8
1
  6
DASHED
 62
     4
100
AcDbCircle
 10
1928.644376722437
 20
415.1758487463717
 30
0.0
 40
1.999999999998181
100
AcDbArc
 50
-90.0
 51
0.0
  0
ARC
  5
2DC
330
1F
100
AcDbEntity
  8
1
  6
DASHED
 62
     4
100
AcDbCircle
 10
1929.644376722437
 20
442.5344716097507
 30
0.0
 40
1.0
100
AcDbArc
 50
0.0
 51
63.00000000002419
  0
ARC
  5
2DD
330
1F
100
AcDbEntity
  8
1
  6
DASHED
 62
     4
100
AcDbCircle
 10
1928.644376722437
 20
445.2886495345106
 30
0.0
 40
1.0
100
AcDbArc
 50
180.0
 51
-117.0000000000194
  0
ARC
  5
2DE
330
1F
100
AcDbEntity
  8
1
  6
DASHED
 62
     4
100
AcDbCircle
 10
1928.644376722437
 20
447.0630479582305
 30
0.0
 40
1.000000000001282
100
AcDbArc
 50
117.0000000000668
 51
180.0
  0
ARC
  5
2DF
330
1F
100
AcDbEntity
  8
1
  6
DASHED
 62
     4
100
AcDbCircle
 10
1929.644376722437
 20
449.8172258829895
 30
0.0
 40
0.999999999999338
100
AcDbArc
 50
-63.00000000002271
 51
0.0
  0
ARC
  5
2E0
330
1F
100
AcDbEntity
  8
1
  6
DASHED
 62
     4
100
AcDbCircle
 10
1871.644376722467
 20
449.8172258829895
 30
0.0
 40
1.0
100
AcDbArc
 50
180.0
 51
-117.0000000000353
  0
ARC
  5
2E1
330
1F
100
AcDbEntity
  8
1
  6
DASHED
 62
     4
100
AcDbCircle
 10
1872.644376722467
 20
447.0630479582305
 30
0.0
 40
1.0
100
AcDbArc
 50
0.0
 51
63.0000000000029
  0
ARC
  5
2E2
330
1F
100
AcDbEntity
  8
1
  6
DASHED
 62
     4
100
AcDbCircle
 10
1871.644376722467
 20
442.5344716097507
 30
0.0
 40
0.9999999999999046
100
AcDbArc
 50
117.0000000000339
 51
180.0
  0
ARC
  5
2E3
330
1F
100
AcDbEntity
  8
1
  6
DASHED
 62
     4
100
AcDbCircle
 10
1872.644376722467
 20
445.2886495345106
 30
0.0
 40
1.000000000002283
100
AcDbArc
 50
-63.00000000005021
 51
0.0
  0
ARC
  5
2E4
330
1F
100
AcDbEntity
  8
1
  6
Continuous
 62
     7
100
AcDbCircle
 10
2496.644376722583
 20
529.1758487463685
 30
0.0
 40
4.0
100
AcDbArc
 50
90.0
 51
180.0
  0
ARC
  5
2E5
330
1F
100
AcDbEntity
  8
1
  6
Continuous
 62
     7
100
AcDbCircle
 10
2017.644376722627
 20
838.3297410828295
 30
0.0
 40
2.0
100
AcDbArc
 50
90.0
 51
-179.9999999998046
  0
ARC
  5
2E6
330
1F
100
AcDbEntity
  8
1
  6
Continuous
 62
     7
100
AcDbCircle
 10
2113.6443767226
 20
838.3297410828027
 30
0.0
 40
2.000000000010004
100
AcDbArc
 50
0.0
 51
90.0
  0
ARC
  5
2E7
330
1F
100
AcDbEntity
  8
1
  6
Continuous
 62
     7
100
AcDbCircle
 10
2044.644376722628
 20
516.1758487463794
 30
0.0
 40
2.0
100
AcDbArc
 50
-0.00000000002606
 51
90.0
  0
ARC
  5
2E8
330
1F
100
AcDbEntity
  8
1
  6
Continuous
 62
     7
100
AcDbCircle
 10
2017.64437672263
 20
520.1758487463785
 30
0.0
 40
1.999999999998181
100
AcDbArc
 50
180.0
 51
-90.0
  0
ARC
  5
2E9
330
1F
100
AcDbEntity
  8
1
  6
Continuous
 62
     7
100
AcDbCircle
 10
2086.644376722663
 20
516.1758487463794
 30
0.0
 40
1.999999999999091
100
AcDbArc
 50
90.0
 51
179.9999999999088
  0
ARC
  5
2EA
330
1F
100
AcDbEntity
  8
1
  6
Continuous
 62
     7
100
AcDbCircle
 10
2113.644376722632
 20
520.1758487463826
 30
0.0
 40
2.0
100
AcDbArc
 50
-90.00000000005211
 51
0.0
  0
ARC
  5
2EB
330
1F
100
AcDbEntity
  8
1
  6
DASHED
 62
     4
100
AcDbCircle
 10
2254.644376722517
 20
449.8172258830018
 30
0.0
 40
1.00000000001164
100
AcDbArc
 50
-63.00000000042571
 51
0.0
  0
ARC
  5
2EC
330
1F
100
AcDbEntity
  8
1
  6
DASHED
 62
     4
100
AcDbCircle
 10
2254.644376722517
 20
442.5344716097516
 30
0.0
 40
1.0
100
AcDbArc
 50
0.0
 51
63.00000000003536
  0
ARC
  5
2ED
330
1F
100
AcDbEntity
  8
1
  6
DASHED
 62
     4
100
AcDbCircle
 10
2253.644376722517
 20
445.2886495345106
 30
0.0
 40
1.0
100
AcDbArc
 50
180.0
 51
-116.9999999999614
  0
ARC
  5
2EE
330
1F
100
AcDbEntity
  8
1
  6
DASHED
 62
     4
100
AcDbCircle
 10
2253.644376722517
 20
447.0630479582305
 30
0.0
 40
1.000000000003501
100
AcDbArc
 50
116.9999999999289
 51
180.0
  0
ARC
  5
2EF
330
1F
100
AcDbEntity
  8
1
  6
DASHED
 62
     4
100
AcDbCircle
 10
2209.044376722515
 20
447.0630479582305
 30
0.0
 40
1.0
100
AcDbArc
 50
0.0
 51
63.00000000018721
  0
ARC
  5
2F0
330
1F
100
AcDbEntity
  8
1
  6
DASHED
 62
     4
100
AcDbCircle
 10
2209.044376722515
 20
445.2886495345106
 30
0.0
 40
1.000000000001354
100
AcDbArc
 50
-63.00000000015468
 51
0.0
  0
ARC
  5
2F1
330
1F
100
AcDbEntity
  8
1
  6
DASHED
 62
     4
100
AcDbCircle
 10
2208.044376722515
 20
442.5344716097516
 30
0.0
 40
0.9999999999990943
100
AcDbArc
 50
117.0000000000575
 51
180.0
  0
ARC
  5
2F2
330
1F
100
AcDbEntity
  8
1
  6
DASHED
 62
     4
100
AcDbCircle
 10
2208.044376722515
 20
449.8172258830018
 30
0.0
 40
1.0
100
AcDbArc
 50
180.0
 51
-116.9999999996672
  0
ARC
  5
2F3
330
1F
100
AcDbEntity
  8
1
  6
DASHED
 62
     4
100
AcDbCircle
 10
2209.044376722515
 20
465.1758487463826
 30
0.0
 40
1.999999999999091
100
AcDbArc
 50
90.0
 51
-179.9999999999739
  0
ARC
  5
2F4
330
1F
100
AcDbEntity
  8
1
  6
DASHED
 62
     4
100
AcDbCircle
 10
2209.044376722515
 20
415.1758487463685
 30
0.0
 40
1.999999999998181
100
AcDbArc
 50
180.0
 51
-90.0
  0
ARC
  5
2F5
330
1F
100
AcDbEntity
  8
1
  6
DASHED
 62
     4
100
AcDbCircle
 10
2253.644376722517
 20
415.1758487463685
 30
0.0
 40
1.999999999996817
100
AcDbArc
 50
-90.0
 51
0.0
  0
ARC
  5
2F6
330
1F
100
AcDbEntity
  8
1
  6
DASHED
 62
     4
100
AcDbCircle
 10
2253.644376722517
 20
465.1758487463826
 30
0.0
 40
2.0
100
AcDbArc
 50
-0.00000000002606
 51
90.0
  0
ARC
  5
2F7
330
1F
100
AcDbEntity
  8
1
  6
DASHED
 62
     4
100
AcDbCircle
 10
2491.644376722527
 20
449.8172258829986
 30
0.0
 40
1.0
100
AcDbArc
 50
180.0
 51
-116.9999999996672
  0
ARC
  5
2F8
330
1F
100
AcDbEntity
  8
1
  6
DASHED
 62
     4
100
AcDbCircle
 10
2491.644376722527
 20
442.5344716097507
 30
0.0
 40
0.9999999999999046
100
AcDbArc
 50
117.0000000000339
 51
180.0
  0
ARC
  5
2F9
330
1F
100
AcDbEntity
  8
1
  6
DASHED
 62
     4
100
AcDbCircle
 10
2492.644376722527
 20
445.2886495345078
 30
0.0
 40
1.000000000001019
100
AcDbArc
 50
-62.99999999999868
 51
0.0
  0
ARC
  5
2FA
330
1F
100
AcDbEntity
  8
1
  6
DASHED
 62
     4
100
AcDbCircle
 10
2492.644376722527
 20
447.0630479582305
 30
0.0
 40
1.0
100
AcDbArc
 50
0.0
 51
62.99999999996467
  0
ARC
  5
2FB
330
1F
100
AcDbEntity
  8
1
  6
DASHED
 62
     4
100
AcDbCircle
 10
2537.244376722527
 20
447.0630479582305
 30
0.0
 40
0.9999999999993205
100
AcDbArc
 50
116.9999999998462
 51
180.0
  0
ARC
  5
2FC
330
1F
100
AcDbEntity
  8
1
  6
DASHED
 62
     4
100
AcDbCircle
 10
2537.244376722527
 20
445.2886495345097
 30
0.0
 40
1.0
100
AcDbArc
 50
180.0
 51
-116.9999999997649
  0
ARC
  5
2FD
330
1F
100
AcDbEntity
  8
1
  6
DASHED
 62
     4
100
AcDbCircle
 10
2538.244376722527
 20
442.5344716097507
 30
0.0
 40
1.0
100
AcDbArc
 50
0.0
 51
62.99999999996616
  0
ARC
  5
2FE
330
1F
100
AcDbEntity
  8
1
  6
DASHED
 62
     4
100
AcDbCircle
 10
2538.244376722527
 20
449.8172258829995
 30
0.0
 40
1.000000000013225
100
AcDbArc
 50
-63.00000000035502
 51
0.0
  0
ARC
  5
2FF
330
1F
100
AcDbEntity
  8
1
  6
DASHED
 62
     4
100
AcDbCircle
 10
2537.244376722528
 20
465.1758487463785
 30
0.0
 40
1.999999999998636
100
AcDbArc
 50
0.0
 51
90.00000000003908
  0
ARC
  5
300
330
1F
100
AcDbEntity
  8
1
  6
DASHED
 62
     4
100
AcDbCircle
 10
2537.244376722528
 20
415.1758487463685
 30
0.0
 40
2.0
100
AcDbArc
 50
-90.00000000003908
 51
0.0
  0
ARC
  5
301
330
1F
100
AcDbEntity
  8
1
  6
DASHED
 62
     4
100
AcDbCircle
 10
2492.644376722527
 20
415.1758487463685
 30
0.0
 40
2.0
100
AcDbArc
 50
180.0
 51
-90.0
  0
ARC
  5
302
330
1F
100
AcDbEntity
  8
1
  6
DASHED
 62
     4
100
AcDbCircle
 10
2492.644376722527
 20
465.1758487463785
 30
0.0
 40
2.0
100
AcDbArc
 50
90.0
 51
180.0
  0
ARC
  5
303
330
1F
100
AcDbEntity
  8
1
  6
Continuous
 62
     7
100
AcDbCircle
 10
2133.644376722686
 20
479.1758487463585
 30
0.0
 40
1.999999999997361
100
AcDbArc
 50
-60.0000000013403
 51
0.0
  0
ARC
  5
304
330
1F
100
AcDbEntity
  8
1
  6
Continuous
 62
     7
100
AcDbCircle
 10
2233.644376722497
 20
854.3297410841365
 30
0.0
 40
20.0
100
AcDbArc
 50
0.0
 51
90.00000000005471
  0
ARC
  5
305
330
1F
100
AcDbEntity
  8
1
  6
Continuous
 62
     7
100
AcDbCircle
 10
2233.644376722523
 20
824.8297410835835
 30
0.0
 40
20.00000000000182
100
AcDbArc
 50
-89.99999999995961
 51
0.00000000004299
  0
ARC
  5
306
330
1F
100
AcDbEntity
  8
1
  6
Continuous
 62
     7
100
AcDbCircle
 10
1956.844376722469
 20
491.9758487463605
 30
0.0
 40
1.200000000002092
100
AcDbArc
 50
90.0
 51
180.0
  0
ARC
  5
307
330
1F
100
AcDbEntity
  8
1
  6
Continuous
 62
     7
100
AcDbCircle
 10
1957.644376722468
 20
471.1758487463485
 30
0.0
 40
2.0
100
AcDbArc
 50
180.0
 51
-90.0
  0
ARC
  5
308
330
1F
100
AcDbEntity
  8
1
  6
Continuous
 62
     7
100
AcDbCircle
 10
2133.644376722686
 20
479.1758487463585
 30
0.0
 40
1.999999999996817
100
AcDbArc
 50
-90.00000000002605
 51
-60.0000000013403
  0
ARC
  5
309
330
1F
100
AcDbEntity
  8
1
  6
Continuous
 62
     7
100
AcDbCircle
 10
2137.644376722685
 20
471.1758487463626
 30
0.0
 40
1.999999999999091
100
AcDbArc
 50
180.0
 51
-90.0
  0
ARC
  5
30A
330
1F
100
AcDbEntity
  8
1
  6
Continuous
 62
     7
100
AcDbCircle
 10
2047.644376722745
 20
479.1758487463526
 30
0.0
 40
1.999999999998863
100
AcDbArc
 50
180.0
 51
-120.0000000033479
  0
ARC
  5
30B
330
1F
100
AcDbEntity
  8
1
  6
Continuous
 62
     7
100
AcDbCircle
 10
2043.644376722746
 20
471.1758487463485
 30
0.0
 40
1.999999999995907
100
AcDbArc
 50
-90.00000000003257
 51
0.0
  0
ARC
  5
30C
330
1F
100
AcDbEntity
  8
1
  6
Continuous
 62
     7
100
AcDbCircle
 10
2252.444376722469
 20
491.9758487463605
 30
0.0
 40
1.199999999997999
100
AcDbArc
 50
0.0
 51
90.0
  0
ARC
  5
30D
330
1F
100
AcDbEntity
  8
1
  6
PHANTOM
 62
     7
100
AcDbCircle
 10
2536.644376723226
 20
417.1758487463567
 30
0.0
 40
2.0
100
AcDbArc
 50
180.0
 51
-90.0
  0
ARC
  5
30E
330
1F
100
AcDbEntity
  8
1
  6
Continuous
 62
     7
100
AcDbCircle
 10
2532.644376723226
 20
467.1758487463576
 30
0.0
 40
2.0
100
AcDbArc
 50
0.0
 51
90.0
  0
ARC
  5
30F
330
1F
100
AcDbEntity
  8
1
  6
Continuous
 62
     7
100
AcDbCircle
 10
2560.444376723223
 20
491.9758487463578
 30
0.0
 40
1.200000000003001
100
AcDbArc
 50
0.0
 51
90.0
  0
ARC
  5
310
330
1F
100
AcDbEntity
  8
1
  6
Continuous
 62
     7
100
AcDbCircle
 10
2493.34437672139
 20
491.9758487463578
 30
0.0
 40
1.199999999999761
100
AcDbArc
 50
90.0
 51
180.0
  0
LINE
  5
311
330
1F
100
AcDbEntity
  8
1
 62
     2
100
AcDbLine
 10
2175.29132856581
 20
383.2904799608095
 30
0.0
 11
2187.79132856581
 21
386.6398448661985
 31
0.0
  0
LINE
  5
312
330
1F
100
AcDbEntity
  8
1
 62
     2
100
AcDbLine
 10
2175.29132856581
 20
383.2904799608095
 30
0.0
 11
2187.79132856581
 21
379.9411150554204
 31
0.0
  0
LEADER
  5
313
330
1F
100
AcDbEntity
  8
1
  6
Continuous
 62
     2
100
AcDbLeader
  3
Standard
 71
     0
 76
     2
 10
2175.29132856581
 20
383.2904799608095
 30
0.0
 10
2218.606165923709
 20
383.2904799608095
 30
0.0
  0
LINE
  5
314
330
1F
100
AcDbEntity
  8
1
 62
     2
100
AcDbLine
 10
2175.29132856581
 20
543.6134190745916
 30
0.0
 11
2187.79132856581
 21
546.9627839799806
 31
0.0
  0
LINE
  5
315
330
1F
100
AcDbEntity
  8
1
 62
     2
100
AcDbLine
 10
2175.29132856581
 20
543.6134190745916
 30
0.0
 11
2187.79132856581
 21
540.2640541692025
 31
0.0
  0
LEADER
  5
316
330
1F
100
AcDbEntity
  8
1
  6
Continuous
 62
     2
100
AcDbLeader
  3
Standard
 71
     0
 76
     2
 10
2175.29132856581
 20
543.6134190745916
 30
0.0
 10
2218.606165923709
 20
543.6134190745916
 30
0.0
  0
LINE
  5
317
330
1F
100
AcDbEntity
  8
1
 62
     2
100
AcDbLine
 10
1943.844376722555
 20
619.6758487463735
 30
0.0
 11
1951.871431513172
 21
634.1653747716755
 31
0.0
  0
LINE
  5
318
330
1F
100
AcDbEntity
  8
1
 62
     2
100
AcDbLine
 10
1943.844376722555
 20
619.6758487463735
 30
0.0
 11
1958.04077310145
 21
628.2106189777724
 31
0.0
  0
LEADER
  5
319
330
1F
100
AcDbEntity
  8
1
  6
Continuous
 62
     2
100
AcDbLeader
  3
Standard
 71
     0
 76
     3
 10
1943.844376722555
 20
619.6758487463735
 30
0.0
 10
1977.144376722554
 20
654.1758487463735
 30
0.0
 10
2085.928021859491
 20
654.1758487463735
 30
0.0
  0
LINE
  5
31A
330
1F
100
AcDbEntity
  8
1
 62
     2
100
AcDbLine
 10
2115.644376722628
 20
533.1758487463785
 30
0.0
 11
2121.138201665262
 21
548.8026801766191
 31
0.0
  0
LINE
  5
31B
330
1F
100
AcDbEntity
  8
1
 62
     2
100
AcDbLine
 10
2115.644376722628
 20
533.1758487463785
 30
0.0
 11
2128.215584402014
 21
543.9621692743068
 31
0.0
  0
LEADER
  5
31C
330
1F
100
AcDbEntity
  8
1
  6
Continuous
 62
     2
100
AcDbLeader
  3
Standard
 71
     0
 76
     3
 10
2115.644376722628
 20
533.1758487463785
 30
0.0
 10
2164.675850344735
 20
604.8654930780785
 30
0.0
 10
2351.671582085229
 20
604.8654930780785
 30
0.0
  0
TEXT
  5
31D
330
1F
100
AcDbEntity
  8
1
 62
     2
100
AcDbText
 10
2205.709053624327
 20
385.8345554997277
 30
0.0
 40
16.0
  1
A
 41
0.9
  7
CONVERTER_1
100
AcDbText
  0
TEXT
  5
31E
330
1F
100
AcDbEntity
  8
1
 62
     2
100
AcDbText
 10
2205.709053624327
 20
546.1574946135097
 30
0.0
 40
16.0
  1
A
 41
0.9
  7
CONVERTER_1
100
AcDbText
  0
TEXT
  5
31F
330
1F
100
AcDbEntity
  8
1
 62
     2
100
AcDbText
 10
2051.207119069847
 20
49.34458542264656
 30
0.0
 40
16.0
  1
A-A 矢視図
 41
0.89
  7
CONVERTER_3
100
AcDbText
  0
TEXT
  5
320
330
1F
100
AcDbEntity
  8
1
 62
     2
100
AcDbText
 10
3013.827240664359
 20
-164.2324236437485
 30
0.0
 40
16.0
  1
W_SB_S_0040
 41
0.9
  7
CONVERTER_1
100
AcDbText
  0
TEXT
  5
321
330
1F
100
AcDbEntity
  8
1
 62
     2
100
AcDbText
 10
2785.804636683499
 20
-116.4245458682594
 30
0.0
 40
16.0
  1
本体組立図
 41
0.89
  7
CONVERTER_3
100
AcDbText
  0
TEXT
  5
322
330
1F
100
AcDbEntity
  8
1
 62
     2
100
AcDbText
 10
2096.055132433218
 20
731.7183105147865
 30
0.0
 40
16.0
  1
※1
 41
0.89
  7
CONVERTER_3
100
AcDbText
  0
TEXT
  5
323
330
1F
100
AcDbEntity
  8
1
 62
     2
100
AcDbText
 10
2457.360927973119
 20
-118.2590648428072
 30
0.0
 40
20.0
  1
N1シリーズ
 41
0.89
  7
CONVERTER_3
100
AcDbText
  0
TEXT
  5
324
330
1F
100
AcDbEntity
  8
1
 62
     2
100
AcDbText
 10
2488.865959134119
 20
-167.5971325100236
 30
0.0
 40
20.0
  1
SB2
 41
0.9
  7
CONVERTER_1
100
AcDbText
  0
TEXT
  5
325
330
1F
100
AcDbEntity
  8
1
 62
     2
100
AcDbText
 10
2107.662287353375
 20
-126.4753211826064
 30
0.0
 40
16.0
  1
2011.4.1
 41
0.9
  7
CONVERTER_1
100
AcDbText
  0
TEXT
  5
326
330
1F
100
AcDbEntity
  8
1
 62
     2
100
AcDbText
 10
1982.144376722554
 20
659.1758487463735
 30
0.0
 40
16.0
  1
モータ 40W
 41
0.89
  7
CONVERTER_3
100
AcDbText
  0
TEXT
  5
327
330
1F
100
AcDbEntity
  8
1
 62
     2
100
AcDbText
 10
2948.485262757013
 20
-117.7861718089812
 30
0.0
 40
16.0
  1
呼称機長40cm以下
 41
0.89
  7
CONVERTER_3
100
AcDbText
  0
TEXT
  5
328
330
1F
100
AcDbEntity
  8
1
 62
     2
100
AcDbText
 10
2498.851335422162
 20
158.9340736898607
 30
0.0
 40
20.0
  1
注1 本図はモータ取付がRタイプ、インバータ変速仕様の場合です
 41
0.89
  7
CONVERTER_3
100
AcDbText
  0
TEXT
  5
329
330
1F
100
AcDbEntity
  8
1
 62
     2
100
AcDbText
 10
2496.073342520183
 20
251.4934460997047
 30
0.0
 40
20.0
  1
※1 ベルトのテークアップ量により、呼称機長は最大5mm伸びます
 41
0.89
  7
CONVERTER_3
100
AcDbText
  0
MTEXT
  5
32A
330
1F
100
AcDbEntity
  8
1
 62
     2
100
AcDbMText
 10
1363.40282414474
 20
230.4534524260066
 30
0.0
 40
20.0
 41
0.0
 71
     7
 72
     1
  1
モータ寸法表 ML (mm)
  7
CONVERTER_3
 73
     1
 44
0.60024009603842
  0
TEXT
  5
32B
330
1F
100
AcDbEntity
  8
1
 62
     2
100
AcDbText
 10
1413.70108547903
 20
199.0837867503328
 30
0.0
 40
16.0
  1
IV
 41
0.9
  7
CONVERTER_1
100
AcDbText
  0
TEXT
  5
32C
330
1F
100
AcDbEntity
  8
1
 62
     2
100
AcDbText
 10
1361.18714863167
 20
170.3042769561384
 30
0.0
 40
16.0
  1
減速比3.6~15
 41
0.89
  7
CONVERTER_3
100
AcDbText
  0
TEXT
  5
32D
330
1F
100
AcDbEntity
  8
1
 62
     2
100
AcDbText
 10
1400.327281951774
 20
121.9547005018926
 30
0.0
 40
20.0
  1
147
 41
0.9
  7
CONVERTER_1
100
AcDbText
  0
TEXT
  5
32E
330
1F
100
AcDbEntity
  8
1
 62
     2
100
AcDbText
 10
1617.251970172818
 20
198.5081965544487
 30
0.0
 40
16.0
  1
DC
 41
0.9
  7
CONVERTER_1
100
AcDbText
  0
TEXT
  5
32F
330
1F
100
AcDbEntity
  8
1
 62
     2
100
AcDbText
 10
1501.762738827552
 20
170.8798671520226
 30
0.0
 40
16.0
  1
減速比3.6~18
 41
0.89
  7
CONVERTER_3
100
AcDbText
  0
TEXT
  5
330
330
1F
100
AcDbEntity
  8
1
 62
     2
100
AcDbText
 10
1664.78634666291
 20
170.8798671520235
 30
0.0
 40
16.0
  1
減速比36
 41
0.89
  7
CONVERTER_3
100
AcDbText
  0
TEXT
  5
331
330
1F
100
AcDbEntity
  8
1
 62
     2
100
AcDbText
 10
1547.678372098056
 20
121.3791103060066
 30
0.0
 40
20.0
  1
99
 41
0.9
  7
CONVERTER_1
100
AcDbText
  0
TEXT
  5
332
330
1F
100
AcDbEntity
  8
1
 62
     2
100
AcDbText
 10
1684.648034253513
 20
123.1058808936587
 30
0.0
 40
20.0
  1
117
 41
0.9
  7
CONVERTER_1
100
AcDbText
  0
TEXT
  5
333
330
1F
100
AcDbEntity
  8
1
 62
     2
100
AcDbText
 10
2169.675850344735
 20
609.8654930780785
 30
0.0
 40
16.0
  1
コンベヤ取付ブラケット
 41
0.89
  7
CONVERTER_3
100
AcDbText
  0
DIMENSION
  5
346
330
1F
100
AcDbEntity
  8
1
100
AcDbDimension
  2
*D02
 10
2312.134854851369
 20
874.3297410841369
 30
0.0
 11
2300.634854851369
 21
839.3028931676108
 31
0.0
 70
    32
  1
<>
 71
     5
 42
-1.0
 53
90.0
  3
ME10_DIM_0
100
AcDbAlignedDimension
 13
2202.644376722434
 23
804.3297410820137
 33
0.0
 14
2233.644376722478
 24
874.3297410841365
 34
0.0
 50
90.0
100
AcDbRotatedDimension
  0
DIMENSION
  5
355
330
1F
100
AcDbEntity
  8
1
100
AcDbDimension
  2
*D14
 10
1823.644376722547
 20
804.3297410820128
 30
0.0
 11
1812.144376722547
 21
780.0504229086369
 31
0.0
 70
    32
  1
<>
 71
     5
 42
-1.0
 53
90.0
  3
ME10_DIM_1
100
AcDbAlignedDimension
 13
1863.644376722556
 23
806.3297410828195
 33
0.0
 14
1955.644376722446
 24
804.3297410820137
 34
0.0
 50
90.0
100
AcDbRotatedDimension
  0
DIMENSION
  5
362
330
1F
100
AcDbEntity
  8
1
100
AcDbDimension
  2
*D25
 10
2255.644376722517
 20
716.6539510163198
 30
0.0
 11
2062.279741461312
 21
728.1539510163198
 31
0.0
 70
    32
  1
呼称機長 
 71
     5
 42
-1.0
 53
0.00013888888889
  3
ME10_DIM_2
100
AcDbAlignedDimension
 13
1855.644376722467
 23
814.5297410827875
 33
0.0
 14
2255.644376722517
 24
827.6297410819898
 34
0.0
100
AcDbRotatedDimension
  0
DIMENSION
  5
36F
330
1F
100
AcDbEntity
  8
1
100
AcDbDimension
  2
*D36
 10
2312.134854851369
 20
467.1758487463735
 30
0.0
 11
2300.634854851369
 21
441.5794676985588
 31
0.0
 70
    32
  1
<>
 71
     5
 42
-1.0
 53
90.0
  3
ME10_DIM_3
100
AcDbAlignedDimension
 13
2256.544376722554
 23
413.1758487463735
 33
0.0
 14
2256.544376722554
 24
467.1758487463735
 34
0.0
 50
90.0
100
AcDbRotatedDimension
  0
DIMENSION
  5
37C
330
1F
100
AcDbEntity
  8
1
100
AcDbDimension
  2
*D47
 10
2352.544376722553
 20
493.1758487463626
 30
0.0
 11
2341.044376722553
 21
452.2501597447408
 31
0.0
 70
    32
  1
<>
 71
     5
 42
-1.0
 53
90.0
  3
ME10_DIM_4
100
AcDbAlignedDimension
 13
2256.544376722554
 23
413.1758487463735
 33
0.0
 14
2252.444376722469
 24
493.1758487463626
 34
0.0
 50
90.0
100
AcDbRotatedDimension
  0
DIMENSION
  5
389
330
1F
100
AcDbEntity
  8
1
100
AcDbDimension
  2
*D58
 10
1823.644376722551
 20
469.1758487463625
 30
0.0
 11
1810.944376722551
 21
439.8046570801998
 31
0.0
 70
    32
  1
<>
 71
     5
 42
-1.0
 53
90.0
  3
ME10_DIM_5
100
AcDbAlignedDimension
 13
1869.744376722581
 23
413.1758487463735
 33
0.0
 14
1855.644376722577
 24
469.1758487463626
 34
0.0
 50
90.0
100
AcDbRotatedDimension
  0
DIMENSION
  5
398
330
1F
100
AcDbEntity
  8
1
100
AcDbDimension
  2
*D69
 10
1823.64437672255
 20
469.1758487463626
 30
0.0
 11
1808.97251835306
 21
472.3778480509095
 31
0.0
 70
    32
  1
<>
 71
     5
 42
-1.0
 53
90.0
  3
ME10_DIM_6
100
AcDbAlignedDimension
 13
1855.644376722577
 23
475.1758487463626
 33
0.0
 14
1855.644376722577
 24
469.1758487463626
 34
0.0
 50
90.0
100
AcDbRotatedDimension
  0
DIMENSION
  5
3A5
330
1F
100
AcDbEntity
  8
1
100
AcDbDimension
  2
*D710
 10
1823.644376722547
 20
475.1758487463635
 30
0.0
 11
1812.144376722547
 21
547.0580767655806
 31
0.0
 70
    32
  1
ML
 71
     5
 42
-1.0
 53
90.0
  3
ME10_DIM_7
100
AcDbAlignedDimension
 13
1859.944376722549
 23
622.1758487463735
 33
0.0
 14
1855.644376722577
 24
475.1758487463626
 34
0.0
 50
90.0
100
AcDbRotatedDimension
  0
DIMENSION
  5
3B2
330
1F
100
AcDbEntity
  8
1
100
AcDbDimension
  2
*D811
 10
1823.644376722551
 20
896.3297410827877
 30
0.0
 11
1810.944376722551
 21
846.6043249072195
 31
0.0
 70
    32
  1
<>
 71
     5
 42
-1.0
 53
90.0
  3
ME10_DIM_8
100
AcDbAlignedDimension
 13
1863.644376722556
 23
806.3297410828195
 33
0.0
 14
1863.844376722416
 24
896.3297410827886
 34
0.0
 50
90.0
100
AcDbRotatedDimension
  0
DIMENSION
  5
3BF
330
1F
100
AcDbEntity
  8
1
100
AcDbDimension
  2
*D912
 10
1775.413909618736
 20
896.3297410827886
 30
0.0
 11
1762.713909618736
 21
850.3954536996798
 31
0.0
 70
    32
  1
<>
 71
     5
 42
-1.0
 53
90.0
  3
ME10_DIM_9
100
AcDbAlignedDimension
 13
1955.644376722446
 23
804.3297410820137
 33
0.0
 14
1863.844376722416
 24
896.3297410827886
 34
0.0
 50
90.0
100
AcDbRotatedDimension
  0
DIMENSION
  5
3CC
330
1F
100
AcDbEntity
  8
1
100
AcDbDimension
  2
*D1013
 10
2025.644376722641
 20
770.4308000551646
 30
0.0
 11
2066.277405589771
 21
781.9308000551646
 31
0.0
 70
    32
  1
<>
 71
     5
 42
-1.0
 53
0.00013888888889
  3
ME10_DIM_10
100
AcDbAlignedDimension
 13
2105.644376722608
 23
820.0797410828095
 33
0.0
 14
2025.644376722642
 24
820.0797410828095
 34
0.0
100
AcDbRotatedDimension
  0
DIMENSION
  5
3D9
330
1F
100
AcDbEntity
  8
1
100
AcDbDimension
  2
*D1114
 10
1855.644376722554
 20
770.4308000551646
 30
0.0
 11
1939.96455454256
 21
781.9308000551646
 31
0.0
 70
    32
  1
<>
 71
     5
 42
-1.0
 53
0.00013888888889
  3
ME10_DIM_11
100
AcDbAlignedDimension
 13
2025.644376722642
 23
820.0797410828095
 33
0.0
 14
1855.644376722556
 24
814.3297410828195
 34
0.0
100
AcDbRotatedDimension
  0
DIMENSION
  5
3E8
330
1F
100
AcDbEntity
  8
1
100
AcDbDimension
  2
*D1215
 10
2064.366503536485
 20
240.9123650073225
 30
0.0
 11
2122.306393780997
 21
253.9123650073225
 31
0.0
 70
    32
  1
<>
 71
     5
 42
-1.0
 53
0.00013888888889
  3
ME10_DIM_12
100
AcDbAlignedDimension
 13
2084.366503536453
 23
199.2785866527988
 33
0.0
 14
2064.366503536485
 24
191.3543087980738
 34
0.0
100
AcDbRotatedDimension
  0
DIMENSION
  5
3F7
330
1F
100
AcDbEntity
  8
1
100
AcDbDimension
  2
*D1316
 10
2153.638895580727
 20
195.3543087980743
 30
0.0
 11
2140.638895580727
 21
222.7409135817038
 31
0.0
 70
    32
  1
<>
 71
     5
 42
-1.0
 53
90.0
  3
ME10_DIM_13
100
AcDbAlignedDimension
 13
2099.366503536454
 23
191.3543087980738
 33
0.0
 14
2099.366503536454
 24
195.3543087980738
 34
0.0
 50
90.0
100
AcDbRotatedDimension
  0
DIMENSION
  5
404
330
1F
100
AcDbEntity
  8
1
100
AcDbDimension
  2
*D1417
 10
2015.64437672263
 20
595.0665901047764
 30
0.0
 11
2066.686820611726
 21
608.0665901047764
 31
0.0
 70
    32
  1
<>
 71
     5
 42
-1.0
 53
0.00013888888889
  3
ME10_DIM_14
100
AcDbAlignedDimension
 13
2115.644376722628
 23
533.1758487463785
 33
0.0
 14
2015.64437672263
 24
533.1758487463785
 34
0.0
100
AcDbRotatedDimension
  0
DIMENSION
  5
411
330
1F
100
AcDbEntity
  8
1
100
AcDbDimension
  2
*D1518
 10
2023.020552401848
 20
195.3543087980734
 30
0.0
 11
2010.020552401848
 21
132.9510617600927
 31
0.0
 70
    32
  1
<>
 71
     5
 42
-1.0
 53
90.0
  3
ME10_DIM_15
100
AcDbAlignedDimension
 13
2061.466503536447
 23
75.35430879807382
 33
0.0
 14
2068.366503536485
 24
195.3543087980738
 34
0.0
 50
90.0
100
AcDbRotatedDimension
  0
DIMENSION
  5
420
330
1F
100
AcDbEntity
  8
1
100
AcDbDimension
  2
*D1619
 10
2063.366503536454
 20
272.2404217531735
 30
0.0
 11
2040.371476138008
 21
285.2404217531735
 31
0.0
 70
    32
  1
<>
 71
     5
 42
-1.0
 53
0.00013888888889
  3
ME10_DIM_16
100
AcDbAlignedDimension
 13
2064.366503536485
 23
191.3543087980738
 33
0.0
 14
2063.366503536454
 24
131.3543087980738
 34
0.0
100
AcDbRotatedDimension
  0
DIMENSION
  5
42F
330
1F
100
AcDbEntity
  8
1
100
AcDbDimension
  2
*D1720
 10
2064.366503536486
 20
272.2404217531735
 30
0.0
 11
2083.748785478418
 21
285.2404217531735
 31
0.0
 70
    32
  1
<>
 71
     5
 42
-1.0
 53
0.00013888888889
  3
ME10_DIM_17
100
AcDbAlignedDimension
 13
2099.366503536454
 23
195.3543087980738
 33
0.0
 14
2064.366503536485
 24
191.3543087980738
 34
0.0
100
AcDbRotatedDimension
  0
INSERT
  5
438
330
1F
100
AcDbEntity
  8
1
100
AcDbBlockReference
  2
*D1821
 10
0.0
 20
0.0
 30
0.0
  0
INSERT
  5
441
330
1F
100
AcDbEntity
  8
1
100
AcDbBlockReference
  2
*D1922
 10
0.0
 20
0.0
 30
0.0
  0
INSERT
  5
44A
330
1F
100
AcDbEntity
  8
1
100
AcDbBlockReference
  2
*D2023
 10
0.0
 20
0.0
 30
0.0
  0
ENDSEC
  0
SECTION
  2
OBJECTS
  0
DICTIONARY
  5
C
330
0
100
AcDbDictionary
281
     1
  3
ACAD_GROUP
350
D
  3
ACAD_LAYOUT
350
1A
  3
ACAD_MLINESTYLE
350
17
  3
ACAD_PLOTSETTINGS
350
19
  3
ACAD_PLOTSTYLENAME
350
E
  0
DICTIONARY
  5
D
102
{ACAD_REACTORS
330
C
102
}
330
C
100
AcDbDictionary
281
     1
  0
DICTIONARY
  5
1A
102
{ACAD_REACTORS
330
C
102
}
330
C
100
AcDbDictionary
281
     1
  3
Layout1
350
1E
  3
Layout2
350
26
  3
Model
350
22
  0
DICTIONARY
  5
17
102
{ACAD_REACTORS
330
C
102
}
330
C
100
AcDbDictionary
281
     1
  3
Standard
350
18
  0
DICTIONARY
  5
19
102
{ACAD_REACTORS
330
C
102
}
330
C
100
AcDbDictionary
281
     1
  0
ACDBDICTIONARYWDFLT
  5
E
102
{ACAD_REACTORS
330
C
102
}
330
C
100
AcDbDictionary
281
     1
  3
Normal
350
F
100
AcDbDictionaryWithDefault
340
F
  0
LAYOUT
  5
1E
102
{ACAD_REACTORS
330
1A
102
}
330
1A
100
AcDbPlotSettings
  1

  2

  4

  6

 40
0.0
 41
0.0
 42
0.0
 43
0.0
 44
0.0
 45
0.0
 46
0.0
 47
0.0
 48
0.0
 49
0.0
140
0.0
141
0.0
142
1.0
143
1.0
 70
   688
 72
     0
 73
     0
 74
     5
  7

 75
    16
147
1.0
148
0.0
149
0.0
100
AcDbLayout
  1
Layout1
 70
     1
 71
     1
 10
0.0
 20
0.0
 11
0.0
 21
0.0
 12
0.0
 22
0.0
 32
0.0
 14
0.0
 24
0.0
 34
0.0
 15
0.0
 25
0.0
 35
0.0
146
0.0
 13
0.0
 23
0.0
 33
0.0
 16
1.0
 26
0.0
 36
0.0
 17
0.0
 27
1.0
 37
0.0
 76
     0
330
1B
  0
LAYOUT
  5
26
102
{ACAD_REACTORS
330
1A
102
}
330
1A
100
AcDbPlotSettings
  1

  2

  4

  6

 40
0.0
 41
0.0
 42
0.0
 43
0.0
 44
0.0
 45
0.0
 46
0.0
 47
0.0
 48
0.0
 49
0.0
140
0.0
141
0.0
142
1.0
143
1.0
 70
   688
 72
     0
 73
     0
 74
     5
  7

 75
    16
147
1.0
148
0.0
149
0.0
100
AcDbLayout
  1
Layout2
 70
     1
 71
     2
 10
0.0
 20
0.0
 11
0.0
 21
0.0
 12
0.0
 22
0.0
 32
0.0
 14
0.0
 24
0.0
 34
0.0
 15
0.0
 25
0.0
 35
0.0
146
0.0
 13
0.0
 23
0.0
 33
0.0
 16
1.0
 26
0.0
 36
0.0
 17
0.0
 27
1.0
 37
0.0
 76
     0
330
23
  0
LAYOUT
  5
22
102
{ACAD_REACTORS
330
1A
102
}
330
1A
100
AcDbPlotSettings
  1

  2

  4

  6

 40
0.0
 41
0.0
 42
0.0
 43
0.0
 44
0.0
 45
0.0
 46
0.0
 47
0.0
 48
0.0
 49
0.0
140
0.0
141
0.0
142
1.0
143
1.0
 70
  1712
 72
     0
 73
     0
 74
     0
  7

 75
     0
147
1.0
148
0.0
149
0.0
100
AcDbLayout
  1
Model
 70
     1
 71
     0
 10
0.0
 20
0.0
 11
0.0
 21
0.0
 12
0.0
 22
0.0
 32
0.0
 14
1240.09548385845
 24
-192.5494913200585
 34
0.0
 15
3210.09548385845
 25
1158.73127528472
 35
0.0
146
0.0
 13
0.0
 23
0.0
 33
0.0
 16
1.0
 26
0.0
 36
0.0
 17
0.0
 27
1.0
 37
0.0
 76
     0
330
1F
  0
MLINESTYLE
  5
18
102
{ACAD_REACTORS
330
17
102
}
330
17
100
AcDbMlineStyle
  2
Standard
 70
     0
  3

 62
   256
 51
90.0
 52
90.0
 71
     2
 49
0.5
 62
   256
  6
BYLAYER
 49
-0.5
 62
   256
  6
BYLAYER
  0
ACDBPLACEHOLDER
  5
F
102
{ACAD_REACTORS
330
E
102
}
330
E
  0
ENDSEC
  0
EOF
