  0
SECTION
  2
HEADER
  9
$ACADVER
  1
AC1015
  9
$ACADMAINTVER
 70
     6
  9
$DWGCODEPAGE
  3
DOS932
  9
$INSBASE
 10
0.0
 20
0.0
 30
0.0
  9
$EXTMIN
 10
1240.09548385845
 20
-192.5494913200585
 30
0.0
  9
$EXTMAX
 10
3210.09548385845
 20
1158.73127528472
 30
0.0
  9
$LIMMIN
 10
0.0
 20
0.0
  9
$LIMMAX
 10
12.0
 20
9.0
  9
$ORTHOMODE
 70
     0
  9
$REGENMODE
 70
     1
  9
$FILLMODE
 70
     1
  9
$QTEXTMODE
 70
     0
  9
$MIRRTEXT
 70
     1
  9
$LTSCALE
 40
1.0
  9
$ATTMODE
 70
     1
  9
$TEXTSIZE
 40
0.2
  9
$TRACEWID
 40
0.05
  9
$TEXTSTYLE
  7
Standard
  9
$CLAYER
  8
0
  9
$CELTYPE
  6
ByLayer
  9
$CECOLOR
 62
   256
  9
$CELTSCALE
 40
1.0
  9
$DISPSILH
 70
     0
  9
$DIMSCALE
 40
1.0
  9
$DIMASZ
 40
0.18
  9
$DIMEXO
 40
0.0625
  9
$DIMDLI
 40
0.38
  9
$DIMRND
 40
0.0
  9
$DIMDLE
 40
0.0
  9
$DIMEXE
 40
0.18
  9
$DIMTP
 40
0.0
  9
$DIMTM
 40
0.0
  9
$DIMTXT
 40
0.18
  9
$DIMCEN
 40
0.09
  9
$DIMTSZ
 40
0.0
  9
$DIMTOL
 70
     0
  9
$DIMLIM
 70
     0
  9
$DIMTIH
 70
     1
  9
$DIMTOH
 70
     1
  9
$DIMSE1
 70
     0
  9
$DIMSE2
 70
     0
  9
$DIMTAD
 70
     0
  9
$DIMZIN
 70
     0
  9
$DIMBLK
  1

  9
$DIMASO
 70
     1
  9
$DIMSHO
 70
     1
  9
$DIMPOST
  1

  9
$DIMAPOST
  1

  9
$DIMALT
 70
     0
  9
$DIMALTD
 70
     2
  9
$DIMALTF
 40
25.4
  9
$DIMLFAC
 40
1.0
  9
$DIMTOFL
 70
     0
  9
$DIMTVP
 40
0.0
  9
$DIMTIX
 70
     0
  9
$DIMSOXD
 70
     0
  9
$DIMSAH
 70
     0
  9
$DIMBLK1
  1

  9
$DIMBLK2
  1

  9
$DIMSTYLE
  2
Standard
  9
$DIMCLRD
 70
     0
  9
$DIMCLRE
 70
     0
  9
$DIMCLRT
 70
     0
  9
$DIMTFAC
 40
1.0
  9
$DIMGAP
 40
0.09
  9
$DIMJUST
 70
     0
  9
$DIMSD1
 70
     0
  9
$DIMSD2
 70
     0
  9
$DIMTOLJ
 70
     1
  9
$DIMTZIN
 70
     0
  9
$DIMALTZ
 70
     0
  9
$DIMALTTZ
 70
     0
  9
$DIMUPT
 70
     0
  9
$DIMDEC
 70
     4
  9
$DIMTDEC
 70
     4
  9
$DIMALTU
 70
     2
  9
$DIMALTTD
 70
     2
  9
$DIMTXSTY
  7
Standard
  9
$DIMAUNIT
 70
     0
  9
$DIMADEC
 70
     0
  9
$DIMALTRND
 40
0.0
  9
$DIMAZIN
 70
     0
  9
$DIMDSEP
 70
    46
  9
$DIMATFIT
 70
     3
  9
$DIMFRAC
 70
     0
  9
$DIMLDRBLK
  1

  9
$DIMLUNIT
 70
     2
  9
$DIMLWD
 70
    -2
  9
$DIMLWE
 70
    -2
  9
$DIMTMOVE
 70
     0
  9
$LUNITS
 70
     2
  9
$LUPREC
 70
     4
  9
$SKETCHINC
 40
0.1
  9
$FILLETRAD
 40
0.5
  9
$AUNITS
 70
     0
  9
$AUPREC
 70
     0
  9
$MENU
  1
.
  9
$ELEVATION
 40
0.0
  9
$PELEVATION
 40
0.0
  9
$THICKNESS
 40
0.0
  9
$LIMCHECK
 70
     0
  9
$CHAMFERA
 40
0.5
  9
$CHAMFERB
 40
0.5
  9
$CHAMFERC
 40
1.0
  9
$CHAMFERD
 40
0.0
  9
$SKPOLY
 70
     0
  9
$TDCREATE
 40
2455806.647083391
  9
$TDUCREATE
 40
2455806.272083391
  9
$TDUPDATE
 40
2455806.647083403
  9
$TDUUPDATE
 40
2455806.272083403
  9
$TDINDWG
 40
0.0000000116
  9
$TDUSRTIMER
 40
0.0000000116
  9
$USRTIMER
 70
     1
  9
$ANGBASE
 50
0.0
  9
$ANGDIR
 70
     0
  9
$PDMODE
 70
     0
  9
$PDSIZE
 40
0.0
  9
$PLINEWID
 40
0.0
  9
$SPLFRAME
 70
     0
  9
$SPLINETYPE
 70
     6
  9
$SPLINESEGS
 70
     8
  9
$HANDSEED
  5
46D
  9
$SURFTAB1
 70
     6
  9
$SURFTAB2
 70
     6
  9
$SURFTYPE
 70
     6
  9
$SURFU
 70
     6
  9
$SURFV
 70
     6
  9
$UCSBASE
  2

  9
$UCSNAME
  2

  9
$UCSORG
 10
0.0
 20
0.0
 30
0.0
  9
$UCSXDIR
 10
1.0
 20
0.0
 30
0.0
  9
$UCSYDIR
 10
0.0
 20
1.0
 30
0.0
  9
$UCSORTHOREF
  2

  9
$UCSORTHOVIEW
 70
     0
  9
$UCSORGTOP
 10
0.0
 20
0.0
 30
0.0
  9
$UCSORGBOTTOM
 10
0.0
 20
0.0
 30
0.0
  9
$UCSORGLEFT
 10
0.0
 20
0.0
 30
0.0
  9
$UCSORGRIGHT
 10
0.0
 20
0.0
 30
0.0
  9
$UCSORGFRONT
 10
0.0
 20
0.0
 30
0.0
  9
$UCSORGBACK
 10
0.0
 20
0.0
 30
0.0
  9
$PUCSBASE
  2

  9
$PUCSNAME
  2

  9
$PUCSORG
 10
0.0
 20
0.0
 30
0.0
  9
$PUCSXDIR
 10
1.0
 20
0.0
 30
0.0
  9
$PUCSYDIR
 10
0.0
 20
1.0
 30
0.0
  9
$PUCSORTHOREF
  2

  9
$PUCSORTHOVIEW
 70
     0
  9
$PUCSORGTOP
 10
0.0
 20
0.0
 30
0.0
  9
$PUCSORGBOTTOM
 10
0.0
 20
0.0
 30
0.0
  9
$PUCSORGLEFT
 10
0.0
 20
0.0
 30
0.0
  9
$PUCSORGRIGHT
 10
0.0
 20
0.0
 30
0.0
  9
$PUCSORGFRONT
 10
0.0
 20
0.0
 30
0.0
  9
$PUCSORGBACK
 10
0.0
 20
0.0
 30
0.0
  9
$USERI1
 70
     0
  9
$USERI2
 70
     0
  9
$USERI3
 70
     0
  9
$USERI4
 70
     0
  9
$USERI5
 70
     0
  9
$USERR1
 40
14.0
  9
$USERR2
 40
0.0
  9
$USERR3
 40
0.0
  9
$USERR4
 40
0.0
  9
$USERR5
 40
0.0
  9
$WORLDVIEW
 70
     1
  9
$SHADEDGE
 70
     3
  9
$SHADEDIF
 70
    70
  9
$TILEMODE
 70
     1
  9
$MAXACTVP
 70
    64
  9
$PINSBASE
 10
0.0
 20
0.0
 30
0.0
  9
$PLIMCHECK
 70
     0
  9
$PEXTMIN
 10
1.00000000000000E+20
 20
1.00000000000000E+20
 30
1.00000000000000E+20
  9
$PEXTMAX
 10
-1.00000000000000E+20
 20
-1.00000000000000E+20
 30
-1.00000000000000E+20
  9
$PLIMMIN
 10
0.0
 20
0.0
  9
$PLIMMAX
 10
12.0
 20
9.0
  9
$UNITMODE
 70
     0
  9
$VISRETAIN
 70
     1
  9
$PLINEGEN
 70
     0
  9
$PSLTSCALE
 70
     1
  9
$TREEDEPTH
 70
  3020
  9
$CMLSTYLE
  2
Standard
  9
$CMLJUST
 70
     0
  9
$CMLSCALE
 40
1.0
  9
$PROXYGRAPHICS
 70
     1
  9
$MEASUREMENT
 70
     1
  9
$CELWEIGHT
370
    -1
  9
$ENDCAPS
280
     0
  9
$JOINSTYLE
280
     0
  9
$LWDISPLAY
290
     0
  9
$INSUNITS
 70
     1
  9
$HYPERLINKBASE
  1

  9
$STYLESHEET
  1

  9
$XEDIT
290
     1
  9
$CEPSNTYPE
380
     0
  9
$PSTYLEMODE
290
     1
  9
$FINGERPRINTGUID
  2
{92984F79-C27A-48DE-944F-C3239FF5F0A5}
  9
$VERSIONGUID
  2
{FAEB1C32-E019-11D5-929B-00C0DF256EC4}
  9
$EXTNAMES
290
     1
  9
$PSVPSCALE
 40
0.0
  9
$OLESTARTUP
290
     0
  0
ENDSEC
  0
SECTION
  2
CLASSES
  0
CLASS
  1
ACDBDICTIONARYWDFLT
  2
AcDbDictionaryWithDefault
  3
ObjectDBX Classes
 90
        0
280
     0
281
     0
  0
CLASS
  1

  2
exOdDbCircle
  3

 90
        0
280
     0
281
     1
  0
CLASS
  1
ACDBPLACEHOLDER
  2
AcDbPlaceHolder
  3
ObjectDBX Classes
 90
        0
280
     0
281
     0
  0
CLASS
  1
LAYOUT
  2
AcDbLayout
  3
ObjectDBX Classes
 90
        0
280
     0
281
     0
  0
ENDSEC
  0
SECTION
  2
TABLES
  0
TABLE
  2
VPORT
  5
8
330
0
100
AcDbSymbolTable
 70
     1
  0
VPORT
  5
29
330
8
100
AcDbSymbolTableRecord
100
AcDbViewportTableRecord
  2
*Active
 70
     0
 10
0.0
 20
0.0
 11
1.0
 21
1.0
 12
2225.09548385845
 22
483.0908919823307
 13
0.0
 23
0.0
 14
0.5
 24
0.5
 15
0.5
 25
0.5
 16
0.0
 26
0.0
 36
1.0
 17
0.0
 27
0.0
 37
0.0
 40
1486.408843265256
 41
1.60267857142857
 42
50.0
 43
0.0
 44
0.0
 50
0.0
 51
0.0
 71
     0
 72
   100
 73
     1
 74
     3
 75
     0
 76
     0
 77
     0
 78
     0
281
     0
 65
     1
110
0.0
120
0.0
130
0.0
111
1.0
121
0.0
131
0.0
112
0.0
122
1.0
132
0.0
 79
     0
146
0.0
  0
ENDTAB
  0
TABLE
  2
LTYPE
  5
5
330
0
100
AcDbSymbolTable
 70
     8
  0
LTYPE
  5
14
330
5
100
AcDbSymbolTableRecord
100
AcDbLinetypeTableRecord
  2
ByBlock
 70
     0
  3

 72
    65
 73
     0
 40
0.0
  0
LTYPE
  5
15
330
5
100
AcDbSymbolTableRecord
100
AcDbLinetypeTableRecord
  2
ByLayer
 70
     0
  3

 72
    65
 73
     0
 40
0.0
  0
LTYPE
  5
16
330
5
100
AcDbSymbolTableRecord
100
AcDbLinetypeTableRecord
  2
Continuous
 70
     0
  3
Solid line
 72
    65
 73
     0
 40
0.0
  0
LTYPE
  5
2A
330
5
100
AcDbSymbolTableRecord
100
AcDbLinetypeTableRecord
  2
DASHED
 70
     0
  3
Dashed
 72
    65
 73
     2
 40
15.0
 49
7.0
 74
     0
 49
-8.0
 74
     0
  0
LTYPE
  5
2B
330
5
100
AcDbSymbolTableRecord
100
AcDbLinetypeTableRecord
  2
DOTTED
 70
     0
  3
Dotted
 72
    65
 73
     2
 40
1.0
 49
0.0
 74
     0
 49
-1.0
 74
     0
  0
LTYPE
  5
2C
330
5
100
AcDbSymbolTableRecord
100
AcDbLinetypeTableRecord
  2
DOT_CENTER
 70
     0
  3
Dot_Center
 72
    65
 73
     4
 40
14.0
 49
12.0
 74
     0
 49
-1.0
 74
     0
 49
0.0
 74
     0
 49
-1.0
 74
     0
  0
LTYPE
  5
2D
330
5
100
AcDbSymbolTableRecord
100
AcDbLinetypeTableRecord
  2
LONG_DASHED
 70
     0
  3
Long_Dashed
 72
    65
 73
     2
 40
15.0
 49
10.0
 74
     0
 49
-5.0
 74
     0
  0
LTYPE
  5
2E
330
5
100
AcDbSymbolTableRecord
100
AcDbLinetypeTableRecord
  2
DASH_CENTER
 70
     0
  3
Dash_Center
 72
    65
 73
     4
 40
14.0
 49
11.0
 74
     0
 49
-1.0
 74
     0
 49
1.0
 74
     0
 49
-1.0
 74
     0
  0
LTYPE
  5
2F
330
5
100
AcDbSymbolTableRecord
100
AcDbLinetypeTableRecord
  2
PHANTOM
 70
     0
  3
Phantom
 72
    65
 73
     6
 40
13.0
 49
10.0
 74
     0
 49
-1.0
 74
     0
 49
0.0
 74
     0
 49
-1.0
 74
     0
 49
0.0
 74
     0
 49
-1.0
 74
     0
  0
LTYPE
  5
30
330
5
100
AcDbSymbolTableRecord
100
AcDbLinetypeTableRecord
  2
CENTER_DASH_DASH
 70
     0
  3
Center_Dash_Dash
 72
    65
 73
     6
 40
14.0
 49
9.0
 74
     0
 49
-1.0
 74
     0
 49
1.0
 74
     0
 49
-1.0
 74
     0
 49
1.0
 74
     0
 49
-1.0
 74
     0
  0
ENDTAB
  0
TABLE
  2
LAYER
  5
2
330
0
100
AcDbSymbolTable
 70
     2
  0
LAYER
  5
10
330
2
100
AcDbSymbolTableRecord
100
AcDbLayerTableRecord
  2
0
 70
     0
 62
     7
  6
Continuous
370
    -3
390
F
  0
LAYER
  5
31
330
2
100
AcDbSymbolTableRecord
100
AcDbLayerTableRecord
  2
1
 70
     0
 62
     7
  6
Continuous
370
    -3
390
F
  0
ENDTAB
  0
TABLE
  2
STYLE
  5
3
330
0
100
AcDbSymbolTable
 70
     6
  0
STYLE
  5
11
330
3
100
AcDbSymbolTableRecord
100
AcDbTextStyleTableRecord
  2
Standard
 70
     0
 40
0.0
 41
1.0
 50
0.0
 71
     0
 42
0.2
  3
txt
  4

  0
STYLE
  5
50
330
3
100
AcDbSymbolTableRecord
100
AcDbTextStyleTableRecord
  2
CONVERTER_1
 70
     0
 40
0.0
 41
0.9
 50
0.0
 71
     0
 42
0.2
  3
txt.shx
  4

  0
STYLE
  5
53
330
3
100
AcDbSymbolTableRecord
100
AcDbTextStyleTableRecord
  2
CONVERTER_2
 70
     0
 40
0.0
 41
1.068
 50
0.0
 71
     0
 42
0.2
  3
msmincho.ttc
  4

1001
ACAD
1000
MS Mincho
1071
    32785
  0
STYLE
  5
56
330
3
100
AcDbSymbolTableRecord
100
AcDbTextStyleTableRecord
  2
CONVERTER_3
 70
     0
 40
0.0
 41
0.89
 50
0.0
 71
     0
 42
0.2
  3
MSMINCHO.TTC
  4

1001
ACAD
1000
MS Mincho
1071
    32785
  0
STYLE
  5
59
330
3
100
AcDbSymbolTableRecord
100
AcDbTextStyleTableRecord
  2
CONVERTER_4
 70
     0
 40
0.0
 41
0.801
 50
0.0
 71
     0
 42
0.2
  3
msmincho.ttc
  4

1001
ACAD
1000
MS Mincho
1071
    32785
  0
STYLE
  5
5D
330
3
100
AcDbSymbolTableRecord
100
AcDbTextStyleTableRecord
  2
CONVERTER_5
 70
     0
 40
0.0
 41
0.9025
 50
0.0
 71
     0
 42
0.2
  3
complex.shx
  4

  0
ENDTAB
  0
TABLE
  2
VIEW
  5
6
330
0
100
AcDbSymbolTable
 70
     0
  0
ENDTAB
  0
TABLE
  2
UCS
  5
7
330
0
100
AcDbSymbolTable
 70
     0
  0
ENDTAB
  0
TABLE
  2
APPID
  5
9
330
0
100
AcDbSymbolTable
 70
     1
  0
APPID
  5
12
330
9
100
AcDbSymbolTableRecord
100
AcDbRegAppTableRecord
  2
ACAD
 70
     0
  0
ENDTAB
  0
TABLE
  2
DIMSTYLE
  5
A
330
0
100
AcDbSymbolTable
 70
    21
100
AcDbDimStyleTable
  0
DIMSTYLE
105
27
330
A
100
AcDbSymbolTableRecord
100
AcDbDimStyleTableRecord
  2
Standard
 70
     0
340
11
  0
DIMSTYLE
105
340
102
{ACAD_REACTORS
330
341
102
}
330
A
100
AcDbSymbolTableRecord
100
AcDbDimStyleTableRecord
  2
ME10_DIM_0
 70
     0
 41
16.0
 42
5.0
 44
5.0
 73
     0
 74
     0
 77
     1
 78
     8
140
16.0
147
5.0
172
     1
173
     1
176
     2
177
     2
178
     2
271
     2
340
50
343
33A
344
33A
  0
DIMSTYLE
105
34F
102
{ACAD_REACTORS
330
350
102
}
330
A
100
AcDbSymbolTableRecord
100
AcDbDimStyleTableRecord
  2
ME10_DIM_1
 70
     0
 41
16.0
 42
5.0
 44
5.0
 73
     0
 74
     0
 77
     1
 78
     8
140
16.0
147
5.0
172
     1
173
     1
176
     2
177
     2
178
     2
271
     2
340
50
343
33A
344
33A
  0
DIMSTYLE
105
35E
102
{ACAD_REACTORS
330
35F
102
}
330
A
100
AcDbSymbolTableRecord
100
AcDbDimStyleTableRecord
  2
ME10_DIM_2
 70
     0
 41
16.0
 42
5.0
 44
5.0
 73
     0
 74
     0
 77
     1
 78
     8
140
16.0
147
5.0
172
     1
173
     1
176
     2
177
     2
178
     2
271
     2
340
50
343
33A
344
33A
  0
DIMSTYLE
105
36D
102
{ACAD_REACTORS
330
36E
102
}
330
A
100
AcDbSymbolTableRecord
100
AcDbDimStyleTableRecord
  2
ME10_DIM_3
 70
     0
 41
16.0
 42
5.0
 44
5.0
 73
     0
 74
     0
 77
     1
 78
     8
140
16.0
147
5.0
172
     1
173
     1
176
     2
177
     2
178
     2
271
     2
340
50
343
33A
344
33A
  0
DIMSTYLE
105
37C
102
{ACAD_REACTORS
330
37D
102
}
330
A
100
AcDbSymbolTableRecord
100
AcDbDimStyleTableRecord
  2
ME10_DIM_4
 70
     0
 41
16.0
 42
5.0
 44
5.0
 73
     0
 74
     0
 77
     1
 78
     8
140
16.0
147
5.0
172
     1
173
     1
176
     2
177
     2
178
     2
271
     2
340
50
343
33A
344
33A
  0
DIMSTYLE
105
389
102
{ACAD_REACTORS
330
38A
102
}
330
A
100
AcDbSymbolTableRecord
100
AcDbDimStyleTableRecord
  2
ME10_DIM_5
 70
     0
 41
16.0
 42
5.0
 44
5.0
 73
     0
 74
     0
 77
     1
 78
     8
140
16.0
147
5.0
172
     1
173
     1
176
     2
177
     2
178
     2
271
     2
340
56
343
33A
344
33A
  0
DIMSTYLE
105
396
102
{ACAD_REACTORS
330
397
102
}
330
A
100
AcDbSymbolTableRecord
100
AcDbDimStyleTableRecord
  2
ME10_DIM_6
 70
     0
 41
16.0
 42
5.0
 44
5.0
 73
     0
 74
     0
 77
     1
 78
     8
140
16.0
147
3.5
172
     1
173
     1
176
     2
177
     2
178
     2
271
     2
340
50
343
33A
344
33A
  0
DIMSTYLE
105
3A3
102
{ACAD_REACTORS
330
3A4
102
}
330
A
100
AcDbSymbolTableRecord
100
AcDbDimStyleTableRecord
  2
ME10_DIM_7
 70
     0
 41
16.0
 42
5.0
 44
5.0
 73
     0
 74
     0
 77
     1
 78
     8
140
16.0
147
3.5
172
     1
173
     1
176
     2
177
     2
178
     2
271
     2
340
50
343
33A
344
33A
  0
DIMSTYLE
105
3B2
102
{ACAD_REACTORS
330
3B3
102
}
330
A
100
AcDbSymbolTableRecord
100
AcDbDimStyleTableRecord
  2
ME10_DIM_8
 70
     0
 41
16.0
 42
5.0
 44
5.0
 73
     0
 74
     0
 77
     1
 78
     8
140
16.0
147
3.5
172
     1
173
     1
176
     2
177
     2
178
     2
271
     2
340
50
343
33A
344
33A
  0
DIMSTYLE
105
3BF
102
{ACAD_REACTORS
330
3C0
102
}
330
A
100
AcDbSymbolTableRecord
100
AcDbDimStyleTableRecord
  2
ME10_DIM_9
 70
     0
 41
16.0
 42
5.0
 44
5.0
 73
     0
 74
     0
 77
     1
 78
     8
140
16.0
147
3.5
172
     1
173
     1
176
     2
177
     2
178
     2
271
     2
340
50
343
33A
344
33A
  0
DIMSTYLE
105
3CC
102
{ACAD_REACTORS
330
3CD
102
}
330
A
100
AcDbSymbolTableRecord
100
AcDbDimStyleTableRecord
  2
ME10_DIM_10
 70
     0
 41
16.0
 42
5.0
 44
5.0
 73
     0
 74
     0
 77
     1
 78
     8
140
16.0
147
3.5
172
     1
173
     1
176
     2
177
     2
178
     2
271
     2
340
56
343
33A
344
33A
  0
DIMSTYLE
105
3D9
102
{ACAD_REACTORS
330
3DA
102
}
330
A
100
AcDbSymbolTableRecord
100
AcDbDimStyleTableRecord
  2
ME10_DIM_11
 70
     0
 41
16.0
 42
5.0
 44
5.0
 73
     0
 74
     0
 77
     1
 78
     8
140
16.0
147
3.5
172
     1
173
     1
176
     2
177
     2
178
     2
271
     2
340
50
343
33A
344
33A
  0
DIMSTYLE
105
3E6
102
{ACAD_REACTORS
330
3E7
102
}
330
A
100
AcDbSymbolTableRecord
100
AcDbDimStyleTableRecord
  2
ME10_DIM_12
 70
     0
 41
16.0
 42
5.0
 44
5.0
 73
     0
 74
     0
 77
     1
 78
     8
140
16.0
147
3.5
172
     1
173
     1
176
     2
177
     2
178
     2
271
     2
340
50
343
33A
344
33A
  0
DIMSTYLE
105
3F3
102
{ACAD_REACTORS
330
3F4
102
}
330
A
100
AcDbSymbolTableRecord
100
AcDbDimStyleTableRecord
  2
ME10_DIM_13
 70
     0
 41
16.0
 42
5.0
 44
5.0
 73
     0
 74
     0
 77
     1
 78
     8
140
16.0
147
3.5
172
     1
173
     1
176
     2
177
     2
178
     2
271
     2
340
50
343
33A
344
33A
  0
DIMSTYLE
105
402
102
{ACAD_REACTORS
330
403
102
}
330
A
100
AcDbSymbolTableRecord
100
AcDbDimStyleTableRecord
  2
ME10_DIM_14
 70
     0
 41
16.0
 42
5.0
 44
5.0
 73
     0
 74
     0
 77
     1
 78
     8
140
16.0
147
3.5
172
     1
173
     1
176
     2
177
     2
178
     2
271
     2
340
50
343
33A
344
33A
  0
DIMSTYLE
105
40F
102
{ACAD_REACTORS
330
410
102
}
330
A
100
AcDbSymbolTableRecord
100
AcDbDimStyleTableRecord
  2
ME10_DIM_15
 70
     0
 41
16.0
 42
5.0
 44
5.0
 73
     0
 74
     0
 77
     1
 78
     8
140
16.0
147
3.5
172
     1
173
     1
176
     2
177
     2
178
     2
271
     2
340
50
343
33A
344
33A
  0
DIMSTYLE
105
41C
102
{ACAD_REACTORS
330
41D
102
}
330
A
100
AcDbSymbolTableRecord
100
AcDbDimStyleTableRecord
  2
ME10_DIM_16
 70
     0
  3
□<>
 41
16.0
 42
5.0
 44
5.0
 73
     0
 74
     0
 77
     1
 78
     8
140
16.0
147
3.5
172
     1
173
     1
176
     2
177
     2
178
     2
271
     2
340
56
343
33A
344
33A
  0
DIMSTYLE
105
429
102
{ACAD_REACTORS
330
42A
102
}
330
A
100
AcDbSymbolTableRecord
100
AcDbDimStyleTableRecord
  2
ME10_DIM_17
 70
     0
 41
16.0
 42
5.0
 44
5.0
 73
     0
 74
     0
 77
     1
 78
     8
140
16.0
147
3.5
172
     1
173
     1
176
     2
177
     2
178
     2
271
     2
340
50
343
33A
344
33A
  0
DIMSTYLE
105
438
102
{ACAD_REACTORS
330
439
102
}
330
A
100
AcDbSymbolTableRecord
100
AcDbDimStyleTableRecord
  2
ME10_DIM_18
 70
     0
 41
16.0
 42
5.0
 44
5.0
 73
     0
 74
     0
 77
     1
 78
     8
140
16.0
147
5.0
172
     1
173
     1
176
     2
177
     2
178
     2
271
     2
340
50
343
33A
344
33A
  0
DIMSTYLE
105
447
102
{ACAD_REACTORS
330
448
102
}
330
A
100
AcDbSymbolTableRecord
100
AcDbDimStyleTableRecord
  2
ME10_DIM_19
 70
     0
 41
16.0
 42
5.0
 44
5.0
 73
     0
 74
     0
 77
     1
 78
     8
140
16.0
147
5.0
172
     1
173
     1
176
     2
177
     2
178
     2
271
     2
340
50
343
33A
344
33A
  0
ENDTAB
  0
TABLE
  2
BLOCK_RECORD
  5
1
330
0
100
AcDbSymbolTable
 70
    27
  0
BLOCK_RECORD
  5
1F
330
1
100
AcDbSymbolTableRecord
100
AcDbBlockTableRecord
  2
*Model_Space
340
22
  0
BLOCK_RECORD
  5
1B
330
1
100
AcDbSymbolTableRecord
100
AcDbBlockTableRecord
  2
*Paper_Space
340
1E
  0
BLOCK_RECORD
  5
23
330
1
100
AcDbSymbolTableRecord
100
AcDbBlockTableRecord
  2
*Paper_Space0
340
26
  0
BLOCK_RECORD
  5
32
330
1
100
AcDbSymbolTableRecord
100
AcDbBlockTableRecord
  2
Zuwaku-A3-web
340
0
102
{BLKREFS
331
35
102
}
  0
BLOCK_RECORD
  5
32F
330
1
100
AcDbSymbolTableRecord
100
AcDbBlockTableRecord
  2
*D02
340
0
  0
BLOCK_RECORD
  5
33A
330
1
100
AcDbSymbolTableRecord
100
AcDbBlockTableRecord
  2
_Open30
340
0
  0
BLOCK_RECORD
  5
342
330
1
100
AcDbSymbolTableRecord
100
AcDbBlockTableRecord
  2
*D14
340
0
  0
BLOCK_RECORD
  5
351
330
1
100
AcDbSymbolTableRecord
100
AcDbBlockTableRecord
  2
*D25
340
0
  0
BLOCK_RECORD
  5
360
330
1
100
AcDbSymbolTableRecord
100
AcDbBlockTableRecord
  2
*D36
340
0
  0
BLOCK_RECORD
  5
36F
330
1
100
AcDbSymbolTableRecord
100
AcDbBlockTableRecord
  2
*D47
340
0
  0
BLOCK_RECORD
  5
37E
330
1
100
AcDbSymbolTableRecord
100
AcDbBlockTableRecord
  2
*D58
340
0
  0
BLOCK_RECORD
  5
38B
330
1
100
AcDbSymbolTableRecord
100
AcDbBlockTableRecord
  2
*D69
340
0
  0
BLOCK_RECORD
  5
398
330
1
100
AcDbSymbolTableRecord
100
AcDbBlockTableRecord
  2
*D710
340
0
  0
BLOCK_RECORD
  5
3A5
330
1
100
AcDbSymbolTableRecord
100
AcDbBlockTableRecord
  2
*D811
340
0
  0
BLOCK_RECORD
  5
3B4
330
1
100
AcDbSymbolTableRecord
100
AcDbBlockTableRecord
  2
*D912
340
0
  0
BLOCK_RECORD
  5
3C1
330
1
100
AcDbSymbolTableRecord
100
AcDbBlockTableRecord
  2
*D1013
340
0
  0
BLOCK_RECORD
  5
3CE
330
1
100
AcDbSymbolTableRecord
100
AcDbBlockTableRecord
  2
*D1114
340
0
  0
BLOCK_RECORD
  5
3DB
330
1
100
AcDbSymbolTableRecord
100
AcDbBlockTableRecord
  2
*D1215
340
0
  0
BLOCK_RECORD
  5
3E8
330
1
100
AcDbSymbolTableRecord
100
AcDbBlockTableRecord
  2
*D1316
340
0
  0
BLOCK_RECORD
  5
3F5
330
1
100
AcDbSymbolTableRecord
100
AcDbBlockTableRecord
  2
*D1417
340
0
  0
BLOCK_RECORD
  5
404
330
1
100
AcDbSymbolTableRecord
100
AcDbBlockTableRecord
  2
*D1518
340
0
  0
BLOCK_RECORD
  5
411
330
1
100
AcDbSymbolTableRecord
100
AcDbBlockTableRecord
  2
*D1619
340
0
  0
BLOCK_RECORD
  5
41E
330
1
100
AcDbSymbolTableRecord
100
AcDbBlockTableRecord
  2
*D1720
340
0
  0
BLOCK_RECORD
  5
42B
330
1
100
AcDbSymbolTableRecord
100
AcDbBlockTableRecord
  2
*D1821
340
0
  0
BLOCK_RECORD
  5
43A
330
1
100
AcDbSymbolTableRecord
100
AcDbBlockTableRecord
  2
*D1922
340
0
  0
BLOCK_RECORD
  5
449
330
1
100
AcDbSymbolTableRecord
100
AcDbBlockTableRecord
  2
*D2023
340
0
102
{BLKREFS
331
451
102
}
  0
BLOCK_RECORD
  5
452
330
1
100
AcDbSymbolTableRecord
100
AcDbBlockTableRecord
  2
*D2124
340
0
102
{BLKREFS
331
45A
102
}
  0
BLOCK_RECORD
  5
45B
330
1
100
AcDbSymbolTableRecord
100
AcDbBlockTableRecord
  2
*D2225
340
0
102
{BLKREFS
331
463
102
}
  0
BLOCK_RECORD
  5
464
330
1
100
AcDbSymbolTableRecord
100
AcDbBlockTableRecord
  2
*D2326
340
0
102
{BLKREFS
331
46C
102
}
  0
ENDTAB
  0
ENDSEC
  0
SECTION
  2
BLOCKS
  0
BLOCK
  5
20
330
1F
100
AcDbEntity
  8
0
100
AcDbBlockBegin
  2
*Model_Space
 70
     0
 71
     0
 10
0.0
 20
0.0
 30
0.0
  3
*Model_Space
  1

  0
ENDBLK
  5
21
330
1F
100
AcDbEntity
  8
0
100
AcDbBlockEnd
  0
BLOCK
  5
1C
330
1B
100
AcDbEntity
 67
     1
  8
0
100
AcDbBlockBegin
  2
*Paper_Space
 70
     0
 71
     0
 10
0.0
 20
0.0
 30
0.0
  3
*Paper_Space
  1

  0
ENDBLK
  5
1D
330
1B
100
AcDbEntity
 67
     1
  8
0
100
AcDbBlockEnd
  0
BLOCK
  5
24
330
23
100
AcDbEntity
  8
0
100
AcDbBlockBegin
  2
*Paper_Space0
 70
     0
 71
     0
 10
0.0
 20
0.0
 30
0.0
  3
*Paper_Space0
  1

  0
ENDBLK
  5
25
330
23
100
AcDbEntity
  8
0
100
AcDbBlockEnd
  0
BLOCK
  5
33
330
32
100
AcDbEntity
  8
0
100
AcDbBlockBegin
  2
Zuwaku-A3-web
 70
     0
 71
     0
 10
445.0190967716898
 20
97.74625505694399
 30
0.0
  3
Zuwaku-A3-web
  1

  0
POINT
  5
36
330
32
100
AcDbEntity
  8
1
 62
     3
 60
     1
100
AcDbPoint
 10
410.51909677169
 20
-16.253744943056
 30
0.0
  0
POINT
  5
37
330
32
100
AcDbEntity
  8
1
 62
     3
 60
     1
100
AcDbPoint
 10
450.01909677169
 20
-21.253744943056
 30
0.0
  0
POINT
  5
38
330
32
100
AcDbEntity
  8
1
 62
     3
 60
     1
100
AcDbPoint
 10
410.51909677169
 20
-21.253744943056
 30
0.0
  0
POINT
  5
39
330
32
100
AcDbEntity
  8
1
 62
     3
 60
     1
100
AcDbPoint
 10
257.51909677169
 20
-23.753744943056
 30
0.0
  0
POINT
  5
3A
330
32
100
AcDbEntity
  8
1
 62
     3
 60
     1
100
AcDbPoint
 10
250.51909677169
 20
-23.753744943056
 30
0.0
  0
POINT
  5
3B
330
32
100
AcDbEntity
  8
1
 62
     3
 60
     1
100
AcDbPoint
 10
248.01909677169
 20
-36.253744943056
 30
0.0
  0
LINE
  5
3C
330
32
100
AcDbEntity
  8
1
  6
Continuous
 62
     4
100
AcDbLine
 10
437.5136739288993
 20
-34.11976910057401
 30
0.0
 11
443.2457222439354
 21
-28.387720785538
 31
0.0
  0
LINE
  5
3D
330
32
100
AcDbEntity
  8
1
  6
Continuous
 62
     7
100
AcDbLine
 10
248.01909677169
 20
-36.253744943056
 30
0.0
 11
642.0190967716901
 21
-36.253744943056
 31
0.0
  0
LINE
  5
3E
330
32
100
AcDbEntity
  8
1
  6
Continuous
 62
     4
100
AcDbLine
 10
410.51909677169
 20
-21.253744943056
 30
0.0
 11
450.01909677169
 21
-21.253744943056
 31
0.0
  0
LINE
  5
3F
330
32
100
AcDbEntity
  8
1
  6
Continuous
 62
     3
100
AcDbLine
 10
257.51909677169
 20
-23.753744943056
 30
0.0
 11
254.01909677169
 21
-17.253744943056
 31
0.0
  0
LINE
  5
40
330
32
100
AcDbEntity
  8
1
  6
Continuous
 62
     3
100
AcDbLine
 10
250.51909677169
 20
-23.753744943056
 30
0.0
 11
257.51909677169
 21
-23.753744943056
 31
0.0
  0
LINE
  5
41
330
32
100
AcDbEntity
  8
1
  6
Continuous
 62
     3
100
AcDbLine
 10
254.01909677169
 20
-17.253744943056
 30
0.0
 11
250.51909677169
 21
-23.753744943056
 31
0.0
  0
LINE
  5
42
330
32
100
AcDbEntity
  8
1
  6
Continuous
 62
     4
100
AcDbLine
 10
260.01909677169
 20
-16.253744943056
 30
0.0
 11
260.01909677169
 21
-36.253744943056
 31
0.0
  0
LINE
  5
43
330
32
100
AcDbEntity
  8
1
  6
Continuous
 62
     4
100
AcDbLine
 10
248.01909677169
 20
-26.253744943056
 30
0.0
 11
642.0190967716901
 21
-26.253744943056
 31
0.0
  0
LINE
  5
44
330
32
100
AcDbEntity
  8
1
  6
Continuous
 62
     7
100
AcDbLine
 10
642.0190967716897
 20
231.746255056944
 30
0.0
 11
248.01909677169
 21
231.746255056944
 31
0.0
  0
LINE
  5
45
330
32
100
AcDbEntity
  8
1
  6
Continuous
 62
     7
100
AcDbLine
 10
642.0190967716901
 20
-36.253744943056
 30
0.0
 11
642.0190967716897
 21
231.746255056944
 31
0.0
  0
LINE
  5
46
330
32
100
AcDbEntity
  8
1
  6
Continuous
 62
     4
100
AcDbLine
 10
450.01909677169
 20
-36.253744943056
 30
0.0
 11
450.01909677169
 21
-16.253744943056
 31
0.0
  0
LINE
  5
47
330
32
100
AcDbEntity
  8
1
  6
Continuous
 62
     4
100
AcDbLine
 10
410.51909677169
 20
-36.253744943056
 30
0.0
 11
410.51909677169
 21
-16.253744943056
 31
0.0
  0
LINE
  5
48
330
32
100
AcDbEntity
  8
1
  6
Continuous
 62
     4
100
AcDbLine
 10
531.0190967716901
 20
-16.253744943056
 30
0.0
 11
531.0190967716901
 21
-36.253744943056
 31
0.0
  0
LINE
  5
49
330
32
100
AcDbEntity
  8
1
  6
Continuous
 62
     4
100
AcDbLine
 10
475.01909677169
 20
-16.253744943056
 30
0.0
 11
475.01909677169
 21
-36.253744943056
 31
0.0
  0
LINE
  5
4A
330
32
100
AcDbEntity
  8
1
  6
Continuous
 62
     4
100
AcDbLine
 10
418.51909677169
 20
-26.253744943056
 30
0.0
 11
418.51909677169
 21
-36.253744943056
 31
0.0
  0
LINE
  5
4B
330
32
100
AcDbEntity
  8
1
  6
Continuous
 62
     4
100
AcDbLine
 10
314.01909677169
 20
-16.253744943056
 30
0.0
 11
314.01909677169
 21
-36.253744943056
 31
0.0
  0
LINE
  5
4C
330
32
100
AcDbEntity
  8
1
  6
Continuous
 62
     7
100
AcDbLine
 10
248.01909677169
 20
231.746255056944
 30
0.0
 11
248.01909677169
 21
-36.253744943056
 31
0.0
  0
LINE
  5
4D
330
32
100
AcDbEntity
  8
1
  6
Continuous
 62
     4
100
AcDbLine
 10
421.7636739288993
 20
-34.11976910057401
 30
0.0
 11
427.4957222439354
 21
-28.387720785538
 31
0.0
  0
LINE
  5
4E
330
32
100
AcDbEntity
  8
1
  6
Continuous
 62
     4
100
AcDbLine
 10
642.0190967716901
 20
-16.253744943056
 30
0.0
 11
248.01909677169
 21
-16.253744943056
 31
0.0
  0
LINE
  5
4F
330
32
100
AcDbEntity
  8
1
  6
Continuous
 62
     4
100
AcDbLine
 10
543.0190967716901
 20
-16.253744943056
 30
0.0
 11
543.0190967716901
 21
-36.253744943056
 31
0.0
  0
MTEXT
  5
51
330
32
100
AcDbEntity
  8
1
 62
     2
100
AcDbMText
 10
428.9957222439354
 20
-32.503744943056
 30
0.0
 40
4.0
 41
0.0
 71
     5
 72
     1
  1
5
  7
CONVERTER_1
 73
     1
 44
0.60024009603842
  0
MTEXT
  5
52
330
32
100
AcDbEntity
  8
1
 62
     2
100
AcDbMText
 10
421.202529639597
 20
-30.003744943056
 30
0.0
 40
4.0
 41
0.0
 71
     5
 72
     1
  1
1
  7
CONVERTER_1
 73
     1
 44
0.60024009603842
  0
MTEXT
  5
54
330
32
100
AcDbEntity
  8
1
 62
     2
100
AcDbMText
 10
537.0190967716901
 20
-33.503744943056
 30
0.0
 40
3.5
 41
0.0
 71
     5
 72
     1
  1
番号
  7
CONVERTER_2
 73
     1
 44
0.78031212484994
  0
MTEXT
  5
55
330
32
100
AcDbEntity
  8
1
 62
     2
100
AcDbMText
 10
414.51909677169
 20
-33.503744943056
 30
0.0
 40
3.5
 41
0.0
 71
     5
 72
     1
  1
度
  7
CONVERTER_2
 73
     1
 44
0.78031212484994
  0
MTEXT
  5
57
330
32
100
AcDbEntity
  8
1
 62
     2
100
AcDbMText
 10
253.6971748018617
 20
-33.503744943056
 30
0.0
 40
3.5
 41
0.0
 71
     5
 72
     1
  1
番号
  7
CONVERTER_3
 73
     1
 44
0.78031212484994
  0
MTEXT
  5
58
330
32
100
AcDbEntity
  8
1
 62
     7
100
AcDbMText
 10
362.26909677169
 20
-21.253744943056
 30
0.0
 40
5.0
 41
0.0
 71
     5
 72
     1
  1
技術情報サービス
  7
CONVERTER_3
 73
     1
 44
1.20048019207683
  0
MTEXT
  5
5A
330
32
100
AcDbEntity
  8
1
 62
     2
100
AcDbMText
 10
462.51909677169
 20
-21.253744943056
 30
0.0
 40
4.0
 41
0.0
 71
     5
 72
     1
  1
シリーズ名
  7
CONVERTER_4
 73
     1
 44
1.32052821128451
  0
MTEXT
  5
5B
330
32
100
AcDbEntity
  8
1
 62
     2
100
AcDbMText
 10
462.51909677169
 20
-31.253744943056
 30
0.0
 40
4.0
 41
0.0
 71
     5
 72
     1
  1
機　種
  7
CONVERTER_3
 73
     1
 44
1.32052821128451
  0
MTEXT
  5
5C
330
32
100
AcDbEntity
  8
1
 62
     2
100
AcDbMText
 10
437.76909677169
 20
-29.753744943056
 30
0.0
 40
4.0
 41
0.0
 71
     5
 72
     1
  1
1
  7
CONVERTER_1
 73
     1
 44
1.32052821128451
  0
MTEXT
  5
5E
330
32
100
AcDbEntity
  8
1
 62
     7
100
AcDbMText
 10
362.26909677169
 20
-31.253744943056
 30
0.0
 40
4.0
 41
0.0
 71
     5
 72
     1
  1
MARUYASU KIKAI CO.,LTD.
  7
CONVERTER_5
 73
     1
 44
1.32052821128451
  0
MTEXT
  5
5F
330
32
100
AcDbEntity
  8
1
 62
     2
100
AcDbMText
 10
254.01909677169
 20
-29.003744943056
 30
0.0
 40
3.5
 41
0.0
 71
     5
 72
     1
  1
改訂
  7
CONVERTER_3
 73
     1
 44
0.78031212484994
  0
MTEXT
  5
60
330
32
100
AcDbEntity
  8
1
 62
     2
100
AcDbMText
 10
287.01909677169
 20
-31.253744943056
 30
0.0
 40
3.5
 41
0.0
 71
     5
 72
     1
  1
改　 訂　 記　 事
  7
CONVERTER_3
 73
     1
 44
1.32052821128451
  0
MTEXT
  5
61
330
32
100
AcDbEntity
  8
1
 62
     2
100
AcDbMText
 10
414.51909677169
 20
-29.003744943056
 30
0.0
 40
3.5
 41
0.0
 71
     5
 72
     1
  1
尺
  7
CONVERTER_2
 73
     1
 44
0.78031212484994
  0
MTEXT
  5
62
330
32
100
AcDbEntity
  8
1
 62
     2
100
AcDbMText
 10
430.26909677169
 20
-18.753744943056
 30
0.0
 40
3.5
 41
0.0
 71
     5
 72
     1
  1
年　　月　　日
  7
CONVERTER_3
 73
     1
 44
0.78031212484994
  0
MTEXT
  5
63
330
32
100
AcDbEntity
  8
1
 62
     2
100
AcDbMText
 10
537.0190967716901
 20
-29.003744943056
 30
0.0
 40
3.5
 41
0.0
 71
     5
 72
     1
  1
図面
  7
CONVERTER_2
 73
     1
 44
0.78031212484994
  0
MTEXT
  5
64
330
32
100
AcDbEntity
  8
1
 62
     2
100
AcDbMText
 10
537.0190967716901
 20
-21.253744943056
 30
0.0
 40
4.0
 41
0.0
 71
     5
 72
     1
  1
図名
  7
CONVERTER_3
 73
     1
 44
1.32052821128451
  0
MTEXT
  5
65
330
32
100
AcDbEntity
  8
1
 62
     4
100
AcDbMText
 10
641.4756511640592
 20
-36.50989826401169
 30
0.0
 40
2.0
 41
0.0
 71
     3
 72
     1
  1
A3
  7
CONVERTER_1
 73
     1
 44
1.32052821128451
  0
ENDBLK
  5
34
330
32
100
AcDbEntity
  8
0
100
AcDbBlockEnd
  0
BLOCK
  5
338
330
32F
100
AcDbEntity
  8
0
100
AcDbBlockBegin
  2
*D02
 70
     1
 71
     0
 10
0.0
 20
0.0
 30
0.0
  3
*D02
  1

  0
LINE
  5
330
330
32F
100
AcDbEntity
  8
1
  6
Continuous
 62
     2
100
AcDbLine
 10
2042.914875933637
 20
183.3175914101144
 30
0.0
 11
2042.914875933637
 21
63.31759141011438
 31
0.0
  0
LINE
  5
331
330
32F
100
AcDbEntity
  8
1
  6
Continuous
 62
     2
100
AcDbLine
 10
2099.304786184063
 20
183.3175914101144
 30
0.0
 11
2037.914875933637
 21
183.3175914101144
 31
0.0
  0
LINE
  5
332
330
32F
100
AcDbEntity
  8
1
  6
Continuous
 62
     2
100
AcDbLine
 10
2092.404786184026
 20
63.31759141011438
 30
0.0
 11
2037.914875933637
 21
63.31759141011438
 31
0.0
  0
LINE
  5
333
330
32F
100
AcDbEntity
  8
1
 62
     2
100
AcDbLine
 10
2042.914875933637
 20
183.3175914101144
 30
0.0
 11
2047.202063012535
 21
167.3175914101144
 31
0.0
  0
LINE
  5
334
330
32F
100
AcDbEntity
  8
1
 62
     2
100
AcDbLine
 10
2042.914875933637
 20
183.3175914101144
 30
0.0
 11
2038.627688854739
 21
167.3175914101144
 31
0.0
  0
LINE
  5
335
330
32F
100
AcDbEntity
  8
1
 62
     2
100
AcDbLine
 10
2042.914875933637
 20
63.31759141011438
 30
0.0
 11
2038.627688854739
 21
79.31759141011438
 31
0.0
  0
LINE
  5
336
330
32F
100
AcDbEntity
  8
1
 62
     2
100
AcDbLine
 10
2042.914875933637
 20
63.31759141011438
 30
0.0
 11
2047.202063012535
 21
79.31759141011438
 31
0.0
  0
MTEXT
  5
337
330
32F
100
AcDbEntity
  8
1
 62
     2
100
AcDbMText
 10
2037.914875933637
 20
104.8159191763177
 30
0.0
 40
16.0
 41
0.0
 71
     7
 72
     1
  1
120
  7
CONVERTER_1
 11
0.0
 21
1.0
 31
0.0
 73
     1
 44
0.60024009603842
  0
ENDBLK
  5
339
330
32F
100
AcDbEntity
  8
0
100
AcDbBlockEnd
  0
BLOCK
  5
33B
330
33A
100
AcDbEntity
  8
0
100
AcDbBlockBegin
  2
_Open30
 70
     0
 71
     0
 10
0.0
 20
0.0
 30
0.0
  3
_Open30
  1

  0
LINE
  5
33D
330
33A
100
AcDbEntity
  8
0
  6
ByBlock
 62
     0
370
    -2
100
AcDbLine
 10
-1.0
 20
0.267949
 30
0.0
 11
0.0
 21
0.0
 31
0.0
  0
LINE
  5
33E
330
33A
100
AcDbEntity
  8
0
  6
ByBlock
 62
     0
370
    -2
100
AcDbLine
 10
0.0
 20
0.0
 30
0.0
 11
-1.0
 21
-0.267949
 31
0.0
  0
LINE
  5
33F
330
33A
100
AcDbEntity
  8
0
  6
ByBlock
 62
     0
370
    -2
100
AcDbLine
 10
0.0
 20
0.0
 30
0.0
 11
-1.0
 21
0.0
 31
0.0
  0
ENDBLK
  5
33C
330
33A
100
AcDbEntity
  8
0
100
AcDbBlockEnd
  0
BLOCK
  5
34D
330
342
100
AcDbEntity
  8
0
100
AcDbBlockBegin
  2
*D14
 70
     1
 71
     0
 10
0.0
 20
0.0
 30
0.0
  3
*D14
  1

  0
LINE
  5
343
330
342
100
AcDbEntity
  8
1
  6
Continuous
 62
     2
100
AcDbLine
 10
2196.916710164191
 20
179.3175914101143
 30
0.0
 11
2196.916710164191
 21
147.3175914101143
 31
0.0
  0
LINE
  5
344
330
342
100
AcDbEntity
  8
1
  6
Continuous
 62
     2
100
AcDbLine
 10
2196.916710164191
 20
183.3175914101143
 30
0.0
 11
2196.916710164191
 21
179.3175914101143
 31
0.0
  0
LINE
  5
345
330
342
100
AcDbEntity
  8
1
  6
Continuous
 62
     2
100
AcDbLine
 10
2196.916710164191
 20
220.011104624798
 30
0.0
 11
2196.916710164191
 21
183.3175914101143
 31
0.0
  0
LINE
  5
346
330
342
100
AcDbEntity
  8
1
  6
Continuous
 62
     2
100
AcDbLine
 10
2140.304786184032
 20
183.3175914101143
 30
0.0
 11
2201.916710164191
 21
183.3175914101143
 31
0.0
  0
LINE
  5
347
330
342
100
AcDbEntity
  8
1
  6
Continuous
 62
     2
100
AcDbLine
 10
2140.304786184032
 20
179.3175914101143
 30
0.0
 11
2201.916710164191
 21
179.3175914101143
 31
0.0
  0
LINE
  5
348
330
342
100
AcDbEntity
  8
1
 62
     2
100
AcDbLine
 10
2196.916710164191
 20
183.3175914101143
 30
0.0
 11
2192.629523085293
 21
199.3175914101143
 31
0.0
  0
LINE
  5
349
330
342
100
AcDbEntity
  8
1
 62
     2
100
AcDbLine
 10
2196.916710164191
 20
183.3175914101143
 30
0.0
 11
2201.203897243089
 21
199.3175914101143
 31
0.0
  0
LINE
  5
34A
330
342
100
AcDbEntity
  8
1
 62
     2
100
AcDbLine
 10
2196.916710164191
 20
179.3175914101143
 30
0.0
 11
2201.203897243089
 21
163.3175914101143
 31
0.0
  0
LINE
  5
34B
330
342
100
AcDbEntity
  8
1
 62
     2
100
AcDbLine
 10
2196.916710164191
 20
179.3175914101143
 30
0.0
 11
2192.629523085293
 21
163.3175914101143
 31
0.0
  0
MTEXT
  5
34C
330
342
100
AcDbEntity
  8
1
 62
     2
100
AcDbMText
 10
2191.916710164191
 20
210.4111046247978
 30
0.0
 40
16.0
 41
0.0
 71
     7
 72
     1
  1
4
  7
CONVERTER_1
 11
0.0
 21
1.0
 31
0.0
 73
     1
 44
0.60024009603842
  0
ENDBLK
  5
34E
330
342
100
AcDbEntity
  8
0
100
AcDbBlockEnd
  0
BLOCK
  5
35C
330
351
100
AcDbEntity
  8
0
100
AcDbBlockBegin
  2
*D25
 70
     1
 71
     0
 10
0.0
 20
0.0
 30
0.0
  3
*D25
  1

  0
LINE
  5
352
330
351
100
AcDbEntity
  8
1
  6
Continuous
 62
     2
100
AcDbLine
 10
2120.304786184031
 20
224.0718544436668
 30
0.0
 11
2171.846852085087
 21
224.0718544436668
 31
0.0
  0
LINE
  5
353
330
351
100
AcDbEntity
  8
1
  6
Continuous
 62
     2
100
AcDbLine
 10
2100.304786184062
 20
224.0718544436668
 30
0.0
 11
2120.304786184031
 21
224.0718544436668
 31
0.0
  0
LINE
  5
354
330
351
100
AcDbEntity
  8
1
  6
Continuous
 62
     2
100
AcDbLine
 10
2068.304786184062
 20
224.0718544436668
 30
0.0
 11
2100.304786184062
 21
224.0718544436668
 31
0.0
  0
LINE
  5
355
330
351
100
AcDbEntity
  8
1
  6
Continuous
 62
     2
100
AcDbLine
 10
2100.304786184062
 20
184.3175914101139
 30
0.0
 11
2100.304786184062
 21
229.0718544436668
 31
0.0
  0
LINE
  5
356
330
351
100
AcDbEntity
  8
1
  6
Continuous
 62
     2
100
AcDbLine
 10
2120.304786184031
 20
192.2418692648344
 30
0.0
 11
2120.304786184031
 21
229.0718544436668
 31
0.0
  0
LINE
  5
357
330
351
100
AcDbEntity
  8
1
 62
     2
100
AcDbLine
 10
2100.304786184062
 20
224.0718544436668
 30
0.0
 11
2084.304786184062
 21
219.7846673647688
 31
0.0
  0
LINE
  5
358
330
351
100
AcDbEntity
  8
1
 62
     2
100
AcDbLine
 10
2100.304786184062
 20
224.0718544436668
 30
0.0
 11
2084.304786184062
 21
228.3590415225648
 31
0.0
  0
LINE
  5
359
330
351
100
AcDbEntity
  8
1
 62
     2
100
AcDbLine
 10
2120.304786184031
 20
224.0718544436668
 30
0.0
 11
2136.304786184031
 21
228.3590415225648
 31
0.0
  0
LINE
  5
35A
330
351
100
AcDbEntity
  8
1
 62
     2
100
AcDbLine
 10
2120.304786184031
 20
224.0718544436668
 30
0.0
 11
2136.304786184031
 21
219.7846673647688
 31
0.0
  0
MTEXT
  5
35B
330
351
100
AcDbEntity
  8
1
 62
     2
100
AcDbMText
 10
2147.846852085087
 20
229.0718544436668
 30
0.0
 40
16.0
 41
0.0
 71
     7
 72
     1
  1
20
  7
CONVERTER_1
 11
0.9999999999970621
 21
2.424068405545307E-6
 31
0.0
 73
     1
 44
0.60024009603842
  0
ENDBLK
  5
35D
330
351
100
AcDbEntity
  8
0
100
AcDbBlockEnd
  0
BLOCK
  5
36B
330
360
100
AcDbEntity
  8
0
100
AcDbBlockBegin
  2
*D36
 70
     1
 71
     0
 10
0.0
 20
0.0
 30
0.0
  3
*D36
  1

  0
LINE
  5
361
330
360
100
AcDbEntity
  8
1
  6
Continuous
 62
     2
100
AcDbLine
 10
1591.663462391636
 20
534.4553821433315
 30
0.0
 11
1623.663462391636
 21
534.4553821433315
 31
0.0
  0
LINE
  5
362
330
360
100
AcDbEntity
  8
1
  6
Continuous
 62
     2
100
AcDbLine
 10
1553.663462391636
 20
534.4553821433315
 30
0.0
 11
1591.663462391636
 21
534.4553821433315
 31
0.0
  0
LINE
  5
363
330
360
100
AcDbEntity
  8
1
  6
Continuous
 62
     2
100
AcDbLine
 10
1521.663462391636
 20
534.4553821433315
 30
0.0
 11
1553.663462391636
 21
534.4553821433315
 31
0.0
  0
LINE
  5
364
330
360
100
AcDbEntity
  8
1
  6
Continuous
 62
     2
100
AcDbLine
 10
1553.663462391636
 20
502.8922770736363
 30
0.0
 11
1553.663462391636
 21
539.4553821433315
 31
0.0
  0
LINE
  5
365
330
360
100
AcDbEntity
  8
1
  6
Continuous
 62
     2
100
AcDbLine
 10
1591.663462391636
 20
502.8922770736363
 30
0.0
 11
1591.663462391636
 21
539.4553821433315
 31
0.0
  0
LINE
  5
366
330
360
100
AcDbEntity
  8
1
 62
     2
100
AcDbLine
 10
1553.663462391636
 20
534.4553821433315
 30
0.0
 11
1537.663462391636
 21
530.1681950644335
 31
0.0
  0
LINE
  5
367
330
360
100
AcDbEntity
  8
1
 62
     2
100
AcDbLine
 10
1553.663462391636
 20
534.4553821433315
 30
0.0
 11
1537.663462391636
 21
538.7425692222295
 31
0.0
  0
LINE
  5
368
330
360
100
AcDbEntity
  8
1
 62
     2
100
AcDbLine
 10
1591.663462391636
 20
534.4553821433315
 30
0.0
 11
1607.663462391636
 21
538.7425692222295
 31
0.0
  0
LINE
  5
369
330
360
100
AcDbEntity
  8
1
 62
     2
100
AcDbLine
 10
1591.663462391636
 20
534.4553821433315
 30
0.0
 11
1607.663462391636
 21
530.1681950644335
 31
0.0
  0
MTEXT
  5
36A
330
360
100
AcDbEntity
  8
1
 62
     2
100
AcDbMText
 10
1559.950571357618
 20
539.4553821433315
 30
0.0
 40
16.0
 41
0.0
 71
     7
 72
     1
  1
38
  7
CONVERTER_1
 11
0.9999999999970621
 21
2.424068405545307E-6
 31
0.0
 73
     1
 44
0.60024009603842
  0
ENDBLK
  5
36C
330
360
100
AcDbEntity
  8
0
100
AcDbBlockEnd
  0
BLOCK
  5
37A
330
36F
100
AcDbEntity
  8
0
100
AcDbBlockBegin
  2
*D47
 70
     1
 71
     0
 10
0.0
 20
0.0
 30
0.0
  3
*D47
  1

  0
LINE
  5
370
330
36F
100
AcDbEntity
  8
1
  6
Continuous
 62
     2
100
AcDbLine
 10
2741.663462391635
 20
534.4553821433315
 30
0.0
 11
2773.663462391635
 21
534.4553821433315
 31
0.0
  0
LINE
  5
371
330
36F
100
AcDbEntity
  8
1
  6
Continuous
 62
     2
100
AcDbLine
 10
2703.663462391635
 20
534.4553821433315
 30
0.0
 11
2741.663462391635
 21
534.4553821433315
 31
0.0
  0
LINE
  5
372
330
36F
100
AcDbEntity
  8
1
  6
Continuous
 62
     2
100
AcDbLine
 10
2671.663462391635
 20
534.4553821433315
 30
0.0
 11
2703.663462391635
 21
534.4553821433315
 31
0.0
  0
LINE
  5
373
330
36F
100
AcDbEntity
  8
1
  6
Continuous
 62
     2
100
AcDbLine
 10
2703.663462391635
 20
502.8922770736363
 30
0.0
 11
2703.663462391635
 21
539.4553821433315
 31
0.0
  0
LINE
  5
374
330
36F
100
AcDbEntity
  8
1
  6
Continuous
 62
     2
100
AcDbLine
 10
2741.663462391635
 20
502.8922770736363
 30
0.0
 11
2741.663462391635
 21
539.4553821433315
 31
0.0
  0
LINE
  5
375
330
36F
100
AcDbEntity
  8
1
 62
     2
100
AcDbLine
 10
2703.663462391635
 20
534.4553821433315
 30
0.0
 11
2687.663462391635
 21
530.1681950644335
 31
0.0
  0
LINE
  5
376
330
36F
100
AcDbEntity
  8
1
 62
     2
100
AcDbLine
 10
2703.663462391635
 20
534.4553821433315
 30
0.0
 11
2687.663462391635
 21
538.7425692222295
 31
0.0
  0
LINE
  5
377
330
36F
100
AcDbEntity
  8
1
 62
     2
100
AcDbLine
 10
2741.663462391635
 20
534.4553821433315
 30
0.0
 11
2757.663462391635
 21
538.7425692222295
 31
0.0
  0
LINE
  5
378
330
36F
100
AcDbEntity
  8
1
 62
     2
100
AcDbLine
 10
2741.663462391635
 20
534.4553821433315
 30
0.0
 11
2757.663462391635
 21
530.1681950644335
 31
0.0
  0
MTEXT
  5
379
330
36F
100
AcDbEntity
  8
1
 62
     2
100
AcDbMText
 10
2711.10738169694
 20
539.4553821433315
 30
0.0
 40
16.0
 41
0.0
 71
     7
 72
     1
  1
38
  7
CONVERTER_1
 11
0.9999999999970621
 21
2.424068405545307E-6
 31
0.0
 73
     1
 44
0.60024009603842
  0
ENDBLK
  5
37B
330
36F
100
AcDbEntity
  8
0
100
AcDbBlockEnd
  0
BLOCK
  5
387
330
37E
100
AcDbEntity
  8
0
100
AcDbBlockBegin
  2
*D58
 70
     1
 71
     0
 10
0.0
 20
0.0
 30
0.0
  3
*D58
  1

  0
LINE
  5
37F
330
37E
100
AcDbEntity
  8
1
  6
Continuous
 62
     2
100
AcDbLine
 10
1572.663462391636
 20
679.8265807122048
 30
0.0
 11
2722.663462391636
 21
679.8265807122048
 31
0.0
  0
LINE
  5
380
330
37E
100
AcDbEntity
  8
1
  6
Continuous
 62
     2
100
AcDbLine
 10
1572.663462391636
 20
748.583613678612
 30
0.0
 11
1572.663462391636
 21
674.8265807122048
 31
0.0
  0
LINE
  5
381
330
37E
100
AcDbEntity
  8
1
  6
Continuous
 62
     2
100
AcDbLine
 10
2722.663462391636
 20
748.583613678612
 30
0.0
 11
2722.663462391636
 21
674.8265807122048
 31
0.0
  0
LINE
  5
382
330
37E
100
AcDbEntity
  8
1
 62
     2
100
AcDbLine
 10
1572.663462391636
 20
679.8265807122048
 30
0.0
 11
1588.663462391636
 21
684.1137677911028
 31
0.0
  0
LINE
  5
383
330
37E
100
AcDbEntity
  8
1
 62
     2
100
AcDbLine
 10
1572.663462391636
 20
679.8265807122048
 30
0.0
 11
1588.663462391636
 21
675.5393936333068
 31
0.0
  0
LINE
  5
384
330
37E
100
AcDbEntity
  8
1
 62
     2
100
AcDbLine
 10
2722.663462391636
 20
679.8265807122048
 30
0.0
 11
2706.663462391636
 21
675.5393936333068
 31
0.0
  0
LINE
  5
385
330
37E
100
AcDbEntity
  8
1
 62
     2
100
AcDbLine
 10
2722.663462391636
 20
679.8265807122048
 30
0.0
 11
2706.663462391636
 21
684.1137677911028
 31
0.0
  0
MTEXT
  5
386
330
37E
100
AcDbEntity
  8
1
 62
     2
100
AcDbMText
 10
1979.583776444418
 20
684.8265807122048
 30
0.0
 40
16.0
 41
0.0
 71
     7
 72
     1
  1
コンベヤ取付ブラケット 取付可能範囲
  7
CONVERTER_3
 11
0.9999999999970621
 21
2.424068405545307E-6
 31
0.0
 73
     1
 44
0.60024009603842
  0
ENDBLK
  5
388
330
37E
100
AcDbEntity
  8
0
100
AcDbBlockEnd
  0
BLOCK
  5
394
330
38B
100
AcDbEntity
  8
0
100
AcDbBlockBegin
  2
*D69
 70
     1
 71
     0
 10
0.0
 20
0.0
 30
0.0
  3
*D69
  1

  0
LINE
  5
38C
330
38B
100
AcDbEntity
  8
1
  6
Continuous
 62
     2
100
AcDbLine
 10
2912.3975656917
 20
807.8336136799549
 30
0.0
 11
2912.3975656917
 21
737.8336136778298
 31
0.0
  0
LINE
  5
38D
330
38B
100
AcDbEntity
  8
1
  6
Continuous
 62
     2
100
AcDbLine
 10
2845.663462391471
 20
807.8336136799549
 30
0.0
 11
2917.3975656917
 21
807.8336136799549
 31
0.0
  0
LINE
  5
38E
330
38B
100
AcDbEntity
  8
1
  6
Continuous
 62
     2
100
AcDbLine
 10
2814.663462391426
 20
737.8336136778298
 30
0.0
 11
2917.3975656917
 21
737.8336136778298
 31
0.0
  0
LINE
  5
38F
330
38B
100
AcDbEntity
  8
1
 62
     2
100
AcDbLine
 10
2912.3975656917
 20
807.8336136799549
 30
0.0
 11
2916.684752770598
 21
791.8336136799549
 31
0.0
  0
LINE
  5
390
330
38B
100
AcDbEntity
  8
1
 62
     2
100
AcDbLine
 10
2912.3975656917
 20
807.8336136799549
 30
0.0
 11
2908.110378612802
 21
791.8336136799549
 31
0.0
  0
LINE
  5
391
330
38B
100
AcDbEntity
  8
1
 62
     2
100
AcDbLine
 10
2912.3975656917
 20
737.8336136778298
 30
0.0
 11
2908.110378612802
 21
753.8336136778298
 31
0.0
  0
LINE
  5
392
330
38B
100
AcDbEntity
  8
1
 62
     2
100
AcDbLine
 10
2912.3975656917
 20
737.8336136778298
 30
0.0
 11
2916.684752770598
 21
753.8336136778298
 31
0.0
  0
MTEXT
  5
393
330
38B
100
AcDbEntity
  8
1
 62
     2
100
AcDbMText
 10
2908.8975656917
 20
759.3178752051335
 30
0.0
 40
16.0
 41
0.0
 71
     7
 72
     1
  1
70
  7
CONVERTER_1
 11
0.0
 21
1.0
 31
0.0
 73
     1
 44
0.60024009603842
  0
ENDBLK
  5
395
330
38B
100
AcDbEntity
  8
0
100
AcDbBlockEnd
  0
BLOCK
  5
3A1
330
398
100
AcDbEntity
  8
0
100
AcDbBlockBegin
  2
*D710
 70
     1
 71
     0
 10
0.0
 20
0.0
 30
0.0
  3
*D710
  1

  0
LINE
  5
399
330
398
100
AcDbEntity
  8
1
  6
Continuous
 62
     2
100
AcDbLine
 10
2862.663462391509
 20
679.8265807122048
 30
0.0
 11
2722.663462391636
 21
679.8265807122048
 31
0.0
  0
LINE
  5
39A
330
398
100
AcDbEntity
  8
1
  6
Continuous
 62
     2
100
AcDbLine
 10
2862.663462391509
 20
756.1336136778073
 30
0.0
 11
2862.663462391509
 21
674.8265807122048
 31
0.0
  0
LINE
  5
39B
330
398
100
AcDbEntity
  8
1
  6
Continuous
 62
     2
100
AcDbLine
 10
2722.663462391636
 20
748.583613678612
 30
0.0
 11
2722.663462391636
 21
674.8265807122048
 31
0.0
  0
LINE
  5
39C
330
398
100
AcDbEntity
  8
1
 62
     2
100
AcDbLine
 10
2862.663462391509
 20
679.8265807122048
 30
0.0
 11
2846.663462391509
 21
675.5393936333068
 31
0.0
  0
LINE
  5
39D
330
398
100
AcDbEntity
  8
1
 62
     2
100
AcDbLine
 10
2862.663462391509
 20
679.8265807122048
 30
0.0
 11
2846.663462391509
 21
684.1137677911028
 31
0.0
  0
LINE
  5
39E
330
398
100
AcDbEntity
  8
1
 62
     2
100
AcDbLine
 10
2722.663462391636
 20
679.8265807122048
 30
0.0
 11
2738.663462391636
 21
684.1137677911028
 31
0.0
  0
LINE
  5
39F
330
398
100
AcDbEntity
  8
1
 62
     2
100
AcDbLine
 10
2722.663462391636
 20
679.8265807122048
 30
0.0
 11
2738.663462391636
 21
675.5393936333068
 31
0.0
  0
MTEXT
  5
3A0
330
398
100
AcDbEntity
  8
1
 62
     2
100
AcDbMText
 10
2782.0271475436
 20
683.3265807122048
 30
0.0
 40
16.0
 41
0.0
 71
     7
 72
     1
  1
140
  7
CONVERTER_1
 11
0.9999999999970621
 21
2.424068405545307E-6
 31
0.0
 73
     1
 44
0.60024009603842
  0
ENDBLK
  5
3A2
330
398
100
AcDbEntity
  8
0
100
AcDbBlockEnd
  0
BLOCK
  5
3B0
330
3A5
100
AcDbEntity
  8
0
100
AcDbBlockBegin
  2
*D811
 70
     1
 71
     0
 10
0.0
 20
0.0
 30
0.0
  3
*D811
  1

  0
LINE
  5
3A6
330
3A5
100
AcDbEntity
  8
1
  6
Continuous
 62
     2
100
AcDbLine
 10
1330.66346239154
 20
705.8336136778303
 30
0.0
 11
1330.66346239154
 21
737.8336136778303
 31
0.0
  0
LINE
  5
3A7
330
3A5
100
AcDbEntity
  8
1
  6
Continuous
 62
     2
100
AcDbLine
 10
1330.66346239154
 20
737.8336136778303
 30
0.0
 11
1330.66346239154
 21
739.8336136786379
 31
0.0
  0
LINE
  5
3A8
330
3A5
100
AcDbEntity
  8
1
  6
Continuous
 62
     2
100
AcDbLine
 10
1330.66346239154
 20
739.8336136786379
 30
0.0
 11
1330.66346239154
 21
771.8336136786379
 31
0.0
  0
LINE
  5
3A9
330
3A5
100
AcDbEntity
  8
1
  6
Continuous
 62
     2
100
AcDbLine
 10
1365.663462391546
 20
739.8336136786379
 30
0.0
 11
1325.66346239154
 21
739.8336136786379
 31
0.0
  0
LINE
  5
3AA
330
3A5
100
AcDbEntity
  8
1
  6
Continuous
 62
     2
100
AcDbLine
 10
1457.663462391437
 20
737.8336136778303
 30
0.0
 11
1325.66346239154
 21
737.8336136778303
 31
0.0
  0
LINE
  5
3AB
330
3A5
100
AcDbEntity
  8
1
 62
     2
100
AcDbLine
 10
1330.66346239154
 20
737.8336136778303
 30
0.0
 11
1334.950649470438
 21
721.8336136778303
 31
0.0
  0
LINE
  5
3AC
330
3A5
100
AcDbEntity
  8
1
 62
     2
100
AcDbLine
 10
1330.66346239154
 20
737.8336136778303
 30
0.0
 11
1326.376275312642
 21
721.8336136778303
 31
0.0
  0
LINE
  5
3AD
330
3A5
100
AcDbEntity
  8
1
 62
     2
100
AcDbLine
 10
1330.66346239154
 20
739.8336136786379
 30
0.0
 11
1326.376275312642
 21
755.8336136786379
 31
0.0
  0
LINE
  5
3AE
330
3A5
100
AcDbEntity
  8
1
 62
     2
100
AcDbLine
 10
1330.66346239154
 20
739.8336136786379
 30
0.0
 11
1334.950649470438
 21
755.8336136786379
 31
0.0
  0
MTEXT
  5
3AF
330
3A5
100
AcDbEntity
  8
1
 62
     2
100
AcDbMText
 10
1327.16346239154
 20
708.7542955044557
 30
0.0
 40
16.0
 41
0.0
 71
     7
 72
     1
  1
2
  7
CONVERTER_1
 11
0.0
 21
1.0
 31
0.0
 73
     1
 44
0.60024009603842
  0
ENDBLK
  5
3B1
330
3A5
100
AcDbEntity
  8
0
100
AcDbBlockEnd
  0
BLOCK
  5
3BD
330
3B4
100
AcDbEntity
  8
0
100
AcDbBlockBegin
  2
*D912
 70
     1
 71
     0
 10
0.0
 20
0.0
 30
0.0
  3
*D912
  1

  0
LINE
  5
3B5
330
3B4
100
AcDbEntity
  8
1
  6
Continuous
 62
     2
100
AcDbLine
 10
1362.663462391459
 20
679.8265807122048
 30
0.0
 11
1572.663462391636
 21
679.8265807122048
 31
0.0
  0
LINE
  5
3B6
330
3B4
100
AcDbEntity
  8
1
  6
Continuous
 62
     2
100
AcDbLine
 10
1362.663462391459
 20
743.033613678605
 30
0.0
 11
1362.663462391459
 21
674.8265807122048
 31
0.0
  0
LINE
  5
3B7
330
3B4
100
AcDbEntity
  8
1
  6
Continuous
 62
     2
100
AcDbLine
 10
1572.663462391636
 20
748.583613678612
 30
0.0
 11
1572.663462391636
 21
674.8265807122048
 31
0.0
  0
LINE
  5
3B8
330
3B4
100
AcDbEntity
  8
1
 62
     2
100
AcDbLine
 10
1362.663462391459
 20
679.8265807122048
 30
0.0
 11
1378.663462391459
 21
684.1137677911028
 31
0.0
  0
LINE
  5
3B9
330
3B4
100
AcDbEntity
  8
1
 62
     2
100
AcDbLine
 10
1362.663462391459
 20
679.8265807122048
 30
0.0
 11
1378.663462391459
 21
675.5393936333068
 31
0.0
  0
LINE
  5
3BA
330
3B4
100
AcDbEntity
  8
1
 62
     2
100
AcDbLine
 10
1572.663462391636
 20
679.8265807122048
 30
0.0
 11
1556.663462391636
 21
675.5393936333068
 31
0.0
  0
LINE
  5
3BB
330
3B4
100
AcDbEntity
  8
1
 62
     2
100
AcDbLine
 10
1572.663462391636
 20
679.8265807122048
 30
0.0
 11
1556.663462391636
 21
684.1137677911028
 31
0.0
  0
MTEXT
  5
3BC
330
3B4
100
AcDbEntity
  8
1
 62
     2
100
AcDbMText
 10
1454.303533947896
 20
683.3265807122048
 30
0.0
 40
16.0
 41
0.0
 71
     7
 72
     1
  1
210
  7
CONVERTER_1
 11
0.9999999999970621
 21
2.424068405545307E-6
 31
0.0
 73
     1
 44
0.60024009603842
  0
ENDBLK
  5
3BE
330
3B4
100
AcDbEntity
  8
0
100
AcDbBlockEnd
  0
BLOCK
  5
3CA
330
3C1
100
AcDbEntity
  8
0
100
AcDbBlockBegin
  2
*D1013
 70
     1
 71
     0
 10
0.0
 20
0.0
 30
0.0
  3
*D1013
  1

  0
LINE
  5
3C2
330
3C1
100
AcDbEntity
  8
1
  6
Continuous
 62
     2
100
AcDbLine
 10
2862.663462391509
 20
641.0609277605067
 30
0.0
 11
1362.663462391459
 21
641.0609277605067
 31
0.0
  0
LINE
  5
3C3
330
3C1
100
AcDbEntity
  8
1
  6
Continuous
 62
     2
100
AcDbLine
 10
2862.663462391509
 20
756.1336136778077
 30
0.0
 11
2862.663462391509
 21
636.0609277605067
 31
0.0
  0
LINE
  5
3C4
330
3C1
100
AcDbEntity
  8
1
  6
Continuous
 62
     2
100
AcDbLine
 10
1362.663462391459
 20
743.0336136786054
 30
0.0
 11
1362.663462391459
 21
636.0609277605067
 31
0.0
  0
LINE
  5
3C5
330
3C1
100
AcDbEntity
  8
1
 62
     2
100
AcDbLine
 10
2862.663462391509
 20
641.0609277605067
 30
0.0
 11
2846.663462391509
 21
636.7737406816087
 31
0.0
  0
LINE
  5
3C6
330
3C1
100
AcDbEntity
  8
1
 62
     2
100
AcDbLine
 10
2862.663462391509
 20
641.0609277605067
 30
0.0
 11
2846.663462391509
 21
645.3481148394047
 31
0.0
  0
LINE
  5
3C7
330
3C1
100
AcDbEntity
  8
1
 62
     2
100
AcDbLine
 10
1362.663462391459
 20
641.0609277605067
 30
0.0
 11
1378.663462391459
 21
645.3481148394047
 31
0.0
  0
LINE
  5
3C8
330
3C1
100
AcDbEntity
  8
1
 62
     2
100
AcDbLine
 10
1362.663462391459
 20
641.0609277605067
 30
0.0
 11
1378.663462391459
 21
636.7737406816087
 31
0.0
  0
MTEXT
  5
3C9
330
3C1
100
AcDbEntity
  8
1
 62
     2
100
AcDbMText
 10
2069.689938241277
 20
644.5609277605067
 30
0.0
 40
16.0
 41
0.0
 71
     7
 72
     1
  1
呼称機長 ※1
  7
CONVERTER_3
 11
0.9999999999970621
 21
2.424068405545307E-6
 31
0.0
 73
     1
 44
0.60024009603842
  0
ENDBLK
  5
3CB
330
3C1
100
AcDbEntity
  8
0
100
AcDbBlockEnd
  0
BLOCK
  5
3D7
330
3CE
100
AcDbEntity
  8
0
100
AcDbBlockBegin
  2
*D1114
 70
     1
 71
     0
 10
0.0
 20
0.0
 30
0.0
  3
*D1114
  1

  0
LINE
  5
3CF
330
3CE
100
AcDbEntity
  8
1
  6
Continuous
 62
     2
100
AcDbLine
 10
2912.397565691699
 20
431.8922770736317
 30
0.0
 11
2912.397565691699
 21
377.8922770736317
 31
0.0
  0
LINE
  5
3D0
330
3CE
100
AcDbEntity
  8
1
  6
Continuous
 62
     2
100
AcDbLine
 10
2868.563462391547
 20
431.8922770736317
 30
0.0
 11
2917.397565691699
 21
431.8922770736317
 31
0.0
  0
LINE
  5
3D1
330
3CE
100
AcDbEntity
  8
1
  6
Continuous
 62
     2
100
AcDbLine
 10
2868.563462391547
 20
377.8922770736317
 30
0.0
 11
2917.397565691699
 21
377.8922770736317
 31
0.0
  0
LINE
  5
3D2
330
3CE
100
AcDbEntity
  8
1
 62
     2
100
AcDbLine
 10
2912.397565691699
 20
431.8922770736317
 30
0.0
 11
2916.684752770597
 21
415.8922770736317
 31
0.0
  0
LINE
  5
3D3
330
3CE
100
AcDbEntity
  8
1
 62
     2
100
AcDbLine
 10
2912.397565691699
 20
431.8922770736317
 30
0.0
 11
2908.110378612801
 21
415.8922770736317
 31
0.0
  0
LINE
  5
3D4
330
3CE
100
AcDbEntity
  8
1
 62
     2
100
AcDbLine
 10
2912.397565691699
 20
377.8922770736317
 30
0.0
 11
2908.110378612801
 21
393.8922770736317
 31
0.0
  0
LINE
  5
3D5
330
3CE
100
AcDbEntity
  8
1
 62
     2
100
AcDbLine
 10
2912.397565691699
 20
377.8922770736317
 30
0.0
 11
2916.684752770597
 21
393.8922770736317
 31
0.0
  0
MTEXT
  5
3D6
330
3CE
100
AcDbEntity
  8
1
 62
     2
100
AcDbMText
 10
2908.897565691699
 20
395.2397392544585
 30
0.0
 40
16.0
 41
0.0
 71
     7
 72
     1
  1
54
  7
CONVERTER_1
 11
0.0
 21
1.0
 31
0.0
 73
     1
 44
0.60024009603842
  0
ENDBLK
  5
3D8
330
3CE
100
AcDbEntity
  8
0
100
AcDbBlockEnd
  0
BLOCK
  5
3E4
330
3DB
100
AcDbEntity
  8
0
100
AcDbBlockBegin
  2
*D1215
 70
     1
 71
     0
 10
0.0
 20
0.0
 30
0.0
  3
*D1215
  1

  0
LINE
  5
3DC
330
3DB
100
AcDbEntity
  8
1
  6
Continuous
 62
     2
100
AcDbLine
 10
2959.563462391546
 20
457.8922770736204
 30
0.0
 11
2959.563462391546
 21
377.8922770736313
 31
0.0
  0
LINE
  5
3DD
330
3DB
100
AcDbEntity
  8
1
  6
Continuous
 62
     2
100
AcDbLine
 10
2868.563462391547
 20
377.8922770736313
 30
0.0
 11
2964.563462391546
 21
377.8922770736313
 31
0.0
  0
LINE
  5
3DE
330
3DB
100
AcDbEntity
  8
1
  6
Continuous
 62
     2
100
AcDbLine
 10
2864.463462391461
 20
457.8922770736204
 30
0.0
 11
2964.563462391546
 21
457.8922770736204
 31
0.0
  0
LINE
  5
3DF
330
3DB
100
AcDbEntity
  8
1
 62
     2
100
AcDbLine
 10
2959.563462391546
 20
457.8922770736204
 30
0.0
 11
2963.850649470444
 21
441.8922770736204
 31
0.0
  0
LINE
  5
3E0
330
3DB
100
AcDbEntity
  8
1
 62
     2
100
AcDbLine
 10
2959.563462391546
 20
457.8922770736204
 30
0.0
 11
2955.276275312648
 21
441.8922770736204
 31
0.0
  0
LINE
  5
3E1
330
3DB
100
AcDbEntity
  8
1
 62
     2
100
AcDbLine
 10
2959.563462391546
 20
377.8922770736313
 30
0.0
 11
2955.276275312648
 21
393.8922770736313
 31
0.0
  0
LINE
  5
3E2
330
3DB
100
AcDbEntity
  8
1
 62
     2
100
AcDbLine
 10
2959.563462391546
 20
377.8922770736313
 30
0.0
 11
2963.850649470444
 21
393.8922770736313
 31
0.0
  0
MTEXT
  5
3E3
330
3DB
100
AcDbEntity
  8
1
 62
     2
100
AcDbMText
 10
2956.063462391546
 20
404.9665880719986
 30
0.0
 40
16.0
 41
0.0
 71
     7
 72
     1
  1
80
  7
CONVERTER_1
 11
0.0
 21
1.0
 31
0.0
 73
     1
 44
0.60024009603842
  0
ENDBLK
  5
3E5
330
3DB
100
AcDbEntity
  8
0
100
AcDbBlockEnd
  0
BLOCK
  5
3F1
330
3E8
100
AcDbEntity
  8
0
100
AcDbBlockBegin
  2
*D1316
 70
     1
 71
     0
 10
0.0
 20
0.0
 30
0.0
  3
*D1316
  1

  0
LINE
  5
3E9
330
3E8
100
AcDbEntity
  8
1
  6
Continuous
 62
     2
100
AcDbLine
 10
1330.663462391544
 20
433.8922770736203
 30
0.0
 11
1330.663462391544
 21
377.8922770736313
 31
0.0
  0
LINE
  5
3EA
330
3E8
100
AcDbEntity
  8
1
  6
Continuous
 62
     2
100
AcDbLine
 10
1371.763462391574
 20
377.8922770736313
 30
0.0
 11
1325.663462391544
 21
377.8922770736313
 31
0.0
  0
LINE
  5
3EB
330
3E8
100
AcDbEntity
  8
1
  6
Continuous
 62
     2
100
AcDbLine
 10
1357.663462391569
 20
433.8922770736203
 30
0.0
 11
1325.663462391544
 21
433.8922770736203
 31
0.0
  0
LINE
  5
3EC
330
3E8
100
AcDbEntity
  8
1
 62
     2
100
AcDbLine
 10
1330.663462391544
 20
433.8922770736203
 30
0.0
 11
1334.950649470442
 21
417.8922770736203
 31
0.0
  0
LINE
  5
3ED
330
3E8
100
AcDbEntity
  8
1
 62
     2
100
AcDbLine
 10
1330.663462391544
 20
433.8922770736203
 30
0.0
 11
1326.376275312646
 21
417.8922770736203
 31
0.0
  0
LINE
  5
3EE
330
3E8
100
AcDbEntity
  8
1
 62
     2
100
AcDbLine
 10
1330.663462391544
 20
377.8922770736313
 30
0.0
 11
1326.376275312646
 21
393.8922770736313
 31
0.0
  0
LINE
  5
3EF
330
3E8
100
AcDbEntity
  8
1
 62
     2
100
AcDbLine
 10
1330.663462391544
 20
377.8922770736313
 30
0.0
 11
1334.950649470442
 21
393.8922770736313
 31
0.0
  0
MTEXT
  5
3F0
330
3E8
100
AcDbEntity
  8
1
 62
     2
100
AcDbMText
 10
1324.763462391544
 20
392.5210854074576
 30
0.0
 40
16.0
 41
0.0
 71
     7
 72
     1
  1
56
  7
CONVERTER_1
 11
0.0
 21
1.0
 31
0.0
 73
     1
 44
0.60024009603842
  0
ENDBLK
  5
3F2
330
3E8
100
AcDbEntity
  8
0
100
AcDbBlockEnd
  0
BLOCK
  5
400
330
3F5
100
AcDbEntity
  8
0
100
AcDbBlockBegin
  2
*D1417
 70
     1
 71
     0
 10
0.0
 20
0.0
 30
0.0
  3
*D1417
  1

  0
LINE
  5
3F6
330
3F5
100
AcDbEntity
  8
1
  6
Continuous
 62
     2
100
AcDbLine
 10
1330.663462391541
 20
401.8922770736203
 30
0.0
 11
1330.663462391541
 21
433.8922770736203
 31
0.0
  0
LINE
  5
3F7
330
3F5
100
AcDbEntity
  8
1
  6
Continuous
 62
     2
100
AcDbLine
 10
1330.663462391541
 20
433.8922770736203
 30
0.0
 11
1330.663462391541
 21
439.8922770736203
 31
0.0
  0
LINE
  5
3F8
330
3F5
100
AcDbEntity
  8
1
  6
Continuous
 62
     2
100
AcDbLine
 10
1330.663462391541
 20
439.8922770736203
 30
0.0
 11
1330.663462391541
 21
471.8922770736203
 31
0.0
  0
LINE
  5
3F9
330
3F5
100
AcDbEntity
  8
1
  6
Continuous
 62
     2
100
AcDbLine
 10
1357.663462391568
 20
439.8922770736203
 30
0.0
 11
1325.663462391541
 21
439.8922770736203
 31
0.0
  0
LINE
  5
3FA
330
3F5
100
AcDbEntity
  8
1
  6
Continuous
 62
     2
100
AcDbLine
 10
1357.663462391568
 20
433.8922770736203
 30
0.0
 11
1325.663462391541
 21
433.8922770736203
 31
0.0
  0
LINE
  5
3FB
330
3F5
100
AcDbEntity
  8
1
 62
     2
100
AcDbLine
 10
1330.663462391541
 20
433.8922770736203
 30
0.0
 11
1334.950649470439
 21
417.8922770736203
 31
0.0
  0
LINE
  5
3FC
330
3F5
100
AcDbEntity
  8
1
 62
     2
100
AcDbLine
 10
1330.663462391541
 20
433.8922770736203
 30
0.0
 11
1326.376275312643
 21
417.8922770736203
 31
0.0
  0
LINE
  5
3FD
330
3F5
100
AcDbEntity
  8
1
 62
     2
100
AcDbLine
 10
1330.663462391541
 20
439.8922770736203
 30
0.0
 11
1326.376275312643
 21
455.8922770736203
 31
0.0
  0
LINE
  5
3FE
330
3F5
100
AcDbEntity
  8
1
 62
     2
100
AcDbLine
 10
1330.663462391541
 20
439.8922770736203
 30
0.0
 11
1334.950649470439
 21
455.8922770736203
 31
0.0
  0
MTEXT
  5
3FF
330
3F5
100
AcDbEntity
  8
1
 62
     2
100
AcDbMText
 10
1322.791604022051
 20
432.2942763781686
 30
0.0
 40
16.0
 41
0.0
 71
     7
 72
     1
  1
6
  7
CONVERTER_1
 11
0.0
 21
1.0
 31
0.0
 73
     1
 44
0.60024009603842
  0
ENDBLK
  5
401
330
3F5
100
AcDbEntity
  8
0
100
AcDbBlockEnd
  0
BLOCK
  5
40D
330
404
100
AcDbEntity
  8
0
100
AcDbBlockBegin
  2
*D1518
 70
     1
 71
     0
 10
0.0
 20
0.0
 30
0.0
  3
*D1518
  1

  0
LINE
  5
405
330
404
100
AcDbEntity
  8
1
  6
Continuous
 62
     2
100
AcDbLine
 10
1330.66346239154
 20
439.8922770736203
 30
0.0
 11
1330.66346239154
 21
586.8922770736313
 31
0.0
  0
LINE
  5
406
330
404
100
AcDbEntity
  8
1
  6
Continuous
 62
     2
100
AcDbLine
 10
1357.663462391568
 20
439.8922770736203
 30
0.0
 11
1325.66346239154
 21
439.8922770736203
 31
0.0
  0
LINE
  5
407
330
404
100
AcDbEntity
  8
1
  6
Continuous
 62
     2
100
AcDbLine
 10
1361.963462391541
 20
586.8922770736313
 30
0.0
 11
1325.66346239154
 21
586.8922770736313
 31
0.0
  0
LINE
  5
408
330
404
100
AcDbEntity
  8
1
 62
     2
100
AcDbLine
 10
1330.66346239154
 20
439.8922770736203
 30
0.0
 11
1326.376275312642
 21
455.8922770736203
 31
0.0
  0
LINE
  5
409
330
404
100
AcDbEntity
  8
1
 62
     2
100
AcDbLine
 10
1330.66346239154
 20
439.8922770736203
 30
0.0
 11
1334.950649470438
 21
455.8922770736203
 31
0.0
  0
LINE
  5
40A
330
404
100
AcDbEntity
  8
1
 62
     2
100
AcDbLine
 10
1330.66346239154
 20
586.8922770736313
 30
0.0
 11
1334.950649470438
 21
570.8922770736313
 31
0.0
  0
LINE
  5
40B
330
404
100
AcDbEntity
  8
1
 62
     2
100
AcDbLine
 10
1330.66346239154
 20
586.8922770736313
 30
0.0
 11
1326.376275312642
 21
570.8922770736313
 31
0.0
  0
MTEXT
  5
40C
330
404
100
AcDbEntity
  8
1
 62
     2
100
AcDbMText
 10
1327.16346239154
 20
498.9745050928374
 30
0.0
 40
16.0
 41
0.0
 71
     7
 72
     1
  1
ML
  7
CONVERTER_1
 11
0.0
 21
1.0
 31
0.0
 73
     1
 44
0.60024009603842
  0
ENDBLK
  5
40E
330
404
100
AcDbEntity
  8
0
100
AcDbBlockEnd
  0
BLOCK
  5
41A
330
411
100
AcDbEntity
  8
0
100
AcDbBlockBegin
  2
*D1619
 70
     1
 71
     0
 10
0.0
 20
0.0
 30
0.0
  3
*D1619
  1

  0
LINE
  5
412
330
411
100
AcDbEntity
  8
1
  6
Continuous
 62
     2
100
AcDbLine
 10
1330.663462391544
 20
829.8336136786052
 30
0.0
 11
1330.663462391544
 21
739.8336136786379
 31
0.0
  0
LINE
  5
413
330
411
100
AcDbEntity
  8
1
  6
Continuous
 62
     2
100
AcDbLine
 10
1365.663462391548
 20
739.8336136786379
 30
0.0
 11
1325.663462391544
 21
739.8336136786379
 31
0.0
  0
LINE
  5
414
330
411
100
AcDbEntity
  8
1
  6
Continuous
 62
     2
100
AcDbLine
 10
1365.863462391409
 20
829.8336136786052
 30
0.0
 11
1325.663462391544
 21
829.8336136786052
 31
0.0
  0
LINE
  5
415
330
411
100
AcDbEntity
  8
1
 62
     2
100
AcDbLine
 10
1330.663462391544
 20
829.8336136786052
 30
0.0
 11
1334.950649470442
 21
813.8336136786052
 31
0.0
  0
LINE
  5
416
330
411
100
AcDbEntity
  8
1
 62
     2
100
AcDbLine
 10
1330.663462391544
 20
829.8336136786052
 30
0.0
 11
1326.376275312646
 21
813.8336136786052
 31
0.0
  0
LINE
  5
417
330
411
100
AcDbEntity
  8
1
 62
     2
100
AcDbLine
 10
1330.663462391544
 20
739.8336136786379
 30
0.0
 11
1326.376275312646
 21
755.8336136786379
 31
0.0
  0
LINE
  5
418
330
411
100
AcDbEntity
  8
1
 62
     2
100
AcDbLine
 10
1330.663462391544
 20
739.8336136786379
 30
0.0
 11
1334.950649470442
 21
755.8336136786379
 31
0.0
  0
MTEXT
  5
419
330
411
100
AcDbEntity
  8
1
 62
     2
100
AcDbMText
 10
1324.763462391544
 20
754.0848672668611
 30
0.0
 40
16.0
 41
0.0
 71
     7
 72
     1
  1
\C2;□\C2;90
  7
CONVERTER_3
 11
0.0
 21
1.0
 31
0.0
 73
     1
 44
0.60024009603842
  0
ENDBLK
  5
41B
330
411
100
AcDbEntity
  8
0
100
AcDbBlockEnd
  0
BLOCK
  5
427
330
41E
100
AcDbEntity
  8
0
100
AcDbBlockBegin
  2
*D1720
 70
     1
 71
     0
 10
0.0
 20
0.0
 30
0.0
  3
*D1720
  1

  0
LINE
  5
41F
330
41E
100
AcDbEntity
  8
1
  6
Continuous
 62
     2
100
AcDbLine
 10
1298.663462391544
 20
829.8336136786052
 30
0.0
 11
1298.663462391544
 21
737.8336136778303
 31
0.0
  0
LINE
  5
420
330
41E
100
AcDbEntity
  8
1
  6
Continuous
 62
     2
100
AcDbLine
 10
1457.663462391438
 20
737.8336136778303
 30
0.0
 11
1293.663462391544
 21
737.8336136778303
 31
0.0
  0
LINE
  5
421
330
41E
100
AcDbEntity
  8
1
  6
Continuous
 62
     2
100
AcDbLine
 10
1365.863462391409
 20
829.8336136786052
 30
0.0
 11
1293.663462391544
 21
829.8336136786052
 31
0.0
  0
LINE
  5
422
330
41E
100
AcDbEntity
  8
1
 62
     2
100
AcDbLine
 10
1298.663462391544
 20
829.8336136786052
 30
0.0
 11
1302.950649470442
 21
813.8336136786052
 31
0.0
  0
LINE
  5
423
330
41E
100
AcDbEntity
  8
1
 62
     2
100
AcDbLine
 10
1298.663462391544
 20
829.8336136786052
 30
0.0
 11
1294.376275312646
 21
813.8336136786052
 31
0.0
  0
LINE
  5
424
330
41E
100
AcDbEntity
  8
1
 62
     2
100
AcDbLine
 10
1298.663462391544
 20
737.8336136778303
 30
0.0
 11
1294.376275312646
 21
753.8336136778303
 31
0.0
  0
LINE
  5
425
330
41E
100
AcDbEntity
  8
1
 62
     2
100
AcDbLine
 10
1298.663462391544
 20
737.8336136778303
 30
0.0
 11
1302.950649470442
 21
753.8336136778303
 31
0.0
  0
MTEXT
  5
426
330
41E
100
AcDbEntity
  8
1
 62
     2
100
AcDbMText
 10
1292.763462391544
 20
772.3940632731656
 30
0.0
 40
16.0
 41
0.0
 71
     7
 72
     1
  1
92
  7
CONVERTER_1
 11
0.0
 21
1.0
 31
0.0
 73
     1
 44
0.60024009603842
  0
ENDBLK
  5
428
330
41E
100
AcDbEntity
  8
0
100
AcDbBlockEnd
  0
BLOCK
  5
436
330
42B
100
AcDbEntity
  8
0
100
AcDbBlockBegin
  2
*D1821
 70
     1
 71
     0
 10
0.0
 20
0.0
 30
0.0
  3
*D1821
  1

  0
LINE
  5
42C
330
42B
100
AcDbEntity
  8
1
  6
Continuous
 62
     2
100
AcDbLine
 10
2100.304786184062
 20
266.7884610030847
 30
0.0
 11
2068.304786184062
 21
266.7884610030847
 31
0.0
  0
LINE
  5
42D
330
42B
100
AcDbEntity
  8
1
  6
Continuous
 62
     2
100
AcDbLine
 10
2135.304786184031
 20
266.7884610030847
 30
0.0
 11
2100.304786184062
 21
266.7884610030847
 31
0.0
  0
LINE
  5
42E
330
42B
100
AcDbEntity
  8
1
  6
Continuous
 62
     2
100
AcDbLine
 10
2167.304786184031
 20
266.7884610030847
 30
0.0
 11
2135.304786184031
 21
266.7884610030847
 31
0.0
  0
LINE
  5
42F
330
42B
100
AcDbEntity
  8
1
  6
Continuous
 62
     2
100
AcDbLine
 10
2135.304786184031
 20
188.317591410114
 30
0.0
 11
2135.304786184031
 21
271.7884610030847
 31
0.0
  0
LINE
  5
430
330
42B
100
AcDbEntity
  8
1
  6
Continuous
 62
     2
100
AcDbLine
 10
2100.304786184062
 20
184.317591410114
 30
0.0
 11
2100.304786184062
 21
271.7884610030847
 31
0.0
  0
LINE
  5
431
330
42B
100
AcDbEntity
  8
1
 62
     2
100
AcDbLine
 10
2135.304786184031
 20
266.7884610030847
 30
0.0
 11
2151.304786184031
 21
271.0756480819827
 31
0.0
  0
LINE
  5
432
330
42B
100
AcDbEntity
  8
1
 62
     2
100
AcDbLine
 10
2135.304786184031
 20
266.7884610030847
 30
0.0
 11
2151.304786184031
 21
262.5012739241868
 31
0.0
  0
LINE
  5
433
330
42B
100
AcDbEntity
  8
1
 62
     2
100
AcDbLine
 10
2100.304786184062
 20
266.7884610030847
 30
0.0
 11
2084.304786184062
 21
262.5012739241868
 31
0.0
  0
LINE
  5
434
330
42B
100
AcDbEntity
  8
1
 62
     2
100
AcDbLine
 10
2100.304786184062
 20
266.7884610030847
 30
0.0
 11
2084.304786184062
 21
271.0756480819827
 31
0.0
  0
MTEXT
  5
435
330
42B
100
AcDbEntity
  8
1
 62
     2
100
AcDbMText
 10
2104.006124300421
 20
271.7884610030847
 30
0.0
 40
16.0
 41
0.0
 71
     7
 72
     1
  1
35
  7
CONVERTER_1
 11
0.9999999999970621
 21
2.424068405545307E-6
 31
0.0
 73
     1
 44
0.60024009603842
  0
ENDBLK
  5
437
330
42B
100
AcDbEntity
  8
0
100
AcDbBlockEnd
  0
BLOCK
  5
445
330
43A
100
AcDbEntity
  8
0
100
AcDbBlockBegin
  2
*D1922
 70
     1
 71
     0
 10
0.0
 20
0.0
 30
0.0
  3
*D1922
  1

  0
LINE
  5
43B
330
43A
100
AcDbEntity
  8
1
  6
Continuous
 62
     2
100
AcDbLine
 10
2099.304786184032
 20
266.7884610030847
 30
0.0
 11
2065.067816583411
 21
266.7884610030847
 31
0.0
  0
LINE
  5
43C
330
43A
100
AcDbEntity
  8
1
  6
Continuous
 62
     2
100
AcDbLine
 10
2100.304786184063
 20
266.7884610030847
 30
0.0
 11
2099.304786184032
 21
266.7884610030847
 31
0.0
  0
LINE
  5
43D
330
43A
100
AcDbEntity
  8
1
  6
Continuous
 62
     2
100
AcDbLine
 10
2132.304786184063
 20
266.7884610030847
 30
0.0
 11
2100.304786184063
 21
266.7884610030847
 31
0.0
  0
LINE
  5
43E
330
43A
100
AcDbEntity
  8
1
  6
Continuous
 62
     2
100
AcDbLine
 10
2100.304786184063
 20
184.317591410114
 30
0.0
 11
2100.304786184063
 21
271.7884610030847
 31
0.0
  0
LINE
  5
43F
330
43A
100
AcDbEntity
  8
1
  6
Continuous
 62
     2
100
AcDbLine
 10
2099.304786184032
 20
124.317591410113
 30
0.0
 11
2099.304786184032
 21
271.7884610030847
 31
0.0
  0
LINE
  5
440
330
43A
100
AcDbEntity
  8
1
 62
     2
100
AcDbLine
 10
2100.304786184063
 20
266.7884610030847
 30
0.0
 11
2116.304786184063
 21
271.0756480819827
 31
0.0
  0
LINE
  5
441
330
43A
100
AcDbEntity
  8
1
 62
     2
100
AcDbLine
 10
2100.304786184063
 20
266.7884610030847
 30
0.0
 11
2116.304786184063
 21
262.5012739241868
 31
0.0
  0
LINE
  5
442
330
43A
100
AcDbEntity
  8
1
 62
     2
100
AcDbLine
 10
2099.304786184032
 20
266.7884610030847
 30
0.0
 11
2083.304786184032
 21
262.5012739241868
 31
0.0
  0
LINE
  5
443
330
43A
100
AcDbEntity
  8
1
 62
     2
100
AcDbLine
 10
2099.304786184032
 20
266.7884610030847
 30
0.0
 11
2083.304786184032
 21
271.0756480819827
 31
0.0
  0
MTEXT
  5
444
330
43A
100
AcDbEntity
  8
1
 62
     2
100
AcDbMText
 10
2065.067816583411
 20
271.7884610030847
 30
0.0
 40
16.0
 41
0.0
 71
     7
 72
     1
  1
1
  7
CONVERTER_1
 11
0.9999999999970621
 21
2.424068405545307E-6
 31
0.0
 73
     1
 44
0.60024009603842
  0
ENDBLK
  5
446
330
43A
100
AcDbEntity
  8
0
100
AcDbBlockEnd
  0
BLOCK
  5
44F
330
449
100
AcDbEntity
  8
0
100
AcDbBlockBegin
  2
*D2023
 70
     1
 71
     0
 10
0.0
 20
0.0
 30
0.0
  3
*D2023
  1

  0
LINE
  5
44A
330
449
100
AcDbEntity
  8
1
  6
Continuous
 62
     2
100
AcDbLine
 10
1607.087254878128
 20
858.1485842900206
 30
0.0
 11
1661.887254878128
 21
858.1485842900206
 31
0.0
  0
LINE
  5
44B
330
449
100
AcDbEntity
  8
1
  6
Continuous
 62
     2
100
AcDbLine
 10
1573.809703205885
 20
762.1405959881727
 30
0.0
 11
1607.087254878128
 21
858.1485842900206
 31
0.0
  0
LINE
  5
44C
330
449
100
AcDbEntity
  8
1
 62
     2
100
AcDbLine
 10
1573.809703205885
 20
762.1405959881727
 30
0.0
 11
1574.998903548828
 21
778.662271919924
 31
0.0
  0
LINE
  5
44D
330
449
100
AcDbEntity
  8
1
 62
     2
100
AcDbLine
 10
1573.809703205885
 20
762.1405959881727
 30
0.0
 11
1583.100418878938
 21
775.8541868866918
 31
0.0
  0
MTEXT
  5
44E
330
449
100
AcDbEntity
  8
1
 62
     2
100
AcDbMText
 10
1626.047254878205
 20
863.1485206824657
 30
0.0
 40
16.0
 41
0.0
 71
     7
 72
     1
  1
\C2;{\Fgdt;n}\C2;7
  7
CONVERTER_1
 11
0.9999999999970621
 21
2.424068405545307E-6
 31
0.0
 73
     1
 44
0.60024009603842
  0
ENDBLK
  5
450
330
449
100
AcDbEntity
  8
0
100
AcDbBlockEnd
  0
BLOCK
  5
458
330
452
100
AcDbEntity
  8
0
100
AcDbBlockBegin
  2
*D2124
 70
     1
 71
     0
 10
0.0
 20
0.0
 30
0.0
  3
*D2124
  1

  0
LINE
  5
453
330
452
100
AcDbEntity
  8
1
  6
Continuous
 62
     2
100
AcDbLine
 10
2764.24199548636
 20
858.1485842900206
 30
0.0
 11
2819.04199548636
 21
858.1485842900206
 31
0.0
  0
LINE
  5
454
330
452
100
AcDbEntity
  8
1
  6
Continuous
 62
     2
100
AcDbLine
 10
2724.015079146563
 20
762.0621012731053
 30
0.0
 11
2764.24199548636
 21
858.1485842900206
 31
0.0
  0
LINE
  5
455
330
452
100
AcDbEntity
  8
1
 62
     2
100
AcDbLine
 10
2724.015079146563
 20
762.0621012731053
 30
0.0
 11
2726.239289940661
 21
778.4765113871755
 31
0.0
  0
LINE
  5
456
330
452
100
AcDbEntity
  8
1
 62
     2
100
AcDbLine
 10
2724.015079146563
 20
762.0621012731053
 30
0.0
 11
2734.148507254658
 21
775.1652920229776
 31
0.0
  0
MTEXT
  5
457
330
452
100
AcDbEntity
  8
1
 62
     2
100
AcDbMText
 10
2783.201995486437
 20
863.1485206824657
 30
0.0
 40
16.0
 41
0.0
 71
     7
 72
     1
  1
\C2;{\Fgdt;n}\C2;7
  7
CONVERTER_1
 11
0.9999999999970621
 21
2.424068405545307E-6
 31
0.0
 73
     1
 44
0.60024009603842
  0
ENDBLK
  5
459
330
452
100
AcDbEntity
  8
0
100
AcDbBlockEnd
  0
BLOCK
  5
461
330
45B
100
AcDbEntity
  8
0
100
AcDbBlockBegin
  2
*D2225
 70
     1
 71
     0
 10
0.0
 20
0.0
 30
0.0
  3
*D2225
  1

  0
LINE
  5
45C
330
45B
100
AcDbEntity
  8
1
  6
Continuous
 62
     2
100
AcDbLine
 10
2855.524014821629
 20
743.9288050391433
 30
0.0
 11
2895.416325902973
 21
703.933613677832
 31
0.0
  0
LINE
  5
45D
330
45B
100
AcDbEntity
  8
1
  6
Continuous
 62
     2
100
AcDbLine
 10
2895.416325902973
 20
703.933613677832
 30
0.0
 11
2979.216325902973
 21
703.933613677832
 31
0.0
  0
LINE
  5
45E
330
45B
100
AcDbEntity
  8
1
 62
     2
100
AcDbLine
 10
2855.524014821629
 20
743.9288050391433
 30
0.0
 11
2869.858544540664
 21
735.6281285134872
 31
0.0
  0
LINE
  5
45F
330
45B
100
AcDbEntity
  8
1
 62
     2
100
AcDbLine
 10
2855.524014821629
 20
743.9288050391433
 30
0.0
 11
2863.787743446789
 21
729.5729434398106
 31
0.0
  0
MTEXT
  5
460
330
45B
100
AcDbEntity
  8
1
 62
     2
100
AcDbMText
 10
2909.37632590305
 20
709.8335500702769
 30
0.0
 40
16.0
 41
0.0
 71
     7
 72
     1
  1
\C2;{\Fgdt;n}\C2;48.6
  7
CONVERTER_1
 11
0.9999999999970621
 21
2.424068405545307E-6
 31
0.0
 73
     1
 44
0.60024009603842
  0
ENDBLK
  5
462
330
45B
100
AcDbEntity
  8
0
100
AcDbBlockEnd
  0
BLOCK
  5
46A
330
464
100
AcDbEntity
  8
0
100
AcDbBlockBegin
  2
*D2326
 70
     1
 71
     0
 10
0.0
 20
0.0
 30
0.0
  3
*D2326
  1

  0
LINE
  5
465
330
464
100
AcDbEntity
  8
1
  6
Continuous
 62
     2
100
AcDbLine
 10
1353.949508903173
 20
871.7165628231196
 30
0.0
 11
1284.749508903173
 21
871.7165628231196
 31
0.0
  0
LINE
  5
466
330
464
100
AcDbEntity
  8
1
  6
Continuous
 62
     2
100
AcDbLine
 10
1393.988513653112
 20
793.5355944478702
 30
0.0
 11
1353.949508903173
 21
871.7165628231196
 31
0.0
  0
LINE
  5
467
330
464
100
AcDbEntity
  8
1
 62
     2
100
AcDbLine
 10
1393.988513653112
 20
793.5355944478702
 30
0.0
 11
1382.879328094785
 21
805.8224154069359
 31
0.0
  0
LINE
  5
468
330
464
100
AcDbEntity
  8
1
 62
     2
100
AcDbLine
 10
1393.988513653112
 20
793.5355944478702
 30
0.0
 11
1390.511087223779
 21
809.7308863093355
 31
0.0
  0
MTEXT
  5
469
330
464
100
AcDbEntity
  8
1
 62
     2
100
AcDbMText
 10
1277.70950890325
 20
877.6164992155646
 30
0.0
 40
16.0
 41
0.0
 71
     7
 72
     1
  1
\C2;{\Fgdt;n}\C2;60
  7
CONVERTER_1
 11
0.9999999999970621
 21
2.424068405545307E-6
 31
0.0
 73
     1
 44
0.60024009603842
  0
ENDBLK
  5
46B
330
464
100
AcDbEntity
  8
0
100
AcDbBlockEnd
  0
ENDSEC
  0
SECTION
  2
ENTITIES
  0
INSERT
  5
35
330
1F
100
AcDbEntity
  8
0
100
AcDbBlockReference
  2
Zuwaku-A3-web
 10
2225.095483858449
 20
488.73127528472
 30
0.0
 41
5.0
 42
5.0
 43
5.0
  0
LINE
  5
66
330
1F
100
AcDbEntity
  8
1
  6
DASH_CENTER
 62
     3
100
AcDbLine
 10
1370.893909891385
 20
495.2910372404795
 30
0.0
 11
1370.893909891385
 21
429.2910372404795
 31
0.0
  0
LINE
  5
67
330
1F
100
AcDbEntity
  8
1
  6
DASH_CENTER
 62
     3
100
AcDbLine
 10
1371.907344884239
 20
766.8336136786265
 30
0.0
 11
1442.700258329448
 21
766.8336136786265
 31
0.0
  0
LINE
  5
68
330
1F
100
AcDbEntity
  8
1
  6
DASH_CENTER
 62
     3
100
AcDbLine
 10
1407.663462391442
 20
739.1836136786205
 30
0.0
 11
1407.663462391442
 21
830.4836136786325
 31
0.0
  0
LINE
  5
69
330
1F
100
AcDbEntity
  8
1
  6
DASH_CENTER
 62
     3
100
AcDbLine
 10
1362.013462391436
 20
784.8336136786297
 30
0.0
 11
1453.313462391447
 21
784.8336136786297
 31
0.0
  0
LINE
  5
6A
330
1F
100
AcDbEntity
  8
1
  6
DOTTED
 62
     2
100
AcDbLine
 10
1541.932693160775
 20
190.2800690842978
 30
0.0
 11
1401.932693160775
 21
190.2800690842978
 31
0.0
  0
LINE
  5
6B
330
1F
100
AcDbEntity
  8
1
  6
DOTTED
 62
     2
100
AcDbLine
 10
1541.932693160775
 20
190.2800690842978
 30
0.0
 11
1821.932693160775
 21
190.2800690842978
 31
0.0
  0
LINE
  5
6C
330
1F
100
AcDbEntity
  8
1
  6
DOTTED
 62
     2
100
AcDbLine
 10
1681.932693160775
 20
100.2800690842978
 30
0.0
 11
1681.932693160775
 21
190.2800690842978
 31
0.0
  0
LINE
  5
6D
330
1F
100
AcDbEntity
  8
1
  6
Continuous
 62
     2
100
AcDbLine
 10
1541.932693160775
 20
100.2800690842978
 30
0.0
 11
1541.932693160775
 21
220.2800690842978
 31
0.0
  0
LINE
  5
6E
330
1F
100
AcDbEntity
  8
1
  6
DOTTED
 62
     2
100
AcDbLine
 10
1401.932693160775
 20
160.2800690842978
 30
0.0
 11
1821.932693160775
 21
160.2800690842978
 31
0.0
  0
LINE
  5
6F
330
1F
100
AcDbEntity
  8
1
  6
Continuous
 62
     2
100
AcDbLine
 10
1401.932693160775
 20
100.2800690842978
 30
0.0
 11
1401.932693160775
 21
220.2800690842978
 31
0.0
  0
LINE
  5
70
330
1F
100
AcDbEntity
  8
1
  6
Continuous
 62
     2
100
AcDbLine
 10
1821.932693160775
 20
100.2800690842978
 30
0.0
 11
1401.932693160775
 21
100.2800690842978
 31
0.0
  0
LINE
  5
71
330
1F
100
AcDbEntity
  8
1
  6
Continuous
 62
     2
100
AcDbLine
 10
1821.932693160775
 20
220.2800690842978
 30
0.0
 11
1821.932693160775
 21
100.2800690842978
 31
0.0
  0
LINE
  5
72
330
1F
100
AcDbEntity
  8
1
  6
Continuous
 62
     2
100
AcDbLine
 10
1401.932693160775
 20
220.2800690842978
 30
0.0
 11
1821.932693160775
 21
220.2800690842978
 31
0.0
  0
LINE
  5
73
330
1F
100
AcDbEntity
  8
1
  6
Continuous
 62
     7
100
AcDbLine
 10
2809.663462391426
 20
737.8336136778307
 30
0.0
 11
2809.663462391426
 21
738.3336136793678
 31
0.0
  0
LINE
  5
74
330
1F
100
AcDbEntity
  8
1
  6
Continuous
 62
     2
100
AcDbLine
 10
2079.967439831263
 20
31.31759141011253
 30
0.0
 11
2200.967439831265
 21
31.31759141011253
 31
0.0
  0
LINE
  5
75
330
1F
100
AcDbEntity
  8
1
  6
Continuous
 62
     2
100
AcDbLine
 10
2112.663462391506
 20
504.9120608228304
 30
0.0
 11
2112.663462391506
 21
490.0815589370686
 31
0.0
  0
LINE
  5
76
330
1F
100
AcDbEntity
  8
1
  6
Continuous
 62
     2
100
AcDbLine
 10
2112.663462391506
 20
352.9120608228268
 30
0.0
 11
2112.663462391506
 21
338.0815589370645
 31
0.0
  0
LINE
  5
77
330
1F
100
AcDbEntity
  8
1
  6
Continuous
 62
     7
100
AcDbLine
 10
2111.804786184032
 20
63.31759141011253
 30
0.0
 11
2099.304786184032
 21
63.31759141011253
 31
0.0
  0
LINE
  5
78
330
1F
100
AcDbEntity
  8
1
  6
Continuous
 62
     7
100
AcDbLine
 10
2099.304786184032
 20
72.06759141011253
 30
0.0
 11
2099.304786184032
 21
63.31759141011253
 31
0.0
  0
LINE
  5
79
330
1F
100
AcDbEntity
  8
1
  6
Continuous
 62
     7
100
AcDbLine
 10
2101.804786184032
 20
72.06759141011253
 30
0.0
 11
2099.304786184032
 21
72.06759141011253
 31
0.0
  0
LINE
  5
7A
330
1F
100
AcDbEntity
  8
1
  6
Continuous
 62
     7
100
AcDbLine
 10
2101.804786184032
 20
69.5175914101128
 30
0.0
 11
2101.804786184032
 21
72.06759141011253
 31
0.0
  0
LINE
  5
7B
330
1F
100
AcDbEntity
  8
1
  6
Continuous
 62
     7
100
AcDbLine
 10
2109.804786184032
 20
69.5175914101128
 30
0.0
 11
2101.804786184032
 21
69.5175914101128
 31
0.0
  0
LINE
  5
7C
330
1F
100
AcDbEntity
  8
1
  6
Continuous
 62
     7
100
AcDbLine
 10
2109.804786184032
 20
83.1175914101118
 30
0.0
 11
2109.804786184032
 21
69.5175914101128
 31
0.0
  0
LINE
  5
7D
330
1F
100
AcDbEntity
  8
1
  6
Continuous
 62
     7
100
AcDbLine
 10
2101.804786184032
 20
83.1175914101118
 30
0.0
 11
2109.804786184032
 21
83.1175914101118
 31
0.0
  0
LINE
  5
7E
330
1F
100
AcDbEntity
  8
1
  6
Continuous
 62
     7
100
AcDbLine
 10
2101.804786184032
 20
80.56759141011253
 30
0.0
 11
2101.804786184032
 21
83.1175914101118
 31
0.0
  0
LINE
  5
7F
330
1F
100
AcDbEntity
  8
1
  6
Continuous
 62
     7
100
AcDbLine
 10
2099.304786184032
 20
80.56759141011253
 30
0.0
 11
2101.804786184032
 21
80.56759141011253
 31
0.0
  0
LINE
  5
80
330
1F
100
AcDbEntity
  8
1
  6
Continuous
 62
     7
100
AcDbLine
 10
2099.304786184032
 20
92.06759141011253
 30
0.0
 11
2099.304786184032
 21
80.56759141011253
 31
0.0
  0
LINE
  5
81
330
1F
100
AcDbEntity
  8
1
  6
Continuous
 62
     7
100
AcDbLine
 10
2101.804786184032
 20
92.06759141011253
 30
0.0
 11
2099.304786184032
 21
92.06759141011253
 31
0.0
  0
LINE
  5
82
330
1F
100
AcDbEntity
  8
1
  6
Continuous
 62
     7
100
AcDbLine
 10
2101.804786184032
 20
89.5175914101128
 30
0.0
 11
2101.804786184032
 21
92.06759141011253
 31
0.0
  0
LINE
  5
83
330
1F
100
AcDbEntity
  8
1
  6
Continuous
 62
     7
100
AcDbLine
 10
2109.804786184032
 20
89.5175914101128
 30
0.0
 11
2101.804786184032
 21
89.5175914101128
 31
0.0
  0
LINE
  5
84
330
1F
100
AcDbEntity
  8
1
  6
Continuous
 62
     7
100
AcDbLine
 10
2109.804786184032
 20
103.1175914101118
 30
0.0
 11
2109.804786184032
 21
89.5175914101128
 31
0.0
  0
LINE
  5
85
330
1F
100
AcDbEntity
  8
1
  6
Continuous
 62
     7
100
AcDbLine
 10
2101.804786184032
 20
103.1175914101118
 30
0.0
 11
2109.804786184032
 21
103.1175914101118
 31
0.0
  0
LINE
  5
86
330
1F
100
AcDbEntity
  8
1
  6
Continuous
 62
     7
100
AcDbLine
 10
2099.304786184032
 20
100.5675914101125
 30
0.0
 11
2099.304786184032
 21
119.3175914101125
 31
0.0
  0
LINE
  5
87
330
1F
100
AcDbEntity
  8
1
  6
Continuous
 62
     7
100
AcDbLine
 10
2101.804786184032
 20
100.5675914101125
 30
0.0
 11
2101.804786184032
 21
103.1175914101118
 31
0.0
  0
LINE
  5
88
330
1F
100
AcDbEntity
  8
1
  6
Continuous
 62
     7
100
AcDbLine
 10
2099.304786184032
 20
100.5675914101125
 30
0.0
 11
2101.804786184032
 21
100.5675914101125
 31
0.0
  0
LINE
  5
89
330
1F
100
AcDbEntity
  8
1
  6
Continuous
 62
     7
100
AcDbLine
 10
2107.554786184032
 20
119.3175914101125
 30
0.0
 11
2099.304786184032
 21
119.3175914101125
 31
0.0
  0
LINE
  5
8A
330
1F
100
AcDbEntity
  8
1
  6
Continuous
 62
     7
100
AcDbLine
 10
2107.554786184032
 20
116.8175914101125
 30
0.0
 11
2107.554786184032
 21
119.3175914101125
 31
0.0
  0
LINE
  5
8B
330
1F
100
AcDbEntity
  8
1
  6
Continuous
 62
     7
100
AcDbLine
 10
2105.004786184031
 20
116.8175914101125
 30
0.0
 11
2107.554786184032
 21
116.8175914101125
 31
0.0
  0
LINE
  5
8C
330
1F
100
AcDbEntity
  8
1
  6
Continuous
 62
     7
100
AcDbLine
 10
2105.004786184031
 20
108.8175914101125
 30
0.0
 11
2105.004786184031
 21
116.8175914101125
 31
0.0
  0
LINE
  5
8D
330
1F
100
AcDbEntity
  8
1
  6
Continuous
 62
     7
100
AcDbLine
 10
2111.804786184032
 20
108.8175914101125
 30
0.0
 11
2105.004786184031
 21
108.8175914101125
 31
0.0
  0
LINE
  5
8E
330
1F
100
AcDbEntity
  8
1
  6
Continuous
 62
     7
100
AcDbLine
 10
2118.604786184032
 20
108.8175914101125
 30
0.0
 11
2111.804786184032
 21
108.8175914101125
 31
0.0
  0
LINE
  5
8F
330
1F
100
AcDbEntity
  8
1
  6
Continuous
 62
     7
100
AcDbLine
 10
2118.604786184032
 20
116.8175914101125
 30
0.0
 11
2118.604786184032
 21
108.8175914101125
 31
0.0
  0
LINE
  5
90
330
1F
100
AcDbEntity
  8
1
  6
Continuous
 62
     7
100
AcDbLine
 10
2116.054786184032
 20
116.8175914101125
 30
0.0
 11
2118.604786184032
 21
116.8175914101125
 31
0.0
  0
LINE
  5
91
330
1F
100
AcDbEntity
  8
1
  6
Continuous
 62
     7
100
AcDbLine
 10
2116.054786184032
 20
119.3175914101125
 30
0.0
 11
2116.054786184032
 21
116.8175914101125
 31
0.0
  0
LINE
  5
92
330
1F
100
AcDbEntity
  8
1
  6
Continuous
 62
     7
100
AcDbLine
 10
2116.054786184032
 20
119.3175914101125
 30
0.0
 11
2124.304786184032
 21
119.3175914101125
 31
0.0
  0
LINE
  5
93
330
1F
100
AcDbEntity
  8
1
  6
Continuous
 62
     7
100
AcDbLine
 10
2121.804786184032
 20
100.5675914101125
 30
0.0
 11
2124.304786184032
 21
100.5675914101125
 31
0.0
  0
LINE
  5
94
330
1F
100
AcDbEntity
  8
1
  6
Continuous
 62
     7
100
AcDbLine
 10
2121.804786184032
 20
103.1175914101118
 30
0.0
 11
2121.804786184032
 21
100.5675914101125
 31
0.0
  0
LINE
  5
95
330
1F
100
AcDbEntity
  8
1
  6
Continuous
 62
     7
100
AcDbLine
 10
2124.304786184032
 20
100.5675914101125
 30
0.0
 11
2124.304786184032
 21
119.3175914101125
 31
0.0
  0
LINE
  5
96
330
1F
100
AcDbEntity
  8
1
  6
Continuous
 62
     7
100
AcDbLine
 10
2113.804786184032
 20
103.1175914101118
 30
0.0
 11
2121.804786184032
 21
103.1175914101118
 31
0.0
  0
LINE
  5
97
330
1F
100
AcDbEntity
  8
1
  6
Continuous
 62
     7
100
AcDbLine
 10
2113.804786184032
 20
89.5175914101128
 30
0.0
 11
2113.804786184032
 21
103.1175914101118
 31
0.0
  0
LINE
  5
98
330
1F
100
AcDbEntity
  8
1
  6
Continuous
 62
     7
100
AcDbLine
 10
2121.804786184032
 20
89.5175914101128
 30
0.0
 11
2113.804786184032
 21
89.5175914101128
 31
0.0
  0
LINE
  5
99
330
1F
100
AcDbEntity
  8
1
  6
Continuous
 62
     7
100
AcDbLine
 10
2121.804786184032
 20
92.06759141011253
 30
0.0
 11
2121.804786184032
 21
89.5175914101128
 31
0.0
  0
LINE
  5
9A
330
1F
100
AcDbEntity
  8
1
  6
Continuous
 62
     7
100
AcDbLine
 10
2124.304786184032
 20
92.06759141011253
 30
0.0
 11
2121.804786184032
 21
92.06759141011253
 31
0.0
  0
LINE
  5
9B
330
1F
100
AcDbEntity
  8
1
  6
Continuous
 62
     7
100
AcDbLine
 10
2124.304786184032
 20
80.56759141011253
 30
0.0
 11
2124.304786184032
 21
92.06759141011253
 31
0.0
  0
LINE
  5
9C
330
1F
100
AcDbEntity
  8
1
  6
Continuous
 62
     7
100
AcDbLine
 10
2121.804786184032
 20
80.56759141011253
 30
0.0
 11
2124.304786184032
 21
80.56759141011253
 31
0.0
  0
LINE
  5
9D
330
1F
100
AcDbEntity
  8
1
  6
Continuous
 62
     7
100
AcDbLine
 10
2121.804786184032
 20
83.1175914101118
 30
0.0
 11
2121.804786184032
 21
80.56759141011253
 31
0.0
  0
LINE
  5
9E
330
1F
100
AcDbEntity
  8
1
  6
Continuous
 62
     7
100
AcDbLine
 10
2113.804786184032
 20
83.1175914101118
 30
0.0
 11
2121.804786184032
 21
83.1175914101118
 31
0.0
  0
LINE
  5
9F
330
1F
100
AcDbEntity
  8
1
  6
Continuous
 62
     7
100
AcDbLine
 10
2113.804786184032
 20
69.5175914101128
 30
0.0
 11
2113.804786184032
 21
83.1175914101118
 31
0.0
  0
LINE
  5
A0
330
1F
100
AcDbEntity
  8
1
  6
Continuous
 62
     7
100
AcDbLine
 10
2121.804786184032
 20
69.5175914101128
 30
0.0
 11
2113.804786184032
 21
69.5175914101128
 31
0.0
  0
LINE
  5
A1
330
1F
100
AcDbEntity
  8
1
  6
Continuous
 62
     7
100
AcDbLine
 10
2121.804786184032
 20
72.06759141011253
 30
0.0
 11
2121.804786184032
 21
69.5175914101128
 31
0.0
  0
LINE
  5
A2
330
1F
100
AcDbEntity
  8
1
  6
Continuous
 62
     7
100
AcDbLine
 10
2124.304786184032
 20
72.06759141011253
 30
0.0
 11
2121.804786184032
 21
72.06759141011253
 31
0.0
  0
LINE
  5
A3
330
1F
100
AcDbEntity
  8
1
  6
Continuous
 62
     7
100
AcDbLine
 10
2124.304786184032
 20
72.06759141011253
 30
0.0
 11
2124.304786184032
 21
63.31759141011253
 31
0.0
  0
LINE
  5
A4
330
1F
100
AcDbEntity
  8
1
  6
Continuous
 62
     7
100
AcDbLine
 10
2111.804786184032
 20
63.31759141011253
 30
0.0
 11
2124.304786184032
 21
63.31759141011253
 31
0.0
  0
LINE
  5
A5
330
1F
100
AcDbEntity
  8
1
  6
Continuous
 62
     7
100
AcDbLine
 10
1462.66346239155
 20
433.8922770736208
 30
0.0
 11
1462.66346239155
 21
431.8922770736317
 31
0.0
  0
LINE
  5
A6
330
1F
100
AcDbEntity
  8
1
  6
Continuous
 62
     7
100
AcDbLine
 10
2809.663462391546
 20
431.8922770736317
 30
0.0
 11
2809.663462391546
 21
433.8922770736317
 31
0.0
  0
LINE
  5
A7
330
1F
100
AcDbEntity
  8
1
  6
Continuous
 62
     7
100
AcDbLine
 10
1462.663462391548
 20
377.8922770736208
 30
0.0
 11
2809.663462391546
 21
377.8922770736317
 31
0.0
  0
LINE
  5
A8
330
1F
100
AcDbEntity
  8
1
  6
Continuous
 62
     7
100
AcDbLine
 10
2809.663462391546
 20
433.8922770736317
 30
0.0
 11
1462.66346239155
 21
433.8922770736208
 31
0.0
  0
LINE
  5
A9
330
1F
100
AcDbEntity
  8
1
  6
Continuous
 62
     7
100
AcDbLine
 10
1462.663462391439
 20
737.8336136778307
 30
0.0
 11
2809.663462391426
 21
737.8336136778307
 31
0.0
  0
LINE
  5
AA
330
1F
100
AcDbEntity
  8
1
  6
Continuous
 62
     7
100
AcDbLine
 10
1462.663462391548
 20
739.8336136786365
 30
0.0
 11
1462.663462391439
 21
737.8336136778307
 31
0.0
  0
LINE
  5
AB
330
1F
100
AcDbEntity
  8
1
  6
Continuous
 62
     7
100
AcDbLine
 10
3043.663462391544
 20
431.8922770736267
 30
0.0
 11
3043.663462391544
 21
433.8922770736267
 31
0.0
  0
LINE
  5
AC
330
1F
100
AcDbEntity
  8
1
  6
Continuous
 62
     7
100
AcDbLine
 10
3051.913462391544
 20
433.8922770736267
 30
0.0
 11
3043.663462391544
 21
433.8922770736267
 31
0.0
  0
LINE
  5
AD
330
1F
100
AcDbEntity
  8
1
  6
Continuous
 62
     7
100
AcDbLine
 10
3051.913462391544
 20
431.8922770736267
 30
0.0
 11
3051.913462391544
 21
433.8922770736267
 31
0.0
  0
LINE
  5
AE
330
1F
100
AcDbEntity
  8
1
  6
PHANTOM
 62
     4
100
AcDbLine
 10
3060.413462391544
 20
433.8922770736267
 30
0.0
 11
3068.663462391544
 21
433.8922770736267
 31
0.0
  0
LINE
  5
AF
330
1F
100
AcDbEntity
  8
1
  6
Continuous
 62
     7
100
AcDbLine
 10
2169.304786184705
 20
142.1175914101018
 30
0.0
 11
2169.304786184705
 21
65.31759141010161
 31
0.0
  0
LINE
  5
B0
330
1F
100
AcDbEntity
  8
1
  6
Continuous
 62
     7
100
AcDbLine
 10
2107.004786182869
 20
142.1175914101018
 30
0.0
 11
2168.104786184703
 21
142.1175914101018
 31
0.0
  0
LINE
  5
B1
330
1F
100
AcDbEntity
  8
1
  6
Continuous
 62
     7
100
AcDbLine
 10
2104.304786184032
 20
179.3175914101134
 30
0.0
 11
2104.304786184032
 21
126.3175914101198
 31
0.0
  0
LINE
  5
B2
330
1F
100
AcDbEntity
  8
1
  6
Continuous
 62
     7
100
AcDbLine
 10
2104.304786184032
 20
126.3175914101198
 30
0.0
 11
2124.304786184032
 21
126.3175914101198
 31
0.0
  0
LINE
  5
B3
330
1F
100
AcDbEntity
  8
1
  6
Continuous
 62
     7
100
AcDbLine
 10
2128.304786184032
 20
122.3175914101198
 30
0.0
 11
2128.304786184032
 21
63.3175914101098
 31
0.0
  0
LINE
  5
B4
330
1F
100
AcDbEntity
  8
1
  6
Continuous
 62
     7
100
AcDbLine
 10
2128.304786184032
 20
63.3175914101098
 30
0.0
 11
2124.304786184032
 21
63.3175914101098
 31
0.0
  0
LINE
  5
B5
330
1F
100
AcDbEntity
  8
1
  6
Continuous
 62
     7
100
AcDbLine
 10
2124.304786184032
 20
63.3175914101098
 30
0.0
 11
2124.304786184032
 21
122.3175914101198
 31
0.0
  0
LINE
  5
B6
330
1F
100
AcDbEntity
  8
1
  6
Continuous
 62
     7
100
AcDbLine
 10
2124.304786184032
 20
122.3175914101198
 30
0.0
 11
2104.304786184043
 21
122.3175914101198
 31
0.0
  0
LINE
  5
B7
330
1F
100
AcDbEntity
  8
1
  6
DASH_CENTER
 62
     3
100
AcDbLine
 10
2120.304786184032
 20
187.2418692648348
 30
0.0
 11
2120.304786184032
 21
174.4702170348865
 31
0.0
  0
LINE
  5
B8
330
1F
100
AcDbEntity
  8
1
  6
Continuous
 62
     7
100
AcDbLine
 10
2135.304786184032
 20
179.3175914101134
 30
0.0
 11
2104.304786184032
 21
179.3175914101134
 31
0.0
  0
LINE
  5
B9
330
1F
100
AcDbEntity
  8
1
  6
Continuous
 62
     7
100
AcDbLine
 10
2104.304786184063
 20
183.3175914101134
 30
0.0
 11
2135.304786184032
 21
183.3175914101134
 31
0.0
  0
LINE
  5
BA
330
1F
100
AcDbEntity
  8
1
  6
Continuous
 62
     7
100
AcDbLine
 10
2135.304786184032
 20
183.3175914101134
 30
0.0
 11
2135.304786184032
 21
179.3175914101134
 31
0.0
  0
LINE
  5
BB
330
1F
100
AcDbEntity
  8
1
  6
Continuous
 62
     7
100
AcDbLine
 10
2100.304786184043
 20
126.3175914101198
 30
0.0
 11
2100.304786184063
 21
179.3175914101134
 31
0.0
  0
LINE
  5
BC
330
1F
100
AcDbEntity
  8
1
  6
Continuous
 62
     7
100
AcDbLine
 10
2124.304786184032
 20
126.3175914101198
 30
0.0
 11
2124.304786184032
 21
139.1175914101086
 31
0.0
  0
LINE
  5
BD
330
1F
100
AcDbEntity
  8
1
  6
Continuous
 62
     7
100
AcDbLine
 10
2127.304786184032
 20
142.1175914101086
 30
0.0
 11
2159.304786184032
 21
142.1175914101086
 31
0.0
  0
LINE
  5
BE
330
1F
100
AcDbEntity
  8
1
  6
Continuous
 62
     7
100
AcDbLine
 10
2159.304786184032
 20
142.1175914101086
 30
0.0
 11
2159.304786184032
 21
139.1175914101086
 31
0.0
  0
LINE
  5
BF
330
1F
100
AcDbEntity
  8
1
  6
Continuous
 62
     7
100
AcDbLine
 10
2159.304786184032
 20
139.1175914101086
 30
0.0
 11
2127.304786184032
 21
139.1175914101086
 31
0.0
  0
LINE
  5
C0
330
1F
100
AcDbEntity
  8
1
  6
Continuous
 62
     7
100
AcDbLine
 10
2127.304786184032
 20
139.1175914101086
 30
0.0
 11
2127.304786184032
 21
124.9633427211838
 31
0.0
  0
LINE
  5
C1
330
1F
100
AcDbEntity
  8
1
  6
DASH_CENTER
 62
     3
100
AcDbLine
 10
2139.304786184104
 20
150.4175914101115
 30
0.0
 11
2139.304786184104
 21
136.4175914101115
 31
0.0
  0
LINE
  5
C2
330
1F
100
AcDbEntity
  8
1
  6
Continuous
 62
     7
100
AcDbLine
 10
2134.974659165181
 20
150.4175914101115
 30
0.0
 11
2143.634913203023
 21
150.4175914101115
 31
0.0
  0
LINE
  5
C3
330
1F
100
AcDbEntity
  8
1
  6
Continuous
 62
     7
100
AcDbLine
 10
2142.191537530053
 20
149.9710094227276
 30
0.0
 11
2142.191537530053
 21
146.4175914101115
 31
0.0
  0
LINE
  5
C4
330
1F
100
AcDbEntity
  8
1
  6
Continuous
 62
     7
100
AcDbLine
 10
2136.418034838154
 20
149.9710094227276
 30
0.0
 11
2136.418034838154
 21
146.4175914101115
 31
0.0
  0
LINE
  5
C5
330
1F
100
AcDbEntity
  8
1
  6
Continuous
 62
     7
100
AcDbLine
 10
2145.078288875993
 20
149.9710094227276
 30
0.0
 11
2145.078288875993
 21
146.4175914101115
 31
0.0
  0
LINE
  5
C6
330
1F
100
AcDbEntity
  8
1
  6
Continuous
 62
     7
100
AcDbLine
 10
2133.531283492204
 20
146.4175914101115
 30
0.0
 11
2133.531283492204
 21
149.9710094227276
 31
0.0
  0
LINE
  5
C7
330
1F
100
AcDbEntity
  8
1
  6
Continuous
 62
     7
100
AcDbLine
 10
2133.204786184101
 20
144.9175914101115
 30
0.0
 11
2133.204786184101
 21
146.4175914101115
 31
0.0
  0
LINE
  5
C8
330
1F
100
AcDbEntity
  8
1
  6
Continuous
 62
     7
100
AcDbLine
 10
2133.204786184101
 20
146.4175914101115
 30
0.0
 11
2145.404786184101
 21
146.4175914101115
 31
0.0
  0
LINE
  5
C9
330
1F
100
AcDbEntity
  8
1
  6
Continuous
 62
     7
100
AcDbLine
 10
2145.404786184101
 20
146.4175914101115
 30
0.0
 11
2145.404786184101
 21
144.9175914101115
 31
0.0
  0
LINE
  5
CA
330
1F
100
AcDbEntity
  8
1
  6
Continuous
 62
     7
100
AcDbLine
 10
2133.054786184104
 20
143.3175914101098
 30
0.0
 11
2133.054786184104
 21
144.9175914101115
 31
0.0
  0
LINE
  5
CB
330
1F
100
AcDbEntity
  8
1
  6
Continuous
 62
     7
100
AcDbLine
 10
2133.054786184104
 20
144.9175914101115
 30
0.0
 11
2145.554786184104
 21
144.9175914101115
 31
0.0
  0
LINE
  5
CC
330
1F
100
AcDbEntity
  8
1
  6
Continuous
 62
     7
100
AcDbLine
 10
2145.554786184104
 20
144.9175914101115
 30
0.0
 11
2145.554786184104
 21
143.3175914101098
 31
0.0
  0
LINE
  5
CD
330
1F
100
AcDbEntity
  8
1
  6
Continuous
 62
     7
100
AcDbLine
 10
2145.554786184104
 20
143.3175914101098
 30
0.0
 11
2133.054786184104
 21
143.3175914101098
 31
0.0
  0
LINE
  5
CE
330
1F
100
AcDbEntity
  8
1
  6
PHANTOM
 62
     4
100
AcDbLine
 10
2168.104786184703
 20
142.1175914101018
 30
0.0
 11
2169.304786184705
 21
142.1175914101018
 31
0.0
  0
LINE
  5
CF
330
1F
100
AcDbEntity
  8
1
  6
Continuous
 62
     7
100
AcDbLine
 10
2101.004786182867
 20
119.3175914101016
 30
0.0
 11
2099.804786182869
 21
119.3175914101016
 31
0.0
  0
LINE
  5
D0
330
1F
100
AcDbEntity
  8
1
  6
Continuous
 62
     7
100
AcDbLine
 10
2169.304786184705
 20
65.31759141010161
 30
0.0
 11
2168.104786184703
 21
65.31759141010161
 31
0.0
  0
LINE
  5
D1
330
1F
100
AcDbEntity
  8
1
  6
Continuous
 62
     7
100
AcDbLine
 10
2107.004786182869
 20
143.3175914101007
 30
0.0
 11
2168.104786184703
 21
143.3175914101016
 31
0.0
  0
LINE
  5
D2
330
1F
100
AcDbEntity
  8
1
  6
Continuous
 62
     7
100
AcDbLine
 10
2099.804786182869
 20
119.3175914101016
 30
0.0
 11
2099.804786182869
 21
142.1175914101018
 31
0.0
  0
LINE
  5
D3
330
1F
100
AcDbEntity
  8
1
  6
Continuous
 62
     7
100
AcDbLine
 10
2101.004786182869
 20
124.0570605007438
 30
0.0
 11
2101.004786182867
 21
119.3175914101016
 31
0.0
  0
LINE
  5
D4
330
1F
100
AcDbEntity
  8
1
  6
Continuous
 62
     7
100
AcDbLine
 10
2168.104786184703
 20
65.31759141010161
 30
0.0
 11
2168.104786184703
 21
142.1175914101018
 31
0.0
  0
LINE
  5
D5
330
1F
100
AcDbEntity
  8
1
  6
Continuous
 62
     7
100
AcDbLine
 10
2105.804786182869
 20
127.3175914101016
 30
0.0
 11
2107.004786182869
 21
127.3175914101016
 31
0.0
  0
LINE
  5
D6
330
1F
100
AcDbEntity
  8
1
  6
Continuous
 62
     7
100
AcDbLine
 10
2107.004786182869
 20
127.3175914101016
 30
0.0
 11
2107.004786182869
 21
142.1175914101018
 31
0.0
  0
LINE
  5
D7
330
1F
100
AcDbEntity
  8
1
  6
Continuous
 62
     7
100
AcDbLine
 10
2104.304786184032
 20
143.3175914101016
 30
0.0
 11
2107.004786182869
 21
143.3175914101007
 31
0.0
  0
LINE
  5
D8
330
1F
100
AcDbEntity
  8
1
  6
Continuous
 62
     7
100
AcDbLine
 10
2105.804786182869
 20
142.1175914100995
 30
0.0
 11
2105.804786182869
 21
127.3175914101016
 31
0.0
  0
LINE
  5
D9
330
1F
100
AcDbEntity
  8
1
  6
Continuous
 62
     7
100
AcDbLine
 10
2104.304786184032
 20
142.1175914101018
 30
0.0
 11
2105.804786182869
 21
142.1175914100995
 31
0.0
  0
LINE
  5
DA
330
1F
100
AcDbEntity
  8
1
  6
PHANTOM
 62
     3
100
AcDbLine
 10
2140.904786184051
 20
117.3175914101134
 30
0.0
 11
2158.304786184023
 21
117.3175914101125
 31
0.0
  0
LINE
  5
DB
330
1F
100
AcDbEntity
  8
1
  6
Continuous
 62
     3
100
AcDbLine
 10
2158.304786184023
 20
117.3175914101125
 30
0.0
 11
2159.204786184024
 21
117.3175914101125
 31
0.0
  0
LINE
  5
DC
330
1F
100
AcDbEntity
  8
1
  6
PHANTOM
 62
     3
100
AcDbLine
 10
2098.304786184033
 20
117.3175914101134
 30
0.0
 11
2140.904786184051
 21
117.3175914101134
 31
0.0
  0
LINE
  5
DD
330
1F
100
AcDbEntity
  8
1
  6
PHANTOM
 62
     3
100
AcDbLine
 10
2098.304786184033
 20
63.31759141011344
 30
0.0
 11
2158.304786184023
 21
63.31759141011253
 31
0.0
  0
LINE
  5
DE
330
1F
100
AcDbEntity
  8
1
  6
Continuous
 62
     3
100
AcDbLine
 10
2158.304786184023
 20
63.31759141011253
 30
0.0
 11
2159.204786184024
 21
63.31759141011253
 31
0.0
  0
LINE
  5
DF
330
1F
100
AcDbEntity
  8
0
  6
Continuous
 62
     3
100
AcDbLine
 10
2101.304786184033
 20
95.31759141011344
 30
0.0
 11
2101.304786184033
 21
96.31759141011344
 31
0.0
  0
LINE
  5
E0
330
1F
100
AcDbEntity
  8
0
  6
Continuous
 62
     3
100
AcDbLine
 10
2101.304786184033
 20
96.31759141011344
 30
0.0
 11
2101.304786184033
 21
97.31759141011344
 31
0.0
  0
LINE
  5
E1
330
1F
100
AcDbEntity
  8
0
  6
Continuous
 62
     3
100
AcDbLine
 10
2101.304786184033
 20
97.31759141011344
 30
0.0
 11
2098.304786184033
 21
98.81759141011344
 31
0.0
  0
LINE
  5
E2
330
1F
100
AcDbEntity
  8
0
  6
Continuous
 62
     3
100
AcDbLine
 10
2101.304786184033
 20
95.31759141011344
 30
0.0
 11
2098.304786184033
 21
93.81759141011344
 31
0.0
  0
LINE
  5
E3
330
1F
100
AcDbEntity
  8
1
  6
Continuous
 62
     3
100
AcDbLine
 10
2098.304786184033
 20
117.3175914101134
 30
0.0
 11
2098.304786184033
 21
63.31759141011344
 31
0.0
  0
LINE
  5
E4
330
1F
100
AcDbEntity
  8
1
  6
Continuous
 62
     3
100
AcDbLine
 10
2097.404786184025
 20
63.31759141011344
 30
0.0
 11
2097.404786184025
 21
117.3175914101134
 31
0.0
  0
LINE
  5
E5
330
1F
100
AcDbEntity
  8
0
  6
Continuous
 62
     3
100
AcDbLine
 10
2155.304786184023
 20
96.31759141011253
 30
0.0
 11
2155.304786184023
 21
95.31759141011253
 31
0.0
  0
LINE
  5
E6
330
1F
100
AcDbEntity
  8
0
  6
Continuous
 62
     3
100
AcDbLine
 10
2155.304786184023
 20
97.31759141011253
 30
0.0
 11
2155.304786184023
 21
96.31759141011253
 31
0.0
  0
LINE
  5
E7
330
1F
100
AcDbEntity
  8
0
  6
Continuous
 62
     3
100
AcDbLine
 10
2158.304786184023
 20
98.81759141011253
 30
0.0
 11
2155.304786184023
 21
97.31759141011253
 31
0.0
  0
LINE
  5
E8
330
1F
100
AcDbEntity
  8
0
  6
Continuous
 62
     3
100
AcDbLine
 10
2158.304786184023
 20
93.81759141011253
 30
0.0
 11
2155.304786184023
 21
95.31759141011253
 31
0.0
  0
LINE
  5
E9
330
1F
100
AcDbEntity
  8
1
  6
Continuous
 62
     3
100
AcDbLine
 10
2158.304786184023
 20
63.31759141011253
 30
0.0
 11
2158.304786184023
 21
117.3175914101125
 31
0.0
  0
LINE
  5
EA
330
1F
100
AcDbEntity
  8
1
  6
Continuous
 62
     3
100
AcDbLine
 10
2159.204786184024
 20
65.31759141011253
 30
0.0
 11
2159.204786184024
 21
63.31759141011253
 31
0.0
  0
LINE
  5
EB
330
1F
100
AcDbEntity
  8
1
  6
Continuous
 62
     3
100
AcDbLine
 10
2097.404786184025
 20
63.31759141011344
 30
0.0
 11
2098.304786184033
 21
63.31759141011344
 31
0.0
  0
LINE
  5
EC
330
1F
100
AcDbEntity
  8
1
  6
Continuous
 62
     3
100
AcDbLine
 10
2159.204786184024
 20
117.3175914101125
 30
0.0
 11
2159.204786184024
 21
65.31759141011253
 31
0.0
  0
LINE
  5
ED
330
1F
100
AcDbEntity
  8
1
  6
Continuous
 62
     3
100
AcDbLine
 10
2097.404786184025
 20
117.3175914101134
 30
0.0
 11
2098.304786184033
 21
117.3175914101134
 31
0.0
  0
LINE
  5
EE
330
1F
100
AcDbEntity
  8
1
  6
DASH_CENTER
 62
     3
100
AcDbLine
 10
2135.804786184023
 20
96.31759141011753
 30
0.0
 11
2115.304786184023
 21
96.3175914101098
 31
0.0
  0
LINE
  5
EF
330
1F
100
AcDbEntity
  8
1
  6
Continuous
 62
     7
100
AcDbLine
 10
2135.804786184023
 20
101.9467565347177
 30
0.0
 11
2135.804786184027
 21
90.68842628551874
 31
0.0
  0
LINE
  5
F0
330
1F
100
AcDbEntity
  8
1
  6
Continuous
 62
     7
100
AcDbLine
 10
2135.224229600425
 20
92.56481466038576
 30
0.0
 11
2130.304786184027
 21
92.56481466038349
 31
0.0
  0
LINE
  5
F1
330
1F
100
AcDbEntity
  8
1
  6
Continuous
 62
     7
100
AcDbLine
 10
2135.224229600423
 20
100.0703681598507
 30
0.0
 11
2130.304786184023
 21
100.0703681598466
 31
0.0
  0
LINE
  5
F2
330
1F
100
AcDbEntity
  8
1
  6
Continuous
 62
     7
100
AcDbLine
 10
2135.224229600425
 20
88.81203791065354
 30
0.0
 11
2130.304786184027
 21
88.81203791065173
 31
0.0
  0
LINE
  5
F3
330
1F
100
AcDbEntity
  8
1
  6
Continuous
 62
     7
100
AcDbLine
 10
2130.304786184023
 20
103.8231449095806
 30
0.0
 11
2135.224229600423
 21
103.8231449095824
 31
0.0
  0
LINE
  5
F4
330
1F
100
AcDbEntity
  8
1
  6
Continuous
 62
     7
100
AcDbLine
 10
2128.304786184015
 20
104.0175914101155
 30
0.0
 11
2130.304786184018
 21
104.0175914101164
 31
0.0
  0
LINE
  5
F5
330
1F
100
AcDbEntity
  8
1
  6
Continuous
 62
     7
100
AcDbLine
 10
2130.304786184018
 20
104.0175914101164
 30
0.0
 11
2130.304786184032
 21
88.61759141011544
 31
0.0
  0
LINE
  5
F6
330
1F
100
AcDbEntity
  8
1
  6
Continuous
 62
     7
100
AcDbLine
 10
2130.304786184032
 20
88.61759141011544
 30
0.0
 11
2128.304786184033
 21
88.61759141011544
 31
0.0
  0
LINE
  5
F7
330
1F
100
AcDbEntity
  8
1
  6
Continuous
 62
     7
100
AcDbLine
 10
2128.304786184033
 20
88.61759141011544
 30
0.0
 11
2128.304786184015
 21
104.0175914101155
 31
0.0
  0
LINE
  5
F8
330
1F
100
AcDbEntity
  8
1
  6
Continuous
 62
     7
100
AcDbLine
 10
2128.304786184033
 20
68.61759141011544
 30
0.0
 11
2128.304786184015
 21
84.01759141011553
 31
0.0
  0
LINE
  5
F9
330
1F
100
AcDbEntity
  8
1
  6
Continuous
 62
     7
100
AcDbLine
 10
2130.304786184032
 20
68.61759141011544
 30
0.0
 11
2128.304786184033
 21
68.61759141011544
 31
0.0
  0
LINE
  5
FA
330
1F
100
AcDbEntity
  8
1
  6
Continuous
 62
     7
100
AcDbLine
 10
2130.304786184018
 20
84.01759141011644
 30
0.0
 11
2130.304786184032
 21
68.61759141011544
 31
0.0
  0
LINE
  5
FB
330
1F
100
AcDbEntity
  8
1
  6
Continuous
 62
     7
100
AcDbLine
 10
2128.304786184015
 20
84.01759141011553
 30
0.0
 11
2130.304786184018
 21
84.01759141011644
 31
0.0
  0
LINE
  5
FC
330
1F
100
AcDbEntity
  8
1
  6
Continuous
 62
     7
100
AcDbLine
 10
2130.304786184023
 20
83.82314490958061
 30
0.0
 11
2135.224229600423
 21
83.82314490958243
 31
0.0
  0
LINE
  5
FD
330
1F
100
AcDbEntity
  8
1
  6
Continuous
 62
     7
100
AcDbLine
 10
2135.224229600425
 20
68.81203791065354
 30
0.0
 11
2130.304786184027
 21
68.81203791065173
 31
0.0
  0
LINE
  5
FE
330
1F
100
AcDbEntity
  8
1
  6
Continuous
 62
     7
100
AcDbLine
 10
2135.224229600423
 20
80.07036815985066
 30
0.0
 11
2130.304786184023
 21
80.07036815984657
 31
0.0
  0
LINE
  5
FF
330
1F
100
AcDbEntity
  8
1
  6
Continuous
 62
     7
100
AcDbLine
 10
2135.224229600425
 20
72.56481466038576
 30
0.0
 11
2130.304786184027
 21
72.56481466038349
 31
0.0
  0
LINE
  5
100
330
1F
100
AcDbEntity
  8
1
  6
Continuous
 62
     7
100
AcDbLine
 10
2135.804786184023
 20
81.94675653471768
 30
0.0
 11
2135.804786184027
 21
70.68842628551874
 31
0.0
  0
LINE
  5
101
330
1F
100
AcDbEntity
  8
1
  6
DASH_CENTER
 62
     3
100
AcDbLine
 10
2135.804786184023
 20
76.31759141011753
 30
0.0
 11
2115.304786184023
 21
76.3175914101098
 31
0.0
  0
LINE
  5
102
330
1F
100
AcDbEntity
  8
1
  6
Continuous
 62
     7
100
AcDbLine
 10
2106.454786184034
 20
119.3175914101125
 30
0.0
 11
2107.154786184035
 21
119.3175914101125
 31
0.0
  0
LINE
  5
103
330
1F
100
AcDbEntity
  8
1
  6
Continuous
 62
     7
100
AcDbLine
 10
2106.854786184035
 20
119.7175914101135
 30
0.0
 11
2111.804786184033
 21
119.7175914101135
 31
0.0
  0
LINE
  5
104
330
1F
100
AcDbEntity
  8
1
  6
Continuous
 62
     7
100
AcDbLine
 10
2109.004786184035
 20
118.7175914101135
 30
0.0
 11
2111.804786184033
 21
118.7175914101135
 31
0.0
  0
LINE
  5
105
330
1F
100
AcDbEntity
  8
1
  6
Continuous
 62
     7
100
AcDbLine
 10
2108.704786184034
 20
117.5500665754048
 30
0.0
 11
2108.704786184034
 21
118.4175914101138
 31
0.0
  0
LINE
  5
106
330
1F
100
AcDbEntity
  8
1
  6
Continuous
 62
     7
100
AcDbLine
 10
2107.254786184035
 20
119.3175914101125
 30
0.0
 11
2107.154786184035
 21
119.3175914101125
 31
0.0
  0
LINE
  5
107
330
1F
100
AcDbEntity
  8
1
  6
Continuous
 62
     7
100
AcDbLine
 10
2116.454786184031
 20
119.3175914101125
 30
0.0
 11
2116.354786184033
 21
119.3175914101125
 31
0.0
  0
LINE
  5
108
330
1F
100
AcDbEntity
  8
1
  6
Continuous
 62
     7
100
AcDbLine
 10
2114.904786184035
 20
118.4175914101138
 30
0.0
 11
2114.904786184035
 21
117.5500665754048
 31
0.0
  0
LINE
  5
109
330
1F
100
AcDbEntity
  8
1
  6
Continuous
 62
     7
100
AcDbLine
 10
2111.804786184033
 20
118.7175914101135
 30
0.0
 11
2114.604786184033
 21
118.7175914101135
 31
0.0
  0
LINE
  5
10A
330
1F
100
AcDbEntity
  8
1
  6
Continuous
 62
     7
100
AcDbLine
 10
2111.804786184033
 20
119.7175914101135
 30
0.0
 11
2116.754786184031
 21
119.7175914101135
 31
0.0
  0
LINE
  5
10B
330
1F
100
AcDbEntity
  8
1
  6
Continuous
 62
     7
100
AcDbLine
 10
2116.454786184031
 20
119.3175914101125
 30
0.0
 11
2117.154786184035
 21
119.3175914101125
 31
0.0
  0
LINE
  5
10C
330
1F
100
AcDbEntity
  8
1
  6
PHANTOM
 62
     3
100
AcDbLine
 10
1407.90250242205
 20
796.8326613279046
 30
0.0
 11
2838.557084816203
 21
785.4328422728768
 31
0.0
  0
LINE
  5
10D
330
1F
100
AcDbEntity
  8
1
  6
PHANTOM
 62
     3
100
AcDbLine
 10
2838.363462391498
 20
736.8336136786488
 30
0.0
 11
1407.66346239154
 21
736.8336136786488
 31
0.0
  0
LINE
  5
10E
330
1F
100
AcDbEntity
  8
1
  6
PHANTOM
 62
     3
100
AcDbLine
 10
3086.663462392216
 20
431.8922770736267
 30
0.0
 11
3102.663462391536
 21
431.8922770736267
 31
0.0
  0
LINE
  5
10F
330
1F
100
AcDbEntity
  8
1
  6
Continuous
 62
     3
100
AcDbLine
 10
3102.663462391536
 20
431.8922770736267
 30
0.0
 11
3103.563462391538
 21
431.8922770736267
 31
0.0
  0
LINE
  5
110
330
1F
100
AcDbEntity
  8
1
  6
Continuous
 62
     3
100
AcDbLine
 10
3042.663462391544
 20
431.8922770736267
 30
0.0
 11
3086.663462392216
 21
431.8922770736267
 31
0.0
  0
LINE
  5
111
330
1F
100
AcDbEntity
  8
1
  6
Continuous
 62
     3
100
AcDbLine
 10
3042.663462391544
 20
377.8922770736267
 30
0.0
 11
3102.663462391536
 21
377.8922770736267
 31
0.0
  0
LINE
  5
112
330
1F
100
AcDbEntity
  8
1
  6
Continuous
 62
     3
100
AcDbLine
 10
3102.663462391536
 20
377.8922770736267
 30
0.0
 11
3103.563462391538
 21
377.8922770736267
 31
0.0
  0
LINE
  5
113
330
1F
100
AcDbEntity
  8
1
  6
Continuous
 62
     3
100
AcDbLine
 10
3041.763462391537
 20
377.8922770736267
 30
0.0
 11
3041.763462391537
 21
431.8922770736267
 31
0.0
  0
LINE
  5
114
330
1F
100
AcDbEntity
  8
1
  6
Continuous
 62
     3
100
AcDbLine
 10
3103.563462391538
 20
379.8922770736267
 30
0.0
 11
3103.563462391538
 21
377.8922770736267
 31
0.0
  0
LINE
  5
115
330
1F
100
AcDbEntity
  8
1
  6
Continuous
 62
     3
100
AcDbLine
 10
3041.763462391537
 20
377.8922770736267
 30
0.0
 11
3042.663462391544
 21
377.8922770736267
 31
0.0
  0
LINE
  5
116
330
1F
100
AcDbEntity
  8
1
  6
PHANTOM
 62
     3
100
AcDbLine
 10
3103.563462391538
 20
431.8922770736267
 30
0.0
 11
3103.563462391538
 21
379.8922770736267
 31
0.0
  0
LINE
  5
117
330
1F
100
AcDbEntity
  8
1
  6
Continuous
 62
     3
100
AcDbLine
 10
3041.763462391537
 20
431.8922770736267
 30
0.0
 11
3042.663462391544
 21
431.8922770736267
 31
0.0
  0
LINE
  5
118
330
1F
100
AcDbEntity
  8
1
  6
Continuous
 62
     3
100
AcDbLine
 10
1376.763462391574
 20
431.8922770736317
 30
0.0
 11
2863.563462391548
 21
431.8922770736317
 31
0.0
  0
LINE
  5
119
330
1F
100
AcDbEntity
  8
1
  6
Continuous
 62
     3
100
AcDbLine
 10
2863.563462391548
 20
377.8922770736317
 30
0.0
 11
1376.763462391574
 21
377.8922770736317
 31
0.0
  0
LINE
  5
11A
330
1F
100
AcDbEntity
  8
1
  6
Continuous
 62
     3
100
AcDbLine
 10
1376.763462391574
 20
377.8922770736317
 30
0.0
 11
1376.763462391574
 21
431.8922770736317
 31
0.0
  0
LINE
  5
11B
330
1F
100
AcDbEntity
  8
0
  6
PHANTOM
 62
     4
100
AcDbLine
 10
1380.663462391572
 20
410.8922770736317
 30
0.0
 11
1380.663462391572
 21
411.8922770736317
 31
0.0
  0
LINE
  5
11C
330
1F
100
AcDbEntity
  8
0
  6
PHANTOM
 62
     4
100
AcDbLine
 10
1380.663462391572
 20
409.8922770736317
 30
0.0
 11
1380.663462391572
 21
410.8922770736317
 31
0.0
  0
LINE
  5
11D
330
1F
100
AcDbEntity
  8
1
  6
Continuous
 62
     3
100
AcDbLine
 10
2863.563462391548
 20
431.8922770736317
 30
0.0
 11
2863.563462391548
 21
377.8922770736317
 31
0.0
  0
LINE
  5
11E
330
1F
100
AcDbEntity
  8
1
  6
Continuous
 62
     7
100
AcDbLine
 10
3044.163462390384
 20
433.8922770736167
 30
0.0
 11
3044.163462390384
 21
456.6922770736146
 31
0.0
  0
LINE
  5
11F
330
1F
100
AcDbEntity
  8
1
  6
Continuous
 62
     7
100
AcDbLine
 10
3045.363462390382
 20
457.8922770736167
 30
0.0
 11
3112.463462392217
 21
457.8922770736167
 31
0.0
  0
LINE
  5
120
330
1F
100
AcDbEntity
  8
1
  6
Continuous
 62
     7
100
AcDbLine
 10
3113.663462392217
 20
456.6922770736146
 30
0.0
 11
3113.663462392217
 21
379.8922770736167
 31
0.0
  0
LINE
  5
121
330
1F
100
AcDbEntity
  8
1
  6
Continuous
 62
     7
100
AcDbLine
 10
3113.663462392217
 20
379.8922770736167
 30
0.0
 11
3112.463462392217
 21
379.8922770736167
 31
0.0
  0
LINE
  5
122
330
1F
100
AcDbEntity
  8
1
  6
Continuous
 62
     7
100
AcDbLine
 10
3086.663462392217
 20
431.8922770736167
 30
0.0
 11
3086.663462392217
 21
381.8922770736167
 31
0.0
  0
LINE
  5
123
330
1F
100
AcDbEntity
  8
1
  6
Continuous
 62
     7
100
AcDbLine
 10
3045.363462390382
 20
433.8922770736167
 30
0.0
 11
3044.163462390384
 21
433.8922770736167
 31
0.0
  0
LINE
  5
124
330
1F
100
AcDbEntity
  8
1
  6
Continuous
 62
     7
100
AcDbLine
 10
3088.663462392217
 20
379.8922770736167
 30
0.0
 11
3112.463462392217
 21
379.8922770736167
 31
0.0
  0
LINE
  5
125
330
1F
100
AcDbEntity
  8
1
  6
Continuous
 62
     7
100
AcDbLine
 10
3084.663462392217
 20
433.8922770736167
 30
0.0
 11
3045.363462390382
 21
433.8922770736167
 31
0.0
  0
LINE
  5
126
330
1F
100
AcDbEntity
  8
1
  6
Continuous
 62
     7
100
AcDbLine
 10
1462.66346239146
 20
456.6922770736196
 30
0.0
 11
1462.66346239146
 21
439.8922770736208
 31
0.0
  0
LINE
  5
127
330
1F
100
AcDbEntity
  8
1
  6
Continuous
 62
     7
100
AcDbLine
 10
2859.463462391461
 20
457.8922770736208
 30
0.0
 11
2742.663462391676
 21
457.8922770736167
 31
0.0
  0
LINE
  5
128
330
1F
100
AcDbEntity
  8
1
  6
Continuous
 62
     7
100
AcDbLine
 10
2825.663462391461
 20
433.8922770736208
 30
0.0
 11
2859.463462391455
 21
433.8922770736208
 31
0.0
  0
LINE
  5
129
330
1F
100
AcDbEntity
  8
1
  6
Continuous
 62
     7
100
AcDbLine
 10
2859.463462391455
 20
433.8922770736208
 30
0.0
 11
2860.663462391461
 21
433.8922770736208
 31
0.0
  0
LINE
  5
12A
330
1F
100
AcDbEntity
  8
1
  6
Continuous
 62
     7
100
AcDbLine
 10
2742.663462391676
 20
456.6922770736155
 30
0.0
 11
2742.663462391676
 21
443.8922770736167
 31
0.0
  0
LINE
  5
12B
330
1F
100
AcDbEntity
  8
1
  6
Continuous
 62
     7
100
AcDbLine
 10
1552.663462391737
 20
443.8922770736094
 30
0.0
 11
1552.663462391736
 21
456.6922770736128
 31
0.0
  0
LINE
  5
12C
330
1F
100
AcDbEntity
  8
1
  6
Continuous
 62
     7
100
AcDbLine
 10
1464.66346239146
 20
433.8922770736076
 30
0.0
 11
1550.663462391736
 21
433.8922770736094
 31
0.0
  0
LINE
  5
12D
330
1F
100
AcDbEntity
  8
1
  6
Continuous
 62
     7
100
AcDbLine
 10
1591.663462391635
 20
441.8922770736094
 30
0.0
 11
2440.663462391461
 21
441.8922770736167
 31
0.0
  0
LINE
  5
12E
330
1F
100
AcDbEntity
  8
1
  6
Continuous
 62
     7
100
AcDbLine
 10
1552.663462391736
 20
435.8922770736076
 30
0.0
 11
1552.663462391737
 21
443.8922770736094
 31
0.0
  0
LINE
  5
12F
330
1F
100
AcDbEntity
  8
1
  6
Continuous
 62
     7
100
AcDbLine
 10
2742.663462391676
 20
443.8922770736167
 30
0.0
 11
2742.663462391677
 21
435.8922770736208
 31
0.0
  0
LINE
  5
130
330
1F
100
AcDbEntity
  8
1
  6
Continuous
 62
     7
100
AcDbLine
 10
1462.66346239146
 20
435.8922770736067
 30
0.0
 11
1462.66346239146
 21
439.8922770736208
 31
0.0
  0
LINE
  5
131
330
1F
100
AcDbEntity
  8
1
  6
Continuous
 62
     7
100
AcDbLine
 10
2860.663462391461
 20
431.8922770736317
 30
0.0
 11
2860.663462391461
 21
456.6922770736196
 31
0.0
  0
LINE
  5
132
330
1F
100
AcDbEntity
  8
1
  6
Continuous
 62
     7
100
AcDbLine
 10
2742.663462391676
 20
456.6922770736155
 30
0.0
 11
2742.663462391676
 21
457.8922770736167
 31
0.0
  0
LINE
  5
133
330
1F
100
AcDbEntity
  8
1
  6
Continuous
 62
     7
100
AcDbLine
 10
1553.663462391635
 20
457.8922770736135
 30
0.0
 11
1552.663462391739
 21
457.8922770736135
 31
0.0
  0
LINE
  5
134
330
1F
100
AcDbEntity
  8
1
  6
Continuous
 62
     7
100
AcDbLine
 10
1552.663462391736
 20
456.6922770736128
 30
0.0
 11
1552.663462391736
 21
457.8922770736135
 31
0.0
  0
LINE
  5
135
330
1F
100
AcDbEntity
  8
1
  6
Continuous
 62
     7
100
AcDbLine
 10
1552.663462391736
 20
457.8922770736135
 30
0.0
 11
1463.863462391461
 21
457.8922770736208
 31
0.0
  0
LINE
  5
136
330
1F
100
AcDbEntity
  8
1
  6
DASH_CENTER
 62
     3
100
AcDbLine
 10
2754.163467451309
 20
464.9922770736307
 30
0.0
 11
2754.163467451309
 21
450.2271679284545
 31
0.0
  0
LINE
  5
137
330
1F
100
AcDbEntity
  8
1
  6
DASH_CENTER
 62
     3
100
AcDbLine
 10
1542.163462391644
 20
464.9922770736307
 30
0.0
 11
1542.163462391644
 21
450.2271679284545
 31
0.0
  0
LINE
  5
138
330
1F
100
AcDbEntity
  8
1
  6
Continuous
 62
     7
100
AcDbLine
 10
1552.663462391736
 20
744.3336136781595
 30
0.0
 11
1552.663462391736
 21
738.3336136781536
 31
0.0
  0
LINE
  5
139
330
1F
100
AcDbEntity
  8
1
  6
Continuous
 62
     7
100
AcDbLine
 10
2825.663462391461
 20
738.3336136793837
 30
0.0
 11
2840.663462391529
 21
738.3336136793987
 31
0.0
  0
LINE
  5
13A
330
1F
100
AcDbEntity
  8
1
  6
Continuous
 62
     7
100
AcDbLine
 10
2742.663462391676
 20
738.3336136792996
 30
0.0
 11
2742.663462391676
 21
744.3336136792186
 31
0.0
  0
LINE
  5
13B
330
1F
100
AcDbEntity
  8
1
  6
Continuous
 62
     7
100
AcDbLine
 10
2860.663462391512
 20
758.3336136794155
 30
0.0
 11
2860.663462391489
 21
780.8336136794196
 31
0.0
  0
LINE
  5
13C
330
1F
100
AcDbEntity
  8
1
  6
Continuous
 62
     7
100
AcDbLine
 10
2825.663462391461
 20
807.8336136799408
 30
0.0
 11
1462.663462391464
 21
807.8336136786265
 31
0.0
  0
LINE
  5
13D
330
1F
100
AcDbEntity
  8
1
  6
Continuous
 62
     7
100
AcDbLine
 10
2860.663462391489
 20
780.8336136794196
 30
0.0
 11
2860.663462391489
 21
787.8336136799558
 31
0.0
  0
LINE
  5
13E
330
1F
100
AcDbEntity
  8
1
  6
Continuous
 62
     7
100
AcDbLine
 10
1462.663462391464
 20
807.8336136786265
 30
0.0
 11
1462.663462391508
 21
807.4699564262228
 31
0.0
  0
LINE
  5
13F
330
1F
100
AcDbEntity
  8
1
  6
Continuous
 62
     7
100
AcDbLine
 10
1462.663462391525
 20
738.3336136780708
 30
0.0
 11
1552.663462391736
 21
738.3336136781536
 31
0.0
  0
LINE
  5
140
330
1F
100
AcDbEntity
  8
1
  6
Continuous
 62
     7
100
AcDbLine
 10
1462.663462391508
 20
807.4699564262228
 30
0.0
 11
1462.663462391525
 21
738.3336136780708
 31
0.0
  0
LINE
  5
141
330
1F
100
AcDbEntity
  8
1
  6
Continuous
 62
     7
100
AcDbLine
 10
1553.663462391635
 20
744.3336136781595
 30
0.0
 11
1552.663462391736
 21
744.3336136781595
 31
0.0
  0
LINE
  5
142
330
1F
100
AcDbEntity
  8
1
  6
Continuous
 62
     7
100
AcDbLine
 10
2744.663462391676
 20
433.8922770736208
 30
0.0
 11
2825.663462391461
 21
433.8922770736208
 31
0.0
  0
LINE
  5
143
330
1F
100
AcDbEntity
  8
1
  6
Continuous
 62
     7
100
AcDbLine
 10
2840.663462391472
 20
807.8336136799558
 30
0.0
 11
2825.663462391461
 21
807.8336136799408
 31
0.0
  0
LINE
  5
144
330
1F
100
AcDbEntity
  8
1
  6
Continuous
 62
     7
100
AcDbLine
 10
2742.663462391676
 20
738.3336136792996
 30
0.0
 11
2825.663462391461
 21
738.3336136793837
 31
0.0
  0
LINE
  5
145
330
1F
100
AcDbEntity
  8
1
  6
Continuous
 62
     7
100
AcDbLine
 10
2859.463462391455
 20
433.8922770736208
 30
0.0
 11
2859.463462391455
 21
431.8922770736317
 31
0.0
  0
LINE
  5
146
330
1F
100
AcDbEntity
  8
1
  6
Continuous
 62
     7
100
AcDbLine
 10
2703.663462391635
 20
457.8922770736167
 30
0.0
 11
1591.663462391635
 21
457.8922770736135
 31
0.0
  0
LINE
  5
147
330
1F
100
AcDbEntity
  8
1
  6
Continuous
 62
     7
100
AcDbLine
 10
2703.663462391635
 20
744.3336136788948
 30
0.0
 11
1591.663462391635
 21
744.3336136781836
 31
0.0
  0
LINE
  5
148
330
1F
100
AcDbEntity
  8
1
  6
Continuous
 62
     7
100
AcDbLine
 10
2742.663462391676
 20
457.8922770736167
 30
0.0
 11
2741.663462391635
 21
457.8922770736167
 31
0.0
  0
LINE
  5
149
330
1F
100
AcDbEntity
  8
1
  6
Continuous
 62
     7
100
AcDbLine
 10
2440.663462391461
 20
441.8922770736167
 30
0.0
 11
2703.663462391635
 21
441.8922770736176
 31
0.0
  0
LINE
  5
14A
330
1F
100
AcDbEntity
  8
1
  6
Continuous
 62
     7
100
AcDbLine
 10
2742.663462391676
 20
744.3336136789208
 30
0.0
 11
2741.663462391635
 21
744.3336136789208
 31
0.0
  0
LINE
  5
14B
330
1F
100
AcDbEntity
  8
1
  6
DASH_CENTER
 62
     3
100
AcDbLine
 10
3066.96346239152
 20
375.0519291355836
 30
0.0
 11
3066.96346239152
 21
377.8922770736276
 31
0.0
  0
LINE
  5
14C
330
1F
100
AcDbEntity
  8
1
  6
DASH_CENTER
 62
     3
100
AcDbLine
 10
3066.96346239152
 20
461.6922770736296
 30
0.0
 11
3066.963462391521
 21
431.8922770736367
 31
0.0
  0
LINE
  5
14D
330
1F
100
AcDbEntity
  8
1
  6
DASHED
 62
     4
100
AcDbLine
 10
3089.263462391518
 20
377.8922770736276
 30
0.0
 11
3086.96346239152
 21
377.8922770736276
 31
0.0
  0
LINE
  5
14E
330
1F
100
AcDbEntity
  8
1
  6
DASHED
 62
     4
100
AcDbLine
 10
3091.263462391518
 20
429.8922770736367
 30
0.0
 11
3091.263462391518
 21
414.5336542102577
 31
0.0
  0
LINE
  5
14F
330
1F
100
AcDbEntity
  8
1
  6
DASHED
 62
     4
100
AcDbLine
 10
3090.717452891258
 20
413.6426476860556
 30
0.0
 11
3088.809471891782
 21
412.6704828096786
 31
0.0
  0
LINE
  5
150
330
1F
100
AcDbEntity
  8
1
  6
DASHED
 62
     4
100
AcDbLine
 10
3090.717452891258
 20
408.1419064611987
 30
0.0
 11
3088.809471891782
 21
409.1140713375767
 31
0.0
  0
LINE
  5
151
330
1F
100
AcDbEntity
  8
1
  6
DASHED
 62
     4
100
AcDbLine
 10
3088.263462391518
 20
410.0050778617674
 30
0.0
 11
3088.263462391518
 21
411.7794762854887
 31
0.0
  0
LINE
  5
152
330
1F
100
AcDbEntity
  8
1
  6
DASHED
 62
     4
100
AcDbLine
 10
3084.163462391519
 20
431.8922770736376
 30
0.0
 11
3089.263462391518
 21
431.8922770736367
 31
0.0
  0
LINE
  5
153
330
1F
100
AcDbEntity
  8
1
  6
DASHED
 62
     4
100
AcDbLine
 10
3091.263462391518
 20
407.2508999370107
 30
0.0
 11
3091.263462391518
 21
379.8922770736276
 31
0.0
  0
LINE
  5
154
330
1F
100
AcDbEntity
  8
1
  6
DASHED
 62
     4
100
AcDbLine
 10
3042.66346239152
 20
379.8922770736267
 30
0.0
 11
3042.663462391519
 21
407.2508999370107
 31
0.0
  0
LINE
  5
155
330
1F
100
AcDbEntity
  8
1
  6
DASHED
 62
     4
100
AcDbLine
 10
3044.663462391519
 20
431.8922770736376
 30
0.0
 11
3049.763462391518
 21
431.8922770736367
 31
0.0
  0
LINE
  5
156
330
1F
100
AcDbEntity
  8
1
  6
DASHED
 62
     4
100
AcDbLine
 10
3045.663462391519
 20
411.7794762854887
 30
0.0
 11
3045.663462391519
 21
410.0050778617665
 31
0.0
  0
LINE
  5
157
330
1F
100
AcDbEntity
  8
1
  6
DASHED
 62
     4
100
AcDbLine
 10
3045.117452891259
 20
409.1140713375776
 30
0.0
 11
3043.209471891781
 21
408.1419064611987
 31
0.0
  0
LINE
  5
158
330
1F
100
AcDbEntity
  8
1
  6
DASHED
 62
     4
100
AcDbLine
 10
3045.117452891259
 20
412.6704828096777
 30
0.0
 11
3043.209471891781
 21
413.6426476860556
 31
0.0
  0
LINE
  5
159
330
1F
100
AcDbEntity
  8
1
  6
DASHED
 62
     4
100
AcDbLine
 10
3042.663462391519
 20
414.5336542102568
 30
0.0
 11
3042.66346239152
 21
429.8922770736376
 31
0.0
  0
LINE
  5
15A
330
1F
100
AcDbEntity
  8
1
  6
DASHED
 62
     4
100
AcDbLine
 10
3046.96346239152
 20
377.8922770736276
 30
0.0
 11
3044.663462391519
 21
377.8922770736267
 31
0.0
  0
LINE
  5
15B
330
1F
100
AcDbEntity
  8
1
  6
DASHED
 62
     4
100
AcDbLine
 10
3086.96346239152
 20
377.8922770736276
 30
0.0
 11
3046.96346239152
 21
377.8922770736276
 31
0.0
  0
LINE
  5
15C
330
1F
100
AcDbEntity
  8
1
  6
DASHED
 62
     4
100
AcDbLine
 10
3084.163462391519
 20
431.8922770736376
 30
0.0
 11
3049.763462391518
 21
431.8922770736367
 31
0.0
  0
LINE
  5
15D
330
1F
100
AcDbEntity
  8
1
  6
DASH_CENTER
 62
     3
100
AcDbLine
 10
3066.963462391521
 20
431.8922770736367
 30
0.0
 11
3066.96346239152
 21
377.8922770736276
 31
0.0
  0
LINE
  5
15E
330
1F
100
AcDbEntity
  8
1
  6
DASHED
 62
     4
100
AcDbLine
 10
3042.66346239152
 20
379.8922770736267
 30
0.0
 11
3091.263462391518
 21
379.8922770736276
 31
0.0
  0
LINE
  5
15F
330
1F
100
AcDbEntity
  8
1
  6
DASHED
 62
     4
100
AcDbLine
 10
3042.66346239152
 20
429.8922770736376
 30
0.0
 11
3091.263462391518
 21
429.8922770736367
 31
0.0
  0
LINE
  5
160
330
1F
100
AcDbEntity
  8
1
  6
DASHED
 62
     4
100
AcDbLine
 10
3042.663462391519
 20
407.2508999370107
 30
0.0
 11
3091.263462391518
 21
407.2508999370107
 31
0.0
  0
LINE
  5
161
330
1F
100
AcDbEntity
  8
1
  6
DASHED
 62
     4
100
AcDbLine
 10
3045.663462391519
 20
410.0050778617665
 30
0.0
 11
3088.263462391518
 21
410.0050778617674
 31
0.0
  0
LINE
  5
162
330
1F
100
AcDbEntity
  8
1
  6
DASHED
 62
     4
100
AcDbLine
 10
3091.263462391518
 20
414.5336542102468
 30
0.0
 11
3042.663462391519
 21
414.5336542102455
 31
0.0
  0
LINE
  5
163
330
1F
100
AcDbEntity
  8
1
  6
DASHED
 62
     4
100
AcDbLine
 10
3088.263462391518
 20
411.7794762854887
 30
0.0
 11
3045.663462391519
 21
411.7794762854887
 31
0.0
  0
LINE
  5
164
330
1F
100
AcDbEntity
  8
1
  6
DASH_CENTER
 62
     3
100
AcDbLine
 10
2838.363462391508
 20
787.8636136778077
 30
0.0
 11
2838.363462391508
 21
734.4036136778086
 31
0.0
  0
LINE
  5
165
330
1F
100
AcDbEntity
  8
1
  6
DASH_CENTER
 62
     3
100
AcDbLine
 10
2811.633462391507
 20
761.1336136778077
 30
0.0
 11
2865.093462391508
 21
761.1336136778077
 31
0.0
  0
LINE
  5
166
330
1F
100
AcDbEntity
  8
1
  6
DASHED
 62
     4
100
AcDbLine
 10
2818.363462391508
 20
377.8922770736276
 30
0.0
 11
2816.063462391508
 21
377.8922770736294
 31
0.0
  0
LINE
  5
167
330
1F
100
AcDbEntity
  8
1
  6
DASHED
 62
     4
100
AcDbLine
 10
2814.063462391508
 20
414.5336542102596
 30
0.0
 11
2814.063462391508
 21
429.8922770736376
 31
0.0
  0
LINE
  5
168
330
1F
100
AcDbEntity
  8
1
  6
DASHED
 62
     4
100
AcDbLine
 10
2816.517452891246
 20
412.6704828096808
 30
0.0
 11
2814.609471891768
 21
413.6426476860574
 31
0.0
  0
LINE
  5
169
330
1F
100
AcDbEntity
  8
1
  6
DASHED
 62
     4
100
AcDbLine
 10
2816.517452891246
 20
409.1140713375785
 30
0.0
 11
2814.609471891768
 21
408.1419064611987
 31
0.0
  0
LINE
  5
16A
330
1F
100
AcDbEntity
  8
1
  6
DASHED
 62
     4
100
AcDbLine
 10
2817.063462391508
 20
411.7794762854896
 30
0.0
 11
2817.063462391508
 21
410.0050778617697
 31
0.0
  0
LINE
  5
16B
330
1F
100
AcDbEntity
  8
1
  6
DASHED
 62
     4
100
AcDbLine
 10
2816.063462391508
 20
431.8922770736376
 30
0.0
 11
2821.163462391509
 21
431.8922770736376
 31
0.0
  0
LINE
  5
16C
330
1F
100
AcDbEntity
  8
1
  6
DASHED
 62
     4
100
AcDbLine
 10
2814.063462391508
 20
379.8922770736276
 30
0.0
 11
2814.063462391508
 21
407.2508999370107
 31
0.0
  0
LINE
  5
16D
330
1F
100
AcDbEntity
  8
1
  6
DASHED
 62
     4
100
AcDbLine
 10
2862.663462391509
 20
407.2508999370107
 30
0.0
 11
2862.663462391509
 21
379.8922770736276
 31
0.0
  0
LINE
  5
16E
330
1F
100
AcDbEntity
  8
1
  6
DASHED
 62
     4
100
AcDbLine
 10
2855.563462391508
 20
431.8922770736376
 30
0.0
 11
2860.663462391509
 21
431.8922770736376
 31
0.0
  0
LINE
  5
16F
330
1F
100
AcDbEntity
  8
1
  6
DASHED
 62
     4
100
AcDbLine
 10
2859.663462391509
 20
410.0050778617697
 30
0.0
 11
2859.663462391509
 21
411.7794762854896
 31
0.0
  0
LINE
  5
170
330
1F
100
AcDbEntity
  8
1
  6
DASHED
 62
     4
100
AcDbLine
 10
2862.117452891246
 20
408.1419064611987
 30
0.0
 11
2860.209471891769
 21
409.1140713375785
 31
0.0
  0
LINE
  5
171
330
1F
100
AcDbEntity
  8
1
  6
DASHED
 62
     4
100
AcDbLine
 10
2862.117452891246
 20
413.6426476860574
 30
0.0
 11
2860.209471891769
 21
412.6704828096808
 31
0.0
  0
LINE
  5
172
330
1F
100
AcDbEntity
  8
1
  6
DASHED
 62
     4
100
AcDbLine
 10
2862.663462391509
 20
429.8922770736376
 30
0.0
 11
2862.663462391509
 21
414.5336542102596
 31
0.0
  0
LINE
  5
173
330
1F
100
AcDbEntity
  8
1
  6
DASHED
 62
     4
100
AcDbLine
 10
2860.663462391509
 20
377.8922770736294
 30
0.0
 11
2858.363462391508
 21
377.8922770736276
 31
0.0
  0
LINE
  5
174
330
1F
100
AcDbEntity
  8
1
  6
DASHED
 62
     4
100
AcDbLine
 10
2858.363462391508
 20
377.8922770736276
 30
0.0
 11
2818.363462391508
 21
377.8922770736276
 31
0.0
  0
LINE
  5
175
330
1F
100
AcDbEntity
  8
1
  6
DASHED
 62
     4
100
AcDbLine
 10
2855.563462391508
 20
431.8922770736376
 30
0.0
 11
2821.163462391509
 21
431.8922770736376
 31
0.0
  0
LINE
  5
176
330
1F
100
AcDbEntity
  8
1
  6
DASH_CENTER
 62
     3
100
AcDbLine
 10
2838.363462391508
 20
377.8922770736276
 30
0.0
 11
2838.363462391508
 21
431.8922770736376
 31
0.0
  0
LINE
  5
177
330
1F
100
AcDbEntity
  8
1
  6
DASHED
 62
     4
100
AcDbLine
 10
2814.063462391508
 20
379.8922770736276
 30
0.0
 11
2862.663462391509
 21
379.8922770736276
 31
0.0
  0
LINE
  5
178
330
1F
100
AcDbEntity
  8
1
  6
DASHED
 62
     4
100
AcDbLine
 10
2814.063462391508
 20
429.8922770736376
 30
0.0
 11
2862.663462391509
 21
429.8922770736376
 31
0.0
  0
LINE
  5
179
330
1F
100
AcDbEntity
  8
1
  6
DASHED
 62
     4
100
AcDbLine
 10
2814.063462391508
 20
407.2508999370107
 30
0.0
 11
2862.663462391509
 21
407.2508999370107
 31
0.0
  0
LINE
  5
17A
330
1F
100
AcDbEntity
  8
1
  6
DASHED
 62
     4
100
AcDbLine
 10
2817.063462391508
 20
410.0050778617697
 30
0.0
 11
2859.663462391509
 21
410.0050778617697
 31
0.0
  0
LINE
  5
17B
330
1F
100
AcDbEntity
  8
1
  6
DASHED
 62
     4
100
AcDbLine
 10
2862.663462391509
 20
414.5336542102486
 30
0.0
 11
2814.063462391508
 21
414.5336542102486
 31
0.0
  0
LINE
  5
17C
330
1F
100
AcDbEntity
  8
1
  6
DASHED
 62
     4
100
AcDbLine
 10
2859.663462391509
 20
411.7794762854896
 30
0.0
 11
2817.063462391508
 21
411.7794762854896
 31
0.0
  0
LINE
  5
17D
330
1F
100
AcDbEntity
  8
1
  6
DASH_CENTER
 62
     3
100
AcDbLine
 10
2838.363462391508
 20
375.0519291355886
 30
0.0
 11
2838.363462391508
 21
377.8922770736276
 31
0.0
  0
LINE
  5
17E
330
1F
100
AcDbEntity
  8
1
  6
DASH_CENTER
 62
     3
100
AcDbLine
 10
2838.363462391508
 20
431.8922770736376
 30
0.0
 11
2838.363462391508
 21
461.6922770736187
 31
0.0
  0
LINE
  5
17F
330
1F
100
AcDbEntity
  8
1
  6
Continuous
 62
     7
100
AcDbLine
 10
3048.663462391544
 20
493.8922770736267
 30
0.0
 11
3048.663462391544
 21
457.8922770736167
 31
0.0
  0
LINE
  5
180
330
1F
100
AcDbEntity
  8
1
  6
DASH_CENTER
 62
     3
100
AcDbLine
 10
3064.663462391544
 20
501.8165549283476
 30
0.0
 11
3064.663462391544
 21
489.0449026983997
 31
0.0
  0
LINE
  5
181
330
1F
100
AcDbEntity
  8
1
  6
Continuous
 62
     7
100
AcDbLine
 10
3079.663462391544
 20
493.8922770736267
 30
0.0
 11
3048.663462391544
 21
493.8922770736267
 31
0.0
  0
LINE
  5
182
330
1F
100
AcDbEntity
  8
1
  6
Continuous
 62
     7
100
AcDbLine
 10
3048.663462391574
 20
497.8922770736267
 30
0.0
 11
3079.663462391544
 21
497.8922770736267
 31
0.0
  0
LINE
  5
183
330
1F
100
AcDbEntity
  8
1
  6
Continuous
 62
     7
100
AcDbLine
 10
3079.663462391544
 20
497.8922770736267
 30
0.0
 11
3079.663462391544
 21
493.8922770736267
 31
0.0
  0
LINE
  5
184
330
1F
100
AcDbEntity
  8
1
  6
Continuous
 62
     7
100
AcDbLine
 10
3044.663462391562
 20
457.6669565089437
 30
0.0
 11
3044.663462391574
 21
493.8922770736267
 31
0.0
  0
LINE
  5
185
330
1F
100
AcDbEntity
  8
1
  6
Continuous
 62
     7
100
AcDbLine
 10
1553.663462391635
 20
738.8336136786315
 30
0.0
 11
1553.663462391636
 21
771.8336136786115
 31
0.0
  0
LINE
  5
186
330
1F
100
AcDbEntity
  8
1
  6
Continuous
 62
     7
100
AcDbLine
 10
1555.663462391635
 20
773.8336136786115
 30
0.0
 11
1589.663462391635
 21
773.8336136786115
 31
0.0
  0
LINE
  5
187
330
1F
100
AcDbEntity
  8
1
  6
Continuous
 62
     7
100
AcDbLine
 10
1591.663462391635
 20
771.8336136786115
 30
0.0
 11
1591.663462391635
 21
738.8336136786315
 31
0.0
  0
LINE
  5
188
330
1F
100
AcDbEntity
  8
1
  6
Continuous
 62
     7
100
AcDbLine
 10
1591.663462391635
 20
738.8336136786315
 30
0.0
 11
1553.663462391635
 21
738.8336136786315
 31
0.0
  0
LINE
  5
189
330
1F
100
AcDbEntity
  8
1
  6
DASH_CENTER
 62
     3
100
AcDbLine
 10
1567.413462391635
 20
758.8336136786115
 30
0.0
 11
1577.913462391635
 21
758.8336136786115
 31
0.0
  0
LINE
  5
18A
330
1F
100
AcDbEntity
  8
1
  6
DASH_CENTER
 62
     3
100
AcDbLine
 10
1572.663462391635
 20
764.0836136786115
 30
0.0
 11
1572.663462391635
 21
753.5836136786115
 31
0.0
  0
LINE
  5
18B
330
1F
100
AcDbEntity
  8
1
  6
DASH_CENTER
 62
     3
100
AcDbLine
 10
2722.663462391635
 20
764.0836136786115
 30
0.0
 11
2722.663462391635
 21
753.5836136786115
 31
0.0
  0
LINE
  5
18C
330
1F
100
AcDbEntity
  8
1
  6
DASH_CENTER
 62
     3
100
AcDbLine
 10
2717.413462391635
 20
758.8336136786115
 30
0.0
 11
2727.913462391635
 21
758.8336136786115
 31
0.0
  0
LINE
  5
18D
330
1F
100
AcDbEntity
  8
1
  6
Continuous
 62
     7
100
AcDbLine
 10
2741.663462391635
 20
738.8336136786315
 30
0.0
 11
2703.663462391635
 21
738.8336136786315
 31
0.0
  0
LINE
  5
18E
330
1F
100
AcDbEntity
  8
1
  6
Continuous
 62
     7
100
AcDbLine
 10
2741.663462391635
 20
771.8336136786115
 30
0.0
 11
2741.663462391635
 21
738.8336136786315
 31
0.0
  0
LINE
  5
18F
330
1F
100
AcDbEntity
  8
1
  6
Continuous
 62
     7
100
AcDbLine
 10
2705.663462391635
 20
773.8336136786115
 30
0.0
 11
2739.663462391635
 21
773.8336136786115
 31
0.0
  0
LINE
  5
190
330
1F
100
AcDbEntity
  8
1
  6
Continuous
 62
     7
100
AcDbLine
 10
2703.663462391635
 20
738.8336136786315
 30
0.0
 11
2703.663462391636
 21
771.8336136786115
 31
0.0
  0
LINE
  5
191
330
1F
100
AcDbEntity
  8
1
  6
Continuous
 62
     7
100
AcDbLine
 10
2703.663462391635
 20
436.8922770736326
 30
0.0
 11
2741.663462391635
 21
436.8922770736326
 31
0.0
  0
LINE
  5
192
330
1F
100
AcDbEntity
  8
1
  6
Continuous
 62
     7
100
AcDbLine
 10
2741.663462391635
 20
434.2922770736186
 30
0.0
 11
2741.663462391635
 21
497.8922770736367
 31
0.0
  0
LINE
  5
193
330
1F
100
AcDbEntity
  8
1
  6
Continuous
 62
     7
100
AcDbLine
 10
2741.663462391635
 20
497.8922770736367
 30
0.0
 11
2703.663462391635
 21
497.8922770736367
 31
0.0
  0
LINE
  5
194
330
1F
100
AcDbEntity
  8
1
  6
DASH_CENTER
 62
     3
100
AcDbLine
 10
2722.663462391635
 20
489.0449026984147
 30
0.0
 11
2722.663462391635
 21
501.9392117701245
 31
0.0
  0
LINE
  5
195
330
1F
100
AcDbEntity
  8
1
  6
DASH_CENTER
 62
     3
100
AcDbLine
 10
1572.663462391635
 20
489.0449026984147
 30
0.0
 11
1572.663462391635
 21
501.9392117701245
 31
0.0
  0
LINE
  5
196
330
1F
100
AcDbEntity
  8
1
  6
Continuous
 62
     7
100
AcDbLine
 10
1591.663462391635
 20
497.8922770736367
 30
0.0
 11
1553.663462391635
 21
497.8922770736367
 31
0.0
  0
LINE
  5
197
330
1F
100
AcDbEntity
  8
1
  6
Continuous
 62
     7
100
AcDbLine
 10
1591.663462391635
 20
434.2922770736227
 30
0.0
 11
1591.663462391635
 21
497.8922770736367
 31
0.0
  0
LINE
  5
198
330
1F
100
AcDbEntity
  8
1
  6
Continuous
 62
     7
100
AcDbLine
 10
1553.663462391635
 20
436.8922770736326
 30
0.0
 11
1591.663462391635
 21
436.8922770736326
 31
0.0
  0
LINE
  5
199
330
1F
100
AcDbEntity
  8
1
  6
Continuous
 62
     7
100
AcDbLine
 10
2703.663462391635
 20
497.8922770736367
 30
0.0
 11
2703.663462391635
 21
434.2922770736186
 31
0.0
  0
LINE
  5
19A
330
1F
100
AcDbEntity
  8
1
  6
Continuous
 62
     7
100
AcDbLine
 10
1553.663462391635
 20
497.8922770736367
 30
0.0
 11
1553.663462391635
 21
434.2922770736227
 31
0.0
  0
LINE
  5
19B
330
1F
100
AcDbEntity
  8
0
  6
Continuous
 62
     7
100
AcDbLine
 10
3059.393906391547
 20
489.5922770736247
 30
0.0
 11
3048.663462391544
 21
489.5922770736247
 31
0.0
  0
LINE
  5
19C
330
1F
100
AcDbEntity
  8
0
  6
Continuous
 62
     7
100
AcDbLine
 10
3135.663459391548
 20
488.8922770736244
 30
0.0
 11
3048.663462391544
 21
488.8922770736244
 31
0.0
  0
LINE
  5
19D
330
1F
100
AcDbEntity
  8
0
  6
Continuous
 62
     7
100
AcDbLine
 10
3135.663459391548
 20
481.8922770736244
 30
0.0
 11
3048.663462391544
 21
481.8922770736244
 31
0.0
  0
LINE
  5
19E
330
1F
100
AcDbEntity
  8
0
  6
Continuous
 62
     7
100
AcDbLine
 10
3113.663462391544
 20
439.8922770736267
 30
0.0
 11
3134.663459391548
 21
439.8922770736244
 31
0.0
  0
LINE
  5
19F
330
1F
100
AcDbEntity
  8
0
  6
Continuous
 62
     7
100
AcDbLine
 10
3135.663459391548
 20
440.8922770736244
 30
0.0
 11
3135.663459391548
 21
488.8922770736244
 31
0.0
  0
LINE
  5
1A0
330
1F
100
AcDbEntity
  8
0
  6
Continuous
 62
     7
100
AcDbLine
 10
3121.933011391546
 20
488.8922770736244
 30
0.0
 11
3121.933011391546
 21
489.5922770736247
 31
0.0
  0
LINE
  5
1A1
330
1F
100
AcDbEntity
  8
0
  6
Continuous
 62
     7
100
AcDbLine
 10
3121.933011391546
 20
489.5922770736247
 30
0.0
 11
3132.933011391546
 21
489.5922770736247
 31
0.0
  0
LINE
  5
1A2
330
1F
100
AcDbEntity
  8
0
  6
Continuous
 62
     7
100
AcDbLine
 10
3132.933011391546
 20
488.8922770736244
 30
0.0
 11
3132.933011391546
 21
489.5922770736247
 31
0.0
  0
LINE
  5
1A3
330
1F
100
AcDbEntity
  8
0
  6
Continuous
 62
     7
100
AcDbLine
 10
3135.163459391548
 20
488.8922770736244
 30
0.0
 11
3135.163459391548
 21
577.8922770736267
 31
0.0
  0
LINE
  5
1A4
330
1F
100
AcDbEntity
  8
0
  6
Continuous
 62
     7
100
AcDbLine
 10
3133.863459391546
 20
577.8922770736267
 30
0.0
 11
3133.863459391546
 21
584.3922770736267
 31
0.0
  0
LINE
  5
1A5
330
1F
100
AcDbEntity
  8
0
  6
Continuous
 62
     7
100
AcDbLine
 10
3131.363459391546
 20
586.8922770736267
 30
0.0
 11
3133.863459391546
 21
584.3922770736267
 31
0.0
  0
LINE
  5
1A6
330
1F
100
AcDbEntity
  8
0
  6
Continuous
 62
     7
100
AcDbLine
 10
3059.393906391547
 20
488.8922770736244
 30
0.0
 11
3059.393906391547
 21
489.5922770736247
 31
0.0
  0
LINE
  5
1A7
330
1F
100
AcDbEntity
  8
0
  6
Continuous
 62
     7
100
AcDbLine
 10
3049.963459391545
 20
586.8922770736267
 30
0.0
 11
3047.463459391545
 21
584.3922770736267
 31
0.0
  0
LINE
  5
1A8
330
1F
100
AcDbEntity
  8
0
  6
Continuous
 62
     7
100
AcDbLine
 10
3047.463459391545
 20
577.8922770736267
 30
0.0
 11
3047.463459391545
 21
584.3922770736267
 31
0.0
  0
LINE
  5
1A9
330
1F
100
AcDbEntity
  8
0
  6
Continuous
 62
     7
100
AcDbLine
 10
3135.163459391548
 20
577.8922770736267
 30
0.0
 11
3046.163459391548
 21
577.8922770736267
 31
0.0
  0
LINE
  5
1AA
330
1F
100
AcDbEntity
  8
0
  6
Continuous
 62
     7
100
AcDbLine
 10
3133.863459391546
 20
584.3922770736267
 30
0.0
 11
3047.463459391545
 21
584.3922770736267
 31
0.0
  0
LINE
  5
1AB
330
1F
100
AcDbEntity
  8
0
  6
Continuous
 62
     7
100
AcDbLine
 10
3046.163459391547
 20
497.1003751036037
 30
0.0
 11
3046.163459391548
 21
577.8922770736267
 31
0.0
  0
LINE
  5
1AC
330
1F
100
AcDbEntity
  8
0
  6
DASH_CENTER
 62
     3
100
AcDbLine
 10
3090.663459391548
 20
430.7211830736246
 30
0.0
 11
3090.663459391548
 21
591.8922770736267
 31
0.0
  0
LINE
  5
1AD
330
1F
100
AcDbEntity
  8
0
  6
Continuous
 62
     7
100
AcDbLine
 10
3131.363459391546
 20
586.8922770736267
 30
0.0
 11
3049.963459391545
 21
586.8922770736267
 31
0.0
  0
LINE
  5
1AE
330
1F
100
AcDbEntity
  8
0
  6
Continuous
 62
     7
100
AcDbLine
 10
3140.163459391547
 20
494.8922770736244
 30
0.0
 11
3136.163459391547
 21
494.8922770736244
 31
0.0
  0
LINE
  5
1AF
330
1F
100
AcDbEntity
  8
0
  6
Continuous
 62
     7
100
AcDbLine
 10
3140.163459391547
 20
490.3922770736244
 30
0.0
 11
3140.163459391547
 21
498.3922770736267
 31
0.0
  0
LINE
  5
1B0
330
1F
100
AcDbEntity
  8
0
  6
Continuous
 62
     7
100
AcDbLine
 10
3140.163459391547
 20
497.4922770736248
 30
0.0
 11
3136.163459391547
 21
497.4922770736248
 31
0.0
  0
LINE
  5
1B1
330
1F
100
AcDbEntity
  8
0
  6
Continuous
 62
     7
100
AcDbLine
 10
3138.169438391546
 20
492.2922770736254
 30
0.0
 11
3136.163459391547
 21
492.2922770736254
 31
0.0
  0
LINE
  5
1B2
330
1F
100
AcDbEntity
  8
0
  6
Continuous
 62
     7
100
AcDbLine
 10
3144.913459391547
 20
498.3922770736267
 30
0.0
 11
3140.163459391547
 21
498.3922770736267
 31
0.0
  0
LINE
  5
1B3
330
1F
100
AcDbEntity
  8
0
  6
Continuous
 62
     7
100
AcDbLine
 10
3144.913459391547
 20
490.3922770736244
 30
0.0
 11
3140.163459391547
 21
490.3922770736244
 31
0.0
  0
LINE
  5
1B4
330
1F
100
AcDbEntity
  8
0
  6
Continuous
 62
     7
100
AcDbLine
 10
3136.363459391546
 20
482.1422770736244
 30
0.0
 11
3136.363459391546
 21
488.1422770736244
 31
0.0
  0
LINE
  5
1B5
330
1F
100
AcDbEntity
  8
0
  6
Continuous
 62
     7
100
AcDbLine
 10
3136.363459391546
 20
488.1422770736244
 30
0.0
 11
3135.663459391547
 21
488.1422770736244
 31
0.0
  0
LINE
  5
1B6
330
1F
100
AcDbEntity
  8
0
  6
Continuous
 62
     7
100
AcDbLine
 10
3136.363459391546
 20
482.1422770736244
 30
0.0
 11
3135.663459391547
 21
482.1422770736244
 31
0.0
  0
LINE
  5
1B7
330
1F
100
AcDbEntity
  8
0
  6
Continuous
 62
     7
100
AcDbLine
 10
3136.163459391547
 20
489.6700210736267
 30
0.0
 11
3136.163459391547
 21
498.3922770736267
 31
0.0
  0
LINE
  5
1B8
330
1F
100
AcDbEntity
  8
0
  6
Continuous
 62
     7
100
AcDbLine
 10
3135.663459391547
 20
498.8922770736267
 30
0.0
 11
3135.163459391547
 21
498.8922770736267
 31
0.0
  0
LINE
  5
1B9
330
1F
100
AcDbEntity
  8
0
  6
Continuous
 62
     7
100
AcDbLine
 10
3148.603459391547
 20
501.5922770736256
 30
0.0
 11
3143.723459391546
 21
501.5922770736256
 31
0.0
  0
LINE
  5
1BA
330
1F
100
AcDbEntity
  8
0
  6
Continuous
 62
     7
100
AcDbLine
 10
3148.603459391547
 20
499.0922770736256
 30
0.0
 11
3148.603459391547
 21
501.5922770736256
 31
0.0
  0
LINE
  5
1BB
330
1F
100
AcDbEntity
  8
0
  6
Continuous
 62
     7
100
AcDbLine
 10
3143.723459391546
 20
499.0922770736256
 30
0.0
 11
3143.723459391546
 21
501.5922770736256
 31
0.0
  0
LINE
  5
1BC
330
1F
100
AcDbEntity
  8
0
  6
Continuous
 62
     7
100
AcDbLine
 10
3148.603459391547
 20
499.0922770736256
 30
0.0
 11
3143.723459391546
 21
499.0922770736256
 31
0.0
  0
LINE
  5
1BD
330
1F
100
AcDbEntity
  8
0
  6
Continuous
 62
     7
100
AcDbLine
 10
3147.413459391547
 20
502.5922770736256
 30
0.0
 11
3144.913459391547
 21
502.5922770736256
 31
0.0
  0
LINE
  5
1BE
330
1F
100
AcDbEntity
  8
0
  6
Continuous
 62
     7
100
AcDbLine
 10
3147.413459391547
 20
489.0922770736247
 30
0.0
 11
3144.913459391547
 21
489.0922770736247
 31
0.0
  0
LINE
  5
1BF
330
1F
100
AcDbEntity
  8
0
  6
Continuous
 62
     7
100
AcDbLine
 10
3144.913459391547
 20
501.5922770736256
 30
0.0
 11
3144.913459391547
 21
502.5922770736256
 31
0.0
  0
LINE
  5
1C0
330
1F
100
AcDbEntity
  8
0
  6
Continuous
 62
     7
100
AcDbLine
 10
3144.913459391547
 20
489.0922770736247
 30
0.0
 11
3144.913459391547
 21
499.0922770736256
 31
0.0
  0
LINE
  5
1C1
330
1F
100
AcDbEntity
  8
0
  6
Continuous
 62
     7
100
AcDbLine
 10
3147.413459391547
 20
501.5922770736256
 30
0.0
 11
3147.413459391547
 21
502.5922770736256
 31
0.0
  0
LINE
  5
1C2
330
1F
100
AcDbEntity
  8
0
  6
Continuous
 62
     7
100
AcDbLine
 10
3147.413459391547
 20
489.0922770736247
 30
0.0
 11
3147.413459391547
 21
499.0922770736256
 31
0.0
  0
LINE
  5
1C3
330
1F
100
AcDbEntity
  8
0
  6
Continuous
 62
     7
100
AcDbLine
 10
3136.363459391546
 20
487.9422770736246
 30
0.0
 11
3137.631275391546
 21
487.9422770736246
 31
0.0
  0
LINE
  5
1C4
330
1F
100
AcDbEntity
  8
0
  6
Continuous
 62
     7
100
AcDbLine
 10
3136.363459391546
 20
482.3422770736247
 30
0.0
 11
3137.631275391546
 21
482.3422770736247
 31
0.0
  0
LINE
  5
1C5
330
1F
100
AcDbEntity
  8
1
  6
Continuous
 62
     7
100
AcDbLine
 10
3125.663459391547
 20
433.8922770736267
 30
0.0
 11
3147.413459391547
 21
433.8922770736267
 31
0.0
  0
LINE
  5
1C6
330
1F
100
AcDbEntity
  8
1
  6
Continuous
 62
     7
100
AcDbLine
 10
3125.663459391548
 20
425.8918150736267
 30
0.0
 11
3147.266887861711
 21
425.8918150736267
 31
0.0
  0
LINE
  5
1C7
330
1F
100
AcDbEntity
  8
1
  6
Continuous
 62
     7
100
AcDbLine
 10
3139.91459967736
 20
415.0299608623695
 30
0.0
 11
3123.369153646141
 21
426.6152068964707
 31
0.0
  0
LINE
  5
1C8
330
1F
100
AcDbEntity
  8
1
  6
Continuous
 62
     7
100
AcDbLine
 10
3145.769754723914
 20
420.6963338714795
 30
0.0
 11
3138.349838600999
 21
425.8918150736267
 31
0.0
  0
LINE
  5
1C9
330
1F
100
AcDbEntity
  8
1
  6
Continuous
 62
     7
100
AcDbLine
 10
3145.677348684286
 20
410.9948405669106
 30
0.0
 11
3141.16999995173
 21
414.1509201267886
 31
0.0
  0
LINE
  5
1CA
330
1F
100
AcDbEntity
  8
1
  6
Continuous
 62
     7
100
AcDbLine
 10
3150.587489493778
 20
417.3229196685256
 30
0.0
 11
3147.039366647363
 21
419.8073420320775
 31
0.0
  0
LINE
  5
1CB
330
1F
100
AcDbEntity
  8
0
  6
Continuous
 62
     7
100
AcDbLine
 10
1401.663462391543
 20
431.8922770736317
 30
0.0
 11
1401.663462391543
 21
433.8922770736317
 31
0.0
  0
LINE
  5
1CC
330
1F
100
AcDbEntity
  8
0
  6
Continuous
 62
     7
100
AcDbLine
 10
1413.663462391543
 20
433.8922770736317
 30
0.0
 11
1413.663462391543
 21
431.8922770736317
 31
0.0
  0
LINE
  5
1CD
330
1F
100
AcDbEntity
  8
0
  6
Continuous
 62
     7
100
AcDbLine
 10
1448.363462391548
 20
586.8922770736317
 30
0.0
 11
1366.963462391542
 21
586.8922770736317
 31
0.0
  0
LINE
  5
1CE
330
1F
100
AcDbEntity
  8
0
  6
DASH_CENTER
 62
     3
100
AcDbLine
 10
1407.663462391543
 20
591.8922770736317
 30
0.0
 11
1407.663462391543
 21
404.2793670838146
 31
0.0
  0
LINE
  5
1CF
330
1F
100
AcDbEntity
  8
0
  6
Continuous
 62
     7
100
AcDbLine
 10
1452.163462391548
 20
577.8922770736317
 30
0.0
 11
1452.163462391548
 21
488.8922770736317
 31
0.0
  0
LINE
  5
1D0
330
1F
100
AcDbEntity
  8
0
  6
Continuous
 62
     7
100
AcDbLine
 10
1452.663462391548
 20
488.8922770736317
 30
0.0
 11
1362.663462391543
 21
488.8922770736317
 31
0.0
  0
LINE
  5
1D1
330
1F
100
AcDbEntity
  8
0
  6
Continuous
 62
     7
100
AcDbLine
 10
1449.933015391546
 20
489.5922770736288
 30
0.0
 11
1438.933015391546
 21
489.5922770736288
 31
0.0
  0
LINE
  5
1D2
330
1F
100
AcDbEntity
  8
0
  6
Continuous
 62
     7
100
AcDbLine
 10
1450.863462391548
 20
584.3922770736317
 30
0.0
 11
1364.463462391542
 21
584.3922770736317
 31
0.0
  0
LINE
  5
1D3
330
1F
100
AcDbEntity
  8
0
  6
Continuous
 62
     7
100
AcDbLine
 10
1452.163462391548
 20
577.8922770736317
 30
0.0
 11
1363.163462391543
 21
577.8922770736317
 31
0.0
  0
LINE
  5
1D4
330
1F
100
AcDbEntity
  8
0
  6
Continuous
 62
     7
100
AcDbLine
 10
1450.863462391548
 20
584.3922770736317
 30
0.0
 11
1450.863462391548
 21
577.8922770736317
 31
0.0
  0
LINE
  5
1D5
330
1F
100
AcDbEntity
  8
0
  6
Continuous
 62
     7
100
AcDbLine
 10
1450.863462391548
 20
584.3922770736317
 30
0.0
 11
1448.363462391548
 21
586.8922770736317
 31
0.0
  0
LINE
  5
1D6
330
1F
100
AcDbEntity
  8
0
  6
Continuous
 62
     7
100
AcDbLine
 10
1449.933015391546
 20
489.5922770736288
 30
0.0
 11
1449.933015391546
 21
488.8922770736317
 31
0.0
  0
LINE
  5
1D7
330
1F
100
AcDbEntity
  8
0
  6
Continuous
 62
     7
100
AcDbLine
 10
1438.933015391546
 20
489.5922770736288
 30
0.0
 11
1438.933015391546
 21
488.8922770736317
 31
0.0
  0
LINE
  5
1D8
330
1F
100
AcDbEntity
  8
0
  6
Continuous
 62
     7
100
AcDbLine
 10
1364.463462391542
 20
584.3922770736317
 30
0.0
 11
1366.963462391542
 21
586.8922770736317
 31
0.0
  0
LINE
  5
1D9
330
1F
100
AcDbEntity
  8
0
  6
Continuous
 62
     7
100
AcDbLine
 10
1364.463462391542
 20
584.3922770736317
 30
0.0
 11
1364.463462391542
 21
577.8922770736317
 31
0.0
  0
LINE
  5
1DA
330
1F
100
AcDbEntity
  8
0
  6
Continuous
 62
     7
100
AcDbLine
 10
1363.163462391543
 20
577.8922770736317
 30
0.0
 11
1363.163462391543
 21
488.8922770736317
 31
0.0
  0
LINE
  5
1DB
330
1F
100
AcDbEntity
  8
0
  6
Continuous
 62
     7
100
AcDbLine
 10
1365.393910391542
 20
489.5922770736288
 30
0.0
 11
1365.393910391542
 21
488.8922770736317
 31
0.0
  0
LINE
  5
1DC
330
1F
100
AcDbEntity
  8
0
  6
Continuous
 62
     7
100
AcDbLine
 10
1365.393910391542
 20
489.5922770736288
 30
0.0
 11
1376.393910391542
 21
489.5922770736288
 31
0.0
  0
LINE
  5
1DD
330
1F
100
AcDbEntity
  8
0
  6
Continuous
 62
     7
100
AcDbLine
 10
1376.393910391542
 20
489.5922770736288
 30
0.0
 11
1376.393910391542
 21
488.8922770736317
 31
0.0
  0
LINE
  5
1DE
330
1F
100
AcDbEntity
  8
0
  6
Continuous
 62
     7
100
AcDbLine
 10
1452.663462391548
 20
481.8922770736317
 30
0.0
 11
1362.663462391543
 21
481.8922770736317
 31
0.0
  0
LINE
  5
1DF
330
1F
100
AcDbEntity
  8
0
  6
Continuous
 62
     7
100
AcDbLine
 10
1452.163462391548
 20
481.8922770736317
 30
0.0
 11
1363.163462391543
 21
481.8922770736317
 31
0.0
  0
LINE
  5
1E0
330
1F
100
AcDbEntity
  8
0
  6
Continuous
 62
     7
100
AcDbLine
 10
1362.663462391543
 20
488.8922770736317
 30
0.0
 11
1362.663462391543
 21
440.8922770736317
 31
0.0
  0
LINE
  5
1E1
330
1F
100
AcDbEntity
  8
0
  6
Continuous
 62
     7
100
AcDbLine
 10
1363.663462391543
 20
439.8922770736317
 30
0.0
 11
1451.663462391548
 21
439.8922770736317
 31
0.0
  0
LINE
  5
1E2
330
1F
100
AcDbEntity
  8
0
  6
Continuous
 62
     7
100
AcDbLine
 10
1452.663462391548
 20
440.8922770736317
 30
0.0
 11
1452.663462391548
 21
488.8922770736317
 31
0.0
  0
LINE
  5
1E3
330
1F
100
AcDbEntity
  8
0
  6
DASH_CENTER
 62
     3
100
AcDbLine
 10
1376.114254391428
 20
816.3828216786096
 30
0.0
 11
1365.065186391418
 21
827.4318886786027
 31
0.0
  0
LINE
  5
1E4
330
1F
100
AcDbEntity
  8
0
  6
DASH_CENTER
 62
     3
100
AcDbLine
 10
1376.226481391458
 20
753.3966326786085
 30
0.0
 11
1366.746748391468
 21
743.9168996786066
 31
0.0
  0
LINE
  5
1E5
330
1F
100
AcDbEntity
  8
0
  6
Continuous
 62
     7
100
AcDbLine
 10
1407.663462391409
 20
829.8336136786238
 30
0.0
 11
1370.863462391409
 21
829.8336136786056
 31
0.0
  0
LINE
  5
1E6
330
1F
100
AcDbEntity
  8
0
  6
Continuous
 62
     7
100
AcDbLine
 10
1407.663462391475
 20
739.8336136786297
 30
0.0
 11
1370.863462391468
 21
739.8336136786097
 31
0.0
  0
LINE
  5
1E7
330
1F
100
AcDbEntity
  8
0
  6
Continuous
 62
     7
100
AcDbLine
 10
1362.663462391459
 20
748.0336136786045
 30
0.0
 11
1362.663462391427
 21
821.6336136785976
 31
0.0
  0
LINE
  5
1E8
330
1F
100
AcDbEntity
  8
0
  6
Continuous
 62
     7
100
AcDbLine
 10
1393.463462391261
 20
830.5336136785136
 30
0.0
 11
1393.463462391261
 21
831.8014296785145
 31
0.0
  0
LINE
  5
1E9
330
1F
100
AcDbEntity
  8
0
  6
Continuous
 62
     7
100
AcDbLine
 10
1387.863462391257
 20
830.5336136785186
 30
0.0
 11
1387.863462391257
 21
831.8014296785227
 31
0.0
  0
LINE
  5
1EA
330
1F
100
AcDbEntity
  8
0
  6
DASH_CENTER
 62
     3
100
AcDbLine
 10
1439.212670391417
 20
816.3828216786455
 30
0.0
 11
1450.261737391414
 21
827.4318886786527
 31
0.0
  0
LINE
  5
1EB
330
1F
100
AcDbEntity
  8
0
  6
DASH_CENTER
 62
     3
100
AcDbLine
 10
1439.100442391454
 20
753.3966326786485
 30
0.0
 11
1448.580175391455
 21
743.9168996786507
 31
0.0
  0
LINE
  5
1EC
330
1F
100
AcDbEntity
  8
0
  6
Continuous
 62
     7
100
AcDbLine
 10
1407.663462391409
 20
829.8336136786238
 30
0.0
 11
1444.463462391413
 21
829.8336136786497
 31
0.0
  0
LINE
  5
1ED
330
1F
100
AcDbEntity
  8
0
  6
Continuous
 62
     7
100
AcDbLine
 10
1407.663462391475
 20
739.8336136786297
 30
0.0
 11
1444.463462391463
 21
739.8336136786497
 31
0.0
  0
LINE
  5
1EE
330
1F
100
AcDbEntity
  8
0
  6
Continuous
 62
     7
100
AcDbLine
 10
1452.663462391456
 20
748.0336136786536
 30
0.0
 11
1452.663462391414
 21
821.6336136786617
 31
0.0
  0
LINE
  5
1EF
330
1F
100
AcDbEntity
  8
0
  6
Continuous
 62
     7
100
AcDbLine
 10
1387.299722391269
 20
833.0941606785236
 30
0.0
 11
1387.886461391257
 21
834.5106736785187
 31
0.0
  0
LINE
  5
1F0
330
1F
100
AcDbEntity
  8
0
  6
Continuous
 62
     7
100
AcDbLine
 10
1385.949159391256
 20
829.8336136785188
 30
0.0
 11
1386.177816391257
 21
830.3856406785258
 31
0.0
  0
LINE
  5
1F1
330
1F
100
AcDbEntity
  8
0
  6
Continuous
 62
     7
100
AcDbLine
 10
1383.441470391258
 20
830.5736456785257
 30
0.0
 11
1384.125581391268
 21
832.2252346785267
 31
0.0
  0
LINE
  5
1F2
330
1F
100
AcDbEntity
  8
0
  6
Continuous
 62
     7
100
AcDbLine
 10
1393.913462391251
 20
830.5336136785186
 30
0.0
 11
1387.413462391268
 21
830.5336136785186
 31
0.0
  0
LINE
  5
1F3
330
1F
100
AcDbEntity
  8
0
  6
Continuous
 62
     7
100
AcDbLine
 10
1393.913462391251
 20
830.5336136785186
 30
0.0
 11
1393.913462391261
 21
829.8336136785188
 31
0.0
  0
LINE
  5
1F4
330
1F
100
AcDbEntity
  8
0
  6
Continuous
 62
     7
100
AcDbLine
 10
1387.413462391268
 20
830.5336136785186
 30
0.0
 11
1387.413462391248
 21
829.8336136785256
 31
0.0
  0
LINE
  5
1F5
330
1F
100
AcDbEntity
  8
0
  6
Continuous
 62
     7
100
AcDbLine
 10
1388.011147391258
 20
843.6941536785198
 30
0.0
 11
1396.627438391258
 21
838.6187706785117
 31
0.0
  0
LINE
  5
1F6
330
1F
100
AcDbEntity
  8
0
  6
Continuous
 62
     7
100
AcDbLine
 10
1398.781511391257
 20
837.3499246785177
 30
0.0
 11
1399.643140391263
 21
836.8423856785157
 31
0.0
  0
LINE
  5
1F7
330
1F
100
AcDbEntity
  8
0
  6
Continuous
 62
     7
100
AcDbLine
 10
1386.742301391258
 20
841.5400806785206
 30
0.0
 11
1395.358592391252
 21
836.4646976785216
 31
0.0
  0
LINE
  5
1F8
330
1F
100
AcDbEntity
  8
0
  6
Continuous
 62
     7
100
AcDbLine
 10
1397.512665391268
 20
835.1958516785198
 30
0.0
 11
1398.374294391258
 21
834.6883136785177
 31
0.0
  0
LINE
  5
1F9
330
1F
100
AcDbEntity
  8
0
  6
Continuous
 62
     7
100
AcDbLine
 10
1388.011147391258
 20
843.6941536785198
 30
0.0
 11
1386.742301391258
 21
841.5400806785206
 31
0.0
  0
LINE
  5
1FA
330
1F
100
AcDbEntity
  8
0
  6
Continuous
 62
     7
100
AcDbLine
 10
1399.643140391263
 20
836.8423856785157
 30
0.0
 11
1398.374294391258
 21
834.6883136785177
 31
0.0
  0
LINE
  5
1FB
330
1F
100
AcDbEntity
  8
0
  6
Continuous
 62
     7
100
AcDbLine
 10
1397.231409391246
 20
839.6441086785198
 30
0.0
 11
1394.754622391263
 21
835.4393586785136
 31
0.0
  0
LINE
  5
1FC
330
1F
100
AcDbEntity
  8
0
  6
Continuous
 62
     7
100
AcDbLine
 10
1394.754622391263
 20
835.4393586785136
 30
0.0
 11
1396.908695391267
 21
834.1705126785196
 31
0.0
  0
LINE
  5
1FD
330
1F
100
AcDbEntity
  8
0
  6
Continuous
 62
     7
100
AcDbLine
 10
1397.231409391246
 20
839.6441086785198
 30
0.0
 11
1399.385482391253
 21
838.3752636785125
 31
0.0
  0
LINE
  5
1FE
330
1F
100
AcDbEntity
  8
0
  6
Continuous
 62
     7
100
AcDbLine
 10
1399.385482391253
 20
838.3752636785125
 30
0.0
 11
1396.908695391267
 21
834.1705126785196
 31
0.0
  0
LINE
  5
1FF
330
1F
100
AcDbEntity
  8
0
  6
Continuous
 62
     7
100
AcDbLine
 10
1385.389254391268
 20
835.5450506785237
 30
0.0
 11
1392.783022391265
 21
832.4824516785197
 31
0.0
  0
LINE
  5
200
330
1F
100
AcDbEntity
  8
0
  6
Continuous
 62
     7
100
AcDbLine
 10
1383.182623391258
 20
830.6808636785268
 30
0.0
 11
1385.228066391248
 21
829.8336136785256
 31
0.0
  0
LINE
  5
201
330
1F
100
AcDbEntity
  8
0
  6
Continuous
 62
     7
100
AcDbLine
 10
1382.604610391259
 20
830.3637136785287
 30
0.0
 11
1382.411669391257
 21
829.8336136785206
 31
0.0
  0
LINE
  5
202
330
1F
100
AcDbEntity
  8
1
  6
DASH_CENTER
 62
     3
100
AcDbLine
 10
1444.433014891437
 20
495.2910372404795
 30
0.0
 11
1444.433014891437
 21
429.2910372404795
 31
0.0
  0
LINE
  5
203
330
1F
100
AcDbEntity
  8
1
  6
DASH_CENTER
 62
     3
100
AcDbLine
 10
3083.663462391615
 20
464.9922770736248
 30
0.0
 11
3083.663462391616
 21
450.9922770736248
 31
0.0
  0
LINE
  5
204
330
1F
100
AcDbEntity
  8
1
  6
Continuous
 62
     7
100
AcDbLine
 10
3079.333335372696
 20
464.9922770736248
 30
0.0
 11
3087.993589410537
 21
464.9922770736248
 31
0.0
  0
LINE
  5
205
330
1F
100
AcDbEntity
  8
1
  6
Continuous
 62
     7
100
AcDbLine
 10
3086.550213737566
 20
464.5456950862408
 30
0.0
 11
3086.550213737566
 21
460.9922770736248
 31
0.0
  0
LINE
  5
206
330
1F
100
AcDbEntity
  8
1
  6
Continuous
 62
     7
100
AcDbLine
 10
3080.776711045665
 20
464.5456950862408
 30
0.0
 11
3080.776711045665
 21
460.9922770736248
 31
0.0
  0
LINE
  5
207
330
1F
100
AcDbEntity
  8
1
  6
Continuous
 62
     7
100
AcDbLine
 10
3089.436965083504
 20
464.5456950862408
 30
0.0
 11
3089.436965083504
 21
460.9922770736248
 31
0.0
  0
LINE
  5
208
330
1F
100
AcDbEntity
  8
1
  6
Continuous
 62
     7
100
AcDbLine
 10
3077.889959699715
 20
460.9922770736248
 30
0.0
 11
3077.889959699715
 21
464.5456950862408
 31
0.0
  0
LINE
  5
209
330
1F
100
AcDbEntity
  8
1
  6
Continuous
 62
     7
100
AcDbLine
 10
3077.563462391616
 20
459.4922770736248
 30
0.0
 11
3077.563462391616
 21
460.9922770736248
 31
0.0
  0
LINE
  5
20A
330
1F
100
AcDbEntity
  8
1
  6
Continuous
 62
     7
100
AcDbLine
 10
3077.563462391616
 20
460.9922770736248
 30
0.0
 11
3089.763462391616
 21
460.9922770736248
 31
0.0
  0
LINE
  5
20B
330
1F
100
AcDbEntity
  8
1
  6
Continuous
 62
     7
100
AcDbLine
 10
3089.763462391616
 20
460.9922770736248
 30
0.0
 11
3089.763462391616
 21
459.4922770736248
 31
0.0
  0
LINE
  5
20C
330
1F
100
AcDbEntity
  8
1
  6
Continuous
 62
     7
100
AcDbLine
 10
3077.413462391615
 20
457.8922770736226
 30
0.0
 11
3077.413462391615
 21
459.4922770736248
 31
0.0
  0
LINE
  5
20D
330
1F
100
AcDbEntity
  8
1
  6
Continuous
 62
     7
100
AcDbLine
 10
3077.413462391615
 20
459.4922770736248
 30
0.0
 11
3089.913462391615
 21
459.4922770736248
 31
0.0
  0
LINE
  5
20E
330
1F
100
AcDbEntity
  8
1
  6
Continuous
 62
     7
100
AcDbLine
 10
3089.913462391615
 20
459.4922770736248
 30
0.0
 11
3089.913462391615
 21
457.8922770736226
 31
0.0
  0
LINE
  5
20F
330
1F
100
AcDbEntity
  8
1
  6
Continuous
 62
     7
100
AcDbLine
 10
3089.913462391615
 20
457.8922770736226
 30
0.0
 11
3077.413462391615
 21
457.8922770736226
 31
0.0
  0
LINE
  5
210
330
1F
100
AcDbEntity
  8
1
  6
DASH_CENTER
 62
     3
100
AcDbLine
 10
1542.163462391548
 20
770.9054104482416
 30
0.0
 11
1542.163462391548
 21
784.7618169087896
 31
0.0
  0
LINE
  5
211
330
1F
100
AcDbEntity
  8
1
  6
DASH_CENTER
 62
     3
100
AcDbLine
 10
1535.235259161266
 20
777.8336136785206
 30
0.0
 11
1549.091665621828
 21
777.8336136785106
 31
0.0
  0
LINE
  5
212
330
1F
100
AcDbEntity
  8
1
  6
Continuous
 62
     7
100
AcDbLine
 10
1537.833335372629
 20
464.9922770736307
 30
0.0
 11
1546.493589410466
 21
464.9922770736307
 31
0.0
  0
LINE
  5
213
330
1F
100
AcDbEntity
  8
1
  6
Continuous
 62
     7
100
AcDbLine
 10
1539.276711045596
 20
460.9922770736307
 30
0.0
 11
1539.276711045596
 21
464.5456950862467
 31
0.0
  0
LINE
  5
214
330
1F
100
AcDbEntity
  8
1
  6
Continuous
 62
     7
100
AcDbLine
 10
1545.050213737498
 20
460.9922770736307
 30
0.0
 11
1545.050213737498
 21
464.5456950862467
 31
0.0
  0
LINE
  5
215
330
1F
100
AcDbEntity
  8
1
  6
Continuous
 62
     7
100
AcDbLine
 10
1536.389959699646
 20
460.9922770736307
 30
0.0
 11
1536.389959699646
 21
464.5456950862467
 31
0.0
  0
LINE
  5
216
330
1F
100
AcDbEntity
  8
1
  6
Continuous
 62
     7
100
AcDbLine
 10
1547.936965083448
 20
464.5456950862467
 30
0.0
 11
1547.936965083448
 21
460.9922770736307
 31
0.0
  0
LINE
  5
217
330
1F
100
AcDbEntity
  8
1
  6
Continuous
 62
     7
100
AcDbLine
 10
1548.263462391547
 20
460.9922770736307
 30
0.0
 11
1548.263462391547
 21
459.4922770736307
 31
0.0
  0
LINE
  5
218
330
1F
100
AcDbEntity
  8
1
  6
Continuous
 62
     7
100
AcDbLine
 10
1536.063462391549
 20
460.9922770736307
 30
0.0
 11
1548.263462391547
 21
460.9922770736307
 31
0.0
  0
LINE
  5
219
330
1F
100
AcDbEntity
  8
1
  6
Continuous
 62
     7
100
AcDbLine
 10
1536.063462391549
 20
459.4922770736307
 30
0.0
 11
1536.063462391549
 21
460.9922770736307
 31
0.0
  0
LINE
  5
21A
330
1F
100
AcDbEntity
  8
1
  6
Continuous
 62
     7
100
AcDbLine
 10
1548.263462391547
 20
459.4922770736307
 30
0.0
 11
1536.063462391549
 21
459.4922770736307
 31
0.0
  0
LINE
  5
21B
330
1F
100
AcDbEntity
  8
1
  6
Continuous
 62
     7
100
AcDbLine
 10
1548.413462391548
 20
459.4922770736307
 30
0.0
 11
1548.413462391548
 21
457.8922770736317
 31
0.0
  0
LINE
  5
21C
330
1F
100
AcDbEntity
  8
1
  6
Continuous
 62
     7
100
AcDbLine
 10
1535.913462391548
 20
459.4922770736307
 30
0.0
 11
1548.413462391548
 21
459.4922770736307
 31
0.0
  0
LINE
  5
21D
330
1F
100
AcDbEntity
  8
1
  6
Continuous
 62
     7
100
AcDbLine
 10
1535.913462391548
 20
457.8922770736317
 30
0.0
 11
1535.913462391548
 21
459.4922770736307
 31
0.0
  0
LINE
  5
21E
330
1F
100
AcDbEntity
  8
1
  6
Continuous
 62
     7
100
AcDbLine
 10
1548.413462391548
 20
457.8922770736317
 30
0.0
 11
1535.913462391548
 21
457.8922770736317
 31
0.0
  0
LINE
  5
21F
330
1F
100
AcDbEntity
  8
1
  6
Continuous
 62
     7
100
AcDbLine
 10
2749.833340432318
 20
464.9922770736307
 30
0.0
 11
2758.493594470157
 21
464.9922770736307
 31
0.0
  0
LINE
  5
220
330
1F
100
AcDbEntity
  8
1
  6
Continuous
 62
     7
100
AcDbLine
 10
2751.276716105287
 20
460.9922770736307
 30
0.0
 11
2751.276716105287
 21
464.5456950862467
 31
0.0
  0
LINE
  5
221
330
1F
100
AcDbEntity
  8
1
  6
Continuous
 62
     7
100
AcDbLine
 10
2757.050218797188
 20
460.9922770736307
 30
0.0
 11
2757.050218797188
 21
464.5456950862467
 31
0.0
  0
LINE
  5
222
330
1F
100
AcDbEntity
  8
1
  6
Continuous
 62
     7
100
AcDbLine
 10
2748.389964759349
 20
460.9922770736307
 30
0.0
 11
2748.389964759349
 21
464.5456950862467
 31
0.0
  0
LINE
  5
223
330
1F
100
AcDbEntity
  8
1
  6
Continuous
 62
     7
100
AcDbLine
 10
2759.936970143138
 20
464.5456950862467
 30
0.0
 11
2759.936970143138
 21
460.9922770736307
 31
0.0
  0
LINE
  5
224
330
1F
100
AcDbEntity
  8
1
  6
Continuous
 62
     7
100
AcDbLine
 10
2760.263467451237
 20
460.9922770736307
 30
0.0
 11
2760.263467451237
 21
459.4922770736307
 31
0.0
  0
LINE
  5
225
330
1F
100
AcDbEntity
  8
1
  6
Continuous
 62
     7
100
AcDbLine
 10
2748.063467451238
 20
460.9922770736307
 30
0.0
 11
2760.263467451237
 21
460.9922770736307
 31
0.0
  0
LINE
  5
226
330
1F
100
AcDbEntity
  8
1
  6
Continuous
 62
     7
100
AcDbLine
 10
2748.063467451238
 20
459.4922770736307
 30
0.0
 11
2748.063467451238
 21
460.9922770736307
 31
0.0
  0
LINE
  5
227
330
1F
100
AcDbEntity
  8
1
  6
Continuous
 62
     7
100
AcDbLine
 10
2760.413467451238
 20
459.4922770736307
 30
0.0
 11
2760.413467451238
 21
457.8922770736317
 31
0.0
  0
LINE
  5
228
330
1F
100
AcDbEntity
  8
1
  6
Continuous
 62
     7
100
AcDbLine
 10
2747.913467451238
 20
459.4922770736307
 30
0.0
 11
2760.413467451238
 21
459.4922770736307
 31
0.0
  0
LINE
  5
229
330
1F
100
AcDbEntity
  8
1
  6
Continuous
 62
     7
100
AcDbLine
 10
2747.913467451238
 20
457.8922770736317
 30
0.0
 11
2747.913467451238
 21
459.4922770736307
 31
0.0
  0
LINE
  5
22A
330
1F
100
AcDbEntity
  8
1
  6
Continuous
 62
     7
100
AcDbLine
 10
2760.413467451238
 20
457.8922770736317
 30
0.0
 11
2747.913467451238
 21
457.8922770736317
 31
0.0
  0
LINE
  5
22B
330
1F
100
AcDbEntity
  8
1
  6
Continuous
 62
     7
100
AcDbLine
 10
3135.663459391545
 20
439.8922770736208
 30
0.0
 11
3113.663462391544
 21
439.8922770736267
 31
0.0
  0
LINE
  5
22C
330
1F
100
AcDbEntity
  8
1
  6
DASH_CENTER
 62
     3
100
AcDbLine
 10
3129.663462391526
 20
429.7812763620386
 30
0.0
 11
3129.663462391526
 21
443.4072552657508
 31
0.0
  0
LINE
  5
22D
330
1F
100
AcDbEntity
  8
1
  6
Continuous
 62
     7
100
AcDbLine
 10
3135.663459391545
 20
433.8922770736208
 30
0.0
 11
3135.663459391545
 21
439.8922770736208
 31
0.0
  0
LINE
  5
22E
330
1F
100
AcDbEntity
  8
1
  6
Continuous
 62
     7
100
AcDbLine
 10
3113.663462392217
 20
433.8922770736208
 30
0.0
 11
3135.663459391545
 21
433.8922770736208
 31
0.0
  0
LINE
  5
22F
330
1F
100
AcDbEntity
  8
1
  6
Continuous
 62
     7
100
AcDbLine
 10
1362.663462391548
 20
747.8336136786365
 30
0.0
 11
1362.663462391548
 21
821.8336136786365
 31
0.0
  0
LINE
  5
230
330
1F
100
AcDbEntity
  8
1
  6
Continuous
 62
     7
100
AcDbLine
 10
1462.663462391548
 20
739.8336136786365
 30
0.0
 11
1370.663462391548
 21
739.8336136786365
 31
0.0
  0
LINE
  5
231
330
1F
100
AcDbEntity
  8
1
  6
Continuous
 62
     7
100
AcDbLine
 10
1370.663462391548
 20
829.8336136786365
 30
0.0
 11
1444.663462391548
 21
829.8336136786365
 31
0.0
  0
LINE
  5
232
330
1F
100
AcDbEntity
  8
1
  6
Continuous
 62
     7
100
AcDbLine
 10
1452.663462391551
 20
807.8336136786365
 30
0.0
 11
1452.663462391568
 21
821.8336136786497
 31
0.0
  0
LINE
  5
233
330
1F
100
AcDbEntity
  8
1
  6
Continuous
 62
     7
100
AcDbLine
 10
1373.863462391819
 20
379.8922770736208
 30
0.0
 11
1373.863462391819
 21
433.8922770736208
 31
0.0
  0
LINE
  5
234
330
1F
100
AcDbEntity
  8
1
  6
Continuous
 62
     7
100
AcDbLine
 10
1372.663462391821
 20
379.8922770736208
 30
0.0
 11
1372.663462391821
 21
433.8922770736208
 31
0.0
  0
LINE
  5
235
330
1F
100
AcDbEntity
  8
1
  6
Continuous
 62
     7
100
AcDbLine
 10
1376.763462391574
 20
379.8922770736208
 30
0.0
 11
1372.663462391821
 21
379.8922770736208
 31
0.0
  0
LINE
  5
236
330
1F
100
AcDbEntity
  8
1
  6
Continuous
 62
     7
100
AcDbLine
 10
1362.66346239157
 20
439.8922770736208
 30
0.0
 11
1461.263462391579
 21
439.8922770736208
 31
0.0
  0
LINE
  5
237
330
1F
100
AcDbEntity
  8
1
  6
Continuous
 62
     7
100
AcDbLine
 10
1362.66346239157
 20
433.8922770736208
 30
0.0
 11
1362.66346239157
 21
439.8922770736208
 31
0.0
  0
LINE
  5
238
330
1F
100
AcDbEntity
  8
1
  6
PHANTOM
 62
     4
100
AcDbLine
 10
1462.463462391577
 20
431.8922770736317
 30
0.0
 11
1462.463462391577
 21
431.4922770736207
 31
0.0
  0
LINE
  5
239
330
1F
100
AcDbEntity
  8
1
  6
Continuous
 62
     7
100
AcDbLine
 10
1462.463462391577
 20
433.8922770736208
 30
0.0
 11
1362.66346239157
 21
433.8922770736208
 31
0.0
  0
LINE
  5
23A
330
1F
100
AcDbEntity
  8
1
  6
Continuous
 62
     7
100
AcDbLine
 10
1446.663462391488
 20
431.8922770736317
 30
0.0
 11
1446.663462391488
 21
433.8922770736208
 31
0.0
  0
LINE
  5
23B
330
1F
100
AcDbEntity
  8
1
  6
DASH_CENTER
 62
     3
100
AcDbLine
 10
1410.663462391558
 20
823.8336136786365
 30
0.0
 11
1404.663462391558
 21
823.8336136786365
 31
0.0
  0
LINE
  5
23C
330
1F
100
AcDbEntity
  8
1
  6
DASH_CENTER
 62
     3
100
AcDbLine
 10
1407.663462391558
 20
820.8336136786365
 30
0.0
 11
1407.663462391558
 21
826.8336136786365
 31
0.0
  0
LINE
  5
23D
330
1F
100
AcDbEntity
  8
1
  6
Continuous
 62
     7
100
AcDbLine
 10
1454.663462391551
 20
805.8336136786365
 30
0.0
 11
1462.66346239151
 21
805.8336136786365
 31
0.0
  0
LINE
  5
23E
330
1F
100
AcDbEntity
  8
1
  6
Continuous
 62
     7
100
AcDbLine
 10
1461.263462391579
 20
439.8922770736208
 30
0.0
 11
1462.66346239146
 21
439.8922770736208
 31
0.0
  0
LINE
  5
23F
330
1F
100
AcDbEntity
  8
1
  6
Continuous
 62
     7
100
AcDbLine
 10
1462.463462391577
 20
433.8922770736208
 30
0.0
 11
1532.663462391539
 21
433.8922770737117
 31
0.0
  0
LINE
  5
240
330
1F
100
AcDbEntity
  8
1
  6
Continuous
 62
     7
100
AcDbLine
 10
1452.663462391488
 20
433.8922770736208
 30
0.0
 11
1452.663462391488
 21
431.8922770736317
 31
0.0
  0
LINE
  5
241
330
1F
100
AcDbEntity
  8
1
  6
Continuous
 62
     7
100
AcDbLine
 10
1462.463462391577
 20
433.8922770736208
 30
0.0
 11
1462.463462391577
 21
431.8922770736317
 31
0.0
  0
LINE
  5
242
330
1F
100
AcDbEntity
  8
1
  6
Continuous
 62
     7
100
AcDbLine
 10
3051.963462391545
 20
433.8922770736276
 30
0.0
 11
3051.963462391544
 21
431.8922770736267
 31
0.0
  0
LINE
  5
243
330
1F
100
AcDbEntity
  8
1
  6
DASHED
 62
     4
100
AcDbLine
 10
2800.463462391431
 20
433.8922770736294
 30
0.0
 11
2750.463462391423
 21
433.8922770736294
 31
0.0
  0
LINE
  5
244
330
1F
100
AcDbEntity
  8
1
  6
DASHED
 62
     4
100
AcDbLine
 10
2849.663462391432
 20
433.8922770736294
 30
0.0
 11
2808.86346239143
 21
433.8922770736294
 31
0.0
  0
LINE
  5
245
330
1F
100
AcDbEntity
  8
1
  6
DASHED
 62
     4
100
AcDbLine
 10
2744.663462391442
 20
433.8922770736294
 30
0.0
 11
2750.463462391423
 21
433.8922770736294
 31
0.0
  0
LINE
  5
246
330
1F
100
AcDbEntity
  8
1
  6
DASHED
 62
     4
100
AcDbLine
 10
2800.463462391431
 20
433.8922770736294
 30
0.0
 11
2808.86346239143
 21
433.8922770736294
 31
0.0
  0
LINE
  5
247
330
1F
100
AcDbEntity
  8
1
  6
Continuous
 62
     7
100
AcDbLine
 10
2744.663462391538
 20
433.8922770736208
 30
0.0
 11
1532.663462391429
 21
433.8922770736208
 31
0.0
  0
LINE
  5
248
330
1F
100
AcDbEntity
  8
1
  6
Continuous
 62
     7
100
AcDbLine
 10
2743.463462391679
 20
434.2922770736186
 30
0.0
 11
1551.863462391753
 21
434.2922770736227
 31
0.0
  0
LINE
  5
249
330
1F
100
AcDbEntity
  8
1
  6
DASH_CENTER
 62
     3
100
AcDbLine
 10
1407.663462391429
 20
435.8503721994234
 30
0.0
 11
1407.663462391429
 21
375.0519291355886
 31
0.0
  0
LINE
  5
24A
330
1F
100
AcDbEntity
  8
1
  6
DASHED
 62
     4
100
AcDbLine
 10
1377.663462391459
 20
429.8922770736294
 30
0.0
 11
1377.663462391459
 21
415.3922770736294
 31
0.0
  0
LINE
  5
24B
330
1F
100
AcDbEntity
  8
1
  6
DASHED
 62
     4
100
AcDbLine
 10
1377.663462391459
 20
407.2508999370107
 30
0.0
 11
1377.663462391459
 21
379.8922770736294
 31
0.0
  0
LINE
  5
24C
330
1F
100
AcDbEntity
  8
1
  6
DASHED
 62
     4
100
AcDbLine
 10
1437.663462391429
 20
414.5336542102486
 30
0.0
 11
1437.663462391429
 21
421.3922770736294
 31
0.0
  0
LINE
  5
24D
330
1F
100
AcDbEntity
  8
1
  6
DASHED
 62
     4
100
AcDbLine
 10
1437.663462391429
 20
379.8922770736294
 30
0.0
 11
1437.663462391429
 21
407.2508999370107
 31
0.0
  0
LINE
  5
24E
330
1F
100
AcDbEntity
  8
1
  6
DASHED
 62
     4
100
AcDbLine
 10
1432.663462391429
 20
377.8922770736294
 30
0.0
 11
1435.663462391429
 21
377.8922770736317
 31
0.0
  0
LINE
  5
24F
330
1F
100
AcDbEntity
  8
1
  6
DASHED
 62
     4
100
AcDbLine
 10
1377.663462391459
 20
415.3922770736294
 30
0.0
 11
1377.663462391459
 21
414.5336542102486
 31
0.0
  0
LINE
  5
250
330
1F
100
AcDbEntity
  8
1
  6
DASHED
 62
     4
100
AcDbLine
 10
1413.663462391429
 20
431.8922770736294
 30
0.0
 11
1435.663462391429
 21
431.8922770736294
 31
0.0
  0
LINE
  5
251
330
1F
100
AcDbEntity
  8
1
  6
DASHED
 62
     4
100
AcDbLine
 10
1435.209471891689
 20
412.6704828096786
 30
0.0
 11
1437.117452891168
 21
413.6426476860597
 31
0.0
  0
LINE
  5
252
330
1F
100
AcDbEntity
  8
1
  6
DASHED
 62
     4
100
AcDbLine
 10
1434.663462391429
 20
410.0050778617697
 30
0.0
 11
1434.663462391429
 21
411.7794762854887
 31
0.0
  0
LINE
  5
253
330
1F
100
AcDbEntity
  8
1
  6
DASHED
 62
     4
100
AcDbLine
 10
1437.117452891168
 20
408.1419064611987
 30
0.0
 11
1435.209471891689
 21
409.1140713375785
 31
0.0
  0
LINE
  5
254
330
1F
100
AcDbEntity
  8
1
  6
DASHED
 62
     4
100
AcDbLine
 10
1380.117452891199
 20
412.6704828096786
 30
0.0
 11
1378.209471891719
 21
413.6426476860597
 31
0.0
  0
LINE
  5
255
330
1F
100
AcDbEntity
  8
1
  6
DASHED
 62
     4
100
AcDbLine
 10
1380.663462391459
 20
410.0050778617697
 30
0.0
 11
1380.663462391459
 21
411.7794762854887
 31
0.0
  0
LINE
  5
256
330
1F
100
AcDbEntity
  8
1
  6
DASHED
 62
     4
100
AcDbLine
 10
1378.209471891719
 20
408.1419064611987
 30
0.0
 11
1380.117452891199
 21
409.1140713375785
 31
0.0
  0
LINE
  5
257
330
1F
100
AcDbEntity
  8
1
  6
DASHED
 62
     4
100
AcDbLine
 10
1379.663462391459
 20
431.8922770736294
 30
0.0
 11
1401.663462391429
 21
431.8922770736294
 31
0.0
  0
LINE
  5
258
330
1F
100
AcDbEntity
  8
1
  6
DASHED
 62
     4
100
AcDbLine
 10
1382.663462391429
 20
377.8922770736294
 30
0.0
 11
1432.663462391429
 21
377.8922770736294
 31
0.0
  0
LINE
  5
259
330
1F
100
AcDbEntity
  8
1
  6
DASHED
 62
     4
100
AcDbLine
 10
1379.663462391459
 20
377.8922770736317
 30
0.0
 11
1382.663462391429
 21
377.8922770736294
 31
0.0
  0
LINE
  5
25A
330
1F
100
AcDbEntity
  8
1
  6
DASHED
 62
     4
100
AcDbLine
 10
1401.663462391429
 20
431.8922770736294
 30
0.0
 11
1413.663462391429
 21
431.8922770736294
 31
0.0
  0
LINE
  5
25B
330
1F
100
AcDbEntity
  8
1
  6
DASHED
 62
     4
100
AcDbLine
 10
1437.663462391429
 20
421.3922770736294
 30
0.0
 11
1437.663462391429
 21
428.3922770736294
 31
0.0
  0
LINE
  5
25C
330
1F
100
AcDbEntity
  8
1
  6
DASHED
 62
     4
100
AcDbLine
 10
1437.663462391429
 20
428.3922770736294
 30
0.0
 11
1437.663462391429
 21
429.8922770736294
 31
0.0
  0
LINE
  5
25D
330
1F
100
AcDbEntity
  8
1
  6
DASHED
 62
     4
100
AcDbLine
 10
1437.663462391429
 20
407.2508999370107
 30
0.0
 11
1377.663462391459
 21
407.2508999370107
 31
0.0
  0
LINE
  5
25E
330
1F
100
AcDbEntity
  8
1
  6
DASHED
 62
     4
100
AcDbLine
 10
1380.663462391459
 20
410.0050778617697
 30
0.0
 11
1434.663462391429
 21
410.0050778617697
 31
0.0
  0
LINE
  5
25F
330
1F
100
AcDbEntity
  8
1
  6
DASHED
 62
     4
100
AcDbLine
 10
1434.663462391429
 20
411.7794762854915
 30
0.0
 11
1380.663462391459
 21
411.7794762854915
 31
0.0
  0
LINE
  5
260
330
1F
100
AcDbEntity
  8
1
  6
DASHED
 62
     4
100
AcDbLine
 10
1377.663462391459
 20
414.5336542102527
 30
0.0
 11
1437.663462391429
 21
414.5336542102527
 31
0.0
  0
LINE
  5
261
330
1F
100
AcDbEntity
  8
1
  6
DASHED
 62
     4
100
AcDbLine
 10
1377.663462391459
 20
429.8922770736294
 30
0.0
 11
1437.663462391429
 21
429.8922770736294
 31
0.0
  0
LINE
  5
262
330
1F
100
AcDbEntity
  8
1
  6
DASHED
 62
     4
100
AcDbLine
 10
1437.663462391429
 20
379.8922770736294
 30
0.0
 11
1377.663462391459
 21
379.8922770736294
 31
0.0
  0
LINE
  5
263
330
1F
100
AcDbEntity
  8
1
  6
Continuous
 62
     4
100
AcDbLine
 10
2075.189791090462
 20
404.8922770736267
 30
0.0
 11
2112.663462391459
 21
416.1343784639248
 31
0.0
  0
LINE
  5
264
330
1F
100
AcDbEntity
  8
1
  6
Continuous
 62
     4
100
AcDbLine
 10
2112.663462391459
 20
416.1343784639248
 30
0.0
 11
2112.663462391459
 21
409.3891176297466
 31
0.0
  0
LINE
  5
265
330
1F
100
AcDbEntity
  8
1
  6
Continuous
 62
     4
100
AcDbLine
 10
2112.663462391459
 20
409.3891176297466
 30
0.0
 11
2137.645909925453
 21
409.3891176297466
 31
0.0
  0
LINE
  5
266
330
1F
100
AcDbEntity
  8
1
  6
Continuous
 62
     4
100
AcDbLine
 10
2137.645909925453
 20
409.3891176297466
 30
0.0
 11
2137.645909925453
 21
400.3954365175077
 31
0.0
  0
LINE
  5
267
330
1F
100
AcDbEntity
  8
1
  6
Continuous
 62
     4
100
AcDbLine
 10
2137.645909925453
 20
400.3954365175077
 30
0.0
 11
2112.663462391459
 21
400.3954365175077
 31
0.0
  0
LINE
  5
268
330
1F
100
AcDbEntity
  8
1
  6
Continuous
 62
     4
100
AcDbLine
 10
2112.663462391459
 20
400.3954365175077
 30
0.0
 11
2112.663462391459
 21
393.6501756833277
 31
0.0
  0
LINE
  5
269
330
1F
100
AcDbEntity
  8
1
  6
Continuous
 62
     4
100
AcDbLine
 10
2112.663462391459
 20
393.6501756833277
 30
0.0
 11
2075.189791090462
 21
404.8922770736267
 31
0.0
  0
LINE
  5
26A
330
1F
100
AcDbEntity
  8
1
  6
Continuous
 62
     7
100
AcDbLine
 10
3081.663462391544
 20
433.1657797655225
 30
0.0
 11
3079.457691025606
 21
431.8922770736267
 31
0.0
  0
LINE
  5
26B
330
1F
100
AcDbEntity
  8
1
  6
Continuous
 62
     7
100
AcDbLine
 10
3083.869233757486
 20
431.8922770736267
 30
0.0
 11
3081.663462391544
 21
433.1657797655225
 31
0.0
  0
LINE
  5
26C
330
1F
100
AcDbEntity
  8
1
  6
Continuous
 62
     7
100
AcDbLine
 10
3072.063462391518
 20
433.8922770736326
 30
0.0
 11
3077.96346239152
 21
433.8922770736326
 31
0.0
  0
LINE
  5
26D
330
1F
100
AcDbEntity
  8
1
  6
Continuous
 62
     7
100
AcDbLine
 10
3055.96346239152
 20
433.8922770736326
 30
0.0
 11
3072.063462391518
 21
433.8922770736326
 31
0.0
  0
LINE
  5
26E
330
1F
100
AcDbEntity
  8
1
  6
Continuous
 62
     7
100
AcDbLine
 10
3077.96346239152
 20
431.8922770736367
 30
0.0
 11
3077.96346239152
 21
433.8922770736326
 31
0.0
  0
LINE
  5
26F
330
1F
100
AcDbEntity
  8
1
  6
Continuous
 62
     7
100
AcDbLine
 10
3055.96346239152
 20
433.8922770736326
 30
0.0
 11
3055.96346239152
 21
431.8922770736367
 31
0.0
  0
ARC
  5
270
330
1F
100
AcDbEntity
  8
1
  6
DASHED
 62
     4
100
AcDbCircle
 10
1407.663462391429
 20
766.8336136786265
 30
0.0
 40
30.0
100
AcDbArc
 50
0.0
 51
89.54346233941466
  0
ARC
  5
271
330
1F
100
AcDbEntity
  8
1
  6
Continuous
 62
     7
100
AcDbCircle
 10
2134.974659165181
 20
147.8617686616858
 30
0.0
 40
2.555822748425824
100
AcDbArc
 50
55.61575253202359
 51
124.3842474680521
  0
ARC
  5
272
330
1F
100
AcDbEntity
  8
1
  6
Continuous
 62
     7
100
AcDbCircle
 10
2139.304786184104
 20
140.8641733974878
 30
0.0
 40
9.553418012624807
100
AcDbArc
 50
72.41204622601947
 51
107.5879537739858
  0
ARC
  5
273
330
1F
100
AcDbEntity
  8
1
  6
Continuous
 62
     7
100
AcDbCircle
 10
2143.634913203023
 20
147.8617686616858
 30
0.0
 40
2.555822748424026
100
AcDbArc
 50
55.61575253208248
 51
124.3842474679175
  0
ARC
  5
274
330
1F
100
AcDbEntity
  8
1
  6
Continuous
 62
     7
100
AcDbCircle
 10
2132.482216611076
 20
101.9467565347136
 30
0.0
 40
3.322569572945994
100
AcDbArc
 50
-34.38424746801962
 51
34.38424746810355
  0
ARC
  5
275
330
1F
100
AcDbEntity
  8
1
  6
Continuous
 62
     7
100
AcDbCircle
 10
2123.38534276763
 20
96.31759141011253
 30
0.0
 40
12.41944341639436
100
AcDbArc
 50
-17.58795377397281
 51
17.58795377402616
  0
ARC
  5
276
330
1F
100
AcDbEntity
  8
1
  6
Continuous
 62
     7
100
AcDbCircle
 10
2132.482216611076
 20
90.68842628551647
 30
0.0
 40
3.322569572947887
100
AcDbArc
 50
-34.38424746799788
 51
34.38424746808848
  0
ARC
  5
277
330
1F
100
AcDbEntity
  8
1
  6
Continuous
 62
     7
100
AcDbCircle
 10
2132.482216611076
 20
70.68842628551647
 30
0.0
 40
3.322569572947887
100
AcDbArc
 50
-34.38424746799788
 51
34.38424746808848
  0
ARC
  5
278
330
1F
100
AcDbEntity
  8
1
  6
Continuous
 62
     7
100
AcDbCircle
 10
2123.38534276763
 20
76.31759141011253
 30
0.0
 40
12.41944341639436
100
AcDbArc
 50
-17.58795377397281
 51
17.58795377402597
  0
ARC
  5
279
330
1F
100
AcDbEntity
  8
1
  6
Continuous
 62
     7
100
AcDbCircle
 10
2132.482216611076
 20
81.94675653471359
 30
0.0
 40
3.32256957294601
100
AcDbArc
 50
-34.38424746802003
 51
34.38424746810416
  0
ARC
  5
27A
330
1F
100
AcDbEntity
  8
1
  6
Continuous
 62
     7
100
AcDbCircle
 10
2108.704786184034
 20
116.4175914101138
 30
0.0
 40
1.70000000000173
100
AcDbArc
 50
166.3910393691965
 51
180.0
  0
ARC
  5
27B
330
1F
100
AcDbEntity
  8
1
  6
Continuous
 62
     7
100
AcDbCircle
 10
2108.704786184034
 20
116.4175914101138
 30
0.0
 40
0.4499999999995046
100
AcDbArc
 50
136.658241772958
 51
-90.0
  0
ARC
  5
27C
330
1F
100
AcDbEntity
  8
1
  6
Continuous
 62
     7
100
AcDbCircle
 10
2108.704786184034
 20
115.3425914101135
 30
0.0
 40
0.625
100
AcDbArc
 50
-90.0
 51
0.0
  0
ARC
  5
27D
330
1F
100
AcDbEntity
  8
1
  6
Continuous
 62
     7
100
AcDbCircle
 10
2114.904786184035
 20
116.4175914101138
 30
0.0
 40
1.700000000000301
100
AcDbArc
 50
-90.0
 51
0.0
  0
ARC
  5
27E
330
1F
100
AcDbEntity
  8
1
  6
Continuous
 62
     7
100
AcDbCircle
 10
2114.904786184035
 20
115.3425914101135
 30
0.0
 40
0.625
100
AcDbArc
 50
90.0
 51
180.0
  0
ARC
  5
27F
330
1F
100
AcDbEntity
  8
1
  6
Continuous
 62
     7
100
AcDbCircle
 10
2114.904786184035
 20
116.4175914101138
 30
0.0
 40
0.4500000000003013
100
AcDbArc
 50
-90.0
 51
43.3417582273997
  0
ARC
  5
280
330
1F
100
AcDbEntity
  8
1
  6
Continuous
 62
     7
100
AcDbCircle
 10
2108.704786184034
 20
115.3425914101135
 30
0.0
 40
0.625
100
AcDbArc
 50
0.0
 51
90.0
  0
ARC
  5
281
330
1F
100
AcDbEntity
  8
1
  6
Continuous
 62
     7
100
AcDbCircle
 10
2114.904786184035
 20
115.3425914101135
 30
0.0
 40
0.625
100
AcDbArc
 50
180.0
 51
-90.0
  0
ARC
  5
282
330
1F
100
AcDbEntity
  8
1
  6
Continuous
 62
     7
100
AcDbCircle
 10
2108.704786184034
 20
116.4175914101138
 30
0.0
 40
1.699999999999363
100
AcDbArc
 50
180.0
 51
-90.0
  0
ARC
  5
283
330
1F
100
AcDbEntity
  8
1
  6
Continuous
 62
     7
100
AcDbCircle
 10
2114.904786184035
 20
116.4175914101138
 30
0.0
 40
1.699999999997999
100
AcDbArc
 50
0.0
 51
13.60896063083595
  0
ARC
  5
284
330
1F
100
AcDbEntity
  8
1
  6
PHANTOM
 62
     3
100
AcDbCircle
 10
2838.363462391498
 20
761.1336136778036
 30
0.0
 40
24.29999999915481
100
AcDbArc
 50
-90.0
 51
89.54346233963069
  0
ARC
  5
285
330
1F
100
AcDbEntity
  8
1
  6
Continuous
 62
     7
100
AcDbCircle
 10
2838.363462391508
 20
761.1336136778077
 30
0.0
 40
24.30000000000092
100
AcDbArc
 50
-110.2367082002822
 51
0.0
  0
ARC
  5
286
330
1F
100
AcDbEntity
  8
1
  6
Continuous
 62
     7
100
AcDbCircle
 10
2838.363462391508
 20
761.1336136778077
 30
0.0
 40
24.30000000000064
100
AcDbArc
 50
0.0
 51
23.40853234227246
  0
ARC
  5
287
330
1F
100
AcDbEntity
  8
1
  6
DASHED
 62
     4
100
AcDbCircle
 10
2838.363462391508
 20
761.1336136778077
 30
0.0
 40
24.30000000000058
100
AcDbArc
 50
23.40853234227246
 51
-110.2367082002822
  0
ARC
  5
288
330
1F
100
AcDbEntity
  8
0
  6
Continuous
 62
     7
100
AcDbCircle
 10
3134.663459391548
 20
440.8922770736244
 30
0.0
 40
1.0
100
AcDbArc
 50
-90.0
 51
0.0
  0
ARC
  5
289
330
1F
100
AcDbEntity
  8
0
  6
Continuous
 62
     7
100
AcDbCircle
 10
3143.516030391546
 20
486.1238320736247
 30
0.0
 40
5.563073000003893
100
AcDbArc
 50
127.0597410000065
 51
165.0582640000022
  0
ARC
  5
28A
330
1F
100
AcDbEntity
  8
0
  6
Continuous
 62
     7
100
AcDbCircle
 10
3143.516030391546
 20
486.1238320736247
 30
0.0
 40
8.163072999999033
100
AcDbArc
 50
114.2487959999844
 51
163.865626999989
  0
ARC
  5
28B
330
1F
100
AcDbEntity
  8
0
  6
Continuous
 62
     7
100
AcDbCircle
 10
3135.663459391547
 20
498.3922770736267
 30
0.0
 40
0.5
100
AcDbArc
 50
0.0
 51
90.0
  0
ARC
  5
28C
330
1F
100
AcDbEntity
  8
0
  6
Continuous
 62
     7
100
AcDbCircle
 10
3133.763459391545
 20
485.1422770736244
 30
0.0
 40
4.999999999987029
100
AcDbArc
 50
-30.7378690000539
 51
30.73786900008973
  0
ARC
  5
28D
330
1F
100
AcDbEntity
  8
0
  6
Continuous
 62
     7
100
AcDbCircle
 10
3137.631275391546
 20
487.4422770736246
 30
0.0
 40
0.4999999999989488
100
AcDbArc
 50
30.73786900024404
 51
90.0
  0
ARC
  5
28E
330
1F
100
AcDbEntity
  8
0
  6
Continuous
 62
     7
100
AcDbCircle
 10
3137.631275391546
 20
482.8422770736247
 30
0.0
 40
0.5
100
AcDbArc
 50
-90.0
 51
-30.73786900024404
  0
ARC
  5
28F
330
1F
100
AcDbEntity
  8
1
  6
Continuous
 62
     7
100
AcDbCircle
 10
3147.413459391547
 20
462.1422770736267
 30
0.0
 40
28.25
100
AcDbArc
 50
-90.0
 51
90.0
  0
ARC
  5
290
330
1F
100
AcDbEntity
  8
1
  6
Continuous
 62
     7
100
AcDbCircle
 10
3147.413459391547
 20
462.1422770736267
 30
0.0
 40
36.25
100
AcDbArc
 50
-90.0
 51
90.0
  0
ARC
  5
291
330
1F
100
AcDbEntity
  8
1
  6
Continuous
 62
     7
100
AcDbCircle
 10
3125.663459391547
 20
429.8918150736267
 30
0.0
 40
4.0
100
AcDbArc
 50
180.0
 51
-89.99999999998697
  0
ARC
  5
292
330
1F
100
AcDbEntity
  8
1
  6
Continuous
 62
     7
100
AcDbCircle
 10
3125.663459391547
 20
429.8918150736267
 30
0.0
 40
4.000000000002704
100
AcDbArc
 50
89.76010546574629
 51
180.0
  0
ARC
  5
293
330
1F
100
AcDbEntity
  8
0
  6
Continuous
 62
     7
100
AcDbCircle
 10
3140.905794066112
 20
422.3123662428588
 30
0.0
 40
5.125394999998799
100
AcDbArc
 50
-73.10479000003252
 51
-3.4970510000058
  0
ARC
  5
294
330
1F
100
AcDbEntity
  8
0
  6
Continuous
 62
     7
100
AcDbCircle
 10
3144.25466503142
 20
412.9857723249857
 30
0.0
 40
4.797381999996963
100
AcDbArc
 50
112.8033340000208
 51
172.920774999996
  0
ARC
  5
295
330
1F
100
AcDbEntity
  8
0
  6
Continuous
 62
     7
100
AcDbCircle
 10
3140.905794066112
 20
422.3123662428588
 30
0.0
 40
6.625395000002287
100
AcDbArc
 50
-73.10478999997191
 51
-22.21569024593476
  0
ARC
  5
296
330
1F
100
AcDbEntity
  8
0
  6
Continuous
 62
     7
100
AcDbCircle
 10
3144.25466503142
 20
412.9857723249857
 30
0.0
 40
3.297381999994944
100
AcDbArc
 50
112.8033339999984
 51
159.3073145032546
  0
ARC
  5
297
330
1F
100
AcDbEntity
  8
0
  6
Continuous
 62
     7
100
AcDbCircle
 10
3144.25466503142
 20
412.9857723249857
 30
0.0
 40
3.297381999996925
100
AcDbArc
 50
159.3073145032546
 51
-179.3958179999832
  0
ARC
  5
298
330
1F
100
AcDbEntity
  8
0
  6
Continuous
 62
     7
100
AcDbCircle
 10
3140.905794066112
 20
422.3123662428588
 30
0.0
 40
6.625395000003714
100
AcDbArc
 50
-22.21569024593476
 51
-10.29652499997877
  0
ARC
  5
299
330
1F
100
AcDbEntity
  8
0
  6
Continuous
 62
     7
100
AcDbCircle
 10
1425.437279391246
 20
820.0957976785026
 30
0.0
 40
42.92462899999497
100
AcDbArc
 50
151.0514479999547
 51
155.8598665379989
  0
ARC
  5
29A
330
1F
100
AcDbEntity
  8
0
  6
Continuous
 62
     7
100
AcDbCircle
 10
1425.437279391246
 20
820.0957976785026
 30
0.0
 40
34.92462899999625
100
AcDbArc
 50
151.4069489999581
 51
155.1251504809789
  0
ARC
  5
29B
330
1F
100
AcDbEntity
  8
0
  6
Continuous
 62
     7
100
AcDbCircle
 10
1363.663462391543
 20
440.8922770736317
 30
0.0
 40
1.0
100
AcDbArc
 50
180.0
 51
-90.0
  0
ARC
  5
29C
330
1F
100
AcDbEntity
  8
0
  6
Continuous
 62
     7
100
AcDbCircle
 10
1451.663462391548
 20
440.8922770736317
 30
0.0
 40
1.0
100
AcDbArc
 50
-90.0
 51
0.0
  0
ARC
  5
29D
330
1F
100
AcDbEntity
  8
0
  6
DASH_CENTER
 62
     3
100
AcDbCircle
 10
1407.663462391442
 20
784.8336136786297
 30
0.0
 40
52.00000000000071
100
AcDbArc
 50
-144.1475909999789
 51
-125.5735649999688
  0
ARC
  5
29E
330
1F
100
AcDbEntity
  8
0
  6
DASH_CENTER
 62
     3
100
AcDbCircle
 10
1407.663462391442
 20
784.8336136786297
 30
0.0
 40
52.00000000000139
100
AcDbArc
 50
126.4367890000373
 51
142.0999270000381
  0
ARC
  5
29F
330
1F
100
AcDbEntity
  8
0
  6
Continuous
 62
     7
100
AcDbCircle
 10
1370.863462391429
 20
821.6336136786035
 30
0.0
 40
8.200000000002092
100
AcDbArc
 50
90.00000000013982
 51
-179.9999999999587
  0
ARC
  5
2A0
330
1F
100
AcDbEntity
  8
0
  6
Continuous
 62
     7
100
AcDbCircle
 10
1370.863462391457
 20
748.0336136786045
 30
0.0
 40
8.199999999997999
100
AcDbArc
 50
180.0
 51
-89.99999999992375
  0
ARC
  5
2A1
330
1F
100
AcDbEntity
  8
0
  6
Continuous
 62
     7
100
AcDbCircle
 10
1392.96346239126
 20
831.8014296785186
 30
0.0
 40
0.5000000000009095
100
AcDbArc
 50
-0.00000000046899
 51
59.26213100022746
  0
ARC
  5
2A2
330
1F
100
AcDbEntity
  8
0
  6
Continuous
 62
     7
100
AcDbCircle
 10
1388.363462391249
 20
831.8014296785245
 30
0.0
 40
0.4999999999890076
100
AcDbArc
 50
120.737868999042
 51
-179.9999999997916
  0
ARC
  5
2A3
330
1F
100
AcDbEntity
  8
0
  6
Continuous
 62
     7
100
AcDbCircle
 10
1390.663462391251
 20
827.9336136785196
 30
0.0
 40
5.000000000002344
100
AcDbArc
 50
59.26213100005879
 51
120.737868999961
  0
ARC
  5
2A4
330
1F
100
AcDbEntity
  8
0
  6
DASH_CENTER
 62
     3
100
AcDbCircle
 10
1407.663462391442
 20
784.8336136786297
 30
0.0
 40
51.99999999999462
100
AcDbArc
 50
37.49128900003279
 51
53.5632110000433
  0
ARC
  5
2A5
330
1F
100
AcDbEntity
  8
0
  6
DASH_CENTER
 62
     3
100
AcDbCircle
 10
1407.663462391442
 20
784.8336136786297
 30
0.0
 40
51.99999999999636
100
AcDbArc
 50
-52.27860799997217
 51
-38.16537199996847
  0
ARC
  5
2A6
330
1F
100
AcDbEntity
  8
0
  6
Continuous
 62
     7
100
AcDbCircle
 10
1444.463462391412
 20
821.6336136786517
 30
0.0
 40
8.200000000002092
100
AcDbArc
 50
0.0000000000699
 51
89.99999999999206
  0
ARC
  5
2A7
330
1F
100
AcDbEntity
  8
0
  6
Continuous
 62
     7
100
AcDbCircle
 10
1444.46346239146
 20
748.0336136786536
 30
0.0
 40
8.200000000003911
100
AcDbArc
 50
-89.99999999997935
 51
0.0
  0
ARC
  5
2A8
330
1F
100
AcDbEntity
  8
0
  6
Continuous
 62
     7
100
AcDbCircle
 10
1406.649312391269
 20
851.6537196785125
 30
0.0
 40
4.797382000012182
100
AcDbArc
 50
-166.79666600001
 51
-124.9781330000199
  0
ARC
  5
2A9
330
1F
100
AcDbEntity
  8
0
  6
Continuous
 62
     7
100
AcDbCircle
 10
1396.894840391275
 20
849.9071296785187
 30
0.0
 40
5.125394999993837
100
AcDbArc
 50
7.29520999999493
 51
60.54320299997556
  0
ARC
  5
2AA
330
1F
100
AcDbEntity
  8
0
  6
Continuous
 62
     7
100
AcDbCircle
 10
1391.48362339126
 20
838.1327976785237
 30
0.0
 40
6.549266999993631
100
AcDbArc
 50
-156.3507839999863
 51
-118.4389019999504
  0
ARC
  5
2AB
330
1F
100
AcDbEntity
  8
0
  6
Continuous
 62
     7
100
AcDbCircle
 10
1385.693418391267
 20
833.4628346785248
 30
0.0
 40
2.053483999999911
100
AcDbArc
 50
95.84283400045077
 51
-159.9986550001492
  0
ARC
  5
2AC
330
1F
100
AcDbEntity
  8
0
  6
Continuous
 62
     7
100
AcDbCircle
 10
1389.708490391256
 20
836.3889526785247
 30
0.0
 40
6.96458299999776
100
AcDbArc
 50
-148.6011469999745
 51
-109.2401490000116
  0
ARC
  5
2AD
330
1F
100
AcDbEntity
  8
0
  6
Continuous
 62
     7
100
AcDbCircle
 10
1425.437279391246
 20
820.0957976785026
 30
0.0
 40
42.92462899999274
100
AcDbArc
 50
155.8598665379989
 51
158.9049729999579
  0
ARC
  5
2AE
330
1F
100
AcDbEntity
  8
0
  6
Continuous
 62
     7
100
AcDbCircle
 10
1425.744563391257
 20
820.4686816785015
 30
0.0
 40
42.9246290000026
100
AcDbArc
 50
127.83449299997
 51
148.3512109999662
  0
ARC
  5
2AF
330
1F
100
AcDbEntity
  8
0
  6
Continuous
 62
     7
100
AcDbCircle
 10
1425.437279391246
 20
820.0957976785026
 30
0.0
 40
34.92462899999127
100
AcDbArc
 50
155.1251504809789
 51
159.226890999958
  0
ARC
  5
2B0
330
1F
100
AcDbEntity
  8
0
  6
Continuous
 62
     7
100
AcDbCircle
 10
1425.744563391257
 20
820.4686816785015
 30
0.0
 40
34.92462900000608
100
AcDbArc
 50
128.7136769999799
 51
148.0880159999698
  0
ARC
  5
2B1
330
1F
100
AcDbEntity
  8
0
  6
Continuous
 62
     7
100
AcDbCircle
 10
1383.074456391259
 20
830.1927036785237
 30
0.0
 40
0.4999999999973082
100
AcDbArc
 50
70.00000000048036
 51
160.0000000004829
  0
ARC
  5
2B2
330
1F
100
AcDbEntity
  8
1
  6
Continuous
 62
     7
100
AcDbCircle
 10
3079.333335372696
 20
462.4364543251986
 30
0.0
 40
2.555822748423584
100
AcDbArc
 50
55.61575253211277
 51
124.3842474681228
  0
ARC
  5
2B3
330
1F
100
AcDbEntity
  8
1
  6
Continuous
 62
     7
100
AcDbCircle
 10
3083.663462391615
 20
455.4388590610015
 30
0.0
 40
9.553418012624896
100
AcDbArc
 50
72.41204622600819
 51
107.5879537739892
  0
ARC
  5
2B4
330
1F
100
AcDbEntity
  8
1
  6
Continuous
 62
     7
100
AcDbCircle
 10
3087.993589410537
 20
462.4364543251986
 30
0.0
 40
2.555822748422814
100
AcDbArc
 50
55.615752532138
 51
124.3842474679293
  0
ARC
  5
2B5
330
1F
100
AcDbEntity
  8
1
  6
Continuous
 62
     7
100
AcDbCircle
 10
1546.493589410466
 20
462.4364543252086
 30
0.0
 40
2.555822748427783
100
AcDbArc
 50
55.61575253181276
 51
124.3842474679264
  0
ARC
  5
2B6
330
1F
100
AcDbEntity
  8
1
  6
Continuous
 62
     7
100
AcDbCircle
 10
1542.163462391548
 20
455.4388590610106
 30
0.0
 40
9.553418012621656
100
AcDbArc
 50
72.41204622600633
 51
107.5879537740041
  0
ARC
  5
2B7
330
1F
100
AcDbEntity
  8
1
  6
Continuous
 62
     7
100
AcDbCircle
 10
1537.833335372629
 20
462.4364543252086
 30
0.0
 40
2.55582274841918
100
AcDbArc
 50
55.6157525320946
 51
124.3842474682083
  0
ARC
  5
2B8
330
1F
100
AcDbEntity
  8
1
  6
Continuous
 62
     7
100
AcDbCircle
 10
2758.493594470157
 20
462.4364543252086
 30
0.0
 40
2.555822748427141
100
AcDbArc
 50
55.61575253183379
 51
124.3842474679475
  0
ARC
  5
2B9
330
1F
100
AcDbEntity
  8
1
  6
Continuous
 62
     7
100
AcDbCircle
 10
2754.163467451238
 20
455.4388590610106
 30
0.0
 40
9.553418012621586
100
AcDbArc
 50
72.41204622600762
 51
107.5879537739976
  0
ARC
  5
2BA
330
1F
100
AcDbEntity
  8
1
  6
Continuous
 62
     7
100
AcDbCircle
 10
2749.833340432318
 20
462.4364543252086
 30
0.0
 40
2.555822748420463
100
AcDbArc
 50
55.61575253205253
 51
124.3842474679475
  0
ARC
  5
2BB
330
1F
100
AcDbEntity
  8
1
  6
Continuous
 62
     7
100
AcDbCircle
 10
1466.663462391548
 20
750.3336136786365
 30
0.0
 40
4.199999999999874
100
AcDbArc
 50
162.2472098391777
 51
-162.2472098391659
  0
ARC
  5
2BC
330
1F
100
AcDbEntity
  8
1
  6
DASHED
 62
     4
100
AcDbCircle
 10
1407.663462391429
 20
766.8336136786265
 30
0.0
 40
30.00000000000015
100
AcDbArc
 50
-64.15806723685419
 51
0.0
  0
ARC
  5
2BD
330
1F
100
AcDbEntity
  8
1
  6
Continuous
 62
     7
100
AcDbCircle
 10
1407.663462391429
 20
766.8336136786265
 30
0.0
 40
30.00000000000102
100
AcDbArc
 50
-115.841932763215
 51
-64.15806723685419
  0
ARC
  5
2BE
330
1F
100
AcDbEntity
  8
1
  6
Continuous
 62
     7
100
AcDbCircle
 10
3081.663462391544
 20
427.3922770736267
 30
0.0
 40
5.000000000001686
100
AcDbArc
 50
64.15806723679297
 51
115.8419327631742
  0
ARC
  5
2BF
330
1F
100
AcDbEntity
  8
1
  6
PHANTOM
 62
     3
100
AcDbCircle
 10
1407.66346239154
 20
766.8336136786356
 30
0.0
 40
29.99999999998826
100
AcDbArc
 50
89.54346233962643
 51
-90.0
  0
CIRCLE
  5
2C0
330
1F
100
AcDbEntity
  8
1
  6
Continuous
 62
     7
100
AcDbCircle
 10
1572.663462391635
 20
758.8336136786115
 30
0.0
 40
3.5
  0
CIRCLE
  5
2C1
330
1F
100
AcDbEntity
  8
1
  6
Continuous
 62
     7
100
AcDbCircle
 10
2722.663462391635
 20
758.8336136786115
 30
0.0
 40
3.5
  0
CIRCLE
  5
2C2
330
1F
100
AcDbEntity
  8
0
  6
Continuous
 62
     7
100
AcDbCircle
 10
1407.663462391442
 20
784.8336136786297
 30
0.0
 40
41.50000000000296
  0
ARC
  5
2C3
330
1F
100
AcDbEntity
  8
1
  6
Continuous
 62
     7
100
AcDbCircle
 10
2124.304786184032
 20
122.3175914101198
 30
0.0
 40
4.0
100
AcDbArc
 50
0.0
 51
90.0
  0
ARC
  5
2C4
330
1F
100
AcDbEntity
  8
1
  6
Continuous
 62
     7
100
AcDbCircle
 10
2104.304786184043
 20
126.3175914101198
 30
0.0
 40
4.0
100
AcDbArc
 50
180.0
 51
-90.0
  0
ARC
  5
2C5
330
1F
100
AcDbEntity
  8
1
  6
Continuous
 62
     7
100
AcDbCircle
 10
2104.304786184063
 20
179.3175914101134
 30
0.0
 40
4.0
100
AcDbArc
 50
90.0
 51
180.0
  0
ARC
  5
2C6
330
1F
100
AcDbEntity
  8
1
  6
Continuous
 62
     7
100
AcDbCircle
 10
2127.304786184032
 20
139.1175914101086
 30
0.0
 40
3.0
100
AcDbArc
 50
90.0
 51
180.0
  0
ARC
  5
2C7
330
1F
100
AcDbEntity
  8
1
  6
Continuous
 62
     7
100
AcDbCircle
 10
2168.104786184703
 20
142.1175914101018
 30
0.0
 40
1.200000000002092
100
AcDbArc
 50
0.0
 51
90.0
  0
ARC
  5
2C8
330
1F
100
AcDbEntity
  8
1
  6
Continuous
 62
     7
100
AcDbCircle
 10
2101.004786182867
 20
142.1175914101018
 30
0.0
 40
1.199999999998804
100
AcDbArc
 50
125.6853346432595
 51
180.0
  0
ARC
  5
2C9
330
1F
100
AcDbEntity
  8
1
  6
Continuous
 62
     7
100
AcDbCircle
 10
2107.004786182869
 20
142.1175914100995
 30
0.0
 40
1.200000000001211
100
AcDbArc
 50
90.0
 51
180.0
  0
ARC
  5
2CA
330
1F
100
AcDbEntity
  8
1
  6
Continuous
 62
     7
100
AcDbCircle
 10
2106.854786184035
 20
119.3175914101148
 30
0.0
 40
0.3999999999986983
100
AcDbArc
 50
90.0
 51
-179.9999999996703
  0
ARC
  5
2CB
330
1F
100
AcDbEntity
  8
1
  6
Continuous
 62
     7
100
AcDbCircle
 10
2109.004786184035
 20
118.4175914101138
 30
0.0
 40
0.2999999999996987
100
AcDbArc
 50
90.0
 51
180.0
  0
ARC
  5
2CC
330
1F
100
AcDbEntity
  8
1
  6
Continuous
 62
     7
100
AcDbCircle
 10
2107.504786184035
 20
117.5500665754048
 30
0.0
 40
1.200000000000297
100
AcDbArc
 50
-43.34175822732428
 51
0.0
  0
ARC
  5
2CD
330
1F
100
AcDbEntity
  8
1
  6
Continuous
 62
     7
100
AcDbCircle
 10
2116.104786184033
 20
117.5500665754048
 30
0.0
 40
1.199999999997999
100
AcDbArc
 50
180.0
 51
-136.6582417727651
  0
ARC
  5
2CE
330
1F
100
AcDbEntity
  8
1
  6
Continuous
 62
     7
100
AcDbCircle
 10
2114.604786184033
 20
118.4175914101138
 30
0.0
 40
0.3000000000020009
100
AcDbArc
 50
0.0
 51
90.0
  0
ARC
  5
2CF
330
1F
100
AcDbEntity
  8
1
  6
Continuous
 62
     7
100
AcDbCircle
 10
2116.754786184031
 20
119.3175914101148
 30
0.0
 40
0.4000000000037289
100
AcDbArc
 50
-0.00000000032976
 51
90.0
  0
ARC
  5
2D0
330
1F
100
AcDbEntity
  8
1
  6
Continuous
 62
     7
100
AcDbCircle
 10
3045.363462390382
 20
456.6922770736146
 30
0.0
 40
1.200000000002092
100
AcDbArc
 50
90.0
 51
180.0
  0
ARC
  5
2D1
330
1F
100
AcDbEntity
  8
1
  6
Continuous
 62
     7
100
AcDbCircle
 10
3112.463462392217
 20
456.6922770736146
 30
0.0
 40
1.199999999999818
100
AcDbArc
 50
0.0
 51
90.0
  0
ARC
  5
2D2
330
1F
100
AcDbEntity
  8
1
  6
Continuous
 62
     7
100
AcDbCircle
 10
3084.663462392217
 20
431.8922770736167
 30
0.0
 40
2.0
100
AcDbArc
 50
0.0
 51
90.0
  0
ARC
  5
2D3
330
1F
100
AcDbEntity
  8
1
  6
PHANTOM
 62
     7
100
AcDbCircle
 10
3088.663462392217
 20
381.8922770736167
 30
0.0
 40
2.0
100
AcDbArc
 50
180.0
 51
-90.0
  0
ARC
  5
2D4
330
1F
100
AcDbEntity
  8
1
  6
Continuous
 62
     7
100
AcDbCircle
 10
2859.463462391461
 20
456.6922770736196
 30
0.0
 40
1.200000000000273
100
AcDbArc
 50
0.0
 51
90.0
  0
ARC
  5
2D5
330
1F
100
AcDbEntity
  8
1
  6
Continuous
 62
     7
100
AcDbCircle
 10
1550.663462391737
 20
435.8922770736076
 30
0.0
 40
1.999999999998181
100
AcDbArc
 50
-90.00000000003257
 51
0.0
  0
ARC
  5
2D6
330
1F
100
AcDbEntity
  8
1
  6
Continuous
 62
     7
100
AcDbCircle
 10
1554.663462391736
 20
443.8922770736094
 30
0.0
 40
1.999999999998863
100
AcDbArc
 50
180.0
 51
-120.0000000033495
  0
ARC
  5
2D7
330
1F
100
AcDbEntity
  8
1
  6
Continuous
 62
     7
100
AcDbCircle
 10
2744.663462391676
 20
435.8922770736208
 30
0.0
 40
1.999999999999091
100
AcDbArc
 50
180.0
 51
-90.0
  0
ARC
  5
2D8
330
1F
100
AcDbEntity
  8
1
  6
Continuous
 62
     7
100
AcDbCircle
 10
1464.66346239146
 20
435.8922770736067
 30
0.0
 40
2.0
100
AcDbArc
 50
180.0
 51
-90.0
  0
ARC
  5
2D9
330
1F
100
AcDbEntity
  8
1
  6
Continuous
 62
     7
100
AcDbCircle
 10
1463.863462391461
 20
456.6922770736196
 30
0.0
 40
1.200000000001182
100
AcDbArc
 50
90.0
 51
180.0
  0
ARC
  5
2DA
330
1F
100
AcDbEntity
  8
1
  6
Continuous
 62
     7
100
AcDbCircle
 10
2840.663462391514
 20
758.3336136794005
 30
0.0
 40
20.00000000000182
100
AcDbArc
 50
-89.99999999995701
 51
0.00000000004299
  0
ARC
  5
2DB
330
1F
100
AcDbEntity
  8
1
  6
Continuous
 62
     7
100
AcDbCircle
 10
2840.663462391489
 20
787.8336136799558
 30
0.0
 40
20.0
100
AcDbArc
 50
0.0
 51
90.0000000000482
  0
ARC
  5
2DC
330
1F
100
AcDbEntity
  8
1
  6
Continuous
 62
     7
100
AcDbCircle
 10
2740.663462391677
 20
443.8922770736167
 30
0.0
 40
1.999999999997361
100
AcDbArc
 50
-60.0000000013403
 51
0.0
  0
ARC
  5
2DD
330
1F
100
AcDbEntity
  8
1
  6
DASHED
 62
     4
100
AcDbCircle
 10
3044.663462391519
 20
429.8922770736376
 30
0.0
 40
2.0
100
AcDbArc
 50
90.0
 51
180.0
  0
ARC
  5
2DE
330
1F
100
AcDbEntity
  8
1
  6
DASHED
 62
     4
100
AcDbCircle
 10
3044.663462391519
 20
379.8922770736267
 30
0.0
 40
1.999999999998636
100
AcDbArc
 50
180.0
 51
-90.0
  0
ARC
  5
2DF
330
1F
100
AcDbEntity
  8
1
  6
DASHED
 62
     4
100
AcDbCircle
 10
3089.263462391519
 20
379.8922770736276
 30
0.0
 40
2.0
100
AcDbArc
 50
-90.00000000003908
 51
0.0
  0
ARC
  5
2E0
330
1F
100
AcDbEntity
  8
1
  6
DASHED
 62
     4
100
AcDbCircle
 10
3089.263462391519
 20
429.8922770736367
 30
0.0
 40
1.999999999998636
100
AcDbArc
 50
0.0
 51
90.00000000003908
  0
ARC
  5
2E1
330
1F
100
AcDbEntity
  8
1
  6
DASHED
 62
     4
100
AcDbCircle
 10
3090.263462391518
 20
414.5336542102577
 30
0.0
 40
1.000000000012415
100
AcDbArc
 50
-63.00000000033136
 51
0.0
  0
ARC
  5
2E2
330
1F
100
AcDbEntity
  8
1
  6
DASHED
 62
     4
100
AcDbCircle
 10
3090.263462391518
 20
407.2508999370107
 30
0.0
 40
1.0
100
AcDbArc
 50
0.0
 51
62.99999999996616
  0
ARC
  5
2E3
330
1F
100
AcDbEntity
  8
1
  6
DASHED
 62
     4
100
AcDbCircle
 10
3089.263462391518
 20
410.0050778617674
 30
0.0
 40
1.0
100
AcDbArc
 50
180.0
 51
-116.9999999997554
  0
ARC
  5
2E4
330
1F
100
AcDbEntity
  8
1
  6
DASHED
 62
     4
100
AcDbCircle
 10
3089.263462391518
 20
411.7794762854887
 30
0.0
 40
0.999999999999718
100
AcDbArc
 50
116.9999999997761
 51
180.0
  0
ARC
  5
2E5
330
1F
100
AcDbEntity
  8
1
  6
DASHED
 62
     4
100
AcDbCircle
 10
3044.663462391519
 20
411.7794762854887
 30
0.0
 40
1.0
100
AcDbArc
 50
0.0
 51
62.99999999999128
  0
ARC
  5
2E6
330
1F
100
AcDbEntity
  8
1
  6
DASHED
 62
     4
100
AcDbCircle
 10
3044.663462391519
 20
410.0050778617665
 30
0.0
 40
1.000000000000664
100
AcDbArc
 50
-62.99999999998833
 51
0.0
  0
ARC
  5
2E7
330
1F
100
AcDbEntity
  8
1
  6
DASHED
 62
     4
100
AcDbCircle
 10
3043.663462391519
 20
407.2508999370107
 30
0.0
 40
0.9999999999988725
100
AcDbArc
 50
116.9999999999178
 51
180.0
  0
ARC
  5
2E8
330
1F
100
AcDbEntity
  8
1
  6
DASHED
 62
     4
100
AcDbCircle
 10
3043.663462391519
 20
414.5336542102568
 30
0.0
 40
1.0
100
AcDbArc
 50
180.0
 51
-116.9999999995747
  0
ARC
  5
2E9
330
1F
100
AcDbEntity
  8
1
  6
DASHED
 62
     4
100
AcDbCircle
 10
2860.663462391509
 20
429.8922770736408
 30
0.0
 40
2.0
100
AcDbArc
 50
-0.00000000009119
 51
90.0
  0
ARC
  5
2EA
330
1F
100
AcDbEntity
  8
1
  6
DASHED
 62
     4
100
AcDbCircle
 10
2860.66346239151
 20
379.8922770736276
 30
0.0
 40
1.999999999998238
100
AcDbArc
 50
-90.00000000003908
 51
0.0
  0
ARC
  5
2EB
330
1F
100
AcDbEntity
  8
1
  6
DASHED
 62
     4
100
AcDbCircle
 10
2816.063462391508
 20
379.8922770736276
 30
0.0
 40
2.0
100
AcDbArc
 50
180.0
 51
-90.0
  0
ARC
  5
2EC
330
1F
100
AcDbEntity
  8
1
  6
DASHED
 62
     4
100
AcDbCircle
 10
2816.063462391508
 20
429.8922770736408
 30
0.0
 40
1.999999999996817
100
AcDbArc
 50
90.0
 51
-179.9999999999088
  0
ARC
  5
2ED
330
1F
100
AcDbEntity
  8
1
  6
DASHED
 62
     4
100
AcDbCircle
 10
2815.063462391508
 20
414.5336542102596
 30
0.0
 40
1.0
100
AcDbArc
 50
180.0
 51
-116.9999999996642
  0
ARC
  5
2EE
330
1F
100
AcDbEntity
  8
1
  6
DASHED
 62
     4
100
AcDbCircle
 10
2815.063462391508
 20
407.2508999370107
 30
0.0
 40
0.9999999999999046
100
AcDbArc
 50
117.0000000000339
 51
180.0
  0
ARC
  5
2EF
330
1F
100
AcDbEntity
  8
1
  6
DASHED
 62
     4
100
AcDbCircle
 10
2816.063462391508
 20
410.0050778617697
 30
0.0
 40
1.000000000001915
100
AcDbArc
 50
-63.00000000014182
 51
0.0
  0
ARC
  5
2F0
330
1F
100
AcDbEntity
  8
1
  6
DASHED
 62
     4
100
AcDbCircle
 10
2816.063462391508
 20
411.7794762854896
 30
0.0
 40
1.0
100
AcDbArc
 50
0.0
 51
63.00000000014182
  0
ARC
  5
2F1
330
1F
100
AcDbEntity
  8
1
  6
DASHED
 62
     4
100
AcDbCircle
 10
2860.663462391509
 20
411.7794762854896
 30
0.0
 40
1.000000000002534
100
AcDbArc
 50
116.9999999999278
 51
180.0
  0
ARC
  5
2F2
330
1F
100
AcDbEntity
  8
1
  6
DASHED
 62
     4
100
AcDbCircle
 10
2860.663462391509
 20
410.0050778617697
 30
0.0
 40
1.0
100
AcDbArc
 50
180.0
 51
-116.9999999999278
  0
ARC
  5
2F3
330
1F
100
AcDbEntity
  8
1
  6
DASHED
 62
     4
100
AcDbCircle
 10
2861.663462391509
 20
407.2508999370107
 30
0.0
 40
1.0
100
AcDbArc
 50
0.0
 51
63.00000000010545
  0
ARC
  5
2F4
330
1F
100
AcDbEntity
  8
1
  6
DASHED
 62
     4
100
AcDbCircle
 10
2861.663462391509
 20
414.5336542102596
 30
0.0
 40
1.000000000011328
100
AcDbArc
 50
-63.0000000004751
 51
0.0
  0
ARC
  5
2F5
330
1F
100
AcDbEntity
  8
1
  6
Continuous
 62
     7
100
AcDbCircle
 10
3048.663462391574
 20
493.8922770736267
 30
0.0
 40
4.0
100
AcDbArc
 50
90.0
 51
180.0
  0
ARC
  5
2F6
330
1F
100
AcDbEntity
  8
1
  6
Continuous
 62
     7
100
AcDbCircle
 10
1589.663462391636
 20
771.8336136786115
 30
0.0
 40
1.999999999999091
100
AcDbArc
 50
0.0
 51
90.00000000002605
  0
ARC
  5
2F7
330
1F
100
AcDbEntity
  8
1
  6
Continuous
 62
     7
100
AcDbCircle
 10
1555.663462391635
 20
771.8336136786115
 30
0.0
 40
2.0
100
AcDbArc
 50
90.0
 51
180.0
  0
ARC
  5
2F8
330
1F
100
AcDbEntity
  8
1
  6
Continuous
 62
     7
100
AcDbCircle
 10
2705.663462391635
 20
771.8336136786115
 30
0.0
 40
2.0
100
AcDbArc
 50
90.0
 51
180.0
  0
ARC
  5
2F9
330
1F
100
AcDbEntity
  8
1
  6
Continuous
 62
     7
100
AcDbCircle
 10
2739.663462391636
 20
771.8336136786115
 30
0.0
 40
1.999999999999091
100
AcDbArc
 50
0.0
 51
90.00000000002605
  0
ARC
  5
2FA
330
1F
100
AcDbEntity
  8
1
  6
Continuous
 62
     7
100
AcDbCircle
 10
1454.663462391551
 20
807.8336136786365
 30
0.0
 40
2.0
100
AcDbArc
 50
180.0
 51
-90.0
  0
ARC
  5
2FB
330
1F
100
AcDbEntity
  8
1
  6
Continuous
 62
     7
100
AcDbCircle
 10
1370.663462391548
 20
821.8336136786365
 30
0.0
 40
8.0
100
AcDbArc
 50
90.0
 51
180.0
  0
ARC
  5
2FC
330
1F
100
AcDbEntity
  8
1
  6
Continuous
 62
     7
100
AcDbCircle
 10
1370.663462391548
 20
747.8336136786365
 30
0.0
 40
8.0
100
AcDbArc
 50
180.0
 51
-90.0
  0
ARC
  5
2FD
330
1F
100
AcDbEntity
  8
1
  6
Continuous
 62
     7
100
AcDbCircle
 10
1444.663462391548
 20
821.8336136786365
 30
0.0
 40
8.0
100
AcDbArc
 50
0.0
 51
90.0
  0
ARC
  5
2FE
330
1F
100
AcDbEntity
  8
1
  6
DASHED
 62
     4
100
AcDbCircle
 10
1379.663462391459
 20
410.0050778617697
 30
0.0
 40
1.000000000002741
100
AcDbArc
 50
-63.00000000004896
 51
0.0
  0
ARC
  5
2FF
330
1F
100
AcDbEntity
  8
1
  6
DASHED
 62
     4
100
AcDbCircle
 10
1378.663462391459
 20
407.2508999370107
 30
0.0
 40
0.9999999999999046
100
AcDbArc
 50
117.0000000000339
 51
180.0
  0
ARC
  5
300
330
1F
100
AcDbEntity
  8
1
  6
DASHED
 62
     4
100
AcDbCircle
 10
1379.663462391459
 20
411.7794762854887
 30
0.0
 40
1.0
100
AcDbArc
 50
0.0
 51
63.00000000001495
  0
ARC
  5
301
330
1F
100
AcDbEntity
  8
1
  6
DASHED
 62
     4
100
AcDbCircle
 10
1378.663462391459
 20
414.5336542102486
 30
0.0
 40
1.0
100
AcDbArc
 50
180.0
 51
-117.0000000000117
  0
ARC
  5
302
330
1F
100
AcDbEntity
  8
1
  6
DASHED
 62
     4
100
AcDbCircle
 10
1436.663462391429
 20
414.5336542102486
 30
0.0
 40
1.000000000000252
100
AcDbArc
 50
-63.00000000003476
 51
0.0
  0
ARC
  5
303
330
1F
100
AcDbEntity
  8
1
  6
DASHED
 62
     4
100
AcDbCircle
 10
1435.663462391429
 20
411.7794762854887
 30
0.0
 40
1.000000000001576
100
AcDbArc
 50
116.9999999999851
 51
180.0
  0
ARC
  5
304
330
1F
100
AcDbEntity
  8
1
  6
DASHED
 62
     4
100
AcDbCircle
 10
1435.663462391429
 20
410.0050778617697
 30
0.0
 40
1.0
100
AcDbArc
 50
180.0
 51
-116.999999999951
  0
ARC
  5
305
330
1F
100
AcDbEntity
  8
1
  6
DASHED
 62
     4
100
AcDbCircle
 10
1436.663462391429
 20
407.2508999370107
 30
0.0
 40
1.0
100
AcDbArc
 50
0.0
 51
63.00000000001258
  0
ARC
  5
306
330
1F
100
AcDbEntity
  8
1
  6
DASHED
 62
     4
100
AcDbCircle
 10
1435.663462391429
 20
379.8922770736294
 30
0.0
 40
1.999999999997669
100
AcDbArc
 50
-90.0
 51
0.0
  0
ARC
  5
307
330
1F
100
AcDbEntity
  8
1
  6
DASHED
 62
     4
100
AcDbCircle
 10
1435.663462391429
 20
429.8922770736317
 30
0.0
 40
2.0
100
AcDbArc
 50
-0.00000000006677
 51
90.0
  0
ARC
  5
308
330
1F
100
AcDbEntity
  8
1
  6
DASHED
 62
     4
100
AcDbCircle
 10
1379.663462391459
 20
429.8922770736317
 30
0.0
 40
1.999999999997669
100
AcDbArc
 50
90.0
 51
-179.9999999999332
  0
ARC
  5
309
330
1F
100
AcDbEntity
  8
1
  6
DASHED
 62
     4
100
AcDbCircle
 10
1379.663462391459
 20
379.8922770736294
 30
0.0
 40
2.0
100
AcDbArc
 50
180.0
 51
-90.0
  0
LINE
  5
30A
330
1F
100
AcDbEntity
  8
1
 62
     2
100
AcDbLine
 10
2703.663462391636
 20
476.3069027157826
 30
0.0
 11
2687.81245317322
 21
481.1157986189148
 31
0.0
  0
LINE
  5
30B
330
1F
100
AcDbEntity
  8
1
 62
     2
100
AcDbLine
 10
2703.663462391636
 20
476.3069027157826
 30
0.0
 11
2692.340533684433
 21
488.397033341258
 31
0.0
  0
LEADER
  5
30C
330
1F
100
AcDbEntity
  8
1
  6
Continuous
 62
     2
100
AcDbLeader
  3
Standard
 71
     0
 76
     3
 10
2703.663462391636
 20
476.3069027157826
 30
0.0
 10
2566.23322983341
 20
561.7725114247928
 30
0.0
 10
2385.972943608001
 20
561.7725114247928
 30
0.0
  0
LINE
  5
30D
330
1F
100
AcDbEntity
  8
1
 62
     2
100
AcDbLine
 10
1584.425454320655
 20
489.2273422785088
 30
0.0
 11
1595.74177589487
 21
501.3236573818127
 31
0.0
  0
LINE
  5
30E
330
1F
100
AcDbEntity
  8
1
 62
     2
100
AcDbLine
 10
1584.425454320655
 20
489.2273422785088
 30
0.0
 11
1600.273833832971
 21
494.0448976630437
 31
0.0
  0
LEADER
  5
30F
330
1F
100
AcDbEntity
  8
1
  6
Continuous
 62
     2
100
AcDbLeader
  3
Standard
 71
     0
 76
     3
 10
1584.425454320655
 20
489.2273422785088
 30
0.0
 10
1700.937392646504
 20
561.7725114247928
 30
0.0
 10
1881.750730897472
 20
561.7725114247928
 30
0.0
  0
LINE
  5
310
330
1F
100
AcDbEntity
  8
1
 62
     2
100
AcDbLine
 10
2112.663462391506
 20
497.8922770736435
 30
0.0
 11
2125.163462391506
 21
501.2416419790326
 31
0.0
  0
LINE
  5
311
330
1F
100
AcDbEntity
  8
1
 62
     2
100
AcDbLine
 10
2112.663462391506
 20
497.8922770736435
 30
0.0
 11
2125.163462391506
 21
494.5429121682545
 31
0.0
  0
LEADER
  5
312
330
1F
100
AcDbEntity
  8
1
  6
Continuous
 62
     2
100
AcDbLeader
  3
Standard
 71
     0
 76
     2
 10
2112.663462391506
 20
497.8922770736435
 30
0.0
 10
2139.342726232153
 20
497.8922770736435
 30
0.0
  0
LINE
  5
313
330
1F
100
AcDbEntity
  8
1
 62
     2
100
AcDbLine
 10
2112.663462391506
 20
345.8922770736394
 30
0.0
 11
2125.163462391506
 21
349.2416419790284
 31
0.0
  0
LINE
  5
314
330
1F
100
AcDbEntity
  8
1
 62
     2
100
AcDbLine
 10
2112.663462391506
 20
345.8922770736394
 30
0.0
 11
2125.163462391506
 21
342.5429121682503
 31
0.0
  0
LEADER
  5
315
330
1F
100
AcDbEntity
  8
1
  6
Continuous
 62
     2
100
AcDbLeader
  3
Standard
 71
     0
 76
     2
 10
2112.663462391506
 20
345.8922770736394
 30
0.0
 10
2139.342726232153
 20
345.8922770736394
 30
0.0
  0
LINE
  5
316
330
1F
100
AcDbEntity
  8
1
 62
     2
100
AcDbLine
 10
1452.163462391548
 20
554.8922770736317
 30
0.0
 11
1460.445671834827
 21
569.2374846283212
 31
0.0
  0
LINE
  5
317
330
1F
100
AcDbEntity
  8
1
 62
     2
100
AcDbLine
 10
1452.163462391548
 20
554.8922770736317
 30
0.0
 11
1466.508669946236
 21
563.1744865169135
 31
0.0
  0
LEADER
  5
318
330
1F
100
AcDbEntity
  8
1
  6
Continuous
 62
     2
100
AcDbLeader
  3
Standard
 71
     0
 76
     3
 10
1452.163462391548
 20
554.8922770736317
 30
0.0
 10
1484.163462391546
 20
586.8922770736317
 30
0.0
 10
1592.947107528484
 20
586.8922770736317
 30
0.0
  0
MTEXT
  5
319
330
1F
100
AcDbEntity
  8
1
 62
     2
100
AcDbMText
 10
2561.23322983341
 20
566.7725114247928
 30
0.0
 40
16.0
 41
0.0
 71
     9
 72
     1
  1
コンベヤ取付ブラケット
  7
CONVERTER_3
 73
     1
 44
0.60024009603842
  0
TEXT
  5
31A
330
1F
100
AcDbEntity
  8
1
 62
     2
100
AcDbText
 10
1705.937392646504
 20
566.7725114247928
 30
0.0
 40
16.0
  1
コンベヤ取付ブラケット
 41
0.89
  7
CONVERTER_3
100
AcDbText
  0
TEXT
  5
31B
330
1F
100
AcDbEntity
  8
1
 62
     2
100
AcDbText
 10
1736.981665738306
 20
121.1675982460715
 30
0.0
 40
20.0
  1
117
 41
0.9
  7
CONVERTER_1
100
AcDbText
  0
TEXT
  5
31C
330
1F
100
AcDbEntity
  8
1
 62
     2
100
AcDbText
 10
1600.012003582851
 20
119.4408276584195
 30
0.0
 40
20.0
  1
99
 41
0.9
  7
CONVERTER_1
100
AcDbText
  0
TEXT
  5
31D
330
1F
100
AcDbEntity
  8
1
 62
     2
100
AcDbText
 10
1717.119978147705
 20
168.9415845044377
 30
0.0
 40
16.0
  1
減速比36
 41
0.89
  7
CONVERTER_3
100
AcDbText
  0
TEXT
  5
31E
330
1F
100
AcDbEntity
  8
1
 62
     2
100
AcDbText
 10
1554.096370312346
 20
168.9415845044368
 30
0.0
 40
16.0
  1
減速比3.6~18
 41
0.89
  7
CONVERTER_3
100
AcDbText
  0
TEXT
  5
31F
330
1F
100
AcDbEntity
  8
1
 62
     2
100
AcDbText
 10
1669.585601657612
 20
196.5699139068624
 30
0.0
 40
16.0
  1
DC
 41
0.9
  7
CONVERTER_1
100
AcDbText
  0
TEXT
  5
320
330
1F
100
AcDbEntity
  8
1
 62
     2
100
AcDbText
 10
1452.660913436567
 20
120.0164178543046
 30
0.0
 40
20.0
  1
147
 41
0.9
  7
CONVERTER_1
100
AcDbText
  0
TEXT
  5
321
330
1F
100
AcDbEntity
  8
1
 62
     2
100
AcDbText
 10
1413.520780116465
 20
168.3659943085527
 30
0.0
 40
16.0
  1
減速比3.6~15
 41
0.89
  7
CONVERTER_3
100
AcDbText
  0
TEXT
  5
322
330
1F
100
AcDbEntity
  8
1
 62
     2
100
AcDbText
 10
1466.034716963825
 20
197.1455041027457
 30
0.0
 40
16.0
  1
IV
 41
0.9
  7
CONVERTER_1
100
AcDbText
  0
MTEXT
  5
323
330
1F
100
AcDbEntity
  8
1
 62
     2
100
AcDbMText
 10
1415.736455629535
 20
228.5151697784208
 30
0.0
 40
20.0
 41
0.0
 71
     7
 72
     1
  1
モータ寸法表 ML (mm)
  7
CONVERTER_3
 73
     1
 44
0.60024009603842
  0
TEXT
  5
324
330
1F
100
AcDbEntity
  8
1
 62
     2
100
AcDbText
 10
3017.004426541859
 20
-163.2219683476733
 30
0.0
 40
16.0
  1
W_SB_S_0030
 41
0.9
  7
CONVERTER_1
100
AcDbText
  0
TEXT
  5
325
330
1F
100
AcDbEntity
  8
1
 62
     2
100
AcDbText
 10
2087.145401717423
 20
37.30786803468573
 30
0.0
 40
16.0
  1
A-A 矢視図
 41
0.89
  7
CONVERTER_3
100
AcDbText
  0
TEXT
  5
326
330
1F
100
AcDbEntity
  8
1
 62
     2
100
AcDbText
 10
2128.509341196483
 20
502.7275048482165
 30
0.0
 40
16.0
  1
A
 41
0.9
  7
CONVERTER_1
100
AcDbText
  0
TEXT
  5
327
330
1F
100
AcDbEntity
  8
1
 62
     2
100
AcDbText
 10
2128.509341196483
 20
350.7275048482115
 30
0.0
 40
16.0
  1
A
 41
0.9
  7
CONVERTER_1
100
AcDbText
  0
TEXT
  5
328
330
1F
100
AcDbEntity
  8
1
 62
     2
100
AcDbText
 10
2488.056985517749
 20
-168.1712107535154
 30
0.0
 40
20.0
  1
SB2
 41
0.9
  7
CONVERTER_1
100
AcDbText
  0
TEXT
  5
329
330
1F
100
AcDbEntity
  8
1
 62
     2
100
AcDbText
 10
2460.02817016578
 20
-119.2581800412486
 30
0.0
 40
20.0
  1
N1シリーズ
 41
0.89
  7
CONVERTER_3
100
AcDbText
  0
TEXT
  5
32A
330
1F
100
AcDbEntity
  8
1
 62
     2
100
AcDbText
 10
2110.088401827864
 20
-126.9879056085624
 30
0.0
 40
16.0
  1
2011.4.1
 41
0.9
  7
CONVERTER_1
100
AcDbText
  0
TEXT
  5
32B
330
1F
100
AcDbEntity
  8
1
 62
     2
100
AcDbText
 10
2495.739615476556
 20
199.5116208570898
 30
0.0
 40
20.0
  1
※1 ベルトのテークアップ量により、呼称機長は最大5mm伸びます
 41
0.89
  7
CONVERTER_3
100
AcDbText
  0
TEXT
  5
32C
330
1F
100
AcDbEntity
  8
1
 62
     2
100
AcDbText
 10
2498.517608378535
 20
106.9522484472468
 30
0.0
 40
20.0
  1
注1 本図はモータ取付がRタイプ、インバータ変速仕様の場合です
 41
0.89
  7
CONVERTER_3
100
AcDbText
  0
TEXT
  5
32D
330
1F
100
AcDbEntity
  8
1
 62
     2
100
AcDbText
 10
1489.163462391546
 20
591.8922770736317
 30
0.0
 40
16.0
  1
モータ 40W
 41
0.89
  7
CONVERTER_3
100
AcDbText
  0
TEXT
  5
32E
330
1F
100
AcDbEntity
  8
1
 62
     2
100
AcDbText
 10
2759.46793826386
 20
-117.9945351828505
 30
0.0
 40
16.0
  1
本体組立図　　呼称機長40cmを超え150cmまで
 41
0.89
  7
CONVERTER_3
100
AcDbText
  0
DIMENSION
  5
341
330
1F
100
AcDbEntity
  8
1
100
AcDbDimension
  2
*D02
 10
2042.914875933637
 20
183.3175914101144
 30
0.0
 11
2029.914875933637
 21
121.6159191763177
 31
0.0
 70
    32
  1
<>
 71
     5
 42
-1.0
 53
90.0
  3
ME10_DIM_0
100
AcDbAlignedDimension
 13
2097.404786184025
 23
63.31759141011344
 33
0.0
 14
2104.304786184063
 24
183.3175914101134
 34
0.0
 50
90.0
100
AcDbRotatedDimension
  0
DIMENSION
  5
350
330
1F
100
AcDbEntity
  8
1
100
AcDbDimension
  2
*D14
 10
2196.916710164191
 20
183.3175914101143
 30
0.0
 11
2183.916710164191
 21
215.2111046247978
 31
0.0
 70
    32
  1
<>
 71
     5
 42
-1.0
 53
90.0
  3
ME10_DIM_1
100
AcDbAlignedDimension
 13
2135.304786184032
 23
179.3175914101134
 33
0.0
 14
2135.304786184032
 24
183.3175914101134
 34
0.0
 50
90.0
100
AcDbRotatedDimension
  0
DIMENSION
  5
35F
330
1F
100
AcDbEntity
  8
1
100
AcDbDimension
  2
*D25
 10
2100.304786184062
 20
224.0718544436668
 30
0.0
 11
2159.846852085087
 21
237.0718544436668
 31
0.0
 70
    32
  1
<>
 71
     5
 42
-1.0
 53
0.00013888888889
  3
ME10_DIM_2
100
AcDbAlignedDimension
 13
2120.304786184032
 23
187.2418692648348
 33
0.0
 14
2100.304786184063
 24
179.3175914101134
 34
0.0
100
AcDbRotatedDimension
  0
DIMENSION
  5
36E
330
1F
100
AcDbEntity
  8
1
100
AcDbDimension
  2
*D36
 10
1553.663462391636
 20
534.4553821433315
 30
0.0
 11
1571.950571357618
 21
547.4553821433315
 31
0.0
 70
    32
  1
<>
 71
     5
 42
-1.0
 53
0.00013888888889
  3
ME10_DIM_3
100
AcDbAlignedDimension
 13
1591.663462391635
 23
497.8922770736367
 33
0.0
 14
1553.663462391635
 24
497.8922770736367
 34
0.0
100
AcDbRotatedDimension
  0
DIMENSION
  5
37D
330
1F
100
AcDbEntity
  8
1
100
AcDbDimension
  2
*D47
 10
2703.663462391635
 20
534.4553821433315
 30
0.0
 11
2723.10738169694
 21
547.4553821433315
 31
0.0
 70
    32
  1
<>
 71
     5
 42
-1.0
 53
0.00013888888889
  3
ME10_DIM_4
100
AcDbAlignedDimension
 13
2741.663462391635
 23
497.8922770736367
 33
0.0
 14
2703.663462391635
 24
497.8922770736367
 34
0.0
100
AcDbRotatedDimension
  0
DIMENSION
  5
38A
330
1F
100
AcDbEntity
  8
1
100
AcDbDimension
  2
*D58
 10
1572.663462391636
 20
679.8265807122048
 30
0.0
 11
2120.428220888862
 21
692.8265807122048
 31
0.0
 70
    32
  1
コンベヤ取付ブラケット 取付可能範囲
 71
     5
 42
-1.0
 53
0.00013888888889
  3
ME10_DIM_5
100
AcDbAlignedDimension
 13
2722.663462391635
 23
753.5836136786115
 33
0.0
 14
1572.663462391635
 24
753.5836136786115
 34
0.0
100
AcDbRotatedDimension
  0
DIMENSION
  5
397
330
1F
100
AcDbEntity
  8
1
100
AcDbDimension
  2
*D69
 10
2912.3975656917
 20
807.8336136799549
 30
0.0
 11
2900.8975656917
 21
771.3178752051335
 31
0.0
 70
    32
  1
<>
 71
     5
 42
-1.0
 53
90.0
  3
ME10_DIM_6
100
AcDbAlignedDimension
 13
2809.663462391426
 23
737.8336136778307
 33
0.0
 14
2840.663462391472
 24
807.8336136799558
 34
0.0
 50
90.0
100
AcDbRotatedDimension
  0
DIMENSION
  5
3A4
330
1F
100
AcDbEntity
  8
1
100
AcDbDimension
  2
*D710
 10
2862.663462391509
 20
679.8265807122048
 30
0.0
 11
2798.8271475436
 21
691.3265807122048
 31
0.0
 70
    32
  1
<>
 71
     5
 42
-1.0
 53
0.00013888888889
  3
ME10_DIM_7
100
AcDbAlignedDimension
 13
2722.663462391635
 23
753.5836136786115
 33
0.0
 14
2862.663462391509
 24
761.1336136778077
 34
0.0
100
AcDbRotatedDimension
  0
DIMENSION
  5
3B3
330
1F
100
AcDbEntity
  8
1
100
AcDbDimension
  2
*D811
 10
1330.66346239154
 20
737.8336136778303
 30
0.0
 11
1319.16346239154
 21
713.5542955044557
 31
0.0
 70
    32
  1
<>
 71
     5
 42
-1.0
 53
90.0
  3
ME10_DIM_8
100
AcDbAlignedDimension
 13
1370.663462391548
 23
739.8336136786365
 33
0.0
 14
1462.663462391439
 24
737.8336136778307
 34
0.0
 50
90.0
100
AcDbRotatedDimension
  0
DIMENSION
  5
3C0
330
1F
100
AcDbEntity
  8
1
100
AcDbDimension
  2
*D912
 10
1362.663462391459
 20
679.8265807122048
 30
0.0
 11
1471.103533947896
 21
691.3265807122048
 31
0.0
 70
    32
  1
<>
 71
     5
 42
-1.0
 53
0.00013888888889
  3
ME10_DIM_9
100
AcDbAlignedDimension
 13
1572.663462391635
 23
753.5836136786115
 33
0.0
 14
1362.663462391459
 24
748.0336136786045
 34
0.0
100
AcDbRotatedDimension
  0
DIMENSION
  5
3CD
330
1F
100
AcDbEntity
  8
1
100
AcDbDimension
  2
*D1013
 10
2862.663462391509
 20
641.0609277605067
 30
0.0
 11
2118.489938241277
 21
652.5609277605067
 31
0.0
 70
    32
  1
呼称機長 ※1
 71
     5
 42
-1.0
 53
0.00013888888889
  3
ME10_DIM_10
100
AcDbAlignedDimension
 13
1362.663462391459
 23
748.0336136786045
 33
0.0
 14
2862.663462391509
 24
761.1336136778077
 34
0.0
100
AcDbRotatedDimension
  0
DIMENSION
  5
3DA
330
1F
100
AcDbEntity
  8
1
100
AcDbDimension
  2
*D1114
 10
2912.397565691699
 20
431.8922770736317
 30
0.0
 11
2900.897565691699
 21
407.2397392544585
 31
0.0
 70
    32
  1
<>
 71
     5
 42
-1.0
 53
90.0
  3
ME10_DIM_11
100
AcDbAlignedDimension
 13
2863.563462391548
 23
377.8922770736317
 33
0.0
 14
2863.563462391548
 24
431.8922770736317
 34
0.0
 50
90.0
100
AcDbRotatedDimension
  0
DIMENSION
  5
3E7
330
1F
100
AcDbEntity
  8
1
100
AcDbDimension
  2
*D1215
 10
2959.563462391546
 20
457.8922770736204
 30
0.0
 11
2948.063462391546
 21
416.9665880719986
 31
0.0
 70
    32
  1
<>
 71
     5
 42
-1.0
 53
90.0
  3
ME10_DIM_12
100
AcDbAlignedDimension
 13
2863.563462391548
 23
377.8922770736317
 33
0.0
 14
2859.463462391461
 24
457.8922770736208
 34
0.0
 50
90.0
100
AcDbRotatedDimension
  0
DIMENSION
  5
3F4
330
1F
100
AcDbEntity
  8
1
100
AcDbDimension
  2
*D1316
 10
1330.663462391544
 20
433.8922770736203
 30
0.0
 11
1317.963462391544
 21
404.5210854074576
 31
0.0
 70
    32
  1
<>
 71
     5
 42
-1.0
 53
90.0
  3
ME10_DIM_13
100
AcDbAlignedDimension
 13
1376.763462391574
 23
377.8922770736317
 33
0.0
 14
1362.66346239157
 24
433.8922770736208
 34
0.0
 50
90.0
100
AcDbRotatedDimension
  0
DIMENSION
  5
403
330
1F
100
AcDbEntity
  8
1
100
AcDbDimension
  2
*D1417
 10
1330.663462391541
 20
433.8922770736203
 30
0.0
 11
1315.991604022051
 21
437.0942763781686
 31
0.0
 70
    32
  1
<>
 71
     5
 42
-1.0
 53
90.0
  3
ME10_DIM_14
100
AcDbAlignedDimension
 13
1362.66346239157
 23
439.8922770736208
 33
0.0
 14
1362.66346239157
 24
433.8922770736208
 34
0.0
 50
90.0
100
AcDbRotatedDimension
  0
DIMENSION
  5
410
330
1F
100
AcDbEntity
  8
1
100
AcDbDimension
  2
*D1518
 10
1330.66346239154
 20
439.8922770736203
 30
0.0
 11
1319.16346239154
 21
511.7745050928374
 31
0.0
 70
    32
  1
ML
 71
     5
 42
-1.0
 53
90.0
  3
ME10_DIM_15
100
AcDbAlignedDimension
 13
1366.963462391542
 23
586.8922770736317
 33
0.0
 14
1362.66346239157
 24
439.8922770736208
 34
0.0
 50
90.0
100
AcDbRotatedDimension
  0
DIMENSION
  5
41D
330
1F
100
AcDbEntity
  8
1
100
AcDbDimension
  2
*D1619
 10
1330.663462391544
 20
829.8336136786052
 30
0.0
 11
1317.963462391544
 21
781.8804228224167
 31
0.0
 70
    32
  1
<>
 71
     5
 42
-1.0
 53
90.0
  3
ME10_DIM_16
100
AcDbAlignedDimension
 13
1370.663462391548
 23
739.8336136786365
 33
0.0
 14
1370.863462391409
 24
829.8336136786056
 34
0.0
 50
90.0
100
AcDbRotatedDimension
  0
DIMENSION
  5
42A
330
1F
100
AcDbEntity
  8
1
100
AcDbDimension
  2
*D1720
 10
1298.663462391544
 20
829.8336136786052
 30
0.0
 11
1285.963462391544
 21
784.3940632731656
 31
0.0
 70
    32
  1
<>
 71
     5
 42
-1.0
 53
90.0
  3
ME10_DIM_17
100
AcDbAlignedDimension
 13
1462.663462391439
 23
737.8336136778307
 33
0.0
 14
1370.863462391409
 24
829.8336136786056
 34
0.0
 50
90.0
100
AcDbRotatedDimension
  0
DIMENSION
  5
439
330
1F
100
AcDbEntity
  8
1
100
AcDbDimension
  2
*D1821
 10
2135.304786184031
 20
266.7884610030847
 30
0.0
 11
2116.006124300421
 21
279.7884610030847
 31
0.0
 70
    32
  1
<>
 71
     5
 42
-1.0
 53
0.00013888888889
  3
ME10_DIM_18
100
AcDbAlignedDimension
 13
2100.304786184063
 23
179.3175914101134
 33
0.0
 14
2135.304786184032
 24
183.3175914101134
 34
0.0
100
AcDbRotatedDimension
  0
DIMENSION
  5
448
330
1F
100
AcDbEntity
  8
1
100
AcDbDimension
  2
*D1922
 10
2100.304786184063
 20
266.7884610030847
 30
0.0
 11
2067.467816583411
 21
279.7884610030847
 31
0.0
 70
    32
  1
<>
 71
     5
 42
-1.0
 53
0.00013888888889
  3
ME10_DIM_19
100
AcDbAlignedDimension
 13
2099.304786184032
 23
119.3175914101125
 33
0.0
 14
2100.304786184063
 24
179.3175914101134
 34
0.0
100
AcDbRotatedDimension
  0
INSERT
  5
451
330
1F
100
AcDbEntity
  8
1
100
AcDbBlockReference
  2
*D2023
 10
0.0
 20
0.0
 30
0.0
  0
INSERT
  5
45A
330
1F
100
AcDbEntity
  8
1
100
AcDbBlockReference
  2
*D2124
 10
0.0
 20
0.0
 30
0.0
  0
INSERT
  5
463
330
1F
100
AcDbEntity
  8
1
100
AcDbBlockReference
  2
*D2225
 10
0.0
 20
0.0
 30
0.0
  0
INSERT
  5
46C
330
1F
100
AcDbEntity
  8
1
100
AcDbBlockReference
  2
*D2326
 10
0.0
 20
0.0
 30
0.0
  0
ENDSEC
  0
SECTION
  2
OBJECTS
  0
DICTIONARY
  5
C
330
0
100
AcDbDictionary
281
     1
  3
ACAD_GROUP
350
D
  3
ACAD_LAYOUT
350
1A
  3
ACAD_MLINESTYLE
350
17
  3
ACAD_PLOTSETTINGS
350
19
  3
ACAD_PLOTSTYLENAME
350
E
  0
DICTIONARY
  5
D
102
{ACAD_REACTORS
330
C
102
}
330
C
100
AcDbDictionary
281
     1
  0
DICTIONARY
  5
1A
102
{ACAD_REACTORS
330
C
102
}
330
C
100
AcDbDictionary
281
     1
  3
Layout1
350
1E
  3
Layout2
350
26
  3
Model
350
22
  0
DICTIONARY
  5
17
102
{ACAD_REACTORS
330
C
102
}
330
C
100
AcDbDictionary
281
     1
  3
Standard
350
18
  0
DICTIONARY
  5
19
102
{ACAD_REACTORS
330
C
102
}
330
C
100
AcDbDictionary
281
     1
  0
ACDBDICTIONARYWDFLT
  5
E
102
{ACAD_REACTORS
330
C
102
}
330
C
100
AcDbDictionary
281
     1
  3
Normal
350
F
100
AcDbDictionaryWithDefault
340
F
  0
LAYOUT
  5
1E
102
{ACAD_REACTORS
330
1A
102
}
330
1A
100
AcDbPlotSettings
  1

  2

  4

  6

 40
0.0
 41
0.0
 42
0.0
 43
0.0
 44
0.0
 45
0.0
 46
0.0
 47
0.0
 48
0.0
 49
0.0
140
0.0
141
0.0
142
1.0
143
1.0
 70
   688
 72
     0
 73
     0
 74
     5
  7

 75
    16
147
1.0
148
0.0
149
0.0
100
AcDbLayout
  1
Layout1
 70
     1
 71
     1
 10
0.0
 20
0.0
 11
0.0
 21
0.0
 12
0.0
 22
0.0
 32
0.0
 14
0.0
 24
0.0
 34
0.0
 15
0.0
 25
0.0
 35
0.0
146
0.0
 13
0.0
 23
0.0
 33
0.0
 16
1.0
 26
0.0
 36
0.0
 17
0.0
 27
1.0
 37
0.0
 76
     0
330
1B
  0
LAYOUT
  5
26
102
{ACAD_REACTORS
330
1A
102
}
330
1A
100
AcDbPlotSettings
  1

  2

  4

  6

 40
0.0
 41
0.0
 42
0.0
 43
0.0
 44
0.0
 45
0.0
 46
0.0
 47
0.0
 48
0.0
 49
0.0
140
0.0
141
0.0
142
1.0
143
1.0
 70
   688
 72
     0
 73
     0
 74
     5
  7

 75
    16
147
1.0
148
0.0
149
0.0
100
AcDbLayout
  1
Layout2
 70
     1
 71
     2
 10
0.0
 20
0.0
 11
0.0
 21
0.0
 12
0.0
 22
0.0
 32
0.0
 14
0.0
 24
0.0
 34
0.0
 15
0.0
 25
0.0
 35
0.0
146
0.0
 13
0.0
 23
0.0
 33
0.0
 16
1.0
 26
0.0
 36
0.0
 17
0.0
 27
1.0
 37
0.0
 76
     0
330
23
  0
LAYOUT
  5
22
102
{ACAD_REACTORS
330
1A
102
}
330
1A
100
AcDbPlotSettings
  1

  2

  4

  6

 40
0.0
 41
0.0
 42
0.0
 43
0.0
 44
0.0
 45
0.0
 46
0.0
 47
0.0
 48
0.0
 49
0.0
140
0.0
141
0.0
142
1.0
143
1.0
 70
  1712
 72
     0
 73
     0
 74
     0
  7

 75
     0
147
1.0
148
0.0
149
0.0
100
AcDbLayout
  1
Model
 70
     1
 71
     0
 10
0.0
 20
0.0
 11
0.0
 21
0.0
 12
0.0
 22
0.0
 32
0.0
 14
1240.09548385845
 24
-192.5494913200585
 34
0.0
 15
3210.09548385845
 25
1158.73127528472
 35
0.0
146
0.0
 13
0.0
 23
0.0
 33
0.0
 16
1.0
 26
0.0
 36
0.0
 17
0.0
 27
1.0
 37
0.0
 76
     0
330
1F
  0
MLINESTYLE
  5
18
102
{ACAD_REACTORS
330
17
102
}
330
17
100
AcDbMlineStyle
  2
Standard
 70
     0
  3

 62
   256
 51
90.0
 52
90.0
 71
     2
 49
0.5
 62
   256
  6
BYLAYER
 49
-0.5
 62
   256
  6
BYLAYER
  0
ACDBPLACEHOLDER
  5
F
102
{ACAD_REACTORS
330
E
102
}
330
E
  0
ENDSEC
  0
EOF
