  0
SECTION
  2
HEADER
  9
$ACADVER
  1
AC1015
  9
$ACADMAINTVER
 70
     6
  9
$DWGCODEPAGE
  3
DOS932
  9
$INSBASE
 10
0.0
 20
0.0
 30
0.0
  9
$EXTMIN
 10
1240.09548385845
 20
-192.5494913200585
 30
0.0
  9
$EXTMAX
 10
3210.09548385845
 20
1158.73127528472
 30
0.0
  9
$LIMMIN
 10
0.0
 20
0.0
  9
$LIMMAX
 10
12.0
 20
9.0
  9
$ORTHOMODE
 70
     0
  9
$REGENMODE
 70
     1
  9
$FILLMODE
 70
     1
  9
$QTEXTMODE
 70
     0
  9
$MIRRTEXT
 70
     1
  9
$LTSCALE
 40
1.0
  9
$ATTMODE
 70
     1
  9
$TEXTSIZE
 40
0.2
  9
$TRACEWID
 40
0.05
  9
$TEXTSTYLE
  7
Standard
  9
$CLAYER
  8
0
  9
$CELTYPE
  6
ByLayer
  9
$CECOLOR
 62
   256
  9
$CELTSCALE
 40
1.0
  9
$DISPSILH
 70
     0
  9
$DIMSCALE
 40
1.0
  9
$DIMASZ
 40
0.18
  9
$DIMEXO
 40
0.0625
  9
$DIMDLI
 40
0.38
  9
$DIMRND
 40
0.0
  9
$DIMDLE
 40
0.0
  9
$DIMEXE
 40
0.18
  9
$DIMTP
 40
0.0
  9
$DIMTM
 40
0.0
  9
$DIMTXT
 40
0.18
  9
$DIMCEN
 40
0.09
  9
$DIMTSZ
 40
0.0
  9
$DIMTOL
 70
     0
  9
$DIMLIM
 70
     0
  9
$DIMTIH
 70
     1
  9
$DIMTOH
 70
     1
  9
$DIMSE1
 70
     0
  9
$DIMSE2
 70
     0
  9
$DIMTAD
 70
     0
  9
$DIMZIN
 70
     0
  9
$DIMBLK
  1

  9
$DIMASO
 70
     1
  9
$DIMSHO
 70
     1
  9
$DIMPOST
  1

  9
$DIMAPOST
  1

  9
$DIMALT
 70
     0
  9
$DIMALTD
 70
     2
  9
$DIMALTF
 40
25.4
  9
$DIMLFAC
 40
1.0
  9
$DIMTOFL
 70
     0
  9
$DIMTVP
 40
0.0
  9
$DIMTIX
 70
     0
  9
$DIMSOXD
 70
     0
  9
$DIMSAH
 70
     0
  9
$DIMBLK1
  1

  9
$DIMBLK2
  1

  9
$DIMSTYLE
  2
Standard
  9
$DIMCLRD
 70
     0
  9
$DIMCLRE
 70
     0
  9
$DIMCLRT
 70
     0
  9
$DIMTFAC
 40
1.0
  9
$DIMGAP
 40
0.09
  9
$DIMJUST
 70
     0
  9
$DIMSD1
 70
     0
  9
$DIMSD2
 70
     0
  9
$DIMTOLJ
 70
     1
  9
$DIMTZIN
 70
     0
  9
$DIMALTZ
 70
     0
  9
$DIMALTTZ
 70
     0
  9
$DIMUPT
 70
     0
  9
$DIMDEC
 70
     4
  9
$DIMTDEC
 70
     4
  9
$DIMALTU
 70
     2
  9
$DIMALTTD
 70
     2
  9
$DIMTXSTY
  7
Standard
  9
$DIMAUNIT
 70
     0
  9
$DIMADEC
 70
     0
  9
$DIMALTRND
 40
0.0
  9
$DIMAZIN
 70
     0
  9
$DIMDSEP
 70
    46
  9
$DIMATFIT
 70
     3
  9
$DIMFRAC
 70
     0
  9
$DIMLDRBLK
  1

  9
$DIMLUNIT
 70
     2
  9
$DIMLWD
 70
    -2
  9
$DIMLWE
 70
    -2
  9
$DIMTMOVE
 70
     0
  9
$LUNITS
 70
     2
  9
$LUPREC
 70
     4
  9
$SKETCHINC
 40
0.1
  9
$FILLETRAD
 40
0.5
  9
$AUNITS
 70
     0
  9
$AUPREC
 70
     0
  9
$MENU
  1
.
  9
$ELEVATION
 40
0.0
  9
$PELEVATION
 40
0.0
  9
$THICKNESS
 40
0.0
  9
$LIMCHECK
 70
     0
  9
$CHAMFERA
 40
0.5
  9
$CHAMFERB
 40
0.5
  9
$CHAMFERC
 40
1.0
  9
$CHAMFERD
 40
0.0
  9
$SKPOLY
 70
     0
  9
$TDCREATE
 40
2455806.647078148
  9
$TDUCREATE
 40
2455806.272078148
  9
$TDUPDATE
 40
2455806.64707816
  9
$TDUUPDATE
 40
2455806.27207816
  9
$TDINDWG
 40
0.0000000116
  9
$TDUSRTIMER
 40
0.0000000116
  9
$USRTIMER
 70
     1
  9
$ANGBASE
 50
0.0
  9
$ANGDIR
 70
     0
  9
$PDMODE
 70
     0
  9
$PDSIZE
 40
0.0
  9
$PLINEWID
 40
0.0
  9
$SPLFRAME
 70
     0
  9
$SPLINETYPE
 70
     6
  9
$SPLINESEGS
 70
     8
  9
$HANDSEED
  5
4A6
  9
$SURFTAB1
 70
     6
  9
$SURFTAB2
 70
     6
  9
$SURFTYPE
 70
     6
  9
$SURFU
 70
     6
  9
$SURFV
 70
     6
  9
$UCSBASE
  2

  9
$UCSNAME
  2

  9
$UCSORG
 10
0.0
 20
0.0
 30
0.0
  9
$UCSXDIR
 10
1.0
 20
0.0
 30
0.0
  9
$UCSYDIR
 10
0.0
 20
1.0
 30
0.0
  9
$UCSORTHOREF
  2

  9
$UCSORTHOVIEW
 70
     0
  9
$UCSORGTOP
 10
0.0
 20
0.0
 30
0.0
  9
$UCSORGBOTTOM
 10
0.0
 20
0.0
 30
0.0
  9
$UCSORGLEFT
 10
0.0
 20
0.0
 30
0.0
  9
$UCSORGRIGHT
 10
0.0
 20
0.0
 30
0.0
  9
$UCSORGFRONT
 10
0.0
 20
0.0
 30
0.0
  9
$UCSORGBACK
 10
0.0
 20
0.0
 30
0.0
  9
$PUCSBASE
  2

  9
$PUCSNAME
  2

  9
$PUCSORG
 10
0.0
 20
0.0
 30
0.0
  9
$PUCSXDIR
 10
1.0
 20
0.0
 30
0.0
  9
$PUCSYDIR
 10
0.0
 20
1.0
 30
0.0
  9
$PUCSORTHOREF
  2

  9
$PUCSORTHOVIEW
 70
     0
  9
$PUCSORGTOP
 10
0.0
 20
0.0
 30
0.0
  9
$PUCSORGBOTTOM
 10
0.0
 20
0.0
 30
0.0
  9
$PUCSORGLEFT
 10
0.0
 20
0.0
 30
0.0
  9
$PUCSORGRIGHT
 10
0.0
 20
0.0
 30
0.0
  9
$PUCSORGFRONT
 10
0.0
 20
0.0
 30
0.0
  9
$PUCSORGBACK
 10
0.0
 20
0.0
 30
0.0
  9
$USERI1
 70
     0
  9
$USERI2
 70
     0
  9
$USERI3
 70
     0
  9
$USERI4
 70
     0
  9
$USERI5
 70
     0
  9
$USERR1
 40
14.0
  9
$USERR2
 40
0.0
  9
$USERR3
 40
0.0
  9
$USERR4
 40
0.0
  9
$USERR5
 40
0.0
  9
$WORLDVIEW
 70
     1
  9
$SHADEDGE
 70
     3
  9
$SHADEDIF
 70
    70
  9
$TILEMODE
 70
     1
  9
$MAXACTVP
 70
    64
  9
$PINSBASE
 10
0.0
 20
0.0
 30
0.0
  9
$PLIMCHECK
 70
     0
  9
$PEXTMIN
 10
1.00000000000000E+20
 20
1.00000000000000E+20
 30
1.00000000000000E+20
  9
$PEXTMAX
 10
-1.00000000000000E+20
 20
-1.00000000000000E+20
 30
-1.00000000000000E+20
  9
$PLIMMIN
 10
0.0
 20
0.0
  9
$PLIMMAX
 10
12.0
 20
9.0
  9
$UNITMODE
 70
     0
  9
$VISRETAIN
 70
     1
  9
$PLINEGEN
 70
     0
  9
$PSLTSCALE
 70
     1
  9
$TREEDEPTH
 70
  3020
  9
$CMLSTYLE
  2
Standard
  9
$CMLJUST
 70
     0
  9
$CMLSCALE
 40
1.0
  9
$PROXYGRAPHICS
 70
     1
  9
$MEASUREMENT
 70
     1
  9
$CELWEIGHT
370
    -1
  9
$ENDCAPS
280
     0
  9
$JOINSTYLE
280
     0
  9
$LWDISPLAY
290
     0
  9
$INSUNITS
 70
     1
  9
$HYPERLINKBASE
  1

  9
$STYLESHEET
  1

  9
$XEDIT
290
     1
  9
$CEPSNTYPE
380
     0
  9
$PSTYLEMODE
290
     1
  9
$FINGERPRINTGUID
  2
{BB2A7F40-6E52-48FF-9006-B7A58FD7DECA}
  9
$VERSIONGUID
  2
{FAEB1C32-E019-11D5-929B-00C0DF256EC4}
  9
$EXTNAMES
290
     1
  9
$PSVPSCALE
 40
0.0
  9
$OLESTARTUP
290
     0
  0
ENDSEC
  0
SECTION
  2
CLASSES
  0
CLASS
  1
ACDBDICTIONARYWDFLT
  2
AcDbDictionaryWithDefault
  3
ObjectDBX Classes
 90
        0
280
     0
281
     0
  0
CLASS
  1

  2
exOdDbCircle
  3

 90
        0
280
     0
281
     1
  0
CLASS
  1

  2
exOdDbPolyline
  3

 90
        0
280
     0
281
     1
  0
CLASS
  1
ACDBPLACEHOLDER
  2
AcDbPlaceHolder
  3
ObjectDBX Classes
 90
        0
280
     0
281
     0
  0
CLASS
  1
LAYOUT
  2
AcDbLayout
  3
ObjectDBX Classes
 90
        0
280
     0
281
     0
  0
ENDSEC
  0
SECTION
  2
TABLES
  0
TABLE
  2
VPORT
  5
8
330
0
100
AcDbSymbolTable
 70
     1
  0
VPORT
  5
29
330
8
100
AcDbSymbolTableRecord
100
AcDbViewportTableRecord
  2
*Active
 70
     0
 10
0.0
 20
0.0
 11
1.0
 21
1.0
 12
2225.09548385845
 22
483.0908919823307
 13
0.0
 23
0.0
 14
0.5
 24
0.5
 15
0.5
 25
0.5
 16
0.0
 26
0.0
 36
1.0
 17
0.0
 27
0.0
 37
0.0
 40
1486.408843265256
 41
1.60267857142857
 42
50.0
 43
0.0
 44
0.0
 50
0.0
 51
0.0
 71
     0
 72
   100
 73
     1
 74
     3
 75
     0
 76
     0
 77
     0
 78
     0
281
     0
 65
     1
110
0.0
120
0.0
130
0.0
111
1.0
121
0.0
131
0.0
112
0.0
122
1.0
132
0.0
 79
     0
146
0.0
  0
ENDTAB
  0
TABLE
  2
LTYPE
  5
5
330
0
100
AcDbSymbolTable
 70
     8
  0
LTYPE
  5
14
330
5
100
AcDbSymbolTableRecord
100
AcDbLinetypeTableRecord
  2
ByBlock
 70
     0
  3

 72
    65
 73
     0
 40
0.0
  0
LTYPE
  5
15
330
5
100
AcDbSymbolTableRecord
100
AcDbLinetypeTableRecord
  2
ByLayer
 70
     0
  3

 72
    65
 73
     0
 40
0.0
  0
LTYPE
  5
16
330
5
100
AcDbSymbolTableRecord
100
AcDbLinetypeTableRecord
  2
Continuous
 70
     0
  3
Solid line
 72
    65
 73
     0
 40
0.0
  0
LTYPE
  5
2A
330
5
100
AcDbSymbolTableRecord
100
AcDbLinetypeTableRecord
  2
DASHED
 70
     0
  3
Dashed
 72
    65
 73
     2
 40
15.0
 49
7.0
 74
     0
 49
-8.0
 74
     0
  0
LTYPE
  5
2B
330
5
100
AcDbSymbolTableRecord
100
AcDbLinetypeTableRecord
  2
DOTTED
 70
     0
  3
Dotted
 72
    65
 73
     2
 40
1.0
 49
0.0
 74
     0
 49
-1.0
 74
     0
  0
LTYPE
  5
2C
330
5
100
AcDbSymbolTableRecord
100
AcDbLinetypeTableRecord
  2
DOT_CENTER
 70
     0
  3
Dot_Center
 72
    65
 73
     4
 40
14.0
 49
12.0
 74
     0
 49
-1.0
 74
     0
 49
0.0
 74
     0
 49
-1.0
 74
     0
  0
LTYPE
  5
2D
330
5
100
AcDbSymbolTableRecord
100
AcDbLinetypeTableRecord
  2
LONG_DASHED
 70
     0
  3
Long_Dashed
 72
    65
 73
     2
 40
15.0
 49
10.0
 74
     0
 49
-5.0
 74
     0
  0
LTYPE
  5
2E
330
5
100
AcDbSymbolTableRecord
100
AcDbLinetypeTableRecord
  2
DASH_CENTER
 70
     0
  3
Dash_Center
 72
    65
 73
     4
 40
14.0
 49
11.0
 74
     0
 49
-1.0
 74
     0
 49
1.0
 74
     0
 49
-1.0
 74
     0
  0
LTYPE
  5
2F
330
5
100
AcDbSymbolTableRecord
100
AcDbLinetypeTableRecord
  2
PHANTOM
 70
     0
  3
Phantom
 72
    65
 73
     6
 40
13.0
 49
10.0
 74
     0
 49
-1.0
 74
     0
 49
0.0
 74
     0
 49
-1.0
 74
     0
 49
0.0
 74
     0
 49
-1.0
 74
     0
  0
LTYPE
  5
30
330
5
100
AcDbSymbolTableRecord
100
AcDbLinetypeTableRecord
  2
CENTER_DASH_DASH
 70
     0
  3
Center_Dash_Dash
 72
    65
 73
     6
 40
14.0
 49
9.0
 74
     0
 49
-1.0
 74
     0
 49
1.0
 74
     0
 49
-1.0
 74
     0
 49
1.0
 74
     0
 49
-1.0
 74
     0
  0
ENDTAB
  0
TABLE
  2
LAYER
  5
2
330
0
100
AcDbSymbolTable
 70
     2
  0
LAYER
  5
10
330
2
100
AcDbSymbolTableRecord
100
AcDbLayerTableRecord
  2
0
 70
     0
 62
     7
  6
Continuous
370
    -3
390
F
  0
LAYER
  5
31
330
2
100
AcDbSymbolTableRecord
100
AcDbLayerTableRecord
  2
1
 70
     0
 62
     7
  6
Continuous
370
    -3
390
F
  0
ENDTAB
  0
TABLE
  2
STYLE
  5
3
330
0
100
AcDbSymbolTable
 70
     7
  0
STYLE
  5
11
330
3
100
AcDbSymbolTableRecord
100
AcDbTextStyleTableRecord
  2
Standard
 70
     0
 40
0.0
 41
1.0
 50
0.0
 71
     0
 42
0.2
  3
txt
  4

  0
STYLE
  5
50
330
3
100
AcDbSymbolTableRecord
100
AcDbTextStyleTableRecord
  2
CONVERTER_1
 70
     0
 40
0.0
 41
0.9
 50
0.0
 71
     0
 42
0.2
  3
txt.shx
  4

  0
STYLE
  5
53
330
3
100
AcDbSymbolTableRecord
100
AcDbTextStyleTableRecord
  2
CONVERTER_2
 70
     0
 40
0.0
 41
1.068
 50
0.0
 71
     0
 42
0.2
  3
msmincho.ttc
  4

1001
ACAD
1000
MS Mincho
1071
    32785
  0
STYLE
  5
56
330
3
100
AcDbSymbolTableRecord
100
AcDbTextStyleTableRecord
  2
CONVERTER_3
 70
     0
 40
0.0
 41
0.89
 50
0.0
 71
     0
 42
0.2
  3
MSMINCHO.TTC
  4

1001
ACAD
1000
MS Mincho
1071
    32785
  0
STYLE
  5
59
330
3
100
AcDbSymbolTableRecord
100
AcDbTextStyleTableRecord
  2
CONVERTER_4
 70
     0
 40
0.0
 41
0.801
 50
0.0
 71
     0
 42
0.2
  3
msmincho.ttc
  4

1001
ACAD
1000
MS Mincho
1071
    32785
  0
STYLE
  5
5D
330
3
100
AcDbSymbolTableRecord
100
AcDbTextStyleTableRecord
  2
CONVERTER_5
 70
     0
 40
0.0
 41
0.9025
 50
0.0
 71
     0
 42
0.2
  3
complex.shx
  4

  0
STYLE
  5
3DA
330
3
100
AcDbSymbolTableRecord
100
AcDbTextStyleTableRecord
  2
CONVERTER_6
 70
     0
 40
0.0
 41
0.623
 50
0.0
 71
     0
 42
0.2
  3
msmincho.ttc
  4

1001
ACAD
1000
MS Mincho
1071
    32785
  0
ENDTAB
  0
TABLE
  2
VIEW
  5
6
330
0
100
AcDbSymbolTable
 70
     0
  0
ENDTAB
  0
TABLE
  2
UCS
  5
7
330
0
100
AcDbSymbolTable
 70
     0
  0
ENDTAB
  0
TABLE
  2
APPID
  5
9
330
0
100
AcDbSymbolTable
 70
     1
  0
APPID
  5
12
330
9
100
AcDbSymbolTableRecord
100
AcDbRegAppTableRecord
  2
ACAD
 70
     0
  0
ENDTAB
  0
TABLE
  2
DIMSTYLE
  5
A
330
0
100
AcDbSymbolTable
 70
    19
100
AcDbDimStyleTable
  0
DIMSTYLE
105
27
330
A
100
AcDbSymbolTableRecord
100
AcDbDimStyleTableRecord
  2
Standard
 70
     0
340
11
  0
DIMSTYLE
105
39A
102
{ACAD_REACTORS
330
39B
102
}
330
A
100
AcDbSymbolTableRecord
100
AcDbDimStyleTableRecord
  2
ME10_DIM_0
 70
     0
 41
16.0
 42
5.0
 44
5.0
 73
     0
 74
     0
 77
     1
 78
     8
140
16.0
147
5.0
172
     1
173
     1
176
     2
177
     2
178
     2
271
     2
340
50
343
394
344
394
  0
DIMSTYLE
105
3A7
102
{ACAD_REACTORS
330
3A8
102
}
330
A
100
AcDbSymbolTableRecord
100
AcDbDimStyleTableRecord
  2
ME10_DIM_1
 70
     0
 41
16.0
 42
5.0
 44
5.0
 73
     0
 74
     0
 77
     1
 78
     8
140
16.0
147
5.0
172
     1
173
     1
176
     2
177
     2
178
     2
271
     2
340
50
343
394
344
394
  0
DIMSTYLE
105
3B4
102
{ACAD_REACTORS
330
3B5
102
}
330
A
100
AcDbSymbolTableRecord
100
AcDbDimStyleTableRecord
  2
ME10_DIM_2
 70
     0
 41
16.0
 42
5.0
 44
5.0
 77
     1
 78
     8
140
16.0
147
5.0
172
     1
173
     1
176
     2
177
     2
178
     2
271
     2
340
50
343
394
344
394
  0
DIMSTYLE
105
3C3
102
{ACAD_REACTORS
330
3C4
102
}
330
A
100
AcDbSymbolTableRecord
100
AcDbDimStyleTableRecord
  2
ME10_DIM_3
 70
     0
 41
16.0
 42
5.0
 44
5.0
 73
     0
 74
     0
 77
     1
 78
     8
140
16.0
147
5.0
172
     1
173
     1
176
     2
177
     2
178
     2
271
     2
340
50
343
394
344
394
  0
DIMSTYLE
105
3D0
102
{ACAD_REACTORS
330
3D1
102
}
330
A
100
AcDbSymbolTableRecord
100
AcDbDimStyleTableRecord
  2
ME10_DIM_4
 70
     0
 41
16.0
 42
5.0
 44
5.0
 73
     0
 74
     0
 77
     1
 78
     8
140
16.0
147
3.5
172
     1
173
     1
176
     2
177
     2
178
     2
271
     2
340
50
343
394
344
394
  0
DIMSTYLE
105
3DE
102
{ACAD_REACTORS
330
3DF
102
}
330
A
100
AcDbSymbolTableRecord
100
AcDbDimStyleTableRecord
  2
ME10_DIM_5
 70
     0
  3
□<>
 41
16.0
 42
5.0
 44
5.0
 73
     0
 74
     0
 77
     1
 78
     8
140
16.0
147
3.5
172
     1
173
     1
176
     2
177
     2
178
     2
271
     2
340
3DA
343
394
344
394
  0
DIMSTYLE
105
3F1
102
{ACAD_REACTORS
330
3F2
102
}
330
A
100
AcDbSymbolTableRecord
100
AcDbDimStyleTableRecord
  2
ME10_DIM_6
 70
     0
 41
4.0
 42
5.0
 44
5.0
 73
     0
 74
     0
 77
     1
 78
     8
140
16.0
147
3.5
172
     1
173
     1
176
     2
177
     2
178
     2
271
     2
340
50
343
394
344
3EC
  0
DIMSTYLE
105
3FE
102
{ACAD_REACTORS
330
3FF
102
}
330
A
100
AcDbSymbolTableRecord
100
AcDbDimStyleTableRecord
  2
ME10_DIM_7
 70
     0
 41
4.0
 42
5.0
 44
5.0
 73
     0
 74
     0
 77
     1
 78
     8
140
16.0
147
3.5
172
     1
173
     1
176
     2
177
     2
178
     2
271
     2
340
50
343
3EC
344
3EC
  0
DIMSTYLE
105
40C
102
{ACAD_REACTORS
330
40D
102
}
330
A
100
AcDbSymbolTableRecord
100
AcDbDimStyleTableRecord
  2
ME10_DIM_8
 70
     0
 41
4.0
 42
5.0
 44
5.0
 73
     0
 74
     0
 77
     1
 78
     8
140
16.0
147
3.5
172
     1
173
     1
176
     2
177
     2
178
     2
271
     2
340
50
343
394
344
3EC
  0
DIMSTYLE
105
41B
102
{ACAD_REACTORS
330
41C
102
}
330
A
100
AcDbSymbolTableRecord
100
AcDbDimStyleTableRecord
  2
ME10_DIM_9
 70
     0
 41
16.0
 42
5.0
 44
5.0
 73
     0
 74
     0
 77
     1
 78
     8
140
16.0
147
3.5
172
     1
173
     1
176
     2
177
     2
178
     2
271
     2
340
50
343
394
344
394
  0
DIMSTYLE
105
428
102
{ACAD_REACTORS
330
429
102
}
330
A
100
AcDbSymbolTableRecord
100
AcDbDimStyleTableRecord
  2
ME10_DIM_10
 70
     0
 41
16.0
 42
5.0
 44
5.0
 73
     0
 74
     0
 77
     1
 78
     8
140
16.0
147
3.5
172
     1
173
     1
176
     2
177
     2
178
     2
271
     2
340
56
343
394
344
394
  0
DIMSTYLE
105
435
102
{ACAD_REACTORS
330
436
102
}
330
A
100
AcDbSymbolTableRecord
100
AcDbDimStyleTableRecord
  2
ME10_DIM_11
 70
     0
 41
16.0
 42
5.0
 44
5.0
 73
     0
 74
     0
 77
     1
 78
     8
140
16.0
147
3.5
172
     1
173
     1
176
     2
177
     2
178
     2
271
     2
340
50
343
394
344
394
  0
DIMSTYLE
105
442
102
{ACAD_REACTORS
330
443
102
}
330
A
100
AcDbSymbolTableRecord
100
AcDbDimStyleTableRecord
  2
ME10_DIM_12
 70
     0
 41
16.0
 42
5.0
 44
5.0
 73
     0
 74
     0
 77
     1
 78
     8
140
16.0
147
3.5
172
     1
173
     1
176
     2
177
     2
178
     2
271
     2
340
50
343
394
344
394
  0
DIMSTYLE
105
451
102
{ACAD_REACTORS
330
452
102
}
330
A
100
AcDbSymbolTableRecord
100
AcDbDimStyleTableRecord
  2
ME10_DIM_13
 70
     0
 41
16.0
 42
5.0
 44
5.0
 73
     0
 74
     0
 77
     1
 78
     8
140
16.0
147
5.0
172
     1
173
     1
176
     2
177
     2
178
     2
271
     2
340
50
343
394
344
394
  0
DIMSTYLE
105
460
102
{ACAD_REACTORS
330
461
102
}
330
A
100
AcDbSymbolTableRecord
100
AcDbDimStyleTableRecord
  2
ME10_DIM_14
 70
     0
 41
16.0
 42
5.0
 44
5.0
 73
     0
 74
     0
 77
     1
 78
     8
140
16.0
147
5.0
172
     1
173
     1
176
     2
177
     2
178
     2
271
     2
340
50
343
394
344
394
  0
DIMSTYLE
105
46F
102
{ACAD_REACTORS
330
470
102
}
330
A
100
AcDbSymbolTableRecord
100
AcDbDimStyleTableRecord
  2
ME10_DIM_15
 70
     0
 41
16.0
 42
5.0
 44
5.0
 73
     0
 74
     0
 77
     1
 78
     8
140
16.0
147
5.0
172
     1
173
     1
176
     2
177
     2
178
     2
271
     2
340
50
343
394
344
394
  0
DIMSTYLE
105
47C
102
{ACAD_REACTORS
330
47D
102
}
330
A
100
AcDbSymbolTableRecord
100
AcDbDimStyleTableRecord
  2
ME10_DIM_16
 70
     0
 41
16.0
 42
5.0
 44
5.0
 73
     0
 74
     0
 77
     1
 78
     8
140
16.0
147
3.5
172
     1
173
     1
176
     2
177
     2
178
     2
271
     2
340
50
343
394
344
394
  0
DIMSTYLE
105
489
102
{ACAD_REACTORS
330
48A
102
}
330
A
100
AcDbSymbolTableRecord
100
AcDbDimStyleTableRecord
  2
ME10_DIM_17
 70
     0
 41
16.0
 42
5.0
 44
5.0
 73
     0
 74
     0
 77
     1
 78
     8
140
16.0
147
3.5
172
     1
173
     1
176
     2
177
     2
178
     2
271
     2
340
50
343
394
344
394
  0
ENDTAB
  0
TABLE
  2
BLOCK_RECORD
  5
1
330
0
100
AcDbSymbolTable
 70
    25
  0
BLOCK_RECORD
  5
1F
330
1
100
AcDbSymbolTableRecord
100
AcDbBlockTableRecord
  2
*Model_Space
340
22
  0
BLOCK_RECORD
  5
1B
330
1
100
AcDbSymbolTableRecord
100
AcDbBlockTableRecord
  2
*Paper_Space
340
1E
  0
BLOCK_RECORD
  5
23
330
1
100
AcDbSymbolTableRecord
100
AcDbBlockTableRecord
  2
*Paper_Space0
340
26
  0
BLOCK_RECORD
  5
32
330
1
100
AcDbSymbolTableRecord
100
AcDbBlockTableRecord
  2
Zuwaku-A3-web
340
0
102
{BLKREFS
331
35
102
}
  0
BLOCK_RECORD
  5
387
330
1
100
AcDbSymbolTableRecord
100
AcDbBlockTableRecord
  2
*D02
340
0
  0
BLOCK_RECORD
  5
394
330
1
100
AcDbSymbolTableRecord
100
AcDbBlockTableRecord
  2
_Open30
340
0
  0
BLOCK_RECORD
  5
39C
330
1
100
AcDbSymbolTableRecord
100
AcDbBlockTableRecord
  2
*D14
340
0
  0
BLOCK_RECORD
  5
3A9
330
1
100
AcDbSymbolTableRecord
100
AcDbBlockTableRecord
  2
*D25
340
0
  0
BLOCK_RECORD
  5
3B6
330
1
100
AcDbSymbolTableRecord
100
AcDbBlockTableRecord
  2
*D36
340
0
  0
BLOCK_RECORD
  5
3C5
330
1
100
AcDbSymbolTableRecord
100
AcDbBlockTableRecord
  2
*D47
340
0
  0
BLOCK_RECORD
  5
3D2
330
1
100
AcDbSymbolTableRecord
100
AcDbBlockTableRecord
  2
*D58
340
0
  0
BLOCK_RECORD
  5
3E0
330
1
100
AcDbSymbolTableRecord
100
AcDbBlockTableRecord
  2
*D69
340
0
  0
BLOCK_RECORD
  5
3EC
330
1
100
AcDbSymbolTableRecord
100
AcDbBlockTableRecord
  2
_Dot
340
0
  0
BLOCK_RECORD
  5
3F3
330
1
100
AcDbSymbolTableRecord
100
AcDbBlockTableRecord
  2
*D711
340
0
  0
BLOCK_RECORD
  5
400
330
1
100
AcDbSymbolTableRecord
100
AcDbBlockTableRecord
  2
*D812
340
0
  0
BLOCK_RECORD
  5
40E
330
1
100
AcDbSymbolTableRecord
100
AcDbBlockTableRecord
  2
*D913
340
0
  0
BLOCK_RECORD
  5
41D
330
1
100
AcDbSymbolTableRecord
100
AcDbBlockTableRecord
  2
*D1014
340
0
  0
BLOCK_RECORD
  5
42A
330
1
100
AcDbSymbolTableRecord
100
AcDbBlockTableRecord
  2
*D1115
340
0
  0
BLOCK_RECORD
  5
437
330
1
100
AcDbSymbolTableRecord
100
AcDbBlockTableRecord
  2
*D1216
340
0
  0
BLOCK_RECORD
  5
444
330
1
100
AcDbSymbolTableRecord
100
AcDbBlockTableRecord
  2
*D1317
340
0
  0
BLOCK_RECORD
  5
453
330
1
100
AcDbSymbolTableRecord
100
AcDbBlockTableRecord
  2
*D1418
340
0
  0
BLOCK_RECORD
  5
462
330
1
100
AcDbSymbolTableRecord
100
AcDbBlockTableRecord
  2
*D1519
340
0
  0
BLOCK_RECORD
  5
471
330
1
100
AcDbSymbolTableRecord
100
AcDbBlockTableRecord
  2
*D1620
340
0
  0
BLOCK_RECORD
  5
47E
330
1
100
AcDbSymbolTableRecord
100
AcDbBlockTableRecord
  2
*D1721
340
0
  0
BLOCK_RECORD
  5
48B
330
1
100
AcDbSymbolTableRecord
100
AcDbBlockTableRecord
  2
*D1822
340
0
102
{BLKREFS
331
493
102
}
  0
BLOCK_RECORD
  5
494
330
1
100
AcDbSymbolTableRecord
100
AcDbBlockTableRecord
  2
*D1923
340
0
102
{BLKREFS
331
49C
102
}
  0
BLOCK_RECORD
  5
49D
330
1
100
AcDbSymbolTableRecord
100
AcDbBlockTableRecord
  2
*D2024
340
0
102
{BLKREFS
331
4A5
102
}
  0
ENDTAB
  0
ENDSEC
  0
SECTION
  2
BLOCKS
  0
BLOCK
  5
20
330
1F
100
AcDbEntity
  8
0
100
AcDbBlockBegin
  2
*Model_Space
 70
     0
 71
     0
 10
0.0
 20
0.0
 30
0.0
  3
*Model_Space
  1

  0
ENDBLK
  5
21
330
1F
100
AcDbEntity
  8
0
100
AcDbBlockEnd
  0
BLOCK
  5
1C
330
1B
100
AcDbEntity
 67
     1
  8
0
100
AcDbBlockBegin
  2
*Paper_Space
 70
     0
 71
     0
 10
0.0
 20
0.0
 30
0.0
  3
*Paper_Space
  1

  0
ENDBLK
  5
1D
330
1B
100
AcDbEntity
 67
     1
  8
0
100
AcDbBlockEnd
  0
BLOCK
  5
24
330
23
100
AcDbEntity
  8
0
100
AcDbBlockBegin
  2
*Paper_Space0
 70
     0
 71
     0
 10
0.0
 20
0.0
 30
0.0
  3
*Paper_Space0
  1

  0
ENDBLK
  5
25
330
23
100
AcDbEntity
  8
0
100
AcDbBlockEnd
  0
BLOCK
  5
33
330
32
100
AcDbEntity
  8
0
100
AcDbBlockBegin
  2
Zuwaku-A3-web
 70
     0
 71
     0
 10
445.0190967716898
 20
97.74625505694399
 30
0.0
  3
Zuwaku-A3-web
  1

  0
POINT
  5
36
330
32
100
AcDbEntity
  8
1
 62
     3
 60
     1
100
AcDbPoint
 10
410.51909677169
 20
-16.253744943056
 30
0.0
  0
POINT
  5
37
330
32
100
AcDbEntity
  8
1
 62
     3
 60
     1
100
AcDbPoint
 10
450.01909677169
 20
-21.253744943056
 30
0.0
  0
POINT
  5
38
330
32
100
AcDbEntity
  8
1
 62
     3
 60
     1
100
AcDbPoint
 10
410.51909677169
 20
-21.253744943056
 30
0.0
  0
POINT
  5
39
330
32
100
AcDbEntity
  8
1
 62
     3
 60
     1
100
AcDbPoint
 10
257.51909677169
 20
-23.753744943056
 30
0.0
  0
POINT
  5
3A
330
32
100
AcDbEntity
  8
1
 62
     3
 60
     1
100
AcDbPoint
 10
250.51909677169
 20
-23.753744943056
 30
0.0
  0
POINT
  5
3B
330
32
100
AcDbEntity
  8
1
 62
     3
 60
     1
100
AcDbPoint
 10
248.01909677169
 20
-36.253744943056
 30
0.0
  0
LINE
  5
3C
330
32
100
AcDbEntity
  8
1
  6
Continuous
 62
     4
100
AcDbLine
 10
437.5136739288993
 20
-34.11976910057401
 30
0.0
 11
443.2457222439354
 21
-28.387720785538
 31
0.0
  0
LINE
  5
3D
330
32
100
AcDbEntity
  8
1
  6
Continuous
 62
     7
100
AcDbLine
 10
248.01909677169
 20
-36.253744943056
 30
0.0
 11
642.01909677169
 21
-36.253744943056
 31
0.0
  0
LINE
  5
3E
330
32
100
AcDbEntity
  8
1
  6
Continuous
 62
     4
100
AcDbLine
 10
410.51909677169
 20
-21.253744943056
 30
0.0
 11
450.01909677169
 21
-21.253744943056
 31
0.0
  0
LINE
  5
3F
330
32
100
AcDbEntity
  8
1
  6
Continuous
 62
     3
100
AcDbLine
 10
257.51909677169
 20
-23.753744943056
 30
0.0
 11
254.01909677169
 21
-17.253744943056
 31
0.0
  0
LINE
  5
40
330
32
100
AcDbEntity
  8
1
  6
Continuous
 62
     3
100
AcDbLine
 10
250.51909677169
 20
-23.753744943056
 30
0.0
 11
257.51909677169
 21
-23.753744943056
 31
0.0
  0
LINE
  5
41
330
32
100
AcDbEntity
  8
1
  6
Continuous
 62
     3
100
AcDbLine
 10
254.01909677169
 20
-17.253744943056
 30
0.0
 11
250.51909677169
 21
-23.753744943056
 31
0.0
  0
LINE
  5
42
330
32
100
AcDbEntity
  8
1
  6
Continuous
 62
     4
100
AcDbLine
 10
260.01909677169
 20
-16.253744943056
 30
0.0
 11
260.01909677169
 21
-36.253744943056
 31
0.0
  0
LINE
  5
43
330
32
100
AcDbEntity
  8
1
  6
Continuous
 62
     4
100
AcDbLine
 10
248.01909677169
 20
-26.253744943056
 30
0.0
 11
642.01909677169
 21
-26.253744943056
 31
0.0
  0
LINE
  5
44
330
32
100
AcDbEntity
  8
1
  6
Continuous
 62
     7
100
AcDbLine
 10
642.0190967716895
 20
231.746255056944
 30
0.0
 11
248.01909677169
 21
231.746255056944
 31
0.0
  0
LINE
  5
45
330
32
100
AcDbEntity
  8
1
  6
Continuous
 62
     7
100
AcDbLine
 10
642.01909677169
 20
-36.253744943056
 30
0.0
 11
642.0190967716895
 21
231.746255056944
 31
0.0
  0
LINE
  5
46
330
32
100
AcDbEntity
  8
1
  6
Continuous
 62
     4
100
AcDbLine
 10
450.01909677169
 20
-36.253744943056
 30
0.0
 11
450.01909677169
 21
-16.253744943056
 31
0.0
  0
LINE
  5
47
330
32
100
AcDbEntity
  8
1
  6
Continuous
 62
     4
100
AcDbLine
 10
410.51909677169
 20
-36.253744943056
 30
0.0
 11
410.51909677169
 21
-16.253744943056
 31
0.0
  0
LINE
  5
48
330
32
100
AcDbEntity
  8
1
  6
Continuous
 62
     4
100
AcDbLine
 10
531.01909677169
 20
-16.253744943056
 30
0.0
 11
531.01909677169
 21
-36.253744943056
 31
0.0
  0
LINE
  5
49
330
32
100
AcDbEntity
  8
1
  6
Continuous
 62
     4
100
AcDbLine
 10
475.01909677169
 20
-16.253744943056
 30
0.0
 11
475.01909677169
 21
-36.253744943056
 31
0.0
  0
LINE
  5
4A
330
32
100
AcDbEntity
  8
1
  6
Continuous
 62
     4
100
AcDbLine
 10
418.51909677169
 20
-26.253744943056
 30
0.0
 11
418.51909677169
 21
-36.253744943056
 31
0.0
  0
LINE
  5
4B
330
32
100
AcDbEntity
  8
1
  6
Continuous
 62
     4
100
AcDbLine
 10
314.01909677169
 20
-16.253744943056
 30
0.0
 11
314.01909677169
 21
-36.253744943056
 31
0.0
  0
LINE
  5
4C
330
32
100
AcDbEntity
  8
1
  6
Continuous
 62
     7
100
AcDbLine
 10
248.01909677169
 20
231.746255056944
 30
0.0
 11
248.01909677169
 21
-36.253744943056
 31
0.0
  0
LINE
  5
4D
330
32
100
AcDbEntity
  8
1
  6
Continuous
 62
     4
100
AcDbLine
 10
421.7636739288993
 20
-34.11976910057401
 30
0.0
 11
427.4957222439354
 21
-28.387720785538
 31
0.0
  0
LINE
  5
4E
330
32
100
AcDbEntity
  8
1
  6
Continuous
 62
     4
100
AcDbLine
 10
642.01909677169
 20
-16.253744943056
 30
0.0
 11
248.01909677169
 21
-16.253744943056
 31
0.0
  0
LINE
  5
4F
330
32
100
AcDbEntity
  8
1
  6
Continuous
 62
     4
100
AcDbLine
 10
543.01909677169
 20
-16.253744943056
 30
0.0
 11
543.01909677169
 21
-36.253744943056
 31
0.0
  0
MTEXT
  5
51
330
32
100
AcDbEntity
  8
1
 62
     2
100
AcDbMText
 10
428.9957222439354
 20
-32.503744943056
 30
0.0
 40
4.0
 41
0.0
 71
     5
 72
     1
  1
5
  7
CONVERTER_1
 73
     1
 44
0.60024009603842
  0
MTEXT
  5
52
330
32
100
AcDbEntity
  8
1
 62
     2
100
AcDbMText
 10
421.202529639597
 20
-30.003744943056
 30
0.0
 40
4.0
 41
0.0
 71
     5
 72
     1
  1
1
  7
CONVERTER_1
 73
     1
 44
0.60024009603842
  0
MTEXT
  5
54
330
32
100
AcDbEntity
  8
1
 62
     2
100
AcDbMText
 10
537.01909677169
 20
-33.503744943056
 30
0.0
 40
3.5
 41
0.0
 71
     5
 72
     1
  1
番号
  7
CONVERTER_2
 73
     1
 44
0.78031212484994
  0
MTEXT
  5
55
330
32
100
AcDbEntity
  8
1
 62
     2
100
AcDbMText
 10
414.51909677169
 20
-33.503744943056
 30
0.0
 40
3.5
 41
0.0
 71
     5
 72
     1
  1
度
  7
CONVERTER_2
 73
     1
 44
0.78031212484994
  0
MTEXT
  5
57
330
32
100
AcDbEntity
  8
1
 62
     2
100
AcDbMText
 10
253.6971748018617
 20
-33.503744943056
 30
0.0
 40
3.5
 41
0.0
 71
     5
 72
     1
  1
番号
  7
CONVERTER_3
 73
     1
 44
0.78031212484994
  0
MTEXT
  5
58
330
32
100
AcDbEntity
  8
1
 62
     7
100
AcDbMText
 10
362.26909677169
 20
-21.253744943056
 30
0.0
 40
5.0
 41
0.0
 71
     5
 72
     1
  1
技術情報サービス
  7
CONVERTER_3
 73
     1
 44
1.20048019207683
  0
MTEXT
  5
5A
330
32
100
AcDbEntity
  8
1
 62
     2
100
AcDbMText
 10
462.51909677169
 20
-21.253744943056
 30
0.0
 40
4.0
 41
0.0
 71
     5
 72
     1
  1
シリーズ名
  7
CONVERTER_4
 73
     1
 44
1.32052821128451
  0
MTEXT
  5
5B
330
32
100
AcDbEntity
  8
1
 62
     2
100
AcDbMText
 10
462.51909677169
 20
-31.253744943056
 30
0.0
 40
4.0
 41
0.0
 71
     5
 72
     1
  1
機　種
  7
CONVERTER_3
 73
     1
 44
1.32052821128451
  0
MTEXT
  5
5C
330
32
100
AcDbEntity
  8
1
 62
     2
100
AcDbMText
 10
437.76909677169
 20
-29.753744943056
 30
0.0
 40
4.0
 41
0.0
 71
     5
 72
     1
  1
1
  7
CONVERTER_1
 73
     1
 44
1.32052821128451
  0
MTEXT
  5
5E
330
32
100
AcDbEntity
  8
1
 62
     7
100
AcDbMText
 10
362.26909677169
 20
-31.253744943056
 30
0.0
 40
4.0
 41
0.0
 71
     5
 72
     1
  1
MARUYASU KIKAI CO.,LTD.
  7
CONVERTER_5
 73
     1
 44
1.32052821128451
  0
MTEXT
  5
5F
330
32
100
AcDbEntity
  8
1
 62
     2
100
AcDbMText
 10
254.01909677169
 20
-29.003744943056
 30
0.0
 40
3.5
 41
0.0
 71
     5
 72
     1
  1
改訂
  7
CONVERTER_3
 73
     1
 44
0.78031212484994
  0
MTEXT
  5
60
330
32
100
AcDbEntity
  8
1
 62
     2
100
AcDbMText
 10
287.01909677169
 20
-31.253744943056
 30
0.0
 40
3.5
 41
0.0
 71
     5
 72
     1
  1
改　 訂　 記　 事
  7
CONVERTER_3
 73
     1
 44
1.32052821128451
  0
MTEXT
  5
61
330
32
100
AcDbEntity
  8
1
 62
     2
100
AcDbMText
 10
414.51909677169
 20
-29.003744943056
 30
0.0
 40
3.5
 41
0.0
 71
     5
 72
     1
  1
尺
  7
CONVERTER_2
 73
     1
 44
0.78031212484994
  0
MTEXT
  5
62
330
32
100
AcDbEntity
  8
1
 62
     2
100
AcDbMText
 10
430.26909677169
 20
-18.753744943056
 30
0.0
 40
3.5
 41
0.0
 71
     5
 72
     1
  1
年　　月　　日
  7
CONVERTER_3
 73
     1
 44
0.78031212484994
  0
MTEXT
  5
63
330
32
100
AcDbEntity
  8
1
 62
     2
100
AcDbMText
 10
537.01909677169
 20
-29.003744943056
 30
0.0
 40
3.5
 41
0.0
 71
     5
 72
     1
  1
図面
  7
CONVERTER_2
 73
     1
 44
0.78031212484994
  0
MTEXT
  5
64
330
32
100
AcDbEntity
  8
1
 62
     2
100
AcDbMText
 10
537.01909677169
 20
-21.253744943056
 30
0.0
 40
4.0
 41
0.0
 71
     5
 72
     1
  1
図名
  7
CONVERTER_3
 73
     1
 44
1.32052821128451
  0
MTEXT
  5
65
330
32
100
AcDbEntity
  8
1
 62
     4
100
AcDbMText
 10
641.4756511640591
 20
-36.50989826401169
 30
0.0
 40
2.0
 41
0.0
 71
     3
 72
     1
  1
A3
  7
CONVERTER_1
 73
     1
 44
1.32052821128451
  0
ENDBLK
  5
34
330
32
100
AcDbEntity
  8
0
100
AcDbBlockEnd
  0
BLOCK
  5
392
330
387
100
AcDbEntity
  8
0
100
AcDbBlockBegin
  2
*D02
 70
     1
 71
     0
 10
0.0
 20
0.0
 30
0.0
  3
*D02
  1

  0
LINE
  5
388
330
387
100
AcDbEntity
  8
1
  6
Continuous
 62
     2
100
AcDbLine
 10
2132.823569726079
 20
230.6109973857747
 30
0.0
 11
2191.548788261493
 21
230.6109973857747
 31
0.0
  0
LINE
  5
389
330
387
100
AcDbEntity
  8
1
  6
Continuous
 62
     2
100
AcDbLine
 10
2112.823569726079
 20
230.6109973857747
 30
0.0
 11
2132.823569726079
 21
230.6109973857747
 31
0.0
  0
LINE
  5
38A
330
387
100
AcDbEntity
  8
1
  6
Continuous
 62
     2
100
AcDbLine
 10
2080.823569726079
 20
230.6109973857747
 30
0.0
 11
2112.823569726079
 21
230.6109973857747
 31
0.0
  0
LINE
  5
38B
330
387
100
AcDbEntity
  8
1
  6
Continuous
 62
     2
100
AcDbLine
 10
2112.823569726079
 20
190.9714823222235
 30
0.0
 11
2112.823569726079
 21
235.6109973857747
 31
0.0
  0
LINE
  5
38C
330
387
100
AcDbEntity
  8
1
  6
Continuous
 62
     2
100
AcDbLine
 10
2132.823569726079
 20
199.5216583514134
 30
0.0
 11
2132.823569726079
 21
235.6109973857747
 31
0.0
  0
LINE
  5
38D
330
387
100
AcDbEntity
  8
1
 62
     2
100
AcDbLine
 10
2112.823569726079
 20
230.6109973857747
 30
0.0
 11
2096.823569726079
 21
226.3238103068767
 31
0.0
  0
LINE
  5
38E
330
387
100
AcDbEntity
  8
1
 62
     2
100
AcDbLine
 10
2112.823569726079
 20
230.6109973857747
 30
0.0
 11
2096.823569726079
 21
234.8981844646727
 31
0.0
  0
LINE
  5
38F
330
387
100
AcDbEntity
  8
1
 62
     2
100
AcDbLine
 10
2132.823569726079
 20
230.6109973857747
 30
0.0
 11
2148.823569726079
 21
234.8981844646727
 31
0.0
  0
LINE
  5
390
330
387
100
AcDbEntity
  8
1
 62
     2
100
AcDbLine
 10
2132.823569726079
 20
230.6109973857747
 30
0.0
 11
2148.823569726079
 21
226.3238103068767
 31
0.0
  0
MTEXT
  5
391
330
387
100
AcDbEntity
  8
1
 62
     2
100
AcDbMText
 10
2167.548788261493
 20
235.6109973857747
 30
0.0
 40
16.0
 41
0.0
 71
     7
 72
     1
  1
20
  7
CONVERTER_1
 11
0.9999999999970621
 21
2.424068405545307E-6
 31
0.0
 73
     1
 44
0.60024009603842
  0
ENDBLK
  5
393
330
387
100
AcDbEntity
  8
0
100
AcDbBlockEnd
  0
BLOCK
  5
395
330
394
100
AcDbEntity
  8
0
100
AcDbBlockBegin
  2
_Open30
 70
     0
 71
     0
 10
0.0
 20
0.0
 30
0.0
  3
_Open30
  1

  0
LINE
  5
397
330
394
100
AcDbEntity
  8
0
  6
ByBlock
 62
     0
370
    -2
100
AcDbLine
 10
-1.0
 20
0.267949
 30
0.0
 11
0.0
 21
0.0
 31
0.0
  0
LINE
  5
398
330
394
100
AcDbEntity
  8
0
  6
ByBlock
 62
     0
370
    -2
100
AcDbLine
 10
0.0
 20
0.0
 30
0.0
 11
-1.0
 21
-0.267949
 31
0.0
  0
LINE
  5
399
330
394
100
AcDbEntity
  8
0
  6
ByBlock
 62
     0
370
    -2
100
AcDbLine
 10
0.0
 20
0.0
 30
0.0
 11
-1.0
 21
0.0
 31
0.0
  0
ENDBLK
  5
396
330
394
100
AcDbEntity
  8
0
100
AcDbBlockEnd
  0
BLOCK
  5
3A5
330
39C
100
AcDbEntity
  8
0
100
AcDbBlockBegin
  2
*D14
 70
     1
 71
     0
 10
0.0
 20
0.0
 30
0.0
  3
*D14
  1

  0
LINE
  5
39D
330
39C
100
AcDbEntity
  8
1
  6
Continuous
 62
     2
100
AcDbLine
 10
2055.008762661563
 20
69.97148232222341
 30
0.0
 11
2055.008762661563
 21
189.9714823222234
 31
0.0
  0
LINE
  5
39E
330
39C
100
AcDbEntity
  8
1
  6
Continuous
 62
     2
100
AcDbLine
 10
2104.923569726077
 20
69.97148232222341
 30
0.0
 11
2050.008762661563
 21
69.97148232222341
 31
0.0
  0
LINE
  5
39F
330
39C
100
AcDbEntity
  8
1
  6
Continuous
 62
     2
100
AcDbLine
 10
2111.823569726079
 20
189.9714823222234
 30
0.0
 11
2050.008762661563
 21
189.9714823222234
 31
0.0
  0
LINE
  5
3A0
330
39C
100
AcDbEntity
  8
1
 62
     2
100
AcDbLine
 10
2055.008762661563
 20
69.97148232222341
 30
0.0
 11
2050.721575582665
 21
85.97148232222341
 31
0.0
  0
LINE
  5
3A1
330
39C
100
AcDbEntity
  8
1
 62
     2
100
AcDbLine
 10
2055.008762661563
 20
69.97148232222341
 30
0.0
 11
2059.295949740461
 21
85.97148232222341
 31
0.0
  0
LINE
  5
3A2
330
39C
100
AcDbEntity
  8
1
 62
     2
100
AcDbLine
 10
2055.008762661563
 20
189.9714823222234
 30
0.0
 11
2059.295949740461
 21
173.9714823222234
 31
0.0
  0
LINE
  5
3A3
330
39C
100
AcDbEntity
  8
1
 62
     2
100
AcDbLine
 10
2055.008762661563
 20
189.9714823222234
 30
0.0
 11
2050.721575582665
 21
173.9714823222234
 31
0.0
  0
MTEXT
  5
3A4
330
39C
100
AcDbEntity
  8
1
 62
     2
100
AcDbMText
 10
2050.008762661563
 20
113.2360072453354
 30
0.0
 40
16.0
 41
0.0
 71
     7
 72
     1
  1
120
  7
CONVERTER_1
 11
0.0
 21
1.0
 31
0.0
 73
     1
 44
0.60024009603842
  0
ENDBLK
  5
3A6
330
39C
100
AcDbEntity
  8
0
100
AcDbBlockEnd
  0
BLOCK
  5
3B2
330
3A9
100
AcDbEntity
  8
0
100
AcDbBlockBegin
  2
*D25
 70
     1
 71
     0
 10
0.0
 20
0.0
 30
0.0
  3
*D25
  1

  0
LINE
  5
3AA
330
3A9
100
AcDbEntity
  8
1
  6
Continuous
 62
     2
100
AcDbLine
 10
2028.506366468485
 20
597.6050670560835
 30
0.0
 11
2128.506366468485
 21
597.6050670560835
 31
0.0
  0
LINE
  5
3AB
330
3A9
100
AcDbEntity
  8
1
  6
Continuous
 62
     2
100
AcDbLine
 10
2028.506366468485
 20
556.9283830807831
 30
0.0
 11
2028.506366468485
 21
602.6050670560835
 31
0.0
  0
LINE
  5
3AC
330
3A9
100
AcDbEntity
  8
1
  6
Continuous
 62
     2
100
AcDbLine
 10
2128.506366468485
 20
556.9283830807831
 30
0.0
 11
2128.506366468485
 21
602.6050670560835
 31
0.0
  0
LINE
  5
3AD
330
3A9
100
AcDbEntity
  8
1
 62
     2
100
AcDbLine
 10
2028.506366468485
 20
597.6050670560835
 30
0.0
 11
2044.506366468485
 21
601.8922541349815
 31
0.0
  0
LINE
  5
3AE
330
3A9
100
AcDbEntity
  8
1
 62
     2
100
AcDbLine
 10
2028.506366468485
 20
597.6050670560835
 30
0.0
 11
2044.506366468485
 21
593.3178799771855
 31
0.0
  0
LINE
  5
3AF
330
3A9
100
AcDbEntity
  8
1
 62
     2
100
AcDbLine
 10
2128.506366468485
 20
597.6050670560835
 30
0.0
 11
2112.506366468485
 21
593.3178799771855
 31
0.0
  0
LINE
  5
3B0
330
3A9
100
AcDbEntity
  8
1
 62
     2
100
AcDbLine
 10
2128.506366468485
 20
597.6050670560835
 30
0.0
 11
2112.506366468485
 21
601.8922541349815
 31
0.0
  0
MTEXT
  5
3B1
330
3A9
100
AcDbEntity
  8
1
 62
     2
100
AcDbMText
 10
2060.89345464343
 20
602.6050670560835
 30
0.0
 40
16.0
 41
0.0
 71
     7
 72
     1
  1
100
  7
CONVERTER_1
 11
0.9999999999970621
 21
2.424068405545307E-6
 31
0.0
 73
     1
 44
0.60024009603842
  0
ENDBLK
  5
3B3
330
3A9
100
AcDbEntity
  8
0
100
AcDbBlockEnd
  0
BLOCK
  5
3C1
330
3B6
100
AcDbEntity
  8
0
100
AcDbBlockBegin
  2
*D36
 70
     1
 71
     0
 10
0.0
 20
0.0
 30
0.0
  3
*D36
  1

  0
LINE
  5
3B7
330
3B6
100
AcDbEntity
  8
1
  6
Continuous
 62
     2
100
AcDbLine
 10
1846.506366468381
 20
790.4283830807863
 30
0.0
 11
1846.506366468381
 21
758.4283830807863
 31
0.0
  0
LINE
  5
3B8
330
3B6
100
AcDbEntity
  8
1
  6
Continuous
 62
     2
100
AcDbLine
 10
1846.506366468381
 20
794.428386080785
 30
0.0
 11
1846.506366468381
 21
790.4283830807863
 31
0.0
  0
LINE
  5
3B9
330
3B6
100
AcDbEntity
  8
1
  6
Continuous
 62
     2
100
AcDbLine
 10
1846.506366468381
 20
826.428386080785
 30
0.0
 11
1846.506366468381
 21
794.428386080785
 31
0.0
  0
LINE
  5
3BA
330
3B6
100
AcDbEntity
  8
1
  6
Continuous
 62
     2
100
AcDbLine
 10
1880.306354468385
 20
794.428386080785
 30
0.0
 11
1841.506366468381
 21
794.428386080785
 31
0.0
  0
LINE
  5
3BB
330
3B6
100
AcDbEntity
  8
1
  6
Continuous
 62
     2
100
AcDbLine
 10
1963.506366468427
 20
790.4283830807863
 30
0.0
 11
1841.506366468381
 21
790.4283830807863
 31
0.0
  0
LINE
  5
3BC
330
3B6
100
AcDbEntity
  8
1
 62
     2
100
AcDbLine
 10
1846.506366468381
 20
794.428386080785
 30
0.0
 11
1842.219179389483
 21
810.428386080785
 31
0.0
  0
LINE
  5
3BD
330
3B6
100
AcDbEntity
  8
1
 62
     2
100
AcDbLine
 10
1846.506366468381
 20
794.428386080785
 30
0.0
 11
1850.793553547279
 21
810.428386080785
 31
0.0
  0
LINE
  5
3BE
330
3B6
100
AcDbEntity
  8
1
 62
     2
100
AcDbLine
 10
1846.506366468381
 20
790.4283830807863
 30
0.0
 11
1850.793553547279
 21
774.4283830807863
 31
0.0
  0
LINE
  5
3BF
330
3B6
100
AcDbEntity
  8
1
 62
     2
100
AcDbLine
 10
1846.506366468381
 20
790.4283830807863
 30
0.0
 11
1842.219179389483
 21
774.4283830807863
 31
0.0
  0
MTEXT
  5
3C0
330
3B6
100
AcDbEntity
  8
1
 62
     2
100
AcDbMText
 10
1841.506366468381
 20
766.7741119407408
 30
0.0
 40
16.0
 41
0.0
 71
     7
 72
     1
  1
4
  7
CONVERTER_1
 11
0.0
 21
1.0
 31
0.0
 73
     1
 44
0.60024009603842
  0
ENDBLK
  5
3C2
330
3B6
100
AcDbEntity
  8
0
100
AcDbBlockEnd
  0
BLOCK
  5
3CE
330
3C5
100
AcDbEntity
  8
0
100
AcDbBlockBegin
  2
*D47
 70
     1
 71
     0
 10
0.0
 20
0.0
 30
0.0
  3
*D47
  1

  0
LINE
  5
3C6
330
3C5
100
AcDbEntity
  8
1
  6
Continuous
 62
     2
100
AcDbLine
 10
1814.506366468381
 20
874.4283800807839
 30
0.0
 11
1814.506366468381
 21
790.4283830807849
 31
0.0
  0
LINE
  5
3C7
330
3C5
100
AcDbEntity
  8
1
  6
Continuous
 62
     2
100
AcDbLine
 10
1963.506366468428
 20
790.4283830807849
 30
0.0
 11
1809.506366468381
 21
790.4283830807849
 31
0.0
  0
LINE
  5
3C8
330
3C5
100
AcDbEntity
  8
1
  6
Continuous
 62
     2
100
AcDbLine
 10
1879.506366468426
 20
874.4283800807839
 30
0.0
 11
1809.506366468381
 21
874.4283800807839
 31
0.0
  0
LINE
  5
3C9
330
3C5
100
AcDbEntity
  8
1
 62
     2
100
AcDbLine
 10
1814.506366468381
 20
874.4283800807839
 30
0.0
 11
1818.793553547279
 21
858.4283800807839
 31
0.0
  0
LINE
  5
3CA
330
3C5
100
AcDbEntity
  8
1
 62
     2
100
AcDbLine
 10
1814.506366468381
 20
874.4283800807839
 30
0.0
 11
1810.219179389483
 21
858.4283800807839
 31
0.0
  0
LINE
  5
3CB
330
3C5
100
AcDbEntity
  8
1
 62
     2
100
AcDbLine
 10
1814.506366468381
 20
790.4283830807849
 30
0.0
 11
1810.219179389483
 21
806.4283830807849
 31
0.0
  0
LINE
  5
3CC
330
3C5
100
AcDbEntity
  8
1
 62
     2
100
AcDbLine
 10
1814.506366468381
 20
790.4283830807849
 30
0.0
 11
1818.793553547279
 21
806.4283830807849
 31
0.0
  0
MTEXT
  5
3CD
330
3C5
100
AcDbEntity
  8
1
 62
     2
100
AcDbMText
 10
1811.006366468381
 20
822.2748431903015
 30
0.0
 40
16.0
 41
0.0
 71
     7
 72
     1
  1
84
  7
CONVERTER_1
 11
0.0
 21
1.0
 31
0.0
 73
     1
 44
0.60024009603842
  0
ENDBLK
  5
3CF
330
3C5
100
AcDbEntity
  8
0
100
AcDbBlockEnd
  0
BLOCK
  5
3DC
330
3D2
100
AcDbEntity
  8
0
100
AcDbBlockBegin
  2
*D58
 70
     1
 71
     0
 10
0.0
 20
0.0
 30
0.0
  3
*D58
  1

  0
LINE
  5
3D3
330
3D2
100
AcDbEntity
  8
1
  6
Continuous
 62
     2
100
AcDbLine
 10
1846.506366468382
 20
874.4283800807839
 30
0.0
 11
1846.506366468382
 21
794.4283680807844
 31
0.0
  0
LINE
  5
3D4
330
3D2
100
AcDbEntity
  8
1
  6
Continuous
 62
     2
100
AcDbLine
 10
1880.306354468383
 20
794.4283680807844
 30
0.0
 11
1841.506366468382
 21
794.4283680807844
 31
0.0
  0
LINE
  5
3D5
330
3D2
100
AcDbEntity
  8
1
  6
Continuous
 62
     2
100
AcDbLine
 10
1879.506366468426
 20
874.4283800807839
 30
0.0
 11
1841.506366468382
 21
874.4283800807839
 31
0.0
  0
LINE
  5
3D6
330
3D2
100
AcDbEntity
  8
1
 62
     2
100
AcDbLine
 10
1846.506366468382
 20
874.4283800807839
 30
0.0
 11
1850.79355354728
 21
858.4283800807839
 31
0.0
  0
LINE
  5
3D7
330
3D2
100
AcDbEntity
  8
1
 62
     2
100
AcDbLine
 10
1846.506366468382
 20
874.4283800807839
 30
0.0
 11
1842.219179389484
 21
858.4283800807839
 31
0.0
  0
LINE
  5
3D8
330
3D2
100
AcDbEntity
  8
1
 62
     2
100
AcDbLine
 10
1846.506366468382
 20
794.4283680807844
 30
0.0
 11
1842.219179389484
 21
810.4283680807844
 31
0.0
  0
LINE
  5
3D9
330
3D2
100
AcDbEntity
  8
1
 62
     2
100
AcDbLine
 10
1846.506366468382
 20
794.4283680807844
 30
0.0
 11
1850.79355354728
 21
810.4283680807844
 31
0.0
  0
MTEXT
  5
3DB
330
3D2
100
AcDbEntity
  8
1
 62
     2
100
AcDbMText
 10
1843.006366468382
 20
808.1459543014125
 30
0.0
 40
16.0
 41
0.0
 71
     7
 72
     1
  1
\C2;□\C2;80
  7
CONVERTER_6
 11
0.0
 21
1.0
 31
0.0
 73
     1
 44
0.60024009603842
  0
ENDBLK
  5
3DD
330
3D2
100
AcDbEntity
  8
0
100
AcDbBlockEnd
  0
BLOCK
  5
3EA
330
3E0
100
AcDbEntity
  8
0
100
AcDbBlockBegin
  2
*D69
 70
     1
 71
     0
 10
0.0
 20
0.0
 30
0.0
  3
*D69
  1

  0
LINE
  5
3E1
330
3E0
100
AcDbEntity
  8
1
  6
Continuous
 62
     2
100
AcDbLine
 10
1846.506366468382
 20
596.9288450807853
 30
0.0
 11
1846.506366468382
 21
628.9288450807853
 31
0.0
  0
LINE
  5
3E2
330
3E0
100
AcDbEntity
  8
1
  6
Continuous
 62
     2
100
AcDbLine
 10
1846.506366468382
 20
479.9283830807844
 30
0.0
 11
1846.506366468382
 21
596.9288450807853
 31
0.0
  0
LINE
  5
3E3
330
3E0
100
AcDbEntity
  8
1
  6
Continuous
 62
     2
100
AcDbLine
 10
1873.506366468415
 20
479.9283830807844
 30
0.0
 11
1841.506366468382
 21
479.9283830807844
 31
0.0
  0
LINE
  5
3E4
330
3E0
100
AcDbEntity
  8
1
  6
Continuous
 62
     2
100
AcDbLine
 10
1876.206367468427
 20
596.9288450807853
 30
0.0
 11
1841.506366468382
 21
596.9288450807853
 31
0.0
  0
CIRCLE
  5
3E5
102
{ACAD_REACTORS
330
3E6
102
}
330
3E0
100
AcDbEntity
  8
1
 62
     2
100
AcDbCircle
 10
1846.506366468382
 20
479.9283830807844
 30
0.0
 40
2.0
  0
HATCH
  5
3E6
330
3E0
100
AcDbEntity
  8
1
 62
     2
100
AcDbHatch
 10
0.0
 20
0.0
 30
0.0
210
0.0
220
0.0
230
1.0
  2
SOLID
 70
     1
 71
     1
 91
        1
 92
        1
 93
        1
 72
     2
 10
1846.506366468382
 20
479.9283830807844
 40
2.0
 50
0.0
 51
360.0
 73
     1
 97
        1
330
3E5
 75
     0
 76
     1
 98
        0
  0
LINE
  5
3E7
330
3E0
100
AcDbEntity
  8
1
 62
     2
100
AcDbLine
 10
1846.506366468382
 20
596.9288450807853
 30
0.0
 11
1842.219179389484
 21
612.9288450807853
 31
0.0
  0
LINE
  5
3E8
330
3E0
100
AcDbEntity
  8
1
 62
     2
100
AcDbLine
 10
1846.506366468382
 20
596.9288450807853
 30
0.0
 11
1850.79355354728
 21
612.9288450807853
 31
0.0
  0
MTEXT
  5
3E9
330
3E0
100
AcDbEntity
  8
1
 62
     2
100
AcDbMText
 10
1843.006366468382
 20
528.7407939864418
 30
0.0
 40
16.0
 41
0.0
 71
     7
 72
     1
  1
ML
  7
CONVERTER_1
 11
0.0
 21
1.0
 31
0.0
 73
     1
 44
0.60024009603842
  0
ENDBLK
  5
3EB
330
3E0
100
AcDbEntity
  8
0
100
AcDbBlockEnd
  0
BLOCK
  5
3ED
330
3EC
100
AcDbEntity
  8
0
100
AcDbBlockBegin
  2
_Dot
 70
     0
 71
     0
 10
0.0
 20
0.0
 30
0.0
  3
_Dot
  1

  0
LWPOLYLINE
  5
3EF
330
3EC
100
AcDbEntity
  8
0
  6
ByBlock
 62
     0
100
AcDbPolyline
 90
        2
 70
     1
 43
0.5
 10
-0.25
 20
0.0
 42
1.0
 10
0.25
 20
0.0
 42
1.0
  0
LINE
  5
3F0
330
3EC
100
AcDbEntity
  8
0
  6
ByBlock
 62
     0
370
    -2
100
AcDbLine
 10
-0.5
 20
0.0
 30
0.0
 11
-1.0
 21
0.0
 31
0.0
  0
ENDBLK
  5
3EE
330
3EC
100
AcDbEntity
  8
0
100
AcDbBlockEnd
  0
BLOCK
  5
3FC
330
3F3
100
AcDbEntity
  8
0
100
AcDbBlockBegin
  2
*D711
 70
     1
 71
     0
 10
0.0
 20
0.0
 30
0.0
  3
*D711
  1

  0
LINE
  5
3F4
330
3F3
100
AcDbEntity
  8
1
  6
Continuous
 62
     2
100
AcDbLine
 10
1846.506366468384
 20
473.9283830807844
 30
0.0
 11
1846.506366468384
 21
479.9283830807844
 31
0.0
  0
LINE
  5
3F5
330
3F3
100
AcDbEntity
  8
1
  6
Continuous
 62
     2
100
AcDbLine
 10
1873.506366468416
 20
479.9283830807844
 30
0.0
 11
1841.506366468384
 21
479.9283830807844
 31
0.0
  0
LINE
  5
3F6
330
3F3
100
AcDbEntity
  8
1
  6
Continuous
 62
     2
100
AcDbLine
 10
1873.506366468416
 20
473.9283830807844
 30
0.0
 11
1841.506366468384
 21
473.9283830807844
 31
0.0
  0
CIRCLE
  5
3F7
102
{ACAD_REACTORS
330
3F8
102
}
330
3F3
100
AcDbEntity
  8
1
 62
     2
100
AcDbCircle
 10
1846.506366468384
 20
473.9283830807844
 30
0.0
 40
2.0
  0
HATCH
  5
3F8
330
3F3
100
AcDbEntity
  8
1
 62
     2
100
AcDbHatch
 10
0.0
 20
0.0
 30
0.0
210
0.0
220
0.0
230
1.0
  2
SOLID
 70
     1
 71
     1
 91
        1
 92
        1
 93
        1
 72
     2
 10
1846.506366468384
 20
473.9283830807844
 40
2.0
 50
0.0
 51
360.0
 73
     1
 97
        1
330
3F7
 75
     0
 76
     1
 98
        0
  0
CIRCLE
  5
3F9
102
{ACAD_REACTORS
330
3FA
102
}
330
3F3
100
AcDbEntity
  8
1
 62
     2
100
AcDbCircle
 10
1846.506366468384
 20
479.9283830807844
 30
0.0
 40
2.0
  0
HATCH
  5
3FA
330
3F3
100
AcDbEntity
  8
1
 62
     2
100
AcDbHatch
 10
0.0
 20
0.0
 30
0.0
210
0.0
220
0.0
230
1.0
  2
SOLID
 70
     1
 71
     1
 91
        1
 92
        1
 93
        1
 72
     2
 10
1846.506366468384
 20
479.9283830807844
 40
2.0
 50
0.0
 51
360.0
 73
     1
 97
        1
330
3F9
 75
     0
 76
     1
 98
        0
  0
MTEXT
  5
3FB
330
3F3
100
AcDbEntity
  8
1
 62
     2
100
AcDbMText
 10
1838.132530740681
 20
472.1737229488428
 30
0.0
 40
16.0
 41
0.0
 71
     7
 72
     1
  1
6
  7
CONVERTER_1
 11
0.0
 21
1.0
 31
0.0
 73
     1
 44
0.60024009603842
  0
ENDBLK
  5
3FD
330
3F3
100
AcDbEntity
  8
0
100
AcDbBlockEnd
  0
BLOCK
  5
40A
330
400
100
AcDbEntity
  8
0
100
AcDbBlockBegin
  2
*D812
 70
     1
 71
     0
 10
0.0
 20
0.0
 30
0.0
  3
*D812
  1

  0
LINE
  5
401
330
400
100
AcDbEntity
  8
1
  6
Continuous
 62
     2
100
AcDbLine
 10
1846.506366468382
 20
473.9283830807839
 30
0.0
 11
1846.506366468382
 21
431.9283830807839
 31
0.0
  0
LINE
  5
402
330
400
100
AcDbEntity
  8
1
  6
Continuous
 62
     2
100
AcDbLine
 10
1846.506366468382
 20
431.9283830807839
 30
0.0
 11
1846.506366468382
 21
399.9283830807839
 31
0.0
  0
LINE
  5
403
330
400
100
AcDbEntity
  8
1
  6
Continuous
 62
     2
100
AcDbLine
 10
1882.606366468457
 20
431.9283830807839
 30
0.0
 11
1841.506366468382
 21
431.9283830807839
 31
0.0
  0
LINE
  5
404
330
400
100
AcDbEntity
  8
1
  6
Continuous
 62
     2
100
AcDbLine
 10
1873.506366468415
 20
473.9283830807839
 30
0.0
 11
1841.506366468382
 21
473.9283830807839
 31
0.0
  0
CIRCLE
  5
405
102
{ACAD_REACTORS
330
406
102
}
330
400
100
AcDbEntity
  8
1
 62
     2
100
AcDbCircle
 10
1846.506366468382
 20
473.9283830807839
 30
0.0
 40
2.0
  0
HATCH
  5
406
330
400
100
AcDbEntity
  8
1
 62
     2
100
AcDbHatch
 10
0.0
 20
0.0
 30
0.0
210
0.0
220
0.0
230
1.0
  2
SOLID
 70
     1
 71
     1
 91
        1
 92
        1
 93
        1
 72
     2
 10
1846.506366468382
 20
473.9283830807839
 40
2.0
 50
0.0
 51
360.0
 73
     1
 97
        1
330
405
 75
     0
 76
     1
 98
        0
  0
LINE
  5
407
330
400
100
AcDbEntity
  8
1
 62
     2
100
AcDbLine
 10
1846.506366468382
 20
431.9283830807839
 30
0.0
 11
1850.79355354728
 21
415.9283830807839
 31
0.0
  0
LINE
  5
408
330
400
100
AcDbEntity
  8
1
 62
     2
100
AcDbLine
 10
1846.506366468382
 20
431.9283830807839
 30
0.0
 11
1842.219179389484
 21
415.9283830807839
 31
0.0
  0
MTEXT
  5
409
330
400
100
AcDbEntity
  8
1
 62
     2
100
AcDbMText
 10
1843.006366468382
 20
439.3722767341214
 30
0.0
 40
16.0
 41
0.0
 71
     7
 72
     1
  1
42
  7
CONVERTER_1
 11
0.0
 21
1.0
 31
0.0
 73
     1
 44
0.60024009603842
  0
ENDBLK
  5
40B
330
400
100
AcDbEntity
  8
0
100
AcDbBlockEnd
  0
BLOCK
  5
419
330
40E
100
AcDbEntity
  8
0
100
AcDbBlockBegin
  2
*D913
 70
     1
 71
     0
 10
0.0
 20
0.0
 30
0.0
  3
*D913
  1

  0
LINE
  5
40F
330
40E
100
AcDbEntity
  8
1
  6
Continuous
 62
     2
100
AcDbLine
 10
2325.221510749241
 20
503.9283830807849
 30
0.0
 11
2325.221510749241
 21
471.9283830807849
 31
0.0
  0
LINE
  5
410
330
40E
100
AcDbEntity
  8
1
  6
Continuous
 62
     2
100
AcDbLine
 10
2325.221510749241
 20
471.9283830807849
 30
0.0
 11
2325.221510749241
 21
431.9283830807849
 31
0.0
  0
LINE
  5
411
330
40E
100
AcDbEntity
  8
1
  6
Continuous
 62
     2
100
AcDbLine
 10
2325.221510749241
 20
431.9283830807849
 30
0.0
 11
2325.221510749241
 21
399.9283830807849
 31
0.0
  0
LINE
  5
412
330
40E
100
AcDbEntity
  8
1
  6
Continuous
 62
     2
100
AcDbLine
 10
2284.406366468427
 20
431.9283830807849
 30
0.0
 11
2330.221510749241
 21
431.9283830807849
 31
0.0
  0
LINE
  5
413
330
40E
100
AcDbEntity
  8
1
  6
Continuous
 62
     2
100
AcDbLine
 10
2284.406366468427
 20
471.9283830807849
 30
0.0
 11
2330.221510749241
 21
471.9283830807849
 31
0.0
  0
LINE
  5
414
330
40E
100
AcDbEntity
  8
1
 62
     2
100
AcDbLine
 10
2325.221510749241
 20
471.9283830807849
 30
0.0
 11
2320.934323670343
 21
487.9283830807849
 31
0.0
  0
LINE
  5
415
330
40E
100
AcDbEntity
  8
1
 62
     2
100
AcDbLine
 10
2325.221510749241
 20
471.9283830807849
 30
0.0
 11
2329.508697828139
 21
487.9283830807849
 31
0.0
  0
LINE
  5
416
330
40E
100
AcDbEntity
  8
1
 62
     2
100
AcDbLine
 10
2325.221510749241
 20
431.9283830807849
 30
0.0
 11
2329.508697828139
 21
415.9283830807849
 31
0.0
  0
LINE
  5
417
330
40E
100
AcDbEntity
  8
1
 62
     2
100
AcDbLine
 10
2325.221510749241
 20
431.9283830807849
 30
0.0
 11
2320.934323670343
 21
415.9283830807849
 31
0.0
  0
MTEXT
  5
418
330
40E
100
AcDbEntity
  8
1
 62
     2
100
AcDbMText
 10
2321.721510749241
 20
439.7666348794105
 30
0.0
 40
16.0
 41
0.0
 71
     7
 72
     1
  1
40
  7
CONVERTER_1
 11
0.0
 21
1.0
 31
0.0
 73
     1
 44
0.60024009603842
  0
ENDBLK
  5
41A
330
40E
100
AcDbEntity
  8
0
100
AcDbBlockEnd
  0
BLOCK
  5
426
330
41D
100
AcDbEntity
  8
0
100
AcDbBlockBegin
  2
*D1014
 70
     1
 71
     0
 10
0.0
 20
0.0
 30
0.0
  3
*D1014
  1

  0
LINE
  5
41E
330
41D
100
AcDbEntity
  8
1
  6
Continuous
 62
     2
100
AcDbLine
 10
2278.506366468427
 20
707.2581345506787
 30
0.0
 11
1878.506366468427
 21
707.2581345506787
 31
0.0
  0
LINE
  5
41F
330
41D
100
AcDbEntity
  8
1
  6
Continuous
 62
     2
100
AcDbLine
 10
2278.506366468427
 20
801.9283830807949
 30
0.0
 11
2278.506366468427
 21
702.2581345506787
 31
0.0
  0
LINE
  5
420
330
41D
100
AcDbEntity
  8
1
  6
Continuous
 62
     2
100
AcDbLine
 10
1878.506366468427
 20
795.4283830807858
 30
0.0
 11
1878.506366468427
 21
702.2581345506787
 31
0.0
  0
LINE
  5
421
330
41D
100
AcDbEntity
  8
1
 62
     2
100
AcDbLine
 10
2278.506366468427
 20
707.2581345506787
 30
0.0
 11
2262.506366468427
 21
702.9709474717807
 31
0.0
  0
LINE
  5
422
330
41D
100
AcDbEntity
  8
1
 62
     2
100
AcDbLine
 10
2278.506366468427
 20
707.2581345506787
 30
0.0
 11
2262.506366468427
 21
711.5453216295767
 31
0.0
  0
LINE
  5
423
330
41D
100
AcDbEntity
  8
1
 62
     2
100
AcDbLine
 10
1878.506366468427
 20
707.2581345506787
 30
0.0
 11
1894.506366468427
 21
711.5453216295767
 31
0.0
  0
LINE
  5
424
330
41D
100
AcDbEntity
  8
1
 62
     2
100
AcDbLine
 10
1878.506366468427
 20
707.2581345506787
 30
0.0
 11
1894.506366468427
 21
702.9709474717807
 31
0.0
  0
MTEXT
  5
425
330
41D
100
AcDbEntity
  8
1
 62
     2
100
AcDbMText
 10
2017.801869046668
 20
710.7581345506787
 30
0.0
 40
16.0
 41
0.0
 71
     7
 72
     1
  1
呼称機長 ※1
  7
CONVERTER_3
 11
0.9999999999970621
 21
2.424068405545307E-6
 31
0.0
 73
     1
 44
0.60024009603842
  0
ENDBLK
  5
427
330
41D
100
AcDbEntity
  8
0
100
AcDbBlockEnd
  0
BLOCK
  5
433
330
42A
100
AcDbEntity
  8
0
100
AcDbBlockBegin
  2
*D1115
 70
     1
 71
     0
 10
0.0
 20
0.0
 30
0.0
  3
*D1115
  1

  0
LINE
  5
42B
330
42A
100
AcDbEntity
  8
1
  6
Continuous
 62
     2
100
AcDbLine
 10
2325.221510749241
 20
790.4283830807858
 30
0.0
 11
2325.221510749241
 21
860.4283830807945
 31
0.0
  0
LINE
  5
42C
330
42A
100
AcDbEntity
  8
1
  6
Continuous
 62
     2
100
AcDbLine
 10
2266.506366468427
 20
860.4283830807945
 30
0.0
 11
2330.221510749241
 21
860.4283830807945
 31
0.0
  0
LINE
  5
42D
330
42A
100
AcDbEntity
  8
1
  6
Continuous
 62
     2
100
AcDbLine
 10
2245.506366468426
 20
790.4283830807858
 30
0.0
 11
2330.221510749241
 21
790.4283830807858
 31
0.0
  0
LINE
  5
42E
330
42A
100
AcDbEntity
  8
1
 62
     2
100
AcDbLine
 10
2325.221510749241
 20
790.4283830807858
 30
0.0
 11
2320.934323670343
 21
806.4283830807858
 31
0.0
  0
LINE
  5
42F
330
42A
100
AcDbEntity
  8
1
 62
     2
100
AcDbLine
 10
2325.221510749241
 20
790.4283830807858
 30
0.0
 11
2329.508697828139
 21
806.4283830807858
 31
0.0
  0
LINE
  5
430
330
42A
100
AcDbEntity
  8
1
 62
     2
100
AcDbLine
 10
2325.221510749241
 20
860.4283830807945
 30
0.0
 11
2329.508697828139
 21
844.4283830807945
 31
0.0
  0
LINE
  5
431
330
42A
100
AcDbEntity
  8
1
 62
     2
100
AcDbLine
 10
2325.221510749241
 20
860.4283830807945
 30
0.0
 11
2320.934323670343
 21
844.4283830807945
 31
0.0
  0
MTEXT
  5
432
330
42A
100
AcDbEntity
  8
1
 62
     2
100
AcDbMText
 10
2321.721510749241
 20
815.9349139107744
 30
0.0
 40
16.0
 41
0.0
 71
     7
 72
     1
  1
70
  7
CONVERTER_1
 11
0.0
 21
1.0
 31
0.0
 73
     1
 44
0.60024009603842
  0
ENDBLK
  5
434
330
42A
100
AcDbEntity
  8
0
100
AcDbBlockEnd
  0
BLOCK
  5
440
330
437
100
AcDbEntity
  8
0
100
AcDbBlockBegin
  2
*D1216
 70
     1
 71
     0
 10
0.0
 20
0.0
 30
0.0
  3
*D1216
  1

  0
LINE
  5
438
330
437
100
AcDbEntity
  8
1
  6
Continuous
 62
     2
100
AcDbLine
 10
2375.406366468428
 20
496.928383080785
 30
0.0
 11
2375.406366468428
 21
431.928383080784
 31
0.0
  0
LINE
  5
439
330
437
100
AcDbEntity
  8
1
  6
Continuous
 62
     2
100
AcDbLine
 10
2284.406366468429
 20
431.928383080784
 30
0.0
 11
2380.406366468428
 21
431.928383080784
 31
0.0
  0
LINE
  5
43A
330
437
100
AcDbEntity
  8
1
  6
Continuous
 62
     2
100
AcDbLine
 10
2280.306366468426
 20
496.928383080785
 30
0.0
 11
2380.406366468428
 21
496.928383080785
 31
0.0
  0
LINE
  5
43B
330
437
100
AcDbEntity
  8
1
 62
     2
100
AcDbLine
 10
2375.406366468428
 20
496.928383080785
 30
0.0
 11
2379.693553547326
 21
480.928383080785
 31
0.0
  0
LINE
  5
43C
330
437
100
AcDbEntity
  8
1
 62
     2
100
AcDbLine
 10
2375.406366468428
 20
496.928383080785
 30
0.0
 11
2371.11917938953
 21
480.928383080785
 31
0.0
  0
LINE
  5
43D
330
437
100
AcDbEntity
  8
1
 62
     2
100
AcDbLine
 10
2375.406366468428
 20
431.928383080784
 30
0.0
 11
2371.11917938953
 21
447.928383080784
 31
0.0
  0
LINE
  5
43E
330
437
100
AcDbEntity
  8
1
 62
     2
100
AcDbLine
 10
2375.406366468428
 20
431.928383080784
 30
0.0
 11
2379.693553547326
 21
447.928383080784
 31
0.0
  0
MTEXT
  5
43F
330
437
100
AcDbEntity
  8
1
 62
     2
100
AcDbMText
 10
2369.506366468428
 20
454.1111667155315
 30
0.0
 40
16.0
 41
0.0
 71
     7
 72
     1
  1
65
  7
CONVERTER_1
 11
0.0
 21
1.0
 31
0.0
 73
     1
 44
0.60024009603842
  0
ENDBLK
  5
441
330
437
100
AcDbEntity
  8
0
100
AcDbBlockEnd
  0
BLOCK
  5
44F
330
444
100
AcDbEntity
  8
0
100
AcDbBlockBegin
  2
*D1317
 70
     1
 71
     0
 10
0.0
 20
0.0
 30
0.0
  3
*D1317
  1

  0
LINE
  5
445
330
444
100
AcDbEntity
  8
1
  6
Continuous
 62
     2
100
AcDbLine
 10
2221.45835159658
 20
228.1232279083547
 30
0.0
 11
2221.45835159658
 21
189.9714823222234
 31
0.0
  0
LINE
  5
446
330
444
100
AcDbEntity
  8
1
  6
Continuous
 62
     2
100
AcDbLine
 10
2221.45835159658
 20
189.9714823222234
 30
0.0
 11
2221.45835159658
 21
185.9714823222234
 31
0.0
  0
LINE
  5
447
330
444
100
AcDbEntity
  8
1
  6
Continuous
 62
     2
100
AcDbLine
 10
2221.45835159658
 20
185.9714823222234
 30
0.0
 11
2221.45835159658
 21
153.9714823222234
 31
0.0
  0
LINE
  5
448
330
444
100
AcDbEntity
  8
1
  6
Continuous
 62
     2
100
AcDbLine
 10
2152.82356972608
 20
185.9714823222234
 30
0.0
 11
2226.45835159658
 21
185.9714823222234
 31
0.0
  0
LINE
  5
449
330
444
100
AcDbEntity
  8
1
  6
Continuous
 62
     2
100
AcDbLine
 10
2152.82356972608
 20
189.9714823222234
 30
0.0
 11
2226.45835159658
 21
189.9714823222234
 31
0.0
  0
LINE
  5
44A
330
444
100
AcDbEntity
  8
1
 62
     2
100
AcDbLine
 10
2221.45835159658
 20
189.9714823222234
 30
0.0
 11
2217.171164517682
 21
205.9714823222234
 31
0.0
  0
LINE
  5
44B
330
444
100
AcDbEntity
  8
1
 62
     2
100
AcDbLine
 10
2221.45835159658
 20
189.9714823222234
 30
0.0
 11
2225.745538675478
 21
205.9714823222234
 31
0.0
  0
LINE
  5
44C
330
444
100
AcDbEntity
  8
1
 62
     2
100
AcDbLine
 10
2221.45835159658
 20
185.9714823222234
 30
0.0
 11
2225.745538675478
 21
169.9714823222234
 31
0.0
  0
LINE
  5
44D
330
444
100
AcDbEntity
  8
1
 62
     2
100
AcDbLine
 10
2221.45835159658
 20
185.9714823222234
 30
0.0
 11
2217.171164517682
 21
169.9714823222234
 31
0.0
  0
MTEXT
  5
44E
330
444
100
AcDbEntity
  8
1
 62
     2
100
AcDbMText
 10
2216.45835159658
 20
218.5232279083545
 30
0.0
 40
16.0
 41
0.0
 71
     7
 72
     1
  1
4
  7
CONVERTER_1
 11
0.0
 21
1.0
 31
0.0
 73
     1
 44
0.60024009603842
  0
ENDBLK
  5
450
330
444
100
AcDbEntity
  8
0
100
AcDbBlockEnd
  0
BLOCK
  5
45E
330
453
100
AcDbEntity
  8
0
100
AcDbBlockBegin
  2
*D1418
 70
     1
 71
     0
 10
0.0
 20
0.0
 30
0.0
  3
*D1418
  1

  0
LINE
  5
454
330
453
100
AcDbEntity
  8
1
  6
Continuous
 62
     2
100
AcDbLine
 10
2144.823569726079
 20
268.5301105193757
 30
0.0
 11
2112.823569726079
 21
268.5301105193757
 31
0.0
  0
LINE
  5
455
330
453
100
AcDbEntity
  8
1
  6
Continuous
 62
     2
100
AcDbLine
 10
2112.823569726079
 20
268.5301105193757
 30
0.0
 11
2111.823569726079
 21
268.5301105193757
 31
0.0
  0
LINE
  5
456
330
453
100
AcDbEntity
  8
1
  6
Continuous
 62
     2
100
AcDbLine
 10
2111.823569726079
 20
268.5301105193757
 30
0.0
 11
2079.823569726079
 21
268.5301105193757
 31
0.0
  0
LINE
  5
457
330
453
100
AcDbEntity
  8
1
  6
Continuous
 62
     2
100
AcDbLine
 10
2111.823569726079
 20
116.4714823222238
 30
0.0
 11
2111.823569726079
 21
273.5301105193757
 31
0.0
  0
LINE
  5
458
330
453
100
AcDbEntity
  8
1
  6
Continuous
 62
     2
100
AcDbLine
 10
2112.823569726079
 20
190.9714823222238
 30
0.0
 11
2112.823569726079
 21
273.5301105193757
 31
0.0
  0
LINE
  5
459
330
453
100
AcDbEntity
  8
1
 62
     2
100
AcDbLine
 10
2112.823569726079
 20
268.5301105193757
 30
0.0
 11
2128.823569726079
 21
272.8172975982736
 31
0.0
  0
LINE
  5
45A
330
453
100
AcDbEntity
  8
1
 62
     2
100
AcDbLine
 10
2112.823569726079
 20
268.5301105193757
 30
0.0
 11
2128.823569726079
 21
264.2429234404777
 31
0.0
  0
LINE
  5
45B
330
453
100
AcDbEntity
  8
1
 62
     2
100
AcDbLine
 10
2111.823569726079
 20
268.5301105193757
 30
0.0
 11
2095.823569726079
 21
264.2429234404777
 31
0.0
  0
LINE
  5
45C
330
453
100
AcDbEntity
  8
1
 62
     2
100
AcDbLine
 10
2111.823569726079
 20
268.5301105193757
 30
0.0
 11
2095.823569726079
 21
272.8172975982736
 31
0.0
  0
MTEXT
  5
45D
330
453
100
AcDbEntity
  8
1
 62
     2
100
AcDbMText
 10
2085.10360314787
 20
273.5301105193757
 30
0.0
 40
16.0
 41
0.0
 71
     7
 72
     1
  1
1
  7
CONVERTER_1
 11
0.9999999999970621
 21
2.424068405545307E-6
 31
0.0
 73
     1
 44
0.60024009603842
  0
ENDBLK
  5
45F
330
453
100
AcDbEntity
  8
0
100
AcDbBlockEnd
  0
BLOCK
  5
46D
330
462
100
AcDbEntity
  8
0
100
AcDbBlockBegin
  2
*D1519
 70
     1
 71
     0
 10
0.0
 20
0.0
 30
0.0
  3
*D1519
  1

  0
LINE
  5
463
330
462
100
AcDbEntity
  8
1
  6
Continuous
 62
     2
100
AcDbLine
 10
2112.82356972608
 20
268.5301105193757
 30
0.0
 11
2080.82356972608
 21
268.5301105193757
 31
0.0
  0
LINE
  5
464
330
462
100
AcDbEntity
  8
1
  6
Continuous
 62
     2
100
AcDbLine
 10
2147.82356972608
 20
268.5301105193757
 30
0.0
 11
2112.82356972608
 21
268.5301105193757
 31
0.0
  0
LINE
  5
465
330
462
100
AcDbEntity
  8
1
  6
Continuous
 62
     2
100
AcDbLine
 10
2179.82356972608
 20
268.5301105193757
 30
0.0
 11
2147.82356972608
 21
268.5301105193757
 31
0.0
  0
LINE
  5
466
330
462
100
AcDbEntity
  8
1
  6
Continuous
 62
     2
100
AcDbLine
 10
2147.82356972608
 20
194.9714823222243
 30
0.0
 11
2147.82356972608
 21
273.5301105193757
 31
0.0
  0
LINE
  5
467
330
462
100
AcDbEntity
  8
1
  6
Continuous
 62
     2
100
AcDbLine
 10
2112.82356972608
 20
190.9714823222243
 30
0.0
 11
2112.82356972608
 21
273.5301105193757
 31
0.0
  0
LINE
  5
468
330
462
100
AcDbEntity
  8
1
 62
     2
100
AcDbLine
 10
2147.82356972608
 20
268.5301105193757
 30
0.0
 11
2163.82356972608
 21
272.8172975982736
 31
0.0
  0
LINE
  5
469
330
462
100
AcDbEntity
  8
1
 62
     2
100
AcDbLine
 10
2147.82356972608
 20
268.5301105193757
 30
0.0
 11
2163.82356972608
 21
264.2429234404777
 31
0.0
  0
LINE
  5
46A
330
462
100
AcDbEntity
  8
1
 62
     2
100
AcDbLine
 10
2112.82356972608
 20
268.5301105193757
 30
0.0
 11
2096.82356972608
 21
264.2429234404777
 31
0.0
  0
LINE
  5
46B
330
462
100
AcDbEntity
  8
1
 62
     2
100
AcDbLine
 10
2112.82356972608
 20
268.5301105193757
 30
0.0
 11
2096.82356972608
 21
272.8172975982736
 31
0.0
  0
MTEXT
  5
46C
330
462
100
AcDbEntity
  8
1
 62
     2
100
AcDbMText
 10
2117.049874562244
 20
273.5301105193757
 30
0.0
 40
16.0
 41
0.0
 71
     7
 72
     1
  1
35
  7
CONVERTER_1
 11
0.9999999999970621
 21
2.424068405545307E-6
 31
0.0
 73
     1
 44
0.60024009603842
  0
ENDBLK
  5
46E
330
462
100
AcDbEntity
  8
0
100
AcDbBlockEnd
  0
BLOCK
  5
47A
330
471
100
AcDbEntity
  8
0
100
AcDbBlockBegin
  2
*D1620
 70
     1
 71
     0
 10
0.0
 20
0.0
 30
0.0
  3
*D1620
  1

  0
LINE
  5
472
330
471
100
AcDbEntity
  8
1
  6
Continuous
 62
     2
100
AcDbLine
 10
1878.506366468428
 20
745.0615810002237
 30
0.0
 11
2038.506366468532
 21
745.0615810002237
 31
0.0
  0
LINE
  5
473
330
471
100
AcDbEntity
  8
1
  6
Continuous
 62
     2
100
AcDbLine
 10
1878.506366468428
 20
795.4283830807858
 30
0.0
 11
1878.506366468428
 21
740.0615810002237
 31
0.0
  0
LINE
  5
474
330
471
100
AcDbEntity
  8
1
  6
Continuous
 62
     2
100
AcDbLine
 10
2038.506366468532
 20
801.1783830807949
 30
0.0
 11
2038.506366468532
 21
740.0615810002237
 31
0.0
  0
LINE
  5
475
330
471
100
AcDbEntity
  8
1
 62
     2
100
AcDbLine
 10
1878.506366468428
 20
745.0615810002237
 30
0.0
 11
1894.506366468428
 21
749.3487680791217
 31
0.0
  0
LINE
  5
476
330
471
100
AcDbEntity
  8
1
 62
     2
100
AcDbLine
 10
1878.506366468428
 20
745.0615810002237
 30
0.0
 11
1894.506366468428
 21
740.7743939213257
 31
0.0
  0
LINE
  5
477
330
471
100
AcDbEntity
  8
1
 62
     2
100
AcDbLine
 10
2038.506366468532
 20
745.0615810002237
 30
0.0
 11
2022.506366468532
 21
740.7743939213257
 31
0.0
  0
LINE
  5
478
330
471
100
AcDbEntity
  8
1
 62
     2
100
AcDbLine
 10
2038.506366468532
 20
745.0615810002237
 30
0.0
 11
2022.506366468532
 21
749.3487680791217
 31
0.0
  0
MTEXT
  5
479
330
471
100
AcDbEntity
  8
1
 62
     2
100
AcDbMText
 10
1941.020523140838
 20
750.9615810002235
 30
0.0
 40
16.0
 41
0.0
 71
     7
 72
     1
  1
160
  7
CONVERTER_1
 11
0.9999999999970621
 21
2.424068405545307E-6
 31
0.0
 73
     1
 44
0.60024009603842
  0
ENDBLK
  5
47B
330
471
100
AcDbEntity
  8
0
100
AcDbBlockEnd
  0
BLOCK
  5
487
330
47E
100
AcDbEntity
  8
0
100
AcDbBlockBegin
  2
*D1721
 70
     1
 71
     0
 10
0.0
 20
0.0
 30
0.0
  3
*D1721
  1

  0
LINE
  5
47F
330
47E
100
AcDbEntity
  8
1
  6
Continuous
 62
     2
100
AcDbLine
 10
2038.506366468532
 20
745.0615810002237
 30
0.0
 11
2118.506366468469
 21
745.0615810002237
 31
0.0
  0
LINE
  5
480
330
47E
100
AcDbEntity
  8
1
  6
Continuous
 62
     2
100
AcDbLine
 10
2038.506366468532
 20
801.1783830807949
 30
0.0
 11
2038.506366468532
 21
740.0615810002237
 31
0.0
  0
LINE
  5
481
330
47E
100
AcDbEntity
  8
1
  6
Continuous
 62
     2
100
AcDbLine
 10
2118.506366468469
 20
801.1783830807949
 30
0.0
 11
2118.506366468469
 21
740.0615810002237
 31
0.0
  0
LINE
  5
482
330
47E
100
AcDbEntity
  8
1
 62
     2
100
AcDbLine
 10
2038.506366468532
 20
745.0615810002237
 30
0.0
 11
2054.506366468532
 21
749.3487680791217
 31
0.0
  0
LINE
  5
483
330
47E
100
AcDbEntity
  8
1
 62
     2
100
AcDbLine
 10
2038.506366468532
 20
745.0615810002237
 30
0.0
 11
2054.506366468532
 21
740.7743939213257
 31
0.0
  0
LINE
  5
484
330
47E
100
AcDbEntity
  8
1
 62
     2
100
AcDbLine
 10
2118.506366468469
 20
745.0615810002237
 30
0.0
 11
2102.506366468469
 21
740.7743939213257
 31
0.0
  0
LINE
  5
485
330
47E
100
AcDbEntity
  8
1
 62
     2
100
AcDbLine
 10
2118.506366468469
 20
745.0615810002237
 30
0.0
 11
2102.506366468469
 21
749.3487680791217
 31
0.0
  0
MTEXT
  5
486
330
47E
100
AcDbEntity
  8
1
 62
     2
100
AcDbMText
 10
2068.488849375073
 20
748.5615810002237
 30
0.0
 40
16.0
 41
0.0
 71
     7
 72
     1
  1
80
  7
CONVERTER_1
 11
0.9999999999970621
 21
2.424068405545307E-6
 31
0.0
 73
     1
 44
0.60024009603842
  0
ENDBLK
  5
488
330
47E
100
AcDbEntity
  8
0
100
AcDbBlockEnd
  0
BLOCK
  5
491
330
48B
100
AcDbEntity
  8
0
100
AcDbBlockBegin
  2
*D1822
 70
     1
 71
     0
 10
0.0
 20
0.0
 30
0.0
  3
*D1822
  1

  0
LINE
  5
48C
330
48B
100
AcDbEntity
  8
1
  6
Continuous
 62
     2
100
AcDbLine
 10
2137.180077030072
 20
888.4525017801188
 30
0.0
 11
2219.180077030072
 21
888.4525017801188
 31
0.0
  0
LINE
  5
48D
330
48B
100
AcDbEntity
  8
1
  6
Continuous
 62
     2
100
AcDbLine
 10
2119.331016482067
 20
814.8298463475585
 30
0.0
 11
2137.180077030072
 21
888.4525017801188
 31
0.0
  0
LINE
  5
48E
330
48B
100
AcDbEntity
  8
1
 62
     2
100
AcDbLine
 10
2119.331016482067
 20
814.8298463475585
 30
0.0
 11
2118.934356724989
 21
831.389515247829
 31
0.0
  0
LINE
  5
48F
330
48B
100
AcDbEntity
  8
1
 62
     2
100
AcDbLine
 10
2119.331016482067
 20
814.8298463475585
 30
0.0
 11
2127.267333505914
 21
829.3692701719912
 31
0.0
  0
MTEXT
  5
490
330
48B
100
AcDbEntity
  8
1
 62
     2
100
AcDbMText
 10
2170.220077030188
 20
893.4524063687863
 30
0.0
 40
16.0
 41
0.0
 71
     7
 72
     1
  1
\C2;2-{\Fgdt;n}\C2;7
  7
CONVERTER_1
 11
0.9999999999970621
 21
2.424068405545307E-6
 31
0.0
 73
     1
 44
0.60024009603842
  0
ENDBLK
  5
492
330
48B
100
AcDbEntity
  8
0
100
AcDbBlockEnd
  0
BLOCK
  5
49A
330
494
100
AcDbEntity
  8
0
100
AcDbBlockBegin
  2
*D1923
 70
     1
 71
     0
 10
0.0
 20
0.0
 30
0.0
  3
*D1923
  1

  0
LINE
  5
495
330
494
100
AcDbEntity
  8
1
  6
Continuous
 62
     2
100
AcDbLine
 10
2273.373379786111
 20
794.5466634263926
 30
0.0
 11
2311.346504075222
 21
756.5283830807866
 31
0.0
  0
LINE
  5
496
330
494
100
AcDbEntity
  8
1
  6
Continuous
 62
     2
100
AcDbLine
 10
2311.346504075222
 20
756.5283830807866
 30
0.0
 11
2375.546504075222
 21
756.5283830807866
 31
0.0
  0
LINE
  5
497
330
494
100
AcDbEntity
  8
1
 62
     2
100
AcDbLine
 10
2273.373379786111
 20
794.5466634263926
 30
0.0
 11
2287.713663306104
 21
786.2559311538059
 31
0.0
  0
LINE
  5
498
330
494
100
AcDbEntity
  8
1
 62
     2
100
AcDbLine
 10
2273.373379786111
 20
794.5466634263926
 30
0.0
 11
2281.647063475603
 21
780.196536902361
 31
0.0
  0
MTEXT
  5
499
330
494
100
AcDbEntity
  8
1
 62
     2
100
AcDbMText
 10
2325.306504075299
 20
760.0283194732317
 30
0.0
 40
16.0
 41
0.0
 71
     7
 72
     1
  1
\C2;{\Fgdt;n}\C2;35
  7
CONVERTER_1
 11
0.9999999999970621
 21
2.424068405545307E-6
 31
0.0
 73
     1
 44
0.60024009603842
  0
ENDBLK
  5
49B
330
494
100
AcDbEntity
  8
0
100
AcDbBlockEnd
  0
BLOCK
  5
4A3
330
49D
100
AcDbEntity
  8
0
100
AcDbBlockBegin
  2
*D2024
 70
     1
 71
     0
 10
0.0
 20
0.0
 30
0.0
  3
*D2024
  1

  0
LINE
  5
49E
330
49D
100
AcDbEntity
  8
1
  6
Continuous
 62
     2
100
AcDbLine
 10
1899.255961271541
 20
842.4375529866406
 30
0.0
 11
1845.718641499979
 21
906.4283767812776
 31
0.0
  0
LINE
  5
49F
330
49D
100
AcDbEntity
  8
1
  6
Continuous
 62
     2
100
AcDbLine
 10
1845.718641499979
 20
906.4283767812776
 30
0.0
 11
1781.518641499979
 21
906.4283767812776
 31
0.0
  0
LINE
  5
4A0
330
49D
100
AcDbEntity
  8
1
 62
     2
100
AcDbLine
 10
1899.255961271541
 20
842.4375529866406
 30
0.0
 11
1885.700924635994
 21
851.9581073223106
 31
0.0
  0
LINE
  5
4A1
330
49D
100
AcDbEntity
  8
1
 62
     2
100
AcDbLine
 10
1899.255961271541
 20
842.4375529866406
 30
0.0
 11
1892.277232363764
 21
857.4601132172145
 31
0.0
  0
MTEXT
  5
4A2
330
49D
100
AcDbEntity
  8
1
 62
     2
100
AcDbMText
 10
1774.478641500056
 20
912.3283131737226
 30
0.0
 40
16.0
 41
0.0
 71
     7
 72
     1
  1
\C2;{\Fgdt;n}\C2;60
  7
CONVERTER_1
 11
0.9999999999970621
 21
2.424068405545307E-6
 31
0.0
 73
     1
 44
0.60024009603842
  0
ENDBLK
  5
4A4
330
49D
100
AcDbEntity
  8
0
100
AcDbBlockEnd
  0
ENDSEC
  0
SECTION
  2
ENTITIES
  0
INSERT
  5
35
330
1F
100
AcDbEntity
  8
0
100
AcDbBlockReference
  2
Zuwaku-A3-web
 10
2225.095483858449
 20
488.73127528472
 30
0.0
 41
5.0
 42
5.0
 43
5.0
  0
LINE
  5
66
330
1F
100
AcDbEntity
  8
1
  6
DOTTED
 62
     2
100
AcDbLine
 10
1534.247649910141
 20
233.7423299897637
 30
0.0
 11
1394.247649910141
 21
233.7423299897637
 31
0.0
  0
LINE
  5
67
330
1F
100
AcDbEntity
  8
1
  6
DOTTED
 62
     2
100
AcDbLine
 10
1534.247649910141
 20
233.7423299897637
 30
0.0
 11
1814.247649910141
 21
233.7423299897637
 31
0.0
  0
LINE
  5
68
330
1F
100
AcDbEntity
  8
1
  6
DOTTED
 62
     2
100
AcDbLine
 10
1674.247649910141
 20
143.7423299897637
 30
0.0
 11
1674.247649910141
 21
233.7423299897637
 31
0.0
  0
LINE
  5
69
330
1F
100
AcDbEntity
  8
1
  6
Continuous
 62
     2
100
AcDbLine
 10
1534.247649910141
 20
143.7423299897637
 30
0.0
 11
1534.247649910141
 21
263.7423299897637
 31
0.0
  0
LINE
  5
6A
330
1F
100
AcDbEntity
  8
1
  6
DOTTED
 62
     2
100
AcDbLine
 10
1394.247649910141
 20
203.7423299897637
 30
0.0
 11
1814.247649910141
 21
203.7423299897637
 31
0.0
  0
LINE
  5
6B
330
1F
100
AcDbEntity
  8
1
  6
Continuous
 62
     2
100
AcDbLine
 10
1394.247649910141
 20
143.7423299897637
 30
0.0
 11
1394.247649910141
 21
263.7423299897637
 31
0.0
  0
LINE
  5
6C
330
1F
100
AcDbEntity
  8
1
  6
Continuous
 62
     2
100
AcDbLine
 10
1814.247649910141
 20
143.7423299897637
 30
0.0
 11
1394.247649910141
 21
143.7423299897637
 31
0.0
  0
LINE
  5
6D
330
1F
100
AcDbEntity
  8
1
  6
Continuous
 62
     2
100
AcDbLine
 10
1814.247649910141
 20
263.7423299897637
 30
0.0
 11
1814.247649910141
 21
143.7423299897637
 31
0.0
  0
LINE
  5
6E
330
1F
100
AcDbEntity
  8
1
  6
Continuous
 62
     2
100
AcDbLine
 10
1394.247649910141
 20
263.7423299897637
 30
0.0
 11
1814.247649910141
 21
263.7423299897637
 31
0.0
  0
LINE
  5
6F
330
1F
100
AcDbEntity
  8
1
  6
Continuous
 62
     7
100
AcDbLine
 10
2521.256366468463
 20
473.9283830807835
 30
0.0
 11
2521.256366468463
 21
471.9283830807844
 31
0.0
  0
LINE
  5
70
330
1F
100
AcDbEntity
  8
1
  6
Continuous
 62
     7
100
AcDbLine
 10
2515.006366468463
 20
473.9283830807835
 30
0.0
 11
2521.256366468463
 21
473.9283830807835
 31
0.0
  0
LINE
  5
71
330
1F
100
AcDbEntity
  8
1
  6
Continuous
 62
     7
100
AcDbLine
 10
2514.506366468463
 20
471.9283830807844
 30
0.0
 11
2514.506366468463
 21
473.4283830807835
 31
0.0
  0
LINE
  5
72
330
1F
100
AcDbEntity
  8
1
  6
Continuous
 62
     7
100
AcDbLine
 10
1968.506366468428
 20
792.4283830807858
 30
0.0
 11
1968.506366468427
 21
790.4283830807858
 31
0.0
  0
LINE
  5
73
330
1F
100
AcDbEntity
  8
1
  6
Continuous
 62
     7
100
AcDbLine
 10
1968.506366468427
 20
790.4283830807858
 30
0.0
 11
2240.506366468427
 21
790.4283830807858
 31
0.0
  0
LINE
  5
74
330
1F
100
AcDbEntity
  8
1
  6
Continuous
 62
     7
100
AcDbLine
 10
2240.506366468422
 20
473.9283830807844
 30
0.0
 11
1968.506366468427
 21
473.9283830807844
 31
0.0
  0
LINE
  5
75
330
1F
100
AcDbEntity
  8
1
  6
Continuous
 62
     7
100
AcDbLine
 10
2240.506366468422
 20
471.9283830807835
 30
0.0
 11
2240.506366468422
 21
473.9283830807844
 31
0.0
  0
LINE
  5
76
330
1F
100
AcDbEntity
  8
1
  6
Continuous
 62
     7
100
AcDbLine
 10
1968.506366468427
 20
431.9283830807844
 30
0.0
 11
2240.506366468427
 21
431.9283830807844
 31
0.0
  0
LINE
  5
77
330
1F
100
AcDbEntity
  8
1
  6
Continuous
 62
     7
100
AcDbLine
 10
1968.506366468427
 20
473.9283830807844
 30
0.0
 11
1968.506366468427
 21
471.9283830807835
 31
0.0
  0
LINE
  5
78
330
1F
100
AcDbEntity
  8
1
  6
Continuous
 62
     7
100
AcDbLine
 10
2240.506366468427
 20
790.4283830807858
 30
0.0
 11
2240.506366468427
 21
790.9283830807835
 31
0.0
  0
LINE
  5
79
330
1F
100
AcDbEntity
  8
1
  6
DASH_CENTER
 62
     3
100
AcDbLine
 10
1885.272357468428
 20
469.3271432476345
 30
0.0
 11
1885.272357468428
 21
524.3271432476345
 31
0.0
  0
LINE
  5
7A
330
1F
100
AcDbEntity
  8
0
  6
Continuous
 62
     7
100
AcDbLine
 10
1878.506366468427
 20
518.4288450807844
 30
0.0
 11
1878.506366468427
 21
480.9283830807844
 31
0.0
  0
LINE
  5
7B
330
1F
100
AcDbEntity
  8
0
  6
Continuous
 62
     7
100
AcDbLine
 10
1958.506366468427
 20
518.4288450807844
 30
0.0
 11
1958.506366468427
 21
480.9283830807844
 31
0.0
  0
LINE
  5
7C
330
1F
100
AcDbEntity
  8
0
  6
Continuous
 62
     7
100
AcDbLine
 10
1957.506366468427
 20
479.9283830807844
 30
0.0
 11
1879.506366468427
 21
479.9283830807844
 31
0.0
  0
LINE
  5
7D
330
1F
100
AcDbEntity
  8
0
  6
Continuous
 62
     7
100
AcDbLine
 10
1878.506366468427
 20
511.9288450807844
 30
0.0
 11
1958.506366468427
 21
511.9288450807844
 31
0.0
  0
LINE
  5
7E
330
1F
100
AcDbEntity
  8
0
  6
DASH_CENTER
 62
     3
100
AcDbLine
 10
1918.506366468427
 20
601.9288450807844
 30
0.0
 11
1918.506366468427
 21
445.8261374696144
 31
0.0
  0
LINE
  5
7F
330
1F
100
AcDbEntity
  8
0
  6
Continuous
 62
     7
100
AcDbLine
 10
1880.272348468426
 20
519.1288450807856
 30
0.0
 11
1890.272348468426
 21
519.1288450807856
 31
0.0
  0
LINE
  5
80
330
1F
100
AcDbEntity
  8
0
  6
Continuous
 62
     7
100
AcDbLine
 10
1890.272348468426
 20
519.1288450807856
 30
0.0
 11
1890.272348468426
 21
518.4288450807844
 31
0.0
  0
LINE
  5
81
330
1F
100
AcDbEntity
  8
0
  6
Continuous
 62
     7
100
AcDbLine
 10
1880.272348468426
 20
519.1288450807856
 30
0.0
 11
1880.272348468426
 21
518.4288450807844
 31
0.0
  0
LINE
  5
82
330
1F
100
AcDbEntity
  8
0
  6
Continuous
 62
     7
100
AcDbLine
 10
1956.740385468426
 20
519.1288450807856
 30
0.0
 11
1946.740385468426
 21
519.1288450807856
 31
0.0
  0
LINE
  5
83
330
1F
100
AcDbEntity
  8
0
  6
Continuous
 62
     7
100
AcDbLine
 10
1946.740385468426
 20
519.1288450807856
 30
0.0
 11
1946.740385468426
 21
518.4288450807844
 31
0.0
  0
LINE
  5
84
330
1F
100
AcDbEntity
  8
0
  6
Continuous
 62
     7
100
AcDbLine
 10
1956.740385468426
 20
519.1288450807856
 30
0.0
 11
1956.740385468426
 21
518.4288450807844
 31
0.0
  0
LINE
  5
85
330
1F
100
AcDbEntity
  8
0
  6
Continuous
 62
     7
100
AcDbLine
 10
1879.206367468427
 20
594.9288450807844
 30
0.0
 11
1957.806365468426
 21
594.9288450807844
 31
0.0
  0
LINE
  5
86
330
1F
100
AcDbEntity
  8
0
  6
Continuous
 62
     7
100
AcDbLine
 10
1957.806365468426
 20
594.9288450807844
 30
0.0
 11
1955.806365468426
 21
596.9288450807844
 31
0.0
  0
LINE
  5
87
330
1F
100
AcDbEntity
  8
0
  6
Continuous
 62
     7
100
AcDbLine
 10
1881.206367468427
 20
596.9288450807844
 30
0.0
 11
1879.206367468427
 21
594.9288450807844
 31
0.0
  0
LINE
  5
88
330
1F
100
AcDbEntity
  8
0
  6
Continuous
 62
     7
100
AcDbLine
 10
1958.306365468426
 20
589.9288450807844
 30
0.0
 11
1878.706367468427
 21
589.9288450807844
 31
0.0
  0
LINE
  5
89
330
1F
100
AcDbEntity
  8
0
  6
Continuous
 62
     7
100
AcDbLine
 10
1957.806365468426
 20
594.9288450807844
 30
0.0
 11
1957.806365468426
 21
589.9288450807844
 31
0.0
  0
LINE
  5
8A
330
1F
100
AcDbEntity
  8
0
  6
Continuous
 62
     7
100
AcDbLine
 10
1879.206367468427
 20
594.9288450807844
 30
0.0
 11
1879.206367468427
 21
589.9288450807844
 31
0.0
  0
LINE
  5
8B
330
1F
100
AcDbEntity
  8
0
  6
Continuous
 62
     7
100
AcDbLine
 10
1958.306365468426
 20
589.9288450807844
 30
0.0
 11
1958.306365468426
 21
518.4288450807844
 31
0.0
  0
LINE
  5
8C
330
1F
100
AcDbEntity
  8
0
  6
Continuous
 62
     7
100
AcDbLine
 10
1878.706367468427
 20
589.9288450807844
 30
0.0
 11
1878.706367468427
 21
518.4288450807844
 31
0.0
  0
LINE
  5
8D
330
1F
100
AcDbEntity
  8
0
  6
Continuous
 62
     7
100
AcDbLine
 10
1955.806365468426
 20
596.9288450807844
 30
0.0
 11
1881.206367468427
 21
596.9288450807844
 31
0.0
  0
LINE
  5
8E
330
1F
100
AcDbEntity
  8
0
  6
Continuous
 62
     7
100
AcDbLine
 10
1958.506366468427
 20
518.4288450807844
 30
0.0
 11
1878.506366468427
 21
518.4288450807844
 31
0.0
  0
LINE
  5
8F
330
1F
100
AcDbEntity
  8
0
  6
Continuous
 62
     7
100
AcDbLine
 10
1906.125366468386
 20
875.1283830807856
 30
0.0
 11
1906.125366468386
 21
876.3961990807866
 31
0.0
  0
LINE
  5
90
330
1F
100
AcDbEntity
  8
0
  6
Continuous
 62
     7
100
AcDbLine
 10
1900.525366468385
 20
875.1283830807856
 30
0.0
 11
1900.525366468385
 21
876.3961990807866
 31
0.0
  0
LINE
  5
91
330
1F
100
AcDbEntity
  8
0
  6
DASH_CENTER
 62
     3
100
AcDbLine
 10
1888.598758468386
 20
804.5207900807855
 30
0.0
 11
1881.927325468387
 21
797.8493420807845
 31
0.0
  0
LINE
  5
92
330
1F
100
AcDbEntity
  8
0
  6
DASH_CENTER
 62
     3
100
AcDbLine
 10
1888.587360468385
 20
864.3473970807845
 30
0.0
 11
1881.776752468386
 21
871.1580050807847
 31
0.0
  0
LINE
  5
93
330
1F
100
AcDbEntity
  8
0
  6
Continuous
 62
     7
100
AcDbLine
 10
1878.506366468386
 20
801.2283560807846
 30
0.0
 11
1878.506366468386
 21
867.6283650807854
 31
0.0
  0
LINE
  5
94
330
1F
100
AcDbEntity
  8
0
  6
Continuous
 62
     7
100
AcDbLine
 10
1918.506366468386
 20
794.4283830807858
 30
0.0
 11
1885.306354468385
 21
794.4283680807857
 31
0.0
  0
LINE
  5
95
330
1F
100
AcDbEntity
  8
0
  6
Continuous
 62
     7
100
AcDbLine
 10
1899.961625468385
 20
877.6889300807866
 30
0.0
 11
1900.548364468386
 21
879.1054430807858
 31
0.0
  0
LINE
  5
96
330
1F
100
AcDbEntity
  8
0
  6
Continuous
 62
     7
100
AcDbLine
 10
1898.611062468385
 20
874.4283830807858
 30
0.0
 11
1898.839719468386
 21
874.9804100807855
 31
0.0
  0
LINE
  5
97
330
1F
100
AcDbEntity
  8
0
  6
Continuous
 62
     7
100
AcDbLine
 10
1896.103374468385
 20
875.1684150807855
 30
0.0
 11
1896.787484468386
 21
876.8200040807856
 31
0.0
  0
LINE
  5
98
330
1F
100
AcDbEntity
  8
0
  6
Continuous
 62
     7
100
AcDbLine
 10
1906.575366468385
 20
875.1283830807856
 30
0.0
 11
1900.075366468385
 21
875.1283830807856
 31
0.0
  0
LINE
  5
99
330
1F
100
AcDbEntity
  8
0
  6
Continuous
 62
     7
100
AcDbLine
 10
1906.575366468385
 20
875.1283830807856
 30
0.0
 11
1906.575366468385
 21
874.4283830807858
 31
0.0
  0
LINE
  5
9A
330
1F
100
AcDbEntity
  8
0
  6
Continuous
 62
     7
100
AcDbLine
 10
1900.075366468385
 20
875.1283830807856
 30
0.0
 11
1900.075366468385
 21
874.4283830807858
 31
0.0
  0
LINE
  5
9B
330
1F
100
AcDbEntity
  8
0
  6
Continuous
 62
     7
100
AcDbLine
 10
1900.673050468385
 20
888.2889230807855
 30
0.0
 11
1909.289342468386
 21
883.2135400807856
 31
0.0
  0
LINE
  5
9C
330
1F
100
AcDbEntity
  8
0
  6
Continuous
 62
     7
100
AcDbLine
 10
1911.443415468386
 20
881.9446940807848
 30
0.0
 11
1912.305044468387
 21
881.4371550807846
 31
0.0
  0
LINE
  5
9D
330
1F
100
AcDbEntity
  8
0
  6
Continuous
 62
     7
100
AcDbLine
 10
1899.404204468386
 20
886.1348500807858
 30
0.0
 11
1908.020496468385
 21
881.0594670807968
 31
0.0
  0
LINE
  5
9E
330
1F
100
AcDbEntity
  8
0
  6
Continuous
 62
     7
100
AcDbLine
 10
1910.174569468387
 20
879.7906210807855
 30
0.0
 11
1911.036198468386
 21
879.2830830807866
 31
0.0
  0
LINE
  5
9F
330
1F
100
AcDbEntity
  8
0
  6
Continuous
 62
     7
100
AcDbLine
 10
1900.673050468385
 20
888.2889230807855
 30
0.0
 11
1899.404204468386
 21
886.1348500807858
 31
0.0
  0
LINE
  5
A0
330
1F
100
AcDbEntity
  8
0
  6
Continuous
 62
     7
100
AcDbLine
 10
1912.305044468387
 20
881.4371550807846
 30
0.0
 11
1911.036198468386
 21
879.2830830807866
 31
0.0
  0
LINE
  5
A1
330
1F
100
AcDbEntity
  8
0
  6
Continuous
 62
     7
100
AcDbLine
 10
1909.893312468386
 20
884.2388790807854
 30
0.0
 11
1907.416525468387
 21
880.0341280807847
 31
0.0
  0
LINE
  5
A2
330
1F
100
AcDbEntity
  8
0
  6
Continuous
 62
     7
100
AcDbLine
 10
1907.416525468387
 20
880.0341280807847
 30
0.0
 11
1909.570598468386
 21
878.7652820807875
 31
0.0
  0
LINE
  5
A3
330
1F
100
AcDbEntity
  8
0
  6
Continuous
 62
     7
100
AcDbLine
 10
1909.893312468386
 20
884.2388790807854
 30
0.0
 11
1912.047385468385
 21
882.9700330807846
 31
0.0
  0
LINE
  5
A4
330
1F
100
AcDbEntity
  8
0
  6
Continuous
 62
     7
100
AcDbLine
 10
1912.047385468385
 20
882.9700330807846
 30
0.0
 11
1909.570598468386
 21
878.7652820807875
 31
0.0
  0
LINE
  5
A5
330
1F
100
AcDbEntity
  8
0
  6
Continuous
 62
     7
100
AcDbLine
 10
1898.051157468385
 20
880.1398200807857
 30
0.0
 11
1905.444926468386
 21
877.0772210807845
 31
0.0
  0
LINE
  5
A6
330
1F
100
AcDbEntity
  8
0
  6
DASH_CENTER
 62
     3
100
AcDbLine
 10
1948.413974468385
 20
804.5207900807855
 30
0.0
 11
1955.085407468386
 21
797.8493420807845
 31
0.0
  0
LINE
  5
A7
330
1F
100
AcDbEntity
  8
0
  6
DASH_CENTER
 62
     3
100
AcDbLine
 10
1948.425372468386
 20
864.3473970807845
 30
0.0
 11
1955.235980468385
 21
871.1580050807847
 31
0.0
  0
LINE
  5
A8
330
1F
100
AcDbEntity
  8
0
  6
Continuous
 62
     7
100
AcDbLine
 10
1918.506366468386
 20
794.4283830807858
 30
0.0
 11
1951.706378468387
 21
794.4283680807857
 31
0.0
  0
LINE
  5
A9
330
1F
100
AcDbEntity
  8
0
  6
Continuous
 62
     7
100
AcDbLine
 10
1958.506366468386
 20
801.2283560807846
 30
0.0
 11
1958.506366468386
 21
867.6283650807854
 31
0.0
  0
LINE
  5
AA
330
1F
100
AcDbEntity
  8
0
  6
Continuous
 62
     7
100
AcDbLine
 10
1951.706378468387
 20
874.4283680807857
 30
0.0
 11
1918.506366468386
 21
874.4283830807858
 31
0.0
  0
LINE
  5
AB
330
1F
100
AcDbEntity
  8
0
  6
Continuous
 62
     7
100
AcDbLine
 10
1895.844527468384
 20
875.2756330807856
 30
0.0
 11
1897.889970468386
 21
874.4283830807858
 31
0.0
  0
LINE
  5
AC
330
1F
100
AcDbEntity
  8
0
  6
Continuous
 62
     7
100
AcDbLine
 10
1895.266513468386
 20
874.9584830807858
 30
0.0
 11
1895.073572468384
 21
874.4283830807858
 31
0.0
  0
LINE
  5
AD
330
1F
100
AcDbEntity
  8
0
  6
Continuous
 62
     7
100
AcDbLine
 10
1918.506366468386
 20
874.4283830807858
 30
0.0
 11
1885.006366468386
 21
874.4283830807858
 31
0.0
  0
LINE
  5
AE
330
1F
100
AcDbEntity
  8
1
  6
DASH_CENTER
 62
     3
100
AcDbLine
 10
1951.740375468427
 20
524.3271432476345
 30
0.0
 11
1951.740375468427
 21
469.3271432476345
 31
0.0
  0
LINE
  5
AF
330
1F
100
AcDbEntity
  8
1
  6
Continuous
 62
     7
100
AcDbLine
 10
2602.757503754277
 20
455.0660668695346
 30
0.0
 11
2586.21205772306
 21
466.6513129036334
 31
0.0
  0
LINE
  5
B0
330
1F
100
AcDbEntity
  8
1
  6
Continuous
 62
     7
100
AcDbLine
 10
2613.430393570697
 20
457.3590256756816
 30
0.0
 11
2609.882270724281
 21
459.8434480392334
 31
0.0
  0
LINE
  5
B1
330
1F
100
AcDbEntity
  8
1
  6
Continuous
 62
     7
100
AcDbLine
 10
2608.520252761205
 20
451.0309465740738
 30
0.0
 11
2604.012904028647
 21
454.1870261339445
 31
0.0
  0
LINE
  5
B2
330
1F
100
AcDbEntity
  8
1
  6
Continuous
 62
     7
100
AcDbLine
 10
2608.612658800833
 20
460.7324398786318
 30
0.0
 11
2601.192742677918
 21
465.9279210807836
 31
0.0
  0
LINE
  5
B3
330
1F
100
AcDbEntity
  8
1
  6
Continuous
 62
     7
100
AcDbLine
 10
2588.506363468466
 20
465.9279210807836
 30
0.0
 11
2610.556365468464
 21
465.9279210807836
 31
0.0
  0
LINE
  5
B4
330
1F
100
AcDbEntity
  8
1
  6
Continuous
 62
     7
100
AcDbLine
 10
2588.506363468465
 20
473.9283830807835
 30
0.0
 11
2610.702936998297
 21
473.9283830807835
 31
0.0
  0
LINE
  5
B5
330
1F
100
AcDbEntity
  8
0
  6
Continuous
 62
     7
100
AcDbLine
 10
2599.506365468465
 20
512.3788450807824
 30
0.0
 11
2600.774181468463
 21
512.3788450807824
 31
0.0
  0
LINE
  5
B6
330
1F
100
AcDbEntity
  8
0
  6
Continuous
 62
     7
100
AcDbLine
 10
2599.506365468465
 20
517.9788450807855
 30
0.0
 11
2600.774181468463
 21
517.9788450807855
 31
0.0
  0
LINE
  5
B7
330
1F
100
AcDbEntity
  8
0
  6
Continuous
 62
     7
100
AcDbLine
 10
2610.556365468466
 20
519.1288450807824
 30
0.0
 11
2610.556365468466
 21
529.1288450807824
 31
0.0
  0
LINE
  5
B8
330
1F
100
AcDbEntity
  8
0
  6
Continuous
 62
     7
100
AcDbLine
 10
2610.556365468466
 20
531.6288450807824
 30
0.0
 11
2610.556365468466
 21
532.6288450807824
 31
0.0
  0
LINE
  5
B9
330
1F
100
AcDbEntity
  8
0
  6
Continuous
 62
     7
100
AcDbLine
 10
2608.056365468466
 20
519.1288450807824
 30
0.0
 11
2608.056365468466
 21
529.1288450807824
 31
0.0
  0
LINE
  5
BA
330
1F
100
AcDbEntity
  8
0
  6
Continuous
 62
     7
100
AcDbLine
 10
2608.056365468466
 20
531.6288450807824
 30
0.0
 11
2608.056365468466
 21
532.6288450807824
 31
0.0
  0
LINE
  5
BB
330
1F
100
AcDbEntity
  8
0
  6
Continuous
 62
     7
100
AcDbLine
 10
2610.556365468466
 20
519.1288450807824
 30
0.0
 11
2608.056365468466
 21
519.1288450807824
 31
0.0
  0
LINE
  5
BC
330
1F
100
AcDbEntity
  8
0
  6
Continuous
 62
     7
100
AcDbLine
 10
2610.556365468466
 20
532.6288450807824
 30
0.0
 11
2608.056365468466
 21
532.6288450807824
 31
0.0
  0
LINE
  5
BD
330
1F
100
AcDbEntity
  8
0
  6
Continuous
 62
     7
100
AcDbLine
 10
2611.746365468463
 20
529.1288450807824
 30
0.0
 11
2606.866365468462
 21
529.1288450807824
 31
0.0
  0
LINE
  5
BE
330
1F
100
AcDbEntity
  8
0
  6
Continuous
 62
     7
100
AcDbLine
 10
2606.866365468462
 20
529.1288450807824
 30
0.0
 11
2606.866365468462
 21
531.6288450807824
 31
0.0
  0
LINE
  5
BF
330
1F
100
AcDbEntity
  8
0
  6
Continuous
 62
     7
100
AcDbLine
 10
2611.746365468463
 20
529.1288450807824
 30
0.0
 11
2611.746365468463
 21
531.6288450807824
 31
0.0
  0
LINE
  5
C0
330
1F
100
AcDbEntity
  8
0
  6
Continuous
 62
     7
100
AcDbLine
 10
2611.746365468463
 20
531.6288450807824
 30
0.0
 11
2606.866365468462
 21
531.6288450807824
 31
0.0
  0
LINE
  5
C1
330
1F
100
AcDbEntity
  8
0
  6
Continuous
 62
     7
100
AcDbLine
 10
2598.806365468466
 20
528.9288450807835
 30
0.0
 11
2598.306365468466
 21
528.9288450807835
 31
0.0
  0
LINE
  5
C2
330
1F
100
AcDbEntity
  8
0
  6
Continuous
 62
     7
100
AcDbLine
 10
2599.306365468466
 20
519.7065880807845
 30
0.0
 11
2599.306365468466
 21
528.4288450807835
 31
0.0
  0
LINE
  5
C3
330
1F
100
AcDbEntity
  8
0
  6
Continuous
 62
     7
100
AcDbLine
 10
2599.506365468465
 20
512.1788450807835
 30
0.0
 11
2598.806365468466
 21
512.1788450807835
 31
0.0
  0
LINE
  5
C4
330
1F
100
AcDbEntity
  8
0
  6
Continuous
 62
     7
100
AcDbLine
 10
2599.506365468465
 20
518.1788450807835
 30
0.0
 11
2598.806365468466
 21
518.1788450807835
 31
0.0
  0
LINE
  5
C5
330
1F
100
AcDbEntity
  8
0
  6
Continuous
 62
     7
100
AcDbLine
 10
2599.506365468465
 20
512.1788450807835
 30
0.0
 11
2599.506365468465
 21
518.1788450807835
 31
0.0
  0
LINE
  5
C6
330
1F
100
AcDbEntity
  8
0
  6
Continuous
 62
     7
100
AcDbLine
 10
2608.056365468466
 20
520.4288450807835
 30
0.0
 11
2603.306365468466
 21
520.4288450807835
 31
0.0
  0
LINE
  5
C7
330
1F
100
AcDbEntity
  8
0
  6
Continuous
 62
     7
100
AcDbLine
 10
2608.056365468466
 20
528.4288450807835
 30
0.0
 11
2603.306365468466
 21
528.4288450807835
 31
0.0
  0
LINE
  5
C8
330
1F
100
AcDbEntity
  8
0
  6
Continuous
 62
     7
100
AcDbLine
 10
2601.312344468463
 20
522.3288450807836
 30
0.0
 11
2599.306365468466
 21
522.3288450807836
 31
0.0
  0
LINE
  5
C9
330
1F
100
AcDbEntity
  8
0
  6
Continuous
 62
     7
100
AcDbLine
 10
2603.306365468466
 20
527.5288450807834
 30
0.0
 11
2599.306365468466
 21
527.5288450807834
 31
0.0
  0
LINE
  5
CA
330
1F
100
AcDbEntity
  8
0
  6
Continuous
 62
     7
100
AcDbLine
 10
2603.306365468466
 20
520.4288450807835
 30
0.0
 11
2603.306365468466
 21
528.4288450807835
 31
0.0
  0
LINE
  5
CB
330
1F
100
AcDbEntity
  8
0
  6
Continuous
 62
     7
100
AcDbLine
 10
2603.306365468466
 20
524.9288450807835
 30
0.0
 11
2599.306365468466
 21
524.9288450807835
 31
0.0
  0
LINE
  5
CC
330
1F
100
AcDbEntity
  8
0
  6
Continuous
 62
     7
100
AcDbLine
 10
2598.806365468466
 20
511.9288450807835
 30
0.0
 11
2598.806365468466
 21
518.4288450807835
 31
0.0
  0
LINE
  5
CD
330
1F
100
AcDbEntity
  8
1
  6
Continuous
 62
     7
100
AcDbLine
 10
2598.806365468466
 20
518.4288450807835
 30
0.0
 11
2598.506366468463
 21
518.4288450807835
 31
0.0
  0
LINE
  5
CE
330
1F
100
AcDbEntity
  8
1
  6
Continuous
 62
     7
100
AcDbLine
 10
2598.806365468466
 20
511.9288450807835
 30
0.0
 11
2598.506366468463
 21
511.9288450807835
 31
0.0
  0
LINE
  5
CF
330
1F
100
AcDbEntity
  8
0
  6
Continuous
 62
     7
100
AcDbLine
 10
2598.506366468463
 20
480.9283830807835
 30
0.0
 11
2598.506366468463
 21
518.4288450807835
 31
0.0
  0
LINE
  5
D0
330
1F
100
AcDbEntity
  8
0
  6
Continuous
 62
     7
100
AcDbLine
 10
2519.506366468463
 20
511.9288450807835
 30
0.0
 11
2598.506366468463
 21
511.9288450807835
 31
0.0
  0
LINE
  5
D1
330
1F
100
AcDbEntity
  8
0
  6
DASH_CENTER
 62
     3
100
AcDbLine
 10
2558.506366468463
 20
470.3017710807835
 30
0.0
 11
2558.506366468463
 21
601.9288450807835
 31
0.0
  0
LINE
  5
D2
330
1F
100
AcDbEntity
  8
0
  6
Continuous
 62
     7
100
AcDbLine
 10
2586.740384468464
 20
519.1288450807824
 30
0.0
 11
2596.740384468464
 21
519.1288450807824
 31
0.0
  0
LINE
  5
D3
330
1F
100
AcDbEntity
  8
0
  6
Continuous
 62
     7
100
AcDbLine
 10
2586.740384468464
 20
518.4288450807835
 30
0.0
 11
2586.740384468464
 21
519.1288450807824
 31
0.0
  0
LINE
  5
D4
330
1F
100
AcDbEntity
  8
0
  6
Continuous
 62
     7
100
AcDbLine
 10
2596.740384468464
 20
518.4288450807835
 30
0.0
 11
2596.740384468464
 21
519.1288450807824
 31
0.0
  0
LINE
  5
D5
330
1F
100
AcDbEntity
  8
0
  6
Continuous
 62
     7
100
AcDbLine
 10
2530.272347468464
 20
519.1288450807824
 30
0.0
 11
2520.272347468464
 21
519.1288450807824
 31
0.0
  0
LINE
  5
D6
330
1F
100
AcDbEntity
  8
0
  6
Continuous
 62
     7
100
AcDbLine
 10
2530.272347468464
 20
518.4288450807835
 30
0.0
 11
2530.272347468464
 21
519.1288450807824
 31
0.0
  0
LINE
  5
D7
330
1F
100
AcDbEntity
  8
0
  6
Continuous
 62
     7
100
AcDbLine
 10
2520.272347468464
 20
518.4288450807835
 30
0.0
 11
2520.272347468464
 21
519.1288450807824
 31
0.0
  0
LINE
  5
D8
330
1F
100
AcDbEntity
  8
0
  6
Continuous
 62
     7
100
AcDbLine
 10
2519.206367468463
 20
594.9288450807835
 30
0.0
 11
2597.806365468466
 21
594.9288450807835
 31
0.0
  0
LINE
  5
D9
330
1F
100
AcDbEntity
  8
0
  6
Continuous
 62
     7
100
AcDbLine
 10
2521.206367468463
 20
596.9288450807835
 30
0.0
 11
2519.206367468463
 21
594.9288450807835
 31
0.0
  0
LINE
  5
DA
330
1F
100
AcDbEntity
  8
0
  6
Continuous
 62
     7
100
AcDbLine
 10
2597.806365468466
 20
594.9288450807835
 30
0.0
 11
2595.806365468466
 21
596.9288450807835
 31
0.0
  0
LINE
  5
DB
330
1F
100
AcDbEntity
  8
0
  6
Continuous
 62
     7
100
AcDbLine
 10
2598.306365468466
 20
589.9288450807835
 30
0.0
 11
2518.706367468463
 21
589.9288450807835
 31
0.0
  0
LINE
  5
DC
330
1F
100
AcDbEntity
  8
0
  6
Continuous
 62
     7
100
AcDbLine
 10
2519.206367468463
 20
589.9288450807835
 30
0.0
 11
2519.206367468463
 21
594.9288450807835
 31
0.0
  0
LINE
  5
DD
330
1F
100
AcDbEntity
  8
0
  6
Continuous
 62
     7
100
AcDbLine
 10
2597.806365468466
 20
589.9288450807835
 30
0.0
 11
2597.806365468466
 21
594.9288450807835
 31
0.0
  0
LINE
  5
DE
330
1F
100
AcDbEntity
  8
0
  6
Continuous
 62
     7
100
AcDbLine
 10
2518.706367468463
 20
551.8475668733618
 30
0.0
 11
2518.706367468463
 21
589.9288450807835
 31
0.0
  0
LINE
  5
DF
330
1F
100
AcDbEntity
  8
0
  6
Continuous
 62
     7
100
AcDbLine
 10
2598.306365468466
 20
518.4288450807835
 30
0.0
 11
2598.306365468466
 21
589.9288450807835
 31
0.0
  0
LINE
  5
E0
330
1F
100
AcDbEntity
  8
0
  6
Continuous
 62
     7
100
AcDbLine
 10
2595.806365468466
 20
596.9288450807835
 30
0.0
 11
2521.206367468463
 21
596.9288450807835
 31
0.0
  0
LINE
  5
E1
330
1F
100
AcDbEntity
  8
0
  6
Continuous
 62
     7
100
AcDbLine
 10
2597.506366468463
 20
479.9283830807835
 30
0.0
 11
2584.506366468463
 21
479.9283830807835
 31
0.0
  0
LINE
  5
E2
330
1F
100
AcDbEntity
  8
0
  6
Continuous
 62
     7
100
AcDbLine
 10
2598.506366468463
 20
518.4288450807835
 30
0.0
 11
2519.506366468463
 21
518.4288450807835
 31
0.0
  0
LINE
  5
E3
330
1F
100
AcDbEntity
  8
1
  6
DASH_CENTER
 62
     3
100
AcDbLine
 10
1878.356366468385
 20
834.4283830807858
 30
0.0
 11
1958.656366468385
 21
834.4283830807858
 31
0.0
  0
LINE
  5
E4
330
1F
100
AcDbEntity
  8
1
  6
DASH_CENTER
 62
     3
100
AcDbLine
 10
1918.506366468386
 20
794.2783830807866
 30
0.0
 11
1918.506366468386
 21
874.5783830807868
 31
0.0
  0
LINE
  5
E5
330
1F
100
AcDbEntity
  8
1
  6
Continuous
 62
     3
100
AcDbLine
 10
2279.406366468427
 20
431.9283830807844
 30
0.0
 11
1887.606366468456
 21
431.9283830807844
 31
0.0
  0
LINE
  5
E6
330
1F
100
AcDbEntity
  8
1
  6
Continuous
 62
     3
100
AcDbLine
 10
1887.606366468456
 20
471.9283830807844
 30
0.0
 11
2279.406366468427
 21
471.9283830807844
 31
0.0
  0
LINE
  5
E7
330
1F
100
AcDbEntity
  8
1
  6
Continuous
 62
     3
100
AcDbLine
 10
2279.406366468427
 20
471.9283830807844
 30
0.0
 11
2279.406366468427
 21
431.9283830807844
 31
0.0
  0
LINE
  5
E8
330
1F
100
AcDbEntity
  8
1
  6
Continuous
 62
     3
100
AcDbLine
 10
1887.606366468456
 20
431.9283830807844
 30
0.0
 11
1887.606366468456
 21
471.9283830807844
 31
0.0
  0
LINE
  5
E9
330
1F
100
AcDbEntity
  8
1
  6
Continuous
 62
     3
100
AcDbLine
 10
2549.406366468475
 20
431.9283830807835
 30
0.0
 11
2573.506366468455
 21
431.9283830807835
 31
0.0
  0
LINE
  5
EA
330
1F
100
AcDbEntity
  8
1
  6
Continuous
 62
     3
100
AcDbLine
 10
2512.606366468463
 20
431.9283830807835
 30
0.0
 11
2512.606366468463
 21
471.9283830807835
 31
0.0
  0
LINE
  5
EB
330
1F
100
AcDbEntity
  8
1
  6
Continuous
 62
     3
100
AcDbLine
 10
2513.506366468463
 20
431.9283830807835
 30
0.0
 11
2512.606366468463
 21
431.9283830807835
 31
0.0
  0
LINE
  5
EC
330
1F
100
AcDbEntity
  8
1
  6
Continuous
 62
     3
100
AcDbLine
 10
2574.406366468465
 20
433.9283830807835
 30
0.0
 11
2574.406366468465
 21
431.9283830807835
 31
0.0
  0
LINE
  5
ED
330
1F
100
AcDbEntity
  8
1
  6
Continuous
 62
     3
100
AcDbLine
 10
2573.506366468455
 20
431.9283830807835
 30
0.0
 11
2574.406366468465
 21
431.9283830807835
 31
0.0
  0
LINE
  5
EE
330
1F
100
AcDbEntity
  8
1
  6
Continuous
 62
     3
100
AcDbLine
 10
2513.506366468463
 20
471.9283830807835
 30
0.0
 11
2546.506366468469
 21
471.9283830807835
 31
0.0
  0
LINE
  5
EF
330
1F
100
AcDbEntity
  8
1
  6
PHANTOM
 62
     3
100
AcDbLine
 10
2548.506366468463
 20
471.9283830807835
 30
0.0
 11
2546.506366468469
 21
471.9283830807835
 31
0.0
  0
LINE
  5
F0
330
1F
100
AcDbEntity
  8
1
  6
PHANTOM
 62
     3
100
AcDbLine
 10
2574.406366468465
 20
471.9283830807835
 30
0.0
 11
2574.406366468465
 21
433.9283830807835
 31
0.0
  0
LINE
  5
F1
330
1F
100
AcDbEntity
  8
1
  6
Continuous
 62
     3
100
AcDbLine
 10
2549.406366468475
 20
431.9283830807835
 30
0.0
 11
2548.506366468463
 21
431.9283830807835
 31
0.0
  0
LINE
  5
F2
330
1F
100
AcDbEntity
  8
1
  6
Continuous
 62
     3
100
AcDbLine
 10
2512.606366468463
 20
471.9283830807835
 30
0.0
 11
2513.506366468463
 21
471.9283830807835
 31
0.0
  0
LINE
  5
F3
330
1F
100
AcDbEntity
  8
1
  6
PHANTOM
 62
     3
100
AcDbLine
 10
2549.406366468475
 20
471.9283830807835
 30
0.0
 11
2548.506366468463
 21
471.9283830807835
 31
0.0
  0
LINE
  5
F4
330
1F
100
AcDbEntity
  8
1
  6
PHANTOM
 62
     3
100
AcDbLine
 10
2574.406366468465
 20
471.9283830807835
 30
0.0
 11
2549.406366468475
 21
471.9283830807835
 31
0.0
  0
LINE
  5
F5
330
1F
100
AcDbEntity
  8
1
  6
Continuous
 62
     3
100
AcDbLine
 10
2548.506366468463
 20
431.9283830807835
 30
0.0
 11
2513.506366468463
 21
431.9283830807835
 31
0.0
  0
LINE
  5
F6
330
1F
100
AcDbEntity
  8
1
  6
PHANTOM
 62
     3
100
AcDbLine
 10
1920.693234617792
 20
849.3485703746028
 30
0.0
 11
2262.282039555581
 21
824.3818256688555
 31
0.0
  0
LINE
  5
F7
330
1F
100
AcDbEntity
  8
1
  6
PHANTOM
 62
     3
100
AcDbLine
 10
2261.006366468426
 20
789.4283830807858
 30
0.0
 11
1918.506366468384
 21
789.4283830807858
 31
0.0
  0
LINE
  5
F8
330
1F
100
AcDbEntity
  8
1
  6
Continuous
 62
     7
100
AcDbLine
 10
2058.506366468429
 20
496.9283830807844
 30
0.0
 11
2059.506366468488
 21
496.9283830807835
 31
0.0
  0
LINE
  5
F9
330
1F
100
AcDbEntity
  8
1
  6
Continuous
 62
     7
100
AcDbLine
 10
2128.506366468488
 20
796.9283830807835
 30
0.0
 11
2168.506366468429
 21
796.9283830807835
 31
0.0
  0
LINE
  5
FA
330
1F
100
AcDbEntity
  8
1
  6
Continuous
 62
     7
100
AcDbLine
 10
2166.506366468428
 20
481.9283830807844
 30
0.0
 11
2097.50636646847
 21
481.9283830807835
 31
0.0
  0
LINE
  5
FB
330
1F
100
AcDbEntity
  8
1
  6
Continuous
 62
     7
100
AcDbLine
 10
2276.506366468428
 20
495.7283830807846
 30
0.0
 11
2276.506366468428
 21
471.9283830807835
 31
0.0
  0
LINE
  5
FC
330
1F
100
AcDbEntity
  8
1
  6
Continuous
 62
     7
100
AcDbLine
 10
2168.506366468428
 20
790.9283830807858
 30
0.0
 11
2246.506366468428
 21
790.9283830807858
 31
0.0
  0
LINE
  5
FD
330
1F
100
AcDbEntity
  8
1
  6
Continuous
 62
     7
100
AcDbLine
 10
2261.506366468428
 20
860.4283830807945
 30
0.0
 11
2246.506366468428
 21
860.4283830807945
 31
0.0
  0
LINE
  5
FE
330
1F
100
AcDbEntity
  8
1
  6
Continuous
 62
     7
100
AcDbLine
 10
2170.506366468428
 20
473.9283830807844
 30
0.0
 11
2246.506366468428
 21
473.9283830807844
 31
0.0
  0
LINE
  5
FF
330
1F
100
AcDbEntity
  8
1
  6
Continuous
 62
     7
100
AcDbLine
 10
2275.306366468427
 20
473.9283830807844
 30
0.0
 11
2275.306366468427
 21
471.7614133587645
 31
0.0
  0
LINE
  5
100
330
1F
100
AcDbEntity
  8
1
  6
Continuous
 62
     7
100
AcDbLine
 10
1968.506366468428
 20
479.9283830807844
 30
0.0
 11
1968.506366468428
 21
495.7283830807846
 31
0.0
  0
LINE
  5
101
330
1F
100
AcDbEntity
  8
1
  6
Continuous
 62
     7
100
AcDbLine
 10
1968.506366468428
 20
479.9283830807844
 30
0.0
 11
1968.506366468428
 21
475.9283830807844
 31
0.0
  0
LINE
  5
102
330
1F
100
AcDbEntity
  8
1
  6
Continuous
 62
     7
100
AcDbLine
 10
2246.506366468428
 20
473.9283830807844
 30
0.0
 11
2276.506366468428
 21
473.9283830807844
 31
0.0
  0
LINE
  5
103
330
1F
100
AcDbEntity
  8
1
  6
Continuous
 62
     7
100
AcDbLine
 10
2246.506366468428
 20
790.9283830807858
 30
0.0
 11
2261.506366468428
 21
790.9283830807858
 31
0.0
  0
LINE
  5
104
330
1F
100
AcDbEntity
  8
1
  6
Continuous
 62
     7
100
AcDbLine
 10
2246.506366468428
 20
860.4283830807945
 30
0.0
 11
1968.50636646843
 21
860.4283830807945
 31
0.0
  0
LINE
  5
105
330
1F
100
AcDbEntity
  8
1
  6
Continuous
 62
     7
100
AcDbLine
 10
2276.506366468428
 20
822.4283830807945
 30
0.0
 11
2276.506366468428
 21
845.4283830807945
 31
0.0
  0
LINE
  5
106
330
1F
100
AcDbEntity
  8
1
  6
Continuous
 62
     7
100
AcDbLine
 10
1968.506366468428
 20
815.9037186013056
 30
0.0
 11
1968.506366468428
 21
790.9283830807858
 31
0.0
  0
LINE
  5
107
330
1F
100
AcDbEntity
  8
1
  6
Continuous
 62
     7
100
AcDbLine
 10
2276.506366468428
 20
805.9283830807858
 30
0.0
 11
2276.506366468428
 21
822.4283830807945
 31
0.0
  0
LINE
  5
108
330
1F
100
AcDbEntity
  8
1
  6
Continuous
 62
     7
100
AcDbLine
 10
1968.50636646843
 20
860.4283830807945
 30
0.0
 11
1968.506366468428
 21
825.2642590343148
 31
0.0
  0
LINE
  5
109
330
1F
100
AcDbEntity
  8
1
  6
Continuous
 62
     7
100
AcDbLine
 10
1968.506366468428
 20
825.2642590343148
 30
0.0
 11
1968.506366468428
 21
815.9037186013056
 31
0.0
  0
LINE
  5
10A
330
1F
100
AcDbEntity
  8
1
  6
Continuous
 62
     7
100
AcDbLine
 10
2168.506366468428
 20
496.9283830807844
 30
0.0
 11
2275.306366468427
 21
496.9283830807844
 31
0.0
  0
LINE
  5
10B
330
1F
100
AcDbEntity
  8
1
  6
Continuous
 62
     7
100
AcDbLine
 10
2058.506366468429
 20
483.9283830807844
 30
0.0
 11
2058.506366468418
 21
475.9283830807844
 31
0.0
  0
LINE
  5
10C
330
1F
100
AcDbEntity
  8
1
  6
Continuous
 62
     7
100
AcDbLine
 10
1970.506366468428
 20
473.9283830807844
 30
0.0
 11
2056.506366468418
 21
473.9283830807844
 31
0.0
  0
LINE
  5
10D
330
1F
100
AcDbEntity
  8
1
  6
Continuous
 62
     7
100
AcDbLine
 10
1969.706366468425
 20
496.9283830807844
 30
0.0
 11
2058.506366468429
 21
496.9283830807844
 31
0.0
  0
LINE
  5
10E
330
1F
100
AcDbEntity
  8
1
  6
Continuous
 62
     7
100
AcDbLine
 10
2168.506366468428
 20
483.9283830807844
 30
0.0
 11
2168.506366468428
 21
475.9283830807844
 31
0.0
  0
LINE
  5
10F
330
1F
100
AcDbEntity
  8
1
  6
Continuous
 62
     7
100
AcDbLine
 10
2097.506366468458
 20
496.9283830807817
 30
0.0
 11
2168.506366468428
 21
496.9283830807844
 31
0.0
  0
LINE
  5
110
330
1F
100
AcDbEntity
  8
1
  6
Continuous
 62
     7
100
AcDbLine
 10
2058.506366468429
 20
496.9283830807844
 30
0.0
 11
2058.506366468429
 21
483.9283830807844
 31
0.0
  0
LINE
  5
111
330
1F
100
AcDbEntity
  8
1
  6
Continuous
 62
     7
100
AcDbLine
 10
2168.506366468428
 20
496.9283830807844
 30
0.0
 11
2168.506366468428
 21
483.9283830807844
 31
0.0
  0
LINE
  5
112
330
1F
100
AcDbEntity
  8
1
  6
Continuous
 62
     7
100
AcDbLine
 10
2168.506366468428
 20
796.9283830807858
 30
0.0
 11
2168.506366468428
 21
790.9283830807858
 31
0.0
  0
LINE
  5
113
330
1F
100
AcDbEntity
  8
1
  6
Continuous
 62
     7
100
AcDbLine
 10
2058.506366468429
 20
790.9283830807858
 30
0.0
 11
2058.506366468429
 21
791.4283830807945
 31
0.0
  0
LINE
  5
114
330
1F
100
AcDbEntity
  8
1
  6
Continuous
 62
     7
100
AcDbLine
 10
1968.506366468428
 20
790.9283830807858
 30
0.0
 11
2058.506366468429
 21
790.9283830807858
 31
0.0
  0
LINE
  5
115
330
1F
100
AcDbEntity
  8
1
  6
Continuous
 62
     7
100
AcDbLine
 10
2544.506366468469
 20
473.9283830807835
 30
0.0
 11
2516.206366468466
 21
473.9283830807835
 31
0.0
  0
LINE
  5
116
330
1F
100
AcDbEntity
  8
1
  6
Continuous
 62
     7
100
AcDbLine
 10
2548.506366468469
 20
433.9283830807835
 30
0.0
 11
2583.306366468472
 21
433.9283830807835
 31
0.0
  0
LINE
  5
117
330
1F
100
AcDbEntity
  8
1
  6
Continuous
 62
     7
100
AcDbLine
 10
2584.506366468469
 20
433.9283830807835
 30
0.0
 11
2583.306366468472
 21
433.9283830807835
 31
0.0
  0
LINE
  5
118
330
1F
100
AcDbEntity
  8
1
  6
Continuous
 62
     7
100
AcDbLine
 10
2584.506366468469
 20
495.7283830807837
 30
0.0
 11
2584.506366468469
 21
433.9283830807835
 31
0.0
  0
LINE
  5
119
330
1F
100
AcDbEntity
  8
1
  6
Continuous
 62
     7
100
AcDbLine
 10
2516.206366468466
 20
496.9283830807835
 30
0.0
 11
2583.306366468472
 21
496.9283830807835
 31
0.0
  0
LINE
  5
11A
330
1F
100
AcDbEntity
  8
1
  6
Continuous
 62
     7
100
AcDbLine
 10
2515.006366468463
 20
495.7283830807837
 30
0.0
 11
2515.006366468463
 21
473.9283830807835
 31
0.0
  0
LINE
  5
11B
330
1F
100
AcDbEntity
  8
1
  6
Continuous
 62
     7
100
AcDbLine
 10
2546.506366468469
 20
471.9283830807835
 30
0.0
 11
2546.506366468469
 21
435.9283830807835
 31
0.0
  0
LINE
  5
11C
330
1F
100
AcDbEntity
  8
1
  6
Continuous
 62
     7
100
AcDbLine
 10
2516.206366468466
 20
473.9283830807835
 30
0.0
 11
2515.006366468463
 21
473.9283830807835
 31
0.0
  0
LINE
  5
11D
330
1F
100
AcDbEntity
  8
1
  6
Continuous
 62
     7
100
AcDbLine
 10
2519.506366468465
 20
536.9283830807835
 30
0.0
 11
2519.506366468465
 21
496.9283830807858
 31
0.0
  0
LINE
  5
11E
330
1F
100
AcDbEntity
  8
1
  6
Continuous
 62
     7
100
AcDbLine
 10
2515.506366468465
 20
496.7030625152638
 30
0.0
 11
2515.506366468463
 21
536.9283830807835
 31
0.0
  0
LINE
  5
11F
330
1F
100
AcDbEntity
  8
1
  6
Continuous
 62
     7
100
AcDbLine
 10
2519.506366468465
 20
547.9283830807835
 30
0.0
 11
2519.506366468465
 21
536.9283830807835
 31
0.0
  0
LINE
  5
120
330
1F
100
AcDbEntity
  8
1
  6
Continuous
 62
     7
100
AcDbLine
 10
2515.506366468463
 20
536.9283830807835
 30
0.0
 11
2519.506366468465
 21
536.9283830807835
 31
0.0
  0
LINE
  5
121
330
1F
100
AcDbEntity
  8
1
  6
DASH_CENTER
 62
     3
100
AcDbLine
 10
2535.506366468465
 20
542.6436106036235
 30
0.0
 11
2535.506366468465
 21
556.4785591099735
 31
0.0
  0
LINE
  5
122
330
1F
100
AcDbEntity
  8
1
  6
Continuous
 62
     7
100
AcDbLine
 10
2550.506366468465
 20
551.9283830807835
 30
0.0
 11
2550.506366468465
 21
547.9283830807835
 31
0.0
  0
LINE
  5
123
330
1F
100
AcDbEntity
  8
1
  6
Continuous
 62
     7
100
AcDbLine
 10
2519.506366468465
 20
551.9283830807835
 30
0.0
 11
2550.506366468465
 21
551.9283830807835
 31
0.0
  0
LINE
  5
124
330
1F
100
AcDbEntity
  8
1
  6
Continuous
 62
     7
100
AcDbLine
 10
2515.506366468463
 20
536.9283830807835
 30
0.0
 11
2515.506366468465
 21
547.9283830807835
 31
0.0
  0
LINE
  5
125
330
1F
100
AcDbEntity
  8
1
  6
Continuous
 62
     7
100
AcDbLine
 10
2550.506366468465
 20
547.9283830807835
 30
0.0
 11
2519.506366468465
 21
547.9283830807835
 31
0.0
  0
LINE
  5
126
330
1F
100
AcDbEntity
  8
1
  6
DASH_CENTER
 62
     3
100
AcDbLine
 10
2118.506366468515
 20
816.6783830807945
 30
0.0
 11
2118.506366468515
 21
806.1783830807945
 31
0.0
  0
LINE
  5
127
330
1F
100
AcDbEntity
  8
1
  6
DASH_CENTER
 62
     3
100
AcDbLine
 10
2123.756366468515
 20
811.4283830807945
 30
0.0
 11
2113.256366468515
 21
811.4283830807945
 31
0.0
  0
LINE
  5
128
330
1F
100
AcDbEntity
  8
1
  6
DASH_CENTER
 62
     3
100
AcDbLine
 10
2118.506366468469
 20
816.6783830807945
 30
0.0
 11
2118.506366468469
 21
806.1783830807945
 31
0.0
  0
LINE
  5
129
330
1F
100
AcDbEntity
  8
1
  6
Continuous
 62
     7
100
AcDbLine
 10
2128.506366468486
 20
824.4283830807945
 30
0.0
 11
2128.506366468483
 21
791.4283830807945
 31
0.0
  0
LINE
  5
12A
330
1F
100
AcDbEntity
  8
1
  6
Continuous
 62
     7
100
AcDbLine
 10
2030.506366468486
 20
826.4283830807945
 30
0.0
 11
2126.506366468486
 21
826.4283830807945
 31
0.0
  0
LINE
  5
12B
330
1F
100
AcDbEntity
  8
1
  6
Continuous
 62
     7
100
AcDbLine
 10
2028.506366468486
 20
791.4283830807945
 30
0.0
 11
2028.506366468486
 21
824.4283830807945
 31
0.0
  0
LINE
  5
12C
330
1F
100
AcDbEntity
  8
1
  6
Continuous
 62
     7
100
AcDbLine
 10
2128.506366468483
 20
791.4283830807945
 30
0.0
 11
2028.506366468486
 21
791.4283830807945
 31
0.0
  0
LINE
  5
12D
330
1F
100
AcDbEntity
  8
1
  6
DASH_CENTER
 62
     3
100
AcDbLine
 10
2043.756366468532
 20
811.4283830807945
 30
0.0
 11
2033.256366468532
 21
811.4283830807945
 31
0.0
  0
LINE
  5
12E
330
1F
100
AcDbEntity
  8
1
  6
DASH_CENTER
 62
     3
100
AcDbLine
 10
2038.506366468532
 20
816.6783830807945
 30
0.0
 11
2038.506366468532
 21
806.1783830807945
 31
0.0
  0
LINE
  5
12F
330
1F
100
AcDbEntity
  8
1
  6
DASH_CENTER
 62
     3
100
AcDbLine
 10
2038.506366468486
 20
554.7485656379045
 30
0.0
 11
2038.506366468485
 21
544.7485656379045
 31
0.0
  0
LINE
  5
130
330
1F
100
AcDbEntity
  8
1
  6
Continuous
 62
     7
100
AcDbLine
 10
2059.506366468486
 20
496.9283830807835
 30
0.0
 11
2059.506366468486
 21
534.9283830807835
 31
0.0
  0
LINE
  5
131
330
1F
100
AcDbEntity
  8
1
  6
Continuous
 62
     7
100
AcDbLine
 10
2097.506366468486
 20
496.9283830807835
 30
0.0
 11
2097.506366468485
 21
473.9283830807844
 31
0.0
  0
LINE
  5
132
330
1F
100
AcDbEntity
  8
1
  6
Continuous
 62
     7
100
AcDbLine
 10
2059.506366468486
 20
476.9283830807835
 30
0.0
 11
2097.506366468486
 21
476.9283830807835
 31
0.0
  0
LINE
  5
133
330
1F
100
AcDbEntity
  8
1
  6
Continuous
 62
     7
100
AcDbLine
 10
2028.506366468486
 20
551.9283830807835
 30
0.0
 11
2128.506366468486
 21
551.9283830807835
 31
0.0
  0
LINE
  5
134
330
1F
100
AcDbEntity
  8
1
  6
DASH_CENTER
 62
     3
100
AcDbLine
 10
2118.506366468486
 20
554.7485656379045
 30
0.0
 11
2118.506366468486
 21
544.7485656379045
 31
0.0
  0
LINE
  5
135
330
1F
100
AcDbEntity
  8
1
  6
Continuous
 62
     7
100
AcDbLine
 10
2099.506366468486
 20
536.9283830807835
 30
0.0
 11
2126.506366468486
 21
536.9283830807835
 31
0.0
  0
LINE
  5
136
330
1F
100
AcDbEntity
  8
1
  6
Continuous
 62
     7
100
AcDbLine
 10
2097.506366468486
 20
534.9283830807835
 30
0.0
 11
2097.506366468486
 21
496.9283830807835
 31
0.0
  0
LINE
  5
137
330
1F
100
AcDbEntity
  8
1
  6
Continuous
 62
     7
100
AcDbLine
 10
2128.506366468486
 20
538.9283830807835
 30
0.0
 11
2128.506366468486
 21
551.9283830807835
 31
0.0
  0
LINE
  5
138
330
1F
100
AcDbEntity
  8
1
  6
Continuous
 62
     7
100
AcDbLine
 10
2057.506366468486
 20
536.9283830807835
 30
0.0
 11
2030.506366468486
 21
536.9283830807835
 31
0.0
  0
LINE
  5
139
330
1F
100
AcDbEntity
  8
1
  6
Continuous
 62
     7
100
AcDbLine
 10
2028.506366468486
 20
538.9283830807835
 30
0.0
 11
2028.506366468486
 21
551.9283830807835
 31
0.0
  0
LINE
  5
13A
330
1F
100
AcDbEntity
  8
1
  6
Continuous
 62
     7
100
AcDbLine
 10
2059.506366468485
 20
473.9283830807844
 30
0.0
 11
2059.506366468486
 21
496.9283830807835
 31
0.0
  0
LINE
  5
13B
330
1F
100
AcDbEntity
  8
1
  6
DASH_CENTER
 62
     3
100
AcDbLine
 10
2048.006366468419
 20
818.5001798505145
 30
0.0
 11
2048.006366468429
 21
832.3565863110675
 31
0.0
  0
LINE
  5
13C
330
1F
100
AcDbEntity
  8
1
  6
DASH_CENTER
 62
     3
100
AcDbLine
 10
2041.078163238148
 20
825.4283830807945
 30
0.0
 11
2054.9345696987
 21
825.4283830807858
 31
0.0
  0
LINE
  5
13D
330
1F
100
AcDbEntity
  8
1
  6
DASH_CENTER
 62
     3
100
AcDbLine
 10
2048.006366468429
 20
490.0283830807948
 30
0.0
 11
2048.006366468429
 21
504.0283830807948
 31
0.0
  0
LINE
  5
13E
330
1F
100
AcDbEntity
  8
1
  6
Continuous
 62
     7
100
AcDbLine
 10
2043.676239449508
 20
504.0283830807948
 30
0.0
 11
2052.336493487349
 21
504.0283830807948
 31
0.0
  0
LINE
  5
13F
330
1F
100
AcDbEntity
  8
1
  6
Continuous
 62
     7
100
AcDbLine
 10
2045.119615122478
 20
500.0283830807948
 30
0.0
 11
2045.119615122478
 21
503.5818010934045
 31
0.0
  0
LINE
  5
140
330
1F
100
AcDbEntity
  8
1
  6
Continuous
 62
     7
100
AcDbLine
 10
2050.893117814378
 20
500.0283830807948
 30
0.0
 11
2050.893117814378
 21
503.5818010934045
 31
0.0
  0
LINE
  5
141
330
1F
100
AcDbEntity
  8
1
  6
Continuous
 62
     7
100
AcDbLine
 10
2042.232863776528
 20
500.0283830807948
 30
0.0
 11
2042.232863776528
 21
503.5818010934045
 31
0.0
  0
LINE
  5
142
330
1F
100
AcDbEntity
  8
1
  6
Continuous
 62
     7
100
AcDbLine
 10
2053.779869160328
 20
503.5818010934045
 30
0.0
 11
2053.779869160328
 21
500.0283830807948
 31
0.0
  0
LINE
  5
143
330
1F
100
AcDbEntity
  8
1
  6
Continuous
 62
     7
100
AcDbLine
 10
2054.106366468429
 20
500.0283830807948
 30
0.0
 11
2054.106366468429
 21
498.5283830807948
 31
0.0
  0
LINE
  5
144
330
1F
100
AcDbEntity
  8
1
  6
Continuous
 62
     7
100
AcDbLine
 10
2041.906366468428
 20
500.0283830807948
 30
0.0
 11
2054.106366468429
 21
500.0283830807948
 31
0.0
  0
LINE
  5
145
330
1F
100
AcDbEntity
  8
1
  6
Continuous
 62
     7
100
AcDbLine
 10
2041.906366468428
 20
498.5283830807948
 30
0.0
 11
2041.906366468428
 21
500.0283830807948
 31
0.0
  0
LINE
  5
146
330
1F
100
AcDbEntity
  8
1
  6
Continuous
 62
     7
100
AcDbLine
 10
2054.256366468429
 20
498.5283830807948
 30
0.0
 11
2054.256366468429
 21
496.9283830807844
 31
0.0
  0
LINE
  5
147
330
1F
100
AcDbEntity
  8
1
  6
Continuous
 62
     7
100
AcDbLine
 10
2041.756366468428
 20
498.5283830807948
 30
0.0
 11
2054.256366468429
 21
498.5283830807948
 31
0.0
  0
LINE
  5
148
330
1F
100
AcDbEntity
  8
1
  6
Continuous
 62
     7
100
AcDbLine
 10
2041.756366468428
 20
496.9283830807844
 30
0.0
 11
2041.756366468428
 21
498.5283830807948
 31
0.0
  0
LINE
  5
149
330
1F
100
AcDbEntity
  8
1
  6
Continuous
 62
     7
100
AcDbLine
 10
2054.256366468429
 20
496.9283830807844
 30
0.0
 11
2041.756366468428
 21
496.9283830807844
 31
0.0
  0
LINE
  5
14A
330
1F
100
AcDbEntity
  8
1
  6
Continuous
 62
     7
100
AcDbLine
 10
2191.256366468439
 20
496.9283830807844
 30
0.0
 11
2178.756366468439
 21
496.9283830807844
 31
0.0
  0
LINE
  5
14B
330
1F
100
AcDbEntity
  8
1
  6
Continuous
 62
     7
100
AcDbLine
 10
2178.756366468439
 20
496.9283830807844
 30
0.0
 11
2178.756366468439
 21
498.5283830807948
 31
0.0
  0
LINE
  5
14C
330
1F
100
AcDbEntity
  8
1
  6
Continuous
 62
     7
100
AcDbLine
 10
2178.756366468439
 20
498.5283830807948
 30
0.0
 11
2191.256366468439
 21
498.5283830807948
 31
0.0
  0
LINE
  5
14D
330
1F
100
AcDbEntity
  8
1
  6
Continuous
 62
     7
100
AcDbLine
 10
2191.256366468439
 20
498.5283830807948
 30
0.0
 11
2191.256366468439
 21
496.9283830807844
 31
0.0
  0
LINE
  5
14E
330
1F
100
AcDbEntity
  8
1
  6
Continuous
 62
     7
100
AcDbLine
 10
2178.906366468438
 20
498.5283830807948
 30
0.0
 11
2178.906366468438
 21
500.0283830807948
 31
0.0
  0
LINE
  5
14F
330
1F
100
AcDbEntity
  8
1
  6
Continuous
 62
     7
100
AcDbLine
 10
2178.906366468438
 20
500.0283830807948
 30
0.0
 11
2191.106366468439
 21
500.0283830807948
 31
0.0
  0
LINE
  5
150
330
1F
100
AcDbEntity
  8
1
  6
Continuous
 62
     7
100
AcDbLine
 10
2191.106366468439
 20
500.0283830807948
 30
0.0
 11
2191.106366468439
 21
498.5283830807948
 31
0.0
  0
LINE
  5
151
330
1F
100
AcDbEntity
  8
1
  6
Continuous
 62
     7
100
AcDbLine
 10
2190.779869160338
 20
503.5818010934045
 30
0.0
 11
2190.779869160338
 21
500.0283830807948
 31
0.0
  0
LINE
  5
152
330
1F
100
AcDbEntity
  8
1
  6
Continuous
 62
     7
100
AcDbLine
 10
2179.23286377655
 20
500.0283830807948
 30
0.0
 11
2179.23286377655
 21
503.5818010934045
 31
0.0
  0
LINE
  5
153
330
1F
100
AcDbEntity
  8
1
  6
Continuous
 62
     7
100
AcDbLine
 10
2187.893117814388
 20
500.0283830807948
 30
0.0
 11
2187.893117814388
 21
503.5818010934045
 31
0.0
  0
LINE
  5
154
330
1F
100
AcDbEntity
  8
1
  6
Continuous
 62
     7
100
AcDbLine
 10
2182.119615122489
 20
500.0283830807948
 30
0.0
 11
2182.119615122489
 21
503.5818010934045
 31
0.0
  0
LINE
  5
155
330
1F
100
AcDbEntity
  8
1
  6
Continuous
 62
     7
100
AcDbLine
 10
2180.67623944952
 20
504.0283830807948
 30
0.0
 11
2189.336493487359
 21
504.0283830807948
 31
0.0
  0
LINE
  5
156
330
1F
100
AcDbEntity
  8
1
  6
DASH_CENTER
 62
     3
100
AcDbLine
 10
2185.006366468439
 20
490.0283830807948
 30
0.0
 11
2185.006366468439
 21
504.0283830807948
 31
0.0
  0
LINE
  5
157
330
1F
100
AcDbEntity
  8
1
  6
DASH_CENTER
 62
     3
100
AcDbLine
 10
2178.07816323817
 20
825.4283830807945
 30
0.0
 11
2191.934569698718
 21
825.4283830807858
 31
0.0
  0
LINE
  5
158
330
1F
100
AcDbEntity
  8
1
  6
DASH_CENTER
 62
     3
100
AcDbLine
 10
2185.006366468439
 20
818.5001798505145
 30
0.0
 11
2185.006366468449
 21
832.3565863110675
 31
0.0
  0
LINE
  5
159
330
1F
100
AcDbEntity
  8
1
  6
DASH_CENTER
 62
     3
100
AcDbLine
 10
2549.506366468463
 20
504.0283830807834
 30
0.0
 11
2549.506366468463
 21
490.0283830807834
 31
0.0
  0
LINE
  5
15A
330
1F
100
AcDbEntity
  8
1
  6
Continuous
 62
     7
100
AcDbLine
 10
2545.176239449544
 20
504.0283830807834
 30
0.0
 11
2553.836493487383
 21
504.0283830807834
 31
0.0
  0
LINE
  5
15B
330
1F
100
AcDbEntity
  8
1
  6
Continuous
 62
     7
100
AcDbLine
 10
2552.393117814414
 20
503.5818010933936
 30
0.0
 11
2552.393117814414
 21
500.0283830807834
 31
0.0
  0
LINE
  5
15C
330
1F
100
AcDbEntity
  8
1
  6
Continuous
 62
     7
100
AcDbLine
 10
2546.619615122512
 20
503.5818010933936
 30
0.0
 11
2546.619615122512
 21
500.0283830807834
 31
0.0
  0
LINE
  5
15D
330
1F
100
AcDbEntity
  8
1
  6
Continuous
 62
     7
100
AcDbLine
 10
2555.279869160352
 20
503.5818010933936
 30
0.0
 11
2555.279869160352
 21
500.0283830807834
 31
0.0
  0
LINE
  5
15E
330
1F
100
AcDbEntity
  8
1
  6
Continuous
 62
     7
100
AcDbLine
 10
2543.732863776562
 20
500.0283830807834
 30
0.0
 11
2543.732863776562
 21
503.5818010933936
 31
0.0
  0
LINE
  5
15F
330
1F
100
AcDbEntity
  8
1
  6
Continuous
 62
     7
100
AcDbLine
 10
2543.406366468465
 20
498.5283830807834
 30
0.0
 11
2543.406366468465
 21
500.0283830807834
 31
0.0
  0
LINE
  5
160
330
1F
100
AcDbEntity
  8
1
  6
Continuous
 62
     7
100
AcDbLine
 10
2543.406366468465
 20
500.0283830807834
 30
0.0
 11
2555.606366468463
 21
500.0283830807834
 31
0.0
  0
LINE
  5
161
330
1F
100
AcDbEntity
  8
1
  6
Continuous
 62
     7
100
AcDbLine
 10
2555.606366468463
 20
500.0283830807834
 30
0.0
 11
2555.606366468463
 21
498.5283830807834
 31
0.0
  0
LINE
  5
162
330
1F
100
AcDbEntity
  8
1
  6
Continuous
 62
     7
100
AcDbLine
 10
2543.256366468463
 20
496.9283830807835
 30
0.0
 11
2543.256366468463
 21
498.5283830807834
 31
0.0
  0
LINE
  5
163
330
1F
100
AcDbEntity
  8
1
  6
Continuous
 62
     7
100
AcDbLine
 10
2543.256366468463
 20
498.5283830807834
 30
0.0
 11
2555.756366468463
 21
498.5283830807834
 31
0.0
  0
LINE
  5
164
330
1F
100
AcDbEntity
  8
1
  6
Continuous
 62
     7
100
AcDbLine
 10
2555.756366468463
 20
498.5283830807834
 30
0.0
 11
2555.756366468463
 21
496.9283830807835
 31
0.0
  0
LINE
  5
165
330
1F
100
AcDbEntity
  8
1
  6
Continuous
 62
     7
100
AcDbLine
 10
2555.756366468463
 20
496.9283830807835
 30
0.0
 11
2543.256366468463
 21
496.9283830807835
 31
0.0
  0
LINE
  5
166
330
1F
100
AcDbEntity
  8
1
  6
DASH_CENTER
 62
     3
100
AcDbLine
 10
2261.006366468426
 20
500.7283830807837
 30
0.0
 11
2261.006366468426
 21
471.9283830807844
 31
0.0
  0
LINE
  5
167
330
1F
100
AcDbEntity
  8
1
  6
DASH_CENTER
 62
     3
100
AcDbLine
 10
2261.006366468426
 20
428.0880351427427
 30
0.0
 11
2261.006366468426
 21
431.9283830807844
 31
0.0
  0
LINE
  5
168
330
1F
100
AcDbEntity
  8
1
  6
DASHED
 62
     4
100
AcDbLine
 10
2243.506366468426
 20
452.2870059441648
 30
0.0
 11
2278.506366468426
 21
452.2870059441648
 31
0.0
  0
LINE
  5
169
330
1F
100
AcDbEntity
  8
1
  6
DASHED
 62
     4
100
AcDbLine
 10
2275.506366468426
 20
455.0411838689247
 30
0.0
 11
2246.506366468426
 21
455.0411838689247
 31
0.0
  0
LINE
  5
16A
330
1F
100
AcDbEntity
  8
1
  6
DASHED
 62
     4
100
AcDbLine
 10
2246.506366468426
 20
456.8155822926547
 30
0.0
 11
2275.506366468426
 21
456.8155822926547
 31
0.0
  0
LINE
  5
16B
330
1F
100
AcDbEntity
  8
1
  6
DASHED
 62
     4
100
AcDbLine
 10
2278.506366468426
 20
459.5697602174037
 30
0.0
 11
2243.506366468426
 21
459.5697602174037
 31
0.0
  0
LINE
  5
16C
330
1F
100
AcDbEntity
  8
1
  6
DASHED
 62
     4
100
AcDbLine
 10
2278.506366468426
 20
469.9283830807844
 30
0.0
 11
2243.506366468426
 21
469.9283830807844
 31
0.0
  0
LINE
  5
16D
330
1F
100
AcDbEntity
  8
1
  6
DASHED
 62
     4
100
AcDbLine
 10
2243.506366468426
 20
433.9283830807844
 30
0.0
 11
2278.506366468426
 21
433.9283830807844
 31
0.0
  0
LINE
  5
16E
330
1F
100
AcDbEntity
  8
1
  6
DASHED
 62
     4
100
AcDbLine
 10
2273.006366468426
 20
431.9283830807844
 30
0.0
 11
2249.006366468426
 21
431.9283830807844
 31
0.0
  0
LINE
  5
16F
330
1F
100
AcDbEntity
  8
1
  6
DASH_CENTER
 62
     3
100
AcDbLine
 10
2261.006366468426
 20
431.9283830807844
 30
0.0
 11
2261.006366468426
 21
471.9283830807844
 31
0.0
  0
LINE
  5
170
330
1F
100
AcDbEntity
  8
1
  6
DASHED
 62
     4
100
AcDbLine
 10
2272.006366468426
 20
471.9283830807844
 30
0.0
 11
2250.006366468426
 21
471.9283830807844
 31
0.0
  0
LINE
  5
171
330
1F
100
AcDbEntity
  8
1
  6
DASHED
 62
     4
100
AcDbLine
 10
2276.506366468426
 20
431.9283830807844
 30
0.0
 11
2273.006366468426
 21
431.9283830807844
 31
0.0
  0
LINE
  5
172
330
1F
100
AcDbEntity
  8
1
  6
DASHED
 62
     4
100
AcDbLine
 10
2278.506366468426
 20
469.9283830807844
 30
0.0
 11
2278.506366468426
 21
459.5697602174037
 31
0.0
  0
LINE
  5
173
330
1F
100
AcDbEntity
  8
1
  6
DASHED
 62
     4
100
AcDbLine
 10
2277.960356968163
 20
458.6787536932156
 30
0.0
 11
2276.052375968686
 21
457.7065888168345
 31
0.0
  0
LINE
  5
174
330
1F
100
AcDbEntity
  8
1
  6
DASHED
 62
     4
100
AcDbLine
 10
2277.960356968163
 20
453.1780124683555
 30
0.0
 11
2276.052375968686
 21
454.1501773447344
 31
0.0
  0
LINE
  5
175
330
1F
100
AcDbEntity
  8
1
  6
DASHED
 62
     4
100
AcDbLine
 10
2275.506366468426
 20
455.0411838689347
 30
0.0
 11
2275.506366468426
 21
456.8155822926547
 31
0.0
  0
LINE
  5
176
330
1F
100
AcDbEntity
  8
1
  6
DASHED
 62
     4
100
AcDbLine
 10
2272.006366468426
 20
471.9283830807844
 30
0.0
 11
2276.506366468426
 21
471.9283830807844
 31
0.0
  0
LINE
  5
177
330
1F
100
AcDbEntity
  8
1
  6
DASHED
 62
     4
100
AcDbLine
 10
2278.506366468426
 20
452.2870059441757
 30
0.0
 11
2278.506366468426
 21
433.9283830807844
 31
0.0
  0
LINE
  5
178
330
1F
100
AcDbEntity
  8
1
  6
DASHED
 62
     4
100
AcDbLine
 10
2243.506366468426
 20
433.9283830807844
 30
0.0
 11
2243.506366468426
 21
452.2870059441757
 31
0.0
  0
LINE
  5
179
330
1F
100
AcDbEntity
  8
1
  6
DASHED
 62
     4
100
AcDbLine
 10
2245.506366468426
 20
471.9283830807844
 30
0.0
 11
2250.006366468426
 21
471.9283830807844
 31
0.0
  0
LINE
  5
17A
330
1F
100
AcDbEntity
  8
1
  6
DASHED
 62
     4
100
AcDbLine
 10
2246.506366468426
 20
456.8155822926547
 30
0.0
 11
2246.506366468426
 21
455.0411838689347
 31
0.0
  0
LINE
  5
17B
330
1F
100
AcDbEntity
  8
1
  6
DASHED
 62
     4
100
AcDbLine
 10
2245.960356968163
 20
454.1501773447344
 30
0.0
 11
2244.052375968686
 21
453.1780124683555
 31
0.0
  0
LINE
  5
17C
330
1F
100
AcDbEntity
  8
1
  6
DASHED
 62
     4
100
AcDbLine
 10
2245.960356968163
 20
457.7065888168345
 30
0.0
 11
2244.052375968686
 21
458.6787536932156
 31
0.0
  0
LINE
  5
17D
330
1F
100
AcDbEntity
  8
1
  6
DASHED
 62
     4
100
AcDbLine
 10
2243.506366468426
 20
459.5697602174037
 30
0.0
 11
2243.506366468426
 21
469.9283830807844
 31
0.0
  0
LINE
  5
17E
330
1F
100
AcDbEntity
  8
1
  6
DASHED
 62
     4
100
AcDbLine
 10
2249.006366468426
 20
431.9283830807844
 30
0.0
 11
2245.506366468426
 21
431.9283830807844
 31
0.0
  0
LINE
  5
17F
330
1F
100
AcDbEntity
  8
1
  6
PHANTOM
 62
     4
100
AcDbLine
 10
2278.506366468426
 20
455.9283830807844
 30
0.0
 11
2243.506366468426
 21
455.9283830807844
 31
0.0
  0
LINE
  5
180
330
1F
100
AcDbEntity
  8
1
  6
DASHED
 62
     4
100
AcDbLine
 10
2513.506366468462
 20
452.2870059441525
 30
0.0
 11
2548.506366468462
 21
452.2870059441525
 31
0.0
  0
LINE
  5
181
330
1F
100
AcDbEntity
  8
1
  6
DASHED
 62
     4
100
AcDbLine
 10
2545.506366468462
 20
455.0411838689138
 30
0.0
 11
2516.506366468462
 21
455.0411838689138
 31
0.0
  0
LINE
  5
182
330
1F
100
AcDbEntity
  8
1
  6
DASHED
 62
     4
100
AcDbLine
 10
2516.506366468462
 20
456.8155822926428
 30
0.0
 11
2545.506366468462
 21
456.8155822926428
 31
0.0
  0
LINE
  5
183
330
1F
100
AcDbEntity
  8
1
  6
DASHED
 62
     4
100
AcDbLine
 10
2548.506366468462
 20
459.5697602174037
 30
0.0
 11
2513.506366468462
 21
459.5697602174037
 31
0.0
  0
LINE
  5
184
330
1F
100
AcDbEntity
  8
1
  6
DASHED
 62
     4
100
AcDbLine
 10
2548.506366468462
 20
469.9283830807835
 30
0.0
 11
2513.506366468462
 21
469.9283830807835
 31
0.0
  0
LINE
  5
185
330
1F
100
AcDbEntity
  8
1
  6
DASHED
 62
     4
100
AcDbLine
 10
2513.506366468462
 20
433.9283830807835
 30
0.0
 11
2548.506366468462
 21
433.9283830807835
 31
0.0
  0
LINE
  5
186
330
1F
100
AcDbEntity
  8
1
  6
DASHED
 62
     4
100
AcDbLine
 10
2543.006366468462
 20
431.9283830807835
 30
0.0
 11
2519.006366468462
 21
431.9283830807835
 31
0.0
  0
LINE
  5
187
330
1F
100
AcDbEntity
  8
1
  6
DASH_CENTER
 62
     3
100
AcDbLine
 10
2531.006366468462
 20
471.9283830807835
 30
0.0
 11
2531.006366468462
 21
431.9283830807835
 31
0.0
  0
LINE
  5
188
330
1F
100
AcDbEntity
  8
1
  6
DASHED
 62
     4
100
AcDbLine
 10
2542.006366468462
 20
471.9283830807835
 30
0.0
 11
2520.006366468462
 21
471.9283830807835
 31
0.0
  0
LINE
  5
189
330
1F
100
AcDbEntity
  8
1
  6
DASHED
 62
     4
100
AcDbLine
 10
2519.006366468462
 20
431.9283830807835
 30
0.0
 11
2515.506366468462
 21
431.9283830807835
 31
0.0
  0
LINE
  5
18A
330
1F
100
AcDbEntity
  8
1
  6
DASHED
 62
     4
100
AcDbLine
 10
2513.506366468462
 20
459.5697602174037
 30
0.0
 11
2513.506366468462
 21
469.9283830807835
 31
0.0
  0
LINE
  5
18B
330
1F
100
AcDbEntity
  8
1
  6
DASHED
 62
     4
100
AcDbLine
 10
2515.960356968202
 20
457.7065888168336
 30
0.0
 11
2514.052375968723
 21
458.6787536932125
 31
0.0
  0
LINE
  5
18C
330
1F
100
AcDbEntity
  8
1
  6
DASHED
 62
     4
100
AcDbLine
 10
2515.960356968202
 20
454.1501773447335
 30
0.0
 11
2514.052375968723
 21
453.1780124683528
 31
0.0
  0
LINE
  5
18D
330
1F
100
AcDbEntity
  8
1
  6
DASHED
 62
     4
100
AcDbLine
 10
2516.506366468462
 20
456.8155822926428
 30
0.0
 11
2516.506366468462
 21
455.0411838689224
 31
0.0
  0
LINE
  5
18E
330
1F
100
AcDbEntity
  8
1
  6
DASHED
 62
     4
100
AcDbLine
 10
2515.506366468462
 20
471.9283830807835
 30
0.0
 11
2520.006366468462
 21
471.9283830807835
 31
0.0
  0
LINE
  5
18F
330
1F
100
AcDbEntity
  8
1
  6
DASHED
 62
     4
100
AcDbLine
 10
2513.506366468462
 20
433.9283830807835
 30
0.0
 11
2513.506366468462
 21
452.2870059441634
 31
0.0
  0
LINE
  5
190
330
1F
100
AcDbEntity
  8
1
  6
DASHED
 62
     4
100
AcDbLine
 10
2548.506366468462
 20
452.2870059441634
 30
0.0
 11
2548.506366468462
 21
433.9283830807835
 31
0.0
  0
LINE
  5
191
330
1F
100
AcDbEntity
  8
1
  6
DASHED
 62
     4
100
AcDbLine
 10
2542.006366468462
 20
471.9283830807835
 30
0.0
 11
2546.506366468462
 21
471.9283830807835
 31
0.0
  0
LINE
  5
192
330
1F
100
AcDbEntity
  8
1
  6
DASHED
 62
     4
100
AcDbLine
 10
2545.506366468462
 20
455.0411838689224
 30
0.0
 11
2545.506366468462
 21
456.8155822926428
 31
0.0
  0
LINE
  5
193
330
1F
100
AcDbEntity
  8
1
  6
DASHED
 62
     4
100
AcDbLine
 10
2547.960356968202
 20
453.1780124683528
 30
0.0
 11
2546.052375968723
 21
454.1501773447335
 31
0.0
  0
LINE
  5
194
330
1F
100
AcDbEntity
  8
1
  6
DASHED
 62
     4
100
AcDbLine
 10
2547.960356968202
 20
458.6787536932125
 30
0.0
 11
2546.052375968723
 21
457.7065888168336
 31
0.0
  0
LINE
  5
195
330
1F
100
AcDbEntity
  8
1
  6
DASHED
 62
     4
100
AcDbLine
 10
2548.506366468462
 20
469.9283830807835
 30
0.0
 11
2548.506366468462
 21
459.5697602174037
 31
0.0
  0
LINE
  5
196
330
1F
100
AcDbEntity
  8
1
  6
DASHED
 62
     4
100
AcDbLine
 10
2546.506366468462
 20
431.9283830807835
 30
0.0
 11
2543.006366468462
 21
431.9283830807835
 31
0.0
  0
LINE
  5
197
330
1F
100
AcDbEntity
  8
1
  6
PHANTOM
 62
     4
100
AcDbLine
 10
2548.506366468462
 20
455.9283830807835
 30
0.0
 11
2513.506366468462
 21
455.9283830807835
 31
0.0
  0
LINE
  5
198
330
1F
100
AcDbEntity
  8
1
  6
DASH_CENTER
 62
     3
100
AcDbLine
 10
2531.006366468462
 20
500.7283830807837
 30
0.0
 11
2531.006366468462
 21
471.9283830807835
 31
0.0
  0
LINE
  5
199
330
1F
100
AcDbEntity
  8
1
  6
DASH_CENTER
 62
     3
100
AcDbLine
 10
2531.006366468462
 20
428.0880351427427
 30
0.0
 11
2531.006366468462
 21
431.9283830807835
 31
0.0
  0
LINE
  5
19A
330
1F
100
AcDbEntity
  8
1
  6
DASH_CENTER
 62
     3
100
AcDbLine
 10
2241.756366468428
 20
806.9283830807945
 30
0.0
 11
2280.256366468428
 21
806.9283830807945
 31
0.0
  0
LINE
  5
19B
330
1F
100
AcDbEntity
  8
1
  6
DASH_CENTER
 62
     3
100
AcDbLine
 10
2261.006366468428
 20
826.1783830807945
 30
0.0
 11
2261.006366468428
 21
787.6783830807945
 31
0.0
  0
LINE
  5
19C
330
1F
100
AcDbEntity
  8
1
  6
Continuous
 62
     4
100
AcDbLine
 10
2041.032695167429
 20
451.1231830807865
 30
0.0
 11
2078.506366468426
 21
462.3652844710846
 31
0.0
  0
LINE
  5
19D
330
1F
100
AcDbEntity
  8
1
  6
Continuous
 62
     4
100
AcDbLine
 10
2078.506366468426
 20
462.3652844710846
 30
0.0
 11
2078.506366468426
 21
455.6200236369068
 31
0.0
  0
LINE
  5
19E
330
1F
100
AcDbEntity
  8
1
  6
Continuous
 62
     4
100
AcDbLine
 10
2078.506366468426
 20
455.6200236369068
 30
0.0
 11
2103.48881400242
 21
455.6200236369068
 31
0.0
  0
LINE
  5
19F
330
1F
100
AcDbEntity
  8
1
  6
Continuous
 62
     4
100
AcDbLine
 10
2103.48881400242
 20
455.6200236369068
 30
0.0
 11
2103.48881400242
 21
446.6263425246675
 31
0.0
  0
LINE
  5
1A0
330
1F
100
AcDbEntity
  8
1
  6
Continuous
 62
     4
100
AcDbLine
 10
2103.48881400242
 20
446.6263425246675
 30
0.0
 11
2078.506366468426
 21
446.6263425246675
 31
0.0
  0
LINE
  5
1A1
330
1F
100
AcDbEntity
  8
1
  6
Continuous
 62
     4
100
AcDbLine
 10
2078.506366468426
 20
446.6263425246675
 30
0.0
 11
2078.506366468426
 21
439.8810816904875
 31
0.0
  0
LINE
  5
1A2
330
1F
100
AcDbEntity
  8
1
  6
Continuous
 62
     4
100
AcDbLine
 10
2078.506366468426
 20
439.8810816904875
 30
0.0
 11
2041.032695167429
 21
451.1231830807865
 31
0.0
  0
LINE
  5
1A3
330
1F
100
AcDbEntity
  8
1
  6
Continuous
 62
     7
100
AcDbLine
 10
1878.506366468427
 20
868.4283800807848
 30
0.0
 11
1878.506366468427
 21
800.4283830807858
 31
0.0
  0
LINE
  5
1A4
330
1F
100
AcDbEntity
  8
1
  6
Continuous
 62
     7
100
AcDbLine
 10
1958.506366468417
 20
473.9283830807844
 30
0.0
 11
1958.506366468417
 21
471.9283830807835
 31
0.0
  0
LINE
  5
1A5
330
1F
100
AcDbEntity
  8
1
  6
Continuous
 62
     7
100
AcDbLine
 10
1883.506366468418
 20
433.9283830807844
 30
0.0
 11
1887.606366468456
 21
433.9283830807844
 31
0.0
  0
LINE
  5
1A6
330
1F
100
AcDbEntity
  8
1
  6
Continuous
 62
     7
100
AcDbLine
 10
1968.106366468419
 20
479.9283830807844
 30
0.0
 11
1968.506366468428
 21
479.9283830807844
 31
0.0
  0
LINE
  5
1A7
330
1F
100
AcDbEntity
  8
1
  6
DASH_CENTER
 62
     3
100
AcDbLine
 10
1918.506366468406
 20
865.4283813400466
 30
0.0
 11
1918.506366468406
 21
871.4283813400466
 31
0.0
  0
LINE
  5
1A8
330
1F
100
AcDbEntity
  8
1
  6
DASH_CENTER
 62
     3
100
AcDbLine
 10
1921.506366468406
 20
868.4283813400466
 30
0.0
 11
1915.506366468406
 21
868.4283813400466
 31
0.0
  0
LINE
  5
1A9
330
1F
100
AcDbEntity
  8
1
  6
Continuous
 62
     7
100
AcDbLine
 10
1952.506366468417
 20
471.9283830807835
 30
0.0
 11
1952.506366468417
 21
473.9283830807844
 31
0.0
  0
LINE
  5
1AA
330
1F
100
AcDbEntity
  8
1
  6
Continuous
 62
     7
100
AcDbLine
 10
2038.50636646842
 20
473.9283830807844
 30
0.0
 11
1878.506366468417
 21
473.9283830807844
 31
0.0
  0
LINE
  5
1AB
330
1F
100
AcDbEntity
  8
1
  6
Continuous
 62
     7
100
AcDbLine
 10
1878.506366468417
 20
473.9283830807844
 30
0.0
 11
1878.506366468417
 21
479.9283830807844
 31
0.0
  0
LINE
  5
1AC
330
1F
100
AcDbEntity
  8
1
  6
Continuous
 62
     7
100
AcDbLine
 10
1878.506366468417
 20
479.9283830807844
 30
0.0
 11
1968.106366468419
 21
479.9283830807844
 31
0.0
  0
LINE
  5
1AD
330
1F
100
AcDbEntity
  8
1
  6
Continuous
 62
     7
100
AcDbLine
 10
1883.506366468417
 20
473.9283830807844
 30
0.0
 11
1883.506366468418
 21
433.9283830807844
 31
0.0
  0
LINE
  5
1AE
330
1F
100
AcDbEntity
  8
1
  6
Continuous
 62
     7
100
AcDbLine
 10
1884.706366468416
 20
473.9283830807844
 30
0.0
 11
1884.706366468416
 21
433.9283830807844
 31
0.0
  0
LINE
  5
1AF
330
1F
100
AcDbEntity
  8
1
  6
Continuous
 62
     7
100
AcDbLine
 10
1958.506366468406
 20
868.4283828375455
 30
0.0
 11
1958.506366468411
 21
860.4283800807848
 31
0.0
  0
LINE
  5
1B0
330
1F
100
AcDbEntity
  8
1
  6
Continuous
 62
     7
100
AcDbLine
 10
1952.506366225163
 20
874.4283828375455
 30
0.0
 11
1884.506366468427
 21
874.4283800807848
 31
0.0
  0
LINE
  5
1B1
330
1F
100
AcDbEntity
  8
1
  6
Continuous
 62
     7
100
AcDbLine
 10
1968.506366468428
 20
858.4283800807848
 30
0.0
 11
1960.506366468411
 21
858.4283800807848
 31
0.0
  0
LINE
  5
1B2
330
1F
100
AcDbEntity
  8
1
  6
Continuous
 62
     7
100
AcDbLine
 10
1886.506366468427
 20
792.4283830807858
 30
0.0
 11
1968.506366468428
 21
792.4283830807858
 31
0.0
  0
LINE
  5
1B3
330
1F
100
AcDbEntity
  8
1
  6
Continuous
 62
     7
100
AcDbLine
 10
2598.506363468462
 20
473.9283830807835
 30
0.0
 11
2598.506363468462
 21
479.9283830807835
 31
0.0
  0
LINE
  5
1B4
330
1F
100
AcDbEntity
  8
1
  6
DASH_CENTER
 62
     3
100
AcDbLine
 10
2592.506366468466
 20
469.8173823692027
 30
0.0
 11
2592.506366468466
 21
483.4433612729135
 31
0.0
  0
LINE
  5
1B5
330
1F
100
AcDbEntity
  8
1
  6
Continuous
 62
     7
100
AcDbLine
 10
2584.871967636443
 20
473.9283830807835
 30
0.0
 11
2598.506363468462
 21
473.9283830807835
 31
0.0
  0
LINE
  5
1B6
330
1F
100
AcDbEntity
  8
1
  6
Continuous
 62
     7
100
AcDbLine
 10
2598.506363468462
 20
479.9283830807835
 30
0.0
 11
2584.506366468463
 21
479.9283830807835
 31
0.0
  0
LINE
  5
1B7
330
1F
100
AcDbEntity
  8
1
  6
DASHED
 62
     4
100
AcDbLine
 10
1948.506366468406
 20
433.9283830807844
 30
0.0
 11
1888.506366468435
 21
433.9283830807844
 31
0.0
  0
LINE
  5
1B8
330
1F
100
AcDbEntity
  8
1
  6
DASHED
 62
     4
100
AcDbLine
 10
1948.506366468406
 20
469.9283830807844
 30
0.0
 11
1888.506366468435
 21
469.9283830807844
 31
0.0
  0
LINE
  5
1B9
330
1F
100
AcDbEntity
  8
1
  6
DASHED
 62
     4
100
AcDbLine
 10
1888.506366468435
 20
459.5697602174037
 30
0.0
 11
1948.506366468406
 21
459.5697602174037
 31
0.0
  0
LINE
  5
1BA
330
1F
100
AcDbEntity
  8
1
  6
DASHED
 62
     4
100
AcDbLine
 10
1945.506366468406
 20
456.8155822926346
 30
0.0
 11
1891.506366468435
 21
456.8155822926346
 31
0.0
  0
LINE
  5
1BB
330
1F
100
AcDbEntity
  8
1
  6
DASHED
 62
     4
100
AcDbLine
 10
1948.506366468406
 20
452.2870059441648
 30
0.0
 11
1888.506366468435
 21
452.2870059441648
 31
0.0
  0
LINE
  5
1BC
330
1F
100
AcDbEntity
  8
1
  6
DASHED
 62
     4
100
AcDbLine
 10
1891.506366468435
 20
455.0411838689247
 30
0.0
 11
1945.506366468406
 21
455.0411838689247
 31
0.0
  0
LINE
  5
1BD
330
1F
100
AcDbEntity
  8
1
  6
DASH_CENTER
 62
     3
100
AcDbLine
 10
1918.506366468406
 20
475.5496736265736
 30
0.0
 11
1918.506366468406
 21
428.0880351427436
 31
0.0
  0
LINE
  5
1BE
330
1F
100
AcDbEntity
  8
1
  6
DASHED
 62
     4
100
AcDbLine
 10
1888.506366468435
 20
469.9283830807844
 30
0.0
 11
1888.506366468435
 21
460.4283830807844
 31
0.0
  0
LINE
  5
1BF
330
1F
100
AcDbEntity
  8
1
  6
DASHED
 62
     4
100
AcDbLine
 10
1888.506366468435
 20
452.2870059441648
 30
0.0
 11
1888.506366468435
 21
433.9283830807844
 31
0.0
  0
LINE
  5
1C0
330
1F
100
AcDbEntity
  8
1
  6
DASHED
 62
     4
100
AcDbLine
 10
1948.506366468406
 20
459.5697602174037
 30
0.0
 11
1948.506366468406
 21
461.4283830807844
 31
0.0
  0
LINE
  5
1C1
330
1F
100
AcDbEntity
  8
1
  6
PHANTOM
 62
     4
100
AcDbLine
 10
1888.506366468435
 20
455.9283830807844
 30
0.0
 11
1948.506366468406
 21
455.9283830807844
 31
0.0
  0
LINE
  5
1C2
330
1F
100
AcDbEntity
  8
1
  6
DASHED
 62
     4
100
AcDbLine
 10
1948.506366468406
 20
433.9283830807844
 30
0.0
 11
1948.506366468406
 21
452.2870059441648
 31
0.0
  0
LINE
  5
1C3
330
1F
100
AcDbEntity
  8
1
  6
DASHED
 62
     4
100
AcDbLine
 10
1945.506366468406
 20
431.9283830807844
 30
0.0
 11
1946.506366468406
 21
431.9283830807844
 31
0.0
  0
LINE
  5
1C4
330
1F
100
AcDbEntity
  8
1
  6
DASHED
 62
     4
100
AcDbLine
 10
1888.506366468435
 20
460.4283830807844
 30
0.0
 11
1888.506366468435
 21
459.5697602174037
 31
0.0
  0
LINE
  5
1C5
330
1F
100
AcDbEntity
  8
1
  6
DASHED
 62
     4
100
AcDbLine
 10
1923.506366468406
 20
471.9283830807844
 30
0.0
 11
1946.506366468406
 21
471.9283830807844
 31
0.0
  0
LINE
  5
1C6
330
1F
100
AcDbEntity
  8
1
  6
DASHED
 62
     4
100
AcDbLine
 10
1946.052375968666
 20
457.7065888168345
 30
0.0
 11
1947.960356968143
 21
458.6787536932156
 31
0.0
  0
LINE
  5
1C7
330
1F
100
AcDbEntity
  8
1
  6
DASHED
 62
     4
100
AcDbLine
 10
1945.506366468406
 20
455.0411838689247
 30
0.0
 11
1945.506366468406
 21
456.8155822926456
 31
0.0
  0
LINE
  5
1C8
330
1F
100
AcDbEntity
  8
1
  6
DASHED
 62
     4
100
AcDbLine
 10
1947.960356968143
 20
453.1780124683555
 30
0.0
 11
1946.052375968666
 21
454.1501773447344
 31
0.0
  0
LINE
  5
1C9
330
1F
100
AcDbEntity
  8
1
  6
DASHED
 62
     4
100
AcDbLine
 10
1890.960356968175
 20
457.7065888168345
 30
0.0
 11
1889.052375968695
 21
458.6787536932156
 31
0.0
  0
LINE
  5
1CA
330
1F
100
AcDbEntity
  8
1
  6
DASHED
 62
     4
100
AcDbLine
 10
1891.506366468435
 20
455.0411838689247
 30
0.0
 11
1891.506366468435
 21
456.8155822926456
 31
0.0
  0
LINE
  5
1CB
330
1F
100
AcDbEntity
  8
1
  6
DASHED
 62
     4
100
AcDbLine
 10
1889.052375968695
 20
453.1780124683555
 30
0.0
 11
1890.960356968175
 21
454.1501773447344
 31
0.0
  0
LINE
  5
1CC
330
1F
100
AcDbEntity
  8
1
  6
DASHED
 62
     4
100
AcDbLine
 10
1890.506366468435
 20
471.9283830807844
 30
0.0
 11
1913.506366468406
 21
471.9283830807844
 31
0.0
  0
LINE
  5
1CD
330
1F
100
AcDbEntity
  8
1
  6
DASHED
 62
     4
100
AcDbLine
 10
1891.506366468406
 20
431.9283830807844
 30
0.0
 11
1945.506366468406
 21
431.9283830807844
 31
0.0
  0
LINE
  5
1CE
330
1F
100
AcDbEntity
  8
1
  6
DASHED
 62
     4
100
AcDbLine
 10
1890.506366468435
 20
431.9283830807844
 30
0.0
 11
1891.506366468406
 21
431.9283830807844
 31
0.0
  0
LINE
  5
1CF
330
1F
100
AcDbEntity
  8
1
  6
DASHED
 62
     4
100
AcDbLine
 10
1913.506366468406
 20
471.9283830807844
 30
0.0
 11
1923.506366468406
 21
471.9283830807844
 31
0.0
  0
LINE
  5
1D0
330
1F
100
AcDbEntity
  8
1
  6
DASHED
 62
     4
100
AcDbLine
 10
1948.506366468406
 20
461.4283830807844
 30
0.0
 11
1948.506366468406
 21
468.4283830807844
 31
0.0
  0
LINE
  5
1D1
330
1F
100
AcDbEntity
  8
1
  6
DASHED
 62
     4
100
AcDbLine
 10
1948.506366468406
 20
468.4283830807844
 30
0.0
 11
1948.506366468406
 21
469.9283830807844
 31
0.0
  0
LINE
  5
1D2
330
1F
100
AcDbEntity
  8
1
  6
DASH_CENTER
 62
     3
100
AcDbLine
 10
1918.506366468406
 20
786.4283830807858
 30
0.0
 11
1918.506366468406
 21
852.4283830807858
 31
0.0
  0
LINE
  5
1D3
330
1F
100
AcDbEntity
  8
1
  6
DASH_CENTER
 62
     3
100
AcDbLine
 10
1885.506366468406
 20
819.4283830807858
 30
0.0
 11
1951.506366468406
 21
819.4283830807858
 31
0.0
  0
LINE
  5
1D4
330
1F
100
AcDbEntity
  8
1
  6
DASHED
 62
     4
100
AcDbLine
 10
2182.306366468419
 20
473.9283830807844
 30
0.0
 11
2175.50636646842
 21
473.9283830807844
 31
0.0
  0
LINE
  5
1D5
330
1F
100
AcDbEntity
  8
1
  6
DASHED
 62
     4
100
AcDbLine
 10
2232.306366468421
 20
473.9283830807844
 30
0.0
 11
2182.306366468419
 21
473.9283830807844
 31
0.0
  0
LINE
  5
1D6
330
1F
100
AcDbEntity
  8
1
  6
DASHED
 62
     4
100
AcDbLine
 10
2270.506366468426
 20
473.9283830807844
 30
0.0
 11
2238.706366468425
 21
473.9283830807844
 31
0.0
  0
LINE
  5
1D7
330
1F
100
AcDbEntity
  8
1
  6
Continuous
 62
     7
100
AcDbLine
 10
2521.306366468461
 20
473.9283830807835
 30
0.0
 11
2521.306366468461
 21
471.9283830807858
 31
0.0
  0
LINE
  5
1D8
330
1F
100
AcDbEntity
  8
1
  6
Continuous
 62
     7
100
AcDbLine
 10
2538.506366468462
 20
473.9283830807835
 30
0.0
 11
2538.506366468462
 21
471.9283830807844
 31
0.0
  0
LINE
  5
1D9
330
1F
100
AcDbEntity
  8
1
  6
Continuous
 62
     7
100
AcDbLine
 10
2523.506366468462
 20
473.9283830807835
 30
0.0
 11
2525.906366468462
 21
473.9283830807835
 31
0.0
  0
LINE
  5
1DA
330
1F
100
AcDbEntity
  8
1
  6
Continuous
 62
     7
100
AcDbLine
 10
2523.506366468462
 20
471.9283830807844
 30
0.0
 11
2523.506366468462
 21
473.9283830807835
 31
0.0
  0
LINE
  5
1DB
330
1F
100
AcDbEntity
  8
1
  6
Continuous
 62
     7
100
AcDbLine
 10
2536.106366468463
 20
473.9283830807835
 30
0.0
 11
2538.506366468462
 21
473.9283830807835
 31
0.0
  0
LINE
  5
1DC
330
1F
100
AcDbEntity
  8
1
  6
Continuous
 62
     7
100
AcDbLine
 10
2526.006366468462
 20
473.9283830807835
 30
0.0
 11
2536.006366468462
 21
473.9283830807835
 31
0.0
  0
LINE
  5
1DD
330
1F
100
AcDbEntity
  8
1
  6
Continuous
 62
     2
100
AcDbLine
 10
2087.455561026912
 20
28.45170591981969
 30
0.0
 11
2208.455561026913
 21
28.45170591981969
 31
0.0
  0
LINE
  5
1DE
330
1F
100
AcDbEntity
  8
1
  6
Continuous
 62
     7
100
AcDbLine
 10
2121.82356972608
 20
103.4714823222234
 30
0.0
 11
2116.57356972608
 21
103.4714823222234
 31
0.0
  0
LINE
  5
1DF
330
1F
100
AcDbEntity
  8
1
  6
Continuous
 62
     7
100
AcDbLine
 10
2121.82356972608
 20
69.97148232222344
 30
0.0
 11
2112.32356972608
 21
69.97148232222344
 31
0.0
  0
LINE
  5
1E0
330
1F
100
AcDbEntity
  8
1
  6
Continuous
 62
     7
100
AcDbLine
 10
2111.82356972608
 20
70.47148232222344
 30
0.0
 11
2111.82356972608
 21
76.72148232222344
 31
0.0
  0
LINE
  5
1E1
330
1F
100
AcDbEntity
  8
1
  6
Continuous
 62
     7
100
AcDbLine
 10
2114.32356972608
 20
76.72148232222344
 30
0.0
 11
2111.82356972608
 21
76.72148232222344
 31
0.0
  0
LINE
  5
1E2
330
1F
100
AcDbEntity
  8
1
  6
Continuous
 62
     7
100
AcDbLine
 10
2120.32356972608
 20
74.72148232222344
 30
0.0
 11
2114.32356972608
 21
74.72148232222344
 31
0.0
  0
LINE
  5
1E3
330
1F
100
AcDbEntity
  8
1
  6
Continuous
 62
     7
100
AcDbLine
 10
2114.32356972608
 20
74.72148232222344
 30
0.0
 11
2114.32356972608
 21
76.72148232222344
 31
0.0
  0
LINE
  5
1E4
330
1F
100
AcDbEntity
  8
1
  6
Continuous
 62
     7
100
AcDbLine
 10
2120.32356972608
 20
74.72148232222344
 30
0.0
 11
2120.32356972608
 21
85.22148232222344
 31
0.0
  0
LINE
  5
1E5
330
1F
100
AcDbEntity
  8
1
  6
Continuous
 62
     7
100
AcDbLine
 10
2120.32356972608
 20
85.22148232222344
 30
0.0
 11
2114.32356972608
 21
85.22148232222344
 31
0.0
  0
LINE
  5
1E6
330
1F
100
AcDbEntity
  8
1
  6
Continuous
 62
     7
100
AcDbLine
 10
2114.32356972608
 20
85.22148232222344
 30
0.0
 11
2114.32356972608
 21
83.22148232222344
 31
0.0
  0
LINE
  5
1E7
330
1F
100
AcDbEntity
  8
1
  6
Continuous
 62
     7
100
AcDbLine
 10
2114.32356972608
 20
83.22148232222344
 30
0.0
 11
2111.82356972608
 21
83.22148232222344
 31
0.0
  0
LINE
  5
1E8
330
1F
100
AcDbEntity
  8
1
  6
Continuous
 62
     7
100
AcDbLine
 10
2111.82356972608
 20
83.22148232222344
 30
0.0
 11
2111.82356972608
 21
90.72148232222344
 31
0.0
  0
LINE
  5
1E9
330
1F
100
AcDbEntity
  8
1
  6
Continuous
 62
     7
100
AcDbLine
 10
2111.82356972608
 20
90.72148232222344
 30
0.0
 11
2114.32356972608
 21
90.72148232222344
 31
0.0
  0
LINE
  5
1EA
330
1F
100
AcDbEntity
  8
1
  6
Continuous
 62
     7
100
AcDbLine
 10
2114.32356972608
 20
90.72148232222344
 30
0.0
 11
2114.32356972608
 21
88.72148232222344
 31
0.0
  0
LINE
  5
1EB
330
1F
100
AcDbEntity
  8
1
  6
Continuous
 62
     7
100
AcDbLine
 10
2114.32356972608
 20
88.72148232222344
 30
0.0
 11
2120.32356972608
 21
88.72148232222344
 31
0.0
  0
LINE
  5
1EC
330
1F
100
AcDbEntity
  8
1
  6
Continuous
 62
     7
100
AcDbLine
 10
2120.32356972608
 20
88.72148232222344
 30
0.0
 11
2120.32356972608
 21
99.22148232222344
 31
0.0
  0
LINE
  5
1ED
330
1F
100
AcDbEntity
  8
1
  6
Continuous
 62
     7
100
AcDbLine
 10
2120.32356972608
 20
99.22148232222344
 30
0.0
 11
2114.32356972608
 21
99.22148232222344
 31
0.0
  0
LINE
  5
1EE
330
1F
100
AcDbEntity
  8
1
  6
Continuous
 62
     7
100
AcDbLine
 10
2114.32356972608
 20
99.22148232222344
 30
0.0
 11
2114.32356972608
 21
97.22148232222344
 31
0.0
  0
LINE
  5
1EF
330
1F
100
AcDbEntity
  8
1
  6
Continuous
 62
     7
100
AcDbLine
 10
2114.32356972608
 20
97.22148232222344
 30
0.0
 11
2111.82356972608
 21
97.22148232222344
 31
0.0
  0
LINE
  5
1F0
330
1F
100
AcDbEntity
  8
1
  6
Continuous
 62
     7
100
AcDbLine
 10
2111.82356972608
 20
97.22148232222344
 30
0.0
 11
2111.82356972608
 21
111.4714823222234
 31
0.0
  0
LINE
  5
1F1
330
1F
100
AcDbEntity
  8
1
  6
Continuous
 62
     7
100
AcDbLine
 10
2112.32356972608
 20
111.9714823222234
 30
0.0
 11
2118.57356972608
 21
111.9714823222234
 31
0.0
  0
LINE
  5
1F2
330
1F
100
AcDbEntity
  8
1
  6
Continuous
 62
     7
100
AcDbLine
 10
2118.57356972608
 20
111.9714823222234
 30
0.0
 11
2118.57356972608
 21
109.4714823222234
 31
0.0
  0
LINE
  5
1F3
330
1F
100
AcDbEntity
  8
1
  6
Continuous
 62
     7
100
AcDbLine
 10
2118.57356972608
 20
109.4714823222234
 30
0.0
 11
2116.57356972608
 21
109.4714823222234
 31
0.0
  0
LINE
  5
1F4
330
1F
100
AcDbEntity
  8
1
  6
Continuous
 62
     7
100
AcDbLine
 10
2116.57356972608
 20
109.4714823222234
 30
0.0
 11
2116.57356972608
 21
103.4714823222234
 31
0.0
  0
LINE
  5
1F5
330
1F
100
AcDbEntity
  8
1
  6
Continuous
 62
     7
100
AcDbLine
 10
2127.07356972608
 20
103.4714823222234
 30
0.0
 11
2121.82356972608
 21
103.4714823222234
 31
0.0
  0
LINE
  5
1F6
330
1F
100
AcDbEntity
  8
1
  6
Continuous
 62
     7
100
AcDbLine
 10
2131.32356972608
 20
69.97148232222344
 30
0.0
 11
2121.82356972608
 21
69.97148232222344
 31
0.0
  0
LINE
  5
1F7
330
1F
100
AcDbEntity
  8
1
  6
Continuous
 62
     7
100
AcDbLine
 10
2131.82356972608
 20
76.72148232222344
 30
0.0
 11
2131.82356972608
 21
70.47148232222344
 31
0.0
  0
LINE
  5
1F8
330
1F
100
AcDbEntity
  8
1
  6
Continuous
 62
     7
100
AcDbLine
 10
2131.82356972608
 20
76.72148232222344
 30
0.0
 11
2129.32356972608
 21
76.72148232222344
 31
0.0
  0
LINE
  5
1F9
330
1F
100
AcDbEntity
  8
1
  6
Continuous
 62
     7
100
AcDbLine
 10
2129.32356972608
 20
74.72148232222344
 30
0.0
 11
2123.32356972608
 21
74.72148232222344
 31
0.0
  0
LINE
  5
1FA
330
1F
100
AcDbEntity
  8
1
  6
Continuous
 62
     7
100
AcDbLine
 10
2129.32356972608
 20
76.72148232222344
 30
0.0
 11
2129.32356972608
 21
74.72148232222344
 31
0.0
  0
LINE
  5
1FB
330
1F
100
AcDbEntity
  8
1
  6
Continuous
 62
     7
100
AcDbLine
 10
2123.32356972608
 20
85.22148232222344
 30
0.0
 11
2123.32356972608
 21
74.72148232222344
 31
0.0
  0
LINE
  5
1FC
330
1F
100
AcDbEntity
  8
1
  6
Continuous
 62
     7
100
AcDbLine
 10
2129.32356972608
 20
85.22148232222344
 30
0.0
 11
2123.32356972608
 21
85.22148232222344
 31
0.0
  0
LINE
  5
1FD
330
1F
100
AcDbEntity
  8
1
  6
Continuous
 62
     7
100
AcDbLine
 10
2129.32356972608
 20
83.22148232222344
 30
0.0
 11
2129.32356972608
 21
85.22148232222344
 31
0.0
  0
LINE
  5
1FE
330
1F
100
AcDbEntity
  8
1
  6
Continuous
 62
     7
100
AcDbLine
 10
2131.82356972608
 20
83.22148232222344
 30
0.0
 11
2129.32356972608
 21
83.22148232222344
 31
0.0
  0
LINE
  5
1FF
330
1F
100
AcDbEntity
  8
1
  6
Continuous
 62
     7
100
AcDbLine
 10
2131.82356972608
 20
90.72148232222344
 30
0.0
 11
2131.82356972608
 21
83.22148232222344
 31
0.0
  0
LINE
  5
200
330
1F
100
AcDbEntity
  8
1
  6
Continuous
 62
     7
100
AcDbLine
 10
2129.32356972608
 20
90.72148232222344
 30
0.0
 11
2131.82356972608
 21
90.72148232222344
 31
0.0
  0
LINE
  5
201
330
1F
100
AcDbEntity
  8
1
  6
Continuous
 62
     7
100
AcDbLine
 10
2129.32356972608
 20
88.72148232222344
 30
0.0
 11
2129.32356972608
 21
90.72148232222344
 31
0.0
  0
LINE
  5
202
330
1F
100
AcDbEntity
  8
1
  6
Continuous
 62
     7
100
AcDbLine
 10
2123.32356972608
 20
88.72148232222344
 30
0.0
 11
2129.32356972608
 21
88.72148232222344
 31
0.0
  0
LINE
  5
203
330
1F
100
AcDbEntity
  8
1
  6
Continuous
 62
     7
100
AcDbLine
 10
2123.32356972608
 20
99.22148232222344
 30
0.0
 11
2123.32356972608
 21
88.72148232222344
 31
0.0
  0
LINE
  5
204
330
1F
100
AcDbEntity
  8
1
  6
Continuous
 62
     7
100
AcDbLine
 10
2129.32356972608
 20
99.22148232222344
 30
0.0
 11
2123.32356972608
 21
99.22148232222344
 31
0.0
  0
LINE
  5
205
330
1F
100
AcDbEntity
  8
1
  6
Continuous
 62
     7
100
AcDbLine
 10
2129.32356972608
 20
97.22148232222344
 30
0.0
 11
2129.32356972608
 21
99.22148232222344
 31
0.0
  0
LINE
  5
206
330
1F
100
AcDbEntity
  8
1
  6
Continuous
 62
     7
100
AcDbLine
 10
2131.82356972608
 20
97.22148232222344
 30
0.0
 11
2129.32356972608
 21
97.22148232222344
 31
0.0
  0
LINE
  5
207
330
1F
100
AcDbEntity
  8
1
  6
Continuous
 62
     7
100
AcDbLine
 10
2131.82356972608
 20
111.4714823222234
 30
0.0
 11
2131.82356972608
 21
97.22148232222344
 31
0.0
  0
LINE
  5
208
330
1F
100
AcDbEntity
  8
1
  6
Continuous
 62
     7
100
AcDbLine
 10
2125.07356972608
 20
111.9714823222234
 30
0.0
 11
2131.32356972608
 21
111.9714823222234
 31
0.0
  0
LINE
  5
209
330
1F
100
AcDbEntity
  8
1
  6
Continuous
 62
     7
100
AcDbLine
 10
2125.07356972608
 20
109.4714823222234
 30
0.0
 11
2125.07356972608
 21
111.9714823222234
 31
0.0
  0
LINE
  5
20A
330
1F
100
AcDbEntity
  8
1
  6
Continuous
 62
     7
100
AcDbLine
 10
2127.07356972608
 20
109.4714823222234
 30
0.0
 11
2125.07356972608
 21
109.4714823222234
 31
0.0
  0
LINE
  5
20B
330
1F
100
AcDbEntity
  8
1
  6
Continuous
 62
     7
100
AcDbLine
 10
2127.07356972608
 20
103.4714823222234
 30
0.0
 11
2127.07356972608
 21
109.4714823222234
 31
0.0
  0
LINE
  5
20C
330
1F
100
AcDbEntity
  8
1
  6
Continuous
 62
     7
100
AcDbLine
 10
2147.82356972608
 20
185.9714823222234
 30
0.0
 11
2116.82356972608
 21
185.9714823222234
 31
0.0
  0
LINE
  5
20D
330
1F
100
AcDbEntity
  8
1
  6
Continuous
 62
     7
100
AcDbLine
 10
2116.82356972608
 20
174.9714823222234
 30
0.0
 11
2116.82356972608
 21
118.9714823222234
 31
0.0
  0
LINE
  5
20E
330
1F
100
AcDbEntity
  8
1
  6
Continuous
 62
     7
100
AcDbLine
 10
2116.82356972608
 20
118.9714823222234
 30
0.0
 11
2131.82356972608
 21
118.9714823222134
 31
0.0
  0
LINE
  5
20F
330
1F
100
AcDbEntity
  8
1
  6
Continuous
 62
     7
100
AcDbLine
 10
2135.82356972608
 20
114.9714823222134
 30
0.0
 11
2135.82356972608
 21
69.97148232222344
 31
0.0
  0
LINE
  5
210
330
1F
100
AcDbEntity
  8
1
  6
Continuous
 62
     7
100
AcDbLine
 10
2135.82356972608
 20
69.97148232222344
 30
0.0
 11
2131.82356972608
 21
69.97148232222344
 31
0.0
  0
LINE
  5
211
330
1F
100
AcDbEntity
  8
1
  6
Continuous
 62
     7
100
AcDbLine
 10
2131.82356972608
 20
114.9714823222234
 30
0.0
 11
2131.82356972608
 21
69.97148232222344
 31
0.0
  0
LINE
  5
212
330
1F
100
AcDbEntity
  8
1
  6
Continuous
 62
     7
100
AcDbLine
 10
2131.82356972608
 20
114.9714823222234
 30
0.0
 11
2116.82356972608
 21
114.9714823222234
 31
0.0
  0
LINE
  5
213
330
1F
100
AcDbEntity
  8
1
  6
Continuous
 62
     7
100
AcDbLine
 10
2112.823569726077
 20
174.9714823222234
 30
0.0
 11
2112.82356972608
 21
185.9714823222234
 31
0.0
  0
LINE
  5
214
330
1F
100
AcDbEntity
  8
1
  6
Continuous
 62
     7
100
AcDbLine
 10
2116.82356972608
 20
189.9714823222234
 30
0.0
 11
2147.82356972608
 21
189.9714823222234
 31
0.0
  0
LINE
  5
215
330
1F
100
AcDbEntity
  8
1
  6
Continuous
 62
     7
100
AcDbLine
 10
2147.82356972608
 20
189.9714823222234
 30
0.0
 11
2147.82356972608
 21
185.9714823222234
 31
0.0
  0
LINE
  5
216
330
1F
100
AcDbEntity
  8
1
  6
DASH_CENTER
 62
     3
100
AcDbLine
 10
2132.82356972608
 20
180.6867098450634
 30
0.0
 11
2132.82356972608
 21
194.5216583514134
 31
0.0
  0
LINE
  5
217
330
1F
100
AcDbEntity
  8
1
  6
Continuous
 62
     7
100
AcDbLine
 10
2112.823569726077
 20
174.9714823222234
 30
0.0
 11
2116.82356972608
 21
174.9714823222234
 31
0.0
  0
LINE
  5
218
330
1F
100
AcDbEntity
  8
1
  6
Continuous
 62
     7
100
AcDbLine
 10
2116.82356972608
 20
185.9714823222234
 30
0.0
 11
2116.82356972608
 21
174.9714823222234
 31
0.0
  0
LINE
  5
219
330
1F
100
AcDbEntity
  8
1
  6
Continuous
 62
     7
100
AcDbLine
 10
2112.82356972608
 20
118.9714823222234
 30
0.0
 11
2112.823569726077
 21
174.9714823222234
 31
0.0
  0
LINE
  5
21A
330
1F
100
AcDbEntity
  8
1
  6
Continuous
 62
     7
100
AcDbLine
 10
2181.823569726084
 20
133.7714823222227
 30
0.0
 11
2181.823569726084
 21
71.97148232222344
 31
0.0
  0
LINE
  5
21B
330
1F
100
AcDbEntity
  8
1
  6
Continuous
 62
     7
100
AcDbLine
 10
2119.52356972608
 20
134.9714823222234
 30
0.0
 11
2180.623569726087
 21
134.9714823222234
 31
0.0
  0
LINE
  5
21C
330
1F
100
AcDbEntity
  8
1
  6
Continuous
 62
     7
100
AcDbLine
 10
2112.32356972608
 20
133.7714823222227
 30
0.0
 11
2112.32356972608
 21
111.9714823222234
 31
0.0
  0
LINE
  5
21D
330
1F
100
AcDbEntity
  8
1
  6
Continuous
 62
     7
100
AcDbLine
 10
2180.623569726087
 20
71.97148232222344
 30
0.0
 11
2180.623569726087
 21
133.7714823222227
 31
0.0
  0
LINE
  5
21E
330
1F
100
AcDbEntity
  8
1
  6
Continuous
 62
     7
100
AcDbLine
 10
2113.523569726081
 20
111.9714823222234
 30
0.0
 11
2112.32356972608
 21
111.9714823222234
 31
0.0
  0
LINE
  5
21F
330
1F
100
AcDbEntity
  8
1
  6
Continuous
 62
     7
100
AcDbLine
 10
2118.323569726077
 20
119.9714823222234
 30
0.0
 11
2118.323569726077
 21
133.7714823222227
 31
0.0
  0
LINE
  5
220
330
1F
100
AcDbEntity
  8
1
  6
Continuous
 62
     7
100
AcDbLine
 10
2119.52356972608
 20
119.9714823222234
 30
0.0
 11
2118.323569726077
 21
119.9714823222234
 31
0.0
  0
LINE
  5
221
330
1F
100
AcDbEntity
  8
1
  6
Continuous
 62
     7
100
AcDbLine
 10
2119.52356972608
 20
133.7714823222227
 30
0.0
 11
2119.52356972608
 21
119.9714823222234
 31
0.0
  0
LINE
  5
222
330
1F
100
AcDbEntity
  8
1
  6
Continuous
 62
     7
100
AcDbLine
 10
2181.823569726084
 20
71.97148232222344
 30
0.0
 11
2180.623569726087
 21
71.97148232222344
 31
0.0
  0
LINE
  5
223
330
1F
100
AcDbEntity
  8
1
  6
Continuous
 62
     7
100
AcDbLine
 10
2180.623569726087
 20
133.7714823222227
 30
0.0
 11
2119.52356972608
 21
133.7714823222227
 31
0.0
  0
LINE
  5
224
330
1F
100
AcDbEntity
  8
1
  6
Continuous
 62
     7
100
AcDbLine
 10
2116.82356972608
 20
134.9714823222234
 30
0.0
 11
2119.52356972608
 21
134.9714823222234
 31
0.0
  0
LINE
  5
225
330
1F
100
AcDbEntity
  8
1
  6
PHANTOM
 62
     4
100
AcDbLine
 10
2181.823569726084
 20
133.7714823222227
 30
0.0
 11
2180.623569726087
 21
133.7714823222227
 31
0.0
  0
LINE
  5
226
330
1F
100
AcDbEntity
  8
1
  6
Continuous
 62
     7
100
AcDbLine
 10
2118.323569726077
 20
133.7714823222227
 30
0.0
 11
2116.82356972608
 21
133.7714823222227
 31
0.0
  0
LINE
  5
227
330
1F
100
AcDbEntity
  8
1
  6
Continuous
 62
     7
100
AcDbLine
 10
2113.523569726081
 20
111.9714823222234
 30
0.0
 11
2113.523569726081
 21
116.7109514111307
 31
0.0
  0
LINE
  5
228
330
1F
100
AcDbEntity
  8
1
  6
PHANTOM
 62
     3
100
AcDbLine
 10
2171.723569726079
 20
109.9714823222234
 30
0.0
 11
2146.723569726089
 21
109.9714823222234
 31
0.0
  0
LINE
  5
229
330
1F
100
AcDbEntity
  8
1
  6
PHANTOM
 62
     3
100
AcDbLine
 10
2146.723569726089
 20
109.9714823222234
 30
0.0
 11
2145.823569726081
 21
109.9714823222234
 31
0.0
  0
LINE
  5
22A
330
1F
100
AcDbEntity
  8
1
  6
Continuous
 62
     3
100
AcDbLine
 10
2109.923569726078
 20
109.9714823222234
 30
0.0
 11
2110.82356972608
 21
109.9714823222234
 31
0.0
  0
LINE
  5
22B
330
1F
100
AcDbEntity
  8
1
  6
PHANTOM
 62
     3
100
AcDbLine
 10
2145.823569726081
 20
69.97148232222344
 30
0.0
 11
2110.82356972608
 21
69.97148232222344
 31
0.0
  0
LINE
  5
22C
330
1F
100
AcDbEntity
  8
1
  6
PHANTOM
 62
     3
100
AcDbLine
 10
2146.723569726089
 20
69.97148232222344
 30
0.0
 11
2145.823569726081
 21
69.97148232222344
 31
0.0
  0
LINE
  5
22D
330
1F
100
AcDbEntity
  8
1
  6
Continuous
 62
     3
100
AcDbLine
 10
2171.723569726079
 20
109.9714823222234
 30
0.0
 11
2171.723569726079
 21
71.97148232222344
 31
0.0
  0
LINE
  5
22E
330
1F
100
AcDbEntity
  8
1
  6
PHANTOM
 62
     3
100
AcDbLine
 10
2145.823569726081
 20
109.9714823222234
 30
0.0
 11
2144.736070135144
 21
109.9714823222234
 31
0.0
  0
LINE
  5
22F
330
1F
100
AcDbEntity
  8
1
  6
PHANTOM
 62
     3
100
AcDbLine
 10
2110.82356972608
 20
109.9714823222234
 30
0.0
 11
2144.736070135144
 21
109.9714823222234
 31
0.0
  0
LINE
  5
230
330
1F
100
AcDbEntity
  8
1
  6
Continuous
 62
     3
100
AcDbLine
 10
2170.823569726072
 20
69.97148232222344
 30
0.0
 11
2171.723569726079
 21
69.97148232222344
 31
0.0
  0
LINE
  5
231
330
1F
100
AcDbEntity
  8
0
  6
Continuous
 62
     3
100
AcDbLine
 10
2170.823569726081
 20
91.47148232222344
 30
0.0
 11
2167.823569726072
 21
92.97148232222344
 31
0.0
  0
LINE
  5
232
330
1F
100
AcDbEntity
  8
0
  6
Continuous
 62
     3
100
AcDbLine
 10
2170.823569726072
 20
96.47148232222344
 30
0.0
 11
2167.823569726072
 21
94.97148232222344
 31
0.0
  0
LINE
  5
233
330
1F
100
AcDbEntity
  8
0
  6
Continuous
 62
     3
100
AcDbLine
 10
2167.823569726072
 20
94.97148232222344
 30
0.0
 11
2167.823569726072
 21
93.97148232222344
 31
0.0
  0
LINE
  5
234
330
1F
100
AcDbEntity
  8
0
  6
Continuous
 62
     3
100
AcDbLine
 10
2167.823569726072
 20
93.97148232222344
 30
0.0
 11
2167.823569726072
 21
92.97148232222344
 31
0.0
  0
LINE
  5
235
330
1F
100
AcDbEntity
  8
1
  6
Continuous
 62
     3
100
AcDbLine
 10
2170.823569726072
 20
69.97148232222344
 30
0.0
 11
2170.823569726072
 21
109.9714823222234
 31
0.0
  0
LINE
  5
236
330
1F
100
AcDbEntity
  8
1
  6
Continuous
 62
     3
100
AcDbLine
 10
2171.723569726079
 20
71.97148232222344
 30
0.0
 11
2171.723569726079
 21
69.97148232222344
 31
0.0
  0
LINE
  5
237
330
1F
100
AcDbEntity
  8
1
  6
Continuous
 62
     3
100
AcDbLine
 10
2110.82356972608
 20
69.97148232222344
 30
0.0
 11
2109.923569726078
 21
69.97148232222344
 31
0.0
  0
LINE
  5
238
330
1F
100
AcDbEntity
  8
0
  6
Continuous
 62
     3
100
AcDbLine
 10
2113.82356972608
 20
92.97148232222344
 30
0.0
 11
2110.82356972608
 21
91.47148232222344
 31
0.0
  0
LINE
  5
239
330
1F
100
AcDbEntity
  8
0
  6
Continuous
 62
     3
100
AcDbLine
 10
2113.82356972608
 20
94.97148232222344
 30
0.0
 11
2110.82356972608
 21
96.47148232222344
 31
0.0
  0
LINE
  5
23A
330
1F
100
AcDbEntity
  8
0
  6
Continuous
 62
     3
100
AcDbLine
 10
2113.82356972608
 20
93.97148232222344
 30
0.0
 11
2113.82356972608
 21
94.97148232222344
 31
0.0
  0
LINE
  5
23B
330
1F
100
AcDbEntity
  8
0
  6
Continuous
 62
     3
100
AcDbLine
 10
2113.82356972608
 20
92.97148232222344
 30
0.0
 11
2113.82356972608
 21
93.97148232222344
 31
0.0
  0
LINE
  5
23C
330
1F
100
AcDbEntity
  8
1
  6
Continuous
 62
     3
100
AcDbLine
 10
2110.82356972608
 20
109.9714823222234
 30
0.0
 11
2110.82356972608
 21
69.97148232222344
 31
0.0
  0
LINE
  5
23D
330
1F
100
AcDbEntity
  8
1
  6
Continuous
 62
     3
100
AcDbLine
 10
2109.923569726078
 20
69.97148232222344
 30
0.0
 11
2109.923569726078
 21
109.9714823222234
 31
0.0
  0
LINE
  5
23E
330
1F
100
AcDbEntity
  8
1
  6
PHANTOM
 62
     3
100
AcDbLine
 10
2146.723569726089
 20
69.97148232222344
 30
0.0
 11
2170.823569726072
 21
69.97148232222344
 31
0.0
  0
LINE
  5
23F
330
1F
100
AcDbEntity
  8
1
  6
Continuous
 62
     7
100
AcDbLine
 10
2131.82356972608
 20
118.9714823222134
 30
0.0
 11
2131.823569726081
 21
130.7714823222227
 31
0.0
  0
LINE
  5
240
330
1F
100
AcDbEntity
  8
1
  6
Continuous
 62
     7
100
AcDbLine
 10
2171.823569726081
 20
133.7714823222227
 30
0.0
 11
2171.823569726081
 21
130.7714823222227
 31
0.0
  0
LINE
  5
241
330
1F
100
AcDbEntity
  8
1
  6
Continuous
 62
     7
100
AcDbLine
 10
2134.823569726081
 20
133.7714823222227
 30
0.0
 11
2171.823569726081
 21
133.7714823222227
 31
0.0
  0
LINE
  5
242
330
1F
100
AcDbEntity
  8
1
  6
Continuous
 62
     7
100
AcDbLine
 10
2171.823569726081
 20
130.7714823222227
 30
0.0
 11
2134.823569726081
 21
130.7714823222227
 31
0.0
  0
LINE
  5
243
330
1F
100
AcDbEntity
  8
1
  6
Continuous
 62
     7
100
AcDbLine
 10
2134.823569726081
 20
130.7714823222227
 30
0.0
 11
2134.823569726081
 21
117.6172336332775
 31
0.0
  0
LINE
  5
244
330
1F
100
AcDbEntity
  8
1
  6
Continuous
 62
     7
100
AcDbLine
 10
2153.07356972608
 20
134.9714823222234
 30
0.0
 11
2140.57356972608
 21
134.9714823222234
 31
0.0
  0
LINE
  5
245
330
1F
100
AcDbEntity
  8
1
  6
Continuous
 62
     7
100
AcDbLine
 10
2153.07356972608
 20
136.5714823222215
 30
0.0
 11
2153.07356972608
 21
134.9714823222234
 31
0.0
  0
LINE
  5
246
330
1F
100
AcDbEntity
  8
1
  6
Continuous
 62
     7
100
AcDbLine
 10
2140.57356972608
 20
136.5714823222215
 30
0.0
 11
2153.07356972608
 21
136.5714823222215
 31
0.0
  0
LINE
  5
247
330
1F
100
AcDbEntity
  8
1
  6
Continuous
 62
     7
100
AcDbLine
 10
2140.57356972608
 20
134.9714823222234
 30
0.0
 11
2140.57356972608
 21
136.5714823222215
 31
0.0
  0
LINE
  5
248
330
1F
100
AcDbEntity
  8
1
  6
Continuous
 62
     7
100
AcDbLine
 10
2152.923569726077
 20
138.0714823222215
 30
0.0
 11
2152.923569726077
 21
136.5714823222215
 31
0.0
  0
LINE
  5
249
330
1F
100
AcDbEntity
  8
1
  6
Continuous
 62
     7
100
AcDbLine
 10
2140.723569726079
 20
138.0714823222215
 30
0.0
 11
2152.923569726077
 21
138.0714823222215
 31
0.0
  0
LINE
  5
24A
330
1F
100
AcDbEntity
  8
1
  6
Continuous
 62
     7
100
AcDbLine
 10
2140.723569726079
 20
136.5714823222215
 30
0.0
 11
2140.723569726079
 21
138.0714823222215
 31
0.0
  0
LINE
  5
24B
330
1F
100
AcDbEntity
  8
1
  6
Continuous
 62
     7
100
AcDbLine
 10
2141.05006703418
 20
138.0714823222215
 30
0.0
 11
2141.05006703418
 21
141.6249003348335
 31
0.0
  0
LINE
  5
24C
330
1F
100
AcDbEntity
  8
1
  6
Continuous
 62
     7
100
AcDbLine
 10
2152.597072417969
 20
141.6249003348335
 30
0.0
 11
2152.597072417969
 21
138.0714823222215
 31
0.0
  0
LINE
  5
24D
330
1F
100
AcDbEntity
  8
1
  6
Continuous
 62
     7
100
AcDbLine
 10
2143.93681838013
 20
141.6249003348335
 30
0.0
 11
2143.93681838013
 21
138.0714823222215
 31
0.0
  0
LINE
  5
24E
330
1F
100
AcDbEntity
  8
1
  6
Continuous
 62
     7
100
AcDbLine
 10
2149.710321072031
 20
141.6249003348335
 30
0.0
 11
2149.710321072031
 21
138.0714823222215
 31
0.0
  0
LINE
  5
24F
330
1F
100
AcDbEntity
  8
1
  6
Continuous
 62
     7
100
AcDbLine
 10
2142.493442707159
 20
142.0714823222215
 30
0.0
 11
2151.153696744997
 21
142.0714823222215
 31
0.0
  0
LINE
  5
250
330
1F
100
AcDbEntity
  8
1
  6
DASH_CENTER
 62
     3
100
AcDbLine
 10
2146.82356972608
 20
142.0714823222215
 30
0.0
 11
2146.82356972608
 21
128.0714823222215
 31
0.0
  0
LINE
  5
251
330
1F
100
AcDbEntity
  8
1
  6
Continuous
 62
     7
100
AcDbLine
 10
2135.823569726029
 20
87.87148232222262
 30
0.0
 11
2135.82356972608
 21
100.0714823222274
 31
0.0
  0
LINE
  5
252
330
1F
100
AcDbEntity
  8
1
  6
Continuous
 62
     7
100
AcDbLine
 10
2137.323569726029
 20
87.87148232221944
 30
0.0
 11
2135.823569726029
 21
87.87148232222262
 31
0.0
  0
LINE
  5
253
330
1F
100
AcDbEntity
  8
1
  6
Continuous
 62
     7
100
AcDbLine
 10
2137.32356972608
 20
100.0714823222174
 30
0.0
 11
2137.323569726029
 21
87.87148232221944
 31
0.0
  0
LINE
  5
254
330
1F
100
AcDbEntity
  8
1
  6
Continuous
 62
     7
100
AcDbLine
 10
2135.82356972608
 20
100.0714823222274
 30
0.0
 11
2137.32356972608
 21
100.0714823222174
 31
0.0
  0
LINE
  5
255
330
1F
100
AcDbEntity
  8
1
  6
Continuous
 62
     7
100
AcDbLine
 10
2137.32356972606
 20
99.74498501411745
 30
0.0
 11
2140.876987738669
 21
99.74498501411745
 31
0.0
  0
LINE
  5
256
330
1F
100
AcDbEntity
  8
1
  6
Continuous
 62
     7
100
AcDbLine
 10
2140.876987738669
 20
88.19797963032443
 30
0.0
 11
2137.32356972606
 21
88.19797963032443
 31
0.0
  0
LINE
  5
257
330
1F
100
AcDbEntity
  8
1
  6
Continuous
 62
     7
100
AcDbLine
 10
2140.876987738669
 20
96.85823366817249
 30
0.0
 11
2137.32356972606
 21
96.85823366817249
 31
0.0
  0
LINE
  5
258
330
1F
100
AcDbEntity
  8
1
  6
Continuous
 62
     7
100
AcDbLine
 10
2140.876987738669
 20
91.08473097627348
 30
0.0
 11
2137.32356972606
 21
91.08473097627348
 31
0.0
  0
LINE
  5
259
330
1F
100
AcDbEntity
  8
1
  6
Continuous
 62
     7
100
AcDbLine
 10
2141.32356972606
 20
98.30160934114156
 30
0.0
 11
2141.32356972606
 21
89.64135530329941
 31
0.0
  0
LINE
  5
25A
330
1F
100
AcDbEntity
  8
1
  6
DASH_CENTER
 62
     3
100
AcDbLine
 10
2141.32356972606
 20
93.97148232222344
 30
0.0
 11
2125.32356972606
 21
93.97148232222344
 31
0.0
  0
LINE
  5
25B
330
1F
100
AcDbEntity
  8
1
  6
DASH_CENTER
 62
     3
100
AcDbLine
 10
2141.32356972606
 20
79.97148232222344
 30
0.0
 11
2125.32356972606
 21
79.97148232222344
 31
0.0
  0
LINE
  5
25C
330
1F
100
AcDbEntity
  8
1
  6
Continuous
 62
     7
100
AcDbLine
 10
2141.32356972606
 20
84.30160934114383
 30
0.0
 11
2141.32356972606
 21
75.64135530330168
 31
0.0
  0
LINE
  5
25D
330
1F
100
AcDbEntity
  8
1
  6
Continuous
 62
     7
100
AcDbLine
 10
2140.876987738669
 20
77.08473097627575
 30
0.0
 11
2137.32356972606
 21
77.08473097627575
 31
0.0
  0
LINE
  5
25E
330
1F
100
AcDbEntity
  8
1
  6
Continuous
 62
     7
100
AcDbLine
 10
2140.876987738669
 20
82.8582336681734
 30
0.0
 11
2137.32356972606
 21
82.8582336681734
 31
0.0
  0
LINE
  5
25F
330
1F
100
AcDbEntity
  8
1
  6
Continuous
 62
     7
100
AcDbLine
 10
2140.876987738669
 20
74.19797963032579
 30
0.0
 11
2137.32356972606
 21
74.19797963032579
 31
0.0
  0
LINE
  5
260
330
1F
100
AcDbEntity
  8
1
  6
Continuous
 62
     7
100
AcDbLine
 10
2137.32356972606
 20
85.74498501411972
 30
0.0
 11
2140.876987738669
 21
85.74498501411972
 31
0.0
  0
LINE
  5
261
330
1F
100
AcDbEntity
  8
1
  6
Continuous
 62
     7
100
AcDbLine
 10
2135.82356972608
 20
86.07148232222744
 30
0.0
 11
2137.32356972608
 21
86.0714823222188
 31
0.0
  0
LINE
  5
262
330
1F
100
AcDbEntity
  8
1
  6
Continuous
 62
     7
100
AcDbLine
 10
2137.32356972608
 20
86.0714823222188
 30
0.0
 11
2137.323569726029
 21
73.87148232221944
 31
0.0
  0
LINE
  5
263
330
1F
100
AcDbEntity
  8
1
  6
Continuous
 62
     7
100
AcDbLine
 10
2137.323569726029
 20
73.87148232221944
 30
0.0
 11
2135.823569726029
 21
73.87148232222444
 31
0.0
  0
LINE
  5
264
330
1F
100
AcDbEntity
  8
1
  6
Continuous
 62
     7
100
AcDbLine
 10
2135.823569726029
 20
73.87148232222444
 30
0.0
 11
2135.82356972608
 21
86.07148232222744
 31
0.0
  0
LINE
  5
2A0
330
1F
100
AcDbEntity
  8
0
100
AcDbLine
 10
2123.92353527763
 20
111.9714823222257
 30
0.0
 11
2119.723604174533
 21
111.9714823222257
 31
0.0
  0
LINE
  5
2A1
330
1F
100
AcDbEntity
  8
0
100
AcDbLine
 10
2118.219247307835
 20
105.5524060789358
 30
0.0
 11
2118.221125064352
 21
108.9989428162367
 31
0.0
  0
LINE
  5
2A2
330
1F
100
AcDbEntity
  8
0
100
AcDbLine
 10
2120.960066012863
 20
107.1882633589648
 30
0.0
 11
2119.311438531757
 21
105.8049698849145
 31
0.0
  0
LINE
  5
2A3
330
1F
100
AcDbEntity
  8
0
100
AcDbLine
 10
2122.6870734413
 20
107.1882633589648
 30
0.0
 11
2124.335700922406
 21
105.8049698849145
 31
0.0
  0
LINE
  5
2A4
330
1F
100
AcDbEntity
  8
0
100
AcDbLine
 10
2124.127656228674
 20
103.4714823222257
 30
0.0
 11
2124.1268885598
 21
104.8805036459266
 31
0.0
  0
LINE
  5
2A5
330
1F
100
AcDbEntity
  8
0
100
AcDbLine
 10
2119.519483225487
 20
103.4714823222257
 30
0.0
 11
2119.52025089436
 21
104.8805036459266
 31
0.0
  0
LINE
  5
2A6
330
1F
100
AcDbEntity
  8
0
100
AcDbLine
 10
2118.7193233431
 20
103.4714823222257
 30
0.0
 11
2118.719273745135
 21
104.9007945291864
 31
0.0
  0
LINE
  5
2A7
330
1F
100
AcDbEntity
  8
0
100
AcDbLine
 10
2123.923576918665
 20
111.1715223227038
 30
0.0
 11
2119.723576426683
 21
111.1715223227038
 31
0.0
  0
LINE
  5
2A8
330
1F
100
AcDbEntity
  8
0
100
AcDbLine
 10
2124.124288084642
 20
109.6535575991557
 30
0.0
 11
2124.123569960799
 21
110.9716412767457
 31
0.0
  0
LINE
  5
2A9
330
1F
100
AcDbEntity
  8
0
100
AcDbLine
 10
2122.726700837563
 20
107.5466162952957
 30
0.0
 11
2122.662422073379
 21
107.4700156812064
 31
0.0
  0
LINE
  5
2AA
330
1F
100
AcDbEntity
  8
0
100
AcDbLine
 10
2123.431116899186
 20
107.6082416305844
 30
0.0
 11
2124.322168825077
 21
106.8605977096554
 31
0.0
  0
LINE
  5
2AB
330
1F
100
AcDbEntity
  8
0
100
AcDbLine
 10
2118.722860094467
 20
109.6698631719855
 30
0.0
 11
2118.723569572087
 21
110.9720770924068
 31
0.0
  0
LINE
  5
2AC
330
1F
100
AcDbEntity
  8
0
100
AcDbLine
 10
2119.522851369518
 20
109.6535575991557
 30
0.0
 11
2119.523569493364
 21
110.9716412767457
 31
0.0
  0
LINE
  5
2AD
330
1F
100
AcDbEntity
  8
0
100
AcDbLine
 10
2120.920438616598
 20
107.5466162952957
 30
0.0
 11
2120.984717380781
 21
107.4700156812064
 31
0.0
  0
LINE
  5
2AE
330
1F
100
AcDbEntity
  8
0
100
AcDbLine
 10
2120.216022554977
 20
107.6082416305844
 30
0.0
 11
2119.32497062908
 21
106.8605977096554
 31
0.0
  0
LINE
  5
2AF
330
1F
100
AcDbEntity
  8
0
100
AcDbLine
 10
2118.996413120396
 20
107.0139078917555
 30
0.0
 11
2118.997325508995
 21
108.6885556923257
 31
0.0
  0
LINE
  5
2B0
330
1F
100
AcDbEntity
  8
0
100
AcDbLine
 10
2125.427892146326
 20
105.5524060789358
 30
0.0
 11
2125.426014389808
 21
108.9989428162367
 31
0.0
  0
LINE
  5
2B1
330
1F
100
AcDbEntity
  8
0
100
AcDbLine
 10
2124.927816111061
 20
103.4714823222257
 30
0.0
 11
2124.927865709025
 21
104.9007945293556
 31
0.0
  0
LINE
  5
2B2
330
1F
100
AcDbEntity
  8
0
100
AcDbLine
 10
2124.924279359691
 20
109.6698631719855
 30
0.0
 11
2124.923569882075
 21
110.9720770924068
 31
0.0
  0
LINE
  5
2B3
330
1F
100
AcDbEntity
  8
0
100
AcDbLine
 10
2124.650726333764
 20
107.0139078917555
 30
0.0
 11
2124.649813945165
 21
108.6885556923257
 31
0.0
  0
LINE
  5
2B8
330
1F
100
AcDbEntity
  8
1
  6
Continuous
 62
     2
100
AcDbLine
 10
2192.230702508101
 20
546.9808691048488
 30
0.0
 11
2192.230702508101
 21
579.9247191327904
 31
0.0
  0
LINE
  5
2B9
330
1F
100
AcDbEntity
  8
1
  6
Continuous
 62
     2
100
AcDbLine
 10
2192.230702508101
 20
381.1780073380828
 30
0.0
 11
2192.230702508101
 21
414.1218573660244
 31
0.0
  0
ARC
  5
2BA
330
1F
100
AcDbEntity
  8
0
  6
Continuous
 62
     7
100
AcDbCircle
 10
1879.506366468427
 20
480.9283830807844
 30
0.0
 40
1.0
100
AcDbArc
 50
180.0
 51
-90.0
  0
ARC
  5
2BB
330
1F
100
AcDbEntity
  8
0
  6
Continuous
 62
     7
100
AcDbCircle
 10
1957.506366468427
 20
480.9283830807844
 30
0.0
 40
1.0
100
AcDbArc
 50
-90.0
 51
0.0
  0
ARC
  5
2BC
330
1F
100
AcDbEntity
  8
0
  6
Continuous
 62
     7
100
AcDbCircle
 10
1905.625366468386
 20
876.3961990807866
 30
0.0
 40
0.5
100
AcDbArc
 50
0.0
 51
59.2621310003703
  0
ARC
  5
2BD
330
1F
100
AcDbEntity
  8
0
  6
Continuous
 62
     7
100
AcDbCircle
 10
1901.025366468385
 20
876.3961990807866
 30
0.0
 40
0.4999999999992871
100
AcDbArc
 50
120.7378690006151
 51
180.0
  0
ARC
  5
2BE
330
1F
100
AcDbEntity
  8
0
  6
Continuous
 62
     7
100
AcDbCircle
 10
1903.325366468385
 20
872.5283830807866
 30
0.0
 40
4.99999999999833
100
AcDbArc
 50
59.26213099995263
 51
120.7378690000384
  0
ARC
  5
2BF
330
1F
100
AcDbEntity
  8
0
  6
DASH_CENTER
 62
     3
100
AcDbCircle
 10
1918.506366468386
 20
834.4283830807858
 30
0.0
 40
46.99999999999977
100
AcDbArc
 50
128.7835999999941
 51
142.6758709999978
  0
ARC
  5
2C0
330
1F
100
AcDbEntity
  8
0
  6
DASH_CENTER
 62
     3
100
AcDbCircle
 10
1918.506366468386
 20
834.4283830807858
 30
0.0
 40
46.99999999999747
100
AcDbArc
 50
-143.4478000000005
 51
-129.1887659999977
  0
ARC
  5
2C1
330
1F
100
AcDbEntity
  8
0
  6
Continuous
 62
     7
100
AcDbCircle
 10
1885.306354468385
 20
867.6283800807855
 30
0.0
 40
6.799999999999272
100
AcDbArc
 50
90.0
 51
-179.9998709999849
  0
ARC
  5
2C2
330
1F
100
AcDbEntity
  8
0
  6
Continuous
 62
     7
100
AcDbCircle
 10
1885.306354468385
 20
801.2283860807866
 30
0.0
 40
6.799999999997421
100
AcDbArc
 50
-179.9997430000259
 51
-90.0
  0
ARC
  5
2C3
330
1F
100
AcDbEntity
  8
0
  6
Continuous
 62
     7
100
AcDbCircle
 10
1904.145527468387
 20
882.7275670807844
 30
0.0
 40
6.549267000002978
100
AcDbArc
 50
-156.3507840000177
 51
-118.4389019999649
  0
ARC
  5
2C4
330
1F
100
AcDbEntity
  8
0
  6
Continuous
 62
     7
100
AcDbCircle
 10
1898.355322468385
 20
878.0576040807846
 30
0.0
 40
2.053484000002154
100
AcDbArc
 50
95.84283399994057
 51
-159.9986550000527
  0
ARC
  5
2C5
330
1F
100
AcDbEntity
  8
0
  6
Continuous
 62
     7
100
AcDbCircle
 10
1902.370393468385
 20
880.9837220807858
 30
0.0
 40
6.964582999999721
100
AcDbArc
 50
-148.6011469999625
 51
-109.2401490000285
  0
ARC
  5
2C6
330
1F
100
AcDbEntity
  8
0
  6
Continuous
 62
     7
100
AcDbCircle
 10
1938.099183468385
 20
864.6905670807846
 30
0.0
 40
42.92462900000428
100
AcDbArc
 50
151.0514479999955
 51
158.9049729999981
  0
ARC
  5
2C7
330
1F
100
AcDbEntity
  8
0
  6
Continuous
 62
     7
100
AcDbCircle
 10
1938.406466468386
 20
865.0634510807868
 30
0.0
 40
42.92462900000163
100
AcDbArc
 50
140.2760754055098
 51
148.3512109999958
  0
ARC
  5
2C8
330
1F
100
AcDbEntity
  8
0
  6
Continuous
 62
     7
100
AcDbCircle
 10
1938.099183468385
 20
864.6905670807846
 30
0.0
 40
34.92462900000035
100
AcDbArc
 50
151.406948999994
 51
159.2268909999945
  0
ARC
  5
2C9
330
1F
100
AcDbEntity
  8
0
  6
Continuous
 62
     7
100
AcDbCircle
 10
1938.406466468386
 20
865.0634510807868
 30
0.0
 40
34.92462900000255
100
AcDbArc
 50
137.330405308223
 51
148.0880160000039
  0
ARC
  5
2CA
330
1F
100
AcDbEntity
  8
0
  6
DASH_CENTER
 62
     3
100
AcDbCircle
 10
1918.506366468386
 20
834.4283830807858
 30
0.0
 40
47.00000000000172
100
AcDbArc
 50
-50.81123400000229
 51
-36.89630699999582
  0
ARC
  5
2CB
330
1F
100
AcDbEntity
  8
0
  6
DASH_CENTER
 62
     3
100
AcDbCircle
 10
1918.506366468386
 20
834.4283830807858
 30
0.0
 40
46.99999999999969
100
AcDbArc
 50
38.84699099999729
 51
51.2164000000068
  0
ARC
  5
2CC
330
1F
100
AcDbEntity
  8
0
  6
Continuous
 62
     7
100
AcDbCircle
 10
1951.706378468387
 20
801.2283860807866
 30
0.0
 40
6.800000000002001
100
AcDbArc
 50
-90.0
 51
-0.00025699997406
  0
ARC
  5
2CD
330
1F
100
AcDbEntity
  8
0
  6
Continuous
 62
     7
100
AcDbCircle
 10
1951.706378468387
 20
867.6283800807855
 30
0.0
 40
6.799999999996271
100
AcDbArc
 50
-0.00012900001513
 51
90.0
  0
ARC
  5
2CE
330
1F
100
AcDbEntity
  8
0
  6
Continuous
 62
     7
100
AcDbCircle
 10
1895.736359468386
 20
874.7874730807857
 30
0.0
 40
0.4999999999962987
100
AcDbArc
 50
70.00000000018872
 51
160.0000000003223
  0
ARC
  5
2CF
330
1F
100
AcDbEntity
  8
0
  6
Continuous
 62
     7
100
AcDbCircle
 10
1919.536541468385
 20
896.3798150807866
 30
0.0
 40
4.797382000003536
100
AcDbArc
 50
-166.7966659999746
 51
-125.3946290000077
  0
ARC
  5
2D0
330
1F
100
AcDbEntity
  8
0
  6
Continuous
 62
     7
100
AcDbCircle
 10
1909.782069660146
 20
894.6332248121466
 30
0.0
 40
5.125395000002361
100
AcDbArc
 50
7.2952100000186
 51
60.95337699991032
  0
ARC
  5
2D1
330
1F
100
AcDbEntity
  8
0
  6
Continuous
 62
     7
100
AcDbCircle
 10
1938.406466468386
 20
865.0634510807868
 30
0.0
 40
42.92462899999497
100
AcDbArc
 50
127.5084979999961
 51
140.2760754055098
  0
ARC
  5
2D2
330
1F
100
AcDbEntity
  8
0
  6
Continuous
 62
     7
100
AcDbCircle
 10
1938.406466468386
 20
865.0634510807868
 30
0.0
 40
34.92462899999956
100
AcDbArc
 50
128.3063539999937
 51
137.330405308223
  0
ARC
  5
2D3
330
1F
100
AcDbEntity
  8
1
  6
Continuous
 62
     7
100
AcDbCircle
 10
2588.506363468465
 20
469.9279210807836
 30
0.0
 40
3.99999999999986
100
AcDbArc
 50
89.76010546575265
 51
180.0
  0
ARC
  5
2D4
330
1F
100
AcDbEntity
  8
1
  6
Continuous
 62
     7
100
AcDbCircle
 10
2588.506363468465
 20
469.9279210807836
 30
0.0
 40
4.0
100
AcDbArc
 50
180.0
 51
-89.99999999998697
  0
ARC
  5
2D5
330
1F
100
AcDbEntity
  8
0
  6
Continuous
 62
     7
100
AcDbCircle
 10
2603.74869814303
 20
462.3484722500125
 30
0.0
 40
6.625395000002875
100
AcDbArc
 50
-22.21569024591702
 51
-10.29652499995824
  0
ARC
  5
2D6
330
1F
100
AcDbEntity
  8
0
  6
Continuous
 62
     7
100
AcDbCircle
 10
2607.097569108339
 20
453.0218783321416
 30
0.0
 40
3.297381999999053
100
AcDbArc
 50
159.3073145032685
 51
-179.3958179999516
  0
ARC
  5
2D7
330
1F
100
AcDbEntity
  8
0
  6
Continuous
 62
     7
100
AcDbCircle
 10
2607.097569108339
 20
453.0218783321416
 30
0.0
 40
3.297381999995068
100
AcDbArc
 50
112.803334000006
 51
159.3073145032685
  0
ARC
  5
2D8
330
1F
100
AcDbEntity
  8
0
  6
Continuous
 62
     7
100
AcDbCircle
 10
2603.74869814303
 20
462.3484722500125
 30
0.0
 40
6.625394999998635
100
AcDbArc
 50
-73.10478999995411
 51
-22.21569024591702
  0
ARC
  5
2D9
330
1F
100
AcDbEntity
  8
0
  6
Continuous
 62
     7
100
AcDbCircle
 10
2607.097569108339
 20
453.0218783321416
 30
0.0
 40
4.797381999999898
100
AcDbArc
 50
112.803334000006
 51
172.9207750000209
  0
ARC
  5
2DA
330
1F
100
AcDbEntity
  8
0
  6
Continuous
 62
     7
100
AcDbCircle
 10
2603.74869814303
 20
462.3484722500125
 30
0.0
 40
5.12539499999681
100
AcDbArc
 50
-73.10479000002046
 51
-3.49705099997028
  0
ARC
  5
2DB
330
1F
100
AcDbEntity
  8
1
  6
Continuous
 62
     7
100
AcDbCircle
 10
2610.556365468464
 20
497.1783830807835
 30
0.0
 40
31.25046199999986
100
AcDbArc
 50
-90.0
 51
89.99999999999584
  0
ARC
  5
2DC
330
1F
100
AcDbEntity
  8
1
  6
Continuous
 62
     7
100
AcDbCircle
 10
2610.556365468464
 20
497.1783830807835
 30
0.0
 40
23.25046199999814
100
AcDbArc
 50
-89.63880349213906
 51
89.63880349213906
  0
ARC
  5
2DD
330
1F
100
AcDbEntity
  8
0
  6
Continuous
 62
     7
100
AcDbCircle
 10
2600.774181468463
 20
512.8788450807824
 30
0.0
 40
0.5
100
AcDbArc
 50
-90.0
 51
-30.7378690003433
  0
ARC
  5
2DE
330
1F
100
AcDbEntity
  8
0
  6
Continuous
 62
     7
100
AcDbCircle
 10
2600.774181468463
 20
517.4788450807855
 30
0.0
 40
0.4999999999954729
100
AcDbArc
 50
30.73786899926834
 51
90.0
  0
ARC
  5
2DF
330
1F
100
AcDbEntity
  8
0
  6
Continuous
 62
     7
100
AcDbCircle
 10
2596.906365468464
 20
515.1788450807835
 30
0.0
 40
4.999999999998383
100
AcDbArc
 50
-30.73786900000761
 51
30.73786900002105
  0
ARC
  5
2E0
330
1F
100
AcDbEntity
  8
0
  6
Continuous
 62
     7
100
AcDbCircle
 10
2598.806365468466
 20
528.4288450807835
 30
0.0
 40
0.5
100
AcDbArc
 50
0.0
 51
90.0
  0
ARC
  5
2E1
330
1F
100
AcDbEntity
  8
0
  6
Continuous
 62
     7
100
AcDbCircle
 10
2606.658936468462
 20
516.1604000807838
 30
0.0
 40
8.163072999997674
100
AcDbArc
 50
114.2487959999642
 51
163.865626999992
  0
ARC
  5
2E2
330
1F
100
AcDbEntity
  8
0
  6
Continuous
 62
     7
100
AcDbCircle
 10
2606.658936468462
 20
516.1604000807838
 30
0.0
 40
5.563073000000627
100
AcDbArc
 50
127.0597410000319
 51
165.0582640000436
  0
ARC
  5
2E3
330
1F
100
AcDbEntity
  8
0
  6
Continuous
 62
     7
100
AcDbCircle
 10
2597.506366468463
 20
480.9283830807835
 30
0.0
 40
1.0
100
AcDbArc
 50
-90.0
 51
0.0
  0
ARC
  5
2E4
330
1F
100
AcDbEntity
  8
1
  6
PHANTOM
 62
     3
100
AcDbCircle
 10
2261.006366468426
 20
806.9283830807945
 30
0.0
 40
17.50000000000864
100
AcDbArc
 50
-90.0
 51
85.81968169258143
  0
ARC
  5
2E5
330
1F
100
AcDbEntity
  8
1
  6
PHANTOM
 62
     3
100
AcDbCircle
 10
1918.506366468384
 20
819.4283830807858
 30
0.0
 40
29.99999999999971
100
AcDbArc
 50
85.81968169258096
 51
-90.0
  0
ARC
  5
2E6
330
1F
100
AcDbEntity
  8
1
  6
Continuous
 62
     7
100
AcDbCircle
 10
2052.336493487349
 20
501.4725603323645
 30
0.0
 40
2.555822748427708
100
AcDbArc
 50
55.61575253189191
 51
124.3842474679567
  0
ARC
  5
2E7
330
1F
100
AcDbEntity
  8
1
  6
Continuous
 62
     7
100
AcDbCircle
 10
2048.006366468429
 20
494.4749650681656
 30
0.0
 40
9.553418012623967
100
AcDbArc
 50
72.41204622601786
 51
107.5879537739926
  0
ARC
  5
2E8
330
1F
100
AcDbEntity
  8
1
  6
Continuous
 62
     7
100
AcDbCircle
 10
2043.676239449508
 20
501.4725603323645
 30
0.0
 40
2.555822748422572
100
AcDbArc
 50
55.61575253206018
 51
124.3842474681291
  0
ARC
  5
2E9
330
1F
100
AcDbEntity
  8
1
  6
Continuous
 62
     7
100
AcDbCircle
 10
2180.67623944952
 20
501.4725603323645
 30
0.0
 40
2.555822748422059
100
AcDbArc
 50
55.615752532077
 51
124.3842474679398
  0
ARC
  5
2EA
330
1F
100
AcDbEntity
  8
1
  6
Continuous
 62
     7
100
AcDbCircle
 10
2185.006366468439
 20
494.4749650681656
 30
0.0
 40
9.553418012623967
100
AcDbArc
 50
72.41204622601786
 51
107.5879537739873
  0
ARC
  5
2EB
330
1F
100
AcDbEntity
  8
1
  6
Continuous
 62
     7
100
AcDbCircle
 10
2189.336493487359
 20
501.4725603323645
 30
0.0
 40
2.555822748427708
100
AcDbArc
 50
55.61575253189191
 51
124.3842474679567
  0
ARC
  5
2EC
330
1F
100
AcDbEntity
  8
1
  6
Continuous
 62
     7
100
AcDbCircle
 10
2545.176239449544
 20
501.4725603323645
 30
0.0
 40
2.555822748412538
100
AcDbArc
 50
55.61575253195566
 51
124.3842474682968
  0
ARC
  5
2ED
330
1F
100
AcDbEntity
  8
1
  6
Continuous
 62
     7
100
AcDbCircle
 10
2549.506366468463
 20
494.4749650681638
 30
0.0
 40
9.553418012615847
100
AcDbArc
 50
72.41204622599098
 51
107.587953774009
  0
ARC
  5
2EE
330
1F
100
AcDbEntity
  8
1
  6
Continuous
 62
     7
100
AcDbCircle
 10
2553.836493487383
 20
501.4725603323645
 30
0.0
 40
2.555822748413052
100
AcDbArc
 50
55.61575253193883
 51
124.3842474680612
  0
ARC
  5
2EF
330
1F
100
AcDbEntity
  8
1
  6
Continuous
 62
     7
100
AcDbCircle
 10
2261.006366468428
 20
806.9283830807945
 30
0.0
 40
17.50000000000063
100
AcDbArc
 50
-113.8955081860779
 51
0.0
  0
ARC
  5
2F0
330
1F
100
AcDbEntity
  8
1
  6
Continuous
 62
     7
100
AcDbCircle
 10
2261.006366468428
 20
806.9283830807945
 30
0.0
 40
17.5
100
AcDbArc
 50
0.0
 51
27.66044989929025
  0
ARC
  5
2F1
330
1F
100
AcDbEntity
  8
1
  6
DASHED
 62
     4
100
AcDbCircle
 10
2261.006366468428
 20
806.9283830807945
 30
0.0
 40
17.4999999999983
100
AcDbArc
 50
27.66044989929025
 51
-113.8955081860779
  0
ARC
  5
2F2
330
1F
100
AcDbEntity
  8
1
  6
Continuous
 62
     7
100
AcDbCircle
 10
1918.506366468406
 20
819.4283830807858
 30
0.0
 40
30.0000000000009
100
AcDbArc
 50
-115.8419327631707
 51
-64.15806723682933
  0
ARC
  5
2F3
330
1F
100
AcDbEntity
  8
1
  6
DASHED
 62
     4
100
AcDbCircle
 10
1918.506366468406
 20
819.4283830807858
 30
0.0
 40
30.0000000000009
100
AcDbArc
 50
-64.15806723682933
 51
0.0
  0
ARC
  5
2F4
330
1F
100
AcDbEntity
  8
1
  6
DASHED
 62
     4
100
AcDbCircle
 10
1918.506366468406
 20
819.4283830807858
 30
0.0
 40
30.0
100
AcDbArc
 50
180.0
 51
-115.8419327631707
  0
ARC
  5
2F5
330
1F
100
AcDbEntity
  8
1
  6
DASHED
 62
     4
100
AcDbCircle
 10
1918.506366468406
 20
819.4283830807858
 30
0.0
 40
30.0
100
AcDbArc
 50
0.0
 51
180.0
  0
ARC
  5
2F6
330
1F
100
AcDbEntity
  8
1
  6
Continuous
 62
     7
100
AcDbCircle
 10
2151.153696744997
 20
139.5156595738017
 30
0.0
 40
2.555822748416798
100
AcDbArc
 50
55.61575253192217
 51
124.3842474679685
  0
ARC
  5
2F7
330
1F
100
AcDbEntity
  8
1
  6
Continuous
 62
     7
100
AcDbCircle
 10
2146.82356972608
 20
132.5180643096028
 30
0.0
 40
9.553418012616687
100
AcDbArc
 50
72.41204622599258
 51
107.5879537740048
  0
ARC
  5
2F8
330
1F
100
AcDbEntity
  8
1
  6
Continuous
 62
     7
100
AcDbCircle
 10
2142.493442707159
 20
139.5156595738017
 30
0.0
 40
2.555822748416284
100
AcDbArc
 50
55.615752531939
 51
124.3842474682125
  0
ARC
  5
2F9
330
1F
100
AcDbEntity
  8
1
  6
Continuous
 62
     7
100
AcDbCircle
 10
2138.767746977639
 20
89.6413553032985
 30
0.0
 40
2.555822748416533
100
AcDbArc
 50
-34.38424746814365
 51
34.38424746816047
  0
ARC
  5
2FA
330
1F
100
AcDbEntity
  8
1
  6
Continuous
 62
     7
100
AcDbCircle
 10
2131.770151713449
 20
93.97148232222344
 30
0.0
 40
9.553418012605981
100
AcDbArc
 50
-17.58795377402205
 51
17.58795377401686
  0
ARC
  5
2FB
330
1F
100
AcDbEntity
  8
1
  6
Continuous
 62
     7
100
AcDbCircle
 10
2138.767746977639
 20
98.30160934114747
 30
0.0
 40
2.555822748417047
100
AcDbArc
 50
-34.38424746816047
 51
34.38424746806793
  0
ARC
  5
2FC
330
1F
100
AcDbEntity
  8
1
  6
Continuous
 62
     7
100
AcDbCircle
 10
2138.767746977639
 20
84.30160934114747
 30
0.0
 40
2.555822748416533
100
AcDbArc
 50
-34.38424746814365
 51
34.38424746810999
  0
ARC
  5
2FD
330
1F
100
AcDbEntity
  8
1
  6
Continuous
 62
     7
100
AcDbCircle
 10
2131.770151713449
 20
79.97148232222571
 30
0.0
 40
9.553418012605981
100
AcDbArc
 50
-17.58795377402205
 51
17.58795377400906
  0
ARC
  5
2FE
330
1F
100
AcDbEntity
  8
1
  6
Continuous
 62
     7
100
AcDbCircle
 10
2138.767746977639
 20
75.64135530329941
 30
0.0
 40
2.555822748416277
100
AcDbArc
 50
-34.38424746813523
 51
34.38424746818571
  0
CIRCLE
  5
2FF
330
1F
100
AcDbEntity
  8
0
  6
Continuous
 62
     7
100
AcDbCircle
 10
1918.506366468386
 20
834.4283830807858
 30
0.0
 40
36.5
  0
CIRCLE
  5
300
330
1F
100
AcDbEntity
  8
1
  6
Continuous
 62
     7
100
AcDbCircle
 10
2118.506366468515
 20
811.4283830807945
 30
0.0
 40
3.5
  0
CIRCLE
  5
301
330
1F
100
AcDbEntity
  8
1
  6
Continuous
 62
     7
100
AcDbCircle
 10
2038.506366468532
 20
811.4283830807945
 30
0.0
 40
3.5
  0
ARC
  5
302
330
1F
100
AcDbEntity
  8
1
  6
Continuous
 62
     7
100
AcDbCircle
 10
2515.006366468463
 20
473.4283830807835
 30
0.0
 40
0.5
100
AcDbArc
 50
90.0
 51
180.0
  0
ARC
  5
303
330
1F
100
AcDbEntity
  8
1
  6
Continuous
 62
     7
100
AcDbCircle
 10
2166.506366468428
 20
483.9283830807844
 30
0.0
 40
2.000000000001111
100
AcDbArc
 50
-59.99999999935648
 51
0.0
  0
ARC
  5
304
330
1F
100
AcDbEntity
  8
1
  6
Continuous
 62
     7
100
AcDbCircle
 10
2275.306366468427
 20
495.7283830807846
 30
0.0
 40
1.200000000001182
100
AcDbArc
 50
0.0
 51
90.0
  0
ARC
  5
305
330
1F
100
AcDbEntity
  8
1
  6
Continuous
 62
     7
100
AcDbCircle
 10
1970.506366468427
 20
475.9283830807844
 30
0.0
 40
1.999999999998863
100
AcDbArc
 50
180.0
 51
-89.99999999996743
  0
ARC
  5
306
330
1F
100
AcDbEntity
  8
1
  6
Continuous
 62
     7
100
AcDbCircle
 10
2261.506366468428
 20
845.4283830807945
 30
0.0
 40
15.0
100
AcDbArc
 50
0.0
 51
90.0
  0
ARC
  5
307
330
1F
100
AcDbEntity
  8
1
  6
Continuous
 62
     7
100
AcDbCircle
 10
2261.506366468428
 20
805.9283830807858
 30
0.0
 40
15.0
100
AcDbArc
 50
-90.0
 51
0.0
  0
ARC
  5
308
330
1F
100
AcDbEntity
  8
1
  6
Continuous
 62
     7
100
AcDbCircle
 10
1969.706366468425
 20
495.7283830807846
 30
0.0
 40
1.199999999999761
100
AcDbArc
 50
90.0
 51
180.0
  0
ARC
  5
309
330
1F
100
AcDbEntity
  8
1
  6
Continuous
 62
     7
100
AcDbCircle
 10
2170.506366468428
 20
475.9283830807844
 30
0.0
 40
2.0
100
AcDbArc
 50
180.0
 51
-90.0
  0
ARC
  5
30A
330
1F
100
AcDbEntity
  8
1
  6
Continuous
 62
     7
100
AcDbCircle
 10
2166.506366468428
 20
483.9283830807844
 30
0.0
 40
2.0
100
AcDbArc
 50
-90.0
 51
-59.99999999935648
  0
ARC
  5
30B
330
1F
100
AcDbEntity
  8
1
  6
Continuous
 62
     7
100
AcDbCircle
 10
2056.506366468418
 20
475.9283830807844
 30
0.0
 40
2.0
100
AcDbArc
 50
-90.0
 51
0.0
  0
ARC
  5
30C
330
1F
100
AcDbEntity
  8
1
  6
Continuous
 62
     7
100
AcDbCircle
 10
2060.506366468429
 20
483.9283830807844
 30
0.0
 40
2.0
100
AcDbArc
 50
180.0
 51
-119.9999999980589
  0
ARC
  5
30D
330
1F
100
AcDbEntity
  8
1
  6
Continuous
 62
     7
100
AcDbCircle
 10
2583.306366468472
 20
495.7283830807837
 30
0.0
 40
1.19999999999709
100
AcDbArc
 50
0.0
 51
90.0
  0
ARC
  5
30E
330
1F
100
AcDbEntity
  8
1
  6
Continuous
 62
     7
100
AcDbCircle
 10
2516.206366468466
 20
495.7283830807837
 30
0.0
 40
1.199999999999761
100
AcDbArc
 50
90.0
 51
180.0
  0
ARC
  5
30F
330
1F
100
AcDbEntity
  8
1
  6
Continuous
 62
     7
100
AcDbCircle
 10
2548.506366468469
 20
435.9283830807835
 30
0.0
 40
2.0
100
AcDbArc
 50
180.0
 51
-90.0
  0
ARC
  5
310
330
1F
100
AcDbEntity
  8
1
  6
Continuous
 62
     7
100
AcDbCircle
 10
2544.506366468469
 20
471.9283830807835
 30
0.0
 40
2.0
100
AcDbArc
 50
0.0
 51
90.0
  0
ARC
  5
311
330
1F
100
AcDbEntity
  8
1
  6
Continuous
 62
     7
100
AcDbCircle
 10
2519.506366468465
 20
547.9283830807835
 30
0.0
 40
4.0
100
AcDbArc
 50
90.0
 51
180.0
  0
ARC
  5
312
330
1F
100
AcDbEntity
  8
1
  6
Continuous
 62
     7
100
AcDbCircle
 10
2030.506366468486
 20
824.4283830807945
 30
0.0
 40
2.0
100
AcDbArc
 50
90.0
 51
180.0
  0
ARC
  5
313
330
1F
100
AcDbEntity
  8
1
  6
Continuous
 62
     7
100
AcDbCircle
 10
2126.506366468486
 20
824.4283830807945
 30
0.0
 40
2.0
100
AcDbArc
 50
0.0
 51
90.0
  0
ARC
  5
314
330
1F
100
AcDbEntity
  8
1
  6
Continuous
 62
     7
100
AcDbCircle
 10
2099.506366468486
 20
534.9283830807835
 30
0.0
 40
2.0
100
AcDbArc
 50
90.0
 51
180.0
  0
ARC
  5
315
330
1F
100
AcDbEntity
  8
1
  6
Continuous
 62
     7
100
AcDbCircle
 10
2126.506366468486
 20
538.9283830807835
 30
0.0
 40
2.0
100
AcDbArc
 50
-90.0
 51
0.0
  0
ARC
  5
316
330
1F
100
AcDbEntity
  8
1
  6
Continuous
 62
     7
100
AcDbCircle
 10
2030.506366468486
 20
538.9283830807835
 30
0.0
 40
2.0
100
AcDbArc
 50
180.0
 51
-90.0
  0
ARC
  5
317
330
1F
100
AcDbEntity
  8
1
  6
Continuous
 62
     7
100
AcDbCircle
 10
2057.506366468486
 20
534.9283830807835
 30
0.0
 40
2.0
100
AcDbArc
 50
0.0
 51
90.0
  0
ARC
  5
318
330
1F
100
AcDbEntity
  8
1
  6
DASHED
 62
     4
100
AcDbCircle
 10
2277.506366468426
 20
459.5697602174037
 30
0.0
 40
0.9999999999985608
100
AcDbArc
 50
-63.00000000013161
 51
0.0
  0
ARC
  5
319
330
1F
100
AcDbEntity
  8
1
  6
DASHED
 62
     4
100
AcDbCircle
 10
2277.506366468426
 20
452.2870059441757
 30
0.0
 40
1.0
100
AcDbArc
 50
0.0
 51
62.99999999991574
  0
ARC
  5
31A
330
1F
100
AcDbEntity
  8
1
  6
DASHED
 62
     4
100
AcDbCircle
 10
2276.506366468426
 20
455.0411838689347
 30
0.0
 40
1.0
100
AcDbArc
 50
180.0
 51
-116.9999999997145
  0
ARC
  5
31B
330
1F
100
AcDbEntity
  8
1
  6
DASHED
 62
     4
100
AcDbCircle
 10
2276.506366468426
 20
456.8155822926547
 30
0.0
 40
0.9999999999925607
100
AcDbArc
 50
117.0000000002483
 51
180.0
  0
ARC
  5
31C
330
1F
100
AcDbEntity
  8
1
  6
DASHED
 62
     4
100
AcDbCircle
 10
2245.506366468426
 20
456.8155822926547
 30
0.0
 40
1.0
100
AcDbArc
 50
0.0
 51
62.99999999991427
  0
ARC
  5
31D
330
1F
100
AcDbEntity
  8
1
  6
DASHED
 62
     4
100
AcDbCircle
 10
2245.506366468426
 20
455.0411838689347
 30
0.0
 40
1.000000000009399
100
AcDbArc
 50
-63.00000000044804
 51
0.0
  0
ARC
  5
31E
330
1F
100
AcDbEntity
  8
1
  6
DASHED
 62
     4
100
AcDbCircle
 10
2244.506366468426
 20
452.2870059441757
 30
0.0
 40
0.9999999999926114
100
AcDbArc
 50
117.0000000002468
 51
180.0
  0
ARC
  5
31F
330
1F
100
AcDbEntity
  8
1
  6
DASHED
 62
     4
100
AcDbCircle
 10
2244.506366468426
 20
459.5697602174037
 30
0.0
 40
1.0
100
AcDbArc
 50
180.0
 51
-117.0000000000309
  0
ARC
  5
320
330
1F
100
AcDbEntity
  8
1
  6
DASHED
 62
     4
100
AcDbCircle
 10
2245.506366468426
 20
469.9283830807844
 30
0.0
 40
2.0
100
AcDbArc
 50
90.0
 51
180.0
  0
ARC
  5
321
330
1F
100
AcDbEntity
  8
1
  6
DASHED
 62
     4
100
AcDbCircle
 10
2245.506366468426
 20
433.9283830807844
 30
0.0
 40
2.0
100
AcDbArc
 50
180.0
 51
-90.0
  0
ARC
  5
322
330
1F
100
AcDbEntity
  8
1
  6
DASHED
 62
     4
100
AcDbCircle
 10
2276.506366468426
 20
433.9283830807844
 30
0.0
 40
2.0
100
AcDbArc
 50
-90.0
 51
0.0
  0
ARC
  5
323
330
1F
100
AcDbEntity
  8
1
  6
DASHED
 62
     4
100
AcDbCircle
 10
2276.506366468426
 20
469.9283830807844
 30
0.0
 40
2.0
100
AcDbArc
 50
0.0
 51
90.0
  0
ARC
  5
324
330
1F
100
AcDbEntity
  8
1
  6
DASHED
 62
     4
100
AcDbCircle
 10
2514.506366468462
 20
459.5697602174037
 30
0.0
 40
1.0
100
AcDbArc
 50
180.0
 51
-116.9999999999046
  0
ARC
  5
325
330
1F
100
AcDbEntity
  8
1
  6
DASHED
 62
     4
100
AcDbCircle
 10
2514.506366468462
 20
452.2870059441634
 30
0.0
 40
1.000000000000707
100
AcDbArc
 50
116.9999999999519
 51
180.0
  0
ARC
  5
326
330
1F
100
AcDbEntity
  8
1
  6
DASHED
 62
     4
100
AcDbCircle
 10
2515.506366468462
 20
455.0411838689224
 30
0.0
 40
1.000000000000715
100
AcDbArc
 50
-62.99999999998981
 51
0.0
  0
ARC
  5
327
330
1F
100
AcDbEntity
  8
1
  6
DASHED
 62
     4
100
AcDbCircle
 10
2515.506366468462
 20
456.8155822926428
 30
0.0
 40
1.0
100
AcDbArc
 50
0.0
 51
63.0000000000386
  0
ARC
  5
328
330
1F
100
AcDbEntity
  8
1
  6
DASHED
 62
     4
100
AcDbCircle
 10
2546.506366468462
 20
456.8155822926428
 30
0.0
 40
1.000000000001974
100
AcDbArc
 50
116.999999999915
 51
180.0
  0
ARC
  5
329
330
1F
100
AcDbEntity
  8
1
  6
DASHED
 62
     4
100
AcDbCircle
 10
2546.506366468462
 20
455.0411838689224
 30
0.0
 40
1.0
100
AcDbArc
 50
180.0
 51
-116.9999999999638
  0
ARC
  5
32A
330
1F
100
AcDbEntity
  8
1
  6
DASHED
 62
     4
100
AcDbCircle
 10
2547.506366468462
 20
452.2870059441634
 30
0.0
 40
1.0
100
AcDbArc
 50
0.0
 51
63.00000000000164
  0
ARC
  5
32B
330
1F
100
AcDbEntity
  8
1
  6
DASHED
 62
     4
100
AcDbCircle
 10
2547.506366468462
 20
459.5697602174037
 30
0.0
 40
1.000000000002741
100
AcDbArc
 50
-63.00000000004896
 51
0.0
  0
ARC
  5
32C
330
1F
100
AcDbEntity
  8
1
  6
DASHED
 62
     4
100
AcDbCircle
 10
2546.506366468462
 20
469.9283830807835
 30
0.0
 40
2.0
100
AcDbArc
 50
0.0
 51
90.0
  0
ARC
  5
32D
330
1F
100
AcDbEntity
  8
1
  6
DASHED
 62
     4
100
AcDbCircle
 10
2546.506366468462
 20
433.9283830807835
 30
0.0
 40
2.0
100
AcDbArc
 50
-90.0
 51
0.0
  0
ARC
  5
32E
330
1F
100
AcDbEntity
  8
1
  6
DASHED
 62
     4
100
AcDbCircle
 10
2515.506366468462
 20
433.9283830807835
 30
0.0
 40
2.0
100
AcDbArc
 50
180.0
 51
-90.0
  0
ARC
  5
32F
330
1F
100
AcDbEntity
  8
1
  6
DASHED
 62
     4
100
AcDbCircle
 10
2515.506366468462
 20
469.9283830807835
 30
0.0
 40
2.0
100
AcDbArc
 50
90.0
 51
180.0
  0
ARC
  5
330
330
1F
100
AcDbEntity
  8
1
  6
Continuous
 62
     7
100
AcDbCircle
 10
1952.506366468406
 20
868.4283828375455
 30
0.0
 40
6.0
100
AcDbArc
 50
0.0
 51
90.00000232279949
  0
ARC
  5
331
330
1F
100
AcDbEntity
  8
1
  6
Continuous
 62
     7
100
AcDbCircle
 10
1960.506366468411
 20
860.4283800807848
 30
0.0
 40
2.0
100
AcDbArc
 50
180.0
 51
-90.0
  0
ARC
  5
332
330
1F
100
AcDbEntity
  8
1
  6
Continuous
 62
     7
100
AcDbCircle
 10
1884.506366468427
 20
868.4283800807848
 30
0.0
 40
6.0
100
AcDbArc
 50
90.0
 51
180.0
  0
ARC
  5
333
330
1F
100
AcDbEntity
  8
1
  6
Continuous
 62
     7
100
AcDbCircle
 10
1886.506366468427
 20
800.4283830807858
 30
0.0
 40
8.0
100
AcDbArc
 50
180.0
 51
-90.0
  0
ARC
  5
334
330
1F
100
AcDbEntity
  8
1
  6
DASHED
 62
     4
100
AcDbCircle
 10
1946.506366468406
 20
433.9283830807844
 30
0.0
 40
2.0
100
AcDbArc
 50
-90.0
 51
0.0
  0
ARC
  5
335
330
1F
100
AcDbEntity
  8
1
  6
DASHED
 62
     4
100
AcDbCircle
 10
1946.506366468406
 20
469.9283830807844
 30
0.0
 40
2.0
100
AcDbArc
 50
0.0
 51
90.0
  0
ARC
  5
336
330
1F
100
AcDbEntity
  8
1
  6
DASHED
 62
     4
100
AcDbCircle
 10
1890.506366468435
 20
469.9283830807844
 30
0.0
 40
2.0
100
AcDbArc
 50
90.0
 51
180.0
  0
ARC
  5
337
330
1F
100
AcDbEntity
  8
1
  6
DASHED
 62
     4
100
AcDbCircle
 10
1890.506366468435
 20
433.9283830807844
 30
0.0
 40
2.0
100
AcDbArc
 50
180.0
 51
-90.0
  0
ARC
  5
338
330
1F
100
AcDbEntity
  8
1
  6
DASHED
 62
     4
100
AcDbCircle
 10
1890.506366468435
 20
455.0411838689247
 30
0.0
 40
1.000000000001827
100
AcDbArc
 50
-63.00000000003691
 51
0.0
  0
ARC
  5
339
330
1F
100
AcDbEntity
  8
1
  6
DASHED
 62
     4
100
AcDbCircle
 10
1889.506366468435
 20
452.2870059441648
 30
0.0
 40
1.000000000002336
100
AcDbArc
 50
116.9999999999629
 51
180.0
  0
ARC
  5
33A
330
1F
100
AcDbEntity
  8
1
  6
DASHED
 62
     4
100
AcDbCircle
 10
1890.506366468435
 20
456.8155822926456
 30
0.0
 40
1.0
100
AcDbArc
 50
0.0
 51
62.99999999999994
  0
ARC
  5
33B
330
1F
100
AcDbEntity
  8
1
  6
DASHED
 62
     4
100
AcDbCircle
 10
1889.506366468435
 20
459.5697602174037
 30
0.0
 40
1.0
100
AcDbArc
 50
180.0
 51
-117.0000000000309
  0
ARC
  5
33C
330
1F
100
AcDbEntity
  8
1
  6
DASHED
 62
     4
100
AcDbCircle
 10
1947.506366468406
 20
459.5697602174037
 30
0.0
 40
0.9999999999986641
100
AcDbArc
 50
-63.00000000012001
 51
0.0
  0
ARC
  5
33D
330
1F
100
AcDbEntity
  8
1
  6
DASHED
 62
     4
100
AcDbCircle
 10
1946.506366468406
 20
456.8155822926456
 30
0.0
 40
1.000000000000664
100
AcDbArc
 50
117.0000000000117
 51
180.0
  0
ARC
  5
33E
330
1F
100
AcDbEntity
  8
1
  6
DASHED
 62
     4
100
AcDbCircle
 10
1946.506366468406
 20
455.0411838689247
 30
0.0
 40
1.0
100
AcDbArc
 50
180.0
 51
-116.9999999999747
  0
ARC
  5
33F
330
1F
100
AcDbEntity
  8
1
  6
DASHED
 62
     4
100
AcDbCircle
 10
1947.506366468406
 20
452.2870059441648
 30
0.0
 40
1.0
100
AcDbArc
 50
0.0
 51
63.00000000018802
  0
ARC
  5
340
330
1F
100
AcDbEntity
  8
1
  6
Continuous
 62
     7
100
AcDbCircle
 10
2112.32356972608
 20
70.47148232222344
 30
0.0
 40
0.5
100
AcDbArc
 50
180.0
 51
-90.0
  0
ARC
  5
341
330
1F
100
AcDbEntity
  8
1
  6
Continuous
 62
     7
100
AcDbCircle
 10
2131.32356972608
 20
70.47148232222344
 30
0.0
 40
0.5
100
AcDbArc
 50
-90.0
 51
0.0
  0
ARC
  5
342
330
1F
100
AcDbEntity
  8
1
  6
Continuous
 62
     7
100
AcDbCircle
 10
2112.32356972608
 20
111.4714823222234
 30
0.0
 40
0.5
100
AcDbArc
 50
90.0
 51
180.0
  0
ARC
  5
343
330
1F
100
AcDbEntity
  8
1
  6
Continuous
 62
     7
100
AcDbCircle
 10
2131.323569726077
 20
111.4714823222234
 30
0.0
 40
0.5000000000031832
100
AcDbArc
 50
0.0
 51
89.99999999963522
  0
ARC
  5
344
330
1F
100
AcDbEntity
  8
1
  6
Continuous
 62
     7
100
AcDbCircle
 10
2116.82356972608
 20
185.9714823222234
 30
0.0
 40
4.0
100
AcDbArc
 50
90.0
 51
180.0
  0
ARC
  5
345
330
1F
100
AcDbEntity
  8
1
  6
Continuous
 62
     7
100
AcDbCircle
 10
2116.82356972608
 20
118.9714823222234
 30
0.0
 40
4.0
100
AcDbArc
 50
180.0
 51
-90.0
  0
ARC
  5
346
330
1F
100
AcDbEntity
  8
1
  6
Continuous
 62
     7
100
AcDbCircle
 10
2131.82356972608
 20
114.9714823222134
 30
0.0
 40
4.0
100
AcDbArc
 50
0.0
 51
90.0
  0
ARC
  5
347
330
1F
100
AcDbEntity
  8
1
  6
Continuous
 62
     7
100
AcDbCircle
 10
2180.623569726087
 20
133.7714823222227
 30
0.0
 40
1.199999999996635
100
AcDbArc
 50
0.0
 51
90.0
  0
ARC
  5
348
330
1F
100
AcDbEntity
  8
1
  6
Continuous
 62
     7
100
AcDbCircle
 10
2119.52356972608
 20
133.7714823222227
 30
0.0
 40
1.200000000000699
100
AcDbArc
 50
90.0
 51
180.0
  0
ARC
  5
349
330
1F
100
AcDbEntity
  8
1
  6
Continuous
 62
     7
100
AcDbCircle
 10
2113.523569726081
 20
133.7714823222227
 30
0.0
 40
1.200000000000512
100
AcDbArc
 50
125.6853347126773
 51
180.0
  0
ARC
  5
34A
330
1F
100
AcDbEntity
  8
1
  6
Continuous
 62
     7
100
AcDbCircle
 10
2134.823569726081
 20
130.7714823222227
 30
0.0
 40
3.0
100
AcDbArc
 50
90.0
 51
180.0
  0
LWPOLYLINE
  5
34B
330
1F
100
AcDbEntity
  8
0
  6
Continuous
100
AcDbPolyline
 90
        3
 70
     0
 43
0.0
 10
2124.360434238598
 20
105.5233152831975
 10
2124.186993741269
 20
105.2224958403058
 10
2124.1268885598
 20
104.8805036459266
  0
LWPOLYLINE
  5
34C
330
1F
100
AcDbEntity
  8
0
  6
Continuous
100
AcDbPolyline
 90
        3
 70
     0
 43
0.0
 10
2118.579507226719
 20
109.4781716417647
 10
2118.683029594718
 20
109.5502044137147
 10
2118.722860092466
 20
109.6698631719855
  0
LWPOLYLINE
  5
34D
330
1F
100
AcDbEntity
  8
0
  6
Continuous
100
AcDbPolyline
 90
        3
 70
     0
 43
0.0
 10
2118.579507226719
 20
109.4781716417647
 10
2118.320701306725
 20
109.2980897118864
 10
2118.221125062351
 20
108.9989428162367
  0
LWPOLYLINE
  5
34E
330
1F
100
AcDbEntity
  8
0
  6
Continuous
100
AcDbPolyline
 90
        5
 70
     0
 43
0.0
 10
2119.723604174533
 20
111.9714823222257
 10
2119.341035903442
 20
111.8954277268658
 10
2119.016667570208
 20
111.6788085921266
 10
2118.799849658817
 20
111.3545820782647
 10
2118.723569572087
 20
110.9720770924068
  0
LWPOLYLINE
  5
34F
330
1F
100
AcDbEntity
  8
0
  6
Continuous
100
AcDbPolyline
 90
        5
 70
     0
 43
0.0
 10
2124.923569882075
 20
110.9720770924068
 10
2124.847289795151
 20
111.3545820787258
 10
2124.630471883245
 20
111.6788085928247
 10
2124.306103549333
 20
111.8954277274374
 10
2123.92353527763
 20
111.9714823222257
  0
LWPOLYLINE
  5
350
330
1F
100
AcDbEntity
  8
0
  6
Continuous
100
AcDbPolyline
 90
        3
 70
     0
 43
0.0
 10
2124.124288084642
 20
109.6535575991557
 10
2124.239972834659
 20
109.1997652417558
 10
2124.55841808373
 20
108.8563822203555
  0
LWPOLYLINE
  5
351
330
1F
100
AcDbEntity
  8
0
  6
Continuous
100
AcDbPolyline
 90
        5
 70
     0
 43
0.0
 10
2124.322168825077
 20
106.8605977096554
 10
2124.424648120739
 20
106.8155163265155
 10
2124.535299382247
 20
106.8325694731957
 10
2124.61944854483
 20
106.9064133162347
 10
2124.650726333764
 20
107.0139078917555
  0
LWPOLYLINE
  5
352
330
1F
100
AcDbEntity
  8
0
  6
Continuous
100
AcDbPolyline
 90
        3
 70
     0
 43
0.0
 10
2124.360434238598
 20
105.5233152831975
 10
2124.406376775688
 20
105.6692624556845
 10
2124.335700922406
 20
105.8049698849145
  0
LWPOLYLINE
  5
353
330
1F
100
AcDbEntity
  8
0
  6
Continuous
100
AcDbPolyline
 90
        3
 70
     0
 43
0.0
 10
2125.426014389808
 20
108.9989428162367
 10
2125.326438145436
 20
109.2980897118864
 10
2125.06763222544
 20
109.4781716417647
  0
LWPOLYLINE
  5
354
330
1F
100
AcDbEntity
  8
0
  6
Continuous
100
AcDbPolyline
 90
        3
 70
     0
 43
0.0
 10
2124.924279359691
 20
109.6698631719855
 10
2124.964109857441
 20
109.5502044137147
 10
2125.06763222544
 20
109.4781716417647
  0
LWPOLYLINE
  5
355
330
1F
100
AcDbEntity
  8
0
  6
Continuous
100
AcDbPolyline
 90
        3
 70
     0
 43
0.0
 10
2124.649813945165
 20
108.6885556923257
 10
2124.625459241725
 20
108.7840910008845
 10
2124.55841808373
 20
108.8563822203555
  0
LWPOLYLINE
  5
356
330
1F
100
AcDbEntity
  8
0
  6
Continuous
100
AcDbPolyline
 90
        3
 70
     0
 43
0.0
 10
2125.070032385434
 20
105.0727870665464
 10
2125.328641925882
 20
105.2531508686657
 10
2125.427892146326
 20
105.5524060789358
  0
LWPOLYLINE
  5
357
330
1F
100
AcDbEntity
  8
0
  6
Continuous
100
AcDbPolyline
 90
        3
 70
     0
 43
0.0
 10
2125.070032385434
 20
105.0727870665464
 10
2124.972730775065
 20
105.0084602933657
 10
2124.927865709025
 20
104.9007945291864
  0
LWPOLYLINE
  5
358
330
1F
100
AcDbEntity
  8
0
  6
Continuous
100
AcDbPolyline
 90
        3
 70
     0
 43
0.0
 10
2119.723576426683
 20
111.1715223227038
 10
2119.582189097528
 20
111.1129875812258
 10
2119.523569493364
 20
110.9716412767457
  0
LWPOLYLINE
  5
359
330
1F
100
AcDbEntity
  8
0
  6
Continuous
100
AcDbPolyline
 90
        3
 70
     0
 43
0.0
 10
2119.088721370431
 20
108.8563822203555
 10
2119.407166619503
 20
109.1997652417558
 10
2119.522851369518
 20
109.6535575991557
  0
LWPOLYLINE
  5
35A
330
1F
100
AcDbEntity
  8
0
  6
Continuous
100
AcDbPolyline
 90
        4
 70
     0
 43
0.0
 10
2120.920438616598
 20
107.5466162952957
 10
2120.708426456103
 20
107.6950613782146
 10
2120.450592282713
 20
107.7176178164546
 10
2120.216022554977
 20
107.6082416305844
  0
LWPOLYLINE
  5
35B
330
1F
100
AcDbEntity
  8
0
  6
Continuous
100
AcDbPolyline
 90
        4
 70
     0
 43
0.0
 10
2120.960066012863
 20
107.1882633589648
 10
2121.019447018052
 20
107.2730639786764
 10
2121.028470044947
 20
107.3761924861947
 10
2120.984717380781
 20
107.4700156812064
  0
LWPOLYLINE
  5
35C
330
1F
100
AcDbEntity
  8
0
  6
Continuous
100
AcDbPolyline
 90
        5
 70
     0
 43
0.0
 10
2118.996413120396
 20
107.0139078917555
 10
2119.027690909331
 20
106.9064133162347
 10
2119.111840071913
 20
106.8325694731957
 10
2119.222491333419
 20
106.8155163265155
 10
2119.32497062908
 20
106.8605977096554
  0
LWPOLYLINE
  5
35D
330
1F
100
AcDbEntity
  8
0
  6
Continuous
100
AcDbPolyline
 90
        3
 70
     0
 43
0.0
 10
2119.088721370431
 20
108.8563822203555
 10
2119.021680212437
 20
108.7840910008845
 10
2118.997325508995
 20
108.6885556923257
  0
LWPOLYLINE
  5
35E
330
1F
100
AcDbEntity
  8
0
  6
Continuous
100
AcDbPolyline
 90
        3
 70
     0
 43
0.0
 10
2124.123569960799
 20
110.9716412767457
 10
2124.064955269809
 20
111.1129826709657
 10
2123.923576920247
 20
111.1715223227038
  0
LWPOLYLINE
  5
35F
330
1F
100
AcDbEntity
  8
0
  6
Continuous
100
AcDbPolyline
 90
        4
 70
     0
 43
0.0
 10
2123.431116899186
 20
107.6082416305844
 10
2123.196547171448
 20
107.7176178164546
 10
2122.93871299806
 20
107.6950613782146
 10
2122.726700837563
 20
107.5466162952957
  0
LWPOLYLINE
  5
360
330
1F
100
AcDbEntity
  8
0
  6
Continuous
100
AcDbPolyline
 90
        3
 70
     0
 43
0.0
 10
2122.662422073379
 20
107.4700156812064
 10
2122.616392020083
 20
107.3240343101456
 10
2122.6870734413
 20
107.1882633589648
  0
LWPOLYLINE
  5
361
330
1F
100
AcDbEntity
  8
0
  6
Continuous
100
AcDbPolyline
 90
        3
 70
     0
 43
0.0
 10
2118.219247307835
 20
105.5524060789358
 10
2118.318497528278
 20
105.2531508686657
 10
2118.577107068724
 20
105.0727870665464
  0
LWPOLYLINE
  5
362
330
1F
100
AcDbEntity
  8
0
  6
Continuous
100
AcDbPolyline
 90
        3
 70
     0
 43
0.0
 10
2118.719273745135
 20
104.9007945291864
 10
2118.674408679096
 20
105.0084602933657
 10
2118.577107068724
 20
105.0727870665464
  0
LWPOLYLINE
  5
363
330
1F
100
AcDbEntity
  8
0
  6
Continuous
100
AcDbPolyline
 90
        3
 70
     0
 43
0.0
 10
2119.52025089436
 20
104.8805036459266
 10
2119.460145712893
 20
105.2224958403058
 10
2119.286705215559
 20
105.5233152831975
  0
LWPOLYLINE
  5
364
330
1F
100
AcDbEntity
  8
0
  6
Continuous
100
AcDbPolyline
 90
        3
 70
     0
 43
0.0
 10
2119.311438531757
 20
105.8049698849145
 10
2119.240762678473
 20
105.6692624556845
 10
2119.286705215559
 20
105.5233152831975
  0
LINE
  5
365
330
1F
100
AcDbEntity
  8
1
 62
     2
100
AcDbLine
 10
2123.888035273933
 20
551.9283830807835
 30
0.0
 11
2129.186129340542
 21
567.622655039394
 31
0.0
  0
LINE
  5
366
330
1F
100
AcDbEntity
  8
1
 62
     2
100
AcDbLine
 10
2123.888035273933
 20
551.9283830807835
 30
0.0
 11
2136.323455306562
 21
562.8709742575372
 31
0.0
  0
LEADER
  5
367
330
1F
100
AcDbEntity
  8
1
  6
Continuous
 62
     2
100
AcDbLeader
  3
Standard
 71
     0
 76
     3
 10
2123.888035273933
 20
551.9283830807835
 30
0.0
 10
2179.574653020291
 20
635.5732155195105
 30
0.0
 10
2363.720173067906
 20
635.5732155195105
 30
0.0
  0
LINE
  5
368
330
1F
100
AcDbEntity
  8
1
 62
     2
100
AcDbLine
 10
1948.306365468426
 20
596.9288450807844
 30
0.0
 11
1953.500574731535
 21
612.6578044608739
 31
0.0
  0
LINE
  5
369
330
1F
100
AcDbEntity
  8
1
 62
     2
100
AcDbLine
 10
1948.306365468426
 20
596.9288450807844
 30
0.0
 11
1960.669162332895
 21
607.9534188474811
 31
0.0
  0
LEADER
  5
36A
330
1F
100
AcDbEntity
  8
1
  6
Continuous
 62
     2
100
AcDbLeader
  3
Standard
 71
     0
 76
     3
 10
1948.306365468426
 20
596.9288450807844
 30
0.0
 10
1990.306365468425
 20
660.9288450807844
 30
0.0
 10
2102.623997916142
 20
660.9288450807844
 30
0.0
  0
LINE
  5
36B
330
1F
100
AcDbEntity
  8
1
 62
     2
100
AcDbLine
 10
2192.230702508101
 20
563.4527941188185
 30
0.0
 11
2204.730702508101
 21
566.8021590242075
 31
0.0
  0
LINE
  5
36C
330
1F
100
AcDbEntity
  8
1
 62
     2
100
AcDbLine
 10
2192.230702508101
 20
563.4527941188185
 30
0.0
 11
2204.730702508101
 21
560.1034292134294
 31
0.0
  0
LEADER
  5
36D
330
1F
100
AcDbEntity
  8
1
  6
Continuous
 62
     2
100
AcDbLeader
  3
Standard
 71
     0
 76
     2
 10
2192.230702508101
 20
563.4527941188185
 30
0.0
 10
2232.78193620837
 20
563.4527941188185
 30
0.0
  0
LINE
  5
36E
330
1F
100
AcDbEntity
  8
1
 62
     2
100
AcDbLine
 10
2192.230702508101
 20
397.6499323520538
 30
0.0
 11
2204.730702508101
 21
400.9992972574428
 31
0.0
  0
LINE
  5
36F
330
1F
100
AcDbEntity
  8
1
 62
     2
100
AcDbLine
 10
2192.230702508101
 20
397.6499323520538
 30
0.0
 11
2204.730702508101
 21
394.3005674466647
 31
0.0
  0
LEADER
  5
370
330
1F
100
AcDbEntity
  8
1
  6
Continuous
 62
     2
100
AcDbLeader
  3
Standard
 71
     0
 76
     2
 10
2192.230702508101
 20
397.6499323520538
 30
0.0
 10
2232.78193620837
 20
397.6499323520538
 30
0.0
  0
TEXT
  5
371
330
1F
100
AcDbEntity
  8
1
 62
     2
100
AcDbText
 10
2184.574653020291
 20
640.5732155195105
 30
0.0
 40
16.0
  1
コンベヤ取付ブラケット
 41
0.89
  7
CONVERTER_3
100
AcDbText
  0
TEXT
  5
372
330
1F
100
AcDbEntity
  8
1
 62
     2
100
AcDbText
 10
1714.927672055487
 20
164.6298591515356
 30
0.0
 40
20.0
  1
84.5
 41
0.9
  7
CONVERTER_1
100
AcDbText
  0
TEXT
  5
373
330
1F
100
AcDbEntity
  8
1
 62
     2
100
AcDbText
 10
1592.326960332215
 20
162.9030885638845
 30
0.0
 40
20.0
  1
74
 41
0.9
  7
CONVERTER_1
100
AcDbText
  0
TEXT
  5
374
330
1F
100
AcDbEntity
  8
1
 62
     2
100
AcDbText
 10
1709.434934897069
 20
212.4038454099036
 30
0.0
 40
16.0
  1
減速比36
 41
0.89
  7
CONVERTER_3
100
AcDbText
  0
TEXT
  5
375
330
1F
100
AcDbEntity
  8
1
 62
     2
100
AcDbText
 10
1546.411327061712
 20
212.4038454099027
 30
0.0
 40
16.0
  1
減速比3.6~18
 41
0.89
  7
CONVERTER_3
100
AcDbText
  0
TEXT
  5
376
330
1F
100
AcDbEntity
  8
1
 62
     2
100
AcDbText
 10
1661.900558406978
 20
240.0321748123288
 30
0.0
 40
16.0
  1
DC
 41
0.9
  7
CONVERTER_1
100
AcDbText
  0
TEXT
  5
377
330
1F
100
AcDbEntity
  8
1
 62
     2
100
AcDbText
 10
1444.975870185933
 20
163.4786787597695
 30
0.0
 40
20.0
  1
117
 41
0.9
  7
CONVERTER_1
100
AcDbText
  0
TEXT
  5
378
330
1F
100
AcDbEntity
  8
1
 62
     2
100
AcDbText
 10
1405.835736865829
 20
211.8282552140186
 30
0.0
 40
16.0
  1
減速比3.6~15
 41
0.89
  7
CONVERTER_3
100
AcDbText
  0
TEXT
  5
379
330
1F
100
AcDbEntity
  8
1
 62
     2
100
AcDbText
 10
1458.349673713189
 20
240.6077650082116
 30
0.0
 40
16.0
  1
IV
 41
0.9
  7
CONVERTER_1
100
AcDbText
  0
MTEXT
  5
37A
330
1F
100
AcDbEntity
  8
1
 62
     2
100
AcDbMText
 10
1408.051412378899
 20
271.9774306838845
 30
0.0
 40
20.0
 41
0.0
 71
     7
 72
     1
  1
モータ寸法表 ML (mm)
  7
CONVERTER_3
 73
     1
 44
0.60024009603842
  0
TEXT
  5
37B
330
1F
100
AcDbEntity
  8
1
 62
     2
100
AcDbText
 10
3018.969593004281
 20
-165.1337588764413
 30
0.0
 40
16.0
  1
W_SB_S_0020
 41
0.9
  7
CONVERTER_1
100
AcDbText
  0
TEXT
  5
37C
330
1F
100
AcDbEntity
  8
1
 62
     2
100
AcDbText
 10
2106.467949379339
 20
-127.1494295946213
 30
0.0
 40
16.0
  1
2011.4.1
 41
0.9
  7
CONVERTER_1
100
AcDbText
  0
TEXT
  5
37D
330
1F
100
AcDbEntity
  8
1
 62
     2
100
AcDbText
 10
2490.10385603719
 20
-167.8034659176556
 30
0.0
 40
20.0
  1
SB1
 41
0.9
  7
CONVERTER_1
100
AcDbText
  0
TEXT
  5
37E
330
1F
100
AcDbEntity
  8
1
 62
     2
100
AcDbText
 10
2462.08932398798
 20
-117.1965693126422
 30
0.0
 40
20.0
  1
N1シリーズ
 41
0.89
  7
CONVERTER_3
100
AcDbText
  0
TEXT
  5
37F
330
1F
100
AcDbEntity
  8
1
 62
     2
100
AcDbText
 10
2785.216899982779
 20
-116.3023479419735
 30
0.0
 40
16.0
  1
本体組立図
 41
0.89
  7
CONVERTER_3
100
AcDbText
  0
TEXT
  5
380
330
1F
100
AcDbEntity
  8
1
 62
     2
100
AcDbText
 10
1995.306365468425
 20
665.9288450807844
 30
0.0
 40
16.0
  1
モータ 25W
 41
0.89
  7
CONVERTER_3
100
AcDbText
  0
TEXT
  5
381
330
1F
100
AcDbEntity
  8
1
 62
     2
100
AcDbText
 10
2443.765758724646
 20
195.3712771241885
 30
0.0
 40
20.0
  1
※1 ベルトのテークアップ量により、呼称機長は最大5mm伸びます
 41
0.89
  7
CONVERTER_3
100
AcDbText
  0
TEXT
  5
382
330
1F
100
AcDbEntity
  8
1
 62
     2
100
AcDbText
 10
2446.984878447111
 20
83.57208693342682
 30
0.0
 40
20.0
  1
注1 本図はモータ取付がRタイプ、インバータ変速仕様の場合です
 41
0.89
  7
CONVERTER_3
100
AcDbText
  0
TEXT
  5
383
330
1F
100
AcDbEntity
  8
1
 62
     2
100
AcDbText
 10
2896.782435514816
 20
-118.4967869959096
 30
0.0
 40
20.0
  1
呼称機長40cm以下
 41
0.89
  7
CONVERTER_3
100
AcDbText
  0
TEXT
  5
384
330
1F
100
AcDbEntity
  8
1
 62
     2
100
AcDbText
 10
2094.633522913072
 20
34.44198254439152
 30
0.0
 40
16.0
  1
A-A 矢視図
 41
0.89
  7
CONVERTER_3
100
AcDbText
  0
TEXT
  5
385
330
1F
100
AcDbEntity
  8
1
 62
     2
100
AcDbText
 10
2219.820678175435
 20
566.1589633006447
 30
0.0
 40
16.0
  1
A
 41
0.9
  7
CONVERTER_1
100
AcDbText
  0
TEXT
  5
386
330
1F
100
AcDbEntity
  8
1
 62
     2
100
AcDbText
 10
2219.820678175435
 20
400.3561015338796
 30
0.0
 40
16.0
  1
A
 41
0.9
  7
CONVERTER_1
100
AcDbText
  0
DIMENSION
  5
39B
330
1F
100
AcDbEntity
  8
1
100
AcDbDimension
  2
*D02
 10
2112.823569726079
 20
230.6109973857747
 30
0.0
 11
2179.548788261493
 21
243.6109973857747
 31
0.0
 70
    32
  1
<>
 71
     5
 42
-1.0
 53
0.00013888888889
  3
ME10_DIM_0
100
AcDbAlignedDimension
 13
2132.82356972608
 23
194.5216583514134
 33
0.0
 14
2112.82356972608
 24
185.9714823222234
 34
0.0
100
AcDbRotatedDimension
  0
DIMENSION
  5
3A8
330
1F
100
AcDbEntity
  8
1
100
AcDbDimension
  2
*D14
 10
2055.008762661563
 20
69.97148232222341
 30
0.0
 11
2042.008762661563
 21
130.0360072453354
 31
0.0
 70
    32
  1
<>
 71
     5
 42
-1.0
 53
90.0
  3
ME10_DIM_1
100
AcDbAlignedDimension
 13
2116.82356972608
 23
189.9714823222234
 33
0.0
 14
2109.923569726078
 24
69.97148232222344
 34
0.0
 50
90.0
100
AcDbRotatedDimension
  0
DIMENSION
  5
3B5
330
1F
100
AcDbEntity
  8
1
100
AcDbDimension
  2
*D25
 10
2028.506366468485
 20
597.6050670560835
 30
0.0
 11
2077.69345464343
 21
610.6050670560835
 31
0.0
 70
    32
  1
<>
 71
     5
 42
-1.0
 53
0.00013888888889
  3
ME10_DIM_2
100
AcDbAlignedDimension
 13
2128.506366468486
 23
551.9283830807835
 33
0.0
 14
2028.506366468486
 24
551.9283830807835
 34
0.0
100
AcDbRotatedDimension
  0
DIMENSION
  5
3C4
330
1F
100
AcDbEntity
  8
1
100
AcDbDimension
  2
*D36
 10
1846.506366468381
 20
794.428386080785
 30
0.0
 11
1833.506366468381
 21
771.5741119407408
 31
0.0
 70
    32
  1
<>
 71
     5
 42
-1.0
 53
90.0
  3
ME10_DIM_3
100
AcDbAlignedDimension
 13
1968.506366468427
 23
790.4283830807858
 33
0.0
 14
1885.306354468385
 24
794.4283860807846
 34
0.0
 50
90.0
100
AcDbRotatedDimension
  0
DIMENSION
  5
3D1
330
1F
100
AcDbEntity
  8
1
100
AcDbDimension
  2
*D47
 10
1814.506366468381
 20
874.4283800807839
 30
0.0
 11
1803.006366468381
 21
834.2748431903015
 31
0.0
 70
    32
  1
<>
 71
     5
 42
-1.0
 53
90.0
  3
ME10_DIM_4
100
AcDbAlignedDimension
 13
1968.506366468427
 23
790.4283830807858
 33
0.0
 14
1884.506366468427
 24
874.4283800807848
 34
0.0
 50
90.0
100
AcDbRotatedDimension
  0
DIMENSION
  5
3DF
330
1F
100
AcDbEntity
  8
1
100
AcDbDimension
  2
*D58
 10
1846.506366468382
 20
874.4283800807839
 30
0.0
 11
1835.006366468382
 21
834.2748431903015
 31
0.0
 70
    32
  1
<>
 71
     5
 42
-1.0
 53
90.0
  3
ME10_DIM_5
100
AcDbAlignedDimension
 13
1885.306354468385
 23
794.4283680807857
 33
0.0
 14
1884.506366468427
 24
874.4283800807848
 34
0.0
 50
90.0
100
AcDbRotatedDimension
  0
DIMENSION
  5
3F2
330
1F
100
AcDbEntity
  8
1
100
AcDbDimension
  2
*D69
 10
1846.506366468382
 20
479.9283830807844
 30
0.0
 11
1835.006366468382
 21
541.5407939864417
 31
0.0
 70
    32
  1
ML
 71
     5
 42
-1.0
 53
90.0
  3
ME10_DIM_6
100
AcDbAlignedDimension
 13
1881.206367468427
 23
596.9288450807844
 33
0.0
 14
1878.506366468417
 24
479.9283830807844
 34
0.0
 50
90.0
100
AcDbRotatedDimension
  0
DIMENSION
  5
3FF
330
1F
100
AcDbEntity
  8
1
100
AcDbDimension
  2
*D711
 10
1846.506366468384
 20
473.9283830807844
 30
0.0
 11
1831.332530740681
 21
476.9737229488428
 31
0.0
 70
    32
  1
<>
 71
     5
 42
-1.0
 53
90.0
  3
ME10_DIM_7
100
AcDbAlignedDimension
 13
1878.506366468417
 23
479.9283830807844
 33
0.0
 14
1878.506366468417
 24
473.9283830807844
 34
0.0
 50
90.0
100
AcDbRotatedDimension
  0
DIMENSION
  5
40D
330
1F
100
AcDbEntity
  8
1
100
AcDbDimension
  2
*D812
 10
1846.506366468382
 20
473.9283830807839
 30
0.0
 11
1835.006366468382
 21
451.3722767341214
 31
0.0
 70
    32
  1
<>
 71
     5
 42
-1.0
 53
90.0
  3
ME10_DIM_8
100
AcDbAlignedDimension
 13
1887.606366468456
 23
431.9283830807844
 33
0.0
 14
1878.506366468417
 24
473.9283830807844
 34
0.0
 50
90.0
100
AcDbRotatedDimension
  0
DIMENSION
  5
41C
330
1F
100
AcDbEntity
  8
1
100
AcDbDimension
  2
*D913
 10
2325.221510749241
 20
471.9283830807849
 30
0.0
 11
2313.721510749241
 21
451.7666348794105
 31
0.0
 70
    32
  1
<>
 71
     5
 42
-1.0
 53
90.0
  3
ME10_DIM_9
100
AcDbAlignedDimension
 13
2279.406366468427
 23
431.9283830807844
 33
0.0
 14
2279.406366468427
 24
471.9283830807844
 34
0.0
 50
90.0
100
AcDbRotatedDimension
  0
DIMENSION
  5
429
330
1F
100
AcDbEntity
  8
1
100
AcDbDimension
  2
*D1014
 10
2278.506366468427
 20
707.2581345506787
 30
0.0
 11
2066.601869046668
 21
718.7581345506787
 31
0.0
 70
    32
  1
呼称機長 ※1
 71
     5
 42
-1.0
 53
0.00013888888889
  3
ME10_DIM_10
100
AcDbAlignedDimension
 13
1878.506366468427
 23
800.4283830807858
 33
0.0
 14
2278.506366468428
 24
806.9283830807945
 34
0.0
100
AcDbRotatedDimension
  0
DIMENSION
  5
436
330
1F
100
AcDbEntity
  8
1
100
AcDbDimension
  2
*D1115
 10
2325.221510749241
 20
790.4283830807858
 30
0.0
 11
2313.721510749241
 21
827.9349139107744
 31
0.0
 70
    32
  1
<>
 71
     5
 42
-1.0
 53
90.0
  3
ME10_DIM_11
100
AcDbAlignedDimension
 13
2261.506366468428
 23
860.4283830807945
 33
0.0
 14
2240.506366468427
 24
790.4283830807858
 34
0.0
 50
90.0
100
AcDbRotatedDimension
  0
DIMENSION
  5
443
330
1F
100
AcDbEntity
  8
1
100
AcDbDimension
  2
*D1216
 10
2375.406366468428
 20
496.928383080785
 30
0.0
 11
2362.706366468428
 21
466.1111667155315
 31
0.0
 70
    32
  1
<>
 71
     5
 42
-1.0
 53
90.0
  3
ME10_DIM_12
100
AcDbAlignedDimension
 13
2279.406366468427
 23
431.9283830807844
 33
0.0
 14
2275.306366468427
 24
496.9283830807844
 34
0.0
 50
90.0
100
AcDbRotatedDimension
  0
DIMENSION
  5
452
330
1F
100
AcDbEntity
  8
1
100
AcDbDimension
  2
*D1317
 10
2221.45835159658
 20
189.9714823222234
 30
0.0
 11
2208.45835159658
 21
223.3232279083545
 31
0.0
 70
    32
  1
<>
 71
     5
 42
-1.0
 53
90.0
  3
ME10_DIM_13
100
AcDbAlignedDimension
 13
2147.82356972608
 23
185.9714823222234
 33
0.0
 14
2147.82356972608
 24
189.9714823222234
 34
0.0
 50
90.0
100
AcDbRotatedDimension
  0
DIMENSION
  5
461
330
1F
100
AcDbEntity
  8
1
100
AcDbDimension
  2
*D1418
 10
2112.823569726079
 20
268.5301105193757
 30
0.0
 11
2087.50360314787
 21
281.5301105193757
 31
0.0
 70
    32
  1
<>
 71
     5
 42
-1.0
 53
0.00013888888889
  3
ME10_DIM_14
100
AcDbAlignedDimension
 13
2111.82356972608
 23
111.4714823222234
 33
0.0
 14
2112.82356972608
 24
185.9714823222234
 34
0.0
100
AcDbRotatedDimension
  0
DIMENSION
  5
470
330
1F
100
AcDbEntity
  8
1
100
AcDbDimension
  2
*D1519
 10
2147.82356972608
 20
268.5301105193757
 30
0.0
 11
2129.049874562244
 21
281.5301105193757
 31
0.0
 70
    32
  1
<>
 71
     5
 42
-1.0
 53
0.00013888888889
  3
ME10_DIM_15
100
AcDbAlignedDimension
 13
2112.82356972608
 23
185.9714823222234
 33
0.0
 14
2147.82356972608
 24
189.9714823222234
 34
0.0
100
AcDbRotatedDimension
  0
DIMENSION
  5
47D
330
1F
100
AcDbEntity
  8
1
100
AcDbDimension
  2
*D1620
 10
1878.506366468428
 20
745.0615810002237
 30
0.0
 11
1957.820523140838
 21
757.7615810002235
 31
0.0
 70
    32
  1
<>
 71
     5
 42
-1.0
 53
0.00013888888889
  3
ME10_DIM_16
100
AcDbAlignedDimension
 13
2038.506366468532
 23
806.1783830807945
 33
0.0
 14
1878.506366468427
 24
800.4283830807858
 34
0.0
100
AcDbRotatedDimension
  0
DIMENSION
  5
48A
330
1F
100
AcDbEntity
  8
1
100
AcDbDimension
  2
*D1721
 10
2038.506366468532
 20
745.0615810002237
 30
0.0
 11
2080.488849375073
 21
756.5615810002237
 31
0.0
 70
    32
  1
<>
 71
     5
 42
-1.0
 53
0.00013888888889
  3
ME10_DIM_17
100
AcDbAlignedDimension
 13
2118.506366468469
 23
806.1783830807945
 33
0.0
 14
2038.506366468532
 24
806.1783830807945
 34
0.0
100
AcDbRotatedDimension
  0
INSERT
  5
493
330
1F
100
AcDbEntity
  8
1
100
AcDbBlockReference
  2
*D1822
 10
0.0
 20
0.0
 30
0.0
  0
INSERT
  5
49C
330
1F
100
AcDbEntity
  8
1
100
AcDbBlockReference
  2
*D1923
 10
0.0
 20
0.0
 30
0.0
  0
INSERT
  5
4A5
330
1F
100
AcDbEntity
  8
1
100
AcDbBlockReference
  2
*D2024
 10
0.0
 20
0.0
 30
0.0
  0
ENDSEC
  0
SECTION
  2
OBJECTS
  0
DICTIONARY
  5
C
330
0
100
AcDbDictionary
281
     1
  3
ACAD_GROUP
350
D
  3
ACAD_LAYOUT
350
1A
  3
ACAD_MLINESTYLE
350
17
  3
ACAD_PLOTSETTINGS
350
19
  3
ACAD_PLOTSTYLENAME
350
E
  0
DICTIONARY
  5
D
102
{ACAD_REACTORS
330
C
102
}
330
C
100
AcDbDictionary
281
     1
  0
DICTIONARY
  5
1A
102
{ACAD_REACTORS
330
C
102
}
330
C
100
AcDbDictionary
281
     1
  3
Layout1
350
1E
  3
Layout2
350
26
  3
Model
350
22
  0
DICTIONARY
  5
17
102
{ACAD_REACTORS
330
C
102
}
330
C
100
AcDbDictionary
281
     1
  3
Standard
350
18
  0
DICTIONARY
  5
19
102
{ACAD_REACTORS
330
C
102
}
330
C
100
AcDbDictionary
281
     1
  0
ACDBDICTIONARYWDFLT
  5
E
102
{ACAD_REACTORS
330
C
102
}
330
C
100
AcDbDictionary
281
     1
  3
Normal
350
F
100
AcDbDictionaryWithDefault
340
F
  0
LAYOUT
  5
1E
102
{ACAD_REACTORS
330
1A
102
}
330
1A
100
AcDbPlotSettings
  1

  2

  4

  6

 40
0.0
 41
0.0
 42
0.0
 43
0.0
 44
0.0
 45
0.0
 46
0.0
 47
0.0
 48
0.0
 49
0.0
140
0.0
141
0.0
142
1.0
143
1.0
 70
   688
 72
     0
 73
     0
 74
     5
  7

 75
    16
147
1.0
148
0.0
149
0.0
100
AcDbLayout
  1
Layout1
 70
     1
 71
     1
 10
0.0
 20
0.0
 11
0.0
 21
0.0
 12
0.0
 22
0.0
 32
0.0
 14
0.0
 24
0.0
 34
0.0
 15
0.0
 25
0.0
 35
0.0
146
0.0
 13
0.0
 23
0.0
 33
0.0
 16
1.0
 26
0.0
 36
0.0
 17
0.0
 27
1.0
 37
0.0
 76
     0
330
1B
  0
LAYOUT
  5
26
102
{ACAD_REACTORS
330
1A
102
}
330
1A
100
AcDbPlotSettings
  1

  2

  4

  6

 40
0.0
 41
0.0
 42
0.0
 43
0.0
 44
0.0
 45
0.0
 46
0.0
 47
0.0
 48
0.0
 49
0.0
140
0.0
141
0.0
142
1.0
143
1.0
 70
   688
 72
     0
 73
     0
 74
     5
  7

 75
    16
147
1.0
148
0.0
149
0.0
100
AcDbLayout
  1
Layout2
 70
     1
 71
     2
 10
0.0
 20
0.0
 11
0.0
 21
0.0
 12
0.0
 22
0.0
 32
0.0
 14
0.0
 24
0.0
 34
0.0
 15
0.0
 25
0.0
 35
0.0
146
0.0
 13
0.0
 23
0.0
 33
0.0
 16
1.0
 26
0.0
 36
0.0
 17
0.0
 27
1.0
 37
0.0
 76
     0
330
23
  0
LAYOUT
  5
22
102
{ACAD_REACTORS
330
1A
102
}
330
1A
100
AcDbPlotSettings
  1

  2

  4

  6

 40
0.0
 41
0.0
 42
0.0
 43
0.0
 44
0.0
 45
0.0
 46
0.0
 47
0.0
 48
0.0
 49
0.0
140
0.0
141
0.0
142
1.0
143
1.0
 70
  1712
 72
     0
 73
     0
 74
     0
  7

 75
     0
147
1.0
148
0.0
149
0.0
100
AcDbLayout
  1
Model
 70
     1
 71
     0
 10
0.0
 20
0.0
 11
0.0
 21
0.0
 12
0.0
 22
0.0
 32
0.0
 14
1240.09548385845
 24
-192.5494913200585
 34
0.0
 15
3210.09548385845
 25
1158.73127528472
 35
0.0
146
0.0
 13
0.0
 23
0.0
 33
0.0
 16
1.0
 26
0.0
 36
0.0
 17
0.0
 27
1.0
 37
0.0
 76
     0
330
1F
  0
MLINESTYLE
  5
18
102
{ACAD_REACTORS
330
17
102
}
330
17
100
AcDbMlineStyle
  2
Standard
 70
     0
  3

 62
   256
 51
90.0
 52
90.0
 71
     2
 49
0.5
 62
   256
  6
BYLAYER
 49
-0.5
 62
   256
  6
BYLAYER
  0
ACDBPLACEHOLDER
  5
F
102
{ACAD_REACTORS
330
E
102
}
330
E
  0
ENDSEC
  0
EOF
