  0
SECTION
  2
HEADER
  9
$ACADVER
  1
AC1015
  9
$ACADMAINTVER
 70
     6
  9
$DWGCODEPAGE
  3
DOS932
  9
$INSBASE
 10
0.0
 20
0.0
 30
0.0
  9
$EXTMIN
 10
1240.09548385845
 20
-192.5494913200585
 30
0.0
  9
$EXTMAX
 10
3210.09548385845
 20
1158.73127528472
 30
0.0
  9
$LIMMIN
 10
0.0
 20
0.0
  9
$LIMMAX
 10
12.0
 20
9.0
  9
$ORTHOMODE
 70
     0
  9
$REGENMODE
 70
     1
  9
$FILLMODE
 70
     1
  9
$QTEXTMODE
 70
     0
  9
$MIRRTEXT
 70
     1
  9
$LTSCALE
 40
1.0
  9
$ATTMODE
 70
     1
  9
$TEXTSIZE
 40
0.2
  9
$TRACEWID
 40
0.05
  9
$TEXTSTYLE
  7
Standard
  9
$CLAYER
  8
0
  9
$CELTYPE
  6
ByLayer
  9
$CECOLOR
 62
   256
  9
$CELTSCALE
 40
1.0
  9
$DISPSILH
 70
     0
  9
$DIMSCALE
 40
1.0
  9
$DIMASZ
 40
0.18
  9
$DIMEXO
 40
0.0625
  9
$DIMDLI
 40
0.38
  9
$DIMRND
 40
0.0
  9
$DIMDLE
 40
0.0
  9
$DIMEXE
 40
0.18
  9
$DIMTP
 40
0.0
  9
$DIMTM
 40
0.0
  9
$DIMTXT
 40
0.18
  9
$DIMCEN
 40
0.09
  9
$DIMTSZ
 40
0.0
  9
$DIMTOL
 70
     0
  9
$DIMLIM
 70
     0
  9
$DIMTIH
 70
     1
  9
$DIMTOH
 70
     1
  9
$DIMSE1
 70
     0
  9
$DIMSE2
 70
     0
  9
$DIMTAD
 70
     0
  9
$DIMZIN
 70
     0
  9
$DIMBLK
  1

  9
$DIMASO
 70
     1
  9
$DIMSHO
 70
     1
  9
$DIMPOST
  1

  9
$DIMAPOST
  1

  9
$DIMALT
 70
     0
  9
$DIMALTD
 70
     2
  9
$DIMALTF
 40
25.4
  9
$DIMLFAC
 40
1.0
  9
$DIMTOFL
 70
     0
  9
$DIMTVP
 40
0.0
  9
$DIMTIX
 70
     0
  9
$DIMSOXD
 70
     0
  9
$DIMSAH
 70
     0
  9
$DIMBLK1
  1

  9
$DIMBLK2
  1

  9
$DIMSTYLE
  2
Standard
  9
$DIMCLRD
 70
     0
  9
$DIMCLRE
 70
     0
  9
$DIMCLRT
 70
     0
  9
$DIMTFAC
 40
1.0
  9
$DIMGAP
 40
0.09
  9
$DIMJUST
 70
     0
  9
$DIMSD1
 70
     0
  9
$DIMSD2
 70
     0
  9
$DIMTOLJ
 70
     1
  9
$DIMTZIN
 70
     0
  9
$DIMALTZ
 70
     0
  9
$DIMALTTZ
 70
     0
  9
$DIMUPT
 70
     0
  9
$DIMDEC
 70
     4
  9
$DIMTDEC
 70
     4
  9
$DIMALTU
 70
     2
  9
$DIMALTTD
 70
     2
  9
$DIMTXSTY
  7
Standard
  9
$DIMAUNIT
 70
     0
  9
$DIMADEC
 70
     0
  9
$DIMALTRND
 40
0.0
  9
$DIMAZIN
 70
     0
  9
$DIMDSEP
 70
    46
  9
$DIMATFIT
 70
     3
  9
$DIMFRAC
 70
     0
  9
$DIMLDRBLK
  1

  9
$DIMLUNIT
 70
     2
  9
$DIMLWD
 70
    -2
  9
$DIMLWE
 70
    -2
  9
$DIMTMOVE
 70
     0
  9
$LUNITS
 70
     2
  9
$LUPREC
 70
     4
  9
$SKETCHINC
 40
0.1
  9
$FILLETRAD
 40
0.5
  9
$AUNITS
 70
     0
  9
$AUPREC
 70
     0
  9
$MENU
  1
.
  9
$ELEVATION
 40
0.0
  9
$PELEVATION
 40
0.0
  9
$THICKNESS
 40
0.0
  9
$LIMCHECK
 70
     0
  9
$CHAMFERA
 40
0.5
  9
$CHAMFERB
 40
0.5
  9
$CHAMFERC
 40
1.0
  9
$CHAMFERD
 40
0.0
  9
$SKPOLY
 70
     0
  9
$TDCREATE
 40
2455806.647071817
  9
$TDUCREATE
 40
2455806.272071817
  9
$TDUPDATE
 40
2455806.647071829
  9
$TDUUPDATE
 40
2455806.272071829
  9
$TDINDWG
 40
0.0000000116
  9
$TDUSRTIMER
 40
0.0000000116
  9
$USRTIMER
 70
     1
  9
$ANGBASE
 50
0.0
  9
$ANGDIR
 70
     0
  9
$PDMODE
 70
     0
  9
$PDSIZE
 40
0.0
  9
$PLINEWID
 40
0.0
  9
$SPLFRAME
 70
     0
  9
$SPLINETYPE
 70
     6
  9
$SPLINESEGS
 70
     8
  9
$HANDSEED
  5
4C8
  9
$SURFTAB1
 70
     6
  9
$SURFTAB2
 70
     6
  9
$SURFTYPE
 70
     6
  9
$SURFU
 70
     6
  9
$SURFV
 70
     6
  9
$UCSBASE
  2

  9
$UCSNAME
  2

  9
$UCSORG
 10
0.0
 20
0.0
 30
0.0
  9
$UCSXDIR
 10
1.0
 20
0.0
 30
0.0
  9
$UCSYDIR
 10
0.0
 20
1.0
 30
0.0
  9
$UCSORTHOREF
  2

  9
$UCSORTHOVIEW
 70
     0
  9
$UCSORGTOP
 10
0.0
 20
0.0
 30
0.0
  9
$UCSORGBOTTOM
 10
0.0
 20
0.0
 30
0.0
  9
$UCSORGLEFT
 10
0.0
 20
0.0
 30
0.0
  9
$UCSORGRIGHT
 10
0.0
 20
0.0
 30
0.0
  9
$UCSORGFRONT
 10
0.0
 20
0.0
 30
0.0
  9
$UCSORGBACK
 10
0.0
 20
0.0
 30
0.0
  9
$PUCSBASE
  2

  9
$PUCSNAME
  2

  9
$PUCSORG
 10
0.0
 20
0.0
 30
0.0
  9
$PUCSXDIR
 10
1.0
 20
0.0
 30
0.0
  9
$PUCSYDIR
 10
0.0
 20
1.0
 30
0.0
  9
$PUCSORTHOREF
  2

  9
$PUCSORTHOVIEW
 70
     0
  9
$PUCSORGTOP
 10
0.0
 20
0.0
 30
0.0
  9
$PUCSORGBOTTOM
 10
0.0
 20
0.0
 30
0.0
  9
$PUCSORGLEFT
 10
0.0
 20
0.0
 30
0.0
  9
$PUCSORGRIGHT
 10
0.0
 20
0.0
 30
0.0
  9
$PUCSORGFRONT
 10
0.0
 20
0.0
 30
0.0
  9
$PUCSORGBACK
 10
0.0
 20
0.0
 30
0.0
  9
$USERI1
 70
     0
  9
$USERI2
 70
     0
  9
$USERI3
 70
     0
  9
$USERI4
 70
     0
  9
$USERI5
 70
     0
  9
$USERR1
 40
14.0
  9
$USERR2
 40
0.0
  9
$USERR3
 40
0.0
  9
$USERR4
 40
0.0
  9
$USERR5
 40
0.0
  9
$WORLDVIEW
 70
     1
  9
$SHADEDGE
 70
     3
  9
$SHADEDIF
 70
    70
  9
$TILEMODE
 70
     1
  9
$MAXACTVP
 70
    64
  9
$PINSBASE
 10
0.0
 20
0.0
 30
0.0
  9
$PLIMCHECK
 70
     0
  9
$PEXTMIN
 10
1.00000000000000E+20
 20
1.00000000000000E+20
 30
1.00000000000000E+20
  9
$PEXTMAX
 10
-1.00000000000000E+20
 20
-1.00000000000000E+20
 30
-1.00000000000000E+20
  9
$PLIMMIN
 10
0.0
 20
0.0
  9
$PLIMMAX
 10
12.0
 20
9.0
  9
$UNITMODE
 70
     0
  9
$VISRETAIN
 70
     1
  9
$PLINEGEN
 70
     0
  9
$PSLTSCALE
 70
     1
  9
$TREEDEPTH
 70
  3020
  9
$CMLSTYLE
  2
Standard
  9
$CMLJUST
 70
     0
  9
$CMLSCALE
 40
1.0
  9
$PROXYGRAPHICS
 70
     1
  9
$MEASUREMENT
 70
     1
  9
$CELWEIGHT
370
    -1
  9
$ENDCAPS
280
     0
  9
$JOINSTYLE
280
     0
  9
$LWDISPLAY
290
     0
  9
$INSUNITS
 70
     1
  9
$HYPERLINKBASE
  1

  9
$STYLESHEET
  1

  9
$XEDIT
290
     1
  9
$CEPSNTYPE
380
     0
  9
$PSTYLEMODE
290
     1
  9
$FINGERPRINTGUID
  2
{6A516099-9E5A-400F-AA38-804EFF191C7C}
  9
$VERSIONGUID
  2
{FAEB1C32-E019-11D5-929B-00C0DF256EC4}
  9
$EXTNAMES
290
     1
  9
$PSVPSCALE
 40
0.0
  9
$OLESTARTUP
290
     0
  0
ENDSEC
  0
SECTION
  2
CLASSES
  0
CLASS
  1
ACDBDICTIONARYWDFLT
  2
AcDbDictionaryWithDefault
  3
ObjectDBX Classes
 90
        0
280
     0
281
     0
  0
CLASS
  1

  2
exOdDbCircle
  3

 90
        0
280
     0
281
     1
  0
CLASS
  1

  2
exOdDbPolyline
  3

 90
        0
280
     0
281
     1
  0
CLASS
  1
ACDBPLACEHOLDER
  2
AcDbPlaceHolder
  3
ObjectDBX Classes
 90
        0
280
     0
281
     0
  0
CLASS
  1
LAYOUT
  2
AcDbLayout
  3
ObjectDBX Classes
 90
        0
280
     0
281
     0
  0
ENDSEC
  0
SECTION
  2
TABLES
  0
TABLE
  2
VPORT
  5
8
330
0
100
AcDbSymbolTable
 70
     1
  0
VPORT
  5
29
330
8
100
AcDbSymbolTableRecord
100
AcDbViewportTableRecord
  2
*Active
 70
     0
 10
0.0
 20
0.0
 11
1.0
 21
1.0
 12
2225.09548385845
 22
483.0908919823307
 13
0.0
 23
0.0
 14
0.5
 24
0.5
 15
0.5
 25
0.5
 16
0.0
 26
0.0
 36
1.0
 17
0.0
 27
0.0
 37
0.0
 40
1486.408843265256
 41
1.60267857142857
 42
50.0
 43
0.0
 44
0.0
 50
0.0
 51
0.0
 71
     0
 72
   100
 73
     1
 74
     3
 75
     0
 76
     0
 77
     0
 78
     0
281
     0
 65
     1
110
0.0
120
0.0
130
0.0
111
1.0
121
0.0
131
0.0
112
0.0
122
1.0
132
0.0
 79
     0
146
0.0
  0
ENDTAB
  0
TABLE
  2
LTYPE
  5
5
330
0
100
AcDbSymbolTable
 70
     8
  0
LTYPE
  5
14
330
5
100
AcDbSymbolTableRecord
100
AcDbLinetypeTableRecord
  2
ByBlock
 70
     0
  3

 72
    65
 73
     0
 40
0.0
  0
LTYPE
  5
15
330
5
100
AcDbSymbolTableRecord
100
AcDbLinetypeTableRecord
  2
ByLayer
 70
     0
  3

 72
    65
 73
     0
 40
0.0
  0
LTYPE
  5
16
330
5
100
AcDbSymbolTableRecord
100
AcDbLinetypeTableRecord
  2
Continuous
 70
     0
  3
Solid line
 72
    65
 73
     0
 40
0.0
  0
LTYPE
  5
2A
330
5
100
AcDbSymbolTableRecord
100
AcDbLinetypeTableRecord
  2
DASHED
 70
     0
  3
Dashed
 72
    65
 73
     2
 40
15.0
 49
7.0
 74
     0
 49
-8.0
 74
     0
  0
LTYPE
  5
2B
330
5
100
AcDbSymbolTableRecord
100
AcDbLinetypeTableRecord
  2
DOTTED
 70
     0
  3
Dotted
 72
    65
 73
     2
 40
1.0
 49
0.0
 74
     0
 49
-1.0
 74
     0
  0
LTYPE
  5
2C
330
5
100
AcDbSymbolTableRecord
100
AcDbLinetypeTableRecord
  2
DOT_CENTER
 70
     0
  3
Dot_Center
 72
    65
 73
     4
 40
14.0
 49
12.0
 74
     0
 49
-1.0
 74
     0
 49
0.0
 74
     0
 49
-1.0
 74
     0
  0
LTYPE
  5
2D
330
5
100
AcDbSymbolTableRecord
100
AcDbLinetypeTableRecord
  2
LONG_DASHED
 70
     0
  3
Long_Dashed
 72
    65
 73
     2
 40
15.0
 49
10.0
 74
     0
 49
-5.0
 74
     0
  0
LTYPE
  5
2E
330
5
100
AcDbSymbolTableRecord
100
AcDbLinetypeTableRecord
  2
DASH_CENTER
 70
     0
  3
Dash_Center
 72
    65
 73
     4
 40
14.0
 49
11.0
 74
     0
 49
-1.0
 74
     0
 49
1.0
 74
     0
 49
-1.0
 74
     0
  0
LTYPE
  5
2F
330
5
100
AcDbSymbolTableRecord
100
AcDbLinetypeTableRecord
  2
PHANTOM
 70
     0
  3
Phantom
 72
    65
 73
     6
 40
13.0
 49
10.0
 74
     0
 49
-1.0
 74
     0
 49
0.0
 74
     0
 49
-1.0
 74
     0
 49
0.0
 74
     0
 49
-1.0
 74
     0
  0
LTYPE
  5
30
330
5
100
AcDbSymbolTableRecord
100
AcDbLinetypeTableRecord
  2
CENTER_DASH_DASH
 70
     0
  3
Center_Dash_Dash
 72
    65
 73
     6
 40
14.0
 49
9.0
 74
     0
 49
-1.0
 74
     0
 49
1.0
 74
     0
 49
-1.0
 74
     0
 49
1.0
 74
     0
 49
-1.0
 74
     0
  0
ENDTAB
  0
TABLE
  2
LAYER
  5
2
330
0
100
AcDbSymbolTable
 70
     2
  0
LAYER
  5
10
330
2
100
AcDbSymbolTableRecord
100
AcDbLayerTableRecord
  2
0
 70
     0
 62
     7
  6
Continuous
370
    -3
390
F
  0
LAYER
  5
31
330
2
100
AcDbSymbolTableRecord
100
AcDbLayerTableRecord
  2
1
 70
     0
 62
     7
  6
Continuous
370
    -3
390
F
  0
ENDTAB
  0
TABLE
  2
STYLE
  5
3
330
0
100
AcDbSymbolTable
 70
     6
  0
STYLE
  5
11
330
3
100
AcDbSymbolTableRecord
100
AcDbTextStyleTableRecord
  2
Standard
 70
     0
 40
0.0
 41
1.0
 50
0.0
 71
     0
 42
0.2
  3
txt
  4

  0
STYLE
  5
50
330
3
100
AcDbSymbolTableRecord
100
AcDbTextStyleTableRecord
  2
CONVERTER_1
 70
     0
 40
0.0
 41
0.9
 50
0.0
 71
     0
 42
0.2
  3
txt.shx
  4

  0
STYLE
  5
53
330
3
100
AcDbSymbolTableRecord
100
AcDbTextStyleTableRecord
  2
CONVERTER_2
 70
     0
 40
0.0
 41
1.068
 50
0.0
 71
     0
 42
0.2
  3
msmincho.ttc
  4

1001
ACAD
1000
MS Mincho
1071
    32785
  0
STYLE
  5
56
330
3
100
AcDbSymbolTableRecord
100
AcDbTextStyleTableRecord
  2
CONVERTER_3
 70
     0
 40
0.0
 41
0.89
 50
0.0
 71
     0
 42
0.2
  3
MSMINCHO.TTC
  4

1001
ACAD
1000
MS Mincho
1071
    32785
  0
STYLE
  5
59
330
3
100
AcDbSymbolTableRecord
100
AcDbTextStyleTableRecord
  2
CONVERTER_4
 70
     0
 40
0.0
 41
0.801
 50
0.0
 71
     0
 42
0.2
  3
msmincho.ttc
  4

1001
ACAD
1000
MS Mincho
1071
    32785
  0
STYLE
  5
5D
330
3
100
AcDbSymbolTableRecord
100
AcDbTextStyleTableRecord
  2
CONVERTER_5
 70
     0
 40
0.0
 41
0.9025
 50
0.0
 71
     0
 42
0.2
  3
complex.shx
  4

  0
ENDTAB
  0
TABLE
  2
VIEW
  5
6
330
0
100
AcDbSymbolTable
 70
     0
  0
ENDTAB
  0
TABLE
  2
UCS
  5
7
330
0
100
AcDbSymbolTable
 70
     0
  0
ENDTAB
  0
TABLE
  2
APPID
  5
9
330
0
100
AcDbSymbolTable
 70
     1
  0
APPID
  5
12
330
9
100
AcDbSymbolTableRecord
100
AcDbRegAppTableRecord
  2
ACAD
 70
     0
  0
ENDTAB
  0
TABLE
  2
DIMSTYLE
  5
A
330
0
100
AcDbSymbolTable
 70
    21
100
AcDbDimStyleTable
  0
DIMSTYLE
105
27
330
A
100
AcDbSymbolTableRecord
100
AcDbDimStyleTableRecord
  2
Standard
 70
     0
340
11
  0
DIMSTYLE
105
394
102
{ACAD_REACTORS
330
395
102
}
330
A
100
AcDbSymbolTableRecord
100
AcDbDimStyleTableRecord
  2
ME10_DIM_0
 70
     0
 41
16.0
 42
5.0
 44
5.0
 73
     0
 74
     0
 77
     1
 78
     8
140
16.0
147
3.5
172
     1
173
     1
176
     2
177
     2
178
     2
271
     2
340
56
343
38E
344
38E
  0
DIMSTYLE
105
3A3
102
{ACAD_REACTORS
330
3A4
102
}
330
A
100
AcDbSymbolTableRecord
100
AcDbDimStyleTableRecord
  2
ME10_DIM_1
 70
     0
 41
16.0
 42
5.0
 44
5.0
 73
     0
 74
     0
 77
     1
 78
     8
140
16.0
147
3.5
172
     1
173
     1
176
     2
177
     2
178
     2
271
     2
340
50
343
38E
344
38E
  0
DIMSTYLE
105
3B6
102
{ACAD_REACTORS
330
3B7
102
}
330
A
100
AcDbSymbolTableRecord
100
AcDbDimStyleTableRecord
  2
ME10_DIM_2
 70
     0
 41
4.0
 42
5.0
 44
5.0
 73
     0
 74
     0
 77
     1
 78
     8
140
16.0
147
3.5
172
     1
173
     1
176
     2
177
     2
178
     2
271
     2
340
50
343
38E
344
3B1
  0
DIMSTYLE
105
3C3
102
{ACAD_REACTORS
330
3C4
102
}
330
A
100
AcDbSymbolTableRecord
100
AcDbDimStyleTableRecord
  2
ME10_DIM_3
 70
     0
 41
4.0
 42
5.0
 44
5.0
 73
     0
 74
     0
 77
     1
 78
     8
140
16.0
147
3.5
172
     1
173
     1
176
     2
177
     2
178
     2
271
     2
340
50
343
3B1
344
3B1
  0
DIMSTYLE
105
3D0
102
{ACAD_REACTORS
330
3D1
102
}
330
A
100
AcDbSymbolTableRecord
100
AcDbDimStyleTableRecord
  2
ME10_DIM_4
 70
     0
 41
16.0
 42
5.0
 44
5.0
 73
     0
 74
     0
 77
     1
 78
     8
140
16.0
147
3.5
172
     1
173
     1
176
     2
177
     2
178
     2
271
     2
340
50
343
38E
344
38E
  0
DIMSTYLE
105
3DD
102
{ACAD_REACTORS
330
3DE
102
}
330
A
100
AcDbSymbolTableRecord
100
AcDbDimStyleTableRecord
  2
ME10_DIM_5
 70
     0
 41
16.0
 42
5.0
 44
5.0
 73
     0
 74
     0
 77
     1
 78
     8
140
16.0
147
3.5
172
     1
173
     1
176
     2
177
     2
178
     2
271
     2
340
50
343
38E
344
38E
  0
DIMSTYLE
105
3EA
102
{ACAD_REACTORS
330
3EB
102
}
330
A
100
AcDbSymbolTableRecord
100
AcDbDimStyleTableRecord
  2
ME10_DIM_6
 70
     0
 41
16.0
 42
5.0
 44
5.0
 73
     0
 74
     0
 77
     1
 78
     8
140
16.0
147
3.5
172
     1
173
     1
176
     2
177
     2
178
     2
271
     2
340
50
343
38E
344
38E
  0
DIMSTYLE
105
3F7
102
{ACAD_REACTORS
330
3F8
102
}
330
A
100
AcDbSymbolTableRecord
100
AcDbDimStyleTableRecord
  2
ME10_DIM_7
 70
     0
 41
16.0
 42
5.0
 44
5.0
 73
     0
 74
     0
 77
     1
 78
     8
140
16.0
147
3.5
172
     1
173
     1
176
     2
177
     2
178
     2
271
     2
340
56
343
38E
344
38E
  0
DIMSTYLE
105
405
102
{ACAD_REACTORS
330
406
102
}
330
A
100
AcDbSymbolTableRecord
100
AcDbDimStyleTableRecord
  2
ME10_DIM_8
 70
     0
 41
4.0
 42
5.0
 44
5.0
 73
     0
 74
     0
 77
     1
 78
     8
140
16.0
147
3.5
172
     1
173
     1
176
     2
177
     2
178
     2
271
     2
340
50
343
38E
344
3B1
  0
DIMSTYLE
105
414
102
{ACAD_REACTORS
330
415
102
}
330
A
100
AcDbSymbolTableRecord
100
AcDbDimStyleTableRecord
  2
ME10_DIM_9
 70
     0
 41
16.0
 42
5.0
 44
5.0
 77
     1
 78
     8
140
16.0
147
3.5
172
     1
173
     1
176
     2
177
     2
178
     2
271
     2
340
50
343
38E
344
38E
  0
DIMSTYLE
105
423
102
{ACAD_REACTORS
330
424
102
}
330
A
100
AcDbSymbolTableRecord
100
AcDbDimStyleTableRecord
  2
ME10_DIM_10
 70
     0
 41
16.0
 42
5.0
 44
5.0
 77
     1
 78
     8
140
16.0
147
3.5
172
     1
173
     1
176
     2
177
     2
178
     2
271
     2
340
50
343
38E
344
38E
  0
DIMSTYLE
105
432
102
{ACAD_REACTORS
330
433
102
}
330
A
100
AcDbSymbolTableRecord
100
AcDbDimStyleTableRecord
  2
ME10_DIM_11
 70
     0
 41
16.0
 42
5.0
 44
5.0
 77
     1
 78
     8
140
16.0
147
3.5
172
     1
173
     1
176
     2
177
     2
178
     2
271
     2
340
50
343
38E
344
38E
  0
DIMSTYLE
105
441
102
{ACAD_REACTORS
330
442
102
}
330
A
100
AcDbSymbolTableRecord
100
AcDbDimStyleTableRecord
  2
ME10_DIM_12
 70
     0
 41
16.0
 42
5.0
 44
5.0
 73
     0
 74
     0
 77
     1
 78
     8
140
16.0
147
5.0
172
     1
173
     1
176
     2
177
     2
178
     2
271
     2
340
50
343
38E
344
38E
  0
DIMSTYLE
105
44E
102
{ACAD_REACTORS
330
44F
102
}
330
A
100
AcDbSymbolTableRecord
100
AcDbDimStyleTableRecord
  2
ME10_DIM_13
 70
     0
 41
16.0
 42
5.0
 44
5.0
 73
     0
 74
     0
 77
     1
 78
     8
140
16.0
147
5.0
172
     1
173
     1
176
     2
177
     2
178
     2
271
     2
340
50
343
38E
344
38E
  0
DIMSTYLE
105
45B
102
{ACAD_REACTORS
330
45C
102
}
330
A
100
AcDbSymbolTableRecord
100
AcDbDimStyleTableRecord
  2
ME10_DIM_14
 70
     0
 41
16.0
 42
5.0
 44
5.0
 73
     0
 74
     0
 77
     1
 78
     8
140
16.0
147
3.5
172
     1
173
     1
176
     2
177
     2
178
     2
271
     2
340
50
343
38E
344
38E
  0
DIMSTYLE
105
468
102
{ACAD_REACTORS
330
469
102
}
330
A
100
AcDbSymbolTableRecord
100
AcDbDimStyleTableRecord
  2
ME10_DIM_15
 70
     0
 41
16.0
 42
5.0
 44
5.0
 73
     0
 74
     0
 77
     1
 78
     8
140
16.0
147
3.5
172
     1
173
     1
176
     2
177
     2
178
     2
271
     2
340
50
343
38E
344
38E
  0
DIMSTYLE
105
477
102
{ACAD_REACTORS
330
478
102
}
330
A
100
AcDbSymbolTableRecord
100
AcDbDimStyleTableRecord
  2
ME10_DIM_16
 70
     0
 41
16.0
 42
5.0
 44
5.0
 77
     1
 78
     8
140
16.0
147
3.5
172
     1
173
     1
176
     2
177
     2
178
     2
271
     2
340
50
343
38E
344
38E
  0
DIMSTYLE
105
486
102
{ACAD_REACTORS
330
487
102
}
330
A
100
AcDbSymbolTableRecord
100
AcDbDimStyleTableRecord
  2
ME10_DIM_17
 70
     0
 41
16.0
 42
5.0
 44
5.0
 77
     1
 78
     8
140
16.0
147
3.5
172
     1
173
     1
176
     2
177
     2
178
     2
271
     2
340
50
343
38E
344
38E
  0
DIMSTYLE
105
493
102
{ACAD_REACTORS
330
494
102
}
330
A
100
AcDbSymbolTableRecord
100
AcDbDimStyleTableRecord
  2
ME10_DIM_18
 70
     0
  3
□<>
 41
16.0
 42
5.0
 44
5.0
 73
     0
 74
     0
 77
     1
 78
     8
140
16.0
147
5.0
172
     1
173
     1
176
     2
177
     2
178
     2
271
     2
340
56
343
38E
344
38E
  0
DIMSTYLE
105
4A2
102
{ACAD_REACTORS
330
4A3
102
}
330
A
100
AcDbSymbolTableRecord
100
AcDbDimStyleTableRecord
  2
ME10_DIM_19
 70
     0
 41
16.0
 42
5.0
 44
5.0
 73
     0
 74
     0
 77
     1
 78
     8
140
16.0
147
5.0
172
     1
173
     1
176
     2
177
     2
178
     2
271
     2
340
50
343
38E
344
38E
  0
ENDTAB
  0
TABLE
  2
BLOCK_RECORD
  5
1
330
0
100
AcDbSymbolTable
 70
    28
  0
BLOCK_RECORD
  5
1F
330
1
100
AcDbSymbolTableRecord
100
AcDbBlockTableRecord
  2
*Model_Space
340
22
  0
BLOCK_RECORD
  5
1B
330
1
100
AcDbSymbolTableRecord
100
AcDbBlockTableRecord
  2
*Paper_Space
340
1E
  0
BLOCK_RECORD
  5
23
330
1
100
AcDbSymbolTableRecord
100
AcDbBlockTableRecord
  2
*Paper_Space0
340
26
  0
BLOCK_RECORD
  5
32
330
1
100
AcDbSymbolTableRecord
100
AcDbBlockTableRecord
  2
Zuwaku-A3-web
340
0
102
{BLKREFS
331
35
102
}
  0
BLOCK_RECORD
  5
383
330
1
100
AcDbSymbolTableRecord
100
AcDbBlockTableRecord
  2
*D02
340
0
  0
BLOCK_RECORD
  5
38E
330
1
100
AcDbSymbolTableRecord
100
AcDbBlockTableRecord
  2
_Open30
340
0
  0
BLOCK_RECORD
  5
396
330
1
100
AcDbSymbolTableRecord
100
AcDbBlockTableRecord
  2
*D14
340
0
  0
BLOCK_RECORD
  5
3A5
330
1
100
AcDbSymbolTableRecord
100
AcDbBlockTableRecord
  2
*D25
340
0
  0
BLOCK_RECORD
  5
3B1
330
1
100
AcDbSymbolTableRecord
100
AcDbBlockTableRecord
  2
_Dot
340
0
  0
BLOCK_RECORD
  5
3B8
330
1
100
AcDbSymbolTableRecord
100
AcDbBlockTableRecord
  2
*D37
340
0
  0
BLOCK_RECORD
  5
3C5
330
1
100
AcDbSymbolTableRecord
100
AcDbBlockTableRecord
  2
*D48
340
0
  0
BLOCK_RECORD
  5
3D2
330
1
100
AcDbSymbolTableRecord
100
AcDbBlockTableRecord
  2
*D59
340
0
  0
BLOCK_RECORD
  5
3DF
330
1
100
AcDbSymbolTableRecord
100
AcDbBlockTableRecord
  2
*D610
340
0
  0
BLOCK_RECORD
  5
3EC
330
1
100
AcDbSymbolTableRecord
100
AcDbBlockTableRecord
  2
*D711
340
0
  0
BLOCK_RECORD
  5
3F9
330
1
100
AcDbSymbolTableRecord
100
AcDbBlockTableRecord
  2
*D812
340
0
  0
BLOCK_RECORD
  5
407
330
1
100
AcDbSymbolTableRecord
100
AcDbBlockTableRecord
  2
*D913
340
0
  0
BLOCK_RECORD
  5
416
330
1
100
AcDbSymbolTableRecord
100
AcDbBlockTableRecord
  2
*D1014
340
0
  0
BLOCK_RECORD
  5
425
330
1
100
AcDbSymbolTableRecord
100
AcDbBlockTableRecord
  2
*D1115
340
0
  0
BLOCK_RECORD
  5
434
330
1
100
AcDbSymbolTableRecord
100
AcDbBlockTableRecord
  2
*D1216
340
0
  0
BLOCK_RECORD
  5
443
330
1
100
AcDbSymbolTableRecord
100
AcDbBlockTableRecord
  2
*D1317
340
0
  0
BLOCK_RECORD
  5
450
330
1
100
AcDbSymbolTableRecord
100
AcDbBlockTableRecord
  2
*D1418
340
0
  0
BLOCK_RECORD
  5
45D
330
1
100
AcDbSymbolTableRecord
100
AcDbBlockTableRecord
  2
*D1519
340
0
  0
BLOCK_RECORD
  5
46A
330
1
100
AcDbSymbolTableRecord
100
AcDbBlockTableRecord
  2
*D1620
340
0
  0
BLOCK_RECORD
  5
479
330
1
100
AcDbSymbolTableRecord
100
AcDbBlockTableRecord
  2
*D1721
340
0
  0
BLOCK_RECORD
  5
488
330
1
100
AcDbSymbolTableRecord
100
AcDbBlockTableRecord
  2
*D1822
340
0
  0
BLOCK_RECORD
  5
495
330
1
100
AcDbSymbolTableRecord
100
AcDbBlockTableRecord
  2
*D1923
340
0
  0
BLOCK_RECORD
  5
4A4
330
1
100
AcDbSymbolTableRecord
100
AcDbBlockTableRecord
  2
*D2024
340
0
102
{BLKREFS
331
4AC
102
}
  0
BLOCK_RECORD
  5
4AD
330
1
100
AcDbSymbolTableRecord
100
AcDbBlockTableRecord
  2
*D2125
340
0
102
{BLKREFS
331
4B5
102
}
  0
BLOCK_RECORD
  5
4B6
330
1
100
AcDbSymbolTableRecord
100
AcDbBlockTableRecord
  2
*D2226
340
0
102
{BLKREFS
331
4BE
102
}
  0
BLOCK_RECORD
  5
4BF
330
1
100
AcDbSymbolTableRecord
100
AcDbBlockTableRecord
  2
*D2327
340
0
102
{BLKREFS
331
4C7
102
}
  0
ENDTAB
  0
ENDSEC
  0
SECTION
  2
BLOCKS
  0
BLOCK
  5
20
330
1F
100
AcDbEntity
  8
0
100
AcDbBlockBegin
  2
*Model_Space
 70
     0
 71
     0
 10
0.0
 20
0.0
 30
0.0
  3
*Model_Space
  1

  0
ENDBLK
  5
21
330
1F
100
AcDbEntity
  8
0
100
AcDbBlockEnd
  0
BLOCK
  5
1C
330
1B
100
AcDbEntity
 67
     1
  8
0
100
AcDbBlockBegin
  2
*Paper_Space
 70
     0
 71
     0
 10
0.0
 20
0.0
 30
0.0
  3
*Paper_Space
  1

  0
ENDBLK
  5
1D
330
1B
100
AcDbEntity
 67
     1
  8
0
100
AcDbBlockEnd
  0
BLOCK
  5
24
330
23
100
AcDbEntity
  8
0
100
AcDbBlockBegin
  2
*Paper_Space0
 70
     0
 71
     0
 10
0.0
 20
0.0
 30
0.0
  3
*Paper_Space0
  1

  0
ENDBLK
  5
25
330
23
100
AcDbEntity
  8
0
100
AcDbBlockEnd
  0
BLOCK
  5
33
330
32
100
AcDbEntity
  8
0
100
AcDbBlockBegin
  2
Zuwaku-A3-web
 70
     0
 71
     0
 10
445.0190967716898
 20
97.74625505694399
 30
0.0
  3
Zuwaku-A3-web
  1

  0
POINT
  5
36
330
32
100
AcDbEntity
  8
1
 62
     3
 60
     1
100
AcDbPoint
 10
410.51909677169
 20
-16.253744943056
 30
0.0
  0
POINT
  5
37
330
32
100
AcDbEntity
  8
1
 62
     3
 60
     1
100
AcDbPoint
 10
450.01909677169
 20
-21.253744943056
 30
0.0
  0
POINT
  5
38
330
32
100
AcDbEntity
  8
1
 62
     3
 60
     1
100
AcDbPoint
 10
410.51909677169
 20
-21.253744943056
 30
0.0
  0
POINT
  5
39
330
32
100
AcDbEntity
  8
1
 62
     3
 60
     1
100
AcDbPoint
 10
257.51909677169
 20
-23.753744943056
 30
0.0
  0
POINT
  5
3A
330
32
100
AcDbEntity
  8
1
 62
     3
 60
     1
100
AcDbPoint
 10
250.51909677169
 20
-23.753744943056
 30
0.0
  0
POINT
  5
3B
330
32
100
AcDbEntity
  8
1
 62
     3
 60
     1
100
AcDbPoint
 10
248.01909677169
 20
-36.253744943056
 30
0.0
  0
LINE
  5
3C
330
32
100
AcDbEntity
  8
1
  6
Continuous
 62
     4
100
AcDbLine
 10
437.5136739288993
 20
-34.11976910057401
 30
0.0
 11
443.2457222439354
 21
-28.387720785538
 31
0.0
  0
LINE
  5
3D
330
32
100
AcDbEntity
  8
1
  6
Continuous
 62
     7
100
AcDbLine
 10
248.01909677169
 20
-36.253744943056
 30
0.0
 11
642.0190967716901
 21
-36.253744943056
 31
0.0
  0
LINE
  5
3E
330
32
100
AcDbEntity
  8
1
  6
Continuous
 62
     4
100
AcDbLine
 10
410.51909677169
 20
-21.253744943056
 30
0.0
 11
450.01909677169
 21
-21.253744943056
 31
0.0
  0
LINE
  5
3F
330
32
100
AcDbEntity
  8
1
  6
Continuous
 62
     3
100
AcDbLine
 10
257.51909677169
 20
-23.753744943056
 30
0.0
 11
254.01909677169
 21
-17.253744943056
 31
0.0
  0
LINE
  5
40
330
32
100
AcDbEntity
  8
1
  6
Continuous
 62
     3
100
AcDbLine
 10
250.51909677169
 20
-23.753744943056
 30
0.0
 11
257.51909677169
 21
-23.753744943056
 31
0.0
  0
LINE
  5
41
330
32
100
AcDbEntity
  8
1
  6
Continuous
 62
     3
100
AcDbLine
 10
254.01909677169
 20
-17.253744943056
 30
0.0
 11
250.51909677169
 21
-23.753744943056
 31
0.0
  0
LINE
  5
42
330
32
100
AcDbEntity
  8
1
  6
Continuous
 62
     4
100
AcDbLine
 10
260.01909677169
 20
-16.253744943056
 30
0.0
 11
260.01909677169
 21
-36.253744943056
 31
0.0
  0
LINE
  5
43
330
32
100
AcDbEntity
  8
1
  6
Continuous
 62
     4
100
AcDbLine
 10
248.01909677169
 20
-26.253744943056
 30
0.0
 11
642.0190967716901
 21
-26.253744943056
 31
0.0
  0
LINE
  5
44
330
32
100
AcDbEntity
  8
1
  6
Continuous
 62
     7
100
AcDbLine
 10
642.0190967716897
 20
231.746255056944
 30
0.0
 11
248.01909677169
 21
231.746255056944
 31
0.0
  0
LINE
  5
45
330
32
100
AcDbEntity
  8
1
  6
Continuous
 62
     7
100
AcDbLine
 10
642.0190967716901
 20
-36.253744943056
 30
0.0
 11
642.0190967716897
 21
231.746255056944
 31
0.0
  0
LINE
  5
46
330
32
100
AcDbEntity
  8
1
  6
Continuous
 62
     4
100
AcDbLine
 10
450.01909677169
 20
-36.253744943056
 30
0.0
 11
450.01909677169
 21
-16.253744943056
 31
0.0
  0
LINE
  5
47
330
32
100
AcDbEntity
  8
1
  6
Continuous
 62
     4
100
AcDbLine
 10
410.51909677169
 20
-36.253744943056
 30
0.0
 11
410.51909677169
 21
-16.253744943056
 31
0.0
  0
LINE
  5
48
330
32
100
AcDbEntity
  8
1
  6
Continuous
 62
     4
100
AcDbLine
 10
531.0190967716901
 20
-16.253744943056
 30
0.0
 11
531.0190967716901
 21
-36.253744943056
 31
0.0
  0
LINE
  5
49
330
32
100
AcDbEntity
  8
1
  6
Continuous
 62
     4
100
AcDbLine
 10
475.01909677169
 20
-16.253744943056
 30
0.0
 11
475.01909677169
 21
-36.253744943056
 31
0.0
  0
LINE
  5
4A
330
32
100
AcDbEntity
  8
1
  6
Continuous
 62
     4
100
AcDbLine
 10
418.51909677169
 20
-26.253744943056
 30
0.0
 11
418.51909677169
 21
-36.253744943056
 31
0.0
  0
LINE
  5
4B
330
32
100
AcDbEntity
  8
1
  6
Continuous
 62
     4
100
AcDbLine
 10
314.01909677169
 20
-16.253744943056
 30
0.0
 11
314.01909677169
 21
-36.253744943056
 31
0.0
  0
LINE
  5
4C
330
32
100
AcDbEntity
  8
1
  6
Continuous
 62
     7
100
AcDbLine
 10
248.01909677169
 20
231.746255056944
 30
0.0
 11
248.01909677169
 21
-36.253744943056
 31
0.0
  0
LINE
  5
4D
330
32
100
AcDbEntity
  8
1
  6
Continuous
 62
     4
100
AcDbLine
 10
421.7636739288993
 20
-34.11976910057401
 30
0.0
 11
427.4957222439354
 21
-28.387720785538
 31
0.0
  0
LINE
  5
4E
330
32
100
AcDbEntity
  8
1
  6
Continuous
 62
     4
100
AcDbLine
 10
642.0190967716901
 20
-16.253744943056
 30
0.0
 11
248.01909677169
 21
-16.253744943056
 31
0.0
  0
LINE
  5
4F
330
32
100
AcDbEntity
  8
1
  6
Continuous
 62
     4
100
AcDbLine
 10
543.0190967716901
 20
-16.253744943056
 30
0.0
 11
543.0190967716901
 21
-36.253744943056
 31
0.0
  0
MTEXT
  5
51
330
32
100
AcDbEntity
  8
1
 62
     2
100
AcDbMText
 10
428.9957222439354
 20
-32.503744943056
 30
0.0
 40
4.0
 41
0.0
 71
     5
 72
     1
  1
5
  7
CONVERTER_1
 73
     1
 44
0.60024009603842
  0
MTEXT
  5
52
330
32
100
AcDbEntity
  8
1
 62
     2
100
AcDbMText
 10
421.202529639597
 20
-30.003744943056
 30
0.0
 40
4.0
 41
0.0
 71
     5
 72
     1
  1
1
  7
CONVERTER_1
 73
     1
 44
0.60024009603842
  0
MTEXT
  5
54
330
32
100
AcDbEntity
  8
1
 62
     2
100
AcDbMText
 10
537.0190967716901
 20
-33.503744943056
 30
0.0
 40
3.5
 41
0.0
 71
     5
 72
     1
  1
番号
  7
CONVERTER_2
 73
     1
 44
0.78031212484994
  0
MTEXT
  5
55
330
32
100
AcDbEntity
  8
1
 62
     2
100
AcDbMText
 10
414.51909677169
 20
-33.503744943056
 30
0.0
 40
3.5
 41
0.0
 71
     5
 72
     1
  1
度
  7
CONVERTER_2
 73
     1
 44
0.78031212484994
  0
MTEXT
  5
57
330
32
100
AcDbEntity
  8
1
 62
     2
100
AcDbMText
 10
253.6971748018617
 20
-33.503744943056
 30
0.0
 40
3.5
 41
0.0
 71
     5
 72
     1
  1
番号
  7
CONVERTER_3
 73
     1
 44
0.78031212484994
  0
MTEXT
  5
58
330
32
100
AcDbEntity
  8
1
 62
     7
100
AcDbMText
 10
362.26909677169
 20
-21.253744943056
 30
0.0
 40
5.0
 41
0.0
 71
     5
 72
     1
  1
技術情報サービス
  7
CONVERTER_3
 73
     1
 44
1.20048019207683
  0
MTEXT
  5
5A
330
32
100
AcDbEntity
  8
1
 62
     2
100
AcDbMText
 10
462.51909677169
 20
-21.253744943056
 30
0.0
 40
4.0
 41
0.0
 71
     5
 72
     1
  1
シリーズ名
  7
CONVERTER_4
 73
     1
 44
1.32052821128451
  0
MTEXT
  5
5B
330
32
100
AcDbEntity
  8
1
 62
     2
100
AcDbMText
 10
462.51909677169
 20
-31.253744943056
 30
0.0
 40
4.0
 41
0.0
 71
     5
 72
     1
  1
機　種
  7
CONVERTER_3
 73
     1
 44
1.32052821128451
  0
MTEXT
  5
5C
330
32
100
AcDbEntity
  8
1
 62
     2
100
AcDbMText
 10
437.76909677169
 20
-29.753744943056
 30
0.0
 40
4.0
 41
0.0
 71
     5
 72
     1
  1
1
  7
CONVERTER_1
 73
     1
 44
1.32052821128451
  0
MTEXT
  5
5E
330
32
100
AcDbEntity
  8
1
 62
     7
100
AcDbMText
 10
362.26909677169
 20
-31.253744943056
 30
0.0
 40
4.0
 41
0.0
 71
     5
 72
     1
  1
MARUYASU KIKAI CO.,LTD.
  7
CONVERTER_5
 73
     1
 44
1.32052821128451
  0
MTEXT
  5
5F
330
32
100
AcDbEntity
  8
1
 62
     2
100
AcDbMText
 10
254.01909677169
 20
-29.003744943056
 30
0.0
 40
3.5
 41
0.0
 71
     5
 72
     1
  1
改訂
  7
CONVERTER_3
 73
     1
 44
0.78031212484994
  0
MTEXT
  5
60
330
32
100
AcDbEntity
  8
1
 62
     2
100
AcDbMText
 10
287.01909677169
 20
-31.253744943056
 30
0.0
 40
3.5
 41
0.0
 71
     5
 72
     1
  1
改　 訂　 記　 事
  7
CONVERTER_3
 73
     1
 44
1.32052821128451
  0
MTEXT
  5
61
330
32
100
AcDbEntity
  8
1
 62
     2
100
AcDbMText
 10
414.51909677169
 20
-29.003744943056
 30
0.0
 40
3.5
 41
0.0
 71
     5
 72
     1
  1
尺
  7
CONVERTER_2
 73
     1
 44
0.78031212484994
  0
MTEXT
  5
62
330
32
100
AcDbEntity
  8
1
 62
     2
100
AcDbMText
 10
430.26909677169
 20
-18.753744943056
 30
0.0
 40
3.5
 41
0.0
 71
     5
 72
     1
  1
年　　月　　日
  7
CONVERTER_3
 73
     1
 44
0.78031212484994
  0
MTEXT
  5
63
330
32
100
AcDbEntity
  8
1
 62
     2
100
AcDbMText
 10
537.0190967716901
 20
-29.003744943056
 30
0.0
 40
3.5
 41
0.0
 71
     5
 72
     1
  1
図面
  7
CONVERTER_2
 73
     1
 44
0.78031212484994
  0
MTEXT
  5
64
330
32
100
AcDbEntity
  8
1
 62
     2
100
AcDbMText
 10
537.0190967716901
 20
-21.253744943056
 30
0.0
 40
4.0
 41
0.0
 71
     5
 72
     1
  1
図名
  7
CONVERTER_3
 73
     1
 44
1.32052821128451
  0
MTEXT
  5
65
330
32
100
AcDbEntity
  8
1
 62
     4
100
AcDbMText
 10
641.4756511640592
 20
-36.50989826401169
 30
0.0
 40
2.0
 41
0.0
 71
     3
 72
     1
  1
A3
  7
CONVERTER_1
 73
     1
 44
1.32052821128451
  0
ENDBLK
  5
34
330
32
100
AcDbEntity
  8
0
100
AcDbBlockEnd
  0
BLOCK
  5
38C
330
383
100
AcDbEntity
  8
0
100
AcDbBlockBegin
  2
*D02
 70
     1
 71
     0
 10
0.0
 20
0.0
 30
0.0
  3
*D02
  1

  0
LINE
  5
384
330
383
100
AcDbEntity
  8
1
  6
Continuous
 62
     2
100
AcDbLine
 10
2629.482335378987
 20
701.1476898356405
 30
0.0
 11
1629.482335378986
 21
701.1476898356405
 31
0.0
  0
LINE
  5
385
330
383
100
AcDbEntity
  8
1
  6
Continuous
 62
     2
100
AcDbLine
 10
2629.482335378987
 20
805.4634322327797
 30
0.0
 11
2629.482335378987
 21
696.1476898356405
 31
0.0
  0
LINE
  5
386
330
383
100
AcDbEntity
  8
1
  6
Continuous
 62
     2
100
AcDbLine
 10
1629.482335378986
 20
798.9634322327697
 30
0.0
 11
1629.482335378986
 21
696.1476898356405
 31
0.0
  0
LINE
  5
387
330
383
100
AcDbEntity
  8
1
 62
     2
100
AcDbLine
 10
2629.482335378987
 20
701.1476898356405
 30
0.0
 11
2613.482335378987
 21
696.8605027567425
 31
0.0
  0
LINE
  5
388
330
383
100
AcDbEntity
  8
1
 62
     2
100
AcDbLine
 10
2629.482335378987
 20
701.1476898356405
 30
0.0
 11
2613.482335378987
 21
705.4348769145385
 31
0.0
  0
LINE
  5
389
330
383
100
AcDbEntity
  8
1
 62
     2
100
AcDbLine
 10
1629.482335378986
 20
701.1476898356405
 30
0.0
 11
1645.482335378986
 21
705.4348769145385
 31
0.0
  0
LINE
  5
38A
330
383
100
AcDbEntity
  8
1
 62
     2
100
AcDbLine
 10
1629.482335378986
 20
701.1476898356405
 30
0.0
 11
1645.482335378986
 21
696.8605027567425
 31
0.0
  0
MTEXT
  5
38B
330
383
100
AcDbEntity
  8
1
 62
     2
100
AcDbMText
 10
2102.640743250221
 20
704.6476898356405
 30
0.0
 40
16.0
 41
0.0
 71
     7
 72
     1
  1
呼称機長 ※1
  7
CONVERTER_3
 11
0.9999999999970621
 21
2.424068405545307E-6
 31
0.0
 73
     1
 44
0.60024009603842
  0
ENDBLK
  5
38D
330
383
100
AcDbEntity
  8
0
100
AcDbBlockEnd
  0
BLOCK
  5
38F
330
38E
100
AcDbEntity
  8
0
100
AcDbBlockBegin
  2
_Open30
 70
     0
 71
     0
 10
0.0
 20
0.0
 30
0.0
  3
_Open30
  1

  0
LINE
  5
391
330
38E
100
AcDbEntity
  8
0
  6
ByBlock
 62
     0
370
    -2
100
AcDbLine
 10
-1.0
 20
0.267949
 30
0.0
 11
0.0
 21
0.0
 31
0.0
  0
LINE
  5
392
330
38E
100
AcDbEntity
  8
0
  6
ByBlock
 62
     0
370
    -2
100
AcDbLine
 10
0.0
 20
0.0
 30
0.0
 11
-1.0
 21
-0.267949
 31
0.0
  0
LINE
  5
393
330
38E
100
AcDbEntity
  8
0
  6
ByBlock
 62
     0
370
    -2
100
AcDbLine
 10
0.0
 20
0.0
 30
0.0
 11
-1.0
 21
0.0
 31
0.0
  0
ENDBLK
  5
390
330
38E
100
AcDbEntity
  8
0
100
AcDbBlockEnd
  0
BLOCK
  5
3A1
330
396
100
AcDbEntity
  8
0
100
AcDbBlockBegin
  2
*D14
 70
     1
 71
     0
 10
0.0
 20
0.0
 30
0.0
  3
*D14
  1

  0
LINE
  5
397
330
396
100
AcDbEntity
  8
1
  6
Continuous
 62
     2
100
AcDbLine
 10
2685.59959840884
 20
411.7458101684424
 30
0.0
 11
2685.59959840884
 21
379.7458101684424
 31
0.0
  0
LINE
  5
398
330
396
100
AcDbEntity
  8
1
  6
Continuous
 62
     2
100
AcDbLine
 10
2685.59959840884
 20
451.7458101684424
 30
0.0
 11
2685.59959840884
 21
411.7458101684424
 31
0.0
  0
LINE
  5
399
330
396
100
AcDbEntity
  8
1
  6
Continuous
 62
     2
100
AcDbLine
 10
2685.59959840884
 20
483.7458101684424
 30
0.0
 11
2685.59959840884
 21
451.7458101684424
 31
0.0
  0
LINE
  5
39A
330
396
100
AcDbEntity
  8
1
  6
Continuous
 62
     2
100
AcDbLine
 10
2635.382335378986
 20
451.7458101684424
 30
0.0
 11
2690.59959840884
 21
451.7458101684424
 31
0.0
  0
LINE
  5
39B
330
396
100
AcDbEntity
  8
1
  6
Continuous
 62
     2
100
AcDbLine
 10
2635.382335378986
 20
411.7458101684424
 30
0.0
 11
2690.59959840884
 21
411.7458101684424
 31
0.0
  0
LINE
  5
39C
330
396
100
AcDbEntity
  8
1
 62
     2
100
AcDbLine
 10
2685.59959840884
 20
451.7458101684424
 30
0.0
 11
2681.312411329942
 21
467.7458101684424
 31
0.0
  0
LINE
  5
39D
330
396
100
AcDbEntity
  8
1
 62
     2
100
AcDbLine
 10
2685.59959840884
 20
451.7458101684424
 30
0.0
 11
2689.886785487738
 21
467.7458101684424
 31
0.0
  0
LINE
  5
39E
330
396
100
AcDbEntity
  8
1
 62
     2
100
AcDbLine
 10
2685.59959840884
 20
411.7458101684424
 30
0.0
 11
2689.886785487738
 21
395.7458101684424
 31
0.0
  0
LINE
  5
39F
330
396
100
AcDbEntity
  8
1
 62
     2
100
AcDbLine
 10
2685.59959840884
 20
411.7458101684424
 30
0.0
 11
2681.312411329942
 21
395.7458101684424
 31
0.0
  0
MTEXT
  5
3A0
330
396
100
AcDbEntity
  8
1
 62
     2
100
AcDbMText
 10
2682.09959840884
 20
419.5644293502087
 30
0.0
 40
16.0
 41
0.0
 71
     7
 72
     1
  1
40
  7
CONVERTER_1
 11
0.0
 21
1.0
 31
0.0
 73
     1
 44
0.60024009603842
  0
ENDBLK
  5
3A2
330
396
100
AcDbEntity
  8
0
100
AcDbBlockEnd
  0
BLOCK
  5
3AF
330
3A5
100
AcDbEntity
  8
0
100
AcDbBlockBegin
  2
*D25
 70
     1
 71
     0
 10
0.0
 20
0.0
 30
0.0
  3
*D25
  1

  0
LINE
  5
3A6
330
3A5
100
AcDbEntity
  8
1
  6
Continuous
 62
     2
100
AcDbLine
 10
1597.682336378982
 20
453.7458101684433
 30
0.0
 11
1597.682336378982
 21
411.7458101684433
 31
0.0
  0
LINE
  5
3A7
330
3A5
100
AcDbEntity
  8
1
  6
Continuous
 62
     2
100
AcDbLine
 10
1597.682336378982
 20
411.7458101684433
 30
0.0
 11
1597.682336378982
 21
379.7458101684433
 31
0.0
  0
LINE
  5
3A8
330
3A5
100
AcDbEntity
  8
1
  6
Continuous
 62
     2
100
AcDbLine
 10
1633.582335379015
 20
411.7458101684433
 30
0.0
 11
1592.682336378982
 21
411.7458101684433
 31
0.0
  0
LINE
  5
3A9
330
3A5
100
AcDbEntity
  8
1
  6
Continuous
 62
     2
100
AcDbLine
 10
1624.482335378976
 20
453.7458101684433
 30
0.0
 11
1592.682336378982
 21
453.7458101684433
 31
0.0
  0
CIRCLE
  5
3AA
102
{ACAD_REACTORS
330
3AB
102
}
330
3A5
100
AcDbEntity
  8
1
 62
     2
100
AcDbCircle
 10
1597.682336378982
 20
453.7458101684433
 30
0.0
 40
2.0
  0
HATCH
  5
3AB
330
3A5
100
AcDbEntity
  8
1
 62
     2
100
AcDbHatch
 10
0.0
 20
0.0
 30
0.0
210
0.0
220
0.0
230
1.0
  2
SOLID
 70
     1
 71
     1
 91
        1
 92
        1
 93
        1
 72
     2
 10
1597.682336378982
 20
453.7458101684433
 40
2.0
 50
0.0
 51
360.0
 73
     1
 97
        1
330
3AA
 75
     0
 76
     1
 98
        0
  0
LINE
  5
3AC
330
3A5
100
AcDbEntity
  8
1
 62
     2
100
AcDbLine
 10
1597.682336378982
 20
411.7458101684433
 30
0.0
 11
1601.96952345788
 21
395.7458101684433
 31
0.0
  0
LINE
  5
3AD
330
3A5
100
AcDbEntity
  8
1
 62
     2
100
AcDbLine
 10
1597.682336378982
 20
411.7458101684433
 30
0.0
 11
1593.395149300084
 21
395.7458101684433
 31
0.0
  0
MTEXT
  5
3AE
330
3A5
100
AcDbEntity
  8
1
 62
     2
100
AcDbMText
 10
1594.182336378982
 20
417.8861037398806
 30
0.0
 40
16.0
 41
0.0
 71
     7
 72
     1
  1
42
  7
CONVERTER_1
 11
0.0
 21
1.0
 31
0.0
 73
     1
 44
0.60024009603842
  0
ENDBLK
  5
3B0
330
3A5
100
AcDbEntity
  8
0
100
AcDbBlockEnd
  0
BLOCK
  5
3B2
330
3B1
100
AcDbEntity
  8
0
100
AcDbBlockBegin
  2
_Dot
 70
     0
 71
     0
 10
0.0
 20
0.0
 30
0.0
  3
_Dot
  1

  0
LWPOLYLINE
  5
3B4
330
3B1
100
AcDbEntity
  8
0
  6
ByBlock
 62
     0
100
AcDbPolyline
 90
        2
 70
     1
 43
0.5
 10
-0.25
 20
0.0
 42
1.0
 10
0.25
 20
0.0
 42
1.0
  0
LINE
  5
3B5
330
3B1
100
AcDbEntity
  8
0
  6
ByBlock
 62
     0
370
    -2
100
AcDbLine
 10
-0.5
 20
0.0
 30
0.0
 11
-1.0
 21
0.0
 31
0.0
  0
ENDBLK
  5
3B3
330
3B1
100
AcDbEntity
  8
0
100
AcDbBlockEnd
  0
BLOCK
  5
3C1
330
3B8
100
AcDbEntity
  8
0
100
AcDbBlockBegin
  2
*D37
 70
     1
 71
     0
 10
0.0
 20
0.0
 30
0.0
  3
*D37
  1

  0
LINE
  5
3B9
330
3B8
100
AcDbEntity
  8
1
  6
Continuous
 62
     2
100
AcDbLine
 10
1597.682336378983
 20
453.7458101684433
 30
0.0
 11
1597.682336378983
 21
459.7458101684433
 31
0.0
  0
LINE
  5
3BA
330
3B8
100
AcDbEntity
  8
1
  6
Continuous
 62
     2
100
AcDbLine
 10
1624.482335378976
 20
459.7458101684433
 30
0.0
 11
1592.682336378983
 21
459.7458101684433
 31
0.0
  0
LINE
  5
3BB
330
3B8
100
AcDbEntity
  8
1
  6
Continuous
 62
     2
100
AcDbLine
 10
1624.482335378976
 20
453.7458101684433
 30
0.0
 11
1592.682336378983
 21
453.7458101684433
 31
0.0
  0
CIRCLE
  5
3BC
102
{ACAD_REACTORS
330
3BD
102
}
330
3B8
100
AcDbEntity
  8
1
 62
     2
100
AcDbCircle
 10
1597.682336378983
 20
453.7458101684433
 30
0.0
 40
2.0
  0
HATCH
  5
3BD
330
3B8
100
AcDbEntity
  8
1
 62
     2
100
AcDbHatch
 10
0.0
 20
0.0
 30
0.0
210
0.0
220
0.0
230
1.0
  2
SOLID
 70
     1
 71
     1
 91
        1
 92
        1
 93
        1
 72
     2
 10
1597.682336378983
 20
453.7458101684433
 40
2.0
 50
0.0
 51
360.0
 73
     1
 97
        1
330
3BC
 75
     0
 76
     1
 98
        0
  0
CIRCLE
  5
3BE
102
{ACAD_REACTORS
330
3BF
102
}
330
3B8
100
AcDbEntity
  8
1
 62
     2
100
AcDbCircle
 10
1597.682336378983
 20
459.7458101684433
 30
0.0
 40
2.0
  0
HATCH
  5
3BF
330
3B8
100
AcDbEntity
  8
1
 62
     2
100
AcDbHatch
 10
0.0
 20
0.0
 30
0.0
210
0.0
220
0.0
230
1.0
  2
SOLID
 70
     1
 71
     1
 91
        1
 92
        1
 93
        1
 72
     2
 10
1597.682336378983
 20
459.7458101684433
 40
2.0
 50
0.0
 51
360.0
 73
     1
 97
        1
330
3BE
 75
     0
 76
     1
 98
        0
  0
MTEXT
  5
3C0
330
3B8
100
AcDbEntity
  8
1
 62
     2
100
AcDbMText
 10
1589.368029327201
 20
452.5357899003395
 30
0.0
 40
16.0
 41
0.0
 71
     7
 72
     1
  1
6
  7
CONVERTER_1
 11
0.0
 21
1.0
 31
0.0
 73
     1
 44
0.60024009603842
  0
ENDBLK
  5
3C2
330
3B8
100
AcDbEntity
  8
0
100
AcDbBlockEnd
  0
BLOCK
  5
3CE
330
3C5
100
AcDbEntity
  8
0
100
AcDbBlockBegin
  2
*D48
 70
     1
 71
     0
 10
0.0
 20
0.0
 30
0.0
  3
*D48
  1

  0
LINE
  5
3C6
330
3C5
100
AcDbEntity
  8
1
  6
Continuous
 62
     2
100
AcDbLine
 10
1542.886840231288
 20
877.9634292327696
 30
0.0
 11
1542.886840231288
 21
793.9634322327697
 31
0.0
  0
LINE
  5
3C7
330
3C5
100
AcDbEntity
  8
1
  6
Continuous
 62
     2
100
AcDbLine
 10
1714.482335378986
 20
793.9634322327697
 30
0.0
 11
1537.886840231288
 21
793.9634322327697
 31
0.0
  0
LINE
  5
3C8
330
3C5
100
AcDbEntity
  8
1
  6
Continuous
 62
     2
100
AcDbLine
 10
1630.482335378986
 20
877.9634292327696
 30
0.0
 11
1537.886840231288
 21
877.9634292327696
 31
0.0
  0
LINE
  5
3C9
330
3C5
100
AcDbEntity
  8
1
 62
     2
100
AcDbLine
 10
1542.886840231288
 20
877.9634292327696
 30
0.0
 11
1547.174027310186
 21
861.9634292327696
 31
0.0
  0
LINE
  5
3CA
330
3C5
100
AcDbEntity
  8
1
 62
     2
100
AcDbLine
 10
1542.886840231288
 20
877.9634292327696
 30
0.0
 11
1538.59965315239
 21
861.9634292327696
 31
0.0
  0
LINE
  5
3CB
330
3C5
100
AcDbEntity
  8
1
 62
     2
100
AcDbLine
 10
1542.886840231288
 20
793.9634322327697
 30
0.0
 11
1538.59965315239
 21
809.9634322327697
 31
0.0
  0
LINE
  5
3CC
330
3C5
100
AcDbEntity
  8
1
 62
     2
100
AcDbLine
 10
1542.886840231288
 20
793.9634322327697
 30
0.0
 11
1547.174027310186
 21
809.9634322327697
 31
0.0
  0
MTEXT
  5
3CD
330
3C5
100
AcDbEntity
  8
1
 62
     2
100
AcDbMText
 10
1539.386840231288
 20
825.8649886723138
 30
0.0
 40
16.0
 41
0.0
 71
     7
 72
     1
  1
84
  7
CONVERTER_1
 11
0.0
 21
1.0
 31
0.0
 73
     1
 44
0.60024009603842
  0
ENDBLK
  5
3CF
330
3C5
100
AcDbEntity
  8
0
100
AcDbBlockEnd
  0
BLOCK
  5
3DB
330
3D2
100
AcDbEntity
  8
0
100
AcDbBlockBegin
  2
*D59
 70
     1
 71
     0
 10
0.0
 20
0.0
 30
0.0
  3
*D59
  1

  0
LINE
  5
3D3
330
3D2
100
AcDbEntity
  8
1
  6
Continuous
 62
     2
100
AcDbLine
 10
2726.382335378988
 20
476.7458101684433
 30
0.0
 11
2726.382335378988
 21
411.7458101684433
 31
0.0
  0
LINE
  5
3D4
330
3D2
100
AcDbEntity
  8
1
  6
Continuous
 62
     2
100
AcDbLine
 10
2635.382335378989
 20
411.7458101684433
 30
0.0
 11
2731.382335378988
 21
411.7458101684433
 31
0.0
  0
LINE
  5
3D5
330
3D2
100
AcDbEntity
  8
1
  6
Continuous
 62
     2
100
AcDbLine
 10
2631.282335378986
 20
476.7458101684433
 30
0.0
 11
2731.382335378988
 21
476.7458101684433
 31
0.0
  0
LINE
  5
3D6
330
3D2
100
AcDbEntity
  8
1
 62
     2
100
AcDbLine
 10
2726.382335378988
 20
476.7458101684433
 30
0.0
 11
2730.669522457886
 21
460.7458101684433
 31
0.0
  0
LINE
  5
3D7
330
3D2
100
AcDbEntity
  8
1
 62
     2
100
AcDbLine
 10
2726.382335378988
 20
476.7458101684433
 30
0.0
 11
2722.09514830009
 21
460.7458101684433
 31
0.0
  0
LINE
  5
3D8
330
3D2
100
AcDbEntity
  8
1
 62
     2
100
AcDbLine
 10
2726.382335378988
 20
411.7458101684433
 30
0.0
 11
2722.09514830009
 21
427.7458101684433
 31
0.0
  0
LINE
  5
3D9
330
3D2
100
AcDbEntity
  8
1
 62
     2
100
AcDbLine
 10
2726.382335378988
 20
411.7458101684433
 30
0.0
 11
2730.669522457886
 21
427.7458101684433
 31
0.0
  0
MTEXT
  5
3DA
330
3D2
100
AcDbEntity
  8
1
 62
     2
100
AcDbMText
 10
2720.482335378988
 20
433.9285938031908
 30
0.0
 40
16.0
 41
0.0
 71
     7
 72
     1
  1
65
  7
CONVERTER_1
 11
0.0
 21
1.0
 31
0.0
 73
     1
 44
0.60024009603842
  0
ENDBLK
  5
3DC
330
3D2
100
AcDbEntity
  8
0
100
AcDbBlockEnd
  0
BLOCK
  5
3E8
330
3DF
100
AcDbEntity
  8
0
100
AcDbBlockBegin
  2
*D610
 70
     1
 71
     0
 10
0.0
 20
0.0
 30
0.0
  3
*D610
  1

  0
LINE
  5
3E0
330
3DF
100
AcDbEntity
  8
1
  6
Continuous
 62
     2
100
AcDbLine
 10
2685.59959840884
 20
793.9634322327697
 30
0.0
 11
2685.59959840884
 21
863.9634322327797
 31
0.0
  0
LINE
  5
3E1
330
3DF
100
AcDbEntity
  8
1
  6
Continuous
 62
     2
100
AcDbLine
 10
2596.482335378985
 20
793.9634322327697
 30
0.0
 11
2690.59959840884
 21
793.9634322327697
 31
0.0
  0
LINE
  5
3E2
330
3DF
100
AcDbEntity
  8
1
  6
Continuous
 62
     2
100
AcDbLine
 10
2617.482335378986
 20
863.9634322327797
 30
0.0
 11
2690.59959840884
 21
863.9634322327797
 31
0.0
  0
LINE
  5
3E3
330
3DF
100
AcDbEntity
  8
1
 62
     2
100
AcDbLine
 10
2685.59959840884
 20
793.9634322327697
 30
0.0
 11
2681.312411329942
 21
809.9634322327697
 31
0.0
  0
LINE
  5
3E4
330
3DF
100
AcDbEntity
  8
1
 62
     2
100
AcDbLine
 10
2685.59959840884
 20
793.9634322327697
 30
0.0
 11
2689.886785487738
 21
809.9634322327697
 31
0.0
  0
LINE
  5
3E5
330
3DF
100
AcDbEntity
  8
1
 62
     2
100
AcDbLine
 10
2685.59959840884
 20
863.9634322327797
 30
0.0
 11
2689.886785487738
 21
847.9634322327797
 31
0.0
  0
LINE
  5
3E6
330
3DF
100
AcDbEntity
  8
1
 62
     2
100
AcDbLine
 10
2685.59959840884
 20
863.9634322327797
 30
0.0
 11
2681.312411329942
 21
847.9634322327797
 31
0.0
  0
MTEXT
  5
3E7
330
3DF
100
AcDbEntity
  8
1
 62
     2
100
AcDbMText
 10
2682.09959840884
 20
817.8451701076497
 30
0.0
 40
16.0
 41
0.0
 71
     7
 72
     1
  1
70
  7
CONVERTER_1
 11
0.0
 21
1.0
 31
0.0
 73
     1
 44
0.60024009603842
  0
ENDBLK
  5
3E9
330
3DF
100
AcDbEntity
  8
0
100
AcDbBlockEnd
  0
BLOCK
  5
3F5
330
3EC
100
AcDbEntity
  8
0
100
AcDbBlockBegin
  2
*D711
 70
     1
 71
     0
 10
0.0
 20
0.0
 30
0.0
  3
*D711
  1

  0
LINE
  5
3ED
330
3EC
100
AcDbEntity
  8
1
  6
Continuous
 62
     2
100
AcDbLine
 10
1829.482335379045
 20
737.7297408243417
 30
0.0
 11
2499.482335379006
 21
737.7297408243417
 31
0.0
  0
LINE
  5
3EE
330
3EC
100
AcDbEntity
  8
1
  6
Continuous
 62
     2
100
AcDbLine
 10
1829.482335379045
 20
804.7134322327802
 30
0.0
 11
1829.482335379045
 21
732.7297408243417
 31
0.0
  0
LINE
  5
3EF
330
3EC
100
AcDbEntity
  8
1
  6
Continuous
 62
     2
100
AcDbLine
 10
2499.482335379006
 20
804.7134322327802
 30
0.0
 11
2499.482335379006
 21
732.7297408243417
 31
0.0
  0
LINE
  5
3F0
330
3EC
100
AcDbEntity
  8
1
 62
     2
100
AcDbLine
 10
1829.482335379045
 20
737.7297408243417
 30
0.0
 11
1845.482335379045
 21
742.0169279032397
 31
0.0
  0
LINE
  5
3F1
330
3EC
100
AcDbEntity
  8
1
 62
     2
100
AcDbLine
 10
1829.482335379045
 20
737.7297408243417
 30
0.0
 11
1845.482335379045
 21
733.4425537454437
 31
0.0
  0
LINE
  5
3F2
330
3EC
100
AcDbEntity
  8
1
 62
     2
100
AcDbLine
 10
2499.482335379006
 20
737.7297408243417
 30
0.0
 11
2483.482335379006
 21
733.4425537454437
 31
0.0
  0
LINE
  5
3F3
330
3EC
100
AcDbEntity
  8
1
 62
     2
100
AcDbLine
 10
2499.482335379006
 20
737.7297408243417
 30
0.0
 11
2483.482335379006
 21
742.0169279032397
 31
0.0
  0
MTEXT
  5
3F4
330
3EC
100
AcDbEntity
  8
1
 62
     2
100
AcDbMText
 10
2003.22458340548
 20
741.2297408243417
 30
0.0
 40
16.0
 41
0.0
 71
     7
 72
     1
  1
コンベヤ取付ブラケット 取付可能範囲
  7
CONVERTER_3
 11
0.9999999999970621
 21
2.424068405545307E-6
 31
0.0
 73
     1
 44
0.60024009603842
  0
ENDBLK
  5
3F6
330
3EC
100
AcDbEntity
  8
0
100
AcDbBlockEnd
  0
BLOCK
  5
403
330
3F9
100
AcDbEntity
  8
0
100
AcDbBlockBegin
  2
*D812
 70
     1
 71
     0
 10
0.0
 20
0.0
 30
0.0
  3
*D812
  1

  0
LINE
  5
3FA
330
3F9
100
AcDbEntity
  8
1
  6
Continuous
 62
     2
100
AcDbLine
 10
1597.682336378982
 20
459.7458101684433
 30
0.0
 11
1597.682336378982
 21
576.7462721684433
 31
0.0
  0
LINE
  5
3FB
330
3F9
100
AcDbEntity
  8
1
  6
Continuous
 62
     2
100
AcDbLine
 10
1597.682336378982
 20
576.7462721684433
 30
0.0
 11
1597.682336378982
 21
608.7462721684433
 31
0.0
  0
LINE
  5
3FC
330
3F9
100
AcDbEntity
  8
1
  6
Continuous
 62
     2
100
AcDbLine
 10
1627.182336378985
 20
576.7462721684433
 30
0.0
 11
1592.682336378982
 21
576.7462721684433
 31
0.0
  0
LINE
  5
3FD
330
3F9
100
AcDbEntity
  8
1
  6
Continuous
 62
     2
100
AcDbLine
 10
1624.482335378976
 20
459.7458101684433
 30
0.0
 11
1592.682336378982
 21
459.7458101684433
 31
0.0
  0
CIRCLE
  5
3FE
102
{ACAD_REACTORS
330
3FF
102
}
330
3F9
100
AcDbEntity
  8
1
 62
     2
100
AcDbCircle
 10
1597.682336378982
 20
459.7458101684433
 30
0.0
 40
2.0
  0
HATCH
  5
3FF
330
3F9
100
AcDbEntity
  8
1
 62
     2
100
AcDbHatch
 10
0.0
 20
0.0
 30
0.0
210
0.0
220
0.0
230
1.0
  2
SOLID
 70
     1
 71
     1
 91
        1
 92
        1
 93
        1
 72
     2
 10
1597.682336378982
 20
459.7458101684433
 40
2.0
 50
0.0
 51
360.0
 73
     1
 97
        1
330
3FE
 75
     0
 76
     1
 98
        0
  0
LINE
  5
400
330
3F9
100
AcDbEntity
  8
1
 62
     2
100
AcDbLine
 10
1597.682336378982
 20
576.7462721684433
 30
0.0
 11
1593.395149300084
 21
592.7462721684433
 31
0.0
  0
LINE
  5
401
330
3F9
100
AcDbEntity
  8
1
 62
     2
100
AcDbLine
 10
1597.682336378982
 20
576.7462721684433
 30
0.0
 11
1601.96952345788
 21
592.7462721684433
 31
0.0
  0
MTEXT
  5
402
330
3F9
100
AcDbEntity
  8
1
 62
     2
100
AcDbMText
 10
1594.182336378982
 20
507.5945715302998
 30
0.0
 40
16.0
 41
0.0
 71
     7
 72
     1
  1
ML
  7
CONVERTER_1
 11
0.0
 21
1.0
 31
0.0
 73
     1
 44
0.60024009603842
  0
ENDBLK
  5
404
330
3F9
100
AcDbEntity
  8
0
100
AcDbBlockEnd
  0
BLOCK
  5
412
330
407
100
AcDbEntity
  8
0
100
AcDbBlockBegin
  2
*D913
 70
     1
 71
     0
 10
0.0
 20
0.0
 30
0.0
  3
*D913
  1

  0
LINE
  5
408
330
407
100
AcDbEntity
  8
1
  6
Continuous
 62
     2
100
AcDbLine
 10
1778.482335379045
 20
596.8872697354327
 30
0.0
 11
1810.482335379045
 21
596.8872697354327
 31
0.0
  0
LINE
  5
409
330
407
100
AcDbEntity
  8
1
  6
Continuous
 62
     2
100
AcDbLine
 10
1810.482335379045
 20
596.8872697354327
 30
0.0
 11
1848.482335379045
 21
596.8872697354327
 31
0.0
  0
LINE
  5
40A
330
407
100
AcDbEntity
  8
1
  6
Continuous
 62
     2
100
AcDbLine
 10
1848.482335379045
 20
596.8872697354327
 30
0.0
 11
1880.482335379045
 21
596.8872697354327
 31
0.0
  0
LINE
  5
40B
330
407
100
AcDbEntity
  8
1
  6
Continuous
 62
     2
100
AcDbLine
 10
1848.482335379045
 20
536.7458101684415
 30
0.0
 11
1848.482335379045
 21
601.8872697354327
 31
0.0
  0
LINE
  5
40C
330
407
100
AcDbEntity
  8
1
  6
Continuous
 62
     2
100
AcDbLine
 10
1810.482335379045
 20
536.7458101684415
 30
0.0
 11
1810.482335379045
 21
601.8872697354327
 31
0.0
  0
LINE
  5
40D
330
407
100
AcDbEntity
  8
1
 62
     2
100
AcDbLine
 10
1810.482335379045
 20
596.8872697354327
 30
0.0
 11
1794.482335379045
 21
592.6000826565347
 31
0.0
  0
LINE
  5
40E
330
407
100
AcDbEntity
  8
1
 62
     2
100
AcDbLine
 10
1810.482335379045
 20
596.8872697354327
 30
0.0
 11
1794.482335379045
 21
601.1744568143307
 31
0.0
  0
LINE
  5
40F
330
407
100
AcDbEntity
  8
1
 62
     2
100
AcDbLine
 10
1848.482335379045
 20
596.8872697354327
 30
0.0
 11
1864.482335379045
 21
601.1744568143307
 31
0.0
  0
LINE
  5
410
330
407
100
AcDbEntity
  8
1
 62
     2
100
AcDbLine
 10
1848.482335379045
 20
596.8872697354327
 30
0.0
 11
1864.482335379045
 21
592.6000826565347
 31
0.0
  0
MTEXT
  5
411
330
407
100
AcDbEntity
  8
1
 62
     2
100
AcDbMText
 10
1817.829143398283
 20
600.3872697354327
 30
0.0
 40
16.0
 41
0.0
 71
     7
 72
     1
  1
38
  7
CONVERTER_1
 11
0.9999999999970621
 21
2.424068405545307E-6
 31
0.0
 73
     1
 44
0.60024009603842
  0
ENDBLK
  5
413
330
407
100
AcDbEntity
  8
0
100
AcDbBlockEnd
  0
BLOCK
  5
421
330
416
100
AcDbEntity
  8
0
100
AcDbBlockBegin
  2
*D1014
 70
     1
 71
     0
 10
0.0
 20
0.0
 30
0.0
  3
*D1014
  1

  0
LINE
  5
417
330
416
100
AcDbEntity
  8
1
  6
Continuous
 62
     2
100
AcDbLine
 10
2448.482335379007
 20
596.8872697354327
 30
0.0
 11
2480.482335379007
 21
596.8872697354327
 31
0.0
  0
LINE
  5
418
330
416
100
AcDbEntity
  8
1
  6
Continuous
 62
     2
100
AcDbLine
 10
2480.482335379007
 20
596.8872697354327
 30
0.0
 11
2518.482335379007
 21
596.8872697354327
 31
0.0
  0
LINE
  5
419
330
416
100
AcDbEntity
  8
1
  6
Continuous
 62
     2
100
AcDbLine
 10
2518.482335379007
 20
596.8872697354327
 30
0.0
 11
2550.482335379007
 21
596.8872697354327
 31
0.0
  0
LINE
  5
41A
330
416
100
AcDbEntity
  8
1
  6
Continuous
 62
     2
100
AcDbLine
 10
2518.482335379007
 20
536.7458101684415
 30
0.0
 11
2518.482335379007
 21
601.8872697354327
 31
0.0
  0
LINE
  5
41B
330
416
100
AcDbEntity
  8
1
  6
Continuous
 62
     2
100
AcDbLine
 10
2480.482335379007
 20
536.7458101684415
 30
0.0
 11
2480.482335379007
 21
601.8872697354327
 31
0.0
  0
LINE
  5
41C
330
416
100
AcDbEntity
  8
1
 62
     2
100
AcDbLine
 10
2480.482335379007
 20
596.8872697354327
 30
0.0
 11
2464.482335379007
 21
592.6000826565347
 31
0.0
  0
LINE
  5
41D
330
416
100
AcDbEntity
  8
1
 62
     2
100
AcDbLine
 10
2480.482335379007
 20
596.8872697354327
 30
0.0
 11
2464.482335379007
 21
601.1744568143307
 31
0.0
  0
LINE
  5
41E
330
416
100
AcDbEntity
  8
1
 62
     2
100
AcDbLine
 10
2518.482335379007
 20
596.8872697354327
 30
0.0
 11
2534.482335379007
 21
601.1744568143307
 31
0.0
  0
LINE
  5
41F
330
416
100
AcDbEntity
  8
1
 62
     2
100
AcDbLine
 10
2518.482335379007
 20
596.8872697354327
 30
0.0
 11
2534.482335379007
 21
592.6000826565347
 31
0.0
  0
MTEXT
  5
420
330
416
100
AcDbEntity
  8
1
 62
     2
100
AcDbMText
 10
2485.01677507296
 20
600.3872697354327
 30
0.0
 40
16.0
 41
0.0
 71
     7
 72
     1
  1
38
  7
CONVERTER_1
 11
0.9999999999970621
 21
2.424068405545307E-6
 31
0.0
 73
     1
 44
0.60024009603842
  0
ENDBLK
  5
422
330
416
100
AcDbEntity
  8
0
100
AcDbBlockEnd
  0
BLOCK
  5
430
330
425
100
AcDbEntity
  8
0
100
AcDbBlockBegin
  2
*D1115
 70
     1
 71
     0
 10
0.0
 20
0.0
 30
0.0
  3
*D1115
  1

  0
LINE
  5
426
330
425
100
AcDbEntity
  8
1
  6
Continuous
 62
     2
100
AcDbLine
 10
2058.40478618402
 20
255.5839281331896
 30
0.0
 11
2090.40478618402
 21
255.5839281331896
 31
0.0
  0
LINE
  5
427
330
425
100
AcDbEntity
  8
1
  6
Continuous
 62
     2
100
AcDbLine
 10
2090.40478618402
 20
255.5839281331896
 30
0.0
 11
2110.40478618402
 21
255.5839281331896
 31
0.0
  0
LINE
  5
428
330
425
100
AcDbEntity
  8
1
  6
Continuous
 62
     2
100
AcDbLine
 10
2110.40478618402
 20
255.5839281331896
 30
0.0
 11
2158.837673350802
 21
255.5839281331896
 31
0.0
  0
LINE
  5
429
330
425
100
AcDbEntity
  8
1
  6
Continuous
 62
     2
100
AcDbLine
 10
2110.40478618402
 20
222.5720347377132
 30
0.0
 11
2110.40478618402
 21
260.5839281331896
 31
0.0
  0
LINE
  5
42A
330
425
100
AcDbEntity
  8
1
  6
Continuous
 62
     2
100
AcDbLine
 10
2090.40478618402
 20
214.2308740932431
 30
0.0
 11
2090.40478618402
 21
260.5839281331896
 31
0.0
  0
LINE
  5
42B
330
425
100
AcDbEntity
  8
1
 62
     2
100
AcDbLine
 10
2090.40478618402
 20
255.5839281331896
 30
0.0
 11
2074.40478618402
 21
251.2967410542916
 31
0.0
  0
LINE
  5
42C
330
425
100
AcDbEntity
  8
1
 62
     2
100
AcDbLine
 10
2090.40478618402
 20
255.5839281331896
 30
0.0
 11
2074.40478618402
 21
259.8711152120876
 31
0.0
  0
LINE
  5
42D
330
425
100
AcDbEntity
  8
1
 62
     2
100
AcDbLine
 10
2110.40478618402
 20
255.5839281331896
 30
0.0
 11
2126.40478618402
 21
259.8711152120876
 31
0.0
  0
LINE
  5
42E
330
425
100
AcDbEntity
  8
1
 62
     2
100
AcDbLine
 10
2110.40478618402
 20
255.5839281331896
 30
0.0
 11
2126.40478618402
 21
251.2967410542916
 31
0.0
  0
MTEXT
  5
42F
330
425
100
AcDbEntity
  8
1
 62
     2
100
AcDbMText
 10
2134.837673350802
 20
259.0839281331896
 30
0.0
 40
16.0
 41
0.0
 71
     7
 72
     1
  1
20
  7
CONVERTER_1
 11
0.9999999999970621
 21
2.424068405545307E-6
 31
0.0
 73
     1
 44
0.60024009603842
  0
ENDBLK
  5
431
330
425
100
AcDbEntity
  8
0
100
AcDbBlockEnd
  0
BLOCK
  5
43F
330
434
100
AcDbEntity
  8
0
100
AcDbBlockBegin
  2
*D1216
 70
     1
 71
     0
 10
0.0
 20
0.0
 30
0.0
  3
*D1216
  1

  0
LINE
  5
435
330
434
100
AcDbEntity
  8
1
  6
Continuous
 62
     2
100
AcDbLine
 10
2204.508133777813
 20
249.9912073468018
 30
0.0
 11
2204.508133777813
 21
213.230874093245
 31
0.0
  0
LINE
  5
436
330
434
100
AcDbEntity
  8
1
  6
Continuous
 62
     2
100
AcDbLine
 10
2204.508133777813
 20
213.230874093245
 30
0.0
 11
2204.508133777813
 21
209.230874093245
 31
0.0
  0
LINE
  5
437
330
434
100
AcDbEntity
  8
1
  6
Continuous
 62
     2
100
AcDbLine
 10
2204.508133777813
 20
209.230874093245
 30
0.0
 11
2204.508133777813
 21
177.230874093245
 31
0.0
  0
LINE
  5
438
330
434
100
AcDbEntity
  8
1
  6
Continuous
 62
     2
100
AcDbLine
 10
2130.40478618402
 20
209.230874093245
 30
0.0
 11
2209.508133777813
 21
209.230874093245
 31
0.0
  0
LINE
  5
439
330
434
100
AcDbEntity
  8
1
  6
Continuous
 62
     2
100
AcDbLine
 10
2130.40478618402
 20
213.230874093245
 30
0.0
 11
2209.508133777813
 21
213.230874093245
 31
0.0
  0
LINE
  5
43A
330
434
100
AcDbEntity
  8
1
 62
     2
100
AcDbLine
 10
2204.508133777813
 20
213.230874093245
 30
0.0
 11
2200.220946698915
 21
229.230874093245
 31
0.0
  0
LINE
  5
43B
330
434
100
AcDbEntity
  8
1
 62
     2
100
AcDbLine
 10
2204.508133777813
 20
213.230874093245
 30
0.0
 11
2208.795320856711
 21
229.230874093245
 31
0.0
  0
LINE
  5
43C
330
434
100
AcDbEntity
  8
1
 62
     2
100
AcDbLine
 10
2204.508133777813
 20
209.230874093245
 30
0.0
 11
2208.795320856711
 21
193.230874093245
 31
0.0
  0
LINE
  5
43D
330
434
100
AcDbEntity
  8
1
 62
     2
100
AcDbLine
 10
2204.508133777813
 20
209.230874093245
 30
0.0
 11
2200.220946698915
 21
193.230874093245
 31
0.0
  0
MTEXT
  5
43E
330
434
100
AcDbEntity
  8
1
 62
     2
100
AcDbMText
 10
2199.508133777813
 20
240.3912073468016
 30
0.0
 40
16.0
 41
0.0
 71
     7
 72
     1
  1
4
  7
CONVERTER_1
 11
0.0
 21
1.0
 31
0.0
 73
     1
 44
0.60024009603842
  0
ENDBLK
  5
440
330
434
100
AcDbEntity
  8
0
100
AcDbBlockEnd
  0
BLOCK
  5
44C
330
443
100
AcDbEntity
  8
0
100
AcDbBlockBegin
  2
*D1317
 70
     1
 71
     0
 10
0.0
 20
0.0
 30
0.0
  3
*D1317
  1

  0
LINE
  5
444
330
443
100
AcDbEntity
  8
1
  6
Continuous
 62
     2
100
AcDbLine
 10
2043.646276326582
 20
213.230874093244
 30
0.0
 11
2043.646276326582
 21
93.23087409324396
 31
0.0
  0
LINE
  5
445
330
443
100
AcDbEntity
  8
1
  6
Continuous
 62
     2
100
AcDbLine
 10
2082.504786184019
 20
93.23087409324396
 30
0.0
 11
2038.646276326582
 21
93.23087409324396
 31
0.0
  0
LINE
  5
446
330
443
100
AcDbEntity
  8
1
  6
Continuous
 62
     2
100
AcDbLine
 10
2089.404786184021
 20
213.230874093244
 30
0.0
 11
2038.646276326582
 21
213.230874093244
 31
0.0
  0
LINE
  5
447
330
443
100
AcDbEntity
  8
1
 62
     2
100
AcDbLine
 10
2043.646276326582
 20
213.230874093244
 30
0.0
 11
2047.93346340548
 21
197.230874093244
 31
0.0
  0
LINE
  5
448
330
443
100
AcDbEntity
  8
1
 62
     2
100
AcDbLine
 10
2043.646276326582
 20
213.230874093244
 30
0.0
 11
2039.359089247684
 21
197.230874093244
 31
0.0
  0
LINE
  5
449
330
443
100
AcDbEntity
  8
1
 62
     2
100
AcDbLine
 10
2043.646276326582
 20
93.23087409324396
 30
0.0
 11
2039.359089247684
 21
109.230874093244
 31
0.0
  0
LINE
  5
44A
330
443
100
AcDbEntity
  8
1
 62
     2
100
AcDbLine
 10
2043.646276326582
 20
93.23087409324396
 30
0.0
 11
2047.93346340548
 21
109.230874093244
 31
0.0
  0
MTEXT
  5
44B
330
443
100
AcDbEntity
  8
1
 62
     2
100
AcDbMText
 10
2038.646276326582
 20
143.3909992794335
 30
0.0
 40
16.0
 41
0.0
 71
     7
 72
     1
  1
120
  7
CONVERTER_1
 11
0.0
 21
1.0
 31
0.0
 73
     1
 44
0.60024009603842
  0
ENDBLK
  5
44D
330
443
100
AcDbEntity
  8
0
100
AcDbBlockEnd
  0
BLOCK
  5
459
330
450
100
AcDbEntity
  8
0
100
AcDbBlockBegin
  2
*D1418
 70
     1
 71
     0
 10
0.0
 20
0.0
 30
0.0
  3
*D1418
  1

  0
LINE
  5
451
330
450
100
AcDbEntity
  8
1
  6
Continuous
 62
     2
100
AcDbLine
 10
1629.482335378986
 20
737.7297408243417
 30
0.0
 11
1829.482335379046
 21
737.7297408243417
 31
0.0
  0
LINE
  5
452
330
450
100
AcDbEntity
  8
1
  6
Continuous
 62
     2
100
AcDbLine
 10
1629.482335378986
 20
798.9634322327702
 30
0.0
 11
1629.482335378986
 21
732.7297408243417
 31
0.0
  0
LINE
  5
453
330
450
100
AcDbEntity
  8
1
  6
Continuous
 62
     2
100
AcDbLine
 10
1829.482335379046
 20
804.7134322327802
 30
0.0
 11
1829.482335379046
 21
732.7297408243417
 31
0.0
  0
LINE
  5
454
330
450
100
AcDbEntity
  8
1
 62
     2
100
AcDbLine
 10
1629.482335378986
 20
737.7297408243417
 30
0.0
 11
1645.482335378986
 21
742.0169279032397
 31
0.0
  0
LINE
  5
455
330
450
100
AcDbEntity
  8
1
 62
     2
100
AcDbLine
 10
1629.482335378986
 20
737.7297408243417
 30
0.0
 11
1645.482335378986
 21
733.4425537454437
 31
0.0
  0
LINE
  5
456
330
450
100
AcDbEntity
  8
1
 62
     2
100
AcDbLine
 10
1829.482335379046
 20
737.7297408243417
 30
0.0
 11
1813.482335379046
 21
733.4425537454437
 31
0.0
  0
LINE
  5
457
330
450
100
AcDbEntity
  8
1
 62
     2
100
AcDbLine
 10
1829.482335379046
 20
737.7297408243417
 30
0.0
 11
1813.482335379046
 21
742.0169279032397
 31
0.0
  0
MTEXT
  5
458
330
450
100
AcDbEntity
  8
1
 62
     2
100
AcDbMText
 10
1710.383407124185
 20
741.2297408243417
 30
0.0
 40
16.0
 41
0.0
 71
     7
 72
     1
  1
200
  7
CONVERTER_1
 11
0.9999999999970621
 21
2.424068405545307E-6
 31
0.0
 73
     1
 44
0.60024009603842
  0
ENDBLK
  5
45A
330
450
100
AcDbEntity
  8
0
100
AcDbBlockEnd
  0
BLOCK
  5
466
330
45D
100
AcDbEntity
  8
0
100
AcDbBlockBegin
  2
*D1519
 70
     1
 71
     0
 10
0.0
 20
0.0
 30
0.0
  3
*D1519
  1

  0
LINE
  5
45E
330
45D
100
AcDbEntity
  8
1
  6
Continuous
 62
     2
100
AcDbLine
 10
2499.482335379007
 20
737.7297408243417
 30
0.0
 11
2629.482335378987
 21
737.7297408243417
 31
0.0
  0
LINE
  5
45F
330
45D
100
AcDbEntity
  8
1
  6
Continuous
 62
     2
100
AcDbLine
 10
2499.482335379007
 20
804.7134322327802
 30
0.0
 11
2499.482335379007
 21
732.7297408243417
 31
0.0
  0
LINE
  5
460
330
45D
100
AcDbEntity
  8
1
  6
Continuous
 62
     2
100
AcDbLine
 10
2629.482335378987
 20
805.4634322327802
 30
0.0
 11
2629.482335378987
 21
732.7297408243417
 31
0.0
  0
LINE
  5
461
330
45D
100
AcDbEntity
  8
1
 62
     2
100
AcDbLine
 10
2499.482335379007
 20
737.7297408243417
 30
0.0
 11
2515.482335379007
 21
742.0169279032397
 31
0.0
  0
LINE
  5
462
330
45D
100
AcDbEntity
  8
1
 62
     2
100
AcDbLine
 10
2499.482335379007
 20
737.7297408243417
 30
0.0
 11
2515.482335379007
 21
733.4425537454437
 31
0.0
  0
LINE
  5
463
330
45D
100
AcDbEntity
  8
1
 62
     2
100
AcDbLine
 10
2629.482335378987
 20
737.7297408243417
 30
0.0
 11
2613.482335378987
 21
733.4425537454437
 31
0.0
  0
LINE
  5
464
330
45D
100
AcDbEntity
  8
1
 62
     2
100
AcDbLine
 10
2629.482335378987
 20
737.7297408243417
 30
0.0
 11
2613.482335378987
 21
742.0169279032397
 31
0.0
  0
MTEXT
  5
465
330
45D
100
AcDbEntity
  8
1
 62
     2
100
AcDbMText
 10
2548.56811083417
 20
741.2297408243417
 30
0.0
 40
16.0
 41
0.0
 71
     7
 72
     1
  1
130
  7
CONVERTER_1
 11
0.9999999999970621
 21
2.424068405545307E-6
 31
0.0
 73
     1
 44
0.60024009603842
  0
ENDBLK
  5
467
330
45D
100
AcDbEntity
  8
0
100
AcDbBlockEnd
  0
BLOCK
  5
475
330
46A
100
AcDbEntity
  8
0
100
AcDbBlockBegin
  2
*D1620
 70
     1
 71
     0
 10
0.0
 20
0.0
 30
0.0
  3
*D1620
  1

  0
LINE
  5
46B
330
46A
100
AcDbEntity
  8
1
  6
Continuous
 62
     2
100
AcDbLine
 10
2057.40478618402
 20
300.6541770953604
 30
0.0
 11
2089.40478618402
 21
300.6541770953604
 31
0.0
  0
LINE
  5
46C
330
46A
100
AcDbEntity
  8
1
  6
Continuous
 62
     2
100
AcDbLine
 10
2089.40478618402
 20
300.6541770953604
 30
0.0
 11
2090.40478618402
 21
300.6541770953604
 31
0.0
  0
LINE
  5
46D
330
46A
100
AcDbEntity
  8
1
  6
Continuous
 62
     2
100
AcDbLine
 10
2090.40478618402
 20
300.6541770953604
 30
0.0
 11
2122.40478618402
 21
300.6541770953604
 31
0.0
  0
LINE
  5
46E
330
46A
100
AcDbEntity
  8
1
  6
Continuous
 62
     2
100
AcDbLine
 10
2090.40478618402
 20
214.2308740932435
 30
0.0
 11
2090.40478618402
 21
305.6541770953604
 31
0.0
  0
LINE
  5
46F
330
46A
100
AcDbEntity
  8
1
  6
Continuous
 62
     2
100
AcDbLine
 10
2089.40478618402
 20
139.7308740932435
 30
0.0
 11
2089.40478618402
 21
305.6541770953604
 31
0.0
  0
LINE
  5
470
330
46A
100
AcDbEntity
  8
1
 62
     2
100
AcDbLine
 10
2089.40478618402
 20
300.6541770953604
 30
0.0
 11
2073.40478618402
 21
296.3669900164625
 31
0.0
  0
LINE
  5
471
330
46A
100
AcDbEntity
  8
1
 62
     2
100
AcDbLine
 10
2089.40478618402
 20
300.6541770953604
 30
0.0
 11
2073.40478618402
 21
304.9413641742584
 31
0.0
  0
LINE
  5
472
330
46A
100
AcDbEntity
  8
1
 62
     2
100
AcDbLine
 10
2090.40478618402
 20
300.6541770953604
 30
0.0
 11
2106.40478618402
 21
304.9413641742584
 31
0.0
  0
LINE
  5
473
330
46A
100
AcDbEntity
  8
1
 62
     2
100
AcDbLine
 10
2090.40478618402
 20
300.6541770953604
 30
0.0
 11
2106.40478618402
 21
296.3669900164625
 31
0.0
  0
MTEXT
  5
474
330
46A
100
AcDbEntity
  8
1
 62
     2
100
AcDbMText
 10
2060.288468377062
 20
304.1541770953604
 30
0.0
 40
16.0
 41
0.0
 71
     7
 72
     1
  1
1
  7
CONVERTER_1
 11
0.9999999999970621
 21
2.424068405545307E-6
 31
0.0
 73
     1
 44
0.60024009603842
  0
ENDBLK
  5
476
330
46A
100
AcDbEntity
  8
0
100
AcDbBlockEnd
  0
BLOCK
  5
484
330
479
100
AcDbEntity
  8
0
100
AcDbBlockBegin
  2
*D1721
 70
     1
 71
     0
 10
0.0
 20
0.0
 30
0.0
  3
*D1721
  1

  0
LINE
  5
47A
330
479
100
AcDbEntity
  8
1
  6
Continuous
 62
     2
100
AcDbLine
 10
2058.404786184021
 20
300.6541770953604
 30
0.0
 11
2090.404786184021
 21
300.6541770953604
 31
0.0
  0
LINE
  5
47B
330
479
100
AcDbEntity
  8
1
  6
Continuous
 62
     2
100
AcDbLine
 10
2090.404786184021
 20
300.6541770953604
 30
0.0
 11
2125.404786184021
 21
300.6541770953604
 31
0.0
  0
LINE
  5
47C
330
479
100
AcDbEntity
  8
1
  6
Continuous
 62
     2
100
AcDbLine
 10
2125.404786184021
 20
300.6541770953604
 30
0.0
 11
2157.404786184021
 21
300.6541770953604
 31
0.0
  0
LINE
  5
47D
330
479
100
AcDbEntity
  8
1
  6
Continuous
 62
     2
100
AcDbLine
 10
2125.404786184021
 20
218.2308740932435
 30
0.0
 11
2125.404786184021
 21
305.6541770953604
 31
0.0
  0
LINE
  5
47E
330
479
100
AcDbEntity
  8
1
  6
Continuous
 62
     2
100
AcDbLine
 10
2090.404786184021
 20
214.2308740932435
 30
0.0
 11
2090.404786184021
 21
305.6541770953604
 31
0.0
  0
LINE
  5
47F
330
479
100
AcDbEntity
  8
1
 62
     2
100
AcDbLine
 10
2090.404786184021
 20
300.6541770953604
 30
0.0
 11
2074.404786184021
 21
296.3669900164625
 31
0.0
  0
LINE
  5
480
330
479
100
AcDbEntity
  8
1
 62
     2
100
AcDbLine
 10
2090.404786184021
 20
300.6541770953604
 30
0.0
 11
2074.404786184021
 21
304.9413641742584
 31
0.0
  0
LINE
  5
481
330
479
100
AcDbEntity
  8
1
 62
     2
100
AcDbLine
 10
2125.404786184021
 20
300.6541770953604
 30
0.0
 11
2141.404786184021
 21
304.9413641742584
 31
0.0
  0
LINE
  5
482
330
479
100
AcDbEntity
  8
1
 62
     2
100
AcDbLine
 10
2125.404786184021
 20
300.6541770953604
 30
0.0
 11
2141.404786184021
 21
296.3669900164625
 31
0.0
  0
MTEXT
  5
483
330
479
100
AcDbEntity
  8
1
 62
     2
100
AcDbMText
 10
2095.904786184021
 20
304.1541770953604
 30
0.0
 40
16.0
 41
0.0
 71
     7
 72
     1
  1
35
  7
CONVERTER_1
 11
0.9999999999970621
 21
2.424068405545307E-6
 31
0.0
 73
     1
 44
0.60024009603842
  0
ENDBLK
  5
485
330
479
100
AcDbEntity
  8
0
100
AcDbBlockEnd
  0
BLOCK
  5
491
330
488
100
AcDbEntity
  8
0
100
AcDbBlockBegin
  2
*D1822
 70
     1
 71
     0
 10
0.0
 20
0.0
 30
0.0
  3
*D1822
  1

  0
LINE
  5
489
330
488
100
AcDbEntity
  8
1
  6
Continuous
 62
     2
100
AcDbLine
 10
1591.958562731632
 20
877.9634322327706
 30
0.0
 11
1591.958562731632
 21
797.9634172327706
 31
0.0
  0
LINE
  5
48A
330
488
100
AcDbEntity
  8
1
  6
Continuous
 62
     2
100
AcDbLine
 10
1631.282323378945
 20
797.9634172327706
 30
0.0
 11
1586.958562731632
 21
797.9634172327706
 31
0.0
  0
LINE
  5
48B
330
488
100
AcDbEntity
  8
1
  6
Continuous
 62
     2
100
AcDbLine
 10
1630.982335378944
 20
877.9634322327706
 30
0.0
 11
1586.958562731632
 21
877.9634322327706
 31
0.0
  0
LINE
  5
48C
330
488
100
AcDbEntity
  8
1
 62
     2
100
AcDbLine
 10
1591.958562731632
 20
877.9634322327706
 30
0.0
 11
1596.24574981053
 21
861.9634322327706
 31
0.0
  0
LINE
  5
48D
330
488
100
AcDbEntity
  8
1
 62
     2
100
AcDbLine
 10
1591.958562731632
 20
877.9634322327706
 30
0.0
 11
1587.671375652734
 21
861.9634322327706
 31
0.0
  0
LINE
  5
48E
330
488
100
AcDbEntity
  8
1
 62
     2
100
AcDbLine
 10
1591.958562731632
 20
797.9634172327706
 30
0.0
 11
1587.671375652734
 21
813.9634172327706
 31
0.0
  0
LINE
  5
48F
330
488
100
AcDbEntity
  8
1
 62
     2
100
AcDbLine
 10
1591.958562731632
 20
797.9634172327706
 30
0.0
 11
1596.24574981053
 21
813.9634172327706
 31
0.0
  0
MTEXT
  5
490
330
488
100
AcDbEntity
  8
1
 62
     2
100
AcDbMText
 10
1586.958562731632
 20
808.8774074689762
 30
0.0
 40
16.0
 41
0.0
 71
     7
 72
     1
  1
\C2;□\C2;80
  7
CONVERTER_3
 11
0.0
 21
1.0
 31
0.0
 73
     1
 44
0.60024009603842
  0
ENDBLK
  5
492
330
488
100
AcDbEntity
  8
0
100
AcDbBlockEnd
  0
BLOCK
  5
4A0
330
495
100
AcDbEntity
  8
0
100
AcDbBlockBegin
  2
*D1923
 70
     1
 71
     0
 10
0.0
 20
0.0
 30
0.0
  3
*D1923
  1

  0
LINE
  5
496
330
495
100
AcDbEntity
  8
1
  6
Continuous
 62
     2
100
AcDbLine
 10
1591.958562731632
 20
829.9634172327706
 30
0.0
 11
1591.958562731632
 21
797.9634172327706
 31
0.0
  0
LINE
  5
497
330
495
100
AcDbEntity
  8
1
  6
Continuous
 62
     2
100
AcDbLine
 10
1591.958562731632
 20
797.9634172327706
 30
0.0
 11
1591.958562731632
 21
793.9634322327697
 31
0.0
  0
LINE
  5
498
330
495
100
AcDbEntity
  8
1
  6
Continuous
 62
     2
100
AcDbLine
 10
1591.958562731632
 20
793.9634322327697
 30
0.0
 11
1591.958562731632
 21
761.9634322327697
 31
0.0
  0
LINE
  5
499
330
495
100
AcDbEntity
  8
1
  6
Continuous
 62
     2
100
AcDbLine
 10
1714.482335378986
 20
793.9634322327697
 30
0.0
 11
1586.958562731632
 21
793.9634322327697
 31
0.0
  0
LINE
  5
49A
330
495
100
AcDbEntity
  8
1
  6
Continuous
 62
     2
100
AcDbLine
 10
1631.282323378945
 20
797.9634172327706
 30
0.0
 11
1586.958562731632
 21
797.9634172327706
 31
0.0
  0
LINE
  5
49B
330
495
100
AcDbEntity
  8
1
 62
     2
100
AcDbLine
 10
1591.958562731632
 20
797.9634172327706
 30
0.0
 11
1587.671375652734
 21
813.9634172327706
 31
0.0
  0
LINE
  5
49C
330
495
100
AcDbEntity
  8
1
 62
     2
100
AcDbLine
 10
1591.958562731632
 20
797.9634172327706
 30
0.0
 11
1596.24574981053
 21
813.9634172327706
 31
0.0
  0
LINE
  5
49D
330
495
100
AcDbEntity
  8
1
 62
     2
100
AcDbLine
 10
1591.958562731632
 20
793.9634322327697
 30
0.0
 11
1596.24574981053
 21
777.9634322327697
 31
0.0
  0
LINE
  5
49E
330
495
100
AcDbEntity
  8
1
 62
     2
100
AcDbLine
 10
1591.958562731632
 20
793.9634322327697
 30
0.0
 11
1587.671375652734
 21
777.9634322327697
 31
0.0
  0
MTEXT
  5
49F
330
495
100
AcDbEntity
  8
1
 62
     2
100
AcDbMText
 10
1586.958562731632
 20
766.1791051023427
 30
0.0
 40
16.0
 41
0.0
 71
     7
 72
     1
  1
4
  7
CONVERTER_1
 11
0.0
 21
1.0
 31
0.0
 73
     1
 44
0.60024009603842
  0
ENDBLK
  5
4A1
330
495
100
AcDbEntity
  8
0
100
AcDbBlockEnd
  0
BLOCK
  5
4AA
330
4A4
100
AcDbEntity
  8
0
100
AcDbBlockBegin
  2
*D2024
 70
     1
 71
     0
 10
0.0
 20
0.0
 30
0.0
  3
*D2024
  1

  0
LINE
  5
4A5
330
4A4
100
AcDbEntity
  8
1
  6
Continuous
 62
     2
100
AcDbLine
 10
2624.349348696671
 20
798.0817125783769
 30
0.0
 11
2662.322472985782
 21
760.0634322327705
 31
0.0
  0
LINE
  5
4A6
330
4A4
100
AcDbEntity
  8
1
  6
Continuous
 62
     2
100
AcDbLine
 10
2662.322472985782
 20
760.0634322327705
 30
0.0
 11
2726.522472985782
 21
760.0634322327705
 31
0.0
  0
LINE
  5
4A7
330
4A4
100
AcDbEntity
  8
1
 62
     2
100
AcDbLine
 10
2624.349348696671
 20
798.0817125783769
 30
0.0
 11
2638.68963221666
 21
789.7909803057856
 31
0.0
  0
LINE
  5
4A8
330
4A4
100
AcDbEntity
  8
1
 62
     2
100
AcDbLine
 10
2624.349348696671
 20
798.0817125783769
 30
0.0
 11
2632.623032386157
 21
783.7315860543426
 31
0.0
  0
MTEXT
  5
4A9
330
4A4
100
AcDbEntity
  8
1
 62
     2
100
AcDbMText
 10
2676.282472985859
 20
763.5633686252156
 30
0.0
 40
16.0
 41
0.0
 71
     7
 72
     1
  1
\C2;{\Fgdt;n}\C2;35
  7
CONVERTER_1
 11
0.9999999999970621
 21
2.424068405545307E-6
 31
0.0
 73
     1
 44
0.60024009603842
  0
ENDBLK
  5
4AB
330
4A4
100
AcDbEntity
  8
0
100
AcDbBlockEnd
  0
BLOCK
  5
4B3
330
4AD
100
AcDbEntity
  8
0
100
AcDbBlockBegin
  2
*D2125
 70
     1
 71
     0
 10
0.0
 20
0.0
 30
0.0
  3
*D2125
  1

  0
LINE
  5
4AE
330
4AD
100
AcDbEntity
  8
1
  6
Continuous
 62
     2
100
AcDbLine
 10
1650.370437644114
 20
846.0877779526527
 30
0.0
 11
1597.578247654163
 21
909.9634259690856
 31
0.0
  0
LINE
  5
4AF
330
4AD
100
AcDbEntity
  8
1
  6
Continuous
 62
     2
100
AcDbLine
 10
1597.578247654163
 20
909.9634259690856
 30
0.0
 11
1533.378247654163
 21
909.9634259690856
 31
0.0
  0
LINE
  5
4B0
330
4AD
100
AcDbEntity
  8
1
 62
     2
100
AcDbLine
 10
1650.370437644114
 20
846.0877779526527
 30
0.0
 11
1636.87281231292
 21
855.6895529691883
 31
0.0
  0
LINE
  5
4B1
330
4AD
100
AcDbEntity
  8
1
 62
     2
100
AcDbLine
 10
1650.370437644114
 20
846.0877779526527
 30
0.0
 11
1643.482038724803
 21
861.1519717039924
 31
0.0
  0
MTEXT
  5
4B2
330
4AD
100
AcDbEntity
  8
1
 62
     2
100
AcDbMText
 10
1526.33824765424
 20
915.8633623615306
 30
0.0
 40
16.0
 41
0.0
 71
     7
 72
     1
  1
\C2;{\Fgdt;n}\C2;60
  7
CONVERTER_1
 11
0.9999999999970621
 21
2.424068405545307E-6
 31
0.0
 73
     1
 44
0.60024009603842
  0
ENDBLK
  5
4B4
330
4AD
100
AcDbEntity
  8
0
100
AcDbBlockEnd
  0
BLOCK
  5
4BC
330
4B6
100
AcDbEntity
  8
0
100
AcDbBlockBegin
  2
*D2226
 70
     1
 71
     0
 10
0.0
 20
0.0
 30
0.0
  3
*D2226
  1

  0
LINE
  5
4B7
330
4B6
100
AcDbEntity
  8
1
  6
Continuous
 62
     2
100
AcDbLine
 10
1830.460217700176
 20
818.3240491651336
 30
0.0
 11
1857.125716416589
 21
909.9634259690865
 31
0.0
  0
LINE
  5
4B8
330
4B6
100
AcDbEntity
  8
1
  6
Continuous
 62
     2
100
AcDbLine
 10
1857.125716416589
 20
909.9634259690865
 30
0.0
 11
1911.925716416589
 21
909.9634259690865
 31
0.0
  0
LINE
  5
4B9
330
4B6
100
AcDbEntity
  8
1
 62
     2
100
AcDbLine
 10
1830.460217700176
 20
818.3240491651336
 30
0.0
 11
1830.814081599772
 21
834.8846878421301
 31
0.0
  0
LINE
  5
4BA
330
4B6
100
AcDbEntity
  8
1
 62
     2
100
AcDbLine
 10
1830.460217700176
 20
818.3240491651336
 30
0.0
 11
1839.046992165207
 21
832.4890510125094
 31
0.0
  0
MTEXT
  5
4BB
330
4B6
100
AcDbEntity
  8
1
 62
     2
100
AcDbMText
 10
1876.085716416666
 20
913.4633623615316
 30
0.0
 40
16.0
 41
0.0
 71
     7
 72
     1
  1
\C2;{\Fgdt;n}\C2;7
  7
CONVERTER_1
 11
0.9999999999970621
 21
2.424068405545307E-6
 31
0.0
 73
     1
 44
0.60024009603842
  0
ENDBLK
  5
4BD
330
4B6
100
AcDbEntity
  8
0
100
AcDbBlockEnd
  0
BLOCK
  5
4C5
330
4BF
100
AcDbEntity
  8
0
100
AcDbBlockBegin
  2
*D2327
 70
     1
 71
     0
 10
0.0
 20
0.0
 30
0.0
  3
*D2327
  1

  0
LINE
  5
4C0
330
4BF
100
AcDbEntity
  8
1
  6
Continuous
 62
     2
100
AcDbLine
 10
2500.723860904388
 20
818.2358341594731
 30
0.0
 11
2535.524643071329
 21
909.9634259690865
 31
0.0
  0
LINE
  5
4C1
330
4BF
100
AcDbEntity
  8
1
  6
Continuous
 62
     2
100
AcDbLine
 10
2535.524643071329
 20
909.9634259690865
 30
0.0
 11
2590.324643071329
 21
909.9634259690865
 31
0.0
  0
LINE
  5
4C2
330
4BF
100
AcDbEntity
  8
1
 62
     2
100
AcDbLine
 10
2500.723860904388
 20
818.2358341594731
 30
0.0
 11
2502.391006375543
 21
834.7161435930815
 31
0.0
  0
LINE
  5
4C3
330
4BF
100
AcDbEntity
  8
1
 62
     2
100
AcDbLine
 10
2500.723860904388
 20
818.2358341594731
 30
0.0
 11
2510.407805951017
 21
831.674628055629
 31
0.0
  0
MTEXT
  5
4C4
330
4BF
100
AcDbEntity
  8
1
 62
     2
100
AcDbMText
 10
2554.484643071406
 20
913.4633623615316
 30
0.0
 40
16.0
 41
0.0
 71
     7
 72
     1
  1
\C2;{\Fgdt;n}\C2;7
  7
CONVERTER_1
 11
0.9999999999970621
 21
2.424068405545307E-6
 31
0.0
 73
     1
 44
0.60024009603842
  0
ENDBLK
  5
4C6
330
4BF
100
AcDbEntity
  8
0
100
AcDbBlockEnd
  0
ENDSEC
  0
SECTION
  2
ENTITIES
  0
INSERT
  5
35
330
1F
100
AcDbEntity
  8
0
100
AcDbBlockReference
  2
Zuwaku-A3-web
 10
2225.095483858449
 20
488.73127528472
 30
0.0
 41
5.0
 42
5.0
 43
5.0
  0
LINE
  5
66
330
1F
100
AcDbEntity
  8
1
  6
DOTTED
 62
     2
100
AcDbLine
 10
1505.105322856661
 20
194.1566343794675
 30
0.0
 11
1365.105322856662
 21
194.1566343794675
 31
0.0
  0
LINE
  5
67
330
1F
100
AcDbEntity
  8
1
  6
DOTTED
 62
     2
100
AcDbLine
 10
1505.105322856661
 20
194.1566343794675
 30
0.0
 11
1785.105322856661
 21
194.1566343794675
 31
0.0
  0
LINE
  5
68
330
1F
100
AcDbEntity
  8
1
  6
DOTTED
 62
     2
100
AcDbLine
 10
1645.105322856661
 20
104.1566343794675
 30
0.0
 11
1645.105322856661
 21
194.1566343794675
 31
0.0
  0
LINE
  5
69
330
1F
100
AcDbEntity
  8
1
  6
Continuous
 62
     2
100
AcDbLine
 10
1505.105322856661
 20
104.1566343794675
 30
0.0
 11
1505.105322856661
 21
224.1566343794675
 31
0.0
  0
LINE
  5
6A
330
1F
100
AcDbEntity
  8
1
  6
DOTTED
 62
     2
100
AcDbLine
 10
1365.105322856662
 20
164.1566343794675
 30
0.0
 11
1785.105322856661
 21
164.1566343794675
 31
0.0
  0
LINE
  5
6B
330
1F
100
AcDbEntity
  8
1
  6
Continuous
 62
     2
100
AcDbLine
 10
1365.105322856662
 20
104.1566343794675
 30
0.0
 11
1365.105322856662
 21
224.1566343794675
 31
0.0
  0
LINE
  5
6C
330
1F
100
AcDbEntity
  8
1
  6
Continuous
 62
     2
100
AcDbLine
 10
1785.105322856661
 20
104.1566343794675
 30
0.0
 11
1365.105322856662
 21
104.1566343794675
 31
0.0
  0
LINE
  5
6D
330
1F
100
AcDbEntity
  8
1
  6
Continuous
 62
     2
100
AcDbLine
 10
1785.105322856661
 20
224.1566343794675
 30
0.0
 11
1785.105322856661
 21
104.1566343794675
 31
0.0
  0
LINE
  5
6E
330
1F
100
AcDbEntity
  8
1
  6
Continuous
 62
     2
100
AcDbLine
 10
1365.105322856662
 20
224.1566343794675
 30
0.0
 11
1785.105322856661
 21
224.1566343794675
 31
0.0
  0
LINE
  5
6F
330
1F
100
AcDbEntity
  8
1
  6
Continuous
 62
     7
100
AcDbLine
 10
2591.482335378985
 20
793.9634322327697
 30
0.0
 11
2591.482335378985
 21
794.4634322327688
 31
0.0
  0
LINE
  5
70
330
1F
100
AcDbEntity
  8
1
  6
Continuous
 62
     7
100
AcDbLine
 10
1719.482335378986
 20
453.7458101684424
 30
0.0
 11
1719.482335378986
 21
451.7458101684415
 31
0.0
  0
LINE
  5
71
330
1F
100
AcDbEntity
  8
1
  6
Continuous
 62
     7
100
AcDbLine
 10
1719.482335378986
 20
411.7458101684424
 30
0.0
 11
2591.482335378985
 21
411.7458101684424
 31
0.0
  0
LINE
  5
72
330
1F
100
AcDbEntity
  8
1
  6
Continuous
 62
     7
100
AcDbLine
 10
2591.482335378982
 20
451.7458101684415
 30
0.0
 11
2591.482335378982
 21
453.7458101684424
 31
0.0
  0
LINE
  5
73
330
1F
100
AcDbEntity
  8
1
  6
Continuous
 62
     7
100
AcDbLine
 10
2591.482335378982
 20
453.7458101684424
 30
0.0
 11
1719.482335378986
 21
453.7458101684424
 31
0.0
  0
LINE
  5
74
330
1F
100
AcDbEntity
  8
1
  6
Continuous
 62
     7
100
AcDbLine
 10
1719.482335378986
 20
793.9634322327697
 30
0.0
 11
2591.482335378985
 21
793.9634322327697
 31
0.0
  0
LINE
  5
75
330
1F
100
AcDbEntity
  8
1
  6
Continuous
 62
     7
100
AcDbLine
 10
1719.482335378986
 20
795.9634322327697
 30
0.0
 11
1719.482335378986
 21
793.9634322327697
 31
0.0
  0
LINE
  5
76
330
1F
100
AcDbEntity
  8
1
  6
Continuous
 62
     7
100
AcDbLine
 10
2815.482335379023
 20
451.7458101684424
 30
0.0
 11
2815.482335379023
 21
453.2458101684415
 31
0.0
  0
LINE
  5
77
330
1F
100
AcDbEntity
  8
1
  6
Continuous
 62
     7
100
AcDbLine
 10
2815.982335379023
 20
453.7458101684415
 30
0.0
 11
2822.232335379023
 21
453.7458101684415
 31
0.0
  0
LINE
  5
78
330
1F
100
AcDbEntity
  8
1
  6
Continuous
 62
     7
100
AcDbLine
 10
2822.232335379023
 20
453.7458101684415
 30
0.0
 11
2822.232335379023
 21
451.7458101684424
 31
0.0
  0
LINE
  5
79
330
1F
100
AcDbEntity
  8
1
  6
Continuous
 62
     7
100
AcDbLine
 10
2104.654786184021
 20
126.7308740932435
 30
0.0
 11
2104.654786184021
 21
132.7308740932435
 31
0.0
  0
LINE
  5
7A
330
1F
100
AcDbEntity
  8
1
  6
Continuous
 62
     7
100
AcDbLine
 10
2104.654786184021
 20
132.7308740932435
 30
0.0
 11
2102.654786184021
 21
132.7308740932435
 31
0.0
  0
LINE
  5
7B
330
1F
100
AcDbEntity
  8
1
  6
Continuous
 62
     7
100
AcDbLine
 10
2102.654786184021
 20
132.7308740932435
 30
0.0
 11
2102.654786184021
 21
135.2308740932435
 31
0.0
  0
LINE
  5
7C
330
1F
100
AcDbEntity
  8
1
  6
Continuous
 62
     7
100
AcDbLine
 10
2102.654786184021
 20
135.2308740932435
 30
0.0
 11
2108.904786184021
 21
135.2308740932435
 31
0.0
  0
LINE
  5
7D
330
1F
100
AcDbEntity
  8
1
  6
Continuous
 62
     7
100
AcDbLine
 10
2109.404786184021
 20
134.7308740932435
 30
0.0
 11
2109.404786184021
 21
120.4808740932435
 31
0.0
  0
LINE
  5
7E
330
1F
100
AcDbEntity
  8
1
  6
Continuous
 62
     7
100
AcDbLine
 10
2109.404786184021
 20
120.4808740932435
 30
0.0
 11
2106.904786184021
 21
120.4808740932435
 31
0.0
  0
LINE
  5
7F
330
1F
100
AcDbEntity
  8
1
  6
Continuous
 62
     7
100
AcDbLine
 10
2106.904786184021
 20
120.4808740932435
 30
0.0
 11
2106.904786184021
 21
122.4808740932435
 31
0.0
  0
LINE
  5
80
330
1F
100
AcDbEntity
  8
1
  6
Continuous
 62
     7
100
AcDbLine
 10
2106.904786184021
 20
122.4808740932435
 30
0.0
 11
2100.904786184021
 21
122.4808740932435
 31
0.0
  0
LINE
  5
81
330
1F
100
AcDbEntity
  8
1
  6
Continuous
 62
     7
100
AcDbLine
 10
2100.904786184021
 20
122.4808740932435
 30
0.0
 11
2100.904786184021
 21
111.9808740932435
 31
0.0
  0
LINE
  5
82
330
1F
100
AcDbEntity
  8
1
  6
Continuous
 62
     7
100
AcDbLine
 10
2100.904786184021
 20
111.9808740932435
 30
0.0
 11
2106.904786184021
 21
111.9808740932435
 31
0.0
  0
LINE
  5
83
330
1F
100
AcDbEntity
  8
1
  6
Continuous
 62
     7
100
AcDbLine
 10
2106.904786184021
 20
111.9808740932435
 30
0.0
 11
2106.904786184021
 21
113.9808740932435
 31
0.0
  0
LINE
  5
84
330
1F
100
AcDbEntity
  8
1
  6
Continuous
 62
     7
100
AcDbLine
 10
2106.904786184021
 20
113.9808740932435
 30
0.0
 11
2109.404786184021
 21
113.9808740932435
 31
0.0
  0
LINE
  5
85
330
1F
100
AcDbEntity
  8
1
  6
Continuous
 62
     7
100
AcDbLine
 10
2109.404786184021
 20
113.9808740932435
 30
0.0
 11
2109.404786184021
 21
106.4808740932435
 31
0.0
  0
LINE
  5
86
330
1F
100
AcDbEntity
  8
1
  6
Continuous
 62
     7
100
AcDbLine
 10
2109.404786184021
 20
106.4808740932435
 30
0.0
 11
2106.904786184021
 21
106.4808740932435
 31
0.0
  0
LINE
  5
87
330
1F
100
AcDbEntity
  8
1
  6
Continuous
 62
     7
100
AcDbLine
 10
2106.904786184021
 20
106.4808740932435
 30
0.0
 11
2106.904786184021
 21
108.4808740932435
 31
0.0
  0
LINE
  5
88
330
1F
100
AcDbEntity
  8
1
  6
Continuous
 62
     7
100
AcDbLine
 10
2106.904786184021
 20
108.4808740932435
 30
0.0
 11
2100.904786184021
 21
108.4808740932435
 31
0.0
  0
LINE
  5
89
330
1F
100
AcDbEntity
  8
1
  6
Continuous
 62
     7
100
AcDbLine
 10
2100.904786184021
 20
108.4808740932435
 30
0.0
 11
2100.904786184021
 21
97.98087409324353
 31
0.0
  0
LINE
  5
8A
330
1F
100
AcDbEntity
  8
1
  6
Continuous
 62
     7
100
AcDbLine
 10
2106.904786184021
 20
99.98087409324353
 30
0.0
 11
2106.904786184021
 21
97.98087409324353
 31
0.0
  0
LINE
  5
8B
330
1F
100
AcDbEntity
  8
1
  6
Continuous
 62
     7
100
AcDbLine
 10
2106.904786184021
 20
97.98087409324353
 30
0.0
 11
2100.904786184021
 21
97.98087409324353
 31
0.0
  0
LINE
  5
8C
330
1F
100
AcDbEntity
  8
1
  6
Continuous
 62
     7
100
AcDbLine
 10
2109.404786184021
 20
99.98087409324353
 30
0.0
 11
2106.904786184021
 21
99.98087409324353
 31
0.0
  0
LINE
  5
8D
330
1F
100
AcDbEntity
  8
1
  6
Continuous
 62
     7
100
AcDbLine
 10
2109.404786184021
 20
99.98087409324353
 30
0.0
 11
2109.404786184021
 21
93.73087409324353
 31
0.0
  0
LINE
  5
8E
330
1F
100
AcDbEntity
  8
1
  6
Continuous
 62
     7
100
AcDbLine
 10
2108.904786184021
 20
93.23087409324353
 30
0.0
 11
2099.404786184021
 21
93.23087409324353
 31
0.0
  0
LINE
  5
8F
330
1F
100
AcDbEntity
  8
1
  6
Continuous
 62
     7
100
AcDbLine
 10
2104.654786184021
 20
126.7308740932435
 30
0.0
 11
2099.404786184021
 21
126.7308740932435
 31
0.0
  0
LINE
  5
90
330
1F
100
AcDbEntity
  8
1
  6
Continuous
 62
     7
100
AcDbLine
 10
2094.154786184021
 20
132.7308740932435
 30
0.0
 11
2094.154786184021
 21
126.7308740932435
 31
0.0
  0
LINE
  5
91
330
1F
100
AcDbEntity
  8
1
  6
Continuous
 62
     7
100
AcDbLine
 10
2096.154786184021
 20
132.7308740932435
 30
0.0
 11
2094.154786184021
 21
132.7308740932435
 31
0.0
  0
LINE
  5
92
330
1F
100
AcDbEntity
  8
1
  6
Continuous
 62
     7
100
AcDbLine
 10
2096.154786184021
 20
135.2308740932435
 30
0.0
 11
2096.154786184021
 21
132.7308740932435
 31
0.0
  0
LINE
  5
93
330
1F
100
AcDbEntity
  8
1
  6
Continuous
 62
     7
100
AcDbLine
 10
2089.904786184021
 20
135.2308740932435
 30
0.0
 11
2096.154786184021
 21
135.2308740932435
 31
0.0
  0
LINE
  5
94
330
1F
100
AcDbEntity
  8
1
  6
Continuous
 62
     7
100
AcDbLine
 10
2089.404786184021
 20
120.4808740932435
 30
0.0
 11
2089.404786184021
 21
134.7308740932435
 31
0.0
  0
LINE
  5
95
330
1F
100
AcDbEntity
  8
1
  6
Continuous
 62
     7
100
AcDbLine
 10
2091.904786184021
 20
120.4808740932435
 30
0.0
 11
2089.404786184021
 21
120.4808740932435
 31
0.0
  0
LINE
  5
96
330
1F
100
AcDbEntity
  8
1
  6
Continuous
 62
     7
100
AcDbLine
 10
2091.904786184021
 20
122.4808740932435
 30
0.0
 11
2091.904786184021
 21
120.4808740932435
 31
0.0
  0
LINE
  5
97
330
1F
100
AcDbEntity
  8
1
  6
Continuous
 62
     7
100
AcDbLine
 10
2097.904786184021
 20
122.4808740932435
 30
0.0
 11
2091.904786184021
 21
122.4808740932435
 31
0.0
  0
LINE
  5
98
330
1F
100
AcDbEntity
  8
1
  6
Continuous
 62
     7
100
AcDbLine
 10
2097.904786184021
 20
111.9808740932435
 30
0.0
 11
2097.904786184021
 21
122.4808740932435
 31
0.0
  0
LINE
  5
99
330
1F
100
AcDbEntity
  8
1
  6
Continuous
 62
     7
100
AcDbLine
 10
2091.904786184021
 20
111.9808740932435
 30
0.0
 11
2097.904786184021
 21
111.9808740932435
 31
0.0
  0
LINE
  5
9A
330
1F
100
AcDbEntity
  8
1
  6
Continuous
 62
     7
100
AcDbLine
 10
2091.904786184021
 20
113.9808740932435
 30
0.0
 11
2091.904786184021
 21
111.9808740932435
 31
0.0
  0
LINE
  5
9B
330
1F
100
AcDbEntity
  8
1
  6
Continuous
 62
     7
100
AcDbLine
 10
2089.404786184021
 20
113.9808740932435
 30
0.0
 11
2091.904786184021
 21
113.9808740932435
 31
0.0
  0
LINE
  5
9C
330
1F
100
AcDbEntity
  8
1
  6
Continuous
 62
     7
100
AcDbLine
 10
2089.404786184021
 20
106.4808740932435
 30
0.0
 11
2089.404786184021
 21
113.9808740932435
 31
0.0
  0
LINE
  5
9D
330
1F
100
AcDbEntity
  8
1
  6
Continuous
 62
     7
100
AcDbLine
 10
2091.904786184021
 20
106.4808740932435
 30
0.0
 11
2089.404786184021
 21
106.4808740932435
 31
0.0
  0
LINE
  5
9E
330
1F
100
AcDbEntity
  8
1
  6
Continuous
 62
     7
100
AcDbLine
 10
2091.904786184021
 20
108.4808740932435
 30
0.0
 11
2091.904786184021
 21
106.4808740932435
 31
0.0
  0
LINE
  5
9F
330
1F
100
AcDbEntity
  8
1
  6
Continuous
 62
     7
100
AcDbLine
 10
2097.904786184021
 20
108.4808740932435
 30
0.0
 11
2091.904786184021
 21
108.4808740932435
 31
0.0
  0
LINE
  5
A0
330
1F
100
AcDbEntity
  8
1
  6
Continuous
 62
     7
100
AcDbLine
 10
2097.904786184021
 20
97.98087409324353
 30
0.0
 11
2097.904786184021
 21
108.4808740932435
 31
0.0
  0
LINE
  5
A1
330
1F
100
AcDbEntity
  8
1
  6
Continuous
 62
     7
100
AcDbLine
 10
2091.904786184021
 20
97.98087409324353
 30
0.0
 11
2091.904786184021
 21
99.98087409324353
 31
0.0
  0
LINE
  5
A2
330
1F
100
AcDbEntity
  8
1
  6
Continuous
 62
     7
100
AcDbLine
 10
2097.904786184021
 20
97.98087409324353
 30
0.0
 11
2091.904786184021
 21
97.98087409324353
 31
0.0
  0
LINE
  5
A3
330
1F
100
AcDbEntity
  8
1
  6
Continuous
 62
     7
100
AcDbLine
 10
2091.904786184021
 20
99.98087409324353
 30
0.0
 11
2089.404786184021
 21
99.98087409324353
 31
0.0
  0
LINE
  5
A4
330
1F
100
AcDbEntity
  8
1
  6
Continuous
 62
     7
100
AcDbLine
 10
2089.404786184021
 20
93.73087409324353
 30
0.0
 11
2089.404786184021
 21
99.98087409324353
 31
0.0
  0
LINE
  5
A5
330
1F
100
AcDbEntity
  8
1
  6
Continuous
 62
     7
100
AcDbLine
 10
2099.404786184021
 20
93.23087409324353
 30
0.0
 11
2089.904786184021
 21
93.23087409324353
 31
0.0
  0
LINE
  5
A6
330
1F
100
AcDbEntity
  8
1
  6
Continuous
 62
     7
100
AcDbLine
 10
2099.404786184021
 20
126.7308740932435
 30
0.0
 11
2094.154786184021
 21
126.7308740932435
 31
0.0
  0
LINE
  5
A7
330
1F
100
AcDbEntity
  8
1
  6
Continuous
 62
     2
100
AcDbLine
 10
2065.036777484853
 20
61.23087409324353
 30
0.0
 11
2186.036777484855
 21
61.23087409324353
 31
0.0
  0
LINE
  5
A8
330
1F
100
AcDbEntity
  8
1
  6
Continuous
 62
     2
100
AcDbLine
 10
2129.482335378983
 20
386.7655939176307
 30
0.0
 11
2129.482335378983
 21
371.9350920318684
 31
0.0
  0
LINE
  5
A9
330
1F
100
AcDbEntity
  8
1
  6
Continuous
 62
     2
100
AcDbLine
 10
2129.482335378983
 20
514.3967963725645
 30
0.0
 11
2129.482335378983
 21
499.5662944868027
 31
0.0
  0
LINE
  5
AA
330
1F
100
AcDbEntity
  8
1
  6
DASH_CENTER
 62
     3
100
AcDbLine
 10
1669.482335378944
 20
797.8134322327705
 30
0.0
 11
1669.482335378944
 21
878.1134322327716
 31
0.0
  0
LINE
  5
AB
330
1F
100
AcDbEntity
  8
1
  6
DASH_CENTER
 62
     3
100
AcDbLine
 10
1629.332335378944
 20
837.9634322327706
 30
0.0
 11
1709.632335378942
 21
837.9634322327706
 31
0.0
  0
LINE
  5
AC
330
1F
100
AcDbEntity
  8
0
  6
Continuous
 62
     7
100
AcDbLine
 10
2899.482335379023
 20
498.2462721684415
 30
0.0
 11
2820.482335379023
 21
498.2462721684415
 31
0.0
  0
LINE
  5
AD
330
1F
100
AcDbEntity
  8
0
  6
Continuous
 62
     7
100
AcDbLine
 10
2898.482335379023
 20
459.7458101684415
 30
0.0
 11
2885.482335379023
 21
459.7458101684415
 31
0.0
  0
LINE
  5
AE
330
1F
100
AcDbEntity
  8
0
  6
Continuous
 62
     7
100
AcDbLine
 10
2896.782334379024
 20
576.7462721684415
 30
0.0
 11
2822.182336379023
 21
576.7462721684415
 31
0.0
  0
LINE
  5
AF
330
1F
100
AcDbEntity
  8
0
  6
Continuous
 62
     7
100
AcDbLine
 10
2899.282334379024
 20
498.2462721684415
 30
0.0
 11
2899.282334379024
 21
569.7462721684415
 31
0.0
  0
LINE
  5
B0
330
1F
100
AcDbEntity
  8
0
  6
Continuous
 62
     7
100
AcDbLine
 10
2819.682336379023
 20
531.6649939610206
 30
0.0
 11
2819.682336379023
 21
569.7462721684415
 31
0.0
  0
LINE
  5
B1
330
1F
100
AcDbEntity
  8
0
  6
Continuous
 62
     7
100
AcDbLine
 10
2898.782334379024
 20
569.7462721684415
 30
0.0
 11
2898.782334379024
 21
574.7462721684415
 31
0.0
  0
LINE
  5
B2
330
1F
100
AcDbEntity
  8
0
  6
Continuous
 62
     7
100
AcDbLine
 10
2820.182336379023
 20
569.7462721684415
 30
0.0
 11
2820.182336379023
 21
574.7462721684415
 31
0.0
  0
LINE
  5
B3
330
1F
100
AcDbEntity
  8
0
  6
Continuous
 62
     7
100
AcDbLine
 10
2899.282334379024
 20
569.7462721684415
 30
0.0
 11
2819.682336379023
 21
569.7462721684415
 31
0.0
  0
LINE
  5
B4
330
1F
100
AcDbEntity
  8
0
  6
Continuous
 62
     7
100
AcDbLine
 10
2898.782334379024
 20
574.7462721684415
 30
0.0
 11
2896.782334379024
 21
576.7462721684415
 31
0.0
  0
LINE
  5
B5
330
1F
100
AcDbEntity
  8
0
  6
Continuous
 62
     7
100
AcDbLine
 10
2822.182336379023
 20
576.7462721684415
 30
0.0
 11
2820.182336379023
 21
574.7462721684415
 31
0.0
  0
LINE
  5
B6
330
1F
100
AcDbEntity
  8
0
  6
Continuous
 62
     7
100
AcDbLine
 10
2820.182336379023
 20
574.7462721684415
 30
0.0
 11
2898.782334379024
 21
574.7462721684415
 31
0.0
  0
LINE
  5
B7
330
1F
100
AcDbEntity
  8
0
  6
Continuous
 62
     7
100
AcDbLine
 10
2821.248316379024
 20
498.2462721684415
 30
0.0
 11
2821.248316379024
 21
498.9462721684408
 31
0.0
  0
LINE
  5
B8
330
1F
100
AcDbEntity
  8
0
  6
Continuous
 62
     7
100
AcDbLine
 10
2831.248316379024
 20
498.2462721684415
 30
0.0
 11
2831.248316379024
 21
498.9462721684408
 31
0.0
  0
LINE
  5
B9
330
1F
100
AcDbEntity
  8
0
  6
Continuous
 62
     7
100
AcDbLine
 10
2831.248316379024
 20
498.9462721684408
 30
0.0
 11
2821.248316379024
 21
498.9462721684408
 31
0.0
  0
LINE
  5
BA
330
1F
100
AcDbEntity
  8
0
  6
Continuous
 62
     7
100
AcDbLine
 10
2897.716353379024
 20
498.2462721684415
 30
0.0
 11
2897.716353379024
 21
498.9462721684408
 31
0.0
  0
LINE
  5
BB
330
1F
100
AcDbEntity
  8
0
  6
Continuous
 62
     7
100
AcDbLine
 10
2887.716353379024
 20
498.2462721684415
 30
0.0
 11
2887.716353379024
 21
498.9462721684408
 31
0.0
  0
LINE
  5
BC
330
1F
100
AcDbEntity
  8
0
  6
Continuous
 62
     7
100
AcDbLine
 10
2887.716353379024
 20
498.9462721684408
 30
0.0
 11
2897.716353379024
 21
498.9462721684408
 31
0.0
  0
LINE
  5
BD
330
1F
100
AcDbEntity
  8
0
  6
DASH_CENTER
 62
     3
100
AcDbLine
 10
2859.482335379023
 20
450.1191981684415
 30
0.0
 11
2859.482335379023
 21
581.7462721684415
 31
0.0
  0
LINE
  5
BE
330
1F
100
AcDbEntity
  8
0
  6
Continuous
 62
     7
100
AcDbLine
 10
2820.482335379023
 20
491.7462721684415
 30
0.0
 11
2899.482335379023
 21
491.7462721684415
 31
0.0
  0
LINE
  5
BF
330
1F
100
AcDbEntity
  8
0
  6
Continuous
 62
     7
100
AcDbLine
 10
2899.482335379023
 20
460.7458101684415
 30
0.0
 11
2899.482335379023
 21
498.2462721684415
 31
0.0
  0
LINE
  5
C0
330
1F
100
AcDbEntity
  8
1
  6
Continuous
 62
     7
100
AcDbLine
 10
2899.782334379024
 20
491.7462721684415
 30
0.0
 11
2899.482335379023
 21
491.7462721684415
 31
0.0
  0
LINE
  5
C1
330
1F
100
AcDbEntity
  8
1
  6
Continuous
 62
     7
100
AcDbLine
 10
2899.782334379024
 20
498.2462721684415
 30
0.0
 11
2899.482335379023
 21
498.2462721684415
 31
0.0
  0
LINE
  5
C2
330
1F
100
AcDbEntity
  8
0
  6
Continuous
 62
     7
100
AcDbLine
 10
2899.782334379024
 20
491.7462721684415
 30
0.0
 11
2899.782334379024
 21
498.2462721684415
 31
0.0
  0
LINE
  5
C3
330
1F
100
AcDbEntity
  8
0
  6
Continuous
 62
     7
100
AcDbLine
 10
2904.282334379024
 20
504.7462721684415
 30
0.0
 11
2900.282334379024
 21
504.7462721684415
 31
0.0
  0
LINE
  5
C4
330
1F
100
AcDbEntity
  8
0
  6
Continuous
 62
     7
100
AcDbLine
 10
2904.282334379024
 20
500.2462721684415
 30
0.0
 11
2904.282334379024
 21
508.2462721684415
 31
0.0
  0
LINE
  5
C5
330
1F
100
AcDbEntity
  8
0
  6
Continuous
 62
     7
100
AcDbLine
 10
2904.282334379024
 20
507.3462721684427
 30
0.0
 11
2900.282334379024
 21
507.3462721684427
 31
0.0
  0
LINE
  5
C6
330
1F
100
AcDbEntity
  8
0
  6
Continuous
 62
     7
100
AcDbLine
 10
2902.288313379022
 20
502.1462721684416
 30
0.0
 11
2900.282334379024
 21
502.1462721684416
 31
0.0
  0
LINE
  5
C7
330
1F
100
AcDbEntity
  8
0
  6
Continuous
 62
     7
100
AcDbLine
 10
2909.032334379024
 20
508.2462721684415
 30
0.0
 11
2904.282334379024
 21
508.2462721684415
 31
0.0
  0
LINE
  5
C8
330
1F
100
AcDbEntity
  8
0
  6
Continuous
 62
     7
100
AcDbLine
 10
2909.032334379024
 20
500.2462721684415
 30
0.0
 11
2904.282334379024
 21
500.2462721684415
 31
0.0
  0
LINE
  5
C9
330
1F
100
AcDbEntity
  8
0
  6
Continuous
 62
     7
100
AcDbLine
 10
2900.482334379023
 20
491.9962721684415
 30
0.0
 11
2900.482334379023
 21
497.9962721684415
 31
0.0
  0
LINE
  5
CA
330
1F
100
AcDbEntity
  8
0
  6
Continuous
 62
     7
100
AcDbLine
 10
2900.482334379023
 20
497.9962721684415
 30
0.0
 11
2899.782334379024
 21
497.9962721684415
 31
0.0
  0
LINE
  5
CB
330
1F
100
AcDbEntity
  8
0
  6
Continuous
 62
     7
100
AcDbLine
 10
2900.482334379023
 20
491.9962721684415
 30
0.0
 11
2899.782334379024
 21
491.9962721684415
 31
0.0
  0
LINE
  5
CC
330
1F
100
AcDbEntity
  8
0
  6
Continuous
 62
     7
100
AcDbLine
 10
2900.282334379024
 20
499.5240151684425
 30
0.0
 11
2900.282334379024
 21
508.2462721684415
 31
0.0
  0
LINE
  5
CD
330
1F
100
AcDbEntity
  8
0
  6
Continuous
 62
     7
100
AcDbLine
 10
2899.782334379024
 20
508.7462721684415
 30
0.0
 11
2899.282334379024
 21
508.7462721684415
 31
0.0
  0
LINE
  5
CE
330
1F
100
AcDbEntity
  8
0
  6
Continuous
 62
     7
100
AcDbLine
 10
2912.722334379023
 20
511.4462721684408
 30
0.0
 11
2907.842334379022
 21
511.4462721684408
 31
0.0
  0
LINE
  5
CF
330
1F
100
AcDbEntity
  8
0
  6
Continuous
 62
     7
100
AcDbLine
 10
2912.722334379023
 20
508.9462721684408
 30
0.0
 11
2912.722334379023
 21
511.4462721684408
 31
0.0
  0
LINE
  5
D0
330
1F
100
AcDbEntity
  8
0
  6
Continuous
 62
     7
100
AcDbLine
 10
2907.842334379022
 20
508.9462721684408
 30
0.0
 11
2907.842334379022
 21
511.4462721684408
 31
0.0
  0
LINE
  5
D1
330
1F
100
AcDbEntity
  8
0
  6
Continuous
 62
     7
100
AcDbLine
 10
2912.722334379023
 20
508.9462721684408
 30
0.0
 11
2907.842334379022
 21
508.9462721684408
 31
0.0
  0
LINE
  5
D2
330
1F
100
AcDbEntity
  8
0
  6
Continuous
 62
     7
100
AcDbLine
 10
2911.532334379024
 20
512.4462721684408
 30
0.0
 11
2909.032334379024
 21
512.4462721684408
 31
0.0
  0
LINE
  5
D3
330
1F
100
AcDbEntity
  8
0
  6
Continuous
 62
     7
100
AcDbLine
 10
2911.532334379024
 20
498.9462721684408
 30
0.0
 11
2909.032334379024
 21
498.9462721684408
 31
0.0
  0
LINE
  5
D4
330
1F
100
AcDbEntity
  8
0
  6
Continuous
 62
     7
100
AcDbLine
 10
2909.032334379024
 20
511.4462721684408
 30
0.0
 11
2909.032334379024
 21
512.4462721684408
 31
0.0
  0
LINE
  5
D5
330
1F
100
AcDbEntity
  8
0
  6
Continuous
 62
     7
100
AcDbLine
 10
2909.032334379024
 20
498.9462721684408
 30
0.0
 11
2909.032334379024
 21
508.9462721684408
 31
0.0
  0
LINE
  5
D6
330
1F
100
AcDbEntity
  8
0
  6
Continuous
 62
     7
100
AcDbLine
 10
2911.532334379024
 20
511.4462721684408
 30
0.0
 11
2911.532334379024
 21
512.4462721684408
 31
0.0
  0
LINE
  5
D7
330
1F
100
AcDbEntity
  8
0
  6
Continuous
 62
     7
100
AcDbLine
 10
2911.532334379024
 20
498.9462721684408
 30
0.0
 11
2911.532334379024
 21
508.9462721684408
 31
0.0
  0
LINE
  5
D8
330
1F
100
AcDbEntity
  8
0
  6
Continuous
 62
     7
100
AcDbLine
 10
2900.482334379023
 20
497.7962721684435
 30
0.0
 11
2901.750150379023
 21
497.7962721684435
 31
0.0
  0
LINE
  5
D9
330
1F
100
AcDbEntity
  8
0
  6
Continuous
 62
     7
100
AcDbLine
 10
2900.482334379023
 20
492.1962721684408
 30
0.0
 11
2901.750150379023
 21
492.1962721684408
 31
0.0
  0
LINE
  5
DA
330
1F
100
AcDbEntity
  8
1
  6
Continuous
 62
     7
100
AcDbLine
 10
2889.482332379024
 20
453.7458101684415
 30
0.0
 11
2911.678905908857
 21
453.7458101684415
 31
0.0
  0
LINE
  5
DB
330
1F
100
AcDbEntity
  8
1
  6
Continuous
 62
     7
100
AcDbLine
 10
2889.482332379024
 20
445.7453481684415
 30
0.0
 11
2911.532334379023
 21
445.7453481684415
 31
0.0
  0
LINE
  5
DC
330
1F
100
AcDbEntity
  8
1
  6
Continuous
 62
     7
100
AcDbLine
 10
2909.588627711392
 20
440.5498669662898
 30
0.0
 11
2902.168711588476
 21
445.7453481684415
 31
0.0
  0
LINE
  5
DD
330
1F
100
AcDbEntity
  8
1
  6
Continuous
 62
     7
100
AcDbLine
 10
2909.496221671763
 20
430.8483736617327
 30
0.0
 11
2904.988872939205
 21
434.0044532216025
 31
0.0
  0
LINE
  5
DE
330
1F
100
AcDbEntity
  8
1
  6
Continuous
 62
     7
100
AcDbLine
 10
2914.406362481255
 20
437.1764527633395
 30
0.0
 11
2910.85823963484
 21
439.6608751268918
 31
0.0
  0
LINE
  5
DF
330
1F
100
AcDbEntity
  8
1
  6
Continuous
 62
     7
100
AcDbLine
 10
2903.733472664835
 20
434.8834939571925
 30
0.0
 11
2887.188026633619
 21
446.4687399912928
 31
0.0
  0
LINE
  5
E0
330
1F
100
AcDbEntity
  8
1
  6
DASH_CENTER
 62
     3
100
AcDbLine
 10
1702.716344378984
 20
504.1445703352938
 30
0.0
 11
1702.716344378984
 21
449.1445703352938
 31
0.0
  0
LINE
  5
E1
330
1F
100
AcDbEntity
  8
0
  6
Continuous
 62
     7
100
AcDbLine
 10
1669.482335378944
 20
877.9634322327706
 30
0.0
 11
1635.982335378944
 21
877.9634322327706
 31
0.0
  0
LINE
  5
E2
330
1F
100
AcDbEntity
  8
0
  6
Continuous
 62
     7
100
AcDbLine
 10
1646.242482378945
 20
878.4935322327706
 30
0.0
 11
1646.049541378943
 21
877.9634322327706
 31
0.0
  0
LINE
  5
E3
330
1F
100
AcDbEntity
  8
0
  6
Continuous
 62
     7
100
AcDbLine
 10
1646.820496378943
 20
878.8106822327686
 30
0.0
 11
1648.865939378943
 21
877.9634322327706
 31
0.0
  0
LINE
  5
E4
330
1F
100
AcDbEntity
  8
0
  6
Continuous
 62
     7
100
AcDbLine
 10
1702.682347378944
 20
877.9634172327706
 30
0.0
 11
1669.482335378944
 21
877.9634322327706
 31
0.0
  0
LINE
  5
E5
330
1F
100
AcDbEntity
  8
0
  6
Continuous
 62
     7
100
AcDbLine
 10
1709.482335378944
 20
804.7634052327694
 30
0.0
 11
1709.482335378944
 21
871.1634142327707
 31
0.0
  0
LINE
  5
E6
330
1F
100
AcDbEntity
  8
0
  6
Continuous
 62
     7
100
AcDbLine
 10
1669.482335378944
 20
797.9634322327697
 30
0.0
 11
1702.682347378944
 21
797.9634172327706
 31
0.0
  0
LINE
  5
E7
330
1F
100
AcDbEntity
  8
0
  6
DASH_CENTER
 62
     3
100
AcDbLine
 10
1699.401341378944
 20
867.8824462327698
 30
0.0
 11
1706.211949378944
 21
874.6930542327696
 31
0.0
  0
LINE
  5
E8
330
1F
100
AcDbEntity
  8
0
  6
DASH_CENTER
 62
     3
100
AcDbLine
 10
1699.389943378944
 20
808.0558392327707
 30
0.0
 11
1706.061376378945
 21
801.3843912327698
 31
0.0
  0
LINE
  5
E9
330
1F
100
AcDbEntity
  8
0
  6
Continuous
 62
     7
100
AcDbLine
 10
1649.027126378943
 20
883.6748692327706
 30
0.0
 11
1656.420895378945
 21
880.6122702327698
 31
0.0
  0
LINE
  5
EA
330
1F
100
AcDbEntity
  8
0
  6
Continuous
 62
     7
100
AcDbLine
 10
1663.023354378943
 20
886.5050822327698
 30
0.0
 11
1660.546567378943
 21
882.3003312327705
 31
0.0
  0
LINE
  5
EB
330
1F
100
AcDbEntity
  8
0
  6
Continuous
 62
     7
100
AcDbLine
 10
1660.869281378945
 20
887.7739282327707
 30
0.0
 11
1663.023354378943
 21
886.5050822327698
 31
0.0
  0
LINE
  5
EC
330
1F
100
AcDbEntity
  8
0
  6
Continuous
 62
     7
100
AcDbLine
 10
1658.392494378945
 20
883.5691772327696
 30
0.0
 11
1660.546567378943
 21
882.3003312327705
 31
0.0
  0
LINE
  5
ED
330
1F
100
AcDbEntity
  8
0
  6
Continuous
 62
     7
100
AcDbLine
 10
1660.869281378945
 20
887.7739282327707
 30
0.0
 11
1658.392494378945
 21
883.5691772327696
 31
0.0
  0
LINE
  5
EE
330
1F
100
AcDbEntity
  8
0
  6
Continuous
 62
     7
100
AcDbLine
 10
1663.281013378945
 20
884.9722042327694
 30
0.0
 11
1662.012167378943
 21
882.8181322327696
 31
0.0
  0
LINE
  5
EF
330
1F
100
AcDbEntity
  8
0
  6
Continuous
 62
     7
100
AcDbLine
 10
1651.649019378943
 20
891.8239722327699
 30
0.0
 11
1650.380173378944
 21
889.6698992327706
 31
0.0
  0
LINE
  5
F0
330
1F
100
AcDbEntity
  8
0
  6
Continuous
 62
     7
100
AcDbLine
 10
1661.150538378945
 20
883.3256702327694
 30
0.0
 11
1662.012167378943
 21
882.8181322327696
 31
0.0
  0
LINE
  5
F1
330
1F
100
AcDbEntity
  8
0
  6
Continuous
 62
     7
100
AcDbLine
 10
1650.380173378944
 20
889.6698992327706
 30
0.0
 11
1658.996465378942
 21
884.5945162327816
 31
0.0
  0
LINE
  5
F2
330
1F
100
AcDbEntity
  8
0
  6
Continuous
 62
     7
100
AcDbLine
 10
1662.419384378943
 20
885.4797432327696
 30
0.0
 11
1663.281013378945
 21
884.9722042327694
 31
0.0
  0
LINE
  5
F3
330
1F
100
AcDbEntity
  8
0
  6
Continuous
 62
     7
100
AcDbLine
 10
1651.649019378943
 20
891.8239722327699
 30
0.0
 11
1660.265311378945
 21
886.7485892327704
 31
0.0
  0
LINE
  5
F4
330
1F
100
AcDbEntity
  8
0
  6
Continuous
 62
     7
100
AcDbLine
 10
1651.051335378944
 20
878.6634322327695
 30
0.0
 11
1651.051335378944
 21
877.9634322327706
 31
0.0
  0
LINE
  5
F5
330
1F
100
AcDbEntity
  8
0
  6
Continuous
 62
     7
100
AcDbLine
 10
1657.551335378944
 20
878.6634322327695
 30
0.0
 11
1657.551335378944
 21
877.9634322327706
 31
0.0
  0
LINE
  5
F6
330
1F
100
AcDbEntity
  8
0
  6
Continuous
 62
     7
100
AcDbLine
 10
1657.551335378944
 20
878.6634322327695
 30
0.0
 11
1651.051335378944
 21
878.6634322327695
 31
0.0
  0
LINE
  5
F7
330
1F
100
AcDbEntity
  8
0
  6
Continuous
 62
     7
100
AcDbLine
 10
1647.079343378943
 20
878.7034642327694
 30
0.0
 11
1647.763453378944
 21
880.3550532327686
 31
0.0
  0
LINE
  5
F8
330
1F
100
AcDbEntity
  8
0
  6
Continuous
 62
     7
100
AcDbLine
 10
1649.587031378944
 20
877.9634322327706
 30
0.0
 11
1649.815688378944
 21
878.5154592327694
 31
0.0
  0
LINE
  5
F9
330
1F
100
AcDbEntity
  8
0
  6
Continuous
 62
     7
100
AcDbLine
 10
1650.937594378944
 20
881.2239792327696
 30
0.0
 11
1651.524333378943
 21
882.6404922327706
 31
0.0
  0
LINE
  5
FA
330
1F
100
AcDbEntity
  8
0
  6
Continuous
 62
     7
100
AcDbLine
 10
1669.482335378944
 20
797.9634322327697
 30
0.0
 11
1636.282323378944
 21
797.9634172327706
 31
0.0
  0
LINE
  5
FB
330
1F
100
AcDbEntity
  8
0
  6
Continuous
 62
     7
100
AcDbLine
 10
1629.482335378944
 20
804.7634052327694
 30
0.0
 11
1629.482335378944
 21
871.1634142327707
 31
0.0
  0
LINE
  5
FC
330
1F
100
AcDbEntity
  8
0
  6
DASH_CENTER
 62
     3
100
AcDbLine
 10
1639.563329378944
 20
867.8824462327698
 30
0.0
 11
1632.752721378943
 21
874.6930542327696
 31
0.0
  0
LINE
  5
FD
330
1F
100
AcDbEntity
  8
0
  6
DASH_CENTER
 62
     3
100
AcDbLine
 10
1639.574727378945
 20
808.0558392327707
 30
0.0
 11
1632.903294378945
 21
801.3843912327698
 31
0.0
  0
LINE
  5
FE
330
1F
100
AcDbEntity
  8
0
  6
Continuous
 62
     7
100
AcDbLine
 10
1651.501335378943
 20
878.6634322327695
 30
0.0
 11
1651.501335378943
 21
879.9312482327705
 31
0.0
  0
LINE
  5
FF
330
1F
100
AcDbEntity
  8
0
  6
Continuous
 62
     7
100
AcDbLine
 10
1657.101335378943
 20
878.6634322327695
 30
0.0
 11
1657.101335378943
 21
879.9312482327705
 31
0.0
  0
LINE
  5
100
330
1F
100
AcDbEntity
  8
0
  6
Continuous
 62
     7
100
AcDbLine
 10
1709.482335378986
 20
498.2462721684428
 30
0.0
 11
1629.482335378986
 21
498.2462721684428
 31
0.0
  0
LINE
  5
101
330
1F
100
AcDbEntity
  8
0
  6
Continuous
 62
     7
100
AcDbLine
 10
1706.782334378984
 20
576.7462721684428
 30
0.0
 11
1632.182336378985
 21
576.7462721684428
 31
0.0
  0
LINE
  5
102
330
1F
100
AcDbEntity
  8
0
  6
Continuous
 62
     7
100
AcDbLine
 10
1629.682336378985
 20
569.7462721684428
 30
0.0
 11
1629.682336378985
 21
498.2462721684428
 31
0.0
  0
LINE
  5
103
330
1F
100
AcDbEntity
  8
0
  6
Continuous
 62
     7
100
AcDbLine
 10
1709.282334378984
 20
569.7462721684428
 30
0.0
 11
1709.282334378984
 21
498.2462721684428
 31
0.0
  0
LINE
  5
104
330
1F
100
AcDbEntity
  8
0
  6
Continuous
 62
     7
100
AcDbLine
 10
1630.182336378985
 20
574.7462721684428
 30
0.0
 11
1630.182336378985
 21
569.7462721684428
 31
0.0
  0
LINE
  5
105
330
1F
100
AcDbEntity
  8
0
  6
Continuous
 62
     7
100
AcDbLine
 10
1708.782334378984
 20
574.7462721684428
 30
0.0
 11
1708.782334378984
 21
569.7462721684428
 31
0.0
  0
LINE
  5
106
330
1F
100
AcDbEntity
  8
0
  6
Continuous
 62
     7
100
AcDbLine
 10
1709.282334378984
 20
569.7462721684428
 30
0.0
 11
1629.682336378985
 21
569.7462721684428
 31
0.0
  0
LINE
  5
107
330
1F
100
AcDbEntity
  8
0
  6
Continuous
 62
     7
100
AcDbLine
 10
1632.182336378985
 20
576.7462721684428
 30
0.0
 11
1630.182336378985
 21
574.7462721684428
 31
0.0
  0
LINE
  5
108
330
1F
100
AcDbEntity
  8
0
  6
Continuous
 62
     7
100
AcDbLine
 10
1708.782334378984
 20
574.7462721684428
 30
0.0
 11
1706.782334378984
 21
576.7462721684428
 31
0.0
  0
LINE
  5
109
330
1F
100
AcDbEntity
  8
0
  6
Continuous
 62
     7
100
AcDbLine
 10
1630.182336378985
 20
574.7462721684428
 30
0.0
 11
1708.782334378984
 21
574.7462721684428
 31
0.0
  0
LINE
  5
10A
330
1F
100
AcDbEntity
  8
0
  6
Continuous
 62
     7
100
AcDbLine
 10
1707.716354378985
 20
498.9462721684427
 30
0.0
 11
1707.716354378985
 21
498.2462721684428
 31
0.0
  0
LINE
  5
10B
330
1F
100
AcDbEntity
  8
0
  6
Continuous
 62
     7
100
AcDbLine
 10
1697.716354378985
 20
498.9462721684427
 30
0.0
 11
1697.716354378985
 21
498.2462721684428
 31
0.0
  0
LINE
  5
10C
330
1F
100
AcDbEntity
  8
0
  6
Continuous
 62
     7
100
AcDbLine
 10
1707.716354378985
 20
498.9462721684427
 30
0.0
 11
1697.716354378985
 21
498.9462721684427
 31
0.0
  0
LINE
  5
10D
330
1F
100
AcDbEntity
  8
0
  6
Continuous
 62
     7
100
AcDbLine
 10
1631.248317378984
 20
498.9462721684427
 30
0.0
 11
1631.248317378984
 21
498.2462721684428
 31
0.0
  0
LINE
  5
10E
330
1F
100
AcDbEntity
  8
0
  6
Continuous
 62
     7
100
AcDbLine
 10
1641.248317378984
 20
498.9462721684427
 30
0.0
 11
1641.248317378984
 21
498.2462721684428
 31
0.0
  0
LINE
  5
10F
330
1F
100
AcDbEntity
  8
0
  6
Continuous
 62
     7
100
AcDbLine
 10
1631.248317378984
 20
498.9462721684427
 30
0.0
 11
1641.248317378984
 21
498.9462721684427
 31
0.0
  0
LINE
  5
110
330
1F
100
AcDbEntity
  8
0
  6
DASH_CENTER
 62
     3
100
AcDbLine
 10
1669.482335378986
 20
581.7462721684428
 30
0.0
 11
1669.482335378986
 21
425.6435645572738
 31
0.0
  0
LINE
  5
111
330
1F
100
AcDbEntity
  8
0
  6
Continuous
 62
     7
100
AcDbLine
 10
1629.482335378986
 20
491.7462721684428
 30
0.0
 11
1709.482335378986
 21
491.7462721684428
 31
0.0
  0
LINE
  5
112
330
1F
100
AcDbEntity
  8
0
  6
Continuous
 62
     7
100
AcDbLine
 10
1708.482335378986
 20
459.7458101684424
 30
0.0
 11
1630.482335378986
 21
459.7458101684424
 31
0.0
  0
LINE
  5
113
330
1F
100
AcDbEntity
  8
0
  6
Continuous
 62
     7
100
AcDbLine
 10
1709.482335378986
 20
498.2462721684428
 30
0.0
 11
1709.482335378986
 21
460.7458101684424
 31
0.0
  0
LINE
  5
114
330
1F
100
AcDbEntity
  8
0
  6
Continuous
 62
     7
100
AcDbLine
 10
1629.482335378986
 20
498.2462721684428
 30
0.0
 11
1629.482335378986
 21
460.7458101684424
 31
0.0
  0
LINE
  5
115
330
1F
100
AcDbEntity
  8
1
  6
DASH_CENTER
 62
     3
100
AcDbLine
 10
1636.248326378986
 20
449.1445703352938
 30
0.0
 11
1636.248326378986
 21
504.1445703352938
 31
0.0
  0
LINE
  5
116
330
1F
100
AcDbEntity
  8
0
  6
Continuous
 62
     7
100
AcDbLine
 10
1674.482335378986
 20
453.7458101684424
 30
0.0
 11
1674.482335378964
 21
451.7458101684415
 31
0.0
  0
LINE
  5
117
330
1F
100
AcDbEntity
  8
0
  6
Continuous
 62
     7
100
AcDbLine
 10
1664.482335378972
 20
453.7458101684424
 30
0.0
 11
1664.482335378964
 21
451.7458101684415
 31
0.0
  0
LINE
  5
118
330
1F
100
AcDbEntity
  8
1
  6
DASH_CENTER
 62
     3
100
AcDbLine
 10
2831.982335379022
 20
407.9054622304016
 30
0.0
 11
2831.982335379022
 21
411.7458101684415
 31
0.0
  0
LINE
  5
119
330
1F
100
AcDbEntity
  8
1
  6
DASH_CENTER
 62
     3
100
AcDbLine
 10
2831.982335379022
 20
480.5458101684426
 30
0.0
 11
2831.982335379022
 21
451.7458101684415
 31
0.0
  0
LINE
  5
11A
330
1F
100
AcDbEntity
  8
1
  6
PHANTOM
 62
     4
100
AcDbLine
 10
2849.482335379022
 20
435.7458101684415
 30
0.0
 11
2814.482335379022
 21
435.7458101684415
 31
0.0
  0
LINE
  5
11B
330
1F
100
AcDbEntity
  8
1
  6
DASHED
 62
     4
100
AcDbLine
 10
2847.482335379022
 20
411.7458101684415
 30
0.0
 11
2843.982335379022
 21
411.7458101684415
 31
0.0
  0
LINE
  5
11C
330
1F
100
AcDbEntity
  8
1
  6
DASHED
 62
     4
100
AcDbLine
 10
2849.482335379022
 20
449.7458101684415
 30
0.0
 11
2849.482335379022
 21
439.3871873050616
 31
0.0
  0
LINE
  5
11D
330
1F
100
AcDbEntity
  8
1
  6
DASHED
 62
     4
100
AcDbLine
 10
2848.936325878762
 20
438.4961807808704
 30
0.0
 11
2847.028344879283
 21
437.5240159044915
 31
0.0
  0
LINE
  5
11E
330
1F
100
AcDbEntity
  8
1
  6
DASHED
 62
     4
100
AcDbLine
 10
2848.936325878762
 20
432.9954395560117
 30
0.0
 11
2847.028344879283
 21
433.9676044323915
 31
0.0
  0
LINE
  5
11F
330
1F
100
AcDbEntity
  8
1
  6
DASHED
 62
     4
100
AcDbLine
 10
2846.482335379022
 20
434.8586109565808
 30
0.0
 11
2846.482335379022
 21
436.6330093803017
 31
0.0
  0
LINE
  5
120
330
1F
100
AcDbEntity
  8
1
  6
DASHED
 62
     4
100
AcDbLine
 10
2842.982335379022
 20
451.7458101684415
 30
0.0
 11
2847.482335379022
 21
451.7458101684415
 31
0.0
  0
LINE
  5
121
330
1F
100
AcDbEntity
  8
1
  6
DASHED
 62
     4
100
AcDbLine
 10
2849.482335379022
 20
432.1044330318227
 30
0.0
 11
2849.482335379022
 21
413.7458101684415
 31
0.0
  0
LINE
  5
122
330
1F
100
AcDbEntity
  8
1
  6
DASHED
 62
     4
100
AcDbLine
 10
2814.482335379022
 20
413.7458101684415
 30
0.0
 11
2814.482335379022
 21
432.1044330318227
 31
0.0
  0
LINE
  5
123
330
1F
100
AcDbEntity
  8
1
  6
DASHED
 62
     4
100
AcDbLine
 10
2816.482335379022
 20
451.7458101684415
 30
0.0
 11
2820.982335379022
 21
451.7458101684415
 31
0.0
  0
LINE
  5
124
330
1F
100
AcDbEntity
  8
1
  6
DASHED
 62
     4
100
AcDbLine
 10
2817.482335379022
 20
436.6330093803017
 30
0.0
 11
2817.482335379022
 21
434.8586109565808
 31
0.0
  0
LINE
  5
125
330
1F
100
AcDbEntity
  8
1
  6
DASHED
 62
     4
100
AcDbLine
 10
2816.936325878762
 20
433.9676044323915
 30
0.0
 11
2815.028344879283
 21
432.9954395560117
 31
0.0
  0
LINE
  5
126
330
1F
100
AcDbEntity
  8
1
  6
DASHED
 62
     4
100
AcDbLine
 10
2816.936325878762
 20
437.5240159044915
 30
0.0
 11
2815.028344879283
 21
438.4961807808704
 31
0.0
  0
LINE
  5
127
330
1F
100
AcDbEntity
  8
1
  6
DASHED
 62
     4
100
AcDbLine
 10
2814.482335379022
 20
439.3871873050616
 30
0.0
 11
2814.482335379022
 21
449.7458101684415
 31
0.0
  0
LINE
  5
128
330
1F
100
AcDbEntity
  8
1
  6
DASHED
 62
     4
100
AcDbLine
 10
2819.982335379022
 20
411.7458101684415
 30
0.0
 11
2816.482335379022
 21
411.7458101684415
 31
0.0
  0
LINE
  5
129
330
1F
100
AcDbEntity
  8
1
  6
DASHED
 62
     4
100
AcDbLine
 10
2842.982335379022
 20
451.7458101684415
 30
0.0
 11
2820.982335379022
 21
451.7458101684415
 31
0.0
  0
LINE
  5
12A
330
1F
100
AcDbEntity
  8
1
  6
DASH_CENTER
 62
     3
100
AcDbLine
 10
2831.982335379022
 20
451.7458101684415
 30
0.0
 11
2831.982335379022
 21
411.7458101684415
 31
0.0
  0
LINE
  5
12B
330
1F
100
AcDbEntity
  8
1
  6
DASHED
 62
     4
100
AcDbLine
 10
2843.982335379022
 20
411.7458101684415
 30
0.0
 11
2819.982335379022
 21
411.7458101684415
 31
0.0
  0
LINE
  5
12C
330
1F
100
AcDbEntity
  8
1
  6
DASHED
 62
     4
100
AcDbLine
 10
2814.482335379022
 20
413.7458101684415
 30
0.0
 11
2849.482335379022
 21
413.7458101684415
 31
0.0
  0
LINE
  5
12D
330
1F
100
AcDbEntity
  8
1
  6
DASHED
 62
     4
100
AcDbLine
 10
2849.482335379022
 20
449.7458101684415
 30
0.0
 11
2814.482335379022
 21
449.7458101684415
 31
0.0
  0
LINE
  5
12E
330
1F
100
AcDbEntity
  8
1
  6
DASHED
 62
     4
100
AcDbLine
 10
2849.482335379022
 20
439.3871873050616
 30
0.0
 11
2814.482335379022
 21
439.3871873050616
 31
0.0
  0
LINE
  5
12F
330
1F
100
AcDbEntity
  8
1
  6
DASHED
 62
     4
100
AcDbLine
 10
2817.482335379022
 20
436.6330093803017
 30
0.0
 11
2846.482335379022
 21
436.6330093803017
 31
0.0
  0
LINE
  5
130
330
1F
100
AcDbEntity
  8
1
  6
DASHED
 62
     4
100
AcDbLine
 10
2846.482335379022
 20
434.8586109565717
 30
0.0
 11
2817.482335379022
 21
434.8586109565717
 31
0.0
  0
LINE
  5
131
330
1F
100
AcDbEntity
  8
1
  6
DASHED
 62
     4
100
AcDbLine
 10
2814.482335379022
 20
432.1044330318118
 30
0.0
 11
2849.482335379022
 21
432.1044330318118
 31
0.0
  0
LINE
  5
132
330
1F
100
AcDbEntity
  8
1
  6
DASH_CENTER
 62
     3
100
AcDbLine
 10
2611.982335378986
 20
829.7134322327797
 30
0.0
 11
2611.982335378986
 21
791.2134322327797
 31
0.0
  0
LINE
  5
133
330
1F
100
AcDbEntity
  8
1
  6
DASH_CENTER
 62
     3
100
AcDbLine
 10
2592.732335378986
 20
810.4634322327797
 30
0.0
 11
2631.232335378986
 21
810.4634322327797
 31
0.0
  0
LINE
  5
134
330
1F
100
AcDbEntity
  8
1
  6
PHANTOM
 62
     4
100
AcDbLine
 10
2629.482335378985
 20
435.7458101684424
 30
0.0
 11
2594.482335378985
 21
435.7458101684424
 31
0.0
  0
LINE
  5
135
330
1F
100
AcDbEntity
  8
1
  6
DASHED
 62
     4
100
AcDbLine
 10
2599.982335378985
 20
411.7458101684424
 30
0.0
 11
2596.482335378985
 21
411.7458101684424
 31
0.0
  0
LINE
  5
136
330
1F
100
AcDbEntity
  8
1
  6
DASHED
 62
     4
100
AcDbLine
 10
2594.482335378985
 20
439.3871873050625
 30
0.0
 11
2594.482335378985
 21
449.7458101684424
 31
0.0
  0
LINE
  5
137
330
1F
100
AcDbEntity
  8
1
  6
DASHED
 62
     4
100
AcDbLine
 10
2596.936325878723
 20
437.5240159044924
 30
0.0
 11
2595.028344879245
 21
438.4961807808736
 31
0.0
  0
LINE
  5
138
330
1F
100
AcDbEntity
  8
1
  6
DASHED
 62
     4
100
AcDbLine
 10
2596.936325878723
 20
433.9676044323928
 30
0.0
 11
2595.028344879245
 21
432.9954395560135
 31
0.0
  0
LINE
  5
139
330
1F
100
AcDbEntity
  8
1
  6
DASHED
 62
     4
100
AcDbLine
 10
2597.482335378985
 20
436.6330093803126
 30
0.0
 11
2597.482335378985
 21
434.8586109565927
 31
0.0
  0
LINE
  5
13A
330
1F
100
AcDbEntity
  8
1
  6
DASHED
 62
     4
100
AcDbLine
 10
2596.482335378985
 20
451.7458101684424
 30
0.0
 11
2600.982335378985
 21
451.7458101684424
 31
0.0
  0
LINE
  5
13B
330
1F
100
AcDbEntity
  8
1
  6
DASHED
 62
     4
100
AcDbLine
 10
2594.482335378985
 20
413.7458101684424
 30
0.0
 11
2594.482335378985
 21
432.1044330318337
 31
0.0
  0
LINE
  5
13C
330
1F
100
AcDbEntity
  8
1
  6
DASHED
 62
     4
100
AcDbLine
 10
2629.482335378985
 20
432.1044330318337
 30
0.0
 11
2629.482335378985
 21
413.7458101684424
 31
0.0
  0
LINE
  5
13D
330
1F
100
AcDbEntity
  8
1
  6
DASHED
 62
     4
100
AcDbLine
 10
2622.982335378985
 20
451.7458101684424
 30
0.0
 11
2627.482335378985
 21
451.7458101684424
 31
0.0
  0
LINE
  5
13E
330
1F
100
AcDbEntity
  8
1
  6
DASHED
 62
     4
100
AcDbLine
 10
2626.482335378985
 20
434.8586109565927
 30
0.0
 11
2626.482335378985
 21
436.6330093803126
 31
0.0
  0
LINE
  5
13F
330
1F
100
AcDbEntity
  8
1
  6
DASHED
 62
     4
100
AcDbLine
 10
2628.936325878723
 20
432.9954395560135
 30
0.0
 11
2627.028344879245
 21
433.9676044323928
 31
0.0
  0
LINE
  5
140
330
1F
100
AcDbEntity
  8
1
  6
DASHED
 62
     4
100
AcDbLine
 10
2628.936325878723
 20
438.4961807808736
 30
0.0
 11
2627.028344879245
 21
437.5240159044924
 31
0.0
  0
LINE
  5
141
330
1F
100
AcDbEntity
  8
1
  6
DASHED
 62
     4
100
AcDbLine
 10
2629.482335378985
 20
449.7458101684424
 30
0.0
 11
2629.482335378985
 21
439.3871873050625
 31
0.0
  0
LINE
  5
142
330
1F
100
AcDbEntity
  8
1
  6
DASHED
 62
     4
100
AcDbLine
 10
2627.482335378985
 20
411.7458101684424
 30
0.0
 11
2623.982335378985
 21
411.7458101684424
 31
0.0
  0
LINE
  5
143
330
1F
100
AcDbEntity
  8
1
  6
DASHED
 62
     4
100
AcDbLine
 10
2622.982335378985
 20
451.7458101684424
 30
0.0
 11
2600.982335378985
 21
451.7458101684424
 31
0.0
  0
LINE
  5
144
330
1F
100
AcDbEntity
  8
1
  6
DASH_CENTER
 62
     3
100
AcDbLine
 10
2611.982335378985
 20
411.7458101684424
 30
0.0
 11
2611.982335378985
 21
451.7458101684424
 31
0.0
  0
LINE
  5
145
330
1F
100
AcDbEntity
  8
1
  6
DASHED
 62
     4
100
AcDbLine
 10
2623.982335378985
 20
411.7458101684424
 30
0.0
 11
2599.982335378985
 21
411.7458101684424
 31
0.0
  0
LINE
  5
146
330
1F
100
AcDbEntity
  8
1
  6
DASHED
 62
     4
100
AcDbLine
 10
2594.482335378985
 20
413.7458101684424
 30
0.0
 11
2629.482335378985
 21
413.7458101684424
 31
0.0
  0
LINE
  5
147
330
1F
100
AcDbEntity
  8
1
  6
DASHED
 62
     4
100
AcDbLine
 10
2629.482335378985
 20
449.7458101684424
 30
0.0
 11
2594.482335378985
 21
449.7458101684424
 31
0.0
  0
LINE
  5
148
330
1F
100
AcDbEntity
  8
1
  6
DASHED
 62
     4
100
AcDbLine
 10
2629.482335378985
 20
439.3871873050625
 30
0.0
 11
2594.482335378985
 21
439.3871873050625
 31
0.0
  0
LINE
  5
149
330
1F
100
AcDbEntity
  8
1
  6
DASHED
 62
     4
100
AcDbLine
 10
2597.482335378985
 20
436.6330093803126
 30
0.0
 11
2626.482335378985
 21
436.6330093803126
 31
0.0
  0
LINE
  5
14A
330
1F
100
AcDbEntity
  8
1
  6
DASHED
 62
     4
100
AcDbLine
 10
2626.482335378985
 20
434.8586109565836
 30
0.0
 11
2597.482335378985
 21
434.8586109565836
 31
0.0
  0
LINE
  5
14B
330
1F
100
AcDbEntity
  8
1
  6
DASHED
 62
     4
100
AcDbLine
 10
2594.482335378985
 20
432.1044330318237
 30
0.0
 11
2629.482335378985
 21
432.1044330318237
 31
0.0
  0
LINE
  5
14C
330
1F
100
AcDbEntity
  8
1
  6
DASH_CENTER
 62
     3
100
AcDbLine
 10
2611.982335378985
 20
407.9054622304006
 30
0.0
 11
2611.982335378985
 21
411.7458101684424
 31
0.0
  0
LINE
  5
14D
330
1F
100
AcDbEntity
  8
1
  6
DASH_CENTER
 62
     3
100
AcDbLine
 10
2611.982335378985
 20
480.5458101684426
 30
0.0
 11
2611.982335378985
 21
451.7458101684424
 31
0.0
  0
LINE
  5
14E
330
1F
100
AcDbEntity
  8
1
  6
Continuous
 62
     7
100
AcDbLine
 10
2597.482335378986
 20
794.4634322327697
 30
0.0
 11
2612.482335378986
 21
794.4634322327697
 31
0.0
  0
LINE
  5
14F
330
1F
100
AcDbEntity
  8
1
  6
Continuous
 62
     7
100
AcDbLine
 10
2817.182335379024
 20
453.7458101684415
 30
0.0
 11
2815.982335379023
 21
453.7458101684415
 31
0.0
  0
LINE
  5
150
330
1F
100
AcDbEntity
  8
1
  6
Continuous
 62
     7
100
AcDbLine
 10
2847.482335379029
 20
451.7458101684415
 30
0.0
 11
2847.482335379029
 21
415.7458101684415
 31
0.0
  0
LINE
  5
151
330
1F
100
AcDbEntity
  8
1
  6
Continuous
 62
     7
100
AcDbLine
 10
2884.282335379032
 20
413.7458101684415
 30
0.0
 11
2885.482335379029
 21
413.7458101684415
 31
0.0
  0
LINE
  5
152
330
1F
100
AcDbEntity
  8
1
  6
Continuous
 62
     7
100
AcDbLine
 10
2815.982335379023
 20
475.5458101684426
 30
0.0
 11
2815.982335379023
 21
453.7458101684415
 31
0.0
  0
LINE
  5
153
330
1F
100
AcDbEntity
  8
1
  6
Continuous
 62
     7
100
AcDbLine
 10
2817.182335379024
 20
476.7458101684415
 30
0.0
 11
2884.282335379032
 21
476.7458101684415
 31
0.0
  0
LINE
  5
154
330
1F
100
AcDbEntity
  8
1
  6
Continuous
 62
     7
100
AcDbLine
 10
2885.482335379029
 20
475.5458101684426
 30
0.0
 11
2885.482335379029
 21
413.7458101684415
 31
0.0
  0
LINE
  5
155
330
1F
100
AcDbEntity
  8
1
  6
Continuous
 62
     7
100
AcDbLine
 10
2849.482335379029
 20
413.7458101684415
 30
0.0
 11
2884.282335379032
 21
413.7458101684415
 31
0.0
  0
LINE
  5
156
330
1F
100
AcDbEntity
  8
1
  6
Continuous
 62
     7
100
AcDbLine
 10
2845.482335379029
 20
453.7458101684415
 30
0.0
 11
2817.182335379024
 21
453.7458101684415
 31
0.0
  0
LINE
  5
157
330
1F
100
AcDbEntity
  8
1
  6
DASH_CENTER
 62
     3
100
AcDbLine
 10
2535.982335378996
 20
486.0491616245936
 30
0.0
 11
2535.982335378996
 21
469.6063546233636
 31
0.0
  0
LINE
  5
158
330
1F
100
AcDbEntity
  8
1
  6
Continuous
 62
     7
100
AcDbLine
 10
1719.482335378986
 20
794.4634322327697
 30
0.0
 11
1809.482335378986
 21
794.4634322327697
 31
0.0
  0
LINE
  5
159
330
1F
100
AcDbEntity
  8
1
  6
Continuous
 62
     7
100
AcDbLine
 10
1809.482335378986
 20
794.4634322327697
 30
0.0
 11
1809.482335378986
 21
800.4634322327697
 31
0.0
  0
LINE
  5
15A
330
1F
100
AcDbEntity
  8
1
  6
Continuous
 62
     7
100
AcDbLine
 10
2518.482335379006
 20
800.4634322327688
 30
0.0
 11
2519.482335378986
 21
800.4634322327697
 31
0.0
  0
LINE
  5
15B
330
1F
100
AcDbEntity
  8
1
  6
Continuous
 62
     7
100
AcDbLine
 10
2519.482335378986
 20
800.4634322327697
 30
0.0
 11
2519.482335378986
 21
794.4634322327697
 31
0.0
  0
LINE
  5
15C
330
1F
100
AcDbEntity
  8
1
  6
Continuous
 62
     7
100
AcDbLine
 10
2519.482335378986
 20
476.7458101684424
 30
0.0
 11
2519.482335378986
 21
463.7458101684424
 31
0.0
  0
LINE
  5
15D
330
1F
100
AcDbEntity
  8
1
  6
Continuous
 62
     7
100
AcDbLine
 10
1809.482335378986
 20
476.7458101684424
 30
0.0
 11
1809.482335378986
 21
463.7458101684424
 31
0.0
  0
LINE
  5
15E
330
1F
100
AcDbEntity
  8
1
  6
Continuous
 62
     7
100
AcDbLine
 10
2518.482335379006
 20
476.7458101684415
 30
0.0
 11
2519.482335378986
 21
476.7458101684424
 31
0.0
  0
LINE
  5
15F
330
1F
100
AcDbEntity
  8
1
  6
Continuous
 62
     7
100
AcDbLine
 10
2519.482335378986
 20
463.7458101684424
 30
0.0
 11
2519.482335378986
 21
455.7458101684424
 31
0.0
  0
LINE
  5
160
330
1F
100
AcDbEntity
  8
1
  6
Continuous
 62
     7
100
AcDbLine
 10
1720.682335378984
 20
476.7458101684424
 30
0.0
 11
1809.482335378986
 21
476.7458101684424
 31
0.0
  0
LINE
  5
161
330
1F
100
AcDbEntity
  8
1
  6
Continuous
 62
     7
100
AcDbLine
 10
1721.482335378986
 20
453.7458101684424
 30
0.0
 11
1807.482335378975
 21
453.7458101684424
 31
0.0
  0
LINE
  5
162
330
1F
100
AcDbEntity
  8
1
  6
Continuous
 62
     7
100
AcDbLine
 10
1809.482335378986
 20
463.7458101684424
 30
0.0
 11
1809.482335378975
 21
455.7458101684424
 31
0.0
  0
LINE
  5
163
330
1F
100
AcDbEntity
  8
1
  6
Continuous
 62
     7
100
AcDbLine
 10
2519.482335378986
 20
476.7458101684424
 30
0.0
 11
2626.282335378986
 21
476.7458101684424
 31
0.0
  0
LINE
  5
164
330
1F
100
AcDbEntity
  8
1
  6
Continuous
 62
     7
100
AcDbLine
 10
1719.482335378986
 20
828.7993081862996
 30
0.0
 11
1719.482335378986
 21
819.4387677532895
 31
0.0
  0
LINE
  5
165
330
1F
100
AcDbEntity
  8
1
  6
Continuous
 62
     7
100
AcDbLine
 10
1719.482335378986
 20
863.9634322327797
 30
0.0
 11
1719.482335378986
 21
828.7993081862996
 31
0.0
  0
LINE
  5
166
330
1F
100
AcDbEntity
  8
1
  6
Continuous
 62
     7
100
AcDbLine
 10
2627.482335378986
 20
809.4634322327697
 30
0.0
 11
2627.482335378986
 21
825.9634322327797
 31
0.0
  0
LINE
  5
167
330
1F
100
AcDbEntity
  8
1
  6
Continuous
 62
     7
100
AcDbLine
 10
1719.482335378986
 20
819.4387677532895
 30
0.0
 11
1719.482335378986
 21
794.4634322327697
 31
0.0
  0
LINE
  5
168
330
1F
100
AcDbEntity
  8
1
  6
Continuous
 62
     7
100
AcDbLine
 10
2627.482335378986
 20
825.9634322327797
 30
0.0
 11
2627.482335378986
 21
848.9634322327797
 31
0.0
  0
LINE
  5
169
330
1F
100
AcDbEntity
  8
1
  6
Continuous
 62
     7
100
AcDbLine
 10
2597.482335378986
 20
863.9634322327797
 30
0.0
 11
1719.482335378986
 21
863.9634322327797
 31
0.0
  0
LINE
  5
16A
330
1F
100
AcDbEntity
  8
1
  6
Continuous
 62
     7
100
AcDbLine
 10
2597.482335378986
 20
453.7458101684424
 30
0.0
 11
2627.482335378986
 21
453.7458101684424
 31
0.0
  0
LINE
  5
16B
330
1F
100
AcDbEntity
  8
1
  6
Continuous
 62
     7
100
AcDbLine
 10
1719.482335378986
 20
459.7458101684424
 30
0.0
 11
1719.482335378986
 21
455.7458101684424
 31
0.0
  0
LINE
  5
16C
330
1F
100
AcDbEntity
  8
1
  6
Continuous
 62
     7
100
AcDbLine
 10
1719.482335378986
 20
459.7458101684424
 30
0.0
 11
1719.482335378986
 21
475.5458101684426
 31
0.0
  0
LINE
  5
16D
330
1F
100
AcDbEntity
  8
1
  6
Continuous
 62
     7
100
AcDbLine
 10
2626.282335378986
 20
453.7458101684424
 30
0.0
 11
2626.282335378986
 21
451.7458101684424
 31
0.0
  0
LINE
  5
16E
330
1F
100
AcDbEntity
  8
1
  6
Continuous
 62
     7
100
AcDbLine
 10
2521.482335378986
 20
453.7458101684424
 30
0.0
 11
2597.482335378986
 21
453.7458101684424
 31
0.0
  0
LINE
  5
16F
330
1F
100
AcDbEntity
  8
1
  6
Continuous
 62
     7
100
AcDbLine
 10
2612.482335378986
 20
863.9634322327797
 30
0.0
 11
2597.482335378986
 21
863.9634322327797
 31
0.0
  0
LINE
  5
170
330
1F
100
AcDbEntity
  8
1
  6
Continuous
 62
     7
100
AcDbLine
 10
2519.482335378986
 20
794.4634322327697
 30
0.0
 11
2597.482335378986
 21
794.4634322327697
 31
0.0
  0
LINE
  5
171
330
1F
100
AcDbEntity
  8
1
  6
Continuous
 62
     7
100
AcDbLine
 10
2627.482335378986
 20
475.5458101684426
 30
0.0
 11
2627.482335378985
 21
451.7458101684424
 31
0.0
  0
LINE
  5
172
330
1F
100
AcDbEntity
  8
1
  6
Continuous
 62
     7
100
AcDbLine
 10
1848.482335379046
 20
476.7458101684415
 30
0.0
 11
2480.482335379005
 21
476.7458101684406
 31
0.0
  0
LINE
  5
173
330
1F
100
AcDbEntity
  8
1
  6
Continuous
 62
     7
100
AcDbLine
 10
1848.482335379046
 20
800.4634322327688
 30
0.0
 11
2480.482335379006
 21
800.4634322327675
 31
0.0
  0
LINE
  5
174
330
1F
100
AcDbEntity
  8
1
  6
Continuous
 62
     7
100
AcDbLine
 10
1809.482335378986
 20
476.7458101684424
 30
0.0
 11
1810.482335379046
 21
476.7458101684415
 31
0.0
  0
LINE
  5
175
330
1F
100
AcDbEntity
  8
1
  6
Continuous
 62
     7
100
AcDbLine
 10
2480.482335379005
 20
461.7458101684415
 30
0.0
 11
1848.482335379046
 21
461.7458101684415
 31
0.0
  0
LINE
  5
176
330
1F
100
AcDbEntity
  8
1
  6
Continuous
 62
     7
100
AcDbLine
 10
1809.482335378986
 20
800.4634322327697
 30
0.0
 11
1810.482335379046
 21
800.4634322327688
 31
0.0
  0
LINE
  5
177
330
1F
100
AcDbEntity
  8
1
  6
Continuous
 62
     7
100
AcDbLine
 10
2820.482335379023
 20
527.7458101684415
 30
0.0
 11
2820.482335379023
 21
476.7458101684424
 31
0.0
  0
LINE
  5
178
330
1F
100
AcDbEntity
  8
1
  6
Continuous
 62
     7
100
AcDbLine
 10
2851.482335379023
 20
527.7458101684415
 30
0.0
 11
2820.482335379023
 21
527.7458101684415
 31
0.0
  0
LINE
  5
179
330
1F
100
AcDbEntity
  8
1
  6
Continuous
 62
     7
100
AcDbLine
 10
2816.482335379023
 20
476.5204896029227
 30
0.0
 11
2816.482335379023
 21
527.7458101684415
 31
0.0
  0
LINE
  5
17A
330
1F
100
AcDbEntity
  8
1
  6
Continuous
 62
     7
100
AcDbLine
 10
2820.482335379023
 20
531.7458101684415
 30
0.0
 11
2851.482335379023
 21
531.7458101684415
 31
0.0
  0
LINE
  5
17B
330
1F
100
AcDbEntity
  8
1
  6
Continuous
 62
     7
100
AcDbLine
 10
2851.482335379023
 20
531.7458101684415
 30
0.0
 11
2851.482335379023
 21
527.7458101684415
 31
0.0
  0
LINE
  5
17C
330
1F
100
AcDbEntity
  8
1
  6
DASH_CENTER
 62
     3
100
AcDbLine
 10
2836.482335379023
 20
523.5061146148914
 30
0.0
 11
2836.482335379023
 21
536.0869708129108
 31
0.0
  0
LINE
  5
17D
330
1F
100
AcDbEntity
  8
1
  6
DASH_CENTER
 62
     3
100
AcDbLine
 10
1824.232335379046
 20
814.9634322327797
 30
0.0
 11
1834.732335379046
 21
814.9634322327797
 31
0.0
  0
LINE
  5
17E
330
1F
100
AcDbEntity
  8
1
  6
Continuous
 62
     7
100
AcDbLine
 10
1810.482335379046
 20
794.9634322327797
 30
0.0
 11
1810.482335379046
 21
827.9634322327797
 31
0.0
  0
LINE
  5
17F
330
1F
100
AcDbEntity
  8
1
  6
Continuous
 62
     7
100
AcDbLine
 10
1812.482335379046
 20
829.9634322327797
 30
0.0
 11
1846.482335379046
 21
829.9634322327797
 31
0.0
  0
LINE
  5
180
330
1F
100
AcDbEntity
  8
1
  6
Continuous
 62
     7
100
AcDbLine
 10
1848.482335379046
 20
827.9634322327797
 30
0.0
 11
1848.482335379046
 21
794.9634322327797
 31
0.0
  0
LINE
  5
181
330
1F
100
AcDbEntity
  8
1
  6
Continuous
 62
     7
100
AcDbLine
 10
1848.482335379046
 20
794.9634322327797
 30
0.0
 11
1810.482335379046
 21
794.9634322327797
 31
0.0
  0
LINE
  5
182
330
1F
100
AcDbEntity
  8
1
  6
DASH_CENTER
 62
     3
100
AcDbLine
 10
1829.482335379046
 20
820.2134322327797
 30
0.0
 11
1829.482335379046
 21
809.7134322327797
 31
0.0
  0
LINE
  5
183
330
1F
100
AcDbEntity
  8
1
  6
DASH_CENTER
 62
     3
100
AcDbLine
 10
2499.482335379006
 20
820.2134322327797
 30
0.0
 11
2499.482335379006
 21
809.7134322327797
 31
0.0
  0
LINE
  5
184
330
1F
100
AcDbEntity
  8
1
  6
Continuous
 62
     7
100
AcDbLine
 10
2518.482335379006
 20
794.9634322327797
 30
0.0
 11
2480.482335379006
 21
794.9634322327797
 31
0.0
  0
LINE
  5
185
330
1F
100
AcDbEntity
  8
1
  6
Continuous
 62
     7
100
AcDbLine
 10
2518.482335379006
 20
827.9634322327797
 30
0.0
 11
2518.482335379006
 21
794.9634322327797
 31
0.0
  0
LINE
  5
186
330
1F
100
AcDbEntity
  8
1
  6
Continuous
 62
     7
100
AcDbLine
 10
2482.482335379006
 20
829.9634322327797
 30
0.0
 11
2516.482335379006
 21
829.9634322327797
 31
0.0
  0
LINE
  5
187
330
1F
100
AcDbEntity
  8
1
  6
Continuous
 62
     7
100
AcDbLine
 10
2480.482335379006
 20
794.9634322327797
 30
0.0
 11
2480.482335379006
 21
827.9634322327797
 31
0.0
  0
LINE
  5
188
330
1F
100
AcDbEntity
  8
1
  6
DASH_CENTER
 62
     3
100
AcDbLine
 10
2494.232335379006
 20
814.9634322327797
 30
0.0
 11
2504.732335379006
 21
814.9634322327797
 31
0.0
  0
LINE
  5
189
330
1F
100
AcDbEntity
  8
1
  6
Continuous
 62
     7
100
AcDbLine
 10
2480.482335379006
 20
453.7458101684424
 30
0.0
 11
2480.482335379006
 21
531.7458101684415
 31
0.0
  0
LINE
  5
18A
330
1F
100
AcDbEntity
  8
1
  6
Continuous
 62
     7
100
AcDbLine
 10
2480.482335379006
 20
531.7458101684415
 30
0.0
 11
2518.482335379006
 21
531.7458101684415
 31
0.0
  0
LINE
  5
18B
330
1F
100
AcDbEntity
  8
1
  6
Continuous
 62
     7
100
AcDbLine
 10
2518.482335379006
 20
456.7458101684306
 30
0.0
 11
2480.482335379006
 21
456.7458101684306
 31
0.0
  0
LINE
  5
18C
330
1F
100
AcDbEntity
  8
1
  6
DASH_CENTER
 62
     3
100
AcDbLine
 10
2499.482335379006
 20
523.5061146148905
 30
0.0
 11
2499.482335379006
 21
535.3282041080215
 31
0.0
  0
LINE
  5
18D
330
1F
100
AcDbEntity
  8
1
  6
DASH_CENTER
 62
     3
100
AcDbLine
 10
1829.482335379046
 20
523.5061146148905
 30
0.0
 11
1829.482335379046
 21
535.3282041080215
 31
0.0
  0
LINE
  5
18E
330
1F
100
AcDbEntity
  8
1
  6
Continuous
 62
     7
100
AcDbLine
 10
1848.482335379046
 20
456.7458101684306
 30
0.0
 11
1810.482335379046
 21
456.7458101684306
 31
0.0
  0
LINE
  5
18F
330
1F
100
AcDbEntity
  8
1
  6
Continuous
 62
     7
100
AcDbLine
 10
1810.482335379046
 20
531.7458101684415
 30
0.0
 11
1848.482335379046
 21
531.7458101684415
 31
0.0
  0
LINE
  5
190
330
1F
100
AcDbEntity
  8
1
  6
Continuous
 62
     7
100
AcDbLine
 10
1810.482335379046
 20
453.7458101684424
 30
0.0
 11
1810.482335379046
 21
531.7458101684415
 31
0.0
  0
LINE
  5
191
330
1F
100
AcDbEntity
  8
1
  6
Continuous
 62
     7
100
AcDbLine
 10
1848.482335379046
 20
531.7458101684415
 30
0.0
 11
1848.482335379046
 21
453.7458101684424
 31
0.0
  0
LINE
  5
192
330
1F
100
AcDbEntity
  8
1
  6
Continuous
 62
     7
100
AcDbLine
 10
2518.482335379006
 20
531.7458101684415
 30
0.0
 11
2518.482335379006
 21
453.7458101684424
 31
0.0
  0
LINE
  5
193
330
1F
100
AcDbEntity
  8
1
  6
PHANTOM
 62
     3
100
AcDbLine
 10
2124.304786184031
 20
93.23087409324353
 30
0.0
 11
2148.404786184013
 21
93.23087409324353
 31
0.0
  0
LINE
  5
194
330
1F
100
AcDbEntity
  8
1
  6
Continuous
 62
     3
100
AcDbLine
 10
2087.504786184019
 20
93.23087409324353
 30
0.0
 11
2087.504786184019
 21
133.2308740932435
 31
0.0
  0
LINE
  5
195
330
1F
100
AcDbEntity
  8
1
  6
Continuous
 62
     3
100
AcDbLine
 10
2088.404786184021
 20
133.2308740932435
 30
0.0
 11
2088.404786184021
 21
93.23087409324353
 31
0.0
  0
LINE
  5
196
330
1F
100
AcDbEntity
  8
0
  6
Continuous
 62
     3
100
AcDbLine
 10
2091.404786184021
 20
116.2308740932435
 30
0.0
 11
2091.404786184021
 21
117.2308740932435
 31
0.0
  0
LINE
  5
197
330
1F
100
AcDbEntity
  8
0
  6
Continuous
 62
     3
100
AcDbLine
 10
2091.404786184021
 20
117.2308740932435
 30
0.0
 11
2091.404786184021
 21
118.2308740932435
 31
0.0
  0
LINE
  5
198
330
1F
100
AcDbEntity
  8
0
  6
Continuous
 62
     3
100
AcDbLine
 10
2091.404786184021
 20
118.2308740932435
 30
0.0
 11
2088.404786184021
 21
119.7308740932435
 31
0.0
  0
LINE
  5
199
330
1F
100
AcDbEntity
  8
0
  6
Continuous
 62
     3
100
AcDbLine
 10
2091.404786184021
 20
116.2308740932435
 30
0.0
 11
2088.404786184021
 21
114.7308740932435
 31
0.0
  0
LINE
  5
19A
330
1F
100
AcDbEntity
  8
1
  6
Continuous
 62
     3
100
AcDbLine
 10
2088.404786184021
 20
93.23087409324353
 30
0.0
 11
2087.504786184019
 21
93.23087409324353
 31
0.0
  0
LINE
  5
19B
330
1F
100
AcDbEntity
  8
1
  6
Continuous
 62
     3
100
AcDbLine
 10
2149.304786184021
 20
95.23087409324353
 30
0.0
 11
2149.304786184021
 21
93.23087409324353
 31
0.0
  0
LINE
  5
19C
330
1F
100
AcDbEntity
  8
1
  6
Continuous
 62
     3
100
AcDbLine
 10
2148.404786184013
 20
93.23087409324353
 30
0.0
 11
2148.404786184013
 21
133.2308740932435
 31
0.0
  0
LINE
  5
19D
330
1F
100
AcDbEntity
  8
0
  6
Continuous
 62
     3
100
AcDbLine
 10
2145.404786184013
 20
117.2308740932435
 30
0.0
 11
2145.404786184013
 21
116.2308740932435
 31
0.0
  0
LINE
  5
19E
330
1F
100
AcDbEntity
  8
0
  6
Continuous
 62
     3
100
AcDbLine
 10
2145.404786184013
 20
118.2308740932435
 30
0.0
 11
2145.404786184013
 21
117.2308740932435
 31
0.0
  0
LINE
  5
19F
330
1F
100
AcDbEntity
  8
0
  6
Continuous
 62
     3
100
AcDbLine
 10
2148.404786184013
 20
119.7308740932435
 30
0.0
 11
2145.404786184013
 21
118.2308740932435
 31
0.0
  0
LINE
  5
1A0
330
1F
100
AcDbEntity
  8
0
  6
Continuous
 62
     3
100
AcDbLine
 10
2148.404786184022
 20
114.7308740932435
 30
0.0
 11
2145.404786184013
 21
116.2308740932435
 31
0.0
  0
LINE
  5
1A1
330
1F
100
AcDbEntity
  8
1
  6
Continuous
 62
     3
100
AcDbLine
 10
2148.404786184013
 20
93.23087409324353
 30
0.0
 11
2149.304786184021
 21
93.23087409324353
 31
0.0
  0
LINE
  5
1A2
330
1F
100
AcDbEntity
  8
1
  6
PHANTOM
 62
     3
100
AcDbLine
 10
2088.404786184021
 20
133.2308740932435
 30
0.0
 11
2122.317286593086
 21
133.2308740932435
 31
0.0
  0
LINE
  5
1A3
330
1F
100
AcDbEntity
  8
1
  6
PHANTOM
 62
     3
100
AcDbLine
 10
2123.404786184022
 20
133.2308740932435
 30
0.0
 11
2122.317286593086
 21
133.2308740932435
 31
0.0
  0
LINE
  5
1A4
330
1F
100
AcDbEntity
  8
1
  6
Continuous
 62
     3
100
AcDbLine
 10
2149.304786184021
 20
133.2308740932435
 30
0.0
 11
2149.304786184021
 21
95.23087409324353
 31
0.0
  0
LINE
  5
1A5
330
1F
100
AcDbEntity
  8
1
  6
PHANTOM
 62
     3
100
AcDbLine
 10
2124.304786184031
 20
93.23087409324353
 30
0.0
 11
2123.404786184022
 21
93.23087409324353
 31
0.0
  0
LINE
  5
1A6
330
1F
100
AcDbEntity
  8
1
  6
PHANTOM
 62
     3
100
AcDbLine
 10
2123.404786184022
 20
93.23087409324353
 30
0.0
 11
2088.404786184021
 21
93.23087409324353
 31
0.0
  0
LINE
  5
1A7
330
1F
100
AcDbEntity
  8
1
  6
Continuous
 62
     3
100
AcDbLine
 10
2087.504786184019
 20
133.2308740932435
 30
0.0
 11
2088.404786184021
 21
133.2308740932435
 31
0.0
  0
LINE
  5
1A8
330
1F
100
AcDbEntity
  8
1
  6
PHANTOM
 62
     3
100
AcDbLine
 10
2124.304786184031
 20
133.2308740932435
 30
0.0
 11
2123.404786184022
 21
133.2308740932435
 31
0.0
  0
LINE
  5
1A9
330
1F
100
AcDbEntity
  8
1
  6
PHANTOM
 62
     3
100
AcDbLine
 10
2149.304786184021
 20
133.2308740932435
 30
0.0
 11
2124.304786184031
 21
133.2308740932435
 31
0.0
  0
LINE
  5
1AA
330
1F
100
AcDbEntity
  8
1
  6
Continuous
 62
     7
100
AcDbLine
 10
2120.0746591651
 20
165.3308740932434
 30
0.0
 11
2128.734913202939
 21
165.3308740932434
 31
0.0
  0
LINE
  5
1AB
330
1F
100
AcDbEntity
  8
1
  6
Continuous
 62
     7
100
AcDbLine
 10
2127.291537529972
 20
164.8842921058536
 30
0.0
 11
2127.291537529972
 21
161.3308740932434
 31
0.0
  0
LINE
  5
1AC
330
1F
100
AcDbEntity
  8
1
  6
Continuous
 62
     7
100
AcDbLine
 10
2121.518034838071
 20
164.8842921058536
 30
0.0
 11
2121.518034838071
 21
161.3308740932434
 31
0.0
  0
LINE
  5
1AD
330
1F
100
AcDbEntity
  8
1
  6
Continuous
 62
     7
100
AcDbLine
 10
2130.17828887591
 20
164.8842921058536
 30
0.0
 11
2130.17828887591
 21
161.3308740932434
 31
0.0
  0
LINE
  5
1AE
330
1F
100
AcDbEntity
  8
1
  6
Continuous
 62
     7
100
AcDbLine
 10
2118.631283492121
 20
161.3308740932434
 30
0.0
 11
2118.631283492121
 21
164.8842921058536
 31
0.0
  0
LINE
  5
1AF
330
1F
100
AcDbEntity
  8
1
  6
Continuous
 62
     7
100
AcDbLine
 10
2118.304786184021
 20
159.8308740932434
 30
0.0
 11
2118.304786184021
 21
161.3308740932434
 31
0.0
  0
LINE
  5
1B0
330
1F
100
AcDbEntity
  8
1
  6
Continuous
 62
     7
100
AcDbLine
 10
2118.304786184021
 20
161.3308740932434
 30
0.0
 11
2130.504786184019
 21
161.3308740932434
 31
0.0
  0
LINE
  5
1B1
330
1F
100
AcDbEntity
  8
1
  6
Continuous
 62
     7
100
AcDbLine
 10
2130.504786184019
 20
161.3308740932434
 30
0.0
 11
2130.504786184019
 21
159.8308740932434
 31
0.0
  0
LINE
  5
1B2
330
1F
100
AcDbEntity
  8
1
  6
Continuous
 62
     7
100
AcDbLine
 10
2118.154786184021
 20
158.2308740932435
 30
0.0
 11
2118.154786184021
 21
159.8308740932434
 31
0.0
  0
LINE
  5
1B3
330
1F
100
AcDbEntity
  8
1
  6
Continuous
 62
     7
100
AcDbLine
 10
2118.154786184021
 20
159.8308740932434
 30
0.0
 11
2130.654786184021
 21
159.8308740932434
 31
0.0
  0
LINE
  5
1B4
330
1F
100
AcDbEntity
  8
1
  6
Continuous
 62
     7
100
AcDbLine
 10
2130.654786184021
 20
159.8308740932434
 30
0.0
 11
2130.654786184021
 21
158.2308740932435
 31
0.0
  0
LINE
  5
1B5
330
1F
100
AcDbEntity
  8
1
  6
Continuous
 62
     7
100
AcDbLine
 10
2130.654786184021
 20
158.2308740932435
 30
0.0
 11
2118.154786184021
 21
158.2308740932435
 31
0.0
  0
LINE
  5
1B6
330
1F
100
AcDbEntity
  8
1
  6
DASH_CENTER
 62
     3
100
AcDbLine
 10
2110.404786184021
 20
204.9911785396935
 30
0.0
 11
2110.404786184021
 21
217.5720347377146
 31
0.0
  0
LINE
  5
1B7
330
1F
100
AcDbEntity
  8
1
  6
Continuous
 62
     7
100
AcDbLine
 10
2125.404786184021
 20
213.2308740932435
 30
0.0
 11
2125.404786184021
 21
209.2308740932435
 31
0.0
  0
LINE
  5
1B8
330
1F
100
AcDbEntity
  8
1
  6
Continuous
 62
     7
100
AcDbLine
 10
2094.404786184021
 20
213.2308740932435
 30
0.0
 11
2125.404786184021
 21
213.2308740932435
 31
0.0
  0
LINE
  5
1B9
330
1F
100
AcDbEntity
  8
1
  6
Continuous
 62
     7
100
AcDbLine
 10
2090.404786184021
 20
142.2308740932435
 30
0.0
 11
2090.404786184021
 21
209.2308740932435
 31
0.0
  0
LINE
  5
1BA
330
1F
100
AcDbEntity
  8
1
  6
Continuous
 62
     7
100
AcDbLine
 10
2109.404786184021
 20
138.2308740932435
 30
0.0
 11
2094.404786184021
 21
138.2308740932435
 31
0.0
  0
LINE
  5
1BB
330
1F
100
AcDbEntity
  8
1
  6
Continuous
 62
     7
100
AcDbLine
 10
2109.404786184021
 20
138.2308740932435
 30
0.0
 11
2109.404786184021
 21
93.23087409324353
 31
0.0
  0
LINE
  5
1BC
330
1F
100
AcDbEntity
  8
1
  6
Continuous
 62
     7
100
AcDbLine
 10
2113.404786184021
 20
93.23087409324353
 30
0.0
 11
2109.404786184021
 21
93.23087409324353
 31
0.0
  0
LINE
  5
1BD
330
1F
100
AcDbEntity
  8
1
  6
Continuous
 62
     7
100
AcDbLine
 10
2113.404786184021
 20
138.2308740932335
 30
0.0
 11
2113.404786184021
 21
93.23087409324353
 31
0.0
  0
LINE
  5
1BE
330
1F
100
AcDbEntity
  8
1
  6
Continuous
 62
     7
100
AcDbLine
 10
2094.404786184021
 20
142.2308740932435
 30
0.0
 11
2109.404786184021
 21
142.2308740932335
 31
0.0
  0
LINE
  5
1BF
330
1F
100
AcDbEntity
  8
1
  6
Continuous
 62
     7
100
AcDbLine
 10
2094.404786184021
 20
209.2308740932435
 30
0.0
 11
2094.404786184021
 21
142.2308740932435
 31
0.0
  0
LINE
  5
1C0
330
1F
100
AcDbEntity
  8
1
  6
Continuous
 62
     7
100
AcDbLine
 10
2125.404786184021
 20
209.2308740932435
 30
0.0
 11
2094.404786184021
 21
209.2308740932435
 31
0.0
  0
LINE
  5
1C1
330
1F
100
AcDbEntity
  8
1
  6
Continuous
 62
     7
100
AcDbLine
 10
2091.104786184023
 20
135.2308740932435
 30
0.0
 11
2091.104786184023
 21
139.9703431821536
 31
0.0
  0
LINE
  5
1C2
330
1F
100
AcDbEntity
  8
1
  6
Continuous
 62
     7
100
AcDbLine
 10
2095.904786184018
 20
157.0308740932455
 30
0.0
 11
2094.404786184021
 21
157.0308740932455
 31
0.0
  0
LINE
  5
1C3
330
1F
100
AcDbEntity
  8
1
  6
PHANTOM
 62
     4
100
AcDbLine
 10
2159.404786184025
 20
157.0308740932455
 30
0.0
 11
2158.204786184028
 21
157.0308740932455
 31
0.0
  0
LINE
  5
1C4
330
1F
100
AcDbEntity
  8
1
  6
Continuous
 62
     7
100
AcDbLine
 10
2094.404786184021
 20
158.2308740932444
 30
0.0
 11
2097.104786184021
 21
158.2308740932435
 31
0.0
  0
LINE
  5
1C5
330
1F
100
AcDbEntity
  8
1
  6
Continuous
 62
     7
100
AcDbLine
 10
2158.204786184028
 20
157.0308740932455
 30
0.0
 11
2097.104786184021
 21
157.0308740932455
 31
0.0
  0
LINE
  5
1C6
330
1F
100
AcDbEntity
  8
1
  6
Continuous
 62
     7
100
AcDbLine
 10
2159.404786184025
 20
95.23087409324353
 30
0.0
 11
2158.204786184028
 21
95.23087409324353
 31
0.0
  0
LINE
  5
1C7
330
1F
100
AcDbEntity
  8
1
  6
Continuous
 62
     7
100
AcDbLine
 10
2097.104786184021
 20
157.0308740932455
 30
0.0
 11
2097.104786184021
 21
143.2308740932435
 31
0.0
  0
LINE
  5
1C8
330
1F
100
AcDbEntity
  8
1
  6
Continuous
 62
     7
100
AcDbLine
 10
2097.104786184021
 20
143.2308740932435
 30
0.0
 11
2095.904786184018
 21
143.2308740932435
 31
0.0
  0
LINE
  5
1C9
330
1F
100
AcDbEntity
  8
1
  6
Continuous
 62
     7
100
AcDbLine
 10
2095.904786184018
 20
143.2308740932435
 30
0.0
 11
2095.904786184018
 21
157.0308740932455
 31
0.0
  0
LINE
  5
1CA
330
1F
100
AcDbEntity
  8
1
  6
Continuous
 62
     7
100
AcDbLine
 10
2091.104786184023
 20
135.2308740932435
 30
0.0
 11
2089.904786184021
 21
135.2308740932435
 31
0.0
  0
LINE
  5
1CB
330
1F
100
AcDbEntity
  8
1
  6
Continuous
 62
     7
100
AcDbLine
 10
2158.204786184028
 20
95.23087409324353
 30
0.0
 11
2158.204786184028
 21
157.0308740932455
 31
0.0
  0
LINE
  5
1CC
330
1F
100
AcDbEntity
  8
1
  6
Continuous
 62
     7
100
AcDbLine
 10
2089.904786184021
 20
157.0308740932455
 30
0.0
 11
2089.904786184021
 21
135.2308740932435
 31
0.0
  0
LINE
  5
1CD
330
1F
100
AcDbEntity
  8
1
  6
Continuous
 62
     7
100
AcDbLine
 10
2097.104786184021
 20
158.2308740932435
 30
0.0
 11
2158.204786184028
 21
158.2308740932435
 31
0.0
  0
LINE
  5
1CE
330
1F
100
AcDbEntity
  8
1
  6
Continuous
 62
     7
100
AcDbLine
 10
2159.404786184025
 20
157.0308740932455
 30
0.0
 11
2159.404786184025
 21
95.23087409324353
 31
0.0
  0
LINE
  5
1CF
330
1F
100
AcDbEntity
  8
1
  6
Continuous
 62
     7
100
AcDbLine
 10
2112.404786184022
 20
154.0308740932455
 30
0.0
 11
2112.404786184022
 21
140.8766254042985
 31
0.0
  0
LINE
  5
1D0
330
1F
100
AcDbEntity
  8
1
  6
Continuous
 62
     7
100
AcDbLine
 10
2149.404786184022
 20
154.0308740932455
 30
0.0
 11
2112.404786184022
 21
154.0308740932455
 31
0.0
  0
LINE
  5
1D1
330
1F
100
AcDbEntity
  8
1
  6
Continuous
 62
     7
100
AcDbLine
 10
2112.404786184022
 20
157.0308740932455
 30
0.0
 11
2149.404786184022
 21
157.0308740932455
 31
0.0
  0
LINE
  5
1D2
330
1F
100
AcDbEntity
  8
1
  6
Continuous
 62
     7
100
AcDbLine
 10
2149.404786184022
 20
157.0308740932455
 30
0.0
 11
2149.404786184022
 21
154.0308740932455
 31
0.0
  0
LINE
  5
1D3
330
1F
100
AcDbEntity
  8
1
  6
Continuous
 62
     7
100
AcDbLine
 10
2109.404786184021
 20
142.2308740932335
 30
0.0
 11
2109.404786184022
 21
154.0308740932455
 31
0.0
  0
LINE
  5
1D4
330
1F
100
AcDbEntity
  8
1
  6
Continuous
 62
     7
100
AcDbLine
 10
2113.40478618397
 20
97.13087409324862
 30
0.0
 11
2113.404786184021
 21
109.3308740932484
 31
0.0
  0
LINE
  5
1D5
330
1F
100
AcDbEntity
  8
1
  6
Continuous
 62
     7
100
AcDbLine
 10
2114.90478618397
 20
97.13087409324044
 30
0.0
 11
2113.40478618397
 21
97.13087409324862
 31
0.0
  0
LINE
  5
1D6
330
1F
100
AcDbEntity
  8
1
  6
Continuous
 62
     7
100
AcDbLine
 10
2114.904786184021
 20
109.3308740932416
 30
0.0
 11
2114.90478618397
 21
97.13087409324044
 31
0.0
  0
LINE
  5
1D7
330
1F
100
AcDbEntity
  8
1
  6
Continuous
 62
     7
100
AcDbLine
 10
2113.404786184021
 20
109.3308740932484
 30
0.0
 11
2114.904786184021
 21
109.3308740932416
 31
0.0
  0
LINE
  5
1D8
330
1F
100
AcDbEntity
  8
1
  6
Continuous
 62
     7
100
AcDbLine
 10
2114.904786184001
 20
109.0043767851425
 30
0.0
 11
2118.458204196611
 21
109.0043767851425
 31
0.0
  0
LINE
  5
1D9
330
1F
100
AcDbEntity
  8
1
  6
Continuous
 62
     7
100
AcDbLine
 10
2118.458204196611
 20
97.45737140134861
 30
0.0
 11
2114.904786184001
 21
97.45737140134861
 31
0.0
  0
LINE
  5
1DA
330
1F
100
AcDbEntity
  8
1
  6
Continuous
 62
     7
100
AcDbLine
 10
2118.458204196611
 20
106.1176254391944
 30
0.0
 11
2114.904786184001
 21
106.1176254391944
 31
0.0
  0
LINE
  5
1DB
330
1F
100
AcDbEntity
  8
1
  6
Continuous
 62
     7
100
AcDbLine
 10
2118.458204196611
 20
100.3441227472986
 30
0.0
 11
2114.904786184001
 21
100.3441227472986
 31
0.0
  0
LINE
  5
1DC
330
1F
100
AcDbEntity
  8
1
  6
Continuous
 62
     7
100
AcDbLine
 10
2118.904786184001
 20
107.5610011121676
 30
0.0
 11
2118.904786184001
 21
98.90074707432359
 31
0.0
  0
LINE
  5
1DD
330
1F
100
AcDbEntity
  8
1
  6
DASH_CENTER
 62
     3
100
AcDbLine
 10
2118.904786184001
 20
117.2308740932435
 30
0.0
 11
2102.904786184001
 21
117.2308740932435
 31
0.0
  0
LINE
  5
1DE
330
1F
100
AcDbEntity
  8
1
  6
Continuous
 62
     7
100
AcDbLine
 10
2118.904786184001
 20
121.5610011121635
 30
0.0
 11
2118.904786184001
 21
112.9007470743204
 31
0.0
  0
LINE
  5
1DF
330
1F
100
AcDbEntity
  8
1
  6
Continuous
 62
     7
100
AcDbLine
 10
2118.458204196611
 20
114.3441227472945
 30
0.0
 11
2114.904786184001
 21
114.3441227472945
 31
0.0
  0
LINE
  5
1E0
330
1F
100
AcDbEntity
  8
1
  6
Continuous
 62
     7
100
AcDbLine
 10
2118.458204196611
 20
120.1176254391926
 30
0.0
 11
2114.904786184001
 21
120.1176254391926
 31
0.0
  0
LINE
  5
1E1
330
1F
100
AcDbEntity
  8
1
  6
Continuous
 62
     7
100
AcDbLine
 10
2118.458204196611
 20
111.4573714013445
 30
0.0
 11
2114.904786184001
 21
111.4573714013445
 31
0.0
  0
LINE
  5
1E2
330
1F
100
AcDbEntity
  8
1
  6
Continuous
 62
     7
100
AcDbLine
 10
2114.904786184001
 20
123.0043767851416
 30
0.0
 11
2118.458204196611
 21
123.0043767851416
 31
0.0
  0
LINE
  5
1E3
330
1F
100
AcDbEntity
  8
1
  6
Continuous
 62
     7
100
AcDbLine
 10
2113.404786184021
 20
123.3308740932475
 30
0.0
 11
2114.904786184021
 21
123.3308740932375
 31
0.0
  0
LINE
  5
1E4
330
1F
100
AcDbEntity
  8
1
  6
Continuous
 62
     7
100
AcDbLine
 10
2114.904786184021
 20
123.3308740932375
 30
0.0
 11
2114.90478618397
 21
111.1308740932395
 31
0.0
  0
LINE
  5
1E5
330
1F
100
AcDbEntity
  8
1
  6
Continuous
 62
     7
100
AcDbLine
 10
2114.90478618397
 20
111.1308740932395
 30
0.0
 11
2113.40478618397
 21
111.1308740932445
 31
0.0
  0
LINE
  5
1E6
330
1F
100
AcDbEntity
  8
1
  6
Continuous
 62
     7
100
AcDbLine
 10
2113.40478618397
 20
111.1308740932445
 30
0.0
 11
2113.404786184021
 21
123.3308740932475
 31
0.0
  0
LINE
  5
1E7
330
1F
100
AcDbEntity
  8
1
  6
Continuous
 62
     3
100
AcDbLine
 10
2849.482335379023
 20
411.7458101684415
 30
0.0
 11
2814.482335379023
 21
411.7458101684415
 31
0.0
  0
LINE
  5
1E8
330
1F
100
AcDbEntity
  8
1
  6
PHANTOM
 62
     3
100
AcDbLine
 10
2875.382335379023
 20
451.7458101684415
 30
0.0
 11
2850.382335379033
 21
451.7458101684415
 31
0.0
  0
LINE
  5
1E9
330
1F
100
AcDbEntity
  8
1
  6
PHANTOM
 62
     3
100
AcDbLine
 10
2850.382335379033
 20
451.7458101684415
 30
0.0
 11
2849.482335379023
 21
451.7458101684415
 31
0.0
  0
LINE
  5
1EA
330
1F
100
AcDbEntity
  8
1
  6
Continuous
 62
     3
100
AcDbLine
 10
2813.582335379021
 20
451.7458101684415
 30
0.0
 11
2814.482335379023
 21
451.7458101684415
 31
0.0
  0
LINE
  5
1EB
330
1F
100
AcDbEntity
  8
1
  6
Continuous
 62
     3
100
AcDbLine
 10
2850.382335379033
 20
411.7458101684415
 30
0.0
 11
2849.482335379023
 21
411.7458101684415
 31
0.0
  0
LINE
  5
1EC
330
1F
100
AcDbEntity
  8
1
  6
PHANTOM
 62
     3
100
AcDbLine
 10
2875.382335379023
 20
451.7458101684415
 30
0.0
 11
2875.382335379023
 21
413.7458101684415
 31
0.0
  0
LINE
  5
1ED
330
1F
100
AcDbEntity
  8
1
  6
PHANTOM
 62
     3
100
AcDbLine
 10
2849.482335379023
 20
451.7458101684415
 30
0.0
 11
2847.482335379029
 21
451.7458101684415
 31
0.0
  0
LINE
  5
1EE
330
1F
100
AcDbEntity
  8
1
  6
Continuous
 62
     3
100
AcDbLine
 10
2814.482335379023
 20
451.7458101684415
 30
0.0
 11
2847.482335379029
 21
451.7458101684415
 31
0.0
  0
LINE
  5
1EF
330
1F
100
AcDbEntity
  8
1
  6
Continuous
 62
     3
100
AcDbLine
 10
2874.482335379014
 20
411.7458101684415
 30
0.0
 11
2875.382335379023
 21
411.7458101684415
 31
0.0
  0
LINE
  5
1F0
330
1F
100
AcDbEntity
  8
1
  6
Continuous
 62
     3
100
AcDbLine
 10
2875.382335379023
 20
413.7458101684415
 30
0.0
 11
2875.382335379023
 21
411.7458101684415
 31
0.0
  0
LINE
  5
1F1
330
1F
100
AcDbEntity
  8
1
  6
Continuous
 62
     3
100
AcDbLine
 10
2814.482335379023
 20
411.7458101684415
 30
0.0
 11
2813.582335379021
 21
411.7458101684415
 31
0.0
  0
LINE
  5
1F2
330
1F
100
AcDbEntity
  8
1
  6
Continuous
 62
     3
100
AcDbLine
 10
2813.582335379021
 20
411.7458101684415
 30
0.0
 11
2813.582335379021
 21
451.7458101684415
 31
0.0
  0
LINE
  5
1F3
330
1F
100
AcDbEntity
  8
1
  6
Continuous
 62
     3
100
AcDbLine
 10
2850.382335379033
 20
411.7458101684415
 30
0.0
 11
2874.482335379014
 21
411.7458101684415
 31
0.0
  0
LINE
  5
1F4
330
1F
100
AcDbEntity
  8
1
  6
PHANTOM
 62
     3
100
AcDbLine
 10
1670.277951401047
 20
852.9528802961409
 30
0.0
 11
2612.446444725185
 21
827.9572769363995
 31
0.0
  0
LINE
  5
1F5
330
1F
100
AcDbEntity
  8
1
  6
PHANTOM
 62
     3
100
AcDbLine
 10
2611.982335378986
 20
792.9634322327697
 30
0.0
 11
1669.482335378986
 21
792.9634322327697
 31
0.0
  0
LINE
  5
1F6
330
1F
100
AcDbEntity
  8
1
  6
Continuous
 62
     3
100
AcDbLine
 10
1638.582335379015
 20
411.7458101684424
 30
0.0
 11
1638.582335379015
 21
451.7458101684424
 31
0.0
  0
LINE
  5
1F7
330
1F
100
AcDbEntity
  8
1
  6
Continuous
 62
     3
100
AcDbLine
 10
2630.382335378987
 20
451.7458101684424
 30
0.0
 11
2630.382335378987
 21
411.7458101684424
 31
0.0
  0
LINE
  5
1F8
330
1F
100
AcDbEntity
  8
1
  6
Continuous
 62
     3
100
AcDbLine
 10
1638.582335379015
 20
451.7458101684424
 30
0.0
 11
2630.382335378987
 21
451.7458101684424
 31
0.0
  0
LINE
  5
1F9
330
1F
100
AcDbEntity
  8
1
  6
Continuous
 62
     3
100
AcDbLine
 10
2630.382335378987
 20
411.7458101684424
 30
0.0
 11
1638.582335379015
 21
411.7458101684424
 31
0.0
  0
LINE
  5
1FA
330
1F
100
AcDbEntity
  8
1
  6
Continuous
 62
     7
100
AcDbLine
 10
2899.482332379022
 20
459.7458101684415
 30
0.0
 11
2885.482335379023
 21
459.7458101684415
 31
0.0
  0
LINE
  5
1FB
330
1F
100
AcDbEntity
  8
1
  6
Continuous
 62
     7
100
AcDbLine
 10
2885.847936547001
 20
453.7458101684415
 30
0.0
 11
2899.482332379022
 21
453.7458101684415
 31
0.0
  0
LINE
  5
1FC
330
1F
100
AcDbEntity
  8
1
  6
DASH_CENTER
 62
     3
100
AcDbLine
 10
2893.482335379025
 20
449.6348094568607
 30
0.0
 11
2893.482335379025
 21
463.2607883605715
 31
0.0
  0
LINE
  5
1FD
330
1F
100
AcDbEntity
  8
1
  6
Continuous
 62
     7
100
AcDbLine
 10
2899.482332379022
 20
453.7458101684415
 30
0.0
 11
2899.482332379022
 21
459.7458101684415
 31
0.0
  0
LINE
  5
1FE
330
1F
100
AcDbEntity
  8
1
  6
Continuous
 62
     7
100
AcDbLine
 10
1637.482335378986
 20
795.9634322327697
 30
0.0
 11
1719.482335378986
 21
795.9634322327697
 31
0.0
  0
LINE
  5
1FF
330
1F
100
AcDbEntity
  8
1
  6
Continuous
 62
     7
100
AcDbLine
 10
1719.482335378987
 20
861.9634292327696
 30
0.0
 11
1711.48233537897
 21
861.9634292327696
 31
0.0
  0
LINE
  5
200
330
1F
100
AcDbEntity
  8
1
  6
Continuous
 62
     7
100
AcDbLine
 10
1629.482335378986
 20
871.9634292327696
 30
0.0
 11
1629.482335378986
 21
803.9634322327697
 31
0.0
  0
LINE
  5
201
330
1F
100
AcDbEntity
  8
1
  6
Continuous
 62
     7
100
AcDbLine
 10
1703.482335135722
 20
877.9634319895295
 30
0.0
 11
1635.482335378986
 21
877.9634292327696
 31
0.0
  0
LINE
  5
202
330
1F
100
AcDbEntity
  8
1
  6
Continuous
 62
     7
100
AcDbLine
 10
1709.482335378965
 20
871.9634319895295
 30
0.0
 11
1709.48233537897
 21
863.9634292327696
 31
0.0
  0
LINE
  5
203
330
1F
100
AcDbEntity
  8
1
  6
Continuous
 62
     7
100
AcDbLine
 10
1635.682335378975
 20
453.7458101684424
 30
0.0
 11
1635.682335378975
 21
413.7458101684424
 31
0.0
  0
LINE
  5
204
330
1F
100
AcDbEntity
  8
1
  6
Continuous
 62
     7
100
AcDbLine
 10
1634.482335378975
 20
453.7458101684424
 30
0.0
 11
1634.482335378976
 21
413.7458101684424
 31
0.0
  0
LINE
  5
205
330
1F
100
AcDbEntity
  8
1
  6
Continuous
 62
     7
100
AcDbLine
 10
1629.482335378975
 20
459.7458101684424
 30
0.0
 11
1719.082335378976
 21
459.7458101684424
 31
0.0
  0
LINE
  5
206
330
1F
100
AcDbEntity
  8
1
  6
Continuous
 62
     7
100
AcDbLine
 10
1629.482335378975
 20
453.7458101684424
 30
0.0
 11
1629.482335378975
 21
459.7458101684424
 31
0.0
  0
LINE
  5
207
330
1F
100
AcDbEntity
  8
1
  6
Continuous
 62
     7
100
AcDbLine
 10
1789.482335378977
 20
453.7458101684424
 30
0.0
 11
1629.482335378975
 21
453.7458101684424
 31
0.0
  0
LINE
  5
208
330
1F
100
AcDbEntity
  8
1
  6
Continuous
 62
     7
100
AcDbLine
 10
1703.482335378975
 20
451.7458101684415
 30
0.0
 11
1703.482335378975
 21
453.7458101684424
 31
0.0
  0
LINE
  5
209
330
1F
100
AcDbEntity
  8
1
  6
DASH_CENTER
 62
     3
100
AcDbLine
 10
1672.482335378965
 20
871.9634304920296
 30
0.0
 11
1666.482335378965
 21
871.9634304920296
 31
0.0
  0
LINE
  5
20A
330
1F
100
AcDbEntity
  8
1
  6
DASH_CENTER
 62
     3
100
AcDbLine
 10
1669.482335378965
 20
868.9634304920296
 30
0.0
 11
1669.482335378965
 21
874.9634304920296
 31
0.0
  0
LINE
  5
20B
330
1F
100
AcDbEntity
  8
1
  6
Continuous
 62
     7
100
AcDbLine
 10
1719.082335378976
 20
459.7458101684424
 30
0.0
 11
1719.482335378986
 21
459.7458101684424
 31
0.0
  0
LINE
  5
20C
330
1F
100
AcDbEntity
  8
1
  6
Continuous
 62
     7
100
AcDbLine
 10
1634.482335378976
 20
413.7458101684424
 30
0.0
 11
1638.582335379015
 21
413.7458101684424
 31
0.0
  0
LINE
  5
20D
330
1F
100
AcDbEntity
  8
1
  6
Continuous
 62
     7
100
AcDbLine
 10
1709.482335378975
 20
453.7458101684424
 30
0.0
 11
1709.482335378975
 21
451.7458101684415
 31
0.0
  0
LINE
  5
20E
330
1F
100
AcDbEntity
  8
1
  6
Continuous
 62
     7
100
AcDbLine
 10
1635.482335378995
 20
453.7458101684424
 30
0.0
 11
1635.482335378995
 21
451.7458101684415
 31
0.0
  0
LINE
  5
20F
330
1F
100
AcDbEntity
  8
1
  6
Continuous
 62
     7
100
AcDbLine
 10
2856.732335379023
 20
476.7458101684415
 30
0.0
 11
2844.232335379023
 21
476.7458101684415
 31
0.0
  0
LINE
  5
210
330
1F
100
AcDbEntity
  8
1
  6
Continuous
 62
     7
100
AcDbLine
 10
2856.732335379023
 20
478.3458101684414
 30
0.0
 11
2856.732335379023
 21
476.7458101684415
 31
0.0
  0
LINE
  5
211
330
1F
100
AcDbEntity
  8
1
  6
Continuous
 62
     7
100
AcDbLine
 10
2844.232335379023
 20
478.3458101684414
 30
0.0
 11
2856.732335379023
 21
478.3458101684414
 31
0.0
  0
LINE
  5
212
330
1F
100
AcDbEntity
  8
1
  6
Continuous
 62
     7
100
AcDbLine
 10
2844.232335379023
 20
476.7458101684415
 30
0.0
 11
2844.232335379023
 21
478.3458101684414
 31
0.0
  0
LINE
  5
213
330
1F
100
AcDbEntity
  8
1
  6
Continuous
 62
     7
100
AcDbLine
 10
2856.582335379021
 20
479.8458101684414
 30
0.0
 11
2856.582335379021
 21
478.3458101684414
 31
0.0
  0
LINE
  5
214
330
1F
100
AcDbEntity
  8
1
  6
Continuous
 62
     7
100
AcDbLine
 10
2844.382335379023
 20
479.8458101684414
 30
0.0
 11
2856.582335379021
 21
479.8458101684414
 31
0.0
  0
LINE
  5
215
330
1F
100
AcDbEntity
  8
1
  6
Continuous
 62
     7
100
AcDbLine
 10
2844.382335379023
 20
478.3458101684414
 30
0.0
 11
2844.382335379023
 21
479.8458101684414
 31
0.0
  0
LINE
  5
216
330
1F
100
AcDbEntity
  8
1
  6
Continuous
 62
     7
100
AcDbLine
 10
2844.708832687122
 20
479.8458101684414
 30
0.0
 11
2844.708832687122
 21
483.3992281810515
 31
0.0
  0
LINE
  5
217
330
1F
100
AcDbEntity
  8
1
  6
Continuous
 62
     7
100
AcDbLine
 10
2856.255838070912
 20
483.3992281810515
 30
0.0
 11
2856.255838070912
 21
479.8458101684414
 31
0.0
  0
LINE
  5
218
330
1F
100
AcDbEntity
  8
1
  6
Continuous
 62
     7
100
AcDbLine
 10
2847.595584033072
 20
483.3992281810515
 30
0.0
 11
2847.595584033072
 21
479.8458101684414
 31
0.0
  0
LINE
  5
219
330
1F
100
AcDbEntity
  8
1
  6
Continuous
 62
     7
100
AcDbLine
 10
2853.369086724973
 20
483.3992281810515
 30
0.0
 11
2853.369086724973
 21
479.8458101684414
 31
0.0
  0
LINE
  5
21A
330
1F
100
AcDbEntity
  8
1
  6
Continuous
 62
     7
100
AcDbLine
 10
2846.152208360102
 20
483.8458101684414
 30
0.0
 11
2854.812462397941
 21
483.8458101684414
 31
0.0
  0
LINE
  5
21B
330
1F
100
AcDbEntity
  8
1
  6
DASH_CENTER
 62
     3
100
AcDbLine
 10
2850.482335379023
 20
483.8458101684414
 30
0.0
 11
2850.482335379023
 21
469.8458101684414
 31
0.0
  0
LINE
  5
21C
330
1F
100
AcDbEntity
  8
1
  6
DASH_CENTER
 62
     3
100
AcDbLine
 10
2535.982335378996
 20
822.0352290024998
 30
0.0
 11
2535.982335379009
 21
835.8916354630505
 31
0.0
  0
LINE
  5
21D
330
1F
100
AcDbEntity
  8
1
  6
DASH_CENTER
 62
     3
100
AcDbLine
 10
2529.054132148728
 20
828.9634322327797
 30
0.0
 11
2542.910538609278
 21
828.9634322327706
 31
0.0
  0
LINE
  5
21E
330
1F
100
AcDbEntity
  8
1
  6
Continuous
 62
     7
100
AcDbLine
 10
2531.652208360079
 20
483.8458101684537
 30
0.0
 11
2540.312462397918
 21
483.8458101684537
 31
0.0
  0
LINE
  5
21F
330
1F
100
AcDbEntity
  8
1
  6
Continuous
 62
     7
100
AcDbLine
 10
2533.095584033047
 20
479.8458101684537
 30
0.0
 11
2533.095584033047
 21
483.3992281810624
 31
0.0
  0
LINE
  5
220
330
1F
100
AcDbEntity
  8
1
  6
Continuous
 62
     7
100
AcDbLine
 10
2538.869086724946
 20
479.8458101684537
 30
0.0
 11
2538.869086724946
 21
483.3992281810624
 31
0.0
  0
LINE
  5
221
330
1F
100
AcDbEntity
  8
1
  6
Continuous
 62
     7
100
AcDbLine
 10
2530.208832687107
 20
479.8458101684537
 30
0.0
 11
2530.208832687107
 21
483.3992281810624
 31
0.0
  0
LINE
  5
222
330
1F
100
AcDbEntity
  8
1
  6
Continuous
 62
     7
100
AcDbLine
 10
2541.755838070896
 20
483.3992281810624
 30
0.0
 11
2541.755838070896
 21
479.8458101684537
 31
0.0
  0
LINE
  5
223
330
1F
100
AcDbEntity
  8
1
  6
Continuous
 62
     7
100
AcDbLine
 10
2542.082335378998
 20
479.8458101684537
 30
0.0
 11
2542.082335378998
 21
478.3458101684537
 31
0.0
  0
LINE
  5
224
330
1F
100
AcDbEntity
  8
1
  6
Continuous
 62
     7
100
AcDbLine
 10
2529.882335378998
 20
479.8458101684537
 30
0.0
 11
2542.082335378998
 21
479.8458101684537
 31
0.0
  0
LINE
  5
225
330
1F
100
AcDbEntity
  8
1
  6
Continuous
 62
     7
100
AcDbLine
 10
2529.882335378998
 20
478.3458101684537
 30
0.0
 11
2529.882335378998
 21
479.8458101684537
 31
0.0
  0
LINE
  5
226
330
1F
100
AcDbEntity
  8
1
  6
Continuous
 62
     7
100
AcDbLine
 10
2542.232335378996
 20
478.3458101684537
 30
0.0
 11
2542.232335378996
 21
476.7458101684424
 31
0.0
  0
LINE
  5
227
330
1F
100
AcDbEntity
  8
1
  6
Continuous
 62
     7
100
AcDbLine
 10
2529.732335378996
 20
478.3458101684537
 30
0.0
 11
2542.232335378996
 21
478.3458101684537
 31
0.0
  0
LINE
  5
228
330
1F
100
AcDbEntity
  8
1
  6
Continuous
 62
     7
100
AcDbLine
 10
2529.732335378996
 20
476.7458101684424
 30
0.0
 11
2529.732335378996
 21
478.3458101684537
 31
0.0
  0
LINE
  5
229
330
1F
100
AcDbEntity
  8
1
  6
Continuous
 62
     7
100
AcDbLine
 10
2542.232335378996
 20
476.7458101684424
 30
0.0
 11
2529.732335378996
 21
476.7458101684424
 31
0.0
  0
LINE
  5
22A
330
1F
100
AcDbEntity
  8
1
  6
Continuous
 62
     7
100
AcDbLine
 10
1805.232335378986
 20
476.7458101684424
 30
0.0
 11
1792.732335378986
 21
476.7458101684424
 31
0.0
  0
LINE
  5
22B
330
1F
100
AcDbEntity
  8
1
  6
Continuous
 62
     7
100
AcDbLine
 10
1792.732335378986
 20
476.7458101684424
 30
0.0
 11
1792.732335378986
 21
478.3458101684537
 31
0.0
  0
LINE
  5
22C
330
1F
100
AcDbEntity
  8
1
  6
Continuous
 62
     7
100
AcDbLine
 10
1792.732335378986
 20
478.3458101684537
 30
0.0
 11
1805.232335378986
 21
478.3458101684537
 31
0.0
  0
LINE
  5
22D
330
1F
100
AcDbEntity
  8
1
  6
Continuous
 62
     7
100
AcDbLine
 10
1805.232335378986
 20
478.3458101684537
 30
0.0
 11
1805.232335378986
 21
476.7458101684424
 31
0.0
  0
LINE
  5
22E
330
1F
100
AcDbEntity
  8
1
  6
Continuous
 62
     7
100
AcDbLine
 10
1792.882335378987
 20
478.3458101684537
 30
0.0
 11
1792.882335378987
 21
479.8458101684537
 31
0.0
  0
LINE
  5
22F
330
1F
100
AcDbEntity
  8
1
  6
Continuous
 62
     7
100
AcDbLine
 10
1792.882335378987
 20
479.8458101684537
 30
0.0
 11
1805.082335378986
 21
479.8458101684537
 31
0.0
  0
LINE
  5
230
330
1F
100
AcDbEntity
  8
1
  6
Continuous
 62
     7
100
AcDbLine
 10
1805.082335378986
 20
479.8458101684537
 30
0.0
 11
1805.082335378986
 21
478.3458101684537
 31
0.0
  0
LINE
  5
231
330
1F
100
AcDbEntity
  8
1
  6
Continuous
 62
     7
100
AcDbLine
 10
1804.755838070886
 20
483.3992281810624
 30
0.0
 11
1804.755838070886
 21
479.8458101684537
 31
0.0
  0
LINE
  5
232
330
1F
100
AcDbEntity
  8
1
  6
Continuous
 62
     7
100
AcDbLine
 10
1793.208832687086
 20
479.8458101684537
 30
0.0
 11
1793.208832687086
 21
483.3992281810624
 31
0.0
  0
LINE
  5
233
330
1F
100
AcDbEntity
  8
1
  6
Continuous
 62
     7
100
AcDbLine
 10
1801.869086724936
 20
479.8458101684537
 30
0.0
 11
1801.869086724936
 21
483.3992281810624
 31
0.0
  0
LINE
  5
234
330
1F
100
AcDbEntity
  8
1
  6
Continuous
 62
     7
100
AcDbLine
 10
1796.095584033036
 20
479.8458101684537
 30
0.0
 11
1796.095584033036
 21
483.3992281810624
 31
0.0
  0
LINE
  5
235
330
1F
100
AcDbEntity
  8
1
  6
Continuous
 62
     7
100
AcDbLine
 10
1794.652208360066
 20
483.8458101684537
 30
0.0
 11
1803.312462397906
 21
483.8458101684537
 31
0.0
  0
LINE
  5
236
330
1F
100
AcDbEntity
  8
1
  6
DASH_CENTER
 62
     3
100
AcDbLine
 10
1798.982335378986
 20
469.8458101684537
 30
0.0
 11
1798.982335378986
 21
483.8458101684537
 31
0.0
  0
LINE
  5
237
330
1F
100
AcDbEntity
  8
1
  6
DASH_CENTER
 62
     3
100
AcDbLine
 10
1792.054132148707
 20
828.9634322327797
 30
0.0
 11
1805.910538609259
 21
828.9634322327706
 31
0.0
  0
LINE
  5
238
330
1F
100
AcDbEntity
  8
1
  6
DASH_CENTER
 62
     3
100
AcDbLine
 10
1798.982335378977
 20
822.0352290024998
 30
0.0
 11
1798.982335378986
 21
835.8916354630505
 31
0.0
  0
LINE
  5
239
330
1F
100
AcDbEntity
  8
1
  6
DASH_CENTER
 62
     3
100
AcDbLine
 10
1636.482335378965
 20
822.9634322327706
 30
0.0
 11
1702.482335378964
 21
822.9634322327706
 31
0.0
  0
LINE
  5
23A
330
1F
100
AcDbEntity
  8
1
  6
DASH_CENTER
 62
     3
100
AcDbLine
 10
1669.482335378965
 20
789.9634322327697
 30
0.0
 11
1669.482335378965
 21
855.9634322327706
 31
0.0
  0
LINE
  5
23B
330
1F
100
AcDbEntity
  8
1
  6
DASHED
 62
     4
100
AcDbLine
 10
1699.482335378964
 20
448.2458101684424
 30
0.0
 11
1699.482335378964
 21
449.7458101684424
 31
0.0
  0
LINE
  5
23C
330
1F
100
AcDbEntity
  8
1
  6
DASHED
 62
     4
100
AcDbLine
 10
1699.482335378964
 20
441.2458101684424
 30
0.0
 11
1699.482335378964
 21
448.2458101684424
 31
0.0
  0
LINE
  5
23D
330
1F
100
AcDbEntity
  8
1
  6
DASHED
 62
     4
100
AcDbLine
 10
1664.482335378964
 20
451.7458101684415
 30
0.0
 11
1674.482335378964
 21
451.7458101684415
 31
0.0
  0
LINE
  5
23E
330
1F
100
AcDbEntity
  8
1
  6
DASHED
 62
     4
100
AcDbLine
 10
1641.482335378992
 20
411.7458101684424
 30
0.0
 11
1642.482335378964
 21
411.7458101684424
 31
0.0
  0
LINE
  5
23F
330
1F
100
AcDbEntity
  8
1
  6
DASHED
 62
     4
100
AcDbLine
 10
1642.482335378964
 20
411.7458101684424
 30
0.0
 11
1696.482335378964
 21
411.7458101684424
 31
0.0
  0
LINE
  5
240
330
1F
100
AcDbEntity
  8
1
  6
DASHED
 62
     4
100
AcDbLine
 10
1641.482335378992
 20
451.7458101684424
 30
0.0
 11
1664.482335378964
 21
451.7458101684415
 31
0.0
  0
LINE
  5
241
330
1F
100
AcDbEntity
  8
1
  6
DASHED
 62
     4
100
AcDbLine
 10
1640.028344879253
 20
432.9954395560135
 30
0.0
 11
1641.936325878732
 21
433.9676044323928
 31
0.0
  0
LINE
  5
242
330
1F
100
AcDbEntity
  8
1
  6
DASHED
 62
     4
100
AcDbLine
 10
1642.482335378992
 20
434.8586109565836
 30
0.0
 11
1642.482335378992
 21
436.6330093803035
 31
0.0
  0
LINE
  5
243
330
1F
100
AcDbEntity
  8
1
  6
DASHED
 62
     4
100
AcDbLine
 10
1641.936325878732
 20
437.5240159044924
 30
0.0
 11
1640.028344879253
 21
438.4961807808736
 31
0.0
  0
LINE
  5
244
330
1F
100
AcDbEntity
  8
1
  6
DASHED
 62
     4
100
AcDbLine
 10
1698.936325878701
 20
432.9954395560135
 30
0.0
 11
1697.028344879224
 21
433.9676044323928
 31
0.0
  0
LINE
  5
245
330
1F
100
AcDbEntity
  8
1
  6
DASHED
 62
     4
100
AcDbLine
 10
1696.482335378964
 20
434.8586109565836
 30
0.0
 11
1696.482335378964
 21
436.6330093803035
 31
0.0
  0
LINE
  5
246
330
1F
100
AcDbEntity
  8
1
  6
DASHED
 62
     4
100
AcDbLine
 10
1697.028344879224
 20
437.5240159044924
 30
0.0
 11
1698.936325878701
 21
438.4961807808736
 31
0.0
  0
LINE
  5
247
330
1F
100
AcDbEntity
  8
1
  6
DASHED
 62
     4
100
AcDbLine
 10
1674.482335378964
 20
451.7458101684415
 30
0.0
 11
1697.482335378964
 21
451.7458101684424
 31
0.0
  0
LINE
  5
248
330
1F
100
AcDbEntity
  8
1
  6
DASHED
 62
     4
100
AcDbLine
 10
1639.482335378992
 20
440.2458101684424
 30
0.0
 11
1639.482335378992
 21
439.3871873050625
 31
0.0
  0
LINE
  5
249
330
1F
100
AcDbEntity
  8
1
  6
DASHED
 62
     4
100
AcDbLine
 10
1696.482335378964
 20
411.7458101684424
 30
0.0
 11
1697.482335378964
 21
411.7458101684424
 31
0.0
  0
LINE
  5
24A
330
1F
100
AcDbEntity
  8
1
  6
DASHED
 62
     4
100
AcDbLine
 10
1699.482335378964
 20
413.7458101684424
 30
0.0
 11
1699.482335378964
 21
432.1044330318237
 31
0.0
  0
LINE
  5
24B
330
1F
100
AcDbEntity
  8
1
  6
DASHED
 62
     4
100
AcDbLine
 10
1699.482335378964
 20
439.3871873050625
 30
0.0
 11
1699.482335378964
 21
441.2458101684424
 31
0.0
  0
LINE
  5
24C
330
1F
100
AcDbEntity
  8
1
  6
DASHED
 62
     4
100
AcDbLine
 10
1639.482335378992
 20
432.1044330318237
 30
0.0
 11
1639.482335378992
 21
413.7458101684424
 31
0.0
  0
LINE
  5
24D
330
1F
100
AcDbEntity
  8
1
  6
DASHED
 62
     4
100
AcDbLine
 10
1639.482335378992
 20
449.7458101684424
 30
0.0
 11
1639.482335378992
 21
440.2458101684424
 31
0.0
  0
LINE
  5
24E
330
1F
100
AcDbEntity
  8
1
  6
DASH_CENTER
 62
     3
100
AcDbLine
 10
1669.482335378964
 20
455.3671007142325
 30
0.0
 11
1669.482335378964
 21
407.9054622304025
 31
0.0
  0
LINE
  5
24F
330
1F
100
AcDbEntity
  8
1
  6
DASHED
 62
     4
100
AcDbLine
 10
1642.482335378992
 20
434.8586109565836
 30
0.0
 11
1696.482335378964
 21
434.8586109565836
 31
0.0
  0
LINE
  5
250
330
1F
100
AcDbEntity
  8
1
  6
DASHED
 62
     4
100
AcDbLine
 10
1699.482335378964
 20
432.1044330318237
 30
0.0
 11
1639.482335378992
 21
432.1044330318237
 31
0.0
  0
LINE
  5
251
330
1F
100
AcDbEntity
  8
1
  6
DASHED
 62
     4
100
AcDbLine
 10
1696.482335378964
 20
436.6330093802926
 30
0.0
 11
1642.482335378992
 21
436.6330093802926
 31
0.0
  0
LINE
  5
252
330
1F
100
AcDbEntity
  8
1
  6
DASHED
 62
     4
100
AcDbLine
 10
1639.482335378992
 20
439.3871873050625
 30
0.0
 11
1699.482335378964
 21
439.3871873050625
 31
0.0
  0
LINE
  5
253
330
1F
100
AcDbEntity
  8
1
  6
DASHED
 62
     4
100
AcDbLine
 10
1699.482335378964
 20
449.7458101684424
 30
0.0
 11
1639.482335378992
 21
449.7458101684424
 31
0.0
  0
LINE
  5
254
330
1F
100
AcDbEntity
  8
1
  6
DASHED
 62
     4
100
AcDbLine
 10
1699.482335378964
 20
413.7458101684424
 30
0.0
 11
1639.482335378992
 21
413.7458101684424
 31
0.0
  0
LINE
  5
255
330
1F
100
AcDbEntity
  8
1
  6
Continuous
 62
     4
100
AcDbLine
 10
2129.482335378984
 20
419.6985087781468
 30
0.0
 11
2092.008664077988
 21
430.9406101684444
 31
0.0
  0
LINE
  5
256
330
1F
100
AcDbEntity
  8
1
  6
Continuous
 62
     4
100
AcDbLine
 10
2129.482335378984
 20
426.4437696123255
 30
0.0
 11
2129.482335378984
 21
419.6985087781468
 31
0.0
  0
LINE
  5
257
330
1F
100
AcDbEntity
  8
1
  6
Continuous
 62
     4
100
AcDbLine
 10
2154.464782912978
 20
426.4437696123255
 30
0.0
 11
2129.482335378984
 21
426.4437696123255
 31
0.0
  0
LINE
  5
258
330
1F
100
AcDbEntity
  8
1
  6
Continuous
 62
     4
100
AcDbLine
 10
2154.464782912978
 20
435.4374507245648
 30
0.0
 11
2154.464782912978
 21
426.4437696123255
 31
0.0
  0
LINE
  5
259
330
1F
100
AcDbEntity
  8
1
  6
Continuous
 62
     4
100
AcDbLine
 10
2129.482335378984
 20
435.4374507245648
 30
0.0
 11
2154.464782912978
 21
435.4374507245648
 31
0.0
  0
LINE
  5
25A
330
1F
100
AcDbEntity
  8
1
  6
Continuous
 62
     4
100
AcDbLine
 10
2129.482335378984
 20
442.1827115587435
 30
0.0
 11
2129.482335378984
 21
435.4374507245648
 31
0.0
  0
LINE
  5
25B
330
1F
100
AcDbEntity
  8
1
  6
Continuous
 62
     4
100
AcDbLine
 10
2092.008664077988
 20
430.9406101684444
 30
0.0
 11
2129.482335378984
 21
442.1827115587435
 31
0.0
  0
LINE
  5
25C
330
1F
100
AcDbEntity
  8
1
  6
Continuous
 62
     7
100
AcDbLine
 10
2822.282335379021
 20
453.7458101684415
 30
0.0
 11
2822.282335379021
 21
451.7458101684438
 31
0.0
  0
LINE
  5
25D
330
1F
100
AcDbEntity
  8
1
  6
PHANTOM
 62
     4
100
AcDbLine
 10
2822.282335379021
 20
451.7458101684438
 30
0.0
 11
2822.282335379021
 21
451.3458101684328
 31
0.0
  0
LINE
  5
25E
330
1F
100
AcDbEntity
  8
1
  6
DASHED
 62
     4
100
AcDbLine
 10
2621.482335378985
 20
453.7458101684424
 30
0.0
 11
2533.282335378977
 21
453.7458101684424
 31
0.0
  0
LINE
  5
25F
330
1F
100
AcDbEntity
  8
1
  6
DASHED
 62
     4
100
AcDbLine
 10
2533.282335378977
 20
453.7458101684424
 30
0.0
 11
2526.48233537898
 21
453.7458101684424
 31
0.0
  0
LINE
  5
264
330
1F
100
AcDbEntity
  8
0
100
AcDbLine
 10
2102.231942791706
 20
130.2732996627765
 30
0.0
 11
2102.231030403106
 21
131.9479474633486
 31
0.0
  0
LINE
  5
265
330
1F
100
AcDbEntity
  8
0
100
AcDbLine
 10
2102.505495817632
 20
132.9292549430065
 30
0.0
 11
2102.504786340016
 21
134.2314688634265
 31
0.0
  0
LINE
  5
266
330
1F
100
AcDbEntity
  8
0
100
AcDbLine
 10
2102.509032569003
 20
126.7308740932485
 30
0.0
 11
2102.509082166966
 21
128.1601863003766
 31
0.0
  0
LINE
  5
267
330
1F
100
AcDbEntity
  8
0
100
AcDbLine
 10
2103.009108604268
 20
128.8117978499586
 30
0.0
 11
2103.007230847749
 21
132.2583345872586
 31
0.0
  0
LINE
  5
268
330
1F
100
AcDbEntity
  8
0
100
AcDbLine
 10
2096.577629578337
 20
130.2732996627765
 30
0.0
 11
2096.578541966936
 21
131.9479474633486
 31
0.0
  0
LINE
  5
269
330
1F
100
AcDbEntity
  8
0
100
AcDbLine
 10
2097.797239012917
 20
130.8676334016054
 30
0.0
 11
2096.90618708702
 21
130.1199894806755
 31
0.0
  0
LINE
  5
26A
330
1F
100
AcDbEntity
  8
0
100
AcDbLine
 10
2098.50165507454
 20
130.8060080663186
 30
0.0
 11
2098.565933838722
 21
130.7294074522265
 31
0.0
  0
LINE
  5
26B
330
1F
100
AcDbEntity
  8
0
100
AcDbLine
 10
2097.104067827459
 20
132.9129493701776
 30
0.0
 11
2097.104785951306
 21
134.2310330477676
 31
0.0
  0
LINE
  5
26C
330
1F
100
AcDbEntity
  8
0
100
AcDbLine
 10
2096.304076552408
 20
132.9292549430065
 30
0.0
 11
2096.304786030029
 21
134.2314688634265
 31
0.0
  0
LINE
  5
26D
330
1F
100
AcDbEntity
  8
0
100
AcDbLine
 10
2101.012333357127
 20
130.8676334016054
 30
0.0
 11
2101.903385283017
 21
130.1199894806755
 31
0.0
  0
LINE
  5
26E
330
1F
100
AcDbEntity
  8
0
100
AcDbLine
 10
2100.307917295503
 20
130.8060080663186
 30
0.0
 11
2100.24363853132
 21
130.7294074522265
 31
0.0
  0
LINE
  5
26F
330
1F
100
AcDbEntity
  8
0
100
AcDbLine
 10
2101.705504542583
 20
132.9129493701776
 30
0.0
 11
2101.70478641874
 21
134.2310330477676
 31
0.0
  0
LINE
  5
270
330
1F
100
AcDbEntity
  8
0
100
AcDbLine
 10
2101.504793376606
 20
134.4309140937266
 30
0.0
 11
2097.304792884625
 21
134.4309140937266
 31
0.0
  0
LINE
  5
271
330
1F
100
AcDbEntity
  8
0
100
AcDbLine
 10
2096.30053980104
 20
126.7308740932485
 30
0.0
 11
2096.300490203076
 21
128.1601863002065
 31
0.0
  0
LINE
  5
272
330
1F
100
AcDbEntity
  8
0
100
AcDbLine
 10
2097.100699683429
 20
126.7308740932485
 30
0.0
 11
2097.101467352301
 21
128.1398954169486
 31
0.0
  0
LINE
  5
273
330
1F
100
AcDbEntity
  8
0
100
AcDbLine
 10
2101.708872686614
 20
126.7308740932485
 30
0.0
 11
2101.708105017741
 21
128.1398954169486
 31
0.0
  0
LINE
  5
274
330
1F
100
AcDbEntity
  8
0
100
AcDbLine
 10
2100.268289899242
 20
130.4476551299867
 30
0.0
 11
2101.916917380348
 21
129.0643616559355
 31
0.0
  0
LINE
  5
275
330
1F
100
AcDbEntity
  8
0
100
AcDbLine
 10
2098.541282470805
 20
130.4476551299867
 30
0.0
 11
2096.892654989698
 21
129.0643616559355
 31
0.0
  0
LINE
  5
276
330
1F
100
AcDbEntity
  8
0
100
AcDbLine
 10
2095.800463765776
 20
128.8117978499586
 30
0.0
 11
2095.802341522293
 21
132.2583345872586
 31
0.0
  0
LINE
  5
277
330
1F
100
AcDbEntity
  8
0
100
AcDbLine
 10
2101.504751735572
 20
135.2308740932485
 30
0.0
 11
2097.304820632474
 21
135.2308740932485
 31
0.0
  0
LINE
  5
2B3
330
1F
100
AcDbEntity
  8
1
  6
DASH_CENTER
 62
     3
100
AcDbLine
 10
2118.904786184001
 20
103.2308740932444
 30
0.0
 11
2102.904786184001
 21
103.2308740932444
 31
0.0
  0
LINE
  5
2B4
330
1F
100
AcDbEntity
  8
1
  6
DASH_CENTER
 62
     3
100
AcDbLine
 10
2124.404786184021
 20
165.3308740932434
 30
0.0
 11
2124.404786184021
 21
151.3308740932434
 31
0.0
  0
ARC
  5
2B5
330
1F
100
AcDbEntity
  8
0
  6
Continuous
 62
     7
100
AcDbCircle
 10
2898.482335379023
 20
460.7458101684415
 30
0.0
 40
1.0
100
AcDbArc
 50
-90.0
 51
0.0
  0
ARC
  5
2B6
330
1F
100
AcDbEntity
  8
0
  6
Continuous
 62
     7
100
AcDbCircle
 10
2907.634905379022
 20
495.9778271684427
 30
0.0
 40
5.563073000000991
100
AcDbArc
 50
127.0597410000291
 51
165.0582640000569
  0
ARC
  5
2B7
330
1F
100
AcDbEntity
  8
0
  6
Continuous
 62
     7
100
AcDbCircle
 10
2907.634905379022
 20
495.9778271684427
 30
0.0
 40
8.163072999996846
100
AcDbArc
 50
114.2487959999668
 51
163.8656270000017
  0
ARC
  5
2B8
330
1F
100
AcDbEntity
  8
0
  6
Continuous
 62
     7
100
AcDbCircle
 10
2899.782334379024
 20
508.2462721684415
 30
0.0
 40
0.5
100
AcDbArc
 50
0.0
 51
90.0
  0
ARC
  5
2B9
330
1F
100
AcDbEntity
  8
0
  6
Continuous
 62
     7
100
AcDbCircle
 10
2897.882334379023
 20
494.9962721684415
 30
0.0
 40
4.999999999998877
100
AcDbArc
 50
-30.73786900001713
 51
30.73786900002945
  0
ARC
  5
2BA
330
1F
100
AcDbEntity
  8
0
  6
Continuous
 62
     7
100
AcDbCircle
 10
2901.750150379023
 20
497.2962721684435
 30
0.0
 40
0.4999999999946622
100
AcDbArc
 50
30.73786899931601
 51
90.0
  0
ARC
  5
2BB
330
1F
100
AcDbEntity
  8
0
  6
Continuous
 62
     7
100
AcDbCircle
 10
2901.750150379023
 20
492.6962721684408
 30
0.0
 40
0.5
100
AcDbArc
 50
-90.0
 51
-30.73786900044695
  0
ARC
  5
2BC
330
1F
100
AcDbEntity
  8
1
  6
Continuous
 62
     7
100
AcDbCircle
 10
2911.532334379023
 20
476.9958101684415
 30
0.0
 40
23.25046199999815
100
AcDbArc
 50
-89.63880349213683
 51
89.63880349213683
  0
ARC
  5
2BD
330
1F
100
AcDbEntity
  8
1
  6
Continuous
 62
     7
100
AcDbCircle
 10
2911.532334379023
 20
476.9958101684415
 30
0.0
 40
31.25046199999997
100
AcDbArc
 50
-90.0
 51
89.99999999999751
  0
ARC
  5
2BE
330
1F
100
AcDbEntity
  8
0
  6
Continuous
 62
     7
100
AcDbCircle
 10
2904.72466705359
 20
442.1658993376705
 30
0.0
 40
5.125394999996219
100
AcDbArc
 50
-73.10479000002907
 51
-3.49705099996014
  0
ARC
  5
2BF
330
1F
100
AcDbEntity
  8
0
  6
Continuous
 62
     7
100
AcDbCircle
 10
2908.073538018897
 20
432.8393054197995
 30
0.0
 40
4.797381999999297
100
AcDbArc
 50
112.8033339999855
 51
172.9207750000196
  0
ARC
  5
2C0
330
1F
100
AcDbEntity
  8
0
  6
Continuous
 62
     7
100
AcDbCircle
 10
2904.72466705359
 20
442.1658993376705
 30
0.0
 40
6.625394999998744
100
AcDbArc
 50
-73.10478999995438
 51
-22.2156902459168
  0
ARC
  5
2C1
330
1F
100
AcDbEntity
  8
0
  6
Continuous
 62
     7
100
AcDbCircle
 10
2908.073538018897
 20
432.8393054197995
 30
0.0
 40
3.297381999994768
100
AcDbArc
 50
112.8033339999911
 51
159.3073145032667
  0
ARC
  5
2C2
330
1F
100
AcDbEntity
  8
0
  6
Continuous
 62
     7
100
AcDbCircle
 10
2908.073538018897
 20
432.8393054197995
 30
0.0
 40
3.297381999999093
100
AcDbArc
 50
159.3073145032667
 51
-179.39581799997
  0
ARC
  5
2C3
330
1F
100
AcDbEntity
  8
0
  6
Continuous
 62
     7
100
AcDbCircle
 10
2904.72466705359
 20
442.1658993376705
 30
0.0
 40
6.625395000001883
100
AcDbArc
 50
-22.2156902459168
 51
-10.29652499996061
  0
ARC
  5
2C4
330
1F
100
AcDbEntity
  8
1
  6
Continuous
 62
     7
100
AcDbCircle
 10
2889.482332379024
 20
449.7453481684415
 30
0.0
 40
4.0
100
AcDbArc
 50
180.0
 51
-90.0
  0
ARC
  5
2C5
330
1F
100
AcDbEntity
  8
1
  6
Continuous
 62
     7
100
AcDbCircle
 10
2889.482332379024
 20
449.7453481684415
 30
0.0
 40
4.000000000000888
100
AcDbArc
 50
89.76010546573316
 51
180.0
  0
ARC
  5
2C6
330
1F
100
AcDbEntity
  8
0
  6
Continuous
 62
     7
100
AcDbCircle
 10
1689.382435378944
 20
868.5985002327716
 30
0.0
 40
34.92462899999922
100
AcDbArc
 50
128.3063539999918
 51
137.3304053082212
  0
ARC
  5
2C7
330
1F
100
AcDbEntity
  8
0
  6
Continuous
 62
     7
100
AcDbCircle
 10
1689.382435378944
 20
868.5985002327716
 30
0.0
 40
42.9246289999948
100
AcDbArc
 50
127.5084979999978
 51
140.2760754055115
  0
ARC
  5
2C8
330
1F
100
AcDbEntity
  8
0
  6
Continuous
 62
     7
100
AcDbCircle
 10
1660.758038570705
 20
898.1682739641306
 30
0.0
 40
5.125395000001348
100
AcDbArc
 50
7.2952100000303
 51
60.95337699993031
  0
ARC
  5
2C9
330
1F
100
AcDbEntity
  8
0
  6
Continuous
 62
     7
100
AcDbCircle
 10
1670.512510378944
 20
899.9148642327696
 30
0.0
 40
4.79738200000312
100
AcDbArc
 50
-166.7966659999958
 51
-125.3946290000411
  0
ARC
  5
2CA
330
1F
100
AcDbEntity
  8
0
  6
Continuous
 62
     7
100
AcDbCircle
 10
1646.712328378944
 20
878.3225222327706
 30
0.0
 40
0.4999999999962987
100
AcDbArc
 50
70.00000000018872
 51
160.0000000002867
  0
ARC
  5
2CB
330
1F
100
AcDbEntity
  8
0
  6
Continuous
 62
     7
100
AcDbCircle
 10
1702.682347378944
 20
871.1634292327694
 30
0.0
 40
6.79999999999809
100
AcDbArc
 50
-0.00012900001513
 51
90.0
  0
ARC
  5
2CC
330
1F
100
AcDbEntity
  8
0
  6
Continuous
 62
     7
100
AcDbCircle
 10
1702.682347378944
 20
804.7634352327705
 30
0.0
 40
6.800000000000637
100
AcDbArc
 50
-90.0
 51
-0.00025699997406
  0
ARC
  5
2CD
330
1F
100
AcDbEntity
  8
0
  6
DASH_CENTER
 62
     3
100
AcDbCircle
 10
1669.482335378944
 20
837.9634322327706
 30
0.0
 40
47.00000000000068
100
AcDbArc
 50
38.84699099999703
 51
51.21640000000595
  0
ARC
  5
2CE
330
1F
100
AcDbEntity
  8
0
  6
DASH_CENTER
 62
     3
100
AcDbCircle
 10
1669.482335378944
 20
837.9634322327706
 30
0.0
 40
47.00000000000158
100
AcDbArc
 50
-50.81123400000251
 51
-36.89630699999605
  0
ARC
  5
2CF
330
1F
100
AcDbEntity
  8
0
  6
Continuous
 62
     7
100
AcDbCircle
 10
1689.382435378944
 20
868.5985002327716
 30
0.0
 40
34.92462900000203
100
AcDbArc
 50
137.3304053082212
 51
148.0880160000044
  0
ARC
  5
2D0
330
1F
100
AcDbEntity
  8
0
  6
Continuous
 62
     7
100
AcDbCircle
 10
1689.075152378944
 20
868.2256162327694
 30
0.0
 40
34.92462900000137
100
AcDbArc
 50
151.4069489999941
 51
159.2268909999972
  0
ARC
  5
2D1
330
1F
100
AcDbEntity
  8
0
  6
Continuous
 62
     7
100
AcDbCircle
 10
1689.382435378944
 20
868.5985002327716
 30
0.0
 40
42.92462900000029
100
AcDbArc
 50
140.2760754055115
 51
148.3512109999958
  0
ARC
  5
2D2
330
1F
100
AcDbEntity
  8
0
  6
Continuous
 62
     7
100
AcDbCircle
 10
1689.075152378944
 20
868.2256162327694
 30
0.0
 40
42.9246290000047
100
AcDbArc
 50
151.0514479999952
 51
158.9049730000002
  0
ARC
  5
2D3
330
1F
100
AcDbEntity
  8
0
  6
Continuous
 62
     7
100
AcDbCircle
 10
1653.346362378942
 20
884.5187712327706
 30
0.0
 40
6.964582999998643
100
AcDbArc
 50
-148.6011469999483
 51
-109.2401490000156
  0
ARC
  5
2D4
330
1F
100
AcDbEntity
  8
0
  6
Continuous
 62
     7
100
AcDbCircle
 10
1649.331291378943
 20
881.5926532327694
 30
0.0
 40
2.053484000001133
100
AcDbArc
 50
95.84283399991159
 51
-159.9986550000418
  0
ARC
  5
2D5
330
1F
100
AcDbEntity
  8
0
  6
Continuous
 62
     7
100
AcDbCircle
 10
1655.121496378945
 20
886.2626162327697
 30
0.0
 40
6.549267000002327
100
AcDbArc
 50
-156.3507840000109
 51
-118.4389019999642
  0
ARC
  5
2D6
330
1F
100
AcDbEntity
  8
0
  6
Continuous
 62
     7
100
AcDbCircle
 10
1636.282323378944
 20
804.7634352327705
 30
0.0
 40
6.799999999997421
100
AcDbArc
 50
-179.9997430000259
 51
-90.0
  0
ARC
  5
2D7
330
1F
100
AcDbEntity
  8
0
  6
Continuous
 62
     7
100
AcDbCircle
 10
1636.282323378944
 20
871.1634292327694
 30
0.0
 40
6.800000000000182
100
AcDbArc
 50
90.0
 51
-179.9998709999849
  0
ARC
  5
2D8
330
1F
100
AcDbEntity
  8
0
  6
DASH_CENTER
 62
     3
100
AcDbCircle
 10
1669.482335378944
 20
837.9634322327706
 30
0.0
 40
46.99999999999647
100
AcDbArc
 50
-143.4478000000003
 51
-129.1887659999977
  0
ARC
  5
2D9
330
1F
100
AcDbEntity
  8
0
  6
DASH_CENTER
 62
     3
100
AcDbCircle
 10
1669.482335378944
 20
837.9634322327706
 30
0.0
 40
47.00000000000048
100
AcDbArc
 50
128.7835999999952
 51
142.6758709999998
  0
ARC
  5
2DA
330
1F
100
AcDbEntity
  8
0
  6
Continuous
 62
     7
100
AcDbCircle
 10
1654.301335378944
 20
876.0634322327705
 30
0.0
 40
4.999999999998574
100
AcDbArc
 50
59.26213099997853
 51
120.7378690000416
  0
ARC
  5
2DB
330
1F
100
AcDbEntity
  8
0
  6
Continuous
 62
     7
100
AcDbCircle
 10
1652.001335378943
 20
879.9312482327705
 30
0.0
 40
0.5000000000003434
100
AcDbArc
 50
120.7378690005128
 51
180.0
  0
ARC
  5
2DC
330
1F
100
AcDbEntity
  8
0
  6
Continuous
 62
     7
100
AcDbCircle
 10
1656.601335378943
 20
879.9312482327705
 30
0.0
 40
0.5
100
AcDbArc
 50
0.0
 51
59.26213100027104
  0
ARC
  5
2DD
330
1F
100
AcDbEntity
  8
0
  6
Continuous
 62
     7
100
AcDbCircle
 10
1708.482335378986
 20
460.7458101684424
 30
0.0
 40
1.0
100
AcDbArc
 50
-90.0
 51
0.0
  0
ARC
  5
2DE
330
1F
100
AcDbEntity
  8
0
  6
Continuous
 62
     7
100
AcDbCircle
 10
1630.482335378986
 20
460.7458101684424
 30
0.0
 40
1.0
100
AcDbArc
 50
180.0
 51
-90.0
  0
ARC
  5
2DF
330
1F
100
AcDbEntity
  8
1
  6
DASHED
 62
     4
100
AcDbCircle
 10
2611.982335378986
 20
810.4634322327797
 30
0.0
 40
17.49999999999809
100
AcDbArc
 50
27.66044989928894
 51
-113.8955081860765
  0
ARC
  5
2E0
330
1F
100
AcDbEntity
  8
1
  6
Continuous
 62
     7
100
AcDbCircle
 10
2611.982335378986
 20
810.4634322327797
 30
0.0
 40
17.5
100
AcDbArc
 50
0.0
 51
27.66044989928894
  0
ARC
  5
2E1
330
1F
100
AcDbEntity
  8
1
  6
Continuous
 62
     7
100
AcDbCircle
 10
2611.982335378986
 20
810.4634322327797
 30
0.0
 40
17.50000000000044
100
AcDbArc
 50
-113.8955081860765
 51
0.0
  0
ARC
  5
2E2
330
1F
100
AcDbEntity
  8
1
  6
Continuous
 62
     7
100
AcDbCircle
 10
2120.0746591651
 20
162.7750513448245
 30
0.0
 40
2.555822748414055
100
AcDbArc
 50
55.61575253190482
 51
124.3842474682466
  0
ARC
  5
2E3
330
1F
100
AcDbEntity
  8
1
  6
Continuous
 62
     7
100
AcDbCircle
 10
2124.404786184021
 20
155.7774560806256
 30
0.0
 40
9.55341801261425
100
AcDbArc
 50
72.41204622598509
 51
107.5879537740071
  0
ARC
  5
2E4
330
1F
100
AcDbEntity
  8
1
  6
Continuous
 62
     7
100
AcDbCircle
 10
2128.734913202939
 20
162.7750513448245
 30
0.0
 40
2.555822748414055
100
AcDbArc
 50
55.61575253190482
 51
124.3842474680195
  0
ARC
  5
2E5
330
1F
100
AcDbEntity
  8
1
  6
Continuous
 62
     7
100
AcDbCircle
 10
2116.34896343558
 20
98.90074707432041
 30
0.0
 40
2.555822748416
100
AcDbArc
 50
-34.38424746809007
 51
34.38424746820837
  0
ARC
  5
2E6
330
1F
100
AcDbEntity
  8
1
  6
Continuous
 62
     7
100
AcDbCircle
 10
2109.35136817139
 20
103.2308740932485
 30
0.0
 40
9.553418012607263
100
AcDbArc
 50
-17.58795377401926
 51
17.58795377399634
  0
ARC
  5
2E7
330
1F
100
AcDbEntity
  8
1
  6
Continuous
 62
     7
100
AcDbCircle
 10
2116.34896343558
 20
107.5610011121685
 30
0.0
 40
2.5558227484173
100
AcDbArc
 50
-34.38424746813266
 51
34.38424746813082
  0
ARC
  5
2E8
330
1F
100
AcDbEntity
  8
1
  6
Continuous
 62
     7
100
AcDbCircle
 10
2116.34896343558
 20
121.5610011121676
 30
0.0
 40
2.555822748417814
100
AcDbArc
 50
-34.38424746814948
 51
34.38424746813082
  0
ARC
  5
2E9
330
1F
100
AcDbEntity
  8
1
  6
Continuous
 62
     7
100
AcDbCircle
 10
2109.35136817139
 20
117.2308740932444
 30
0.0
 40
9.55341801260726
100
AcDbArc
 50
-17.58795377401917
 51
17.58795377400951
  0
ARC
  5
2EA
330
1F
100
AcDbEntity
  8
1
  6
Continuous
 62
     7
100
AcDbCircle
 10
2116.34896343558
 20
112.9007470743186
 30
0.0
 40
2.5558227484173
100
AcDbArc
 50
-34.38424746813266
 51
34.38424746816605
  0
ARC
  5
2EB
330
1F
100
AcDbEntity
  8
1
  6
PHANTOM
 62
     3
100
AcDbCircle
 10
2611.982335378986
 20
810.4634322327697
 30
0.0
 40
17.5
100
AcDbArc
 50
-90.0
 51
88.48030714878964
  0
ARC
  5
2EC
330
1F
100
AcDbEntity
  8
1
  6
Continuous
 62
     7
100
AcDbCircle
 10
2854.812462397941
 20
481.2899874200216
 30
0.0
 40
2.555822748414736
100
AcDbArc
 50
55.61575253191525
 51
124.3842474680343
  0
ARC
  5
2ED
330
1F
100
AcDbEntity
  8
1
  6
Continuous
 62
     7
100
AcDbCircle
 10
2850.482335379023
 20
474.2923921558217
 30
0.0
 40
9.553418012615573
100
AcDbArc
 50
72.41204622599618
 51
107.587953774009
  0
ARC
  5
2EE
330
1F
100
AcDbEntity
  8
1
  6
Continuous
 62
     7
100
AcDbCircle
 10
2846.152208360102
 20
481.2899874200216
 30
0.0
 40
2.555822748414222
100
AcDbArc
 50
55.61575253193207
 51
124.384247468253
  0
ARC
  5
2EF
330
1F
100
AcDbEntity
  8
1
  6
Continuous
 62
     7
100
AcDbCircle
 10
2540.312462397918
 20
481.2899874200225
 30
0.0
 40
2.555822748427101
100
AcDbArc
 50
55.6157525319073
 51
124.3842474679749
  0
ARC
  5
2F0
330
1F
100
AcDbEntity
  8
1
  6
Continuous
 62
     7
100
AcDbCircle
 10
2535.982335378996
 20
474.2923921558227
 30
0.0
 40
9.553418012625
100
AcDbArc
 50
72.41204622601411
 51
107.5879537739807
  0
ARC
  5
2F1
330
1F
100
AcDbEntity
  8
1
  6
Continuous
 62
     7
100
AcDbCircle
 10
2531.652208360079
 20
481.2899874200225
 30
0.0
 40
2.555822748421451
100
AcDbArc
 50
55.61575253209239
 51
124.3842474679749
  0
ARC
  5
2F2
330
1F
100
AcDbEntity
  8
1
  6
Continuous
 62
     7
100
AcDbCircle
 10
1794.652208360066
 20
481.2899874200225
 30
0.0
 40
2.555822748422478
100
AcDbArc
 50
55.61575253205874
 51
124.3842474681264
  0
ARC
  5
2F3
330
1F
100
AcDbEntity
  8
1
  6
Continuous
 62
     7
100
AcDbCircle
 10
1798.982335378986
 20
474.2923921558227
 30
0.0
 40
9.55341801262507
100
AcDbArc
 50
72.41204622601281
 51
107.5879537739859
  0
ARC
  5
2F4
330
1F
100
AcDbEntity
  8
1
  6
Continuous
 62
     7
100
AcDbCircle
 10
1803.312462397906
 20
481.2899874200225
 30
0.0
 40
2.555822748428128
100
AcDbArc
 50
55.61575253187365
 51
124.3842474679413
  0
ARC
  5
2F5
330
1F
100
AcDbEntity
  8
1
  6
DASH_CENTER
 62
     3
100
AcDbCircle
 10
1669.482335378964
 20
822.9634322327706
 30
0.0
 40
30.0
100
AcDbArc
 50
180.0
 51
-115.8419327631715
  0
ARC
  5
2F6
330
1F
100
AcDbEntity
  8
1
  6
DASHED
 62
     4
100
AcDbCircle
 10
1669.482335378964
 20
822.9634322327706
 30
0.0
 40
30.00000000000162
100
AcDbArc
 50
-64.15806723683048
 51
0.0
  0
ARC
  5
2F7
330
1F
100
AcDbEntity
  8
1
  6
Continuous
 62
     7
100
AcDbCircle
 10
1669.482335378964
 20
822.9634322327706
 30
0.0
 40
30.00000000000091
100
AcDbArc
 50
-89.99999999995831
 51
-64.15806723683048
  0
ARC
  5
2F8
330
1F
100
AcDbEntity
  8
1
  6
DASH_CENTER
 62
     3
100
AcDbCircle
 10
1669.482335378964
 20
822.9634322327706
 30
0.0
 40
30.00000000000091
100
AcDbArc
 50
90.0
 51
180.0
  0
ARC
  5
2F9
330
1F
100
AcDbEntity
  8
1
  6
DASHED
 62
     4
100
AcDbCircle
 10
1669.482335378964
 20
822.9634322327706
 30
0.0
 40
30.0
100
AcDbArc
 50
0.0
 51
90.0
  0
ARC
  5
2FA
330
1F
100
AcDbEntity
  8
1
  6
DASH_CENTER
 62
     3
100
AcDbCircle
 10
1669.482335378964
 20
822.9634322327706
 30
0.0
 40
30.00000000000211
100
AcDbArc
 50
-115.8419327631715
 51
-89.99999999995831
  0
CIRCLE
  5
2FB
330
1F
100
AcDbEntity
  8
0
  6
Continuous
 62
     7
100
AcDbCircle
 10
1669.482335378944
 20
837.9634322327706
 30
0.0
 40
36.5
  0
CIRCLE
  5
2FC
330
1F
100
AcDbEntity
  8
1
  6
Continuous
 62
     7
100
AcDbCircle
 10
1829.482335379046
 20
814.9634322327797
 30
0.0
 40
3.5
  0
CIRCLE
  5
2FD
330
1F
100
AcDbEntity
  8
1
  6
Continuous
 62
     7
100
AcDbCircle
 10
2499.482335379006
 20
814.9634322327797
 30
0.0
 40
3.5
  0
ARC
  5
2FE
330
1F
100
AcDbEntity
  8
1
  6
Continuous
 62
     7
100
AcDbCircle
 10
2815.982335379023
 20
453.2458101684415
 30
0.0
 40
0.5
100
AcDbArc
 50
90.0
 51
180.0
  0
ARC
  5
2FF
330
1F
100
AcDbEntity
  8
1
  6
Continuous
 62
     7
100
AcDbCircle
 10
2108.904786184018
 20
134.7308740932435
 30
0.0
 40
0.5000000000027285
100
AcDbArc
 50
0.0
 51
89.99999999968733
  0
ARC
  5
300
330
1F
100
AcDbEntity
  8
1
  6
Continuous
 62
     7
100
AcDbCircle
 10
2089.904786184021
 20
134.7308740932435
 30
0.0
 40
0.5
100
AcDbArc
 50
90.0
 51
180.0
  0
ARC
  5
301
330
1F
100
AcDbEntity
  8
1
  6
Continuous
 62
     7
100
AcDbCircle
 10
2108.904786184021
 20
93.73087409324353
 30
0.0
 40
0.5
100
AcDbArc
 50
-90.0
 51
0.0
  0
ARC
  5
302
330
1F
100
AcDbEntity
  8
1
  6
Continuous
 62
     7
100
AcDbCircle
 10
2089.904786184021
 20
93.73087409324353
 30
0.0
 40
0.5
100
AcDbArc
 50
180.0
 51
-90.0
  0
ARC
  5
303
330
1F
100
AcDbEntity
  8
1
  6
DASHED
 62
     4
100
AcDbCircle
 10
2816.482335379022
 20
449.7458101684415
 30
0.0
 40
2.0
100
AcDbArc
 50
90.0
 51
180.0
  0
ARC
  5
304
330
1F
100
AcDbEntity
  8
1
  6
DASHED
 62
     4
100
AcDbCircle
 10
2816.482335379022
 20
413.7458101684415
 30
0.0
 40
2.0
100
AcDbArc
 50
180.0
 51
-90.0
  0
ARC
  5
305
330
1F
100
AcDbEntity
  8
1
  6
DASHED
 62
     4
100
AcDbCircle
 10
2847.482335379022
 20
413.7458101684415
 30
0.0
 40
2.0
100
AcDbArc
 50
-90.0
 51
0.0
  0
ARC
  5
306
330
1F
100
AcDbEntity
  8
1
  6
DASHED
 62
     4
100
AcDbCircle
 10
2847.482335379022
 20
449.7458101684415
 30
0.0
 40
2.0
100
AcDbArc
 50
0.0
 51
90.0
  0
ARC
  5
307
330
1F
100
AcDbEntity
  8
1
  6
DASHED
 62
     4
100
AcDbCircle
 10
2848.482335379022
 20
439.3871873050616
 30
0.0
 40
1.000000000002741
100
AcDbArc
 50
-63.00000000004896
 51
0.0
  0
ARC
  5
308
330
1F
100
AcDbEntity
  8
1
  6
DASHED
 62
     4
100
AcDbCircle
 10
2848.482335379022
 20
432.1044330318227
 30
0.0
 40
1.0
100
AcDbArc
 50
0.0
 51
62.99999999999277
  0
ARC
  5
309
330
1F
100
AcDbEntity
  8
1
  6
DASHED
 62
     4
100
AcDbCircle
 10
2847.482335379022
 20
434.8586109565808
 30
0.0
 40
1.0
100
AcDbArc
 50
180.0
 51
-116.9999999999549
  0
ARC
  5
30A
330
1F
100
AcDbEntity
  8
1
  6
DASHED
 62
     4
100
AcDbCircle
 10
2847.482335379022
 20
436.6330093803017
 30
0.0
 40
1.000000000001062
100
AcDbArc
 50
116.9999999999416
 51
180.0
  0
ARC
  5
30B
330
1F
100
AcDbEntity
  8
1
  6
DASHED
 62
     4
100
AcDbCircle
 10
2816.482335379022
 20
436.6330093803017
 30
0.0
 40
1.0
100
AcDbArc
 50
0.0
 51
63.00000000001199
  0
ARC
  5
30C
330
1F
100
AcDbEntity
  8
1
  6
DASHED
 62
     4
100
AcDbCircle
 10
2816.482335379022
 20
434.8586109565808
 30
0.0
 40
1.000000000001019
100
AcDbArc
 50
-62.99999999999868
 51
0.0
  0
ARC
  5
30D
330
1F
100
AcDbEntity
  8
1
  6
DASHED
 62
     4
100
AcDbCircle
 10
2815.482335379022
 20
432.1044330318227
 30
0.0
 40
1.000000000000404
100
AcDbArc
 50
116.9999999999608
 51
180.0
  0
ARC
  5
30E
330
1F
100
AcDbEntity
  8
1
  6
DASHED
 62
     4
100
AcDbCircle
 10
2815.482335379022
 20
439.3871873050616
 30
0.0
 40
1.0
100
AcDbArc
 50
180.0
 51
-116.9999999999046
  0
ARC
  5
30F
330
1F
100
AcDbEntity
  8
1
  6
DASHED
 62
     4
100
AcDbCircle
 10
2627.482335378985
 20
449.7458101684424
 30
0.0
 40
2.0
100
AcDbArc
 50
0.0
 51
90.0
  0
ARC
  5
310
330
1F
100
AcDbEntity
  8
1
  6
DASHED
 62
     4
100
AcDbCircle
 10
2627.482335378985
 20
413.7458101684424
 30
0.0
 40
2.0
100
AcDbArc
 50
-90.0
 51
0.0
  0
ARC
  5
311
330
1F
100
AcDbEntity
  8
1
  6
DASHED
 62
     4
100
AcDbCircle
 10
2596.482335378985
 20
413.7458101684424
 30
0.0
 40
2.0
100
AcDbArc
 50
180.0
 51
-90.0
  0
ARC
  5
312
330
1F
100
AcDbEntity
  8
1
  6
DASHED
 62
     4
100
AcDbCircle
 10
2596.482335378985
 20
449.7458101684424
 30
0.0
 40
2.0
100
AcDbArc
 50
90.0
 51
180.0
  0
ARC
  5
313
330
1F
100
AcDbEntity
  8
1
  6
DASHED
 62
     4
100
AcDbCircle
 10
2595.482335378985
 20
439.3871873050625
 30
0.0
 40
1.0
100
AcDbArc
 50
180.0
 51
-117.0000000000102
  0
ARC
  5
314
330
1F
100
AcDbEntity
  8
1
  6
DASHED
 62
     4
100
AcDbCircle
 10
2595.482335378985
 20
432.1044330318337
 30
0.0
 40
0.9999999999925607
100
AcDbArc
 50
117.0000000002483
 51
180.0
  0
ARC
  5
315
330
1F
100
AcDbEntity
  8
1
  6
DASHED
 62
     4
100
AcDbCircle
 10
2596.482335378985
 20
434.8586109565927
 30
0.0
 40
1.000000000009458
100
AcDbArc
 50
-63.00000000039126
 51
0.0
  0
ARC
  5
316
330
1F
100
AcDbEntity
  8
1
  6
DASHED
 62
     4
100
AcDbCircle
 10
2596.482335378985
 20
436.6330093803126
 30
0.0
 40
1.0
100
AcDbArc
 50
0.0
 51
62.99999999986783
  0
ARC
  5
317
330
1F
100
AcDbEntity
  8
1
  6
DASHED
 62
     4
100
AcDbCircle
 10
2627.482335378985
 20
436.6330093803126
 30
0.0
 40
0.9999999999925607
100
AcDbArc
 50
117.0000000002483
 51
180.0
  0
ARC
  5
318
330
1F
100
AcDbEntity
  8
1
  6
DASHED
 62
     4
100
AcDbCircle
 10
2627.482335378985
 20
434.8586109565927
 30
0.0
 40
1.0
100
AcDbArc
 50
180.0
 51
-116.9999999997248
  0
ARC
  5
319
330
1F
100
AcDbEntity
  8
1
  6
DASHED
 62
     4
100
AcDbCircle
 10
2628.482335378985
 20
432.1044330318337
 30
0.0
 40
1.0
100
AcDbArc
 50
0.0
 51
62.99999999986783
  0
ARC
  5
31A
330
1F
100
AcDbEntity
  8
1
  6
DASHED
 62
     4
100
AcDbCircle
 10
2628.482335378985
 20
439.3871873050625
 30
0.0
 40
0.9999999999996828
100
AcDbArc
 50
-63.00000000010589
 51
0.0
  0
ARC
  5
31B
330
1F
100
AcDbEntity
  8
1
  6
Continuous
 62
     7
100
AcDbCircle
 10
2845.482335379029
 20
451.7458101684415
 30
0.0
 40
2.0
100
AcDbArc
 50
0.0
 51
90.0
  0
ARC
  5
31C
330
1F
100
AcDbEntity
  8
1
  6
Continuous
 62
     7
100
AcDbCircle
 10
2849.482335379029
 20
415.7458101684415
 30
0.0
 40
2.0
100
AcDbArc
 50
180.0
 51
-90.0
  0
ARC
  5
31D
330
1F
100
AcDbEntity
  8
1
  6
Continuous
 62
     7
100
AcDbCircle
 10
2817.182335379024
 20
475.5458101684426
 30
0.0
 40
1.199999999998909
100
AcDbArc
 50
90.0
 51
180.0
  0
ARC
  5
31E
330
1F
100
AcDbEntity
  8
1
  6
Continuous
 62
     7
100
AcDbCircle
 10
2884.282335379032
 20
475.5458101684426
 30
0.0
 40
1.19999999999709
100
AcDbArc
 50
0.0
 51
90.0
  0
ARC
  5
31F
330
1F
100
AcDbEntity
  8
1
  6
Continuous
 62
     7
100
AcDbCircle
 10
1811.482335378986
 20
463.7458101684424
 30
0.0
 40
2.0
100
AcDbArc
 50
180.0
 51
-119.999999998026
  0
ARC
  5
320
330
1F
100
AcDbEntity
  8
1
  6
Continuous
 62
     7
100
AcDbCircle
 10
1807.482335378975
 20
455.7458101684424
 30
0.0
 40
2.0
100
AcDbArc
 50
-90.0
 51
0.0
  0
ARC
  5
321
330
1F
100
AcDbEntity
  8
1
  6
Continuous
 62
     7
100
AcDbCircle
 10
2521.482335378986
 20
455.7458101684424
 30
0.0
 40
2.0
100
AcDbArc
 50
180.0
 51
-90.0
  0
ARC
  5
322
330
1F
100
AcDbEntity
  8
1
  6
Continuous
 62
     7
100
AcDbCircle
 10
1720.682335378984
 20
475.5458101684426
 30
0.0
 40
1.199999999999818
100
AcDbArc
 50
90.0
 51
180.0
  0
ARC
  5
323
330
1F
100
AcDbEntity
  8
1
  6
Continuous
 62
     7
100
AcDbCircle
 10
2612.482335378986
 20
809.4634322327697
 30
0.0
 40
15.0
100
AcDbArc
 50
-90.0
 51
0.0
  0
ARC
  5
324
330
1F
100
AcDbEntity
  8
1
  6
Continuous
 62
     7
100
AcDbCircle
 10
2612.482335378986
 20
848.9634322327797
 30
0.0
 40
15.0
100
AcDbArc
 50
0.0
 51
90.0
  0
ARC
  5
325
330
1F
100
AcDbEntity
  8
1
  6
Continuous
 62
     7
100
AcDbCircle
 10
1721.482335378986
 20
455.7458101684424
 30
0.0
 40
2.0
100
AcDbArc
 50
180.0
 51
-90.0
  0
ARC
  5
326
330
1F
100
AcDbEntity
  8
1
  6
Continuous
 62
     7
100
AcDbCircle
 10
2626.282335378986
 20
475.5458101684426
 30
0.0
 40
1.200000000000273
100
AcDbArc
 50
0.0
 51
90.0
  0
ARC
  5
327
330
1F
100
AcDbEntity
  8
1
  6
Continuous
 62
     7
100
AcDbCircle
 10
2517.482335378986
 20
463.7458101684424
 30
0.0
 40
2.000000000001111
100
AcDbArc
 50
-59.99999999935648
 51
0.0
  0
ARC
  5
328
330
1F
100
AcDbEntity
  8
1
  6
Continuous
 62
     7
100
AcDbCircle
 10
2820.482335379023
 20
527.7458101684415
 30
0.0
 40
4.0
100
AcDbArc
 50
90.0
 51
180.0
  0
ARC
  5
329
330
1F
100
AcDbEntity
  8
1
  6
Continuous
 62
     7
100
AcDbCircle
 10
1846.482335379046
 20
827.9634322327797
 30
0.0
 40
2.0
100
AcDbArc
 50
0.0
 51
90.0
  0
ARC
  5
32A
330
1F
100
AcDbEntity
  8
1
  6
Continuous
 62
     7
100
AcDbCircle
 10
1812.482335379046
 20
827.9634322327797
 30
0.0
 40
2.0
100
AcDbArc
 50
90.0
 51
180.0
  0
ARC
  5
32B
330
1F
100
AcDbEntity
  8
1
  6
Continuous
 62
     7
100
AcDbCircle
 10
2482.482335379006
 20
827.9634322327797
 30
0.0
 40
2.0
100
AcDbArc
 50
90.0
 51
180.0
  0
ARC
  5
32C
330
1F
100
AcDbEntity
  8
1
  6
Continuous
 62
     7
100
AcDbCircle
 10
2516.482335379006
 20
827.9634322327797
 30
0.0
 40
2.0
100
AcDbArc
 50
0.0
 51
90.0
  0
ARC
  5
32D
330
1F
100
AcDbEntity
  8
1
  6
Continuous
 62
     7
100
AcDbCircle
 10
2109.404786184021
 20
138.2308740932335
 30
0.0
 40
4.0
100
AcDbArc
 50
0.0
 51
90.0
  0
ARC
  5
32E
330
1F
100
AcDbEntity
  8
1
  6
Continuous
 62
     7
100
AcDbCircle
 10
2094.404786184021
 20
142.2308740932435
 30
0.0
 40
4.0
100
AcDbArc
 50
180.0
 51
-90.0
  0
ARC
  5
32F
330
1F
100
AcDbEntity
  8
1
  6
Continuous
 62
     7
100
AcDbCircle
 10
2094.404786184021
 20
209.2308740932435
 30
0.0
 40
4.0
100
AcDbArc
 50
90.0
 51
180.0
  0
ARC
  5
330
330
1F
100
AcDbEntity
  8
1
  6
Continuous
 62
     7
100
AcDbCircle
 10
2091.104786184023
 20
157.0308740932455
 30
0.0
 40
1.200000000001308
100
AcDbArc
 50
125.6853347127302
 51
180.0
  0
ARC
  5
331
330
1F
100
AcDbEntity
  8
1
  6
Continuous
 62
     7
100
AcDbCircle
 10
2097.104786184021
 20
157.0308740932455
 30
0.0
 40
1.199999999997999
100
AcDbArc
 50
90.0
 51
180.0
  0
ARC
  5
332
330
1F
100
AcDbEntity
  8
1
  6
Continuous
 62
     7
100
AcDbCircle
 10
2158.204786184028
 20
157.0308740932455
 30
0.0
 40
1.19999999999709
100
AcDbArc
 50
0.0
 51
90.0
  0
ARC
  5
333
330
1F
100
AcDbEntity
  8
1
  6
Continuous
 62
     7
100
AcDbCircle
 10
2112.404786184022
 20
154.0308740932455
 30
0.0
 40
3.0
100
AcDbArc
 50
90.0
 51
180.0
  0
ARC
  5
334
330
1F
100
AcDbEntity
  8
1
  6
Continuous
 62
     7
100
AcDbCircle
 10
1637.482335378986
 20
803.9634322327697
 30
0.0
 40
8.0
100
AcDbArc
 50
180.0
 51
-90.0
  0
ARC
  5
335
330
1F
100
AcDbEntity
  8
1
  6
Continuous
 62
     7
100
AcDbCircle
 10
1635.482335378986
 20
871.9634292327696
 30
0.0
 40
6.0
100
AcDbArc
 50
90.0
 51
180.0
  0
ARC
  5
336
330
1F
100
AcDbEntity
  8
1
  6
Continuous
 62
     7
100
AcDbCircle
 10
1711.48233537897
 20
863.9634292327696
 30
0.0
 40
2.0
100
AcDbArc
 50
180.0
 51
-90.0
  0
ARC
  5
337
330
1F
100
AcDbEntity
  8
1
  6
Continuous
 62
     7
100
AcDbCircle
 10
1703.482335378965
 20
871.9634319895295
 30
0.0
 40
6.0
100
AcDbArc
 50
0.0
 51
90.00000232279949
  0
ARC
  5
338
330
1F
100
AcDbEntity
  8
1
  6
DASHED
 62
     4
100
AcDbCircle
 10
1698.482335378964
 20
432.1044330318237
 30
0.0
 40
1.0
100
AcDbArc
 50
0.0
 51
63.0000000001745
  0
ARC
  5
339
330
1F
100
AcDbEntity
  8
1
  6
DASHED
 62
     4
100
AcDbCircle
 10
1697.482335378964
 20
434.8586109565836
 30
0.0
 40
1.0
100
AcDbArc
 50
180.0
 51
-116.9999999999614
  0
ARC
  5
33A
330
1F
100
AcDbEntity
  8
1
  6
DASHED
 62
     4
100
AcDbCircle
 10
1697.482335378964
 20
436.6330093803035
 30
0.0
 40
1.000000000000664
100
AcDbArc
 50
117.0000000000117
 51
180.0
  0
ARC
  5
33B
330
1F
100
AcDbEntity
  8
1
  6
DASHED
 62
     4
100
AcDbCircle
 10
1698.482335378964
 20
439.3871873050625
 30
0.0
 40
0.9999999999992699
100
AcDbArc
 50
-63.00000000015233
 51
0.0
  0
ARC
  5
33C
330
1F
100
AcDbEntity
  8
1
  6
DASHED
 62
     4
100
AcDbCircle
 10
1640.482335378992
 20
439.3871873050625
 30
0.0
 40
1.0
100
AcDbArc
 50
180.0
 51
-116.9999999999638
  0
ARC
  5
33D
330
1F
100
AcDbEntity
  8
1
  6
DASHED
 62
     4
100
AcDbCircle
 10
1641.482335378992
 20
436.6330093803035
 30
0.0
 40
1.0
100
AcDbArc
 50
0.0
 51
62.99999999998833
  0
ARC
  5
33E
330
1F
100
AcDbEntity
  8
1
  6
DASHED
 62
     4
100
AcDbCircle
 10
1640.482335378992
 20
432.1044330318237
 30
0.0
 40
1.000000000001062
100
AcDbArc
 50
116.9999999999416
 51
180.0
  0
ARC
  5
33F
330
1F
100
AcDbEntity
  8
1
  6
DASHED
 62
     4
100
AcDbCircle
 10
1641.482335378992
 20
434.8586109565836
 30
0.0
 40
1.000000000002386
100
AcDbArc
 50
-63.0000000000386
 51
0.0
  0
ARC
  5
340
330
1F
100
AcDbEntity
  8
1
  6
DASHED
 62
     4
100
AcDbCircle
 10
1641.482335378992
 20
413.7458101684424
 30
0.0
 40
2.0
100
AcDbArc
 50
180.0
 51
-90.0
  0
ARC
  5
341
330
1F
100
AcDbEntity
  8
1
  6
DASHED
 62
     4
100
AcDbCircle
 10
1641.482335378992
 20
449.7458101684424
 30
0.0
 40
2.0
100
AcDbArc
 50
90.0
 51
180.0
  0
ARC
  5
342
330
1F
100
AcDbEntity
  8
1
  6
DASHED
 62
     4
100
AcDbCircle
 10
1697.482335378964
 20
449.7458101684424
 30
0.0
 40
2.0
100
AcDbArc
 50
0.0
 51
90.0
  0
ARC
  5
343
330
1F
100
AcDbEntity
  8
1
  6
DASHED
 62
     4
100
AcDbCircle
 10
1697.482335378964
 20
413.7458101684424
 30
0.0
 40
2.0
100
AcDbArc
 50
-90.0
 51
0.0
  0
LWPOLYLINE
  5
344
330
1F
100
AcDbEntity
  8
0
  6
Continuous
100
AcDbPolyline
 90
        3
 70
     0
 43
0.0
 10
2096.892654989698
 20
129.0643616559355
 10
2096.821979136415
 20
128.9286542267055
 10
2096.867921673499
 20
128.7827070542176
  0
LWPOLYLINE
  5
345
330
1F
100
AcDbEntity
  8
0
  6
Continuous
100
AcDbPolyline
 90
        3
 70
     0
 43
0.0
 10
2097.101467352301
 20
128.1398954169486
 10
2097.041362170833
 20
128.4818876113286
 10
2096.867921673499
 20
128.7827070542176
  0
LWPOLYLINE
  5
346
330
1F
100
AcDbEntity
  8
0
  6
Continuous
100
AcDbPolyline
 90
        3
 70
     0
 43
0.0
 10
2096.300490203076
 20
128.1601863002065
 10
2096.255625137036
 20
128.2678520643885
 10
2096.158323526665
 20
128.3321788375665
  0
LWPOLYLINE
  5
347
330
1F
100
AcDbEntity
  8
0
  6
Continuous
100
AcDbPolyline
 90
        3
 70
     0
 43
0.0
 10
2095.800463765776
 20
128.8117978499586
 10
2095.899713986219
 20
128.5125426396876
 10
2096.158323526665
 20
128.3321788375665
  0
LWPOLYLINE
  5
348
330
1F
100
AcDbEntity
  8
0
  6
Continuous
100
AcDbPolyline
 90
        3
 70
     0
 43
0.0
 10
2100.24363853132
 20
130.7294074522265
 10
2100.197608478024
 20
130.5834260811675
 10
2100.268289899242
 20
130.4476551299867
  0
LWPOLYLINE
  5
349
330
1F
100
AcDbEntity
  8
0
  6
Continuous
100
AcDbPolyline
 90
        4
 70
     0
 43
0.0
 10
2101.012333357127
 20
130.8676334016054
 10
2100.77776362939
 20
130.9770095874756
 10
2100.519929456002
 20
130.9544531492365
 10
2100.307917295503
 20
130.8060080663186
  0
LWPOLYLINE
  5
34A
330
1F
100
AcDbEntity
  8
0
  6
Continuous
100
AcDbPolyline
 90
        3
 70
     0
 43
0.0
 10
2101.70478641874
 20
134.2310330477676
 10
2101.64617172775
 20
134.3723744419885
 10
2101.504793378187
 20
134.4309140937266
  0
LWPOLYLINE
  5
34B
330
1F
100
AcDbEntity
  8
0
  6
Continuous
100
AcDbPolyline
 90
        3
 70
     0
 43
0.0
 10
2096.669937828371
 20
132.1157739913765
 10
2096.602896670377
 20
132.0434827719055
 10
2096.578541966936
 20
131.9479474633486
  0
LWPOLYLINE
  5
34C
330
1F
100
AcDbEntity
  8
0
  6
Continuous
100
AcDbPolyline
 90
        5
 70
     0
 43
0.0
 10
2096.577629578337
 20
130.2732996627765
 10
2096.608907367271
 20
130.1658050872566
 10
2096.693056529854
 20
130.0919612442176
 10
2096.80370779136
 20
130.0749080975365
 10
2096.90618708702
 20
130.1199894806755
  0
LWPOLYLINE
  5
34D
330
1F
100
AcDbEntity
  8
0
  6
Continuous
100
AcDbPolyline
 90
        4
 70
     0
 43
0.0
 10
2098.541282470805
 20
130.4476551299867
 10
2098.600663475993
 20
130.5324557496965
 10
2098.609686502889
 20
130.6355842572166
 10
2098.565933838722
 20
130.7294074522265
  0
LWPOLYLINE
  5
34E
330
1F
100
AcDbEntity
  8
0
  6
Continuous
100
AcDbPolyline
 90
        4
 70
     0
 43
0.0
 10
2098.50165507454
 20
130.8060080663186
 10
2098.289642914045
 20
130.9544531492365
 10
2098.031808740653
 20
130.9770095874756
 10
2097.797239012917
 20
130.8676334016054
  0
LWPOLYLINE
  5
34F
330
1F
100
AcDbEntity
  8
0
  6
Continuous
100
AcDbPolyline
 90
        3
 70
     0
 43
0.0
 10
2096.669937828371
 20
132.1157739913765
 10
2096.988383077444
 20
132.4591570127786
 10
2097.104067827459
 20
132.9129493701776
  0
LWPOLYLINE
  5
350
330
1F
100
AcDbEntity
  8
0
  6
Continuous
100
AcDbPolyline
 90
        3
 70
     0
 43
0.0
 10
2097.304792884625
 20
134.4309140937266
 10
2097.163405555469
 20
134.3723793522486
 10
2097.104785951306
 20
134.2310330477676
  0
LWPOLYLINE
  5
351
330
1F
100
AcDbEntity
  8
0
  6
Continuous
100
AcDbPolyline
 90
        3
 70
     0
 43
0.0
 10
2102.651248843376
 20
128.3321788375665
 10
2102.553947233007
 20
128.2678520643885
 10
2102.509082166966
 20
128.1601863002065
  0
LWPOLYLINE
  5
352
330
1F
100
AcDbEntity
  8
0
  6
Continuous
100
AcDbPolyline
 90
        3
 70
     0
 43
0.0
 10
2102.651248843376
 20
128.3321788375665
 10
2102.909858383823
 20
128.5125426396876
 10
2103.009108604268
 20
128.8117978499586
  0
LWPOLYLINE
  5
353
330
1F
100
AcDbEntity
  8
0
  6
Continuous
100
AcDbPolyline
 90
        3
 70
     0
 43
0.0
 10
2102.231030403106
 20
131.9479474633486
 10
2102.206675699666
 20
132.0434827719055
 10
2102.139634541672
 20
132.1157739913765
  0
LWPOLYLINE
  5
354
330
1F
100
AcDbEntity
  8
0
  6
Continuous
100
AcDbPolyline
 90
        3
 70
     0
 43
0.0
 10
2102.505495817632
 20
132.9292549430065
 10
2102.545326315382
 20
132.8095961847375
 10
2102.648848683381
 20
132.7375634127866
  0
LWPOLYLINE
  5
355
330
1F
100
AcDbEntity
  8
0
  6
Continuous
100
AcDbPolyline
 90
        3
 70
     0
 43
0.0
 10
2103.007230847749
 20
132.2583345872586
 10
2102.907654603378
 20
132.5574814829065
 10
2102.648848683381
 20
132.7375634127866
  0
LWPOLYLINE
  5
356
330
1F
100
AcDbEntity
  8
0
  6
Continuous
100
AcDbPolyline
 90
        3
 70
     0
 43
0.0
 10
2101.941650696538
 20
128.7827070542176
 10
2101.987593233628
 20
128.9286542267055
 10
2101.916917380348
 20
129.0643616559355
  0
LWPOLYLINE
  5
357
330
1F
100
AcDbEntity
  8
0
  6
Continuous
100
AcDbPolyline
 90
        5
 70
     0
 43
0.0
 10
2101.903385283017
 20
130.1199894806755
 10
2102.00586457868
 20
130.0749080975365
 10
2102.116515840188
 20
130.0919612442176
 10
2102.200665002772
 20
130.1658050872566
 10
2102.231942791706
 20
130.2732996627765
  0
LWPOLYLINE
  5
358
330
1F
100
AcDbEntity
  8
0
  6
Continuous
100
AcDbPolyline
 90
        3
 70
     0
 43
0.0
 10
2101.705504542583
 20
132.9129493701776
 10
2101.8211892926
 20
132.4591570127786
 10
2102.139634541672
 20
132.1157739913765
  0
LWPOLYLINE
  5
359
330
1F
100
AcDbEntity
  8
0
  6
Continuous
100
AcDbPolyline
 90
        5
 70
     0
 43
0.0
 10
2102.504786340016
 20
134.2314688634265
 10
2102.428506253092
 20
134.6139738497486
 10
2102.211688341186
 20
134.9382003638466
 10
2101.887320007273
 20
135.1548194984575
 10
2101.504751735572
 20
135.2308740932485
  0
LWPOLYLINE
  5
35A
330
1F
100
AcDbEntity
  8
0
  6
Continuous
100
AcDbPolyline
 90
        5
 70
     0
 43
0.0
 10
2097.304820632474
 20
135.2308740932485
 10
2096.922252361384
 20
135.1548194978886
 10
2096.597884028149
 20
134.9382003631486
 10
2096.381066116758
 20
134.6139738492866
 10
2096.304786030029
 20
134.2314688634265
  0
LWPOLYLINE
  5
35B
330
1F
100
AcDbEntity
  8
0
  6
Continuous
100
AcDbPolyline
 90
        3
 70
     0
 43
0.0
 10
2096.16072368466
 20
132.7375634127866
 10
2095.901917764665
 20
132.5574814829065
 10
2095.802341520292
 20
132.2583345872586
  0
LWPOLYLINE
  5
35C
330
1F
100
AcDbEntity
  8
0
  6
Continuous
100
AcDbPolyline
 90
        3
 70
     0
 43
0.0
 10
2096.16072368466
 20
132.7375634127866
 10
2096.26424605266
 20
132.8095961847375
 10
2096.304076550407
 20
132.9292549430065
  0
LWPOLYLINE
  5
35D
330
1F
100
AcDbEntity
  8
0
  6
Continuous
100
AcDbPolyline
 90
        3
 70
     0
 43
0.0
 10
2101.941650696538
 20
128.7827070542176
 10
2101.76821019921
 20
128.4818876113286
 10
2101.708105017741
 20
128.1398954169486
  0
LINE
  5
35E
330
1F
100
AcDbEntity
  8
1
 62
     2
100
AcDbLine
 10
2129.482335378983
 20
379.7458101684438
 30
0.0
 11
2141.982335378983
 21
383.0951750738329
 31
0.0
  0
LINE
  5
35F
330
1F
100
AcDbEntity
  8
1
 62
     2
100
AcDbLine
 10
2129.482335378983
 20
379.7458101684438
 30
0.0
 11
2141.982335378983
 21
376.3964452630548
 31
0.0
  0
LEADER
  5
360
330
1F
100
AcDbEntity
  8
1
  6
Continuous
 62
     2
100
AcDbLeader
  3
Standard
 71
     0
 76
     2
 10
2129.482335378983
 20
379.7458101684438
 30
0.0
 10
2156.161599219629
 20
379.7458101684438
 30
0.0
  0
LINE
  5
361
330
1F
100
AcDbEntity
  8
1
 62
     2
100
AcDbLine
 10
2129.482335378983
 20
507.3770126233767
 30
0.0
 11
2141.982335378983
 21
510.7263775287657
 31
0.0
  0
LINE
  5
362
330
1F
100
AcDbEntity
  8
1
 62
     2
100
AcDbLine
 10
2129.482335378983
 20
507.3770126233767
 30
0.0
 11
2141.982335378983
 21
504.0276477179876
 31
0.0
  0
LEADER
  5
363
330
1F
100
AcDbEntity
  8
1
  6
Continuous
 62
     2
100
AcDbLeader
  3
Standard
 71
     0
 76
     2
 10
2129.482335378983
 20
507.3770126233767
 30
0.0
 10
2156.161599219629
 20
507.3770126233767
 30
0.0
  0
LINE
  5
364
330
1F
100
AcDbEntity
  8
1
 62
     2
100
AcDbLine
 10
1848.482335379046
 20
511.8875461966845
 30
0.0
 11
1861.837744307558
 21
521.6861698450184
 31
0.0
  0
LINE
  5
365
330
1F
100
AcDbEntity
  8
1
 62
     2
100
AcDbLine
 10
1848.482335379046
 20
511.8875461966845
 30
0.0
 11
1864.947770613234
 21
513.6956987340085
 31
0.0
  0
LEADER
  5
366
330
1F
100
AcDbEntity
  8
1
  6
Continuous
 62
     2
100
AcDbLeader
  3
Standard
 71
     0
 76
     3
 10
1848.482335379046
 20
511.8875461966845
 30
0.0
 10
2066.8688596797
 20
596.8872697354327
 30
0.0
 10
2246.259211057511
 20
596.8872697354327
 30
0.0
  0
LINE
  5
367
330
1F
100
AcDbEntity
  8
1
 62
     2
100
AcDbLine
 10
1691.816197773261
 20
574.7462721684437
 30
0.0
 11
1697.495669362362
 21
590.3065927152082
 31
0.0
  0
LINE
  5
368
330
1F
100
AcDbEntity
  8
1
 62
     2
100
AcDbLine
 10
1691.816197773261
 20
574.7462721684437
 30
0.0
 11
1704.514924722877
 21
585.3821692584201
 31
0.0
  0
LEADER
  5
369
330
1F
100
AcDbEntity
  8
1
  6
Continuous
 62
     2
100
AcDbLeader
  3
Standard
 71
     0
 76
     3
 10
1691.816197773261
 20
574.7462721684437
 30
0.0
 10
1734.725376303831
 20
635.9088598416915
 30
0.0
 10
1848.977526367161
 20
635.9088598416915
 30
0.0
  0
LINE
  5
36A
330
1F
100
AcDbEntity
  8
1
 62
     2
100
AcDbLine
 10
2480.482335379006
 20
511.8875461966845
 30
0.0
 11
2467.563988926142
 21
511.1229742947414
 31
0.0
  0
LINE
  5
36B
330
1F
100
AcDbEntity
  8
1
 62
     2
100
AcDbLine
 10
2480.482335379006
 20
511.8875461966845
 30
0.0
 11
2468.912433224966
 21
517.6845807330137
 31
0.0
  0
LEADER
  5
36C
330
1F
100
AcDbEntity
  8
1
  6
Continuous
 62
     2
100
AcDbLeader
  3
Standard
 71
     0
 76
     2
 10
2480.482335379006
 20
511.8875461966845
 30
0.0
 10
2066.8688596797
 20
596.8872697354327
 30
0.0
  0
TEXT
  5
36D
330
1F
100
AcDbEntity
  8
1
 62
     2
100
AcDbText
 10
1685.785345002007
 20
125.0441635412417
 30
0.0
 40
20.0
  1
84.5
 41
0.9
  7
CONVERTER_1
100
AcDbText
  0
TEXT
  5
36E
330
1F
100
AcDbEntity
  8
1
 62
     2
100
AcDbText
 10
1563.184633278736
 20
123.3173929535906
 30
0.0
 40
20.0
  1
74
 41
0.9
  7
CONVERTER_1
100
AcDbText
  0
TEXT
  5
36F
330
1F
100
AcDbEntity
  8
1
 62
     2
100
AcDbText
 10
1680.29260784359
 20
172.8181497996075
 30
0.0
 40
16.0
  1
減速比36
 41
0.89
  7
CONVERTER_3
100
AcDbText
  0
TEXT
  5
370
330
1F
100
AcDbEntity
  8
1
 62
     2
100
AcDbText
 10
1517.269000008232
 20
172.8181497996065
 30
0.0
 40
16.0
  1
減速比3.6~18
 41
0.89
  7
CONVERTER_3
100
AcDbText
  0
TEXT
  5
371
330
1F
100
AcDbEntity
  8
1
 62
     2
100
AcDbText
 10
1632.758231353498
 20
200.4464792020326
 30
0.0
 40
16.0
  1
DC
 41
0.9
  7
CONVERTER_1
100
AcDbText
  0
TEXT
  5
372
330
1F
100
AcDbEntity
  8
1
 62
     2
100
AcDbText
 10
1415.833543132455
 20
123.8929831494747
 30
0.0
 40
20.0
  1
117
 41
0.9
  7
CONVERTER_1
100
AcDbText
  0
TEXT
  5
373
330
1F
100
AcDbEntity
  8
1
 62
     2
100
AcDbText
 10
1376.69340981235
 20
172.2425596037228
 30
0.0
 40
16.0
  1
減速比3.6~15
 41
0.89
  7
CONVERTER_3
100
AcDbText
  0
TEXT
  5
374
330
1F
100
AcDbEntity
  8
1
 62
     2
100
AcDbText
 10
1429.20734665971
 20
201.0220693979154
 30
0.0
 40
16.0
  1
IV
 41
0.9
  7
CONVERTER_1
100
AcDbText
  0
MTEXT
  5
375
330
1F
100
AcDbEntity
  8
1
 62
     2
100
AcDbMText
 10
1378.90908532542
 20
232.3917350735906
 30
0.0
 40
20.0
 41
0.0
 71
     7
 72
     1
  1
モータ寸法表 ML (mm)
  7
CONVERTER_3
 73
     1
 44
0.60024009603842
  0
TEXT
  5
376
330
1F
100
AcDbEntity
  8
1
 62
     2
100
AcDbText
 10
2898.228999232209
 20
-115.9406180853412
 30
0.0
 40
16.0
  1
呼称機長40cmを超え100cmまで
 41
0.89
  7
CONVERTER_3
100
AcDbText
  0
TEXT
  5
377
330
1F
100
AcDbEntity
  8
1
 62
     2
100
AcDbText
 10
3012.33643610835
 20
-163.2162806937686
 30
0.0
 40
16.0
  1
W_SB_S_0010
 41
0.9
  7
CONVERTER_1
100
AcDbText
  0
TEXT
  5
378
330
1F
100
AcDbEntity
  8
1
 62
     2
100
AcDbText
 10
2778.088111991429
 20
-116.5544000663044
 30
0.0
 40
16.0
  1
本体組立図
 41
0.89
  7
CONVERTER_3
100
AcDbText
  0
TEXT
  5
379
330
1F
100
AcDbEntity
  8
1
 62
     2
100
AcDbText
 10
2489.16655697969
 20
-167.6224929914743
 30
0.0
 40
20.0
  1
SB1
 41
0.9
  7
CONVERTER_1
100
AcDbText
  0
TEXT
  5
37A
330
1F
100
AcDbEntity
  8
1
 62
     2
100
AcDbText
 10
2454.70049344303
 20
-118.1078665021846
 30
0.0
 40
20.0
  1
N1シリーズ
 41
0.89
  7
CONVERTER_3
100
AcDbText
  0
TEXT
  5
37B
330
1F
100
AcDbEntity
  8
1
 62
     2
100
AcDbText
 10
2504.699596010925
 20
133.9566859170436
 30
0.0
 40
20.0
  1
※1 ベルトのテークアップ量により、呼称機長は最大5mm伸びます
 41
0.89
  7
CONVERTER_3
100
AcDbText
  0
TEXT
  5
37C
330
1F
100
AcDbEntity
  8
1
 62
     2
100
AcDbText
 10
2503.465540980379
 20
79.33936518394467
 30
0.0
 40
20.0
  1
注1 本図はモータ取付がRタイプ、インバータ変速仕様の場合です
 41
0.89
  7
CONVERTER_3
100
AcDbText
  0
TEXT
  5
37D
330
1F
100
AcDbEntity
  8
1
 62
     2
100
AcDbText
 10
2072.214739371013
 20
67.22115071781855
 30
0.0
 40
16.0
  1
A-A 矢視図
 41
0.89
  7
CONVERTER_3
100
AcDbText
  0
TEXT
  5
37E
330
1F
100
AcDbEntity
  8
1
 62
     2
100
AcDbText
 10
2145.328214183959
 20
384.5810379430154
 30
0.0
 40
16.0
  1
A
 41
0.9
  7
CONVERTER_1
100
AcDbText
  0
TEXT
  5
37F
330
1F
100
AcDbEntity
  8
1
 62
     2
100
AcDbText
 10
2145.328214183959
 20
512.2122403979497
 30
0.0
 40
16.0
  1
A
 41
0.9
  7
CONVERTER_1
100
AcDbText
  0
TEXT
  5
380
330
1F
100
AcDbEntity
  8
1
 62
     2
100
AcDbText
 10
2104.134857452365
 20
-126.6602352862074
 30
0.0
 40
16.0
  1
2011.4.1
 41
0.9
  7
CONVERTER_1
100
AcDbText
  0
TEXT
  5
381
330
1F
100
AcDbEntity
  8
1
 62
     2
100
AcDbText
 10
2071.8688596797
 20
601.8872697354327
 30
0.0
 40
16.0
  1
コンベヤ取付ブラケット
 41
0.89
  7
CONVERTER_3
100
AcDbText
  0
TEXT
  5
382
330
1F
100
AcDbEntity
  8
1
 62
     2
100
AcDbText
 10
1739.725376303831
 20
640.9088598416915
 30
0.0
 40
16.0
  1
モータ 25W
 41
0.89
  7
CONVERTER_3
100
AcDbText
  0
DIMENSION
  5
395
330
1F
100
AcDbEntity
  8
1
100
AcDbDimension
  2
*D02
 10
2629.482335378987
 20
701.1476898356405
 30
0.0
 11
2151.440743250221
 21
712.6476898356405
 31
0.0
 70
    32
  1
呼称機長 ※1
 71
     5
 42
-1.0
 53
0.00013888888889
  3
ME10_DIM_0
100
AcDbAlignedDimension
 13
1629.482335378986
 23
803.9634322327697
 33
0.0
 14
2629.482335378986
 24
810.4634322327797
 34
0.0
100
AcDbRotatedDimension
  0
DIMENSION
  5
3A4
330
1F
100
AcDbEntity
  8
1
100
AcDbDimension
  2
*D14
 10
2685.59959840884
 20
451.7458101684424
 30
0.0
 11
2674.09959840884
 21
431.5644293502087
 31
0.0
 70
    32
  1
<>
 71
     5
 42
-1.0
 53
90.0
  3
ME10_DIM_1
100
AcDbAlignedDimension
 13
2630.382335378987
 23
411.7458101684424
 33
0.0
 14
2630.382335378987
 24
451.7458101684424
 34
0.0
 50
90.0
100
AcDbRotatedDimension
  0
DIMENSION
  5
3B7
330
1F
100
AcDbEntity
  8
1
100
AcDbDimension
  2
*D25
 10
1597.682336378982
 20
453.7458101684433
 30
0.0
 11
1586.182336378982
 21
429.8861037398806
 31
0.0
 70
    32
  1
<>
 71
     5
 42
-1.0
 53
90.0
  3
ME10_DIM_2
100
AcDbAlignedDimension
 13
1638.582335379015
 23
411.7458101684424
 33
0.0
 14
1629.482335378975
 24
453.7458101684424
 34
0.0
 50
90.0
100
AcDbRotatedDimension
  0
DIMENSION
  5
3C4
330
1F
100
AcDbEntity
  8
1
100
AcDbDimension
  2
*D37
 10
1597.682336378983
 20
453.7458101684433
 30
0.0
 11
1582.568029327201
 21
457.3357899003395
 31
0.0
 70
    32
  1
<>
 71
     5
 42
-1.0
 53
90.0
  3
ME10_DIM_3
100
AcDbAlignedDimension
 13
1629.482335378975
 23
459.7458101684424
 33
0.0
 14
1629.482335378975
 24
453.7458101684424
 34
0.0
 50
90.0
100
AcDbRotatedDimension
  0
DIMENSION
  5
3D1
330
1F
100
AcDbEntity
  8
1
100
AcDbDimension
  2
*D48
 10
1542.886840231288
 20
877.9634292327696
 30
0.0
 11
1531.386840231288
 21
837.8649886723138
 31
0.0
 70
    32
  1
<>
 71
     5
 42
-1.0
 53
90.0
  3
ME10_DIM_4
100
AcDbAlignedDimension
 13
1719.482335378986
 23
793.9634322327697
 33
0.0
 14
1635.482335378986
 24
877.9634292327696
 34
0.0
 50
90.0
100
AcDbRotatedDimension
  0
DIMENSION
  5
3DE
330
1F
100
AcDbEntity
  8
1
100
AcDbDimension
  2
*D59
 10
2726.382335378988
 20
476.7458101684433
 30
0.0
 11
2713.682335378988
 21
445.9285938031908
 31
0.0
 70
    32
  1
<>
 71
     5
 42
-1.0
 53
90.0
  3
ME10_DIM_5
100
AcDbAlignedDimension
 13
2630.382335378987
 23
411.7458101684424
 33
0.0
 14
2626.282335378986
 24
476.7458101684424
 34
0.0
 50
90.0
100
AcDbRotatedDimension
  0
DIMENSION
  5
3EB
330
1F
100
AcDbEntity
  8
1
100
AcDbDimension
  2
*D610
 10
2685.59959840884
 20
793.9634322327697
 30
0.0
 11
2674.09959840884
 21
829.8451701076497
 31
0.0
 70
    32
  1
<>
 71
     5
 42
-1.0
 53
90.0
  3
ME10_DIM_6
100
AcDbAlignedDimension
 13
2612.482335378986
 23
863.9634322327797
 33
0.0
 14
2591.482335378985
 24
793.9634322327697
 34
0.0
 50
90.0
100
AcDbRotatedDimension
  0
DIMENSION
  5
3F8
330
1F
100
AcDbEntity
  8
1
100
AcDbDimension
  2
*D711
 10
1829.482335379045
 20
737.7297408243417
 30
0.0
 11
2144.069027849924
 21
749.2297408243417
 31
0.0
 70
    32
  1
コンベヤ取付ブラケット 取付可能範囲
 71
     5
 42
-1.0
 53
0.00013888888889
  3
ME10_DIM_7
100
AcDbAlignedDimension
 13
2499.482335379006
 23
809.7134322327797
 33
0.0
 14
1829.482335379046
 24
809.7134322327797
 34
0.0
100
AcDbRotatedDimension
  0
DIMENSION
  5
406
330
1F
100
AcDbEntity
  8
1
100
AcDbDimension
  2
*D812
 10
1597.682336378982
 20
459.7458101684433
 30
0.0
 11
1586.182336378982
 21
520.3945715302998
 31
0.0
 70
    32
  1
ML
 71
     5
 42
-1.0
 53
90.0
  3
ME10_DIM_8
100
AcDbAlignedDimension
 13
1632.182336378985
 23
576.7462721684428
 33
0.0
 14
1629.482335378975
 24
459.7458101684424
 34
0.0
 50
90.0
100
AcDbRotatedDimension
  0
DIMENSION
  5
415
330
1F
100
AcDbEntity
  8
1
100
AcDbDimension
  2
*D913
 10
1810.482335379045
 20
596.8872697354327
 30
0.0
 11
1829.829143398283
 21
608.3872697354327
 31
0.0
 70
    32
  1
<>
 71
     5
 42
-1.0
 53
0.00013888888889
  3
ME10_DIM_9
100
AcDbAlignedDimension
 13
1848.482335379046
 23
531.7458101684415
 33
0.0
 14
1810.482335379046
 24
531.7458101684415
 34
0.0
100
AcDbRotatedDimension
  0
DIMENSION
  5
424
330
1F
100
AcDbEntity
  8
1
100
AcDbDimension
  2
*D1014
 10
2480.482335379007
 20
596.8872697354327
 30
0.0
 11
2497.01677507296
 21
608.3872697354327
 31
0.0
 70
    32
  1
<>
 71
     5
 42
-1.0
 53
0.00013888888889
  3
ME10_DIM_10
100
AcDbAlignedDimension
 13
2518.482335379006
 23
531.7458101684415
 33
0.0
 14
2480.482335379006
 24
531.7458101684415
 34
0.0
100
AcDbRotatedDimension
  0
DIMENSION
  5
433
330
1F
100
AcDbEntity
  8
1
100
AcDbDimension
  2
*D1115
 10
2090.40478618402
 20
255.5839281331896
 30
0.0
 11
2146.837673350802
 21
267.0839281331896
 31
0.0
 70
    32
  1
<>
 71
     5
 42
-1.0
 53
0.00013888888889
  3
ME10_DIM_11
100
AcDbAlignedDimension
 13
2110.404786184021
 23
217.5720347377146
 33
0.0
 14
2090.404786184021
 24
209.2308740932435
 34
0.0
100
AcDbRotatedDimension
  0
DIMENSION
  5
442
330
1F
100
AcDbEntity
  8
1
100
AcDbDimension
  2
*D1216
 10
2204.508133777813
 20
213.230874093245
 30
0.0
 11
2191.508133777813
 21
245.1912073468016
 31
0.0
 70
    32
  1
<>
 71
     5
 42
-1.0
 53
90.0
  3
ME10_DIM_12
100
AcDbAlignedDimension
 13
2125.404786184021
 23
209.2308740932435
 33
0.0
 14
2125.404786184021
 24
213.2308740932435
 34
0.0
 50
90.0
100
AcDbRotatedDimension
  0
DIMENSION
  5
44F
330
1F
100
AcDbEntity
  8
1
100
AcDbDimension
  2
*D1317
 10
2043.646276326582
 20
213.230874093244
 30
0.0
 11
2030.646276326582
 21
160.1909992794335
 31
0.0
 70
    32
  1
<>
 71
     5
 42
-1.0
 53
90.0
  3
ME10_DIM_13
100
AcDbAlignedDimension
 13
2087.504786184019
 23
93.23087409324353
 33
0.0
 14
2094.404786184021
 24
213.2308740932435
 34
0.0
 50
90.0
100
AcDbRotatedDimension
  0
DIMENSION
  5
45C
330
1F
100
AcDbEntity
  8
1
100
AcDbDimension
  2
*D1418
 10
1629.482335378986
 20
737.7297408243417
 30
0.0
 11
1729.583407124185
 21
749.2297408243417
 31
0.0
 70
    32
  1
<>
 71
     5
 42
-1.0
 53
0.00013888888889
  3
ME10_DIM_14
100
AcDbAlignedDimension
 13
1829.482335379046
 23
809.7134322327797
 33
0.0
 14
1629.482335378986
 24
803.9634322327697
 34
0.0
100
AcDbRotatedDimension
  0
DIMENSION
  5
469
330
1F
100
AcDbEntity
  8
1
100
AcDbDimension
  2
*D1519
 10
2499.482335379007
 20
737.7297408243417
 30
0.0
 11
2565.36811083417
 21
749.2297408243417
 31
0.0
 70
    32
  1
<>
 71
     5
 42
-1.0
 53
0.00013888888889
  3
ME10_DIM_15
100
AcDbAlignedDimension
 13
2629.482335378986
 23
810.4634322327797
 33
0.0
 14
2499.482335379006
 24
809.7134322327797
 34
0.0
100
AcDbRotatedDimension
  0
DIMENSION
  5
478
330
1F
100
AcDbEntity
  8
1
100
AcDbDimension
  2
*D1620
 10
2089.40478618402
 20
300.6541770953604
 30
0.0
 11
2062.688468377062
 21
312.1541770953604
 31
0.0
 70
    32
  1
<>
 71
     5
 42
-1.0
 53
0.00013888888889
  3
ME10_DIM_16
100
AcDbAlignedDimension
 13
2090.404786184021
 23
209.2308740932435
 33
0.0
 14
2089.404786184021
 24
134.7308740932435
 34
0.0
100
AcDbRotatedDimension
  0
DIMENSION
  5
487
330
1F
100
AcDbEntity
  8
1
100
AcDbDimension
  2
*D1721
 10
2090.404786184021
 20
300.6541770953604
 30
0.0
 11
2107.904786184021
 21
312.1541770953604
 31
0.0
 70
    32
  1
<>
 71
     5
 42
-1.0
 53
0.00013888888889
  3
ME10_DIM_17
100
AcDbAlignedDimension
 13
2125.404786184021
 23
213.2308740932435
 33
0.0
 14
2090.404786184021
 24
209.2308740932435
 34
0.0
100
AcDbRotatedDimension
  0
DIMENSION
  5
494
330
1F
100
AcDbEntity
  8
1
100
AcDbDimension
  2
*D1822
 10
1591.958562731632
 20
877.9634322327706
 30
0.0
 11
1578.958562731632
 21
836.6729630245318
 31
0.0
 70
    32
  1
<>
 71
     5
 42
-1.0
 53
90.0
  3
ME10_DIM_18
100
AcDbAlignedDimension
 13
1636.282323378944
 23
797.9634172327706
 33
0.0
 14
1635.982335378944
 24
877.9634322327706
 34
0.0
 50
90.0
100
AcDbRotatedDimension
  0
DIMENSION
  5
4A3
330
1F
100
AcDbEntity
  8
1
100
AcDbDimension
  2
*D1923
 10
1591.958562731632
 20
797.9634172327706
 30
0.0
 11
1578.958562731632
 21
770.9791051023426
 31
0.0
 70
    32
  1
<>
 71
     5
 42
-1.0
 53
90.0
  3
ME10_DIM_19
100
AcDbAlignedDimension
 13
1719.482335378986
 23
793.9634322327697
 33
0.0
 14
1636.282323378944
 24
797.9634172327706
 34
0.0
 50
90.0
100
AcDbRotatedDimension
  0
INSERT
  5
4AC
330
1F
100
AcDbEntity
  8
1
100
AcDbBlockReference
  2
*D2024
 10
0.0
 20
0.0
 30
0.0
  0
INSERT
  5
4B5
330
1F
100
AcDbEntity
  8
1
100
AcDbBlockReference
  2
*D2125
 10
0.0
 20
0.0
 30
0.0
  0
INSERT
  5
4BE
330
1F
100
AcDbEntity
  8
1
100
AcDbBlockReference
  2
*D2226
 10
0.0
 20
0.0
 30
0.0
  0
INSERT
  5
4C7
330
1F
100
AcDbEntity
  8
1
100
AcDbBlockReference
  2
*D2327
 10
0.0
 20
0.0
 30
0.0
  0
ENDSEC
  0
SECTION
  2
OBJECTS
  0
DICTIONARY
  5
C
330
0
100
AcDbDictionary
281
     1
  3
ACAD_GROUP
350
D
  3
ACAD_LAYOUT
350
1A
  3
ACAD_MLINESTYLE
350
17
  3
ACAD_PLOTSETTINGS
350
19
  3
ACAD_PLOTSTYLENAME
350
E
  0
DICTIONARY
  5
D
102
{ACAD_REACTORS
330
C
102
}
330
C
100
AcDbDictionary
281
     1
  0
DICTIONARY
  5
1A
102
{ACAD_REACTORS
330
C
102
}
330
C
100
AcDbDictionary
281
     1
  3
Layout1
350
1E
  3
Layout2
350
26
  3
Model
350
22
  0
DICTIONARY
  5
17
102
{ACAD_REACTORS
330
C
102
}
330
C
100
AcDbDictionary
281
     1
  3
Standard
350
18
  0
DICTIONARY
  5
19
102
{ACAD_REACTORS
330
C
102
}
330
C
100
AcDbDictionary
281
     1
  0
ACDBDICTIONARYWDFLT
  5
E
102
{ACAD_REACTORS
330
C
102
}
330
C
100
AcDbDictionary
281
     1
  3
Normal
350
F
100
AcDbDictionaryWithDefault
340
F
  0
LAYOUT
  5
1E
102
{ACAD_REACTORS
330
1A
102
}
330
1A
100
AcDbPlotSettings
  1

  2

  4

  6

 40
0.0
 41
0.0
 42
0.0
 43
0.0
 44
0.0
 45
0.0
 46
0.0
 47
0.0
 48
0.0
 49
0.0
140
0.0
141
0.0
142
1.0
143
1.0
 70
   688
 72
     0
 73
     0
 74
     5
  7

 75
    16
147
1.0
148
0.0
149
0.0
100
AcDbLayout
  1
Layout1
 70
     1
 71
     1
 10
0.0
 20
0.0
 11
0.0
 21
0.0
 12
0.0
 22
0.0
 32
0.0
 14
0.0
 24
0.0
 34
0.0
 15
0.0
 25
0.0
 35
0.0
146
0.0
 13
0.0
 23
0.0
 33
0.0
 16
1.0
 26
0.0
 36
0.0
 17
0.0
 27
1.0
 37
0.0
 76
     0
330
1B
  0
LAYOUT
  5
26
102
{ACAD_REACTORS
330
1A
102
}
330
1A
100
AcDbPlotSettings
  1

  2

  4

  6

 40
0.0
 41
0.0
 42
0.0
 43
0.0
 44
0.0
 45
0.0
 46
0.0
 47
0.0
 48
0.0
 49
0.0
140
0.0
141
0.0
142
1.0
143
1.0
 70
   688
 72
     0
 73
     0
 74
     5
  7

 75
    16
147
1.0
148
0.0
149
0.0
100
AcDbLayout
  1
Layout2
 70
     1
 71
     2
 10
0.0
 20
0.0
 11
0.0
 21
0.0
 12
0.0
 22
0.0
 32
0.0
 14
0.0
 24
0.0
 34
0.0
 15
0.0
 25
0.0
 35
0.0
146
0.0
 13
0.0
 23
0.0
 33
0.0
 16
1.0
 26
0.0
 36
0.0
 17
0.0
 27
1.0
 37
0.0
 76
     0
330
23
  0
LAYOUT
  5
22
102
{ACAD_REACTORS
330
1A
102
}
330
1A
100
AcDbPlotSettings
  1

  2

  4

  6

 40
0.0
 41
0.0
 42
0.0
 43
0.0
 44
0.0
 45
0.0
 46
0.0
 47
0.0
 48
0.0
 49
0.0
140
0.0
141
0.0
142
1.0
143
1.0
 70
  1712
 72
     0
 73
     0
 74
     0
  7

 75
     0
147
1.0
148
0.0
149
0.0
100
AcDbLayout
  1
Model
 70
     1
 71
     0
 10
0.0
 20
0.0
 11
0.0
 21
0.0
 12
0.0
 22
0.0
 32
0.0
 14
1240.09548385845
 24
-192.5494913200585
 34
0.0
 15
3210.09548385845
 25
1158.73127528472
 35
0.0
146
0.0
 13
0.0
 23
0.0
 33
0.0
 16
1.0
 26
0.0
 36
0.0
 17
0.0
 27
1.0
 37
0.0
 76
     0
330
1F
  0
MLINESTYLE
  5
18
102
{ACAD_REACTORS
330
17
102
}
330
17
100
AcDbMlineStyle
  2
Standard
 70
     0
  3

 62
   256
 51
90.0
 52
90.0
 71
     2
 49
0.5
 62
   256
  6
BYLAYER
 49
-0.5
 62
   256
  6
BYLAYER
  0
ACDBPLACEHOLDER
  5
F
102
{ACAD_REACTORS
330
E
102
}
330
E
  0
ENDSEC
  0
EOF
