  0
SECTION
  2
HEADER
  9
$ACADVER
  1
AC1015
  9
$ACADMAINTVER
 70
     6
  9
$DWGCODEPAGE
  3
ANSI_932
  9
$INSBASE
 10
0.0
 20
0.0
 30
0.0
  9
$EXTMIN
 10
-3545.999999999999
 20
-2432.305379888601
 30
0.0
  9
$EXTMAX
 10
3545.999999999999
 20
2432.305379888601
 30
0.0
  9
$LIMMIN
 10
-1260.0
 20
-890.9999999999998
  9
$LIMMAX
 10
1260.0
 20
890.9999999999998
  9
$ORTHOMODE
 70
     0
  9
$REGENMODE
 70
     1
  9
$FILLMODE
 70
     1
  9
$QTEXTMODE
 70
     0
  9
$MIRRTEXT
 70
     1
  9
$LTSCALE
 40
1.5
  9
$ATTMODE
 70
     1
  9
$TEXTSIZE
 40
0.2
  9
$TRACEWID
 40
0.05
  9
$TEXTSTYLE
  7
Standard
  9
$CLAYER
  8
0
  9
$CELTYPE
  6
ByLayer
  9
$CECOLOR
 62
   256
  9
$CELTSCALE
 40
1.0
  9
$DISPSILH
 70
     0
  9
$DIMSCALE
 40
1.0
  9
$DIMASZ
 40
18.00135612487793
  9
$DIMEXO
 40
1.0
  9
$DIMDLI
 40
10.0
  9
$DIMRND
 40
0.0
  9
$DIMDLE
 40
0.0
  9
$DIMEXE
 40
1.0
  9
$DIMTP
 40
0.0
  9
$DIMTM
 40
0.0
  9
$DIMTXT
 40
23.99999999999999
  9
$DIMCEN
 40
0.0
  9
$DIMTSZ
 40
0.0
  9
$DIMTOL
 70
     0
  9
$DIMLIM
 70
     0
  9
$DIMTIH
 70
     0
  9
$DIMTOH
 70
     0
  9
$DIMSE1
 70
     0
  9
$DIMSE2
 70
     0
  9
$DIMTAD
 70
     1
  9
$DIMZIN
 70
     8
  9
$DIMBLK
  1

  9
$DIMASO
 70
     1
  9
$DIMSHO
 70
     1
  9
$DIMPOST
  1

  9
$DIMAPOST
  1

  9
$DIMALT
 70
     0
  9
$DIMALTD
 70
     2
  9
$DIMALTF
 40
25.4
  9
$DIMLFAC
 40
1.0
  9
$DIMTOFL
 70
     0
  9
$DIMTVP
 40
0.0
  9
$DIMTIX
 70
     0
  9
$DIMSOXD
 70
     0
  9
$DIMSAH
 70
     0
  9
$DIMBLK1
  1

  9
$DIMBLK2
  1

  9
$DIMSTYLE
  2
Standard
  9
$DIMCLRD
 70
     0
  9
$DIMCLRE
 70
     0
  9
$DIMCLRT
 70
     0
  9
$DIMTFAC
 40
0.65
  9
$DIMGAP
 40
0.09
  9
$DIMJUST
 70
     0
  9
$DIMSD1
 70
     0
  9
$DIMSD2
 70
     0
  9
$DIMTOLJ
 70
     0
  9
$DIMTZIN
 70
     0
  9
$DIMALTZ
 70
     0
  9
$DIMALTTZ
 70
     0
  9
$DIMUPT
 70
     0
  9
$DIMDEC
 70
     2
  9
$DIMTDEC
 70
     2
  9
$DIMALTU
 70
     2
  9
$DIMALTTD
 70
     2
  9
$DIMTXSTY
  7
Standard
  9
$DIMAUNIT
 70
     0
  9
$DIMADEC
 70
     2
  9
$DIMALTRND
 40
0.0
  9
$DIMAZIN
 70
     2
  9
$DIMDSEP
 70
    46
  9
$DIMATFIT
 70
     3
  9
$DIMFRAC
 70
     0
  9
$DIMLDRBLK
  1

  9
$DIMLUNIT
 70
     2
  9
$DIMLWD
 70
    -2
  9
$DIMLWE
 70
    -2
  9
$DIMTMOVE
 70
     0
  9
$LUNITS
 70
     2
  9
$LUPREC
 70
     4
  9
$SKETCHINC
 40
0.1
  9
$FILLETRAD
 40
0.5
  9
$AUNITS
 70
     0
  9
$AUPREC
 70
     0
  9
$MENU
  1
.
  9
$ELEVATION
 40
0.0
  9
$PELEVATION
 40
0.0
  9
$THICKNESS
 40
0.0
  9
$LIMCHECK
 70
     0
  9
$CHAMFERA
 40
0.0
  9
$CHAMFERB
 40
0.0
  9
$CHAMFERC
 40
0.0
  9
$CHAMFERD
 40
0.0
  9
$SKPOLY
 70
     0
  9
$TDCREATE
 40
2457871.405000324
  9
$TDUCREATE
 40
2457871.030000324
  9
$TDUPDATE
 40
2457871.405000717
  9
$TDUUPDATE
 40
2457871.030000717
  9
$TDINDWG
 40
0.0000000116
  9
$TDUSRTIMER
 40
0.0000000116
  9
$USRTIMER
 70
     1
  9
$ANGBASE
 50
0.0
  9
$ANGDIR
 70
     0
  9
$PDMODE
 70
     0
  9
$PDSIZE
 40
1.0
  9
$PLINEWID
 40
0.0
  9
$SPLFRAME
 70
     0
  9
$SPLINETYPE
 70
     6
  9
$SPLINESEGS
 70
     8
  9
$HANDSEED
  5
43E
  9
$SURFTAB1
 70
     6
  9
$SURFTAB2
 70
     6
  9
$SURFTYPE
 70
     6
  9
$SURFU
 70
     6
  9
$SURFV
 70
     6
  9
$UCSBASE
  2

  9
$UCSNAME
  2

  9
$UCSORG
 10
0.0
 20
0.0
 30
0.0
  9
$UCSXDIR
 10
1.0
 20
0.0
 30
0.0
  9
$UCSYDIR
 10
0.0
 20
1.0
 30
0.0
  9
$UCSORTHOREF
  2

  9
$UCSORTHOVIEW
 70
     0
  9
$UCSORGTOP
 10
0.0
 20
0.0
 30
0.0
  9
$UCSORGBOTTOM
 10
0.0
 20
0.0
 30
0.0
  9
$UCSORGLEFT
 10
0.0
 20
0.0
 30
0.0
  9
$UCSORGRIGHT
 10
0.0
 20
0.0
 30
0.0
  9
$UCSORGFRONT
 10
0.0
 20
0.0
 30
0.0
  9
$UCSORGBACK
 10
0.0
 20
0.0
 30
0.0
  9
$PUCSBASE
  2

  9
$PUCSNAME
  2

  9
$PUCSORG
 10
0.0
 20
0.0
 30
0.0
  9
$PUCSXDIR
 10
1.0
 20
0.0
 30
0.0
  9
$PUCSYDIR
 10
0.0
 20
1.0
 30
0.0
  9
$PUCSORTHOREF
  2

  9
$PUCSORTHOVIEW
 70
     0
  9
$PUCSORGTOP
 10
0.0
 20
0.0
 30
0.0
  9
$PUCSORGBOTTOM
 10
0.0
 20
0.0
 30
0.0
  9
$PUCSORGLEFT
 10
0.0
 20
0.0
 30
0.0
  9
$PUCSORGRIGHT
 10
0.0
 20
0.0
 30
0.0
  9
$PUCSORGFRONT
 10
0.0
 20
0.0
 30
0.0
  9
$PUCSORGBACK
 10
0.0
 20
0.0
 30
0.0
  9
$USERI1
 70
     0
  9
$USERI2
 70
     0
  9
$USERI3
 70
     0
  9
$USERI4
 70
     0
  9
$USERI5
 70
     0
  9
$USERR1
 40
0.0
  9
$USERR2
 40
0.0
  9
$USERR3
 40
0.0
  9
$USERR4
 40
0.0
  9
$USERR5
 40
0.0
  9
$WORLDVIEW
 70
     1
  9
$SHADEDGE
 70
     3
  9
$SHADEDIF
 70
    70
  9
$TILEMODE
 70
     1
  9
$MAXACTVP
 70
    64
  9
$PINSBASE
 10
0.0
 20
0.0
 30
0.0
  9
$PLIMCHECK
 70
     0
  9
$PEXTMIN
 10
1.000000000000000E+20
 20
1.000000000000000E+20
 30
1.000000000000000E+20
  9
$PEXTMAX
 10
-1.000000000000000E+20
 20
-1.000000000000000E+20
 30
-1.000000000000000E+20
  9
$PLIMMIN
 10
0.0
 20
0.0
  9
$PLIMMAX
 10
12.0
 20
9.0
  9
$UNITMODE
 70
     0
  9
$VISRETAIN
 70
     0
  9
$PLINEGEN
 70
     1
  9
$PSLTSCALE
 70
     0
  9
$TREEDEPTH
 70
  3020
  9
$CMLSTYLE
  2
Standard
  9
$CMLJUST
 70
     0
  9
$CMLSCALE
 40
1.0
  9
$PROXYGRAPHICS
 70
     0
  9
$MEASUREMENT
 70
     1
  9
$CELWEIGHT
370
    -1
  9
$ENDCAPS
280
     0
  9
$JOINSTYLE
280
     0
  9
$LWDISPLAY
290
     0
  9
$INSUNITS
 70
     4
  9
$HYPERLINKBASE
  1

  9
$STYLESHEET
  1

  9
$XEDIT
290
     1
  9
$CEPSNTYPE
380
     0
  9
$PSTYLEMODE
290
     1
  9
$FINGERPRINTGUID
  2
{3A5989F2-3D9B-4BC6-9370-DFB7466ABCE1}
  9
$VERSIONGUID
  2
{FAEB1C32-E019-11D5-929B-00C0DF256EC4}
  9
$EXTNAMES
290
     1
  9
$PSVPSCALE
 40
0.0
  9
$OLESTARTUP
290
     0
  0
ENDSEC
  0
SECTION
  2
CLASSES
  0
CLASS
  1
ACDBDICTIONARYWDFLT
  2
AcDbDictionaryWithDefault
  3
ObjectDBX Classes
 90
        0
280
     0
281
     0
  0
CLASS
  1
VISUALSTYLE
  2
AcDbVisualStyle
  3
ObjectDBX Classes
 90
     4095
280
     0
281
     0
  0
CLASS
  1
MATERIAL
  2
AcDbMaterial
  3
ObjectDBX Classes
 90
     1153
280
     0
281
     0
  0
CLASS
  1
SCALE
  2
AcDbScale
  3
ObjectDBX Classes
 90
     1153
280
     0
281
     0
  0
CLASS
  1
SUN
  2
AcDbSun
  3
SCENEOE
 90
     1153
280
     0
281
     0
  0
CLASS
  1
DICTIONARYVAR
  2
AcDbDictionaryVar
  3
ObjectDBX Classes
 90
        0
280
     0
281
     0
  0
CLASS
  1
ACDBPLACEHOLDER
  2
AcDbPlaceHolder
  3
ObjectDBX Classes
 90
        0
280
     0
281
     0
  0
CLASS
  1
LAYOUT
  2
AcDbLayout
  3
ObjectDBX Classes
 90
        0
280
     0
281
     0
  0
ENDSEC
  0
SECTION
  2
TABLES
  0
TABLE
  2
VPORT
  5
8
102
{ACAD_XDICTIONARY
360
403
102
}
330
0
100
AcDbSymbolTable
 70
     1
  0
VPORT
  5
29
330
8
100
AcDbSymbolTableRecord
100
AcDbViewportTableRecord
  2
*Active
 70
     0
 10
0.0
 20
0.0
 11
1.0
 21
1.0
 12
0.0
 22
0.0
 13
0.0
 23
0.0
 14
0.5
 24
0.5
 15
0.5
 25
0.5
 16
0.0
 26
0.0
 36
1.0
 17
0.0000000000001101
 27
0.0
 37
0.0
 40
1653.967658324249
 41
1.457876148825689
 42
50.0
 43
0.0
 44
0.0
 50
0.0
 51
0.0
 71
     0
 72
  1000
 73
     1
 74
     1
 75
     0
 76
     0
 77
     0
 78
     0
281
     0
 65
     1
110
0.0
120
0.0
130
0.0
111
1.0
121
0.0
131
0.0
112
0.0
122
1.0
132
0.0
 79
     0
146
0.0
  0
ENDTAB
  0
TABLE
  2
LTYPE
  5
5
330
0
100
AcDbSymbolTable
 70
    67
  0
LTYPE
  5
14
330
5
100
AcDbSymbolTableRecord
100
AcDbLinetypeTableRecord
  2
ByBlock
 70
     0
  3

 72
    65
 73
     0
 40
0.0
  0
LTYPE
  5
15
330
5
100
AcDbSymbolTableRecord
100
AcDbLinetypeTableRecord
  2
ByLayer
 70
     0
  3

 72
    65
 73
     0
 40
0.0
  0
LTYPE
  5
16
330
5
100
AcDbSymbolTableRecord
100
AcDbLinetypeTableRecord
  2
Continuous
 70
     0
  3
Solid line
 72
    65
 73
     0
 40
0.0
  0
LTYPE
  5
6B
330
5
100
AcDbSymbolTableRecord
100
AcDbLinetypeTableRecord
  2
HIDDENX2
 70
     0
  3
Hidden (2x) ____ ____ ____ ____ ____ ____ ____ 
 72
    65
 73
     2
 40
19.05
 49
12.7
 74
     0
 49
-6.35
 74
     0
  0
LTYPE
  5
6C
330
5
100
AcDbSymbolTableRecord
100
AcDbLinetypeTableRecord
  2
HIDDEN
 70
     0
  3
Hidden __ __ __ __ __ __ __ __ __ __ __ __ __ __
 72
    65
 73
     2
 40
9.524999999999999
 49
6.35
 74
     0
 49
-3.175
 74
     0
  0
LTYPE
  5
6D
330
5
100
AcDbSymbolTableRecord
100
AcDbLinetypeTableRecord
  2
HIDDEN2
 70
     0
  3
Hidden (.5x) _ _ _ _ _ _ _ _ _ _ _ _ _ _ _ _ _ 
 72
    65
 73
     2
 40
4.762499999999999
 49
3.175
 74
     0
 49
-1.5875
 74
     0
  0
LTYPE
  5
6E
330
5
100
AcDbSymbolTableRecord
100
AcDbLinetypeTableRecord
  2
DASHED
 70
     0
  3
Dashed __ __ __ __ __ __ __ __ __ __ __ __ __ _
 72
    65
 73
     2
 40
19.05
 49
12.7
 74
     0
 49
-6.35
 74
     0
  0
LTYPE
  5
6F
330
5
100
AcDbSymbolTableRecord
100
AcDbLinetypeTableRecord
  2
DASHED2
 70
     0
  3
Dashed (.5x) _ _ _ _ _ _ _ _ _ _ _ _ _ _ _ _ _ 
 72
    65
 73
     2
 40
9.524999999999999
 49
6.35
 74
     0
 49
-3.175
 74
     0
  0
LTYPE
  5
70
330
5
100
AcDbSymbolTableRecord
100
AcDbLinetypeTableRecord
  2
DASHEDX2
 70
     0
  3
Dashed (2x) ____  ____  ____  ____  ____  ___
 72
    65
 73
     2
 40
38.09999999999999
 49
25.4
 74
     0
 49
-12.7
 74
     0
  0
LTYPE
  5
71
330
5
100
AcDbSymbolTableRecord
100
AcDbLinetypeTableRecord
  2
DOTX2
 70
     0
  3
Dot (2x) .  .  .  .  .  .  .  .  .  .  .  .  .  .
 72
    65
 73
     2
 40
12.7
 49
0.0
 74
     0
 49
-12.7
 74
     0
  0
LTYPE
  5
72
330
5
100
AcDbSymbolTableRecord
100
AcDbLinetypeTableRecord
  2
DOT
 70
     0
  3
Dot . . . . . . . . . . . . . . . . . . . . . . . .
 72
    65
 73
     2
 40
6.35
 49
0.0
 74
     0
 49
-6.35
 74
     0
  0
LTYPE
  5
73
330
5
100
AcDbSymbolTableRecord
100
AcDbLinetypeTableRecord
  2
DOT2
 70
     0
  3
Dot (.5x) ........................................
 72
    65
 73
     2
 40
3.175
 49
0.0
 74
     0
 49
-3.175
 74
     0
  0
LTYPE
  5
74
330
5
100
AcDbSymbolTableRecord
100
AcDbLinetypeTableRecord
  2
CENTERX2
 70
     0
  3
Center (2x) ________  __  ________  __  _____
 72
    65
 73
     4
 40
101.6
 49
63.5
 74
     0
 49
-12.7
 74
     0
 49
12.7
 74
     0
 49
-12.7
 74
     0
  0
LTYPE
  5
75
330
5
100
AcDbSymbolTableRecord
100
AcDbLinetypeTableRecord
  2
CENTER
 70
     0
  3
Center ____ _ ____ _ ____ _ ____ _ ____ _ ____
 72
    65
 73
     4
 40
50.8
 49
31.75
 74
     0
 49
-6.35
 74
     0
 49
6.35
 74
     0
 49
-6.35
 74
     0
  0
LTYPE
  5
76
330
5
100
AcDbSymbolTableRecord
100
AcDbLinetypeTableRecord
  2
CENTER2
 70
     0
  3
Center (.5x) ___ _ ___ _ ___ _ ___ _ ___ _ ___
 72
    65
 73
     4
 40
28.575
 49
19.05
 74
     0
 49
-3.175
 74
     0
 49
3.175
 74
     0
 49
-3.175
 74
     0
  0
LTYPE
  5
77
330
5
100
AcDbSymbolTableRecord
100
AcDbLinetypeTableRecord
  2
DASHDOTX2
 70
     0
  3
Dash dot (2x) ____  .  ____  .  ____  .  ___
 72
    65
 73
     4
 40
50.8
 49
25.4
 74
     0
 49
-12.7
 74
     0
 49
0.0
 74
     0
 49
-12.7
 74
     0
  0
LTYPE
  5
78
330
5
100
AcDbSymbolTableRecord
100
AcDbLinetypeTableRecord
  2
DASHDOT
 70
     0
  3
Dash dot __ . __ . __ . __ . __ . __ . __ . __
 72
    65
 73
     4
 40
25.4
 49
12.7
 74
     0
 49
-6.35
 74
     0
 49
0.0
 74
     0
 49
-6.35
 74
     0
  0
LTYPE
  5
79
330
5
100
AcDbSymbolTableRecord
100
AcDbLinetypeTableRecord
  2
DASHDOT2
 70
     0
  3
Dash dot (.5x) _._._._._._._._._._._._._._._.
 72
    65
 73
     4
 40
12.7
 49
6.35
 74
     0
 49
-3.175
 74
     0
 49
0.0
 74
     0
 49
-3.175
 74
     0
  0
LTYPE
  5
7A
330
5
100
AcDbSymbolTableRecord
100
AcDbLinetypeTableRecord
  2
DIVIDEX2
 70
     0
  3
Divide (2x) ________  .  .  ________  .  .  _
 72
    65
 73
     6
 40
63.5
 49
25.4
 74
     0
 49
-12.7
 74
     0
 49
0.0
 74
     0
 49
-12.7
 74
     0
 49
0.0
 74
     0
 49
-12.7
 74
     0
  0
LTYPE
  5
7B
330
5
100
AcDbSymbolTableRecord
100
AcDbLinetypeTableRecord
  2
DIVIDE
 70
     0
  3
Divide ____ . . ____ . . ____ . . ____ . . ____
 72
    65
 73
     6
 40
31.75
 49
12.7
 74
     0
 49
-6.35
 74
     0
 49
0.0
 74
     0
 49
-6.35
 74
     0
 49
0.0
 74
     0
 49
-6.35
 74
     0
  0
LTYPE
  5
7C
330
5
100
AcDbSymbolTableRecord
100
AcDbLinetypeTableRecord
  2
DIVIDE2
 70
     0
  3
Divide (.5x) __..__..__..__..__..__..__..__.._
 72
    65
 73
     6
 40
15.875
 49
6.35
 74
     0
 49
-3.175
 74
     0
 49
0.0
 74
     0
 49
-3.175
 74
     0
 49
0.0
 74
     0
 49
-3.175
 74
     0
  0
LTYPE
  5
7D
330
5
100
AcDbSymbolTableRecord
100
AcDbLinetypeTableRecord
  2
BORDERX2
 70
     0
  3
Border (2x) ____  ____  .  ____  ____  .  ___
 72
    65
 73
     6
 40
88.89999999999999
 49
25.4
 74
     0
 49
-12.7
 74
     0
 49
25.4
 74
     0
 49
-12.7
 74
     0
 49
0.0
 74
     0
 49
-12.7
 74
     0
  0
LTYPE
  5
7E
330
5
100
AcDbSymbolTableRecord
100
AcDbLinetypeTableRecord
  2
BORDER
 70
     0
  3
Border __ __ . __ __ . __ __ . __ __ . __ __ .
 72
    65
 73
     6
 40
44.45
 49
12.7
 74
     0
 49
-6.35
 74
     0
 49
12.7
 74
     0
 49
-6.35
 74
     0
 49
0.0
 74
     0
 49
-6.35
 74
     0
  0
LTYPE
  5
7F
330
5
100
AcDbSymbolTableRecord
100
AcDbLinetypeTableRecord
  2
BORDER2
 70
     0
  3
Border (.5x) __.__.__.__.__.__.__.__.__.__.__.
 72
    65
 73
     6
 40
22.225
 49
6.35
 74
     0
 49
-3.175
 74
     0
 49
6.35
 74
     0
 49
-3.175
 74
     0
 49
0.0
 74
     0
 49
-3.175
 74
     0
  0
LTYPE
  5
80
330
5
100
AcDbSymbolTableRecord
100
AcDbLinetypeTableRecord
  2
PHANTOMX2
 70
     0
  3
Phantom (2x) ____________    ____    ____   _
 72
    65
 73
     6
 40
127.0
 49
63.5
 74
     0
 49
-12.7
 74
     0
 49
12.7
 74
     0
 49
-12.7
 74
     0
 49
12.7
 74
     0
 49
-12.7
 74
     0
  0
LTYPE
  5
81
330
5
100
AcDbSymbolTableRecord
100
AcDbLinetypeTableRecord
  2
PHANTOM
 70
     0
  3
Phantom ______  __  __  ______  __  __  ______ 
 72
    65
 73
     6
 40
63.5
 49
31.75
 74
     0
 49
-6.35
 74
     0
 49
6.35
 74
     0
 49
-6.35
 74
     0
 49
6.35
 74
     0
 49
-6.35
 74
     0
  0
LTYPE
  5
82
330
5
100
AcDbSymbolTableRecord
100
AcDbLinetypeTableRecord
  2
PHANTOM2
 70
     0
  3
Phantom (.5x) ___ _ _ ___ _ _ ___ _ _ ___ _ _
 72
    65
 73
     6
 40
31.75
 49
15.875
 74
     0
 49
-3.175
 74
     0
 49
3.175
 74
     0
 49
-3.175
 74
     0
 49
3.175
 74
     0
 49
-3.175
 74
     0
  0
LTYPE
  5
83
330
5
100
AcDbSymbolTableRecord
100
AcDbLinetypeTableRecord
  2
ACAD_ISO06W100
 70
     0
  3
ISO long-dash triple-dot ____ ... ____ ... ____
 72
    65
 73
     8
 40
36.0
 49
24.0
 74
     0
 49
-3.0
 74
     0
 49
0.0
 74
     0
 49
-3.0
 74
     0
 49
0.0
 74
     0
 49
-3.0
 74
     0
 49
0.0
 74
     0
 49
-3.0
 74
     0
  0
LTYPE
  5
84
330
5
100
AcDbSymbolTableRecord
100
AcDbLinetypeTableRecord
  2
ACAD_ISO13W100
 70
     0
  3
ISO double-dash double-dot __ __ . . __ __ . . _
 72
    65
 73
     8
 40
36.0
 49
12.0
 74
     0
 49
-3.0
 74
     0
 49
12.0
 74
     0
 49
-3.0
 74
     0
 49
0.0
 74
     0
 49
-3.0
 74
     0
 49
0.0
 74
     0
 49
-3.0
 74
     0
  0
LTYPE
  5
85
330
5
100
AcDbSymbolTableRecord
100
AcDbLinetypeTableRecord
  2
ACAD_ISO14W100
 70
     0
  3
ISO dash triple-dot __ . . . __ . . . __ . . . _
 72
    65
 73
     8
 40
24.0
 49
12.0
 74
     0
 49
-3.0
 74
     0
 49
0.0
 74
     0
 49
-3.0
 74
     0
 49
0.0
 74
     0
 49
-3.0
 74
     0
 49
0.0
 74
     0
 49
-3.0
 74
     0
  0
LTYPE
  5
86
330
5
100
AcDbSymbolTableRecord
100
AcDbLinetypeTableRecord
  2
ACAD_ISO02W100
 70
     0
  3
ISO dash __ __ __ __ __ __ __ __ __ __ __ __ __
 72
    65
 73
     2
 40
15.0
 49
12.0
 74
     0
 49
-3.0
 74
     0
  0
LTYPE
  5
87
330
5
100
AcDbSymbolTableRecord
100
AcDbLinetypeTableRecord
  2
ACAD_ISO03W100
 70
     0
  3
ISO dash space __    __    __    __    __    __
 72
    65
 73
     2
 40
30.0
 49
12.0
 74
     0
 49
-18.0
 74
     0
  0
LTYPE
  5
88
330
5
100
AcDbSymbolTableRecord
100
AcDbLinetypeTableRecord
  2
ACAD_ISO04W100
 70
     0
  3
ISO long-dash dot ____ . ____ . ____ . ____ . _
 72
    65
 73
     4
 40
30.0
 49
24.0
 74
     0
 49
-3.0
 74
     0
 49
0.0
 74
     0
 49
-3.0
 74
     0
  0
LTYPE
  5
89
330
5
100
AcDbSymbolTableRecord
100
AcDbLinetypeTableRecord
  2
ACAD_ISO05W100
 70
     0
  3
ISO long-dash double-dot ____ .. ____ .. ____ . 
 72
    65
 73
     6
 40
33.0
 49
24.0
 74
     0
 49
-3.0
 74
     0
 49
0.0
 74
     0
 49
-3.0
 74
     0
 49
0.0
 74
     0
 49
-3.0
 74
     0
  0
LTYPE
  5
8A
330
5
100
AcDbSymbolTableRecord
100
AcDbLinetypeTableRecord
  2
ACAD_ISO07W100
 70
     0
  3
ISO dot . . . . . . . . . . . . . . . . . . . . 
 72
    65
 73
     2
 40
3.0
 49
0.0
 74
     0
 49
-3.0
 74
     0
  0
LTYPE
  5
8B
330
5
100
AcDbSymbolTableRecord
100
AcDbLinetypeTableRecord
  2
ACAD_ISO08W100
 70
     0
  3
ISO long-dash short-dash ____ __ ____ __ ____ _
 72
    65
 73
     4
 40
36.0
 49
24.0
 74
     0
 49
-3.0
 74
     0
 49
6.0
 74
     0
 49
-3.0
 74
     0
  0
LTYPE
  5
8C
330
5
100
AcDbSymbolTableRecord
100
AcDbLinetypeTableRecord
  2
ACAD_ISO09W100
 70
     0
  3
ISO long-dash double-short-dash ____ __ __ ____
 72
    65
 73
     6
 40
45.0
 49
24.0
 74
     0
 49
-3.0
 74
     0
 49
6.0
 74
     0
 49
-3.0
 74
     0
 49
6.0
 74
     0
 49
-3.0
 74
     0
  0
LTYPE
  5
8D
330
5
100
AcDbSymbolTableRecord
100
AcDbLinetypeTableRecord
  2
ACAD_ISO10W100
 70
     0
  3
ISO dash dot __ . __ . __ . __ . __ . __ . __ . 
 72
    65
 73
     4
 40
18.0
 49
12.0
 74
     0
 49
-3.0
 74
     0
 49
0.0
 74
     0
 49
-3.0
 74
     0
  0
LTYPE
  5
8E
330
5
100
AcDbSymbolTableRecord
100
AcDbLinetypeTableRecord
  2
ACAD_ISO11W100
 70
     0
  3
ISO double-dash dot __ __ . __ __ . __ __ . __ _
 72
    65
 73
     6
 40
33.0
 49
12.0
 74
     0
 49
-3.0
 74
     0
 49
12.0
 74
     0
 49
-3.0
 74
     0
 49
0.0
 74
     0
 49
-3.0
 74
     0
  0
LTYPE
  5
8F
330
5
100
AcDbSymbolTableRecord
100
AcDbLinetypeTableRecord
  2
ACAD_ISO12W100
 70
     0
  3
ISO dash double-dot __ . . __ . . __ . . __ . . 
 72
    65
 73
     6
 40
21.0
 49
12.0
 74
     0
 49
-3.0
 74
     0
 49
0.0
 74
     0
 49
-3.0
 74
     0
 49
0.0
 74
     0
 49
-3.0
 74
     0
  0
LTYPE
  5
90
330
5
100
AcDbSymbolTableRecord
100
AcDbLinetypeTableRecord
  2
ACAD_ISO15W100
 70
     0
  3
ISO double-dash triple-dot __ __ . . . __ __ . .
 72
    65
 73
    10
 40
39.0
 49
12.0
 74
     0
 49
-3.0
 74
     0
 49
12.0
 74
     0
 49
-3.0
 74
     0
 49
0.0
 74
     0
 49
-3.0
 74
     0
 49
0.0
 74
     0
 49
-3.0
 74
     0
 49
0.0
 74
     0
 49
-3.0
 74
     0
  0
LTYPE
  5
91
330
5
100
AcDbSymbolTableRecord
100
AcDbLinetypeTableRecord
  2
JIS_02_0.7
 70
     0
  3
HIDDEN0.75 _ _ _ _ _ _ _ _ _ _ _ _ _ _ _ _ _ 
 72
    65
 73
     2
 40
1.35
 49
0.75
 74
     0
 49
-0.6
 74
     0
  0
LTYPE
  5
92
330
5
100
AcDbSymbolTableRecord
100
AcDbLinetypeTableRecord
  2
JIS_02_1.0
 70
     0
  3
HIDDEN01 _ _ _ _ _ _ _ _ _ _ _ _ _ _ _ _ _ 
 72
    65
 73
     2
 40
2.0
 49
1.0
 74
     0
 49
-1.0
 74
     0
  0
LTYPE
  5
93
330
5
100
AcDbSymbolTableRecord
100
AcDbLinetypeTableRecord
  2
JIS_02_1.2
 70
     0
  3
HIDDEN01.25  _ _ _ _ _ _ _ _ _ _ _ _ _ _ _ _ _ 
 72
    65
 73
     2
 40
2.5
 49
1.25
 74
     0
 49
-1.25
 74
     0
  0
LTYPE
  5
94
330
5
100
AcDbSymbolTableRecord
100
AcDbLinetypeTableRecord
  2
JIS_02_2.0
 70
     0
  3
HIDDEN02 __ __ __ __ __ __ __ __ __ __ __ 
 72
    65
 73
     2
 40
3.0
 49
2.0
 74
     0
 49
-1.0
 74
     0
  0
LTYPE
  5
95
330
5
100
AcDbSymbolTableRecord
100
AcDbLinetypeTableRecord
  2
JIS_02_4.0
 70
     0
  3
HIDDEN04 ____ ____ ____ ____ ____ ____ ____ 
 72
    65
 73
     2
 40
5.5
 49
4.0
 74
     0
 49
-1.5
 74
     0
  0
LTYPE
  5
96
330
5
100
AcDbSymbolTableRecord
100
AcDbLinetypeTableRecord
  2
JIS_08_11
 70
     0
  3
1SASEN11 ___ _ ___ _ ___ _ ___ _ ___ _ ___
 72
    65
 73
     4
 40
12.8
 49
11.0
 74
     0
 49
-0.6
 74
     0
 49
0.6
 74
     0
 49
-0.6
 74
     0
  0
LTYPE
  5
97
330
5
100
AcDbSymbolTableRecord
100
AcDbLinetypeTableRecord
  2
JIS_08_15
 70
     0
  3
1SASEN15 ____ _ ____ _ ____ _ ____ _ ____ 
 72
    65
 73
     4
 40
17.25
 49
15.0
 74
     0
 49
-0.75
 74
     0
 49
0.75
 74
     0
 49
-0.75
 74
     0
  0
LTYPE
  5
98
330
5
100
AcDbSymbolTableRecord
100
AcDbLinetypeTableRecord
  2
JIS_08_25
 70
     0
  3
1SASEN25 ________  __  ________  __  _____
 72
    65
 73
     4
 40
28.0
 49
25.0
 74
     0
 49
-1.125
 74
     0
 49
0.75
 74
     0
 49
-1.125
 74
     0
  0
LTYPE
  5
99
330
5
100
AcDbSymbolTableRecord
100
AcDbLinetypeTableRecord
  2
JIS_08_37
 70
     0
  3
1SASEN37 ________  __  ________  __  _____
 72
    65
 73
     4
 40
40.5
 49
37.5
 74
     0
 49
-1.125
 74
     0
 49
0.75
 74
     0
 49
-1.125
 74
     0
  0
LTYPE
  5
9A
330
5
100
AcDbSymbolTableRecord
100
AcDbLinetypeTableRecord
  2
JIS_08_50
 70
     0
  3
1SASEN50 _______________  __  ____________
 72
    65
 73
     4
 40
53.0
 49
50.0
 74
     0
 49
-1.125
 74
     0
 49
0.75
 74
     0
 49
-1.125
 74
     0
  0
LTYPE
  5
9B
330
5
100
AcDbSymbolTableRecord
100
AcDbLinetypeTableRecord
  2
JIS_09_08
 70
     0
  3
2SASEN8 __ _ _ __ _ _ __ _ _ __ _ _ __ _ _ 
 72
    65
 73
     6
 40
10.75
 49
8.0
 74
     0
 49
-0.55
 74
     0
 49
0.55
 74
     0
 49
-0.55
 74
     0
 49
0.55
 74
     0
 49
-0.55
 74
     0
  0
LTYPE
  5
9C
330
5
100
AcDbSymbolTableRecord
100
AcDbLinetypeTableRecord
  2
JIS_09_15
 70
     0
  3
2SASEN15 ___ _ _ ___ _ _ ___ _ _ ___ _ _ ___ 
 72
    65
 73
     6
 40
18.9
 49
15.0
 74
     0
 49
-0.9
 74
     0
 49
0.6
 74
     0
 49
-0.9
 74
     0
 49
0.6
 74
     0
 49
-0.9
 74
     0
  0
LTYPE
  5
9D
330
5
100
AcDbSymbolTableRecord
100
AcDbLinetypeTableRecord
  2
JIS_09_29
 70
     0
  3
2SASEN29 ______　__  __  ______　__  __  ___
 72
    65
 73
     6
 40
34.0
 49
29.0
 74
     0
 49
-1.2
 74
     0
 49
0.7
 74
     0
 49
-1.2
 74
     0
 49
0.7
 74
     0
 49
-1.2
 74
     0
  0
LTYPE
  5
9E
330
5
100
AcDbSymbolTableRecord
100
AcDbLinetypeTableRecord
  2
JIS_09_50
 70
     0
  3
2SASEN50 ____________　__  __  _____________
 72
    65
 73
     6
 40
55.0
 49
50.0
 74
     0
 49
-1.2
 74
     0
 49
0.7
 74
     0
 49
-1.2
 74
     0
 49
0.7
 74
     0
 49
-1.2
 74
     0
  0
LTYPE
  5
9F
330
5
100
AcDbSymbolTableRecord
100
AcDbLinetypeTableRecord
  2
SXF_破線
 70
     0
  3
02 dashed -- -- -- -- -- --
 72
    65
 73
     2
 40
7.5
 49
6.0
 74
     0
 49
-1.5
 74
     0
  0
LTYPE
  5
A0
330
5
100
AcDbSymbolTableRecord
100
AcDbLinetypeTableRecord
  2
SXF_跳び破線
 70
     0
  3
03 dashed_spaced --  --  --  --
 72
    65
 73
     2
 40
12.0
 49
6.0
 74
     0
 49
-6.0
 74
     0
  0
LTYPE
  5
A1
330
5
100
AcDbSymbolTableRecord
100
AcDbLinetypeTableRecord
  2
SXF_一点長鎖線
 70
     0
  3
04 long_dashed_dotted ---- . ---- . ----
 72
    65
 73
     4
 40
15.25
 49
12.0
 74
     0
 49
-1.5
 74
     0
 49
0.25
 74
     0
 49
-1.5
 74
     0
  0
LTYPE
  5
A2
330
5
100
AcDbSymbolTableRecord
100
AcDbLinetypeTableRecord
  2
SXF_二点長鎖線
 70
     0
  3
05 long_dashed_double-dotted ---- . . ---- 
 72
    65
 73
     6
 40
17.0
 49
12.0
 74
     0
 49
-1.5
 74
     0
 49
0.25
 74
     0
 49
-1.5
 74
     0
 49
0.25
 74
     0
 49
-1.5
 74
     0
  0
LTYPE
  5
A3
330
5
100
AcDbSymbolTableRecord
100
AcDbLinetypeTableRecord
  2
SXF_三点長鎖線
 70
     0
  3
06 long_dashed_triplicate-dotted ---- ... ---- 
 72
    65
 73
     8
 40
18.75
 49
12.0
 74
     0
 49
-1.5
 74
     0
 49
0.25
 74
     0
 49
-1.5
 74
     0
 49
0.25
 74
     0
 49
-1.5
 74
     0
 49
0.25
 74
     0
 49
-1.5
 74
     0
  0
LTYPE
  5
A4
330
5
100
AcDbSymbolTableRecord
100
AcDbLinetypeTableRecord
  2
SXF_点線
 70
     0
  3
07 dotted . . . . . . . . . . . . 
 72
    65
 73
     2
 40
1.75
 49
0.25
 74
     0
 49
-1.5
 74
     0
  0
LTYPE
  5
A5
330
5
100
AcDbSymbolTableRecord
100
AcDbLinetypeTableRecord
  2
SXF_一点鎖線
 70
     0
  3
08 chain ---- - --- - --- - ---
 72
    65
 73
     4
 40
18.5
 49
12.0
 74
     0
 49
-1.5
 74
     0
 49
3.5
 74
     0
 49
-1.5
 74
     0
  0
LTYPE
  5
A6
330
5
100
AcDbSymbolTableRecord
100
AcDbLinetypeTableRecord
  2
SXF_二点鎖線
 70
     0
  3
09 chain_double_dash ---- - - ---- - - ----
 72
    65
 73
     6
 40
23.5
 49
12.0
 74
     0
 49
-1.5
 74
     0
 49
3.5
 74
     0
 49
-1.5
 74
     0
 49
3.5
 74
     0
 49
-1.5
 74
     0
  0
LTYPE
  5
A7
330
5
100
AcDbSymbolTableRecord
100
AcDbLinetypeTableRecord
  2
SXF_一点短鎖線
 70
     0
  3
10 dashed_dotted -- . -- . -- . --
 72
    65
 73
     4
 40
9.25
 49
6.0
 74
     0
 49
-1.5
 74
     0
 49
0.25
 74
     0
 49
-1.5
 74
     0
  0
LTYPE
  5
A8
330
5
100
AcDbSymbolTableRecord
100
AcDbLinetypeTableRecord
  2
SXF_一点二短鎖線
 70
     0
  3
11 double-dashed_dotted -- -- . -- --
 72
    65
 73
     6
 40
16.75
 49
6.0
 74
     0
 49
-1.5
 74
     0
 49
6.0
 74
     0
 49
-1.5
 74
     0
 49
0.25
 74
     0
 49
-1.5
 74
     0
  0
LTYPE
  5
A9
330
5
100
AcDbSymbolTableRecord
100
AcDbLinetypeTableRecord
  2
SXF_二点短鎖線
 70
     0
  3
12 dashed_double_dotted -- . . -- . . --
 72
    65
 73
     6
 40
11.0
 49
6.0
 74
     0
 49
-1.5
 74
     0
 49
0.25
 74
     0
 49
-1.5
 74
     0
 49
0.25
 74
     0
 49
-1.5
 74
     0
  0
LTYPE
  5
AA
330
5
100
AcDbSymbolTableRecord
100
AcDbLinetypeTableRecord
  2
SXF_二点二短鎖線
 70
     0
  3
13 double-dashed_double-dotted -- -- . . -- --
 72
    65
 73
     8
 40
18.5
 49
6.0
 74
     0
 49
-1.5
 74
     0
 49
6.0
 74
     0
 49
-1.5
 74
     0
 49
0.25
 74
     0
 49
-1.5
 74
     0
 49
0.25
 74
     0
 49
-1.5
 74
     0
  0
LTYPE
  5
AB
330
5
100
AcDbSymbolTableRecord
100
AcDbLinetypeTableRecord
  2
SXF_三点短鎖線
 70
     0
  3
14 dashed triplicate-dotted -- . . . -- . . . --
 72
    65
 73
     8
 40
12.75
 49
6.0
 74
     0
 49
-1.5
 74
     0
 49
0.25
 74
     0
 49
-1.5
 74
     0
 49
0.25
 74
     0
 49
-1.5
 74
     0
 49
0.25
 74
     0
 49
-1.5
 74
     0
  0
LTYPE
  5
AC
330
5
100
AcDbSymbolTableRecord
100
AcDbLinetypeTableRecord
  2
SXF_三点二短鎖線
 70
     0
  3
15 double-dashed triplicate-dotted -- -- . . . -- -- 
 72
    65
 73
    10
 40
20.25
 49
6.0
 74
     0
 49
-1.5
 74
     0
 49
6.0
 74
     0
 49
-1.5
 74
     0
 49
0.25
 74
     0
 49
-1.5
 74
     0
 49
0.25
 74
     0
 49
-1.5
 74
     0
 49
0.25
 74
     0
 49
-1.5
 74
     0
  0
ENDTAB
  0
TABLE
  2
LAYER
  5
2
330
0
100
AcDbSymbolTable
 70
     3
  0
LAYER
  5
10
330
2
100
AcDbSymbolTableRecord
100
AcDbLayerTableRecord
  2
0
 70
     0
 62
     7
  6
Continuous
370
    -3
390
F
  0
LAYER
  5
AD
330
2
100
AcDbSymbolTableRecord
100
AcDbLayerTableRecord
  2
15
 70
     0
 62
     7
  6
Continuous
370
    -3
390
F
  0
LAYER
  5
AE
330
2
100
AcDbSymbolTableRecord
100
AcDbLayerTableRecord
  2
ZUWAKU
 70
     0
 62
     7
  6
Continuous
370
    -3
390
F
  0
ENDTAB
  0
TABLE
  2
STYLE
  5
3
330
0
100
AcDbSymbolTable
 70
     3
  0
STYLE
  5
11
330
3
100
AcDbSymbolTableRecord
100
AcDbTextStyleTableRecord
  2
Standard
 70
     0
 40
0.0
 41
1.0
 50
0.0
 71
     0
 42
0.2
  3
txt.shx
  4
bigfont.shx
  0
STYLE
  5
FB
330
3
100
AcDbSymbolTableRecord
100
AcDbTextStyleTableRecord
  2
dcStyle0
 70
     0
 40
0.0
 41
0.77
 50
0.0
 71
     0
 42
0.2
  3
ＭＳ Ｐゴシック
  4

1001
ACAD
1000
ＭＳ Ｐゴシック
1071
    32802
  0
STYLE
  5
15B
330
3
100
AcDbSymbolTableRecord
100
AcDbTextStyleTableRecord
  2
dcStyle1
 70
     0
 40
0.0
 41
0.9999999999999981
 50
0.0
 71
     0
 42
0.2
  3
txt.shx
  4
bigfont
  0
ENDTAB
  0
TABLE
  2
VIEW
  5
6
330
0
100
AcDbSymbolTable
 70
     0
  0
ENDTAB
  0
TABLE
  2
UCS
  5
7
330
0
100
AcDbSymbolTable
 70
     0
  0
ENDTAB
  0
TABLE
  2
APPID
  5
9
330
0
100
AcDbSymbolTable
 70
     3
  0
APPID
  5
12
330
9
100
AcDbSymbolTableRecord
100
AcDbRegAppTableRecord
  2
ACAD
 70
     0
  0
APPID
  5
6A
330
9
100
AcDbSymbolTableRecord
100
AcDbRegAppTableRecord
  2
DaFusionOut
 70
     0
  0
APPID
  5
405
330
9
100
AcDbSymbolTableRecord
100
AcDbRegAppTableRecord
  2
ACAD_DSTYLE_DIMARC_LENGTH_SYMBOL
 70
     0
  0
ENDTAB
  0
TABLE
  2
DIMSTYLE
  5
A
330
0
100
AcDbSymbolTable
 70
     2
100
AcDbDimStyleTable
  0
DIMSTYLE
105
27
330
A
100
AcDbSymbolTableRecord
100
AcDbDimStyleTableRecord
  2
Standard
 70
     0
178
     0
340
11
  0
DIMSTYLE
105
3E7
102
{ACAD_REACTORS
330
3E6
330
3E8
330
3E9
330
3EA
330
3EB
330
3EC
330
3ED
330
3EE
102
}
330
A
100
AcDbSymbolTableRecord
100
AcDbDimStyleTableRecord
  2
dc_Rotated
 70
     0
 41
18.00135612487793
 42
5.999999999999998
 44
5.999999999999998
 73
     0
 74
     0
 77
     3
 78
     8
 79
     2
140
23.99999999999999
147
4.199999999999989
172
     1
173
     1
176
     2
177
     2
271
     2
178
     2
271
     2
274
     4
283
     0
284
     8
288
     1
340
11
343
108
344
108
1001
ACAD_DSTYLE_DIMARC_LENGTH_SYMBOL
1070
   379
1070
     1
  0
ENDTAB
  0
TABLE
  2
BLOCK_RECORD
  5
1
330
0
100
AcDbSymbolTable
 70
    27
  0
BLOCK_RECORD
  5
1F
330
1
100
AcDbSymbolTableRecord
100
AcDbBlockTableRecord
  2
*Model_Space
340
22
  0
BLOCK_RECORD
  5
1B
330
1
100
AcDbSymbolTableRecord
100
AcDbBlockTableRecord
  2
*Paper_Space
340
1E
  0
BLOCK_RECORD
  5
23
330
1
100
AcDbSymbolTableRecord
100
AcDbBlockTableRecord
  2
*Paper_Space0
340
26
  0
BLOCK_RECORD
  5
B0
330
1
100
AcDbSymbolTableRecord
100
AcDbBlockTableRecord
  2
DC_GROUP_W_MTS_S_100_1_1
340
0
102
{BLKREFS
331
3E4
102
}
  0
BLOCK_RECORD
  5
B3
330
1
100
AcDbSymbolTableRecord
100
AcDbBlockTableRecord
  2
DC_GROUP_W_MTS_S_100_1_2
340
0
102
{BLKREFS
331
FD
102
}
  0
BLOCK_RECORD
  5
B6
330
1
100
AcDbSymbolTableRecord
100
AcDbBlockTableRecord
  2
DC_GROUP_W_MTS_S_100_1_3
340
0
102
{BLKREFS
331
3E5
102
}
  0
BLOCK_RECORD
  5
B9
330
1
100
AcDbSymbolTableRecord
100
AcDbBlockTableRecord
  2
*D4
340
0
  0
BLOCK_RECORD
  5
BC
330
1
100
AcDbSymbolTableRecord
100
AcDbBlockTableRecord
  2
*D5
340
0
  0
BLOCK_RECORD
  5
BF
330
1
100
AcDbSymbolTableRecord
100
AcDbBlockTableRecord
  2
*D6
340
0
  0
BLOCK_RECORD
  5
C2
330
1
100
AcDbSymbolTableRecord
100
AcDbBlockTableRecord
  2
*D7
340
0
  0
BLOCK_RECORD
  5
C5
330
1
100
AcDbSymbolTableRecord
100
AcDbBlockTableRecord
  2
*D8
340
0
  0
BLOCK_RECORD
  5
C8
330
1
100
AcDbSymbolTableRecord
100
AcDbBlockTableRecord
  2
*D9
340
0
  0
BLOCK_RECORD
  5
CB
330
1
100
AcDbSymbolTableRecord
100
AcDbBlockTableRecord
  2
*D10
340
0
  0
BLOCK_RECORD
  5
CE
330
1
100
AcDbSymbolTableRecord
100
AcDbBlockTableRecord
  2
*D11
340
0
  0
BLOCK_RECORD
  5
D1
330
1
100
AcDbSymbolTableRecord
100
AcDbBlockTableRecord
  2
DC_GROUP_W_MTS_S_100_1_4
340
0
102
{BLKREFS
331
3EF
102
}
  0
BLOCK_RECORD
  5
D4
330
1
100
AcDbSymbolTableRecord
100
AcDbBlockTableRecord
  2
DC_GROUP_W_MTS_S_100_1_5
340
0
102
{BLKREFS
331
3F2
102
}
  0
BLOCK_RECORD
  5
D7
330
1
100
AcDbSymbolTableRecord
100
AcDbBlockTableRecord
  2
DC_GROUP_W_MTS_S_100_1_6
340
0
102
{BLKREFS
331
3F3
102
}
  0
BLOCK_RECORD
  5
DA
330
1
100
AcDbSymbolTableRecord
100
AcDbBlockTableRecord
  2
DC_GROUP_W_MTS_S_100_1_7
340
0
102
{BLKREFS
331
3F4
102
}
  0
BLOCK_RECORD
  5
DD
330
1
100
AcDbSymbolTableRecord
100
AcDbBlockTableRecord
  2
DC_GROUP_W_MTS_S_100_1_8
340
0
102
{BLKREFS
331
199
102
}
  0
BLOCK_RECORD
  5
E0
330
1
100
AcDbSymbolTableRecord
100
AcDbBlockTableRecord
  2
DC_GROUP_W_MTS_S_100_1_9
340
0
102
{BLKREFS
331
3F5
102
}
  0
BLOCK_RECORD
  5
E3
330
1
100
AcDbSymbolTableRecord
100
AcDbBlockTableRecord
  2
DC_GROUP_W_MTS_S_100_1_10
340
0
102
{BLKREFS
331
3F6
102
}
  0
BLOCK_RECORD
  5
E6
330
1
100
AcDbSymbolTableRecord
100
AcDbBlockTableRecord
  2
DC_GROUP_W_MTS_S_100_1_11
340
0
102
{BLKREFS
331
1CD
102
}
  0
BLOCK_RECORD
  5
E9
330
1
100
AcDbSymbolTableRecord
100
AcDbBlockTableRecord
  2
DC_GROUP_W_MTS_S_100_1_12
340
0
102
{BLKREFS
331
3F7
102
}
  0
BLOCK_RECORD
  5
EC
330
1
100
AcDbSymbolTableRecord
100
AcDbBlockTableRecord
  2
DC_GROUP_W_MTS_S_100_1_13
340
0
102
{BLKREFS
331
3F8
102
}
  0
BLOCK_RECORD
  5
EF
330
1
100
AcDbSymbolTableRecord
100
AcDbBlockTableRecord
  2
DC_GROUP_W_MTS_S_100_1_14
340
0
102
{BLKREFS
331
205
102
}
  0
BLOCK_RECORD
  5
F2
330
1
100
AcDbSymbolTableRecord
100
AcDbBlockTableRecord
  2
DC_GROUP_W_MTS_S_100_1_15
340
0
102
{BLKREFS
331
3F9
102
}
  0
BLOCK_RECORD
  5
F5
330
1
100
AcDbSymbolTableRecord
100
AcDbBlockTableRecord
  2
DC_GROUP_W_MTS_S_100_1_16
340
0
102
{BLKREFS
331
3F0
102
}
  0
BLOCK_RECORD
  5
F8
330
1
100
AcDbSymbolTableRecord
100
AcDbBlockTableRecord
  2
DC_GROUP_W_MTS_S_100_1_17
340
0
102
{BLKREFS
331
3F1
102
}
  0
BLOCK_RECORD
  5
108
330
1
100
AcDbSymbolTableRecord
100
AcDbBlockTableRecord
  2
_OPEN30
340
0
102
{BLKREFS
331
10E
331
10F
331
115
331
117
331
11C
331
11D
331
123
331
125
331
12A
331
12B
331
130
331
131
331
136
331
137
331
13C
331
13D
331
141
331
143
331
224
331
226
331
228
331
22A
331
22C
331
22E
102
}
  0
ENDTAB
  0
ENDSEC
  0
SECTION
  2
BLOCKS
  0
BLOCK
  5
20
330
1F
100
AcDbEntity
  8
0
100
AcDbBlockBegin
  2
*Model_Space
 70
     0
 10
0.0
 20
0.0
 30
0.0
  3
*Model_Space
  1
*Model_Space
  0
ENDBLK
  5
21
330
1F
100
AcDbEntity
  8
0
100
AcDbBlockEnd
  0
BLOCK
  5
1C
330
1B
100
AcDbEntity
 67
     1
  8
0
100
AcDbBlockBegin
  2
*Paper_Space
 70
     0
 10
0.0
 20
0.0
 30
0.0
  3
*Paper_Space
  1
*Paper_Space
  0
ENDBLK
  5
1D
330
1B
100
AcDbEntity
 67
     1
  8
0
100
AcDbBlockEnd
  0
BLOCK
  5
24
330
23
100
AcDbEntity
  8
0
100
AcDbBlockBegin
  2
*Paper_Space0
 70
     0
 10
0.0
 20
0.0
 30
0.0
  3
*Paper_Space0
  1
*Paper_Space0
  0
ENDBLK
  5
25
330
23
100
AcDbEntity
  8
0
100
AcDbBlockEnd
  0
BLOCK
  5
B1
330
B0
100
AcDbEntity
  8
0
100
AcDbBlockBegin
  2
DC_GROUP_W_MTS_S_100_1_1
 70
     0
 10
0.0
 20
0.0
 30
0.0
  3
DC_GROUP_W_MTS_S_100_1_1
  1
DC_GROUP_W_MTS_S_100_1_1
  0
TEXT
  5
FC
330
B0
100
AcDbEntity
  8
0
 62
     2
100
AcDbText
 10
-196.0132379248712
 20
-477.9805008944547
 30
0.0
 40
29.99999999999999
  1
呼び機長 40 cm
 41
0.7074994946432182
  7
dcStyle0
 72
     5
 11
13.98676207512878
 21
-477.9805008944547
 31
0.0
100
AcDbText
  0
INSERT
  5
FD
330
B0
100
AcDbEntity
  8
0
  6
Continuous
100
AcDbBlockReference
  2
DC_GROUP_W_MTS_S_100_1_2
 10
0.0
 20
0.0
 30
0.0
  0
ENDBLK
  5
B2
330
B0
100
AcDbEntity
  8
0
100
AcDbBlockEnd
  0
BLOCK
  5
B4
330
B3
100
AcDbEntity
  8
0
100
AcDbBlockBegin
  2
DC_GROUP_W_MTS_S_100_1_2
 70
     0
 10
0.0
 20
0.0
 30
0.0
  3
DC_GROUP_W_MTS_S_100_1_2
  1
DC_GROUP_W_MTS_S_100_1_2
  0
LINE
  5
FE
330
B3
100
AcDbEntity
  8
0
  6
Continuous
 62
     2
370
    13
100
AcDbLine
 10
-211.0132379248712
 20
-432.9805008944547
 30
0.0
 11
-211.0132379248712
 21
-492.9805008944547
 31
0.0
  0
LINE
  5
FF
330
B3
100
AcDbEntity
  8
0
  6
Continuous
 62
     2
370
    13
100
AcDbLine
 10
-211.0132379248712
 20
-492.9805008944547
 30
0.0
 11
38.98676207512835
 21
-492.9805008944547
 31
0.0
  0
LINE
  5
100
330
B3
100
AcDbEntity
  8
0
  6
Continuous
 62
     2
370
    13
100
AcDbLine
 10
38.98676207512835
 20
-492.9805008944547
 30
0.0
 11
38.98676207512835
 21
-432.9805008944547
 31
0.0
  0
LINE
  5
101
330
B3
100
AcDbEntity
  8
0
  6
Continuous
 62
     2
370
    13
100
AcDbLine
 10
38.98676207512835
 20
-432.9805008944547
 30
0.0
 11
-211.0132379248712
 21
-432.9805008944547
 31
0.0
  0
ENDBLK
  5
B5
330
B3
100
AcDbEntity
  8
0
100
AcDbBlockEnd
  0
BLOCK
  5
B7
330
B6
100
AcDbEntity
  8
0
100
AcDbBlockBegin
  2
DC_GROUP_W_MTS_S_100_1_3
 70
     0
 10
0.0
 20
0.0
 30
0.0
  3
DC_GROUP_W_MTS_S_100_1_3
  1
DC_GROUP_W_MTS_S_100_1_3
  0
TEXT
  5
102
330
B6
100
AcDbEntity
  8
0
 62
     2
100
AcDbText
 10
255.2504667742755
 20
-533.6462633462977
 30
0.0
 40
23.99999999999999
  1
注1：本図はねじり方向Lタイプ
 41
0.7688505684002418
  7
dcStyle0
 72
     5
 11
591.2504667742755
 21
-533.6462633462977
 31
0.0
100
AcDbText
  0
TEXT
  5
103
330
B6
100
AcDbEntity
  8
0
 62
     2
100
AcDbText
 10
255.2504667742755
 20
-569.6462633462977
 30
0.0
 40
23.99999999999999
  1
注2：排出側装置とジョイントして下さい
 41
0.7949125596184421
  7
dcStyle0
 72
     5
 11
699.2504667742755
 21
-569.6462633462977
 31
0.0
100
AcDbText
  0
TEXT
  5
104
330
B6
100
AcDbEntity
  8
0
 62
     2
100
AcDbText
 10
255.2504667742755
 20
-605.6462633462977
 30
0.0
 40
23.99999999999999
  1
※1：本図はMMX2型、ベルト幅100mmの場合です
 41
0.6985330805308855
  7
dcStyle0
 72
     5
 11
759.2504667742755
 21
-605.6462633462977
 31
0.0
100
AcDbText
  0
ENDBLK
  5
B8
330
B6
100
AcDbEntity
  8
0
100
AcDbBlockEnd
  0
BLOCK
  5
BA
330
B9
100
AcDbEntity
  8
0
100
AcDbBlockBegin
  2
*D4
 70
     1
 10
0.0
 20
0.0
 30
0.0
  3
*D4
  1
*D4
  0
LINE
  5
105
330
B9
100
AcDbEntity
  8
0
  6
Continuous
 62
     2
370
    13
100
AcDbLine
 10
80.93002725596148
 20
442.249215759112
 30
0.0
 11
433.8398179885405
 21
442.249215759112
 31
0.0
  0
LINE
  5
106
330
B9
100
AcDbEntity
  8
0
  6
Continuous
 62
     2
370
    13
100
AcDbLine
 10
80.93002725596148
 20
682.2492157591101
 30
0.0
 11
433.8398179885405
 21
682.2492157591101
 31
0.0
  0
LINE
  5
107
330
B9
100
AcDbEntity
  8
0
  6
Continuous
 62
     2
370
    13
100
AcDbLine
 10
427.8398179885405
 20
442.249215759112
 30
0.0
 11
427.8398179885405
 21
682.2492157591101
 31
0.0
  0
INSERT
  5
10E
330
B9
100
AcDbEntity
  8
0
 62
     2
100
AcDbBlockReference
  2
_OPEN30
 10
427.8398179885405
 20
442.249215759112
 30
0.0
 41
18.00138320357654
 42
18.00097896302553
 50
270.0
  0
INSERT
  5
10F
330
B9
100
AcDbEntity
  8
0
 62
     2
100
AcDbBlockReference
  2
_OPEN30
 10
427.8398179885405
 20
682.2492157591101
 30
0.0
 41
18.00138320357654
 42
18.00097896302553
 50
90.0
  0
TEXT
  5
110
330
B9
100
AcDbEntity
  8
0
 62
     2
100
AcDbText
 10
423.6398179885405
 20
507.247099430207
 30
0.0
 40
23.99999999999999
  1
機幅(240)
 50
90.0
 41
0.7531380753138076
  7
dcStyle0
 72
     5
 11
423.6398179885405
 21
615.247099430207
 31
0.0
100
AcDbText
  0
ENDBLK
  5
BB
330
B9
100
AcDbEntity
  8
0
100
AcDbBlockEnd
  0
BLOCK
  5
BD
330
BC
100
AcDbEntity
  8
0
100
AcDbBlockBegin
  2
*D5
 70
     1
 10
0.0
 20
0.0
 30
0.0
  3
*D5
  1
*D5
  0
LINE
  5
111
330
BC
100
AcDbEntity
  8
0
  6
Continuous
 62
     2
370
    13
100
AcDbLine
 10
272.6971854138635
 20
496.2492157591101
 30
0.0
 11
367.5755213245604
 21
496.2492157591101
 31
0.0
  0
LINE
  5
112
330
BC
100
AcDbEntity
  8
0
  6
Continuous
 62
     2
370
    13
100
AcDbLine
 10
272.6971854138635
 20
628.2492157591101
 30
0.0
 11
367.5755213245604
 21
628.2492157591101
 31
0.0
  0
LINE
  5
113
330
BC
100
AcDbEntity
  8
0
  6
Continuous
 62
     2
370
    13
100
AcDbLine
 10
361.5755213245604
 20
628.2492157591101
 30
0.0
 11
361.5755213245604
 21
496.2492157591101
 31
0.0
  0
LINE
  5
114
330
BC
100
AcDbEntity
  8
0
  6
Continuous
 62
     2
370
    13
100
AcDbLine
 10
361.5755213245603
 20
130.5
 30
0.0
 11
361.5755213245604
 21
496.2492157591101
 31
0.0
  0
INSERT
  5
115
330
BC
100
AcDbEntity
  8
0
 62
     2
100
AcDbBlockReference
  2
_OPEN30
 10
361.5755213245604
 20
496.2492157591101
 30
0.0
 41
18.00138320357654
 42
18.00097896302553
 50
89.99999999999999
  0
LINE
  5
116
330
BC
100
AcDbEntity
  8
0
  6
Continuous
 62
     2
370
    13
100
AcDbLine
 10
361.5755213245604
 20
658.2492157591101
 30
0.0
 11
361.5755213245604
 21
628.2492157591101
 31
0.0
  0
INSERT
  5
117
330
BC
100
AcDbEntity
  8
0
 62
     2
100
AcDbBlockReference
  2
_OPEN30
 10
361.5755213245604
 20
628.2492157591101
 30
0.0
 41
18.00138320357654
 42
18.00097896302553
 50
270.0
  0
TEXT
  5
118
330
BC
100
AcDbEntity
  8
0
 62
     2
100
AcDbText
 10
355.5755213245604
 20
136.5
 30
0.0
 40
23.99999999999999
  1
投入側コンベヤ機幅(132)
 50
90.0
 41
0.7395022828113947
  7
dcStyle0
 72
     5
 11
355.5755213245604
 21
412.4999999999999
 31
0.0
100
AcDbText
  0
ENDBLK
  5
BE
330
BC
100
AcDbEntity
  8
0
100
AcDbBlockEnd
  0
BLOCK
  5
C0
330
BF
100
AcDbEntity
  8
0
100
AcDbBlockBegin
  2
*D6
 70
     1
 10
0.0
 20
0.0
 30
0.0
  3
*D6
  1
*D6
  0
LINE
  5
119
330
BF
100
AcDbEntity
  8
0
  6
Continuous
 62
     2
370
    13
100
AcDbLine
 10
122.8954175651734
 20
-36.4690403085649
 30
0.0
 11
344.4510472529242
 21
91.4461621323033
 31
0.0
  0
LINE
  5
11A
330
BF
100
AcDbEntity
  8
0
  6
Continuous
 62
     2
370
    13
100
AcDbLine
 10
161.7351635273674
 20
-123.7414536680669
 30
0.0
 11
391.9510472529693
 21
9.173748772811706
 31
0.0
  0
LINE
  5
11B
330
BF
100
AcDbEntity
  8
0
  6
Continuous
 62
     2
370
    13
100
AcDbLine
 10
339.2548948302193
 20
88.44616213230034
 30
0.0
 11
386.7548948302644
 21
6.17374877280875
 31
0.0
  0
INSERT
  5
11C
330
BF
100
AcDbEntity
  8
0
 62
     2
100
AcDbBlockReference
  2
_OPEN30
 10
339.2548948302193
 20
88.44616213230034
 30
0.0
 41
18.00138320357654
 42
18.00097896302553
 50
120.0000000000326
  0
INSERT
  5
11D
330
BF
100
AcDbEntity
  8
0
 62
     2
100
AcDbBlockReference
  2
_OPEN30
 10
386.7548948302644
 20
6.17374877280875
 30
0.0
 41
18.00138320357654
 42
18.00097896302553
 50
300.0000000000326
  0
TEXT
  5
11E
330
BF
100
AcDbEntity
  8
0
 62
     2
100
AcDbText
 10
355.5832365120143
 20
68.56464473611584
 30
0.0
 40
23.99999999999999
  1
95
 50
300.0000000000326
 41
0.6877579092159556
  7
dcStyle0
 72
     5
 11
367.5832365120261
 21
47.78003504529616
 31
0.0
100
AcDbText
  0
ENDBLK
  5
C1
330
BF
100
AcDbEntity
  8
0
100
AcDbBlockEnd
  0
BLOCK
  5
C3
330
C2
100
AcDbEntity
  8
0
100
AcDbBlockBegin
  2
*D7
 70
     1
 10
0.0
 20
0.0
 30
0.0
  3
*D7
  1
*D7
  0
LINE
  5
11F
330
C2
100
AcDbEntity
  8
0
  6
Continuous
 62
     2
370
    13
100
AcDbLine
 10
110.9300272558985
 20
507.2492157591101
 30
0.0
 11
309.1998314063005
 21
507.2492157591101
 31
0.0
  0
LINE
  5
120
330
C2
100
AcDbEntity
  8
0
  6
Continuous
 62
     2
370
    13
100
AcDbLine
 10
110.9300272558985
 20
617.2492157591101
 30
0.0
 11
309.1998314063005
 21
617.2492157591101
 31
0.0
  0
LINE
  5
121
330
C2
100
AcDbEntity
  8
0
  6
Continuous
 62
     2
370
    13
100
AcDbLine
 10
303.1998314063005
 20
617.2492157591101
 30
0.0
 11
303.1998314063005
 21
507.2492157591101
 31
0.0
  0
LINE
  5
122
330
C2
100
AcDbEntity
  8
0
  6
Continuous
 62
     2
370
    13
100
AcDbLine
 10
303.1998314063005
 20
241.809144278857
 30
0.0
 11
303.1998314063005
 21
507.2492157591101
 31
0.0
  0
INSERT
  5
123
330
C2
100
AcDbEntity
  8
0
 62
     2
100
AcDbBlockReference
  2
_OPEN30
 10
303.1998314063005
 20
507.2492157591101
 30
0.0
 41
18.00138320357654
 42
18.00097896302553
 50
90.0
  0
LINE
  5
124
330
C2
100
AcDbEntity
  8
0
  6
Continuous
 62
     2
370
    13
100
AcDbLine
 10
303.1998314063005
 20
647.2492157591101
 30
0.0
 11
303.1998314063005
 21
617.2492157591101
 31
0.0
  0
INSERT
  5
125
330
C2
100
AcDbEntity
  8
0
 62
     2
100
AcDbBlockReference
  2
_OPEN30
 10
303.1998314063005
 20
617.2492157591101
 30
0.0
 41
18.00138320357654
 42
18.00097896302553
 50
270.0
  0
TEXT
  5
126
330
C2
100
AcDbEntity
  8
0
 62
     2
100
AcDbText
 10
298.9998314063005
 20
247.8091442788571
 30
0.0
 40
23.99999999999999
  1
呼び幅(110)
 50
90.0
 41
0.746066196418882
  7
dcStyle0
 72
     5
 11
298.9998314063005
 21
379.809144278857
 31
0.0
100
AcDbText
  0
ENDBLK
  5
C4
330
C2
100
AcDbEntity
  8
0
100
AcDbBlockEnd
  0
BLOCK
  5
C6
330
C5
100
AcDbEntity
  8
0
100
AcDbBlockBegin
  2
*D8
 70
     1
 10
0.0
 20
0.0
 30
0.0
  3
*D8
  1
*D8
  0
LINE
  5
127
330
C5
100
AcDbEntity
  8
0
  6
Continuous
 62
     2
370
    13
100
AcDbLine
 10
57.12875706667391
 20
25.44215711881158
 30
0.0
 11
-11.49457844981833
 21
144.3012608182963
 31
0.0
  0
LINE
  5
128
330
C5
100
AcDbEntity
  8
0
  6
Continuous
 62
     2
370
    13
100
AcDbLine
 10
-289.281404447056
 20
-174.5578428812453
 30
0.0
 11
-357.9047399636383
 21
-55.69873918160452
 31
0.0
  0
LINE
  5
129
330
C5
100
AcDbEntity
  8
0
  6
Continuous
 62
     2
370
    13
100
AcDbLine
 10
-8.49457844981972
 20
139.1051083955888
 30
0.0
 11
-354.9047399636397
 21
-60.89489160431197
 31
0.0
  0
INSERT
  5
12A
330
C5
100
AcDbEntity
  8
0
 62
     2
100
AcDbBlockReference
  2
_OPEN30
 10
-8.49457844981972
 20
139.1051083955888
 30
0.0
 41
18.00138320357654
 42
18.00097896302553
 50
29.9999999999845
  0
INSERT
  5
12B
330
C5
100
AcDbEntity
  8
0
 62
     2
100
AcDbBlockReference
  2
_OPEN30
 10
-354.9047399636397
 20
-60.89489160431197
 30
0.0
 41
18.00138320357654
 42
18.00097896302553
 50
209.9999999999845
  0
TEXT
  5
12C
330
C5
100
AcDbEntity
  8
0
 62
     2
100
AcDbText
 10
-247.696974834006
 20
5.851282713653703
 30
0.0
 40
23.99999999999999
  1
呼び機長(400)
 50
29.99999999998448
 41
0.7364604577385
  7
dcStyle0
 72
     5
 11
-112.5970118436125
 21
83.85128271361711
 31
0.0
100
AcDbText
  0
ENDBLK
  5
C7
330
C5
100
AcDbEntity
  8
0
100
AcDbBlockEnd
  0
BLOCK
  5
C9
330
C8
100
AcDbEntity
  8
0
100
AcDbBlockBegin
  2
*D9
 70
     1
 10
0.0
 20
0.0
 30
0.0
  3
*D9
  1
*D9
  0
LINE
  5
12D
330
C8
100
AcDbEntity
  8
0
  6
Continuous
 62
     2
370
    13
100
AcDbLine
 10
-351.0699727440942
 20
503.2492157591101
 30
0.0
 11
-408.5167454979903
 21
503.2492157591101
 31
0.0
  0
LINE
  5
12E
330
C8
100
AcDbEntity
  8
0
  6
Continuous
 62
     2
370
    13
100
AcDbLine
 10
-351.0699727440942
 20
621.249215759117
 30
0.0
 11
-408.5167454979903
 21
621.249215759117
 31
0.0
  0
LINE
  5
12F
330
C8
100
AcDbEntity
  8
0
  6
Continuous
 62
     2
370
    13
100
AcDbLine
 10
-402.5167454979903
 20
503.2492157591101
 30
0.0
 11
-402.5167454979903
 21
621.249215759117
 31
0.0
  0
INSERT
  5
130
330
C8
100
AcDbEntity
  8
0
 62
     2
100
AcDbBlockReference
  2
_OPEN30
 10
-402.5167454979903
 20
503.2492157591101
 30
0.0
 41
18.00138320357654
 42
18.00097896302553
 50
270.0
  0
INSERT
  5
131
330
C8
100
AcDbEntity
  8
0
 62
     2
100
AcDbBlockReference
  2
_OPEN30
 10
-402.5167454979903
 20
621.249215759117
 30
0.0
 41
18.00138320357654
 42
18.00097896302553
 50
90.0
  0
TEXT
  5
132
330
C8
100
AcDbEntity
  8
0
 62
     2
100
AcDbText
 10
-408.5167454979903
 20
502.8749999999999
 30
0.0
 40
23.99999999999999
  1
内径φ118
 50
90.0
 41
0.687757909215956
  7
dcStyle0
 72
     5
 11
-408.5167454979903
 21
610.8749999999999
 31
0.0
100
AcDbText
  0
ENDBLK
  5
CA
330
C8
100
AcDbEntity
  8
0
100
AcDbBlockEnd
  0
BLOCK
  5
CC
330
CB
100
AcDbEntity
  8
0
100
AcDbBlockBegin
  2
*D10
 70
     1
 10
0.0
 20
0.0
 30
0.0
  3
*D10
  1
*D10
  0
LINE
  5
133
330
CB
100
AcDbEntity
  8
0
  6
Continuous
 62
     2
370
    13
100
AcDbLine
 10
100.4300272559001
 20
50.44215711882582
 30
0.0
 11
-4.846707683955302
 21
232.7868108897513
 31
0.0
  0
LINE
  5
134
330
CB
100
AcDbEntity
  8
0
  6
Continuous
 62
     2
370
    13
100
AcDbLine
 10
-330.1916132792396
 20
-123.6991782374322
 30
0.0
 11
-403.2183482191334
 21
2.786836989422426
 31
0.0
  0
LINE
  5
135
330
CB
100
AcDbEntity
  8
0
  6
Continuous
 62
     2
370
    13
100
AcDbLine
 10
-1.846707683956926
 20
227.5906584670437
 30
0.0
 11
-400.2183482191351
 21
-2.409315433285158
 31
0.0
  0
INSERT
  5
136
330
CB
100
AcDbEntity
  8
0
 62
     2
100
AcDbBlockReference
  2
_OPEN30
 10
-1.846707683956926
 20
227.5906584670437
 30
0.0
 41
18.00138320357654
 42
18.00097896302553
 50
29.99999999998175
  0
INSERT
  5
137
330
CB
100
AcDbEntity
  8
0
 62
     2
100
AcDbBlockReference
  2
_OPEN30
 10
-400.2183482191351
 20
-2.409315433285158
 30
0.0
 41
18.00138320357654
 42
18.00097896302553
 50
209.9999999999818
  0
TEXT
  5
138
330
CB
100
AcDbEntity
  8
0
 62
     2
100
AcDbText
 10
-255.4381726335516
 20
86.0293001755033
 30
0.0
 40
23.99999999999999
  1
実機長(460)
 50
29.99999999998173
 41
0.7403419033517293
  7
dcStyle0
 72
     5
 11
-141.1228193339847
 21
152.0293001754668
 31
0.0
100
AcDbText
  0
ENDBLK
  5
CD
330
CB
100
AcDbEntity
  8
0
100
AcDbBlockEnd
  0
BLOCK
  5
CF
330
CE
100
AcDbEntity
  8
0
100
AcDbBlockBegin
  2
*D11
 70
     1
 10
0.0
 20
0.0
 30
0.0
  3
*D11
  1
*D11
  0
LINE
  5
139
330
CE
100
AcDbEntity
  8
0
  6
Continuous
 62
     2
370
    13
100
AcDbLine
 10
-351.0699727440942
 20
497.2492157591101
 30
0.0
 11
-470.7509261361781
 21
497.2492157591101
 31
0.0
  0
LINE
  5
13A
330
CE
100
AcDbEntity
  8
0
  6
Continuous
 62
     2
370
    13
100
AcDbLine
 10
-351.0699727440942
 20
627.2492157591699
 30
0.0
 11
-470.7509261361781
 21
627.2492157591699
 31
0.0
  0
LINE
  5
13B
330
CE
100
AcDbEntity
  8
0
  6
Continuous
 62
     2
370
    13
100
AcDbLine
 10
-464.7509261361781
 20
497.2492157591101
 30
0.0
 11
-464.7509261361781
 21
627.2492157591699
 31
0.0
  0
INSERT
  5
13C
330
CE
100
AcDbEntity
  8
0
 62
     2
100
AcDbBlockReference
  2
_OPEN30
 10
-464.7509261361781
 20
497.2492157591101
 30
0.0
 41
18.00138320357654
 42
18.00097896302553
 50
270.0
  0
INSERT
  5
13D
330
CE
100
AcDbEntity
  8
0
 62
     2
100
AcDbBlockReference
  2
_OPEN30
 10
-464.7509261361781
 20
627.2492157591699
 30
0.0
 41
18.00138320357654
 42
18.00097896302553
 50
90.0
  0
TEXT
  5
13E
330
CE
100
AcDbEntity
  8
0
 62
     2
100
AcDbText
 10
-470.7509261361781
 20
503.6892157591068
 30
0.0
 40
23.99999999999999
  1
外径φ130
 50
90.0
 41
0.6877579092159557
  7
dcStyle0
 72
     5
 11
-470.7509261361781
 21
611.6892157591068
 31
0.0
100
AcDbText
  0
ENDBLK
  5
D0
330
CE
100
AcDbEntity
  8
0
100
AcDbBlockEnd
  0
BLOCK
  5
D2
330
D1
100
AcDbEntity
  8
0
100
AcDbBlockBegin
  2
DC_GROUP_W_MTS_S_100_1_4
 70
     0
 10
0.0
 20
0.0
 30
0.0
  3
DC_GROUP_W_MTS_S_100_1_4
  1
DC_GROUP_W_MTS_S_100_1_4
  0
TEXT
  5
13F
330
D1
100
AcDbEntity
  8
0
 62
     2
100
AcDbText
 10
131.1466240614388
 20
165.4915725857137
 30
0.0
 40
23.99999999999999
  1
30°±15°
 50
324.6591445864371
 41
0.6877579092159559
  7
dcStyle0
 72
     5
 11
229.0336642151951
 21
96.07884054081507
 31
0.0
100
AcDbText
  0
LINE
  5
140
330
D1
100
AcDbEntity
  8
0
  6
Continuous
 62
     2
370
    13
100
AcDbLine
 10
215.8791193168149
 20
45.24600469611823
 30
0.0
 11
215.8701131411187
 21
45.14641107785212
 31
0.0
  0
INSERT
  5
141
330
D1
100
AcDbEntity
  8
0
 62
     2
100
AcDbBlockReference
  2
_OPEN30
 10
215.8791193168149
 20
45.24600469611823
 30
0.0
 41
18.00138320357654
 42
18.00097896302553
 50
84.83284006770498
  0
LINE
  5
142
330
D1
100
AcDbEntity
  8
0
  6
Continuous
 62
     2
370
    13
100
AcDbLine
 10
201.6176451904307
 20
98.4705507265943
 30
0.0
 11
201.5600488043538
 21
98.55229824221942
 31
0.0
  0
INSERT
  5
143
330
D1
100
AcDbEntity
  8
0
 62
     2
100
AcDbBlockReference
  2
_OPEN30
 10
201.6176451904307
 20
98.4705507265943
 30
0.0
 41
18.00138320357654
 42
18.00097896302553
 50
305.1671599323414
  0
ARC
  5
144
330
D1
100
AcDbEntity
  8
0
  6
Continuous
 62
     2
370
    13
100
AcDbCircle
 10
109.4300272558955
 20
45.24600469611823
 30
0.0
 40
106.4490920609194
100
AcDbArc
 50
344.4985202031369
 51
79.76261708338754
  0
LINE
  5
145
330
D1
100
AcDbEntity
  8
0
  6
Continuous
 62
     2
370
    13
100
AcDbLine
 10
134.6423850736076
 20
59.80236626908538
 30
0.0
 11
201.6176451904307
 21
98.4705507265943
 31
0.0
  0
LINE
  5
146
330
D1
100
AcDbEntity
  8
0
  6
Continuous
 62
     2
370
    13
100
AcDbLine
 10
149.4261733151125
 20
45.24600469611823
 30
0.0
 11
215.8791193168149
 21
45.24600469611823
 31
0.0
  0
LINE
  5
147
330
D1
100
AcDbEntity
  8
0
  6
Continuous
 62
     2
370
    13
100
AcDbLine
 10
201.6176451904307
 20
98.4705507265943
 30
0.0
 11
206.813797613137
 21
101.4705507265952
 31
0.0
  0
LINE
  5
148
330
D1
100
AcDbEntity
  8
0
  6
Continuous
 62
     2
370
    13
100
AcDbLine
 10
215.8791193168149
 20
45.24600469611823
 30
0.0
 11
221.8791193168149
 21
45.24600469611823
 31
0.0
  0
ENDBLK
  5
D3
330
D1
100
AcDbEntity
  8
0
100
AcDbBlockEnd
  0
BLOCK
  5
D5
330
D4
100
AcDbEntity
  8
0
100
AcDbBlockBegin
  2
DC_GROUP_W_MTS_S_100_1_5
 70
     0
 10
0.0
 20
0.0
 30
0.0
  3
DC_GROUP_W_MTS_S_100_1_5
  1
DC_GROUP_W_MTS_S_100_1_5
  0
LINE
  5
149
330
D4
100
AcDbEntity
  8
ZUWAKU
  6
Continuous
 62
     7
370
    13
100
AcDbLine
 10
-1182.0
 20
-797.2315400371326
 30
0.0
 11
1182.0
 21
-797.2315400371326
 31
0.0
  0
LINE
  5
14A
330
D4
100
AcDbEntity
  8
ZUWAKU
  6
Continuous
 62
     7
370
    13
100
AcDbLine
 10
1181.999999999997
 20
810.7684599628669
 30
0.0
 11
-1182.0
 21
810.7684599628669
 31
0.0
  0
LINE
  5
14B
330
D4
100
AcDbEntity
  8
ZUWAKU
  6
Continuous
 62
     7
370
    13
100
AcDbLine
 10
1182.0
 20
-797.2315400371326
 30
0.0
 11
1181.999999999997
 21
810.7684599628669
 31
0.0
  0
LINE
  5
14C
330
D4
100
AcDbEntity
  8
ZUWAKU
  6
Continuous
 62
     7
370
    13
100
AcDbLine
 10
-1182.0
 20
810.7684599628669
 30
0.0
 11
-1182.0
 21
-797.2315400371326
 31
0.0
  0
LINE
  5
14D
330
D4
100
AcDbEntity
  8
ZUWAKU
  6
Continuous
 62
     4
370
    13
100
AcDbLine
 10
-206.9999999999998
 20
-707.2315400371327
 30
0.0
 11
30.00000000000016
 21
-707.2315400371327
 31
0.0
  0
LINE
  5
14E
330
D4
100
AcDbEntity
  8
ZUWAKU
  6
Continuous
 62
     4
370
    13
100
AcDbLine
 10
-1110.0
 20
-677.2315400371327
 30
0.0
 11
-1110.0
 21
-797.2315400371326
 31
0.0
  0
LINE
  5
14F
330
D4
100
AcDbEntity
  8
ZUWAKU
  6
Continuous
 62
     4
370
    13
100
AcDbLine
 10
-1182.0
 20
-737.2315400371327
 30
0.0
 11
1182.0
 21
-737.2315400371327
 31
0.0
  0
LINE
  5
150
330
D4
100
AcDbEntity
  8
ZUWAKU
  6
Continuous
 62
     4
370
    13
100
AcDbLine
 10
30.00000000000016
 20
-797.2315400371326
 30
0.0
 11
30.00000000000016
 21
-677.2315400371327
 31
0.0
  0
LINE
  5
151
330
D4
100
AcDbEntity
  8
ZUWAKU
  6
Continuous
 62
     4
370
    13
100
AcDbLine
 10
-206.9999999999998
 20
-797.2315400371326
 30
0.0
 11
-206.9999999999998
 21
-677.2315400371327
 31
0.0
  0
LINE
  5
152
330
D4
100
AcDbEntity
  8
ZUWAKU
  6
Continuous
 62
     4
370
    13
100
AcDbLine
 10
515.9999999999999
 20
-677.2315400371327
 30
0.0
 11
515.9999999999999
 21
-797.2315400371326
 31
0.0
  0
LINE
  5
153
330
D4
100
AcDbEntity
  8
ZUWAKU
  6
Continuous
 62
     4
370
    13
100
AcDbLine
 10
180.0000000000001
 20
-677.2315400371327
 30
0.0
 11
180.0000000000001
 21
-797.2315400371326
 31
0.0
  0
LINE
  5
154
330
D4
100
AcDbEntity
  8
ZUWAKU
  6
Continuous
 62
     4
370
    13
100
AcDbLine
 10
-158.9999999999998
 20
-737.2315400371327
 30
0.0
 11
-158.9999999999998
 21
-797.2315400371326
 31
0.0
  0
LINE
  5
155
330
D4
100
AcDbEntity
  8
ZUWAKU
  6
Continuous
 62
     4
370
    13
100
AcDbLine
 10
-785.9999999999998
 20
-677.2315400371327
 30
0.0
 11
-785.9999999999998
 21
-797.2315400371326
 31
0.0
  0
LINE
  5
156
330
D4
100
AcDbEntity
  8
ZUWAKU
  6
Continuous
 62
     4
370
    13
100
AcDbLine
 10
1182.0
 20
-677.2315400371327
 30
0.0
 11
-1182.0
 21
-677.2315400371327
 31
0.0
  0
LINE
  5
157
330
D4
100
AcDbEntity
  8
ZUWAKU
  6
Continuous
 62
     4
370
    13
100
AcDbLine
 10
587.9999999999998
 20
-677.2315400371327
 30
0.0
 11
587.9999999999998
 21
-797.2315400371326
 31
0.0
  0
LINE
  5
158
330
D4
100
AcDbEntity
  8
ZUWAKU
  6
Continuous
 62
     3
370
    13
100
AcDbLine
 10
-1125.0
 20
-722.2315400371327
 30
0.0
 11
-1146.0
 21
-683.2315400371327
 31
0.0
  0
LINE
  5
159
330
D4
100
AcDbEntity
  8
ZUWAKU
  6
Continuous
 62
     3
370
    13
100
AcDbLine
 10
-1167.0
 20
-722.2315400371327
 30
0.0
 11
-1125.0
 21
-722.2315400371327
 31
0.0
  0
LINE
  5
15A
330
D4
100
AcDbEntity
  8
ZUWAKU
  6
Continuous
 62
     3
370
    13
100
AcDbLine
 10
-1146.0
 20
-683.2315400371327
 30
0.0
 11
-1167.0
 21
-722.2315400371327
 31
0.0
  0
TEXT
  5
15C
330
D4
100
AcDbEntity
  8
ZUWAKU
 62
     2
100
AcDbText
 10
526.8
 20
-791.2315400371326
 30
0.0
 40
20.99999999999998
  1
番号
 41
1.527272727272724
  7
dcStyle1
 72
     5
 11
577.1999999999998
 21
-791.2315400371326
 31
0.0
100
AcDbText
  0
TEXT
  5
15D
330
D4
100
AcDbEntity
  8
ZUWAKU
 62
     2
100
AcDbText
 10
-195.5999999999998
 20
-791.2315400371326
 30
0.0
 40
20.99999999999998
  1
度
 41
1.680000000000001
  7
dcStyle1
 72
     5
 11
-170.3999999999998
 21
-791.2315400371326
 31
0.0
100
AcDbText
  0
TEXT
  5
15E
330
D4
100
AcDbEntity
  8
ZUWAKU
 62
     2
100
AcDbText
 10
-1168.931531818969
 20
-791.2315400371326
 30
0.0
 40
20.99999999999999
  1
番号
 41
1.272727272727273
  7
dcStyle1
 72
     5
 11
-1126.931531818969
 21
-791.2315400371326
 31
0.0
100
AcDbText
  0
TEXT
  5
15F
330
D4
100
AcDbEntity
  8
ZUWAKU
 62
     2
100
AcDbText
 10
51.00000000000016
 20
-719.2315400371327
 30
0.0
 40
23.99999999999999
  1
シリーズ名
 41
1.086206896551724
  7
dcStyle1
 72
     5
 11
159.0000000000001
 21
-719.2315400371327
 31
0.0
100
AcDbText
  0
TEXT
  5
160
330
D4
100
AcDbEntity
  8
ZUWAKU
 62
     2
100
AcDbText
 10
69.00000000000016
 20
-779.2315400371327
 30
0.0
 40
23.99999999999999
  1
機　種
 41
1.235294117647058
  7
dcStyle1
 72
     5
 11
141.0000000000001
 21
-779.2315400371327
 31
0.0
100
AcDbText
  0
TEXT
  5
161
330
D4
100
AcDbEntity
  8
ZUWAKU
 62
     2
100
AcDbText
 10
-1167.0
 20
-764.2315400371327
 30
0.0
 40
20.99999999999999
  1
改訂
 41
1.272727272727273
  7
dcStyle1
 72
     5
 11
-1125.0
 21
-764.2315400371327
 31
0.0
100
AcDbText
  0
TEXT
  5
162
330
D4
100
AcDbEntity
  8
ZUWAKU
 62
     2
100
AcDbText
 10
-1046.7
 20
-777.7315400371327
 30
0.0
 40
20.99999999999998
  1
改　 訂　 記　 事
 41
1.061290322580645
  7
dcStyle1
 72
     5
 11
-849.2999999999998
 21
-777.7315400371327
 31
0.0
100
AcDbText
  0
TEXT
  5
163
330
D4
100
AcDbEntity
  8
ZUWAKU
 62
     2
100
AcDbText
 10
-195.5999999999998
 20
-764.2315400371327
 30
0.0
 40
20.99999999999998
  1
尺
 41
1.680000000000001
  7
dcStyle1
 72
     5
 11
-170.3999999999998
 21
-764.2315400371327
 31
0.0
100
AcDbText
  0
TEXT
  5
164
330
D4
100
AcDbEntity
  8
ZUWAKU
 62
     2
100
AcDbText
 10
-161.9999999999997
 20
-702.7315400371327
 30
0.0
 40
20.99999999999998
  1
年　　月　　日
 41
1.195121951219512
  7
dcStyle1
 72
     5
 11
-14.99999999999986
 21
-702.7315400371327
 31
0.0
100
AcDbText
  0
TEXT
  5
165
330
D4
100
AcDbEntity
  8
ZUWAKU
 62
     2
100
AcDbText
 10
526.8
 20
-764.2315400371327
 30
0.0
 40
20.99999999999998
  1
図面
 41
1.527272727272724
  7
dcStyle1
 72
     5
 11
577.1999999999998
 21
-764.2315400371327
 31
0.0
100
AcDbText
  0
TEXT
  5
166
330
D4
100
AcDbEntity
  8
ZUWAKU
 62
     2
100
AcDbText
 10
527.9999999999999
 20
-719.2315400371327
 30
0.0
 40
23.99999999999999
  1
図名
 41
1.272727272727273
  7
dcStyle1
 72
     5
 11
575.9999999999999
 21
-719.2315400371327
 31
0.0
100
AcDbText
  0
TEXT
  5
167
330
D4
100
AcDbEntity
  8
ZUWAKU
 62
     7
100
AcDbText
 10
-616.4999999999997
 20
-722.2315400371327
 30
0.0
 40
29.99999999999999
  1
技術情報サービス
 41
1.191489361702128
  7
dcStyle1
 72
     5
 11
-376.4999999999997
 21
-722.2315400371327
 31
0.0
100
AcDbText
  0
TEXT
  5
168
330
D4
100
AcDbEntity
  8
ZUWAKU
 62
     7
100
AcDbText
 10
-704.0470588235289
 20
-779.2315400371327
 30
0.0
 40
23.99999999999999
  1
MARUYASU KIKAI CO.,LTD.
 41
0.8990281013395451
  7
dcStyle1
 72
     5
 11
-288.9529411764704
 21
-779.2315400371327
 31
0.0
100
AcDbText
  0
TEXT
  5
169
330
D4
100
AcDbEntity
  8
ZUWAKU
 62
     4
100
AcDbText
 10
1154.739326354214
 20
-810.7684599628669
 30
0.0
 40
12.0
  1
A3
 41
1.2
  7
dcStyle1
 72
     5
 11
1178.739326354214
 21
-810.7684599628669
 31
0.0
100
AcDbText
  0
ENDBLK
  5
D6
330
D4
100
AcDbEntity
  8
0
100
AcDbBlockEnd
  0
BLOCK
  5
D8
330
D7
100
AcDbEntity
  8
0
100
AcDbBlockBegin
  2
DC_GROUP_W_MTS_S_100_1_6
 70
     0
 10
0.0
 20
0.0
 30
0.0
  3
DC_GROUP_W_MTS_S_100_1_6
  1
DC_GROUP_W_MTS_S_100_1_6
  0
POINT
  5
16A
330
D7
100
AcDbEntity
  8
ZUWAKU
  6
Continuous
 62
     2
100
AcDbPoint
 10
348.0
 20
-707.2315400371327
 30
0.0
  0
POINT
  5
16B
330
D7
100
AcDbEntity
  8
ZUWAKU
  6
Continuous
 62
     2
100
AcDbPoint
 10
348.0
 20
-767.2315400371326
 30
0.0
  0
POINT
  5
16C
330
D7
100
AcDbEntity
  8
ZUWAKU
  6
Continuous
 62
     2
100
AcDbPoint
 10
1164.0
 20
-767.2315400371326
 30
0.0
  0
POINT
  5
16D
330
D7
100
AcDbEntity
  8
ZUWAKU
  6
Continuous
 62
     2
100
AcDbPoint
 10
884.9999999999998
 20
-707.2315400371327
 30
0.0
  0
POINT
  5
16E
330
D7
100
AcDbEntity
  8
ZUWAKU
  6
Continuous
 62
     2
100
AcDbPoint
 10
-64.49999999999982
 20
-767.2315400371326
 30
0.0
  0
ENDBLK
  5
D9
330
D7
100
AcDbEntity
  8
0
100
AcDbBlockEnd
  0
BLOCK
  5
DB
330
DA
100
AcDbEntity
  8
0
100
AcDbBlockBegin
  2
DC_GROUP_W_MTS_S_100_1_7
 70
     0
 10
0.0
 20
0.0
 30
0.0
  3
DC_GROUP_W_MTS_S_100_1_7
  1
DC_GROUP_W_MTS_S_100_1_7
  0
LINE
  5
16F
330
DA
100
AcDbEntity
  8
15
  6
DASHED2
 62
     4
370
    13
100
AcDbLine
 10
740.2374522698165
 20
-90.9830402588018
 30
0.0
 11
737.4684257602785
 21
-90.9830402588018
 31
0.0
  0
LINE
  5
170
330
DA
100
AcDbEntity
  8
15
  6
DASHED2
 62
     4
370
    13
100
AcDbLine
 10
740.2374522698165
 20
-92.4830402588018
 30
0.0
 11
738.9684257602785
 21
-92.4830402588018
 31
0.0
  0
LINE
  5
171
330
DA
100
AcDbEntity
  8
15
  6
DASHED2
 62
     4
370
    13
100
AcDbLine
 10
742.2184257602785
 20
-62.55207151523473
 30
0.0
 11
742.2184257602785
 21
-70.55207151523473
 31
0.0
  0
LINE
  5
172
330
DA
100
AcDbEntity
  8
15
  6
DASHED2
 62
     4
370
    13
100
AcDbLine
 10
746.6806035867685
 20
-62.55207151523473
 30
0.0
 11
746.6806035867685
 21
-69.79288213667951
 31
0.0
  0
LINE
  5
173
330
DA
100
AcDbEntity
  8
15
  6
DASHED2
 62
     4
370
    13
100
AcDbLine
 10
737.7562479337853
 20
-62.55207151523473
 30
0.0
 11
737.7562479337853
 21
-69.79288213667951
 31
0.0
  0
LINE
  5
174
330
DA
100
AcDbEntity
  8
15
  6
DASHED2
 62
     4
370
    13
100
AcDbLine
 10
752.7427814132593
 20
-62.55207151523473
 30
0.0
 11
752.7427814132593
 21
-69.79288213667951
 31
0.0
  0
LINE
  5
175
330
DA
100
AcDbEntity
  8
15
  6
DASHED2
 62
     4
370
    13
100
AcDbLine
 10
731.6940701072954
 20
-62.55207151523473
 30
0.0
 11
752.7427814132593
 21
-62.55207151523473
 31
0.0
  0
LINE
  5
176
330
DA
100
AcDbEntity
  8
15
  6
DASHED2
 62
     4
370
    13
100
AcDbLine
 10
731.6940701072954
 20
-69.79288213667951
 30
0.0
 11
731.6940701072954
 21
-62.55207151523473
 31
0.0
  0
LINE
  5
177
330
DA
100
AcDbEntity
  8
15
  6
DASHED2
 62
     4
370
    13
100
AcDbLine
 10
752.1278268370343
 20
-62.55207151523473
 30
0.0
 11
732.3090246835204
 21
-62.55207151523473
 31
0.0
  0
LINE
  5
178
330
DA
100
AcDbEntity
  8
15
  6
DASHED2
 62
     4
370
    13
100
AcDbLine
 10
746.9684257602785
 20
-90.98304025880361
 30
0.0
 11
740.2374522698165
 21
-90.9830402588018
 31
0.0
  0
LINE
  5
179
330
DA
100
AcDbEntity
  8
15
  6
DASHED2
 62
     4
370
    13
100
AcDbLine
 10
738.9684257602785
 20
-92.4830402588018
 30
0.0
 11
737.4684257602785
 21
-90.9830402588018
 31
0.0
  0
LINE
  5
17A
330
DA
100
AcDbEntity
  8
15
  6
DASHED2
 62
     4
370
    13
100
AcDbLine
 10
745.4684257602794
 20
-92.4830402588018
 30
0.0
 11
740.2374522698165
 21
-92.4830402588018
 31
0.0
  0
LINE
  5
17B
330
DA
100
AcDbEntity
  8
15
  6
DASHED2
 62
     4
370
    13
100
AcDbLine
 10
746.9684257602785
 20
-90.98304025880361
 30
0.0
 11
745.4684257602794
 21
-92.4830402588018
 31
0.0
  0
LINE
  5
17C
330
DA
100
AcDbEntity
  8
15
  6
DASHED2
 62
     4
370
    13
100
AcDbLine
 10
731.6940701072954
 20
-77.9669249135211
 30
0.0
 11
731.6940701072954
 21
-76.85207151523446
 31
0.0
  0
LINE
  5
17D
330
DA
100
AcDbEntity
  8
15
  6
DASHED2
 62
     4
370
    13
100
AcDbLine
 10
731.6940701072954
 20
-70.72611429207632
 30
0.0
 11
752.7427814132593
 21
-70.72611429207632
 31
0.0
  0
LINE
  5
17E
330
DA
100
AcDbEntity
  8
15
  6
DASHED2
 62
     4
370
    13
100
AcDbLine
 10
752.7427814132593
 20
-70.72611429207632
 30
0.0
 11
752.7427814132593
 21
-76.85207151523491
 31
0.0
  0
LINE
  5
17F
330
DA
100
AcDbEntity
  8
15
  6
DASHED2
 62
     4
370
    13
100
AcDbLine
 10
737.7562479337853
 20
-70.72611429207632
 30
0.0
 11
737.7562479337853
 21
-76.85207151523468
 31
0.0
  0
LINE
  5
180
330
DA
100
AcDbEntity
  8
15
  6
DASHED2
 62
     4
370
    13
100
AcDbLine
 10
746.6806035867685
 20
-70.72611429207632
 30
0.0
 11
746.6806035867685
 21
-76.85207151523491
 31
0.0
  0
LINE
  5
181
330
DA
100
AcDbEntity
  8
15
  6
DASHED2
 62
     4
370
    13
100
AcDbLine
 10
742.2184257602785
 20
-70.72611429207632
 30
0.0
 11
742.2184257602785
 21
-78.72611429207632
 31
0.0
  0
LINE
  5
182
330
DA
100
AcDbEntity
  8
15
  6
DASHED2
 62
     4
370
    13
100
AcDbLine
 10
752.7427814132593
 20
-76.85207151523491
 30
0.0
 11
752.7427814132593
 21
-77.9669249135211
 31
0.0
  0
LINE
  5
183
330
DA
100
AcDbEntity
  8
15
  6
DASHED2
 62
     4
370
    13
100
AcDbLine
 10
746.6806035867685
 20
-76.85207151523491
 30
0.0
 11
746.6806035867685
 21
-77.9669249135211
 31
0.0
  0
LINE
  5
184
330
DA
100
AcDbEntity
  8
15
  6
DASHED2
 62
     4
370
    13
100
AcDbLine
 10
737.7562479337853
 20
-76.85207151523468
 30
0.0
 11
737.7562479337853
 21
-77.9669249135211
 31
0.0
  0
LINE
  5
185
330
DA
100
AcDbEntity
  8
15
  6
DASHED2
 62
     4
370
    13
100
AcDbLine
 10
731.6940701072954
 20
-76.85207151523446
 30
0.0
 11
731.6940701072954
 21
-70.72611429207632
 31
0.0
  0
ARC
  5
186
330
DA
100
AcDbEntity
  8
15
  6
DASHED2
 62
     4
370
    13
100
AcDbCircle
 10
734.7251590205424
 20
-65.36347653849953
 30
0.0
 40
5.367227771689691
100
AcDbArc
 50
235.6157525319469
 51
304.3842474680171
  0
ARC
  5
187
330
DA
100
AcDbEntity
  8
15
  6
DASHED2
 62
     4
370
    13
100
AcDbCircle
 10
742.2184257602785
 20
-55.71604734510538
 30
0.0
 40
14.76713610367695
100
AcDbArc
 50
252.412046225997
 51
287.5879537739913
  0
ARC
  5
188
330
DA
100
AcDbEntity
  8
15
  6
DASHED2
 62
     4
370
    13
100
AcDbCircle
 10
749.7116925000132
 20
-65.36347653849862
 30
0.0
 40
5.367227771689157
100
AcDbArc
 50
235.6157525319724
 51
304.3842474680396
  0
ARC
  5
189
330
DA
100
AcDbEntity
  8
15
  6
DASHED2
 62
     4
370
    13
100
AcDbCircle
 10
749.7116925000132
 20
-73.5375193153402
 30
0.0
 40
5.367227771689157
100
AcDbArc
 50
235.6157525319724
 51
304.3842474680396
  0
ARC
  5
18A
330
DA
100
AcDbEntity
  8
15
  6
DASHED2
 62
     4
370
    13
100
AcDbCircle
 10
742.2184257602785
 20
-63.89009012194697
 30
0.0
 40
14.76713610367695
100
AcDbArc
 50
252.412046225997
 51
287.5879537739913
  0
ARC
  5
18B
330
DA
100
AcDbEntity
  8
15
  6
DASHED2
 62
     4
370
    13
100
AcDbCircle
 10
734.7251590205424
 20
-73.53751931534111
 30
0.0
 40
5.367227771689691
100
AcDbArc
 50
235.6157525319469
 51
304.3842474680171
  0
LINE
  5
18C
330
DA
100
AcDbEntity
  8
15
  6
DASHED2
 62
     4
370
    13
100
AcDbLine
 10
746.1564257602772
 20
-78.9047470870297
 30
0.0
 11
746.1564257602772
 21
-91.79504025880169
 31
0.0
  0
LINE
  5
18D
330
DA
100
AcDbEntity
  8
15
  6
DASHED2
 62
     4
370
    13
100
AcDbLine
 10
746.9684257602778
 20
-78.90474708702965
 30
0.0
 11
746.9684257602785
 21
-90.98304025880361
 31
0.0
  0
LINE
  5
18E
330
DA
100
AcDbEntity
  8
15
  6
DASHED2
 62
     4
370
    13
100
AcDbLine
 10
738.2804257602775
 20
-91.79504025880169
 30
0.0
 11
738.2804257602775
 21
-78.90474708703044
 31
0.0
  0
LINE
  5
18F
330
DA
100
AcDbEntity
  8
15
  6
DASHED2
 62
     4
370
    13
100
AcDbLine
 10
737.4684257602785
 20
-90.9830402588018
 30
0.0
 11
737.4684257602785
 21
-78.9047470870305
 31
0.0
  0
LINE
  5
190
330
DA
100
AcDbEntity
  8
15
  6
Continuous
 62
     7
370
    13
100
AcDbLine
 10
737.4684257602785
 20
-4.452071515244825
 30
0.0
 11
746.9684257602762
 21
-4.452071515244825
 31
0.0
  0
LINE
  5
191
330
DA
100
AcDbEntity
  8
15
  6
Continuous
 62
     7
370
    13
100
AcDbLine
 10
746.9684257602762
 20
-16.85207151524583
 30
0.0
 11
737.4684257602785
 21
-16.85207151524583
 31
0.0
  0
LINE
  5
192
330
DA
100
AcDbEntity
  8
15
  6
Continuous
 62
     7
370
    13
100
AcDbLine
 10
746.9684257602762
 20
-4.452071515244825
 30
0.0
 11
746.9684257602753
 21
-30.20207151524392
 31
0.0
  0
LINE
  5
193
330
DA
100
AcDbEntity
  8
15
  6
Continuous
 62
     7
370
    13
100
AcDbLine
 10
737.4684257602785
 20
-30.20207151524482
 30
0.0
 11
737.4684257602785
 21
-4.452071515244825
 31
0.0
  0
LINE
  5
194
330
DA
100
AcDbEntity
  8
15
  6
CENTERX2
 62
     3
370
    13
100
AcDbLine
 10
742.2184257602785
 20
-92.48304025880361
 30
0.0
 11
742.2184257602785
 21
-4.452071515244825
 31
0.0
  0
LINE
  5
195
330
DA
100
AcDbEntity
  8
15
  6
Continuous
 62
     3
370
    13
100
AcDbLine
 10
738.2804257602775
 20
-16.85207151524583
 30
0.0
 11
737.4684257602785
 21
-15.44564625949852
 31
0.0
  0
LINE
  5
196
330
DA
100
AcDbEntity
  8
15
  6
Continuous
 62
     3
370
    13
100
AcDbLine
 10
746.1564257602772
 20
-16.85207151524583
 30
0.0
 11
746.1564257602772
 21
-30.20207151524392
 31
0.0
  0
LINE
  5
197
330
DA
100
AcDbEntity
  8
15
  6
Continuous
 62
     3
370
    13
100
AcDbLine
 10
746.9684257602762
 20
-15.44564625949852
 30
0.0
 11
746.1564257602772
 21
-16.85207151524583
 31
0.0
  0
LINE
  5
198
330
DA
100
AcDbEntity
  8
15
  6
Continuous
 62
     3
370
    13
100
AcDbLine
 10
738.2804257602775
 20
-30.20207151524437
 30
0.0
 11
738.2804257602775
 21
-16.85207151524583
 31
0.0
  0
INSERT
  5
199
330
DA
100
AcDbEntity
  8
15
  6
Continuous
100
AcDbBlockReference
  2
DC_GROUP_W_MTS_S_100_1_8
 10
0.0
 20
0.0
 30
0.0
  0
ENDBLK
  5
DC
330
DA
100
AcDbEntity
  8
0
100
AcDbBlockEnd
  0
BLOCK
  5
DE
330
DD
100
AcDbEntity
  8
0
100
AcDbBlockBegin
  2
DC_GROUP_W_MTS_S_100_1_8
 70
     0
 10
0.0
 20
0.0
 30
0.0
  3
DC_GROUP_W_MTS_S_100_1_8
  1
DC_GROUP_W_MTS_S_100_1_8
  0
LINE
  5
19A
330
DD
100
AcDbEntity
  8
15
  6
DASHED2
 62
     4
370
    13
100
AcDbLine
 10
733.0184257602784
 20
-62.55207151523473
 30
0.0
 11
733.0184257602784
 21
-60.05207151523473
 31
0.0
  0
LINE
  5
19B
330
DD
100
AcDbEntity
  8
15
  6
DASHED2
 62
     4
370
    13
100
AcDbLine
 10
751.4184257602785
 20
-60.05207151523473
 30
0.0
 11
751.4184257602785
 21
-62.55207151523473
 31
0.0
  0
LINE
  5
19C
330
DD
100
AcDbEntity
  8
15
  6
DASHED2
 62
     4
370
    13
100
AcDbLine
 10
733.0184257602784
 20
-62.55207151523473
 30
0.0
 11
751.4184257602785
 21
-62.55207151523473
 31
0.0
  0
LINE
  5
19D
330
DD
100
AcDbEntity
  8
15
  6
DASHED2
 62
     4
370
    13
100
AcDbLine
 10
742.2184257602785
 20
-62.55207151523473
 30
0.0
 11
741.5485527792007
 21
-60.05207151523473
 31
0.0
  0
LINE
  5
19E
330
DD
100
AcDbEntity
  8
15
  6
DASHED2
 62
     4
370
    13
100
AcDbLine
 10
742.8882987413563
 20
-62.55207151523473
 30
0.0
 11
742.2184257602785
 21
-60.05207151523473
 31
0.0
  0
LINE
  5
19F
330
DD
100
AcDbEntity
  8
15
  6
DASHED2
 62
     4
370
    13
100
AcDbLine
 10
731.7184257602785
 20
-58.05207151523473
 30
0.0
 11
752.7184257602785
 21
-58.05207151523473
 31
0.0
  0
LINE
  5
1A0
330
DD
100
AcDbEntity
  8
15
  6
DASHED2
 62
     4
370
    13
100
AcDbLine
 10
731.7184257602785
 20
-60.05207151523473
 30
0.0
 11
752.7184257602785
 21
-60.05207151523473
 31
0.0
  0
LINE
  5
1A1
330
DD
100
AcDbEntity
  8
15
  6
DASHED2
 62
     4
370
    13
100
AcDbLine
 10
752.7184257602785
 20
-59.85207151523514
 30
0.0
 11
752.7184257602785
 21
-60.05207151523473
 31
0.0
  0
LINE
  5
1A2
330
DD
100
AcDbEntity
  8
15
  6
DASHED2
 62
     4
370
    13
100
AcDbLine
 10
752.7184257602785
 20
-58.05207151523473
 30
0.0
 11
752.7184257602785
 21
-59.85207151523514
 31
0.0
  0
LINE
  5
1A3
330
DD
100
AcDbEntity
  8
15
  6
DASHED2
 62
     4
370
    13
100
AcDbLine
 10
731.7184257602785
 20
-59.85207151523468
 30
0.0
 11
731.7184257602785
 21
-58.05207151523473
 31
0.0
  0
LINE
  5
1A4
330
DD
100
AcDbEntity
  8
15
  6
DASHED2
 62
     4
370
    13
100
AcDbLine
 10
731.7184257602785
 20
-60.05207151523473
 30
0.0
 11
731.7184257602785
 21
-59.85207151523468
 31
0.0
  0
LINE
  5
1A5
330
DD
100
AcDbEntity
  8
15
  6
CENTERX2
 62
     3
370
    13
100
AcDbLine
 10
742.2184257602785
 20
-53.85207151523468
 30
0.0
 11
742.2184257602785
 21
-74.75207151523477
 31
0.0
  0
ENDBLK
  5
DF
330
DD
100
AcDbEntity
  8
0
100
AcDbBlockEnd
  0
BLOCK
  5
E1
330
E0
100
AcDbEntity
  8
0
100
AcDbBlockBegin
  2
DC_GROUP_W_MTS_S_100_1_9
 70
     0
 10
0.0
 20
0.0
 30
0.0
  3
DC_GROUP_W_MTS_S_100_1_9
  1
DC_GROUP_W_MTS_S_100_1_9
  0
LINE
  5
1A6
330
E0
100
AcDbEntity
  8
15
  6
Continuous
 62
     7
370
    13
100
AcDbLine
 10
731.2184257602785
 20
-38.05207151523473
 30
0.0
 11
753.2184257602785
 21
-38.05207151523473
 31
0.0
  0
LINE
  5
1A7
330
E0
100
AcDbEntity
  8
15
  6
Continuous
 62
     7
370
    13
100
AcDbLine
 10
731.2184257602785
 20
-38.05207151523473
 30
0.0
 11
731.218425760283
 21
-54.85207151523582
 31
0.0
  0
LINE
  5
1A8
330
E0
100
AcDbEntity
  8
15
  6
Continuous
 62
     7
370
    13
100
AcDbLine
 10
753.2184257602794
 20
-54.85207151523582
 30
0.0
 11
753.2184257602839
 21
-38.05207151523473
 31
0.0
  0
LINE
  5
1A9
330
E0
100
AcDbEntity
  8
15
  6
DASHED2
 62
     4
370
    13
100
AcDbLine
 10
731.2184257602839
 20
-58.05207151523473
 30
0.0
 11
753.2184257602785
 21
-58.05207151523473
 31
0.0
  0
LINE
  5
1AA
330
E0
100
AcDbEntity
  8
15
  6
DASHED2
 62
     4
370
    13
100
AcDbLine
 10
731.218425760283
 20
-54.85207151523582
 30
0.0
 11
731.2184257602839
 21
-58.05207151523473
 31
0.0
  0
LINE
  5
1AB
330
E0
100
AcDbEntity
  8
15
  6
DASHED2
 62
     4
370
    13
100
AcDbLine
 10
753.2184257602785
 20
-58.05207151523473
 30
0.0
 11
753.2184257602794
 21
-54.85207151523582
 31
0.0
  0
ENDBLK
  5
E2
330
E0
100
AcDbEntity
  8
0
100
AcDbBlockEnd
  0
BLOCK
  5
E4
330
E3
100
AcDbEntity
  8
0
100
AcDbBlockBegin
  2
DC_GROUP_W_MTS_S_100_1_10
 70
     0
 10
0.0
 20
0.0
 30
0.0
  3
DC_GROUP_W_MTS_S_100_1_10
  1
DC_GROUP_W_MTS_S_100_1_10
  0
LINE
  5
1AC
330
E3
100
AcDbEntity
  8
15
  6
Continuous
 62
     7
370
    13
100
AcDbLine
 10
-167.7190655347862
 20
-269.0698501846861
 30
0.0
 11
-170.1171128357987
 21
-270.4543634394551
 31
0.0
  0
LINE
  5
1AD
330
E3
100
AcDbEntity
  8
15
  6
Continuous
 62
     7
370
    13
100
AcDbLine
 10
-166.9690655347862
 20
-270.3688882903627
 30
0.0
 11
-168.0680747301221
 21
-271.0034015451317
 31
0.0
  0
LINE
  5
1AE
330
E3
100
AcDbEntity
  8
15
  6
Continuous
 62
     7
370
    13
100
AcDbLine
 10
-176.3546171856621
 20
-241.2263333400796
 30
0.0
 11
-172.7342118749397
 21
-247.497059282243
 31
0.0
  0
LINE
  5
1AF
330
E3
100
AcDbEntity
  8
15
  6
Continuous
 62
     7
370
    13
100
AcDbLine
 10
-184.0833358935528
 20
-245.6885111665712
 30
0.0
 11
-180.4629305828304
 21
-251.9592371087346
 31
0.0
  0
LINE
  5
1B0
330
E3
100
AcDbEntity
  8
15
  6
Continuous
 62
     7
370
    13
100
AcDbLine
 10
-171.1046171856623
 20
-238.1952444268342
 30
0.0
 11
-167.4842118749399
 21
-244.4659703689976
 31
0.0
  0
LINE
  5
1B1
330
E3
100
AcDbEntity
  8
15
  6
Continuous
 62
     7
370
    13
100
AcDbLine
 10
-189.3333358935519
 20
-248.7196000798162
 30
0.0
 11
-171.1046171856623
 21
-238.1952444268342
 31
0.0
  0
LINE
  5
1B2
330
E3
100
AcDbEntity
  8
15
  6
Continuous
 62
     7
370
    13
100
AcDbLine
 10
-185.7129305828295
 20
-254.9903260219796
 30
0.0
 11
-189.3333358935519
 21
-248.7196000798162
 31
0.0
  0
LINE
  5
1B3
330
E3
100
AcDbEntity
  8
15
  6
Continuous
 62
     7
370
    13
100
AcDbLine
 10
-171.6371834708468
 20
-238.5027217149467
 30
0.0
 11
-188.8007696083675
 21
-248.4121227917037
 31
0.0
  0
LINE
  5
1B4
330
E3
100
AcDbEntity
  8
15
  6
Continuous
 62
     7
370
    13
100
AcDbLine
 10
-161.8898714998456
 20
-265.7043634394565
 30
0.0
 11
-167.7190655347862
 21
-269.0698501846861
 31
0.0
  0
LINE
  5
1B5
330
E3
100
AcDbEntity
  8
15
  6
Continuous
 62
     7
370
    13
100
AcDbLine
 10
-168.0680747301221
 20
-271.0034015451317
 30
0.0
 11
-170.1171128357987
 21
-270.4543634394551
 31
0.0
  0
LINE
  5
1B6
330
E3
100
AcDbEntity
  8
15
  6
Continuous
 62
     7
370
    13
100
AcDbLine
 10
-162.4389096055224
 20
-267.7534015451312
 30
0.0
 11
-166.9690655347862
 21
-270.3688882903627
 31
0.0
  0
LINE
  5
1B7
330
E3
100
AcDbEntity
  8
15
  6
Continuous
 62
     7
370
    13
100
AcDbLine
 10
-161.8898714998456
 20
-265.7043634394565
 30
0.0
 11
-162.4389096055224
 21
-267.7534015451312
 31
0.0
  0
LINE
  5
1B8
330
E3
100
AcDbEntity
  8
15
  6
Continuous
 62
     7
370
    13
100
AcDbLine
 10
-167.5501620824261
 20
-245.5816504113122
 30
0.0
 11
-184.7137482199468
 21
-255.4910514880691
 31
0.0
  0
LINE
  5
1B9
330
E3
100
AcDbEntity
  8
15
  6
Continuous
 62
     7
370
    13
100
AcDbLine
 10
-181.6259091944088
 20
-262.069254718345
 30
0.0
 11
-182.1833358935521
 21
-261.1037633539333
 31
0.0
  0
LINE
  5
1BA
330
E3
100
AcDbEntity
  8
15
  6
Continuous
 62
     7
370
    13
100
AcDbLine
 10
-185.2463145051312
 20
-255.7985287761816
 30
0.0
 11
-167.0175957972417
 21
-245.2741731231997
 31
0.0
  0
LINE
  5
1BB
330
E3
100
AcDbEntity
  8
15
  6
Continuous
 62
     7
370
    13
100
AcDbLine
 10
-167.0175957972417
 20
-245.2741731231997
 30
0.0
 11
-163.9546171856622
 21
-250.5794077009518
 31
0.0
  0
LINE
  5
1BC
330
E3
100
AcDbEntity
  8
15
  6
Continuous
 62
     7
370
    13
100
AcDbLine
 10
-179.9963145051321
 20
-252.7674398629367
 30
0.0
 11
-176.9333358935527
 21
-258.0726744406886
 31
0.0
  0
LINE
  5
1BD
330
E3
100
AcDbEntity
  8
15
  6
Continuous
 62
     7
370
    13
100
AcDbLine
 10
-172.2675957972414
 20
-248.3052620364451
 30
0.0
 11
-169.204617185662
 21
-253.6104966141972
 31
0.0
  0
LINE
  5
1BE
330
E3
100
AcDbEntity
  8
15
  6
Continuous
 62
     7
370
    13
100
AcDbLine
 10
-163.9546171856622
 20
-250.5794077009518
 30
0.0
 11
-163.3971904865193
 21
-251.544899065363
 31
0.0
  0
LINE
  5
1BF
330
E3
100
AcDbEntity
  8
15
  6
Continuous
 62
     7
370
    13
100
AcDbLine
 10
-169.204617185662
 20
-253.6104966141972
 30
0.0
 11
-168.647190486519
 21
-254.5759879786085
 31
0.0
  0
LINE
  5
1C0
330
E3
100
AcDbEntity
  8
15
  6
Continuous
 62
     7
370
    13
100
AcDbLine
 10
-176.9333358935527
 20
-258.0726744406886
 30
0.0
 11
-176.3759091944098
 21
-259.0381658051
 31
0.0
  0
LINE
  5
1C1
330
E3
100
AcDbEntity
  8
15
  6
Continuous
 62
     7
370
    13
100
AcDbLine
 10
-182.1833358935521
 20
-261.1037633539333
 30
0.0
 11
-185.2463145051312
 21
-255.7985287761816
 31
0.0
  0
ARC
  5
1C2
330
E3
100
AcDbEntity
  8
15
  6
Continuous
 62
     7
370
    13
100
AcDbCircle
 10
-185.3026333819182
 20
-249.6388037936671
 30
0.0
 40
5.367227771689694
100
AcDbArc
 50
265.6157525319469
 51
334.3842474680171
  0
ARC
  5
1C3
330
E3
100
AcDbEntity
  8
15
  6
Continuous
 62
     7
370
    13
100
AcDbCircle
 10
-183.6369886246709
 20
-237.5372516611082
 30
0.0
 40
14.76713610367697
100
AcDbArc
 50
282.412046225997
 51
317.5879537739913
  0
ARC
  5
1C4
330
E3
100
AcDbEntity
  8
15
  6
Continuous
 62
     7
370
    13
100
AcDbCircle
 10
-172.3239146740308
 20
-242.1455370539308
 30
0.0
 40
5.36722777168916
100
AcDbArc
 50
265.6157525319724
 51
334.3842474680396
  0
ARC
  5
1C5
330
E3
100
AcDbEntity
  8
15
  6
Continuous
 62
     7
370
    13
100
AcDbCircle
 10
-168.2368932856102
 20
-249.2244657502962
 30
0.0
 40
5.36722777168916
100
AcDbArc
 50
265.6157525319724
 51
334.3842474680396
  0
ARC
  5
1C6
330
E3
100
AcDbEntity
  8
15
  6
Continuous
 62
     7
370
    13
100
AcDbCircle
 10
-179.5499672362502
 20
-244.6161803574736
 30
0.0
 40
14.76713610367697
100
AcDbArc
 50
282.412046225997
 51
317.5879537739913
  0
ARC
  5
1C7
330
E3
100
AcDbEntity
  8
15
  6
Continuous
 62
     7
370
    13
100
AcDbCircle
 10
-181.2156119934975
 20
-256.7177324900326
 30
0.0
 40
5.367227771689694
100
AcDbArc
 50
265.6157525319469
 51
334.3842474680171
  0
LINE
  5
1C8
330
E3
100
AcDbEntity
  8
15
  6
Continuous
 62
     7
370
    13
100
AcDbLine
 10
-165.5532771271803
 20
-253.8726252965793
 30
0.0
 11
-178.541736652105
 21
-261.348969566827
 31
0.0
  0
LINE
  5
1C9
330
E3
100
AcDbEntity
  8
15
  6
Continuous
 62
     7
370
    13
100
AcDbLine
 10
-161.8898714998456
 20
-265.7043634394565
 30
0.0
 11
-167.9308028885898
 21
-255.2411633491151
 31
0.0
  0
LINE
  5
1CA
330
E3
100
AcDbEntity
  8
15
  6
Continuous
 62
     7
370
    13
100
AcDbLine
 10
-162.1870841277207
 20
-266.8135760673285
 30
0.0
 11
-168.6345444877858
 21
-255.6462471439092
 31
0.0
  0
LINE
  5
1CB
330
E3
100
AcDbEntity
  8
15
  6
Continuous
 62
     7
370
    13
100
AcDbLine
 10
-169.0079002079266
 20
-270.7515760673286
 30
0.0
 11
-175.4604913292434
 21
-259.5753604047399
 31
0.0
  0
LINE
  5
1CC
330
E3
100
AcDbEntity
  8
15
  6
Continuous
 62
     7
370
    13
100
AcDbLine
 10
-170.1171128357987
 20
-270.4543634394551
 30
0.0
 11
-176.1642329284379
 21
-259.9804441995329
 31
0.0
  0
INSERT
  5
1CD
330
E3
100
AcDbEntity
  8
15
  6
Continuous
100
AcDbBlockReference
  2
DC_GROUP_W_MTS_S_100_1_11
 10
0.0
 20
0.0
 30
0.0
  0
ENDBLK
  5
E5
330
E3
100
AcDbEntity
  8
0
100
AcDbBlockEnd
  0
BLOCK
  5
E7
330
E6
100
AcDbEntity
  8
0
100
AcDbBlockBegin
  2
DC_GROUP_W_MTS_S_100_1_11
 70
     0
 10
0.0
 20
0.0
 30
0.0
  3
DC_GROUP_W_MTS_S_100_1_11
  1
DC_GROUP_W_MTS_S_100_1_11
  0
LINE
  5
1CE
330
E6
100
AcDbEntity
  8
15
  6
Continuous
 62
     7
370
    13
100
AcDbLine
 10
-188.1864102544229
 20
-248.0574222533245
 30
0.0
 11
-189.4364102544229
 21
-245.8923587438634
 31
0.0
  0
LINE
  5
1CF
330
E6
100
AcDbEntity
  8
15
  6
Continuous
 62
     7
370
    13
100
AcDbLine
 10
-173.5015428247893
 20
-236.6923587438634
 30
0.0
 11
-172.2515428247893
 21
-238.8574222533245
 31
0.0
  0
LINE
  5
1D0
330
E6
100
AcDbEntity
  8
15
  6
Continuous
 62
     7
370
    13
100
AcDbLine
 10
-188.1864102544229
 20
-248.0574222533245
 30
0.0
 11
-172.2515428247893
 21
-238.8574222533245
 31
0.0
  0
LINE
  5
1D1
330
E6
100
AcDbEntity
  8
15
  6
Continuous
 62
     7
370
    13
100
AcDbLine
 10
-180.2189765396062
 20
-243.4574222533246
 30
0.0
 11
-182.0491035585284
 21
-241.6272952344024
 31
0.0
  0
LINE
  5
1D2
330
E6
100
AcDbEntity
  8
15
  6
Continuous
 62
     7
370
    13
100
AcDbLine
 10
-179.638849520684
 20
-243.1224857627857
 30
0.0
 11
-181.4689765396062
 21
-241.2923587438635
 31
0.0
  0
LINE
  5
1D3
330
E6
100
AcDbEntity
  8
15
  6
Continuous
 62
     7
370
    13
100
AcDbLine
 10
-190.5622432793427
 20
-246.5423587438635
 30
0.0
 11
-191.5622432793427
 21
-244.8103079362947
 31
0.0
  0
LINE
  5
1D4
330
E6
100
AcDbEntity
  8
15
  6
Continuous
 62
     7
370
    13
100
AcDbLine
 10
-191.5622432793427
 20
-244.8103079362947
 30
0.0
 11
-173.3757097998695
 21
-234.3103079362947
 31
0.0
  0
LINE
  5
1D5
330
E6
100
AcDbEntity
  8
15
  6
Continuous
 62
     7
370
    13
100
AcDbLine
 10
-173.3757097998695
 20
-234.3103079362947
 30
0.0
 11
-172.3757097998695
 21
-236.0423587438635
 31
0.0
  0
LINE
  5
1D6
330
E6
100
AcDbEntity
  8
15
  6
Continuous
 62
     7
370
    13
100
AcDbLine
 10
-190.5622432793427
 20
-246.5423587438635
 30
0.0
 11
-172.3757097998695
 21
-236.0423587438635
 31
0.0
  0
ENDBLK
  5
E8
330
E6
100
AcDbEntity
  8
0
100
AcDbBlockEnd
  0
BLOCK
  5
EA
330
E9
100
AcDbEntity
  8
0
100
AcDbBlockBegin
  2
DC_GROUP_W_MTS_S_100_1_12
 70
     0
 10
0.0
 20
0.0
 30
0.0
  3
DC_GROUP_W_MTS_S_100_1_12
  1
DC_GROUP_W_MTS_S_100_1_12
  0
LINE
  5
1D7
330
E9
100
AcDbEntity
  8
15
  6
Continuous
 62
     7
370
    13
100
AcDbLine
 10
-201.9952559812353
 20
-227.739799860606
 30
0.0
 11
-191.9952559812305
 21
-245.060307936292
 31
0.0
  0
LINE
  5
1D8
330
E9
100
AcDbEntity
  8
15
  6
Continuous
 62
     7
370
    13
100
AcDbLine
 10
-172.9426970979774
 20
-234.0603079362946
 30
0.0
 11
-182.9426970979731
 21
-216.7397998606031
 31
0.0
  0
LINE
  5
1D9
330
E9
100
AcDbEntity
  8
15
  6
Continuous
 62
     7
370
    13
100
AcDbLine
 10
-201.9952559812353
 20
-227.739799860606
 30
0.0
 11
-182.9426970979776
 21
-216.7397998606058
 31
0.0
  0
LINE
  5
1DA
330
E9
100
AcDbEntity
  8
15
  6
Continuous
 62
     7
370
    13
100
AcDbLine
 10
-191.9952559812305
 20
-245.060307936292
 30
0.0
 11
-172.9426970979737
 21
-234.0603079363009
 31
0.0
  0
ENDBLK
  5
EB
330
E9
100
AcDbEntity
  8
0
100
AcDbBlockEnd
  0
BLOCK
  5
ED
330
EC
100
AcDbEntity
  8
0
100
AcDbBlockBegin
  2
DC_GROUP_W_MTS_S_100_1_13
 70
     0
 10
0.0
 20
0.0
 30
0.0
  3
DC_GROUP_W_MTS_S_100_1_13
  1
DC_GROUP_W_MTS_S_100_1_13
  0
LINE
  5
1DB
330
EC
100
AcDbEntity
  8
15
  6
DASHED2
 62
     4
370
    13
100
AcDbLine
 10
563.1993992507505
 20
-90.9830402588018
 30
0.0
 11
565.9684257602885
 21
-90.9830402588018
 31
0.0
  0
LINE
  5
1DC
330
EC
100
AcDbEntity
  8
15
  6
DASHED2
 62
     4
370
    13
100
AcDbLine
 10
563.1993992507505
 20
-92.4830402588018
 30
0.0
 11
564.4684257602885
 21
-92.4830402588018
 31
0.0
  0
LINE
  5
1DD
330
EC
100
AcDbEntity
  8
15
  6
DASHED2
 62
     4
370
    13
100
AcDbLine
 10
561.2184257602885
 20
-62.55207151523473
 30
0.0
 11
561.2184257602885
 21
-70.55207151523473
 31
0.0
  0
LINE
  5
1DE
330
EC
100
AcDbEntity
  8
15
  6
DASHED2
 62
     4
370
    13
100
AcDbLine
 10
556.7562479337985
 20
-62.55207151523473
 30
0.0
 11
556.7562479337985
 21
-69.79288213667951
 31
0.0
  0
LINE
  5
1DF
330
EC
100
AcDbEntity
  8
15
  6
DASHED2
 62
     4
370
    13
100
AcDbLine
 10
565.6806035867817
 20
-62.55207151523473
 30
0.0
 11
565.6806035867817
 21
-69.79288213667951
 31
0.0
  0
LINE
  5
1E0
330
EC
100
AcDbEntity
  8
15
  6
DASHED2
 62
     4
370
    13
100
AcDbLine
 10
550.6940701073077
 20
-62.55207151523473
 30
0.0
 11
550.6940701073077
 21
-69.79288213667951
 31
0.0
  0
LINE
  5
1E1
330
EC
100
AcDbEntity
  8
15
  6
DASHED2
 62
     4
370
    13
100
AcDbLine
 10
571.7427814132716
 20
-62.55207151523473
 30
0.0
 11
550.6940701073077
 21
-62.55207151523473
 31
0.0
  0
LINE
  5
1E2
330
EC
100
AcDbEntity
  8
15
  6
DASHED2
 62
     4
370
    13
100
AcDbLine
 10
571.7427814132716
 20
-69.79288213667951
 30
0.0
 11
571.7427814132716
 21
-62.55207151523473
 31
0.0
  0
LINE
  5
1E3
330
EC
100
AcDbEntity
  8
15
  6
DASHED2
 62
     4
370
    13
100
AcDbLine
 10
551.3090246835327
 20
-62.55207151523473
 30
0.0
 11
571.1278268370465
 21
-62.55207151523473
 31
0.0
  0
LINE
  5
1E4
330
EC
100
AcDbEntity
  8
15
  6
DASHED2
 62
     4
370
    13
100
AcDbLine
 10
556.4684257602885
 20
-90.98304025880361
 30
0.0
 11
563.1993992507505
 21
-90.9830402588018
 31
0.0
  0
LINE
  5
1E5
330
EC
100
AcDbEntity
  8
15
  6
DASHED2
 62
     4
370
    13
100
AcDbLine
 10
564.4684257602885
 20
-92.4830402588018
 30
0.0
 11
565.9684257602885
 21
-90.9830402588018
 31
0.0
  0
LINE
  5
1E6
330
EC
100
AcDbEntity
  8
15
  6
DASHED2
 62
     4
370
    13
100
AcDbLine
 10
557.9684257602876
 20
-92.4830402588018
 30
0.0
 11
563.1993992507505
 21
-92.4830402588018
 31
0.0
  0
LINE
  5
1E7
330
EC
100
AcDbEntity
  8
15
  6
DASHED2
 62
     4
370
    13
100
AcDbLine
 10
556.4684257602885
 20
-90.98304025880361
 30
0.0
 11
557.9684257602876
 21
-92.4830402588018
 31
0.0
  0
LINE
  5
1E8
330
EC
100
AcDbEntity
  8
15
  6
DASHED2
 62
     4
370
    13
100
AcDbLine
 10
571.7427814132716
 20
-77.9669249135211
 30
0.0
 11
571.7427814132716
 21
-76.85207151523446
 31
0.0
  0
LINE
  5
1E9
330
EC
100
AcDbEntity
  8
15
  6
DASHED2
 62
     4
370
    13
100
AcDbLine
 10
571.7427814132716
 20
-70.72611429207632
 30
0.0
 11
550.6940701073077
 21
-70.72611429207632
 31
0.0
  0
LINE
  5
1EA
330
EC
100
AcDbEntity
  8
15
  6
DASHED2
 62
     4
370
    13
100
AcDbLine
 10
550.6940701073077
 20
-70.72611429207632
 30
0.0
 11
550.6940701073077
 21
-76.85207151523491
 31
0.0
  0
LINE
  5
1EB
330
EC
100
AcDbEntity
  8
15
  6
DASHED2
 62
     4
370
    13
100
AcDbLine
 10
565.6806035867817
 20
-70.72611429207632
 30
0.0
 11
565.6806035867817
 21
-76.85207151523468
 31
0.0
  0
LINE
  5
1EC
330
EC
100
AcDbEntity
  8
15
  6
DASHED2
 62
     4
370
    13
100
AcDbLine
 10
556.7562479337985
 20
-70.72611429207632
 30
0.0
 11
556.7562479337985
 21
-76.85207151523491
 31
0.0
  0
LINE
  5
1ED
330
EC
100
AcDbEntity
  8
15
  6
DASHED2
 62
     4
370
    13
100
AcDbLine
 10
561.2184257602885
 20
-70.72611429207632
 30
0.0
 11
561.2184257602885
 21
-78.72611429207632
 31
0.0
  0
LINE
  5
1EE
330
EC
100
AcDbEntity
  8
15
  6
DASHED2
 62
     4
370
    13
100
AcDbLine
 10
550.6940701073077
 20
-76.85207151523491
 30
0.0
 11
550.6940701073077
 21
-77.9669249135211
 31
0.0
  0
LINE
  5
1EF
330
EC
100
AcDbEntity
  8
15
  6
DASHED2
 62
     4
370
    13
100
AcDbLine
 10
556.7562479337985
 20
-76.85207151523491
 30
0.0
 11
556.7562479337985
 21
-77.9669249135211
 31
0.0
  0
LINE
  5
1F0
330
EC
100
AcDbEntity
  8
15
  6
DASHED2
 62
     4
370
    13
100
AcDbLine
 10
565.6806035867817
 20
-76.85207151523468
 30
0.0
 11
565.6806035867817
 21
-77.9669249135211
 31
0.0
  0
LINE
  5
1F1
330
EC
100
AcDbEntity
  8
15
  6
DASHED2
 62
     4
370
    13
100
AcDbLine
 10
571.7427814132716
 20
-76.85207151523446
 30
0.0
 11
571.7427814132716
 21
-70.72611429207632
 31
0.0
  0
ARC
  5
1F2
330
EC
100
AcDbEntity
  8
15
  6
DASHED2
 62
     4
370
    13
100
AcDbCircle
 10
568.7116925000246
 20
-65.36347653849953
 30
0.0
 40
5.367227771689691
100
AcDbArc
 50
235.6157525319829
 51
304.3842474680531
  0
ARC
  5
1F3
330
EC
100
AcDbEntity
  8
15
  6
DASHED2
 62
     4
370
    13
100
AcDbCircle
 10
561.2184257602885
 20
-55.71604734510538
 30
0.0
 40
14.76713610367695
100
AcDbArc
 50
252.4120462260087
 51
287.587953774003
  0
ARC
  5
1F4
330
EC
100
AcDbEntity
  8
15
  6
DASHED2
 62
     4
370
    13
100
AcDbCircle
 10
553.7251590205537
 20
-65.36347653849862
 30
0.0
 40
5.367227771689157
100
AcDbArc
 50
235.6157525319604
 51
304.3842474680276
  0
ARC
  5
1F5
330
EC
100
AcDbEntity
  8
15
  6
DASHED2
 62
     4
370
    13
100
AcDbCircle
 10
553.7251590205537
 20
-73.5375193153402
 30
0.0
 40
5.367227771689157
100
AcDbArc
 50
235.6157525319604
 51
304.3842474680276
  0
ARC
  5
1F6
330
EC
100
AcDbEntity
  8
15
  6
DASHED2
 62
     4
370
    13
100
AcDbCircle
 10
561.2184257602885
 20
-63.89009012194697
 30
0.0
 40
14.76713610367695
100
AcDbArc
 50
252.4120462260087
 51
287.587953774003
  0
ARC
  5
1F7
330
EC
100
AcDbEntity
  8
15
  6
DASHED2
 62
     4
370
    13
100
AcDbCircle
 10
568.7116925000246
 20
-73.53751931534111
 30
0.0
 40
5.367227771689691
100
AcDbArc
 50
235.6157525319829
 51
304.3842474680531
  0
LINE
  5
1F8
330
EC
100
AcDbEntity
  8
15
  6
DASHED2
 62
     4
370
    13
100
AcDbLine
 10
557.2804257602897
 20
-78.9047470870297
 30
0.0
 11
557.2804257602897
 21
-91.79504025880169
 31
0.0
  0
LINE
  5
1F9
330
EC
100
AcDbEntity
  8
15
  6
DASHED2
 62
     4
370
    13
100
AcDbLine
 10
556.4684257602892
 20
-78.90474708702965
 30
0.0
 11
556.4684257602885
 21
-90.98304025880361
 31
0.0
  0
LINE
  5
1FA
330
EC
100
AcDbEntity
  8
15
  6
DASHED2
 62
     4
370
    13
100
AcDbLine
 10
565.1564257602895
 20
-91.79504025880169
 30
0.0
 11
565.1564257602895
 21
-78.90474708703044
 31
0.0
  0
LINE
  5
1FB
330
EC
100
AcDbEntity
  8
15
  6
DASHED2
 62
     4
370
    13
100
AcDbLine
 10
565.9684257602885
 20
-90.9830402588018
 30
0.0
 11
565.9684257602885
 21
-78.9047470870305
 31
0.0
  0
LINE
  5
1FC
330
EC
100
AcDbEntity
  8
15
  6
Continuous
 62
     7
370
    13
100
AcDbLine
 10
565.9684257602885
 20
-4.452071515244825
 30
0.0
 11
556.4684257602908
 21
-4.452071515244825
 31
0.0
  0
LINE
  5
1FD
330
EC
100
AcDbEntity
  8
15
  6
Continuous
 62
     7
370
    13
100
AcDbLine
 10
556.4684257602908
 20
-16.85207151524583
 30
0.0
 11
565.9684257602885
 21
-16.85207151524583
 31
0.0
  0
LINE
  5
1FE
330
EC
100
AcDbEntity
  8
15
  6
Continuous
 62
     7
370
    13
100
AcDbLine
 10
556.4684257602908
 20
-4.452071515244825
 30
0.0
 11
556.4684257602917
 21
-30.20207151524392
 31
0.0
  0
LINE
  5
1FF
330
EC
100
AcDbEntity
  8
15
  6
Continuous
 62
     7
370
    13
100
AcDbLine
 10
565.9684257602885
 20
-30.20207151524482
 30
0.0
 11
565.9684257602885
 21
-4.452071515244825
 31
0.0
  0
LINE
  5
200
330
EC
100
AcDbEntity
  8
15
  6
CENTERX2
 62
     3
370
    13
100
AcDbLine
 10
561.2184257602885
 20
-92.48304025880361
 30
0.0
 11
561.2184257602885
 21
-4.452071515244825
 31
0.0
  0
LINE
  5
201
330
EC
100
AcDbEntity
  8
15
  6
Continuous
 62
     3
370
    13
100
AcDbLine
 10
565.1564257602895
 20
-16.85207151524583
 30
0.0
 11
565.9684257602885
 21
-15.44564625949852
 31
0.0
  0
LINE
  5
202
330
EC
100
AcDbEntity
  8
15
  6
Continuous
 62
     3
370
    13
100
AcDbLine
 10
557.2804257602897
 20
-16.85207151524583
 30
0.0
 11
557.2804257602897
 21
-30.20207151524392
 31
0.0
  0
LINE
  5
203
330
EC
100
AcDbEntity
  8
15
  6
Continuous
 62
     3
370
    13
100
AcDbLine
 10
556.4684257602908
 20
-15.44564625949852
 30
0.0
 11
557.2804257602897
 21
-16.85207151524583
 31
0.0
  0
LINE
  5
204
330
EC
100
AcDbEntity
  8
15
  6
Continuous
 62
     3
370
    13
100
AcDbLine
 10
565.1564257602895
 20
-30.20207151524437
 30
0.0
 11
565.1564257602895
 21
-16.85207151524583
 31
0.0
  0
INSERT
  5
205
330
EC
100
AcDbEntity
  8
15
  6
Continuous
100
AcDbBlockReference
  2
DC_GROUP_W_MTS_S_100_1_14
 10
0.0
 20
0.0
 30
0.0
  0
ENDBLK
  5
EE
330
EC
100
AcDbEntity
  8
0
100
AcDbBlockEnd
  0
BLOCK
  5
F0
330
EF
100
AcDbEntity
  8
0
100
AcDbBlockBegin
  2
DC_GROUP_W_MTS_S_100_1_14
 70
     0
 10
0.0
 20
0.0
 30
0.0
  3
DC_GROUP_W_MTS_S_100_1_14
  1
DC_GROUP_W_MTS_S_100_1_14
  0
LINE
  5
206
330
EF
100
AcDbEntity
  8
15
  6
DASHED2
 62
     4
370
    13
100
AcDbLine
 10
570.4184257602885
 20
-62.55207151523473
 30
0.0
 11
570.4184257602885
 21
-60.05207151523473
 31
0.0
  0
LINE
  5
207
330
EF
100
AcDbEntity
  8
15
  6
DASHED2
 62
     4
370
    13
100
AcDbLine
 10
552.0184257602884
 20
-60.05207151523473
 30
0.0
 11
552.0184257602884
 21
-62.55207151523473
 31
0.0
  0
LINE
  5
208
330
EF
100
AcDbEntity
  8
15
  6
DASHED2
 62
     4
370
    13
100
AcDbLine
 10
570.4184257602885
 20
-62.55207151523473
 30
0.0
 11
552.0184257602884
 21
-62.55207151523473
 31
0.0
  0
LINE
  5
209
330
EF
100
AcDbEntity
  8
15
  6
DASHED2
 62
     4
370
    13
100
AcDbLine
 10
561.2184257602885
 20
-62.55207151523473
 30
0.0
 11
561.8882987413663
 21
-60.05207151523473
 31
0.0
  0
LINE
  5
20A
330
EF
100
AcDbEntity
  8
15
  6
DASHED2
 62
     4
370
    13
100
AcDbLine
 10
560.5485527792107
 20
-62.55207151523473
 30
0.0
 11
561.2184257602885
 21
-60.05207151523473
 31
0.0
  0
LINE
  5
20B
330
EF
100
AcDbEntity
  8
15
  6
DASHED2
 62
     4
370
    13
100
AcDbLine
 10
571.7184257602885
 20
-58.05207151523473
 30
0.0
 11
550.7184257602885
 21
-58.05207151523473
 31
0.0
  0
LINE
  5
20C
330
EF
100
AcDbEntity
  8
15
  6
DASHED2
 62
     4
370
    13
100
AcDbLine
 10
571.7184257602885
 20
-60.05207151523473
 30
0.0
 11
550.7184257602885
 21
-60.05207151523473
 31
0.0
  0
LINE
  5
20D
330
EF
100
AcDbEntity
  8
15
  6
DASHED2
 62
     4
370
    13
100
AcDbLine
 10
550.7184257602885
 20
-59.85207151523514
 30
0.0
 11
550.7184257602885
 21
-60.05207151523473
 31
0.0
  0
LINE
  5
20E
330
EF
100
AcDbEntity
  8
15
  6
DASHED2
 62
     4
370
    13
100
AcDbLine
 10
550.7184257602885
 20
-58.05207151523473
 30
0.0
 11
550.7184257602885
 21
-59.85207151523514
 31
0.0
  0
LINE
  5
20F
330
EF
100
AcDbEntity
  8
15
  6
DASHED2
 62
     4
370
    13
100
AcDbLine
 10
571.7184257602885
 20
-59.85207151523468
 30
0.0
 11
571.7184257602885
 21
-58.05207151523473
 31
0.0
  0
LINE
  5
210
330
EF
100
AcDbEntity
  8
15
  6
DASHED2
 62
     4
370
    13
100
AcDbLine
 10
571.7184257602885
 20
-60.05207151523473
 30
0.0
 11
571.7184257602885
 21
-59.85207151523468
 31
0.0
  0
LINE
  5
211
330
EF
100
AcDbEntity
  8
15
  6
CENTERX2
 62
     3
370
    13
100
AcDbLine
 10
561.2184257602885
 20
-53.85207151523468
 30
0.0
 11
561.2184257602885
 21
-74.75207151523477
 31
0.0
  0
ENDBLK
  5
F1
330
EF
100
AcDbEntity
  8
0
100
AcDbBlockEnd
  0
BLOCK
  5
F3
330
F2
100
AcDbEntity
  8
0
100
AcDbBlockBegin
  2
DC_GROUP_W_MTS_S_100_1_15
 70
     0
 10
0.0
 20
0.0
 30
0.0
  3
DC_GROUP_W_MTS_S_100_1_15
  1
DC_GROUP_W_MTS_S_100_1_15
  0
LINE
  5
212
330
F2
100
AcDbEntity
  8
15
  6
Continuous
 62
     7
370
    13
100
AcDbLine
 10
572.2184257602885
 20
-38.05207151523473
 30
0.0
 11
550.2184257602885
 21
-38.05207151523473
 31
0.0
  0
LINE
  5
213
330
F2
100
AcDbEntity
  8
15
  6
Continuous
 62
     7
370
    13
100
AcDbLine
 10
572.2184257602885
 20
-38.05207151523473
 30
0.0
 11
572.2184257602839
 21
-54.85207151523582
 31
0.0
  0
LINE
  5
214
330
F2
100
AcDbEntity
  8
15
  6
Continuous
 62
     7
370
    13
100
AcDbLine
 10
550.2184257602876
 20
-54.85207151523582
 30
0.0
 11
550.218425760283
 21
-38.05207151523473
 31
0.0
  0
LINE
  5
215
330
F2
100
AcDbEntity
  8
15
  6
DASHED2
 62
     4
370
    13
100
AcDbLine
 10
572.218425760283
 20
-58.05207151523473
 30
0.0
 11
550.2184257602885
 21
-58.05207151523473
 31
0.0
  0
LINE
  5
216
330
F2
100
AcDbEntity
  8
15
  6
DASHED2
 62
     4
370
    13
100
AcDbLine
 10
572.2184257602839
 20
-54.85207151523582
 30
0.0
 11
572.218425760283
 21
-58.05207151523473
 31
0.0
  0
LINE
  5
217
330
F2
100
AcDbEntity
  8
15
  6
DASHED2
 62
     4
370
    13
100
AcDbLine
 10
550.2184257602885
 20
-58.05207151523473
 30
0.0
 11
550.2184257602876
 21
-54.85207151523582
 31
0.0
  0
ENDBLK
  5
F4
330
F2
100
AcDbEntity
  8
0
100
AcDbBlockEnd
  0
BLOCK
  5
F6
330
F5
100
AcDbEntity
  8
0
100
AcDbBlockBegin
  2
DC_GROUP_W_MTS_S_100_1_16
 70
     0
 10
0.0
 20
0.0
 30
0.0
  3
DC_GROUP_W_MTS_S_100_1_16
  1
DC_GROUP_W_MTS_S_100_1_16
  0
TEXT
  5
218
330
F5
100
AcDbEntity
  8
0
 62
     2
100
AcDbText
 10
-1152.79980972902
 20
-720.1798692804654
 30
0.0
 40
23.99999999999999
  1
1
 41
0.9545454545454548
  7
dcStyle1
 72
     5
 11
-1140.79980972902
 21
-720.1798692804654
 31
0.0
100
AcDbText
  0
ENDBLK
  5
F7
330
F5
100
AcDbEntity
  8
0
100
AcDbBlockEnd
  0
BLOCK
  5
F9
330
F8
100
AcDbEntity
  8
0
100
AcDbBlockBegin
  2
DC_GROUP_W_MTS_S_100_1_17
 70
     0
 10
0.0
 20
0.0
 30
0.0
  3
DC_GROUP_W_MTS_S_100_1_17
  1
DC_GROUP_W_MTS_S_100_1_17
  0
TEXT
  5
219
330
F8
100
AcDbEntity
  8
0
 62
     2
100
AcDbText
 10
-1089.72632999929
 20
-717.8038135372221
 30
0.0
 40
23.99999999999999
  1
カラー追加
 41
1.206896551724138
  7
dcStyle1
 72
     5
 11
-969.7263299992901
 21
-717.8038135372221
 31
0.0
100
AcDbText
  0
ENDBLK
  5
FA
330
F8
100
AcDbEntity
  8
0
100
AcDbBlockEnd
  0
BLOCK
  5
109
330
108
100
AcDbEntity
  8
0
100
AcDbBlockBegin
  2
_OPEN30
 70
     0
 10
0.0
 20
0.0
 30
0.0
  3
_OPEN30
  1
_OPEN30
  0
LINE
  5
10B
330
108
100
AcDbEntity
  8
0
  6
ByBlock
 62
     0
370
    -2
100
AcDbLine
 10
-1.0
 20
0.267949
 30
0.0
 11
0.0
 21
0.0
 31
0.0
  0
LINE
  5
10C
330
108
100
AcDbEntity
  8
0
  6
ByBlock
 62
     0
370
    -2
100
AcDbLine
 10
0.0
 20
0.0
 30
0.0
 11
-1.0
 21
-0.267949
 31
0.0
  0
LINE
  5
10D
330
108
100
AcDbEntity
  8
0
  6
ByBlock
 62
     0
370
    -2
100
AcDbLine
 10
0.0
 20
0.0
 30
0.0
 11
-1.0
 21
0.0
 31
0.0
  0
ENDBLK
  5
10A
330
108
100
AcDbEntity
  8
0
100
AcDbBlockEnd
  0
ENDSEC
  0
SECTION
  2
ENTITIES
  0
LINE
  5
21A
330
1F
100
AcDbEntity
  8
0
  6
Continuous
 62
     2
370
    13
100
AcDbLine
 10
-785.8395036277152
 20
-353.6829365277886
 30
0.0
 11
-685.839503627715
 21
-353.6829365277886
 31
0.0
  0
LINE
  5
21B
330
1F
100
AcDbEntity
  8
0
  6
Continuous
 62
     2
370
    13
100
AcDbLine
 10
592.9660294222515
 20
-192.4371610076478
 30
0.0
 11
703.9660294222515
 21
-192.4371610076478
 31
0.0
  0
LINE
  5
21C
330
1F
100
AcDbEntity
  8
0
  6
Continuous
 62
     2
370
    13
100
AcDbLine
 10
-268.0660420313342
 20
-334.9340289938124
 30
0.0
 11
-283.9104240617802
 21
-307.4907543024976
 31
0.0
  0
LINE
  5
21D
330
1F
100
AcDbEntity
  8
0
  6
Continuous
 62
     2
370
    13
100
AcDbLine
 10
-434.9010278239322
 20
-45.96735712045859
 30
0.0
 11
-450.7454098543805
 21
-18.52408242914464
 31
0.0
  0
LINE
  5
21E
330
1F
100
AcDbEntity
  8
0
  6
Continuous
 62
     2
370
    13
100
AcDbLine
 10
9.551762670118478
 20
248.7948573052009
 30
0.0
 11
25.3961447005895
 21
221.351582613899
 31
0.0
  0
LINE
  5
21F
330
1F
100
AcDbEntity
  8
0
  6
Continuous
 62
     2
370
    13
100
AcDbLine
 10
203.2563057228144
 20
-109.6581815390637
 30
0.0
 11
219.1006877532805
 21
-137.1014562303649
 31
0.0
  0
LINE
  5
220
330
1F
100
AcDbEntity
  8
0
  6
Continuous
 62
     2
370
    13
100
AcDbLine
 10
-14.33771771503848
 20
249.225722478733
 30
0.0
 11
12.44454630135851
 21
264.6884698181101
 31
0.0
  0
LINE
  5
221
330
1F
100
AcDbEntity
  8
0
  6
Continuous
 62
     2
370
    13
100
AcDbLine
 10
-411.8433780521115
 20
19.72572247875564
 30
0.0
 11
-443.8302155320204
 21
1.258113249200278
 31
0.0
  0
LINE
  5
222
330
1F
100
AcDbEntity
  8
0
  6
Continuous
 62
     2
370
    13
100
AcDbLine
 10
-177.6240350170616
 20
403.7885505009721
 30
0.0
 11
-85.62403501706149
 21
403.7885505009721
 31
0.0
  0
LINE
  5
223
330
1F
100
AcDbEntity
  8
0
  6
Continuous
 62
     2
370
    13
100
AcDbLine
 10
-471.3469227996085
 20
-57.92549312610356
 30
0.0
 11
-438.8344767864352
 21
-39.15442366841228
 31
0.0
  0
INSERT
  5
224
330
1F
100
AcDbEntity
  8
0
 62
     2
100
AcDbBlockReference
  2
_OPEN30
 10
-438.8344767864352
 20
-39.15442366841228
 30
0.0
 41
18.00138320357654
 42
18.00097896302553
 50
29.99999999996366
  0
LINE
  5
225
330
1F
100
AcDbEntity
  8
0
  6
Continuous
 62
     2
370
    13
100
AcDbLine
 10
53.97514175124252
 20
246.935585523651
 30
0.0
 11
21.46269573807854
 21
228.1645160659431
 31
0.0
  0
INSERT
  5
226
330
1F
100
AcDbEntity
  8
0
 62
     2
100
AcDbBlockReference
  2
_OPEN30
 10
21.46269573807854
 20
228.1645160659431
 30
0.0
 41
18.00138320357654
 42
18.00097896302553
 50
209.9999999999927
  0
LINE
  5
227
330
1F
100
AcDbEntity
  8
0
  6
Continuous
 62
     2
370
    13
100
AcDbLine
 10
247.6796848039355
 20
-111.5174533206155
 30
0.0
 11
215.1672387907745
 21
-130.2885227783217
 31
0.0
  0
INSERT
  5
228
330
1F
100
AcDbEntity
  8
0
 62
     2
100
AcDbBlockReference
  2
_OPEN30
 10
215.1672387907745
 20
-130.2885227783217
 30
0.0
 41
18.00138320357654
 42
18.00097896302553
 50
209.9999999999929
  0
LINE
  5
229
330
1F
100
AcDbEntity
  8
0
  6
Continuous
 62
     2
370
    13
100
AcDbLine
 10
-17.66538427159253
 20
285.572064464939
 30
0.0
 11
-1.095039885105507
 21
256.8713860886381
 31
0.0
  0
INSERT
  5
22A
330
1F
100
AcDbEntity
  8
0
 62
     2
100
AcDbBlockReference
  2
_OPEN30
 10
-1.095039885105507
 20
256.8713860886381
 30
0.0
 41
18.00138320357654
 42
18.00097896302553
 50
300.0000000000073
  0
LINE
  5
22B
330
1F
100
AcDbEntity
  8
0
  6
Continuous
 62
     2
370
    13
100
AcDbLine
 10
-444.0070781001133
 20
39.42357276630923
 30
0.0
 11
-427.4367337136274
 21
10.72289439000838
 31
0.0
  0
INSERT
  5
22C
330
1F
100
AcDbEntity
  8
0
 62
     2
100
AcDbBlockReference
  2
_OPEN30
 10
-427.4367337136274
 20
10.72289439000838
 30
0.0
 41
18.00138320357654
 42
18.00097896302553
 50
300.0000000000056
  0
LINE
  5
22D
330
1F
100
AcDbEntity
  8
0
  6
Continuous
 62
     2
370
    13
100
AcDbLine
 10
-304.5119370070071
 20
-346.8921649994555
 30
0.0
 11
-271.9994909938351
 21
-328.1210955417658
 31
0.0
  0
INSERT
  5
22E
330
1F
100
AcDbEntity
  8
0
 62
     2
100
AcDbBlockReference
  2
_OPEN30
 10
-271.9994909938351
 20
-328.1210955417658
 30
0.0
 41
18.00138320357654
 42
18.00097896302553
 50
29.99999999996266
  0
LINE
  5
22F
330
1F
100
AcDbEntity
  8
0
  6
Continuous
 62
     4
370
    13
100
AcDbLine
 10
-147.6463154231585
 20
-20.37964769525468
 30
0.0
 11
-171.5648997101976
 21
-24.95144446498477
 31
0.0
  0
LINE
  5
230
330
1F
100
AcDbEntity
  8
0
  6
Continuous
 62
     4
370
    13
100
AcDbLine
 10
-150.1463154231585
 20
-16.04952067633064
 30
0.0
 11
-147.6463154231585
 21
-20.37964769525468
 31
0.0
  0
LINE
  5
231
330
1F
100
AcDbEntity
  8
0
  6
Continuous
 62
     4
370
    13
100
AcDbLine
 10
-127.6296549247645
 20
-3.049520676326551
 30
0.0
 11
-150.1463154231585
 21
-16.04952067633064
 31
0.0
  0
LINE
  5
232
330
1F
100
AcDbEntity
  8
0
  6
Continuous
 62
     4
370
    13
100
AcDbLine
 10
-129.1296549247645
 20
-0.4514444649765892
 30
0.0
 11
-127.6296549247645
 21
-3.049520676326551
 31
0.0
  0
LINE
  5
233
330
1F
100
AcDbEntity
  8
0
  6
Continuous
 62
     4
370
    13
100
AcDbLine
 10
-130.6296549247645
 20
2.146631746377466
 30
0.0
 11
-129.1296549247645
 21
-0.4514444649765892
 31
0.0
  0
LINE
  5
234
330
1F
100
AcDbEntity
  8
0
  6
Continuous
 62
     4
370
    13
100
AcDbLine
 10
-153.1463154231556
 20
-10.85336825362754
 30
0.0
 11
-130.6296549247645
 21
2.146631746377466
 31
0.0
  0
LINE
  5
235
330
1F
100
AcDbEntity
  8
0
  6
Continuous
 62
     4
370
    13
100
AcDbLine
 10
-155.6463154231585
 20
-6.523241234705779
 30
0.0
 11
-153.1463154231556
 21
-10.85336825362754
 31
0.0
  0
LINE
  5
236
330
1F
100
AcDbEntity
  8
0
  6
Continuous
 62
     4
370
    13
100
AcDbLine
 10
-171.5648997101976
 20
-24.95144446498477
 30
0.0
 11
-155.6463154231585
 21
-6.523241234705779
 31
0.0
  0
LINE
  5
237
330
1F
100
AcDbEntity
  8
0
  6
DASHED2
 62
     4
370
    13
100
AcDbLine
 10
84.93002725595147
 20
537.2492157591101
 30
0.0
 11
78.93002725595147
 21
537.2492157591101
 31
0.0
  0
LINE
  5
238
330
1F
100
AcDbEntity
  8
0
  6
DASHED2
 62
     4
370
    13
100
AcDbLine
 10
84.93002725593851
 20
587.2492157590281
 30
0.0
 11
84.93002725595147
 21
537.2492157591101
 31
0.0
  0
LINE
  5
239
330
1F
100
AcDbEntity
  8
0
  6
DASHED2
 62
     4
370
    13
100
AcDbLine
 10
78.93002725593851
 20
587.2492157590281
 30
0.0
 11
84.93002725593851
 21
587.2492157590281
 31
0.0
  0
LINE
  5
23A
330
1F
100
AcDbEntity
  8
0
  6
DASHED2
 62
     4
370
    13
100
AcDbLine
 10
-283.2814044470592
 20
-184.9501477266567
 30
0.0
 11
-286.2814044470574
 21
-179.7539953039527
 31
0.0
  0
LINE
  5
23B
330
1F
100
AcDbEntity
  8
0
  6
DASHED2
 62
     4
370
    13
100
AcDbLine
 10
60.12875706667251
 20
20.24600469610414
 30
0.0
 11
77.44926514239546
 21
30.24600469612733
 31
0.0
  0
LINE
  5
23C
330
1F
100
AcDbEntity
  8
0
  6
DASHED2
 62
     4
370
    13
100
AcDbLine
 10
80.4492651423925
 20
25.04985227342149
 30
0.0
 11
63.12875706667046
 21
15.04985227339921
 31
0.0
  0
LINE
  5
23D
330
1F
100
AcDbEntity
  8
0
  6
DASHED2
 62
     4
370
    13
100
AcDbLine
 10
74.93002725596148
 20
507.2492157590231
 30
0.0
 11
54.93002725592146
 21
507.2492157591101
 31
0.0
  0
LINE
  5
23E
330
1F
100
AcDbEntity
  8
0
  6
DASHED2
 62
     4
370
    13
100
AcDbLine
 10
74.93002725596148
 20
617.2492157590231
 30
0.0
 11
54.93002725592146
 21
617.2492157591101
 31
0.0
  0
LINE
  5
23F
330
1F
100
AcDbEntity
  8
0
  6
DASHED2
 62
     4
370
    13
100
AcDbLine
 10
74.93002725593851
 20
617.2492157591101
 30
0.0
 11
74.93002725593851
 21
507.2492157591101
 31
0.0
  0
LINE
  5
240
330
1F
100
AcDbEntity
  8
0
  6
DASHED2
 62
     4
370
    13
100
AcDbLine
 10
78.93002725595147
 20
507.2492157590231
 30
0.0
 11
78.93002725595147
 21
617.2492157590231
 31
0.0
  0
LINE
  5
241
330
1F
100
AcDbEntity
  8
0
  6
DASHED2
 62
     4
370
    13
100
AcDbLine
 10
-265.0699753051322
 20
627.249215759154
 30
0.0
 11
-345.0699727440942
 21
627.2492157591699
 31
0.0
  0
LINE
  5
242
330
1F
100
AcDbEntity
  8
0
  6
DASHED2
 62
     4
370
    13
100
AcDbLine
 10
-246.7493304861173
 20
-88.22545972731768
 30
0.0
 11
-316.0314044470783
 21
-128.2254837787877
 31
0.0
  0
LINE
  5
243
330
1F
100
AcDbEntity
  8
0
  6
DASHED2
 62
     4
370
    13
100
AcDbLine
 10
-316.0314044470783
 20
-128.2254837787877
 30
0.0
 11
-284.7814044470592
 21
-182.3520715153027
 31
0.0
  0
LINE
  5
244
330
1F
100
AcDbEntity
  8
0
  6
DASHED2
 62
     4
370
    13
100
AcDbLine
 10
50.69926514242843
 20
76.57836379851824
 30
0.0
 11
-313.0314044470783
 21
-133.4216362014945
 31
0.0
  0
LINE
  5
245
330
1F
100
AcDbEntity
  8
0
  6
DASHED2
 62
     4
370
    13
100
AcDbLine
 10
-256.5314044470524
 20
-231.2825068291208
 30
0.0
 11
107.1992651424455
 21
-21.28250682911357
 31
0.0
  0
LINE
  5
246
330
1F
100
AcDbEntity
  8
0
  6
DASHED2
 62
     4
370
    13
100
AcDbLine
 10
-345.0699727440942
 20
503.2492157591101
 30
0.0
 11
74.93002725593851
 21
503.2492157590251
 31
0.0
  0
LINE
  5
247
330
1F
100
AcDbEntity
  8
0
  6
DASHED2
 62
     4
370
    13
100
AcDbLine
 10
74.93002725593851
 20
621.2492157590331
 30
0.0
 11
-345.0699727440942
 21
621.249215759117
 31
0.0
  0
LINE
  5
248
330
1F
100
AcDbEntity
  8
0
  6
DASHED2
 62
     4
370
    13
100
AcDbLine
 10
-345.0699727440942
 20
497.2492157591101
 30
0.0
 11
-265.0699753051322
 21
497.249215759094
 31
0.0
  0
LINE
  5
249
330
1F
100
AcDbEntity
  8
0
  6
DASHED2
 62
     4
370
    13
100
AcDbLine
 10
-345.0699727440942
 20
627.2492157591699
 30
0.0
 11
-345.0699727440942
 21
497.2492157591101
 31
0.0
  0
LINE
  5
24A
330
1F
100
AcDbEntity
  8
0
  6
DASHED2
 62
     4
370
    13
100
AcDbLine
 10
93.72862144420947
 20
-87.94951405175789
 30
0.0
 11
89.72862144421151
 21
-81.0213108214798
 31
0.0
  0
LINE
  5
24B
330
1F
100
AcDbEntity
  8
0
  6
DASHED2
 62
     4
370
    13
100
AcDbLine
 10
161.5390111046574
 20
-118.0811996302828
 30
0.0
 11
125.4606722517385
 21
-138.9110382788667
 31
0.0
  0
LINE
  5
24C
330
1F
100
AcDbEntity
  8
0
  6
DASHED2
 62
     4
370
    13
100
AcDbLine
 10
118.7286214441765
 20
-131.2507842410178
 30
0.0
 11
122.7286214441715
 21
-138.1789874712945
 31
0.0
  0
LINE
  5
24D
330
1F
100
AcDbEntity
  8
0
  6
DASHED2
 62
     4
370
    13
100
AcDbLine
 10
118.7286214441765
 20
-131.2507842410178
 30
0.0
 11
93.72862144420947
 21
-87.94951405175789
 31
0.0
  0
LINE
  5
24E
330
1F
100
AcDbEntity
  8
0
  6
DASHED2
 62
     4
370
    13
100
AcDbLine
 10
90.46067225178444
 20
-78.28926001391164
 30
0.0
 11
127.6991692412034
 21
-56.78960375293491
 31
0.0
  0
SPLINE
  5
24F
330
1F
100
AcDbEntity
  8
0
  6
DASHED2
 62
     4
370
    13
100
AcDbSpline
210
0.0
220
0.0
230
1.0
 70
     8
 71
     2
 72
     6
 73
     3
 74
     0
 42
0.000000001
 43
0.0000000001
 40
0.0
 40
0.0
 40
0.0
 40
208.2402458700043
 40
208.2402458700043
 40
208.2402458700043
 10
-283.2814044470592
 20
-184.9501477266567
 30
0.0
 10
-225.3664240881083
 20
-86.03458620095671
 30
0.0
 10
-139.0763236902085
 20
-34.7206743071406
 30
0.0
  0
SPLINE
  5
250
330
1F
100
AcDbEntity
  8
0
  6
DASHED2
 62
     4
370
    13
100
AcDbSpline
210
0.0
220
0.0
230
1.0
 70
     8
 71
     2
 72
     6
 73
     3
 74
     0
 42
0.000000001
 43
0.0000000001
 40
0.0
 40
0.0
 40
0.0
 40
413.2989232988615
 40
413.2989232988615
 40
413.2989232988615
 10
-286.2814044470574
 20
-179.7539953039527
 30
0.0
 10
-165.0763236902155
 20
10.31264668965014
 30
0.0
 10
60.12875706667251
 20
20.24600469610414
 30
0.0
  0
SPLINE
  5
251
330
1F
100
AcDbEntity
  8
0
  6
DASHED2
 62
     4
370
    13
100
AcDbSpline
210
0.0
220
0.0
230
1.0
 70
     8
 71
     2
 72
     6
 73
     3
 74
     0
 42
0.000000001
 43
0.0000000001
 40
0.0
 40
0.0
 40
0.0
 40
413.2989232988601
 40
413.2989232988601
 40
413.2989232988601
 10
63.12875706667046
 20
15.04985227339921
 30
0.0
 10
-58.07632369018052
 20
-175.0167897202068
 30
0.0
 10
-283.2814044470592
 20
-184.9501477266567
 30
0.0
  0
SPLINE
  5
252
330
1F
100
AcDbEntity
  8
0
  6
DASHED2
 62
     4
370
    13
100
AcDbSpline
210
0.0
220
0.0
230
1.0
 70
     8
 71
     2
 72
     6
 73
     3
 74
     0
 42
0.000000001
 43
0.0000000001
 40
0.0
 40
0.0
 40
0.0
 40
208.2402458700002
 40
208.2402458700002
 40
208.2402458700002
 10
60.12875706667251
 20
20.24600469610414
 30
0.0
 10
2.213776707712441
 20
-78.6695568296027
 30
0.0
 10
-84.07632369018256
 20
-129.9834687234147
 30
0.0
  0
SPLINE
  5
253
330
1F
100
AcDbEntity
  8
0
  6
DASHED2
 62
     4
370
    13
100
AcDbSpline
210
0.0
220
0.0
230
1.0
 70
     8
 71
     3
 72
     8
 73
     4
 74
     0
 42
0.000000001
 43
0.0000000001
 40
0.0
 40
0.0
 40
0.0
 40
0.0
 40
215.0490539460335
 40
215.0490539460335
 40
215.0490539460335
 40
215.0490539460335
 10
-345.0699727441001
 20
507.2492157591101
 30
0.0
 10
-273.1815085073413
 20
511.9644734750351
 30
0.0
 10
-206.1848725164123
 20
525.8606762273961
 30
0.0
 10
-145.0699727440935
 20
562.2492157591101
 30
0.0
  0
SPLINE
  5
254
330
1F
100
AcDbEntity
  8
0
  6
DASHED2
 62
     4
370
    13
100
AcDbSpline
210
0.0
220
0.0
230
1.0
 70
     8
 71
     3
 72
     8
 73
     4
 74
     0
 42
0.000000001
 43
0.0000000001
 40
0.0
 40
0.0
 40
0.0
 40
0.0
 40
215.0490539460335
 40
215.0490539460335
 40
215.0490539460335
 40
215.0490539460335
 10
54.93002725592146
 20
617.2492157591101
 30
0.0
 10
-16.95843698084354
 20
612.5339580431811
 30
0.0
 10
-83.95507297177255
 20
598.6377552908251
 30
0.0
 10
-145.0699727440935
 20
562.2492157591101
 30
0.0
  0
SPLINE
  5
255
330
1F
100
AcDbEntity
  8
0
  6
DASHED2
 62
     4
370
    13
100
AcDbSpline
210
0.0
220
0.0
230
1.0
 70
     8
 71
     3
 72
     8
 73
     4
 74
     0
 42
0.000000001
 43
0.0000000001
 40
0.0
 40
0.0
 40
0.0
 40
0.0
 40
215.0490539460335
 40
215.0490539460335
 40
215.0490539460335
 40
215.0490539460335
 10
-345.0699727441001
 20
617.2492157591101
 30
0.0
 10
-273.1815085073413
 20
612.5339580431811
 30
0.0
 10
-206.1848725164123
 20
598.6377552908251
 30
0.0
 10
-145.0699727440935
 20
562.2492157591101
 30
0.0
  0
SPLINE
  5
256
330
1F
100
AcDbEntity
  8
0
  6
DASHED2
 62
     4
370
    13
100
AcDbSpline
210
0.0
220
0.0
230
1.0
 70
     8
 71
     3
 72
     8
 73
     4
 74
     0
 42
0.000000001
 43
0.0000000001
 40
0.0
 40
0.0
 40
0.0
 40
0.0
 40
215.0490539460335
 40
215.0490539460335
 40
215.0490539460335
 40
215.0490539460335
 10
54.93002725592146
 20
507.2492157591101
 30
0.0
 10
-16.95843698084354
 20
511.9644734750351
 30
0.0
 10
-83.95507297177255
 20
525.8606762273961
 30
0.0
 10
-145.0699727440935
 20
562.2492157591101
 30
0.0
  0
SPLINE
  5
257
330
1F
100
AcDbEntity
  8
0
  6
DASHED2
 62
     4
370
    13
100
AcDbSpline
210
0.0
220
0.0
230
1.0
 70
     8
 71
     3
 72
     8
 73
     4
 74
     0
 42
0.000000001
 43
0.0000000001
 40
0.0
 40
0.0
 40
0.0
 40
0.0
 40
215.212596882581
 40
215.212596882581
 40
215.212596882581
 40
215.212596882581
 10
-345.0699727441001
 20
507.2492157591101
 30
0.0
 10
-274.2439231507292
 20
517.6081965346281
 30
0.0
 10
-206.1157944548022
 20
527.14985833568
 30
0.0
 10
-145.0699727440935
 20
564.339694144758
 30
0.0
  0
SPLINE
  5
258
330
1F
100
AcDbEntity
  8
0
  6
DASHED2
 62
     4
370
    13
100
AcDbSpline
210
0.0
220
0.0
230
1.0
 70
     8
 71
     3
 72
     8
 73
     4
 74
     0
 42
0.000000001
 43
0.0000000001
 40
0.0
 40
0.0
 40
0.0
 40
0.0
 40
215.212596882581
 40
215.212596882581
 40
215.212596882581
 40
215.212596882581
 10
54.9300272559135
 20
617.2492157591101
 30
0.0
 10
-15.89602233745654
 20
615.523583683121
 30
0.0
 10
-84.02415103338649
 20
603.6200083394809
 30
0.0
 10
-145.0699727440935
 20
564.339694144758
 30
0.0
  0
ARC
  5
259
330
1F
100
AcDbEntity
  8
0
  6
DASHED2
 62
     4
370
    13
100
AcDbCircle
 10
91.46067225178444
 20
-80.02131082148162
 30
0.0
 40
2.000000000000952
100
AcDbArc
 50
119.9999999999843
 51
209.9999999998968
  0
ARC
  5
25A
330
1F
100
AcDbEntity
  8
0
  6
DASHED2
 62
     4
370
    13
100
AcDbCircle
 10
124.4606722517385
 20
-137.1789874712968
 30
0.0
 40
1.999999999997255
100
AcDbArc
 50
209.9999999999702
 51
299.9999999999842
  0
LINE
  5
25B
330
1F
100
AcDbEntity
  8
0
  6
DASHED2
 62
     4
370
    13
100
AcDbLine
 10
749.872572214985
 20
-78.90474708702936
 30
0.0
 11
734.7251590205407
 21
-78.90474708703078
 31
0.0
  0
LINE
  5
25C
330
1F
100
AcDbEntity
  8
0
  6
DASHED2
 62
     4
370
    13
100
AcDbLine
 10
553.564279305582
 20
-78.90474708702936
 30
0.0
 11
568.7116925000263
 21
-78.90474708703078
 31
0.0
  0
LINE
  5
25D
330
1F
100
AcDbEntity
  8
0
  6
CENTERX2
 62
     3
370
    13
100
AcDbLine
 10
60.12875706667251
 20
20.24600469610414
 30
0.0
 11
63.12875706667046
 21
15.04985227339921
 31
0.0
  0
LINE
  5
25E
330
1F
100
AcDbEntity
  8
0
  6
CENTERX2
 62
     3
370
    13
100
AcDbLine
 10
104.9300272558985
 20
42.64792848476554
 30
0.0
 11
129.4462326509015
 21
56.80236626908447
 31
0.0
  0
LINE
  5
25F
330
1F
100
AcDbEntity
  8
0
  6
CENTERX2
 62
     3
370
    13
100
AcDbLine
 10
-284.7814044470592
 20
-182.3520715153027
 30
0.0
 11
104.9300272558985
 21
42.64792848476554
 31
0.0
  0
LINE
  5
260
330
1F
100
AcDbEntity
  8
0
  6
CENTERX2
 62
     3
370
    13
100
AcDbLine
 10
-139.0763236902085
 20
-34.7206743071406
 30
0.0
 11
-84.07632369018256
 21
-129.9834687234147
 31
0.0
  0
LINE
  5
261
330
1F
100
AcDbEntity
  8
0
  6
CENTERX2
 62
     3
370
    13
100
AcDbLine
 10
-315.5904218331152
 20
-163.1892487684827
 30
0.0
 11
-299.1359391612123
 21
-153.6892487684809
 31
0.0
  0
LINE
  5
262
330
1F
100
AcDbEntity
  8
0
  6
CENTERX2
 62
     3
370
    13
100
AcDbLine
 10
14.4733004469515
 20
79.32411491616313
 30
0.0
 11
121.5191952571795
 21
-106.0837547159667
 31
0.0
  0
LINE
  5
263
330
1F
100
AcDbEntity
  8
0
  6
CENTERX2
 62
     3
370
    13
100
AcDbLine
 10
-272.5647519502463
 20
-83.51063055690884
 30
0.0
 11
-164.2688571399435
 21
-271.0835636986249
 31
0.0
  0
LINE
  5
264
330
1F
100
AcDbEntity
  8
0
  6
CENTERX2
 62
     3
370
    13
100
AcDbLine
 10
-157.3839910875215
 20
-213.0108642068667
 30
0.0
 11
-152.1339910875165
 21
-222.1041309466009
 31
0.0
  0
LINE
  5
265
330
1F
100
AcDbEntity
  8
0
  6
CENTERX2
 62
     3
370
    13
100
AcDbLine
 10
-159.3056244573845
 20
-220.1824975767368
 30
0.0
 11
-150.2123577176535
 21
-214.9324975767308
 31
0.0
  0
LINE
  5
266
330
1F
100
AcDbEntity
  8
0
  6
CENTERX2
 62
     3
370
    13
100
AcDbLine
 10
116.0250841438085
 20
562.2492157591101
 30
0.0
 11
-362.1727071542122
 21
562.2492157591101
 31
0.0
  0
LINE
  5
267
330
1F
100
AcDbEntity
  8
0
  6
CENTERX2
 62
     3
370
    13
100
AcDbLine
 10
651.7184257602835
 20
134.5903248517501
 30
0.0
 11
651.7184257602835
 21
-146.3872968677688
 31
0.0
  0
LINE
  5
268
330
1F
100
AcDbEntity
  8
0
  6
CENTERX2
 62
     3
370
    13
100
AcDbLine
 10
535.4684257602835
 20
42.64792848476554
 30
0.0
 11
767.9684257602864
 21
42.64792848476554
 31
0.0
  0
LINE
  5
269
330
1F
100
AcDbEntity
  8
0
  6
CENTERX2
 62
     3
370
    13
100
AcDbLine
 10
-723.2807057838222
 20
-66.10207151530267
 30
0.0
 11
-723.2807057838222
 21
-298.6020715153027
 31
0.0
  0
LINE
  5
26A
330
1F
100
AcDbEntity
  8
0
  6
CENTERX2
 62
     3
370
    13
100
AcDbLine
 10
-839.5307057838222
 20
-182.3520715153027
 30
0.0
 11
-607.0307057838222
 21
-182.3520715153027
 31
0.0
  0
LINE
  5
26B
330
1F
100
AcDbEntity
  8
0
  6
CENTER
 62
     3
370
    13
100
AcDbLine
 10
-727.7807057838222
 20
-150.3520715153045
 30
0.0
 11
-718.7807057838222
 21
-150.3520715153045
 31
0.0
  0
LINE
  5
26C
330
1F
100
AcDbEntity
  8
0
  6
CENTER
 62
     3
370
    13
100
AcDbLine
 10
669.2184257602835
 20
10.14792848476827
 30
0.0
 11
669.2184257602835
 21
19.14792848476827
 31
0.0
  0
LINE
  5
26D
330
1F
100
AcDbEntity
  8
0
  6
CENTER
 62
     3
370
    13
100
AcDbLine
 10
673.7184257602835
 20
14.64792848476827
 30
0.0
 11
664.7184257602835
 21
14.64792848476827
 31
0.0
  0
LINE
  5
26E
330
1F
100
AcDbEntity
  8
0
  6
CENTER
 62
     3
370
    13
100
AcDbLine
 10
638.7184257602835
 20
14.64792848476918
 30
0.0
 11
629.7184257602835
 21
14.64792848476918
 31
0.0
  0
LINE
  5
26F
330
1F
100
AcDbEntity
  8
0
  6
CENTER
 62
     3
370
    13
100
AcDbLine
 10
634.2184257602835
 20
10.14792848476918
 30
0.0
 11
634.2184257602835
 21
19.14792848476918
 31
0.0
  0
LINE
  5
270
330
1F
100
AcDbEntity
  8
0
  6
CENTER
 62
     3
370
    13
100
AcDbLine
 10
-285.0703708721312
 20
459.858252306247
 30
0.0
 11
-285.0703708721312
 21
480.7492157590769
 31
0.0
  0
LINE
  5
271
330
1F
100
AcDbEntity
  8
0
  6
CENTER
 62
     3
370
    13
100
AcDbLine
 10
-294.0703708721312
 20
471.7492157590769
 30
0.0
 11
-276.0703708721312
 21
471.7492157590769
 31
0.0
  0
LINE
  5
272
330
1F
100
AcDbEntity
  8
0
  6
CENTER
 62
     3
370
    13
100
AcDbLine
 10
-285.0693208534562
 20
643.749215759077
 30
0.0
 11
-285.0693208534562
 21
669.7592661959872
 31
0.0
  0
LINE
  5
273
330
1F
100
AcDbEntity
  8
0
  6
CENTER
 62
     3
370
    13
100
AcDbLine
 10
-294.0693208534562
 20
652.749215759077
 30
0.0
 11
-276.0693208534562
 21
652.749215759077
 31
0.0
  0
LINE
  5
274
330
1F
100
AcDbEntity
  8
0
  6
CENTER
 62
     3
370
    13
100
AcDbLine
 10
35.93074177547146
 20
652.749215759077
 30
0.0
 11
53.93074177547146
 21
652.749215759077
 31
0.0
  0
LINE
  5
275
330
1F
100
AcDbEntity
  8
0
  6
CENTER
 62
     3
370
    13
100
AcDbLine
 10
44.9302066129485
 20
458.752563248917
 30
0.0
 11
44.9302066129485
 21
480.7492157590769
 31
0.0
  0
LINE
  5
276
330
1F
100
AcDbEntity
  8
0
  6
CENTER
 62
     3
370
    13
100
AcDbLine
 10
35.9302066129485
 20
471.7492157590769
 30
0.0
 11
53.9302066129485
 21
471.7492157590769
 31
0.0
  0
LINE
  5
277
330
1F
100
AcDbEntity
  8
0
  6
CENTER
 62
     3
370
    13
100
AcDbLine
 10
44.93074177547646
 20
479.2492157590769
 30
0.0
 11
44.93074177547146
 21
665.779801742157
 31
0.0
  0
LINE
  5
278
330
1F
100
AcDbEntity
  8
0
  6
CENTER
 62
     3
370
    13
100
AcDbLine
 10
-285.0693208534512
 20
479.2492157590769
 30
0.0
 11
-285.0693208534562
 21
660.249215759077
 31
0.0
  0
LINE
  5
279
330
1F
100
AcDbEntity
  8
0
  6
CENTER
 62
     3
370
    13
100
AcDbLine
 10
242.1837022011885
 20
14.58600469611838
 30
0.0
 11
231.6837022011885
 21
14.58600469611838
 31
0.0
  0
LINE
  5
27A
330
1F
100
AcDbEntity
  8
0
  6
CENTER
 62
     3
370
    13
100
AcDbLine
 10
236.9337022011885
 20
29.58600469611838
 30
0.0
 11
236.9337022011885
 21
31.33600469611838
 31
0.0
  0
LINE
  5
27B
330
1F
100
AcDbEntity
  8
0
  6
CENTER
 62
     3
370
    13
100
AcDbLine
 10
236.9337022011885
 20
-0.4139953038816202
 30
0.0
 11
236.9337022011885
 21
29.58600469611838
 31
0.0
  0
LINE
  5
27C
330
1F
100
AcDbEntity
  8
0
  6
CENTER
 62
     3
370
    13
100
AcDbLine
 10
236.9337022011885
 20
-2.16399530388162
 30
0.0
 11
236.9337022011885
 21
-0.4139953038816202
 31
0.0
  0
LINE
  5
27D
330
1F
100
AcDbEntity
  8
0
  6
CENTER
 62
     3
370
    13
100
AcDbLine
 10
292.1837022011885
 20
14.58600469611838
 30
0.0
 11
281.6837022011885
 21
14.58600469611838
 31
0.0
  0
LINE
  5
27E
330
1F
100
AcDbEntity
  8
0
  6
CENTER
 62
     3
370
    13
100
AcDbLine
 10
286.9337022011885
 20
29.58600469611838
 30
0.0
 11
286.9337022011885
 21
31.33600469611838
 31
0.0
  0
LINE
  5
27F
330
1F
100
AcDbEntity
  8
0
  6
CENTER
 62
     3
370
    13
100
AcDbLine
 10
286.9337022011885
 20
-0.4139953038816202
 30
0.0
 11
286.9337022011885
 21
29.58600469611838
 31
0.0
  0
LINE
  5
280
330
1F
100
AcDbEntity
  8
0
  6
CENTER
 62
     3
370
    13
100
AcDbLine
 10
286.9337022011885
 20
-2.16399530388162
 30
0.0
 11
286.9337022011885
 21
-0.4139953038816202
 31
0.0
  0
LINE
  5
281
330
1F
100
AcDbEntity
  8
0
  6
CENTER
 62
     3
370
    13
100
AcDbLine
 10
133.9690025009445
 20
-127.6478985580598
 30
0.0
 11
129.4690025009525
 21
-119.8536699239958
 31
0.0
  0
LINE
  5
282
330
1F
100
AcDbEntity
  8
0
  6
CENTER
 62
     3
370
    13
100
AcDbLine
 10
127.8218881839175
 20
-126.0007842410237
 30
0.0
 11
135.6161168179815
 21
-121.5007842410328
 31
0.0
  0
LINE
  5
283
330
1F
100
AcDbEntity
  8
0
  6
CENTER
 62
     3
370
    13
100
AcDbLine
 10
102.8218881839555
 20
-82.69951405177972
 30
0.0
 11
110.6161168180195
 21
-78.19951405178881
 31
0.0
  0
LINE
  5
284
330
1F
100
AcDbEntity
  8
0
  6
Continuous
 62
     3
370
    13
100
AcDbLine
 10
-310.0848202179773
 20
-162.8494194675359
 30
0.0
 11
-310.6263202179771
 21
-163.7873249798358
 31
0.0
  0
LINE
  5
285
330
1F
100
AcDbEntity
  8
0
  6
Continuous
 62
     3
370
    13
100
AcDbLine
 10
-298.3037618088492
 20
-156.0476222236839
 30
0.0
 11
-310.0848202179773
 21
-162.8494194675359
 31
0.0
  0
LINE
  5
286
330
1F
100
AcDbEntity
  8
0
  6
Continuous
 62
     3
370
    13
100
AcDbLine
 10
-301.5019645649973
 20
-151.5911725571259
 30
0.0
 11
-298.5019645649973
 21
-156.7873249798326
 31
0.0
  0
LINE
  5
287
330
1F
100
AcDbEntity
  8
0
  6
Continuous
 62
     3
370
    13
100
AcDbLine
 10
-312.5433202179784
 20
-158.5911725571268
 30
0.0
 11
-300.7622618088503
 21
-151.7893753132748
 31
0.0
  0
LINE
  5
288
330
1F
100
AcDbEntity
  8
0
  6
Continuous
 62
     3
370
    13
100
AcDbLine
 10
-313.6263202179794
 20
-158.5911725571277
 30
0.0
 11
-312.5433202179784
 21
-158.5911725571268
 31
0.0
  0
LINE
  5
289
330
1F
100
AcDbEntity
  8
0
  6
Continuous
 62
     3
370
    13
100
AcDbLine
 10
-358.1727071542123
 20
565.249215759109
 30
0.0
 11
-357.2348016419132
 21
564.7077157591101
 31
0.0
  0
LINE
  5
28A
330
1F
100
AcDbEntity
  8
0
  6
Continuous
 62
     3
370
    13
100
AcDbLine
 10
-357.2348016419132
 20
564.7077157591101
 30
0.0
 11
-343.6312071542102
 21
564.7077157591101
 31
0.0
  0
LINE
  5
28B
330
1F
100
AcDbEntity
  8
0
  6
Continuous
 62
     3
370
    13
100
AcDbLine
 10
-344.1727071542123
 20
565.249215759109
 30
0.0
 11
-344.1727071542123
 21
559.249215759109
 31
0.0
  0
LINE
  5
28C
330
1F
100
AcDbEntity
  8
0
  6
Continuous
 62
     3
370
    13
100
AcDbLine
 10
-343.6312071542102
 20
559.79071575911
 30
0.0
 11
-357.2348016419132
 21
559.79071575911
 31
0.0
  0
LINE
  5
28D
330
1F
100
AcDbEntity
  8
0
  6
Continuous
 62
     3
370
    13
100
AcDbLine
 10
-357.2348016419132
 20
559.79071575911
 30
0.0
 11
-358.1727071542123
 21
559.249215759109
 31
0.0
  0
LINE
  5
28E
330
1F
100
AcDbEntity
  8
0
  6
Continuous
 62
     3
370
    13
100
AcDbLine
 10
81.44509301933044
 20
-25.29749997638874
 30
0.0
 11
96.64509555170548
 21
-51.62467078945565
 31
0.0
  0
LINE
  5
28F
330
1F
100
AcDbEntity
  8
0
  6
Continuous
 62
     3
370
    13
100
AcDbLine
 10
86.79319055820747
 20
-57.31267078948167
 30
0.0
 11
71.59318802582948
 21
-30.98549997641476
 31
0.0
  0
LINE
  5
290
330
1F
100
AcDbEntity
  8
0
  6
Continuous
 62
     3
370
    13
100
AcDbLine
 10
-198.9948618389162
 20
-222.3124797721398
 30
0.0
 11
-214.1948643712963
 21
-195.9853089590747
 31
0.0
  0
LINE
  5
291
330
1F
100
AcDbEntity
  8
0
  6
Continuous
 62
     3
370
    13
100
AcDbLine
 10
-204.3429593777932
 20
-190.2973089590469
 30
0.0
 11
-189.1429568454178
 21
-216.6244797721138
 31
0.0
  0
CIRCLE
  5
292
330
1F
100
AcDbEntity
  8
0
  6
Continuous
 62
     3
370
    13
100
AcDbCircle
 10
-285.0703708721312
 20
471.7492157590769
 30
0.0
 40
6.0
  0
CIRCLE
  5
293
330
1F
100
AcDbEntity
  8
0
  6
Continuous
 62
     3
370
    13
100
AcDbCircle
 10
-285.0693208534562
 20
652.749215759077
 30
0.0
 40
6.0
  0
CIRCLE
  5
294
330
1F
100
AcDbEntity
  8
0
  6
Continuous
 62
     3
370
    13
100
AcDbCircle
 10
44.93074177547146
 20
652.749215759077
 30
0.0
 40
6.0
  0
CIRCLE
  5
295
330
1F
100
AcDbEntity
  8
0
  6
Continuous
 62
     3
370
    13
100
AcDbCircle
 10
44.9302066129485
 20
471.7492157590769
 30
0.0
 40
6.0
  0
LINE
  5
296
330
1F
100
AcDbEntity
  8
0
  6
Continuous
 62
     7
370
    13
100
AcDbLine
 10
83.91336675752541
 20
27.04985227342002
 30
0.0
 11
91.41336675756452
 21
14.05947121659926
 31
0.0
  0
LINE
  5
297
330
1F
100
AcDbEntity
  8
0
  6
Continuous
 62
     7
370
    13
100
AcDbLine
 10
106.4300272558885
 20
40.04985227340831
 30
0.0
 11
80.4492651423925
 21
25.04985227342149
 31
0.0
  0
LINE
  5
298
330
1F
100
AcDbEntity
  8
0
  6
Continuous
 62
     7
370
    13
100
AcDbLine
 10
626.7184257602835
 20
39.64792848476827
 30
0.0
 11
626.7184257602835
 21
-8.352071515231728
 31
0.0
  0
LINE
  5
299
330
1F
100
AcDbEntity
  8
0
  6
Continuous
 62
     7
370
    13
100
AcDbLine
 10
114.1095191802845
 20
-13.25141791585747
 30
0.0
 11
108.9133667575775
 21
-16.25141791585884
 31
0.0
  0
LINE
  5
29A
330
1F
100
AcDbEntity
  8
0
  6
Continuous
 62
     7
370
    13
100
AcDbLine
 10
89.10951918023648
 20
30.04985227342331
 30
0.0
 11
114.1095191802845
 21
-13.25141791585747
 31
0.0
  0
LINE
  5
29B
330
1F
100
AcDbEntity
  8
0
  6
Continuous
 62
     7
370
    13
100
AcDbLine
 10
628.7184257602835
 20
-10.35207151523173
 30
0.0
 11
626.7184257602835
 21
-8.352071515231728
 31
0.0
  0
LINE
  5
29C
330
1F
100
AcDbEntity
  8
0
  6
Continuous
 62
     7
370
    13
100
AcDbLine
 10
674.7184257602835
 20
-10.35207151523173
 30
0.0
 11
676.7184257602835
 21
-8.352071515231728
 31
0.0
  0
LINE
  5
29D
330
1F
100
AcDbEntity
  8
0
  6
Continuous
 62
     7
370
    13
100
AcDbLine
 10
676.7184257602835
 20
-8.352071515231728
 30
0.0
 11
676.7184257602835
 21
39.64792848476827
 31
0.0
  0
LINE
  5
29E
330
1F
100
AcDbEntity
  8
0
  6
Continuous
 62
     7
370
    13
100
AcDbLine
 10
628.7184257602835
 20
-10.35207151523173
 30
0.0
 11
674.7184257602835
 21
-10.35207151523173
 31
0.0
  0
LINE
  5
29F
330
1F
100
AcDbEntity
  8
0
  6
Continuous
 62
     7
370
    13
100
AcDbLine
 10
-296.2270387531299
 20
-174.5264548331234
 30
0.0
 11
-288.4775568697632
 21
-187.9501477266608
 31
0.0
  0
LINE
  5
2A0
330
1F
100
AcDbEntity
  8
0
  6
Continuous
 62
     7
370
    13
100
AcDbLine
 10
-288.4775568697632
 20
-187.9501477266608
 30
0.0
 11
-283.2814044470592
 21
-184.9501477266567
 31
0.0
  0
LINE
  5
2A1
330
1F
100
AcDbEntity
  8
0
  6
Continuous
 62
     7
370
    13
100
AcDbLine
 10
-712.2807057838222
 20
-185.3520715153027
 30
0.0
 11
-712.2800796877282
 21
-169.8520715153018
 31
0.0
  0
LINE
  5
2A2
330
1F
100
AcDbEntity
  8
0
  6
Continuous
 62
     7
370
    13
100
AcDbLine
 10
-734.2818165995121
 20
-169.8520715153018
 30
0.0
 11
-734.2824426955972
 21
-185.3520715153027
 31
0.0
  0
LINE
  5
2A3
330
1F
100
AcDbEntity
  8
0
  6
Continuous
 62
     7
370
    13
100
AcDbLine
 10
106.4300272558885
 20
40.04985227340831
 30
0.0
 11
103.4300272558985
 21
45.24600469611823
 31
0.0
  0
LINE
  5
2A4
330
1F
100
AcDbEntity
  8
0
  6
Continuous
 62
     7
370
    13
100
AcDbLine
 10
104.9300272558985
 20
617.2492157591101
 30
0.0
 11
104.9300272558985
 21
507.2492157591101
 31
0.0
  0
LINE
  5
2A5
330
1F
100
AcDbEntity
  8
0
  6
Continuous
 62
     7
370
    13
100
AcDbLine
 10
596.7184257602935
 20
39.64792848476827
 30
0.0
 11
706.7184257602935
 21
39.64792848476827
 31
0.0
  0
LINE
  5
2A6
330
1F
100
AcDbEntity
  8
0
  6
Continuous
 62
     7
370
    13
100
AcDbLine
 10
706.7184257602935
 20
39.64792848476827
 30
0.0
 11
706.7184257602935
 21
45.64792848476554
 31
0.0
  0
LINE
  5
2A7
330
1F
100
AcDbEntity
  8
0
  6
Continuous
 62
     7
370
    13
100
AcDbLine
 10
706.7184257602935
 20
45.64792848476554
 30
0.0
 11
596.7184257602935
 21
45.64792848476554
 31
0.0
  0
LINE
  5
2A8
330
1F
100
AcDbEntity
  8
0
  6
Continuous
 62
     7
370
    13
100
AcDbLine
 10
596.7184257602935
 20
45.64792848476554
 30
0.0
 11
596.7184257602935
 21
39.64792848476827
 31
0.0
  0
LINE
  5
2A9
330
1F
100
AcDbEntity
  8
0
  6
Continuous
 62
     7
370
    13
100
AcDbLine
 10
-668.2824426955972
 20
-185.3520715153027
 30
0.0
 11
-668.2824426955972
 21
-182.3520715153486
 31
0.0
  0
LINE
  5
2AA
330
1F
100
AcDbEntity
  8
0
  6
Continuous
 62
     7
370
    13
100
AcDbLine
 10
-778.2824426955972
 20
-185.3520715153027
 30
0.0
 11
-668.2824426955972
 21
-185.3520715153027
 31
0.0
  0
LINE
  5
2AB
330
1F
100
AcDbEntity
  8
0
  6
Continuous
 62
     7
370
    13
100
AcDbLine
 10
-778.2824426955972
 20
-179.3520715153027
 30
0.0
 11
-778.2824426955972
 21
-182.3520715153486
 31
0.0
  0
LINE
  5
2AC
330
1F
100
AcDbEntity
  8
0
  6
Continuous
 62
     7
370
    13
100
AcDbLine
 10
-668.2824426955972
 20
-179.3520715153027
 30
0.0
 11
-712.2804634240424
 21
-179.3520715153027
 31
0.0
  0
LINE
  5
2AD
330
1F
100
AcDbEntity
  8
0
  6
Continuous
 62
     7
370
    13
100
AcDbLine
 10
77.44926514239546
 20
30.24600469612733
 30
0.0
 11
103.4300272558985
 21
45.24600469611823
 31
0.0
  0
LINE
  5
2AE
330
1F
100
AcDbEntity
  8
0
  6
Continuous
 62
     7
370
    13
100
AcDbLine
 10
-778.2824426955972
 20
-182.3520715153486
 30
0.0
 11
-778.2824426955972
 21
-185.3520715153027
 31
0.0
  0
LINE
  5
2AF
330
1F
100
AcDbEntity
  8
0
  6
Continuous
 62
     7
370
    13
100
AcDbLine
 10
-668.2824426955972
 20
-182.3520715153486
 30
0.0
 11
-668.2824426955972
 21
-179.3520715153027
 31
0.0
  0
LINE
  5
2B0
330
1F
100
AcDbEntity
  8
0
  6
Continuous
 62
     7
370
    13
100
AcDbLine
 10
104.9300272558985
 20
617.2492157591101
 30
0.0
 11
74.93002725596148
 21
617.2492157590231
 31
0.0
  0
LINE
  5
2B1
330
1F
100
AcDbEntity
  8
0
  6
Continuous
 62
     7
370
    13
100
AcDbLine
 10
104.9300272558985
 20
507.2492157591101
 30
0.0
 11
74.93002725596148
 21
507.2492157590231
 31
0.0
  0
LINE
  5
2B2
330
1F
100
AcDbEntity
  8
0
  6
Continuous
 62
     7
370
    13
100
AcDbLine
 10
-734.2822003358183
 20
-179.3520715153027
 30
0.0
 11
-778.2824426955972
 21
-179.3520715153027
 31
0.0
  0
LINE
  5
2B3
330
1F
100
AcDbEntity
  8
0
  6
Continuous
 62
     7
370
    13
100
AcDbLine
 10
101.2441979320115
 20
15.23197214183529
 30
0.0
 11
107.3441979320135
 21
4.666462215667252
 31
0.0
  0
LINE
  5
2B4
330
1F
100
AcDbEntity
  8
0
  6
Continuous
 62
     7
370
    13
100
AcDbLine
 10
-307.7022821123014
 20
-165.8519075421359
 30
0.0
 11
-313.9522821123023
 21
-155.0265899948286
 31
0.0
  0
LINE
  5
2B5
330
1F
100
AcDbEntity
  8
0
  6
Continuous
 62
     7
370
    13
100
AcDbLine
 10
-309.0763202179783
 20
-166.4720037315647
 30
0.0
 11
-315.1763202179773
 21
-155.9064938053989
 31
0.0
  0
LINE
  5
2B6
330
1F
100
AcDbEntity
  8
0
  6
Continuous
 62
     7
370
    13
100
AcDbLine
 10
-313.9522821123023
 20
-155.0265899948286
 30
0.0
 11
-312.5666414662442
 21
-154.2265899948256
 31
0.0
  0
LINE
  5
2B7
330
1F
100
AcDbEntity
  8
0
  6
Continuous
 62
     7
370
    13
100
AcDbLine
 10
-306.3166414662433
 20
-165.0519075421316
 30
0.0
 11
-307.7022821123014
 21
-165.8519075421359
 31
0.0
  0
LINE
  5
2B8
330
1F
100
AcDbEntity
  8
0
  6
Continuous
 62
     7
370
    13
100
AcDbLine
 10
-315.1763202179773
 20
-155.9064938053989
 30
0.0
 11
-313.8772821123011
 21
-155.1564938053966
 31
0.0
  0
LINE
  5
2B9
330
1F
100
AcDbEntity
  8
0
  6
Continuous
 62
     7
370
    13
100
AcDbLine
 10
-307.7772821123012
 20
-165.7220037315647
 30
0.0
 11
-309.0763202179783
 21
-166.4720037315647
 31
0.0
  0
LINE
  5
2BA
330
1F
100
AcDbEntity
  8
0
  6
Continuous
 62
     7
370
    13
100
AcDbLine
 10
-309.2395688720312
 20
-166.1892487684818
 30
0.0
 11
-312.3169191412144
 21
-167.9659577747848
 31
0.0
  0
LINE
  5
2BB
330
1F
100
AcDbEntity
  8
0
  6
Continuous
 62
     7
370
    13
100
AcDbLine
 10
-318.0904218331102
 20
-157.9659577747866
 30
0.0
 11
-315.0130715639261
 21
-156.1892487684818
 31
0.0
  0
LINE
  5
2BC
330
1F
100
AcDbEntity
  8
0
  6
Continuous
 62
     7
370
    13
100
AcDbLine
 10
-298.5019645649973
 20
-156.7873249798326
 30
0.0
 11
-310.6263202179771
 21
-163.7873249798358
 31
0.0
  0
LINE
  5
2BD
330
1F
100
AcDbEntity
  8
0
  6
Continuous
 62
     7
370
    13
100
AcDbLine
 10
-298.1359391612123
 20
-155.4212995760486
 30
0.0
 11
-298.5019645649973
 21
-156.7873249798326
 31
0.0
  0
LINE
  5
2BE
330
1F
100
AcDbEntity
  8
0
  6
Continuous
 62
     7
370
    13
100
AcDbLine
 10
-300.1359391612132
 20
-151.9571979609086
 30
0.0
 11
-298.1359391612123
 21
-155.4212995760486
 31
0.0
  0
LINE
  5
2BF
330
1F
100
AcDbEntity
  8
0
  6
Continuous
 62
     7
370
    13
100
AcDbLine
 10
-301.5019645649973
 20
-151.5911725571259
 30
0.0
 11
-300.1359391612132
 21
-151.9571979609086
 31
0.0
  0
LINE
  5
2C0
330
1F
100
AcDbEntity
  8
0
  6
Continuous
 62
     7
370
    13
100
AcDbLine
 10
-313.6263202179794
 20
-158.5911725571277
 30
0.0
 11
-301.5019645649973
 21
-151.5911725571259
 31
0.0
  0
LINE
  5
2C1
330
1F
100
AcDbEntity
  8
0
  6
Continuous
 62
     7
370
    13
100
AcDbLine
 10
-313.7602948141862
 20
-165.4659577747866
 30
0.0
 11
-310.6829445450053
 21
-163.6892487684818
 31
0.0
  0
LINE
  5
2C2
330
1F
100
AcDbEntity
  8
0
  6
Continuous
 62
     7
370
    13
100
AcDbLine
 10
-316.6470461601352
 20
-160.4659577747889
 30
0.0
 11
-313.5696958909534
 21
-158.6892487684818
 31
0.0
  0
LINE
  5
2C3
330
1F
100
AcDbEntity
  8
0
  6
Continuous
 62
     7
370
    13
100
AcDbLine
 10
-313.4253583236541
 20
-166.9392487684827
 30
0.0
 11
-317.7554853425772
 21
-159.4392487684827
 31
0.0
  0
LINE
  5
2C4
330
1F
100
AcDbEntity
  8
0
  6
Continuous
 62
     7
370
    13
100
AcDbLine
 10
-312.8140702179762
 20
-158.1222198009787
 30
0.0
 11
-309.8140702179762
 21
-163.3183722236868
 31
0.0
  0
LINE
  5
2C5
330
1F
100
AcDbEntity
  8
0
  6
Continuous
 62
     7
370
    13
100
AcDbLine
 10
105.5932360376885
 20
15.69921717875422
 30
0.0
 11
109.9233630566105
 21
8.199217178753315
 31
0.0
  0
LINE
  5
2C6
330
1F
100
AcDbEntity
  8
0
  6
Continuous
 62
     7
370
    13
100
AcDbLine
 10
102.8508222590365
 20
12.4492171787515
 30
0.0
 11
105.9281725282185
 21
14.22592618505541
 31
0.0
  0
LINE
  5
2C7
330
1F
100
AcDbEntity
  8
0
  6
Continuous
 62
     7
370
    13
100
AcDbLine
 10
105.7375736049864
 20
7.449217178751496
 30
0.0
 11
108.8149238741685
 21
9.22592618505314
 31
0.0
  0
LINE
  5
2C8
330
1F
100
AcDbEntity
  8
0
  6
Continuous
 62
     7
370
    13
100
AcDbLine
 10
101.4074465860645
 20
14.9492171787515
 30
0.0
 11
104.4847968552465
 21
16.72592618505541
 31
0.0
  0
LINE
  5
2C9
330
1F
100
AcDbEntity
  8
0
  6
Continuous
 62
     7
370
    13
100
AcDbLine
 10
110.2582995471535
 20
6.725926185059507
 30
0.0
 11
107.1809492779605
 21
4.949217178749223
 31
0.0
  0
LINE
  5
2CA
330
1F
100
AcDbEntity
  8
0
  6
Continuous
 62
     7
370
    13
100
AcDbLine
 10
101.4701598263355
 20
11.8405946602943
 30
0.0
 11
102.7691979320105
 21
12.5905946602943
 31
0.0
  0
LINE
  5
2CB
330
1F
100
AcDbEntity
  8
0
  6
Continuous
 62
     7
370
    13
100
AcDbLine
 10
104.5201598263354
 20
6.557839697208237
 30
0.0
 11
105.8191979320125
 21
7.307839697208237
 31
0.0
  0
LINE
  5
2CC
330
1F
100
AcDbEntity
  8
0
  6
Continuous
 62
     7
370
    13
100
AcDbLine
 10
107.3441979320135
 20
4.666462215667252
 30
0.0
 11
106.0451598263364
 21
3.916462215667252
 31
0.0
  0
LINE
  5
2CD
330
1F
100
AcDbEntity
  8
0
  6
Continuous
 62
     7
370
    13
100
AcDbLine
 10
99.94515982633743
 20
14.48197214183529
 30
0.0
 11
101.2441979320115
 21
15.23197214183529
 31
0.0
  0
LINE
  5
2CE
330
1F
100
AcDbEntity
  8
0
  6
Continuous
 62
     7
370
    13
100
AcDbLine
 10
100.0095191802804
 20
11.17049847086037
 30
0.0
 11
101.3951598263354
 21
11.97049847086009
 31
0.0
  0
LINE
  5
2CF
330
1F
100
AcDbEntity
  8
0
  6
Continuous
 62
     7
370
    13
100
AcDbLine
 10
103.2095191802784
 20
5.627935886642263
 30
0.0
 11
104.5951598263355
 21
6.427935886641535
 31
0.0
  0
LINE
  5
2D0
330
1F
100
AcDbEntity
  8
0
  6
Continuous
 62
     7
370
    13
100
AcDbLine
 10
106.1201598263365
 20
3.786558405099186
 30
0.0
 11
104.7345191802794
 21
2.986558405098094
 31
0.0
  0
LINE
  5
2D1
330
1F
100
AcDbEntity
  8
0
  6
Continuous
 62
     7
370
    13
100
AcDbLine
 10
99.87015982633443
 20
14.61187595240517
 30
0.0
 11
106.1201598263365
 21
3.786558405099186
 31
0.0
  0
LINE
  5
2D2
330
1F
100
AcDbEntity
  8
0
  6
Continuous
 62
     7
370
    13
100
AcDbLine
 10
98.48451918027945
 20
13.81187595240317
 30
0.0
 11
99.87015982633443
 21
14.61187595240517
 31
0.0
  0
LINE
  5
2D3
330
1F
100
AcDbEntity
  8
0
  6
Continuous
 62
     7
370
    13
100
AcDbLine
 10
-357.2348016419132
 20
565.249215759109
 30
0.0
 11
-357.2348016419132
 21
559.249215759109
 31
0.0
  0
LINE
  5
2D4
330
1F
100
AcDbEntity
  8
0
  6
Continuous
 62
     7
370
    13
100
AcDbLine
 10
-362.1727071542123
 20
557.9190887401861
 30
0.0
 11
-362.1727071542123
 21
566.5793427780301
 31
0.0
  0
LINE
  5
2D5
330
1F
100
AcDbEntity
  8
0
  6
Continuous
 62
     7
370
    13
100
AcDbLine
 10
-361.7261251668242
 20
565.1359671050571
 30
0.0
 11
-358.1727071542123
 21
565.1359671050571
 31
0.0
  0
LINE
  5
2D6
330
1F
100
AcDbEntity
  8
0
  6
Continuous
 62
     7
370
    13
100
AcDbLine
 10
-361.7261251668242
 20
559.36246441316
 30
0.0
 11
-358.1727071542123
 21
559.36246441316
 31
0.0
  0
LINE
  5
2D7
330
1F
100
AcDbEntity
  8
0
  6
Continuous
 62
     7
370
    13
100
AcDbLine
 10
-358.1727071542123
 20
565.249215759109
 30
0.0
 11
-344.1727071542123
 21
565.249215759109
 31
0.0
  0
LINE
  5
2D8
330
1F
100
AcDbEntity
  8
0
  6
Continuous
 62
     7
370
    13
100
AcDbLine
 10
-344.1727071542123
 20
565.249215759109
 30
0.0
 11
-343.1727071542123
 21
564.249215759109
 31
0.0
  0
LINE
  5
2D9
330
1F
100
AcDbEntity
  8
0
  6
Continuous
 62
     7
370
    13
100
AcDbLine
 10
-343.1727071542123
 20
564.249215759109
 30
0.0
 11
-343.1727071542123
 21
560.249215759109
 31
0.0
  0
LINE
  5
2DA
330
1F
100
AcDbEntity
  8
0
  6
Continuous
 62
     7
370
    13
100
AcDbLine
 10
-343.1727071542123
 20
560.249215759109
 30
0.0
 11
-344.1727071542123
 21
559.249215759109
 31
0.0
  0
LINE
  5
2DB
330
1F
100
AcDbEntity
  8
0
  6
Continuous
 62
     7
370
    13
100
AcDbLine
 10
-344.1727071542123
 20
559.249215759109
 30
0.0
 11
-358.1727071542123
 21
559.249215759109
 31
0.0
  0
LINE
  5
2DC
330
1F
100
AcDbEntity
  8
0
  6
Continuous
 62
     7
370
    13
100
AcDbLine
 10
-361.7261251668242
 20
568.0227184510051
 30
0.0
 11
-358.1727071542123
 21
568.0227184510051
 31
0.0
  0
LINE
  5
2DD
330
1F
100
AcDbEntity
  8
0
  6
Continuous
 62
     7
370
    13
100
AcDbLine
 10
-358.1727071542123
 20
556.475713067213
 30
0.0
 11
-361.7261251668242
 21
556.475713067213
 31
0.0
  0
LINE
  5
2DE
330
1F
100
AcDbEntity
  8
0
  6
Continuous
 62
     7
370
    13
100
AcDbLine
 10
-356.6727071542123
 20
556.1492157591091
 30
0.0
 11
-358.1727071542123
 21
556.1492157591091
 31
0.0
  0
LINE
  5
2DF
330
1F
100
AcDbEntity
  8
0
  6
Continuous
 62
     7
370
    13
100
AcDbLine
 10
-358.1727071542123
 20
556.1492157591091
 30
0.0
 11
-358.1727071542123
 21
568.3492157591091
 31
0.0
  0
LINE
  5
2E0
330
1F
100
AcDbEntity
  8
0
  6
Continuous
 62
     7
370
    13
100
AcDbLine
 10
-358.1727071542123
 20
568.3492157591091
 30
0.0
 11
-356.6727071542123
 21
568.3492157591091
 31
0.0
  0
LINE
  5
2E1
330
1F
100
AcDbEntity
  8
0
  6
Continuous
 62
     7
370
    13
100
AcDbLine
 10
-355.0727071542133
 20
555.999215759109
 30
0.0
 11
-356.6727071542123
 21
555.999215759109
 31
0.0
  0
LINE
  5
2E2
330
1F
100
AcDbEntity
  8
0
  6
Continuous
 62
     7
370
    13
100
AcDbLine
 10
-356.6727071542123
 20
555.999215759109
 30
0.0
 11
-356.6727071542123
 21
568.499215759109
 31
0.0
  0
LINE
  5
2E3
330
1F
100
AcDbEntity
  8
0
  6
Continuous
 62
     7
370
    13
100
AcDbLine
 10
-356.6727071542123
 20
568.499215759109
 30
0.0
 11
-355.0727071542133
 21
568.499215759109
 31
0.0
  0
LINE
  5
2E4
330
1F
100
AcDbEntity
  8
0
  6
Continuous
 62
     7
370
    13
100
AcDbLine
 10
-302.5723756815432
 20
494.749215759112
 30
0.0
 11
-351.0727071542133
 21
494.749215759114
 31
0.0
  0
LINE
  5
2E5
330
1F
100
AcDbEntity
  8
0
  6
Continuous
 62
     7
370
    13
100
AcDbLine
 10
-267.5727672565213
 20
629.7492157591101
 30
0.0
 11
-265.0699727440342
 21
629.7492157591101
 31
0.0
  0
LINE
  5
2E6
330
1F
100
AcDbEntity
  8
0
  6
Continuous
 62
     7
370
    13
100
AcDbLine
 10
62.42729537240643
 20
628.2492157590221
 30
0.0
 11
74.93002725593851
 21
628.2492157590231
 31
0.0
  0
LINE
  5
2E7
330
1F
100
AcDbEntity
  8
0
  6
Continuous
 62
     7
370
    13
100
AcDbLine
 10
62.42729537240643
 20
629.7492157590221
 30
0.0
 11
74.93002725593851
 21
629.7492157590231
 31
0.0
  0
LINE
  5
2E8
330
1F
100
AcDbEntity
  8
0
  6
Continuous
 62
     7
370
    13
100
AcDbLine
 10
27.42768694738447
 20
494.749215759019
 30
0.0
 11
23.9272928457865
 21
494.749215759019
 31
0.0
  0
LINE
  5
2E9
330
1F
100
AcDbEntity
  8
0
  6
Continuous
 62
     7
370
    13
100
AcDbLine
 10
62.42729537240643
 20
496.2492157590221
 30
0.0
 11
74.93002725593851
 21
496.2492157590231
 31
0.0
  0
LINE
  5
2EA
330
1F
100
AcDbEntity
  8
0
  6
Continuous
 62
     7
370
    13
100
AcDbLine
 10
92.34813590527051
 20
-42.55851621406532
 30
0.0
 11
112.6992651424155
 21
-30.80878627068887
 31
0.0
  0
LINE
  5
2EB
330
1F
100
AcDbEntity
  8
0
  6
Continuous
 62
     7
370
    13
100
AcDbLine
 10
-223.9137198490685
 20
-132.7763406979636
 30
0.0
 11
-221.7493637728211
 21
-131.526749134723
 31
0.0
  0
LINE
  5
2EC
330
1F
100
AcDbEntity
  8
0
  6
Continuous
 62
     7
370
    13
100
AcDbLine
 10
-281.7247274540482
 20
-102.6450118896946
 30
0.0
 11
-323.7275116641313
 21
-126.8953306600906
 31
0.0
  0
LINE
  5
2ED
330
1F
100
AcDbEntity
  8
0
  6
Continuous
 62
     7
370
    13
100
AcDbLine
 10
46.81349075812545
 20
-11.69027919751989
 30
0.0
 11
43.7819695494245
 21
-13.44052878340972
 31
0.0
  0
LINE
  5
2EE
330
1F
100
AcDbEntity
  8
0
  6
Continuous
 62
     7
370
    13
100
AcDbLine
 10
91.41336675756452
 20
14.05947121659926
 30
0.0
 11
116.1633667575195
 21
-28.80878627060974
 31
0.0
  0
LINE
  5
2EF
330
1F
100
AcDbEntity
  8
0
  6
Continuous
 62
     7
370
    13
100
AcDbLine
 10
87.9492651424705
 20
12.05947121652116
 30
0.0
 11
91.41336675756452
 21
14.05947121659926
 31
0.0
  0
LINE
  5
2F0
330
1F
100
AcDbEntity
  8
0
  6
Continuous
 62
     7
370
    13
100
AcDbLine
 10
716.7741710868895
 20
24.64792848476827
 30
0.0
 11
676.7184257602835
 21
24.64792848476827
 31
0.0
  0
LINE
  5
2F1
330
1F
100
AcDbEntity
  8
0
  6
Continuous
 62
     7
370
    13
100
AcDbLine
 10
23.9272928457865
 20
627.249215759034
 30
0.0
 11
23.9272928457865
 21
629.749215759019
 31
0.0
  0
LINE
  5
2F2
330
1F
100
AcDbEntity
  8
0
  6
Continuous
 62
     7
370
    13
100
AcDbLine
 10
78.93002725595147
 20
617.2492157590231
 30
0.0
 11
78.93002725595147
 21
629.7492157589371
 31
0.0
  0
LINE
  5
2F3
330
1F
100
AcDbEntity
  8
0
  6
Continuous
 62
     7
370
    13
100
AcDbLine
 10
74.93002725593851
 20
507.2492157591101
 30
0.0
 11
74.93002725593851
 21
494.7492157590231
 31
0.0
  0
LINE
  5
2F4
330
1F
100
AcDbEntity
  8
0
  6
Continuous
 62
     7
370
    13
100
AcDbLine
 10
23.9272928457865
 20
628.249215759019
 30
0.0
 11
27.42768694738447
 21
628.249215759019
 31
0.0
  0
LINE
  5
2F5
330
1F
100
AcDbEntity
  8
0
  6
Continuous
 62
     7
370
    13
100
AcDbLine
 10
23.9272928457865
 20
496.249215759019
 30
0.0
 11
27.42768694738447
 21
496.249215759019
 31
0.0
  0
LINE
  5
2F6
330
1F
100
AcDbEntity
  8
0
  6
Continuous
 62
     7
370
    13
100
AcDbLine
 10
78.93002725595147
 20
494.7492157589371
 30
0.0
 11
74.93002725593851
 21
494.7492157590231
 31
0.0
  0
LINE
  5
2F7
330
1F
100
AcDbEntity
  8
0
  6
Continuous
 62
     7
370
    13
100
AcDbLine
 10
78.93002725595147
 20
494.7492157589371
 30
0.0
 11
78.93002725595147
 21
507.2492157590231
 31
0.0
  0
LINE
  5
2F8
330
1F
100
AcDbEntity
  8
0
  6
Continuous
 62
     7
370
    13
100
AcDbLine
 10
78.93002725595147
 20
629.7492157589371
 30
0.0
 11
74.93002725593851
 21
629.7492157590231
 31
0.0
  0
LINE
  5
2F9
330
1F
100
AcDbEntity
  8
0
  6
Continuous
 62
     7
370
    13
100
AcDbLine
 10
23.9272928457865
 20
494.749215759019
 30
0.0
 11
23.9272928457865
 21
497.249215759034
 31
0.0
  0
LINE
  5
2FA
330
1F
100
AcDbEntity
  8
0
  6
Continuous
 62
     7
370
    13
100
AcDbLine
 10
23.9272928457865
 20
629.749215759019
 30
0.0
 11
27.42768694738447
 21
629.749215759019
 31
0.0
  0
LINE
  5
2FB
330
1F
100
AcDbEntity
  8
0
  6
Continuous
 62
     7
370
    13
100
AcDbLine
 10
74.93002725593851
 20
629.7492157590231
 30
0.0
 11
74.93002725593851
 21
617.2492157591101
 31
0.0
  0
LINE
  5
2FC
330
1F
100
AcDbEntity
  8
0
  6
Continuous
 62
     7
370
    13
100
AcDbLine
 10
74.93002725593851
 20
494.7492157590231
 30
0.0
 11
62.42729537240643
 21
494.7492157590221
 31
0.0
  0
LINE
  5
2FD
330
1F
100
AcDbEntity
  8
0
  6
Continuous
 62
     7
370
    13
100
AcDbLine
 10
-265.0699727440342
 20
494.7492157591101
 30
0.0
 11
-267.5727672565213
 21
494.7492157591101
 31
0.0
  0
LINE
  5
2FE
330
1F
100
AcDbEntity
  8
0
  6
Continuous
 62
     7
370
    13
100
AcDbLine
 10
-351.0727071542133
 20
494.749215759114
 30
0.0
 11
-351.0727071542133
 21
629.749215759114
 31
0.0
  0
LINE
  5
2FF
330
1F
100
AcDbEntity
  8
0
  6
Continuous
 62
     7
370
    13
100
AcDbLine
 10
-351.0727071542133
 20
629.749215759114
 30
0.0
 11
-302.5723756815432
 21
629.749215759112
 31
0.0
  0
LINE
  5
300
330
1F
100
AcDbEntity
  8
0
  6
Continuous
 62
     7
370
    13
100
AcDbLine
 10
-265.0699727440342
 20
629.7492157591101
 30
0.0
 11
-265.0699727440342
 21
494.7492157591101
 31
0.0
  0
LINE
  5
301
330
1F
100
AcDbEntity
  8
0
  6
Continuous
 62
     7
370
    13
100
AcDbLine
 10
-351.0727071542133
 20
629.749215759114
 30
0.0
 11
-355.0727071542133
 21
629.749215759114
 31
0.0
  0
LINE
  5
302
330
1F
100
AcDbEntity
  8
0
  6
Continuous
 62
     7
370
    13
100
AcDbLine
 10
-355.0727071542133
 20
629.749215759114
 30
0.0
 11
-355.0727071542133
 21
494.749215759114
 31
0.0
  0
LINE
  5
303
330
1F
100
AcDbEntity
  8
0
  6
Continuous
 62
     7
370
    13
100
AcDbLine
 10
-351.0727071542133
 20
494.749215759114
 30
0.0
 11
-355.0727071542133
 21
494.749215759114
 31
0.0
  0
LINE
  5
304
330
1F
100
AcDbEntity
  8
0
  6
Continuous
 62
     7
370
    13
100
AcDbLine
 10
-327.1916132792412
 20
-128.8953306601397
 30
0.0
 11
-323.7275116641313
 21
-126.8953306600906
 31
0.0
  0
LINE
  5
305
330
1F
100
AcDbEntity
  8
0
  6
Continuous
 62
     7
370
    13
100
AcDbLine
 10
-323.7275116641313
 20
-126.8953306600906
 30
0.0
 11
-296.2275484983492
 21
-174.526749134663
 31
0.0
  0
LINE
  5
306
330
1F
100
AcDbEntity
  8
0
  6
Continuous
 62
     7
370
    13
100
AcDbLine
 10
-296.2275484983492
 20
-174.526749134663
 30
0.0
 11
-299.69165011346
 21
-176.5267491347071
 31
0.0
  0
LINE
  5
307
330
1F
100
AcDbEntity
  8
0
  6
Continuous
 62
     7
370
    13
100
AcDbLine
 10
-299.69165011346
 20
-176.5267491347071
 30
0.0
 11
-327.1916132792412
 21
-128.8953306601397
 31
0.0
  0
LINE
  5
308
330
1F
100
AcDbEntity
  8
0
  6
Continuous
 62
     7
370
    13
100
AcDbLine
 10
-296.2275484983492
 20
-174.526749134663
 30
0.0
 11
-254.2246196810181
 21
-150.2763468752796
 31
0.0
  0
LINE
  5
309
330
1F
100
AcDbEntity
  8
0
  6
Continuous
 62
     7
370
    13
100
AcDbLine
 10
-221.7493637728211
 20
-131.526749134723
 30
0.0
 11
-249.2493269386291
 21
-83.8953306600838
 31
0.0
  0
LINE
  5
30A
330
1F
100
AcDbEntity
  8
0
  6
Continuous
 62
     7
370
    13
100
AcDbLine
 10
-249.2493269386291
 20
-83.8953306600838
 30
0.0
 11
-251.4138276221142
 21
-85.14500571235476
 31
0.0
  0
LINE
  5
30B
330
1F
100
AcDbEntity
  8
0
  6
Continuous
 62
     7
370
    13
100
AcDbLine
 10
68.53196954940745
 20
-56.30878627068569
 30
0.0
 11
81.08980565602246
 21
-49.05851621409352
 31
0.0
  0
LINE
  5
30C
330
1F
100
AcDbEntity
  8
0
  6
Continuous
 62
     7
370
    13
100
AcDbLine
 10
43.7819695494245
 20
-13.44052878340972
 30
0.0
 11
68.53196954940745
 21
-56.30878627068569
 31
0.0
  0
LINE
  5
30D
330
1F
100
AcDbEntity
  8
0
  6
Continuous
 62
     7
370
    13
100
AcDbLine
 10
87.9492651424705
 20
12.05947121652116
 30
0.0
 11
77.12439059008443
 21
5.809726979778134
 31
0.0
  0
LINE
  5
30E
330
1F
100
AcDbEntity
  8
0
  6
Continuous
 62
     7
370
    13
100
AcDbLine
 10
112.6992651424155
 20
-30.80878627068887
 30
0.0
 11
87.9492651424705
 21
12.05947121652116
 31
0.0
  0
LINE
  5
30F
330
1F
100
AcDbEntity
  8
0
  6
Continuous
 62
     7
370
    13
100
AcDbLine
 10
116.1633667575195
 20
-28.80878627060974
 30
0.0
 11
112.6992651424155
 21
-30.80878627068887
 31
0.0
  0
LINE
  5
310
330
1F
100
AcDbEntity
  8
0
  6
Continuous
 62
     7
370
    13
100
AcDbLine
 10
-789.6132015909302
 20
-169.8520715153018
 30
0.0
 11
-656.9482099767124
 21
-169.8520715153018
 31
0.0
  0
LINE
  5
311
330
1F
100
AcDbEntity
  8
0
  6
Continuous
 62
     7
370
    13
100
AcDbLine
 10
626.7184257602835
 20
24.64792848476827
 30
0.0
 11
586.6626804336775
 21
24.64792848476827
 31
0.0
  0
LINE
  5
312
330
1F
100
AcDbEntity
  8
0
  6
Continuous
 62
     7
370
    13
100
AcDbLine
 10
27.42768694738447
 20
476.7492157590769
 30
0.0
 11
62.42729537240643
 21
476.7492157590769
 31
0.0
  0
LINE
  5
313
330
1F
100
AcDbEntity
  8
0
  6
Continuous
 62
     7
370
    13
100
AcDbLine
 10
62.42729537240643
 20
476.7492157590769
 30
0.0
 11
62.42729537240643
 21
647.749215759077
 31
0.0
  0
LINE
  5
314
330
1F
100
AcDbEntity
  8
0
  6
Continuous
 62
     7
370
    13
100
AcDbLine
 10
62.42729537240643
 20
647.749215759077
 30
0.0
 11
27.42768694738447
 21
647.749215759077
 31
0.0
  0
LINE
  5
315
330
1F
100
AcDbEntity
  8
0
  6
Continuous
 62
     7
370
    13
100
AcDbLine
 10
27.42768694738447
 20
647.749215759077
 30
0.0
 11
27.42768694738447
 21
476.7492157590769
 31
0.0
  0
LINE
  5
316
330
1F
100
AcDbEntity
  8
0
  6
Continuous
 62
     7
370
    13
100
AcDbLine
 10
82.14805826241445
 20
-24.89164280406158
 30
0.0
 11
97.34817396557946
 21
-51.21874827793954
 31
0.0
  0
LINE
  5
317
330
1F
100
AcDbEntity
  8
0
  6
Continuous
 62
     7
370
    13
100
AcDbLine
 10
82.14830564720046
 20
-24.8914999763897
 30
0.0
 11
70.88997539795446
 21
-31.39149997641789
 31
0.0
  0
LINE
  5
318
330
1F
100
AcDbEntity
  8
0
  6
Continuous
 62
     7
370
    13
100
AcDbLine
 10
86.08984371633346
 20
-57.71874827797274
 30
0.0
 11
70.88972801316845
 21
-31.39164280409068
 31
0.0
  0
LINE
  5
319
330
1F
100
AcDbEntity
  8
0
  6
Continuous
 62
     7
370
    13
100
AcDbLine
 10
1.563310246888477
 20
66.68491562675354
 30
0.0
 11
71.36358869295645
 21
-54.21206998063872
 31
0.0
  0
LINE
  5
31A
330
1F
100
AcDbEntity
  8
0
  6
Continuous
 62
     7
370
    13
100
AcDbLine
 10
71.36358869295645
 20
-54.21206998063872
 30
0.0
 11
80.88979771384652
 21
-48.71211063807277
 31
0.0
  0
LINE
  5
31B
330
1F
100
AcDbEntity
  8
0
  6
Continuous
 62
     7
370
    13
100
AcDbLine
 10
92.14812796309548
 20
-42.21211063804367
 30
0.0
 11
101.6744885248875
 21
-36.71206380329568
 31
0.0
  0
LINE
  5
31C
330
1F
100
AcDbEntity
  8
0
  6
Continuous
 62
     7
370
    13
100
AcDbLine
 10
101.6744885248875
 20
-36.71206380329568
 30
0.0
 11
31.87421007881949
 21
84.1849218040984
 31
0.0
  0
LINE
  5
31D
330
1F
100
AcDbEntity
  8
0
  6
Continuous
 62
     7
370
    13
100
AcDbLine
 10
31.87421007881949
 20
84.1849218040984
 30
0.0
 11
1.563310246888477
 21
66.68491562675354
 31
0.0
  0
LINE
  5
31E
330
1F
100
AcDbEntity
  8
0
  6
Continuous
 62
     7
370
    13
100
AcDbLine
 10
-302.5723756815432
 20
647.749215759077
 30
0.0
 11
-302.5723756815432
 21
476.7492157590769
 31
0.0
  0
LINE
  5
31F
330
1F
100
AcDbEntity
  8
0
  6
Continuous
 62
     7
370
    13
100
AcDbLine
 10
-267.5727672565213
 20
647.749215759077
 30
0.0
 11
-302.5723756815432
 21
647.749215759077
 31
0.0
  0
LINE
  5
320
330
1F
100
AcDbEntity
  8
0
  6
Continuous
 62
     7
370
    13
100
AcDbLine
 10
-267.5727672565213
 20
476.7492157590769
 30
0.0
 11
-267.5727672565213
 21
647.749215759077
 31
0.0
  0
LINE
  5
321
330
1F
100
AcDbEntity
  8
0
  6
Continuous
 62
     7
370
    13
100
AcDbLine
 10
-302.5723756815432
 20
476.7492157590769
 30
0.0
 11
-267.5727672565213
 21
476.7492157590769
 31
0.0
  0
LINE
  5
322
330
1F
100
AcDbEntity
  8
0
  6
Continuous
 62
     7
370
    13
100
AcDbLine
 10
-255.1638423183763
 20
-78.64982366897175
 30
0.0
 11
-285.4747421503084
 21
-96.14982984631752
 31
0.0
  0
LINE
  5
323
330
1F
100
AcDbEntity
  8
0
  6
Continuous
 62
     7
370
    13
100
AcDbLine
 10
-184.1135638722357
 20
-201.7118727859529
 30
0.0
 11
-255.1638423183763
 21
-78.64982366897175
 31
0.0
  0
LINE
  5
324
330
1F
100
AcDbEntity
  8
0
  6
Continuous
 62
     7
370
    13
100
AcDbLine
 10
-193.6399244340276
 20
-207.2119196207027
 30
0.0
 11
-184.1135638722357
 21
-201.7118727859529
 31
0.0
  0
LINE
  5
325
330
1F
100
AcDbEntity
  8
0
  6
Continuous
 62
     7
370
    13
100
AcDbLine
 10
-214.4244637041693
 20
-219.2118789632977
 30
0.0
 11
-204.8982546832783
 21
-213.7119196207318
 31
0.0
  0
LINE
  5
326
330
1F
100
AcDbEntity
  8
0
  6
Continuous
 62
     7
370
    13
100
AcDbLine
 10
-285.4747421503084
 20
-96.14982984631752
 30
0.0
 11
-214.4244637041693
 21
-219.2118789632977
 31
0.0
  0
LINE
  5
327
330
1F
100
AcDbEntity
  8
0
  6
Continuous
 62
     7
370
    13
100
AcDbLine
 10
-199.6982086807882
 20
-222.7185572606295
 30
0.0
 11
-214.8983243839573
 21
-196.3914517867497
 31
0.0
  0
LINE
  5
328
330
1F
100
AcDbEntity
  8
0
  6
Continuous
 62
     7
370
    13
100
AcDbLine
 10
-203.6397467499232
 20
-189.8913089590487
 30
0.0
 11
-214.8980769991692
 21
-196.3913089590756
 31
0.0
  0
LINE
  5
329
330
1F
100
AcDbEntity
  8
0
  6
Continuous
 62
     7
370
    13
100
AcDbLine
 10
-203.6399941347092
 20
-189.8914517867197
 30
0.0
 11
-188.4398784315467
 21
-216.2185572605977
 31
0.0
  0
LINE
  5
32A
330
1F
100
AcDbEntity
  8
0
  6
Continuous
 62
     7
370
    13
100
AcDbLine
 10
721.3564787793605
 20
34.67637105727727
 30
0.0
 11
727.4573807717125
 21
-25.05725780914372
 31
0.0
  0
LINE
  5
32B
330
1F
100
AcDbEntity
  8
0
  6
Continuous
 62
     7
370
    13
100
AcDbLine
 10
727.4573807717125
 20
-25.05725780914372
 30
0.0
 11
737.4193277526294
 21
-24.18570038166581
 31
0.0
  0
LINE
  5
32C
330
1F
100
AcDbEntity
  8
0
  6
Continuous
 62
     7
370
    13
100
AcDbLine
 10
737.4193277526294
 20
-24.18570038166581
 30
0.0
 11
731.3184257602775
 21
35.54792848475518
 31
0.0
  0
LINE
  5
32D
330
1F
100
AcDbEntity
  8
0
  6
Continuous
 62
     7
370
    13
100
AcDbLine
 10
582.0803727411965
 20
34.67637105727954
 30
0.0
 11
575.9794707488595
 21
-25.05725780914372
 31
0.0
  0
LINE
  5
32E
330
1F
100
AcDbEntity
  8
0
  6
Continuous
 62
     7
370
    13
100
AcDbLine
 10
575.9794707488595
 20
-25.05725780914372
 30
0.0
 11
566.0175237679405
 21
-24.18570038166672
 31
0.0
  0
LINE
  5
32F
330
1F
100
AcDbEntity
  8
0
  6
Continuous
 62
     7
370
    13
100
AcDbLine
 10
566.0175237679405
 20
-24.18570038166672
 30
0.0
 11
572.1184257602795
 21
35.54792848475518
 31
0.0
  0
LINE
  5
330
330
1F
100
AcDbEntity
  8
0
  6
Continuous
 62
     7
370
    13
100
AcDbLine
 10
757.2184257602785
 20
-30.35207151523582
 30
0.0
 11
722.7184257602785
 21
-30.35207151523582
 31
0.0
  0
LINE
  5
331
330
1F
100
AcDbEntity
  8
0
  6
Continuous
 62
     7
370
    13
100
AcDbLine
 10
546.2184257602785
 20
-30.35207151523582
 30
0.0
 11
546.2184257602785
 21
-34.85207151523582
 31
0.0
  0
LINE
  5
332
330
1F
100
AcDbEntity
  8
0
  6
Continuous
 62
     7
370
    13
100
AcDbLine
 10
757.2184257602785
 20
-34.85207151523582
 30
0.0
 11
757.2184257602785
 21
-30.35207151523582
 31
0.0
  0
LINE
  5
333
330
1F
100
AcDbEntity
  8
0
  6
Continuous
 62
     7
370
    13
100
AcDbLine
 10
580.7184257602785
 20
-24.85207151523582
 30
0.0
 11
722.7184257602785
 21
-24.85207151523582
 31
0.0
  0
LINE
  5
334
330
1F
100
AcDbEntity
  8
0
  6
Continuous
 62
     7
370
    13
100
AcDbLine
 10
722.7184257602785
 20
-24.85207151523582
 30
0.0
 11
722.7184257602785
 21
-34.85207151523582
 31
0.0
  0
LINE
  5
335
330
1F
100
AcDbEntity
  8
0
  6
Continuous
 62
     7
370
    13
100
AcDbLine
 10
580.7184257602785
 20
-34.85207151523582
 30
0.0
 11
580.7184257602785
 21
-24.85207151523582
 31
0.0
  0
LINE
  5
336
330
1F
100
AcDbEntity
  8
0
  6
Continuous
 62
     7
370
    13
100
AcDbLine
 10
580.7184257602785
 20
-30.35207151523582
 30
0.0
 11
546.2184257602785
 21
-30.35207151523582
 31
0.0
  0
LINE
  5
337
330
1F
100
AcDbEntity
  8
0
  6
Continuous
 62
     7
370
    13
100
AcDbLine
 10
-345.0699727440942
 20
494.7492157589371
 30
0.0
 11
-345.0699727440942
 21
455.449215759115
 31
0.0
  0
LINE
  5
338
330
1F
100
AcDbEntity
  8
0
  6
Continuous
 62
     7
370
    13
100
AcDbLine
 10
74.93002725596148
 20
629.7492157589371
 30
0.0
 11
74.93002725596148
 21
682.2492157591101
 31
0.0
  0
LINE
  5
339
330
1F
100
AcDbEntity
  8
0
  6
Continuous
 62
     7
370
    13
100
AcDbLine
 10
37.9302066129485
 20
655.7492157590781
 30
0.0
 11
37.9302066129485
 21
649.7492157590781
 31
0.0
  0
LINE
  5
33A
330
1F
100
AcDbEntity
  8
0
  6
Continuous
 62
     7
370
    13
100
AcDbLine
 10
51.93020661294645
 20
655.7492157590781
 30
0.0
 11
51.93020661294645
 21
649.7492157590781
 31
0.0
  0
LINE
  5
33B
330
1F
100
AcDbEntity
  8
0
  6
Continuous
 62
     7
370
    13
100
AcDbLine
 10
-292.0698560159763
 20
655.7492157590781
 30
0.0
 11
-292.0698560159763
 21
649.7492157590781
 31
0.0
  0
LINE
  5
33C
330
1F
100
AcDbEntity
  8
0
  6
Continuous
 62
     7
370
    13
100
AcDbLine
 10
-278.0698560159763
 20
655.7492157590781
 30
0.0
 11
-278.0698560159763
 21
649.7492157590781
 31
0.0
  0
LINE
  5
33D
330
1F
100
AcDbEntity
  8
0
  6
Continuous
 62
     7
370
    13
100
AcDbLine
 10
-278.0698560159763
 20
474.7492157590781
 30
0.0
 11
-278.0698560159763
 21
468.7492157590751
 31
0.0
  0
LINE
  5
33E
330
1F
100
AcDbEntity
  8
0
  6
Continuous
 62
     7
370
    13
100
AcDbLine
 10
-292.0698560159763
 20
474.7492157590781
 30
0.0
 11
-292.0698560159763
 21
468.7492157590751
 31
0.0
  0
LINE
  5
33F
330
1F
100
AcDbEntity
  8
0
  6
Continuous
 62
     7
370
    13
100
AcDbLine
 10
51.93020661294645
 20
474.7492157590781
 30
0.0
 11
51.93020661294645
 21
468.7492157590751
 31
0.0
  0
LINE
  5
340
330
1F
100
AcDbEntity
  8
0
  6
Continuous
 62
     7
370
    13
100
AcDbLine
 10
37.9302066129485
 20
474.7492157590781
 30
0.0
 11
37.9302066129485
 21
468.7492157590751
 31
0.0
  0
LINE
  5
341
330
1F
100
AcDbEntity
  8
0
  6
Continuous
 62
     7
370
    13
100
AcDbLine
 10
74.93002725596148
 20
682.2492157591101
 30
0.0
 11
-270.0699727440924
 21
682.2492157591101
 31
0.0
  0
LINE
  5
342
330
1F
100
AcDbEntity
  8
0
  6
Continuous
 62
     7
370
    13
100
AcDbLine
 10
-270.0699727440992
 20
679.049215759111
 30
0.0
 11
-335.0699727440942
 21
679.049215759111
 31
0.0
  0
LINE
  5
343
330
1F
100
AcDbEntity
  8
0
  6
Continuous
 62
     7
370
    13
100
AcDbLine
 10
-270.0699727440924
 20
445.449215759115
 30
0.0
 11
-270.0699727440924
 21
442.249215759112
 31
0.0
  0
LINE
  5
344
330
1F
100
AcDbEntity
  8
0
  6
Continuous
 62
     7
370
    13
100
AcDbLine
 10
74.93002725596148
 20
442.249215759112
 30
0.0
 11
74.93002725596148
 21
494.7492157589371
 31
0.0
  0
LINE
  5
345
330
1F
100
AcDbEntity
  8
0
  6
Continuous
 62
     7
370
    13
100
AcDbLine
 10
-270.0699727440924
 20
442.249215759112
 30
0.0
 11
74.93002725596148
 21
442.249215759112
 31
0.0
  0
LINE
  5
346
330
1F
100
AcDbEntity
  8
0
  6
Continuous
 62
     7
370
    13
100
AcDbLine
 10
-335.0699727440942
 20
445.449215759115
 30
0.0
 11
-270.0699727440924
 21
445.449215759115
 31
0.0
  0
LINE
  5
347
330
1F
100
AcDbEntity
  8
0
  6
Continuous
 62
     7
370
    13
100
AcDbLine
 10
-270.0699727440924
 20
682.2492157591101
 30
0.0
 11
-270.0699727440992
 21
679.049215759111
 31
0.0
  0
LINE
  5
348
330
1F
100
AcDbEntity
  8
0
  6
Continuous
 62
     7
370
    13
100
AcDbLine
 10
-345.0699727440942
 20
669.049215759111
 30
0.0
 11
-345.0699727440942
 21
629.7492157589371
 31
0.0
  0
LINE
  5
349
330
1F
100
AcDbEntity
  8
0
  6
Continuous
 62
     7
370
    13
100
AcDbLine
 10
536.5184257602834
 20
-38.05207151523473
 30
0.0
 11
766.9184257602824
 21
-38.05207151523473
 31
0.0
  0
LINE
  5
34A
330
1F
100
AcDbEntity
  8
0
  6
Continuous
 62
     7
370
    13
100
AcDbLine
 10
534.9184257602844
 20
-129.8520715152358
 30
0.0
 11
534.9184257602844
 21
-39.65207151523646
 31
0.0
  0
LINE
  5
34B
330
1F
100
AcDbEntity
  8
0
  6
Continuous
 62
     7
370
    13
100
AcDbLine
 10
531.7184257602835
 20
-129.8520715152358
 30
0.0
 11
534.9184257602844
 21
-129.8520715152358
 31
0.0
  0
LINE
  5
34C
330
1F
100
AcDbEntity
  8
0
  6
Continuous
 62
     7
370
    13
100
AcDbLine
 10
531.7184257602835
 20
-38.05207151523473
 30
0.0
 11
531.7184257602835
 21
-129.8520715152358
 31
0.0
  0
LINE
  5
34D
330
1F
100
AcDbEntity
  8
0
  6
Continuous
 62
     7
370
    13
100
AcDbLine
 10
768.5184257602814
 20
-34.85207151523582
 30
0.0
 11
534.9184257602844
 21
-34.85207151523582
 31
0.0
  0
LINE
  5
34E
330
1F
100
AcDbEntity
  8
0
  6
Continuous
 62
     7
370
    13
100
AcDbLine
 10
771.7184257602835
 20
-129.8520715152358
 30
0.0
 11
771.7184257602835
 21
-38.05207151523473
 31
0.0
  0
LINE
  5
34F
330
1F
100
AcDbEntity
  8
0
  6
Continuous
 62
     7
370
    13
100
AcDbLine
 10
768.5184257602814
 20
-129.8520715152358
 30
0.0
 11
771.7184257602835
 21
-129.8520715152358
 31
0.0
  0
LINE
  5
350
330
1F
100
AcDbEntity
  8
0
  6
Continuous
 62
     7
370
    13
100
AcDbLine
 10
768.5184257602814
 20
-39.65207151523646
 30
0.0
 11
768.5184257602814
 21
-129.8520715152358
 31
0.0
  0
LINE
  5
351
330
1F
100
AcDbEntity
  8
0
  6
Continuous
 62
     7
370
    13
100
AcDbLine
 10
-246.0314044470442
 20
-249.4690403086138
 30
0.0
 11
-244.4314044470411
 21
-252.2403216007247
 31
0.0
  0
LINE
  5
352
330
1F
100
AcDbEntity
  8
0
  6
Continuous
 62
     7
370
    13
100
AcDbLine
 10
-181.0794991632185
 20
-211.9690403086029
 30
0.0
 11
-163.1564764662785
 21
-243.0126262448957
 31
0.0
  0
LINE
  5
353
330
1F
100
AcDbEntity
  8
0
  6
Continuous
 62
     7
370
    13
100
AcDbLine
 10
-244.4314044470411
 20
-252.2403216007247
 30
0.0
 11
-179.4794991632175
 21
-214.7403216007115
 31
0.0
  0
LINE
  5
354
330
1F
100
AcDbEntity
  8
0
  6
Continuous
 62
     7
370
    13
100
AcDbLine
 10
-246.0314044470442
 20
-249.4690403086138
 30
0.0
 11
117.6992651424684
 21
-39.46904030856786
 31
0.0
  0
LINE
  5
355
330
1F
100
AcDbEntity
  8
0
  6
Continuous
 62
     7
370
    13
100
AcDbLine
 10
117.6992651424684
 20
-39.46904030856786
 30
0.0
 11
125.6992651423955
 21
-53.3254467689967
 31
0.0
  0
LINE
  5
356
330
1F
100
AcDbEntity
  8
0
  6
Continuous
 62
     7
370
    13
100
AcDbLine
 10
125.6992651423955
 20
-53.3254467689967
 30
0.0
 11
160.1992651424985
 21
-113.0811996302227
 31
0.0
  0
LINE
  5
357
330
1F
100
AcDbEntity
  8
0
  6
Continuous
 62
     7
370
    13
100
AcDbLine
 10
156.5390111046624
 20
-126.7414536680699
 30
0.0
 11
122.6984105500264
 21
-146.2793335078536
 31
0.0
  0
LINE
  5
358
330
1F
100
AcDbEntity
  8
0
  6
Continuous
 62
     7
370
    13
100
AcDbLine
 10
121.0264396522475
 20
-147.0490435364727
 30
0.0
 11
-157.1623348962426
 21
-245.2276082781268
 31
0.0
  0
LINE
  5
359
330
1F
100
AcDbEntity
  8
0
  6
Continuous
 62
     7
370
    13
100
AcDbLine
 10
6.563330192874446
 20
58.02467310474731
 30
0.0
 11
-246.7493304861173
 21
-88.22545972731768
 31
0.0
  0
LINE
  5
35A
330
1F
100
AcDbEntity
  8
0
  6
Continuous
 62
     7
370
    13
100
AcDbLine
 10
-265.0699753051322
 20
497.249215759094
 30
0.0
 11
27.42735615294146
 21
497.249215759034
 31
0.0
  0
LINE
  5
35B
330
1F
100
AcDbEntity
  8
0
  6
Continuous
 62
     7
370
    13
100
AcDbLine
 10
87.94926514243343
 20
12.05947121659119
 30
0.0
 11
47.69926514242843
 21
81.77451622122453
 31
0.0
  0
LINE
  5
35C
330
1F
100
AcDbEntity
  8
0
  6
Continuous
 62
     7
370
    13
100
AcDbLine
 10
-284.7814044470592
 20
-182.3520715153027
 30
0.0
 11
-253.5314044470515
 21
-236.4786592518285
 31
0.0
  0
LINE
  5
35D
330
1F
100
AcDbEntity
  8
0
  6
Continuous
 62
     7
370
    13
100
AcDbLine
 10
47.69926514242843
 20
81.77451622122453
 30
0.0
 11
36.8742300248075
 21
75.52467928208353
 31
0.0
  0
LINE
  5
35E
330
1F
100
AcDbEntity
  8
0
  6
Continuous
 62
     7
370
    13
100
AcDbLine
 10
-253.5314044470515
 20
-236.4786592518285
 30
0.0
 11
-216.7244727179102
 21
-215.2281673099665
 31
0.0
  0
LINE
  5
35F
330
1F
100
AcDbEntity
  8
0
  6
Continuous
 62
     7
370
    13
100
AcDbLine
 10
74.93002725593851
 20
497.2492157590251
 30
0.0
 11
74.93002725593851
 21
627.249215759087
 31
0.0
  0
LINE
  5
360
330
1F
100
AcDbEntity
  8
0
  6
Continuous
 62
     7
370
    13
100
AcDbLine
 10
74.93002725593851
 20
627.249215759087
 30
0.0
 11
62.42729537240643
 21
627.249215759089
 31
0.0
  0
LINE
  5
361
330
1F
100
AcDbEntity
  8
0
  6
Continuous
 62
     7
370
    13
100
AcDbLine
 10
-186.4135728859757
 20
-197.7281611326207
 30
0.0
 11
66.03196954944246
 21
-51.9786592518285
 31
0.0
  0
LINE
  5
362
330
1F
100
AcDbEntity
  8
0
  6
Continuous
 62
     7
370
    13
100
AcDbLine
 10
27.42735615294146
 20
627.249215759097
 30
0.0
 11
-265.0699753051322
 21
627.249215759154
 31
0.0
  0
LINE
  5
363
330
1F
100
AcDbEntity
  8
0
  6
Continuous
 62
     7
370
    13
100
AcDbLine
 10
62.42729537240643
 20
497.2492157590272
 30
0.0
 11
74.93002725593851
 21
497.2492157590251
 31
0.0
  0
LINE
  5
364
330
1F
100
AcDbEntity
  8
0
  6
Continuous
 62
     7
370
    13
100
AcDbLine
 10
722.2184257602814
 20
-54.85207151523582
 30
0.0
 11
722.2184257602814
 21
-124.8520715152358
 31
0.0
  0
LINE
  5
365
330
1F
100
AcDbEntity
  8
0
  6
Continuous
 62
     7
370
    13
100
AcDbLine
 10
717.7184257602814
 20
-124.8520715152358
 30
0.0
 11
717.7184257602814
 21
-54.85207151523582
 31
0.0
  0
LINE
  5
366
330
1F
100
AcDbEntity
  8
0
  6
Continuous
 62
     7
370
    13
100
AcDbLine
 10
717.7184257602814
 20
-54.85207151523582
 30
0.0
 11
768.5184257602814
 21
-54.85207151523582
 31
0.0
  0
LINE
  5
367
330
1F
100
AcDbEntity
  8
0
  6
Continuous
 62
     7
370
    13
100
AcDbLine
 10
768.5184257602814
 20
-124.8520715152358
 30
0.0
 11
717.7184257602814
 21
-124.8520715152358
 31
0.0
  0
LINE
  5
368
330
1F
100
AcDbEntity
  8
0
  6
Continuous
 62
     7
370
    13
100
AcDbLine
 10
585.7184257602835
 20
-124.8520715152358
 30
0.0
 11
534.9184257602844
 21
-124.8520715152358
 31
0.0
  0
LINE
  5
369
330
1F
100
AcDbEntity
  8
0
  6
Continuous
 62
     7
370
    13
100
AcDbLine
 10
534.9184257602844
 20
-54.85207151523582
 30
0.0
 11
585.7184257602835
 21
-54.85207151523582
 31
0.0
  0
LINE
  5
36A
330
1F
100
AcDbEntity
  8
0
  6
Continuous
 62
     7
370
    13
100
AcDbLine
 10
585.7184257602835
 20
-54.85207151523582
 30
0.0
 11
585.7184257602835
 21
-124.8520715152358
 31
0.0
  0
LINE
  5
36B
330
1F
100
AcDbEntity
  8
0
  6
Continuous
 62
     7
370
    13
100
AcDbLine
 10
581.2184257602835
 20
-124.8520715152358
 30
0.0
 11
581.2184257602835
 21
-54.85207151523582
 31
0.0
  0
LINE
  5
36C
330
1F
100
AcDbEntity
  8
0
  6
Continuous
 62
     7
370
    13
100
AcDbLine
 10
127.6991692411955
 20
-56.78960375292172
 30
0.0
 11
221.9337022011955
 21
-2.383270781621832
 31
0.0
  0
LINE
  5
36D
330
1F
100
AcDbEntity
  8
0
  6
Continuous
 62
     7
370
    13
100
AcDbLine
 10
291.9337022011305
 20
-42.79778962498676
 30
0.0
 11
161.5390111046574
 21
-118.0811996302828
 31
0.0
  0
LINE
  5
36E
330
1F
100
AcDbEntity
  8
0
  6
Continuous
 62
     7
370
    13
100
AcDbLine
 10
296.9337022011985
 20
33.0860046961111
 30
0.0
 11
296.9337022011384
 21
-34.1375355871478
 31
0.0
  0
LINE
  5
36F
330
1F
100
AcDbEntity
  8
0
  6
Continuous
 62
     7
370
    13
100
AcDbLine
 10
228.9337022012055
 20
35.08600469616931
 30
0.0
 11
294.9337022011985
 21
35.08600469611338
 31
0.0
  0
LINE
  5
370
330
1F
100
AcDbEntity
  8
0
  6
Continuous
 62
     7
370
    13
100
AcDbLine
 10
226.9337022012035
 20
6.27698325622714
 30
0.0
 11
226.9337022012035
 21
33.08600469617113
 31
0.0
  0
LINE
  5
371
330
1F
100
AcDbEntity
  8
0
  6
Continuous
 62
     7
370
    13
100
AcDbLine
 10
196.6971854139344
 20
496.2492157591101
 30
0.0
 11
196.6971854139344
 21
491.7492157591101
 31
0.0
  0
LINE
  5
372
330
1F
100
AcDbEntity
  8
0
  6
Continuous
 62
     7
370
    13
100
AcDbLine
 10
134.9307147338775
 20
491.7492157591101
 30
0.0
 11
266.6971854138635
 21
491.7492157591101
 31
0.0
  0
LINE
  5
373
330
1F
100
AcDbEntity
  8
0
  6
Continuous
 62
     7
370
    13
100
AcDbLine
 10
266.6971854138635
 20
491.7492157591101
 30
0.0
 11
266.6971854138635
 21
496.2492157591101
 31
0.0
  0
LINE
  5
374
330
1F
100
AcDbEntity
  8
0
  6
Continuous
 62
     7
370
    13
100
AcDbLine
 10
266.6971854138635
 20
496.2492157591101
 30
0.0
 11
132.6913653540635
 21
496.2492157591101
 31
0.0
  0
LINE
  5
375
330
1F
100
AcDbEntity
  8
0
  6
Continuous
 62
     7
370
    13
100
AcDbLine
 10
74.93002725596148
 20
445.449215759115
 30
0.0
 11
99.93071473388045
 21
445.449215759115
 31
0.0
  0
LINE
  5
376
330
1F
100
AcDbEntity
  8
0
  6
Continuous
 62
     7
370
    13
100
AcDbLine
 10
132.6913653540635
 20
496.2492157591101
 30
0.0
 11
97.69136535406051
 21
449.9492157591161
 31
0.0
  0
LINE
  5
377
330
1F
100
AcDbEntity
  8
0
  6
Continuous
 62
     7
370
    13
100
AcDbLine
 10
99.93071473388045
 20
445.449215759115
 30
0.0
 11
134.9307147338775
 21
491.7492157591101
 31
0.0
  0
LINE
  5
378
330
1F
100
AcDbEntity
  8
0
  6
Continuous
 62
     7
370
    13
100
AcDbLine
 10
132.6913653540635
 20
628.2492157591101
 30
0.0
 11
266.6971854138635
 21
628.2492157591101
 31
0.0
  0
LINE
  5
379
330
1F
100
AcDbEntity
  8
0
  6
Continuous
 62
     7
370
    13
100
AcDbLine
 10
266.6971854138635
 20
628.2492157591101
 30
0.0
 11
266.6971854138635
 21
632.7492157591101
 31
0.0
  0
LINE
  5
37A
330
1F
100
AcDbEntity
  8
0
  6
Continuous
 62
     7
370
    13
100
AcDbLine
 10
266.6971854138635
 20
632.7492157591101
 30
0.0
 11
134.9307147338775
 21
632.7492157591101
 31
0.0
  0
LINE
  5
37B
330
1F
100
AcDbEntity
  8
0
  6
Continuous
 62
     7
370
    13
100
AcDbLine
 10
196.6971854139344
 20
632.7492157591101
 30
0.0
 11
196.6971854139344
 21
628.2492157591101
 31
0.0
  0
LINE
  5
37C
330
1F
100
AcDbEntity
  8
0
  6
Continuous
 62
     7
370
    13
100
AcDbLine
 10
97.69136535406051
 20
449.9492157591161
 30
0.0
 11
74.93002725596148
 21
449.949215759115
 31
0.0
  0
LINE
  5
37D
330
1F
100
AcDbEntity
  8
0
  6
Continuous
 62
     7
370
    13
100
AcDbLine
 10
149.3503997091655
 20
-44.28926001397849
 30
0.0
 11
184.3503997091505
 21
-104.9110382789167
 31
0.0
  0
LINE
  5
37E
330
1F
100
AcDbEntity
  8
0
  6
Continuous
 62
     7
370
    13
100
AcDbLine
 10
179.6612888416355
 20
-26.78926001400669
 30
0.0
 11
214.6612888416205
 21
-87.41103827894267
 31
0.0
  0
LINE
  5
37F
330
1F
100
AcDbEntity
  8
0
  6
Continuous
 62
     7
370
    13
100
AcDbLine
 10
74.93002725596148
 20
674.549215759106
 30
0.0
 11
97.69136535406051
 21
674.549215759106
 31
0.0
  0
LINE
  5
380
330
1F
100
AcDbEntity
  8
0
  6
Continuous
 62
     7
370
    13
100
AcDbLine
 10
134.9307147338775
 20
632.7492157591101
 30
0.0
 11
99.93071473388045
 21
679.049215759106
 31
0.0
  0
LINE
  5
381
330
1F
100
AcDbEntity
  8
0
  6
Continuous
 62
     7
370
    13
100
AcDbLine
 10
97.69136535406051
 20
674.549215759106
 30
0.0
 11
132.6913653540635
 21
628.2492157591101
 31
0.0
  0
LINE
  5
382
330
1F
100
AcDbEntity
  8
0
  6
Continuous
 62
     7
370
    13
100
AcDbLine
 10
99.93071473388045
 20
679.049215759106
 30
0.0
 11
74.93002725596148
 21
679.049215759106
 31
0.0
  0
ARC
  5
383
330
1F
100
AcDbEntity
  8
0
  6
Continuous
 62
     7
370
    13
100
AcDbCircle
 10
-315.5420779148762
 20
-158.1613373942737
 30
0.0
 40
2.555822748414093
100
AcDbArc
 50
175.6157525318063
 51
244.3842474682168
  0
ARC
  5
384
330
1F
100
AcDbEntity
  8
0
  6
Continuous
 62
     7
370
    13
100
AcDbCircle
 10
-307.3169191412262
 20
-158.4125397621747
 30
0.0
 40
9.553418012601806
100
AcDbArc
 50
192.4120462260197
 51
227.5879537740445
  0
ARC
  5
385
330
1F
100
AcDbEntity
  8
0
  6
Continuous
 62
     7
370
    13
100
AcDbCircle
 10
-311.2119508959531
 20
-165.6613373942737
 30
0.0
 40
2.555822748413187
100
AcDbArc
 50
175.6157525318047
 51
244.3842474681312
  0
ARC
  5
386
330
1F
100
AcDbEntity
  8
0
  6
Continuous
 62
     7
370
    13
100
AcDbCircle
 10
107.7099556289074
 20
6.921305804540225
 30
0.0
 40
2.555822748425622
100
AcDbArc
 50
355.6157525319692
 51
64.38424746815342
  0
ARC
  5
387
330
1F
100
AcDbEntity
  8
0
  6
Continuous
 62
     7
370
    13
100
AcDbCircle
 10
99.48479685525649
 20
7.172508172445305
 30
0.0
 40
9.553418012603325
100
AcDbArc
 50
12.41204622597863
 51
47.58795377402816
  0
ARC
  5
388
330
1F
100
AcDbEntity
  8
0
  6
Continuous
 62
     7
370
    13
100
AcDbCircle
 10
103.3798286099825
 20
14.4213058045425
 30
0.0
 40
2.555822748416134
100
AcDbArc
 50
355.6157525318097
 51
64.38424746809368
  0
ARC
  5
389
330
1F
100
AcDbEntity
  8
0
  6
Continuous
 62
     7
370
    13
100
AcDbCircle
 10
-359.6168844057893
 20
557.9190887401861
 30
0.0
 40
2.555822748420533
100
AcDbArc
 50
145.6157525319239
 51
214.3842474680635
  0
ARC
  5
38A
330
1F
100
AcDbEntity
  8
0
  6
Continuous
 62
     7
370
    13
100
AcDbCircle
 10
-352.6192891416013
 20
562.249215759109
 30
0.0
 40
9.553418012608466
100
AcDbArc
 50
162.4120462259941
 51
197.5879537740111
  0
ARC
  5
38B
330
1F
100
AcDbEntity
  8
0
  6
Continuous
 62
     7
370
    13
100
AcDbCircle
 10
-359.6168844057893
 20
566.5793427780301
 30
0.0
 40
2.555822748421175
100
AcDbArc
 50
145.6157525319028
 51
214.3842474680593
  0
ARC
  5
38C
330
1F
100
AcDbEntity
  8
0
  6
Continuous
 62
     7
370
    13
100
AcDbCircle
 10
651.7184257602835
 20
42.64792848476554
 30
0.0
 40
67.50000000000091
100
AcDbArc
 50
195.4660099534179
 51
344.5339900465821
  0
ARC
  5
38D
330
1F
100
AcDbEntity
  8
0
  6
Continuous
 62
     7
370
    13
100
AcDbCircle
 10
-723.2807057838213
 20
-182.3520715153027
 30
0.0
 40
67.50000000000111
100
AcDbArc
 50
10.67192928576275
 51
169.3280707142372
  0
ARC
  5
38E
330
1F
100
AcDbEntity
  8
0
  6
Continuous
 62
     7
370
    13
100
AcDbCircle
 10
651.7184257602785
 20
35.54792848475518
 30
0.0
 40
69.599999999999
100
AcDbArc
 50
0.0
 51
180.0
  0
ARC
  5
38F
330
1F
100
AcDbEntity
  8
0
  6
Continuous
 62
     7
370
    13
100
AcDbCircle
 10
651.7184257602785
 20
35.54792848475518
 30
0.0
 40
79.599999999999
100
AcDbArc
 50
0.0
 51
180.0
  0
ARC
  5
390
330
1F
100
AcDbEntity
  8
0
  6
Continuous
 62
     7
370
    13
100
AcDbCircle
 10
44.9302066129485
 20
649.7492157590781
 30
0.0
 40
7.0
100
AcDbArc
 50
180.0
 51
0.0
  0
ARC
  5
391
330
1F
100
AcDbEntity
  8
0
  6
Continuous
 62
     7
370
    13
100
AcDbCircle
 10
44.9302066129485
 20
655.7492157590781
 30
0.0
 40
6.999999999997954
100
AcDbArc
 50
0.0
 51
180.0
  0
ARC
  5
392
330
1F
100
AcDbEntity
  8
0
  6
Continuous
 62
     7
370
    13
100
AcDbCircle
 10
-285.0698560159763
 20
649.7492157590781
 30
0.0
 40
7.0
100
AcDbArc
 50
180.0
 51
0.0
  0
ARC
  5
393
330
1F
100
AcDbEntity
  8
0
  6
Continuous
 62
     7
370
    13
100
AcDbCircle
 10
-285.0698560159763
 20
655.7492157590781
 30
0.0
 40
7.0
100
AcDbArc
 50
0.0
 51
180.0
  0
ARC
  5
394
330
1F
100
AcDbEntity
  8
0
  6
Continuous
 62
     7
370
    13
100
AcDbCircle
 10
-285.0698560159763
 20
468.7492157590751
 30
0.0
 40
7.0
100
AcDbArc
 50
180.0
 51
0.0
  0
ARC
  5
395
330
1F
100
AcDbEntity
  8
0
  6
Continuous
 62
     7
370
    13
100
AcDbCircle
 10
-285.0698560159763
 20
474.7492157590781
 30
0.0
 40
7.0
100
AcDbArc
 50
0.0
 51
180.0
  0
ARC
  5
396
330
1F
100
AcDbEntity
  8
0
  6
Continuous
 62
     7
370
    13
100
AcDbCircle
 10
44.9302066129485
 20
468.7492157590751
 30
0.0
 40
7.0
100
AcDbArc
 50
180.0
 51
0.0
  0
ARC
  5
397
330
1F
100
AcDbEntity
  8
0
  6
Continuous
 62
     7
370
    13
100
AcDbCircle
 10
44.9302066129485
 20
474.7492157590781
 30
0.0
 40
6.999999999997954
100
AcDbArc
 50
0.0
 51
180.0
  0
ARC
  5
398
330
1F
100
AcDbEntity
  8
0
  6
Continuous
 62
     7
370
    13
100
AcDbCircle
 10
-723.2807057838222
 20
-182.4594944920177
 30
0.0
 40
59.00009779395614
100
AcDbArc
 50
167.661622263719
 51
12.33837773628097
  0
ARC
  5
399
330
1F
100
AcDbEntity
  8
0
  6
Continuous
 62
     7
370
    13
100
AcDbCircle
 10
-723.2807057838213
 20
-182.3520715153027
 30
0.0
 40
64.99999999999957
100
AcDbArc
 50
168.9125107890285
 51
11.08748921097163
  0
ARC
  5
39A
330
1F
100
AcDbEntity
  8
0
  6
Continuous
 62
     7
370
    13
100
AcDbCircle
 10
651.7184257602835
 20
42.64792848476554
 30
0.0
 40
65.0
100
AcDbArc
 50
0.0
 51
180.0
  0
ARC
  5
39B
330
1F
100
AcDbEntity
  8
0
  6
Continuous
 62
     7
370
    13
100
AcDbCircle
 10
651.7376337222975
 20
42.64792848476554
 30
0.0
 40
58.98079203798602
100
AcDbArc
 50
0.0
 51
180.0
  0
ARC
  5
39C
330
1F
100
AcDbEntity
  8
0
  6
Continuous
 62
     7
370
    13
100
AcDbCircle
 10
651.7376337222975
 20
42.64792848476554
 30
0.0
 40
58.98079203800606
100
AcDbArc
 50
342.2307597913241
 51
0.0
  0
ARC
  5
39D
330
1F
100
AcDbEntity
  8
0
  6
Continuous
 62
     7
370
    13
100
AcDbCircle
 10
651.7184257602835
 20
42.64792848476554
 30
0.0
 40
65.0000000000197
100
AcDbArc
 50
343.9233501684024
 51
0.0
  0
ARC
  5
39E
330
1F
100
AcDbEntity
  8
0
  6
Continuous
 62
     7
370
    13
100
AcDbCircle
 10
651.7376337222975
 20
42.64792848476554
 30
0.0
 40
58.98079203800398
100
AcDbArc
 50
180.0
 51
197.7692402086759
  0
ARC
  5
39F
330
1F
100
AcDbEntity
  8
0
  6
Continuous
 62
     7
370
    13
100
AcDbCircle
 10
651.7184257602835
 20
42.64792848476554
 30
0.0
 40
65.00000000002296
100
AcDbArc
 50
180.0
 51
196.0766498315976
  0
CIRCLE
  5
3A0
330
1F
100
AcDbEntity
  8
0
  6
Continuous
 62
     7
370
    13
100
AcDbCircle
 10
-285.0703708721312
 20
471.7492157590769
 30
0.0
 40
4.800000000000182
  0
CIRCLE
  5
3A1
330
1F
100
AcDbEntity
  8
0
  6
Continuous
 62
     7
370
    13
100
AcDbCircle
 10
-285.0693208534562
 20
652.749215759077
 30
0.0
 40
4.800000000000182
  0
CIRCLE
  5
3A2
330
1F
100
AcDbEntity
  8
0
  6
Continuous
 62
     7
370
    13
100
AcDbCircle
 10
44.93074177547146
 20
652.749215759077
 30
0.0
 40
4.800000000002001
  0
CIRCLE
  5
3A3
330
1F
100
AcDbEntity
  8
0
  6
Continuous
 62
     7
370
    13
100
AcDbCircle
 10
44.9302066129485
 20
471.7492157590769
 30
0.0
 40
4.799999999999045
  0
ARC
  5
3A4
330
1F
100
AcDbEntity
  8
0
  6
Continuous
 62
     7
370
    13
100
AcDbCircle
 10
117.6984105500214
 20
-137.6190794700128
 30
0.0
 40
9.999999999999423
100
AcDbArc
 50
289.4389893087972
 51
300.0000000000351
  0
ARC
  5
3A5
330
1F
100
AcDbEntity
  8
0
  6
Continuous
 62
     7
370
    13
100
AcDbCircle
 10
536.5184257602834
 20
-39.65207151523646
 30
0.0
 40
1.600000000001728
100
AcDbArc
 50
90.0
 51
180.0
  0
ARC
  5
3A6
330
1F
100
AcDbEntity
  8
0
  6
Continuous
 62
     7
370
    13
100
AcDbCircle
 10
766.9184257602824
 20
-39.65207151523646
 30
0.0
 40
1.599999999999
100
AcDbArc
 50
0.0
 51
90.0
  0
ARC
  5
3A7
330
1F
100
AcDbEntity
  8
0
  6
Continuous
 62
     7
370
    13
100
AcDbCircle
 10
534.9184257602844
 20
-38.05207151523473
 30
0.0
 40
3.199999999998909
100
AcDbArc
 50
90.0
 51
180.0
  0
ARC
  5
3A8
330
1F
100
AcDbEntity
  8
0
  6
Continuous
 62
     7
370
    13
100
AcDbCircle
 10
768.5184257602814
 20
-38.05207151523473
 30
0.0
 40
3.200000000002092
100
AcDbArc
 50
0.0
 51
90.0
  0
ARC
  5
3A9
330
1F
100
AcDbEntity
  8
0
  6
Continuous
 62
     7
370
    13
100
AcDbCircle
 10
-335.0699727440942
 20
455.449215759115
 30
0.0
 40
10.0
100
AcDbArc
 50
180.0
 51
270.0
  0
ARC
  5
3AA
330
1F
100
AcDbEntity
  8
0
  6
Continuous
 62
     7
370
    13
100
AcDbCircle
 10
-335.0699727440942
 20
669.049215759111
 30
0.0
 40
10.0
100
AcDbArc
 50
90.0
 51
180.0
  0
ARC
  5
3AB
330
1F
100
AcDbEntity
  8
0
  6
Continuous
 62
     7
370
    13
100
AcDbCircle
 10
151.5390111046574
 20
-118.0811996302277
 30
0.0
 40
10.00000000000056
100
AcDbArc
 50
300.0000000000312
 51
30.00000000003447
  0
ARC
  5
3AC
330
1F
100
AcDbEntity
  8
0
  6
Continuous
 62
     7
370
    13
100
AcDbCircle
 10
-158.8263494473565
 20
-240.5126262448957
 30
0.0
 40
4.99999999999982
100
AcDbArc
 50
210.0000000000012
 51
289.4389893088027
  0
ARC
  5
3AD
330
1F
100
AcDbEntity
  8
0
  6
Continuous
 62
     7
370
    13
100
AcDbCircle
 10
294.9337022011955
 20
33.08600469611338
 30
0.0
 40
2.000000000002956
100
AcDbArc
 50
359.9999999999349
 51
89.99999999991532
  0
ARC
  5
3AE
330
1F
100
AcDbEntity
  8
0
  6
Continuous
 62
     7
370
    13
100
AcDbCircle
 10
228.9337022012055
 20
33.08600469617113
 30
0.0
 40
1.999999999998181
100
AcDbArc
 50
90.0
 51
180.0
  0
ARC
  5
3AF
330
1F
100
AcDbEntity
  8
0
  6
Continuous
 62
     7
370
    13
100
AcDbCircle
 10
216.9337022012035
 20
6.27698325622714
 30
0.0
 40
9.999999999999993
100
AcDbArc
 50
299.9999999999474
 51
0.0
  0
ARC
  5
3B0
330
1F
100
AcDbEntity
  8
0
  6
Continuous
 62
     7
370
    13
100
AcDbCircle
 10
286.9337022011384
 20
-34.1375355871387
 30
0.0
 40
9.999999999999204
100
AcDbArc
 50
299.99999999995
 51
359.9999999999479
  0
LINE
  5
3B1
330
1F
100
AcDbEntity
  8
0
  6
PHANTOM
 62
   140
370
    13
100
AcDbLine
 10
-208.4314044470443
 20
-254.3220550305437
 30
0.0
 11
-208.4314044470423
 21
-284.1673574868028
 31
0.0
  0
LINE
  5
3B2
330
1F
100
AcDbEntity
  8
0
  6
PHANTOM
 62
   140
370
    13
100
AcDbLine
 10
-226.8914104067712
 20
-269.2403216007187
 30
0.0
 11
-192.1880346458387
 21
-269.2403216007187
 31
0.0
  0
LINE
  5
3B3
330
1F
100
AcDbEntity
  8
0
  6
PHANTOM
 62
   140
370
    13
100
AcDbLine
 10
-349.7774844568421
 20
-291.2403216007247
 30
0.0
 11
-207.9314044470423
 21
-291.2403216007187
 31
0.0
  0
LINE
  5
3B4
330
1F
100
AcDbEntity
  8
0
  6
PHANTOM
 62
   140
370
    13
100
AcDbLine
 10
-226.4314044470423
 20
-291.2403216007187
 30
0.0
 11
-226.4314044470443
 21
-257.2403216007187
 31
0.0
  0
LINE
  5
3B5
330
1F
100
AcDbEntity
  8
0
  6
PHANTOM
 62
   140
370
    13
100
AcDbLine
 10
-207.9314044470452
 20
-257.2403216007187
 30
0.0
 11
-226.4314044470443
 21
-257.2403216007187
 31
0.0
  0
LINE
  5
3B6
330
1F
100
AcDbEntity
  8
0
  6
PHANTOM
 62
   140
370
    13
100
AcDbLine
 10
-194.4314044470427
 20
-277.7403216007187
 30
0.0
 11
-194.4314044470447
 21
-270.7403216007187
 31
0.0
  0
LINE
  5
3B7
330
1F
100
AcDbEntity
  8
0
  6
PHANTOM
 62
   140
370
    13
100
AcDbLine
 10
-349.7774844568453
 20
-263.9903216007247
 30
0.0
 11
-226.4314044470443
 21
-263.9903216007187
 31
0.0
  0
LINE
  5
3B8
330
1F
100
AcDbEntity
  8
0
  6
PHANTOM
 62
   140
370
    13
100
AcDbLine
 10
-226.4314044470443
 20
-257.2403216007187
 30
0.0
 11
-349.7774844568453
 21
-257.2403216007247
 31
0.0
  0
LINE
  5
3B9
330
1F
100
AcDbEntity
  8
0
  6
PHANTOM
 62
   140
370
    13
100
AcDbLine
 10
-226.4314044470443
 20
-270.4903216007187
 30
0.0
 11
-349.7774844568453
 21
-270.4903216007247
 31
0.0
  0
LINE
  5
3BA
330
1F
100
AcDbEntity
  8
0
  6
PHANTOM
 62
   140
370
    13
100
AcDbLine
 10
-226.4314044470423
 20
-277.9903216007187
 30
0.0
 11
-349.7774844568421
 21
-277.9903216007247
 31
0.0
  0
LINE
  5
3BB
330
1F
100
AcDbEntity
  8
0
  6
PHANTOM
 62
   140
370
    13
100
AcDbLine
 10
-226.4314044470423
 20
-284.4903216007187
 30
0.0
 11
-349.7774844568421
 21
-284.4903216007247
 31
0.0
  0
LINE
  5
3BC
330
1F
100
AcDbEntity
  8
0
  6
PHANTOM
 62
   140
370
    13
100
AcDbLine
 10
166.4261733151125
 20
24.49600469611823
 30
0.0
 11
166.4261733151125
 21
17.99600469611823
 31
0.0
  0
LINE
  5
3BD
330
1F
100
AcDbEntity
  8
0
  6
PHANTOM
 62
   140
370
    13
100
AcDbLine
 10
166.4261733151125
 20
38.49600469611823
 30
0.0
 11
166.4261733151125
 21
31.99600469611823
 31
0.0
  0
LINE
  5
3BE
330
1F
100
AcDbEntity
  8
0
  6
PHANTOM
 62
   140
370
    13
100
AcDbLine
 10
315.7722533249155
 20
17.99600469611323
 30
0.0
 11
143.4261733151125
 21
17.99600469611823
 31
0.0
  0
LINE
  5
3BF
330
1F
100
AcDbEntity
  8
0
  6
PHANTOM
 62
   140
370
    13
100
AcDbLine
 10
315.7722533249105
 20
24.49600469611323
 30
0.0
 11
143.4261733151125
 21
24.49600469611823
 31
0.0
  0
LINE
  5
3C0
330
1F
100
AcDbEntity
  8
0
  6
PHANTOM
 62
   140
370
    13
100
AcDbLine
 10
315.7722533249105
 20
31.99600469611323
 30
0.0
 11
143.4261733151125
 21
31.99600469611823
 31
0.0
  0
LINE
  5
3C1
330
1F
100
AcDbEntity
  8
0
  6
PHANTOM
 62
   140
370
    13
100
AcDbLine
 10
315.7722533249134
 20
45.24600469611323
 30
0.0
 11
143.4261733151125
 21
45.24600469611823
 31
0.0
  0
LINE
  5
3C2
330
1F
100
AcDbEntity
  8
0
  6
PHANTOM
 62
   140
370
    13
100
AcDbLine
 10
143.4261733151125
 20
38.49600469611823
 30
0.0
 11
315.7722533249155
 21
38.49600469611323
 31
0.0
  0
LINE
  5
3C3
330
1F
100
AcDbEntity
  8
0
  6
PHANTOM
 62
   140
370
    13
100
AcDbLine
 10
111.4261733151125
 20
31.74600469612051
 30
0.0
 11
111.4261733151125
 21
24.74600469612051
 31
0.0
  0
LINE
  5
3C4
330
1F
100
AcDbEntity
  8
0
  6
PHANTOM
 62
   140
370
    13
100
AcDbLine
 10
143.4261733151125
 20
45.24600469611823
 30
0.0
 11
124.9261733151145
 21
45.24600469611823
 31
0.0
  0
LINE
  5
3C5
330
1F
100
AcDbEntity
  8
0
  6
PHANTOM
 62
   140
370
    13
100
AcDbLine
 10
143.4261733151125
 20
11.24600469611823
 30
0.0
 11
143.4261733151125
 21
45.24600469611823
 31
0.0
  0
LINE
  5
3C6
330
1F
100
AcDbEntity
  8
0
  6
PHANTOM
 62
   140
370
    13
100
AcDbLine
 10
124.9261733151125
 20
11.24600469611823
 30
0.0
 11
315.7722533249134
 21
11.24600469611323
 31
0.0
  0
LINE
  5
3C7
330
1F
100
AcDbEntity
  8
0
  6
PHANTOM
 62
   140
370
    13
100
AcDbLine
 10
109.1828035139094
 20
33.24600469612051
 30
0.0
 11
143.8861792748405
 21
33.24600469611823
 31
0.0
  0
LINE
  5
3C8
330
1F
100
AcDbEntity
  8
0
  6
PHANTOM
 62
   140
370
    13
100
AcDbLine
 10
125.4261733151125
 20
18.31896881003513
 30
0.0
 11
125.4261733151125
 21
48.16427126629424
 31
0.0
  0
ARC
  5
3C9
330
1F
100
AcDbEntity
  8
0
  6
PHANTOM
 62
   140
370
    13
100
AcDbCircle
 10
-208.4314044470443
 20
-269.2403216007187
 30
0.0
 40
13.6000000000009
100
AcDbArc
 50
118.0724869358601
 51
11.47686798848062
  0
ARC
  5
3CA
330
1F
100
AcDbEntity
  8
0
  6
PHANTOM
 62
   140
370
    13
100
AcDbCircle
 10
-208.4314044470443
 20
-269.2403216007187
 30
0.0
 40
13.59999999999873
100
AcDbArc
 50
97.84068885261603
 51
118.0724869358601
  0
ARC
  5
3CB
330
1F
100
AcDbEntity
  8
0
  6
PHANTOM
 62
   140
370
    13
100
AcDbCircle
 10
-208.4314044470443
 20
-269.2403216007187
 30
0.0
 40
13.60000000000356
100
AcDbArc
 50
11.47686798848062
 51
97.84068885261603
  0
ARC
  5
3CC
330
1F
100
AcDbEntity
  8
0
  6
PHANTOM
 62
   140
370
    13
100
AcDbCircle
 10
125.4261733151125
 20
33.24600469611823
 30
0.0
 40
13.59999999999991
100
AcDbArc
 50
82.15931114737596
 51
168.523132011518
  0
ARC
  5
3CD
330
1F
100
AcDbEntity
  8
0
  6
PHANTOM
 62
   140
370
    13
100
AcDbCircle
 10
125.4261733151125
 20
33.24600469611823
 30
0.0
 40
13.60000000000143
100
AcDbArc
 50
61.92751306413573
 51
82.15931114737596
  0
ARC
  5
3CE
330
1F
100
AcDbEntity
  8
0
  6
PHANTOM
 62
   140
370
    13
100
AcDbCircle
 10
125.4261733151125
 20
33.24600469611823
 30
0.0
 40
13.600000000002
100
AcDbArc
 50
168.523132011518
 51
61.92751306413574
  0
ARC
  5
3CF
330
1F
100
AcDbEntity
  8
0
  6
PHANTOM
 62
   140
370
    13
100
AcDbCircle
 10
-207.9314044470443
 20
-270.7403216007187
 30
0.0
 40
13.49999999999966
100
AcDbArc
 50
0.0
 51
90.00000000000388
  0
ARC
  5
3D0
330
1F
100
AcDbEntity
  8
0
  6
PHANTOM
 62
   140
370
    13
100
AcDbCircle
 10
-207.9314044470443
 20
-277.7403216007187
 30
0.0
 40
13.5
100
AcDbArc
 50
270.0000000000086
 51
0.0
  0
ARC
  5
3D1
330
1F
100
AcDbEntity
  8
0
  6
PHANTOM
 62
   140
370
    13
100
AcDbCircle
 10
124.9261733151125
 20
24.74600469611823
 30
0.0
 40
13.5
100
AcDbArc
 50
179.9999999999903
 51
270.0
  0
ARC
  5
3D2
330
1F
100
AcDbEntity
  8
0
  6
PHANTOM
 62
   140
370
    13
100
AcDbCircle
 10
124.9261733151125
 20
31.74600469611823
 30
0.0
 40
13.5
100
AcDbArc
 50
89.99999999999133
 51
179.9999999999903
  0
LINE
  5
3D3
330
1F
100
AcDbEntity
  8
0
  6
PHANTOM
 62
    91
370
    13
100
AcDbLine
 10
-723.2807057838222
 20
-247.3520715153027
 30
0.0
 11
-706.2807057838222
 21
-247.3520715153027
 31
0.0
  0
TEXT
  5
3D4
330
1F
100
AcDbEntity
  8
0
 62
     2
100
AcDbText
 10
-780.4421630770053
 20
-345.5869257017189
 30
0.0
 40
23.99999999999999
  1
BB矢視図
 41
0.6437077566784681
  7
dcStyle0
 72
     5
 11
-684.4421630770053
 21
-345.5869257017189
 31
0.0
100
AcDbText
  0
TEXT
  5
3D5
330
1F
100
AcDbEntity
  8
0
 62
     2
100
AcDbText
 10
601.0620402483235
 20
-185.6904853192468
 30
0.0
 40
23.99999999999999
  1
AA矢視図
 41
0.6449532408900357
  7
dcStyle0
 72
     5
 11
697.0620402483235
 21
-185.6904853192468
 31
0.0
100
AcDbText
  0
TEXT
  5
3D6
330
1F
100
AcDbEntity
  8
0
 62
     2
100
AcDbText
 10
-303.9467759100381
 20
-341.4802080059805
 30
0.0
 40
23.99999999999999
  1
B
 50
29.99999999999269
 41
0.5399568034557253
  7
dcStyle0
 72
     5
 11
-293.5544710646241
 21
-335.4802080059818
 31
0.0
100
AcDbText
  0
TEXT
  5
3D7
330
1F
100
AcDbEntity
  8
0
 62
     2
100
AcDbText
 10
-470.7817617024472
 20
-52.51353613251753
 30
0.0
 40
23.99999999999999
  1
B
 50
29.99999999999262
 41
0.5399568034557249
  7
dcStyle0
 72
     5
 11
-460.3894568570331
 21
-46.51353613251885
 31
0.0
100
AcDbText
  0
TEXT
  5
3D8
330
1F
100
AcDbEntity
  8
0
 62
     2
100
AcDbText
 10
36.28078262613348
 20
241.8054036016459
 30
0.0
 40
23.99999999999999
  1
A
 50
29.9999999999926
 41
0.5434782608695657
  7
dcStyle0
 72
     5
 11
46.67308747154753
 21
247.8054036016446
 31
0.0
100
AcDbText
  0
TEXT
  5
3D9
330
1F
100
AcDbEntity
  8
0
 62
     2
100
AcDbText
 10
229.9853256788294
 20
-116.6476352426189
 30
0.0
 40
23.99999999999999
  1
A
 50
29.99999999999265
 41
0.5434782608695652
  7
dcStyle0
 72
     5
 11
240.3776305242435
 21
-110.6476352426202
 31
0.0
100
AcDbText
  0
TEXT
  5
3DA
330
1F
100
AcDbEntity
  8
0
 62
     2
100
AcDbText
 10
-26.81260769694153
 20
263.0953101015022
 30
0.0
 40
23.99999999999999
  1
C
 50
30.00000000001068
 41
0.5175983436853
  7
dcStyle0
 72
     5
 11
-16.4203028515294
 21
269.0953101015041
 31
0.0
100
AcDbText
  0
TEXT
  5
3DB
330
1F
100
AcDbEntity
  8
0
 62
     2
100
AcDbText
 10
-452.8883307105644
 20
17.1572768646513
 30
0.0
 40
23.99999999999999
  1
C
 50
30.00000000001068
 41
0.5175983436852994
  7
dcStyle0
 72
     5
 11
-442.4960258651523
 21
23.15727686465323
 31
0.0
100
AcDbText
  0
TEXT
  5
3DC
330
1F
100
AcDbEntity
  8
0
 62
     2
100
AcDbText
 10
-176.4957882449105
 20
408.4670724508541
 30
0.0
 40
23.99999999999999
  1
CC矢視図
 41
0.6355258976803305
  7
dcStyle0
 72
     5
 11
-80.49578824491053
 21
408.4670724508541
 31
0.0
100
AcDbText
  0
TEXT
  5
3DD
330
1F
100
AcDbEntity
  8
0
 62
     2
100
AcDbText
 10
328.4319657080614
 20
137.7950894885901
 30
0.0
 40
23.99999999999999
  1
※1
 50
90.0
 41
0.687757909215956
  7
dcStyle0
 72
     5
 11
328.4319657080614
 21
173.7950894885901
 31
0.0
100
AcDbText
  0
TEXT
  5
3DE
330
1F
100
AcDbEntity
  8
0
 62
     2
100
AcDbText
 10
-150.5011030750516
 20
-731.9856819520155
 30
0.0
 40
19.2
  1
2017.4.28
 41
0.849363057324841
  7
dcStyle1
 72
     5
 11
-28.58110307505156
 21
-731.9856819520155
 31
0.0
100
AcDbText
  0
TEXT
  5
3DF
330
1F
100
AcDbEntity
  8
0
 62
     2
100
AcDbText
 10
330.0
 20
-779.2315400371326
 30
0.0
 40
23.99999999999999
  1
MTS
 41
0.5526315789473685
  7
dcStyle1
 72
     5
 11
366.0
 21
-779.2315400371326
 31
0.0
100
AcDbText
  0
TEXT
  5
3E0
330
1F
100
AcDbEntity
  8
0
 62
     2
100
AcDbText
 10
-82.4999999999998
 20
-779.2315400371326
 30
0.0
 40
23.99999999999999
  1
1/6
 41
0.5338983050847456
  7
dcStyle1
 72
     5
 11
-46.49999999999982
 21
-779.2315400371326
 31
0.0
100
AcDbText
  0
TEXT
  5
3E1
330
1F
100
AcDbEntity
  8
0
 62
     2
100
AcDbText
 10
276.0
 20
-719.2315400371327
 30
0.0
 40
23.99999999999999
  1
ミニシリーズ
 41
1.2
  7
dcStyle1
 72
     5
 11
420.0
 21
-719.2315400371327
 31
0.0
100
AcDbText
  0
TEXT
  5
3E2
330
1F
100
AcDbEntity
  8
0
 62
     2
100
AcDbText
 10
1008.0
 20
-779.2315400371326
 30
0.0
 40
23.99999999999999
  1
W_MTS_S_100_1
 41
0.5711297071129707
  7
dcStyle1
 72
     5
 11
1164.0
 21
-779.2315400371326
 31
0.0
100
AcDbText
  0
TEXT
  5
3E3
330
1F
100
AcDbEntity
  8
0
 62
     2
100
AcDbText
 10
638.9999999999998
 20
-719.2315400371327
 30
0.0
 40
23.99999999999999
  1
本体組立図  呼び幅 110 mm  呼び機長 40 cm
 41
0.7321428571428574
  7
dcStyle1
 72
     5
 11
1131.0
 21
-719.2315400371327
 31
0.0
100
AcDbText
  0
INSERT
  5
3E4
330
1F
100
AcDbEntity
  8
0
  6
Continuous
100
AcDbBlockReference
  2
DC_GROUP_W_MTS_S_100_1_1
 10
0.0
 20
0.0
 30
0.0
  0
INSERT
  5
3E5
330
1F
100
AcDbEntity
  8
0
  6
Continuous
100
AcDbBlockReference
  2
DC_GROUP_W_MTS_S_100_1_3
 10
0.0
 20
0.0
 30
0.0
  0
DIMENSION
  5
3E6
330
1F
100
AcDbEntity
  8
0
  6
Continuous
370
    13
100
AcDbDimension
  2
*D4
 10
427.8398179885405
 20
682.2492157591101
 30
0.0
 11
427.8398179885405
 21
561.247099430207
 31
0.0
 70
   160
  1
機幅(<>)
 71
     8
 42
-1.0
  3
dc_Rotated
100
AcDbAlignedDimension
 13
74.93002725596148
 23
442.249215759112
 33
0.0
 14
74.93002725596148
 24
682.2492157591101
 34
0.0
 50
90.0
100
AcDbRotatedDimension
1001
ACAD
1000
DSTYLE
1002
{
1070
   274
1070
     4
1070
    41
1040
18.00135612487793
1070
    79
1070
     2
1070
   343
1005
108
1070
   344
1005
108
1070
   176
1070
     2
1070
   177
1070
     2
1070
   178
1070
     2
1070
   271
1070
     2
1070
    44
1040
5.999999999999998
1070
    42
1040
5.999999999999998
1070
   147
1040
4.199999999999989
1070
   173
1070
     1
1070
    77
1070
     3
1070
    73
1070
     0
1070
   172
1070
     1
1070
    74
1070
     0
1070
   283
1070
     0
1070
   140
1040
23.99999999999999
1070
   284
1070
     8
1070
   288
1070
     1
1070
    78
1070
     8
1070
    90
1070
     1
1002
}
  0
DIMENSION
  5
3E8
330
1F
100
AcDbEntity
  8
0
  6
Continuous
370
    13
100
AcDbDimension
  2
*D5
 10
361.5755213245604
 20
496.2492157591101
 30
0.0
 11
361.5755213245604
 21
274.5
 31
0.0
 70
   160
  1
投入側コンベヤ機幅(<>)
 71
     8
 42
-1.0
  3
dc_Rotated
100
AcDbAlignedDimension
 13
266.6971854138635
 23
628.2492157591101
 33
0.0
 14
266.6971854138635
 24
496.2492157591101
 34
0.0
 50
90.0
100
AcDbRotatedDimension
1001
ACAD
1000
DSTYLE
1002
{
1070
   274
1070
     4
1070
    41
1040
18.00135612487793
1070
    79
1070
     2
1070
   343
1005
108
1070
   344
1005
108
1070
   176
1070
     2
1070
   177
1070
     2
1070
   178
1070
     2
1070
   271
1070
     2
1070
    44
1040
5.999999999999998
1070
    42
1040
5.999999999999998
1070
   147
1040
6.0
1070
   173
1070
     1
1070
    77
1070
     3
1070
    73
1070
     0
1070
   172
1070
     1
1070
    74
1070
     0
1070
   283
1070
     0
1070
   140
1040
23.99999999999999
1070
   284
1070
     8
1070
   288
1070
     1
1070
    78
1070
     8
1070
    90
1070
     1
1002
}
  0
DIMENSION
  5
3E9
330
1F
100
AcDbEntity
  8
0
  6
Continuous
370
    13
100
AcDbDimension
  2
*D6
 10
386.7548948302644
 20
6.17374877280875
 30
0.0
 11
357.9459298161267
 21
56.07233989070379
 31
0.0
 70
   160
 71
     8
 42
-1.0
  3
dc_Rotated
100
AcDbAlignedDimension
 13
117.6992651424684
 23
-39.46904030856786
 33
0.0
 14
156.5390111046624
 24
-126.7414536680699
 34
0.0
 50
120.0000000000326
100
AcDbRotatedDimension
1001
ACAD
1000
DSTYLE
1002
{
1070
   274
1070
     4
1070
    41
1040
18.00135612487793
1070
    79
1070
     2
1070
   343
1005
108
1070
   344
1005
108
1070
   176
1070
     2
1070
   177
1070
     2
1070
   178
1070
     2
1070
   271
1070
     2
1070
    44
1040
5.999999999999998
1070
    42
1040
5.999999999999998
1070
   147
1040
4.200000000000092
1070
   173
1070
     1
1070
    77
1070
     3
1070
    73
1070
     0
1070
   172
1070
     1
1070
    74
1070
     0
1070
   283
1070
     0
1070
   140
1040
23.99999999999999
1070
   284
1070
     8
1070
   288
1070
     1
1070
    78
1070
     8
1070
    90
1070
     1
1002
}
  0
DIMENSION
  5
3EA
330
1F
100
AcDbEntity
  8
0
  6
Continuous
370
    13
100
AcDbDimension
  2
*D7
 10
303.1998314063005
 20
507.2492157591101
 30
0.0
 11
303.1998314063005
 21
313.809144278857
 31
0.0
 70
   160
  1
呼び幅(<>)
 71
     8
 42
-1.0
  3
dc_Rotated
100
AcDbAlignedDimension
 13
104.9300272558985
 23
617.2492157591101
 33
0.0
 14
104.9300272558985
 24
507.2492157591101
 34
0.0
 50
90.0
100
AcDbRotatedDimension
1001
ACAD
1000
DSTYLE
1002
{
1070
   274
1070
     4
1070
    41
1040
18.00135612487793
1070
    79
1070
     2
1070
   343
1005
108
1070
   344
1005
108
1070
   176
1070
     2
1070
   177
1070
     2
1070
   178
1070
     2
1070
   271
1070
     2
1070
    44
1040
5.999999999999998
1070
    42
1040
5.999999999999998
1070
   147
1040
4.199999999999989
1070
   173
1070
     1
1070
    77
1070
     3
1070
    73
1070
     0
1070
   172
1070
     1
1070
    74
1070
     0
1070
   283
1070
     0
1070
   140
1040
23.99999999999999
1070
   284
1070
     8
1070
   288
1070
     1
1070
    78
1070
     8
1070
    90
1070
     1
1002
}
  0
DIMENSION
  5
3EB
330
1F
100
AcDbEntity
  8
0
  6
Continuous
370
    13
100
AcDbDimension
  2
*D8
 10
-354.9047399636397
 20
-60.89489160431197
 30
0.0
 11
-178.0469933388102
 21
41.21397601774024
 31
0.0
 70
   160
  1
呼び機長(<>)
 71
     8
 42
-1.0
  3
dc_Rotated
100
AcDbAlignedDimension
 13
60.12875706667251
 23
20.24600469610414
 33
0.0
 14
-286.2814044470574
 24
-179.7539953039527
 34
0.0
 50
29.9999999999845
100
AcDbRotatedDimension
1001
ACAD
1000
DSTYLE
1002
{
1070
   274
1070
     4
1070
    41
1040
18.00135612487793
1070
    79
1070
     2
1070
   343
1005
108
1070
   344
1005
108
1070
   176
1070
     2
1070
   177
1070
     2
1070
   178
1070
     2
1070
   271
1070
     2
1070
    44
1040
5.999999999999998
1070
    42
1040
5.999999999999998
1070
   147
1040
4.200000000000026
1070
   173
1070
     1
1070
    77
1070
     3
1070
    73
1070
     0
1070
   172
1070
     1
1070
    74
1070
     0
1070
   283
1070
     0
1070
   140
1040
23.99999999999999
1070
   284
1070
     8
1070
   288
1070
     1
1070
    78
1070
     8
1070
    90
1070
     1
1002
}
  0
DIMENSION
  5
3EC
330
1F
100
AcDbEntity
  8
0
  6
Continuous
370
    13
100
AcDbDimension
  2
*D9
 10
-402.5167454979903
 20
621.249215759117
 30
0.0
 11
-402.5167454979903
 21
556.8749999999999
 31
0.0
 70
   160
  1
内径φ<>
 71
     8
 42
-1.0
  3
dc_Rotated
100
AcDbAlignedDimension
 13
-345.0699727440942
 23
503.2492157591101
 33
0.0
 14
-345.0699727440942
 24
621.249215759117
 34
0.0
 50
90.0
100
AcDbRotatedDimension
1001
ACAD
1000
DSTYLE
1002
{
1070
   274
1070
     4
1070
    41
1040
18.00135612487793
1070
    79
1070
     2
1070
   343
1005
108
1070
   344
1005
108
1070
   176
1070
     2
1070
   177
1070
     2
1070
   178
1070
     2
1070
   271
1070
     2
1070
    44
1040
5.999999999999998
1070
    42
1040
5.999999999999998
1070
   147
1040
6.0
1070
   173
1070
     1
1070
    77
1070
     3
1070
    73
1070
     0
1070
   172
1070
     1
1070
    74
1070
     0
1070
   283
1070
     0
1070
   140
1040
23.99999999999999
1070
   284
1070
     8
1070
   288
1070
     1
1070
    78
1070
     8
1070
    90
1070
     1
1002
}
  0
DIMENSION
  5
3ED
330
1F
100
AcDbEntity
  8
0
  6
Continuous
370
    13
100
AcDbDimension
  2
*D10
 10
-400.2183482191351
 20
-2.409315433285158
 30
0.0
 11
-196.1804959837694
 21
115.3919934795898
 31
0.0
 70
   160
  1
実機長(<>)
 71
     8
 42
-1.0
  3
dc_Rotated
100
AcDbAlignedDimension
 13
103.4300272558985
 23
45.24600469611823
 33
0.0
 14
-327.1916132792412
 24
-128.8953306601397
 34
0.0
 50
29.99999999998175
100
AcDbRotatedDimension
1001
ACAD
1000
DSTYLE
1002
{
1070
   274
1070
     4
1070
    41
1040
18.00135612487793
1070
    79
1070
     2
1070
   343
1005
108
1070
   344
1005
108
1070
   176
1070
     2
1070
   177
1070
     2
1070
   178
1070
     2
1070
   271
1070
     2
1070
    44
1040
5.999999999999998
1070
    42
1040
5.999999999999998
1070
   147
1040
4.200000000000002
1070
   173
1070
     1
1070
    77
1070
     3
1070
    73
1070
     0
1070
   172
1070
     1
1070
    74
1070
     0
1070
   283
1070
     0
1070
   140
1040
23.99999999999999
1070
   284
1070
     8
1070
   288
1070
     1
1070
    78
1070
     8
1070
    90
1070
     1
1002
}
  0
DIMENSION
  5
3EE
330
1F
100
AcDbEntity
  8
0
  6
Continuous
370
    13
100
AcDbDimension
  2
*D11
 10
-464.7509261361781
 20
627.2492157591699
 30
0.0
 11
-464.7509261361781
 21
557.6892157591068
 31
0.0
 70
   160
  1
外径φ<>
 71
     8
 42
-1.0
  3
dc_Rotated
100
AcDbAlignedDimension
 13
-345.0699727440942
 23
497.2492157591101
 33
0.0
 14
-345.0699727440942
 24
627.2492157591699
 34
0.0
 50
90.0
100
AcDbRotatedDimension
1001
ACAD
1000
DSTYLE
1002
{
1070
   274
1070
     4
1070
    41
1040
18.00135612487793
1070
    79
1070
     2
1070
   343
1005
108
1070
   344
1005
108
1070
   176
1070
     2
1070
   177
1070
     2
1070
   178
1070
     2
1070
   271
1070
     2
1070
    44
1040
5.999999999999998
1070
    42
1040
5.999999999999998
1070
   147
1040
6.0
1070
   173
1070
     1
1070
    77
1070
     3
1070
    73
1070
     0
1070
   172
1070
     1
1070
    74
1070
     0
1070
   283
1070
     0
1070
   140
1040
23.99999999999999
1070
   284
1070
     8
1070
   288
1070
     1
1070
    78
1070
     8
1070
    90
1070
     1
1002
}
  0
INSERT
  5
3EF
330
1F
100
AcDbEntity
  8
0
  6
Continuous
100
AcDbBlockReference
  2
DC_GROUP_W_MTS_S_100_1_4
 10
0.0
 20
0.0
 30
0.0
  0
INSERT
  5
3F0
330
1F
100
AcDbEntity
  8
0
  6
Continuous
100
AcDbBlockReference
  2
DC_GROUP_W_MTS_S_100_1_16
 10
0.0
 20
0.0
 30
0.0
  0
INSERT
  5
3F1
330
1F
100
AcDbEntity
  8
0
  6
Continuous
100
AcDbBlockReference
  2
DC_GROUP_W_MTS_S_100_1_17
 10
0.0
 20
0.0
 30
0.0
  0
INSERT
  5
3F2
330
1F
100
AcDbEntity
  8
ZUWAKU
  6
Continuous
100
AcDbBlockReference
  2
DC_GROUP_W_MTS_S_100_1_5
 10
0.0
 20
0.0
 30
0.0
  0
INSERT
  5
3F3
330
1F
100
AcDbEntity
  8
ZUWAKU
  6
Continuous
100
AcDbBlockReference
  2
DC_GROUP_W_MTS_S_100_1_6
 10
0.0
 20
0.0
 30
0.0
  0
INSERT
  5
3F4
330
1F
100
AcDbEntity
  8
15
  6
Continuous
100
AcDbBlockReference
  2
DC_GROUP_W_MTS_S_100_1_7
 10
0.0
 20
0.0
 30
0.0
  0
INSERT
  5
3F5
330
1F
100
AcDbEntity
  8
15
  6
Continuous
100
AcDbBlockReference
  2
DC_GROUP_W_MTS_S_100_1_9
 10
0.0
 20
0.0
 30
0.0
  0
INSERT
  5
3F6
330
1F
100
AcDbEntity
  8
15
  6
Continuous
100
AcDbBlockReference
  2
DC_GROUP_W_MTS_S_100_1_10
 10
0.0
 20
0.0
 30
0.0
  0
INSERT
  5
3F7
330
1F
100
AcDbEntity
  8
15
  6
Continuous
100
AcDbBlockReference
  2
DC_GROUP_W_MTS_S_100_1_12
 10
0.0
 20
0.0
 30
0.0
  0
INSERT
  5
3F8
330
1F
100
AcDbEntity
  8
15
  6
Continuous
100
AcDbBlockReference
  2
DC_GROUP_W_MTS_S_100_1_13
 10
0.0
 20
0.0
 30
0.0
  0
INSERT
  5
3F9
330
1F
100
AcDbEntity
  8
15
  6
Continuous
100
AcDbBlockReference
  2
DC_GROUP_W_MTS_S_100_1_15
 10
0.0
 20
0.0
 30
0.0
  0
VIEWPORT
  5
AF
102
{ACAD_XDICTIONARY
360
401
102
}
330
1B
100
AcDbEntity
 67
     1
  8
0
100
AcDbViewport
 10
0.0
 20
0.0
 30
0.0
 40
7091.999999999997
 41
4864.610759777202
 68
     1
 69
     1
 12
0.0
 22
0.0
 13
0.0
 23
0.0
 14
0.5
 24
0.5
 15
0.0
 25
0.0
 16
0.0
 26
0.0
 36
1.0
 17
0.0
 27
0.0
 37
0.0
 42
50.0
 43
0.0
 44
0.0
 45
4864.610759777202
 50
0.0
 51
0.0
 72
   100
 90
   557152
  1

281
     0
 71
     1
 74
     0
110
0.0
120
0.0
130
0.0
111
1.0
121
0.0
131
0.0
112
0.0
122
1.0
132
0.0
 79
     0
146
0.0
  0
ENDSEC
  0
SECTION
  2
OBJECTS
  0
DICTIONARY
  5
C
330
0
100
AcDbDictionary
281
     1
  3
ACAD_GROUP
350
D
  3
ACAD_LAYOUT
350
1A
  3
ACAD_MATERIAL
350
43
  3
ACAD_MLEADERSTYLE
350
3FC
  3
ACAD_MLINESTYLE
350
17
  3
ACAD_PLOTSETTINGS
350
19
  3
ACAD_PLOTSTYLENAME
350
E
  3
ACAD_SCALELIST
350
47
  3
ACAD_VISUALSTYLE
350
2A
  3
AcDbVariableDictionary
350
3FA
  0
DICTIONARY
  5
403
330
8
100
AcDbDictionary
280
     1
281
     1
  3
ACAD_XREC_ROUNDTRIP
360
404
  0
DICTIONARY
  5
401
330
AF
100
AcDbDictionary
280
     1
281
     1
  3
ACAD_XREC_ROUNDTRIP
360
402
  0
DICTIONARY
  5
D
102
{ACAD_REACTORS
330
C
102
}
330
C
100
AcDbDictionary
281
     1
  0
DICTIONARY
  5
1A
102
{ACAD_REACTORS
330
C
102
}
330
C
100
AcDbDictionary
281
     1
  3
Layout1
350
1E
  3
Layout2
350
26
  3
Model
350
22
  0
DICTIONARY
  5
43
102
{ACAD_REACTORS
330
C
102
}
330
C
100
AcDbDictionary
281
     1
  3
ByBlock
350
45
  3
ByLayer
350
44
  3
Global
350
46
  0
DICTIONARY
  5
3FC
102
{ACAD_REACTORS
330
C
102
}
330
C
100
AcDbDictionary
281
     1
  0
DICTIONARY
  5
17
102
{ACAD_REACTORS
330
C
102
}
330
C
100
AcDbDictionary
281
     1
  3
Standard
350
18
  0
DICTIONARY
  5
19
102
{ACAD_REACTORS
330
C
102
}
330
C
100
AcDbDictionary
281
     1
  0
ACDBDICTIONARYWDFLT
  5
E
102
{ACAD_REACTORS
330
C
102
}
330
C
100
AcDbDictionary
281
     1
  3
Normal
350
F
100
AcDbDictionaryWithDefault
340
F
  0
DICTIONARY
  5
47
102
{ACAD_REACTORS
330
C
102
}
330
C
100
AcDbDictionary
281
     1
  3
A0
350
48
  3
A1
350
49
  3
A2
350
4A
  3
A3
350
4B
  3
A4
350
4C
  3
A5
350
4D
  3
A6
350
4E
  3
A7
350
4F
  3
A8
350
50
  3
A9
350
51
  3
B0
350
52
  3
B1
350
53
  3
B2
350
54
  3
B3
350
55
  3
B4
350
56
  3
B5
350
57
  3
B6
350
58
  3
B7
350
59
  3
B8
350
5A
  3
B9
350
5B
  3
C0
350
5C
  3
C1
350
5D
  3
C2
350
5E
  3
C3
350
5F
  3
C4
350
60
  3
C5
350
61
  3
C6
350
62
  3
C7
350
63
  3
C8
350
64
  3
C9
350
65
  3
D0
350
66
  3
D1
350
67
  3
D2
350
68
  0
DICTIONARY
  5
2A
102
{ACAD_REACTORS
330
C
102
}
330
C
100
AcDbDictionary
281
     1
  3
2dWireframe
350
2F
  3
Basic
350
32
  3
Brighten
350
36
  3
ColorChange
350
3A
  3
Conceptual
350
34
  3
Dim
350
35
  3
EdgeColorOff
350
3D
  3
Facepattern
350
39
  3
Flat
350
2B
  3
FlatWithEdges
350
2C
  3
Gouraud
350
2D
  3
GouraudWithEdges
350
2E
  3
Hidden
350
31
  3
JitterOff
350
3B
  3
Linepattern
350
38
  3
OverhangOff
350
3C
  3
Realistic
350
33
  3
Shaded
350
42
  3
Shaded with edges
350
41
  3
Shades of Gray
350
3E
  3
Sketchy
350
3F
  3
Thicken
350
37
  3
Wireframe
350
30
  3
X-Ray
350
40
  0
DICTIONARY
  5
3FA
102
{ACAD_REACTORS
330
C
102
}
330
C
100
AcDbDictionary
281
     1
  3
CANNOSCALE
350
406
  3
DIMASSOC
350
3FF
  3
HIDETEXT
350
400
  3
MSLTSCALE
350
407
  0
XRECORD
  5
404
102
{ACAD_REACTORS
330
403
102
}
330
403
100
AcDbXrecord
280
     1
102
VTR_0.000_0.000_1.000_1.000_GRIDDISPLAY
 70
     3
102
VTR_0.000_0.000_1.000_1.000_GRIDMAJOR
 70
     5
102
VTR_0.000_0.000_1.000_1.000_DEFAULTLIGHTING
280
     1
102
VTR_0.000_0.000_1.000_1.000_DEFAULTLIGHTINGTYPE
 70
     1
102
VTR_0.000_0.000_1.000_1.000_BRIGHTNESS
141
0.0
102
VTR_0.000_0.000_1.000_1.000_CONTRAST
142
0.0
  0
XRECORD
  5
402
102
{ACAD_REACTORS
330
401
102
}
330
401
100
AcDbXrecord
280
     1
102
GRIDDISPLAY
 70
     2
102
GRIDMAJOR
 70
     5
102
DEFAULTLIGHTING
280
     1
102
DEFAULTLIGHTINGTYPE
 70
     1
102
BRIGHTNESS
141
0.0
102
CONTRAST
142
0.0
  0
LAYOUT
  5
1E
102
{ACAD_REACTORS
330
1A
102
}
330
1A
100
AcDbPlotSettings
  1

  2
none_device
  4

  6

 40
0.0
 41
0.0
 42
0.0
 43
0.0
 44
0.0
 45
0.0
 46
0.0
 47
0.0
 48
0.0
 49
0.0
140
0.0
141
0.0
142
1.0
143
1.0
 70
   688
 72
     0
 73
     0
 74
     5
  7

 75
    16
147
1.0
148
0.0
149
0.0
100
AcDbLayout
  1
Layout1
 70
     0
 71
     1
 10
0.0
 20
0.0
 11
12.0
 21
9.0
 12
0.0
 22
0.0
 32
0.0
 14
1.000000000000000E+20
 24
1.000000000000000E+20
 34
1.000000000000000E+20
 15
-1.000000000000000E+20
 25
-1.000000000000000E+20
 35
-1.000000000000000E+20
146
0.0
 13
0.0
 23
0.0
 33
0.0
 16
1.0
 26
0.0
 36
0.0
 17
0.0
 27
1.0
 37
0.0
 76
     0
330
1B
331
AF
  0
LAYOUT
  5
26
102
{ACAD_REACTORS
330
1A
102
}
330
1A
100
AcDbPlotSettings
  1

  2
none_device
  4

  6

 40
0.0
 41
0.0
 42
0.0
 43
0.0
 44
0.0
 45
0.0
 46
0.0
 47
0.0
 48
0.0
 49
0.0
140
0.0
141
0.0
142
1.0
143
1.0
 70
   688
 72
     0
 73
     0
 74
     5
  7

 75
    16
147
1.0
148
0.0
149
0.0
100
AcDbLayout
  1
Layout2
 70
     1
 71
     2
 10
0.0
 20
0.0
 11
0.0
 21
0.0
 12
0.0
 22
0.0
 32
0.0
 14
0.0
 24
0.0
 34
0.0
 15
0.0
 25
0.0
 35
0.0
146
0.0
 13
0.0
 23
0.0
 33
0.0
 16
1.0
 26
0.0
 36
0.0
 17
0.0
 27
1.0
 37
0.0
 76
     0
330
23
  0
LAYOUT
  5
22
102
{ACAD_REACTORS
330
1A
102
}
330
1A
100
AcDbPlotSettings
  1

  2
none_device
  4
Letter_(8.50_x_11.00_Inches)
  6

 40
6.35
 41
6.35
 42
6.35000508
 43
6.35000508
 44
215.9
 45
279.4
 46
0.0
 47
0.0
 48
0.0
 49
0.0
140
0.0
141
0.0
142
1.0
143
1.0
 70
  1712
 72
     0
 73
     0
 74
     0
  7

 75
     0
147
1.0
148
0.0
149
0.0
100
AcDbLayout
  1
Model
 70
     1
 71
     0
 10
-1260.0
 20
-890.9999999999998
 11
1260.0
 21
890.9999999999998
 12
0.0
 22
0.0
 32
0.0
 14
-3545.999999999999
 24
-2432.305379888601
 34
0.0
 15
3545.999999999999
 25
2432.305379888601
 35
0.0
146
0.0
 13
0.0
 23
0.0
 33
0.0
 16
1.0
 26
0.0
 36
0.0
 17
0.0
 27
1.0
 37
0.0
 76
     0
330
1F
331
29
  0
MATERIAL
  5
45
102
{ACAD_REACTORS
330
43
102
}
102
{ACAD_XDICTIONARY
360
43A
102
}
330
43
100
AcDbMaterial
  1
ByBlock
  0
MATERIAL
  5
44
102
{ACAD_REACTORS
330
43
102
}
102
{ACAD_XDICTIONARY
360
438
102
}
330
43
100
AcDbMaterial
  1
ByLayer
  0
MATERIAL
  5
46
102
{ACAD_REACTORS
330
43
102
}
102
{ACAD_XDICTIONARY
360
43C
102
}
330
43
100
AcDbMaterial
  1
Global
  0
MLINESTYLE
  5
18
102
{ACAD_REACTORS
330
17
102
}
330
17
100
AcDbMlineStyle
  2
Standard
 70
     0
  3

 62
   256
 51
90.0
 52
90.0
 71
     2
 49
0.5
 62
   256
  6
BYLAYER
 49
-0.5
 62
   256
  6
BYLAYER
  0
ACDBPLACEHOLDER
  5
F
102
{ACAD_REACTORS
330
E
102
}
330
E
  0
SCALE
  5
48
102
{ACAD_REACTORS
330
47
102
}
330
47
100
AcDbScale
 70
     0
300
1:1
140
1.0
141
1.0
290
     1
  0
SCALE
  5
49
102
{ACAD_REACTORS
330
47
102
}
330
47
100
AcDbScale
 70
     0
300
1:2
140
1.0
141
2.0
290
     0
  0
SCALE
  5
4A
102
{ACAD_REACTORS
330
47
102
}
330
47
100
AcDbScale
 70
     0
300
1:4
140
1.0
141
4.0
290
     0
  0
SCALE
  5
4B
102
{ACAD_REACTORS
330
47
102
}
330
47
100
AcDbScale
 70
     0
300
1:5
140
1.0
141
5.0
290
     0
  0
SCALE
  5
4C
102
{ACAD_REACTORS
330
47
102
}
330
47
100
AcDbScale
 70
     0
300
1:8
140
1.0
141
8.0
290
     0
  0
SCALE
  5
4D
102
{ACAD_REACTORS
330
47
102
}
330
47
100
AcDbScale
 70
     0
300
1:10
140
1.0
141
10.0
290
     0
  0
SCALE
  5
4E
102
{ACAD_REACTORS
330
47
102
}
330
47
100
AcDbScale
 70
     0
300
1:16
140
1.0
141
16.0
290
     0
  0
SCALE
  5
4F
102
{ACAD_REACTORS
330
47
102
}
330
47
100
AcDbScale
 70
     0
300
1:20
140
1.0
141
20.0
290
     0
  0
SCALE
  5
50
102
{ACAD_REACTORS
330
47
102
}
330
47
100
AcDbScale
 70
     0
300
1:30
140
1.0
141
30.0
290
     0
  0
SCALE
  5
51
102
{ACAD_REACTORS
330
47
102
}
330
47
100
AcDbScale
 70
     0
300
1:40
140
1.0
141
40.0
290
     0
  0
SCALE
  5
52
102
{ACAD_REACTORS
330
47
102
}
330
47
100
AcDbScale
 70
     0
300
1:50
140
1.0
141
50.0
290
     0
  0
SCALE
  5
53
102
{ACAD_REACTORS
330
47
102
}
330
47
100
AcDbScale
 70
     0
300
1:100
140
1.0
141
100.0
290
     0
  0
SCALE
  5
54
102
{ACAD_REACTORS
330
47
102
}
330
47
100
AcDbScale
 70
     0
300
2:1
140
2.0
141
1.0
290
     0
  0
SCALE
  5
55
102
{ACAD_REACTORS
330
47
102
}
330
47
100
AcDbScale
 70
     0
300
4:1
140
4.0
141
1.0
290
     0
  0
SCALE
  5
56
102
{ACAD_REACTORS
330
47
102
}
330
47
100
AcDbScale
 70
     0
300
8:1
140
8.0
141
1.0
290
     0
  0
SCALE
  5
57
102
{ACAD_REACTORS
330
47
102
}
330
47
100
AcDbScale
 70
     0
300
10:1
140
10.0
141
1.0
290
     0
  0
SCALE
  5
58
102
{ACAD_REACTORS
330
47
102
}
330
47
100
AcDbScale
 70
     0
300
100:1
140
100.0
141
1.0
290
     0
  0
SCALE
  5
59
102
{ACAD_REACTORS
330
47
102
}
330
47
100
AcDbScale
 70
     0
300
1/128" = 1'-0"
140
0.0078125
141
12.0
290
     0
  0
SCALE
  5
5A
102
{ACAD_REACTORS
330
47
102
}
330
47
100
AcDbScale
 70
     0
300
1/64" = 1'-0"
140
0.015625
141
12.0
290
     0
  0
SCALE
  5
5B
102
{ACAD_REACTORS
330
47
102
}
330
47
100
AcDbScale
 70
     0
300
1/32" = 1'-0"
140
0.03125
141
12.0
290
     0
  0
SCALE
  5
5C
102
{ACAD_REACTORS
330
47
102
}
330
47
100
AcDbScale
 70
     0
300
1/16" = 1'-0"
140
0.0625
141
12.0
290
     0
  0
SCALE
  5
5D
102
{ACAD_REACTORS
330
47
102
}
330
47
100
AcDbScale
 70
     0
300
3/32" = 1'-0"
140
0.09375
141
12.0
290
     0
  0
SCALE
  5
5E
102
{ACAD_REACTORS
330
47
102
}
330
47
100
AcDbScale
 70
     0
300
1/8" = 1'-0"
140
0.125
141
12.0
290
     0
  0
SCALE
  5
5F
102
{ACAD_REACTORS
330
47
102
}
330
47
100
AcDbScale
 70
     0
300
3/16" = 1'-0"
140
0.1875
141
12.0
290
     0
  0
SCALE
  5
60
102
{ACAD_REACTORS
330
47
102
}
330
47
100
AcDbScale
 70
     0
300
1/4" = 1'-0"
140
0.25
141
12.0
290
     0
  0
SCALE
  5
61
102
{ACAD_REACTORS
330
47
102
}
330
47
100
AcDbScale
 70
     0
300
3/8" = 1'-0"
140
0.375
141
12.0
290
     0
  0
SCALE
  5
62
102
{ACAD_REACTORS
330
47
102
}
330
47
100
AcDbScale
 70
     0
300
1/2" = 1'-0"
140
0.5
141
12.0
290
     0
  0
SCALE
  5
63
102
{ACAD_REACTORS
330
47
102
}
330
47
100
AcDbScale
 70
     0
300
3/4" = 1'-0"
140
0.75
141
12.0
290
     0
  0
SCALE
  5
64
102
{ACAD_REACTORS
330
47
102
}
330
47
100
AcDbScale
 70
     0
300
1" = 1'-0"
140
1.0
141
12.0
290
     0
  0
SCALE
  5
65
102
{ACAD_REACTORS
330
47
102
}
330
47
100
AcDbScale
 70
     0
300
1-1/2" = 1'-0"
140
1.5
141
12.0
290
     0
  0
SCALE
  5
66
102
{ACAD_REACTORS
330
47
102
}
330
47
100
AcDbScale
 70
     0
300
3" = 1'-0"
140
3.0
141
12.0
290
     0
  0
SCALE
  5
67
102
{ACAD_REACTORS
330
47
102
}
330
47
100
AcDbScale
 70
     0
300
6" = 1'-0"
140
6.0
141
12.0
290
     0
  0
SCALE
  5
68
102
{ACAD_REACTORS
330
47
102
}
330
47
100
AcDbScale
 70
     0
300
1'-0" = 1'-0"
140
12.0
141
12.0
290
     0
  0
VISUALSTYLE
  5
2F
102
{ACAD_REACTORS
330
2A
102
}
102
{ACAD_XDICTIONARY
360
410
102
}
330
2A
100
AcDbVisualStyle
  2
2dWireframe
 70
     4
 71
     0
 72
     2
 73
     0
 90
        0
 40
0.6
 41
30.0
 62
     5
 63
     7
 74
     1
 91
        4
 64
     7
 65
   257
 75
     1
175
     1
 42
1.0
 92
        0
 66
   257
 43
1.0
 76
     1
 77
     6
 78
     2
 67
     7
 79
     5
170
     0
171
     0
290
     0
174
     0
 93
        1
 44
0.0
173
     0
291
     0
 45
0.0
1001
ACAD
1000
AcDbSavedByObjectVersion
1070
     0
  0
VISUALSTYLE
  5
32
102
{ACAD_REACTORS
330
2A
102
}
102
{ACAD_XDICTIONARY
360
416
102
}
330
2A
100
AcDbVisualStyle
  2
Basic
 70
     7
 71
     1
 72
     0
 73
     1
 90
        0
 40
0.6
 41
30.0
 62
     5
 63
     7
 74
     0
 91
        4
 64
     7
 65
   257
 75
     1
175
     1
 42
1.0
 92
        8
 66
     7
 43
1.0
 76
     1
 77
     6
 78
     2
 67
     7
 79
     5
170
     0
171
     0
290
     0
174
     0
 93
        1
 44
0.0
173
     0
291
     1
 45
0.0
1001
ACAD
1000
AcDbSavedByObjectVersion
1070
     0
  0
VISUALSTYLE
  5
36
102
{ACAD_REACTORS
330
2A
102
}
102
{ACAD_XDICTIONARY
360
41E
102
}
330
2A
100
AcDbVisualStyle
  2
Brighten
 70
    12
 71
     2
 72
     2
 73
     0
 90
        0
 40
0.6
 41
30.0
 62
     5
 63
     7
 74
     1
 91
        4
 64
     7
 65
   257
 75
     1
175
     1
 42
1.0
 92
        8
 66
     7
 43
1.0
 76
     1
 77
     6
 78
     2
 67
     7
 79
     5
170
     0
171
     0
290
     0
174
     0
 93
        1
 44
50.0
173
     0
291
     1
 45
0.0
1001
ACAD
1000
AcDbSavedByObjectVersion
1070
     0
  0
VISUALSTYLE
  5
3A
102
{ACAD_REACTORS
330
2A
102
}
102
{ACAD_XDICTIONARY
360
426
102
}
330
2A
100
AcDbVisualStyle
  2
ColorChange
 70
    16
 71
     2
 72
     2
 73
     3
 90
        0
 40
0.6
 41
30.0
 62
     5
 63
     8
 74
     1
 91
        4
 64
     7
 65
   257
 75
     1
175
     1
 42
1.0
 92
        8
 66
     8
 43
1.0
 76
     1
 77
     6
 78
     2
 67
     7
 79
     5
170
     0
171
     0
290
     0
174
     0
 93
        1
 44
0.0
173
     0
291
     1
 45
0.0
1001
ACAD
1000
AcDbSavedByObjectVersion
1070
     0
  0
VISUALSTYLE
  5
34
102
{ACAD_REACTORS
330
2A
102
}
102
{ACAD_XDICTIONARY
360
41A
102
}
330
2A
100
AcDbVisualStyle
  2
Conceptual
 70
     9
 71
     3
 72
     2
 73
     0
 90
        0
 40
0.6
 41
30.0
 62
     5
 63
     7
 74
     2
 91
        2
 64
     7
 65
   257
 75
     1
175
     1
 42
179.0
 92
        8
 66
     7
 43
1.0
 76
     1
 77
     6
 78
     2
 67
     7
 79
     3
170
     0
171
     0
290
     0
174
     0
 93
        1
 44
0.0
173
     0
291
     0
 45
0.0
1001
ACAD
1000
AcDbSavedByObjectVersion
1070
     0
  0
VISUALSTYLE
  5
35
102
{ACAD_REACTORS
330
2A
102
}
102
{ACAD_XDICTIONARY
360
41C
102
}
330
2A
100
AcDbVisualStyle
  2
Dim
 70
    11
 71
     2
 72
     2
 73
     0
 90
        0
 40
0.6
 41
30.0
 62
     5
 63
     7
 74
     1
 91
        4
 64
     7
 65
   257
 75
     1
175
     1
 42
1.0
 92
        8
 66
     7
 43
1.0
 76
     1
 77
     6
 78
     2
 67
     7
 79
     5
170
     0
171
     0
290
     0
174
     0
 93
        1
 44
-50.0
173
     0
291
     1
 45
0.0
1001
ACAD
1000
AcDbSavedByObjectVersion
1070
     0
  0
VISUALSTYLE
  5
3D
102
{ACAD_REACTORS
330
2A
102
}
102
{ACAD_XDICTIONARY
360
42C
102
}
330
2A
100
AcDbVisualStyle
  2
EdgeColorOff
 70
    22
 71
     2
 72
     2
 73
     0
 90
        0
 40
0.6
 41
30.0
 62
     5
 63
     7
 74
     1
 91
        4
 64
     7
 65
   257
 75
     1
175
     1
 42
1.0
 92
        8
 66
     7
 43
1.0
 76
     1
 77
     6
 78
     2
 67
     7
 79
     5
170
     0
171
     0
290
     0
174
     0
 93
        1
 44
0.0
173
     0
291
     1
 45
0.0
1001
ACAD
1000
AcDbSavedByObjectVersion
1070
     0
  0
VISUALSTYLE
  5
39
102
{ACAD_REACTORS
330
2A
102
}
102
{ACAD_XDICTIONARY
360
424
102
}
330
2A
100
AcDbVisualStyle
  2
Facepattern
 70
    15
 71
     2
 72
     2
 73
     0
 90
        0
 40
0.6
 41
30.0
 62
     5
 63
     7
 74
     1
 91
        4
 64
     7
 65
   257
 75
     1
175
     1
 42
1.0
 92
        8
 66
     7
 43
1.0
 76
     1
 77
     6
 78
     2
 67
     7
 79
     5
170
     0
171
     0
290
     0
174
     0
 93
        1
 44
0.0
173
     0
291
     1
 45
0.0
1001
ACAD
1000
AcDbSavedByObjectVersion
1070
     0
  0
VISUALSTYLE
  5
2B
102
{ACAD_REACTORS
330
2A
102
}
102
{ACAD_XDICTIONARY
360
408
102
}
330
2A
100
AcDbVisualStyle
  2
Flat
 70
     0
 71
     2
 72
     1
 73
     1
 90
        2
 40
0.6
 41
30.0
 62
     5
 63
     7
 74
     0
 91
        0
 64
     7
 65
   257
 75
     1
175
     1
 42
1.0
 92
        8
 66
     7
 43
1.0
 76
     1
 77
     6
 78
     2
 67
     7
 79
     5
170
     0
171
     0
290
     0
174
     0
 93
       13
 44
0.0
173
     0
291
     1
 45
0.0
1001
ACAD
1000
AcDbSavedByObjectVersion
1070
     0
  0
VISUALSTYLE
  5
2C
102
{ACAD_REACTORS
330
2A
102
}
102
{ACAD_XDICTIONARY
360
40A
102
}
330
2A
100
AcDbVisualStyle
  2
FlatWithEdges
 70
     1
 71
     2
 72
     1
 73
     1
 90
        2
 40
0.6
 41
30.0
 62
     5
 63
     7
 74
     1
 91
        0
 64
     7
 65
   257
 75
     1
175
     1
 42
1.0
 92
        0
 66
   257
 43
1.0
 76
     1
 77
     6
 78
     2
 67
     7
 79
     5
170
     0
171
     0
290
     0
174
     0
 93
       13
 44
0.0
173
     0
291
     1
 45
0.0
1001
ACAD
1000
AcDbSavedByObjectVersion
1070
     0
  0
VISUALSTYLE
  5
2D
102
{ACAD_REACTORS
330
2A
102
}
102
{ACAD_XDICTIONARY
360
40C
102
}
330
2A
100
AcDbVisualStyle
  2
Gouraud
 70
     2
 71
     2
 72
     2
 73
     1
 90
        2
 40
0.6
 41
30.0
 62
     5
 63
     7
 74
     0
 91
        0
 64
     7
 65
   257
 75
     1
175
     1
 42
1.0
 92
        0
 66
     7
 43
1.0
 76
     1
 77
     6
 78
     2
 67
     7
 79
     5
170
     0
171
     0
290
     0
174
     0
 93
       13
 44
0.0
173
     0
291
     1
 45
0.0
1001
ACAD
1000
AcDbSavedByObjectVersion
1070
     0
  0
VISUALSTYLE
  5
2E
102
{ACAD_REACTORS
330
2A
102
}
102
{ACAD_XDICTIONARY
360
40E
102
}
330
2A
100
AcDbVisualStyle
  2
GouraudWithEdges
 70
     3
 71
     2
 72
     2
 73
     1
 90
        2
 40
0.6
 41
30.0
 62
     5
 63
     7
 74
     1
 91
        0
 64
     7
 65
   257
 75
     1
175
     1
 42
1.0
 92
        0
 66
   257
 43
1.0
 76
     1
 77
     6
 78
     2
 67
     7
 79
     5
170
     0
171
     0
290
     0
174
     0
 93
       13
 44
0.0
173
     0
291
     1
 45
0.0
1001
ACAD
1000
AcDbSavedByObjectVersion
1070
     0
  0
VISUALSTYLE
  5
31
102
{ACAD_REACTORS
330
2A
102
}
102
{ACAD_XDICTIONARY
360
414
102
}
330
2A
100
AcDbVisualStyle
  2
Hidden
 70
     6
 71
     1
 72
     2
 73
     2
 90
        0
 40
0.6
 41
30.0
 62
     5
 63
     7
 74
     2
 91
        2
 64
     7
 65
   257
 75
     2
175
     1
 42
40.0
 92
        0
 66
   257
 43
1.0
 76
     1
 77
     6
 78
     2
 67
     7
 79
     3
170
     0
171
     0
290
     0
174
     0
 93
        1
 44
0.0
173
     0
291
     0
 45
0.0
1001
ACAD
1000
AcDbSavedByObjectVersion
1070
     0
  0
VISUALSTYLE
  5
3B
102
{ACAD_REACTORS
330
2A
102
}
102
{ACAD_XDICTIONARY
360
428
102
}
330
2A
100
AcDbVisualStyle
  2
JitterOff
 70
    20
 71
     2
 72
     2
 73
     0
 90
        0
 40
0.6
 41
30.0
 62
     5
 63
     7
 74
     1
 91
        4
 64
     7
 65
   257
 75
     1
175
     1
 42
1.0
 92
       10
 66
     7
 43
1.0
 76
     1
 77
     6
 78
     2
 67
     7
 79
     5
170
     0
171
     0
290
     0
174
     0
 93
        1
 44
0.0
173
     0
291
     1
 45
0.0
1001
ACAD
1000
AcDbSavedByObjectVersion
1070
     0
  0
VISUALSTYLE
  5
38
102
{ACAD_REACTORS
330
2A
102
}
102
{ACAD_XDICTIONARY
360
422
102
}
330
2A
100
AcDbVisualStyle
  2
Linepattern
 70
    14
 71
     2
 72
     2
 73
     0
 90
        0
 40
0.6
 41
30.0
 62
     5
 63
     7
 74
     1
 91
        4
 64
     7
 65
   257
 75
     7
175
     7
 42
1.0
 92
        8
 66
     7
 43
1.0
 76
     1
 77
     6
 78
     2
 67
     7
 79
     5
170
     0
171
     0
290
     0
174
     0
 93
        1
 44
0.0
173
     0
291
     1
 45
0.0
1001
ACAD
1000
AcDbSavedByObjectVersion
1070
     0
  0
VISUALSTYLE
  5
3C
102
{ACAD_REACTORS
330
2A
102
}
102
{ACAD_XDICTIONARY
360
42A
102
}
330
2A
100
AcDbVisualStyle
  2
OverhangOff
 70
    21
 71
     2
 72
     2
 73
     0
 90
        0
 40
0.6
 41
30.0
 62
     5
 63
     7
 74
     1
 91
        4
 64
     7
 65
   257
 75
     1
175
     1
 42
1.0
 92
        9
 66
     7
 43
1.0
 76
     1
 77
     6
 78
     2
 67
     7
 79
     5
170
     0
171
     0
290
     0
174
     0
 93
        1
 44
0.0
173
     0
291
     1
 45
0.0
1001
ACAD
1000
AcDbSavedByObjectVersion
1070
     0
  0
VISUALSTYLE
  5
33
102
{ACAD_REACTORS
330
2A
102
}
102
{ACAD_XDICTIONARY
360
418
102
}
330
2A
100
AcDbVisualStyle
  2
Realistic
 70
     8
 71
     2
 72
     3
 73
     0
 90
        2
 40
0.6
 41
30.0
 62
     5
 63
     7
 74
     0
 91
        0
 64
     7
 65
   257
 75
     1
175
     1
 42
1.0
 92
        8
 66
   257
 43
1.0
 76
     1
 77
     6
 78
     2
 67
     7
 79
     3
170
     0
171
     0
290
     0
174
     0
 93
       13
 44
0.0
173
     0
291
     0
 45
0.0
1001
ACAD
1000
AcDbSavedByObjectVersion
1070
     0
  0
VISUALSTYLE
  5
42
102
{ACAD_REACTORS
330
2A
102
}
102
{ACAD_XDICTIONARY
360
436
102
}
330
2A
100
AcDbVisualStyle
  2
Shaded
 70
    27
 71
     2
 72
     2
 73
     1
 90
        2
 40
0.6
 41
30.0
 62
     5
 63
     7
 74
     0
 91
        4
 64
     7
 65
   257
 75
     1
175
     1
 42
1.0
 92
        8
 66
   257
 43
1.0
 76
     1
 77
     6
 78
     2
 67
     8
 79
     3
170
     0
171
     0
290
     0
174
     0
 93
        5
 44
0.0
173
     0
291
     0
 45
0.0
1001
ACAD
1000
AcDbSavedByObjectVersion
1070
     0
  0
VISUALSTYLE
  5
41
102
{ACAD_REACTORS
330
2A
102
}
102
{ACAD_XDICTIONARY
360
434
102
}
330
2A
100
AcDbVisualStyle
  2
Shaded with edges
 70
    26
 71
     2
 72
     2
 73
     1
 90
        2
 40
0.6
 41
30.0
 62
     5
 63
     7
 74
     1
 91
       10
 64
     7
 65
   257
 75
     2
175
     1
 42
1.0
 92
        8
 66
   257
 43
1.0
 76
     1
 77
     6
 78
     2
 67
     7
 79
     3
170
     0
171
     0
290
     0
174
     0
 93
        5
 44
0.0
173
     0
291
     0
 45
0.0
1001
ACAD
1000
AcDbSavedByObjectVersion
1070
     0
  0
VISUALSTYLE
  5
3E
102
{ACAD_REACTORS
330
2A
102
}
102
{ACAD_XDICTIONARY
360
42E
102
}
330
2A
100
AcDbVisualStyle
  2
Shades of Gray
 70
    23
 71
     2
 72
     2
 73
     3
 90
        0
 40
0.6
 41
30.0
 62
     5
 63
     7
 74
     2
 91
        2
 64
     7
 65
     7
 75
     1
175
     1
 42
40.0
 92
        8
 66
     7
 43
1.0
 76
     1
 77
     6
 78
     2
 67
     7
 79
     3
170
     0
171
     0
290
     0
174
     0
 93
        1
 44
0.0
173
     0
291
     0
 45
0.0
1001
ACAD
1000
AcDbSavedByObjectVersion
1070
     0
  0
VISUALSTYLE
  5
3F
102
{ACAD_REACTORS
330
2A
102
}
102
{ACAD_XDICTIONARY
360
430
102
}
330
2A
100
AcDbVisualStyle
  2
Sketchy
 70
    24
 71
     1
 72
     2
 73
     2
 90
        0
 40
0.6
 41
30.0
 62
     5
 63
     7
 74
     2
 91
        2
 64
     7
 65
     7
 75
     1
175
     1
 42
40.0
 92
       11
 66
     7
 43
1.0
 76
     1
 77
     6
 78
     2
 67
     7
 79
     6
170
     0
171
     0
290
     0
174
     0
 93
        1
 44
0.0
173
     0
291
     0
 45
0.0
1001
ACAD
1000
AcDbSavedByObjectVersion
1070
     0
  0
VISUALSTYLE
  5
37
102
{ACAD_REACTORS
330
2A
102
}
102
{ACAD_XDICTIONARY
360
420
102
}
330
2A
100
AcDbVisualStyle
  2
Thicken
 70
    13
 71
     2
 72
     2
 73
     0
 90
        0
 40
0.6
 41
30.0
 62
     5
 63
     7
 74
     1
 91
        4
 64
     7
 65
   257
 75
     1
175
     1
 42
1.0
 92
       12
 66
     7
 43
1.0
 76
     1
 77
     6
 78
     2
 67
     7
 79
     5
170
     0
171
     0
290
     0
174
     0
 93
        1
 44
0.0
173
     0
291
     1
 45
0.0
1001
ACAD
1000
AcDbSavedByObjectVersion
1070
     0
  0
VISUALSTYLE
  5
30
102
{ACAD_REACTORS
330
2A
102
}
102
{ACAD_XDICTIONARY
360
412
102
}
330
2A
100
AcDbVisualStyle
  2
Wireframe
 70
     5
 71
     0
 72
     2
 73
     0
 90
        0
 40
0.6
 41
30.0
 62
     5
 63
     7
 74
     1
 91
        4
 64
     7
 65
   257
 75
     1
175
     1
 42
1.0
 92
        0
 66
   257
 43
1.0
 76
     1
 77
     6
 78
     2
 67
     7
 79
     3
170
     0
171
     0
290
     0
174
     0
 93
        1
 44
0.0
173
     0
291
     0
 45
0.0
1001
ACAD
1000
AcDbSavedByObjectVersion
1070
     0
  0
VISUALSTYLE
  5
40
102
{ACAD_REACTORS
330
2A
102
}
102
{ACAD_XDICTIONARY
360
432
102
}
330
2A
100
AcDbVisualStyle
  2
X-Ray
 70
    25
 71
     2
 72
     2
 73
     1
 90
        1
 40
0.5
 41
30.0
 62
     5
 63
     7
 74
     1
 91
        0
 64
     7
 65
   257
 75
     1
175
     1
 42
1.0
 92
        8
 66
     7
 43
1.0
 76
     1
 77
     6
 78
     2
 67
     7
 79
     3
170
     0
171
     0
290
     0
174
     0
 93
       13
 44
0.0
173
     0
291
     0
 45
0.0
1001
ACAD
1000
AcDbSavedByObjectVersion
1070
     0
  0
DICTIONARYVAR
  5
406
102
{ACAD_REACTORS
330
3FA
102
}
330
3FA
100
DictionaryVariables
280
     0
  1
1:1
  0
DICTIONARYVAR
  5
3FF
102
{ACAD_REACTORS
330
3FA
102
}
330
3FA
100
DictionaryVariables
280
     0
  1
2
  0
DICTIONARYVAR
  5
400
102
{ACAD_REACTORS
330
3FA
102
}
330
3FA
100
DictionaryVariables
280
     0
  1
1
  0
DICTIONARYVAR
  5
407
102
{ACAD_REACTORS
330
3FA
102
}
330
3FA
100
DictionaryVariables
280
     0
  1
1
  0
DICTIONARY
  5
43A
330
45
100
AcDbDictionary
280
     1
281
     1
  3
ACAD_XREC_ROUNDTRIP
360
43B
  0
DICTIONARY
  5
438
330
44
100
AcDbDictionary
280
     1
281
     1
  3
ACAD_XREC_ROUNDTRIP
360
439
  0
DICTIONARY
  5
43C
330
46
100
AcDbDictionary
280
     1
281
     1
  3
ACAD_XREC_ROUNDTRIP
360
43D
  0
DICTIONARY
  5
410
330
2F
100
AcDbDictionary
280
     1
281
     1
  3
ACAD_XREC_ROUNDTRIP
360
411
  0
DICTIONARY
  5
416
330
32
100
AcDbDictionary
280
     1
281
     1
  3
ACAD_XREC_ROUNDTRIP
360
417
  0
DICTIONARY
  5
41E
330
36
100
AcDbDictionary
280
     1
281
     1
  3
ACAD_XREC_ROUNDTRIP
360
41F
  0
DICTIONARY
  5
426
330
3A
100
AcDbDictionary
280
     1
281
     1
  3
ACAD_XREC_ROUNDTRIP
360
427
  0
DICTIONARY
  5
41A
330
34
100
AcDbDictionary
280
     1
281
     1
  3
ACAD_XREC_ROUNDTRIP
360
41B
  0
DICTIONARY
  5
41C
330
35
100
AcDbDictionary
280
     1
281
     1
  3
ACAD_XREC_ROUNDTRIP
360
41D
  0
DICTIONARY
  5
42C
330
3D
100
AcDbDictionary
280
     1
281
     1
  3
ACAD_XREC_ROUNDTRIP
360
42D
  0
DICTIONARY
  5
424
330
39
100
AcDbDictionary
280
     1
281
     1
  3
ACAD_XREC_ROUNDTRIP
360
425
  0
DICTIONARY
  5
408
330
2B
100
AcDbDictionary
280
     1
281
     1
  3
ACAD_XREC_ROUNDTRIP
360
409
  0
DICTIONARY
  5
40A
330
2C
100
AcDbDictionary
280
     1
281
     1
  3
ACAD_XREC_ROUNDTRIP
360
40B
  0
DICTIONARY
  5
40C
330
2D
100
AcDbDictionary
280
     1
281
     1
  3
ACAD_XREC_ROUNDTRIP
360
40D
  0
DICTIONARY
  5
40E
330
2E
100
AcDbDictionary
280
     1
281
     1
  3
ACAD_XREC_ROUNDTRIP
360
40F
  0
DICTIONARY
  5
414
330
31
100
AcDbDictionary
280
     1
281
     1
  3
ACAD_XREC_ROUNDTRIP
360
415
  0
DICTIONARY
  5
428
330
3B
100
AcDbDictionary
280
     1
281
     1
  3
ACAD_XREC_ROUNDTRIP
360
429
  0
DICTIONARY
  5
422
330
38
100
AcDbDictionary
280
     1
281
     1
  3
ACAD_XREC_ROUNDTRIP
360
423
  0
DICTIONARY
  5
42A
330
3C
100
AcDbDictionary
280
     1
281
     1
  3
ACAD_XREC_ROUNDTRIP
360
42B
  0
DICTIONARY
  5
418
330
33
100
AcDbDictionary
280
     1
281
     1
  3
ACAD_XREC_ROUNDTRIP
360
419
  0
DICTIONARY
  5
436
330
42
100
AcDbDictionary
280
     1
281
     1
  3
ACAD_XREC_ROUNDTRIP
360
437
  0
DICTIONARY
  5
434
330
41
100
AcDbDictionary
280
     1
281
     1
  3
ACAD_XREC_ROUNDTRIP
360
435
  0
DICTIONARY
  5
42E
330
3E
100
AcDbDictionary
280
     1
281
     1
  3
ACAD_XREC_ROUNDTRIP
360
42F
  0
DICTIONARY
  5
430
330
3F
100
AcDbDictionary
280
     1
281
     1
  3
ACAD_XREC_ROUNDTRIP
360
431
  0
DICTIONARY
  5
420
330
37
100
AcDbDictionary
280
     1
281
     1
  3
ACAD_XREC_ROUNDTRIP
360
421
  0
DICTIONARY
  5
412
330
30
100
AcDbDictionary
280
     1
281
     1
  3
ACAD_XREC_ROUNDTRIP
360
413
  0
DICTIONARY
  5
432
330
40
100
AcDbDictionary
280
     1
281
     1
  3
ACAD_XREC_ROUNDTRIP
360
433
  0
XRECORD
  5
43B
102
{ACAD_REACTORS
330
43A
102
}
330
43A
100
AcDbXrecord
280
     1
102
MATERIAL
148
0.0
149
0.0
149
0.0
 93
        0
 94
      127
282
     0
 72
     1
 77
     1
171
     1
175
     1
179
     1
273
     0
  0
XRECORD
  5
439
102
{ACAD_REACTORS
330
438
102
}
330
438
100
AcDbXrecord
280
     1
102
MATERIAL
148
0.0
149
0.0
149
0.0
 93
        0
 94
      127
282
     0
 72
     1
 77
     1
171
     1
175
     1
179
     1
273
     0
  0
XRECORD
  5
43D
102
{ACAD_REACTORS
330
43C
102
}
330
43C
100
AcDbXrecord
280
     1
102
MATERIAL
148
0.0
149
0.0
149
0.0
 93
        0
 94
      127
282
     0
 72
     1
 77
     1
171
     1
175
     1
179
     1
273
     0
  0
XRECORD
  5
411
102
{ACAD_REACTORS
330
410
102
}
330
410
100
AcDbXrecord
280
     1
102
RTVSPropertyOp0
 70
     1
102
RTVSPropertyOp1
 70
     1
102
RTVSPropertyOp2
 70
     1
102
RTVSPropertyOp3
 70
     1
102
RTVSPropertyOp4
 70
     1
102
RTVSPropertyOp5
 70
     1
102
RTVSPropertyOp6
 70
     1
102
RTVSPropertyOp7
 70
     1
102
RTVSPropertyOp8
 70
     1
102
RTVSPropertyOp9
 70
     1
102
RTVSPropertyOp10
 70
     1
102
RTVSPropertyOp11
 70
     1
102
RTVSPropertyOp12
 70
     1
102
RTVSPropertyOp13
 70
     1
102
RTVSPropertyOp14
 70
     1
102
RTVSPropertyOp15
 70
     1
102
RTVSPropertyOp16
 70
     1
102
RTVSPropertyOp17
 70
     1
102
RTVSPropertyOp18
 70
     1
102
RTVSPropertyOp19
 70
     1
102
RTVSPropertyOp20
 70
     1
102
RTVSPropertyOp21
 70
     1
102
RTVSPropertyOp22
 70
     1
102
RTVSPropertyOp23
 70
     1
102
RTVSPropertyOp24
 70
     1
102
RTVSPropertyOp25
 70
     1
102
RTVSPropertyOp26
 70
     1
102
RTVSPropertyOp27
 70
     1
102
RTVSPropertyOp28
 70
     1
102
RTVSPropertyOp29
 70
     1
102
RTVSPropertyOp30
 70
     1
102
RTVSPropertyOp31
 70
     1
102
RTVSPropertyOp32
 70
     1
102
RTVSPropertyOp33
 70
     1
102
RTVSPropertyOp34
 70
     1
102
RTVSPropertyOp35
 70
     1
102
RTVSPropertyOp36
 70
     1
102
RTVSPropertyOp37
 70
     1
102
RTVSPropertyOp38
 70
     1
102
RTVSPropertyOp39
 70
     1
102
RTVSPropertyOp40
 70
     1
102
RTVSPropertyOp41
 70
     1
102
RTVSPropertyOp42
 70
     1
102
RTVSPropertyOp43
 70
     1
102
RTVSPropertyOp44
 70
     1
102
RTVSPropertyOp45
 70
     1
102
RTVSPropertyOp46
 70
     1
102
RTVSPropertyOp47
 70
     1
102
RTVSPropertyOp48
 70
     1
102
RTVSPropertyOp49
 70
     1
102
RTVSPropertyOp50
 70
     1
102
RTVSPropertyOp51
 70
     0
102
RTVSPropertyOp52
 70
     0
102
RTVSPropertyOp53
 70
     1
102
RTVSPropertyOp54
 70
     1
102
RTVSPropertyOp55
 70
     1
102
RTVSPropertyOp56
 70
     1
102
RTVSPropertyOp57
 70
     1
102
RTVSPost2010Prop28
280
     1
102
RTVSPost2010PropOp28
 70
     1
102
RTVSPost2010Prop29
280
     1
102
RTVSPost2010PropOp29
 70
     1
102
RTVSPost2010Prop30
280
     0
102
RTVSPost2010PropOp30
 70
     1
102
RTVSPost2010Prop31
280
     0
102
RTVSPost2010PropOp31
 70
     1
102
RTVSPost2010Prop32
280
     0
102
RTVSPost2010PropOp32
 70
     1
102
RTVSPost2010Prop33
280
     0
102
RTVSPost2010PropOp33
 70
     1
102
RTVSPost2010Prop34
280
     0
102
RTVSPost2010PropOp34
 70
     1
102
RTVSPost2010Prop35
280
     0
102
RTVSPost2010PropOp35
 70
     1
102
RTVSPost2010Prop36
280
     0
102
RTVSPost2010PropOp36
 70
     1
102
RTVSPost2010Prop37
 90
       50
102
RTVSPost2010PropOp37
 70
     1
102
RTVSPost2010Prop38
140
0.0
102
RTVSPost2010PropOp38
 70
     1
102
RTVSPost2010Prop39
140
1.0
102
RTVSPost2010PropOp39
 70
     1
102
RTVSPost2010Prop40
 90
        0
102
RTVSPost2010PropOp40
 70
     1
102
RTVSPost2010Prop41ColorIndex
 90
       18
102
RTVSPost2010Prop41ColorRGB
 90
        0
102
RTVSPost2010PropOp41
 70
     1
102
RTVSPost2010Prop42
 90
       50
102
RTVSPost2010PropOp42
 70
     1
102
RTVSPost2010Prop43
 90
        3
102
RTVSPost2010PropOp43
 70
     1
102
RTVSPost2010Prop44ColorIndex
 90
        5
102
RTVSPost2010Prop44ColorRGB
 90
      255
102
RTVSPost2010PropOp44
 70
     1
102
RTVSPost2010Prop45
280
     0
102
RTVSPost2010PropOp45
 70
     1
102
RTVSPost2010Prop46
 90
       50
102
RTVSPost2010PropOp46
 70
     1
102
RTVSPost2010Prop47
 90
       50
102
RTVSPost2010PropOp47
 70
     1
102
RTVSPost2010Prop48
 90
       50
102
RTVSPost2010PropOp48
 70
     1
102
RTVSPost2010Prop49
280
     0
102
RTVSPost2010PropOp49
 70
     1
102
RTVSPost2010Prop50
 90
       50
102
RTVSPost2010PropOp50
 70
     1
102
RTVSPost2010Prop51ColorIndex
 90
      256
102
RTVSPost2010Prop51ColorRGB
 90
-16777216
102
RTVSPost2010PropOp51
 70
     0
102
RTVSPost2010Prop52
140
1.0
102
RTVSPost2010PropOp52
 70
     0
102
RTVSPost2010Prop53
 90
        2
102
RTVSPost2010PropOp53
 70
     1
102
RTVSPost2010Prop54
  1
strokes_ogs.tif
102
RTVSPost2010PropOp54
 70
     1
102
RTVSPost2010Prop55
280
     0
102
RTVSPost2010PropOp55
 70
     1
102
RTVSPost2010Prop56
140
1.0
102
RTVSPost2010PropOp56
 70
     1
102
RTVSPost2010Prop57
140
1.0
102
RTVSPost2010PropOp57
 70
     1
  0
XRECORD
  5
417
102
{ACAD_REACTORS
330
416
102
}
330
416
100
AcDbXrecord
280
     1
102
RTVSPropertyOp0
 70
     1
102
RTVSPropertyOp1
 70
     1
102
RTVSPropertyOp2
 70
     1
102
RTVSPropertyOp3
 70
     1
102
RTVSPropertyOp4
 70
     1
102
RTVSPropertyOp5
 70
     1
102
RTVSPropertyOp6
 70
     1
102
RTVSPropertyOp7
 70
     1
102
RTVSPropertyOp8
 70
     1
102
RTVSPropertyOp9
 70
     1
102
RTVSPropertyOp10
 70
     1
102
RTVSPropertyOp11
 70
     1
102
RTVSPropertyOp12
 70
     1
102
RTVSPropertyOp13
 70
     1
102
RTVSPropertyOp14
 70
     1
102
RTVSPropertyOp15
 70
     1
102
RTVSPropertyOp16
 70
     1
102
RTVSPropertyOp17
 70
     1
102
RTVSPropertyOp18
 70
     1
102
RTVSPropertyOp19
 70
     1
102
RTVSPropertyOp20
 70
     1
102
RTVSPropertyOp21
 70
     1
102
RTVSPropertyOp22
 70
     1
102
RTVSPropertyOp23
 70
     1
102
RTVSPropertyOp24
 70
     1
102
RTVSPropertyOp25
 70
     1
102
RTVSPropertyOp26
 70
     1
102
RTVSPropertyOp27
 70
     1
102
RTVSPropertyOp28
 70
     1
102
RTVSPropertyOp29
 70
     1
102
RTVSPropertyOp30
 70
     1
102
RTVSPropertyOp31
 70
     1
102
RTVSPropertyOp32
 70
     1
102
RTVSPropertyOp33
 70
     1
102
RTVSPropertyOp34
 70
     1
102
RTVSPropertyOp35
 70
     1
102
RTVSPropertyOp36
 70
     1
102
RTVSPropertyOp37
 70
     1
102
RTVSPropertyOp38
 70
     1
102
RTVSPropertyOp39
 70
     1
102
RTVSPropertyOp40
 70
     1
102
RTVSPropertyOp41
 70
     1
102
RTVSPropertyOp42
 70
     1
102
RTVSPropertyOp43
 70
     1
102
RTVSPropertyOp44
 70
     1
102
RTVSPropertyOp45
 70
     1
102
RTVSPropertyOp46
 70
     1
102
RTVSPropertyOp47
 70
     1
102
RTVSPropertyOp48
 70
     1
102
RTVSPropertyOp49
 70
     1
102
RTVSPropertyOp50
 70
     1
102
RTVSPropertyOp51
 70
     0
102
RTVSPropertyOp52
 70
     0
102
RTVSPropertyOp53
 70
     1
102
RTVSPropertyOp54
 70
     1
102
RTVSPropertyOp55
 70
     1
102
RTVSPropertyOp56
 70
     1
102
RTVSPropertyOp57
 70
     1
102
RTVSPost2010Prop28
280
     0
102
RTVSPost2010PropOp28
 70
     1
102
RTVSPost2010Prop29
280
     1
102
RTVSPost2010PropOp29
 70
     1
102
RTVSPost2010Prop30
280
     1
102
RTVSPost2010PropOp30
 70
     1
102
RTVSPost2010Prop31
280
     0
102
RTVSPost2010PropOp31
 70
     1
102
RTVSPost2010Prop32
280
     0
102
RTVSPost2010PropOp32
 70
     1
102
RTVSPost2010Prop33
280
     0
102
RTVSPost2010PropOp33
 70
     1
102
RTVSPost2010Prop34
280
     0
102
RTVSPost2010PropOp34
 70
     1
102
RTVSPost2010Prop35
280
     0
102
RTVSPost2010PropOp35
 70
     1
102
RTVSPost2010Prop36
280
     0
102
RTVSPost2010PropOp36
 70
     1
102
RTVSPost2010Prop37
 90
       50
102
RTVSPost2010PropOp37
 70
     1
102
RTVSPost2010Prop38
140
0.0
102
RTVSPost2010PropOp38
 70
     1
102
RTVSPost2010Prop39
140
1.0
102
RTVSPost2010PropOp39
 70
     1
102
RTVSPost2010Prop40
 90
        0
102
RTVSPost2010PropOp40
 70
     1
102
RTVSPost2010Prop41ColorIndex
 90
       18
102
RTVSPost2010Prop41ColorRGB
 90
        0
102
RTVSPost2010PropOp41
 70
     1
102
RTVSPost2010Prop42
 90
       50
102
RTVSPost2010PropOp42
 70
     1
102
RTVSPost2010Prop43
 90
        3
102
RTVSPost2010PropOp43
 70
     1
102
RTVSPost2010Prop44ColorIndex
 90
        5
102
RTVSPost2010Prop44ColorRGB
 90
      255
102
RTVSPost2010PropOp44
 70
     1
102
RTVSPost2010Prop45
280
     0
102
RTVSPost2010PropOp45
 70
     1
102
RTVSPost2010Prop46
 90
       50
102
RTVSPost2010PropOp46
 70
     1
102
RTVSPost2010Prop47
 90
       50
102
RTVSPost2010PropOp47
 70
     1
102
RTVSPost2010Prop48
 90
       50
102
RTVSPost2010PropOp48
 70
     1
102
RTVSPost2010Prop49
280
     0
102
RTVSPost2010PropOp49
 70
     1
102
RTVSPost2010Prop50
 90
       50
102
RTVSPost2010PropOp50
 70
     1
102
RTVSPost2010Prop51ColorIndex
 90
      256
102
RTVSPost2010Prop51ColorRGB
 90
-16777216
102
RTVSPost2010PropOp51
 70
     0
102
RTVSPost2010Prop52
140
1.0
102
RTVSPost2010PropOp52
 70
     0
102
RTVSPost2010Prop53
 90
        2
102
RTVSPost2010PropOp53
 70
     1
102
RTVSPost2010Prop54
  1
strokes_ogs.tif
102
RTVSPost2010PropOp54
 70
     1
102
RTVSPost2010Prop55
280
     0
102
RTVSPost2010PropOp55
 70
     1
102
RTVSPost2010Prop56
140
1.0
102
RTVSPost2010PropOp56
 70
     1
102
RTVSPost2010Prop57
140
1.0
102
RTVSPost2010PropOp57
 70
     1
  0
XRECORD
  5
41F
102
{ACAD_REACTORS
330
41E
102
}
330
41E
100
AcDbXrecord
280
     1
102
RTVSPropertyOp0
 70
     1
102
RTVSPropertyOp1
 70
     1
102
RTVSPropertyOp2
 70
     1
102
RTVSPropertyOp3
 70
     1
102
RTVSPropertyOp4
 70
     1
102
RTVSPropertyOp5
 70
     1
102
RTVSPropertyOp6
 70
     1
102
RTVSPropertyOp7
 70
     1
102
RTVSPropertyOp8
 70
     1
102
RTVSPropertyOp9
 70
     1
102
RTVSPropertyOp10
 70
     1
102
RTVSPropertyOp11
 70
     1
102
RTVSPropertyOp12
 70
     1
102
RTVSPropertyOp13
 70
     1
102
RTVSPropertyOp14
 70
     1
102
RTVSPropertyOp15
 70
     1
102
RTVSPropertyOp16
 70
     1
102
RTVSPropertyOp17
 70
     1
102
RTVSPropertyOp18
 70
     1
102
RTVSPropertyOp19
 70
     1
102
RTVSPropertyOp20
 70
     1
102
RTVSPropertyOp21
 70
     1
102
RTVSPropertyOp22
 70
     1
102
RTVSPropertyOp23
 70
     1
102
RTVSPropertyOp24
 70
     1
102
RTVSPropertyOp25
 70
     1
102
RTVSPropertyOp26
 70
     1
102
RTVSPropertyOp27
 70
     1
102
RTVSPropertyOp28
 70
     1
102
RTVSPropertyOp29
 70
     1
102
RTVSPropertyOp30
 70
     1
102
RTVSPropertyOp31
 70
     1
102
RTVSPropertyOp32
 70
     1
102
RTVSPropertyOp33
 70
     1
102
RTVSPropertyOp34
 70
     1
102
RTVSPropertyOp35
 70
     1
102
RTVSPropertyOp36
 70
     1
102
RTVSPropertyOp37
 70
     1
102
RTVSPropertyOp38
 70
     1
102
RTVSPropertyOp39
 70
     1
102
RTVSPropertyOp40
 70
     1
102
RTVSPropertyOp41
 70
     1
102
RTVSPropertyOp42
 70
     1
102
RTVSPropertyOp43
 70
     1
102
RTVSPropertyOp44
 70
     1
102
RTVSPropertyOp45
 70
     1
102
RTVSPropertyOp46
 70
     1
102
RTVSPropertyOp47
 70
     1
102
RTVSPropertyOp48
 70
     1
102
RTVSPropertyOp49
 70
     1
102
RTVSPropertyOp50
 70
     1
102
RTVSPropertyOp51
 70
     0
102
RTVSPropertyOp52
 70
     0
102
RTVSPropertyOp53
 70
     1
102
RTVSPropertyOp54
 70
     1
102
RTVSPropertyOp55
 70
     1
102
RTVSPropertyOp56
 70
     1
102
RTVSPropertyOp57
 70
     1
102
RTVSPost2010Prop28
280
     0
102
RTVSPost2010PropOp28
 70
     1
102
RTVSPost2010Prop29
280
     1
102
RTVSPost2010PropOp29
 70
     1
102
RTVSPost2010Prop30
280
     1
102
RTVSPost2010PropOp30
 70
     1
102
RTVSPost2010Prop31
280
     0
102
RTVSPost2010PropOp31
 70
     1
102
RTVSPost2010Prop32
280
     0
102
RTVSPost2010PropOp32
 70
     1
102
RTVSPost2010Prop33
280
     0
102
RTVSPost2010PropOp33
 70
     1
102
RTVSPost2010Prop34
280
     0
102
RTVSPost2010PropOp34
 70
     1
102
RTVSPost2010Prop35
280
     0
102
RTVSPost2010PropOp35
 70
     1
102
RTVSPost2010Prop36
280
     0
102
RTVSPost2010PropOp36
 70
     1
102
RTVSPost2010Prop37
 90
       50
102
RTVSPost2010PropOp37
 70
     1
102
RTVSPost2010Prop38
140
0.0
102
RTVSPost2010PropOp38
 70
     1
102
RTVSPost2010Prop39
140
1.0
102
RTVSPost2010PropOp39
 70
     1
102
RTVSPost2010Prop40
 90
        0
102
RTVSPost2010PropOp40
 70
     1
102
RTVSPost2010Prop41ColorIndex
 90
       18
102
RTVSPost2010Prop41ColorRGB
 90
        0
102
RTVSPost2010PropOp41
 70
     1
102
RTVSPost2010Prop42
 90
       50
102
RTVSPost2010PropOp42
 70
     1
102
RTVSPost2010Prop43
 90
        3
102
RTVSPost2010PropOp43
 70
     1
102
RTVSPost2010Prop44ColorIndex
 90
        5
102
RTVSPost2010Prop44ColorRGB
 90
      255
102
RTVSPost2010PropOp44
 70
     1
102
RTVSPost2010Prop45
280
     0
102
RTVSPost2010PropOp45
 70
     1
102
RTVSPost2010Prop46
 90
       50
102
RTVSPost2010PropOp46
 70
     1
102
RTVSPost2010Prop47
 90
       50
102
RTVSPost2010PropOp47
 70
     1
102
RTVSPost2010Prop48
 90
       50
102
RTVSPost2010PropOp48
 70
     1
102
RTVSPost2010Prop49
280
     0
102
RTVSPost2010PropOp49
 70
     1
102
RTVSPost2010Prop50
 90
       50
102
RTVSPost2010PropOp50
 70
     1
102
RTVSPost2010Prop51ColorIndex
 90
      256
102
RTVSPost2010Prop51ColorRGB
 90
-16777216
102
RTVSPost2010PropOp51
 70
     0
102
RTVSPost2010Prop52
140
1.0
102
RTVSPost2010PropOp52
 70
     0
102
RTVSPost2010Prop53
 90
        2
102
RTVSPost2010PropOp53
 70
     1
102
RTVSPost2010Prop54
  1
strokes_ogs.tif
102
RTVSPost2010PropOp54
 70
     1
102
RTVSPost2010Prop55
280
     0
102
RTVSPost2010PropOp55
 70
     1
102
RTVSPost2010Prop56
140
1.0
102
RTVSPost2010PropOp56
 70
     1
102
RTVSPost2010Prop57
140
1.0
102
RTVSPost2010PropOp57
 70
     1
  0
XRECORD
  5
427
102
{ACAD_REACTORS
330
426
102
}
330
426
100
AcDbXrecord
280
     1
102
RTVSPropertyOp0
 70
     1
102
RTVSPropertyOp1
 70
     1
102
RTVSPropertyOp2
 70
     1
102
RTVSPropertyOp3
 70
     1
102
RTVSPropertyOp4
 70
     1
102
RTVSPropertyOp5
 70
     1
102
RTVSPropertyOp6
 70
     1
102
RTVSPropertyOp7
 70
     1
102
RTVSPropertyOp8
 70
     1
102
RTVSPropertyOp9
 70
     1
102
RTVSPropertyOp10
 70
     1
102
RTVSPropertyOp11
 70
     1
102
RTVSPropertyOp12
 70
     1
102
RTVSPropertyOp13
 70
     1
102
RTVSPropertyOp14
 70
     1
102
RTVSPropertyOp15
 70
     1
102
RTVSPropertyOp16
 70
     1
102
RTVSPropertyOp17
 70
     1
102
RTVSPropertyOp18
 70
     1
102
RTVSPropertyOp19
 70
     1
102
RTVSPropertyOp20
 70
     1
102
RTVSPropertyOp21
 70
     1
102
RTVSPropertyOp22
 70
     1
102
RTVSPropertyOp23
 70
     1
102
RTVSPropertyOp24
 70
     1
102
RTVSPropertyOp25
 70
     1
102
RTVSPropertyOp26
 70
     1
102
RTVSPropertyOp27
 70
     1
102
RTVSPropertyOp28
 70
     1
102
RTVSPropertyOp29
 70
     1
102
RTVSPropertyOp30
 70
     1
102
RTVSPropertyOp31
 70
     1
102
RTVSPropertyOp32
 70
     1
102
RTVSPropertyOp33
 70
     1
102
RTVSPropertyOp34
 70
     1
102
RTVSPropertyOp35
 70
     1
102
RTVSPropertyOp36
 70
     1
102
RTVSPropertyOp37
 70
     1
102
RTVSPropertyOp38
 70
     1
102
RTVSPropertyOp39
 70
     1
102
RTVSPropertyOp40
 70
     1
102
RTVSPropertyOp41
 70
     1
102
RTVSPropertyOp42
 70
     1
102
RTVSPropertyOp43
 70
     1
102
RTVSPropertyOp44
 70
     1
102
RTVSPropertyOp45
 70
     1
102
RTVSPropertyOp46
 70
     1
102
RTVSPropertyOp47
 70
     1
102
RTVSPropertyOp48
 70
     1
102
RTVSPropertyOp49
 70
     1
102
RTVSPropertyOp50
 70
     1
102
RTVSPropertyOp51
 70
     0
102
RTVSPropertyOp52
 70
     0
102
RTVSPropertyOp53
 70
     1
102
RTVSPropertyOp54
 70
     1
102
RTVSPropertyOp55
 70
     1
102
RTVSPropertyOp56
 70
     1
102
RTVSPropertyOp57
 70
     1
102
RTVSPost2010Prop28
280
     0
102
RTVSPost2010PropOp28
 70
     1
102
RTVSPost2010Prop29
280
     1
102
RTVSPost2010PropOp29
 70
     1
102
RTVSPost2010Prop30
280
     1
102
RTVSPost2010PropOp30
 70
     1
102
RTVSPost2010Prop31
280
     0
102
RTVSPost2010PropOp31
 70
     1
102
RTVSPost2010Prop32
280
     0
102
RTVSPost2010PropOp32
 70
     1
102
RTVSPost2010Prop33
280
     0
102
RTVSPost2010PropOp33
 70
     1
102
RTVSPost2010Prop34
280
     0
102
RTVSPost2010PropOp34
 70
     1
102
RTVSPost2010Prop35
280
     0
102
RTVSPost2010PropOp35
 70
     1
102
RTVSPost2010Prop36
280
     0
102
RTVSPost2010PropOp36
 70
     1
102
RTVSPost2010Prop37
 90
       50
102
RTVSPost2010PropOp37
 70
     1
102
RTVSPost2010Prop38
140
0.0
102
RTVSPost2010PropOp38
 70
     1
102
RTVSPost2010Prop39
140
1.0
102
RTVSPost2010PropOp39
 70
     1
102
RTVSPost2010Prop40
 90
        0
102
RTVSPost2010PropOp40
 70
     1
102
RTVSPost2010Prop41ColorIndex
 90
       18
102
RTVSPost2010Prop41ColorRGB
 90
        0
102
RTVSPost2010PropOp41
 70
     1
102
RTVSPost2010Prop42
 90
       50
102
RTVSPost2010PropOp42
 70
     1
102
RTVSPost2010Prop43
 90
        3
102
RTVSPost2010PropOp43
 70
     1
102
RTVSPost2010Prop44ColorIndex
 90
        5
102
RTVSPost2010Prop44ColorRGB
 90
      255
102
RTVSPost2010PropOp44
 70
     1
102
RTVSPost2010Prop45
280
     0
102
RTVSPost2010PropOp45
 70
     1
102
RTVSPost2010Prop46
 90
       50
102
RTVSPost2010PropOp46
 70
     1
102
RTVSPost2010Prop47
 90
       50
102
RTVSPost2010PropOp47
 70
     1
102
RTVSPost2010Prop48
 90
       50
102
RTVSPost2010PropOp48
 70
     1
102
RTVSPost2010Prop49
280
     0
102
RTVSPost2010PropOp49
 70
     1
102
RTVSPost2010Prop50
 90
       50
102
RTVSPost2010PropOp50
 70
     1
102
RTVSPost2010Prop51ColorIndex
 90
      256
102
RTVSPost2010Prop51ColorRGB
 90
-16777216
102
RTVSPost2010PropOp51
 70
     0
102
RTVSPost2010Prop52
140
1.0
102
RTVSPost2010PropOp52
 70
     0
102
RTVSPost2010Prop53
 90
        2
102
RTVSPost2010PropOp53
 70
     1
102
RTVSPost2010Prop54
  1
strokes_ogs.tif
102
RTVSPost2010PropOp54
 70
     1
102
RTVSPost2010Prop55
280
     0
102
RTVSPost2010PropOp55
 70
     1
102
RTVSPost2010Prop56
140
1.0
102
RTVSPost2010PropOp56
 70
     1
102
RTVSPost2010Prop57
140
1.0
102
RTVSPost2010PropOp57
 70
     1
  0
XRECORD
  5
41B
102
{ACAD_REACTORS
330
41A
102
}
330
41A
100
AcDbXrecord
280
     1
102
RTVSPropertyOp0
 70
     1
102
RTVSPropertyOp1
 70
     1
102
RTVSPropertyOp2
 70
     1
102
RTVSPropertyOp3
 70
     1
102
RTVSPropertyOp4
 70
     1
102
RTVSPropertyOp5
 70
     1
102
RTVSPropertyOp6
 70
     1
102
RTVSPropertyOp7
 70
     1
102
RTVSPropertyOp8
 70
     1
102
RTVSPropertyOp9
 70
     1
102
RTVSPropertyOp10
 70
     1
102
RTVSPropertyOp11
 70
     1
102
RTVSPropertyOp12
 70
     1
102
RTVSPropertyOp13
 70
     1
102
RTVSPropertyOp14
 70
     1
102
RTVSPropertyOp15
 70
     1
102
RTVSPropertyOp16
 70
     1
102
RTVSPropertyOp17
 70
     1
102
RTVSPropertyOp18
 70
     1
102
RTVSPropertyOp19
 70
     1
102
RTVSPropertyOp20
 70
     1
102
RTVSPropertyOp21
 70
     1
102
RTVSPropertyOp22
 70
     1
102
RTVSPropertyOp23
 70
     1
102
RTVSPropertyOp24
 70
     1
102
RTVSPropertyOp25
 70
     1
102
RTVSPropertyOp26
 70
     1
102
RTVSPropertyOp27
 70
     1
102
RTVSPropertyOp28
 70
     1
102
RTVSPropertyOp29
 70
     1
102
RTVSPropertyOp30
 70
     1
102
RTVSPropertyOp31
 70
     1
102
RTVSPropertyOp32
 70
     1
102
RTVSPropertyOp33
 70
     1
102
RTVSPropertyOp34
 70
     1
102
RTVSPropertyOp35
 70
     1
102
RTVSPropertyOp36
 70
     1
102
RTVSPropertyOp37
 70
     1
102
RTVSPropertyOp38
 70
     1
102
RTVSPropertyOp39
 70
     1
102
RTVSPropertyOp40
 70
     1
102
RTVSPropertyOp41
 70
     1
102
RTVSPropertyOp42
 70
     1
102
RTVSPropertyOp43
 70
     1
102
RTVSPropertyOp44
 70
     1
102
RTVSPropertyOp45
 70
     1
102
RTVSPropertyOp46
 70
     1
102
RTVSPropertyOp47
 70
     1
102
RTVSPropertyOp48
 70
     1
102
RTVSPropertyOp49
 70
     1
102
RTVSPropertyOp50
 70
     1
102
RTVSPropertyOp51
 70
     0
102
RTVSPropertyOp52
 70
     0
102
RTVSPropertyOp53
 70
     1
102
RTVSPropertyOp54
 70
     1
102
RTVSPropertyOp55
 70
     1
102
RTVSPropertyOp56
 70
     1
102
RTVSPropertyOp57
 70
     1
102
RTVSPost2010Prop28
280
     0
102
RTVSPost2010PropOp28
 70
     1
102
RTVSPost2010Prop29
280
     1
102
RTVSPost2010PropOp29
 70
     1
102
RTVSPost2010Prop30
280
     1
102
RTVSPost2010PropOp30
 70
     1
102
RTVSPost2010Prop31
280
     0
102
RTVSPost2010PropOp31
 70
     1
102
RTVSPost2010Prop32
280
     0
102
RTVSPost2010PropOp32
 70
     1
102
RTVSPost2010Prop33
280
     0
102
RTVSPost2010PropOp33
 70
     1
102
RTVSPost2010Prop34
280
     0
102
RTVSPost2010PropOp34
 70
     1
102
RTVSPost2010Prop35
280
     0
102
RTVSPost2010PropOp35
 70
     1
102
RTVSPost2010Prop36
280
     0
102
RTVSPost2010PropOp36
 70
     1
102
RTVSPost2010Prop37
 90
       50
102
RTVSPost2010PropOp37
 70
     1
102
RTVSPost2010Prop38
140
0.0
102
RTVSPost2010PropOp38
 70
     1
102
RTVSPost2010Prop39
140
1.0
102
RTVSPost2010PropOp39
 70
     1
102
RTVSPost2010Prop40
 90
        0
102
RTVSPost2010PropOp40
 70
     1
102
RTVSPost2010Prop41ColorIndex
 90
       18
102
RTVSPost2010Prop41ColorRGB
 90
        0
102
RTVSPost2010PropOp41
 70
     1
102
RTVSPost2010Prop42
 90
       50
102
RTVSPost2010PropOp42
 70
     1
102
RTVSPost2010Prop43
 90
        3
102
RTVSPost2010PropOp43
 70
     1
102
RTVSPost2010Prop44ColorIndex
 90
        5
102
RTVSPost2010Prop44ColorRGB
 90
      255
102
RTVSPost2010PropOp44
 70
     1
102
RTVSPost2010Prop45
280
     0
102
RTVSPost2010PropOp45
 70
     1
102
RTVSPost2010Prop46
 90
       50
102
RTVSPost2010PropOp46
 70
     1
102
RTVSPost2010Prop47
 90
       50
102
RTVSPost2010PropOp47
 70
     1
102
RTVSPost2010Prop48
 90
       50
102
RTVSPost2010PropOp48
 70
     1
102
RTVSPost2010Prop49
280
     0
102
RTVSPost2010PropOp49
 70
     1
102
RTVSPost2010Prop50
 90
       50
102
RTVSPost2010PropOp50
 70
     1
102
RTVSPost2010Prop51ColorIndex
 90
      256
102
RTVSPost2010Prop51ColorRGB
 90
-16777216
102
RTVSPost2010PropOp51
 70
     0
102
RTVSPost2010Prop52
140
1.0
102
RTVSPost2010PropOp52
 70
     0
102
RTVSPost2010Prop53
 90
        2
102
RTVSPost2010PropOp53
 70
     1
102
RTVSPost2010Prop54
  1
strokes_ogs.tif
102
RTVSPost2010PropOp54
 70
     1
102
RTVSPost2010Prop55
280
     0
102
RTVSPost2010PropOp55
 70
     1
102
RTVSPost2010Prop56
140
1.0
102
RTVSPost2010PropOp56
 70
     1
102
RTVSPost2010Prop57
140
1.0
102
RTVSPost2010PropOp57
 70
     1
  0
XRECORD
  5
41D
102
{ACAD_REACTORS
330
41C
102
}
330
41C
100
AcDbXrecord
280
     1
102
RTVSPropertyOp0
 70
     1
102
RTVSPropertyOp1
 70
     1
102
RTVSPropertyOp2
 70
     1
102
RTVSPropertyOp3
 70
     1
102
RTVSPropertyOp4
 70
     1
102
RTVSPropertyOp5
 70
     1
102
RTVSPropertyOp6
 70
     1
102
RTVSPropertyOp7
 70
     1
102
RTVSPropertyOp8
 70
     1
102
RTVSPropertyOp9
 70
     1
102
RTVSPropertyOp10
 70
     1
102
RTVSPropertyOp11
 70
     1
102
RTVSPropertyOp12
 70
     1
102
RTVSPropertyOp13
 70
     1
102
RTVSPropertyOp14
 70
     1
102
RTVSPropertyOp15
 70
     1
102
RTVSPropertyOp16
 70
     1
102
RTVSPropertyOp17
 70
     1
102
RTVSPropertyOp18
 70
     1
102
RTVSPropertyOp19
 70
     1
102
RTVSPropertyOp20
 70
     1
102
RTVSPropertyOp21
 70
     1
102
RTVSPropertyOp22
 70
     1
102
RTVSPropertyOp23
 70
     1
102
RTVSPropertyOp24
 70
     1
102
RTVSPropertyOp25
 70
     1
102
RTVSPropertyOp26
 70
     1
102
RTVSPropertyOp27
 70
     1
102
RTVSPropertyOp28
 70
     1
102
RTVSPropertyOp29
 70
     1
102
RTVSPropertyOp30
 70
     1
102
RTVSPropertyOp31
 70
     1
102
RTVSPropertyOp32
 70
     1
102
RTVSPropertyOp33
 70
     1
102
RTVSPropertyOp34
 70
     1
102
RTVSPropertyOp35
 70
     1
102
RTVSPropertyOp36
 70
     1
102
RTVSPropertyOp37
 70
     1
102
RTVSPropertyOp38
 70
     1
102
RTVSPropertyOp39
 70
     1
102
RTVSPropertyOp40
 70
     1
102
RTVSPropertyOp41
 70
     1
102
RTVSPropertyOp42
 70
     1
102
RTVSPropertyOp43
 70
     1
102
RTVSPropertyOp44
 70
     1
102
RTVSPropertyOp45
 70
     1
102
RTVSPropertyOp46
 70
     1
102
RTVSPropertyOp47
 70
     1
102
RTVSPropertyOp48
 70
     1
102
RTVSPropertyOp49
 70
     1
102
RTVSPropertyOp50
 70
     1
102
RTVSPropertyOp51
 70
     0
102
RTVSPropertyOp52
 70
     0
102
RTVSPropertyOp53
 70
     1
102
RTVSPropertyOp54
 70
     1
102
RTVSPropertyOp55
 70
     1
102
RTVSPropertyOp56
 70
     1
102
RTVSPropertyOp57
 70
     1
102
RTVSPost2010Prop28
280
     0
102
RTVSPost2010PropOp28
 70
     1
102
RTVSPost2010Prop29
280
     1
102
RTVSPost2010PropOp29
 70
     1
102
RTVSPost2010Prop30
280
     1
102
RTVSPost2010PropOp30
 70
     1
102
RTVSPost2010Prop31
280
     0
102
RTVSPost2010PropOp31
 70
     1
102
RTVSPost2010Prop32
280
     0
102
RTVSPost2010PropOp32
 70
     1
102
RTVSPost2010Prop33
280
     0
102
RTVSPost2010PropOp33
 70
     1
102
RTVSPost2010Prop34
280
     0
102
RTVSPost2010PropOp34
 70
     1
102
RTVSPost2010Prop35
280
     0
102
RTVSPost2010PropOp35
 70
     1
102
RTVSPost2010Prop36
280
     0
102
RTVSPost2010PropOp36
 70
     1
102
RTVSPost2010Prop37
 90
       50
102
RTVSPost2010PropOp37
 70
     1
102
RTVSPost2010Prop38
140
0.0
102
RTVSPost2010PropOp38
 70
     1
102
RTVSPost2010Prop39
140
1.0
102
RTVSPost2010PropOp39
 70
     1
102
RTVSPost2010Prop40
 90
        0
102
RTVSPost2010PropOp40
 70
     1
102
RTVSPost2010Prop41ColorIndex
 90
       18
102
RTVSPost2010Prop41ColorRGB
 90
        0
102
RTVSPost2010PropOp41
 70
     1
102
RTVSPost2010Prop42
 90
       50
102
RTVSPost2010PropOp42
 70
     1
102
RTVSPost2010Prop43
 90
        3
102
RTVSPost2010PropOp43
 70
     1
102
RTVSPost2010Prop44ColorIndex
 90
        5
102
RTVSPost2010Prop44ColorRGB
 90
      255
102
RTVSPost2010PropOp44
 70
     1
102
RTVSPost2010Prop45
280
     0
102
RTVSPost2010PropOp45
 70
     1
102
RTVSPost2010Prop46
 90
       50
102
RTVSPost2010PropOp46
 70
     1
102
RTVSPost2010Prop47
 90
       50
102
RTVSPost2010PropOp47
 70
     1
102
RTVSPost2010Prop48
 90
       50
102
RTVSPost2010PropOp48
 70
     1
102
RTVSPost2010Prop49
280
     0
102
RTVSPost2010PropOp49
 70
     1
102
RTVSPost2010Prop50
 90
       50
102
RTVSPost2010PropOp50
 70
     1
102
RTVSPost2010Prop51ColorIndex
 90
      256
102
RTVSPost2010Prop51ColorRGB
 90
-16777216
102
RTVSPost2010PropOp51
 70
     0
102
RTVSPost2010Prop52
140
1.0
102
RTVSPost2010PropOp52
 70
     0
102
RTVSPost2010Prop53
 90
        2
102
RTVSPost2010PropOp53
 70
     1
102
RTVSPost2010Prop54
  1
strokes_ogs.tif
102
RTVSPost2010PropOp54
 70
     1
102
RTVSPost2010Prop55
280
     0
102
RTVSPost2010PropOp55
 70
     1
102
RTVSPost2010Prop56
140
1.0
102
RTVSPost2010PropOp56
 70
     1
102
RTVSPost2010Prop57
140
1.0
102
RTVSPost2010PropOp57
 70
     1
  0
XRECORD
  5
42D
102
{ACAD_REACTORS
330
42C
102
}
330
42C
100
AcDbXrecord
280
     1
102
RTVSPropertyOp0
 70
     0
102
RTVSPropertyOp1
 70
     0
102
RTVSPropertyOp2
 70
     0
102
RTVSPropertyOp3
 70
     0
102
RTVSPropertyOp4
 70
     0
102
RTVSPropertyOp5
 70
     0
102
RTVSPropertyOp6
 70
     0
102
RTVSPropertyOp7
 70
     0
102
RTVSPropertyOp8
 70
     0
102
RTVSPropertyOp9
 70
     0
102
RTVSPropertyOp10
 70
     0
102
RTVSPropertyOp11
 70
     0
102
RTVSPropertyOp12
 70
     0
102
RTVSPropertyOp13
 70
     0
102
RTVSPropertyOp14
 70
     2
102
RTVSPropertyOp15
 70
     0
102
RTVSPropertyOp16
 70
     0
102
RTVSPropertyOp17
 70
     0
102
RTVSPropertyOp18
 70
     0
102
RTVSPropertyOp19
 70
     0
102
RTVSPropertyOp20
 70
     0
102
RTVSPropertyOp21
 70
     0
102
RTVSPropertyOp22
 70
     0
102
RTVSPropertyOp23
 70
     0
102
RTVSPropertyOp24
 70
     0
102
RTVSPropertyOp25
 70
     0
102
RTVSPropertyOp26
 70
     0
102
RTVSPropertyOp27
 70
     0
102
RTVSPropertyOp28
 70
     0
102
RTVSPropertyOp29
 70
     0
102
RTVSPropertyOp30
 70
     0
102
RTVSPropertyOp31
 70
     0
102
RTVSPropertyOp32
 70
     0
102
RTVSPropertyOp33
 70
     0
102
RTVSPropertyOp34
 70
     0
102
RTVSPropertyOp35
 70
     0
102
RTVSPropertyOp36
 70
     0
102
RTVSPropertyOp37
 70
     0
102
RTVSPropertyOp38
 70
     0
102
RTVSPropertyOp39
 70
     0
102
RTVSPropertyOp40
 70
     0
102
RTVSPropertyOp41
 70
     0
102
RTVSPropertyOp42
 70
     0
102
RTVSPropertyOp43
 70
     0
102
RTVSPropertyOp44
 70
     0
102
RTVSPropertyOp45
 70
     0
102
RTVSPropertyOp46
 70
     0
102
RTVSPropertyOp47
 70
     0
102
RTVSPropertyOp48
 70
     0
102
RTVSPropertyOp49
 70
     0
102
RTVSPropertyOp50
 70
     0
102
RTVSPropertyOp51
 70
     0
102
RTVSPropertyOp52
 70
     0
102
RTVSPropertyOp53
 70
     0
102
RTVSPropertyOp54
 70
     0
102
RTVSPropertyOp55
 70
     0
102
RTVSPropertyOp56
 70
     0
102
RTVSPropertyOp57
 70
     0
102
RTVSPost2010Prop28
280
     0
102
RTVSPost2010PropOp28
 70
     0
102
RTVSPost2010Prop29
280
     1
102
RTVSPost2010PropOp29
 70
     0
102
RTVSPost2010Prop30
280
     1
102
RTVSPost2010PropOp30
 70
     0
102
RTVSPost2010Prop31
280
     0
102
RTVSPost2010PropOp31
 70
     0
102
RTVSPost2010Prop32
280
     0
102
RTVSPost2010PropOp32
 70
     0
102
RTVSPost2010Prop33
280
     0
102
RTVSPost2010PropOp33
 70
     0
102
RTVSPost2010Prop34
280
     0
102
RTVSPost2010PropOp34
 70
     0
102
RTVSPost2010Prop35
280
     0
102
RTVSPost2010PropOp35
 70
     0
102
RTVSPost2010Prop36
280
     0
102
RTVSPost2010PropOp36
 70
     0
102
RTVSPost2010Prop37
 90
       50
102
RTVSPost2010PropOp37
 70
     0
102
RTVSPost2010Prop38
140
0.0
102
RTVSPost2010PropOp38
 70
     0
102
RTVSPost2010Prop39
140
1.0
102
RTVSPost2010PropOp39
 70
     0
102
RTVSPost2010Prop40
 90
        0
102
RTVSPost2010PropOp40
 70
     0
102
RTVSPost2010Prop41ColorIndex
 90
       18
102
RTVSPost2010Prop41ColorRGB
 90
        0
102
RTVSPost2010PropOp41
 70
     0
102
RTVSPost2010Prop42
 90
       50
102
RTVSPost2010PropOp42
 70
     0
102
RTVSPost2010Prop43
 90
        3
102
RTVSPost2010PropOp43
 70
     0
102
RTVSPost2010Prop44ColorIndex
 90
        5
102
RTVSPost2010Prop44ColorRGB
 90
      255
102
RTVSPost2010PropOp44
 70
     0
102
RTVSPost2010Prop45
280
     0
102
RTVSPost2010PropOp45
 70
     0
102
RTVSPost2010Prop46
 90
       50
102
RTVSPost2010PropOp46
 70
     0
102
RTVSPost2010Prop47
 90
       50
102
RTVSPost2010PropOp47
 70
     0
102
RTVSPost2010Prop48
 90
       50
102
RTVSPost2010PropOp48
 70
     0
102
RTVSPost2010Prop49
280
     0
102
RTVSPost2010PropOp49
 70
     0
102
RTVSPost2010Prop50
 90
       50
102
RTVSPost2010PropOp50
 70
     0
102
RTVSPost2010Prop51ColorIndex
 90
      256
102
RTVSPost2010Prop51ColorRGB
 90
-16777216
102
RTVSPost2010PropOp51
 70
     0
102
RTVSPost2010Prop52
140
1.0
102
RTVSPost2010PropOp52
 70
     0
102
RTVSPost2010Prop53
 90
        2
102
RTVSPost2010PropOp53
 70
     0
102
RTVSPost2010Prop54
  1
strokes_ogs.tif
102
RTVSPost2010PropOp54
 70
     0
102
RTVSPost2010Prop55
280
     0
102
RTVSPost2010PropOp55
 70
     0
102
RTVSPost2010Prop56
140
1.0
102
RTVSPost2010PropOp56
 70
     0
102
RTVSPost2010Prop57
140
1.0
102
RTVSPost2010PropOp57
 70
     0
  0
XRECORD
  5
425
102
{ACAD_REACTORS
330
424
102
}
330
424
100
AcDbXrecord
280
     1
102
RTVSPropertyOp0
 70
     1
102
RTVSPropertyOp1
 70
     1
102
RTVSPropertyOp2
 70
     1
102
RTVSPropertyOp3
 70
     1
102
RTVSPropertyOp4
 70
     1
102
RTVSPropertyOp5
 70
     1
102
RTVSPropertyOp6
 70
     1
102
RTVSPropertyOp7
 70
     1
102
RTVSPropertyOp8
 70
     1
102
RTVSPropertyOp9
 70
     1
102
RTVSPropertyOp10
 70
     1
102
RTVSPropertyOp11
 70
     1
102
RTVSPropertyOp12
 70
     1
102
RTVSPropertyOp13
 70
     1
102
RTVSPropertyOp14
 70
     1
102
RTVSPropertyOp15
 70
     1
102
RTVSPropertyOp16
 70
     1
102
RTVSPropertyOp17
 70
     1
102
RTVSPropertyOp18
 70
     1
102
RTVSPropertyOp19
 70
     1
102
RTVSPropertyOp20
 70
     1
102
RTVSPropertyOp21
 70
     1
102
RTVSPropertyOp22
 70
     1
102
RTVSPropertyOp23
 70
     1
102
RTVSPropertyOp24
 70
     1
102
RTVSPropertyOp25
 70
     1
102
RTVSPropertyOp26
 70
     1
102
RTVSPropertyOp27
 70
     1
102
RTVSPropertyOp28
 70
     1
102
RTVSPropertyOp29
 70
     1
102
RTVSPropertyOp30
 70
     1
102
RTVSPropertyOp31
 70
     1
102
RTVSPropertyOp32
 70
     1
102
RTVSPropertyOp33
 70
     1
102
RTVSPropertyOp34
 70
     1
102
RTVSPropertyOp35
 70
     1
102
RTVSPropertyOp36
 70
     1
102
RTVSPropertyOp37
 70
     1
102
RTVSPropertyOp38
 70
     1
102
RTVSPropertyOp39
 70
     1
102
RTVSPropertyOp40
 70
     1
102
RTVSPropertyOp41
 70
     1
102
RTVSPropertyOp42
 70
     1
102
RTVSPropertyOp43
 70
     1
102
RTVSPropertyOp44
 70
     1
102
RTVSPropertyOp45
 70
     1
102
RTVSPropertyOp46
 70
     1
102
RTVSPropertyOp47
 70
     1
102
RTVSPropertyOp48
 70
     1
102
RTVSPropertyOp49
 70
     1
102
RTVSPropertyOp50
 70
     1
102
RTVSPropertyOp51
 70
     0
102
RTVSPropertyOp52
 70
     0
102
RTVSPropertyOp53
 70
     1
102
RTVSPropertyOp54
 70
     1
102
RTVSPropertyOp55
 70
     1
102
RTVSPropertyOp56
 70
     1
102
RTVSPropertyOp57
 70
     1
102
RTVSPost2010Prop28
280
     0
102
RTVSPost2010PropOp28
 70
     1
102
RTVSPost2010Prop29
280
     1
102
RTVSPost2010PropOp29
 70
     1
102
RTVSPost2010Prop30
280
     1
102
RTVSPost2010PropOp30
 70
     1
102
RTVSPost2010Prop31
280
     0
102
RTVSPost2010PropOp31
 70
     1
102
RTVSPost2010Prop32
280
     0
102
RTVSPost2010PropOp32
 70
     1
102
RTVSPost2010Prop33
280
     0
102
RTVSPost2010PropOp33
 70
     1
102
RTVSPost2010Prop34
280
     0
102
RTVSPost2010PropOp34
 70
     1
102
RTVSPost2010Prop35
280
     0
102
RTVSPost2010PropOp35
 70
     1
102
RTVSPost2010Prop36
280
     0
102
RTVSPost2010PropOp36
 70
     1
102
RTVSPost2010Prop37
 90
       50
102
RTVSPost2010PropOp37
 70
     1
102
RTVSPost2010Prop38
140
0.0
102
RTVSPost2010PropOp38
 70
     1
102
RTVSPost2010Prop39
140
1.0
102
RTVSPost2010PropOp39
 70
     1
102
RTVSPost2010Prop40
 90
        0
102
RTVSPost2010PropOp40
 70
     1
102
RTVSPost2010Prop41ColorIndex
 90
       18
102
RTVSPost2010Prop41ColorRGB
 90
        0
102
RTVSPost2010PropOp41
 70
     1
102
RTVSPost2010Prop42
 90
       50
102
RTVSPost2010PropOp42
 70
     1
102
RTVSPost2010Prop43
 90
        3
102
RTVSPost2010PropOp43
 70
     1
102
RTVSPost2010Prop44ColorIndex
 90
        5
102
RTVSPost2010Prop44ColorRGB
 90
      255
102
RTVSPost2010PropOp44
 70
     1
102
RTVSPost2010Prop45
280
     0
102
RTVSPost2010PropOp45
 70
     1
102
RTVSPost2010Prop46
 90
       50
102
RTVSPost2010PropOp46
 70
     1
102
RTVSPost2010Prop47
 90
       50
102
RTVSPost2010PropOp47
 70
     1
102
RTVSPost2010Prop48
 90
       50
102
RTVSPost2010PropOp48
 70
     1
102
RTVSPost2010Prop49
280
     0
102
RTVSPost2010PropOp49
 70
     1
102
RTVSPost2010Prop50
 90
       50
102
RTVSPost2010PropOp50
 70
     1
102
RTVSPost2010Prop51ColorIndex
 90
      256
102
RTVSPost2010Prop51ColorRGB
 90
-16777216
102
RTVSPost2010PropOp51
 70
     0
102
RTVSPost2010Prop52
140
1.0
102
RTVSPost2010PropOp52
 70
     0
102
RTVSPost2010Prop53
 90
        2
102
RTVSPost2010PropOp53
 70
     1
102
RTVSPost2010Prop54
  1
strokes_ogs.tif
102
RTVSPost2010PropOp54
 70
     1
102
RTVSPost2010Prop55
280
     0
102
RTVSPost2010PropOp55
 70
     1
102
RTVSPost2010Prop56
140
1.0
102
RTVSPost2010PropOp56
 70
     1
102
RTVSPost2010Prop57
140
1.0
102
RTVSPost2010PropOp57
 70
     1
  0
XRECORD
  5
409
102
{ACAD_REACTORS
330
408
102
}
330
408
100
AcDbXrecord
280
     1
102
RTVSPropertyOp0
 70
     1
102
RTVSPropertyOp1
 70
     1
102
RTVSPropertyOp2
 70
     1
102
RTVSPropertyOp3
 70
     1
102
RTVSPropertyOp4
 70
     1
102
RTVSPropertyOp5
 70
     1
102
RTVSPropertyOp6
 70
     1
102
RTVSPropertyOp7
 70
     1
102
RTVSPropertyOp8
 70
     1
102
RTVSPropertyOp9
 70
     1
102
RTVSPropertyOp10
 70
     1
102
RTVSPropertyOp11
 70
     1
102
RTVSPropertyOp12
 70
     1
102
RTVSPropertyOp13
 70
     1
102
RTVSPropertyOp14
 70
     1
102
RTVSPropertyOp15
 70
     1
102
RTVSPropertyOp16
 70
     1
102
RTVSPropertyOp17
 70
     1
102
RTVSPropertyOp18
 70
     1
102
RTVSPropertyOp19
 70
     1
102
RTVSPropertyOp20
 70
     1
102
RTVSPropertyOp21
 70
     1
102
RTVSPropertyOp22
 70
     1
102
RTVSPropertyOp23
 70
     1
102
RTVSPropertyOp24
 70
     1
102
RTVSPropertyOp25
 70
     1
102
RTVSPropertyOp26
 70
     1
102
RTVSPropertyOp27
 70
     1
102
RTVSPropertyOp28
 70
     1
102
RTVSPropertyOp29
 70
     1
102
RTVSPropertyOp30
 70
     1
102
RTVSPropertyOp31
 70
     1
102
RTVSPropertyOp32
 70
     1
102
RTVSPropertyOp33
 70
     1
102
RTVSPropertyOp34
 70
     1
102
RTVSPropertyOp35
 70
     1
102
RTVSPropertyOp36
 70
     1
102
RTVSPropertyOp37
 70
     1
102
RTVSPropertyOp38
 70
     1
102
RTVSPropertyOp39
 70
     1
102
RTVSPropertyOp40
 70
     1
102
RTVSPropertyOp41
 70
     1
102
RTVSPropertyOp42
 70
     1
102
RTVSPropertyOp43
 70
     1
102
RTVSPropertyOp44
 70
     1
102
RTVSPropertyOp45
 70
     1
102
RTVSPropertyOp46
 70
     1
102
RTVSPropertyOp47
 70
     1
102
RTVSPropertyOp48
 70
     1
102
RTVSPropertyOp49
 70
     1
102
RTVSPropertyOp50
 70
     1
102
RTVSPropertyOp51
 70
     0
102
RTVSPropertyOp52
 70
     0
102
RTVSPropertyOp53
 70
     1
102
RTVSPropertyOp54
 70
     1
102
RTVSPropertyOp55
 70
     1
102
RTVSPropertyOp56
 70
     1
102
RTVSPropertyOp57
 70
     1
102
RTVSPost2010Prop28
280
     0
102
RTVSPost2010PropOp28
 70
     1
102
RTVSPost2010Prop29
280
     1
102
RTVSPost2010PropOp29
 70
     1
102
RTVSPost2010Prop30
280
     1
102
RTVSPost2010PropOp30
 70
     1
102
RTVSPost2010Prop31
280
     0
102
RTVSPost2010PropOp31
 70
     1
102
RTVSPost2010Prop32
280
     0
102
RTVSPost2010PropOp32
 70
     1
102
RTVSPost2010Prop33
280
     0
102
RTVSPost2010PropOp33
 70
     1
102
RTVSPost2010Prop34
280
     0
102
RTVSPost2010PropOp34
 70
     1
102
RTVSPost2010Prop35
280
     0
102
RTVSPost2010PropOp35
 70
     1
102
RTVSPost2010Prop36
280
     0
102
RTVSPost2010PropOp36
 70
     1
102
RTVSPost2010Prop37
 90
       50
102
RTVSPost2010PropOp37
 70
     1
102
RTVSPost2010Prop38
140
0.0
102
RTVSPost2010PropOp38
 70
     1
102
RTVSPost2010Prop39
140
1.0
102
RTVSPost2010PropOp39
 70
     1
102
RTVSPost2010Prop40
 90
        0
102
RTVSPost2010PropOp40
 70
     1
102
RTVSPost2010Prop41ColorIndex
 90
       18
102
RTVSPost2010Prop41ColorRGB
 90
        0
102
RTVSPost2010PropOp41
 70
     1
102
RTVSPost2010Prop42
 90
       50
102
RTVSPost2010PropOp42
 70
     1
102
RTVSPost2010Prop43
 90
        3
102
RTVSPost2010PropOp43
 70
     1
102
RTVSPost2010Prop44ColorIndex
 90
        5
102
RTVSPost2010Prop44ColorRGB
 90
      255
102
RTVSPost2010PropOp44
 70
     1
102
RTVSPost2010Prop45
280
     0
102
RTVSPost2010PropOp45
 70
     1
102
RTVSPost2010Prop46
 90
       50
102
RTVSPost2010PropOp46
 70
     1
102
RTVSPost2010Prop47
 90
       50
102
RTVSPost2010PropOp47
 70
     1
102
RTVSPost2010Prop48
 90
       50
102
RTVSPost2010PropOp48
 70
     1
102
RTVSPost2010Prop49
280
     0
102
RTVSPost2010PropOp49
 70
     1
102
RTVSPost2010Prop50
 90
       50
102
RTVSPost2010PropOp50
 70
     1
102
RTVSPost2010Prop51ColorIndex
 90
      256
102
RTVSPost2010Prop51ColorRGB
 90
-16777216
102
RTVSPost2010PropOp51
 70
     0
102
RTVSPost2010Prop52
140
1.0
102
RTVSPost2010PropOp52
 70
     0
102
RTVSPost2010Prop53
 90
        2
102
RTVSPost2010PropOp53
 70
     1
102
RTVSPost2010Prop54
  1
strokes_ogs.tif
102
RTVSPost2010PropOp54
 70
     1
102
RTVSPost2010Prop55
280
     0
102
RTVSPost2010PropOp55
 70
     1
102
RTVSPost2010Prop56
140
1.0
102
RTVSPost2010PropOp56
 70
     1
102
RTVSPost2010Prop57
140
1.0
102
RTVSPost2010PropOp57
 70
     1
  0
XRECORD
  5
40B
102
{ACAD_REACTORS
330
40A
102
}
330
40A
100
AcDbXrecord
280
     1
102
RTVSPropertyOp0
 70
     1
102
RTVSPropertyOp1
 70
     1
102
RTVSPropertyOp2
 70
     1
102
RTVSPropertyOp3
 70
     1
102
RTVSPropertyOp4
 70
     1
102
RTVSPropertyOp5
 70
     1
102
RTVSPropertyOp6
 70
     1
102
RTVSPropertyOp7
 70
     1
102
RTVSPropertyOp8
 70
     1
102
RTVSPropertyOp9
 70
     1
102
RTVSPropertyOp10
 70
     1
102
RTVSPropertyOp11
 70
     1
102
RTVSPropertyOp12
 70
     1
102
RTVSPropertyOp13
 70
     1
102
RTVSPropertyOp14
 70
     1
102
RTVSPropertyOp15
 70
     1
102
RTVSPropertyOp16
 70
     1
102
RTVSPropertyOp17
 70
     1
102
RTVSPropertyOp18
 70
     1
102
RTVSPropertyOp19
 70
     1
102
RTVSPropertyOp20
 70
     1
102
RTVSPropertyOp21
 70
     1
102
RTVSPropertyOp22
 70
     1
102
RTVSPropertyOp23
 70
     1
102
RTVSPropertyOp24
 70
     1
102
RTVSPropertyOp25
 70
     1
102
RTVSPropertyOp26
 70
     1
102
RTVSPropertyOp27
 70
     1
102
RTVSPropertyOp28
 70
     1
102
RTVSPropertyOp29
 70
     1
102
RTVSPropertyOp30
 70
     1
102
RTVSPropertyOp31
 70
     1
102
RTVSPropertyOp32
 70
     1
102
RTVSPropertyOp33
 70
     1
102
RTVSPropertyOp34
 70
     1
102
RTVSPropertyOp35
 70
     1
102
RTVSPropertyOp36
 70
     1
102
RTVSPropertyOp37
 70
     1
102
RTVSPropertyOp38
 70
     1
102
RTVSPropertyOp39
 70
     1
102
RTVSPropertyOp40
 70
     1
102
RTVSPropertyOp41
 70
     1
102
RTVSPropertyOp42
 70
     1
102
RTVSPropertyOp43
 70
     1
102
RTVSPropertyOp44
 70
     1
102
RTVSPropertyOp45
 70
     1
102
RTVSPropertyOp46
 70
     1
102
RTVSPropertyOp47
 70
     1
102
RTVSPropertyOp48
 70
     1
102
RTVSPropertyOp49
 70
     1
102
RTVSPropertyOp50
 70
     1
102
RTVSPropertyOp51
 70
     0
102
RTVSPropertyOp52
 70
     0
102
RTVSPropertyOp53
 70
     1
102
RTVSPropertyOp54
 70
     1
102
RTVSPropertyOp55
 70
     1
102
RTVSPropertyOp56
 70
     1
102
RTVSPropertyOp57
 70
     1
102
RTVSPost2010Prop28
280
     0
102
RTVSPost2010PropOp28
 70
     1
102
RTVSPost2010Prop29
280
     1
102
RTVSPost2010PropOp29
 70
     1
102
RTVSPost2010Prop30
280
     1
102
RTVSPost2010PropOp30
 70
     1
102
RTVSPost2010Prop31
280
     0
102
RTVSPost2010PropOp31
 70
     1
102
RTVSPost2010Prop32
280
     0
102
RTVSPost2010PropOp32
 70
     1
102
RTVSPost2010Prop33
280
     0
102
RTVSPost2010PropOp33
 70
     1
102
RTVSPost2010Prop34
280
     0
102
RTVSPost2010PropOp34
 70
     1
102
RTVSPost2010Prop35
280
     0
102
RTVSPost2010PropOp35
 70
     1
102
RTVSPost2010Prop36
280
     0
102
RTVSPost2010PropOp36
 70
     1
102
RTVSPost2010Prop37
 90
       50
102
RTVSPost2010PropOp37
 70
     1
102
RTVSPost2010Prop38
140
0.0
102
RTVSPost2010PropOp38
 70
     1
102
RTVSPost2010Prop39
140
1.0
102
RTVSPost2010PropOp39
 70
     1
102
RTVSPost2010Prop40
 90
        0
102
RTVSPost2010PropOp40
 70
     1
102
RTVSPost2010Prop41ColorIndex
 90
       18
102
RTVSPost2010Prop41ColorRGB
 90
        0
102
RTVSPost2010PropOp41
 70
     1
102
RTVSPost2010Prop42
 90
       50
102
RTVSPost2010PropOp42
 70
     1
102
RTVSPost2010Prop43
 90
        3
102
RTVSPost2010PropOp43
 70
     1
102
RTVSPost2010Prop44ColorIndex
 90
        5
102
RTVSPost2010Prop44ColorRGB
 90
      255
102
RTVSPost2010PropOp44
 70
     1
102
RTVSPost2010Prop45
280
     0
102
RTVSPost2010PropOp45
 70
     1
102
RTVSPost2010Prop46
 90
       50
102
RTVSPost2010PropOp46
 70
     1
102
RTVSPost2010Prop47
 90
       50
102
RTVSPost2010PropOp47
 70
     1
102
RTVSPost2010Prop48
 90
       50
102
RTVSPost2010PropOp48
 70
     1
102
RTVSPost2010Prop49
280
     0
102
RTVSPost2010PropOp49
 70
     1
102
RTVSPost2010Prop50
 90
       50
102
RTVSPost2010PropOp50
 70
     1
102
RTVSPost2010Prop51ColorIndex
 90
      256
102
RTVSPost2010Prop51ColorRGB
 90
-16777216
102
RTVSPost2010PropOp51
 70
     0
102
RTVSPost2010Prop52
140
1.0
102
RTVSPost2010PropOp52
 70
     0
102
RTVSPost2010Prop53
 90
        2
102
RTVSPost2010PropOp53
 70
     1
102
RTVSPost2010Prop54
  1
strokes_ogs.tif
102
RTVSPost2010PropOp54
 70
     1
102
RTVSPost2010Prop55
280
     0
102
RTVSPost2010PropOp55
 70
     1
102
RTVSPost2010Prop56
140
1.0
102
RTVSPost2010PropOp56
 70
     1
102
RTVSPost2010Prop57
140
1.0
102
RTVSPost2010PropOp57
 70
     1
  0
XRECORD
  5
40D
102
{ACAD_REACTORS
330
40C
102
}
330
40C
100
AcDbXrecord
280
     1
102
RTVSPropertyOp0
 70
     1
102
RTVSPropertyOp1
 70
     1
102
RTVSPropertyOp2
 70
     1
102
RTVSPropertyOp3
 70
     1
102
RTVSPropertyOp4
 70
     1
102
RTVSPropertyOp5
 70
     1
102
RTVSPropertyOp6
 70
     1
102
RTVSPropertyOp7
 70
     1
102
RTVSPropertyOp8
 70
     1
102
RTVSPropertyOp9
 70
     1
102
RTVSPropertyOp10
 70
     1
102
RTVSPropertyOp11
 70
     1
102
RTVSPropertyOp12
 70
     1
102
RTVSPropertyOp13
 70
     1
102
RTVSPropertyOp14
 70
     1
102
RTVSPropertyOp15
 70
     1
102
RTVSPropertyOp16
 70
     1
102
RTVSPropertyOp17
 70
     1
102
RTVSPropertyOp18
 70
     1
102
RTVSPropertyOp19
 70
     1
102
RTVSPropertyOp20
 70
     1
102
RTVSPropertyOp21
 70
     1
102
RTVSPropertyOp22
 70
     1
102
RTVSPropertyOp23
 70
     1
102
RTVSPropertyOp24
 70
     1
102
RTVSPropertyOp25
 70
     1
102
RTVSPropertyOp26
 70
     1
102
RTVSPropertyOp27
 70
     1
102
RTVSPropertyOp28
 70
     1
102
RTVSPropertyOp29
 70
     1
102
RTVSPropertyOp30
 70
     1
102
RTVSPropertyOp31
 70
     1
102
RTVSPropertyOp32
 70
     1
102
RTVSPropertyOp33
 70
     1
102
RTVSPropertyOp34
 70
     1
102
RTVSPropertyOp35
 70
     1
102
RTVSPropertyOp36
 70
     1
102
RTVSPropertyOp37
 70
     1
102
RTVSPropertyOp38
 70
     1
102
RTVSPropertyOp39
 70
     1
102
RTVSPropertyOp40
 70
     1
102
RTVSPropertyOp41
 70
     1
102
RTVSPropertyOp42
 70
     1
102
RTVSPropertyOp43
 70
     1
102
RTVSPropertyOp44
 70
     1
102
RTVSPropertyOp45
 70
     1
102
RTVSPropertyOp46
 70
     1
102
RTVSPropertyOp47
 70
     1
102
RTVSPropertyOp48
 70
     1
102
RTVSPropertyOp49
 70
     1
102
RTVSPropertyOp50
 70
     1
102
RTVSPropertyOp51
 70
     0
102
RTVSPropertyOp52
 70
     0
102
RTVSPropertyOp53
 70
     1
102
RTVSPropertyOp54
 70
     1
102
RTVSPropertyOp55
 70
     1
102
RTVSPropertyOp56
 70
     1
102
RTVSPropertyOp57
 70
     1
102
RTVSPost2010Prop28
280
     0
102
RTVSPost2010PropOp28
 70
     1
102
RTVSPost2010Prop29
280
     1
102
RTVSPost2010PropOp29
 70
     1
102
RTVSPost2010Prop30
280
     1
102
RTVSPost2010PropOp30
 70
     1
102
RTVSPost2010Prop31
280
     0
102
RTVSPost2010PropOp31
 70
     1
102
RTVSPost2010Prop32
280
     0
102
RTVSPost2010PropOp32
 70
     1
102
RTVSPost2010Prop33
280
     0
102
RTVSPost2010PropOp33
 70
     1
102
RTVSPost2010Prop34
280
     0
102
RTVSPost2010PropOp34
 70
     1
102
RTVSPost2010Prop35
280
     0
102
RTVSPost2010PropOp35
 70
     1
102
RTVSPost2010Prop36
280
     0
102
RTVSPost2010PropOp36
 70
     1
102
RTVSPost2010Prop37
 90
       50
102
RTVSPost2010PropOp37
 70
     1
102
RTVSPost2010Prop38
140
0.0
102
RTVSPost2010PropOp38
 70
     1
102
RTVSPost2010Prop39
140
1.0
102
RTVSPost2010PropOp39
 70
     1
102
RTVSPost2010Prop40
 90
        0
102
RTVSPost2010PropOp40
 70
     1
102
RTVSPost2010Prop41ColorIndex
 90
       18
102
RTVSPost2010Prop41ColorRGB
 90
        0
102
RTVSPost2010PropOp41
 70
     1
102
RTVSPost2010Prop42
 90
       50
102
RTVSPost2010PropOp42
 70
     1
102
RTVSPost2010Prop43
 90
        3
102
RTVSPost2010PropOp43
 70
     1
102
RTVSPost2010Prop44ColorIndex
 90
        5
102
RTVSPost2010Prop44ColorRGB
 90
      255
102
RTVSPost2010PropOp44
 70
     1
102
RTVSPost2010Prop45
280
     0
102
RTVSPost2010PropOp45
 70
     1
102
RTVSPost2010Prop46
 90
       50
102
RTVSPost2010PropOp46
 70
     1
102
RTVSPost2010Prop47
 90
       50
102
RTVSPost2010PropOp47
 70
     1
102
RTVSPost2010Prop48
 90
       50
102
RTVSPost2010PropOp48
 70
     1
102
RTVSPost2010Prop49
280
     0
102
RTVSPost2010PropOp49
 70
     1
102
RTVSPost2010Prop50
 90
       50
102
RTVSPost2010PropOp50
 70
     1
102
RTVSPost2010Prop51ColorIndex
 90
      256
102
RTVSPost2010Prop51ColorRGB
 90
-16777216
102
RTVSPost2010PropOp51
 70
     0
102
RTVSPost2010Prop52
140
1.0
102
RTVSPost2010PropOp52
 70
     0
102
RTVSPost2010Prop53
 90
        2
102
RTVSPost2010PropOp53
 70
     1
102
RTVSPost2010Prop54
  1
strokes_ogs.tif
102
RTVSPost2010PropOp54
 70
     1
102
RTVSPost2010Prop55
280
     0
102
RTVSPost2010PropOp55
 70
     1
102
RTVSPost2010Prop56
140
1.0
102
RTVSPost2010PropOp56
 70
     1
102
RTVSPost2010Prop57
140
1.0
102
RTVSPost2010PropOp57
 70
     1
  0
XRECORD
  5
40F
102
{ACAD_REACTORS
330
40E
102
}
330
40E
100
AcDbXrecord
280
     1
102
RTVSPropertyOp0
 70
     1
102
RTVSPropertyOp1
 70
     1
102
RTVSPropertyOp2
 70
     1
102
RTVSPropertyOp3
 70
     1
102
RTVSPropertyOp4
 70
     1
102
RTVSPropertyOp5
 70
     1
102
RTVSPropertyOp6
 70
     1
102
RTVSPropertyOp7
 70
     1
102
RTVSPropertyOp8
 70
     1
102
RTVSPropertyOp9
 70
     1
102
RTVSPropertyOp10
 70
     1
102
RTVSPropertyOp11
 70
     1
102
RTVSPropertyOp12
 70
     1
102
RTVSPropertyOp13
 70
     1
102
RTVSPropertyOp14
 70
     1
102
RTVSPropertyOp15
 70
     1
102
RTVSPropertyOp16
 70
     1
102
RTVSPropertyOp17
 70
     1
102
RTVSPropertyOp18
 70
     1
102
RTVSPropertyOp19
 70
     1
102
RTVSPropertyOp20
 70
     1
102
RTVSPropertyOp21
 70
     1
102
RTVSPropertyOp22
 70
     1
102
RTVSPropertyOp23
 70
     1
102
RTVSPropertyOp24
 70
     1
102
RTVSPropertyOp25
 70
     1
102
RTVSPropertyOp26
 70
     1
102
RTVSPropertyOp27
 70
     1
102
RTVSPropertyOp28
 70
     1
102
RTVSPropertyOp29
 70
     1
102
RTVSPropertyOp30
 70
     1
102
RTVSPropertyOp31
 70
     1
102
RTVSPropertyOp32
 70
     1
102
RTVSPropertyOp33
 70
     1
102
RTVSPropertyOp34
 70
     1
102
RTVSPropertyOp35
 70
     1
102
RTVSPropertyOp36
 70
     1
102
RTVSPropertyOp37
 70
     1
102
RTVSPropertyOp38
 70
     1
102
RTVSPropertyOp39
 70
     1
102
RTVSPropertyOp40
 70
     1
102
RTVSPropertyOp41
 70
     1
102
RTVSPropertyOp42
 70
     1
102
RTVSPropertyOp43
 70
     1
102
RTVSPropertyOp44
 70
     1
102
RTVSPropertyOp45
 70
     1
102
RTVSPropertyOp46
 70
     1
102
RTVSPropertyOp47
 70
     1
102
RTVSPropertyOp48
 70
     1
102
RTVSPropertyOp49
 70
     1
102
RTVSPropertyOp50
 70
     1
102
RTVSPropertyOp51
 70
     0
102
RTVSPropertyOp52
 70
     0
102
RTVSPropertyOp53
 70
     1
102
RTVSPropertyOp54
 70
     1
102
RTVSPropertyOp55
 70
     1
102
RTVSPropertyOp56
 70
     1
102
RTVSPropertyOp57
 70
     1
102
RTVSPost2010Prop28
280
     0
102
RTVSPost2010PropOp28
 70
     1
102
RTVSPost2010Prop29
280
     1
102
RTVSPost2010PropOp29
 70
     1
102
RTVSPost2010Prop30
280
     1
102
RTVSPost2010PropOp30
 70
     1
102
RTVSPost2010Prop31
280
     0
102
RTVSPost2010PropOp31
 70
     1
102
RTVSPost2010Prop32
280
     0
102
RTVSPost2010PropOp32
 70
     1
102
RTVSPost2010Prop33
280
     0
102
RTVSPost2010PropOp33
 70
     1
102
RTVSPost2010Prop34
280
     0
102
RTVSPost2010PropOp34
 70
     1
102
RTVSPost2010Prop35
280
     0
102
RTVSPost2010PropOp35
 70
     1
102
RTVSPost2010Prop36
280
     0
102
RTVSPost2010PropOp36
 70
     1
102
RTVSPost2010Prop37
 90
       50
102
RTVSPost2010PropOp37
 70
     1
102
RTVSPost2010Prop38
140
0.0
102
RTVSPost2010PropOp38
 70
     1
102
RTVSPost2010Prop39
140
1.0
102
RTVSPost2010PropOp39
 70
     1
102
RTVSPost2010Prop40
 90
        0
102
RTVSPost2010PropOp40
 70
     1
102
RTVSPost2010Prop41ColorIndex
 90
       18
102
RTVSPost2010Prop41ColorRGB
 90
        0
102
RTVSPost2010PropOp41
 70
     1
102
RTVSPost2010Prop42
 90
       50
102
RTVSPost2010PropOp42
 70
     1
102
RTVSPost2010Prop43
 90
        3
102
RTVSPost2010PropOp43
 70
     1
102
RTVSPost2010Prop44ColorIndex
 90
        5
102
RTVSPost2010Prop44ColorRGB
 90
      255
102
RTVSPost2010PropOp44
 70
     1
102
RTVSPost2010Prop45
280
     0
102
RTVSPost2010PropOp45
 70
     1
102
RTVSPost2010Prop46
 90
       50
102
RTVSPost2010PropOp46
 70
     1
102
RTVSPost2010Prop47
 90
       50
102
RTVSPost2010PropOp47
 70
     1
102
RTVSPost2010Prop48
 90
       50
102
RTVSPost2010PropOp48
 70
     1
102
RTVSPost2010Prop49
280
     0
102
RTVSPost2010PropOp49
 70
     1
102
RTVSPost2010Prop50
 90
       50
102
RTVSPost2010PropOp50
 70
     1
102
RTVSPost2010Prop51ColorIndex
 90
      256
102
RTVSPost2010Prop51ColorRGB
 90
-16777216
102
RTVSPost2010PropOp51
 70
     0
102
RTVSPost2010Prop52
140
1.0
102
RTVSPost2010PropOp52
 70
     0
102
RTVSPost2010Prop53
 90
        2
102
RTVSPost2010PropOp53
 70
     1
102
RTVSPost2010Prop54
  1
strokes_ogs.tif
102
RTVSPost2010PropOp54
 70
     1
102
RTVSPost2010Prop55
280
     0
102
RTVSPost2010PropOp55
 70
     1
102
RTVSPost2010Prop56
140
1.0
102
RTVSPost2010PropOp56
 70
     1
102
RTVSPost2010Prop57
140
1.0
102
RTVSPost2010PropOp57
 70
     1
  0
XRECORD
  5
415
102
{ACAD_REACTORS
330
414
102
}
330
414
100
AcDbXrecord
280
     1
102
RTVSPropertyOp0
 70
     1
102
RTVSPropertyOp1
 70
     1
102
RTVSPropertyOp2
 70
     1
102
RTVSPropertyOp3
 70
     1
102
RTVSPropertyOp4
 70
     1
102
RTVSPropertyOp5
 70
     1
102
RTVSPropertyOp6
 70
     1
102
RTVSPropertyOp7
 70
     1
102
RTVSPropertyOp8
 70
     1
102
RTVSPropertyOp9
 70
     1
102
RTVSPropertyOp10
 70
     1
102
RTVSPropertyOp11
 70
     1
102
RTVSPropertyOp12
 70
     1
102
RTVSPropertyOp13
 70
     1
102
RTVSPropertyOp14
 70
     1
102
RTVSPropertyOp15
 70
     1
102
RTVSPropertyOp16
 70
     1
102
RTVSPropertyOp17
 70
     1
102
RTVSPropertyOp18
 70
     1
102
RTVSPropertyOp19
 70
     1
102
RTVSPropertyOp20
 70
     1
102
RTVSPropertyOp21
 70
     1
102
RTVSPropertyOp22
 70
     1
102
RTVSPropertyOp23
 70
     1
102
RTVSPropertyOp24
 70
     1
102
RTVSPropertyOp25
 70
     1
102
RTVSPropertyOp26
 70
     1
102
RTVSPropertyOp27
 70
     1
102
RTVSPropertyOp28
 70
     1
102
RTVSPropertyOp29
 70
     1
102
RTVSPropertyOp30
 70
     1
102
RTVSPropertyOp31
 70
     1
102
RTVSPropertyOp32
 70
     1
102
RTVSPropertyOp33
 70
     1
102
RTVSPropertyOp34
 70
     1
102
RTVSPropertyOp35
 70
     1
102
RTVSPropertyOp36
 70
     1
102
RTVSPropertyOp37
 70
     1
102
RTVSPropertyOp38
 70
     1
102
RTVSPropertyOp39
 70
     1
102
RTVSPropertyOp40
 70
     1
102
RTVSPropertyOp41
 70
     1
102
RTVSPropertyOp42
 70
     1
102
RTVSPropertyOp43
 70
     1
102
RTVSPropertyOp44
 70
     1
102
RTVSPropertyOp45
 70
     1
102
RTVSPropertyOp46
 70
     1
102
RTVSPropertyOp47
 70
     1
102
RTVSPropertyOp48
 70
     1
102
RTVSPropertyOp49
 70
     1
102
RTVSPropertyOp50
 70
     1
102
RTVSPropertyOp51
 70
     0
102
RTVSPropertyOp52
 70
     0
102
RTVSPropertyOp53
 70
     1
102
RTVSPropertyOp54
 70
     1
102
RTVSPropertyOp55
 70
     1
102
RTVSPropertyOp56
 70
     1
102
RTVSPropertyOp57
 70
     1
102
RTVSPost2010Prop28
280
     0
102
RTVSPost2010PropOp28
 70
     1
102
RTVSPost2010Prop29
280
     1
102
RTVSPost2010PropOp29
 70
     1
102
RTVSPost2010Prop30
280
     1
102
RTVSPost2010PropOp30
 70
     1
102
RTVSPost2010Prop31
280
     0
102
RTVSPost2010PropOp31
 70
     1
102
RTVSPost2010Prop32
280
     0
102
RTVSPost2010PropOp32
 70
     1
102
RTVSPost2010Prop33
280
     0
102
RTVSPost2010PropOp33
 70
     1
102
RTVSPost2010Prop34
280
     0
102
RTVSPost2010PropOp34
 70
     1
102
RTVSPost2010Prop35
280
     0
102
RTVSPost2010PropOp35
 70
     1
102
RTVSPost2010Prop36
280
     0
102
RTVSPost2010PropOp36
 70
     1
102
RTVSPost2010Prop37
 90
       50
102
RTVSPost2010PropOp37
 70
     1
102
RTVSPost2010Prop38
140
0.0
102
RTVSPost2010PropOp38
 70
     1
102
RTVSPost2010Prop39
140
1.0
102
RTVSPost2010PropOp39
 70
     1
102
RTVSPost2010Prop40
 90
        0
102
RTVSPost2010PropOp40
 70
     1
102
RTVSPost2010Prop41ColorIndex
 90
       18
102
RTVSPost2010Prop41ColorRGB
 90
        0
102
RTVSPost2010PropOp41
 70
     1
102
RTVSPost2010Prop42
 90
       50
102
RTVSPost2010PropOp42
 70
     1
102
RTVSPost2010Prop43
 90
        3
102
RTVSPost2010PropOp43
 70
     1
102
RTVSPost2010Prop44ColorIndex
 90
        5
102
RTVSPost2010Prop44ColorRGB
 90
      255
102
RTVSPost2010PropOp44
 70
     1
102
RTVSPost2010Prop45
280
     0
102
RTVSPost2010PropOp45
 70
     1
102
RTVSPost2010Prop46
 90
       50
102
RTVSPost2010PropOp46
 70
     1
102
RTVSPost2010Prop47
 90
       50
102
RTVSPost2010PropOp47
 70
     1
102
RTVSPost2010Prop48
 90
       50
102
RTVSPost2010PropOp48
 70
     1
102
RTVSPost2010Prop49
280
     0
102
RTVSPost2010PropOp49
 70
     1
102
RTVSPost2010Prop50
 90
       50
102
RTVSPost2010PropOp50
 70
     1
102
RTVSPost2010Prop51ColorIndex
 90
      256
102
RTVSPost2010Prop51ColorRGB
 90
-16777216
102
RTVSPost2010PropOp51
 70
     0
102
RTVSPost2010Prop52
140
1.0
102
RTVSPost2010PropOp52
 70
     0
102
RTVSPost2010Prop53
 90
        2
102
RTVSPost2010PropOp53
 70
     1
102
RTVSPost2010Prop54
  1
strokes_ogs.tif
102
RTVSPost2010PropOp54
 70
     1
102
RTVSPost2010Prop55
280
     0
102
RTVSPost2010PropOp55
 70
     1
102
RTVSPost2010Prop56
140
1.0
102
RTVSPost2010PropOp56
 70
     1
102
RTVSPost2010Prop57
140
1.0
102
RTVSPost2010PropOp57
 70
     1
  0
XRECORD
  5
429
102
{ACAD_REACTORS
330
428
102
}
330
428
100
AcDbXrecord
280
     1
102
RTVSPropertyOp0
 70
     0
102
RTVSPropertyOp1
 70
     0
102
RTVSPropertyOp2
 70
     0
102
RTVSPropertyOp3
 70
     0
102
RTVSPropertyOp4
 70
     0
102
RTVSPropertyOp5
 70
     0
102
RTVSPropertyOp6
 70
     0
102
RTVSPropertyOp7
 70
     0
102
RTVSPropertyOp8
 70
     0
102
RTVSPropertyOp9
 70
     0
102
RTVSPropertyOp10
 70
     0
102
RTVSPropertyOp11
 70
     0
102
RTVSPropertyOp12
 70
     0
102
RTVSPropertyOp13
 70
     0
102
RTVSPropertyOp14
 70
     2
102
RTVSPropertyOp15
 70
     0
102
RTVSPropertyOp16
 70
     0
102
RTVSPropertyOp17
 70
     0
102
RTVSPropertyOp18
 70
     0
102
RTVSPropertyOp19
 70
     0
102
RTVSPropertyOp20
 70
     0
102
RTVSPropertyOp21
 70
     0
102
RTVSPropertyOp22
 70
     0
102
RTVSPropertyOp23
 70
     0
102
RTVSPropertyOp24
 70
     0
102
RTVSPropertyOp25
 70
     0
102
RTVSPropertyOp26
 70
     0
102
RTVSPropertyOp27
 70
     0
102
RTVSPropertyOp28
 70
     0
102
RTVSPropertyOp29
 70
     0
102
RTVSPropertyOp30
 70
     0
102
RTVSPropertyOp31
 70
     0
102
RTVSPropertyOp32
 70
     0
102
RTVSPropertyOp33
 70
     0
102
RTVSPropertyOp34
 70
     0
102
RTVSPropertyOp35
 70
     0
102
RTVSPropertyOp36
 70
     0
102
RTVSPropertyOp37
 70
     0
102
RTVSPropertyOp38
 70
     0
102
RTVSPropertyOp39
 70
     0
102
RTVSPropertyOp40
 70
     0
102
RTVSPropertyOp41
 70
     0
102
RTVSPropertyOp42
 70
     0
102
RTVSPropertyOp43
 70
     0
102
RTVSPropertyOp44
 70
     0
102
RTVSPropertyOp45
 70
     0
102
RTVSPropertyOp46
 70
     0
102
RTVSPropertyOp47
 70
     0
102
RTVSPropertyOp48
 70
     0
102
RTVSPropertyOp49
 70
     0
102
RTVSPropertyOp50
 70
     0
102
RTVSPropertyOp51
 70
     0
102
RTVSPropertyOp52
 70
     0
102
RTVSPropertyOp53
 70
     0
102
RTVSPropertyOp54
 70
     0
102
RTVSPropertyOp55
 70
     0
102
RTVSPropertyOp56
 70
     0
102
RTVSPropertyOp57
 70
     0
102
RTVSPost2010Prop28
280
     0
102
RTVSPost2010PropOp28
 70
     0
102
RTVSPost2010Prop29
280
     1
102
RTVSPost2010PropOp29
 70
     0
102
RTVSPost2010Prop30
280
     1
102
RTVSPost2010PropOp30
 70
     0
102
RTVSPost2010Prop31
280
     0
102
RTVSPost2010PropOp31
 70
     0
102
RTVSPost2010Prop32
280
     0
102
RTVSPost2010PropOp32
 70
     0
102
RTVSPost2010Prop33
280
     0
102
RTVSPost2010PropOp33
 70
     0
102
RTVSPost2010Prop34
280
     0
102
RTVSPost2010PropOp34
 70
     0
102
RTVSPost2010Prop35
280
     0
102
RTVSPost2010PropOp35
 70
     0
102
RTVSPost2010Prop36
280
     0
102
RTVSPost2010PropOp36
 70
     0
102
RTVSPost2010Prop37
 90
       50
102
RTVSPost2010PropOp37
 70
     0
102
RTVSPost2010Prop38
140
0.0
102
RTVSPost2010PropOp38
 70
     0
102
RTVSPost2010Prop39
140
1.0
102
RTVSPost2010PropOp39
 70
     0
102
RTVSPost2010Prop40
 90
        0
102
RTVSPost2010PropOp40
 70
     0
102
RTVSPost2010Prop41ColorIndex
 90
       18
102
RTVSPost2010Prop41ColorRGB
 90
        0
102
RTVSPost2010PropOp41
 70
     0
102
RTVSPost2010Prop42
 90
       50
102
RTVSPost2010PropOp42
 70
     0
102
RTVSPost2010Prop43
 90
        3
102
RTVSPost2010PropOp43
 70
     0
102
RTVSPost2010Prop44ColorIndex
 90
        5
102
RTVSPost2010Prop44ColorRGB
 90
      255
102
RTVSPost2010PropOp44
 70
     0
102
RTVSPost2010Prop45
280
     0
102
RTVSPost2010PropOp45
 70
     0
102
RTVSPost2010Prop46
 90
       50
102
RTVSPost2010PropOp46
 70
     0
102
RTVSPost2010Prop47
 90
       50
102
RTVSPost2010PropOp47
 70
     0
102
RTVSPost2010Prop48
 90
       50
102
RTVSPost2010PropOp48
 70
     0
102
RTVSPost2010Prop49
280
     0
102
RTVSPost2010PropOp49
 70
     0
102
RTVSPost2010Prop50
 90
       50
102
RTVSPost2010PropOp50
 70
     0
102
RTVSPost2010Prop51ColorIndex
 90
      256
102
RTVSPost2010Prop51ColorRGB
 90
-16777216
102
RTVSPost2010PropOp51
 70
     0
102
RTVSPost2010Prop52
140
1.0
102
RTVSPost2010PropOp52
 70
     0
102
RTVSPost2010Prop53
 90
        2
102
RTVSPost2010PropOp53
 70
     0
102
RTVSPost2010Prop54
  1
strokes_ogs.tif
102
RTVSPost2010PropOp54
 70
     0
102
RTVSPost2010Prop55
280
     0
102
RTVSPost2010PropOp55
 70
     0
102
RTVSPost2010Prop56
140
1.0
102
RTVSPost2010PropOp56
 70
     0
102
RTVSPost2010Prop57
140
1.0
102
RTVSPost2010PropOp57
 70
     0
  0
XRECORD
  5
423
102
{ACAD_REACTORS
330
422
102
}
330
422
100
AcDbXrecord
280
     1
102
RTVSPropertyOp0
 70
     1
102
RTVSPropertyOp1
 70
     1
102
RTVSPropertyOp2
 70
     1
102
RTVSPropertyOp3
 70
     1
102
RTVSPropertyOp4
 70
     1
102
RTVSPropertyOp5
 70
     1
102
RTVSPropertyOp6
 70
     1
102
RTVSPropertyOp7
 70
     1
102
RTVSPropertyOp8
 70
     1
102
RTVSPropertyOp9
 70
     1
102
RTVSPropertyOp10
 70
     1
102
RTVSPropertyOp11
 70
     1
102
RTVSPropertyOp12
 70
     1
102
RTVSPropertyOp13
 70
     1
102
RTVSPropertyOp14
 70
     1
102
RTVSPropertyOp15
 70
     1
102
RTVSPropertyOp16
 70
     1
102
RTVSPropertyOp17
 70
     1
102
RTVSPropertyOp18
 70
     1
102
RTVSPropertyOp19
 70
     1
102
RTVSPropertyOp20
 70
     1
102
RTVSPropertyOp21
 70
     1
102
RTVSPropertyOp22
 70
     1
102
RTVSPropertyOp23
 70
     1
102
RTVSPropertyOp24
 70
     1
102
RTVSPropertyOp25
 70
     1
102
RTVSPropertyOp26
 70
     1
102
RTVSPropertyOp27
 70
     1
102
RTVSPropertyOp28
 70
     1
102
RTVSPropertyOp29
 70
     1
102
RTVSPropertyOp30
 70
     1
102
RTVSPropertyOp31
 70
     1
102
RTVSPropertyOp32
 70
     1
102
RTVSPropertyOp33
 70
     1
102
RTVSPropertyOp34
 70
     1
102
RTVSPropertyOp35
 70
     1
102
RTVSPropertyOp36
 70
     1
102
RTVSPropertyOp37
 70
     1
102
RTVSPropertyOp38
 70
     1
102
RTVSPropertyOp39
 70
     1
102
RTVSPropertyOp40
 70
     1
102
RTVSPropertyOp41
 70
     1
102
RTVSPropertyOp42
 70
     1
102
RTVSPropertyOp43
 70
     1
102
RTVSPropertyOp44
 70
     1
102
RTVSPropertyOp45
 70
     1
102
RTVSPropertyOp46
 70
     1
102
RTVSPropertyOp47
 70
     1
102
RTVSPropertyOp48
 70
     1
102
RTVSPropertyOp49
 70
     1
102
RTVSPropertyOp50
 70
     1
102
RTVSPropertyOp51
 70
     0
102
RTVSPropertyOp52
 70
     0
102
RTVSPropertyOp53
 70
     1
102
RTVSPropertyOp54
 70
     1
102
RTVSPropertyOp55
 70
     1
102
RTVSPropertyOp56
 70
     1
102
RTVSPropertyOp57
 70
     1
102
RTVSPost2010Prop28
280
     0
102
RTVSPost2010PropOp28
 70
     1
102
RTVSPost2010Prop29
280
     1
102
RTVSPost2010PropOp29
 70
     1
102
RTVSPost2010Prop30
280
     1
102
RTVSPost2010PropOp30
 70
     1
102
RTVSPost2010Prop31
280
     0
102
RTVSPost2010PropOp31
 70
     1
102
RTVSPost2010Prop32
280
     0
102
RTVSPost2010PropOp32
 70
     1
102
RTVSPost2010Prop33
280
     0
102
RTVSPost2010PropOp33
 70
     1
102
RTVSPost2010Prop34
280
     0
102
RTVSPost2010PropOp34
 70
     1
102
RTVSPost2010Prop35
280
     0
102
RTVSPost2010PropOp35
 70
     1
102
RTVSPost2010Prop36
280
     0
102
RTVSPost2010PropOp36
 70
     1
102
RTVSPost2010Prop37
 90
       50
102
RTVSPost2010PropOp37
 70
     1
102
RTVSPost2010Prop38
140
0.0
102
RTVSPost2010PropOp38
 70
     1
102
RTVSPost2010Prop39
140
1.0
102
RTVSPost2010PropOp39
 70
     1
102
RTVSPost2010Prop40
 90
        0
102
RTVSPost2010PropOp40
 70
     1
102
RTVSPost2010Prop41ColorIndex
 90
       18
102
RTVSPost2010Prop41ColorRGB
 90
        0
102
RTVSPost2010PropOp41
 70
     1
102
RTVSPost2010Prop42
 90
       50
102
RTVSPost2010PropOp42
 70
     1
102
RTVSPost2010Prop43
 90
        3
102
RTVSPost2010PropOp43
 70
     1
102
RTVSPost2010Prop44ColorIndex
 90
        5
102
RTVSPost2010Prop44ColorRGB
 90
      255
102
RTVSPost2010PropOp44
 70
     1
102
RTVSPost2010Prop45
280
     0
102
RTVSPost2010PropOp45
 70
     1
102
RTVSPost2010Prop46
 90
       50
102
RTVSPost2010PropOp46
 70
     1
102
RTVSPost2010Prop47
 90
       50
102
RTVSPost2010PropOp47
 70
     1
102
RTVSPost2010Prop48
 90
       50
102
RTVSPost2010PropOp48
 70
     1
102
RTVSPost2010Prop49
280
     0
102
RTVSPost2010PropOp49
 70
     1
102
RTVSPost2010Prop50
 90
       50
102
RTVSPost2010PropOp50
 70
     1
102
RTVSPost2010Prop51ColorIndex
 90
      256
102
RTVSPost2010Prop51ColorRGB
 90
-16777216
102
RTVSPost2010PropOp51
 70
     0
102
RTVSPost2010Prop52
140
1.0
102
RTVSPost2010PropOp52
 70
     0
102
RTVSPost2010Prop53
 90
        2
102
RTVSPost2010PropOp53
 70
     1
102
RTVSPost2010Prop54
  1
strokes_ogs.tif
102
RTVSPost2010PropOp54
 70
     1
102
RTVSPost2010Prop55
280
     0
102
RTVSPost2010PropOp55
 70
     1
102
RTVSPost2010Prop56
140
1.0
102
RTVSPost2010PropOp56
 70
     1
102
RTVSPost2010Prop57
140
1.0
102
RTVSPost2010PropOp57
 70
     1
  0
XRECORD
  5
42B
102
{ACAD_REACTORS
330
42A
102
}
330
42A
100
AcDbXrecord
280
     1
102
RTVSPropertyOp0
 70
     0
102
RTVSPropertyOp1
 70
     0
102
RTVSPropertyOp2
 70
     0
102
RTVSPropertyOp3
 70
     0
102
RTVSPropertyOp4
 70
     0
102
RTVSPropertyOp5
 70
     0
102
RTVSPropertyOp6
 70
     0
102
RTVSPropertyOp7
 70
     0
102
RTVSPropertyOp8
 70
     0
102
RTVSPropertyOp9
 70
     0
102
RTVSPropertyOp10
 70
     0
102
RTVSPropertyOp11
 70
     0
102
RTVSPropertyOp12
 70
     0
102
RTVSPropertyOp13
 70
     0
102
RTVSPropertyOp14
 70
     2
102
RTVSPropertyOp15
 70
     0
102
RTVSPropertyOp16
 70
     0
102
RTVSPropertyOp17
 70
     0
102
RTVSPropertyOp18
 70
     0
102
RTVSPropertyOp19
 70
     0
102
RTVSPropertyOp20
 70
     0
102
RTVSPropertyOp21
 70
     0
102
RTVSPropertyOp22
 70
     0
102
RTVSPropertyOp23
 70
     0
102
RTVSPropertyOp24
 70
     0
102
RTVSPropertyOp25
 70
     0
102
RTVSPropertyOp26
 70
     0
102
RTVSPropertyOp27
 70
     0
102
RTVSPropertyOp28
 70
     0
102
RTVSPropertyOp29
 70
     0
102
RTVSPropertyOp30
 70
     0
102
RTVSPropertyOp31
 70
     0
102
RTVSPropertyOp32
 70
     0
102
RTVSPropertyOp33
 70
     0
102
RTVSPropertyOp34
 70
     0
102
RTVSPropertyOp35
 70
     0
102
RTVSPropertyOp36
 70
     0
102
RTVSPropertyOp37
 70
     0
102
RTVSPropertyOp38
 70
     0
102
RTVSPropertyOp39
 70
     0
102
RTVSPropertyOp40
 70
     0
102
RTVSPropertyOp41
 70
     0
102
RTVSPropertyOp42
 70
     0
102
RTVSPropertyOp43
 70
     0
102
RTVSPropertyOp44
 70
     0
102
RTVSPropertyOp45
 70
     0
102
RTVSPropertyOp46
 70
     0
102
RTVSPropertyOp47
 70
     0
102
RTVSPropertyOp48
 70
     0
102
RTVSPropertyOp49
 70
     0
102
RTVSPropertyOp50
 70
     0
102
RTVSPropertyOp51
 70
     0
102
RTVSPropertyOp52
 70
     0
102
RTVSPropertyOp53
 70
     0
102
RTVSPropertyOp54
 70
     0
102
RTVSPropertyOp55
 70
     0
102
RTVSPropertyOp56
 70
     0
102
RTVSPropertyOp57
 70
     0
102
RTVSPost2010Prop28
280
     0
102
RTVSPost2010PropOp28
 70
     0
102
RTVSPost2010Prop29
280
     1
102
RTVSPost2010PropOp29
 70
     0
102
RTVSPost2010Prop30
280
     1
102
RTVSPost2010PropOp30
 70
     0
102
RTVSPost2010Prop31
280
     0
102
RTVSPost2010PropOp31
 70
     0
102
RTVSPost2010Prop32
280
     0
102
RTVSPost2010PropOp32
 70
     0
102
RTVSPost2010Prop33
280
     0
102
RTVSPost2010PropOp33
 70
     0
102
RTVSPost2010Prop34
280
     0
102
RTVSPost2010PropOp34
 70
     0
102
RTVSPost2010Prop35
280
     0
102
RTVSPost2010PropOp35
 70
     0
102
RTVSPost2010Prop36
280
     0
102
RTVSPost2010PropOp36
 70
     0
102
RTVSPost2010Prop37
 90
       50
102
RTVSPost2010PropOp37
 70
     0
102
RTVSPost2010Prop38
140
0.0
102
RTVSPost2010PropOp38
 70
     0
102
RTVSPost2010Prop39
140
1.0
102
RTVSPost2010PropOp39
 70
     0
102
RTVSPost2010Prop40
 90
        0
102
RTVSPost2010PropOp40
 70
     0
102
RTVSPost2010Prop41ColorIndex
 90
       18
102
RTVSPost2010Prop41ColorRGB
 90
        0
102
RTVSPost2010PropOp41
 70
     0
102
RTVSPost2010Prop42
 90
       50
102
RTVSPost2010PropOp42
 70
     0
102
RTVSPost2010Prop43
 90
        3
102
RTVSPost2010PropOp43
 70
     0
102
RTVSPost2010Prop44ColorIndex
 90
        5
102
RTVSPost2010Prop44ColorRGB
 90
      255
102
RTVSPost2010PropOp44
 70
     0
102
RTVSPost2010Prop45
280
     0
102
RTVSPost2010PropOp45
 70
     0
102
RTVSPost2010Prop46
 90
       50
102
RTVSPost2010PropOp46
 70
     0
102
RTVSPost2010Prop47
 90
       50
102
RTVSPost2010PropOp47
 70
     0
102
RTVSPost2010Prop48
 90
       50
102
RTVSPost2010PropOp48
 70
     0
102
RTVSPost2010Prop49
280
     0
102
RTVSPost2010PropOp49
 70
     0
102
RTVSPost2010Prop50
 90
       50
102
RTVSPost2010PropOp50
 70
     0
102
RTVSPost2010Prop51ColorIndex
 90
      256
102
RTVSPost2010Prop51ColorRGB
 90
-16777216
102
RTVSPost2010PropOp51
 70
     0
102
RTVSPost2010Prop52
140
1.0
102
RTVSPost2010PropOp52
 70
     0
102
RTVSPost2010Prop53
 90
        2
102
RTVSPost2010PropOp53
 70
     0
102
RTVSPost2010Prop54
  1
strokes_ogs.tif
102
RTVSPost2010PropOp54
 70
     0
102
RTVSPost2010Prop55
280
     0
102
RTVSPost2010PropOp55
 70
     0
102
RTVSPost2010Prop56
140
1.0
102
RTVSPost2010PropOp56
 70
     0
102
RTVSPost2010Prop57
140
1.0
102
RTVSPost2010PropOp57
 70
     0
  0
XRECORD
  5
419
102
{ACAD_REACTORS
330
418
102
}
330
418
100
AcDbXrecord
280
     1
102
RTVSPropertyOp0
 70
     1
102
RTVSPropertyOp1
 70
     1
102
RTVSPropertyOp2
 70
     1
102
RTVSPropertyOp3
 70
     1
102
RTVSPropertyOp4
 70
     1
102
RTVSPropertyOp5
 70
     1
102
RTVSPropertyOp6
 70
     1
102
RTVSPropertyOp7
 70
     1
102
RTVSPropertyOp8
 70
     1
102
RTVSPropertyOp9
 70
     1
102
RTVSPropertyOp10
 70
     1
102
RTVSPropertyOp11
 70
     1
102
RTVSPropertyOp12
 70
     1
102
RTVSPropertyOp13
 70
     1
102
RTVSPropertyOp14
 70
     1
102
RTVSPropertyOp15
 70
     1
102
RTVSPropertyOp16
 70
     1
102
RTVSPropertyOp17
 70
     1
102
RTVSPropertyOp18
 70
     1
102
RTVSPropertyOp19
 70
     1
102
RTVSPropertyOp20
 70
     1
102
RTVSPropertyOp21
 70
     1
102
RTVSPropertyOp22
 70
     1
102
RTVSPropertyOp23
 70
     1
102
RTVSPropertyOp24
 70
     1
102
RTVSPropertyOp25
 70
     1
102
RTVSPropertyOp26
 70
     1
102
RTVSPropertyOp27
 70
     1
102
RTVSPropertyOp28
 70
     1
102
RTVSPropertyOp29
 70
     1
102
RTVSPropertyOp30
 70
     1
102
RTVSPropertyOp31
 70
     1
102
RTVSPropertyOp32
 70
     1
102
RTVSPropertyOp33
 70
     1
102
RTVSPropertyOp34
 70
     1
102
RTVSPropertyOp35
 70
     1
102
RTVSPropertyOp36
 70
     1
102
RTVSPropertyOp37
 70
     1
102
RTVSPropertyOp38
 70
     1
102
RTVSPropertyOp39
 70
     1
102
RTVSPropertyOp40
 70
     1
102
RTVSPropertyOp41
 70
     1
102
RTVSPropertyOp42
 70
     1
102
RTVSPropertyOp43
 70
     1
102
RTVSPropertyOp44
 70
     1
102
RTVSPropertyOp45
 70
     1
102
RTVSPropertyOp46
 70
     1
102
RTVSPropertyOp47
 70
     1
102
RTVSPropertyOp48
 70
     1
102
RTVSPropertyOp49
 70
     1
102
RTVSPropertyOp50
 70
     1
102
RTVSPropertyOp51
 70
     0
102
RTVSPropertyOp52
 70
     0
102
RTVSPropertyOp53
 70
     1
102
RTVSPropertyOp54
 70
     1
102
RTVSPropertyOp55
 70
     1
102
RTVSPropertyOp56
 70
     1
102
RTVSPropertyOp57
 70
     1
102
RTVSPost2010Prop28
280
     0
102
RTVSPost2010PropOp28
 70
     1
102
RTVSPost2010Prop29
280
     1
102
RTVSPost2010PropOp29
 70
     1
102
RTVSPost2010Prop30
280
     1
102
RTVSPost2010PropOp30
 70
     1
102
RTVSPost2010Prop31
280
     0
102
RTVSPost2010PropOp31
 70
     1
102
RTVSPost2010Prop32
280
     0
102
RTVSPost2010PropOp32
 70
     1
102
RTVSPost2010Prop33
280
     0
102
RTVSPost2010PropOp33
 70
     1
102
RTVSPost2010Prop34
280
     0
102
RTVSPost2010PropOp34
 70
     1
102
RTVSPost2010Prop35
280
     0
102
RTVSPost2010PropOp35
 70
     1
102
RTVSPost2010Prop36
280
     0
102
RTVSPost2010PropOp36
 70
     1
102
RTVSPost2010Prop37
 90
       50
102
RTVSPost2010PropOp37
 70
     1
102
RTVSPost2010Prop38
140
0.0
102
RTVSPost2010PropOp38
 70
     1
102
RTVSPost2010Prop39
140
1.0
102
RTVSPost2010PropOp39
 70
     1
102
RTVSPost2010Prop40
 90
        0
102
RTVSPost2010PropOp40
 70
     1
102
RTVSPost2010Prop41ColorIndex
 90
       18
102
RTVSPost2010Prop41ColorRGB
 90
        0
102
RTVSPost2010PropOp41
 70
     1
102
RTVSPost2010Prop42
 90
       50
102
RTVSPost2010PropOp42
 70
     1
102
RTVSPost2010Prop43
 90
        3
102
RTVSPost2010PropOp43
 70
     1
102
RTVSPost2010Prop44ColorIndex
 90
        5
102
RTVSPost2010Prop44ColorRGB
 90
      255
102
RTVSPost2010PropOp44
 70
     1
102
RTVSPost2010Prop45
280
     0
102
RTVSPost2010PropOp45
 70
     1
102
RTVSPost2010Prop46
 90
       50
102
RTVSPost2010PropOp46
 70
     1
102
RTVSPost2010Prop47
 90
       50
102
RTVSPost2010PropOp47
 70
     1
102
RTVSPost2010Prop48
 90
       50
102
RTVSPost2010PropOp48
 70
     1
102
RTVSPost2010Prop49
280
     0
102
RTVSPost2010PropOp49
 70
     1
102
RTVSPost2010Prop50
 90
       50
102
RTVSPost2010PropOp50
 70
     1
102
RTVSPost2010Prop51ColorIndex
 90
      256
102
RTVSPost2010Prop51ColorRGB
 90
-16777216
102
RTVSPost2010PropOp51
 70
     0
102
RTVSPost2010Prop52
140
1.0
102
RTVSPost2010PropOp52
 70
     0
102
RTVSPost2010Prop53
 90
        2
102
RTVSPost2010PropOp53
 70
     1
102
RTVSPost2010Prop54
  1
strokes_ogs.tif
102
RTVSPost2010PropOp54
 70
     1
102
RTVSPost2010Prop55
280
     0
102
RTVSPost2010PropOp55
 70
     1
102
RTVSPost2010Prop56
140
1.0
102
RTVSPost2010PropOp56
 70
     1
102
RTVSPost2010Prop57
140
1.0
102
RTVSPost2010PropOp57
 70
     1
  0
XRECORD
  5
437
102
{ACAD_REACTORS
330
436
102
}
330
436
100
AcDbXrecord
280
     1
102
RTVSPropertyOp0
 70
     1
102
RTVSPropertyOp1
 70
     1
102
RTVSPropertyOp2
 70
     1
102
RTVSPropertyOp3
 70
     1
102
RTVSPropertyOp4
 70
     1
102
RTVSPropertyOp5
 70
     1
102
RTVSPropertyOp6
 70
     1
102
RTVSPropertyOp7
 70
     1
102
RTVSPropertyOp8
 70
     1
102
RTVSPropertyOp9
 70
     1
102
RTVSPropertyOp10
 70
     1
102
RTVSPropertyOp11
 70
     1
102
RTVSPropertyOp12
 70
     1
102
RTVSPropertyOp13
 70
     1
102
RTVSPropertyOp14
 70
     1
102
RTVSPropertyOp15
 70
     1
102
RTVSPropertyOp16
 70
     1
102
RTVSPropertyOp17
 70
     1
102
RTVSPropertyOp18
 70
     1
102
RTVSPropertyOp19
 70
     1
102
RTVSPropertyOp20
 70
     1
102
RTVSPropertyOp21
 70
     1
102
RTVSPropertyOp22
 70
     1
102
RTVSPropertyOp23
 70
     1
102
RTVSPropertyOp24
 70
     1
102
RTVSPropertyOp25
 70
     1
102
RTVSPropertyOp26
 70
     1
102
RTVSPropertyOp27
 70
     1
102
RTVSPropertyOp28
 70
     1
102
RTVSPropertyOp29
 70
     1
102
RTVSPropertyOp30
 70
     1
102
RTVSPropertyOp31
 70
     1
102
RTVSPropertyOp32
 70
     1
102
RTVSPropertyOp33
 70
     1
102
RTVSPropertyOp34
 70
     1
102
RTVSPropertyOp35
 70
     1
102
RTVSPropertyOp36
 70
     1
102
RTVSPropertyOp37
 70
     1
102
RTVSPropertyOp38
 70
     1
102
RTVSPropertyOp39
 70
     1
102
RTVSPropertyOp40
 70
     1
102
RTVSPropertyOp41
 70
     1
102
RTVSPropertyOp42
 70
     1
102
RTVSPropertyOp43
 70
     1
102
RTVSPropertyOp44
 70
     1
102
RTVSPropertyOp45
 70
     1
102
RTVSPropertyOp46
 70
     1
102
RTVSPropertyOp47
 70
     1
102
RTVSPropertyOp48
 70
     1
102
RTVSPropertyOp49
 70
     1
102
RTVSPropertyOp50
 70
     1
102
RTVSPropertyOp51
 70
     0
102
RTVSPropertyOp52
 70
     0
102
RTVSPropertyOp53
 70
     1
102
RTVSPropertyOp54
 70
     1
102
RTVSPropertyOp55
 70
     1
102
RTVSPropertyOp56
 70
     1
102
RTVSPropertyOp57
 70
     1
102
RTVSPost2010Prop28
280
     0
102
RTVSPost2010PropOp28
 70
     1
102
RTVSPost2010Prop29
280
     1
102
RTVSPost2010PropOp29
 70
     1
102
RTVSPost2010Prop30
280
     1
102
RTVSPost2010PropOp30
 70
     1
102
RTVSPost2010Prop31
280
     0
102
RTVSPost2010PropOp31
 70
     1
102
RTVSPost2010Prop32
280
     0
102
RTVSPost2010PropOp32
 70
     1
102
RTVSPost2010Prop33
280
     0
102
RTVSPost2010PropOp33
 70
     1
102
RTVSPost2010Prop34
280
     0
102
RTVSPost2010PropOp34
 70
     1
102
RTVSPost2010Prop35
280
     0
102
RTVSPost2010PropOp35
 70
     1
102
RTVSPost2010Prop36
280
     0
102
RTVSPost2010PropOp36
 70
     1
102
RTVSPost2010Prop37
 90
       50
102
RTVSPost2010PropOp37
 70
     1
102
RTVSPost2010Prop38
140
0.0
102
RTVSPost2010PropOp38
 70
     1
102
RTVSPost2010Prop39
140
1.0
102
RTVSPost2010PropOp39
 70
     1
102
RTVSPost2010Prop40
 90
        0
102
RTVSPost2010PropOp40
 70
     1
102
RTVSPost2010Prop41ColorIndex
 90
       18
102
RTVSPost2010Prop41ColorRGB
 90
        0
102
RTVSPost2010PropOp41
 70
     1
102
RTVSPost2010Prop42
 90
       50
102
RTVSPost2010PropOp42
 70
     1
102
RTVSPost2010Prop43
 90
        3
102
RTVSPost2010PropOp43
 70
     1
102
RTVSPost2010Prop44ColorIndex
 90
        5
102
RTVSPost2010Prop44ColorRGB
 90
      255
102
RTVSPost2010PropOp44
 70
     1
102
RTVSPost2010Prop45
280
     0
102
RTVSPost2010PropOp45
 70
     1
102
RTVSPost2010Prop46
 90
       50
102
RTVSPost2010PropOp46
 70
     1
102
RTVSPost2010Prop47
 90
       50
102
RTVSPost2010PropOp47
 70
     1
102
RTVSPost2010Prop48
 90
       50
102
RTVSPost2010PropOp48
 70
     1
102
RTVSPost2010Prop49
280
     0
102
RTVSPost2010PropOp49
 70
     1
102
RTVSPost2010Prop50
 90
       50
102
RTVSPost2010PropOp50
 70
     1
102
RTVSPost2010Prop51ColorIndex
 90
      256
102
RTVSPost2010Prop51ColorRGB
 90
-16777216
102
RTVSPost2010PropOp51
 70
     0
102
RTVSPost2010Prop52
140
1.0
102
RTVSPost2010PropOp52
 70
     0
102
RTVSPost2010Prop53
 90
        2
102
RTVSPost2010PropOp53
 70
     1
102
RTVSPost2010Prop54
  1
strokes_ogs.tif
102
RTVSPost2010PropOp54
 70
     1
102
RTVSPost2010Prop55
280
     0
102
RTVSPost2010PropOp55
 70
     1
102
RTVSPost2010Prop56
140
1.0
102
RTVSPost2010PropOp56
 70
     1
102
RTVSPost2010Prop57
140
1.0
102
RTVSPost2010PropOp57
 70
     1
  0
XRECORD
  5
435
102
{ACAD_REACTORS
330
434
102
}
330
434
100
AcDbXrecord
280
     1
102
RTVSPropertyOp0
 70
     1
102
RTVSPropertyOp1
 70
     1
102
RTVSPropertyOp2
 70
     1
102
RTVSPropertyOp3
 70
     1
102
RTVSPropertyOp4
 70
     1
102
RTVSPropertyOp5
 70
     1
102
RTVSPropertyOp6
 70
     1
102
RTVSPropertyOp7
 70
     1
102
RTVSPropertyOp8
 70
     1
102
RTVSPropertyOp9
 70
     1
102
RTVSPropertyOp10
 70
     1
102
RTVSPropertyOp11
 70
     1
102
RTVSPropertyOp12
 70
     1
102
RTVSPropertyOp13
 70
     1
102
RTVSPropertyOp14
 70
     1
102
RTVSPropertyOp15
 70
     1
102
RTVSPropertyOp16
 70
     1
102
RTVSPropertyOp17
 70
     1
102
RTVSPropertyOp18
 70
     1
102
RTVSPropertyOp19
 70
     1
102
RTVSPropertyOp20
 70
     1
102
RTVSPropertyOp21
 70
     1
102
RTVSPropertyOp22
 70
     1
102
RTVSPropertyOp23
 70
     1
102
RTVSPropertyOp24
 70
     1
102
RTVSPropertyOp25
 70
     1
102
RTVSPropertyOp26
 70
     1
102
RTVSPropertyOp27
 70
     1
102
RTVSPropertyOp28
 70
     1
102
RTVSPropertyOp29
 70
     1
102
RTVSPropertyOp30
 70
     1
102
RTVSPropertyOp31
 70
     1
102
RTVSPropertyOp32
 70
     1
102
RTVSPropertyOp33
 70
     1
102
RTVSPropertyOp34
 70
     1
102
RTVSPropertyOp35
 70
     1
102
RTVSPropertyOp36
 70
     1
102
RTVSPropertyOp37
 70
     1
102
RTVSPropertyOp38
 70
     1
102
RTVSPropertyOp39
 70
     1
102
RTVSPropertyOp40
 70
     1
102
RTVSPropertyOp41
 70
     1
102
RTVSPropertyOp42
 70
     1
102
RTVSPropertyOp43
 70
     1
102
RTVSPropertyOp44
 70
     1
102
RTVSPropertyOp45
 70
     1
102
RTVSPropertyOp46
 70
     1
102
RTVSPropertyOp47
 70
     1
102
RTVSPropertyOp48
 70
     1
102
RTVSPropertyOp49
 70
     1
102
RTVSPropertyOp50
 70
     1
102
RTVSPropertyOp51
 70
     0
102
RTVSPropertyOp52
 70
     0
102
RTVSPropertyOp53
 70
     1
102
RTVSPropertyOp54
 70
     1
102
RTVSPropertyOp55
 70
     1
102
RTVSPropertyOp56
 70
     1
102
RTVSPropertyOp57
 70
     1
102
RTVSPost2010Prop28
280
     0
102
RTVSPost2010PropOp28
 70
     1
102
RTVSPost2010Prop29
280
     1
102
RTVSPost2010PropOp29
 70
     1
102
RTVSPost2010Prop30
280
     1
102
RTVSPost2010PropOp30
 70
     1
102
RTVSPost2010Prop31
280
     0
102
RTVSPost2010PropOp31
 70
     1
102
RTVSPost2010Prop32
280
     0
102
RTVSPost2010PropOp32
 70
     1
102
RTVSPost2010Prop33
280
     0
102
RTVSPost2010PropOp33
 70
     1
102
RTVSPost2010Prop34
280
     0
102
RTVSPost2010PropOp34
 70
     1
102
RTVSPost2010Prop35
280
     0
102
RTVSPost2010PropOp35
 70
     1
102
RTVSPost2010Prop36
280
     0
102
RTVSPost2010PropOp36
 70
     1
102
RTVSPost2010Prop37
 90
       50
102
RTVSPost2010PropOp37
 70
     1
102
RTVSPost2010Prop38
140
0.0
102
RTVSPost2010PropOp38
 70
     1
102
RTVSPost2010Prop39
140
1.0
102
RTVSPost2010PropOp39
 70
     1
102
RTVSPost2010Prop40
 90
        0
102
RTVSPost2010PropOp40
 70
     1
102
RTVSPost2010Prop41ColorIndex
 90
       18
102
RTVSPost2010Prop41ColorRGB
 90
        0
102
RTVSPost2010PropOp41
 70
     1
102
RTVSPost2010Prop42
 90
       50
102
RTVSPost2010PropOp42
 70
     1
102
RTVSPost2010Prop43
 90
        3
102
RTVSPost2010PropOp43
 70
     1
102
RTVSPost2010Prop44ColorIndex
 90
        5
102
RTVSPost2010Prop44ColorRGB
 90
      255
102
RTVSPost2010PropOp44
 70
     1
102
RTVSPost2010Prop45
280
     0
102
RTVSPost2010PropOp45
 70
     1
102
RTVSPost2010Prop46
 90
       50
102
RTVSPost2010PropOp46
 70
     1
102
RTVSPost2010Prop47
 90
       50
102
RTVSPost2010PropOp47
 70
     1
102
RTVSPost2010Prop48
 90
       50
102
RTVSPost2010PropOp48
 70
     1
102
RTVSPost2010Prop49
280
     0
102
RTVSPost2010PropOp49
 70
     1
102
RTVSPost2010Prop50
 90
       50
102
RTVSPost2010PropOp50
 70
     1
102
RTVSPost2010Prop51ColorIndex
 90
      256
102
RTVSPost2010Prop51ColorRGB
 90
-16777216
102
RTVSPost2010PropOp51
 70
     0
102
RTVSPost2010Prop52
140
1.0
102
RTVSPost2010PropOp52
 70
     0
102
RTVSPost2010Prop53
 90
        2
102
RTVSPost2010PropOp53
 70
     1
102
RTVSPost2010Prop54
  1
strokes_ogs.tif
102
RTVSPost2010PropOp54
 70
     1
102
RTVSPost2010Prop55
280
     0
102
RTVSPost2010PropOp55
 70
     1
102
RTVSPost2010Prop56
140
1.0
102
RTVSPost2010PropOp56
 70
     1
102
RTVSPost2010Prop57
140
1.0
102
RTVSPost2010PropOp57
 70
     1
  0
XRECORD
  5
42F
102
{ACAD_REACTORS
330
42E
102
}
330
42E
100
AcDbXrecord
280
     1
102
RTVSPropertyOp0
 70
     1
102
RTVSPropertyOp1
 70
     1
102
RTVSPropertyOp2
 70
     1
102
RTVSPropertyOp3
 70
     1
102
RTVSPropertyOp4
 70
     1
102
RTVSPropertyOp5
 70
     1
102
RTVSPropertyOp6
 70
     1
102
RTVSPropertyOp7
 70
     1
102
RTVSPropertyOp8
 70
     1
102
RTVSPropertyOp9
 70
     1
102
RTVSPropertyOp10
 70
     1
102
RTVSPropertyOp11
 70
     1
102
RTVSPropertyOp12
 70
     1
102
RTVSPropertyOp13
 70
     1
102
RTVSPropertyOp14
 70
     1
102
RTVSPropertyOp15
 70
     1
102
RTVSPropertyOp16
 70
     1
102
RTVSPropertyOp17
 70
     1
102
RTVSPropertyOp18
 70
     1
102
RTVSPropertyOp19
 70
     1
102
RTVSPropertyOp20
 70
     1
102
RTVSPropertyOp21
 70
     1
102
RTVSPropertyOp22
 70
     1
102
RTVSPropertyOp23
 70
     1
102
RTVSPropertyOp24
 70
     1
102
RTVSPropertyOp25
 70
     1
102
RTVSPropertyOp26
 70
     1
102
RTVSPropertyOp27
 70
     1
102
RTVSPropertyOp28
 70
     1
102
RTVSPropertyOp29
 70
     1
102
RTVSPropertyOp30
 70
     1
102
RTVSPropertyOp31
 70
     1
102
RTVSPropertyOp32
 70
     1
102
RTVSPropertyOp33
 70
     1
102
RTVSPropertyOp34
 70
     1
102
RTVSPropertyOp35
 70
     1
102
RTVSPropertyOp36
 70
     1
102
RTVSPropertyOp37
 70
     1
102
RTVSPropertyOp38
 70
     1
102
RTVSPropertyOp39
 70
     1
102
RTVSPropertyOp40
 70
     1
102
RTVSPropertyOp41
 70
     1
102
RTVSPropertyOp42
 70
     1
102
RTVSPropertyOp43
 70
     1
102
RTVSPropertyOp44
 70
     1
102
RTVSPropertyOp45
 70
     1
102
RTVSPropertyOp46
 70
     1
102
RTVSPropertyOp47
 70
     1
102
RTVSPropertyOp48
 70
     1
102
RTVSPropertyOp49
 70
     1
102
RTVSPropertyOp50
 70
     1
102
RTVSPropertyOp51
 70
     0
102
RTVSPropertyOp52
 70
     0
102
RTVSPropertyOp53
 70
     1
102
RTVSPropertyOp54
 70
     1
102
RTVSPropertyOp55
 70
     1
102
RTVSPropertyOp56
 70
     1
102
RTVSPropertyOp57
 70
     1
102
RTVSPost2010Prop28
280
     0
102
RTVSPost2010PropOp28
 70
     1
102
RTVSPost2010Prop29
280
     1
102
RTVSPost2010PropOp29
 70
     1
102
RTVSPost2010Prop30
280
     1
102
RTVSPost2010PropOp30
 70
     1
102
RTVSPost2010Prop31
280
     0
102
RTVSPost2010PropOp31
 70
     1
102
RTVSPost2010Prop32
280
     0
102
RTVSPost2010PropOp32
 70
     1
102
RTVSPost2010Prop33
280
     0
102
RTVSPost2010PropOp33
 70
     1
102
RTVSPost2010Prop34
280
     0
102
RTVSPost2010PropOp34
 70
     1
102
RTVSPost2010Prop35
280
     0
102
RTVSPost2010PropOp35
 70
     1
102
RTVSPost2010Prop36
280
     0
102
RTVSPost2010PropOp36
 70
     1
102
RTVSPost2010Prop37
 90
       50
102
RTVSPost2010PropOp37
 70
     1
102
RTVSPost2010Prop38
140
0.0
102
RTVSPost2010PropOp38
 70
     1
102
RTVSPost2010Prop39
140
1.0
102
RTVSPost2010PropOp39
 70
     1
102
RTVSPost2010Prop40
 90
        0
102
RTVSPost2010PropOp40
 70
     1
102
RTVSPost2010Prop41ColorIndex
 90
       18
102
RTVSPost2010Prop41ColorRGB
 90
        0
102
RTVSPost2010PropOp41
 70
     1
102
RTVSPost2010Prop42
 90
       50
102
RTVSPost2010PropOp42
 70
     1
102
RTVSPost2010Prop43
 90
        3
102
RTVSPost2010PropOp43
 70
     1
102
RTVSPost2010Prop44ColorIndex
 90
        5
102
RTVSPost2010Prop44ColorRGB
 90
      255
102
RTVSPost2010PropOp44
 70
     1
102
RTVSPost2010Prop45
280
     0
102
RTVSPost2010PropOp45
 70
     1
102
RTVSPost2010Prop46
 90
       50
102
RTVSPost2010PropOp46
 70
     1
102
RTVSPost2010Prop47
 90
       50
102
RTVSPost2010PropOp47
 70
     1
102
RTVSPost2010Prop48
 90
       50
102
RTVSPost2010PropOp48
 70
     1
102
RTVSPost2010Prop49
280
     0
102
RTVSPost2010PropOp49
 70
     1
102
RTVSPost2010Prop50
 90
       50
102
RTVSPost2010PropOp50
 70
     1
102
RTVSPost2010Prop51ColorIndex
 90
      256
102
RTVSPost2010Prop51ColorRGB
 90
-16777216
102
RTVSPost2010PropOp51
 70
     0
102
RTVSPost2010Prop52
140
1.0
102
RTVSPost2010PropOp52
 70
     0
102
RTVSPost2010Prop53
 90
        2
102
RTVSPost2010PropOp53
 70
     1
102
RTVSPost2010Prop54
  1
strokes_ogs.tif
102
RTVSPost2010PropOp54
 70
     1
102
RTVSPost2010Prop55
280
     0
102
RTVSPost2010PropOp55
 70
     1
102
RTVSPost2010Prop56
140
1.0
102
RTVSPost2010PropOp56
 70
     1
102
RTVSPost2010Prop57
140
1.0
102
RTVSPost2010PropOp57
 70
     1
  0
XRECORD
  5
431
102
{ACAD_REACTORS
330
430
102
}
330
430
100
AcDbXrecord
280
     1
102
RTVSPropertyOp0
 70
     1
102
RTVSPropertyOp1
 70
     1
102
RTVSPropertyOp2
 70
     1
102
RTVSPropertyOp3
 70
     1
102
RTVSPropertyOp4
 70
     1
102
RTVSPropertyOp5
 70
     1
102
RTVSPropertyOp6
 70
     1
102
RTVSPropertyOp7
 70
     1
102
RTVSPropertyOp8
 70
     1
102
RTVSPropertyOp9
 70
     1
102
RTVSPropertyOp10
 70
     1
102
RTVSPropertyOp11
 70
     1
102
RTVSPropertyOp12
 70
     1
102
RTVSPropertyOp13
 70
     1
102
RTVSPropertyOp14
 70
     1
102
RTVSPropertyOp15
 70
     1
102
RTVSPropertyOp16
 70
     1
102
RTVSPropertyOp17
 70
     1
102
RTVSPropertyOp18
 70
     1
102
RTVSPropertyOp19
 70
     1
102
RTVSPropertyOp20
 70
     1
102
RTVSPropertyOp21
 70
     1
102
RTVSPropertyOp22
 70
     1
102
RTVSPropertyOp23
 70
     1
102
RTVSPropertyOp24
 70
     1
102
RTVSPropertyOp25
 70
     1
102
RTVSPropertyOp26
 70
     1
102
RTVSPropertyOp27
 70
     1
102
RTVSPropertyOp28
 70
     1
102
RTVSPropertyOp29
 70
     1
102
RTVSPropertyOp30
 70
     1
102
RTVSPropertyOp31
 70
     1
102
RTVSPropertyOp32
 70
     1
102
RTVSPropertyOp33
 70
     1
102
RTVSPropertyOp34
 70
     1
102
RTVSPropertyOp35
 70
     1
102
RTVSPropertyOp36
 70
     1
102
RTVSPropertyOp37
 70
     1
102
RTVSPropertyOp38
 70
     1
102
RTVSPropertyOp39
 70
     1
102
RTVSPropertyOp40
 70
     1
102
RTVSPropertyOp41
 70
     1
102
RTVSPropertyOp42
 70
     1
102
RTVSPropertyOp43
 70
     1
102
RTVSPropertyOp44
 70
     1
102
RTVSPropertyOp45
 70
     1
102
RTVSPropertyOp46
 70
     1
102
RTVSPropertyOp47
 70
     1
102
RTVSPropertyOp48
 70
     1
102
RTVSPropertyOp49
 70
     1
102
RTVSPropertyOp50
 70
     1
102
RTVSPropertyOp51
 70
     0
102
RTVSPropertyOp52
 70
     0
102
RTVSPropertyOp53
 70
     1
102
RTVSPropertyOp54
 70
     1
102
RTVSPropertyOp55
 70
     1
102
RTVSPropertyOp56
 70
     1
102
RTVSPropertyOp57
 70
     1
102
RTVSPost2010Prop28
280
     0
102
RTVSPost2010PropOp28
 70
     1
102
RTVSPost2010Prop29
280
     1
102
RTVSPost2010PropOp29
 70
     1
102
RTVSPost2010Prop30
280
     1
102
RTVSPost2010PropOp30
 70
     1
102
RTVSPost2010Prop31
280
     0
102
RTVSPost2010PropOp31
 70
     1
102
RTVSPost2010Prop32
280
     0
102
RTVSPost2010PropOp32
 70
     1
102
RTVSPost2010Prop33
280
     0
102
RTVSPost2010PropOp33
 70
     1
102
RTVSPost2010Prop34
280
     0
102
RTVSPost2010PropOp34
 70
     1
102
RTVSPost2010Prop35
280
     0
102
RTVSPost2010PropOp35
 70
     1
102
RTVSPost2010Prop36
280
     0
102
RTVSPost2010PropOp36
 70
     1
102
RTVSPost2010Prop37
 90
       50
102
RTVSPost2010PropOp37
 70
     1
102
RTVSPost2010Prop38
140
0.0
102
RTVSPost2010PropOp38
 70
     1
102
RTVSPost2010Prop39
140
1.0
102
RTVSPost2010PropOp39
 70
     1
102
RTVSPost2010Prop40
 90
        0
102
RTVSPost2010PropOp40
 70
     1
102
RTVSPost2010Prop41ColorIndex
 90
       18
102
RTVSPost2010Prop41ColorRGB
 90
        0
102
RTVSPost2010PropOp41
 70
     1
102
RTVSPost2010Prop42
 90
       50
102
RTVSPost2010PropOp42
 70
     1
102
RTVSPost2010Prop43
 90
        3
102
RTVSPost2010PropOp43
 70
     1
102
RTVSPost2010Prop44ColorIndex
 90
        5
102
RTVSPost2010Prop44ColorRGB
 90
      255
102
RTVSPost2010PropOp44
 70
     1
102
RTVSPost2010Prop45
280
     0
102
RTVSPost2010PropOp45
 70
     1
102
RTVSPost2010Prop46
 90
       50
102
RTVSPost2010PropOp46
 70
     1
102
RTVSPost2010Prop47
 90
       50
102
RTVSPost2010PropOp47
 70
     1
102
RTVSPost2010Prop48
 90
       50
102
RTVSPost2010PropOp48
 70
     1
102
RTVSPost2010Prop49
280
     0
102
RTVSPost2010PropOp49
 70
     1
102
RTVSPost2010Prop50
 90
       50
102
RTVSPost2010PropOp50
 70
     1
102
RTVSPost2010Prop51ColorIndex
 90
      256
102
RTVSPost2010Prop51ColorRGB
 90
-16777216
102
RTVSPost2010PropOp51
 70
     0
102
RTVSPost2010Prop52
140
1.0
102
RTVSPost2010PropOp52
 70
     0
102
RTVSPost2010Prop53
 90
        2
102
RTVSPost2010PropOp53
 70
     1
102
RTVSPost2010Prop54
  1
strokes_ogs.tif
102
RTVSPost2010PropOp54
 70
     1
102
RTVSPost2010Prop55
280
     0
102
RTVSPost2010PropOp55
 70
     1
102
RTVSPost2010Prop56
140
1.0
102
RTVSPost2010PropOp56
 70
     1
102
RTVSPost2010Prop57
140
1.0
102
RTVSPost2010PropOp57
 70
     1
  0
XRECORD
  5
421
102
{ACAD_REACTORS
330
420
102
}
330
420
100
AcDbXrecord
280
     1
102
RTVSPropertyOp0
 70
     1
102
RTVSPropertyOp1
 70
     1
102
RTVSPropertyOp2
 70
     1
102
RTVSPropertyOp3
 70
     1
102
RTVSPropertyOp4
 70
     1
102
RTVSPropertyOp5
 70
     1
102
RTVSPropertyOp6
 70
     1
102
RTVSPropertyOp7
 70
     1
102
RTVSPropertyOp8
 70
     1
102
RTVSPropertyOp9
 70
     1
102
RTVSPropertyOp10
 70
     1
102
RTVSPropertyOp11
 70
     1
102
RTVSPropertyOp12
 70
     1
102
RTVSPropertyOp13
 70
     1
102
RTVSPropertyOp14
 70
     1
102
RTVSPropertyOp15
 70
     1
102
RTVSPropertyOp16
 70
     1
102
RTVSPropertyOp17
 70
     1
102
RTVSPropertyOp18
 70
     1
102
RTVSPropertyOp19
 70
     1
102
RTVSPropertyOp20
 70
     1
102
RTVSPropertyOp21
 70
     1
102
RTVSPropertyOp22
 70
     1
102
RTVSPropertyOp23
 70
     1
102
RTVSPropertyOp24
 70
     1
102
RTVSPropertyOp25
 70
     1
102
RTVSPropertyOp26
 70
     1
102
RTVSPropertyOp27
 70
     1
102
RTVSPropertyOp28
 70
     1
102
RTVSPropertyOp29
 70
     1
102
RTVSPropertyOp30
 70
     1
102
RTVSPropertyOp31
 70
     1
102
RTVSPropertyOp32
 70
     1
102
RTVSPropertyOp33
 70
     1
102
RTVSPropertyOp34
 70
     1
102
RTVSPropertyOp35
 70
     1
102
RTVSPropertyOp36
 70
     1
102
RTVSPropertyOp37
 70
     1
102
RTVSPropertyOp38
 70
     1
102
RTVSPropertyOp39
 70
     1
102
RTVSPropertyOp40
 70
     1
102
RTVSPropertyOp41
 70
     1
102
RTVSPropertyOp42
 70
     1
102
RTVSPropertyOp43
 70
     1
102
RTVSPropertyOp44
 70
     1
102
RTVSPropertyOp45
 70
     1
102
RTVSPropertyOp46
 70
     1
102
RTVSPropertyOp47
 70
     1
102
RTVSPropertyOp48
 70
     1
102
RTVSPropertyOp49
 70
     1
102
RTVSPropertyOp50
 70
     1
102
RTVSPropertyOp51
 70
     0
102
RTVSPropertyOp52
 70
     0
102
RTVSPropertyOp53
 70
     1
102
RTVSPropertyOp54
 70
     1
102
RTVSPropertyOp55
 70
     1
102
RTVSPropertyOp56
 70
     1
102
RTVSPropertyOp57
 70
     1
102
RTVSPost2010Prop28
280
     0
102
RTVSPost2010PropOp28
 70
     1
102
RTVSPost2010Prop29
280
     1
102
RTVSPost2010PropOp29
 70
     1
102
RTVSPost2010Prop30
280
     1
102
RTVSPost2010PropOp30
 70
     1
102
RTVSPost2010Prop31
280
     0
102
RTVSPost2010PropOp31
 70
     1
102
RTVSPost2010Prop32
280
     0
102
RTVSPost2010PropOp32
 70
     1
102
RTVSPost2010Prop33
280
     0
102
RTVSPost2010PropOp33
 70
     1
102
RTVSPost2010Prop34
280
     0
102
RTVSPost2010PropOp34
 70
     1
102
RTVSPost2010Prop35
280
     0
102
RTVSPost2010PropOp35
 70
     1
102
RTVSPost2010Prop36
280
     0
102
RTVSPost2010PropOp36
 70
     1
102
RTVSPost2010Prop37
 90
       50
102
RTVSPost2010PropOp37
 70
     1
102
RTVSPost2010Prop38
140
0.0
102
RTVSPost2010PropOp38
 70
     1
102
RTVSPost2010Prop39
140
1.0
102
RTVSPost2010PropOp39
 70
     1
102
RTVSPost2010Prop40
 90
        0
102
RTVSPost2010PropOp40
 70
     1
102
RTVSPost2010Prop41ColorIndex
 90
       18
102
RTVSPost2010Prop41ColorRGB
 90
        0
102
RTVSPost2010PropOp41
 70
     1
102
RTVSPost2010Prop42
 90
       50
102
RTVSPost2010PropOp42
 70
     1
102
RTVSPost2010Prop43
 90
        3
102
RTVSPost2010PropOp43
 70
     1
102
RTVSPost2010Prop44ColorIndex
 90
        5
102
RTVSPost2010Prop44ColorRGB
 90
      255
102
RTVSPost2010PropOp44
 70
     1
102
RTVSPost2010Prop45
280
     0
102
RTVSPost2010PropOp45
 70
     1
102
RTVSPost2010Prop46
 90
       50
102
RTVSPost2010PropOp46
 70
     1
102
RTVSPost2010Prop47
 90
       50
102
RTVSPost2010PropOp47
 70
     1
102
RTVSPost2010Prop48
 90
       50
102
RTVSPost2010PropOp48
 70
     1
102
RTVSPost2010Prop49
280
     0
102
RTVSPost2010PropOp49
 70
     1
102
RTVSPost2010Prop50
 90
       50
102
RTVSPost2010PropOp50
 70
     1
102
RTVSPost2010Prop51ColorIndex
 90
      256
102
RTVSPost2010Prop51ColorRGB
 90
-16777216
102
RTVSPost2010PropOp51
 70
     0
102
RTVSPost2010Prop52
140
1.0
102
RTVSPost2010PropOp52
 70
     0
102
RTVSPost2010Prop53
 90
        2
102
RTVSPost2010PropOp53
 70
     1
102
RTVSPost2010Prop54
  1
strokes_ogs.tif
102
RTVSPost2010PropOp54
 70
     1
102
RTVSPost2010Prop55
280
     0
102
RTVSPost2010PropOp55
 70
     1
102
RTVSPost2010Prop56
140
1.0
102
RTVSPost2010PropOp56
 70
     1
102
RTVSPost2010Prop57
140
1.0
102
RTVSPost2010PropOp57
 70
     1
  0
XRECORD
  5
413
102
{ACAD_REACTORS
330
412
102
}
330
412
100
AcDbXrecord
280
     1
102
RTVSPropertyOp0
 70
     1
102
RTVSPropertyOp1
 70
     1
102
RTVSPropertyOp2
 70
     1
102
RTVSPropertyOp3
 70
     1
102
RTVSPropertyOp4
 70
     1
102
RTVSPropertyOp5
 70
     1
102
RTVSPropertyOp6
 70
     1
102
RTVSPropertyOp7
 70
     1
102
RTVSPropertyOp8
 70
     1
102
RTVSPropertyOp9
 70
     1
102
RTVSPropertyOp10
 70
     1
102
RTVSPropertyOp11
 70
     1
102
RTVSPropertyOp12
 70
     1
102
RTVSPropertyOp13
 70
     1
102
RTVSPropertyOp14
 70
     1
102
RTVSPropertyOp15
 70
     1
102
RTVSPropertyOp16
 70
     1
102
RTVSPropertyOp17
 70
     1
102
RTVSPropertyOp18
 70
     1
102
RTVSPropertyOp19
 70
     1
102
RTVSPropertyOp20
 70
     1
102
RTVSPropertyOp21
 70
     1
102
RTVSPropertyOp22
 70
     1
102
RTVSPropertyOp23
 70
     1
102
RTVSPropertyOp24
 70
     1
102
RTVSPropertyOp25
 70
     1
102
RTVSPropertyOp26
 70
     1
102
RTVSPropertyOp27
 70
     1
102
RTVSPropertyOp28
 70
     1
102
RTVSPropertyOp29
 70
     1
102
RTVSPropertyOp30
 70
     1
102
RTVSPropertyOp31
 70
     1
102
RTVSPropertyOp32
 70
     1
102
RTVSPropertyOp33
 70
     1
102
RTVSPropertyOp34
 70
     1
102
RTVSPropertyOp35
 70
     1
102
RTVSPropertyOp36
 70
     1
102
RTVSPropertyOp37
 70
     1
102
RTVSPropertyOp38
 70
     1
102
RTVSPropertyOp39
 70
     1
102
RTVSPropertyOp40
 70
     1
102
RTVSPropertyOp41
 70
     1
102
RTVSPropertyOp42
 70
     1
102
RTVSPropertyOp43
 70
     1
102
RTVSPropertyOp44
 70
     1
102
RTVSPropertyOp45
 70
     1
102
RTVSPropertyOp46
 70
     1
102
RTVSPropertyOp47
 70
     1
102
RTVSPropertyOp48
 70
     1
102
RTVSPropertyOp49
 70
     1
102
RTVSPropertyOp50
 70
     1
102
RTVSPropertyOp51
 70
     0
102
RTVSPropertyOp52
 70
     0
102
RTVSPropertyOp53
 70
     1
102
RTVSPropertyOp54
 70
     1
102
RTVSPropertyOp55
 70
     1
102
RTVSPropertyOp56
 70
     1
102
RTVSPropertyOp57
 70
     1
102
RTVSPost2010Prop28
280
     0
102
RTVSPost2010PropOp28
 70
     1
102
RTVSPost2010Prop29
280
     1
102
RTVSPost2010PropOp29
 70
     1
102
RTVSPost2010Prop30
280
     1
102
RTVSPost2010PropOp30
 70
     1
102
RTVSPost2010Prop31
280
     0
102
RTVSPost2010PropOp31
 70
     1
102
RTVSPost2010Prop32
280
     0
102
RTVSPost2010PropOp32
 70
     1
102
RTVSPost2010Prop33
280
     0
102
RTVSPost2010PropOp33
 70
     1
102
RTVSPost2010Prop34
280
     0
102
RTVSPost2010PropOp34
 70
     1
102
RTVSPost2010Prop35
280
     0
102
RTVSPost2010PropOp35
 70
     1
102
RTVSPost2010Prop36
280
     0
102
RTVSPost2010PropOp36
 70
     1
102
RTVSPost2010Prop37
 90
       50
102
RTVSPost2010PropOp37
 70
     1
102
RTVSPost2010Prop38
140
0.0
102
RTVSPost2010PropOp38
 70
     1
102
RTVSPost2010Prop39
140
1.0
102
RTVSPost2010PropOp39
 70
     1
102
RTVSPost2010Prop40
 90
        0
102
RTVSPost2010PropOp40
 70
     1
102
RTVSPost2010Prop41ColorIndex
 90
       18
102
RTVSPost2010Prop41ColorRGB
 90
        0
102
RTVSPost2010PropOp41
 70
     1
102
RTVSPost2010Prop42
 90
       50
102
RTVSPost2010PropOp42
 70
     1
102
RTVSPost2010Prop43
 90
        3
102
RTVSPost2010PropOp43
 70
     1
102
RTVSPost2010Prop44ColorIndex
 90
        5
102
RTVSPost2010Prop44ColorRGB
 90
      255
102
RTVSPost2010PropOp44
 70
     1
102
RTVSPost2010Prop45
280
     0
102
RTVSPost2010PropOp45
 70
     1
102
RTVSPost2010Prop46
 90
       50
102
RTVSPost2010PropOp46
 70
     1
102
RTVSPost2010Prop47
 90
       50
102
RTVSPost2010PropOp47
 70
     1
102
RTVSPost2010Prop48
 90
       50
102
RTVSPost2010PropOp48
 70
     1
102
RTVSPost2010Prop49
280
     0
102
RTVSPost2010PropOp49
 70
     1
102
RTVSPost2010Prop50
 90
       50
102
RTVSPost2010PropOp50
 70
     1
102
RTVSPost2010Prop51ColorIndex
 90
      256
102
RTVSPost2010Prop51ColorRGB
 90
-16777216
102
RTVSPost2010PropOp51
 70
     0
102
RTVSPost2010Prop52
140
1.0
102
RTVSPost2010PropOp52
 70
     0
102
RTVSPost2010Prop53
 90
        2
102
RTVSPost2010PropOp53
 70
     1
102
RTVSPost2010Prop54
  1
strokes_ogs.tif
102
RTVSPost2010PropOp54
 70
     1
102
RTVSPost2010Prop55
280
     0
102
RTVSPost2010PropOp55
 70
     1
102
RTVSPost2010Prop56
140
1.0
102
RTVSPost2010PropOp56
 70
     1
102
RTVSPost2010Prop57
140
1.0
102
RTVSPost2010PropOp57
 70
     1
  0
XRECORD
  5
433
102
{ACAD_REACTORS
330
432
102
}
330
432
100
AcDbXrecord
280
     1
102
RTVSPropertyOp0
 70
     1
102
RTVSPropertyOp1
 70
     1
102
RTVSPropertyOp2
 70
     1
102
RTVSPropertyOp3
 70
     1
102
RTVSPropertyOp4
 70
     1
102
RTVSPropertyOp5
 70
     1
102
RTVSPropertyOp6
 70
     1
102
RTVSPropertyOp7
 70
     1
102
RTVSPropertyOp8
 70
     1
102
RTVSPropertyOp9
 70
     1
102
RTVSPropertyOp10
 70
     1
102
RTVSPropertyOp11
 70
     1
102
RTVSPropertyOp12
 70
     1
102
RTVSPropertyOp13
 70
     1
102
RTVSPropertyOp14
 70
     1
102
RTVSPropertyOp15
 70
     1
102
RTVSPropertyOp16
 70
     1
102
RTVSPropertyOp17
 70
     1
102
RTVSPropertyOp18
 70
     1
102
RTVSPropertyOp19
 70
     1
102
RTVSPropertyOp20
 70
     1
102
RTVSPropertyOp21
 70
     1
102
RTVSPropertyOp22
 70
     1
102
RTVSPropertyOp23
 70
     1
102
RTVSPropertyOp24
 70
     1
102
RTVSPropertyOp25
 70
     1
102
RTVSPropertyOp26
 70
     1
102
RTVSPropertyOp27
 70
     1
102
RTVSPropertyOp28
 70
     1
102
RTVSPropertyOp29
 70
     1
102
RTVSPropertyOp30
 70
     1
102
RTVSPropertyOp31
 70
     1
102
RTVSPropertyOp32
 70
     1
102
RTVSPropertyOp33
 70
     1
102
RTVSPropertyOp34
 70
     1
102
RTVSPropertyOp35
 70
     1
102
RTVSPropertyOp36
 70
     1
102
RTVSPropertyOp37
 70
     1
102
RTVSPropertyOp38
 70
     1
102
RTVSPropertyOp39
 70
     1
102
RTVSPropertyOp40
 70
     1
102
RTVSPropertyOp41
 70
     1
102
RTVSPropertyOp42
 70
     1
102
RTVSPropertyOp43
 70
     1
102
RTVSPropertyOp44
 70
     1
102
RTVSPropertyOp45
 70
     1
102
RTVSPropertyOp46
 70
     1
102
RTVSPropertyOp47
 70
     1
102
RTVSPropertyOp48
 70
     1
102
RTVSPropertyOp49
 70
     1
102
RTVSPropertyOp50
 70
     1
102
RTVSPropertyOp51
 70
     0
102
RTVSPropertyOp52
 70
     0
102
RTVSPropertyOp53
 70
     1
102
RTVSPropertyOp54
 70
     1
102
RTVSPropertyOp55
 70
     1
102
RTVSPropertyOp56
 70
     1
102
RTVSPropertyOp57
 70
     1
102
RTVSPost2010Prop28
280
     0
102
RTVSPost2010PropOp28
 70
     1
102
RTVSPost2010Prop29
280
     1
102
RTVSPost2010PropOp29
 70
     1
102
RTVSPost2010Prop30
280
     1
102
RTVSPost2010PropOp30
 70
     1
102
RTVSPost2010Prop31
280
     0
102
RTVSPost2010PropOp31
 70
     1
102
RTVSPost2010Prop32
280
     0
102
RTVSPost2010PropOp32
 70
     1
102
RTVSPost2010Prop33
280
     0
102
RTVSPost2010PropOp33
 70
     1
102
RTVSPost2010Prop34
280
     0
102
RTVSPost2010PropOp34
 70
     1
102
RTVSPost2010Prop35
280
     0
102
RTVSPost2010PropOp35
 70
     1
102
RTVSPost2010Prop36
280
     0
102
RTVSPost2010PropOp36
 70
     1
102
RTVSPost2010Prop37
 90
       50
102
RTVSPost2010PropOp37
 70
     1
102
RTVSPost2010Prop38
140
0.0
102
RTVSPost2010PropOp38
 70
     1
102
RTVSPost2010Prop39
140
1.0
102
RTVSPost2010PropOp39
 70
     1
102
RTVSPost2010Prop40
 90
        0
102
RTVSPost2010PropOp40
 70
     1
102
RTVSPost2010Prop41ColorIndex
 90
       18
102
RTVSPost2010Prop41ColorRGB
 90
        0
102
RTVSPost2010PropOp41
 70
     1
102
RTVSPost2010Prop42
 90
       50
102
RTVSPost2010PropOp42
 70
     1
102
RTVSPost2010Prop43
 90
        3
102
RTVSPost2010PropOp43
 70
     1
102
RTVSPost2010Prop44ColorIndex
 90
        5
102
RTVSPost2010Prop44ColorRGB
 90
      255
102
RTVSPost2010PropOp44
 70
     1
102
RTVSPost2010Prop45
280
     0
102
RTVSPost2010PropOp45
 70
     1
102
RTVSPost2010Prop46
 90
       50
102
RTVSPost2010PropOp46
 70
     1
102
RTVSPost2010Prop47
 90
       50
102
RTVSPost2010PropOp47
 70
     1
102
RTVSPost2010Prop48
 90
       50
102
RTVSPost2010PropOp48
 70
     1
102
RTVSPost2010Prop49
280
     0
102
RTVSPost2010PropOp49
 70
     1
102
RTVSPost2010Prop50
 90
       50
102
RTVSPost2010PropOp50
 70
     1
102
RTVSPost2010Prop51ColorIndex
 90
      256
102
RTVSPost2010Prop51ColorRGB
 90
-16777216
102
RTVSPost2010PropOp51
 70
     0
102
RTVSPost2010Prop52
140
1.0
102
RTVSPost2010PropOp52
 70
     0
102
RTVSPost2010Prop53
 90
        2
102
RTVSPost2010PropOp53
 70
     1
102
RTVSPost2010Prop54
  1
strokes_ogs.tif
102
RTVSPost2010PropOp54
 70
     1
102
RTVSPost2010Prop55
280
     0
102
RTVSPost2010PropOp55
 70
     1
102
RTVSPost2010Prop56
140
1.0
102
RTVSPost2010PropOp56
 70
     1
102
RTVSPost2010Prop57
140
1.0
102
RTVSPost2010PropOp57
 70
     1
  0
ENDSEC
  0
EOF
