  0
SECTION
  2
HEADER
  9
$ACADVER
  1
AC1015
  9
$ACADMAINTVER
 70
     6
  9
$DWGCODEPAGE
  3
ANSI_932
  9
$INSBASE
 10
0.0
 20
0.0
 30
0.0
  9
$EXTMIN
 10
-3545.999999999999
 20
-2432.305379888601
 30
0.0
  9
$EXTMAX
 10
3545.999999999999
 20
2432.305379888601
 30
0.0
  9
$LIMMIN
 10
-1260.0
 20
-890.9999999999998
  9
$LIMMAX
 10
1260.0
 20
890.9999999999998
  9
$ORTHOMODE
 70
     0
  9
$REGENMODE
 70
     1
  9
$FILLMODE
 70
     1
  9
$QTEXTMODE
 70
     0
  9
$MIRRTEXT
 70
     1
  9
$LTSCALE
 40
1.5
  9
$ATTMODE
 70
     1
  9
$TEXTSIZE
 40
0.2
  9
$TRACEWID
 40
0.05
  9
$TEXTSTYLE
  7
Standard
  9
$CLAYER
  8
0
  9
$CELTYPE
  6
ByLayer
  9
$CECOLOR
 62
   256
  9
$CELTSCALE
 40
1.0
  9
$DISPSILH
 70
     0
  9
$DIMSCALE
 40
1.0
  9
$DIMASZ
 40
18.00135612487793
  9
$DIMEXO
 40
1.0
  9
$DIMDLI
 40
10.0
  9
$DIMRND
 40
0.0
  9
$DIMDLE
 40
0.0
  9
$DIMEXE
 40
1.0
  9
$DIMTP
 40
0.0
  9
$DIMTM
 40
0.0
  9
$DIMTXT
 40
23.99999999999999
  9
$DIMCEN
 40
0.0
  9
$DIMTSZ
 40
0.0
  9
$DIMTOL
 70
     0
  9
$DIMLIM
 70
     0
  9
$DIMTIH
 70
     0
  9
$DIMTOH
 70
     0
  9
$DIMSE1
 70
     0
  9
$DIMSE2
 70
     0
  9
$DIMTAD
 70
     1
  9
$DIMZIN
 70
     8
  9
$DIMBLK
  1

  9
$DIMASO
 70
     1
  9
$DIMSHO
 70
     1
  9
$DIMPOST
  1

  9
$DIMAPOST
  1

  9
$DIMALT
 70
     0
  9
$DIMALTD
 70
     2
  9
$DIMALTF
 40
25.4
  9
$DIMLFAC
 40
1.0
  9
$DIMTOFL
 70
     0
  9
$DIMTVP
 40
0.0
  9
$DIMTIX
 70
     0
  9
$DIMSOXD
 70
     0
  9
$DIMSAH
 70
     0
  9
$DIMBLK1
  1

  9
$DIMBLK2
  1

  9
$DIMSTYLE
  2
Standard
  9
$DIMCLRD
 70
     0
  9
$DIMCLRE
 70
     0
  9
$DIMCLRT
 70
     0
  9
$DIMTFAC
 40
0.65
  9
$DIMGAP
 40
0.09
  9
$DIMJUST
 70
     0
  9
$DIMSD1
 70
     0
  9
$DIMSD2
 70
     0
  9
$DIMTOLJ
 70
     0
  9
$DIMTZIN
 70
     0
  9
$DIMALTZ
 70
     0
  9
$DIMALTTZ
 70
     0
  9
$DIMUPT
 70
     0
  9
$DIMDEC
 70
     2
  9
$DIMTDEC
 70
     2
  9
$DIMALTU
 70
     2
  9
$DIMALTTD
 70
     2
  9
$DIMTXSTY
  7
Standard
  9
$DIMAUNIT
 70
     0
  9
$DIMADEC
 70
     2
  9
$DIMALTRND
 40
0.0
  9
$DIMAZIN
 70
     2
  9
$DIMDSEP
 70
    46
  9
$DIMATFIT
 70
     3
  9
$DIMFRAC
 70
     0
  9
$DIMLDRBLK
  1

  9
$DIMLUNIT
 70
     2
  9
$DIMLWD
 70
    -2
  9
$DIMLWE
 70
    -2
  9
$DIMTMOVE
 70
     0
  9
$LUNITS
 70
     2
  9
$LUPREC
 70
     4
  9
$SKETCHINC
 40
0.1
  9
$FILLETRAD
 40
0.5
  9
$AUNITS
 70
     0
  9
$AUPREC
 70
     0
  9
$MENU
  1
.
  9
$ELEVATION
 40
0.0
  9
$PELEVATION
 40
0.0
  9
$THICKNESS
 40
0.0
  9
$LIMCHECK
 70
     0
  9
$CHAMFERA
 40
0.0
  9
$CHAMFERB
 40
0.0
  9
$CHAMFERC
 40
0.0
  9
$CHAMFERD
 40
0.0
  9
$SKPOLY
 70
     0
  9
$TDCREATE
 40
2457871.404967523
  9
$TDUCREATE
 40
2457871.029967523
  9
$TDUPDATE
 40
2457871.404967893
  9
$TDUUPDATE
 40
2457871.029967893
  9
$TDINDWG
 40
0.0000000116
  9
$TDUSRTIMER
 40
0.0000000116
  9
$USRTIMER
 70
     1
  9
$ANGBASE
 50
0.0
  9
$ANGDIR
 70
     0
  9
$PDMODE
 70
     0
  9
$PDSIZE
 40
1.0
  9
$PLINEWID
 40
0.0
  9
$SPLFRAME
 70
     0
  9
$SPLINETYPE
 70
     6
  9
$SPLINESEGS
 70
     8
  9
$HANDSEED
  5
438
  9
$SURFTAB1
 70
     6
  9
$SURFTAB2
 70
     6
  9
$SURFTYPE
 70
     6
  9
$SURFU
 70
     6
  9
$SURFV
 70
     6
  9
$UCSBASE
  2

  9
$UCSNAME
  2

  9
$UCSORG
 10
0.0
 20
0.0
 30
0.0
  9
$UCSXDIR
 10
1.0
 20
0.0
 30
0.0
  9
$UCSYDIR
 10
0.0
 20
1.0
 30
0.0
  9
$UCSORTHOREF
  2

  9
$UCSORTHOVIEW
 70
     0
  9
$UCSORGTOP
 10
0.0
 20
0.0
 30
0.0
  9
$UCSORGBOTTOM
 10
0.0
 20
0.0
 30
0.0
  9
$UCSORGLEFT
 10
0.0
 20
0.0
 30
0.0
  9
$UCSORGRIGHT
 10
0.0
 20
0.0
 30
0.0
  9
$UCSORGFRONT
 10
0.0
 20
0.0
 30
0.0
  9
$UCSORGBACK
 10
0.0
 20
0.0
 30
0.0
  9
$PUCSBASE
  2

  9
$PUCSNAME
  2

  9
$PUCSORG
 10
0.0
 20
0.0
 30
0.0
  9
$PUCSXDIR
 10
1.0
 20
0.0
 30
0.0
  9
$PUCSYDIR
 10
0.0
 20
1.0
 30
0.0
  9
$PUCSORTHOREF
  2

  9
$PUCSORTHOVIEW
 70
     0
  9
$PUCSORGTOP
 10
0.0
 20
0.0
 30
0.0
  9
$PUCSORGBOTTOM
 10
0.0
 20
0.0
 30
0.0
  9
$PUCSORGLEFT
 10
0.0
 20
0.0
 30
0.0
  9
$PUCSORGRIGHT
 10
0.0
 20
0.0
 30
0.0
  9
$PUCSORGFRONT
 10
0.0
 20
0.0
 30
0.0
  9
$PUCSORGBACK
 10
0.0
 20
0.0
 30
0.0
  9
$USERI1
 70
     0
  9
$USERI2
 70
     0
  9
$USERI3
 70
     0
  9
$USERI4
 70
     0
  9
$USERI5
 70
     0
  9
$USERR1
 40
0.0
  9
$USERR2
 40
0.0
  9
$USERR3
 40
0.0
  9
$USERR4
 40
0.0
  9
$USERR5
 40
0.0
  9
$WORLDVIEW
 70
     1
  9
$SHADEDGE
 70
     3
  9
$SHADEDIF
 70
    70
  9
$TILEMODE
 70
     1
  9
$MAXACTVP
 70
    64
  9
$PINSBASE
 10
0.0
 20
0.0
 30
0.0
  9
$PLIMCHECK
 70
     0
  9
$PEXTMIN
 10
1.000000000000000E+20
 20
1.000000000000000E+20
 30
1.000000000000000E+20
  9
$PEXTMAX
 10
-1.000000000000000E+20
 20
-1.000000000000000E+20
 30
-1.000000000000000E+20
  9
$PLIMMIN
 10
0.0
 20
0.0
  9
$PLIMMAX
 10
12.0
 20
9.0
  9
$UNITMODE
 70
     0
  9
$VISRETAIN
 70
     0
  9
$PLINEGEN
 70
     1
  9
$PSLTSCALE
 70
     0
  9
$TREEDEPTH
 70
  3020
  9
$CMLSTYLE
  2
Standard
  9
$CMLJUST
 70
     0
  9
$CMLSCALE
 40
1.0
  9
$PROXYGRAPHICS
 70
     0
  9
$MEASUREMENT
 70
     1
  9
$CELWEIGHT
370
    -1
  9
$ENDCAPS
280
     0
  9
$JOINSTYLE
280
     0
  9
$LWDISPLAY
290
     0
  9
$INSUNITS
 70
     4
  9
$HYPERLINKBASE
  1

  9
$STYLESHEET
  1

  9
$XEDIT
290
     1
  9
$CEPSNTYPE
380
     0
  9
$PSTYLEMODE
290
     1
  9
$FINGERPRINTGUID
  2
{2517FEEB-4AF1-44CF-8DE2-C1568DB437E2}
  9
$VERSIONGUID
  2
{FAEB1C32-E019-11D5-929B-00C0DF256EC4}
  9
$EXTNAMES
290
     1
  9
$PSVPSCALE
 40
0.0
  9
$OLESTARTUP
290
     0
  0
ENDSEC
  0
SECTION
  2
CLASSES
  0
CLASS
  1
ACDBDICTIONARYWDFLT
  2
AcDbDictionaryWithDefault
  3
ObjectDBX Classes
 90
        0
280
     0
281
     0
  0
CLASS
  1
VISUALSTYLE
  2
AcDbVisualStyle
  3
ObjectDBX Classes
 90
     4095
280
     0
281
     0
  0
CLASS
  1
MATERIAL
  2
AcDbMaterial
  3
ObjectDBX Classes
 90
     1153
280
     0
281
     0
  0
CLASS
  1
SCALE
  2
AcDbScale
  3
ObjectDBX Classes
 90
     1153
280
     0
281
     0
  0
CLASS
  1
SUN
  2
AcDbSun
  3
SCENEOE
 90
     1153
280
     0
281
     0
  0
CLASS
  1
DICTIONARYVAR
  2
AcDbDictionaryVar
  3
ObjectDBX Classes
 90
        0
280
     0
281
     0
  0
CLASS
  1
ACDBPLACEHOLDER
  2
AcDbPlaceHolder
  3
ObjectDBX Classes
 90
        0
280
     0
281
     0
  0
CLASS
  1
LAYOUT
  2
AcDbLayout
  3
ObjectDBX Classes
 90
        0
280
     0
281
     0
  0
ENDSEC
  0
SECTION
  2
TABLES
  0
TABLE
  2
VPORT
  5
8
102
{ACAD_XDICTIONARY
360
3FD
102
}
330
0
100
AcDbSymbolTable
 70
     1
  0
VPORT
  5
29
330
8
100
AcDbSymbolTableRecord
100
AcDbViewportTableRecord
  2
*Active
 70
     0
 10
0.0
 20
0.0
 11
1.0
 21
1.0
 12
0.0
 22
0.0
 13
0.0
 23
0.0
 14
0.5
 24
0.5
 15
0.5
 25
0.5
 16
0.0
 26
0.0
 36
1.0
 17
0.0000000000001101
 27
0.0
 37
0.0
 40
1653.967658324249
 41
1.457876148825689
 42
50.0
 43
0.0
 44
0.0
 50
0.0
 51
0.0
 71
     0
 72
  1000
 73
     1
 74
     1
 75
     0
 76
     0
 77
     0
 78
     0
281
     0
 65
     1
110
0.0
120
0.0
130
0.0
111
1.0
121
0.0
131
0.0
112
0.0
122
1.0
132
0.0
 79
     0
146
0.0
  0
ENDTAB
  0
TABLE
  2
LTYPE
  5
5
330
0
100
AcDbSymbolTable
 70
    67
  0
LTYPE
  5
14
330
5
100
AcDbSymbolTableRecord
100
AcDbLinetypeTableRecord
  2
ByBlock
 70
     0
  3

 72
    65
 73
     0
 40
0.0
  0
LTYPE
  5
15
330
5
100
AcDbSymbolTableRecord
100
AcDbLinetypeTableRecord
  2
ByLayer
 70
     0
  3

 72
    65
 73
     0
 40
0.0
  0
LTYPE
  5
16
330
5
100
AcDbSymbolTableRecord
100
AcDbLinetypeTableRecord
  2
Continuous
 70
     0
  3
Solid line
 72
    65
 73
     0
 40
0.0
  0
LTYPE
  5
6B
330
5
100
AcDbSymbolTableRecord
100
AcDbLinetypeTableRecord
  2
HIDDENX2
 70
     0
  3
Hidden (2x) ____ ____ ____ ____ ____ ____ ____ 
 72
    65
 73
     2
 40
19.05
 49
12.7
 74
     0
 49
-6.35
 74
     0
  0
LTYPE
  5
6C
330
5
100
AcDbSymbolTableRecord
100
AcDbLinetypeTableRecord
  2
HIDDEN
 70
     0
  3
Hidden __ __ __ __ __ __ __ __ __ __ __ __ __ __
 72
    65
 73
     2
 40
9.524999999999999
 49
6.35
 74
     0
 49
-3.175
 74
     0
  0
LTYPE
  5
6D
330
5
100
AcDbSymbolTableRecord
100
AcDbLinetypeTableRecord
  2
HIDDEN2
 70
     0
  3
Hidden (.5x) _ _ _ _ _ _ _ _ _ _ _ _ _ _ _ _ _ 
 72
    65
 73
     2
 40
4.762499999999999
 49
3.175
 74
     0
 49
-1.5875
 74
     0
  0
LTYPE
  5
6E
330
5
100
AcDbSymbolTableRecord
100
AcDbLinetypeTableRecord
  2
DASHED
 70
     0
  3
Dashed __ __ __ __ __ __ __ __ __ __ __ __ __ _
 72
    65
 73
     2
 40
19.05
 49
12.7
 74
     0
 49
-6.35
 74
     0
  0
LTYPE
  5
6F
330
5
100
AcDbSymbolTableRecord
100
AcDbLinetypeTableRecord
  2
DASHED2
 70
     0
  3
Dashed (.5x) _ _ _ _ _ _ _ _ _ _ _ _ _ _ _ _ _ 
 72
    65
 73
     2
 40
9.524999999999999
 49
6.35
 74
     0
 49
-3.175
 74
     0
  0
LTYPE
  5
70
330
5
100
AcDbSymbolTableRecord
100
AcDbLinetypeTableRecord
  2
DASHEDX2
 70
     0
  3
Dashed (2x) ____  ____  ____  ____  ____  ___
 72
    65
 73
     2
 40
38.09999999999999
 49
25.4
 74
     0
 49
-12.7
 74
     0
  0
LTYPE
  5
71
330
5
100
AcDbSymbolTableRecord
100
AcDbLinetypeTableRecord
  2
DOTX2
 70
     0
  3
Dot (2x) .  .  .  .  .  .  .  .  .  .  .  .  .  .
 72
    65
 73
     2
 40
12.7
 49
0.0
 74
     0
 49
-12.7
 74
     0
  0
LTYPE
  5
72
330
5
100
AcDbSymbolTableRecord
100
AcDbLinetypeTableRecord
  2
DOT
 70
     0
  3
Dot . . . . . . . . . . . . . . . . . . . . . . . .
 72
    65
 73
     2
 40
6.35
 49
0.0
 74
     0
 49
-6.35
 74
     0
  0
LTYPE
  5
73
330
5
100
AcDbSymbolTableRecord
100
AcDbLinetypeTableRecord
  2
DOT2
 70
     0
  3
Dot (.5x) ........................................
 72
    65
 73
     2
 40
3.175
 49
0.0
 74
     0
 49
-3.175
 74
     0
  0
LTYPE
  5
74
330
5
100
AcDbSymbolTableRecord
100
AcDbLinetypeTableRecord
  2
CENTERX2
 70
     0
  3
Center (2x) ________  __  ________  __  _____
 72
    65
 73
     4
 40
101.6
 49
63.5
 74
     0
 49
-12.7
 74
     0
 49
12.7
 74
     0
 49
-12.7
 74
     0
  0
LTYPE
  5
75
330
5
100
AcDbSymbolTableRecord
100
AcDbLinetypeTableRecord
  2
CENTER
 70
     0
  3
Center ____ _ ____ _ ____ _ ____ _ ____ _ ____
 72
    65
 73
     4
 40
50.8
 49
31.75
 74
     0
 49
-6.35
 74
     0
 49
6.35
 74
     0
 49
-6.35
 74
     0
  0
LTYPE
  5
76
330
5
100
AcDbSymbolTableRecord
100
AcDbLinetypeTableRecord
  2
CENTER2
 70
     0
  3
Center (.5x) ___ _ ___ _ ___ _ ___ _ ___ _ ___
 72
    65
 73
     4
 40
28.575
 49
19.05
 74
     0
 49
-3.175
 74
     0
 49
3.175
 74
     0
 49
-3.175
 74
     0
  0
LTYPE
  5
77
330
5
100
AcDbSymbolTableRecord
100
AcDbLinetypeTableRecord
  2
DASHDOTX2
 70
     0
  3
Dash dot (2x) ____  .  ____  .  ____  .  ___
 72
    65
 73
     4
 40
50.8
 49
25.4
 74
     0
 49
-12.7
 74
     0
 49
0.0
 74
     0
 49
-12.7
 74
     0
  0
LTYPE
  5
78
330
5
100
AcDbSymbolTableRecord
100
AcDbLinetypeTableRecord
  2
DASHDOT
 70
     0
  3
Dash dot __ . __ . __ . __ . __ . __ . __ . __
 72
    65
 73
     4
 40
25.4
 49
12.7
 74
     0
 49
-6.35
 74
     0
 49
0.0
 74
     0
 49
-6.35
 74
     0
  0
LTYPE
  5
79
330
5
100
AcDbSymbolTableRecord
100
AcDbLinetypeTableRecord
  2
DASHDOT2
 70
     0
  3
Dash dot (.5x) _._._._._._._._._._._._._._._.
 72
    65
 73
     4
 40
12.7
 49
6.35
 74
     0
 49
-3.175
 74
     0
 49
0.0
 74
     0
 49
-3.175
 74
     0
  0
LTYPE
  5
7A
330
5
100
AcDbSymbolTableRecord
100
AcDbLinetypeTableRecord
  2
DIVIDEX2
 70
     0
  3
Divide (2x) ________  .  .  ________  .  .  _
 72
    65
 73
     6
 40
63.5
 49
25.4
 74
     0
 49
-12.7
 74
     0
 49
0.0
 74
     0
 49
-12.7
 74
     0
 49
0.0
 74
     0
 49
-12.7
 74
     0
  0
LTYPE
  5
7B
330
5
100
AcDbSymbolTableRecord
100
AcDbLinetypeTableRecord
  2
DIVIDE
 70
     0
  3
Divide ____ . . ____ . . ____ . . ____ . . ____
 72
    65
 73
     6
 40
31.75
 49
12.7
 74
     0
 49
-6.35
 74
     0
 49
0.0
 74
     0
 49
-6.35
 74
     0
 49
0.0
 74
     0
 49
-6.35
 74
     0
  0
LTYPE
  5
7C
330
5
100
AcDbSymbolTableRecord
100
AcDbLinetypeTableRecord
  2
DIVIDE2
 70
     0
  3
Divide (.5x) __..__..__..__..__..__..__..__.._
 72
    65
 73
     6
 40
15.875
 49
6.35
 74
     0
 49
-3.175
 74
     0
 49
0.0
 74
     0
 49
-3.175
 74
     0
 49
0.0
 74
     0
 49
-3.175
 74
     0
  0
LTYPE
  5
7D
330
5
100
AcDbSymbolTableRecord
100
AcDbLinetypeTableRecord
  2
BORDERX2
 70
     0
  3
Border (2x) ____  ____  .  ____  ____  .  ___
 72
    65
 73
     6
 40
88.89999999999999
 49
25.4
 74
     0
 49
-12.7
 74
     0
 49
25.4
 74
     0
 49
-12.7
 74
     0
 49
0.0
 74
     0
 49
-12.7
 74
     0
  0
LTYPE
  5
7E
330
5
100
AcDbSymbolTableRecord
100
AcDbLinetypeTableRecord
  2
BORDER
 70
     0
  3
Border __ __ . __ __ . __ __ . __ __ . __ __ .
 72
    65
 73
     6
 40
44.45
 49
12.7
 74
     0
 49
-6.35
 74
     0
 49
12.7
 74
     0
 49
-6.35
 74
     0
 49
0.0
 74
     0
 49
-6.35
 74
     0
  0
LTYPE
  5
7F
330
5
100
AcDbSymbolTableRecord
100
AcDbLinetypeTableRecord
  2
BORDER2
 70
     0
  3
Border (.5x) __.__.__.__.__.__.__.__.__.__.__.
 72
    65
 73
     6
 40
22.225
 49
6.35
 74
     0
 49
-3.175
 74
     0
 49
6.35
 74
     0
 49
-3.175
 74
     0
 49
0.0
 74
     0
 49
-3.175
 74
     0
  0
LTYPE
  5
80
330
5
100
AcDbSymbolTableRecord
100
AcDbLinetypeTableRecord
  2
PHANTOMX2
 70
     0
  3
Phantom (2x) ____________    ____    ____   _
 72
    65
 73
     6
 40
127.0
 49
63.5
 74
     0
 49
-12.7
 74
     0
 49
12.7
 74
     0
 49
-12.7
 74
     0
 49
12.7
 74
     0
 49
-12.7
 74
     0
  0
LTYPE
  5
81
330
5
100
AcDbSymbolTableRecord
100
AcDbLinetypeTableRecord
  2
PHANTOM
 70
     0
  3
Phantom ______  __  __  ______  __  __  ______ 
 72
    65
 73
     6
 40
63.5
 49
31.75
 74
     0
 49
-6.35
 74
     0
 49
6.35
 74
     0
 49
-6.35
 74
     0
 49
6.35
 74
     0
 49
-6.35
 74
     0
  0
LTYPE
  5
82
330
5
100
AcDbSymbolTableRecord
100
AcDbLinetypeTableRecord
  2
PHANTOM2
 70
     0
  3
Phantom (.5x) ___ _ _ ___ _ _ ___ _ _ ___ _ _
 72
    65
 73
     6
 40
31.75
 49
15.875
 74
     0
 49
-3.175
 74
     0
 49
3.175
 74
     0
 49
-3.175
 74
     0
 49
3.175
 74
     0
 49
-3.175
 74
     0
  0
LTYPE
  5
83
330
5
100
AcDbSymbolTableRecord
100
AcDbLinetypeTableRecord
  2
ACAD_ISO06W100
 70
     0
  3
ISO long-dash triple-dot ____ ... ____ ... ____
 72
    65
 73
     8
 40
36.0
 49
24.0
 74
     0
 49
-3.0
 74
     0
 49
0.0
 74
     0
 49
-3.0
 74
     0
 49
0.0
 74
     0
 49
-3.0
 74
     0
 49
0.0
 74
     0
 49
-3.0
 74
     0
  0
LTYPE
  5
84
330
5
100
AcDbSymbolTableRecord
100
AcDbLinetypeTableRecord
  2
ACAD_ISO13W100
 70
     0
  3
ISO double-dash double-dot __ __ . . __ __ . . _
 72
    65
 73
     8
 40
36.0
 49
12.0
 74
     0
 49
-3.0
 74
     0
 49
12.0
 74
     0
 49
-3.0
 74
     0
 49
0.0
 74
     0
 49
-3.0
 74
     0
 49
0.0
 74
     0
 49
-3.0
 74
     0
  0
LTYPE
  5
85
330
5
100
AcDbSymbolTableRecord
100
AcDbLinetypeTableRecord
  2
ACAD_ISO14W100
 70
     0
  3
ISO dash triple-dot __ . . . __ . . . __ . . . _
 72
    65
 73
     8
 40
24.0
 49
12.0
 74
     0
 49
-3.0
 74
     0
 49
0.0
 74
     0
 49
-3.0
 74
     0
 49
0.0
 74
     0
 49
-3.0
 74
     0
 49
0.0
 74
     0
 49
-3.0
 74
     0
  0
LTYPE
  5
86
330
5
100
AcDbSymbolTableRecord
100
AcDbLinetypeTableRecord
  2
ACAD_ISO02W100
 70
     0
  3
ISO dash __ __ __ __ __ __ __ __ __ __ __ __ __
 72
    65
 73
     2
 40
15.0
 49
12.0
 74
     0
 49
-3.0
 74
     0
  0
LTYPE
  5
87
330
5
100
AcDbSymbolTableRecord
100
AcDbLinetypeTableRecord
  2
ACAD_ISO03W100
 70
     0
  3
ISO dash space __    __    __    __    __    __
 72
    65
 73
     2
 40
30.0
 49
12.0
 74
     0
 49
-18.0
 74
     0
  0
LTYPE
  5
88
330
5
100
AcDbSymbolTableRecord
100
AcDbLinetypeTableRecord
  2
ACAD_ISO04W100
 70
     0
  3
ISO long-dash dot ____ . ____ . ____ . ____ . _
 72
    65
 73
     4
 40
30.0
 49
24.0
 74
     0
 49
-3.0
 74
     0
 49
0.0
 74
     0
 49
-3.0
 74
     0
  0
LTYPE
  5
89
330
5
100
AcDbSymbolTableRecord
100
AcDbLinetypeTableRecord
  2
ACAD_ISO05W100
 70
     0
  3
ISO long-dash double-dot ____ .. ____ .. ____ . 
 72
    65
 73
     6
 40
33.0
 49
24.0
 74
     0
 49
-3.0
 74
     0
 49
0.0
 74
     0
 49
-3.0
 74
     0
 49
0.0
 74
     0
 49
-3.0
 74
     0
  0
LTYPE
  5
8A
330
5
100
AcDbSymbolTableRecord
100
AcDbLinetypeTableRecord
  2
ACAD_ISO07W100
 70
     0
  3
ISO dot . . . . . . . . . . . . . . . . . . . . 
 72
    65
 73
     2
 40
3.0
 49
0.0
 74
     0
 49
-3.0
 74
     0
  0
LTYPE
  5
8B
330
5
100
AcDbSymbolTableRecord
100
AcDbLinetypeTableRecord
  2
ACAD_ISO08W100
 70
     0
  3
ISO long-dash short-dash ____ __ ____ __ ____ _
 72
    65
 73
     4
 40
36.0
 49
24.0
 74
     0
 49
-3.0
 74
     0
 49
6.0
 74
     0
 49
-3.0
 74
     0
  0
LTYPE
  5
8C
330
5
100
AcDbSymbolTableRecord
100
AcDbLinetypeTableRecord
  2
ACAD_ISO09W100
 70
     0
  3
ISO long-dash double-short-dash ____ __ __ ____
 72
    65
 73
     6
 40
45.0
 49
24.0
 74
     0
 49
-3.0
 74
     0
 49
6.0
 74
     0
 49
-3.0
 74
     0
 49
6.0
 74
     0
 49
-3.0
 74
     0
  0
LTYPE
  5
8D
330
5
100
AcDbSymbolTableRecord
100
AcDbLinetypeTableRecord
  2
ACAD_ISO10W100
 70
     0
  3
ISO dash dot __ . __ . __ . __ . __ . __ . __ . 
 72
    65
 73
     4
 40
18.0
 49
12.0
 74
     0
 49
-3.0
 74
     0
 49
0.0
 74
     0
 49
-3.0
 74
     0
  0
LTYPE
  5
8E
330
5
100
AcDbSymbolTableRecord
100
AcDbLinetypeTableRecord
  2
ACAD_ISO11W100
 70
     0
  3
ISO double-dash dot __ __ . __ __ . __ __ . __ _
 72
    65
 73
     6
 40
33.0
 49
12.0
 74
     0
 49
-3.0
 74
     0
 49
12.0
 74
     0
 49
-3.0
 74
     0
 49
0.0
 74
     0
 49
-3.0
 74
     0
  0
LTYPE
  5
8F
330
5
100
AcDbSymbolTableRecord
100
AcDbLinetypeTableRecord
  2
ACAD_ISO12W100
 70
     0
  3
ISO dash double-dot __ . . __ . . __ . . __ . . 
 72
    65
 73
     6
 40
21.0
 49
12.0
 74
     0
 49
-3.0
 74
     0
 49
0.0
 74
     0
 49
-3.0
 74
     0
 49
0.0
 74
     0
 49
-3.0
 74
     0
  0
LTYPE
  5
90
330
5
100
AcDbSymbolTableRecord
100
AcDbLinetypeTableRecord
  2
ACAD_ISO15W100
 70
     0
  3
ISO double-dash triple-dot __ __ . . . __ __ . .
 72
    65
 73
    10
 40
39.0
 49
12.0
 74
     0
 49
-3.0
 74
     0
 49
12.0
 74
     0
 49
-3.0
 74
     0
 49
0.0
 74
     0
 49
-3.0
 74
     0
 49
0.0
 74
     0
 49
-3.0
 74
     0
 49
0.0
 74
     0
 49
-3.0
 74
     0
  0
LTYPE
  5
91
330
5
100
AcDbSymbolTableRecord
100
AcDbLinetypeTableRecord
  2
JIS_02_0.7
 70
     0
  3
HIDDEN0.75 _ _ _ _ _ _ _ _ _ _ _ _ _ _ _ _ _ 
 72
    65
 73
     2
 40
1.35
 49
0.75
 74
     0
 49
-0.6
 74
     0
  0
LTYPE
  5
92
330
5
100
AcDbSymbolTableRecord
100
AcDbLinetypeTableRecord
  2
JIS_02_1.0
 70
     0
  3
HIDDEN01 _ _ _ _ _ _ _ _ _ _ _ _ _ _ _ _ _ 
 72
    65
 73
     2
 40
2.0
 49
1.0
 74
     0
 49
-1.0
 74
     0
  0
LTYPE
  5
93
330
5
100
AcDbSymbolTableRecord
100
AcDbLinetypeTableRecord
  2
JIS_02_1.2
 70
     0
  3
HIDDEN01.25  _ _ _ _ _ _ _ _ _ _ _ _ _ _ _ _ _ 
 72
    65
 73
     2
 40
2.5
 49
1.25
 74
     0
 49
-1.25
 74
     0
  0
LTYPE
  5
94
330
5
100
AcDbSymbolTableRecord
100
AcDbLinetypeTableRecord
  2
JIS_02_2.0
 70
     0
  3
HIDDEN02 __ __ __ __ __ __ __ __ __ __ __ 
 72
    65
 73
     2
 40
3.0
 49
2.0
 74
     0
 49
-1.0
 74
     0
  0
LTYPE
  5
95
330
5
100
AcDbSymbolTableRecord
100
AcDbLinetypeTableRecord
  2
JIS_02_4.0
 70
     0
  3
HIDDEN04 ____ ____ ____ ____ ____ ____ ____ 
 72
    65
 73
     2
 40
5.5
 49
4.0
 74
     0
 49
-1.5
 74
     0
  0
LTYPE
  5
96
330
5
100
AcDbSymbolTableRecord
100
AcDbLinetypeTableRecord
  2
JIS_08_11
 70
     0
  3
1SASEN11 ___ _ ___ _ ___ _ ___ _ ___ _ ___
 72
    65
 73
     4
 40
12.8
 49
11.0
 74
     0
 49
-0.6
 74
     0
 49
0.6
 74
     0
 49
-0.6
 74
     0
  0
LTYPE
  5
97
330
5
100
AcDbSymbolTableRecord
100
AcDbLinetypeTableRecord
  2
JIS_08_15
 70
     0
  3
1SASEN15 ____ _ ____ _ ____ _ ____ _ ____ 
 72
    65
 73
     4
 40
17.25
 49
15.0
 74
     0
 49
-0.75
 74
     0
 49
0.75
 74
     0
 49
-0.75
 74
     0
  0
LTYPE
  5
98
330
5
100
AcDbSymbolTableRecord
100
AcDbLinetypeTableRecord
  2
JIS_08_25
 70
     0
  3
1SASEN25 ________  __  ________  __  _____
 72
    65
 73
     4
 40
28.0
 49
25.0
 74
     0
 49
-1.125
 74
     0
 49
0.75
 74
     0
 49
-1.125
 74
     0
  0
LTYPE
  5
99
330
5
100
AcDbSymbolTableRecord
100
AcDbLinetypeTableRecord
  2
JIS_08_37
 70
     0
  3
1SASEN37 ________  __  ________  __  _____
 72
    65
 73
     4
 40
40.5
 49
37.5
 74
     0
 49
-1.125
 74
     0
 49
0.75
 74
     0
 49
-1.125
 74
     0
  0
LTYPE
  5
9A
330
5
100
AcDbSymbolTableRecord
100
AcDbLinetypeTableRecord
  2
JIS_08_50
 70
     0
  3
1SASEN50 _______________  __  ____________
 72
    65
 73
     4
 40
53.0
 49
50.0
 74
     0
 49
-1.125
 74
     0
 49
0.75
 74
     0
 49
-1.125
 74
     0
  0
LTYPE
  5
9B
330
5
100
AcDbSymbolTableRecord
100
AcDbLinetypeTableRecord
  2
JIS_09_08
 70
     0
  3
2SASEN8 __ _ _ __ _ _ __ _ _ __ _ _ __ _ _ 
 72
    65
 73
     6
 40
10.75
 49
8.0
 74
     0
 49
-0.55
 74
     0
 49
0.55
 74
     0
 49
-0.55
 74
     0
 49
0.55
 74
     0
 49
-0.55
 74
     0
  0
LTYPE
  5
9C
330
5
100
AcDbSymbolTableRecord
100
AcDbLinetypeTableRecord
  2
JIS_09_15
 70
     0
  3
2SASEN15 ___ _ _ ___ _ _ ___ _ _ ___ _ _ ___ 
 72
    65
 73
     6
 40
18.9
 49
15.0
 74
     0
 49
-0.9
 74
     0
 49
0.6
 74
     0
 49
-0.9
 74
     0
 49
0.6
 74
     0
 49
-0.9
 74
     0
  0
LTYPE
  5
9D
330
5
100
AcDbSymbolTableRecord
100
AcDbLinetypeTableRecord
  2
JIS_09_29
 70
     0
  3
2SASEN29 ______　__  __  ______　__  __  ___
 72
    65
 73
     6
 40
34.0
 49
29.0
 74
     0
 49
-1.2
 74
     0
 49
0.7
 74
     0
 49
-1.2
 74
     0
 49
0.7
 74
     0
 49
-1.2
 74
     0
  0
LTYPE
  5
9E
330
5
100
AcDbSymbolTableRecord
100
AcDbLinetypeTableRecord
  2
JIS_09_50
 70
     0
  3
2SASEN50 ____________　__  __  _____________
 72
    65
 73
     6
 40
55.0
 49
50.0
 74
     0
 49
-1.2
 74
     0
 49
0.7
 74
     0
 49
-1.2
 74
     0
 49
0.7
 74
     0
 49
-1.2
 74
     0
  0
LTYPE
  5
9F
330
5
100
AcDbSymbolTableRecord
100
AcDbLinetypeTableRecord
  2
SXF_破線
 70
     0
  3
02 dashed -- -- -- -- -- --
 72
    65
 73
     2
 40
7.5
 49
6.0
 74
     0
 49
-1.5
 74
     0
  0
LTYPE
  5
A0
330
5
100
AcDbSymbolTableRecord
100
AcDbLinetypeTableRecord
  2
SXF_跳び破線
 70
     0
  3
03 dashed_spaced --  --  --  --
 72
    65
 73
     2
 40
12.0
 49
6.0
 74
     0
 49
-6.0
 74
     0
  0
LTYPE
  5
A1
330
5
100
AcDbSymbolTableRecord
100
AcDbLinetypeTableRecord
  2
SXF_一点長鎖線
 70
     0
  3
04 long_dashed_dotted ---- . ---- . ----
 72
    65
 73
     4
 40
15.25
 49
12.0
 74
     0
 49
-1.5
 74
     0
 49
0.25
 74
     0
 49
-1.5
 74
     0
  0
LTYPE
  5
A2
330
5
100
AcDbSymbolTableRecord
100
AcDbLinetypeTableRecord
  2
SXF_二点長鎖線
 70
     0
  3
05 long_dashed_double-dotted ---- . . ---- 
 72
    65
 73
     6
 40
17.0
 49
12.0
 74
     0
 49
-1.5
 74
     0
 49
0.25
 74
     0
 49
-1.5
 74
     0
 49
0.25
 74
     0
 49
-1.5
 74
     0
  0
LTYPE
  5
A3
330
5
100
AcDbSymbolTableRecord
100
AcDbLinetypeTableRecord
  2
SXF_三点長鎖線
 70
     0
  3
06 long_dashed_triplicate-dotted ---- ... ---- 
 72
    65
 73
     8
 40
18.75
 49
12.0
 74
     0
 49
-1.5
 74
     0
 49
0.25
 74
     0
 49
-1.5
 74
     0
 49
0.25
 74
     0
 49
-1.5
 74
     0
 49
0.25
 74
     0
 49
-1.5
 74
     0
  0
LTYPE
  5
A4
330
5
100
AcDbSymbolTableRecord
100
AcDbLinetypeTableRecord
  2
SXF_点線
 70
     0
  3
07 dotted . . . . . . . . . . . . 
 72
    65
 73
     2
 40
1.75
 49
0.25
 74
     0
 49
-1.5
 74
     0
  0
LTYPE
  5
A5
330
5
100
AcDbSymbolTableRecord
100
AcDbLinetypeTableRecord
  2
SXF_一点鎖線
 70
     0
  3
08 chain ---- - --- - --- - ---
 72
    65
 73
     4
 40
18.5
 49
12.0
 74
     0
 49
-1.5
 74
     0
 49
3.5
 74
     0
 49
-1.5
 74
     0
  0
LTYPE
  5
A6
330
5
100
AcDbSymbolTableRecord
100
AcDbLinetypeTableRecord
  2
SXF_二点鎖線
 70
     0
  3
09 chain_double_dash ---- - - ---- - - ----
 72
    65
 73
     6
 40
23.5
 49
12.0
 74
     0
 49
-1.5
 74
     0
 49
3.5
 74
     0
 49
-1.5
 74
     0
 49
3.5
 74
     0
 49
-1.5
 74
     0
  0
LTYPE
  5
A7
330
5
100
AcDbSymbolTableRecord
100
AcDbLinetypeTableRecord
  2
SXF_一点短鎖線
 70
     0
  3
10 dashed_dotted -- . -- . -- . --
 72
    65
 73
     4
 40
9.25
 49
6.0
 74
     0
 49
-1.5
 74
     0
 49
0.25
 74
     0
 49
-1.5
 74
     0
  0
LTYPE
  5
A8
330
5
100
AcDbSymbolTableRecord
100
AcDbLinetypeTableRecord
  2
SXF_一点二短鎖線
 70
     0
  3
11 double-dashed_dotted -- -- . -- --
 72
    65
 73
     6
 40
16.75
 49
6.0
 74
     0
 49
-1.5
 74
     0
 49
6.0
 74
     0
 49
-1.5
 74
     0
 49
0.25
 74
     0
 49
-1.5
 74
     0
  0
LTYPE
  5
A9
330
5
100
AcDbSymbolTableRecord
100
AcDbLinetypeTableRecord
  2
SXF_二点短鎖線
 70
     0
  3
12 dashed_double_dotted -- . . -- . . --
 72
    65
 73
     6
 40
11.0
 49
6.0
 74
     0
 49
-1.5
 74
     0
 49
0.25
 74
     0
 49
-1.5
 74
     0
 49
0.25
 74
     0
 49
-1.5
 74
     0
  0
LTYPE
  5
AA
330
5
100
AcDbSymbolTableRecord
100
AcDbLinetypeTableRecord
  2
SXF_二点二短鎖線
 70
     0
  3
13 double-dashed_double-dotted -- -- . . -- --
 72
    65
 73
     8
 40
18.5
 49
6.0
 74
     0
 49
-1.5
 74
     0
 49
6.0
 74
     0
 49
-1.5
 74
     0
 49
0.25
 74
     0
 49
-1.5
 74
     0
 49
0.25
 74
     0
 49
-1.5
 74
     0
  0
LTYPE
  5
AB
330
5
100
AcDbSymbolTableRecord
100
AcDbLinetypeTableRecord
  2
SXF_三点短鎖線
 70
     0
  3
14 dashed triplicate-dotted -- . . . -- . . . --
 72
    65
 73
     8
 40
12.75
 49
6.0
 74
     0
 49
-1.5
 74
     0
 49
0.25
 74
     0
 49
-1.5
 74
     0
 49
0.25
 74
     0
 49
-1.5
 74
     0
 49
0.25
 74
     0
 49
-1.5
 74
     0
  0
LTYPE
  5
AC
330
5
100
AcDbSymbolTableRecord
100
AcDbLinetypeTableRecord
  2
SXF_三点二短鎖線
 70
     0
  3
15 double-dashed triplicate-dotted -- -- . . . -- -- 
 72
    65
 73
    10
 40
20.25
 49
6.0
 74
     0
 49
-1.5
 74
     0
 49
6.0
 74
     0
 49
-1.5
 74
     0
 49
0.25
 74
     0
 49
-1.5
 74
     0
 49
0.25
 74
     0
 49
-1.5
 74
     0
 49
0.25
 74
     0
 49
-1.5
 74
     0
  0
ENDTAB
  0
TABLE
  2
LAYER
  5
2
330
0
100
AcDbSymbolTable
 70
     3
  0
LAYER
  5
10
330
2
100
AcDbSymbolTableRecord
100
AcDbLayerTableRecord
  2
0
 70
     0
 62
     7
  6
Continuous
370
    -3
390
F
  0
LAYER
  5
AD
330
2
100
AcDbSymbolTableRecord
100
AcDbLayerTableRecord
  2
15
 70
     0
 62
     7
  6
Continuous
370
    -3
390
F
  0
LAYER
  5
AE
330
2
100
AcDbSymbolTableRecord
100
AcDbLayerTableRecord
  2
ZUWAKU
 70
     0
 62
     7
  6
Continuous
370
    -3
390
F
  0
ENDTAB
  0
TABLE
  2
STYLE
  5
3
330
0
100
AcDbSymbolTable
 70
     3
  0
STYLE
  5
11
330
3
100
AcDbSymbolTableRecord
100
AcDbTextStyleTableRecord
  2
Standard
 70
     0
 40
0.0
 41
1.0
 50
0.0
 71
     0
 42
0.2
  3
txt.shx
  4
bigfont.shx
  0
STYLE
  5
FE
330
3
100
AcDbSymbolTableRecord
100
AcDbTextStyleTableRecord
  2
dcStyle0
 70
     0
 40
0.0
 41
0.77
 50
0.0
 71
     0
 42
0.2
  3
ＭＳ Ｐゴシック
  4

1001
ACAD
1000
ＭＳ Ｐゴシック
1071
    32802
  0
STYLE
  5
15E
330
3
100
AcDbSymbolTableRecord
100
AcDbTextStyleTableRecord
  2
dcStyle1
 70
     0
 40
0.0
 41
0.9999999999999981
 50
0.0
 71
     0
 42
0.2
  3
txt.shx
  4
bigfont
  0
ENDTAB
  0
TABLE
  2
VIEW
  5
6
330
0
100
AcDbSymbolTable
 70
     0
  0
ENDTAB
  0
TABLE
  2
UCS
  5
7
330
0
100
AcDbSymbolTable
 70
     0
  0
ENDTAB
  0
TABLE
  2
APPID
  5
9
330
0
100
AcDbSymbolTable
 70
     3
  0
APPID
  5
12
330
9
100
AcDbSymbolTableRecord
100
AcDbRegAppTableRecord
  2
ACAD
 70
     0
  0
APPID
  5
6A
330
9
100
AcDbSymbolTableRecord
100
AcDbRegAppTableRecord
  2
DaFusionOut
 70
     0
  0
APPID
  5
3FF
330
9
100
AcDbSymbolTableRecord
100
AcDbRegAppTableRecord
  2
ACAD_DSTYLE_DIMARC_LENGTH_SYMBOL
 70
     0
  0
ENDTAB
  0
TABLE
  2
DIMSTYLE
  5
A
330
0
100
AcDbSymbolTable
 70
     2
100
AcDbDimStyleTable
  0
DIMSTYLE
105
27
330
A
100
AcDbSymbolTableRecord
100
AcDbDimStyleTableRecord
  2
Standard
 70
     0
178
     0
340
11
  0
DIMSTYLE
105
3E0
102
{ACAD_REACTORS
330
3DF
330
3E1
330
3E2
330
3E3
330
3E4
330
3E5
330
3E6
330
3E7
102
}
330
A
100
AcDbSymbolTableRecord
100
AcDbDimStyleTableRecord
  2
dc_Rotated
 70
     0
 41
18.00135612487793
 42
5.999999999999998
 44
5.999999999999998
 73
     0
 74
     0
 77
     3
 78
     8
 79
     2
140
23.99999999999999
147
6.0
172
     1
173
     1
176
     2
177
     2
271
     2
178
     2
271
     2
274
     4
283
     0
284
     8
288
     1
340
11
343
10B
344
10B
1001
ACAD_DSTYLE_DIMARC_LENGTH_SYMBOL
1070
   379
1070
     1
  0
ENDTAB
  0
TABLE
  2
BLOCK_RECORD
  5
1
330
0
100
AcDbSymbolTable
 70
    28
  0
BLOCK_RECORD
  5
1F
330
1
100
AcDbSymbolTableRecord
100
AcDbBlockTableRecord
  2
*Model_Space
340
22
  0
BLOCK_RECORD
  5
1B
330
1
100
AcDbSymbolTableRecord
100
AcDbBlockTableRecord
  2
*Paper_Space
340
1E
  0
BLOCK_RECORD
  5
23
330
1
100
AcDbSymbolTableRecord
100
AcDbBlockTableRecord
  2
*Paper_Space0
340
26
  0
BLOCK_RECORD
  5
B0
330
1
100
AcDbSymbolTableRecord
100
AcDbBlockTableRecord
  2
DC_GROUP_W_MTS_S_070_1_1
340
0
102
{BLKREFS
331
3DD
102
}
  0
BLOCK_RECORD
  5
B3
330
1
100
AcDbSymbolTableRecord
100
AcDbBlockTableRecord
  2
DC_GROUP_W_MTS_S_070_1_2
340
0
102
{BLKREFS
331
100
102
}
  0
BLOCK_RECORD
  5
B6
330
1
100
AcDbSymbolTableRecord
100
AcDbBlockTableRecord
  2
DC_GROUP_W_MTS_S_070_1_3
340
0
102
{BLKREFS
331
3DE
102
}
  0
BLOCK_RECORD
  5
B9
330
1
100
AcDbSymbolTableRecord
100
AcDbBlockTableRecord
  2
*D4
340
0
  0
BLOCK_RECORD
  5
BC
330
1
100
AcDbSymbolTableRecord
100
AcDbBlockTableRecord
  2
*D5
340
0
  0
BLOCK_RECORD
  5
BF
330
1
100
AcDbSymbolTableRecord
100
AcDbBlockTableRecord
  2
*D6
340
0
  0
BLOCK_RECORD
  5
C2
330
1
100
AcDbSymbolTableRecord
100
AcDbBlockTableRecord
  2
*D7
340
0
  0
BLOCK_RECORD
  5
C5
330
1
100
AcDbSymbolTableRecord
100
AcDbBlockTableRecord
  2
*D8
340
0
  0
BLOCK_RECORD
  5
C8
330
1
100
AcDbSymbolTableRecord
100
AcDbBlockTableRecord
  2
*D9
340
0
  0
BLOCK_RECORD
  5
CB
330
1
100
AcDbSymbolTableRecord
100
AcDbBlockTableRecord
  2
*D10
340
0
  0
BLOCK_RECORD
  5
CE
330
1
100
AcDbSymbolTableRecord
100
AcDbBlockTableRecord
  2
*D11
340
0
  0
BLOCK_RECORD
  5
D1
330
1
100
AcDbSymbolTableRecord
100
AcDbBlockTableRecord
  2
DC_GROUP_W_MTS_S_070_1_4
340
0
102
{BLKREFS
331
3E8
102
}
  0
BLOCK_RECORD
  5
D4
330
1
100
AcDbSymbolTableRecord
100
AcDbBlockTableRecord
  2
DC_GROUP_W_MTS_S_070_1_5
340
0
102
{BLKREFS
331
3EC
102
}
  0
BLOCK_RECORD
  5
D7
330
1
100
AcDbSymbolTableRecord
100
AcDbBlockTableRecord
  2
DC_GROUP_W_MTS_S_070_1_6
340
0
102
{BLKREFS
331
3ED
102
}
  0
BLOCK_RECORD
  5
DA
330
1
100
AcDbSymbolTableRecord
100
AcDbBlockTableRecord
  2
DC_GROUP_W_MTS_S_070_1_7
340
0
102
{BLKREFS
331
3EE
102
}
  0
BLOCK_RECORD
  5
DD
330
1
100
AcDbSymbolTableRecord
100
AcDbBlockTableRecord
  2
DC_GROUP_W_MTS_S_070_1_8
340
0
102
{BLKREFS
331
19C
102
}
  0
BLOCK_RECORD
  5
E0
330
1
100
AcDbSymbolTableRecord
100
AcDbBlockTableRecord
  2
DC_GROUP_W_MTS_S_070_1_9
340
0
102
{BLKREFS
331
3EF
102
}
  0
BLOCK_RECORD
  5
E3
330
1
100
AcDbSymbolTableRecord
100
AcDbBlockTableRecord
  2
DC_GROUP_W_MTS_S_070_1_10
340
0
102
{BLKREFS
331
3F0
102
}
  0
BLOCK_RECORD
  5
E6
330
1
100
AcDbSymbolTableRecord
100
AcDbBlockTableRecord
  2
DC_GROUP_W_MTS_S_070_1_11
340
0
102
{BLKREFS
331
1CF
102
}
  0
BLOCK_RECORD
  5
E9
330
1
100
AcDbSymbolTableRecord
100
AcDbBlockTableRecord
  2
DC_GROUP_W_MTS_S_070_1_12
340
0
102
{BLKREFS
331
3F1
102
}
  0
BLOCK_RECORD
  5
EC
330
1
100
AcDbSymbolTableRecord
100
AcDbBlockTableRecord
  2
DC_GROUP_W_MTS_S_070_1_13
340
0
102
{BLKREFS
331
3F2
102
}
  0
BLOCK_RECORD
  5
EF
330
1
100
AcDbSymbolTableRecord
100
AcDbBlockTableRecord
  2
DC_GROUP_W_MTS_S_070_1_14
340
0
102
{BLKREFS
331
207
102
}
  0
BLOCK_RECORD
  5
F2
330
1
100
AcDbSymbolTableRecord
100
AcDbBlockTableRecord
  2
DC_GROUP_W_MTS_S_070_1_15
340
0
102
{BLKREFS
331
3F3
102
}
  0
BLOCK_RECORD
  5
F5
330
1
100
AcDbSymbolTableRecord
100
AcDbBlockTableRecord
  2
DC_GROUP_W_MTS_S_070_1_16
340
0
102
{BLKREFS
331
3E9
102
}
  0
BLOCK_RECORD
  5
F8
330
1
100
AcDbSymbolTableRecord
100
AcDbBlockTableRecord
  2
DC_GROUP_W_MTS_S_070_1_17
340
0
102
{BLKREFS
331
3EA
102
}
  0
BLOCK_RECORD
  5
FB
330
1
100
AcDbSymbolTableRecord
100
AcDbBlockTableRecord
  2
DC_GROUP_W_MTS_S_070_1_18
340
0
102
{BLKREFS
331
3EB
102
}
  0
BLOCK_RECORD
  5
10B
330
1
100
AcDbSymbolTableRecord
100
AcDbBlockTableRecord
  2
_OPEN30
340
0
102
{BLKREFS
331
111
331
112
331
117
331
118
331
11E
331
120
331
125
331
126
331
12B
331
12C
331
132
331
134
331
137
331
138
331
13F
331
140
331
144
331
146
331
228
331
22A
331
22C
331
22E
331
230
331
232
102
}
  0
ENDTAB
  0
ENDSEC
  0
SECTION
  2
BLOCKS
  0
BLOCK
  5
20
330
1F
100
AcDbEntity
  8
0
100
AcDbBlockBegin
  2
*Model_Space
 70
     0
 10
0.0
 20
0.0
 30
0.0
  3
*Model_Space
  1
*Model_Space
  0
ENDBLK
  5
21
330
1F
100
AcDbEntity
  8
0
100
AcDbBlockEnd
  0
BLOCK
  5
1C
330
1B
100
AcDbEntity
 67
     1
  8
0
100
AcDbBlockBegin
  2
*Paper_Space
 70
     0
 10
0.0
 20
0.0
 30
0.0
  3
*Paper_Space
  1
*Paper_Space
  0
ENDBLK
  5
1D
330
1B
100
AcDbEntity
 67
     1
  8
0
100
AcDbBlockEnd
  0
BLOCK
  5
24
330
23
100
AcDbEntity
  8
0
100
AcDbBlockBegin
  2
*Paper_Space0
 70
     0
 10
0.0
 20
0.0
 30
0.0
  3
*Paper_Space0
  1
*Paper_Space0
  0
ENDBLK
  5
25
330
23
100
AcDbEntity
  8
0
100
AcDbBlockEnd
  0
BLOCK
  5
B1
330
B0
100
AcDbEntity
  8
0
100
AcDbBlockBegin
  2
DC_GROUP_W_MTS_S_070_1_1
 70
     0
 10
0.0
 20
0.0
 30
0.0
  3
DC_GROUP_W_MTS_S_070_1_1
  1
DC_GROUP_W_MTS_S_070_1_1
  0
TEXT
  5
FF
330
B0
100
AcDbEntity
  8
0
 62
     2
100
AcDbText
 10
-77.39033989267045
 20
-422.1579606440068
 30
0.0
 40
29.99999999999999
  1
呼び機長 40 cm
 41
0.7074994946432182
  7
dcStyle0
 72
     5
 11
132.6096601073295
 21
-422.1579606440068
 31
0.0
100
AcDbText
  0
INSERT
  5
100
330
B0
100
AcDbEntity
  8
0
  6
Continuous
100
AcDbBlockReference
  2
DC_GROUP_W_MTS_S_070_1_2
 10
0.0
 20
0.0
 30
0.0
  0
ENDBLK
  5
B2
330
B0
100
AcDbEntity
  8
0
100
AcDbBlockEnd
  0
BLOCK
  5
B4
330
B3
100
AcDbEntity
  8
0
100
AcDbBlockBegin
  2
DC_GROUP_W_MTS_S_070_1_2
 70
     0
 10
0.0
 20
0.0
 30
0.0
  3
DC_GROUP_W_MTS_S_070_1_2
  1
DC_GROUP_W_MTS_S_070_1_2
  0
LINE
  5
101
330
B3
100
AcDbEntity
  8
0
  6
Continuous
 62
     2
370
    13
100
AcDbLine
 10
-92.39033989267045
 20
-377.1579606440068
 30
0.0
 11
-92.39033989267045
 21
-437.1579606440068
 31
0.0
  0
LINE
  5
102
330
B3
100
AcDbEntity
  8
0
  6
Continuous
 62
     2
370
    13
100
AcDbLine
 10
-92.39033989267045
 20
-437.1579606440068
 30
0.0
 11
157.6096601073295
 21
-437.1579606440068
 31
0.0
  0
LINE
  5
103
330
B3
100
AcDbEntity
  8
0
  6
Continuous
 62
     2
370
    13
100
AcDbLine
 10
157.6096601073295
 20
-437.1579606440068
 30
0.0
 11
157.6096601073295
 21
-377.1579606440068
 31
0.0
  0
LINE
  5
104
330
B3
100
AcDbEntity
  8
0
  6
Continuous
 62
     2
370
    13
100
AcDbLine
 10
157.6096601073295
 20
-377.1579606440068
 30
0.0
 11
-92.39033989267045
 21
-377.1579606440068
 31
0.0
  0
ENDBLK
  5
B5
330
B3
100
AcDbEntity
  8
0
100
AcDbBlockEnd
  0
BLOCK
  5
B7
330
B6
100
AcDbEntity
  8
0
100
AcDbBlockBegin
  2
DC_GROUP_W_MTS_S_070_1_3
 70
     0
 10
0.0
 20
0.0
 30
0.0
  3
DC_GROUP_W_MTS_S_070_1_3
  1
DC_GROUP_W_MTS_S_070_1_3
  0
TEXT
  5
105
330
B6
100
AcDbEntity
  8
0
 62
     2
100
AcDbText
 10
255.2504667742755
 20
-533.6462633462977
 30
0.0
 40
23.99999999999999
  1
注1：本図はねじり方向Lタイプ
 41
0.7688505684002418
  7
dcStyle0
 72
     5
 11
591.2504667742755
 21
-533.6462633462977
 31
0.0
100
AcDbText
  0
TEXT
  5
106
330
B6
100
AcDbEntity
  8
0
 62
     2
100
AcDbText
 10
255.2504667742755
 20
-569.6462633462977
 30
0.0
 40
23.99999999999999
  1
注2：排出側装置とジョイントして下さい
 41
0.7949125596184421
  7
dcStyle0
 72
     5
 11
699.2504667742755
 21
-569.6462633462977
 31
0.0
100
AcDbText
  0
TEXT
  5
107
330
B6
100
AcDbEntity
  8
0
 62
     2
100
AcDbText
 10
255.2504667742755
 20
-605.6462633462977
 30
0.0
 40
23.99999999999999
  1
※1：本図はMMX2型、ベルト幅75mmの場合です
 41
0.6988001090809929
  7
dcStyle0
 72
     5
 11
747.2504667742755
 21
-605.6462633462977
 31
0.0
100
AcDbText
  0
ENDBLK
  5
B8
330
B6
100
AcDbEntity
  8
0
100
AcDbBlockEnd
  0
BLOCK
  5
BA
330
B9
100
AcDbEntity
  8
0
100
AcDbBlockBegin
  2
*D4
 70
     1
 10
0.0
 20
0.0
 30
0.0
  3
*D4
  1
*D4
  0
LINE
  5
108
330
B9
100
AcDbEntity
  8
0
  6
Continuous
 62
     2
370
    13
100
AcDbLine
 10
-281.3674552872696
 20
455.575512717884
 30
0.0
 11
-357.0407158958773
 21
455.575512717884
 31
0.0
  0
LINE
  5
109
330
B9
100
AcDbEntity
  8
0
  6
Continuous
 62
     2
370
    13
100
AcDbLine
 10
-281.3674552872696
 20
552.575512717884
 30
0.0
 11
-357.0407158958773
 21
552.575512717884
 31
0.0
  0
LINE
  5
10A
330
B9
100
AcDbEntity
  8
0
  6
Continuous
 62
     2
370
    13
100
AcDbLine
 10
-351.0407158958773
 20
552.575512717884
 30
0.0
 11
-351.0407158958773
 21
455.575512717884
 31
0.0
  0
INSERT
  5
111
330
B9
100
AcDbEntity
  8
0
 62
     2
100
AcDbBlockReference
  2
_OPEN30
 10
-351.0407158958773
 20
552.575512717884
 30
0.0
 41
18.00138320357654
 42
18.00097896302553
 50
90.0
  0
INSERT
  5
112
330
B9
100
AcDbEntity
  8
0
 62
     2
100
AcDbBlockReference
  2
_OPEN30
 10
-351.0407158958773
 20
455.575512717884
 30
0.0
 41
18.00138320357654
 42
18.00097896302553
 50
270.0
  0
TEXT
  5
113
330
B9
100
AcDbEntity
  8
0
 62
     2
100
AcDbText
 10
-357.0407158958773
 20
457.9875
 30
0.0
 40
23.99999999999999
  1
内径φ97
 50
90.0
 41
0.6877579092159557
  7
dcStyle0
 72
     5
 11
-357.0407158958773
 21
553.9875
 31
0.0
100
AcDbText
  0
ENDBLK
  5
BB
330
B9
100
AcDbEntity
  8
0
100
AcDbBlockEnd
  0
BLOCK
  5
BD
330
BC
100
AcDbEntity
  8
0
100
AcDbBlockBegin
  2
*D5
 70
     1
 10
0.0
 20
0.0
 30
0.0
  3
*D5
  1
*D5
  0
LINE
  5
114
330
BC
100
AcDbEntity
  8
0
  6
Continuous
 62
     2
370
    13
100
AcDbLine
 10
-281.3674552872696
 20
451.575512717884
 30
0.0
 11
-430.575828793278
 21
451.575512717884
 31
0.0
  0
LINE
  5
115
330
BC
100
AcDbEntity
  8
0
  6
Continuous
 62
     2
370
    13
100
AcDbLine
 10
-281.3674552872696
 20
556.575512717884
 30
0.0
 11
-430.575828793278
 21
556.575512717884
 31
0.0
  0
LINE
  5
116
330
BC
100
AcDbEntity
  8
0
  6
Continuous
 62
     2
370
    13
100
AcDbLine
 10
-424.575828793278
 20
556.575512717884
 30
0.0
 11
-424.575828793278
 21
451.575512717884
 31
0.0
  0
INSERT
  5
117
330
BC
100
AcDbEntity
  8
0
 62
     2
100
AcDbBlockReference
  2
_OPEN30
 10
-424.575828793278
 20
556.575512717884
 30
0.0
 41
18.00138320357654
 42
18.00097896302553
 50
90.0
  0
INSERT
  5
118
330
BC
100
AcDbEntity
  8
0
 62
     2
100
AcDbBlockReference
  2
_OPEN30
 10
-424.575828793278
 20
451.575512717884
 30
0.0
 41
18.00138320357654
 42
18.00097896302553
 50
270.0
  0
TEXT
  5
119
330
BC
100
AcDbEntity
  8
0
 62
     2
100
AcDbText
 10
-430.575828793278
 20
447.7125
 30
0.0
 40
23.99999999999999
  1
外径φ105
 50
90.0
 41
0.687757909215956
  7
dcStyle0
 72
     5
 11
-430.575828793278
 21
555.7125
 31
0.0
100
AcDbText
  0
ENDBLK
  5
BE
330
BC
100
AcDbEntity
  8
0
100
AcDbBlockEnd
  0
BLOCK
  5
C0
330
BF
100
AcDbEntity
  8
0
100
AcDbBlockBegin
  2
*D6
 70
     1
 10
0.0
 20
0.0
 30
0.0
  3
*D6
  1
*D6
  0
LINE
  5
11A
330
BF
100
AcDbEntity
  8
0
  6
Continuous
 62
     2
370
    13
100
AcDbLine
 10
414.5624999999999
 20
459.0755127178371
 30
0.0
 11
414.5624999999999
 21
549.075512717838
 31
0.0
  0
LINE
  5
11B
330
BF
100
AcDbEntity
  8
0
  6
Continuous
 62
     2
370
    13
100
AcDbLine
 10
180.6325447127304
 20
459.0755127178371
 30
0.0
 11
420.5624999999999
 21
459.0755127178371
 31
0.0
  0
LINE
  5
11C
330
BF
100
AcDbEntity
  8
0
  6
Continuous
 62
     2
370
    13
100
AcDbLine
 10
180.6325447127304
 20
549.075512717838
 30
0.0
 11
420.5624999999999
 21
549.075512717838
 31
0.0
  0
LINE
  5
11D
330
BF
100
AcDbEntity
  8
0
  6
Continuous
 62
     2
370
    13
100
AcDbLine
 10
414.5624999999999
 20
254.94375
 30
0.0
 11
414.5624999999999
 21
459.0755127178371
 31
0.0
  0
INSERT
  5
11E
330
BF
100
AcDbEntity
  8
0
 62
     2
100
AcDbBlockReference
  2
_OPEN30
 10
414.5624999999999
 20
459.0755127178371
 30
0.0
 41
18.00138320357654
 42
18.00097896302553
 50
90.0
  0
LINE
  5
11F
330
BF
100
AcDbEntity
  8
0
  6
Continuous
 62
     2
370
    13
100
AcDbLine
 10
414.5624999999999
 20
579.075512717838
 30
0.0
 11
414.5624999999999
 21
549.075512717838
 31
0.0
  0
INSERT
  5
120
330
BF
100
AcDbEntity
  8
0
 62
     2
100
AcDbBlockReference
  2
_OPEN30
 10
414.5624999999999
 20
549.075512717838
 30
0.0
 41
18.00138320357654
 42
18.00097896302553
 50
270.0
  0
TEXT
  5
121
330
BF
100
AcDbEntity
  8
0
 62
     2
100
AcDbText
 10
408.5624999999999
 20
260.94375
 30
0.0
 40
23.99999999999999
  1
呼び幅(90)
 50
90.0
 41
0.7524454477050411
  7
dcStyle0
 72
     5
 11
408.5624999999999
 21
380.94375
 31
0.0
100
AcDbText
  0
ENDBLK
  5
C1
330
BF
100
AcDbEntity
  8
0
100
AcDbBlockEnd
  0
BLOCK
  5
C3
330
C2
100
AcDbEntity
  8
0
100
AcDbBlockBegin
  2
*D7
 70
     1
 10
0.0
 20
0.0
 30
0.0
  3
*D7
  1
*D7
  0
LINE
  5
122
330
C2
100
AcDbEntity
  8
0
  6
Continuous
 62
     2
370
    13
100
AcDbLine
 10
170.1325447127306
 20
31.62191943798569
 30
0.0
 11
70.89986682931978
 21
203.4979593031917
 31
0.0
  0
LINE
  5
123
330
C2
100
AcDbEntity
  8
0
  6
Continuous
 62
     2
370
    13
100
AcDbLine
 10
-253.3731156243377
 20
-152.8447595651976
 30
0.0
 11
-326.6057935077498
 21
-26.00204069678625
 31
0.0
  0
LINE
  5
124
330
C2
100
AcDbEntity
  8
0
  6
Continuous
 62
     2
370
    13
100
AcDbLine
 10
73.89986682931946
 20
198.3018068804849
 30
0.0
 11
-323.60579350775
 21
-31.19819311949304
 31
0.0
  0
INSERT
  5
125
330
C2
100
AcDbEntity
  8
0
 62
     2
100
AcDbBlockReference
  2
_OPEN30
 10
73.89986682931946
 20
198.3018068804849
 30
0.0
 41
18.00138320357654
 42
18.00097896302553
 50
29.99999999999686
  0
INSERT
  5
126
330
C2
100
AcDbEntity
  8
0
 62
     2
100
AcDbBlockReference
  2
_OPEN30
 10
-323.60579350775
 20
-31.19819311949304
 30
0.0
 41
18.00138320357654
 42
18.00097896302553
 50
209.9999999999968
  0
TEXT
  5
127
330
C2
100
AcDbEntity
  8
0
 62
     2
100
AcDbText
 10
-189.8938844816645
 20
50.85015581175909
 30
0.0
 40
23.99999999999999
  1
実機長(459)
 50
29.99999999999685
 41
0.7403419033517293
  7
dcStyle0
 72
     5
 11
-75.57853118211506
 21
116.8501558117528
 31
0.0
100
AcDbText
  0
ENDBLK
  5
C4
330
C2
100
AcDbEntity
  8
0
100
AcDbBlockEnd
  0
BLOCK
  5
C6
330
C5
100
AcDbEntity
  8
0
100
AcDbBlockBegin
  2
*D8
 70
     1
 10
0.0
 20
0.0
 30
0.0
  3
*D8
  1
*D8
  0
LINE
  5
128
330
C5
100
AcDbEntity
  8
0
  6
Continuous
 62
     2
370
    13
100
AcDbLine
 10
186.3479350218457
 20
-44.46396044206147
 30
0.0
 11
386.5613982893951
 21
71.12933647097155
 31
0.0
  0
LINE
  5
129
330
C5
100
AcDbEntity
  8
0
  6
Continuous
 62
     2
370
    13
100
AcDbLine
 10
225.1876809840367
 20
-131.7363738015653
 30
0.0
 11
434.0613982894329
 21
-11.14307688852551
 31
0.0
  0
LINE
  5
12A
330
C5
100
AcDbEntity
  8
0
  6
Continuous
 62
     2
370
    13
100
AcDbLine
 10
381.3652458666899
 20
68.12933647096911
 30
0.0
 11
428.8652458667276
 21
-14.14307688852796
 31
0.0
  0
INSERT
  5
12B
330
C5
100
AcDbEntity
  8
0
 62
     2
100
AcDbBlockReference
  2
_OPEN30
 10
381.3652458666899
 20
68.12933647096911
 30
0.0
 41
18.00138320357654
 42
18.00097896302553
 50
120.0000000000271
  0
INSERT
  5
12C
330
C5
100
AcDbEntity
  8
0
 62
     2
100
AcDbBlockReference
  2
_OPEN30
 10
428.8652458667276
 20
-14.14307688852796
 30
0.0
 41
18.00138320357654
 42
18.00097896302553
 50
300.0000000000272
  0
TEXT
  5
12D
330
C5
100
AcDbEntity
  8
0
 62
     2
100
AcDbText
 10
395.7191302895994
 20
51.66767936453863
 30
0.0
 40
23.99999999999999
  1
95
 50
300.0000000000272
 41
0.6877579092159558
  7
dcStyle0
 72
     5
 11
407.7191302896092
 21
30.88306967371779
 31
0.0
100
AcDbText
  0
ENDBLK
  5
C7
330
C5
100
AcDbEntity
  8
0
100
AcDbBlockEnd
  0
BLOCK
  5
C9
330
C8
100
AcDbEntity
  8
0
100
AcDbBlockBegin
  2
*D9
 70
     1
 10
0.0
 20
0.0
 30
0.0
  3
*D9
  1
*D9
  0
LINE
  5
12E
330
C8
100
AcDbEntity
  8
0
  6
Continuous
 62
     2
370
    13
100
AcDbLine
 10
479.1749999999999
 20
450.5755127178821
 30
0.0
 11
479.1749999999999
 21
557.5755127178821
 31
0.0
  0
LINE
  5
12F
330
C8
100
AcDbEntity
  8
0
  6
Continuous
 62
     2
370
    13
100
AcDbLine
 10
337.6511813830246
 20
450.5755127178821
 30
0.0
 11
485.1749999999999
 21
450.5755127178821
 31
0.0
  0
LINE
  5
130
330
C8
100
AcDbEntity
  8
0
  6
Continuous
 62
     2
370
    13
100
AcDbLine
 10
337.6511813830246
 20
557.5755127178821
 30
0.0
 11
485.1749999999999
 21
557.5755127178821
 31
0.0
  0
LINE
  5
131
330
C8
100
AcDbEntity
  8
0
  6
Continuous
 62
     2
370
    13
100
AcDbLine
 10
479.1749999999998
 20
103.21875
 30
0.0
 11
479.1749999999999
 21
450.5755127178821
 31
0.0
  0
INSERT
  5
132
330
C8
100
AcDbEntity
  8
0
 62
     2
100
AcDbBlockReference
  2
_OPEN30
 10
479.1749999999999
 20
450.5755127178821
 30
0.0
 41
18.00138320357654
 42
18.00097896302553
 50
89.99999999999999
  0
LINE
  5
133
330
C8
100
AcDbEntity
  8
0
  6
Continuous
 62
     2
370
    13
100
AcDbLine
 10
479.1749999999999
 20
587.5755127178821
 30
0.0
 11
479.1749999999999
 21
557.5755127178821
 31
0.0
  0
INSERT
  5
134
330
C8
100
AcDbEntity
  8
0
 62
     2
100
AcDbBlockReference
  2
_OPEN30
 10
479.1749999999999
 20
557.5755127178821
 30
0.0
 41
18.00138320357654
 42
18.00097896302553
 50
270.0
  0
TEXT
  5
135
330
C8
100
AcDbEntity
  8
0
 62
     2
100
AcDbText
 10
473.1749999999999
 20
109.21875
 30
0.0
 40
23.99999999999999
  1
投入側コンベヤ機幅(107)
 50
90.0
 41
0.7395022828113947
  7
dcStyle0
 72
     5
 11
473.1749999999999
 21
385.2187499999999
 31
0.0
100
AcDbText
  0
ENDBLK
  5
CA
330
C8
100
AcDbEntity
  8
0
100
AcDbBlockEnd
  0
BLOCK
  5
CC
330
CB
100
AcDbEntity
  8
0
100
AcDbBlockBegin
  2
*D10
 70
     1
 10
0.0
 20
0.0
 30
0.0
  3
*D10
  1
*D10
  0
LINE
  5
136
330
CB
100
AcDbEntity
  8
0
  6
Continuous
 62
     2
370
    13
100
AcDbLine
 10
544.4999999999999
 20
399.075512717884
 30
0.0
 11
544.4999999999999
 21
609.0755127178821
 31
0.0
  0
INSERT
  5
137
330
CB
100
AcDbEntity
  8
0
 62
     2
100
AcDbBlockReference
  2
_OPEN30
 10
544.4999999999999
 20
399.075512717884
 30
0.0
 41
18.00138320357654
 42
18.00097896302553
 50
270.0
  0
INSERT
  5
138
330
CB
100
AcDbEntity
  8
0
 62
     2
100
AcDbBlockReference
  2
_OPEN30
 10
544.4999999999999
 20
609.0755127178821
 30
0.0
 41
18.00138320357654
 42
18.00097896302553
 50
90.0
  0
LINE
  5
139
330
CB
100
AcDbEntity
  8
0
  6
Continuous
 62
     2
370
    13
100
AcDbLine
 10
150.6325447126815
 20
399.075512717884
 30
0.0
 11
550.4999999999999
 21
399.075512717884
 31
0.0
  0
LINE
  5
13A
330
CB
100
AcDbEntity
  8
0
  6
Continuous
 62
     2
370
    13
100
AcDbLine
 10
150.6325447126815
 20
609.0755127178821
 30
0.0
 11
550.4999999999999
 21
609.0755127178821
 31
0.0
  0
TEXT
  5
13B
330
CB
100
AcDbEntity
  8
0
 62
     2
100
AcDbText
 10
540.3
 20
454.665816839906
 30
0.0
 40
23.99999999999999
  1
機幅(210)
 50
90.0
 41
0.7531380753138076
  7
dcStyle0
 72
     5
 11
540.3
 21
562.665816839906
 31
0.0
100
AcDbText
  0
ENDBLK
  5
CD
330
CB
100
AcDbEntity
  8
0
100
AcDbBlockEnd
  0
BLOCK
  5
CF
330
CE
100
AcDbEntity
  8
0
100
AcDbBlockBegin
  2
*D11
 70
     1
 10
0.0
 20
0.0
 30
0.0
  3
*D11
  1
*D11
  0
LINE
  5
13C
330
CE
100
AcDbEntity
  8
0
  6
Continuous
 62
     2
370
    13
100
AcDbLine
 10
126.8312745235017
 20
6.621919437989328
 30
0.0
 11
65.20947581063726
 21
113.3540056624665
 31
0.0
  0
LINE
  5
13D
330
CE
100
AcDbEntity
  8
0
  6
Continuous
 62
     2
370
    13
100
AcDbLine
 10
-219.5788869902792
 20
-193.3780805619888
 30
0.0
 11
-281.2006857031438
 21
-86.64599433751134
 31
0.0
  0
LINE
  5
13E
330
CE
100
AcDbEntity
  8
0
  6
Continuous
 62
     2
370
    13
100
AcDbLine
 10
68.20947581063697
 20
108.1578532397597
 30
0.0
 11
-278.2006857031441
 21
-91.84214676021813
 31
0.0
  0
INSERT
  5
13F
330
CE
100
AcDbEntity
  8
0
 62
     2
100
AcDbBlockReference
  2
_OPEN30
 10
68.20947581063697
 20
108.1578532397597
 30
0.0
 41
18.00138320357654
 42
18.00097896302553
 50
29.99999999999683
  0
INSERT
  5
140
330
CE
100
AcDbEntity
  8
0
 62
     2
100
AcDbBlockReference
  2
_OPEN30
 10
-278.2006857031441
 20
-91.84214676021813
 30
0.0
 41
18.00138320357654
 42
18.00097896302553
 50
209.9999999999968
  0
TEXT
  5
141
330
CE
100
AcDbEntity
  8
0
 62
     2
100
AcDbText
 10
-168.2182687965081
 20
-23.49402649186156
 30
0.0
 40
23.99999999999999
  1
呼び機長(400)
 50
29.99999999999685
 41
0.7364604577384997
  7
dcStyle0
 72
     5
 11
-33.11830580613145
 21
54.50597350813098
 31
0.0
100
AcDbText
  0
ENDBLK
  5
D0
330
CE
100
AcDbEntity
  8
0
100
AcDbBlockEnd
  0
BLOCK
  5
D2
330
D1
100
AcDbEntity
  8
0
100
AcDbBlockBegin
  2
DC_GROUP_W_MTS_S_070_1_4
 70
     0
 10
0.0
 20
0.0
 30
0.0
  3
DC_GROUP_W_MTS_S_070_1_4
  1
DC_GROUP_W_MTS_S_070_1_4
  0
TEXT
  5
142
330
D1
100
AcDbEntity
  8
0
 62
     2
100
AcDbText
 10
224.6990592814807
 20
166.7889768154368
 30
0.0
 40
23.99999999999999
  1
30°±15°
 50
321.4491799291349
 41
0.6877579092159559
  7
dcStyle0
 72
     5
 11
318.545742388602
 21
92.00395110980811
 31
0.0
100
AcDbText
  0
LINE
  5
143
330
D1
100
AcDbEntity
  8
0
  6
Continuous
 62
     2
370
    13
100
AcDbLine
 10
313.1018333240113
 20
26.42576701527389
 30
0.0
 11
313.0946736336307
 21
26.32602365041362
 31
0.0
  0
INSERT
  5
144
330
D1
100
AcDbEntity
  8
0
 62
     2
100
AcDbBlockReference
  2
_OPEN30
 10
313.1018333240113
 20
26.42576701527389
 30
0.0
 41
18.00138320357654
 42
18.00097896302553
 50
85.89428675012141
  0
LINE
  5
145
330
D1
100
AcDbEntity
  8
0
  6
Continuous
 62
     2
370
    13
100
AcDbLine
 10
295.1533519770335
 20
93.41041132091198
 30
0.0
 11
295.0972798208504
 21
93.49321176354965
 31
0.0
  0
INSERT
  5
146
330
D1
100
AcDbEntity
  8
0
 62
     2
100
AcDbBlockReference
  2
_OPEN30
 10
295.1533519770335
 20
93.41041132091198
 30
0.0
 41
18.00138320357654
 42
18.00097896302553
 50
304.1057132499091
  0
ARC
  5
147
330
D1
100
AcDbEntity
  8
0
  6
Continuous
 62
     2
370
    13
100
AcDbCircle
 10
179.1325447127335
 20
26.4257670152806
 30
0.0
 40
133.9692886112777
100
AcDbArc
 50
347.6828602504211
 51
72.01486480289438
  0
LINE
  5
148
330
D1
100
AcDbEntity
  8
0
  6
Continuous
 62
     2
370
    13
100
AcDbLine
 10
203.8987732216322
 20
40.72455571170292
 30
0.0
 11
295.1533519770335
 21
93.41041132091198
 31
0.0
  0
LINE
  5
149
330
D1
100
AcDbEntity
  8
0
  6
Continuous
 62
     2
370
    13
100
AcDbLine
 10
219.1286907719414
 20
26.42576701527855
 30
0.0
 11
313.1018333240113
 21
26.42576701527389
 31
0.0
  0
LINE
  5
14A
330
D1
100
AcDbEntity
  8
0
  6
Continuous
 62
     2
370
    13
100
AcDbLine
 10
295.1533519770335
 20
93.41041132091198
 30
0.0
 11
300.3495043997405
 21
96.41041132091163
 31
0.0
  0
LINE
  5
14B
330
D1
100
AcDbEntity
  8
0
  6
Continuous
 62
     2
370
    13
100
AcDbLine
 10
313.1018333240113
 20
26.42576701527389
 30
0.0
 11
319.1018333240113
 21
26.42576701527355
 31
0.0
  0
ENDBLK
  5
D3
330
D1
100
AcDbEntity
  8
0
100
AcDbBlockEnd
  0
BLOCK
  5
D5
330
D4
100
AcDbEntity
  8
0
100
AcDbBlockBegin
  2
DC_GROUP_W_MTS_S_070_1_5
 70
     0
 10
0.0
 20
0.0
 30
0.0
  3
DC_GROUP_W_MTS_S_070_1_5
  1
DC_GROUP_W_MTS_S_070_1_5
  0
LINE
  5
14C
330
D4
100
AcDbEntity
  8
ZUWAKU
  6
Continuous
 62
     7
370
    13
100
AcDbLine
 10
-1182.0
 20
-797.2315400371326
 30
0.0
 11
1182.0
 21
-797.2315400371326
 31
0.0
  0
LINE
  5
14D
330
D4
100
AcDbEntity
  8
ZUWAKU
  6
Continuous
 62
     7
370
    13
100
AcDbLine
 10
1181.999999999997
 20
810.7684599628669
 30
0.0
 11
-1182.0
 21
810.7684599628669
 31
0.0
  0
LINE
  5
14E
330
D4
100
AcDbEntity
  8
ZUWAKU
  6
Continuous
 62
     7
370
    13
100
AcDbLine
 10
1182.0
 20
-797.2315400371326
 30
0.0
 11
1181.999999999997
 21
810.7684599628669
 31
0.0
  0
LINE
  5
14F
330
D4
100
AcDbEntity
  8
ZUWAKU
  6
Continuous
 62
     7
370
    13
100
AcDbLine
 10
-1182.0
 20
810.7684599628669
 30
0.0
 11
-1182.0
 21
-797.2315400371326
 31
0.0
  0
LINE
  5
150
330
D4
100
AcDbEntity
  8
ZUWAKU
  6
Continuous
 62
     4
370
    13
100
AcDbLine
 10
-206.9999999999998
 20
-707.2315400371327
 30
0.0
 11
30.00000000000016
 21
-707.2315400371327
 31
0.0
  0
LINE
  5
151
330
D4
100
AcDbEntity
  8
ZUWAKU
  6
Continuous
 62
     4
370
    13
100
AcDbLine
 10
-1110.0
 20
-677.2315400371327
 30
0.0
 11
-1110.0
 21
-797.2315400371326
 31
0.0
  0
LINE
  5
152
330
D4
100
AcDbEntity
  8
ZUWAKU
  6
Continuous
 62
     4
370
    13
100
AcDbLine
 10
-1182.0
 20
-737.2315400371327
 30
0.0
 11
1182.0
 21
-737.2315400371327
 31
0.0
  0
LINE
  5
153
330
D4
100
AcDbEntity
  8
ZUWAKU
  6
Continuous
 62
     4
370
    13
100
AcDbLine
 10
30.00000000000016
 20
-797.2315400371326
 30
0.0
 11
30.00000000000016
 21
-677.2315400371327
 31
0.0
  0
LINE
  5
154
330
D4
100
AcDbEntity
  8
ZUWAKU
  6
Continuous
 62
     4
370
    13
100
AcDbLine
 10
-206.9999999999998
 20
-797.2315400371326
 30
0.0
 11
-206.9999999999998
 21
-677.2315400371327
 31
0.0
  0
LINE
  5
155
330
D4
100
AcDbEntity
  8
ZUWAKU
  6
Continuous
 62
     4
370
    13
100
AcDbLine
 10
515.9999999999999
 20
-677.2315400371327
 30
0.0
 11
515.9999999999999
 21
-797.2315400371326
 31
0.0
  0
LINE
  5
156
330
D4
100
AcDbEntity
  8
ZUWAKU
  6
Continuous
 62
     4
370
    13
100
AcDbLine
 10
180.0000000000001
 20
-677.2315400371327
 30
0.0
 11
180.0000000000001
 21
-797.2315400371326
 31
0.0
  0
LINE
  5
157
330
D4
100
AcDbEntity
  8
ZUWAKU
  6
Continuous
 62
     4
370
    13
100
AcDbLine
 10
-158.9999999999998
 20
-737.2315400371327
 30
0.0
 11
-158.9999999999998
 21
-797.2315400371326
 31
0.0
  0
LINE
  5
158
330
D4
100
AcDbEntity
  8
ZUWAKU
  6
Continuous
 62
     4
370
    13
100
AcDbLine
 10
-785.9999999999998
 20
-677.2315400371327
 30
0.0
 11
-785.9999999999998
 21
-797.2315400371326
 31
0.0
  0
LINE
  5
159
330
D4
100
AcDbEntity
  8
ZUWAKU
  6
Continuous
 62
     4
370
    13
100
AcDbLine
 10
1182.0
 20
-677.2315400371327
 30
0.0
 11
-1182.0
 21
-677.2315400371327
 31
0.0
  0
LINE
  5
15A
330
D4
100
AcDbEntity
  8
ZUWAKU
  6
Continuous
 62
     4
370
    13
100
AcDbLine
 10
587.9999999999998
 20
-677.2315400371327
 30
0.0
 11
587.9999999999998
 21
-797.2315400371326
 31
0.0
  0
LINE
  5
15B
330
D4
100
AcDbEntity
  8
ZUWAKU
  6
Continuous
 62
     3
370
    13
100
AcDbLine
 10
-1125.0
 20
-722.2315400371327
 30
0.0
 11
-1146.0
 21
-683.2315400371327
 31
0.0
  0
LINE
  5
15C
330
D4
100
AcDbEntity
  8
ZUWAKU
  6
Continuous
 62
     3
370
    13
100
AcDbLine
 10
-1167.0
 20
-722.2315400371327
 30
0.0
 11
-1125.0
 21
-722.2315400371327
 31
0.0
  0
LINE
  5
15D
330
D4
100
AcDbEntity
  8
ZUWAKU
  6
Continuous
 62
     3
370
    13
100
AcDbLine
 10
-1146.0
 20
-683.2315400371327
 30
0.0
 11
-1167.0
 21
-722.2315400371327
 31
0.0
  0
TEXT
  5
15F
330
D4
100
AcDbEntity
  8
ZUWAKU
 62
     2
100
AcDbText
 10
526.8
 20
-791.2315400371326
 30
0.0
 40
20.99999999999998
  1
番号
 41
1.527272727272724
  7
dcStyle1
 72
     5
 11
577.1999999999998
 21
-791.2315400371326
 31
0.0
100
AcDbText
  0
TEXT
  5
160
330
D4
100
AcDbEntity
  8
ZUWAKU
 62
     2
100
AcDbText
 10
-195.5999999999998
 20
-791.2315400371326
 30
0.0
 40
20.99999999999998
  1
度
 41
1.680000000000001
  7
dcStyle1
 72
     5
 11
-170.3999999999998
 21
-791.2315400371326
 31
0.0
100
AcDbText
  0
TEXT
  5
161
330
D4
100
AcDbEntity
  8
ZUWAKU
 62
     2
100
AcDbText
 10
-1168.931531818969
 20
-791.2315400371326
 30
0.0
 40
20.99999999999999
  1
番号
 41
1.272727272727273
  7
dcStyle1
 72
     5
 11
-1126.931531818969
 21
-791.2315400371326
 31
0.0
100
AcDbText
  0
TEXT
  5
162
330
D4
100
AcDbEntity
  8
ZUWAKU
 62
     2
100
AcDbText
 10
51.00000000000016
 20
-719.2315400371327
 30
0.0
 40
23.99999999999999
  1
シリーズ名
 41
1.086206896551724
  7
dcStyle1
 72
     5
 11
159.0000000000001
 21
-719.2315400371327
 31
0.0
100
AcDbText
  0
TEXT
  5
163
330
D4
100
AcDbEntity
  8
ZUWAKU
 62
     2
100
AcDbText
 10
69.00000000000016
 20
-779.2315400371327
 30
0.0
 40
23.99999999999999
  1
機　種
 41
1.235294117647058
  7
dcStyle1
 72
     5
 11
141.0000000000001
 21
-779.2315400371327
 31
0.0
100
AcDbText
  0
TEXT
  5
164
330
D4
100
AcDbEntity
  8
ZUWAKU
 62
     2
100
AcDbText
 10
-1167.0
 20
-764.2315400371327
 30
0.0
 40
20.99999999999999
  1
改訂
 41
1.272727272727273
  7
dcStyle1
 72
     5
 11
-1125.0
 21
-764.2315400371327
 31
0.0
100
AcDbText
  0
TEXT
  5
165
330
D4
100
AcDbEntity
  8
ZUWAKU
 62
     2
100
AcDbText
 10
-1046.7
 20
-777.7315400371327
 30
0.0
 40
20.99999999999998
  1
改　 訂　 記　 事
 41
1.061290322580645
  7
dcStyle1
 72
     5
 11
-849.2999999999998
 21
-777.7315400371327
 31
0.0
100
AcDbText
  0
TEXT
  5
166
330
D4
100
AcDbEntity
  8
ZUWAKU
 62
     2
100
AcDbText
 10
-195.5999999999998
 20
-764.2315400371327
 30
0.0
 40
20.99999999999998
  1
尺
 41
1.680000000000001
  7
dcStyle1
 72
     5
 11
-170.3999999999998
 21
-764.2315400371327
 31
0.0
100
AcDbText
  0
TEXT
  5
167
330
D4
100
AcDbEntity
  8
ZUWAKU
 62
     2
100
AcDbText
 10
-161.9999999999997
 20
-702.7315400371327
 30
0.0
 40
20.99999999999998
  1
年　　月　　日
 41
1.195121951219512
  7
dcStyle1
 72
     5
 11
-14.99999999999986
 21
-702.7315400371327
 31
0.0
100
AcDbText
  0
TEXT
  5
168
330
D4
100
AcDbEntity
  8
ZUWAKU
 62
     2
100
AcDbText
 10
526.8
 20
-764.2315400371327
 30
0.0
 40
20.99999999999998
  1
図面
 41
1.527272727272724
  7
dcStyle1
 72
     5
 11
577.1999999999998
 21
-764.2315400371327
 31
0.0
100
AcDbText
  0
TEXT
  5
169
330
D4
100
AcDbEntity
  8
ZUWAKU
 62
     2
100
AcDbText
 10
527.9999999999999
 20
-719.2315400371327
 30
0.0
 40
23.99999999999999
  1
図名
 41
1.272727272727273
  7
dcStyle1
 72
     5
 11
575.9999999999999
 21
-719.2315400371327
 31
0.0
100
AcDbText
  0
TEXT
  5
16A
330
D4
100
AcDbEntity
  8
ZUWAKU
 62
     7
100
AcDbText
 10
-616.4999999999997
 20
-722.2315400371327
 30
0.0
 40
29.99999999999999
  1
技術情報サービス
 41
1.191489361702128
  7
dcStyle1
 72
     5
 11
-376.4999999999997
 21
-722.2315400371327
 31
0.0
100
AcDbText
  0
TEXT
  5
16B
330
D4
100
AcDbEntity
  8
ZUWAKU
 62
     7
100
AcDbText
 10
-704.0470588235289
 20
-779.2315400371327
 30
0.0
 40
23.99999999999999
  1
MARUYASU KIKAI CO.,LTD.
 41
0.8990281013395451
  7
dcStyle1
 72
     5
 11
-288.9529411764704
 21
-779.2315400371327
 31
0.0
100
AcDbText
  0
TEXT
  5
16C
330
D4
100
AcDbEntity
  8
ZUWAKU
 62
     4
100
AcDbText
 10
1154.739326354214
 20
-810.7684599628669
 30
0.0
 40
12.0
  1
A3
 41
1.2
  7
dcStyle1
 72
     5
 11
1178.739326354214
 21
-810.7684599628669
 31
0.0
100
AcDbText
  0
ENDBLK
  5
D6
330
D4
100
AcDbEntity
  8
0
100
AcDbBlockEnd
  0
BLOCK
  5
D8
330
D7
100
AcDbEntity
  8
0
100
AcDbBlockBegin
  2
DC_GROUP_W_MTS_S_070_1_6
 70
     0
 10
0.0
 20
0.0
 30
0.0
  3
DC_GROUP_W_MTS_S_070_1_6
  1
DC_GROUP_W_MTS_S_070_1_6
  0
POINT
  5
16D
330
D7
100
AcDbEntity
  8
ZUWAKU
  6
Continuous
 62
     2
100
AcDbPoint
 10
348.0
 20
-707.2315400371327
 30
0.0
  0
POINT
  5
16E
330
D7
100
AcDbEntity
  8
ZUWAKU
  6
Continuous
 62
     2
100
AcDbPoint
 10
348.0
 20
-767.2315400371326
 30
0.0
  0
POINT
  5
16F
330
D7
100
AcDbEntity
  8
ZUWAKU
  6
Continuous
 62
     2
100
AcDbPoint
 10
1164.0
 20
-767.2315400371326
 30
0.0
  0
POINT
  5
170
330
D7
100
AcDbEntity
  8
ZUWAKU
  6
Continuous
 62
     2
100
AcDbPoint
 10
884.9999999999998
 20
-707.2315400371327
 30
0.0
  0
POINT
  5
171
330
D7
100
AcDbEntity
  8
ZUWAKU
  6
Continuous
 62
     2
100
AcDbPoint
 10
-64.49999999999982
 20
-767.2315400371326
 30
0.0
  0
ENDBLK
  5
D9
330
D7
100
AcDbEntity
  8
0
100
AcDbBlockEnd
  0
BLOCK
  5
DB
330
DA
100
AcDbEntity
  8
0
100
AcDbBlockBegin
  2
DC_GROUP_W_MTS_S_070_1_7
 70
     0
 10
0.0
 20
0.0
 30
0.0
  3
DC_GROUP_W_MTS_S_070_1_7
  1
DC_GROUP_W_MTS_S_070_1_7
  0
LINE
  5
172
330
DA
100
AcDbEntity
  8
15
  6
DASHED2
 62
     4
370
    13
100
AcDbLine
 10
771.9190265095604
 20
-92.30327793964398
 30
0.0
 11
769.1500000000224
 21
-92.30327793964398
 31
0.0
  0
LINE
  5
173
330
DA
100
AcDbEntity
  8
15
  6
DASHED2
 62
     4
370
    13
100
AcDbLine
 10
771.9190265095604
 20
-93.80327793964398
 30
0.0
 11
770.6500000000224
 21
-93.80327793964398
 31
0.0
  0
LINE
  5
174
330
DA
100
AcDbEntity
  8
15
  6
DASHED2
 62
     4
370
    13
100
AcDbLine
 10
773.9000000000224
 20
-63.87230919607691
 30
0.0
 11
773.9000000000224
 21
-71.87230919607691
 31
0.0
  0
LINE
  5
175
330
DA
100
AcDbEntity
  8
15
  6
DASHED2
 62
     4
370
    13
100
AcDbLine
 10
778.3621778265124
 20
-63.87230919607691
 30
0.0
 11
778.3621778265124
 21
-71.11311981752169
 31
0.0
  0
LINE
  5
176
330
DA
100
AcDbEntity
  8
15
  6
DASHED2
 62
     4
370
    13
100
AcDbLine
 10
769.4378221735292
 20
-63.87230919607691
 30
0.0
 11
769.4378221735292
 21
-71.11311981752169
 31
0.0
  0
LINE
  5
177
330
DA
100
AcDbEntity
  8
15
  6
DASHED2
 62
     4
370
    13
100
AcDbLine
 10
784.4243556530032
 20
-63.87230919607691
 30
0.0
 11
784.4243556530032
 21
-71.11311981752169
 31
0.0
  0
LINE
  5
178
330
DA
100
AcDbEntity
  8
15
  6
DASHED2
 62
     4
370
    13
100
AcDbLine
 10
763.3756443470393
 20
-63.87230919607691
 30
0.0
 11
784.4243556530032
 21
-63.87230919607691
 31
0.0
  0
LINE
  5
179
330
DA
100
AcDbEntity
  8
15
  6
DASHED2
 62
     4
370
    13
100
AcDbLine
 10
763.3756443470393
 20
-71.11311981752169
 30
0.0
 11
763.3756443470393
 21
-63.87230919607691
 31
0.0
  0
LINE
  5
17A
330
DA
100
AcDbEntity
  8
15
  6
DASHED2
 62
     4
370
    13
100
AcDbLine
 10
783.8094010767782
 20
-63.87230919607691
 30
0.0
 11
763.9905989232643
 21
-63.87230919607691
 31
0.0
  0
LINE
  5
17B
330
DA
100
AcDbEntity
  8
15
  6
DASHED2
 62
     4
370
    13
100
AcDbLine
 10
778.6500000000224
 20
-92.3032779396458
 30
0.0
 11
771.9190265095604
 21
-92.30327793964398
 31
0.0
  0
LINE
  5
17C
330
DA
100
AcDbEntity
  8
15
  6
DASHED2
 62
     4
370
    13
100
AcDbLine
 10
770.6500000000224
 20
-93.80327793964398
 30
0.0
 11
769.1500000000224
 21
-92.30327793964398
 31
0.0
  0
LINE
  5
17D
330
DA
100
AcDbEntity
  8
15
  6
DASHED2
 62
     4
370
    13
100
AcDbLine
 10
777.1500000000233
 20
-93.80327793964398
 30
0.0
 11
771.9190265095604
 21
-93.80327793964398
 31
0.0
  0
LINE
  5
17E
330
DA
100
AcDbEntity
  8
15
  6
DASHED2
 62
     4
370
    13
100
AcDbLine
 10
778.6500000000224
 20
-92.3032779396458
 30
0.0
 11
777.1500000000233
 21
-93.80327793964398
 31
0.0
  0
LINE
  5
17F
330
DA
100
AcDbEntity
  8
15
  6
DASHED2
 62
     4
370
    13
100
AcDbLine
 10
763.3756443470393
 20
-79.28716259436328
 30
0.0
 11
763.3756443470393
 21
-78.17230919607664
 31
0.0
  0
LINE
  5
180
330
DA
100
AcDbEntity
  8
15
  6
DASHED2
 62
     4
370
    13
100
AcDbLine
 10
763.3756443470393
 20
-72.0463519729185
 30
0.0
 11
784.4243556530032
 21
-72.0463519729185
 31
0.0
  0
LINE
  5
181
330
DA
100
AcDbEntity
  8
15
  6
DASHED2
 62
     4
370
    13
100
AcDbLine
 10
784.4243556530032
 20
-72.0463519729185
 30
0.0
 11
784.4243556530032
 21
-78.1723091960771
 31
0.0
  0
LINE
  5
182
330
DA
100
AcDbEntity
  8
15
  6
DASHED2
 62
     4
370
    13
100
AcDbLine
 10
769.4378221735292
 20
-72.0463519729185
 30
0.0
 11
769.4378221735292
 21
-78.17230919607687
 31
0.0
  0
LINE
  5
183
330
DA
100
AcDbEntity
  8
15
  6
DASHED2
 62
     4
370
    13
100
AcDbLine
 10
778.3621778265124
 20
-72.0463519729185
 30
0.0
 11
778.3621778265124
 21
-78.1723091960771
 31
0.0
  0
LINE
  5
184
330
DA
100
AcDbEntity
  8
15
  6
DASHED2
 62
     4
370
    13
100
AcDbLine
 10
773.9000000000224
 20
-72.0463519729185
 30
0.0
 11
773.9000000000224
 21
-80.0463519729185
 31
0.0
  0
LINE
  5
185
330
DA
100
AcDbEntity
  8
15
  6
DASHED2
 62
     4
370
    13
100
AcDbLine
 10
784.4243556530032
 20
-78.1723091960771
 30
0.0
 11
784.4243556530032
 21
-79.28716259436328
 31
0.0
  0
LINE
  5
186
330
DA
100
AcDbEntity
  8
15
  6
DASHED2
 62
     4
370
    13
100
AcDbLine
 10
778.3621778265124
 20
-78.1723091960771
 30
0.0
 11
778.3621778265124
 21
-79.28716259436328
 31
0.0
  0
LINE
  5
187
330
DA
100
AcDbEntity
  8
15
  6
DASHED2
 62
     4
370
    13
100
AcDbLine
 10
769.4378221735292
 20
-78.17230919607687
 30
0.0
 11
769.4378221735292
 21
-79.28716259436328
 31
0.0
  0
LINE
  5
188
330
DA
100
AcDbEntity
  8
15
  6
DASHED2
 62
     4
370
    13
100
AcDbLine
 10
763.3756443470393
 20
-78.17230919607664
 30
0.0
 11
763.3756443470393
 21
-72.0463519729185
 31
0.0
  0
ARC
  5
189
330
DA
100
AcDbEntity
  8
15
  6
DASHED2
 62
     4
370
    13
100
AcDbCircle
 10
766.4067332602863
 20
-66.68371421934171
 30
0.0
 40
5.367227771689691
100
AcDbArc
 50
235.6157525319469
 51
304.3842474680171
  0
ARC
  5
18A
330
DA
100
AcDbEntity
  8
15
  6
DASHED2
 62
     4
370
    13
100
AcDbCircle
 10
773.9000000000224
 20
-57.03628502594756
 30
0.0
 40
14.76713610367695
100
AcDbArc
 50
252.412046225997
 51
287.5879537739913
  0
ARC
  5
18B
330
DA
100
AcDbEntity
  8
15
  6
DASHED2
 62
     4
370
    13
100
AcDbCircle
 10
781.3932667397571
 20
-66.6837142193408
 30
0.0
 40
5.367227771689157
100
AcDbArc
 50
235.6157525319724
 51
304.3842474680396
  0
ARC
  5
18C
330
DA
100
AcDbEntity
  8
15
  6
DASHED2
 62
     4
370
    13
100
AcDbCircle
 10
781.3932667397571
 20
-74.85775699618239
 30
0.0
 40
5.367227771689157
100
AcDbArc
 50
235.6157525319724
 51
304.3842474680396
  0
ARC
  5
18D
330
DA
100
AcDbEntity
  8
15
  6
DASHED2
 62
     4
370
    13
100
AcDbCircle
 10
773.9000000000224
 20
-65.21032780278915
 30
0.0
 40
14.76713610367695
100
AcDbArc
 50
252.412046225997
 51
287.5879537739913
  0
ARC
  5
18E
330
DA
100
AcDbEntity
  8
15
  6
DASHED2
 62
     4
370
    13
100
AcDbCircle
 10
766.4067332602863
 20
-74.8577569961833
 30
0.0
 40
5.367227771689691
100
AcDbArc
 50
235.6157525319469
 51
304.3842474680171
  0
LINE
  5
18F
330
DA
100
AcDbEntity
  8
15
  6
DASHED2
 62
     4
370
    13
100
AcDbLine
 10
778.6500000000217
 20
-80.22498476787177
 30
0.0
 11
778.6500000000224
 21
-92.3032779396458
 31
0.0
  0
LINE
  5
190
330
DA
100
AcDbEntity
  8
15
  6
DASHED2
 62
     4
370
    13
100
AcDbLine
 10
777.8380000000211
 20
-80.224984767872
 30
0.0
 11
777.8380000000211
 21
-93.11527793964387
 31
0.0
  0
LINE
  5
191
330
DA
100
AcDbEntity
  8
15
  6
DASHED2
 62
     4
370
    13
100
AcDbLine
 10
769.9620000000214
 20
-93.11527793964387
 30
0.0
 11
769.9620000000214
 21
-80.22498476787268
 31
0.0
  0
LINE
  5
192
330
DA
100
AcDbEntity
  8
15
  6
DASHED2
 62
     4
370
    13
100
AcDbLine
 10
769.1500000000224
 20
-92.30327793964398
 30
0.0
 11
769.1500000000224
 21
-80.22498476787268
 31
0.0
  0
LINE
  5
193
330
DA
100
AcDbEntity
  8
15
  6
Continuous
 62
     7
370
    13
100
AcDbLine
 10
769.1500000000224
 20
-12.82230919607673
 30
0.0
 11
778.6500000000201
 21
-12.82230919607673
 31
0.0
  0
LINE
  5
194
330
DA
100
AcDbEntity
  8
15
  6
Continuous
 62
     7
370
    13
100
AcDbLine
 10
778.6500000000201
 20
-25.22230919607773
 30
0.0
 11
769.1500000000224
 21
-25.22230919607773
 31
0.0
  0
LINE
  5
195
330
DA
100
AcDbEntity
  8
15
  6
Continuous
 62
     7
370
    13
100
AcDbLine
 10
778.6500000000201
 20
-12.82230919607673
 30
0.0
 11
778.6500000000192
 21
-38.57230919607582
 31
0.0
  0
LINE
  5
196
330
DA
100
AcDbEntity
  8
15
  6
Continuous
 62
     7
370
    13
100
AcDbLine
 10
769.1500000000224
 20
-38.57230919607673
 30
0.0
 11
769.1500000000224
 21
-12.82230919607673
 31
0.0
  0
LINE
  5
197
330
DA
100
AcDbEntity
  8
15
  6
CENTERX2
 62
     3
370
    13
100
AcDbLine
 10
773.9000000000224
 20
-93.8032779396458
 30
0.0
 11
773.9000000000224
 21
-12.82230919607673
 31
0.0
  0
LINE
  5
198
330
DA
100
AcDbEntity
  8
15
  6
Continuous
 62
     3
370
    13
100
AcDbLine
 10
769.9620000000214
 20
-25.22230919607773
 30
0.0
 11
769.1500000000224
 21
-23.81588394033042
 31
0.0
  0
LINE
  5
199
330
DA
100
AcDbEntity
  8
15
  6
Continuous
 62
     3
370
    13
100
AcDbLine
 10
777.8380000000211
 20
-25.22230919607773
 30
0.0
 11
777.8380000000211
 21
-38.57230919607582
 31
0.0
  0
LINE
  5
19A
330
DA
100
AcDbEntity
  8
15
  6
Continuous
 62
     3
370
    13
100
AcDbLine
 10
778.6500000000201
 20
-23.81588394033042
 30
0.0
 11
777.8380000000211
 21
-25.22230919607773
 31
0.0
  0
LINE
  5
19B
330
DA
100
AcDbEntity
  8
15
  6
Continuous
 62
     3
370
    13
100
AcDbLine
 10
769.9620000000214
 20
-38.57230919607628
 30
0.0
 11
769.9620000000214
 21
-25.22230919607773
 31
0.0
  0
INSERT
  5
19C
330
DA
100
AcDbEntity
  8
15
  6
Continuous
100
AcDbBlockReference
  2
DC_GROUP_W_MTS_S_070_1_8
 10
0.0
 20
0.0
 30
0.0
  0
ENDBLK
  5
DC
330
DA
100
AcDbEntity
  8
0
100
AcDbBlockEnd
  0
BLOCK
  5
DE
330
DD
100
AcDbEntity
  8
0
100
AcDbBlockBegin
  2
DC_GROUP_W_MTS_S_070_1_8
 70
     0
 10
0.0
 20
0.0
 30
0.0
  3
DC_GROUP_W_MTS_S_070_1_8
  1
DC_GROUP_W_MTS_S_070_1_8
  0
LINE
  5
19D
330
DD
100
AcDbEntity
  8
15
  6
DASHED2
 62
     4
370
    13
100
AcDbLine
 10
764.7000000000223
 20
-63.87230919607691
 30
0.0
 11
764.7000000000223
 21
-61.37230919607691
 31
0.0
  0
LINE
  5
19E
330
DD
100
AcDbEntity
  8
15
  6
DASHED2
 62
     4
370
    13
100
AcDbLine
 10
783.1000000000224
 20
-61.37230919607691
 30
0.0
 11
783.1000000000224
 21
-63.87230919607691
 31
0.0
  0
LINE
  5
19F
330
DD
100
AcDbEntity
  8
15
  6
DASHED2
 62
     4
370
    13
100
AcDbLine
 10
764.7000000000223
 20
-63.87230919607691
 30
0.0
 11
783.1000000000224
 21
-63.87230919607691
 31
0.0
  0
LINE
  5
1A0
330
DD
100
AcDbEntity
  8
15
  6
DASHED2
 62
     4
370
    13
100
AcDbLine
 10
773.9000000000224
 20
-63.87230919607691
 30
0.0
 11
773.2301270189446
 21
-61.37230919607691
 31
0.0
  0
LINE
  5
1A1
330
DD
100
AcDbEntity
  8
15
  6
DASHED2
 62
     4
370
    13
100
AcDbLine
 10
774.5698729811002
 20
-63.87230919607691
 30
0.0
 11
773.9000000000224
 21
-61.37230919607691
 31
0.0
  0
LINE
  5
1A2
330
DD
100
AcDbEntity
  8
15
  6
DASHED2
 62
     4
370
    13
100
AcDbLine
 10
763.4000000000224
 20
-61.37230919607691
 30
0.0
 11
784.4000000000224
 21
-61.37230919607691
 31
0.0
  0
LINE
  5
1A3
330
DD
100
AcDbEntity
  8
15
  6
DASHED2
 62
     4
370
    13
100
AcDbLine
 10
784.4000000000224
 20
-61.17230919607709
 30
0.0
 11
784.4000000000224
 21
-61.37230919607691
 31
0.0
  0
LINE
  5
1A4
330
DD
100
AcDbEntity
  8
15
  6
DASHED2
 62
     4
370
    13
100
AcDbLine
 10
763.4000000000224
 20
-61.37230919607691
 30
0.0
 11
763.4000000000224
 21
-61.17230919607687
 31
0.0
  0
LINE
  5
1A5
330
DD
100
AcDbEntity
  8
15
  6
Continuous
 62
     7
370
    13
100
AcDbLine
 10
763.4000000000224
 20
-59.37230919607691
 30
0.0
 11
784.4000000000224
 21
-59.37230919607691
 31
0.0
  0
LINE
  5
1A6
330
DD
100
AcDbEntity
  8
15
  6
Continuous
 62
     7
370
    13
100
AcDbLine
 10
784.4000000000224
 20
-59.37230919607691
 30
0.0
 11
784.4000000000224
 21
-61.17230919607709
 31
0.0
  0
LINE
  5
1A7
330
DD
100
AcDbEntity
  8
15
  6
Continuous
 62
     7
370
    13
100
AcDbLine
 10
763.4000000000224
 20
-61.17230919607687
 30
0.0
 11
763.4000000000224
 21
-59.37230919607691
 31
0.0
  0
LINE
  5
1A8
330
DD
100
AcDbEntity
  8
15
  6
CENTERX2
 62
     3
370
    13
100
AcDbLine
 10
773.9000000000224
 20
-55.17230919607709
 30
0.0
 11
773.9000000000224
 21
-76.07230919607696
 31
0.0
  0
ENDBLK
  5
DF
330
DD
100
AcDbEntity
  8
0
100
AcDbBlockEnd
  0
BLOCK
  5
E1
330
E0
100
AcDbEntity
  8
0
100
AcDbBlockBegin
  2
DC_GROUP_W_MTS_S_070_1_9
 70
     0
 10
0.0
 20
0.0
 30
0.0
  3
DC_GROUP_W_MTS_S_070_1_9
  1
DC_GROUP_W_MTS_S_070_1_9
  0
LINE
  5
1A9
330
E0
100
AcDbEntity
  8
15
  6
Continuous
 62
     7
370
    13
100
AcDbLine
 10
763.9000000000224
 20
-44.37230919607691
 30
0.0
 11
763.9000000000278
 21
-59.37230919607691
 31
0.0
  0
LINE
  5
1AA
330
E0
100
AcDbEntity
  8
15
  6
Continuous
 62
     7
370
    13
100
AcDbLine
 10
783.9000000000224
 20
-59.37230919607691
 30
0.0
 11
783.9000000000278
 21
-44.37230919607691
 31
0.0
  0
LINE
  5
1AB
330
E0
100
AcDbEntity
  8
15
  6
Continuous
 62
     7
370
    13
100
AcDbLine
 10
763.9000000000224
 20
-44.37230919607691
 30
0.0
 11
783.9000000000224
 21
-44.37230919607691
 31
0.0
  0
LINE
  5
1AC
330
E0
100
AcDbEntity
  8
15
  6
Continuous
 62
     7
370
    13
100
AcDbLine
 10
763.9000000000278
 20
-59.37230919607691
 30
0.0
 11
783.9000000000224
 21
-59.37230919607691
 31
0.0
  0
ENDBLK
  5
E2
330
E0
100
AcDbEntity
  8
0
100
AcDbBlockEnd
  0
BLOCK
  5
E4
330
E3
100
AcDbEntity
  8
0
100
AcDbBlockBegin
  2
DC_GROUP_W_MTS_S_070_1_10
 70
     0
 10
0.0
 20
0.0
 30
0.0
  3
DC_GROUP_W_MTS_S_070_1_10
  1
DC_GROUP_W_MTS_S_070_1_10
  0
LINE
  5
1AD
330
E3
100
AcDbEntity
  8
15
  6
Continuous
 62
     7
370
    13
100
AcDbLine
 10
-106.7670926154968
 20
-272.7349576880661
 30
0.0
 11
-109.1651399165092
 21
-274.1194709428351
 31
0.0
  0
LINE
  5
1AE
330
E3
100
AcDbEntity
  8
15
  6
Continuous
 62
     7
370
    13
100
AcDbLine
 10
-106.0170926154968
 20
-274.0339957937426
 30
0.0
 11
-107.1161018108327
 21
-274.6685090485116
 31
0.0
  0
LINE
  5
1AF
330
E3
100
AcDbEntity
  8
15
  6
Continuous
 62
     7
370
    13
100
AcDbLine
 10
-115.4026442663727
 20
-244.8914408434596
 30
0.0
 11
-111.7822389556503
 21
-251.162166785623
 31
0.0
  0
LINE
  5
1B0
330
E3
100
AcDbEntity
  8
15
  6
Continuous
 62
     7
370
    13
100
AcDbLine
 10
-123.1313629742634
 20
-249.3536186699512
 30
0.0
 11
-119.510957663541
 21
-255.6243446121146
 31
0.0
  0
LINE
  5
1B1
330
E3
100
AcDbEntity
  8
15
  6
Continuous
 62
     7
370
    13
100
AcDbLine
 10
-110.1526442663729
 20
-241.8603519302142
 30
0.0
 11
-106.5322389556505
 21
-248.1310778723775
 31
0.0
  0
LINE
  5
1B2
330
E3
100
AcDbEntity
  8
15
  6
Continuous
 62
     7
370
    13
100
AcDbLine
 10
-128.3813629742626
 20
-252.3847075831961
 30
0.0
 11
-110.1526442663729
 21
-241.8603519302142
 31
0.0
  0
LINE
  5
1B3
330
E3
100
AcDbEntity
  8
15
  6
Continuous
 62
     7
370
    13
100
AcDbLine
 10
-124.7609576635401
 20
-258.6554335253595
 30
0.0
 11
-128.3813629742626
 21
-252.3847075831961
 31
0.0
  0
LINE
  5
1B4
330
E3
100
AcDbEntity
  8
15
  6
Continuous
 62
     7
370
    13
100
AcDbLine
 10
-110.6852105515574
 20
-242.1678292183267
 30
0.0
 11
-127.8487966890781
 21
-252.0772302950836
 31
0.0
  0
LINE
  5
1B5
330
E3
100
AcDbEntity
  8
15
  6
Continuous
 62
     7
370
    13
100
AcDbLine
 10
-100.9378985805562
 20
-269.3694709428364
 30
0.0
 11
-106.7670926154968
 21
-272.7349576880661
 31
0.0
  0
LINE
  5
1B6
330
E3
100
AcDbEntity
  8
15
  6
Continuous
 62
     7
370
    13
100
AcDbLine
 10
-107.1161018108327
 20
-274.6685090485116
 30
0.0
 11
-109.1651399165092
 21
-274.1194709428351
 31
0.0
  0
LINE
  5
1B7
330
E3
100
AcDbEntity
  8
15
  6
Continuous
 62
     7
370
    13
100
AcDbLine
 10
-101.486936686233
 20
-271.4185090485112
 30
0.0
 11
-106.0170926154968
 21
-274.0339957937426
 31
0.0
  0
LINE
  5
1B8
330
E3
100
AcDbEntity
  8
15
  6
Continuous
 62
     7
370
    13
100
AcDbLine
 10
-100.9378985805562
 20
-269.3694709428364
 30
0.0
 11
-101.486936686233
 21
-271.4185090485112
 31
0.0
  0
LINE
  5
1B9
330
E3
100
AcDbEntity
  8
15
  6
Continuous
 62
     7
370
    13
100
AcDbLine
 10
-106.5981891631367
 20
-249.2467579146921
 30
0.0
 11
-123.7617753006574
 21
-259.156158991449
 31
0.0
  0
LINE
  5
1BA
330
E3
100
AcDbEntity
  8
15
  6
Continuous
 62
     7
370
    13
100
AcDbLine
 10
-120.6739362751194
 20
-265.734362221725
 30
0.0
 11
-121.2313629742627
 21
-264.7688708573132
 31
0.0
  0
LINE
  5
1BB
330
E3
100
AcDbEntity
  8
15
  6
Continuous
 62
     7
370
    13
100
AcDbLine
 10
-124.2943415858418
 20
-259.4636362795616
 30
0.0
 11
-106.0656228779523
 21
-248.9392806265796
 31
0.0
  0
LINE
  5
1BC
330
E3
100
AcDbEntity
  8
15
  6
Continuous
 62
     7
370
    13
100
AcDbLine
 10
-106.0656228779523
 20
-248.9392806265796
 30
0.0
 11
-103.0026442663728
 21
-254.2445152043317
 31
0.0
  0
LINE
  5
1BD
330
E3
100
AcDbEntity
  8
15
  6
Continuous
 62
     7
370
    13
100
AcDbLine
 10
-119.0443415858427
 20
-256.4325473663166
 30
0.0
 11
-115.9813629742633
 21
-261.7377819440685
 31
0.0
  0
LINE
  5
1BE
330
E3
100
AcDbEntity
  8
15
  6
Continuous
 62
     7
370
    13
100
AcDbLine
 10
-111.315622877952
 20
-251.970369539825
 30
0.0
 11
-108.2526442663726
 21
-257.2756041175771
 31
0.0
  0
LINE
  5
1BF
330
E3
100
AcDbEntity
  8
15
  6
Continuous
 62
     7
370
    13
100
AcDbLine
 10
-103.0026442663728
 20
-254.2445152043317
 30
0.0
 11
-102.4452175672299
 21
-255.210006568743
 31
0.0
  0
LINE
  5
1C0
330
E3
100
AcDbEntity
  8
15
  6
Continuous
 62
     7
370
    13
100
AcDbLine
 10
-108.2526442663726
 20
-257.2756041175771
 30
0.0
 11
-107.6952175672296
 21
-258.2410954819884
 31
0.0
  0
LINE
  5
1C1
330
E3
100
AcDbEntity
  8
15
  6
Continuous
 62
     7
370
    13
100
AcDbLine
 10
-115.9813629742633
 20
-261.7377819440685
 30
0.0
 11
-115.4239362751204
 21
-262.70327330848
 31
0.0
  0
LINE
  5
1C2
330
E3
100
AcDbEntity
  8
15
  6
Continuous
 62
     7
370
    13
100
AcDbLine
 10
-121.2313629742627
 20
-264.7688708573132
 30
0.0
 11
-124.2943415858418
 21
-259.4636362795616
 31
0.0
  0
ARC
  5
1C3
330
E3
100
AcDbEntity
  8
15
  6
Continuous
 62
     7
370
    13
100
AcDbCircle
 10
-124.3506604626288
 20
-253.3039112970471
 30
0.0
 40
5.367227771689694
100
AcDbArc
 50
265.6157525319469
 51
334.3842474680171
  0
ARC
  5
1C4
330
E3
100
AcDbEntity
  8
15
  6
Continuous
 62
     7
370
    13
100
AcDbCircle
 10
-122.6850157053815
 20
-241.2023591644881
 30
0.0
 40
14.76713610367697
100
AcDbArc
 50
282.412046225997
 51
317.5879537739913
  0
ARC
  5
1C5
330
E3
100
AcDbEntity
  8
15
  6
Continuous
 62
     7
370
    13
100
AcDbCircle
 10
-111.3719417547414
 20
-245.8106445573108
 30
0.0
 40
5.36722777168916
100
AcDbArc
 50
265.6157525319724
 51
334.3842474680396
  0
ARC
  5
1C6
330
E3
100
AcDbEntity
  8
15
  6
Continuous
 62
     7
370
    13
100
AcDbCircle
 10
-107.2849203663208
 20
-252.8895732536762
 30
0.0
 40
5.36722777168916
100
AcDbArc
 50
265.6157525319724
 51
334.3842474680396
  0
ARC
  5
1C7
330
E3
100
AcDbEntity
  8
15
  6
Continuous
 62
     7
370
    13
100
AcDbCircle
 10
-118.5979943169608
 20
-248.2812878608536
 30
0.0
 40
14.76713610367697
100
AcDbArc
 50
282.412046225997
 51
317.5879537739913
  0
ARC
  5
1C8
330
E3
100
AcDbEntity
  8
15
  6
Continuous
 62
     7
370
    13
100
AcDbCircle
 10
-120.2636390742081
 20
-260.3828399934125
 30
0.0
 40
5.367227771689694
100
AcDbArc
 50
265.6157525319469
 51
334.3842474680171
  0
LINE
  5
1C9
330
E3
100
AcDbEntity
  8
15
  6
Continuous
 62
     7
370
    13
100
AcDbLine
 10
-104.6013042078908
 20
-257.5377327999593
 30
0.0
 11
-117.5897637328156
 21
-265.0140770702069
 31
0.0
  0
LINE
  5
1CA
330
E3
100
AcDbEntity
  8
15
  6
Continuous
 62
     7
370
    13
100
AcDbLine
 10
-100.9378985805562
 20
-269.3694709428364
 30
0.0
 11
-106.9788299693004
 21
-258.906270852495
 31
0.0
  0
LINE
  5
1CB
330
E3
100
AcDbEntity
  8
15
  6
Continuous
 62
     7
370
    13
100
AcDbLine
 10
-101.2351112084312
 20
-270.4786835707084
 30
0.0
 11
-107.6825715684964
 21
-259.3113546472891
 31
0.0
  0
LINE
  5
1CC
330
E3
100
AcDbEntity
  8
15
  6
Continuous
 62
     7
370
    13
100
AcDbLine
 10
-108.0559272886372
 20
-274.4166835707085
 30
0.0
 11
-114.508518409954
 21
-263.2404679081199
 31
0.0
  0
LINE
  5
1CD
330
E3
100
AcDbEntity
  8
15
  6
Continuous
 62
     7
370
    13
100
AcDbLine
 10
-109.1651399165092
 20
-274.1194709428351
 30
0.0
 11
-115.2122600091485
 21
-263.6455517029128
 31
0.0
  0
LINE
  5
1CE
330
E3
100
AcDbEntity
  8
15
  6
CENTERX2
 62
     3
370
    13
100
AcDbLine
 10
-119.2670036203168
 20
-247.1225297567046
 30
0.0
 11
-115.2670036203168
 21
-254.0507329869799
 31
0.0
  0
INSERT
  5
1CF
330
E3
100
AcDbEntity
  8
15
  6
Continuous
100
AcDbBlockReference
  2
DC_GROUP_W_MTS_S_070_1_11
 10
0.0
 20
0.0
 30
0.0
  0
ENDBLK
  5
E5
330
E3
100
AcDbEntity
  8
0
100
AcDbBlockEnd
  0
BLOCK
  5
E7
330
E6
100
AcDbEntity
  8
0
100
AcDbBlockBegin
  2
DC_GROUP_W_MTS_S_070_1_11
 70
     0
 10
0.0
 20
0.0
 30
0.0
  3
DC_GROUP_W_MTS_S_070_1_11
  1
DC_GROUP_W_MTS_S_070_1_11
  0
LINE
  5
1D0
330
E6
100
AcDbEntity
  8
15
  6
Continuous
 62
     7
370
    13
100
AcDbLine
 10
-127.2344373351336
 20
-251.7225297567045
 30
0.0
 11
-128.4844373351336
 21
-249.5574662472434
 31
0.0
  0
LINE
  5
1D1
330
E6
100
AcDbEntity
  8
15
  6
Continuous
 62
     7
370
    13
100
AcDbLine
 10
-112.5495699054999
 20
-240.3574662472433
 30
0.0
 11
-111.2995699054999
 21
-242.5225297567044
 31
0.0
  0
LINE
  5
1D2
330
E6
100
AcDbEntity
  8
15
  6
Continuous
 62
     7
370
    13
100
AcDbLine
 10
-127.2344373351336
 20
-251.7225297567045
 30
0.0
 11
-111.2995699054999
 21
-242.5225297567044
 31
0.0
  0
LINE
  5
1D3
330
E6
100
AcDbEntity
  8
15
  6
Continuous
 62
     7
370
    13
100
AcDbLine
 10
-119.2670036203168
 20
-247.1225297567046
 30
0.0
 11
-121.097130639239
 21
-245.2924027377824
 31
0.0
  0
LINE
  5
1D4
330
E6
100
AcDbEntity
  8
15
  6
Continuous
 62
     7
370
    13
100
AcDbLine
 10
-118.6868766013946
 20
-246.7875932661657
 30
0.0
 11
-120.5170036203168
 21
-244.9574662472435
 31
0.0
  0
LINE
  5
1D5
330
E6
100
AcDbEntity
  8
15
  6
Continuous
 62
     7
370
    13
100
AcDbLine
 10
-129.6102703600533
 20
-250.2074662472435
 30
0.0
 11
-130.6102703600533
 21
-248.4754154396746
 31
0.0
  0
LINE
  5
1D6
330
E6
100
AcDbEntity
  8
15
  6
Continuous
 62
     7
370
    13
100
AcDbLine
 10
-130.6102703600533
 20
-248.4754154396746
 30
0.0
 11
-112.4237368805801
 21
-237.9754154396746
 31
0.0
  0
LINE
  5
1D7
330
E6
100
AcDbEntity
  8
15
  6
Continuous
 62
     7
370
    13
100
AcDbLine
 10
-112.4237368805801
 20
-237.9754154396746
 30
0.0
 11
-111.4237368805801
 21
-239.7074662472435
 31
0.0
  0
LINE
  5
1D8
330
E6
100
AcDbEntity
  8
15
  6
Continuous
 62
     7
370
    13
100
AcDbLine
 10
-129.6102703600533
 20
-250.2074662472435
 30
0.0
 11
-111.4237368805801
 21
-239.7074662472435
 31
0.0
  0
ENDBLK
  5
E8
330
E6
100
AcDbEntity
  8
0
100
AcDbBlockEnd
  0
BLOCK
  5
EA
330
E9
100
AcDbEntity
  8
0
100
AcDbBlockBegin
  2
DC_GROUP_W_MTS_S_070_1_12
 70
     0
 10
0.0
 20
0.0
 30
0.0
  3
DC_GROUP_W_MTS_S_070_1_12
  1
DC_GROUP_W_MTS_S_070_1_12
  0
LINE
  5
1D9
330
E9
100
AcDbEntity
  8
15
  6
Continuous
 62
     7
370
    13
100
AcDbLine
 10
-137.6772576581613
 20
-235.235034382908
 30
0.0
 11
-130.1772576581567
 21
-248.2254154396719
 31
0.0
  0
LINE
  5
1DA
330
E9
100
AcDbEntity
  8
15
  6
Continuous
 62
     7
370
    13
100
AcDbLine
 10
-112.8567495824724
 20
-238.2254154396746
 30
0.0
 11
-120.3567495824678
 21
-225.2350343829053
 31
0.0
  0
LINE
  5
1DB
330
E9
100
AcDbEntity
  8
15
  6
Continuous
 62
     7
370
    13
100
AcDbLine
 10
-137.6772576581613
 20
-235.235034382908
 30
0.0
 11
-120.3567495824724
 21
-225.235034382908
 31
0.0
  0
LINE
  5
1DC
330
E9
100
AcDbEntity
  8
15
  6
Continuous
 62
     7
370
    13
100
AcDbLine
 10
-130.1772576581567
 20
-248.2254154396719
 30
0.0
 11
-112.8567495824688
 21
-238.225415439681
 31
0.0
  0
ENDBLK
  5
EB
330
E9
100
AcDbEntity
  8
0
100
AcDbBlockEnd
  0
BLOCK
  5
ED
330
EC
100
AcDbEntity
  8
0
100
AcDbBlockBegin
  2
DC_GROUP_W_MTS_S_070_1_13
 70
     0
 10
0.0
 20
0.0
 30
0.0
  3
DC_GROUP_W_MTS_S_070_1_13
  1
DC_GROUP_W_MTS_S_070_1_13
  0
LINE
  5
1DD
330
EC
100
AcDbEntity
  8
15
  6
DASHED2
 62
     4
370
    13
100
AcDbLine
 10
626.8809734904444
 20
-92.30327793964398
 30
0.0
 11
629.6499999999824
 21
-92.30327793964398
 31
0.0
  0
LINE
  5
1DE
330
EC
100
AcDbEntity
  8
15
  6
DASHED2
 62
     4
370
    13
100
AcDbLine
 10
626.8809734904444
 20
-93.80327793964398
 30
0.0
 11
628.1499999999824
 21
-93.80327793964398
 31
0.0
  0
LINE
  5
1DF
330
EC
100
AcDbEntity
  8
15
  6
DASHED2
 62
     4
370
    13
100
AcDbLine
 10
624.8999999999824
 20
-63.87230919607691
 30
0.0
 11
624.8999999999824
 21
-71.87230919607691
 31
0.0
  0
LINE
  5
1E0
330
EC
100
AcDbEntity
  8
15
  6
DASHED2
 62
     4
370
    13
100
AcDbLine
 10
620.4378221734923
 20
-63.87230919607691
 30
0.0
 11
620.4378221734923
 21
-71.11311981752169
 31
0.0
  0
LINE
  5
1E1
330
EC
100
AcDbEntity
  8
15
  6
DASHED2
 62
     4
370
    13
100
AcDbLine
 10
629.3621778264755
 20
-63.87230919607691
 30
0.0
 11
629.3621778264755
 21
-71.11311981752169
 31
0.0
  0
LINE
  5
1E2
330
EC
100
AcDbEntity
  8
15
  6
DASHED2
 62
     4
370
    13
100
AcDbLine
 10
614.3756443470015
 20
-63.87230919607691
 30
0.0
 11
614.3756443470015
 21
-71.11311981752169
 31
0.0
  0
LINE
  5
1E3
330
EC
100
AcDbEntity
  8
15
  6
DASHED2
 62
     4
370
    13
100
AcDbLine
 10
635.4243556529655
 20
-63.87230919607691
 30
0.0
 11
614.3756443470015
 21
-63.87230919607691
 31
0.0
  0
LINE
  5
1E4
330
EC
100
AcDbEntity
  8
15
  6
DASHED2
 62
     4
370
    13
100
AcDbLine
 10
635.4243556529655
 20
-71.11311981752169
 30
0.0
 11
635.4243556529655
 21
-63.87230919607691
 31
0.0
  0
LINE
  5
1E5
330
EC
100
AcDbEntity
  8
15
  6
DASHED2
 62
     4
370
    13
100
AcDbLine
 10
614.9905989232266
 20
-63.87230919607691
 30
0.0
 11
634.8094010767404
 21
-63.87230919607691
 31
0.0
  0
LINE
  5
1E6
330
EC
100
AcDbEntity
  8
15
  6
DASHED2
 62
     4
370
    13
100
AcDbLine
 10
620.1499999999824
 20
-92.3032779396458
 30
0.0
 11
626.8809734904444
 21
-92.30327793964398
 31
0.0
  0
LINE
  5
1E7
330
EC
100
AcDbEntity
  8
15
  6
DASHED2
 62
     4
370
    13
100
AcDbLine
 10
628.1499999999824
 20
-93.80327793964398
 30
0.0
 11
629.6499999999824
 21
-92.30327793964398
 31
0.0
  0
LINE
  5
1E8
330
EC
100
AcDbEntity
  8
15
  6
DASHED2
 62
     4
370
    13
100
AcDbLine
 10
621.6499999999814
 20
-93.80327793964398
 30
0.0
 11
626.8809734904444
 21
-93.80327793964398
 31
0.0
  0
LINE
  5
1E9
330
EC
100
AcDbEntity
  8
15
  6
DASHED2
 62
     4
370
    13
100
AcDbLine
 10
620.1499999999824
 20
-92.3032779396458
 30
0.0
 11
621.6499999999814
 21
-93.80327793964398
 31
0.0
  0
LINE
  5
1EA
330
EC
100
AcDbEntity
  8
15
  6
DASHED2
 62
     4
370
    13
100
AcDbLine
 10
635.4243556529655
 20
-79.28716259436328
 30
0.0
 11
635.4243556529655
 21
-78.17230919607664
 31
0.0
  0
LINE
  5
1EB
330
EC
100
AcDbEntity
  8
15
  6
DASHED2
 62
     4
370
    13
100
AcDbLine
 10
635.4243556529655
 20
-72.0463519729185
 30
0.0
 11
614.3756443470015
 21
-72.0463519729185
 31
0.0
  0
LINE
  5
1EC
330
EC
100
AcDbEntity
  8
15
  6
DASHED2
 62
     4
370
    13
100
AcDbLine
 10
614.3756443470015
 20
-72.0463519729185
 30
0.0
 11
614.3756443470015
 21
-78.1723091960771
 31
0.0
  0
LINE
  5
1ED
330
EC
100
AcDbEntity
  8
15
  6
DASHED2
 62
     4
370
    13
100
AcDbLine
 10
629.3621778264755
 20
-72.0463519729185
 30
0.0
 11
629.3621778264755
 21
-78.17230919607687
 31
0.0
  0
LINE
  5
1EE
330
EC
100
AcDbEntity
  8
15
  6
DASHED2
 62
     4
370
    13
100
AcDbLine
 10
620.4378221734923
 20
-72.0463519729185
 30
0.0
 11
620.4378221734923
 21
-78.1723091960771
 31
0.0
  0
LINE
  5
1EF
330
EC
100
AcDbEntity
  8
15
  6
DASHED2
 62
     4
370
    13
100
AcDbLine
 10
624.8999999999824
 20
-72.0463519729185
 30
0.0
 11
624.8999999999824
 21
-80.0463519729185
 31
0.0
  0
LINE
  5
1F0
330
EC
100
AcDbEntity
  8
15
  6
DASHED2
 62
     4
370
    13
100
AcDbLine
 10
614.3756443470015
 20
-78.1723091960771
 30
0.0
 11
614.3756443470015
 21
-79.28716259436328
 31
0.0
  0
LINE
  5
1F1
330
EC
100
AcDbEntity
  8
15
  6
DASHED2
 62
     4
370
    13
100
AcDbLine
 10
620.4378221734923
 20
-78.1723091960771
 30
0.0
 11
620.4378221734923
 21
-79.28716259436328
 31
0.0
  0
LINE
  5
1F2
330
EC
100
AcDbEntity
  8
15
  6
DASHED2
 62
     4
370
    13
100
AcDbLine
 10
629.3621778264755
 20
-78.17230919607687
 30
0.0
 11
629.3621778264755
 21
-79.28716259436328
 31
0.0
  0
LINE
  5
1F3
330
EC
100
AcDbEntity
  8
15
  6
DASHED2
 62
     4
370
    13
100
AcDbLine
 10
635.4243556529655
 20
-78.17230919607664
 30
0.0
 11
635.4243556529655
 21
-72.0463519729185
 31
0.0
  0
ARC
  5
1F4
330
EC
100
AcDbEntity
  8
15
  6
DASHED2
 62
     4
370
    13
100
AcDbCircle
 10
632.3932667397185
 20
-66.68371421934171
 30
0.0
 40
5.367227771689691
100
AcDbArc
 50
235.6157525319829
 51
304.3842474680531
  0
ARC
  5
1F5
330
EC
100
AcDbEntity
  8
15
  6
DASHED2
 62
     4
370
    13
100
AcDbCircle
 10
624.8999999999824
 20
-57.03628502594756
 30
0.0
 40
14.76713610367695
100
AcDbArc
 50
252.4120462260087
 51
287.587953774003
  0
ARC
  5
1F6
330
EC
100
AcDbEntity
  8
15
  6
DASHED2
 62
     4
370
    13
100
AcDbCircle
 10
617.4067332602476
 20
-66.6837142193408
 30
0.0
 40
5.367227771689157
100
AcDbArc
 50
235.6157525319604
 51
304.3842474680276
  0
ARC
  5
1F7
330
EC
100
AcDbEntity
  8
15
  6
DASHED2
 62
     4
370
    13
100
AcDbCircle
 10
617.4067332602476
 20
-74.85775699618239
 30
0.0
 40
5.367227771689157
100
AcDbArc
 50
235.6157525319604
 51
304.3842474680276
  0
ARC
  5
1F8
330
EC
100
AcDbEntity
  8
15
  6
DASHED2
 62
     4
370
    13
100
AcDbCircle
 10
624.8999999999824
 20
-65.21032780278915
 30
0.0
 40
14.76713610367695
100
AcDbArc
 50
252.4120462260087
 51
287.587953774003
  0
ARC
  5
1F9
330
EC
100
AcDbEntity
  8
15
  6
DASHED2
 62
     4
370
    13
100
AcDbCircle
 10
632.3932667397185
 20
-74.8577569961833
 30
0.0
 40
5.367227771689691
100
AcDbArc
 50
235.6157525319829
 51
304.3842474680531
  0
LINE
  5
1FA
330
EC
100
AcDbEntity
  8
15
  6
DASHED2
 62
     4
370
    13
100
AcDbLine
 10
620.149999999983
 20
-80.22498476787177
 30
0.0
 11
620.1499999999824
 21
-92.3032779396458
 31
0.0
  0
LINE
  5
1FB
330
EC
100
AcDbEntity
  8
15
  6
DASHED2
 62
     4
370
    13
100
AcDbLine
 10
620.9619999999836
 20
-80.224984767872
 30
0.0
 11
620.9619999999836
 21
-93.11527793964387
 31
0.0
  0
LINE
  5
1FC
330
EC
100
AcDbEntity
  8
15
  6
DASHED2
 62
     4
370
    13
100
AcDbLine
 10
628.8379999999834
 20
-93.11527793964387
 30
0.0
 11
628.8379999999834
 21
-80.22498476787268
 31
0.0
  0
LINE
  5
1FD
330
EC
100
AcDbEntity
  8
15
  6
DASHED2
 62
     4
370
    13
100
AcDbLine
 10
629.6499999999824
 20
-92.30327793964398
 30
0.0
 11
629.6499999999824
 21
-80.22498476787268
 31
0.0
  0
LINE
  5
1FE
330
EC
100
AcDbEntity
  8
15
  6
Continuous
 62
     7
370
    13
100
AcDbLine
 10
629.6499999999824
 20
-12.82230919607673
 30
0.0
 11
620.1499999999846
 21
-12.82230919607673
 31
0.0
  0
LINE
  5
1FF
330
EC
100
AcDbEntity
  8
15
  6
Continuous
 62
     7
370
    13
100
AcDbLine
 10
620.1499999999846
 20
-25.22230919607773
 30
0.0
 11
629.6499999999824
 21
-25.22230919607773
 31
0.0
  0
LINE
  5
200
330
EC
100
AcDbEntity
  8
15
  6
Continuous
 62
     7
370
    13
100
AcDbLine
 10
620.1499999999846
 20
-12.82230919607673
 30
0.0
 11
620.1499999999855
 21
-38.57230919607582
 31
0.0
  0
LINE
  5
201
330
EC
100
AcDbEntity
  8
15
  6
Continuous
 62
     7
370
    13
100
AcDbLine
 10
629.6499999999824
 20
-38.57230919607673
 30
0.0
 11
629.6499999999824
 21
-12.82230919607673
 31
0.0
  0
LINE
  5
202
330
EC
100
AcDbEntity
  8
15
  6
CENTERX2
 62
     3
370
    13
100
AcDbLine
 10
624.8999999999824
 20
-93.8032779396458
 30
0.0
 11
624.8999999999824
 21
-12.82230919607673
 31
0.0
  0
LINE
  5
203
330
EC
100
AcDbEntity
  8
15
  6
Continuous
 62
     3
370
    13
100
AcDbLine
 10
628.8379999999834
 20
-25.22230919607773
 30
0.0
 11
629.6499999999824
 21
-23.81588394033042
 31
0.0
  0
LINE
  5
204
330
EC
100
AcDbEntity
  8
15
  6
Continuous
 62
     3
370
    13
100
AcDbLine
 10
620.9619999999836
 20
-25.22230919607773
 30
0.0
 11
620.9619999999836
 21
-38.57230919607582
 31
0.0
  0
LINE
  5
205
330
EC
100
AcDbEntity
  8
15
  6
Continuous
 62
     3
370
    13
100
AcDbLine
 10
620.1499999999846
 20
-23.81588394033042
 30
0.0
 11
620.9619999999836
 21
-25.22230919607773
 31
0.0
  0
LINE
  5
206
330
EC
100
AcDbEntity
  8
15
  6
Continuous
 62
     3
370
    13
100
AcDbLine
 10
628.8379999999834
 20
-38.57230919607628
 30
0.0
 11
628.8379999999834
 21
-25.22230919607773
 31
0.0
  0
INSERT
  5
207
330
EC
100
AcDbEntity
  8
15
  6
Continuous
100
AcDbBlockReference
  2
DC_GROUP_W_MTS_S_070_1_14
 10
0.0
 20
0.0
 30
0.0
  0
ENDBLK
  5
EE
330
EC
100
AcDbEntity
  8
0
100
AcDbBlockEnd
  0
BLOCK
  5
F0
330
EF
100
AcDbEntity
  8
0
100
AcDbBlockBegin
  2
DC_GROUP_W_MTS_S_070_1_14
 70
     0
 10
0.0
 20
0.0
 30
0.0
  3
DC_GROUP_W_MTS_S_070_1_14
  1
DC_GROUP_W_MTS_S_070_1_14
  0
LINE
  5
208
330
EF
100
AcDbEntity
  8
15
  6
DASHED2
 62
     4
370
    13
100
AcDbLine
 10
634.0999999999824
 20
-63.87230919607691
 30
0.0
 11
634.0999999999824
 21
-61.37230919607691
 31
0.0
  0
LINE
  5
209
330
EF
100
AcDbEntity
  8
15
  6
DASHED2
 62
     4
370
    13
100
AcDbLine
 10
615.6999999999823
 20
-61.37230919607691
 30
0.0
 11
615.6999999999823
 21
-63.87230919607691
 31
0.0
  0
LINE
  5
20A
330
EF
100
AcDbEntity
  8
15
  6
DASHED2
 62
     4
370
    13
100
AcDbLine
 10
634.0999999999824
 20
-63.87230919607691
 30
0.0
 11
615.6999999999823
 21
-63.87230919607691
 31
0.0
  0
LINE
  5
20B
330
EF
100
AcDbEntity
  8
15
  6
DASHED2
 62
     4
370
    13
100
AcDbLine
 10
624.8999999999824
 20
-63.87230919607691
 30
0.0
 11
625.5698729810601
 21
-61.37230919607691
 31
0.0
  0
LINE
  5
20C
330
EF
100
AcDbEntity
  8
15
  6
DASHED2
 62
     4
370
    13
100
AcDbLine
 10
624.2301270189046
 20
-63.87230919607691
 30
0.0
 11
624.8999999999824
 21
-61.37230919607691
 31
0.0
  0
LINE
  5
20D
330
EF
100
AcDbEntity
  8
15
  6
DASHED2
 62
     4
370
    13
100
AcDbLine
 10
635.3999999999824
 20
-61.37230919607691
 30
0.0
 11
614.3999999999824
 21
-61.37230919607691
 31
0.0
  0
LINE
  5
20E
330
EF
100
AcDbEntity
  8
15
  6
DASHED2
 62
     4
370
    13
100
AcDbLine
 10
614.3999999999824
 20
-61.17230919607709
 30
0.0
 11
614.3999999999824
 21
-61.37230919607691
 31
0.0
  0
LINE
  5
20F
330
EF
100
AcDbEntity
  8
15
  6
DASHED2
 62
     4
370
    13
100
AcDbLine
 10
635.3999999999824
 20
-61.37230919607691
 30
0.0
 11
635.3999999999824
 21
-61.17230919607687
 31
0.0
  0
LINE
  5
210
330
EF
100
AcDbEntity
  8
15
  6
Continuous
 62
     7
370
    13
100
AcDbLine
 10
635.3999999999824
 20
-59.37230919607691
 30
0.0
 11
614.3999999999824
 21
-59.37230919607691
 31
0.0
  0
LINE
  5
211
330
EF
100
AcDbEntity
  8
15
  6
Continuous
 62
     7
370
    13
100
AcDbLine
 10
614.3999999999824
 20
-59.37230919607691
 30
0.0
 11
614.3999999999824
 21
-61.17230919607709
 31
0.0
  0
LINE
  5
212
330
EF
100
AcDbEntity
  8
15
  6
Continuous
 62
     7
370
    13
100
AcDbLine
 10
635.3999999999824
 20
-61.17230919607687
 30
0.0
 11
635.3999999999824
 21
-59.37230919607691
 31
0.0
  0
LINE
  5
213
330
EF
100
AcDbEntity
  8
15
  6
CENTERX2
 62
     3
370
    13
100
AcDbLine
 10
624.8999999999824
 20
-55.17230919607709
 30
0.0
 11
624.8999999999824
 21
-76.07230919607696
 31
0.0
  0
ENDBLK
  5
F1
330
EF
100
AcDbEntity
  8
0
100
AcDbBlockEnd
  0
BLOCK
  5
F3
330
F2
100
AcDbEntity
  8
0
100
AcDbBlockBegin
  2
DC_GROUP_W_MTS_S_070_1_15
 70
     0
 10
0.0
 20
0.0
 30
0.0
  3
DC_GROUP_W_MTS_S_070_1_15
  1
DC_GROUP_W_MTS_S_070_1_15
  0
LINE
  5
214
330
F2
100
AcDbEntity
  8
15
  6
Continuous
 62
     7
370
    13
100
AcDbLine
 10
634.8999999999824
 20
-44.37230919607691
 30
0.0
 11
634.8999999999769
 21
-59.37230919607691
 31
0.0
  0
LINE
  5
215
330
F2
100
AcDbEntity
  8
15
  6
Continuous
 62
     7
370
    13
100
AcDbLine
 10
614.8999999999824
 20
-59.37230919607691
 30
0.0
 11
614.8999999999769
 21
-44.37230919607691
 31
0.0
  0
LINE
  5
216
330
F2
100
AcDbEntity
  8
15
  6
Continuous
 62
     7
370
    13
100
AcDbLine
 10
634.8999999999824
 20
-44.37230919607691
 30
0.0
 11
614.8999999999824
 21
-44.37230919607691
 31
0.0
  0
LINE
  5
217
330
F2
100
AcDbEntity
  8
15
  6
Continuous
 62
     7
370
    13
100
AcDbLine
 10
634.8999999999769
 20
-59.37230919607691
 30
0.0
 11
614.8999999999824
 21
-59.37230919607691
 31
0.0
  0
ENDBLK
  5
F4
330
F2
100
AcDbEntity
  8
0
100
AcDbBlockEnd
  0
BLOCK
  5
F6
330
F5
100
AcDbEntity
  8
0
100
AcDbBlockBegin
  2
DC_GROUP_W_MTS_S_070_1_16
 70
     0
 10
0.0
 20
0.0
 30
0.0
  3
DC_GROUP_W_MTS_S_070_1_16
  1
DC_GROUP_W_MTS_S_070_1_16
  0
LINE
  5
218
330
F5
100
AcDbEntity
  8
0
  6
Continuous
 62
     2
370
    13
100
AcDbLine
 10
-73.44019348132497
 20
-234.4358430451498
 30
0.0
 11
-56.11968540563574
 21
-264.4358430451498
 31
0.0
  0
LINE
  5
219
330
F5
100
AcDbEntity
  8
0
  6
Continuous
 62
     2
370
    13
100
AcDbLine
 10
-56.11968540563574
 20
-264.4358430451498
 30
0.0
 11
-90.76070155701348
 21
-264.4358430451498
 31
0.0
  0
LINE
  5
21A
330
F5
100
AcDbEntity
  8
0
  6
Continuous
 62
     2
370
    13
100
AcDbLine
 10
-90.76070155701348
 20
-264.4358430451498
 30
0.0
 11
-73.44019348132497
 21
-234.4358430451498
 31
0.0
  0
TEXT
  5
21B
330
F5
100
AcDbEntity
  8
0
 62
     2
100
AcDbText
 10
-77.94019348132497
 20
-262.1858430451498
 30
0.0
 40
15.0
  1
1
 41
1.145454545454545
  7
dcStyle1
 72
     5
 11
-68.94019348132497
 21
-262.1858430451498
 31
0.0
100
AcDbText
  0
ENDBLK
  5
F7
330
F5
100
AcDbEntity
  8
0
100
AcDbBlockEnd
  0
BLOCK
  5
F9
330
F8
100
AcDbEntity
  8
0
100
AcDbBlockBegin
  2
DC_GROUP_W_MTS_S_070_1_17
 70
     0
 10
0.0
 20
0.0
 30
0.0
  3
DC_GROUP_W_MTS_S_070_1_17
  1
DC_GROUP_W_MTS_S_070_1_17
  0
TEXT
  5
21C
330
F8
100
AcDbEntity
  8
0
 62
     2
100
AcDbText
 10
-1155.61875
 20
-718.7531249999997
 30
0.0
 40
23.99999999999999
  1
1
 41
0.9545454545454548
  7
dcStyle1
 72
     5
 11
-1143.61875
 21
-718.7531249999997
 31
0.0
100
AcDbText
  0
ENDBLK
  5
FA
330
F8
100
AcDbEntity
  8
0
100
AcDbBlockEnd
  0
BLOCK
  5
FC
330
FB
100
AcDbEntity
  8
0
100
AcDbBlockBegin
  2
DC_GROUP_W_MTS_S_070_1_18
 70
     0
 10
0.0
 20
0.0
 30
0.0
  3
DC_GROUP_W_MTS_S_070_1_18
  1
DC_GROUP_W_MTS_S_070_1_18
  0
TEXT
  5
21D
330
FB
100
AcDbEntity
  8
0
 62
     2
100
AcDbText
 10
-1074.871875
 20
-719.0249999999997
 30
0.0
 40
23.99999999999999
  1
カラー追加
 41
1.206896551724138
  7
dcStyle1
 72
     5
 11
-954.8718749999998
 21
-719.0249999999997
 31
0.0
100
AcDbText
  0
ENDBLK
  5
FD
330
FB
100
AcDbEntity
  8
0
100
AcDbBlockEnd
  0
BLOCK
  5
10C
330
10B
100
AcDbEntity
  8
0
100
AcDbBlockBegin
  2
_OPEN30
 70
     0
 10
0.0
 20
0.0
 30
0.0
  3
_OPEN30
  1
_OPEN30
  0
LINE
  5
10E
330
10B
100
AcDbEntity
  8
0
  6
ByBlock
 62
     0
370
    -2
100
AcDbLine
 10
-1.0
 20
0.267949
 30
0.0
 11
0.0
 21
0.0
 31
0.0
  0
LINE
  5
10F
330
10B
100
AcDbEntity
  8
0
  6
ByBlock
 62
     0
370
    -2
100
AcDbLine
 10
0.0
 20
0.0
 30
0.0
 11
-1.0
 21
-0.267949
 31
0.0
  0
LINE
  5
110
330
10B
100
AcDbEntity
  8
0
  6
ByBlock
 62
     0
370
    -2
100
AcDbLine
 10
0.0
 20
0.0
 30
0.0
 11
-1.0
 21
0.0
 31
0.0
  0
ENDBLK
  5
10D
330
10B
100
AcDbEntity
  8
0
100
AcDbBlockEnd
  0
ENDSEC
  0
SECTION
  2
ENTITIES
  0
LINE
  5
21E
330
1F
100
AcDbEntity
  8
0
  6
Continuous
 62
     2
370
    13
100
AcDbLine
 10
-101.9424607773415
 20
346.4004870635871
 30
0.0
 11
-10.97162405661447
 21
346.4004870635871
 31
0.0
  0
LINE
  5
21F
330
1F
100
AcDbEntity
  8
0
  6
Continuous
 62
     2
370
    13
100
AcDbLine
 10
-328.6410802719691
 20
0.7161271043263469
 30
0.0
 11
-360.6279177518799
 21
-17.75148212522765
 31
0.0
  0
LINE
  5
220
330
1F
100
AcDbEntity
  8
0
  6
Continuous
 62
     2
370
    13
100
AcDbLine
 10
68.86458006510247
 20
230.2161271043032
 30
0.0
 11
95.64684408149947
 21
245.678874443682
 31
0.0
  0
LINE
  5
221
330
1F
100
AcDbEntity
  8
0
  6
Continuous
 62
     2
370
    13
100
AcDbLine
 10
267.0910938857014
 20
-118.3152139577527
 30
0.0
 11
282.9354759161683
 21
-145.7584886490534
 31
0.0
  0
LINE
  5
222
330
1F
100
AcDbEntity
  8
0
  6
Continuous
 62
     2
370
    13
100
AcDbLine
 10
97.90003027207035
 20
233.700854282317
 30
0.0
 11
113.7444123025414
 21
206.257579591018
 31
0.0
  0
LINE
  5
223
330
1F
100
AcDbEntity
  8
0
  6
Continuous
 62
     2
370
    13
100
AcDbLine
 10
-197.0008766811284
 20
-361.642018201601
 30
0.0
 11
-212.8452587115744
 21
-334.1987435102877
 31
0.0
  0
LINE
  5
224
330
1F
100
AcDbEntity
  8
0
  6
Continuous
 62
     2
370
    13
100
AcDbLine
 10
-358.6027822384376
 20
-67.39964144488897
 30
0.0
 11
-374.447164268885
 21
-39.9563667535773
 31
0.0
  0
LINE
  5
225
330
1F
100
AcDbEntity
  8
0
  6
Continuous
 62
     2
370
    13
100
AcDbLine
 10
654.0972664564836
 20
-199.3921137242645
 30
0.0
 11
764.0681031772106
 21
-199.3921137242645
 31
0.0
  0
LINE
  5
226
330
1F
100
AcDbEntity
  8
0
  6
Continuous
 62
     2
370
    13
100
AcDbLine
 10
-727.2965077854187
 20
-372.6566395689636
 30
0.0
 11
-628.3256710646916
 21
-372.6566395689636
 31
0.0
  0
LINE
  5
227
330
1F
100
AcDbEntity
  8
0
  6
Continuous
 62
     2
370
    13
100
AcDbLine
 10
-360.8047803199721
 20
20.41397739188085
 30
0.0
 11
-344.2344359334855
 21
-8.286700984420008
 31
0.0
  0
INSERT
  5
228
330
1F
100
AcDbEntity
  8
0
 62
     2
100
AcDbBlockReference
  2
_OPEN30
 10
-344.2344359334855
 20
-8.286700984420008
 30
0.0
 41
18.00138320357654
 42
18.00097896302553
 50
300.0000000000066
  0
LINE
  5
229
330
1F
100
AcDbEntity
  8
0
  6
Continuous
 62
     2
370
    13
100
AcDbLine
 10
65.53691350854956
 20
266.56246909051
 30
0.0
 11
82.10725789503545
 21
237.861790714209
 31
0.0
  0
INSERT
  5
22A
330
1F
100
AcDbEntity
  8
0
 62
     2
100
AcDbBlockReference
  2
_OPEN30
 10
82.10725789503545
 20
237.861790714209
 30
0.0
 41
18.00138320357654
 42
18.00097896302553
 50
300.0000000000053
  0
LINE
  5
22B
330
1F
100
AcDbEntity
  8
0
  6
Continuous
 62
     2
370
    13
100
AcDbLine
 10
311.5144729668234
 20
-120.1744857393036
 30
0.0
 11
279.0020269536615
 21
-138.9455551970108
 31
0.0
  0
INSERT
  5
22C
330
1F
100
AcDbEntity
  8
0
 62
     2
100
AcDbBlockReference
  2
_OPEN30
 10
279.0020269536615
 20
-138.9455551970108
 30
0.0
 41
18.00138320357654
 42
18.00097896302553
 50
209.9999999999934
  0
LINE
  5
22D
330
1F
100
AcDbEntity
  8
0
  6
Continuous
 62
     2
370
    13
100
AcDbLine
 10
142.3234093531935
 20
231.841582500767
 30
0.0
 11
109.8109633400304
 21
213.0705130430611
 31
0.0
  0
INSERT
  5
22E
330
1F
100
AcDbEntity
  8
0
 62
     2
100
AcDbBlockReference
  2
_OPEN30
 10
109.8109633400304
 20
213.0705130430611
 30
0.0
 41
18.00138320357654
 42
18.00097896302553
 50
209.9999999999908
  0
LINE
  5
22F
330
1F
100
AcDbEntity
  8
0
  6
Continuous
 62
     2
370
    13
100
AcDbLine
 10
-233.4467716568023
 20
-373.6001542072457
 30
0.0
 11
-200.9343256436305
 21
-354.8290847495549
 31
0.0
  0
INSERT
  5
230
330
1F
100
AcDbEntity
  8
0
 62
     2
100
AcDbBlockReference
  2
_OPEN30
 10
-200.9343256436305
 20
-354.8290847495549
 30
0.0
 41
18.00138320357654
 42
18.00097896302553
 50
29.99999999996417
  0
LINE
  5
231
330
1F
100
AcDbEntity
  8
0
  6
Continuous
 62
     2
370
    13
100
AcDbLine
 10
-395.048677214113
 20
-79.35777745053531
 30
0.0
 11
-362.5362312009411
 21
-60.58670799284357
 31
0.0
  0
INSERT
  5
232
330
1F
100
AcDbEntity
  8
0
 62
     2
100
AcDbBlockReference
  2
_OPEN30
 10
-362.5362312009411
 20
-60.58670799284357
 30
0.0
 41
18.00138320357654
 42
18.00097896302553
 50
29.99999999996529
  0
LINE
  5
233
330
1F
100
AcDbEntity
  8
0
  6
Continuous
 62
     4
370
    13
100
AcDbLine
 10
-96.36441689192952
 20
-48.68123517203492
 30
0.0
 11
-80.44583260488844
 21
-30.25303194175865
 31
0.0
  0
LINE
  5
234
330
1F
100
AcDbEntity
  8
0
  6
Continuous
 62
     4
370
    13
100
AcDbLine
 10
-80.44583260488844
 20
-30.25303194175865
 30
0.0
 11
-77.94583260487957
 21
-34.58315896068359
 31
0.0
  0
LINE
  5
235
330
1F
100
AcDbEntity
  8
0
  6
Continuous
 62
     4
370
    13
100
AcDbLine
 10
-77.94583260487957
 20
-34.58315896068359
 30
0.0
 11
-55.42917210648761
 21
-21.58315896068632
 31
0.0
  0
LINE
  5
236
330
1F
100
AcDbEntity
  8
0
  6
Continuous
 62
     4
370
    13
100
AcDbLine
 10
-55.42917210648761
 20
-21.58315896068632
 30
0.0
 11
-53.92917210648761
 21
-24.18123517203765
 31
0.0
  0
LINE
  5
237
330
1F
100
AcDbEntity
  8
0
  6
Continuous
 62
     4
370
    13
100
AcDbLine
 10
-53.92917210648761
 20
-24.18123517203765
 30
0.0
 11
-52.42917210648761
 21
-26.77931138339079
 31
0.0
  0
LINE
  5
238
330
1F
100
AcDbEntity
  8
0
  6
Continuous
 62
     4
370
    13
100
AcDbLine
 10
-52.42917210648761
 20
-26.77931138339079
 30
0.0
 11
-74.94583260488844
 21
-39.77931138338897
 31
0.0
  0
LINE
  5
239
330
1F
100
AcDbEntity
  8
0
  6
Continuous
 62
     4
370
    13
100
AcDbLine
 10
-74.94583260488844
 20
-39.77931138338897
 30
0.0
 11
-72.44583260488844
 21
-44.10943840231209
 31
0.0
  0
LINE
  5
23A
330
1F
100
AcDbEntity
  8
0
  6
Continuous
 62
     4
370
    13
100
AcDbLine
 10
-72.44583260488844
 20
-44.10943840231209
 30
0.0
 11
-96.36441689192952
 21
-48.68123517203492
 31
0.0
  0
LINE
  5
23B
330
1F
100
AcDbEntity
  8
0
  6
DASHED2
 62
     4
370
    13
100
AcDbLine
 10
144.6325447127304
 20
451.575512717884
 30
0.0
 11
144.6325447126815
 21
449.075512717884
 31
0.0
  0
LINE
  5
23C
330
1F
100
AcDbEntity
  8
0
  6
DASHED2
 62
     4
370
    13
100
AcDbLine
 10
144.6325447126815
 20
559.075512717884
 30
0.0
 11
144.6325447127304
 21
556.575512717884
 31
0.0
  0
LINE
  5
23D
330
1F
100
AcDbEntity
  8
0
  6
DASHED2
 62
     4
370
    13
100
AcDbLine
 10
147.6325447127304
 20
459.0755127178371
 30
0.0
 11
147.6325447127304
 21
549.0755127178371
 31
0.0
  0
LINE
  5
23E
330
1F
100
AcDbEntity
  8
0
  6
DASHED2
 62
     4
370
    13
100
AcDbLine
 10
92.63254471273035
 20
556.575512717884
 30
0.0
 11
92.63254471273035
 21
451.575512717884
 31
0.0
  0
LINE
  5
23F
330
1F
100
AcDbEntity
  8
0
  6
DASHED2
 62
     4
370
    13
100
AcDbLine
 10
-241.3288869902794
 20
-155.7059754973656
 30
0.0
 11
-215.0788869902794
 21
-201.1723091960488
 31
0.0
  0
LINE
  5
240
330
1F
100
AcDbEntity
  8
0
  6
DASHED2
 62
     4
370
    13
100
AcDbLine
 10
-190.8288869902883
 20
-243.1745412795993
 30
0.0
 11
172.9017825991914
 21
-33.17454127962208
 31
0.0
  0
LINE
  5
241
330
1F
100
AcDbEntity
  8
0
  6
DASHED2
 62
     4
370
    13
100
AcDbLine
 10
124.4017825991914
 20
50.82992288747448
 30
0.0
 11
-239.3288869902794
 21
-159.1700771125028
 31
0.0
  0
LINE
  5
242
330
1F
100
AcDbEntity
  8
0
  6
DASHED2
 62
     4
370
    13
100
AcDbLine
 10
144.6325447127304
 20
552.575512717884
 30
0.0
 11
-275.3674552872696
 21
552.575512717884
 31
0.0
  0
LINE
  5
243
330
1F
100
AcDbEntity
  8
0
  6
DASHED2
 62
     4
370
    13
100
AcDbLine
 10
-275.3674552872696
 20
455.575512717884
 30
0.0
 11
144.6325447127304
 21
455.575512717884
 31
0.0
  0
LINE
  5
244
330
1F
100
AcDbEntity
  8
0
  6
DASHED2
 62
     4
370
    13
100
AcDbLine
 10
-275.3674552872696
 20
451.575512717884
 30
0.0
 11
-194.3674552872094
 21
451.575512717884
 31
0.0
  0
LINE
  5
245
330
1F
100
AcDbEntity
  8
0
  6
DASHED2
 62
     4
370
    13
100
AcDbLine
 10
-275.3674552872696
 20
556.575512717884
 30
0.0
 11
-275.3674552872696
 21
451.575512717884
 31
0.0
  0
LINE
  5
246
330
1F
100
AcDbEntity
  8
0
  6
DASHED2
 62
     4
370
    13
100
AcDbLine
 10
-171.1808292836895
 20
-115.2059754973401
 30
0.0
 11
-241.3288869902794
 21
-155.7059754973656
 31
0.0
  0
LINE
  5
247
330
1F
100
AcDbEntity
  8
0
  6
DASHED2
 62
     4
370
    13
100
AcDbLine
 10
-194.3674552872094
 20
556.575512717884
 30
0.0
 11
-275.3674552872696
 21
556.575512717884
 31
0.0
  0
LINE
  5
248
330
1F
100
AcDbEntity
  8
0
  6
DASHED2
 62
     4
370
    13
100
AcDbLine
 10
144.6325447127304
 20
459.0755127178371
 30
0.0
 11
124.6325447127304
 21
459.0755127178371
 31
0.0
  0
LINE
  5
249
330
1F
100
AcDbEntity
  8
0
  6
DASHED2
 62
     4
370
    13
100
AcDbLine
 10
129.8312745235014
 20
1.425767015282531
 30
0.0
 11
147.1517825991914
 21
11.42576701528162
 31
0.0
  0
LINE
  5
24A
330
1F
100
AcDbEntity
  8
0
  6
DASHED2
 62
     4
370
    13
100
AcDbLine
 10
124.6325447127304
 20
549.0755127178351
 30
0.0
 11
144.6325447127304
 21
549.0755127178371
 31
0.0
  0
LINE
  5
24B
330
1F
100
AcDbEntity
  8
0
  6
DASHED2
 62
     4
370
    13
100
AcDbLine
 10
150.1517825991914
 20
6.229614592574421
 30
0.0
 11
132.8312745234914
 21
-3.770385407429217
 31
0.0
  0
LINE
  5
24C
330
1F
100
AcDbEntity
  8
0
  6
DASHED2
 62
     4
370
    13
100
AcDbLine
 10
153.6325447127304
 20
523.075512717838
 30
0.0
 11
147.6325447127304
 21
523.075512717838
 31
0.0
  0
LINE
  5
24D
330
1F
100
AcDbEntity
  8
0
  6
DASHED2
 62
     4
370
    13
100
AcDbLine
 10
147.6325447127304
 20
485.0755127178371
 30
0.0
 11
153.6325447127304
 21
485.0755127178371
 31
0.0
  0
LINE
  5
24E
330
1F
100
AcDbEntity
  8
0
  6
DASHED2
 62
     4
370
    13
100
AcDbLine
 10
153.6325447127304
 20
485.0755127178371
 30
0.0
 11
153.6325447127304
 21
523.075512717838
 31
0.0
  0
LINE
  5
24F
330
1F
100
AcDbEntity
  8
0
  6
DASHED2
 62
     4
370
    13
100
AcDbLine
 10
153.9131897084515
 20
-86.2841801474118
 30
0.0
 11
191.1516866978725
 21
-64.78452388643416
 31
0.0
  0
LINE
  5
250
330
1F
100
AcDbEntity
  8
0
  6
DASHED2
 62
     4
370
    13
100
AcDbLine
 10
182.1811389008415
 20
-139.2457043745175
 30
0.0
 11
157.1811389008724
 21
-95.94443418525714
 31
0.0
  0
LINE
  5
251
330
1F
100
AcDbEntity
  8
0
  6
DASHED2
 62
     4
370
    13
100
AcDbLine
 10
182.1811389008415
 20
-139.2457043745175
 30
0.0
 11
186.1811389008324
 21
-146.1739076047946
 31
0.0
  0
LINE
  5
252
330
1F
100
AcDbEntity
  8
0
  6
DASHED2
 62
     4
370
    13
100
AcDbLine
 10
224.9915285613265
 20
-126.0761197637797
 30
0.0
 11
188.9131897084014
 21
-146.9059584123655
 31
0.0
  0
LINE
  5
253
330
1F
100
AcDbEntity
  8
0
  6
DASHED2
 62
     4
370
    13
100
AcDbLine
 10
157.1811389008724
 20
-95.94443418525714
 30
0.0
 11
153.1811389008724
 21
-89.01623095497814
 31
0.0
  0
ARC
  5
254
330
1F
100
AcDbEntity
  8
0
  6
DASHED2
 62
     4
370
    13
100
AcDbCircle
 10
-272.3674552872701
 20
939.3532904951611
 30
0.0
 40
480.2871472637224
100
AcDbArc
 50
269.6421131457325
 51
295.0028801293976
  0
ARC
  5
255
330
1F
100
AcDbEntity
  8
0
  6
DASHED2
 62
     4
370
    13
100
AcDbCircle
 10
127.6325447127304
 20
95.46440160715372
 30
0.0
 40
453.6210313941257
100
AcDbArc
 50
90.37892553400586
 51
115.7396925176711
  0
ARC
  5
256
330
1F
100
AcDbEntity
  8
0
  6
DASHED2
 62
     4
370
    13
100
AcDbCircle
 10
-275.3674552872701
 20
82.1310682738341
 30
0.0
 40
466.9444444440051
100
AcDbArc
 50
64.63923301633474
 51
90.0
  0
ARC
  5
257
330
1F
100
AcDbEntity
  8
0
  6
DASHED2
 62
     4
370
    13
100
AcDbCircle
 10
-275.3674552872701
 20
926.019957161842
 30
0.0
 40
466.9444444440048
100
AcDbArc
 50
270.0000000000001
 51
295.3607669836653
  0
ARC
  5
258
330
1F
100
AcDbEntity
  8
0
  6
DASHED2
 62
     4
370
    13
100
AcDbCircle
 10
124.6325447127304
 20
82.1310682738341
 30
0.0
 40
466.9444444440048
100
AcDbArc
 50
90.0
 51
115.3607669836652
  0
ARC
  5
259
330
1F
100
AcDbEntity
  8
0
  6
DASHED2
 62
     4
370
    13
100
AcDbCircle
 10
124.6325447127304
 20
926.019957161842
 30
0.0
 40
466.9444444440049
100
AcDbArc
 50
244.6392330163347
 51
270.0
  0
SPLINE
  5
25A
330
1F
100
AcDbEntity
  8
0
  6
DASHED2
 62
     4
370
    13
100
AcDbSpline
210
0.0
220
0.0
230
1.0
 70
     8
 71
     2
 72
     6
 73
     3
 74
     0
 42
0.000000001
 43
0.0000000001
 40
0.0
 40
0.0
 40
0.0
 40
311.5381196579371
 40
311.5381196579371
 40
311.5381196579371
 10
-216.5788869902794
 20
-198.5742329846956
 30
0.0
 10
-85.37380623338959
 20
-25.82809906679756
 30
0.0
 10
129.8312745235014
 20
1.425767015282531
 30
0.0
  0
SPLINE
  5
25B
330
1F
100
AcDbEntity
  8
0
  6
DASHED2
 62
     4
370
    13
100
AcDbSpline
210
0.0
220
0.0
230
1.0
 70
     8
 71
     2
 72
     6
 73
     3
 74
     0
 42
0.000000001
 43
0.0000000001
 40
0.0
 40
0.0
 40
0.0
 40
155.7690598289745
 40
155.7690598289745
 40
155.7690598289745
 10
132.8312745235014
 20
-3.77038540742376
 30
0.0
 10
67.22873414504147
 20
-90.14345236636689
 30
0.0
 10
-19.3738062334096
 20
-140.1434523663632
 30
0.0
  0
SPLINE
  5
25C
330
1F
100
AcDbEntity
  8
0
  6
DASHED2
 62
     4
370
    13
100
AcDbSpline
210
0.0
220
0.0
230
1.0
 70
     8
 71
     2
 72
     6
 73
     3
 74
     0
 42
0.000000001
 43
0.0000000001
 40
0.0
 40
0.0
 40
0.0
 40
205.6793621149299
 40
205.6793621149299
 40
205.6793621149299
 10
-213.5788869902794
 20
-203.7703854074038
 30
0.0
 10
-150.5763542212906
 20
-113.5404562999969
 30
0.0
 10
-64.37380623337845
 20
-62.20116602574979
 30
0.0
  0
SPLINE
  5
25D
330
1F
100
AcDbEntity
  8
0
  6
DASHED2
 62
     4
370
    13
100
AcDbSpline
210
0.0
220
0.0
230
1.0
 70
     8
 71
     2
 72
     6
 73
     3
 74
     0
 42
0.000000001
 43
0.0000000001
 40
0.0
 40
0.0
 40
0.0
 40
410.0417852753334
 40
410.0417852753334
 40
410.0417852753334
 10
129.8312745235014
 20
1.425767015282531
 30
0.0
 10
4.229606238320457
 20
-178.4563603699156
 30
0.0
 10
-213.5788869902794
 20
-203.7703854074038
 30
0.0
  0
ARC
  5
25E
330
1F
100
AcDbEntity
  8
0
  6
DASHED2
 62
     4
370
    13
100
AcDbCircle
 10
187.9131897084014
 20
-145.1739076047955
 30
0.0
 40
1.999999999999709
100
AcDbArc
 50
209.9999999999747
 51
299.9999999999842
  0
ARC
  5
25F
330
1F
100
AcDbEntity
  8
0
  6
DASHED2
 62
     4
370
    13
100
AcDbCircle
 10
154.9131897084515
 20
-88.01623095498178
 30
0.0
 40
2.000000000000952
100
AcDbArc
 50
119.9999999999843
 51
209.9999999997637
  0
LINE
  5
260
330
1F
100
AcDbEntity
  8
0
  6
DASHED2
 62
     4
370
    13
100
AcDbLine
 10
781.6400057002876
 20
-80.22498476787155
 30
0.0
 11
766.515601028386
 21
-80.22498476787291
 31
0.0
  0
LINE
  5
261
330
1F
100
AcDbEntity
  8
0
  6
DASHED2
 62
     4
370
    13
100
AcDbLine
 10
617.1599942997171
 20
-80.22498476787155
 30
0.0
 11
632.2843989716188
 21
-80.22498476787291
 31
0.0
  0
LINE
  5
262
330
1F
100
AcDbEntity
  8
0
  6
PHANTOM
 62
   140
370
    13
100
AcDbLine
 10
195.1286907719414
 20
-0.5012688708051201
 30
0.0
 11
195.1286907719414
 21
29.34403358545444
 31
0.0
  0
LINE
  5
263
330
1F
100
AcDbEntity
  8
0
  6
PHANTOM
 62
   140
370
    13
100
AcDbLine
 10
178.8853209707424
 20
14.42576701528071
 30
0.0
 11
213.5886967316724
 21
14.42576701527889
 31
0.0
  0
LINE
  5
264
330
1F
100
AcDbEntity
  8
0
  6
PHANTOM
 62
   140
370
    13
100
AcDbLine
 10
194.6286907719414
 20
-7.574232984720197
 30
0.0
 11
379.4747707817414
 21
-7.574232984726564
 31
0.0
  0
LINE
  5
265
330
1F
100
AcDbEntity
  8
0
  6
PHANTOM
 62
   140
370
    13
100
AcDbLine
 10
213.1286907719414
 20
26.42576701527889
 30
0.0
 11
213.1286907719414
 21
-7.574232984721107
 31
0.0
  0
LINE
  5
266
330
1F
100
AcDbEntity
  8
0
  6
PHANTOM
 62
   140
370
    13
100
AcDbLine
 10
213.1286907719414
 20
26.42576701527889
 30
0.0
 11
194.6286907719414
 21
26.4257670152798
 31
0.0
  0
LINE
  5
267
330
1F
100
AcDbEntity
  8
0
  6
PHANTOM
 62
   140
370
    13
100
AcDbLine
 10
181.1286907719414
 20
12.9257670152798
 30
0.0
 11
181.1286907719414
 21
5.925767015280712
 31
0.0
  0
LINE
  5
268
330
1F
100
AcDbEntity
  8
0
  6
PHANTOM
 62
   140
370
    13
100
AcDbLine
 10
213.1286907719414
 20
19.67576701527889
 30
0.0
 11
379.4747707817414
 21
19.67576701527435
 31
0.0
  0
LINE
  5
269
330
1F
100
AcDbEntity
  8
0
  6
PHANTOM
 62
   140
370
    13
100
AcDbLine
 10
379.4747707817414
 20
26.42576701527344
 30
0.0
 11
213.1286907719414
 21
26.42576701527889
 31
0.0
  0
LINE
  5
26A
330
1F
100
AcDbEntity
  8
0
  6
PHANTOM
 62
   140
370
    13
100
AcDbLine
 10
379.4747707817414
 20
13.17576701527344
 30
0.0
 11
213.1286907719414
 21
13.17576701527889
 31
0.0
  0
LINE
  5
26B
330
1F
100
AcDbEntity
  8
0
  6
PHANTOM
 62
   140
370
    13
100
AcDbLine
 10
379.4747707817414
 20
5.675767015273436
 30
0.0
 11
213.1286907719414
 21
5.675767015278893
 31
0.0
  0
LINE
  5
26C
330
1F
100
AcDbEntity
  8
0
  6
PHANTOM
 62
   140
370
    13
100
AcDbLine
 10
379.4747707817414
 20
-0.8242329847265637
 30
0.0
 11
213.1286907719414
 21
-0.8242329847211067
 31
0.0
  0
LINE
  5
26D
330
1F
100
AcDbEntity
  8
0
  6
PHANTOM
 62
   140
370
    13
100
AcDbLine
 10
236.1286907719414
 20
19.67576701527889
 30
0.0
 11
236.1286907719414
 21
13.17576701527889
 31
0.0
  0
LINE
  5
26E
330
1F
100
AcDbEntity
  8
0
  6
PHANTOM
 62
   140
370
    13
100
AcDbLine
 10
236.1286907719414
 20
5.675767015278893
 30
0.0
 11
236.1286907719414
 21
-0.8242329847211067
 31
0.0
  0
LINE
  5
26F
330
1F
100
AcDbEntity
  8
0
  6
PHANTOM
 62
   140
370
    13
100
AcDbLine
 10
-144.9788869903684
 20
-262.3169751640429
 30
0.0
 11
-144.9788869903684
 21
-292.1622776203023
 31
0.0
  0
LINE
  5
270
330
1F
100
AcDbEntity
  8
0
  6
PHANTOM
 62
   140
370
    13
100
AcDbLine
 10
-163.4388929500985
 20
-277.2352417342184
 30
0.0
 11
-128.7355171891686
 21
-277.2352417342175
 31
0.0
  0
LINE
  5
271
330
1F
100
AcDbEntity
  8
0
  6
PHANTOM
 62
   140
370
    13
100
AcDbLine
 10
-286.3249670001683
 20
-299.2352417342238
 30
0.0
 11
-144.4788869903684
 21
-299.2352417342175
 31
0.0
  0
LINE
  5
272
330
1F
100
AcDbEntity
  8
0
  6
PHANTOM
 62
   140
370
    13
100
AcDbLine
 10
-162.9788869903686
 20
-299.2352417342183
 30
0.0
 11
-162.9788869903686
 21
-265.2352417342184
 31
0.0
  0
LINE
  5
273
330
1F
100
AcDbEntity
  8
0
  6
PHANTOM
 62
   140
370
    13
100
AcDbLine
 10
-144.4788869903684
 20
-265.2352417342175
 30
0.0
 11
-162.9788869903686
 21
-265.2352417342184
 31
0.0
  0
LINE
  5
274
330
1F
100
AcDbEntity
  8
0
  6
PHANTOM
 62
   140
370
    13
100
AcDbLine
 10
-130.9788869903684
 20
-285.7352417342175
 30
0.0
 11
-130.9788869903684
 21
-278.7352417342175
 31
0.0
  0
LINE
  5
275
330
1F
100
AcDbEntity
  8
0
  6
PHANTOM
 62
   140
370
    13
100
AcDbLine
 10
-286.3249670001683
 20
-271.9852417342239
 30
0.0
 11
-162.9788869903686
 21
-271.9852417342184
 31
0.0
  0
LINE
  5
276
330
1F
100
AcDbEntity
  8
0
  6
PHANTOM
 62
   140
370
    13
100
AcDbLine
 10
-162.9788869903686
 20
-265.2352417342184
 30
0.0
 11
-286.3249670001683
 21
-265.2352417342239
 31
0.0
  0
LINE
  5
277
330
1F
100
AcDbEntity
  8
0
  6
PHANTOM
 62
   140
370
    13
100
AcDbLine
 10
-162.9788869903686
 20
-278.4852417342184
 30
0.0
 11
-286.3249670001683
 21
-278.4852417342239
 31
0.0
  0
LINE
  5
278
330
1F
100
AcDbEntity
  8
0
  6
PHANTOM
 62
   140
370
    13
100
AcDbLine
 10
-162.9788869903686
 20
-285.9852417342183
 30
0.0
 11
-286.3249670001683
 21
-285.9852417342238
 31
0.0
  0
LINE
  5
279
330
1F
100
AcDbEntity
  8
0
  6
PHANTOM
 62
   140
370
    13
100
AcDbLine
 10
-162.9788869903686
 20
-292.4852417342183
 30
0.0
 11
-286.3249670001683
 21
-292.4852417342238
 31
0.0
  0
ARC
  5
27A
330
1F
100
AcDbEntity
  8
0
  6
PHANTOM
 62
   140
370
    13
100
AcDbCircle
 10
195.1286907719414
 20
14.4257670152798
 30
0.0
 40
13.60000000000062
100
AcDbArc
 50
168.5231320115227
 51
61.92751306414673
  0
ARC
  5
27B
330
1F
100
AcDbEntity
  8
0
  6
PHANTOM
 62
   140
370
    13
100
AcDbCircle
 10
195.1286907719414
 20
14.4257670152798
 30
0.0
 40
13.60000000000004
100
AcDbArc
 50
61.92751306414672
 51
82.15931114736189
  0
ARC
  5
27C
330
1F
100
AcDbEntity
  8
0
  6
PHANTOM
 62
   140
370
    13
100
AcDbCircle
 10
195.1286907719414
 20
14.4257670152798
 30
0.0
 40
13.59999999999899
100
AcDbArc
 50
82.15931114736189
 51
168.5231320115227
  0
ARC
  5
27D
330
1F
100
AcDbEntity
  8
0
  6
PHANTOM
 62
   140
370
    13
100
AcDbCircle
 10
-144.9788869903684
 20
-277.2352417342175
 30
0.0
 40
13.60000000000475
100
AcDbArc
 50
118.0724869358905
 51
11.4768679884735
  0
ARC
  5
27E
330
1F
100
AcDbEntity
  8
0
  6
PHANTOM
 62
   140
370
    13
100
AcDbCircle
 10
-144.9788869903684
 20
-277.2352417342175
 30
0.0
 40
13.59999999999809
100
AcDbArc
 50
97.84068885263864
 51
118.0724869358905
  0
ARC
  5
27F
330
1F
100
AcDbEntity
  8
0
  6
PHANTOM
 62
   140
370
    13
100
AcDbCircle
 10
-144.9788869903684
 20
-277.2352417342175
 30
0.0
 40
13.60000000000043
100
AcDbArc
 50
11.47686798847351
 51
97.84068885263864
  0
ARC
  5
280
330
1F
100
AcDbEntity
  8
0
  6
PHANTOM
 62
   140
370
    13
100
AcDbCircle
 10
194.6286907719414
 20
12.9257670152798
 30
0.0
 40
13.5
100
AcDbArc
 50
90.0
 51
180.0
  0
ARC
  5
281
330
1F
100
AcDbEntity
  8
0
  6
PHANTOM
 62
   140
370
    13
100
AcDbCircle
 10
194.6286907719414
 20
5.925767015279803
 30
0.0
 40
13.5
100
AcDbArc
 50
179.9999999999962
 51
270.0
  0
ARC
  5
282
330
1F
100
AcDbEntity
  8
0
  6
PHANTOM
 62
   140
370
    13
100
AcDbCircle
 10
-144.4788869903684
 20
-278.7352417342175
 30
0.0
 40
13.5
100
AcDbArc
 50
0.0
 51
90.0
  0
ARC
  5
283
330
1F
100
AcDbEntity
  8
0
  6
PHANTOM
 62
   140
370
    13
100
AcDbCircle
 10
-144.4788869903684
 20
-285.7352417342175
 30
0.0
 40
13.5
100
AcDbArc
 50
270.0
 51
0.0
  0
LINE
  5
284
330
1F
100
AcDbEntity
  8
0
  6
Continuous
 62
     7
370
    13
100
AcDbLine
 10
-275.3674552873697
 20
449.075512717884
 30
0.0
 11
-275.3674552873697
 21
412.275512717887
 31
0.0
  0
LINE
  5
285
330
1F
100
AcDbEntity
  8
0
  6
Continuous
 62
     7
370
    13
100
AcDbLine
 10
144.6325447126815
 20
559.075512717884
 30
0.0
 11
144.6325447126815
 21
609.0755127178821
 31
0.0
  0
LINE
  5
286
330
1F
100
AcDbEntity
  8
0
  6
Continuous
 62
     7
370
    13
100
AcDbLine
 10
219.9915285613315
 20
-134.7363738015678
 30
0.0
 11
186.4341555760304
 21
-154.1107321279527
 31
0.0
  0
LINE
  5
287
330
1F
100
AcDbEntity
  8
0
  6
Continuous
 62
     7
370
    13
100
AcDbLine
 10
189.1517825990716
 20
-61.32036690249276
 30
0.0
 11
223.6517825991684
 21
-121.0761197637215
 31
0.0
  0
LINE
  5
288
330
1F
100
AcDbEntity
  8
0
  6
Continuous
 62
     7
370
    13
100
AcDbLine
 10
181.1517825991405
 20
-47.46396044206392
 30
0.0
 11
189.1517825990716
 21
-61.32036690249276
 31
0.0
  0
LINE
  5
289
330
1F
100
AcDbEntity
  8
0
  6
Continuous
 62
     7
370
    13
100
AcDbLine
 10
-182.5788869903793
 20
-257.4639604421139
 30
0.0
 11
181.1517825991405
 21
-47.46396044206392
 31
0.0
  0
LINE
  5
28A
330
1F
100
AcDbEntity
  8
0
  6
Continuous
 62
     7
370
    13
100
AcDbLine
 10
-180.9788869903686
 20
-260.2352417342194
 30
0.0
 11
-116.0269817065475
 21
-222.7352417342112
 31
0.0
  0
LINE
  5
28B
330
1F
100
AcDbEntity
  8
0
  6
Continuous
 62
     7
370
    13
100
AcDbLine
 10
-117.6269817065486
 20
-219.9639604421021
 30
0.0
 11
-109.5709192074235
 21
-233.9174699995241
 31
0.0
  0
LINE
  5
28C
330
1F
100
AcDbEntity
  8
0
  6
Continuous
 62
     7
370
    13
100
AcDbLine
 10
-182.5788869903793
 20
-257.4639604421139
 30
0.0
 11
-180.9788869903686
 21
-260.2352417342194
 31
0.0
  0
LINE
  5
28D
330
1F
100
AcDbEntity
  8
0
  6
Continuous
 62
     7
370
    13
100
AcDbLine
 10
801.2000000000014
 20
-45.97230919607807
 30
0.0
 11
801.2000000000014
 21
-136.1723091960788
 31
0.0
  0
LINE
  5
28E
330
1F
100
AcDbEntity
  8
0
  6
Continuous
 62
     7
370
    13
100
AcDbLine
 10
801.2000000000014
 20
-136.1723091960788
 30
0.0
 11
804.4000000000024
 21
-136.1723091960788
 31
0.0
  0
LINE
  5
28F
330
1F
100
AcDbEntity
  8
0
  6
Continuous
 62
     7
370
    13
100
AcDbLine
 10
804.4000000000024
 20
-136.1723091960788
 30
0.0
 11
804.4000000000024
 21
-44.3723091960768
 31
0.0
  0
LINE
  5
290
330
1F
100
AcDbEntity
  8
0
  6
Continuous
 62
     7
370
    13
100
AcDbLine
 10
801.2000000000014
 20
-41.1723091960788
 30
0.0
 11
597.6000000000004
 21
-41.1723091960788
 31
0.0
  0
LINE
  5
291
330
1F
100
AcDbEntity
  8
0
  6
Continuous
 62
     7
370
    13
100
AcDbLine
 10
594.4000000000024
 20
-44.3723091960768
 30
0.0
 11
594.4000000000024
 21
-136.1723091960788
 31
0.0
  0
LINE
  5
292
330
1F
100
AcDbEntity
  8
0
  6
Continuous
 62
     7
370
    13
100
AcDbLine
 10
594.4000000000024
 20
-136.1723091960788
 30
0.0
 11
597.6000000000004
 21
-136.1723091960788
 31
0.0
  0
LINE
  5
293
330
1F
100
AcDbEntity
  8
0
  6
Continuous
 62
     7
370
    13
100
AcDbLine
 10
597.6000000000004
 20
-136.1723091960788
 30
0.0
 11
597.6000000000004
 21
-45.97230919607807
 31
0.0
  0
LINE
  5
294
330
1F
100
AcDbEntity
  8
0
  6
Continuous
 62
     7
370
    13
100
AcDbLine
 10
599.2000000000014
 20
-44.3723091960768
 30
0.0
 11
799.6000000000015
 21
-44.3723091960768
 31
0.0
  0
LINE
  5
295
330
1F
100
AcDbEntity
  8
0
  6
Continuous
 62
     7
370
    13
100
AcDbLine
 10
-275.3674552873697
 20
595.875512717883
 30
0.0
 11
-275.3674552873697
 21
559.075512717884
 31
0.0
  0
LINE
  5
296
330
1F
100
AcDbEntity
  8
0
  6
Continuous
 62
     7
370
    13
100
AcDbLine
 10
-200.3674552873695
 20
609.0755127178821
 30
0.0
 11
-200.3674552873783
 21
605.875512717883
 31
0.0
  0
LINE
  5
297
330
1F
100
AcDbEntity
  8
0
  6
Continuous
 62
     7
370
    13
100
AcDbLine
 10
-265.3674552873697
 20
402.275512717887
 30
0.0
 11
-200.3674552873695
 21
402.275512717887
 31
0.0
  0
LINE
  5
298
330
1F
100
AcDbEntity
  8
0
  6
Continuous
 62
     7
370
    13
100
AcDbLine
 10
-200.3674552873695
 20
399.075512717884
 30
0.0
 11
144.6325447126815
 21
399.075512717884
 31
0.0
  0
LINE
  5
299
330
1F
100
AcDbEntity
  8
0
  6
Continuous
 62
     7
370
    13
100
AcDbLine
 10
144.6325447126815
 20
399.075512717884
 30
0.0
 11
144.6325447126815
 21
449.075512717884
 31
0.0
  0
LINE
  5
29A
330
1F
100
AcDbEntity
  8
0
  6
Continuous
 62
     7
370
    13
100
AcDbLine
 10
-200.3674552873695
 20
402.275512717887
 30
0.0
 11
-200.3674552873695
 21
399.075512717884
 31
0.0
  0
LINE
  5
29B
330
1F
100
AcDbEntity
  8
0
  6
Continuous
 62
     7
370
    13
100
AcDbLine
 10
-200.3674552873783
 20
605.875512717883
 30
0.0
 11
-265.3674552873695
 21
605.875512717883
 31
0.0
  0
LINE
  5
29C
330
1F
100
AcDbEntity
  8
0
  6
Continuous
 62
     7
370
    13
100
AcDbLine
 10
144.6325447126815
 20
609.0755127178821
 30
0.0
 11
-200.3674552873695
 21
609.0755127178821
 31
0.0
  0
LINE
  5
29D
330
1F
100
AcDbEntity
  8
0
  6
Continuous
 62
     7
370
    13
100
AcDbLine
 10
184.1461222099454
 20
-155.0757176703249
 30
0.0
 11
-103.8848088715415
 21
-236.2300897896288
 31
0.0
  0
LINE
  5
29E
330
1F
100
AcDbEntity
  8
0
  6
Continuous
 62
     7
370
    13
100
AcDbLine
 10
109.1323251229014
 20
427.575512717838
 30
0.0
 11
109.1323251229014
 21
431.5755127291171
 31
0.0
  0
LINE
  5
29F
330
1F
100
AcDbEntity
  8
0
  6
Continuous
 62
     7
370
    13
100
AcDbLine
 10
120.1323251229014
 20
427.575512717838
 30
0.0
 11
120.1323251229014
 21
431.5755127291171
 31
0.0
  0
LINE
  5
2A0
330
1F
100
AcDbEntity
  8
0
  6
Continuous
 62
     7
370
    13
100
AcDbLine
 10
-209.8678534154085
 20
427.575512717838
 30
0.0
 11
-209.8678534154085
 21
431.5755127291171
 31
0.0
  0
LINE
  5
2A1
330
1F
100
AcDbEntity
  8
0
  6
Continuous
 62
     7
370
    13
100
AcDbLine
 10
-220.8678534154085
 20
427.575512717838
 30
0.0
 11
-220.8678534154085
 21
431.5755127291171
 31
0.0
  0
LINE
  5
2A2
330
1F
100
AcDbEntity
  8
0
  6
Continuous
 62
     7
370
    13
100
AcDbLine
 10
120.1323251229014
 20
576.5755127065601
 30
0.0
 11
120.1323251229014
 21
580.5755127178401
 31
0.0
  0
LINE
  5
2A3
330
1F
100
AcDbEntity
  8
0
  6
Continuous
 62
     7
370
    13
100
AcDbLine
 10
109.1323251229014
 20
576.5755127065601
 30
0.0
 11
109.1323251229014
 21
580.5755127178401
 31
0.0
  0
LINE
  5
2A4
330
1F
100
AcDbEntity
  8
0
  6
Continuous
 62
     7
370
    13
100
AcDbLine
 10
-220.8678534154085
 20
576.5755127065601
 30
0.0
 11
-220.8678534154085
 21
580.5755127178401
 31
0.0
  0
LINE
  5
2A5
330
1F
100
AcDbEntity
  8
0
  6
Continuous
 62
     7
370
    13
100
AcDbLine
 10
-209.8678534154085
 20
576.5755127065601
 30
0.0
 11
-209.8678534154085
 21
580.5755127178401
 31
0.0
  0
LINE
  5
2A6
330
1F
100
AcDbEntity
  8
0
  6
Continuous
 62
     7
370
    13
100
AcDbLine
 10
756.5880530191014
 20
18.3061333764432
 30
0.0
 11
759.1389550114513
 21
-28.42749548997779
 31
0.0
  0
LINE
  5
2A7
330
1F
100
AcDbEntity
  8
0
  6
Continuous
 62
     7
370
    13
100
AcDbLine
 10
759.1389550114513
 20
-28.42749548997779
 30
0.0
 11
769.1009019923715
 21
-27.55593806249851
 31
0.0
  0
LINE
  5
2A8
330
1F
100
AcDbEntity
  8
0
  6
Continuous
 62
     7
370
    13
100
AcDbLine
 10
769.1009019923715
 20
-27.55593806249851
 30
0.0
 11
766.5500000000216
 21
19.17769080392156
 31
0.0
  0
LINE
  5
2A9
330
1F
100
AcDbEntity
  8
0
  6
Continuous
 62
     7
370
    13
100
AcDbLine
 10
642.2119469809404
 20
18.30613337644593
 30
0.0
 11
639.6610449886014
 21
-28.42749548997779
 31
0.0
  0
LINE
  5
2AA
330
1F
100
AcDbEntity
  8
0
  6
Continuous
 62
     7
370
    13
100
AcDbLine
 10
639.6610449886014
 20
-28.42749548997779
 30
0.0
 11
629.6990980076814
 21
-27.55593806250033
 31
0.0
  0
LINE
  5
2AB
330
1F
100
AcDbEntity
  8
0
  6
Continuous
 62
     7
370
    13
100
AcDbLine
 10
629.6990980076814
 20
-27.55593806250033
 30
0.0
 11
632.2500000000205
 21
19.17769080392156
 31
0.0
  0
LINE
  5
2AC
330
1F
100
AcDbEntity
  8
0
  6
Continuous
 62
     7
370
    13
100
AcDbLine
 10
788.9000000000224
 20
-38.57230919607753
 30
0.0
 11
754.4000000000224
 21
-38.57230919607753
 31
0.0
  0
LINE
  5
2AD
330
1F
100
AcDbEntity
  8
0
  6
Continuous
 62
     7
370
    13
100
AcDbLine
 10
609.9000000000224
 20
-38.57230919607753
 30
0.0
 11
609.9000000000224
 21
-41.17230919607607
 31
0.0
  0
LINE
  5
2AE
330
1F
100
AcDbEntity
  8
0
  6
Continuous
 62
     7
370
    13
100
AcDbLine
 10
788.9000000000224
 20
-41.17230919607607
 30
0.0
 11
788.9000000000224
 21
-38.57230919607753
 31
0.0
  0
LINE
  5
2AF
330
1F
100
AcDbEntity
  8
0
  6
Continuous
 62
     7
370
    13
100
AcDbLine
 10
644.4000000000224
 20
-31.17230919607607
 30
0.0
 11
754.4000000000224
 21
-31.17230919607607
 31
0.0
  0
LINE
  5
2B0
330
1F
100
AcDbEntity
  8
0
  6
Continuous
 62
     7
370
    13
100
AcDbLine
 10
754.4000000000224
 20
-31.17230919607607
 30
0.0
 11
754.4000000000224
 21
-41.17230919607607
 31
0.0
  0
LINE
  5
2B1
330
1F
100
AcDbEntity
  8
0
  6
Continuous
 62
     7
370
    13
100
AcDbLine
 10
644.4000000000224
 20
-41.17230919607607
 30
0.0
 11
644.4000000000224
 21
-31.17230919607607
 31
0.0
  0
LINE
  5
2B2
330
1F
100
AcDbEntity
  8
0
  6
Continuous
 62
     7
370
    13
100
AcDbLine
 10
644.4000000000224
 20
-38.57230919607753
 30
0.0
 11
609.9000000000224
 21
-38.57230919607753
 31
0.0
  0
LINE
  5
2B3
330
1F
100
AcDbEntity
  8
0
  6
Continuous
 62
     7
370
    13
100
AcDbLine
 10
-139.1630405228595
 20
-199.6620495339251
 30
0.0
 11
-124.9879435469286
 21
-224.2137704935334
 31
0.0
  0
LINE
  5
2B4
330
1F
100
AcDbEntity
  8
0
  6
Continuous
 62
     7
370
    13
100
AcDbLine
 10
-139.1627931380795
 20
-199.6619067062551
 30
0.0
 11
-150.4211233873186
 21
-206.1619067062805
 31
0.0
  0
LINE
  5
2B5
330
1F
100
AcDbEntity
  8
0
  6
Continuous
 62
     7
370
    13
100
AcDbLine
 10
-136.2462737961785
 20
-230.7137704935661
 30
0.0
 11
-150.4213707721085
 21
-206.1620495339552
 31
0.0
  0
LINE
  5
2B6
330
1F
100
AcDbEntity
  8
0
  6
Continuous
 62
     7
370
    13
100
AcDbLine
 10
149.5421683025916
 20
-65.71377976512974
 30
0.0
 11
135.3670475157514
 21
-41.16202930418092
 31
0.0
  0
LINE
  5
2B7
330
1F
100
AcDbEntity
  8
0
  6
Continuous
 62
     7
370
    13
100
AcDbLine
 10
146.6256302335214
 20
-34.6618835413841
 30
0.0
 11
135.3672999842704
 21
-41.16188354141411
 31
0.0
  0
LINE
  5
2B8
330
1F
100
AcDbEntity
  8
0
  6
Continuous
 62
     7
370
    13
100
AcDbLine
 10
-210.7727885383888
 20
-123.6306471010415
 30
0.0
 11
-152.4475100923175
 21
-224.6523496915801
 31
0.0
  0
LINE
  5
2B9
330
1F
100
AcDbEntity
  8
0
  6
Continuous
 62
     7
370
    13
100
AcDbLine
 10
-152.4475100923175
 20
-224.6523496915801
 30
0.0
 11
-142.9213010714286
 21
-219.1523903490173
 31
0.0
  0
LINE
  5
2BA
330
1F
100
AcDbEntity
  8
0
  6
Continuous
 62
     7
370
    13
100
AcDbLine
 10
-131.6629708221794
 20
-212.6523903489873
 30
0.0
 11
-122.1366102603886
 21
-207.1523435142357
 31
0.0
  0
LINE
  5
2BB
330
1F
100
AcDbEntity
  8
0
  6
Continuous
 62
     7
370
    13
100
AcDbLine
 10
-122.1366102603886
 20
-207.1523435142357
 30
0.0
 11
-180.4618887064595
 21
-106.1306409236971
 31
0.0
  0
LINE
  5
2BC
330
1F
100
AcDbEntity
  8
0
  6
Continuous
 62
     7
370
    13
100
AcDbLine
 10
-180.4618887064595
 20
-106.1306409236971
 30
0.0
 11
-210.7727885383888
 21
-123.6306471010415
 31
0.0
  0
LINE
  5
2BD
330
1F
100
AcDbEntity
  8
0
  6
Continuous
 62
     7
370
    13
100
AcDbLine
 10
146.6253777650124
 20
-34.66202930414545
 30
0.0
 11
160.8004985518505
 21
-59.21377976509427
 31
0.0
  0
LINE
  5
2BE
330
1F
100
AcDbEntity
  8
0
  6
Continuous
 62
     7
370
    13
100
AcDbLine
 10
76.26562219910147
 20
39.2043052600626
 30
0.0
 11
133.3409088038704
 21
-59.65232911059263
 31
0.0
  0
LINE
  5
2BF
330
1F
100
AcDbEntity
  8
0
  6
Continuous
 62
     7
370
    13
100
AcDbLine
 10
133.3409088038704
 20
-59.65232911059263
 30
0.0
 11
142.8671202788114
 21
-54.15236835117719
 31
0.0
  0
LINE
  5
2C0
330
1F
100
AcDbEntity
  8
0
  6
Continuous
 62
     7
370
    13
100
AcDbLine
 10
154.1254505280604
 20
-47.65236835114717
 30
0.0
 11
163.6518191993814
 21
-42.1523168343623
 31
0.0
  0
LINE
  5
2C1
330
1F
100
AcDbEntity
  8
0
  6
Continuous
 62
     7
370
    13
100
AcDbLine
 10
163.6518191993814
 20
-42.1523168343623
 30
0.0
 11
106.5765113317004
 21
56.70430526014809
 31
0.0
  0
LINE
  5
2C2
330
1F
100
AcDbEntity
  8
0
  6
Continuous
 62
     7
370
    13
100
AcDbLine
 10
106.5765113317004
 20
56.70430526014809
 30
0.0
 11
76.26562219910147
 21
39.2043052600626
 31
0.0
  0
LINE
  5
2C3
330
1F
100
AcDbEntity
  8
0
  6
Continuous
 62
     7
370
    13
100
AcDbLine
 10
-232.8705092967382
 20
434.5755127178371
 30
0.0
 11
-197.8709008717183
 21
434.5755127178371
 31
0.0
  0
LINE
  5
2C4
330
1F
100
AcDbEntity
  8
0
  6
Continuous
 62
     7
370
    13
100
AcDbLine
 10
-197.8709008717183
 20
434.5755127178371
 30
0.0
 11
-197.8709008717183
 21
573.575512717838
 31
0.0
  0
LINE
  5
2C5
330
1F
100
AcDbEntity
  8
0
  6
Continuous
 62
     7
370
    13
100
AcDbLine
 10
-197.8709008717183
 20
573.575512717838
 30
0.0
 11
-232.8705092967382
 21
573.575512717838
 31
0.0
  0
LINE
  5
2C6
330
1F
100
AcDbEntity
  8
0
  6
Continuous
 62
     7
370
    13
100
AcDbLine
 10
-232.8705092967382
 20
573.575512717838
 30
0.0
 11
-232.8705092967382
 21
434.5755127178371
 31
0.0
  0
LINE
  5
2C7
330
1F
100
AcDbEntity
  8
0
  6
Continuous
 62
     7
370
    13
100
AcDbLine
 10
97.1296692415724
 20
573.575512717838
 30
0.0
 11
97.1296692415724
 21
434.5755127178371
 31
0.0
  0
LINE
  5
2C8
330
1F
100
AcDbEntity
  8
0
  6
Continuous
 62
     7
370
    13
100
AcDbLine
 10
132.1292776665914
 20
573.575512717838
 30
0.0
 11
97.1296692415724
 21
573.575512717838
 31
0.0
  0
LINE
  5
2C9
330
1F
100
AcDbEntity
  8
0
  6
Continuous
 62
     7
370
    13
100
AcDbLine
 10
132.1292776665914
 20
434.5755127178371
 30
0.0
 11
132.1292776665914
 21
573.575512717838
 31
0.0
  0
LINE
  5
2CA
330
1F
100
AcDbEntity
  8
0
  6
Continuous
 62
     7
370
    13
100
AcDbLine
 10
97.1296692415724
 20
434.5755127178371
 30
0.0
 11
132.1292776665914
 21
434.5755127178371
 31
0.0
  0
LINE
  5
2CB
330
1F
100
AcDbEntity
  8
0
  6
Continuous
 62
     7
370
    13
100
AcDbLine
 10
-197.8709008717184
 20
449.0755127179281
 30
0.0
 11
-194.3674552871985
 21
449.0755127179301
 31
0.0
  0
LINE
  5
2CC
330
1F
100
AcDbEntity
  8
0
  6
Continuous
 62
     7
370
    13
100
AcDbLine
 10
-232.8705092967382
 20
559.0755127179101
 30
0.0
 11
-284.3674552872696
 21
559.075512717884
 31
0.0
  0
LINE
  5
2CD
330
1F
100
AcDbEntity
  8
0
  6
Continuous
 62
     7
370
    13
100
AcDbLine
 10
97.1296692415724
 20
559.075512717884
 30
0.0
 11
92.63254471273035
 21
559.075512717884
 31
0.0
  0
LINE
  5
2CE
330
1F
100
AcDbEntity
  8
0
  6
Continuous
 62
     7
370
    13
100
AcDbLine
 10
132.1292776665914
 20
557.575512717884
 30
0.0
 11
144.6325447127304
 21
557.575512717884
 31
0.0
  0
LINE
  5
2CF
330
1F
100
AcDbEntity
  8
0
  6
Continuous
 62
     7
370
    13
100
AcDbLine
 10
97.1296692415724
 20
450.575512717884
 30
0.0
 11
92.63254471273035
 21
450.575512717884
 31
0.0
  0
LINE
  5
2D0
330
1F
100
AcDbEntity
  8
0
  6
Continuous
 62
     7
370
    13
100
AcDbLine
 10
132.1292776665914
 20
449.075512717884
 30
0.0
 11
147.6325447127304
 21
449.075512717884
 31
0.0
  0
LINE
  5
2D1
330
1F
100
AcDbEntity
  8
0
  6
Continuous
 62
     7
370
    13
100
AcDbLine
 10
-152.9617574202675
 20
-153.7619623337299
 30
0.0
 11
-149.9308292836886
 21
-152.01205515818
 31
0.0
  0
LINE
  5
2D2
330
1F
100
AcDbEntity
  8
0
  6
Continuous
 62
     7
370
    13
100
AcDbLine
 10
144.5421256970255
 20
-57.0535503256782
 30
0.0
 11
131.1184616024016
 21
-64.8037064042204
 31
0.0
  0
LINE
  5
2D3
330
1F
100
AcDbEntity
  8
0
  6
Continuous
 62
     7
370
    13
100
AcDbLine
 10
751.3711458407515
 20
5.827690803923929
 30
0.0
 11
718.4000000000024
 21
5.827690803923929
 31
0.0
  0
LINE
  5
2D4
330
1F
100
AcDbEntity
  8
0
  6
Continuous
 62
     7
370
    13
100
AcDbLine
 10
680.4000000000024
 20
5.827690803923929
 30
0.0
 11
647.4288541592614
 21
5.827690803923929
 31
0.0
  0
LINE
  5
2D5
330
1F
100
AcDbEntity
  8
0
  6
Continuous
 62
     7
370
    13
100
AcDbLine
 10
-621.5167308680369
 20
-191.1723091960515
 30
0.0
 11
-729.6832691319566
 21
-191.1723091960515
 31
0.0
  0
LINE
  5
2D6
330
1F
100
AcDbEntity
  8
0
  6
Continuous
 62
     7
370
    13
100
AcDbLine
 10
92.63254471273035
 20
451.575512717884
 30
0.0
 11
92.63254471273035
 21
449.075512717884
 31
0.0
  0
LINE
  5
2D7
330
1F
100
AcDbEntity
  8
0
  6
Continuous
 62
     7
370
    13
100
AcDbLine
 10
147.6325447127304
 20
549.0755127178371
 30
0.0
 11
147.6325447127304
 21
559.075512717884
 31
0.0
  0
LINE
  5
2D8
330
1F
100
AcDbEntity
  8
0
  6
Continuous
 62
     7
370
    13
100
AcDbLine
 10
178.7498588105425
 20
-37.30370640422223
 30
0.0
 11
155.8004559462854
 21
-50.5535503256425
 31
0.0
  0
LINE
  5
2D9
330
1F
100
AcDbEntity
  8
0
  6
Continuous
 62
     7
370
    13
100
AcDbLine
 10
131.1184616024016
 20
-64.8037064042204
 30
0.0
 11
112.6184616023904
 21
-32.76076646416766
 31
0.0
  0
LINE
  5
2DA
330
1F
100
AcDbEntity
  8
0
  6
Continuous
 62
     7
370
    13
100
AcDbLine
 10
112.6184616023904
 20
-32.76076646416766
 30
0.0
 11
116.5158243163485
 21
-30.51062305213452
 31
0.0
  0
LINE
  5
2DB
330
1F
100
AcDbEntity
  8
0
  6
Continuous
 62
     7
370
    13
100
AcDbLine
 10
160.2498588105425
 20
-5.260766464170388
 30
0.0
 11
178.7498588105425
 21
-37.30370640422223
 31
0.0
  0
LINE
  5
2DC
330
1F
100
AcDbEntity
  8
0
  6
Continuous
 62
     7
370
    13
100
AcDbLine
 10
92.63254471273035
 20
449.075512717884
 30
0.0
 11
97.1296692415724
 21
449.075512717884
 31
0.0
  0
LINE
  5
2DD
330
1F
100
AcDbEntity
  8
0
  6
Continuous
 62
     7
370
    13
100
AcDbLine
 10
147.6325447127304
 20
449.075512717884
 30
0.0
 11
147.6325447127304
 21
459.0755127178371
 31
0.0
  0
LINE
  5
2DE
330
1F
100
AcDbEntity
  8
0
  6
Continuous
 62
     7
370
    13
100
AcDbLine
 10
147.6325447127304
 20
559.075512717884
 30
0.0
 11
132.1292776665914
 21
559.075512717884
 31
0.0
  0
LINE
  5
2DF
330
1F
100
AcDbEntity
  8
0
  6
Continuous
 62
     7
370
    13
100
AcDbLine
 10
92.63254471273035
 20
559.075512717884
 30
0.0
 11
92.63254471273035
 21
556.575512717884
 31
0.0
  0
LINE
  5
2E0
330
1F
100
AcDbEntity
  8
0
  6
Continuous
 62
     7
370
    13
100
AcDbLine
 10
92.63254471273035
 20
557.575512717884
 30
0.0
 11
97.1296692415724
 21
557.575512717884
 31
0.0
  0
LINE
  5
2E1
330
1F
100
AcDbEntity
  8
0
  6
Continuous
 62
     7
370
    13
100
AcDbLine
 10
144.6325447127304
 20
450.575512717884
 30
0.0
 11
132.1292776665914
 21
450.575512717884
 31
0.0
  0
LINE
  5
2E2
330
1F
100
AcDbEntity
  8
0
  6
Continuous
 62
     7
370
    13
100
AcDbLine
 10
-227.8731156243282
 20
-197.0120551582501
 30
0.0
 11
-183.2726572521888
 21
-171.2619685110877
 31
0.0
  0
LINE
  5
2E3
330
1F
100
AcDbEntity
  8
0
  6
Continuous
 62
     7
370
    13
100
AcDbLine
 10
-149.9308292836886
 20
-152.01205515818
 30
0.0
 11
-172.4308292837095
 21
-113.0409119878408
 31
0.0
  0
LINE
  5
2E4
330
1F
100
AcDbEntity
  8
0
  6
Continuous
 62
     7
370
    13
100
AcDbLine
 10
-172.4308292837095
 20
-113.0409119878408
 30
0.0
 11
-175.4618648362625
 21
-114.7908811800311
 31
0.0
  0
LINE
  5
2E5
330
1F
100
AcDbEntity
  8
0
  6
Continuous
 62
     7
370
    13
100
AcDbLine
 10
-250.373115624338
 20
-158.0409119879045
 30
0.0
 11
-227.8731156243282
 21
-197.0120551582501
 31
0.0
  0
LINE
  5
2E6
330
1F
100
AcDbEntity
  8
0
  6
Continuous
 62
     7
370
    13
100
AcDbLine
 10
-247.7750394129894
 20
-156.5409119879035
 30
0.0
 11
-225.2750394129978
 21
-195.5120551582091
 31
0.0
  0
LINE
  5
2E7
330
1F
100
AcDbEntity
  8
0
  6
Continuous
 62
     7
370
    13
100
AcDbLine
 10
-281.3674552872696
 20
559.075512717884
 30
0.0
 11
-281.3674552872696
 21
449.075512717884
 31
0.0
  0
LINE
  5
2E8
330
1F
100
AcDbEntity
  8
0
  6
Continuous
 62
     7
370
    13
100
AcDbLine
 10
-194.3674552871985
 20
449.0755127179301
 30
0.0
 11
-194.3674552872094
 21
559.0755127179301
 31
0.0
  0
LINE
  5
2E9
330
1F
100
AcDbEntity
  8
0
  6
Continuous
 62
     7
370
    13
100
AcDbLine
 10
-194.3674552872094
 20
559.0755127179301
 30
0.0
 11
-197.8709008717184
 21
559.0755127179281
 31
0.0
  0
LINE
  5
2EA
330
1F
100
AcDbEntity
  8
0
  6
Continuous
 62
     7
370
    13
100
AcDbLine
 10
-284.3674552872696
 20
559.075512717884
 30
0.0
 11
-284.3674552872696
 21
449.075512717884
 31
0.0
  0
LINE
  5
2EB
330
1F
100
AcDbEntity
  8
0
  6
Continuous
 62
     7
370
    13
100
AcDbLine
 10
-284.3674552872696
 20
449.075512717884
 30
0.0
 11
-232.8705092967382
 21
449.0755127179101
 31
0.0
  0
LINE
  5
2EC
330
1F
100
AcDbEntity
  8
0
  6
Continuous
 62
     7
370
    13
100
AcDbLine
 10
157.6517825991805
 20
-6.760766464170388
 30
0.0
 11
160.2498588105425
 21
-5.260766464170388
 31
0.0
  0
LINE
  5
2ED
330
1F
100
AcDbEntity
  8
0
  6
Continuous
 62
     7
370
    13
100
AcDbLine
 10
146.8267284438175
 20
-13.01061439476177
 30
0.0
 11
157.6517825991805
 21
-6.760766464170388
 31
0.0
  0
LINE
  5
2EE
330
1F
100
AcDbEntity
  8
0
  6
Continuous
 62
     7
370
    13
100
AcDbLine
 10
-205.7727646681844
 20
-132.2908873573891
 30
0.0
 11
-250.373115624338
 21
-158.0409119879045
 31
0.0
  0
LINE
  5
2EF
330
1F
100
AcDbEntity
  8
0
  6
Continuous
 62
     7
370
    13
100
AcDbLine
 10
132.1292776665914
 20
451.575512717884
 30
0.0
 11
144.6325447127304
 21
451.575512717884
 31
0.0
  0
LINE
  5
2F0
330
1F
100
AcDbEntity
  8
0
  6
Continuous
 62
     7
370
    13
100
AcDbLine
 10
97.1296692415724
 20
556.575512717884
 30
0.0
 11
-194.3674552872094
 21
556.575512717884
 31
0.0
  0
LINE
  5
2F1
330
1F
100
AcDbEntity
  8
0
  6
Continuous
 62
     7
370
    13
100
AcDbLine
 10
-131.2379758351346
 20
-213.3885148364374
 30
0.0
 11
129.8684616023904
 21
-62.63864289475839
 31
0.0
  0
LINE
  5
2F2
330
1F
100
AcDbEntity
  8
0
  6
Continuous
 62
     7
370
    13
100
AcDbLine
 10
122.4017825991914
 20
54.2940245026108
 30
0.0
 11
111.5765383021624
 21
48.04406679367878
 31
0.0
  0
LINE
  5
2F3
330
1F
100
AcDbEntity
  8
0
  6
Continuous
 62
     7
370
    13
100
AcDbLine
 10
-188.8288869902883
 20
-246.6386428947375
 30
0.0
 11
-142.4963060843857
 21
-219.8885148364674
 31
0.0
  0
LINE
  5
2F4
330
1F
100
AcDbEntity
  8
0
  6
Continuous
 62
     7
370
    13
100
AcDbLine
 10
144.6325447127304
 20
451.575512717884
 30
0.0
 11
144.6325447127304
 21
556.575512717884
 31
0.0
  0
LINE
  5
2F5
330
1F
100
AcDbEntity
  8
0
  6
Continuous
 62
     7
370
    13
100
AcDbLine
 10
144.6325447127304
 20
556.575512717884
 30
0.0
 11
132.1292776665914
 21
556.575512717884
 31
0.0
  0
LINE
  5
2F6
330
1F
100
AcDbEntity
  8
0
  6
Continuous
 62
     7
370
    13
100
AcDbLine
 10
176.1517825991914
 20
-38.80370640422109
 30
0.0
 11
122.4017825991914
 21
54.2940245026108
 31
0.0
  0
LINE
  5
2F7
330
1F
100
AcDbEntity
  8
0
  6
Continuous
 62
     7
370
    13
100
AcDbLine
 10
-215.0788869902794
 20
-201.1723091960488
 30
0.0
 11
-188.8288869902883
 21
-246.6386428947375
 31
0.0
  0
LINE
  5
2F8
330
1F
100
AcDbEntity
  8
0
  6
Continuous
 62
     7
370
    13
100
AcDbLine
 10
-194.3674552872094
 20
451.575512717884
 30
0.0
 11
97.1296692415724
 21
451.575512717884
 31
0.0
  0
LINE
  5
2F9
330
1F
100
AcDbEntity
  8
0
  6
Continuous
 62
     7
370
    13
100
AcDbLine
 10
81.26564730684436
 20
30.54406571815673
 30
0.0
 11
-171.1808292836895
 21
-115.2059754973401
 31
0.0
  0
LINE
  5
2FA
330
1F
100
AcDbEntity
  8
0
  6
Continuous
 62
     7
370
    13
100
AcDbLine
 10
-229.2391410279492
 20
-196.6460297547322
 30
0.0
 11
-234.2391410279492
 21
-187.9857757168869
 31
0.0
  0
LINE
  5
2FB
330
1F
100
AcDbEntity
  8
0
  6
Continuous
 62
     7
370
    13
100
AcDbLine
 10
167.3120366370165
 20
-3.492817271744912
 30
0.0
 11
172.3120366370165
 21
-12.15307130958843
 31
0.0
  0
LINE
  5
2FC
330
1F
100
AcDbEntity
  8
0
  6
Continuous
 62
     7
370
    13
100
AcDbLine
 10
-284.3674552872696
 20
499.075512717838
 30
0.0
 11
-285.3674552872696
 21
499.075512717838
 31
0.0
  0
LINE
  5
2FD
330
1F
100
AcDbEntity
  8
0
  6
Continuous
 62
     7
370
    13
100
AcDbLine
 10
-285.3674552872696
 20
499.075512717838
 30
0.0
 11
-285.3674552872696
 21
509.075512717838
 31
0.0
  0
LINE
  5
2FE
330
1F
100
AcDbEntity
  8
0
  6
Continuous
 62
     7
370
    13
100
AcDbLine
 10
-285.3674552872696
 20
509.075512717838
 30
0.0
 11
-284.3674552872696
 21
509.075512717838
 31
0.0
  0
LINE
  5
2FF
330
1F
100
AcDbEntity
  8
0
  6
Continuous
 62
     7
370
    13
100
AcDbLine
 10
-285.3674552872696
 20
499.475512717837
 30
0.0
 11
-286.6674552872689
 21
499.475512717837
 31
0.0
  0
LINE
  5
300
330
1F
100
AcDbEntity
  8
0
  6
Continuous
 62
     7
370
    13
100
AcDbLine
 10
-286.6674552872689
 20
499.475512717837
 30
0.0
 11
-286.6674552872689
 21
508.675512717837
 31
0.0
  0
LINE
  5
301
330
1F
100
AcDbEntity
  8
0
  6
Continuous
 62
     7
370
    13
100
AcDbLine
 10
-286.6674552872689
 20
508.675512717837
 30
0.0
 11
-285.3674552872696
 21
508.675512717837
 31
0.0
  0
LINE
  5
302
330
1F
100
AcDbEntity
  8
0
  6
Continuous
 62
     7
370
    13
100
AcDbLine
 10
-289.8101896973683
 20
508.6943148713571
 30
0.0
 11
-286.6674552872689
 21
508.6943148713571
 31
0.0
  0
LINE
  5
303
330
1F
100
AcDbEntity
  8
0
  6
Continuous
 62
     7
370
    13
100
AcDbLine
 10
-286.6674552872689
 20
508.6943148713571
 30
0.0
 11
-286.6674552872689
 21
499.456710564321
 31
0.0
  0
LINE
  5
304
330
1F
100
AcDbEntity
  8
0
  6
Continuous
 62
     7
370
    13
100
AcDbLine
 10
-286.6674552872689
 20
499.456710564321
 30
0.0
 11
-289.8101896973683
 21
499.456710564321
 31
0.0
  0
LINE
  5
305
330
1F
100
AcDbEntity
  8
0
  6
Continuous
 62
     7
370
    13
100
AcDbLine
 10
-286.6674552872689
 20
506.575512717838
 30
0.0
 11
-275.5674552872686
 21
506.575512717838
 31
0.0
  0
LINE
  5
306
330
1F
100
AcDbEntity
  8
0
  6
Continuous
 62
     7
370
    13
100
AcDbLine
 10
-275.5674552872686
 20
506.575512717838
 30
0.0
 11
-274.6674552872689
 21
505.675512717837
 31
0.0
  0
LINE
  5
307
330
1F
100
AcDbEntity
  8
0
  6
Continuous
 62
     7
370
    13
100
AcDbLine
 10
-274.6674552872689
 20
505.675512717837
 30
0.0
 11
-274.6674552872689
 21
502.475512717837
 31
0.0
  0
LINE
  5
308
330
1F
100
AcDbEntity
  8
0
  6
Continuous
 62
     7
370
    13
100
AcDbLine
 10
-274.6674552872689
 20
502.475512717837
 30
0.0
 11
-275.5674552872686
 21
501.575512717838
 31
0.0
  0
LINE
  5
309
330
1F
100
AcDbEntity
  8
0
  6
Continuous
 62
     7
370
    13
100
AcDbLine
 10
-275.5674552872686
 20
501.575512717838
 30
0.0
 11
-286.6674552872689
 21
501.575512717838
 31
0.0
  0
LINE
  5
30A
330
1F
100
AcDbEntity
  8
0
  6
Continuous
 62
     7
370
    13
100
AcDbLine
 10
-286.6674552872689
 20
506.3849137945971
 30
0.0
 11
-289.8101896973683
 21
506.3849137945971
 31
0.0
  0
LINE
  5
30B
330
1F
100
AcDbEntity
  8
0
  6
Continuous
 62
     7
370
    13
100
AcDbLine
 10
-286.6674552872689
 20
501.7661116410801
 30
0.0
 11
-289.8101896973683
 21
501.7661116410801
 31
0.0
  0
LINE
  5
30C
330
1F
100
AcDbEntity
  8
0
  6
Continuous
 62
     7
370
    13
100
AcDbLine
 10
-290.1674552872689
 20
500.611411102701
 30
0.0
 11
-290.1674552872689
 21
507.5396143329771
 31
0.0
  0
LINE
  5
30D
330
1F
100
AcDbEntity
  8
0
  6
Continuous
 62
     7
370
    13
100
AcDbLine
 10
-285.9174772875892
 20
506.575512717838
 30
0.0
 11
-285.9174772875892
 21
501.575512717838
 31
0.0
  0
LINE
  5
30E
330
1F
100
AcDbEntity
  8
0
  6
Continuous
 62
     7
370
    13
100
AcDbLine
 10
-233.4654740528681
 20
-190.4258502265142
 30
0.0
 11
-230.9654740528681
 21
-194.7559772454364
 31
0.0
  0
LINE
  5
30F
330
1F
100
AcDbEntity
  8
0
  6
Continuous
 62
     7
370
    13
100
AcDbLine
 10
-234.1640121585392
 20
-197.7159027358088
 30
0.0
 11
-237.6281137736792
 21
-191.7159027358097
 31
0.0
  0
LINE
  5
310
330
1F
100
AcDbEntity
  8
0
  6
Continuous
 62
     7
370
    13
100
AcDbLine
 10
-231.7102735144895
 20
-194.9659027358097
 30
0.0
 11
-234.4319613509783
 21
-196.5372699408593
 31
0.0
  0
LINE
  5
311
330
1F
100
AcDbEntity
  8
0
  6
Continuous
 62
     7
370
    13
100
AcDbLine
 10
-234.0196745912385
 20
-190.9659027358097
 30
0.0
 11
-236.7413624277383
 21
-192.5372699408603
 31
0.0
  0
LINE
  5
312
330
1F
100
AcDbEntity
  8
0
  6
Continuous
 62
     7
370
    13
100
AcDbLine
 10
-222.002092070858
 20
-189.5809662452724
 30
0.0
 11
-231.6149740528585
 21
-195.1309662452708
 31
0.0
  0
LINE
  5
313
330
1F
100
AcDbEntity
  8
0
  6
Continuous
 62
     7
370
    13
100
AcDbLine
 10
-221.6726692074485
 20
-188.3515433818651
 30
0.0
 11
-222.002092070858
 21
-189.5809662452724
 31
0.0
  0
LINE
  5
314
330
1F
100
AcDbEntity
  8
0
  6
Continuous
 62
     7
370
    13
100
AcDbLine
 10
-223.2726692074489
 20
-185.580262089757
 30
0.0
 11
-221.6726692074485
 21
-188.3515433818651
 31
0.0
  0
LINE
  5
315
330
1F
100
AcDbEntity
  8
0
  6
Continuous
 62
     7
370
    13
100
AcDbLine
 10
-224.502092070858
 20
-185.2508392263502
 30
0.0
 11
-223.2726692074489
 21
-185.580262089757
 31
0.0
  0
LINE
  5
316
330
1F
100
AcDbEntity
  8
0
  6
Continuous
 62
     7
370
    13
100
AcDbLine
 10
-234.1149740528585
 20
-190.8008392263486
 30
0.0
 11
-224.502092070858
 21
-185.2508392263502
 31
0.0
  0
LINE
  5
317
330
1F
100
AcDbEntity
  8
0
  6
Continuous
 62
     7
370
    13
100
AcDbLine
 10
-230.5555729761095
 20
-196.9659027358097
 30
0.0
 11
-233.2772608125983
 21
-198.5372699408603
 31
0.0
  0
LINE
  5
318
330
1F
100
AcDbEntity
  8
0
  6
Continuous
 62
     7
370
    13
100
AcDbLine
 10
-237.8960629661183
 20
-190.5372699408593
 30
0.0
 11
-235.1743751296185
 21
-188.9659027358088
 31
0.0
  0
LINE
  5
319
330
1F
100
AcDbEntity
  8
0
  6
Continuous
 62
     7
370
    13
100
AcDbLine
 10
-235.1649740528687
 20
-188.9821858784002
 30
0.0
 11
-234.0391410279485
 21
-188.3321858784033
 31
0.0
  0
LINE
  5
31A
330
1F
100
AcDbEntity
  8
0
  6
Continuous
 62
     7
370
    13
100
AcDbLine
 10
-230.5649740528684
 20
-196.9496195932192
 30
0.0
 11
-235.1649740528687
 21
-188.9821858784002
 31
0.0
  0
LINE
  5
31B
330
1F
100
AcDbEntity
  8
0
  6
Continuous
 62
     7
370
    13
100
AcDbLine
 10
-229.4391410279482
 20
-196.2996195932195
 30
0.0
 11
-230.5649740528684
 21
-196.9496195932192
 31
0.0
  0
LINE
  5
31C
330
1F
100
AcDbEntity
  8
0
  6
Continuous
 62
     7
370
    13
100
AcDbLine
 10
-234.2391410279492
 20
-187.9857757168869
 30
0.0
 11
-233.3731156241579
 21
-187.4857757168887
 31
0.0
  0
LINE
  5
31D
330
1F
100
AcDbEntity
  8
0
  6
Continuous
 62
     7
370
    13
100
AcDbLine
 10
-228.3731156241579
 20
-196.1460297547322
 30
0.0
 11
-229.2391410279492
 21
-196.6460297547322
 31
0.0
  0
LINE
  5
31E
330
1F
100
AcDbEntity
  8
0
  6
Continuous
 62
     7
370
    13
100
AcDbLine
 10
172.3120366370165
 20
-12.15307130958843
 30
0.0
 11
171.4460112332365
 21
-12.65307130958843
 31
0.0
  0
LINE
  5
31F
330
1F
100
AcDbEntity
  8
0
  6
Continuous
 62
     7
370
    13
100
AcDbLine
 10
166.4460112332365
 20
-3.992817271744912
 30
0.0
 11
167.3120366370165
 21
-3.492817271744912
 31
0.0
  0
LINE
  5
320
330
1F
100
AcDbEntity
  8
0
  6
Continuous
 62
     7
370
    13
100
AcDbLine
 10
173.2378696619364
 20
-11.15666114807607
 30
0.0
 11
172.1120366370164
 21
-11.8066611480757
 31
0.0
  0
LINE
  5
321
330
1F
100
AcDbEntity
  8
0
  6
Continuous
 62
     7
370
    13
100
AcDbLine
 10
167.5120366370154
 20
-3.839227433258543
 30
0.0
 11
168.6378696619465
 21
-3.189227433254359
 31
0.0
  0
LINE
  5
322
330
1F
100
AcDbEntity
  8
0
  6
Continuous
 62
     7
370
    13
100
AcDbLine
 10
168.6284685851865
 20
-3.17294429066294
 30
0.0
 11
171.3501564216654
 21
-1.601577085622353
 31
0.0
  0
LINE
  5
323
330
1F
100
AcDbEntity
  8
0
  6
Continuous
 62
     7
370
    13
100
AcDbLine
 10
173.2472707386955
 20
-11.17294429066658
 30
0.0
 11
168.6284685851865
 21
-3.17294429066294
 31
0.0
  0
LINE
  5
324
330
1F
100
AcDbEntity
  8
0
  6
Continuous
 62
     7
370
    13
100
AcDbLine
 10
175.9689585751764
 20
-9.601577085622353
 30
0.0
 11
173.2472707386955
 21
-11.17294429066658
 31
0.0
  0
LINE
  5
325
330
1F
100
AcDbEntity
  8
0
  6
Continuous
 62
     7
370
    13
100
AcDbLine
 10
172.5048569600453
 20
-3.601577085623262
 30
0.0
 11
169.7831691235665
 21
-5.17294429066294
 31
0.0
  0
LINE
  5
326
330
1F
100
AcDbEntity
  8
0
  6
Continuous
 62
     7
370
    13
100
AcDbLine
 10
174.8142580368055
 20
-7.601577085621443
 30
0.0
 11
172.0925702003265
 21
-9.172944290661121
 31
0.0
  0
LINE
  5
327
330
1F
100
AcDbEntity
  8
0
  6
Continuous
 62
     7
370
    13
100
AcDbLine
 10
172.2369077676265
 20
-2.422944290661121
 30
0.0
 11
175.7010093827555
 21
-8.422944290667488
 31
0.0
  0
LINE
  5
328
330
1F
100
AcDbEntity
  8
0
  6
Continuous
 62
     7
370
    13
100
AcDbLine
 10
160.2498588105425
 20
-5.260766464170388
 30
0.0
 11
152.7498588105425
 21
7.729614592569874
 31
0.0
  0
LINE
  5
329
330
1F
100
AcDbEntity
  8
0
  6
Continuous
 62
     7
370
    13
100
AcDbLine
 10
-683.0999999999968
 20
-198.1723091960515
 30
0.0
 11
-720.5999999999967
 21
-198.1723091960515
 31
0.0
  0
LINE
  5
32A
330
1F
100
AcDbEntity
  8
0
  6
Continuous
 62
     7
370
    13
100
AcDbLine
 10
144.6325447127304
 20
549.0755127178371
 30
0.0
 11
174.6325447127304
 21
549.075512717838
 31
0.0
  0
LINE
  5
32B
330
1F
100
AcDbEntity
  8
0
  6
Continuous
 62
     7
370
    13
100
AcDbLine
 10
173.1325447127304
 20
26.42576701527889
 30
0.0
 11
176.1325447127304
 21
21.22961459257078
 31
0.0
  0
LINE
  5
32C
330
1F
100
AcDbEntity
  8
0
  6
Continuous
 62
     7
370
    13
100
AcDbLine
 10
176.1325447127304
 20
21.22961459257078
 30
0.0
 11
150.1517825991914
 21
6.229614592574421
 31
0.0
  0
LINE
  5
32D
330
1F
100
AcDbEntity
  8
0
  6
Continuous
 62
     7
370
    13
100
AcDbLine
 10
174.6325447127304
 20
549.075512717838
 30
0.0
 11
174.6325447127304
 21
459.0755127178371
 31
0.0
  0
LINE
  5
32E
330
1F
100
AcDbEntity
  8
0
  6
Continuous
 62
     7
370
    13
100
AcDbLine
 10
744.4000000000024
 20
26.82769080392393
 30
0.0
 11
654.4000000000024
 21
26.82769080392393
 31
0.0
  0
LINE
  5
32F
330
1F
100
AcDbEntity
  8
0
  6
Continuous
 62
     7
370
    13
100
AcDbLine
 10
654.4000000000024
 20
26.82769080392393
 30
0.0
 11
654.4000000000024
 21
20.82769080392393
 31
0.0
  0
LINE
  5
330
330
1F
100
AcDbEntity
  8
0
  6
Continuous
 62
     7
370
    13
100
AcDbLine
 10
654.4000000000024
 20
20.82769080392393
 30
0.0
 11
744.4000000000024
 21
20.82769080392393
 31
0.0
  0
LINE
  5
331
330
1F
100
AcDbEntity
  8
0
  6
Continuous
 62
     7
370
    13
100
AcDbLine
 10
744.4000000000024
 20
20.82769080392393
 30
0.0
 11
744.4000000000024
 21
26.82769080392393
 31
0.0
  0
LINE
  5
332
330
1F
100
AcDbEntity
  8
0
  6
Continuous
 62
     7
370
    13
100
AcDbLine
 10
-630.5999999999968
 20
-204.1723091960515
 30
0.0
 11
-630.5999999999968
 21
-201.1723091960515
 31
0.0
  0
LINE
  5
333
330
1F
100
AcDbEntity
  8
0
  6
Continuous
 62
     7
370
    13
100
AcDbLine
 10
-720.5999999999967
 20
-204.1723091960515
 30
0.0
 11
-630.5999999999968
 21
-204.1723091960515
 31
0.0
  0
LINE
  5
334
330
1F
100
AcDbEntity
  8
0
  6
Continuous
 62
     7
370
    13
100
AcDbLine
 10
-720.5999999999967
 20
-198.1723091960515
 30
0.0
 11
-720.5999999999967
 21
-201.1723091960515
 31
0.0
  0
LINE
  5
335
330
1F
100
AcDbEntity
  8
0
  6
Continuous
 62
     7
370
    13
100
AcDbLine
 10
-630.5999999999968
 20
-198.1723091960515
 30
0.0
 11
-668.0999999999968
 21
-198.1723091960515
 31
0.0
  0
LINE
  5
336
330
1F
100
AcDbEntity
  8
0
  6
Continuous
 62
     7
370
    13
100
AcDbLine
 10
147.1517825991914
 20
11.42576701528162
 30
0.0
 11
173.1325447127304
 21
26.42576701527889
 31
0.0
  0
LINE
  5
337
330
1F
100
AcDbEntity
  8
0
  6
Continuous
 62
     7
370
    13
100
AcDbLine
 10
-630.5999999999968
 20
-201.1723091960515
 30
0.0
 11
-630.5999999999968
 21
-198.1723091960515
 31
0.0
  0
LINE
  5
338
330
1F
100
AcDbEntity
  8
0
  6
Continuous
 62
     7
370
    13
100
AcDbLine
 10
-720.5999999999967
 20
-201.1723091960515
 30
0.0
 11
-720.5999999999967
 21
-204.1723091960515
 31
0.0
  0
LINE
  5
339
330
1F
100
AcDbEntity
  8
0
  6
Continuous
 62
     7
370
    13
100
AcDbLine
 10
174.6325447127304
 20
459.0755127178371
 30
0.0
 11
144.6325447127304
 21
459.0755127178371
 31
0.0
  0
LINE
  5
33A
330
1F
100
AcDbEntity
  8
0
  6
Continuous
 62
     7
370
    13
100
AcDbLine
 10
682.4000000000024
 20
-23.17230919607607
 30
0.0
 11
716.4000000000024
 21
-23.17230919607607
 31
0.0
  0
LINE
  5
33B
330
1F
100
AcDbEntity
  8
0
  6
Continuous
 62
     7
370
    13
100
AcDbLine
 10
718.4000000000024
 20
-21.17230919607607
 30
0.0
 11
718.4000000000024
 21
20.82769080392393
 31
0.0
  0
LINE
  5
33C
330
1F
100
AcDbEntity
  8
0
  6
Continuous
 62
     7
370
    13
100
AcDbLine
 10
718.4000000000024
 20
-21.17230919607607
 30
0.0
 11
716.4000000000024
 21
-23.17230919607607
 31
0.0
  0
LINE
  5
33D
330
1F
100
AcDbEntity
  8
0
  6
Continuous
 62
     7
370
    13
100
AcDbLine
 10
682.4000000000024
 20
-23.17230919607607
 30
0.0
 11
680.4000000000024
 21
-21.17230919607607
 31
0.0
  0
LINE
  5
33E
330
1F
100
AcDbEntity
  8
0
  6
Continuous
 62
     7
370
    13
100
AcDbLine
 10
-668.0999999999968
 20
-204.1723091960515
 30
0.0
 11
-668.0999999999968
 21
-191.1723091960515
 31
0.0
  0
LINE
  5
33F
330
1F
100
AcDbEntity
  8
0
  6
Continuous
 62
     7
370
    13
100
AcDbLine
 10
-683.0999999999968
 20
-204.1723091960515
 30
0.0
 11
-668.0999999999968
 21
-204.1723091960515
 31
0.0
  0
LINE
  5
340
330
1F
100
AcDbEntity
  8
0
  6
Continuous
 62
     7
370
    13
100
AcDbLine
 10
-225.2750394129929
 20
-195.5120551582078
 30
0.0
 11
-218.7750394129985
 21
-206.7703854074074
 31
0.0
  0
LINE
  5
341
330
1F
100
AcDbEntity
  8
0
  6
Continuous
 62
     7
370
    13
100
AcDbLine
 10
-218.7750394129985
 20
-206.7703854074074
 30
0.0
 11
-213.5788869902794
 21
-203.7703854074038
 31
0.0
  0
LINE
  5
342
330
1F
100
AcDbEntity
  8
0
  6
Continuous
 62
     7
370
    13
100
AcDbLine
 10
152.7498588105425
 20
7.729614592569874
 30
0.0
 11
157.9460112332524
 21
10.72961459256805
 31
0.0
  0
LINE
  5
343
330
1F
100
AcDbEntity
  8
0
  6
Continuous
 62
     7
370
    13
100
AcDbLine
 10
157.9460112332524
 20
10.72961459256805
 30
0.0
 11
179.9460112332324
 21
-27.37550317392231
 31
0.0
  0
LINE
  5
344
330
1F
100
AcDbEntity
  8
0
  6
Continuous
 62
     7
370
    13
100
AcDbLine
 10
179.9460112332324
 20
-27.37550317392231
 30
0.0
 11
174.7498588105225
 21
-30.37550317392049
 31
0.0
  0
LINE
  5
345
330
1F
100
AcDbEntity
  8
0
  6
Continuous
 62
     7
370
    13
100
AcDbLine
 10
-683.0999999999968
 20
-191.1723091960515
 30
0.0
 11
-683.0999999999968
 21
-204.1723091960515
 31
0.0
  0
LINE
  5
346
330
1F
100
AcDbEntity
  8
0
  6
Continuous
 62
     7
370
    13
100
AcDbLine
 10
680.4000000000024
 20
20.82769080392393
 30
0.0
 11
680.4000000000024
 21
-21.17230919607607
 31
0.0
  0
LINE
  5
347
330
1F
100
AcDbEntity
  8
0
  6
Continuous
 62
     7
370
    13
100
AcDbLine
 10
169.6332321906013
 20
605.875512717787
 30
0.0
 11
144.6325447126815
 21
605.875512717787
 31
0.0
  0
LINE
  5
348
330
1F
100
AcDbEntity
  8
0
  6
Continuous
 62
     7
370
    13
100
AcDbLine
 10
167.4688771339065
 20
601.375512717787
 30
0.0
 11
202.4688771339074
 21
557.575512717791
 31
0.0
  0
LINE
  5
349
330
1F
100
AcDbEntity
  8
0
  6
Continuous
 62
     7
370
    13
100
AcDbLine
 10
204.6332321906013
 20
562.075512717791
 30
0.0
 11
169.6332321906013
 21
605.875512717787
 31
0.0
  0
LINE
  5
34A
330
1F
100
AcDbEntity
  8
0
  6
Continuous
 62
     7
370
    13
100
AcDbLine
 10
144.6325447126815
 20
601.375512717787
 30
0.0
 11
167.4688771339065
 21
601.375512717787
 31
0.0
  0
LINE
  5
34B
330
1F
100
AcDbEntity
  8
0
  6
Continuous
 62
     7
370
    13
100
AcDbLine
 10
247.8029171658366
 20
-112.9059584124037
 30
0.0
 11
212.8029171658316
 21
-52.2841801474782
 31
0.0
  0
LINE
  5
34C
330
1F
100
AcDbEntity
  8
0
  6
Continuous
 62
     7
370
    13
100
AcDbLine
 10
278.1138062983075
 20
-95.4059584124301
 30
0.0
 11
243.1138062983034
 21
-34.78418014750548
 31
0.0
  0
LINE
  5
34D
330
1F
100
AcDbEntity
  8
0
  6
Continuous
 62
     7
370
    13
100
AcDbLine
 10
167.4688771339065
 20
406.775512717887
 30
0.0
 11
144.6325447126815
 21
406.775512717887
 31
0.0
  0
LINE
  5
34E
330
1F
100
AcDbEntity
  8
0
  6
Continuous
 62
     7
370
    13
100
AcDbLine
 10
251.5635050908654
 20
562.0755127178821
 30
0.0
 11
251.5635050908654
 21
557.5755127178821
 31
0.0
  0
LINE
  5
34F
330
1F
100
AcDbEntity
  8
0
  6
Continuous
 62
     7
370
    13
100
AcDbLine
 10
331.6511813830246
 20
562.0755127178821
 30
0.0
 11
204.6332321905295
 21
562.0755127178821
 31
0.0
  0
LINE
  5
350
330
1F
100
AcDbEntity
  8
0
  6
Continuous
 62
     7
370
    13
100
AcDbLine
 10
331.6511813830246
 20
557.5755127178821
 30
0.0
 11
331.6511813830246
 21
562.0755127178821
 31
0.0
  0
LINE
  5
351
330
1F
100
AcDbEntity
  8
0
  6
Continuous
 62
     7
370
    13
100
AcDbLine
 10
202.4688771338344
 20
557.5755127178821
 30
0.0
 11
331.6511813830246
 21
557.5755127178821
 31
0.0
  0
LINE
  5
352
330
1F
100
AcDbEntity
  8
0
  6
Continuous
 62
     7
370
    13
100
AcDbLine
 10
169.6332321906013
 20
402.275512717887
 30
0.0
 11
204.6332321906013
 21
446.0755127178821
 31
0.0
  0
LINE
  5
353
330
1F
100
AcDbEntity
  8
0
  6
Continuous
 62
     7
370
    13
100
AcDbLine
 10
202.4688771339074
 20
450.5755127178821
 30
0.0
 11
167.4688771339065
 21
406.775512717887
 31
0.0
  0
LINE
  5
354
330
1F
100
AcDbEntity
  8
0
  6
Continuous
 62
     7
370
    13
100
AcDbLine
 10
144.6325447126815
 20
402.275512717887
 30
0.0
 11
169.6332321906013
 21
402.275512717887
 31
0.0
  0
LINE
  5
355
330
1F
100
AcDbEntity
  8
0
  6
Continuous
 62
     7
370
    13
100
AcDbLine
 10
331.6511813830246
 20
450.5755127178821
 30
0.0
 11
202.4688771339074
 21
450.5755127178821
 31
0.0
  0
LINE
  5
356
330
1F
100
AcDbEntity
  8
0
  6
Continuous
 62
     7
370
    13
100
AcDbLine
 10
331.6511813830246
 20
446.0755127178821
 30
0.0
 11
331.6511813830246
 21
450.5755127178821
 31
0.0
  0
LINE
  5
357
330
1F
100
AcDbEntity
  8
0
  6
Continuous
 62
     7
370
    13
100
AcDbLine
 10
204.6332321906013
 20
446.0755127178821
 30
0.0
 11
331.6511813830246
 21
446.0755127178821
 31
0.0
  0
LINE
  5
358
330
1F
100
AcDbEntity
  8
0
  6
Continuous
 62
     7
370
    13
100
AcDbLine
 10
251.5635050908654
 20
450.5755127178821
 30
0.0
 11
251.5635050908654
 21
446.0755127178821
 31
0.0
  0
LINE
  5
359
330
1F
100
AcDbEntity
  8
0
  6
Continuous
 62
     7
370
    13
100
AcDbLine
 10
290.3862196578714
 20
-1.717936877271654
 30
0.0
 11
290.3862196578714
 21
15.5940415875599
 31
0.0
  0
LINE
  5
35A
330
1F
100
AcDbEntity
  8
0
  6
Continuous
 62
     7
370
    13
100
AcDbLine
 10
292.3862196578714
 20
17.59404158755808
 30
0.0
 11
358.3862196578605
 21
17.59404158750078
 31
0.0
  0
LINE
  5
35B
330
1F
100
AcDbEntity
  8
0
  6
Continuous
 62
     7
370
    13
100
AcDbLine
 10
360.3862196578605
 20
15.59404158749805
 30
0.0
 11
360.3862196578054
 21
-42.1324557206475
 31
0.0
  0
LINE
  5
35C
330
1F
100
AcDbEntity
  8
0
  6
Continuous
 62
     7
370
    13
100
AcDbLine
 10
355.3862196577984
 20
-50.79270975848738
 30
0.0
 11
224.9915285613265
 21
-126.0761197637797
 31
0.0
  0
LINE
  5
35D
330
1F
100
AcDbEntity
  8
0
  6
Continuous
 62
     7
370
    13
100
AcDbLine
 10
191.1516866978614
 20
-64.78452388642143
 30
0.0
 11
285.3862196578634
 21
-10.37819091512063
 31
0.0
  0
LINE
  5
35E
330
1F
100
AcDbEntity
  8
0
  6
Continuous
 62
     7
370
    13
100
AcDbLine
 10
641.4000000000015
 20
-131.1723091960788
 30
0.0
 11
641.4000000000015
 21
-61.1723091960788
 31
0.0
  0
LINE
  5
35F
330
1F
100
AcDbEntity
  8
0
  6
Continuous
 62
     7
370
    13
100
AcDbLine
 10
757.3999999999994
 20
-131.1723091960788
 30
0.0
 11
757.3999999999994
 21
-61.1723091960788
 31
0.0
  0
LINE
  5
360
330
1F
100
AcDbEntity
  8
0
  6
Continuous
 62
     7
370
    13
100
AcDbLine
 10
645.9000000000005
 20
-61.1723091960788
 30
0.0
 11
645.9000000000005
 21
-131.1723091960788
 31
0.0
  0
LINE
  5
361
330
1F
100
AcDbEntity
  8
0
  6
Continuous
 62
     7
370
    13
100
AcDbLine
 10
597.6000000000004
 20
-61.1723091960788
 30
0.0
 11
645.9000000000005
 21
-61.1723091960788
 31
0.0
  0
LINE
  5
362
330
1F
100
AcDbEntity
  8
0
  6
Continuous
 62
     7
370
    13
100
AcDbLine
 10
645.9000000000005
 20
-131.1723091960788
 30
0.0
 11
597.6000000000004
 21
-131.1723091960788
 31
0.0
  0
LINE
  5
363
330
1F
100
AcDbEntity
  8
0
  6
Continuous
 62
     7
370
    13
100
AcDbLine
 10
752.8999999999994
 20
-131.1723091960788
 30
0.0
 11
801.1999999999985
 21
-131.1723091960788
 31
0.0
  0
LINE
  5
364
330
1F
100
AcDbEntity
  8
0
  6
Continuous
 62
     7
370
    13
100
AcDbLine
 10
752.8999999999994
 20
-61.1723091960788
 30
0.0
 11
752.8999999999994
 21
-131.1723091960788
 31
0.0
  0
LINE
  5
365
330
1F
100
AcDbEntity
  8
0
  6
Continuous
 62
     7
370
    13
100
AcDbLine
 10
801.1999999999985
 20
-61.1723091960788
 30
0.0
 11
752.8999999999994
 21
-61.1723091960788
 31
0.0
  0
ARC
  5
366
330
1F
100
AcDbEntity
  8
0
  6
Continuous
 62
     7
370
    13
100
AcDbCircle
 10
114.6323251229014
 20
431.5755127291171
 30
0.0
 40
5.5
100
AcDbArc
 50
0.0
 51
180.0
  0
ARC
  5
367
330
1F
100
AcDbEntity
  8
0
  6
Continuous
 62
     7
370
    13
100
AcDbCircle
 10
114.6323251229014
 20
427.575512717838
 30
0.0
 40
5.5
100
AcDbArc
 50
180.0
 51
0.0
  0
ARC
  5
368
330
1F
100
AcDbEntity
  8
0
  6
Continuous
 62
     7
370
    13
100
AcDbCircle
 10
-215.3678534154085
 20
427.575512717838
 30
0.0
 40
5.5
100
AcDbArc
 50
180.0
 51
0.0
  0
ARC
  5
369
330
1F
100
AcDbEntity
  8
0
  6
Continuous
 62
     7
370
    13
100
AcDbCircle
 10
-215.3678534154085
 20
431.5755127291171
 30
0.0
 40
5.5
100
AcDbArc
 50
0.0
 51
180.0
  0
ARC
  5
36A
330
1F
100
AcDbEntity
  8
0
  6
Continuous
 62
     7
370
    13
100
AcDbCircle
 10
114.6323251229014
 20
580.5755127178401
 30
0.0
 40
5.5
100
AcDbArc
 50
0.0
 51
180.0
  0
ARC
  5
36B
330
1F
100
AcDbEntity
  8
0
  6
Continuous
 62
     7
370
    13
100
AcDbCircle
 10
114.6323251229014
 20
576.5755127065601
 30
0.0
 40
5.5
100
AcDbArc
 50
180.0
 51
0.0
  0
ARC
  5
36C
330
1F
100
AcDbEntity
  8
0
  6
Continuous
 62
     7
370
    13
100
AcDbCircle
 10
-215.3678534154085
 20
576.5755127065601
 30
0.0
 40
5.5
100
AcDbArc
 50
180.0
 51
0.0
  0
ARC
  5
36D
330
1F
100
AcDbEntity
  8
0
  6
Continuous
 62
     7
370
    13
100
AcDbCircle
 10
-215.3678534154085
 20
580.5755127178401
 30
0.0
 40
5.5
100
AcDbArc
 50
0.0
 51
180.0
  0
ARC
  5
36E
330
1F
100
AcDbEntity
  8
0
  6
Continuous
 62
     7
370
    13
100
AcDbCircle
 10
699.4000000000224
 20
19.17769080392156
 30
0.0
 40
57.14999999999918
100
AcDbArc
 50
0.0
 51
180.0
  0
ARC
  5
36F
330
1F
100
AcDbEntity
  8
0
  6
Continuous
 62
     7
370
    13
100
AcDbCircle
 10
699.4000000000224
 20
19.17769080392156
 30
0.0
 40
67.14999999999918
100
AcDbArc
 50
0.0
 51
180.0
  0
ARC
  5
370
330
1F
100
AcDbEntity
  8
0
  6
Continuous
 62
     7
370
    13
100
AcDbCircle
 10
699.4000000000024
 20
23.82769080392393
 30
0.0
 40
54.99999999999607
100
AcDbArc
 50
199.1033244774874
 51
340.8966755225154
  0
ARC
  5
371
330
1F
100
AcDbEntity
  8
0
  6
Continuous
 62
     7
370
    13
100
AcDbCircle
 10
-675.5999999999968
 20
-201.1723091960515
 30
0.0
 40
55.00000000000009
100
AcDbArc
 50
10.47568169638989
 51
169.5243183036101
  0
ARC
  5
372
330
1F
100
AcDbEntity
  8
0
  6
Continuous
 62
     7
370
    13
100
AcDbCircle
 10
699.4000000000024
 20
23.82769080392393
 30
0.0
 40
52.5
100
AcDbArc
 50
0.0
 51
200.0510425665059
  0
ARC
  5
373
330
1F
100
AcDbEntity
  8
0
  6
Continuous
 62
     7
370
    13
100
AcDbCircle
 10
699.4000000000024
 20
23.82769080392393
 30
0.0
 40
48.5
100
AcDbArc
 50
0.0
 51
201.785572279161
  0
ARC
  5
374
330
1F
100
AcDbEntity
  8
0
  6
Continuous
 62
     7
370
    13
100
AcDbCircle
 10
699.4000000000024
 20
23.82769080392393
 30
0.0
 40
48.49999999999881
100
AcDbArc
 50
338.2144277208379
 51
0.0
  0
ARC
  5
375
330
1F
100
AcDbEntity
  8
0
  6
Continuous
 62
     7
370
    13
100
AcDbCircle
 10
699.4000000000024
 20
23.82769080392393
 30
0.0
 40
52.4999999999993
100
AcDbArc
 50
339.9489574334938
 51
0.0
  0
ARC
  5
376
330
1F
100
AcDbEntity
  8
0
  6
Continuous
 62
     7
370
    13
100
AcDbCircle
 10
-675.5999999999968
 20
-201.1723091960388
 30
0.0
 40
52.50000000000018
100
AcDbArc
 50
169.019424572402
 51
10.98057542759793
  0
ARC
  5
377
330
1F
100
AcDbEntity
  8
0
  6
Continuous
 62
     7
370
    13
100
AcDbCircle
 10
-675.5999999999968
 20
-201.1723091960515
 30
0.0
 40
49.49999999999997
100
AcDbArc
 50
168.3448801337132
 51
11.65511986628676
  0
ARC
  5
378
330
1F
100
AcDbEntity
  8
0
  6
Continuous
 62
     7
370
    13
100
AcDbCircle
 10
-288.1227970885291
 20
500.611411102701
 30
0.0
 40
2.044658198745734
100
AcDbArc
 50
145.6157525321024
 51
214.3842474679186
  0
ARC
  5
379
330
1F
100
AcDbEntity
  8
0
  6
Continuous
 62
     7
370
    13
100
AcDbCircle
 10
-282.5247208771495
 20
504.075512717838
 30
0.0
 40
7.642734410125431
100
AcDbArc
 50
162.4120462260817
 51
197.5879537739102
  0
ARC
  5
37A
330
1F
100
AcDbEntity
  8
0
  6
Continuous
 62
     7
370
    13
100
AcDbCircle
 10
-288.1227970885291
 20
507.5396143329771
 30
0.0
 40
2.044658198746247
100
AcDbArc
 50
145.6157525320814
 51
214.3842474679186
  0
ARC
  5
37B
330
1F
100
AcDbEntity
  8
0
  6
Continuous
 62
     7
370
    13
100
AcDbCircle
 10
-235.8573878315187
 20
-190.6935736364397
 30
0.0
 40
2.044658198742899
100
AcDbArc
 50
175.615752532092
 51
244.3842474680056
  0
ARC
  5
37C
330
1F
100
AcDbEntity
  8
0
  6
Continuous
 62
     7
370
    13
100
AcDbCircle
 10
-229.2772608125692
 20
-190.8945355307491
 30
0.0
 40
7.642734410126566
100
AcDbArc
 50
192.4120462260975
 51
227.5879537739219
  0
ARC
  5
37D
330
1F
100
AcDbEntity
  8
0
  6
Continuous
 62
     7
370
    13
100
AcDbCircle
 10
-232.3932862163788
 20
-196.6935736364397
 30
0.0
 40
2.044658198742899
100
AcDbArc
 50
175.615752532092
 51
244.3842474680056
  0
ARC
  5
37E
330
1F
100
AcDbEntity
  8
0
  6
Continuous
 62
     7
370
    13
100
AcDbCircle
 10
173.9302834405864
 20
-9.445273390037414
 30
0.0
 40
2.044658198733724
100
AcDbArc
 50
355.6157525319445
 51
64.38424746796203
  0
ARC
  5
37F
330
1F
100
AcDbEntity
  8
0
  6
Continuous
 62
     7
370
    13
100
AcDbCircle
 10
167.3501564216454
 20
-9.244311495721718
 30
0.0
 40
7.64273441011556
100
AcDbArc
 50
12.41204622603186
 51
47.58795377391244
  0
ARC
  5
380
330
1F
100
AcDbEntity
  8
0
  6
Continuous
 62
     7
370
    13
100
AcDbCircle
 10
170.4661818254465
 20
-3.445273390037414
 30
0.0
 40
2.044658198742636
100
AcDbArc
 50
355.615752531938
 51
64.38424746795678
  0
CIRCLE
  5
381
330
1F
100
AcDbEntity
  8
0
  6
Continuous
 62
     7
370
    13
100
AcDbCircle
 10
-215.3678534154087
 20
429.5755127178371
 30
0.0
 40
4.0
  0
CIRCLE
  5
382
330
1F
100
AcDbEntity
  8
0
  6
Continuous
 62
     7
370
    13
100
AcDbCircle
 10
-215.3678534154087
 20
578.575512717884
 30
0.0
 40
4.0
  0
CIRCLE
  5
383
330
1F
100
AcDbEntity
  8
0
  6
Continuous
 62
     7
370
    13
100
AcDbCircle
 10
114.6327240696714
 20
578.575512717838
 30
0.0
 40
4.0
  0
CIRCLE
  5
384
330
1F
100
AcDbEntity
  8
0
  6
Continuous
 62
     7
370
    13
100
AcDbCircle
 10
114.6327240696714
 20
429.5755127178371
 30
0.0
 40
4.0
  0
ARC
  5
385
330
1F
100
AcDbEntity
  8
0
  6
Continuous
 62
     7
370
    13
100
AcDbCircle
 10
-265.3674552873697
 20
412.275512717887
 30
0.0
 40
10.0
100
AcDbArc
 50
180.0
 51
270.0
  0
ARC
  5
386
330
1F
100
AcDbEntity
  8
0
  6
Continuous
 62
     7
370
    13
100
AcDbCircle
 10
-265.3674552873697
 20
595.875512717883
 30
0.0
 40
10.0
100
AcDbArc
 50
89.9999999999987
 51
180.0
  0
ARC
  5
387
330
1F
100
AcDbEntity
  8
0
  6
Continuous
 62
     7
370
    13
100
AcDbCircle
 10
214.9915285613265
 20
-126.0761197637252
 30
0.0
 40
10.00000000000096
100
AcDbArc
 50
300.00000000003
 51
30.0000000000251
  0
ARC
  5
388
330
1F
100
AcDbEntity
  8
0
  6
Continuous
 62
     7
370
    13
100
AcDbCircle
 10
801.2000000000014
 20
-44.3723091960768
 30
0.0
 40
3.200000000000955
100
AcDbArc
 50
0.0
 51
90.0
  0
ARC
  5
389
330
1F
100
AcDbEntity
  8
0
  6
Continuous
 62
     7
370
    13
100
AcDbCircle
 10
597.6000000000004
 20
-44.3723091960768
 30
0.0
 40
3.199999999997999
100
AcDbArc
 50
90.0
 51
180.0
  0
ARC
  5
38A
330
1F
100
AcDbEntity
  8
0
  6
Continuous
 62
     7
370
    13
100
AcDbCircle
 10
799.6000000000015
 20
-45.97230919607807
 30
0.0
 40
1.599999999999909
100
AcDbArc
 50
0.0
 51
90.0
  0
ARC
  5
38B
330
1F
100
AcDbEntity
  8
0
  6
Continuous
 62
     7
370
    13
100
AcDbCircle
 10
599.2000000000014
 20
-45.97230919607807
 30
0.0
 40
1.600000000001273
100
AcDbArc
 50
90.0
 51
180.0
  0
ARC
  5
38C
330
1F
100
AcDbEntity
  8
0
  6
Continuous
 62
     7
370
    13
100
AcDbCircle
 10
-105.2407921885015
 20
-231.4174699995223
 30
0.0
 40
5.000000000000729
100
AcDbArc
 50
210.0000000000192
 51
285.7354877019191
  0
ARC
  5
38D
330
1F
100
AcDbEntity
  8
0
  6
Continuous
 62
     7
370
    13
100
AcDbCircle
 10
181.4341555760254
 20
-145.4504780901119
 30
0.0
 40
9.999999999999714
100
AcDbArc
 50
285.7354877019191
 51
300.0000000000351
  0
ARC
  5
38E
330
1F
100
AcDbEntity
  8
0
  6
Continuous
 62
     7
370
    13
100
AcDbCircle
 10
350.3862196578054
 20
-42.1324557206384
 30
0.0
 40
10.00000000000045
100
AcDbArc
 50
299.9999999999519
 51
359.9999999999479
  0
ARC
  5
38F
330
1F
100
AcDbEntity
  8
0
  6
Continuous
 62
     7
370
    13
100
AcDbCircle
 10
280.3862196578714
 20
-1.717936877271654
 30
0.0
 40
9.999999999999993
100
AcDbArc
 50
299.9999999999474
 51
0.0
  0
ARC
  5
390
330
1F
100
AcDbEntity
  8
0
  6
Continuous
 62
     7
370
    13
100
AcDbCircle
 10
292.3862196578714
 20
15.59404158755808
 30
0.0
 40
2.0
100
AcDbArc
 50
90.0
 51
179.9999999999479
  0
ARC
  5
391
330
1F
100
AcDbEntity
  8
0
  6
Continuous
 62
     7
370
    13
100
AcDbCircle
 10
358.3862196578605
 20
15.59404158749987
 30
0.0
 40
2.0
100
AcDbArc
 50
359.9999999999479
 51
90.0
  0
LINE
  5
392
330
1F
100
AcDbEntity
  8
0
  6
CENTERX2
 62
     3
370
    13
100
AcDbLine
 10
192.5465199576115
 20
-127.1990710046615
 30
0.0
 11
197.7965199576204
 21
-136.2923377443925
 31
0.0
  0
LINE
  5
393
330
1F
100
AcDbEntity
  8
0
  6
CENTERX2
 62
     3
370
    13
100
AcDbLine
 10
190.6248865877415
 20
-134.3707043745311
 30
0.0
 11
199.7181533274804
 21
-129.1207043745266
 31
0.0
  0
LINE
  5
394
330
1F
100
AcDbEntity
  8
0
  6
CENTERX2
 62
     3
370
    13
100
AcDbLine
 10
699.4000000000024
 20
86.32769080392347
 30
0.0
 11
699.4000000000024
 21
-152.7075345486095
 31
0.0
  0
LINE
  5
395
330
1F
100
AcDbEntity
  8
0
  6
CENTERX2
 62
     3
370
    13
100
AcDbLine
 10
-93.93147363085154
 20
-221.0057843403659
 30
0.0
 11
-88.68147363084654
 21
-230.0990510800988
 31
0.0
  0
LINE
  5
396
330
1F
100
AcDbEntity
  8
0
  6
CENTERX2
 62
     3
370
    13
100
AcDbLine
 10
-95.85310700071659
 20
-228.1774177102365
 30
0.0
 11
-86.75984026098445
 21
-222.9274177102301
 31
0.0
  0
LINE
  5
397
330
1F
100
AcDbEntity
  8
0
  6
CENTERX2
 62
     3
370
    13
100
AcDbLine
 10
-197.8627983383182
 20
-110.9914478116301
 30
0.0
 11
-101.535429346833
 21
-277.8341868717135
 31
0.0
  0
LINE
  5
398
330
1F
100
AcDbEntity
  8
0
  6
CENTERX2
 62
     3
370
    13
100
AcDbLine
 10
90.4256251473414
 20
49.67844840017881
 30
0.0
 11
175.9965199575724
 21
-98.53363013941032
 31
0.0
  0
LINE
  5
399
330
1F
100
AcDbEntity
  8
0
  6
CENTERX2
 62
     3
370
    13
100
AcDbLine
 10
620.6500000000024
 20
23.82769080392393
 30
0.0
 11
778.1500000000024
 21
23.82769080392393
 31
0.0
  0
LINE
  5
39A
330
1F
100
AcDbEntity
  8
0
  6
CENTERX2
 62
     3
370
    13
100
AcDbLine
 10
-675.5999999999968
 20
-141.1723091960515
 30
0.0
 11
-675.5999999999968
 21
-261.1723091960515
 31
0.0
  0
LINE
  5
39B
330
1F
100
AcDbEntity
  8
0
  6
CENTERX2
 62
     3
370
    13
100
AcDbLine
 10
-735.5999999999967
 20
-201.1723091960515
 30
0.0
 11
-615.5999999999968
 21
-201.1723091960515
 31
0.0
  0
LINE
  5
39C
330
1F
100
AcDbEntity
  8
0
  6
CENTERX2
 62
     3
370
    13
100
AcDbLine
 10
-222.4726692074478
 20
-186.9659027358106
 30
0.0
 11
-235.8960629661092
 21
-194.7159027358088
 31
0.0
  0
LINE
  5
39D
330
1F
100
AcDbEntity
  8
0
  6
CENTERX2
 62
     3
370
    13
100
AcDbLine
 10
-64.37380623337845
 20
-62.20116602574979
 30
0.0
 11
-19.3738062334096
 21
-140.1434523663632
 31
0.0
  0
LINE
  5
39E
330
1F
100
AcDbEntity
  8
0
  6
CENTERX2
 62
     3
370
    13
100
AcDbLine
 10
174.6325447127304
 20
23.82769080392575
 30
0.0
 11
-215.0788869902794
 21
-201.1723091960488
 31
0.0
  0
LINE
  5
39F
330
1F
100
AcDbEntity
  8
0
  6
CENTERX2
 62
     3
370
    13
100
AcDbLine
 10
174.6325447127304
 20
504.075512717838
 30
0.0
 11
-290.167455287269
 21
504.075512717838
 31
0.0
  0
LINE
  5
3A0
330
1F
100
AcDbEntity
  8
0
  6
CENTERX2
 62
     3
370
    13
100
AcDbLine
 10
129.8312745235014
 20
1.425767015282531
 30
0.0
 11
132.8312745235014
 21
-3.77038540742376
 31
0.0
  0
LINE
  5
3A1
330
1F
100
AcDbEntity
  8
0
  6
CENTERX2
 62
     3
370
    13
100
AcDbLine
 10
174.6325447127304
 20
23.82769080392575
 30
0.0
 11
198.7026207989254
 21
37.72455571170326
 31
0.0
  0
LINE
  5
3A2
330
1F
100
AcDbEntity
  8
0
  6
CENTER
 62
     3
370
    13
100
AcDbLine
 10
-207.1178534154085
 20
429.575512717838
 30
0.0
 11
-225.1178534154085
 21
429.575512717838
 31
0.0
  0
LINE
  5
3A3
330
1F
100
AcDbEntity
  8
0
  6
CENTER
 62
     3
370
    13
100
AcDbLine
 10
106.3823251229014
 20
578.5755127178401
 30
0.0
 11
122.8823251229014
 21
578.5755127178401
 31
0.0
  0
LINE
  5
3A4
330
1F
100
AcDbEntity
  8
0
  6
CENTER
 62
     3
370
    13
100
AcDbLine
 10
-225.1178534154085
 20
578.5755127178401
 30
0.0
 11
-207.1178534154085
 21
578.5755127178401
 31
0.0
  0
LINE
  5
3A5
330
1F
100
AcDbEntity
  8
0
  6
CENTER
 62
     3
370
    13
100
AcDbLine
 10
-215.367454468648
 20
437.0755127178371
 30
0.0
 11
-215.367454468648
 21
588.575512733708
 31
0.0
  0
LINE
  5
3A6
330
1F
100
AcDbEntity
  8
0
  6
CENTER
 62
     3
370
    13
100
AcDbLine
 10
114.6327240696714
 20
437.0755127178371
 30
0.0
 11
114.6327240696605
 21
586.075512717838
 31
0.0
  0
LINE
  5
3A7
330
1F
100
AcDbEntity
  8
0
  6
CENTER
 62
     3
370
    13
100
AcDbLine
 10
-215.3678534154087
 20
419.5024779566071
 30
0.0
 11
-215.3678534154087
 21
437.0755127178371
 31
0.0
  0
LINE
  5
3A8
330
1F
100
AcDbEntity
  8
0
  6
CENTER
 62
     3
370
    13
100
AcDbLine
 10
107.1327240696714
 20
578.575512717838
 30
0.0
 11
122.1327240696714
 21
578.575512717838
 31
0.0
  0
LINE
  5
3A9
330
1F
100
AcDbEntity
  8
0
  6
CENTER
 62
     3
370
    13
100
AcDbLine
 10
114.6327240696714
 20
571.075512717838
 30
0.0
 11
114.6327240696714
 21
586.075512717838
 31
0.0
  0
LINE
  5
3AA
330
1F
100
AcDbEntity
  8
0
  6
CENTER
 62
     3
370
    13
100
AcDbLine
 10
107.1327240696714
 20
429.5755127178371
 30
0.0
 11
122.1327240696714
 21
429.5755127178371
 31
0.0
  0
LINE
  5
3AB
330
1F
100
AcDbEntity
  8
0
  6
CENTER
 62
     3
370
    13
100
AcDbLine
 10
114.6327240696714
 20
422.0755127178371
 30
0.0
 11
114.6327240696714
 21
437.0755127178371
 31
0.0
  0
LINE
  5
3AC
330
1F
100
AcDbEntity
  8
0
  6
CENTER
 62
     3
370
    13
100
AcDbLine
 10
708.1500000000024
 20
-1.172309196076071
 30
0.0
 11
715.6500000000024
 21
-1.172309196076071
 31
0.0
  0
LINE
  5
3AD
330
1F
100
AcDbEntity
  8
0
  6
CENTER
 62
     3
370
    13
100
AcDbLine
 10
711.9000000000024
 20
-4.922309196076071
 30
0.0
 11
711.9000000000024
 21
2.577690803923929
 31
0.0
  0
LINE
  5
3AE
330
1F
100
AcDbEntity
  8
0
  6
CENTER
 62
     3
370
    13
100
AcDbLine
 10
686.9000000000024
 20
-4.922309196076071
 30
0.0
 11
686.9000000000024
 21
2.577690803923929
 31
0.0
  0
LINE
  5
3AF
330
1F
100
AcDbEntity
  8
0
  6
CENTER
 62
     3
370
    13
100
AcDbLine
 10
683.1500000000024
 20
-1.172309196076071
 30
0.0
 11
690.6500000000024
 21
-1.172309196076071
 31
0.0
  0
LINE
  5
3B0
330
1F
100
AcDbEntity
  8
0
  6
CENTER
 62
     3
370
    13
100
AcDbLine
 10
-679.3499999999968
 20
-185.1723091964135
 30
0.0
 11
-671.8499999999968
 21
-185.1723091964135
 31
0.0
  0
LINE
  5
3B1
330
1F
100
AcDbEntity
  8
0
  6
CENTER
 62
     3
370
    13
100
AcDbLine
 10
166.2744056406225
 20
-90.69443418527715
 30
0.0
 11
174.0686342746806
 21
-86.19443418528715
 31
0.0
  0
LINE
  5
3B2
330
1F
100
AcDbEntity
  8
0
  6
CENTER
 62
     3
370
    13
100
AcDbLine
 10
300.3862196578405
 20
-19.65624678277106
 30
0.0
 11
300.3862196578405
 21
-17.90624678277106
 31
0.0
  0
LINE
  5
3B3
330
1F
100
AcDbEntity
  8
0
  6
CENTER
 62
     3
370
    13
100
AcDbLine
 10
300.3862196578405
 20
-17.90624678277106
 30
0.0
 11
300.3862196578405
 21
12.09375321722894
 31
0.0
  0
LINE
  5
3B4
330
1F
100
AcDbEntity
  8
0
  6
CENTER
 62
     3
370
    13
100
AcDbLine
 10
300.3862196578405
 20
12.09375321722894
 30
0.0
 11
300.3862196578405
 21
13.84375321722894
 31
0.0
  0
LINE
  5
3B5
330
1F
100
AcDbEntity
  8
0
  6
CENTER
 62
     3
370
    13
100
AcDbLine
 10
305.6362196578405
 20
-2.906246782771063
 30
0.0
 11
295.1362196578405
 21
-2.906246782771063
 31
0.0
  0
LINE
  5
3B6
330
1F
100
AcDbEntity
  8
0
  6
CENTER
 62
     3
370
    13
100
AcDbLine
 10
350.3862196578405
 20
-19.65624678277106
 30
0.0
 11
350.3862196578405
 21
-17.90624678277106
 31
0.0
  0
LINE
  5
3B7
330
1F
100
AcDbEntity
  8
0
  6
CENTER
 62
     3
370
    13
100
AcDbLine
 10
350.3862196578405
 20
-17.90624678277106
 30
0.0
 11
350.3862196578405
 21
12.09375321722894
 31
0.0
  0
LINE
  5
3B8
330
1F
100
AcDbEntity
  8
0
  6
CENTER
 62
     3
370
    13
100
AcDbLine
 10
350.3862196578405
 20
12.09375321722894
 30
0.0
 11
350.3862196578405
 21
13.84375321722894
 31
0.0
  0
LINE
  5
3B9
330
1F
100
AcDbEntity
  8
0
  6
CENTER
 62
     3
370
    13
100
AcDbLine
 10
355.6362196578405
 20
-2.906246782771063
 30
0.0
 11
345.1362196578405
 21
-2.906246782771063
 31
0.0
  0
LINE
  5
3BA
330
1F
100
AcDbEntity
  8
0
  6
Continuous
 62
     3
370
    13
100
AcDbLine
 10
-139.8660057659495
 20
-200.0679067062559
 30
0.0
 11
-125.6910219607985
 21
-224.6196930050468
 31
0.0
  0
LINE
  5
3BB
330
1F
100
AcDbEntity
  8
0
  6
Continuous
 62
     3
370
    13
100
AcDbLine
 10
-135.5429269542985
 20
-230.3076930050778
 30
0.0
 11
-149.7179107594486
 21
-205.7559067062797
 31
0.0
  0
LINE
  5
3BC
330
1F
100
AcDbEntity
  8
0
  6
Continuous
 62
     3
370
    13
100
AcDbLine
 10
150.2455151444715
 20
-65.3077022766405
 30
0.0
 11
136.0705126121404
 21
-40.75588354141507
 31
0.0
  0
LINE
  5
3BD
330
1F
100
AcDbEntity
  8
0
  6
Continuous
 62
     3
370
    13
100
AcDbLine
 10
145.9224176056514
 20
-35.06788354138496
 30
0.0
 11
160.0974201379715
 21
-59.61970227660947
 31
0.0
  0
LINE
  5
3BE
330
1F
100
AcDbEntity
  8
0
  6
Continuous
 62
     3
370
    13
100
AcDbLine
 10
-286.6674552872689
 20
506.575512717838
 30
0.0
 11
-285.9174772875892
 21
506.142512717838
 31
0.0
  0
LINE
  5
3BF
330
1F
100
AcDbEntity
  8
0
  6
Continuous
 62
     3
370
    13
100
AcDbLine
 10
-285.9174772875892
 20
506.142512717838
 30
0.0
 11
-275.1344552872695
 21
506.142512717838
 31
0.0
  0
LINE
  5
3C0
330
1F
100
AcDbEntity
  8
0
  6
Continuous
 62
     3
370
    13
100
AcDbLine
 10
-275.5674552872686
 20
506.575512717838
 30
0.0
 11
-275.5674552872686
 21
501.575512717838
 31
0.0
  0
LINE
  5
3C1
330
1F
100
AcDbEntity
  8
0
  6
Continuous
 62
     3
370
    13
100
AcDbLine
 10
-275.1344552872695
 20
502.008512717838
 30
0.0
 11
-285.9174772875892
 21
502.008512717838
 31
0.0
  0
LINE
  5
3C2
330
1F
100
AcDbEntity
  8
0
  6
Continuous
 62
     3
370
    13
100
AcDbLine
 10
-285.9174772875892
 20
502.008512717838
 30
0.0
 11
-286.6674552872689
 21
501.575512717838
 31
0.0
  0
LINE
  5
3C3
330
1F
100
AcDbEntity
  8
0
  6
Continuous
 62
     3
370
    13
100
AcDbLine
 10
-231.1819740528686
 20
-194.3809882455965
 30
0.0
 11
-231.6149740528585
 21
-195.1309662452708
 31
0.0
  0
LINE
  5
3C4
330
1F
100
AcDbEntity
  8
0
  6
Continuous
 62
     3
370
    13
100
AcDbLine
 10
-221.8436030710186
 20
-188.9894772454321
 30
0.0
 11
-231.1819740528686
 21
-194.3809882455965
 31
0.0
  0
LINE
  5
3C5
330
1F
100
AcDbEntity
  8
0
  6
Continuous
 62
     3
370
    13
100
AcDbLine
 10
-224.502092070858
 20
-185.2508392263502
 30
0.0
 11
-222.002092070858
 21
-189.5809662452724
 31
0.0
  0
LINE
  5
3C6
330
1F
100
AcDbEntity
  8
0
  6
Continuous
 62
     3
370
    13
100
AcDbLine
 10
-233.2489740528695
 20
-190.8008392263531
 30
0.0
 11
-223.9106030710195
 21
-185.4093282261896
 31
0.0
  0
LINE
  5
3C7
330
1F
100
AcDbEntity
  8
0
  6
Continuous
 62
     3
370
    13
100
AcDbLine
 10
-234.1149740528585
 20
-190.8008392263486
 30
0.0
 11
-233.2489740528695
 21
-190.8008392263531
 31
0.0
  0
CIRCLE
  5
3C8
330
1F
100
AcDbEntity
  8
0
  6
Continuous
 62
     3
370
    13
100
AcDbCircle
 10
-215.3678534154087
 20
429.5755127178371
 30
0.0
 40
5.0
  0
CIRCLE
  5
3C9
330
1F
100
AcDbEntity
  8
0
  6
Continuous
 62
     3
370
    13
100
AcDbCircle
 10
-215.3678534154087
 20
578.575512717884
 30
0.0
 40
5.0
  0
CIRCLE
  5
3CA
330
1F
100
AcDbEntity
  8
0
  6
Continuous
 62
     3
370
    13
100
AcDbCircle
 10
114.6327240696714
 20
578.575512717838
 30
0.0
 40
5.0
  0
CIRCLE
  5
3CB
330
1F
100
AcDbEntity
  8
0
  6
Continuous
 62
     3
370
    13
100
AcDbCircle
 10
114.6327240696714
 20
429.5755127178371
 30
0.0
 40
5.0
  0
LINE
  5
3CC
330
1F
100
AcDbEntity
  8
0
  6
PHANTOM
 62
    91
370
    13
100
AcDbLine
 10
-675.5999999999968
 20
-253.6723091960388
 30
0.0
 11
-668.5999999999968
 21
-253.6723091960388
 31
0.0
  0
TEXT
  5
3CD
330
1F
100
AcDbEntity
  8
0
 62
     2
100
AcDbText
 10
474.8789494333284
 20
63.52603192860047
 30
0.0
 40
23.99999999999999
  1
※1
 50
90.0
 41
0.687757909215956
  7
dcStyle0
 72
     5
 11
474.8789494333284
 21
99.52603192860047
 31
0.0
100
AcDbText
  0
TEXT
  5
3CE
330
1F
100
AcDbEntity
  8
0
 62
     2
100
AcDbText
 10
-100.8142140051925
 20
351.079009013467
 30
0.0
 40
23.99999999999999
  1
CC矢視図
 41
0.6355258976803305
  7
dcStyle0
 72
     5
 11
-4.814214005192554
 21
351.079009013467
 31
0.0
100
AcDbText
  0
TEXT
  5
3CF
330
1F
100
AcDbEntity
  8
0
 62
     2
100
AcDbText
 10
-369.6860329304224
 20
-1.852318509776174
 30
0.0
 40
23.99999999999999
  1
C
 50
30.00000000001068
 41
0.5175983436852994
  7
dcStyle0
 72
     5
 11
-359.2937280850102
 21
4.147681490225752
 31
0.0
100
AcDbText
  0
TEXT
  5
3D0
330
1F
100
AcDbEntity
  8
0
 62
     2
100
AcDbText
 10
56.38969008319942
 20
244.0857147270741
 30
0.0
 40
23.99999999999999
  1
C
 50
30.00000000001065
 41
0.5175983436853003
  7
dcStyle0
 72
     5
 11
66.78199492861157
 21
250.085714727076
 31
0.0
100
AcDbText
  0
TEXT
  5
3D1
330
1F
100
AcDbEntity
  8
0
 62
     2
100
AcDbText
 10
293.8201138417164
 20
-125.3046676613061
 30
0.0
 40
23.99999999999999
  1
A
 50
29.99999999999262
 41
0.5434782608695666
  7
dcStyle0
 72
     5
 11
304.2124186871305
 21
-119.3046676613074
 31
0.0
100
AcDbText
  0
TEXT
  5
3D2
330
1F
100
AcDbEntity
  8
0
 62
     2
100
AcDbText
 10
124.6290502280853
 20
226.711400578764
 30
0.0
 40
23.99999999999999
  1
A
 50
29.9999999999926
 41
0.5434782608695657
  7
dcStyle0
 72
     5
 11
135.0213550734994
 21
232.7114005787627
 31
0.0
100
AcDbText
  0
TEXT
  5
3D3
330
1F
100
AcDbEntity
  8
0
 62
     2
100
AcDbText
 10
-232.8816105598333
 20
-368.1881972137701
 30
0.0
 40
23.99999999999999
  1
B
 50
29.99999999999254
 41
0.539956803455723
  7
dcStyle0
 72
     5
 11
-222.4893057144193
 21
-362.1881972137714
 31
0.0
100
AcDbText
  0
TEXT
  5
3D4
330
1F
100
AcDbEntity
  8
0
 62
     2
100
AcDbText
 10
-394.4835161169531
 20
-73.94582045695064
 30
0.0
 40
23.99999999999999
  1
B
 50
29.99999999999262
 41
0.5399568034557249
  7
dcStyle0
 72
     5
 11
-384.091211271539
 21
-67.94582045695196
 31
0.0
100
AcDbText
  0
TEXT
  5
3D5
330
1F
100
AcDbEntity
  8
0
 62
     2
100
AcDbText
 10
662.1932772825564
 20
-192.6454380358667
 30
0.0
 40
23.99999999999999
  1
AA矢視図
 41
0.6449532408900357
  7
dcStyle0
 72
     5
 11
758.1932772825564
 21
-192.6454380358667
 31
0.0
100
AcDbText
  0
TEXT
  5
3D6
330
1F
100
AcDbEntity
  8
0
 62
     2
100
AcDbText
 10
-721.8991672347092
 20
-364.5606287428931
 30
0.0
 40
23.99999999999999
  1
BB矢視図
 41
0.6437077566784681
  7
dcStyle0
 72
     5
 11
-625.8991672347092
 21
-364.5606287428931
 31
0.0
100
AcDbText
  0
TEXT
  5
3D7
330
1F
100
AcDbEntity
  8
0
 62
     2
100
AcDbText
 10
-150.5011030750516
 20
-731.9856819520155
 30
0.0
 40
19.2
  1
2017.4.28
 41
0.849363057324841
  7
dcStyle1
 72
     5
 11
-28.58110307505156
 21
-731.9856819520155
 31
0.0
100
AcDbText
  0
TEXT
  5
3D8
330
1F
100
AcDbEntity
  8
0
 62
     2
100
AcDbText
 10
330.0
 20
-779.2315400371326
 30
0.0
 40
23.99999999999999
  1
MTS
 41
0.5526315789473685
  7
dcStyle1
 72
     5
 11
366.0
 21
-779.2315400371326
 31
0.0
100
AcDbText
  0
TEXT
  5
3D9
330
1F
100
AcDbEntity
  8
0
 62
     2
100
AcDbText
 10
-82.4999999999998
 20
-779.2315400371326
 30
0.0
 40
23.99999999999999
  1
1/6
 41
0.5338983050847456
  7
dcStyle1
 72
     5
 11
-46.49999999999982
 21
-779.2315400371326
 31
0.0
100
AcDbText
  0
TEXT
  5
3DA
330
1F
100
AcDbEntity
  8
0
 62
     2
100
AcDbText
 10
1008.0
 20
-779.2315400371326
 30
0.0
 40
23.99999999999999
  1
W_MTS_S_070_1
 41
0.5711297071129707
  7
dcStyle1
 72
     5
 11
1164.0
 21
-779.2315400371326
 31
0.0
100
AcDbText
  0
TEXT
  5
3DB
330
1F
100
AcDbEntity
  8
0
 62
     2
100
AcDbText
 10
276.0
 20
-719.2315400371327
 30
0.0
 40
23.99999999999999
  1
ミニシリーズ
 41
1.2
  7
dcStyle1
 72
     5
 11
420.0
 21
-719.2315400371327
 31
0.0
100
AcDbText
  0
TEXT
  5
3DC
330
1F
100
AcDbEntity
  8
0
 62
     2
100
AcDbText
 10
644.9999999999998
 20
-719.2315400371327
 30
0.0
 40
23.99999999999999
  1
本体組立図  呼び幅 90 mm  呼び機長 40 cm
 41
0.7394366197183102
  7
dcStyle1
 72
     5
 11
1125.0
 21
-719.2315400371327
 31
0.0
100
AcDbText
  0
INSERT
  5
3DD
330
1F
100
AcDbEntity
  8
0
  6
Continuous
100
AcDbBlockReference
  2
DC_GROUP_W_MTS_S_070_1_1
 10
0.0
 20
0.0
 30
0.0
  0
INSERT
  5
3DE
330
1F
100
AcDbEntity
  8
0
  6
Continuous
100
AcDbBlockReference
  2
DC_GROUP_W_MTS_S_070_1_3
 10
0.0
 20
0.0
 30
0.0
  0
DIMENSION
  5
3DF
330
1F
100
AcDbEntity
  8
0
  6
Continuous
370
    13
100
AcDbDimension
  2
*D4
 10
-351.0407158958773
 20
455.575512717884
 30
0.0
 11
-351.0407158958773
 21
505.9875
 31
0.0
 70
   160
  1
内径φ<>
 71
     8
 42
-1.0
  3
dc_Rotated
100
AcDbAlignedDimension
 13
-275.3674552872696
 23
552.575512717884
 33
0.0
 14
-275.3674552872696
 24
455.575512717884
 34
0.0
 50
90.0
100
AcDbRotatedDimension
1001
ACAD
1000
DSTYLE
1002
{
1070
   274
1070
     4
1070
    41
1040
18.00135612487793
1070
    79
1070
     2
1070
   343
1005
10B
1070
   344
1005
10B
1070
   176
1070
     2
1070
   177
1070
     2
1070
   178
1070
     2
1070
   271
1070
     2
1070
    44
1040
5.999999999999998
1070
    42
1040
5.999999999999998
1070
   147
1040
6.0
1070
   173
1070
     1
1070
    77
1070
     3
1070
    73
1070
     0
1070
   172
1070
     1
1070
    74
1070
     0
1070
   283
1070
     0
1070
   140
1040
23.99999999999999
1070
   284
1070
     8
1070
   288
1070
     1
1070
    78
1070
     8
1070
    90
1070
     1
1002
}
  0
DIMENSION
  5
3E1
330
1F
100
AcDbEntity
  8
0
  6
Continuous
370
    13
100
AcDbDimension
  2
*D5
 10
-424.575828793278
 20
451.575512717884
 30
0.0
 11
-424.575828793278
 21
501.7125
 31
0.0
 70
   160
  1
外径φ<>
 71
     8
 42
-1.0
  3
dc_Rotated
100
AcDbAlignedDimension
 13
-275.3674552872696
 23
556.575512717884
 33
0.0
 14
-275.3674552872696
 24
451.575512717884
 34
0.0
 50
90.0
100
AcDbRotatedDimension
1001
ACAD
1000
DSTYLE
1002
{
1070
   274
1070
     4
1070
    41
1040
18.00135612487793
1070
    79
1070
     2
1070
   343
1005
10B
1070
   344
1005
10B
1070
   176
1070
     2
1070
   177
1070
     2
1070
   178
1070
     2
1070
   271
1070
     2
1070
    44
1040
5.999999999999998
1070
    42
1040
5.999999999999998
1070
   147
1040
6.0
1070
   173
1070
     1
1070
    77
1070
     3
1070
    73
1070
     0
1070
   172
1070
     1
1070
    74
1070
     0
1070
   283
1070
     0
1070
   140
1040
23.99999999999999
1070
   284
1070
     8
1070
   288
1070
     1
1070
    78
1070
     8
1070
    90
1070
     1
1002
}
  0
DIMENSION
  5
3E2
330
1F
100
AcDbEntity
  8
0
  6
Continuous
370
    13
100
AcDbDimension
  2
*D6
 10
414.5624999999999
 20
549.075512717838
 30
0.0
 11
414.5624999999999
 21
320.94375
 31
0.0
 70
   160
  1
呼び幅(<>)
 71
     8
 42
-1.0
  3
dc_Rotated
100
AcDbAlignedDimension
 13
174.6325447127304
 23
459.0755127178371
 33
0.0
 14
174.6325447127304
 24
549.075512717838
 34
0.0
 50
90.0
100
AcDbRotatedDimension
1001
ACAD
1000
DSTYLE
1002
{
1070
   274
1070
     4
1070
    41
1040
18.00135612487793
1070
    79
1070
     2
1070
   343
1005
10B
1070
   344
1005
10B
1070
   176
1070
     2
1070
   177
1070
     2
1070
   178
1070
     2
1070
   271
1070
     2
1070
    44
1040
5.999999999999998
1070
    42
1040
5.999999999999998
1070
   147
1040
6.0
1070
   173
1070
     1
1070
    77
1070
     3
1070
    73
1070
     0
1070
   172
1070
     1
1070
    74
1070
     0
1070
   283
1070
     0
1070
   140
1040
23.99999999999999
1070
   284
1070
     8
1070
   288
1070
     1
1070
    78
1070
     8
1070
    90
1070
     1
1002
}
  0
DIMENSION
  5
3E3
330
1F
100
AcDbEntity
  8
0
  6
Continuous
370
    13
100
AcDbDimension
  2
*D7
 10
-323.60579350775
 20
-31.19819311949304
 30
0.0
 11
-130.6362078318901
 21
80.21284911586113
 31
0.0
 70
   160
  1
実機長(<>)
 71
     8
 42
-1.0
  3
dc_Rotated
100
AcDbAlignedDimension
 13
173.1325447127304
 23
26.42576701527889
 33
0.0
 14
-250.373115624338
 24
-158.0409119879045
 34
0.0
 50
29.99999999999686
100
AcDbRotatedDimension
1001
ACAD
1000
DSTYLE
1002
{
1070
   274
1070
     4
1070
    41
1040
18.00135612487793
1070
    79
1070
     2
1070
   343
1005
10B
1070
   344
1005
10B
1070
   176
1070
     2
1070
   177
1070
     2
1070
   178
1070
     2
1070
   271
1070
     2
1070
    44
1040
5.999999999999998
1070
    42
1040
5.999999999999998
1070
   147
1040
4.200000000000004
1070
   173
1070
     1
1070
    77
1070
     3
1070
    73
1070
     0
1070
   172
1070
     1
1070
    74
1070
     0
1070
   283
1070
     0
1070
   140
1040
23.99999999999999
1070
   284
1070
     8
1070
   288
1070
     1
1070
    78
1070
     8
1070
    90
1070
     1
1002
}
  0
DIMENSION
  5
3E4
330
1F
100
AcDbEntity
  8
0
  6
Continuous
370
    13
100
AcDbDimension
  2
*D8
 10
428.8652458667276
 20
-14.14307688852796
 30
0.0
 11
398.0818235937108
 21
39.17537451912643
 31
0.0
 70
   160
 71
     8
 42
-1.0
  3
dc_Rotated
100
AcDbAlignedDimension
 13
181.1517825991405
 23
-47.46396044206392
 33
0.0
 14
219.9915285613315
 24
-134.7363738015678
 34
0.0
 50
120.0000000000271
100
AcDbRotatedDimension
1001
ACAD
1000
DSTYLE
1002
{
1070
   274
1070
     4
1070
    41
1040
18.00135612487793
1070
    79
1070
     2
1070
   343
1005
10B
1070
   344
1005
10B
1070
   176
1070
     2
1070
   177
1070
     2
1070
   178
1070
     2
1070
   271
1070
     2
1070
    44
1040
5.999999999999998
1070
    42
1040
5.999999999999998
1070
   147
1040
4.199999999999994
1070
   173
1070
     1
1070
    77
1070
     3
1070
    73
1070
     0
1070
   172
1070
     1
1070
    74
1070
     0
1070
   283
1070
     0
1070
   140
1040
23.99999999999999
1070
   284
1070
     8
1070
   288
1070
     1
1070
    78
1070
     8
1070
    90
1070
     1
1002
}
  0
DIMENSION
  5
3E5
330
1F
100
AcDbEntity
  8
0
  6
Continuous
370
    13
100
AcDbDimension
  2
*D9
 10
479.1749999999999
 20
557.5755127178821
 30
0.0
 11
479.1749999999999
 21
247.21875
 31
0.0
 70
   160
  1
投入側コンベヤ機幅(<>)
 71
     8
 42
-1.0
  3
dc_Rotated
100
AcDbAlignedDimension
 13
331.6511813830246
 23
450.5755127178821
 33
0.0
 14
331.6511813830246
 24
557.5755127178821
 34
0.0
 50
90.0
100
AcDbRotatedDimension
1001
ACAD
1000
DSTYLE
1002
{
1070
   274
1070
     4
1070
    41
1040
18.00135612487793
1070
    79
1070
     2
1070
   343
1005
10B
1070
   344
1005
10B
1070
   176
1070
     2
1070
   177
1070
     2
1070
   178
1070
     2
1070
   271
1070
     2
1070
    44
1040
5.999999999999998
1070
    42
1040
5.999999999999998
1070
   147
1040
6.0
1070
   173
1070
     1
1070
    77
1070
     3
1070
    73
1070
     0
1070
   172
1070
     1
1070
    74
1070
     0
1070
   283
1070
     0
1070
   140
1040
23.99999999999999
1070
   284
1070
     8
1070
   288
1070
     1
1070
    78
1070
     8
1070
    90
1070
     1
1002
}
  0
DIMENSION
  5
3E6
330
1F
100
AcDbEntity
  8
0
  6
Continuous
370
    13
100
AcDbDimension
  2
*D10
 10
544.4999999999999
 20
609.0755127178821
 30
0.0
 11
544.4999999999999
 21
508.665816839906
 31
0.0
 70
   160
  1
機幅(<>)
 71
     8
 42
-1.0
  3
dc_Rotated
100
AcDbAlignedDimension
 13
144.6325447126815
 23
399.075512717884
 33
0.0
 14
144.6325447126815
 24
609.0755127178821
 34
0.0
 50
90.0
100
AcDbRotatedDimension
1001
ACAD
1000
DSTYLE
1002
{
1070
   274
1070
     4
1070
    41
1040
18.00135612487793
1070
    79
1070
     2
1070
   343
1005
10B
1070
   344
1005
10B
1070
   176
1070
     2
1070
   177
1070
     2
1070
   178
1070
     2
1070
   271
1070
     2
1070
    44
1040
5.999999999999998
1070
    42
1040
5.999999999999998
1070
   147
1040
4.199999999999932
1070
   173
1070
     1
1070
    77
1070
     3
1070
    73
1070
     0
1070
   172
1070
     1
1070
    74
1070
     0
1070
   283
1070
     0
1070
   140
1040
23.99999999999999
1070
   284
1070
     8
1070
   288
1070
     1
1070
    78
1070
     8
1070
    90
1070
     1
1002
}
  0
DIMENSION
  5
3E7
330
1F
100
AcDbEntity
  8
0
  6
Continuous
370
    13
100
AcDbDimension
  2
*D11
 10
-278.2006857031441
 20
-91.84214676021813
 30
0.0
 11
-98.56828730131993
 21
11.86866681224
 31
0.0
 70
   160
  1
呼び機長(<>)
 71
     8
 42
-1.0
  3
dc_Rotated
100
AcDbAlignedDimension
 13
129.8312745235014
 23
1.425767015282532
 33
0.0
 14
-216.5788869902794
 24
-198.5742329846956
 34
0.0
 50
29.99999999999683
100
AcDbRotatedDimension
1001
ACAD
1000
DSTYLE
1002
{
1070
   274
1070
     4
1070
    41
1040
18.00135612487793
1070
    79
1070
     2
1070
   343
1005
10B
1070
   344
1005
10B
1070
   176
1070
     2
1070
   177
1070
     2
1070
   178
1070
     2
1070
   271
1070
     2
1070
    44
1040
5.999999999999998
1070
    42
1040
5.999999999999998
1070
   147
1040
4.200000000000005
1070
   173
1070
     1
1070
    77
1070
     3
1070
    73
1070
     0
1070
   172
1070
     1
1070
    74
1070
     0
1070
   283
1070
     0
1070
   140
1040
23.99999999999999
1070
   284
1070
     8
1070
   288
1070
     1
1070
    78
1070
     8
1070
    90
1070
     1
1002
}
  0
INSERT
  5
3E8
330
1F
100
AcDbEntity
  8
0
  6
Continuous
100
AcDbBlockReference
  2
DC_GROUP_W_MTS_S_070_1_4
 10
0.0
 20
0.0
 30
0.0
  0
INSERT
  5
3E9
330
1F
100
AcDbEntity
  8
0
  6
Continuous
100
AcDbBlockReference
  2
DC_GROUP_W_MTS_S_070_1_16
 10
0.0
 20
0.0
 30
0.0
  0
INSERT
  5
3EA
330
1F
100
AcDbEntity
  8
0
  6
Continuous
100
AcDbBlockReference
  2
DC_GROUP_W_MTS_S_070_1_17
 10
0.0
 20
0.0
 30
0.0
  0
INSERT
  5
3EB
330
1F
100
AcDbEntity
  8
0
  6
Continuous
100
AcDbBlockReference
  2
DC_GROUP_W_MTS_S_070_1_18
 10
0.0
 20
0.0
 30
0.0
  0
INSERT
  5
3EC
330
1F
100
AcDbEntity
  8
ZUWAKU
  6
Continuous
100
AcDbBlockReference
  2
DC_GROUP_W_MTS_S_070_1_5
 10
0.0
 20
0.0
 30
0.0
  0
INSERT
  5
3ED
330
1F
100
AcDbEntity
  8
ZUWAKU
  6
Continuous
100
AcDbBlockReference
  2
DC_GROUP_W_MTS_S_070_1_6
 10
0.0
 20
0.0
 30
0.0
  0
INSERT
  5
3EE
330
1F
100
AcDbEntity
  8
15
  6
Continuous
100
AcDbBlockReference
  2
DC_GROUP_W_MTS_S_070_1_7
 10
0.0
 20
0.0
 30
0.0
  0
INSERT
  5
3EF
330
1F
100
AcDbEntity
  8
15
  6
Continuous
100
AcDbBlockReference
  2
DC_GROUP_W_MTS_S_070_1_9
 10
0.0
 20
0.0
 30
0.0
  0
INSERT
  5
3F0
330
1F
100
AcDbEntity
  8
15
  6
Continuous
100
AcDbBlockReference
  2
DC_GROUP_W_MTS_S_070_1_10
 10
0.0
 20
0.0
 30
0.0
  0
INSERT
  5
3F1
330
1F
100
AcDbEntity
  8
15
  6
Continuous
100
AcDbBlockReference
  2
DC_GROUP_W_MTS_S_070_1_12
 10
0.0
 20
0.0
 30
0.0
  0
INSERT
  5
3F2
330
1F
100
AcDbEntity
  8
15
  6
Continuous
100
AcDbBlockReference
  2
DC_GROUP_W_MTS_S_070_1_13
 10
0.0
 20
0.0
 30
0.0
  0
INSERT
  5
3F3
330
1F
100
AcDbEntity
  8
15
  6
Continuous
100
AcDbBlockReference
  2
DC_GROUP_W_MTS_S_070_1_15
 10
0.0
 20
0.0
 30
0.0
  0
VIEWPORT
  5
AF
102
{ACAD_XDICTIONARY
360
3FB
102
}
330
1B
100
AcDbEntity
 67
     1
  8
0
100
AcDbViewport
 10
0.0
 20
0.0
 30
0.0
 40
7091.999999999997
 41
4864.610759777202
 68
     1
 69
     1
 12
0.0
 22
0.0
 13
0.0
 23
0.0
 14
0.5
 24
0.5
 15
0.0
 25
0.0
 16
0.0
 26
0.0
 36
1.0
 17
0.0
 27
0.0
 37
0.0
 42
50.0
 43
0.0
 44
0.0
 45
4864.610759777202
 50
0.0
 51
0.0
 72
   100
 90
   557152
  1

281
     0
 71
     1
 74
     0
110
0.0
120
0.0
130
0.0
111
1.0
121
0.0
131
0.0
112
0.0
122
1.0
132
0.0
 79
     0
146
0.0
  0
ENDSEC
  0
SECTION
  2
OBJECTS
  0
DICTIONARY
  5
C
330
0
100
AcDbDictionary
281
     1
  3
ACAD_GROUP
350
D
  3
ACAD_LAYOUT
350
1A
  3
ACAD_MATERIAL
350
43
  3
ACAD_MLEADERSTYLE
350
3F6
  3
ACAD_MLINESTYLE
350
17
  3
ACAD_PLOTSETTINGS
350
19
  3
ACAD_PLOTSTYLENAME
350
E
  3
ACAD_SCALELIST
350
47
  3
ACAD_VISUALSTYLE
350
2A
  3
AcDbVariableDictionary
350
3F4
  0
DICTIONARY
  5
3FD
330
8
100
AcDbDictionary
280
     1
281
     1
  3
ACAD_XREC_ROUNDTRIP
360
3FE
  0
DICTIONARY
  5
3FB
330
AF
100
AcDbDictionary
280
     1
281
     1
  3
ACAD_XREC_ROUNDTRIP
360
3FC
  0
DICTIONARY
  5
D
102
{ACAD_REACTORS
330
C
102
}
330
C
100
AcDbDictionary
281
     1
  0
DICTIONARY
  5
1A
102
{ACAD_REACTORS
330
C
102
}
330
C
100
AcDbDictionary
281
     1
  3
Layout1
350
1E
  3
Layout2
350
26
  3
Model
350
22
  0
DICTIONARY
  5
43
102
{ACAD_REACTORS
330
C
102
}
330
C
100
AcDbDictionary
281
     1
  3
ByBlock
350
45
  3
ByLayer
350
44
  3
Global
350
46
  0
DICTIONARY
  5
3F6
102
{ACAD_REACTORS
330
C
102
}
330
C
100
AcDbDictionary
281
     1
  0
DICTIONARY
  5
17
102
{ACAD_REACTORS
330
C
102
}
330
C
100
AcDbDictionary
281
     1
  3
Standard
350
18
  0
DICTIONARY
  5
19
102
{ACAD_REACTORS
330
C
102
}
330
C
100
AcDbDictionary
281
     1
  0
ACDBDICTIONARYWDFLT
  5
E
102
{ACAD_REACTORS
330
C
102
}
330
C
100
AcDbDictionary
281
     1
  3
Normal
350
F
100
AcDbDictionaryWithDefault
340
F
  0
DICTIONARY
  5
47
102
{ACAD_REACTORS
330
C
102
}
330
C
100
AcDbDictionary
281
     1
  3
A0
350
48
  3
A1
350
49
  3
A2
350
4A
  3
A3
350
4B
  3
A4
350
4C
  3
A5
350
4D
  3
A6
350
4E
  3
A7
350
4F
  3
A8
350
50
  3
A9
350
51
  3
B0
350
52
  3
B1
350
53
  3
B2
350
54
  3
B3
350
55
  3
B4
350
56
  3
B5
350
57
  3
B6
350
58
  3
B7
350
59
  3
B8
350
5A
  3
B9
350
5B
  3
C0
350
5C
  3
C1
350
5D
  3
C2
350
5E
  3
C3
350
5F
  3
C4
350
60
  3
C5
350
61
  3
C6
350
62
  3
C7
350
63
  3
C8
350
64
  3
C9
350
65
  3
D0
350
66
  3
D1
350
67
  3
D2
350
68
  0
DICTIONARY
  5
2A
102
{ACAD_REACTORS
330
C
102
}
330
C
100
AcDbDictionary
281
     1
  3
2dWireframe
350
2F
  3
Basic
350
32
  3
Brighten
350
36
  3
ColorChange
350
3A
  3
Conceptual
350
34
  3
Dim
350
35
  3
EdgeColorOff
350
3D
  3
Facepattern
350
39
  3
Flat
350
2B
  3
FlatWithEdges
350
2C
  3
Gouraud
350
2D
  3
GouraudWithEdges
350
2E
  3
Hidden
350
31
  3
JitterOff
350
3B
  3
Linepattern
350
38
  3
OverhangOff
350
3C
  3
Realistic
350
33
  3
Shaded
350
42
  3
Shaded with edges
350
41
  3
Shades of Gray
350
3E
  3
Sketchy
350
3F
  3
Thicken
350
37
  3
Wireframe
350
30
  3
X-Ray
350
40
  0
DICTIONARY
  5
3F4
102
{ACAD_REACTORS
330
C
102
}
330
C
100
AcDbDictionary
281
     1
  3
CANNOSCALE
350
400
  3
DIMASSOC
350
3F9
  3
HIDETEXT
350
3FA
  3
MSLTSCALE
350
401
  0
XRECORD
  5
3FE
102
{ACAD_REACTORS
330
3FD
102
}
330
3FD
100
AcDbXrecord
280
     1
102
VTR_0.000_0.000_1.000_1.000_GRIDDISPLAY
 70
     3
102
VTR_0.000_0.000_1.000_1.000_GRIDMAJOR
 70
     5
102
VTR_0.000_0.000_1.000_1.000_DEFAULTLIGHTING
280
     1
102
VTR_0.000_0.000_1.000_1.000_DEFAULTLIGHTINGTYPE
 70
     1
102
VTR_0.000_0.000_1.000_1.000_BRIGHTNESS
141
0.0
102
VTR_0.000_0.000_1.000_1.000_CONTRAST
142
0.0
  0
XRECORD
  5
3FC
102
{ACAD_REACTORS
330
3FB
102
}
330
3FB
100
AcDbXrecord
280
     1
102
GRIDDISPLAY
 70
     2
102
GRIDMAJOR
 70
     5
102
DEFAULTLIGHTING
280
     1
102
DEFAULTLIGHTINGTYPE
 70
     1
102
BRIGHTNESS
141
0.0
102
CONTRAST
142
0.0
  0
LAYOUT
  5
1E
102
{ACAD_REACTORS
330
1A
102
}
330
1A
100
AcDbPlotSettings
  1

  2
none_device
  4

  6

 40
0.0
 41
0.0
 42
0.0
 43
0.0
 44
0.0
 45
0.0
 46
0.0
 47
0.0
 48
0.0
 49
0.0
140
0.0
141
0.0
142
1.0
143
1.0
 70
   688
 72
     0
 73
     0
 74
     5
  7

 75
    16
147
1.0
148
0.0
149
0.0
100
AcDbLayout
  1
Layout1
 70
     0
 71
     1
 10
0.0
 20
0.0
 11
12.0
 21
9.0
 12
0.0
 22
0.0
 32
0.0
 14
1.000000000000000E+20
 24
1.000000000000000E+20
 34
1.000000000000000E+20
 15
-1.000000000000000E+20
 25
-1.000000000000000E+20
 35
-1.000000000000000E+20
146
0.0
 13
0.0
 23
0.0
 33
0.0
 16
1.0
 26
0.0
 36
0.0
 17
0.0
 27
1.0
 37
0.0
 76
     0
330
1B
331
AF
  0
LAYOUT
  5
26
102
{ACAD_REACTORS
330
1A
102
}
330
1A
100
AcDbPlotSettings
  1

  2
none_device
  4

  6

 40
0.0
 41
0.0
 42
0.0
 43
0.0
 44
0.0
 45
0.0
 46
0.0
 47
0.0
 48
0.0
 49
0.0
140
0.0
141
0.0
142
1.0
143
1.0
 70
   688
 72
     0
 73
     0
 74
     5
  7

 75
    16
147
1.0
148
0.0
149
0.0
100
AcDbLayout
  1
Layout2
 70
     1
 71
     2
 10
0.0
 20
0.0
 11
0.0
 21
0.0
 12
0.0
 22
0.0
 32
0.0
 14
0.0
 24
0.0
 34
0.0
 15
0.0
 25
0.0
 35
0.0
146
0.0
 13
0.0
 23
0.0
 33
0.0
 16
1.0
 26
0.0
 36
0.0
 17
0.0
 27
1.0
 37
0.0
 76
     0
330
23
  0
LAYOUT
  5
22
102
{ACAD_REACTORS
330
1A
102
}
330
1A
100
AcDbPlotSettings
  1

  2
none_device
  4
Letter_(8.50_x_11.00_Inches)
  6

 40
6.35
 41
6.35
 42
6.35000508
 43
6.35000508
 44
215.9
 45
279.4
 46
0.0
 47
0.0
 48
0.0
 49
0.0
140
0.0
141
0.0
142
1.0
143
1.0
 70
  1712
 72
     0
 73
     0
 74
     0
  7

 75
     0
147
1.0
148
0.0
149
0.0
100
AcDbLayout
  1
Model
 70
     1
 71
     0
 10
-1260.0
 20
-890.9999999999998
 11
1260.0
 21
890.9999999999998
 12
0.0
 22
0.0
 32
0.0
 14
-3545.999999999999
 24
-2432.305379888601
 34
0.0
 15
3545.999999999999
 25
2432.305379888601
 35
0.0
146
0.0
 13
0.0
 23
0.0
 33
0.0
 16
1.0
 26
0.0
 36
0.0
 17
0.0
 27
1.0
 37
0.0
 76
     0
330
1F
331
29
  0
MATERIAL
  5
45
102
{ACAD_REACTORS
330
43
102
}
102
{ACAD_XDICTIONARY
360
434
102
}
330
43
100
AcDbMaterial
  1
ByBlock
  0
MATERIAL
  5
44
102
{ACAD_REACTORS
330
43
102
}
102
{ACAD_XDICTIONARY
360
432
102
}
330
43
100
AcDbMaterial
  1
ByLayer
  0
MATERIAL
  5
46
102
{ACAD_REACTORS
330
43
102
}
102
{ACAD_XDICTIONARY
360
436
102
}
330
43
100
AcDbMaterial
  1
Global
  0
MLINESTYLE
  5
18
102
{ACAD_REACTORS
330
17
102
}
330
17
100
AcDbMlineStyle
  2
Standard
 70
     0
  3

 62
   256
 51
90.0
 52
90.0
 71
     2
 49
0.5
 62
   256
  6
BYLAYER
 49
-0.5
 62
   256
  6
BYLAYER
  0
ACDBPLACEHOLDER
  5
F
102
{ACAD_REACTORS
330
E
102
}
330
E
  0
SCALE
  5
48
102
{ACAD_REACTORS
330
47
102
}
330
47
100
AcDbScale
 70
     0
300
1:1
140
1.0
141
1.0
290
     1
  0
SCALE
  5
49
102
{ACAD_REACTORS
330
47
102
}
330
47
100
AcDbScale
 70
     0
300
1:2
140
1.0
141
2.0
290
     0
  0
SCALE
  5
4A
102
{ACAD_REACTORS
330
47
102
}
330
47
100
AcDbScale
 70
     0
300
1:4
140
1.0
141
4.0
290
     0
  0
SCALE
  5
4B
102
{ACAD_REACTORS
330
47
102
}
330
47
100
AcDbScale
 70
     0
300
1:5
140
1.0
141
5.0
290
     0
  0
SCALE
  5
4C
102
{ACAD_REACTORS
330
47
102
}
330
47
100
AcDbScale
 70
     0
300
1:8
140
1.0
141
8.0
290
     0
  0
SCALE
  5
4D
102
{ACAD_REACTORS
330
47
102
}
330
47
100
AcDbScale
 70
     0
300
1:10
140
1.0
141
10.0
290
     0
  0
SCALE
  5
4E
102
{ACAD_REACTORS
330
47
102
}
330
47
100
AcDbScale
 70
     0
300
1:16
140
1.0
141
16.0
290
     0
  0
SCALE
  5
4F
102
{ACAD_REACTORS
330
47
102
}
330
47
100
AcDbScale
 70
     0
300
1:20
140
1.0
141
20.0
290
     0
  0
SCALE
  5
50
102
{ACAD_REACTORS
330
47
102
}
330
47
100
AcDbScale
 70
     0
300
1:30
140
1.0
141
30.0
290
     0
  0
SCALE
  5
51
102
{ACAD_REACTORS
330
47
102
}
330
47
100
AcDbScale
 70
     0
300
1:40
140
1.0
141
40.0
290
     0
  0
SCALE
  5
52
102
{ACAD_REACTORS
330
47
102
}
330
47
100
AcDbScale
 70
     0
300
1:50
140
1.0
141
50.0
290
     0
  0
SCALE
  5
53
102
{ACAD_REACTORS
330
47
102
}
330
47
100
AcDbScale
 70
     0
300
1:100
140
1.0
141
100.0
290
     0
  0
SCALE
  5
54
102
{ACAD_REACTORS
330
47
102
}
330
47
100
AcDbScale
 70
     0
300
2:1
140
2.0
141
1.0
290
     0
  0
SCALE
  5
55
102
{ACAD_REACTORS
330
47
102
}
330
47
100
AcDbScale
 70
     0
300
4:1
140
4.0
141
1.0
290
     0
  0
SCALE
  5
56
102
{ACAD_REACTORS
330
47
102
}
330
47
100
AcDbScale
 70
     0
300
8:1
140
8.0
141
1.0
290
     0
  0
SCALE
  5
57
102
{ACAD_REACTORS
330
47
102
}
330
47
100
AcDbScale
 70
     0
300
10:1
140
10.0
141
1.0
290
     0
  0
SCALE
  5
58
102
{ACAD_REACTORS
330
47
102
}
330
47
100
AcDbScale
 70
     0
300
100:1
140
100.0
141
1.0
290
     0
  0
SCALE
  5
59
102
{ACAD_REACTORS
330
47
102
}
330
47
100
AcDbScale
 70
     0
300
1/128" = 1'-0"
140
0.0078125
141
12.0
290
     0
  0
SCALE
  5
5A
102
{ACAD_REACTORS
330
47
102
}
330
47
100
AcDbScale
 70
     0
300
1/64" = 1'-0"
140
0.015625
141
12.0
290
     0
  0
SCALE
  5
5B
102
{ACAD_REACTORS
330
47
102
}
330
47
100
AcDbScale
 70
     0
300
1/32" = 1'-0"
140
0.03125
141
12.0
290
     0
  0
SCALE
  5
5C
102
{ACAD_REACTORS
330
47
102
}
330
47
100
AcDbScale
 70
     0
300
1/16" = 1'-0"
140
0.0625
141
12.0
290
     0
  0
SCALE
  5
5D
102
{ACAD_REACTORS
330
47
102
}
330
47
100
AcDbScale
 70
     0
300
3/32" = 1'-0"
140
0.09375
141
12.0
290
     0
  0
SCALE
  5
5E
102
{ACAD_REACTORS
330
47
102
}
330
47
100
AcDbScale
 70
     0
300
1/8" = 1'-0"
140
0.125
141
12.0
290
     0
  0
SCALE
  5
5F
102
{ACAD_REACTORS
330
47
102
}
330
47
100
AcDbScale
 70
     0
300
3/16" = 1'-0"
140
0.1875
141
12.0
290
     0
  0
SCALE
  5
60
102
{ACAD_REACTORS
330
47
102
}
330
47
100
AcDbScale
 70
     0
300
1/4" = 1'-0"
140
0.25
141
12.0
290
     0
  0
SCALE
  5
61
102
{ACAD_REACTORS
330
47
102
}
330
47
100
AcDbScale
 70
     0
300
3/8" = 1'-0"
140
0.375
141
12.0
290
     0
  0
SCALE
  5
62
102
{ACAD_REACTORS
330
47
102
}
330
47
100
AcDbScale
 70
     0
300
1/2" = 1'-0"
140
0.5
141
12.0
290
     0
  0
SCALE
  5
63
102
{ACAD_REACTORS
330
47
102
}
330
47
100
AcDbScale
 70
     0
300
3/4" = 1'-0"
140
0.75
141
12.0
290
     0
  0
SCALE
  5
64
102
{ACAD_REACTORS
330
47
102
}
330
47
100
AcDbScale
 70
     0
300
1" = 1'-0"
140
1.0
141
12.0
290
     0
  0
SCALE
  5
65
102
{ACAD_REACTORS
330
47
102
}
330
47
100
AcDbScale
 70
     0
300
1-1/2" = 1'-0"
140
1.5
141
12.0
290
     0
  0
SCALE
  5
66
102
{ACAD_REACTORS
330
47
102
}
330
47
100
AcDbScale
 70
     0
300
3" = 1'-0"
140
3.0
141
12.0
290
     0
  0
SCALE
  5
67
102
{ACAD_REACTORS
330
47
102
}
330
47
100
AcDbScale
 70
     0
300
6" = 1'-0"
140
6.0
141
12.0
290
     0
  0
SCALE
  5
68
102
{ACAD_REACTORS
330
47
102
}
330
47
100
AcDbScale
 70
     0
300
1'-0" = 1'-0"
140
12.0
141
12.0
290
     0
  0
VISUALSTYLE
  5
2F
102
{ACAD_REACTORS
330
2A
102
}
102
{ACAD_XDICTIONARY
360
40A
102
}
330
2A
100
AcDbVisualStyle
  2
2dWireframe
 70
     4
 71
     0
 72
     2
 73
     0
 90
        0
 40
0.6
 41
30.0
 62
     5
 63
     7
 74
     1
 91
        4
 64
     7
 65
   257
 75
     1
175
     1
 42
1.0
 92
        0
 66
   257
 43
1.0
 76
     1
 77
     6
 78
     2
 67
     7
 79
     5
170
     0
171
     0
290
     0
174
     0
 93
        1
 44
0.0
173
     0
291
     0
 45
0.0
1001
ACAD
1000
AcDbSavedByObjectVersion
1070
     0
  0
VISUALSTYLE
  5
32
102
{ACAD_REACTORS
330
2A
102
}
102
{ACAD_XDICTIONARY
360
410
102
}
330
2A
100
AcDbVisualStyle
  2
Basic
 70
     7
 71
     1
 72
     0
 73
     1
 90
        0
 40
0.6
 41
30.0
 62
     5
 63
     7
 74
     0
 91
        4
 64
     7
 65
   257
 75
     1
175
     1
 42
1.0
 92
        8
 66
     7
 43
1.0
 76
     1
 77
     6
 78
     2
 67
     7
 79
     5
170
     0
171
     0
290
     0
174
     0
 93
        1
 44
0.0
173
     0
291
     1
 45
0.0
1001
ACAD
1000
AcDbSavedByObjectVersion
1070
     0
  0
VISUALSTYLE
  5
36
102
{ACAD_REACTORS
330
2A
102
}
102
{ACAD_XDICTIONARY
360
418
102
}
330
2A
100
AcDbVisualStyle
  2
Brighten
 70
    12
 71
     2
 72
     2
 73
     0
 90
        0
 40
0.6
 41
30.0
 62
     5
 63
     7
 74
     1
 91
        4
 64
     7
 65
   257
 75
     1
175
     1
 42
1.0
 92
        8
 66
     7
 43
1.0
 76
     1
 77
     6
 78
     2
 67
     7
 79
     5
170
     0
171
     0
290
     0
174
     0
 93
        1
 44
50.0
173
     0
291
     1
 45
0.0
1001
ACAD
1000
AcDbSavedByObjectVersion
1070
     0
  0
VISUALSTYLE
  5
3A
102
{ACAD_REACTORS
330
2A
102
}
102
{ACAD_XDICTIONARY
360
420
102
}
330
2A
100
AcDbVisualStyle
  2
ColorChange
 70
    16
 71
     2
 72
     2
 73
     3
 90
        0
 40
0.6
 41
30.0
 62
     5
 63
     8
 74
     1
 91
        4
 64
     7
 65
   257
 75
     1
175
     1
 42
1.0
 92
        8
 66
     8
 43
1.0
 76
     1
 77
     6
 78
     2
 67
     7
 79
     5
170
     0
171
     0
290
     0
174
     0
 93
        1
 44
0.0
173
     0
291
     1
 45
0.0
1001
ACAD
1000
AcDbSavedByObjectVersion
1070
     0
  0
VISUALSTYLE
  5
34
102
{ACAD_REACTORS
330
2A
102
}
102
{ACAD_XDICTIONARY
360
414
102
}
330
2A
100
AcDbVisualStyle
  2
Conceptual
 70
     9
 71
     3
 72
     2
 73
     0
 90
        0
 40
0.6
 41
30.0
 62
     5
 63
     7
 74
     2
 91
        2
 64
     7
 65
   257
 75
     1
175
     1
 42
179.0
 92
        8
 66
     7
 43
1.0
 76
     1
 77
     6
 78
     2
 67
     7
 79
     3
170
     0
171
     0
290
     0
174
     0
 93
        1
 44
0.0
173
     0
291
     0
 45
0.0
1001
ACAD
1000
AcDbSavedByObjectVersion
1070
     0
  0
VISUALSTYLE
  5
35
102
{ACAD_REACTORS
330
2A
102
}
102
{ACAD_XDICTIONARY
360
416
102
}
330
2A
100
AcDbVisualStyle
  2
Dim
 70
    11
 71
     2
 72
     2
 73
     0
 90
        0
 40
0.6
 41
30.0
 62
     5
 63
     7
 74
     1
 91
        4
 64
     7
 65
   257
 75
     1
175
     1
 42
1.0
 92
        8
 66
     7
 43
1.0
 76
     1
 77
     6
 78
     2
 67
     7
 79
     5
170
     0
171
     0
290
     0
174
     0
 93
        1
 44
-50.0
173
     0
291
     1
 45
0.0
1001
ACAD
1000
AcDbSavedByObjectVersion
1070
     0
  0
VISUALSTYLE
  5
3D
102
{ACAD_REACTORS
330
2A
102
}
102
{ACAD_XDICTIONARY
360
426
102
}
330
2A
100
AcDbVisualStyle
  2
EdgeColorOff
 70
    22
 71
     2
 72
     2
 73
     0
 90
        0
 40
0.6
 41
30.0
 62
     5
 63
     7
 74
     1
 91
        4
 64
     7
 65
   257
 75
     1
175
     1
 42
1.0
 92
        8
 66
     7
 43
1.0
 76
     1
 77
     6
 78
     2
 67
     7
 79
     5
170
     0
171
     0
290
     0
174
     0
 93
        1
 44
0.0
173
     0
291
     1
 45
0.0
1001
ACAD
1000
AcDbSavedByObjectVersion
1070
     0
  0
VISUALSTYLE
  5
39
102
{ACAD_REACTORS
330
2A
102
}
102
{ACAD_XDICTIONARY
360
41E
102
}
330
2A
100
AcDbVisualStyle
  2
Facepattern
 70
    15
 71
     2
 72
     2
 73
     0
 90
        0
 40
0.6
 41
30.0
 62
     5
 63
     7
 74
     1
 91
        4
 64
     7
 65
   257
 75
     1
175
     1
 42
1.0
 92
        8
 66
     7
 43
1.0
 76
     1
 77
     6
 78
     2
 67
     7
 79
     5
170
     0
171
     0
290
     0
174
     0
 93
        1
 44
0.0
173
     0
291
     1
 45
0.0
1001
ACAD
1000
AcDbSavedByObjectVersion
1070
     0
  0
VISUALSTYLE
  5
2B
102
{ACAD_REACTORS
330
2A
102
}
102
{ACAD_XDICTIONARY
360
402
102
}
330
2A
100
AcDbVisualStyle
  2
Flat
 70
     0
 71
     2
 72
     1
 73
     1
 90
        2
 40
0.6
 41
30.0
 62
     5
 63
     7
 74
     0
 91
        0
 64
     7
 65
   257
 75
     1
175
     1
 42
1.0
 92
        8
 66
     7
 43
1.0
 76
     1
 77
     6
 78
     2
 67
     7
 79
     5
170
     0
171
     0
290
     0
174
     0
 93
       13
 44
0.0
173
     0
291
     1
 45
0.0
1001
ACAD
1000
AcDbSavedByObjectVersion
1070
     0
  0
VISUALSTYLE
  5
2C
102
{ACAD_REACTORS
330
2A
102
}
102
{ACAD_XDICTIONARY
360
404
102
}
330
2A
100
AcDbVisualStyle
  2
FlatWithEdges
 70
     1
 71
     2
 72
     1
 73
     1
 90
        2
 40
0.6
 41
30.0
 62
     5
 63
     7
 74
     1
 91
        0
 64
     7
 65
   257
 75
     1
175
     1
 42
1.0
 92
        0
 66
   257
 43
1.0
 76
     1
 77
     6
 78
     2
 67
     7
 79
     5
170
     0
171
     0
290
     0
174
     0
 93
       13
 44
0.0
173
     0
291
     1
 45
0.0
1001
ACAD
1000
AcDbSavedByObjectVersion
1070
     0
  0
VISUALSTYLE
  5
2D
102
{ACAD_REACTORS
330
2A
102
}
102
{ACAD_XDICTIONARY
360
406
102
}
330
2A
100
AcDbVisualStyle
  2
Gouraud
 70
     2
 71
     2
 72
     2
 73
     1
 90
        2
 40
0.6
 41
30.0
 62
     5
 63
     7
 74
     0
 91
        0
 64
     7
 65
   257
 75
     1
175
     1
 42
1.0
 92
        0
 66
     7
 43
1.0
 76
     1
 77
     6
 78
     2
 67
     7
 79
     5
170
     0
171
     0
290
     0
174
     0
 93
       13
 44
0.0
173
     0
291
     1
 45
0.0
1001
ACAD
1000
AcDbSavedByObjectVersion
1070
     0
  0
VISUALSTYLE
  5
2E
102
{ACAD_REACTORS
330
2A
102
}
102
{ACAD_XDICTIONARY
360
408
102
}
330
2A
100
AcDbVisualStyle
  2
GouraudWithEdges
 70
     3
 71
     2
 72
     2
 73
     1
 90
        2
 40
0.6
 41
30.0
 62
     5
 63
     7
 74
     1
 91
        0
 64
     7
 65
   257
 75
     1
175
     1
 42
1.0
 92
        0
 66
   257
 43
1.0
 76
     1
 77
     6
 78
     2
 67
     7
 79
     5
170
     0
171
     0
290
     0
174
     0
 93
       13
 44
0.0
173
     0
291
     1
 45
0.0
1001
ACAD
1000
AcDbSavedByObjectVersion
1070
     0
  0
VISUALSTYLE
  5
31
102
{ACAD_REACTORS
330
2A
102
}
102
{ACAD_XDICTIONARY
360
40E
102
}
330
2A
100
AcDbVisualStyle
  2
Hidden
 70
     6
 71
     1
 72
     2
 73
     2
 90
        0
 40
0.6
 41
30.0
 62
     5
 63
     7
 74
     2
 91
        2
 64
     7
 65
   257
 75
     2
175
     1
 42
40.0
 92
        0
 66
   257
 43
1.0
 76
     1
 77
     6
 78
     2
 67
     7
 79
     3
170
     0
171
     0
290
     0
174
     0
 93
        1
 44
0.0
173
     0
291
     0
 45
0.0
1001
ACAD
1000
AcDbSavedByObjectVersion
1070
     0
  0
VISUALSTYLE
  5
3B
102
{ACAD_REACTORS
330
2A
102
}
102
{ACAD_XDICTIONARY
360
422
102
}
330
2A
100
AcDbVisualStyle
  2
JitterOff
 70
    20
 71
     2
 72
     2
 73
     0
 90
        0
 40
0.6
 41
30.0
 62
     5
 63
     7
 74
     1
 91
        4
 64
     7
 65
   257
 75
     1
175
     1
 42
1.0
 92
       10
 66
     7
 43
1.0
 76
     1
 77
     6
 78
     2
 67
     7
 79
     5
170
     0
171
     0
290
     0
174
     0
 93
        1
 44
0.0
173
     0
291
     1
 45
0.0
1001
ACAD
1000
AcDbSavedByObjectVersion
1070
     0
  0
VISUALSTYLE
  5
38
102
{ACAD_REACTORS
330
2A
102
}
102
{ACAD_XDICTIONARY
360
41C
102
}
330
2A
100
AcDbVisualStyle
  2
Linepattern
 70
    14
 71
     2
 72
     2
 73
     0
 90
        0
 40
0.6
 41
30.0
 62
     5
 63
     7
 74
     1
 91
        4
 64
     7
 65
   257
 75
     7
175
     7
 42
1.0
 92
        8
 66
     7
 43
1.0
 76
     1
 77
     6
 78
     2
 67
     7
 79
     5
170
     0
171
     0
290
     0
174
     0
 93
        1
 44
0.0
173
     0
291
     1
 45
0.0
1001
ACAD
1000
AcDbSavedByObjectVersion
1070
     0
  0
VISUALSTYLE
  5
3C
102
{ACAD_REACTORS
330
2A
102
}
102
{ACAD_XDICTIONARY
360
424
102
}
330
2A
100
AcDbVisualStyle
  2
OverhangOff
 70
    21
 71
     2
 72
     2
 73
     0
 90
        0
 40
0.6
 41
30.0
 62
     5
 63
     7
 74
     1
 91
        4
 64
     7
 65
   257
 75
     1
175
     1
 42
1.0
 92
        9
 66
     7
 43
1.0
 76
     1
 77
     6
 78
     2
 67
     7
 79
     5
170
     0
171
     0
290
     0
174
     0
 93
        1
 44
0.0
173
     0
291
     1
 45
0.0
1001
ACAD
1000
AcDbSavedByObjectVersion
1070
     0
  0
VISUALSTYLE
  5
33
102
{ACAD_REACTORS
330
2A
102
}
102
{ACAD_XDICTIONARY
360
412
102
}
330
2A
100
AcDbVisualStyle
  2
Realistic
 70
     8
 71
     2
 72
     3
 73
     0
 90
        2
 40
0.6
 41
30.0
 62
     5
 63
     7
 74
     0
 91
        0
 64
     7
 65
   257
 75
     1
175
     1
 42
1.0
 92
        8
 66
   257
 43
1.0
 76
     1
 77
     6
 78
     2
 67
     7
 79
     3
170
     0
171
     0
290
     0
174
     0
 93
       13
 44
0.0
173
     0
291
     0
 45
0.0
1001
ACAD
1000
AcDbSavedByObjectVersion
1070
     0
  0
VISUALSTYLE
  5
42
102
{ACAD_REACTORS
330
2A
102
}
102
{ACAD_XDICTIONARY
360
430
102
}
330
2A
100
AcDbVisualStyle
  2
Shaded
 70
    27
 71
     2
 72
     2
 73
     1
 90
        2
 40
0.6
 41
30.0
 62
     5
 63
     7
 74
     0
 91
        4
 64
     7
 65
   257
 75
     1
175
     1
 42
1.0
 92
        8
 66
   257
 43
1.0
 76
     1
 77
     6
 78
     2
 67
     8
 79
     3
170
     0
171
     0
290
     0
174
     0
 93
        5
 44
0.0
173
     0
291
     0
 45
0.0
1001
ACAD
1000
AcDbSavedByObjectVersion
1070
     0
  0
VISUALSTYLE
  5
41
102
{ACAD_REACTORS
330
2A
102
}
102
{ACAD_XDICTIONARY
360
42E
102
}
330
2A
100
AcDbVisualStyle
  2
Shaded with edges
 70
    26
 71
     2
 72
     2
 73
     1
 90
        2
 40
0.6
 41
30.0
 62
     5
 63
     7
 74
     1
 91
       10
 64
     7
 65
   257
 75
     2
175
     1
 42
1.0
 92
        8
 66
   257
 43
1.0
 76
     1
 77
     6
 78
     2
 67
     7
 79
     3
170
     0
171
     0
290
     0
174
     0
 93
        5
 44
0.0
173
     0
291
     0
 45
0.0
1001
ACAD
1000
AcDbSavedByObjectVersion
1070
     0
  0
VISUALSTYLE
  5
3E
102
{ACAD_REACTORS
330
2A
102
}
102
{ACAD_XDICTIONARY
360
428
102
}
330
2A
100
AcDbVisualStyle
  2
Shades of Gray
 70
    23
 71
     2
 72
     2
 73
     3
 90
        0
 40
0.6
 41
30.0
 62
     5
 63
     7
 74
     2
 91
        2
 64
     7
 65
     7
 75
     1
175
     1
 42
40.0
 92
        8
 66
     7
 43
1.0
 76
     1
 77
     6
 78
     2
 67
     7
 79
     3
170
     0
171
     0
290
     0
174
     0
 93
        1
 44
0.0
173
     0
291
     0
 45
0.0
1001
ACAD
1000
AcDbSavedByObjectVersion
1070
     0
  0
VISUALSTYLE
  5
3F
102
{ACAD_REACTORS
330
2A
102
}
102
{ACAD_XDICTIONARY
360
42A
102
}
330
2A
100
AcDbVisualStyle
  2
Sketchy
 70
    24
 71
     1
 72
     2
 73
     2
 90
        0
 40
0.6
 41
30.0
 62
     5
 63
     7
 74
     2
 91
        2
 64
     7
 65
     7
 75
     1
175
     1
 42
40.0
 92
       11
 66
     7
 43
1.0
 76
     1
 77
     6
 78
     2
 67
     7
 79
     6
170
     0
171
     0
290
     0
174
     0
 93
        1
 44
0.0
173
     0
291
     0
 45
0.0
1001
ACAD
1000
AcDbSavedByObjectVersion
1070
     0
  0
VISUALSTYLE
  5
37
102
{ACAD_REACTORS
330
2A
102
}
102
{ACAD_XDICTIONARY
360
41A
102
}
330
2A
100
AcDbVisualStyle
  2
Thicken
 70
    13
 71
     2
 72
     2
 73
     0
 90
        0
 40
0.6
 41
30.0
 62
     5
 63
     7
 74
     1
 91
        4
 64
     7
 65
   257
 75
     1
175
     1
 42
1.0
 92
       12
 66
     7
 43
1.0
 76
     1
 77
     6
 78
     2
 67
     7
 79
     5
170
     0
171
     0
290
     0
174
     0
 93
        1
 44
0.0
173
     0
291
     1
 45
0.0
1001
ACAD
1000
AcDbSavedByObjectVersion
1070
     0
  0
VISUALSTYLE
  5
30
102
{ACAD_REACTORS
330
2A
102
}
102
{ACAD_XDICTIONARY
360
40C
102
}
330
2A
100
AcDbVisualStyle
  2
Wireframe
 70
     5
 71
     0
 72
     2
 73
     0
 90
        0
 40
0.6
 41
30.0
 62
     5
 63
     7
 74
     1
 91
        4
 64
     7
 65
   257
 75
     1
175
     1
 42
1.0
 92
        0
 66
   257
 43
1.0
 76
     1
 77
     6
 78
     2
 67
     7
 79
     3
170
     0
171
     0
290
     0
174
     0
 93
        1
 44
0.0
173
     0
291
     0
 45
0.0
1001
ACAD
1000
AcDbSavedByObjectVersion
1070
     0
  0
VISUALSTYLE
  5
40
102
{ACAD_REACTORS
330
2A
102
}
102
{ACAD_XDICTIONARY
360
42C
102
}
330
2A
100
AcDbVisualStyle
  2
X-Ray
 70
    25
 71
     2
 72
     2
 73
     1
 90
        1
 40
0.5
 41
30.0
 62
     5
 63
     7
 74
     1
 91
        0
 64
     7
 65
   257
 75
     1
175
     1
 42
1.0
 92
        8
 66
     7
 43
1.0
 76
     1
 77
     6
 78
     2
 67
     7
 79
     3
170
     0
171
     0
290
     0
174
     0
 93
       13
 44
0.0
173
     0
291
     0
 45
0.0
1001
ACAD
1000
AcDbSavedByObjectVersion
1070
     0
  0
DICTIONARYVAR
  5
400
102
{ACAD_REACTORS
330
3F4
102
}
330
3F4
100
DictionaryVariables
280
     0
  1
1:1
  0
DICTIONARYVAR
  5
3F9
102
{ACAD_REACTORS
330
3F4
102
}
330
3F4
100
DictionaryVariables
280
     0
  1
2
  0
DICTIONARYVAR
  5
3FA
102
{ACAD_REACTORS
330
3F4
102
}
330
3F4
100
DictionaryVariables
280
     0
  1
1
  0
DICTIONARYVAR
  5
401
102
{ACAD_REACTORS
330
3F4
102
}
330
3F4
100
DictionaryVariables
280
     0
  1
1
  0
DICTIONARY
  5
434
330
45
100
AcDbDictionary
280
     1
281
     1
  3
ACAD_XREC_ROUNDTRIP
360
435
  0
DICTIONARY
  5
432
330
44
100
AcDbDictionary
280
     1
281
     1
  3
ACAD_XREC_ROUNDTRIP
360
433
  0
DICTIONARY
  5
436
330
46
100
AcDbDictionary
280
     1
281
     1
  3
ACAD_XREC_ROUNDTRIP
360
437
  0
DICTIONARY
  5
40A
330
2F
100
AcDbDictionary
280
     1
281
     1
  3
ACAD_XREC_ROUNDTRIP
360
40B
  0
DICTIONARY
  5
410
330
32
100
AcDbDictionary
280
     1
281
     1
  3
ACAD_XREC_ROUNDTRIP
360
411
  0
DICTIONARY
  5
418
330
36
100
AcDbDictionary
280
     1
281
     1
  3
ACAD_XREC_ROUNDTRIP
360
419
  0
DICTIONARY
  5
420
330
3A
100
AcDbDictionary
280
     1
281
     1
  3
ACAD_XREC_ROUNDTRIP
360
421
  0
DICTIONARY
  5
414
330
34
100
AcDbDictionary
280
     1
281
     1
  3
ACAD_XREC_ROUNDTRIP
360
415
  0
DICTIONARY
  5
416
330
35
100
AcDbDictionary
280
     1
281
     1
  3
ACAD_XREC_ROUNDTRIP
360
417
  0
DICTIONARY
  5
426
330
3D
100
AcDbDictionary
280
     1
281
     1
  3
ACAD_XREC_ROUNDTRIP
360
427
  0
DICTIONARY
  5
41E
330
39
100
AcDbDictionary
280
     1
281
     1
  3
ACAD_XREC_ROUNDTRIP
360
41F
  0
DICTIONARY
  5
402
330
2B
100
AcDbDictionary
280
     1
281
     1
  3
ACAD_XREC_ROUNDTRIP
360
403
  0
DICTIONARY
  5
404
330
2C
100
AcDbDictionary
280
     1
281
     1
  3
ACAD_XREC_ROUNDTRIP
360
405
  0
DICTIONARY
  5
406
330
2D
100
AcDbDictionary
280
     1
281
     1
  3
ACAD_XREC_ROUNDTRIP
360
407
  0
DICTIONARY
  5
408
330
2E
100
AcDbDictionary
280
     1
281
     1
  3
ACAD_XREC_ROUNDTRIP
360
409
  0
DICTIONARY
  5
40E
330
31
100
AcDbDictionary
280
     1
281
     1
  3
ACAD_XREC_ROUNDTRIP
360
40F
  0
DICTIONARY
  5
422
330
3B
100
AcDbDictionary
280
     1
281
     1
  3
ACAD_XREC_ROUNDTRIP
360
423
  0
DICTIONARY
  5
41C
330
38
100
AcDbDictionary
280
     1
281
     1
  3
ACAD_XREC_ROUNDTRIP
360
41D
  0
DICTIONARY
  5
424
330
3C
100
AcDbDictionary
280
     1
281
     1
  3
ACAD_XREC_ROUNDTRIP
360
425
  0
DICTIONARY
  5
412
330
33
100
AcDbDictionary
280
     1
281
     1
  3
ACAD_XREC_ROUNDTRIP
360
413
  0
DICTIONARY
  5
430
330
42
100
AcDbDictionary
280
     1
281
     1
  3
ACAD_XREC_ROUNDTRIP
360
431
  0
DICTIONARY
  5
42E
330
41
100
AcDbDictionary
280
     1
281
     1
  3
ACAD_XREC_ROUNDTRIP
360
42F
  0
DICTIONARY
  5
428
330
3E
100
AcDbDictionary
280
     1
281
     1
  3
ACAD_XREC_ROUNDTRIP
360
429
  0
DICTIONARY
  5
42A
330
3F
100
AcDbDictionary
280
     1
281
     1
  3
ACAD_XREC_ROUNDTRIP
360
42B
  0
DICTIONARY
  5
41A
330
37
100
AcDbDictionary
280
     1
281
     1
  3
ACAD_XREC_ROUNDTRIP
360
41B
  0
DICTIONARY
  5
40C
330
30
100
AcDbDictionary
280
     1
281
     1
  3
ACAD_XREC_ROUNDTRIP
360
40D
  0
DICTIONARY
  5
42C
330
40
100
AcDbDictionary
280
     1
281
     1
  3
ACAD_XREC_ROUNDTRIP
360
42D
  0
XRECORD
  5
435
102
{ACAD_REACTORS
330
434
102
}
330
434
100
AcDbXrecord
280
     1
102
MATERIAL
148
0.0
149
0.0
149
0.0
 93
        0
 94
      127
282
     0
 72
     1
 77
     1
171
     1
175
     1
179
     1
273
     0
  0
XRECORD
  5
433
102
{ACAD_REACTORS
330
432
102
}
330
432
100
AcDbXrecord
280
     1
102
MATERIAL
148
0.0
149
0.0
149
0.0
 93
        0
 94
      127
282
     0
 72
     1
 77
     1
171
     1
175
     1
179
     1
273
     0
  0
XRECORD
  5
437
102
{ACAD_REACTORS
330
436
102
}
330
436
100
AcDbXrecord
280
     1
102
MATERIAL
148
0.0
149
0.0
149
0.0
 93
        0
 94
      127
282
     0
 72
     1
 77
     1
171
     1
175
     1
179
     1
273
     0
  0
XRECORD
  5
40B
102
{ACAD_REACTORS
330
40A
102
}
330
40A
100
AcDbXrecord
280
     1
102
RTVSPropertyOp0
 70
     1
102
RTVSPropertyOp1
 70
     1
102
RTVSPropertyOp2
 70
     1
102
RTVSPropertyOp3
 70
     1
102
RTVSPropertyOp4
 70
     1
102
RTVSPropertyOp5
 70
     1
102
RTVSPropertyOp6
 70
     1
102
RTVSPropertyOp7
 70
     1
102
RTVSPropertyOp8
 70
     1
102
RTVSPropertyOp9
 70
     1
102
RTVSPropertyOp10
 70
     1
102
RTVSPropertyOp11
 70
     1
102
RTVSPropertyOp12
 70
     1
102
RTVSPropertyOp13
 70
     1
102
RTVSPropertyOp14
 70
     1
102
RTVSPropertyOp15
 70
     1
102
RTVSPropertyOp16
 70
     1
102
RTVSPropertyOp17
 70
     1
102
RTVSPropertyOp18
 70
     1
102
RTVSPropertyOp19
 70
     1
102
RTVSPropertyOp20
 70
     1
102
RTVSPropertyOp21
 70
     1
102
RTVSPropertyOp22
 70
     1
102
RTVSPropertyOp23
 70
     1
102
RTVSPropertyOp24
 70
     1
102
RTVSPropertyOp25
 70
     1
102
RTVSPropertyOp26
 70
     1
102
RTVSPropertyOp27
 70
     1
102
RTVSPropertyOp28
 70
     1
102
RTVSPropertyOp29
 70
     1
102
RTVSPropertyOp30
 70
     1
102
RTVSPropertyOp31
 70
     1
102
RTVSPropertyOp32
 70
     1
102
RTVSPropertyOp33
 70
     1
102
RTVSPropertyOp34
 70
     1
102
RTVSPropertyOp35
 70
     1
102
RTVSPropertyOp36
 70
     1
102
RTVSPropertyOp37
 70
     1
102
RTVSPropertyOp38
 70
     1
102
RTVSPropertyOp39
 70
     1
102
RTVSPropertyOp40
 70
     1
102
RTVSPropertyOp41
 70
     1
102
RTVSPropertyOp42
 70
     1
102
RTVSPropertyOp43
 70
     1
102
RTVSPropertyOp44
 70
     1
102
RTVSPropertyOp45
 70
     1
102
RTVSPropertyOp46
 70
     1
102
RTVSPropertyOp47
 70
     1
102
RTVSPropertyOp48
 70
     1
102
RTVSPropertyOp49
 70
     1
102
RTVSPropertyOp50
 70
     1
102
RTVSPropertyOp51
 70
     0
102
RTVSPropertyOp52
 70
     0
102
RTVSPropertyOp53
 70
     1
102
RTVSPropertyOp54
 70
     1
102
RTVSPropertyOp55
 70
     1
102
RTVSPropertyOp56
 70
     1
102
RTVSPropertyOp57
 70
     1
102
RTVSPost2010Prop28
280
     1
102
RTVSPost2010PropOp28
 70
     1
102
RTVSPost2010Prop29
280
     1
102
RTVSPost2010PropOp29
 70
     1
102
RTVSPost2010Prop30
280
     0
102
RTVSPost2010PropOp30
 70
     1
102
RTVSPost2010Prop31
280
     0
102
RTVSPost2010PropOp31
 70
     1
102
RTVSPost2010Prop32
280
     0
102
RTVSPost2010PropOp32
 70
     1
102
RTVSPost2010Prop33
280
     0
102
RTVSPost2010PropOp33
 70
     1
102
RTVSPost2010Prop34
280
     0
102
RTVSPost2010PropOp34
 70
     1
102
RTVSPost2010Prop35
280
     0
102
RTVSPost2010PropOp35
 70
     1
102
RTVSPost2010Prop36
280
     0
102
RTVSPost2010PropOp36
 70
     1
102
RTVSPost2010Prop37
 90
       50
102
RTVSPost2010PropOp37
 70
     1
102
RTVSPost2010Prop38
140
0.0
102
RTVSPost2010PropOp38
 70
     1
102
RTVSPost2010Prop39
140
1.0
102
RTVSPost2010PropOp39
 70
     1
102
RTVSPost2010Prop40
 90
        0
102
RTVSPost2010PropOp40
 70
     1
102
RTVSPost2010Prop41ColorIndex
 90
       18
102
RTVSPost2010Prop41ColorRGB
 90
        0
102
RTVSPost2010PropOp41
 70
     1
102
RTVSPost2010Prop42
 90
       50
102
RTVSPost2010PropOp42
 70
     1
102
RTVSPost2010Prop43
 90
        3
102
RTVSPost2010PropOp43
 70
     1
102
RTVSPost2010Prop44ColorIndex
 90
        5
102
RTVSPost2010Prop44ColorRGB
 90
      255
102
RTVSPost2010PropOp44
 70
     1
102
RTVSPost2010Prop45
280
     0
102
RTVSPost2010PropOp45
 70
     1
102
RTVSPost2010Prop46
 90
       50
102
RTVSPost2010PropOp46
 70
     1
102
RTVSPost2010Prop47
 90
       50
102
RTVSPost2010PropOp47
 70
     1
102
RTVSPost2010Prop48
 90
       50
102
RTVSPost2010PropOp48
 70
     1
102
RTVSPost2010Prop49
280
     0
102
RTVSPost2010PropOp49
 70
     1
102
RTVSPost2010Prop50
 90
       50
102
RTVSPost2010PropOp50
 70
     1
102
RTVSPost2010Prop51ColorIndex
 90
      256
102
RTVSPost2010Prop51ColorRGB
 90
-16777216
102
RTVSPost2010PropOp51
 70
     0
102
RTVSPost2010Prop52
140
1.0
102
RTVSPost2010PropOp52
 70
     0
102
RTVSPost2010Prop53
 90
        2
102
RTVSPost2010PropOp53
 70
     1
102
RTVSPost2010Prop54
  1
strokes_ogs.tif
102
RTVSPost2010PropOp54
 70
     1
102
RTVSPost2010Prop55
280
     0
102
RTVSPost2010PropOp55
 70
     1
102
RTVSPost2010Prop56
140
1.0
102
RTVSPost2010PropOp56
 70
     1
102
RTVSPost2010Prop57
140
1.0
102
RTVSPost2010PropOp57
 70
     1
  0
XRECORD
  5
411
102
{ACAD_REACTORS
330
410
102
}
330
410
100
AcDbXrecord
280
     1
102
RTVSPropertyOp0
 70
     1
102
RTVSPropertyOp1
 70
     1
102
RTVSPropertyOp2
 70
     1
102
RTVSPropertyOp3
 70
     1
102
RTVSPropertyOp4
 70
     1
102
RTVSPropertyOp5
 70
     1
102
RTVSPropertyOp6
 70
     1
102
RTVSPropertyOp7
 70
     1
102
RTVSPropertyOp8
 70
     1
102
RTVSPropertyOp9
 70
     1
102
RTVSPropertyOp10
 70
     1
102
RTVSPropertyOp11
 70
     1
102
RTVSPropertyOp12
 70
     1
102
RTVSPropertyOp13
 70
     1
102
RTVSPropertyOp14
 70
     1
102
RTVSPropertyOp15
 70
     1
102
RTVSPropertyOp16
 70
     1
102
RTVSPropertyOp17
 70
     1
102
RTVSPropertyOp18
 70
     1
102
RTVSPropertyOp19
 70
     1
102
RTVSPropertyOp20
 70
     1
102
RTVSPropertyOp21
 70
     1
102
RTVSPropertyOp22
 70
     1
102
RTVSPropertyOp23
 70
     1
102
RTVSPropertyOp24
 70
     1
102
RTVSPropertyOp25
 70
     1
102
RTVSPropertyOp26
 70
     1
102
RTVSPropertyOp27
 70
     1
102
RTVSPropertyOp28
 70
     1
102
RTVSPropertyOp29
 70
     1
102
RTVSPropertyOp30
 70
     1
102
RTVSPropertyOp31
 70
     1
102
RTVSPropertyOp32
 70
     1
102
RTVSPropertyOp33
 70
     1
102
RTVSPropertyOp34
 70
     1
102
RTVSPropertyOp35
 70
     1
102
RTVSPropertyOp36
 70
     1
102
RTVSPropertyOp37
 70
     1
102
RTVSPropertyOp38
 70
     1
102
RTVSPropertyOp39
 70
     1
102
RTVSPropertyOp40
 70
     1
102
RTVSPropertyOp41
 70
     1
102
RTVSPropertyOp42
 70
     1
102
RTVSPropertyOp43
 70
     1
102
RTVSPropertyOp44
 70
     1
102
RTVSPropertyOp45
 70
     1
102
RTVSPropertyOp46
 70
     1
102
RTVSPropertyOp47
 70
     1
102
RTVSPropertyOp48
 70
     1
102
RTVSPropertyOp49
 70
     1
102
RTVSPropertyOp50
 70
     1
102
RTVSPropertyOp51
 70
     0
102
RTVSPropertyOp52
 70
     0
102
RTVSPropertyOp53
 70
     1
102
RTVSPropertyOp54
 70
     1
102
RTVSPropertyOp55
 70
     1
102
RTVSPropertyOp56
 70
     1
102
RTVSPropertyOp57
 70
     1
102
RTVSPost2010Prop28
280
     0
102
RTVSPost2010PropOp28
 70
     1
102
RTVSPost2010Prop29
280
     1
102
RTVSPost2010PropOp29
 70
     1
102
RTVSPost2010Prop30
280
     1
102
RTVSPost2010PropOp30
 70
     1
102
RTVSPost2010Prop31
280
     0
102
RTVSPost2010PropOp31
 70
     1
102
RTVSPost2010Prop32
280
     0
102
RTVSPost2010PropOp32
 70
     1
102
RTVSPost2010Prop33
280
     0
102
RTVSPost2010PropOp33
 70
     1
102
RTVSPost2010Prop34
280
     0
102
RTVSPost2010PropOp34
 70
     1
102
RTVSPost2010Prop35
280
     0
102
RTVSPost2010PropOp35
 70
     1
102
RTVSPost2010Prop36
280
     0
102
RTVSPost2010PropOp36
 70
     1
102
RTVSPost2010Prop37
 90
       50
102
RTVSPost2010PropOp37
 70
     1
102
RTVSPost2010Prop38
140
0.0
102
RTVSPost2010PropOp38
 70
     1
102
RTVSPost2010Prop39
140
1.0
102
RTVSPost2010PropOp39
 70
     1
102
RTVSPost2010Prop40
 90
        0
102
RTVSPost2010PropOp40
 70
     1
102
RTVSPost2010Prop41ColorIndex
 90
       18
102
RTVSPost2010Prop41ColorRGB
 90
        0
102
RTVSPost2010PropOp41
 70
     1
102
RTVSPost2010Prop42
 90
       50
102
RTVSPost2010PropOp42
 70
     1
102
RTVSPost2010Prop43
 90
        3
102
RTVSPost2010PropOp43
 70
     1
102
RTVSPost2010Prop44ColorIndex
 90
        5
102
RTVSPost2010Prop44ColorRGB
 90
      255
102
RTVSPost2010PropOp44
 70
     1
102
RTVSPost2010Prop45
280
     0
102
RTVSPost2010PropOp45
 70
     1
102
RTVSPost2010Prop46
 90
       50
102
RTVSPost2010PropOp46
 70
     1
102
RTVSPost2010Prop47
 90
       50
102
RTVSPost2010PropOp47
 70
     1
102
RTVSPost2010Prop48
 90
       50
102
RTVSPost2010PropOp48
 70
     1
102
RTVSPost2010Prop49
280
     0
102
RTVSPost2010PropOp49
 70
     1
102
RTVSPost2010Prop50
 90
       50
102
RTVSPost2010PropOp50
 70
     1
102
RTVSPost2010Prop51ColorIndex
 90
      256
102
RTVSPost2010Prop51ColorRGB
 90
-16777216
102
RTVSPost2010PropOp51
 70
     0
102
RTVSPost2010Prop52
140
1.0
102
RTVSPost2010PropOp52
 70
     0
102
RTVSPost2010Prop53
 90
        2
102
RTVSPost2010PropOp53
 70
     1
102
RTVSPost2010Prop54
  1
strokes_ogs.tif
102
RTVSPost2010PropOp54
 70
     1
102
RTVSPost2010Prop55
280
     0
102
RTVSPost2010PropOp55
 70
     1
102
RTVSPost2010Prop56
140
1.0
102
RTVSPost2010PropOp56
 70
     1
102
RTVSPost2010Prop57
140
1.0
102
RTVSPost2010PropOp57
 70
     1
  0
XRECORD
  5
419
102
{ACAD_REACTORS
330
418
102
}
330
418
100
AcDbXrecord
280
     1
102
RTVSPropertyOp0
 70
     1
102
RTVSPropertyOp1
 70
     1
102
RTVSPropertyOp2
 70
     1
102
RTVSPropertyOp3
 70
     1
102
RTVSPropertyOp4
 70
     1
102
RTVSPropertyOp5
 70
     1
102
RTVSPropertyOp6
 70
     1
102
RTVSPropertyOp7
 70
     1
102
RTVSPropertyOp8
 70
     1
102
RTVSPropertyOp9
 70
     1
102
RTVSPropertyOp10
 70
     1
102
RTVSPropertyOp11
 70
     1
102
RTVSPropertyOp12
 70
     1
102
RTVSPropertyOp13
 70
     1
102
RTVSPropertyOp14
 70
     1
102
RTVSPropertyOp15
 70
     1
102
RTVSPropertyOp16
 70
     1
102
RTVSPropertyOp17
 70
     1
102
RTVSPropertyOp18
 70
     1
102
RTVSPropertyOp19
 70
     1
102
RTVSPropertyOp20
 70
     1
102
RTVSPropertyOp21
 70
     1
102
RTVSPropertyOp22
 70
     1
102
RTVSPropertyOp23
 70
     1
102
RTVSPropertyOp24
 70
     1
102
RTVSPropertyOp25
 70
     1
102
RTVSPropertyOp26
 70
     1
102
RTVSPropertyOp27
 70
     1
102
RTVSPropertyOp28
 70
     1
102
RTVSPropertyOp29
 70
     1
102
RTVSPropertyOp30
 70
     1
102
RTVSPropertyOp31
 70
     1
102
RTVSPropertyOp32
 70
     1
102
RTVSPropertyOp33
 70
     1
102
RTVSPropertyOp34
 70
     1
102
RTVSPropertyOp35
 70
     1
102
RTVSPropertyOp36
 70
     1
102
RTVSPropertyOp37
 70
     1
102
RTVSPropertyOp38
 70
     1
102
RTVSPropertyOp39
 70
     1
102
RTVSPropertyOp40
 70
     1
102
RTVSPropertyOp41
 70
     1
102
RTVSPropertyOp42
 70
     1
102
RTVSPropertyOp43
 70
     1
102
RTVSPropertyOp44
 70
     1
102
RTVSPropertyOp45
 70
     1
102
RTVSPropertyOp46
 70
     1
102
RTVSPropertyOp47
 70
     1
102
RTVSPropertyOp48
 70
     1
102
RTVSPropertyOp49
 70
     1
102
RTVSPropertyOp50
 70
     1
102
RTVSPropertyOp51
 70
     0
102
RTVSPropertyOp52
 70
     0
102
RTVSPropertyOp53
 70
     1
102
RTVSPropertyOp54
 70
     1
102
RTVSPropertyOp55
 70
     1
102
RTVSPropertyOp56
 70
     1
102
RTVSPropertyOp57
 70
     1
102
RTVSPost2010Prop28
280
     0
102
RTVSPost2010PropOp28
 70
     1
102
RTVSPost2010Prop29
280
     1
102
RTVSPost2010PropOp29
 70
     1
102
RTVSPost2010Prop30
280
     1
102
RTVSPost2010PropOp30
 70
     1
102
RTVSPost2010Prop31
280
     0
102
RTVSPost2010PropOp31
 70
     1
102
RTVSPost2010Prop32
280
     0
102
RTVSPost2010PropOp32
 70
     1
102
RTVSPost2010Prop33
280
     0
102
RTVSPost2010PropOp33
 70
     1
102
RTVSPost2010Prop34
280
     0
102
RTVSPost2010PropOp34
 70
     1
102
RTVSPost2010Prop35
280
     0
102
RTVSPost2010PropOp35
 70
     1
102
RTVSPost2010Prop36
280
     0
102
RTVSPost2010PropOp36
 70
     1
102
RTVSPost2010Prop37
 90
       50
102
RTVSPost2010PropOp37
 70
     1
102
RTVSPost2010Prop38
140
0.0
102
RTVSPost2010PropOp38
 70
     1
102
RTVSPost2010Prop39
140
1.0
102
RTVSPost2010PropOp39
 70
     1
102
RTVSPost2010Prop40
 90
        0
102
RTVSPost2010PropOp40
 70
     1
102
RTVSPost2010Prop41ColorIndex
 90
       18
102
RTVSPost2010Prop41ColorRGB
 90
        0
102
RTVSPost2010PropOp41
 70
     1
102
RTVSPost2010Prop42
 90
       50
102
RTVSPost2010PropOp42
 70
     1
102
RTVSPost2010Prop43
 90
        3
102
RTVSPost2010PropOp43
 70
     1
102
RTVSPost2010Prop44ColorIndex
 90
        5
102
RTVSPost2010Prop44ColorRGB
 90
      255
102
RTVSPost2010PropOp44
 70
     1
102
RTVSPost2010Prop45
280
     0
102
RTVSPost2010PropOp45
 70
     1
102
RTVSPost2010Prop46
 90
       50
102
RTVSPost2010PropOp46
 70
     1
102
RTVSPost2010Prop47
 90
       50
102
RTVSPost2010PropOp47
 70
     1
102
RTVSPost2010Prop48
 90
       50
102
RTVSPost2010PropOp48
 70
     1
102
RTVSPost2010Prop49
280
     0
102
RTVSPost2010PropOp49
 70
     1
102
RTVSPost2010Prop50
 90
       50
102
RTVSPost2010PropOp50
 70
     1
102
RTVSPost2010Prop51ColorIndex
 90
      256
102
RTVSPost2010Prop51ColorRGB
 90
-16777216
102
RTVSPost2010PropOp51
 70
     0
102
RTVSPost2010Prop52
140
1.0
102
RTVSPost2010PropOp52
 70
     0
102
RTVSPost2010Prop53
 90
        2
102
RTVSPost2010PropOp53
 70
     1
102
RTVSPost2010Prop54
  1
strokes_ogs.tif
102
RTVSPost2010PropOp54
 70
     1
102
RTVSPost2010Prop55
280
     0
102
RTVSPost2010PropOp55
 70
     1
102
RTVSPost2010Prop56
140
1.0
102
RTVSPost2010PropOp56
 70
     1
102
RTVSPost2010Prop57
140
1.0
102
RTVSPost2010PropOp57
 70
     1
  0
XRECORD
  5
421
102
{ACAD_REACTORS
330
420
102
}
330
420
100
AcDbXrecord
280
     1
102
RTVSPropertyOp0
 70
     1
102
RTVSPropertyOp1
 70
     1
102
RTVSPropertyOp2
 70
     1
102
RTVSPropertyOp3
 70
     1
102
RTVSPropertyOp4
 70
     1
102
RTVSPropertyOp5
 70
     1
102
RTVSPropertyOp6
 70
     1
102
RTVSPropertyOp7
 70
     1
102
RTVSPropertyOp8
 70
     1
102
RTVSPropertyOp9
 70
     1
102
RTVSPropertyOp10
 70
     1
102
RTVSPropertyOp11
 70
     1
102
RTVSPropertyOp12
 70
     1
102
RTVSPropertyOp13
 70
     1
102
RTVSPropertyOp14
 70
     1
102
RTVSPropertyOp15
 70
     1
102
RTVSPropertyOp16
 70
     1
102
RTVSPropertyOp17
 70
     1
102
RTVSPropertyOp18
 70
     1
102
RTVSPropertyOp19
 70
     1
102
RTVSPropertyOp20
 70
     1
102
RTVSPropertyOp21
 70
     1
102
RTVSPropertyOp22
 70
     1
102
RTVSPropertyOp23
 70
     1
102
RTVSPropertyOp24
 70
     1
102
RTVSPropertyOp25
 70
     1
102
RTVSPropertyOp26
 70
     1
102
RTVSPropertyOp27
 70
     1
102
RTVSPropertyOp28
 70
     1
102
RTVSPropertyOp29
 70
     1
102
RTVSPropertyOp30
 70
     1
102
RTVSPropertyOp31
 70
     1
102
RTVSPropertyOp32
 70
     1
102
RTVSPropertyOp33
 70
     1
102
RTVSPropertyOp34
 70
     1
102
RTVSPropertyOp35
 70
     1
102
RTVSPropertyOp36
 70
     1
102
RTVSPropertyOp37
 70
     1
102
RTVSPropertyOp38
 70
     1
102
RTVSPropertyOp39
 70
     1
102
RTVSPropertyOp40
 70
     1
102
RTVSPropertyOp41
 70
     1
102
RTVSPropertyOp42
 70
     1
102
RTVSPropertyOp43
 70
     1
102
RTVSPropertyOp44
 70
     1
102
RTVSPropertyOp45
 70
     1
102
RTVSPropertyOp46
 70
     1
102
RTVSPropertyOp47
 70
     1
102
RTVSPropertyOp48
 70
     1
102
RTVSPropertyOp49
 70
     1
102
RTVSPropertyOp50
 70
     1
102
RTVSPropertyOp51
 70
     0
102
RTVSPropertyOp52
 70
     0
102
RTVSPropertyOp53
 70
     1
102
RTVSPropertyOp54
 70
     1
102
RTVSPropertyOp55
 70
     1
102
RTVSPropertyOp56
 70
     1
102
RTVSPropertyOp57
 70
     1
102
RTVSPost2010Prop28
280
     0
102
RTVSPost2010PropOp28
 70
     1
102
RTVSPost2010Prop29
280
     1
102
RTVSPost2010PropOp29
 70
     1
102
RTVSPost2010Prop30
280
     1
102
RTVSPost2010PropOp30
 70
     1
102
RTVSPost2010Prop31
280
     0
102
RTVSPost2010PropOp31
 70
     1
102
RTVSPost2010Prop32
280
     0
102
RTVSPost2010PropOp32
 70
     1
102
RTVSPost2010Prop33
280
     0
102
RTVSPost2010PropOp33
 70
     1
102
RTVSPost2010Prop34
280
     0
102
RTVSPost2010PropOp34
 70
     1
102
RTVSPost2010Prop35
280
     0
102
RTVSPost2010PropOp35
 70
     1
102
RTVSPost2010Prop36
280
     0
102
RTVSPost2010PropOp36
 70
     1
102
RTVSPost2010Prop37
 90
       50
102
RTVSPost2010PropOp37
 70
     1
102
RTVSPost2010Prop38
140
0.0
102
RTVSPost2010PropOp38
 70
     1
102
RTVSPost2010Prop39
140
1.0
102
RTVSPost2010PropOp39
 70
     1
102
RTVSPost2010Prop40
 90
        0
102
RTVSPost2010PropOp40
 70
     1
102
RTVSPost2010Prop41ColorIndex
 90
       18
102
RTVSPost2010Prop41ColorRGB
 90
        0
102
RTVSPost2010PropOp41
 70
     1
102
RTVSPost2010Prop42
 90
       50
102
RTVSPost2010PropOp42
 70
     1
102
RTVSPost2010Prop43
 90
        3
102
RTVSPost2010PropOp43
 70
     1
102
RTVSPost2010Prop44ColorIndex
 90
        5
102
RTVSPost2010Prop44ColorRGB
 90
      255
102
RTVSPost2010PropOp44
 70
     1
102
RTVSPost2010Prop45
280
     0
102
RTVSPost2010PropOp45
 70
     1
102
RTVSPost2010Prop46
 90
       50
102
RTVSPost2010PropOp46
 70
     1
102
RTVSPost2010Prop47
 90
       50
102
RTVSPost2010PropOp47
 70
     1
102
RTVSPost2010Prop48
 90
       50
102
RTVSPost2010PropOp48
 70
     1
102
RTVSPost2010Prop49
280
     0
102
RTVSPost2010PropOp49
 70
     1
102
RTVSPost2010Prop50
 90
       50
102
RTVSPost2010PropOp50
 70
     1
102
RTVSPost2010Prop51ColorIndex
 90
      256
102
RTVSPost2010Prop51ColorRGB
 90
-16777216
102
RTVSPost2010PropOp51
 70
     0
102
RTVSPost2010Prop52
140
1.0
102
RTVSPost2010PropOp52
 70
     0
102
RTVSPost2010Prop53
 90
        2
102
RTVSPost2010PropOp53
 70
     1
102
RTVSPost2010Prop54
  1
strokes_ogs.tif
102
RTVSPost2010PropOp54
 70
     1
102
RTVSPost2010Prop55
280
     0
102
RTVSPost2010PropOp55
 70
     1
102
RTVSPost2010Prop56
140
1.0
102
RTVSPost2010PropOp56
 70
     1
102
RTVSPost2010Prop57
140
1.0
102
RTVSPost2010PropOp57
 70
     1
  0
XRECORD
  5
415
102
{ACAD_REACTORS
330
414
102
}
330
414
100
AcDbXrecord
280
     1
102
RTVSPropertyOp0
 70
     1
102
RTVSPropertyOp1
 70
     1
102
RTVSPropertyOp2
 70
     1
102
RTVSPropertyOp3
 70
     1
102
RTVSPropertyOp4
 70
     1
102
RTVSPropertyOp5
 70
     1
102
RTVSPropertyOp6
 70
     1
102
RTVSPropertyOp7
 70
     1
102
RTVSPropertyOp8
 70
     1
102
RTVSPropertyOp9
 70
     1
102
RTVSPropertyOp10
 70
     1
102
RTVSPropertyOp11
 70
     1
102
RTVSPropertyOp12
 70
     1
102
RTVSPropertyOp13
 70
     1
102
RTVSPropertyOp14
 70
     1
102
RTVSPropertyOp15
 70
     1
102
RTVSPropertyOp16
 70
     1
102
RTVSPropertyOp17
 70
     1
102
RTVSPropertyOp18
 70
     1
102
RTVSPropertyOp19
 70
     1
102
RTVSPropertyOp20
 70
     1
102
RTVSPropertyOp21
 70
     1
102
RTVSPropertyOp22
 70
     1
102
RTVSPropertyOp23
 70
     1
102
RTVSPropertyOp24
 70
     1
102
RTVSPropertyOp25
 70
     1
102
RTVSPropertyOp26
 70
     1
102
RTVSPropertyOp27
 70
     1
102
RTVSPropertyOp28
 70
     1
102
RTVSPropertyOp29
 70
     1
102
RTVSPropertyOp30
 70
     1
102
RTVSPropertyOp31
 70
     1
102
RTVSPropertyOp32
 70
     1
102
RTVSPropertyOp33
 70
     1
102
RTVSPropertyOp34
 70
     1
102
RTVSPropertyOp35
 70
     1
102
RTVSPropertyOp36
 70
     1
102
RTVSPropertyOp37
 70
     1
102
RTVSPropertyOp38
 70
     1
102
RTVSPropertyOp39
 70
     1
102
RTVSPropertyOp40
 70
     1
102
RTVSPropertyOp41
 70
     1
102
RTVSPropertyOp42
 70
     1
102
RTVSPropertyOp43
 70
     1
102
RTVSPropertyOp44
 70
     1
102
RTVSPropertyOp45
 70
     1
102
RTVSPropertyOp46
 70
     1
102
RTVSPropertyOp47
 70
     1
102
RTVSPropertyOp48
 70
     1
102
RTVSPropertyOp49
 70
     1
102
RTVSPropertyOp50
 70
     1
102
RTVSPropertyOp51
 70
     0
102
RTVSPropertyOp52
 70
     0
102
RTVSPropertyOp53
 70
     1
102
RTVSPropertyOp54
 70
     1
102
RTVSPropertyOp55
 70
     1
102
RTVSPropertyOp56
 70
     1
102
RTVSPropertyOp57
 70
     1
102
RTVSPost2010Prop28
280
     0
102
RTVSPost2010PropOp28
 70
     1
102
RTVSPost2010Prop29
280
     1
102
RTVSPost2010PropOp29
 70
     1
102
RTVSPost2010Prop30
280
     1
102
RTVSPost2010PropOp30
 70
     1
102
RTVSPost2010Prop31
280
     0
102
RTVSPost2010PropOp31
 70
     1
102
RTVSPost2010Prop32
280
     0
102
RTVSPost2010PropOp32
 70
     1
102
RTVSPost2010Prop33
280
     0
102
RTVSPost2010PropOp33
 70
     1
102
RTVSPost2010Prop34
280
     0
102
RTVSPost2010PropOp34
 70
     1
102
RTVSPost2010Prop35
280
     0
102
RTVSPost2010PropOp35
 70
     1
102
RTVSPost2010Prop36
280
     0
102
RTVSPost2010PropOp36
 70
     1
102
RTVSPost2010Prop37
 90
       50
102
RTVSPost2010PropOp37
 70
     1
102
RTVSPost2010Prop38
140
0.0
102
RTVSPost2010PropOp38
 70
     1
102
RTVSPost2010Prop39
140
1.0
102
RTVSPost2010PropOp39
 70
     1
102
RTVSPost2010Prop40
 90
        0
102
RTVSPost2010PropOp40
 70
     1
102
RTVSPost2010Prop41ColorIndex
 90
       18
102
RTVSPost2010Prop41ColorRGB
 90
        0
102
RTVSPost2010PropOp41
 70
     1
102
RTVSPost2010Prop42
 90
       50
102
RTVSPost2010PropOp42
 70
     1
102
RTVSPost2010Prop43
 90
        3
102
RTVSPost2010PropOp43
 70
     1
102
RTVSPost2010Prop44ColorIndex
 90
        5
102
RTVSPost2010Prop44ColorRGB
 90
      255
102
RTVSPost2010PropOp44
 70
     1
102
RTVSPost2010Prop45
280
     0
102
RTVSPost2010PropOp45
 70
     1
102
RTVSPost2010Prop46
 90
       50
102
RTVSPost2010PropOp46
 70
     1
102
RTVSPost2010Prop47
 90
       50
102
RTVSPost2010PropOp47
 70
     1
102
RTVSPost2010Prop48
 90
       50
102
RTVSPost2010PropOp48
 70
     1
102
RTVSPost2010Prop49
280
     0
102
RTVSPost2010PropOp49
 70
     1
102
RTVSPost2010Prop50
 90
       50
102
RTVSPost2010PropOp50
 70
     1
102
RTVSPost2010Prop51ColorIndex
 90
      256
102
RTVSPost2010Prop51ColorRGB
 90
-16777216
102
RTVSPost2010PropOp51
 70
     0
102
RTVSPost2010Prop52
140
1.0
102
RTVSPost2010PropOp52
 70
     0
102
RTVSPost2010Prop53
 90
        2
102
RTVSPost2010PropOp53
 70
     1
102
RTVSPost2010Prop54
  1
strokes_ogs.tif
102
RTVSPost2010PropOp54
 70
     1
102
RTVSPost2010Prop55
280
     0
102
RTVSPost2010PropOp55
 70
     1
102
RTVSPost2010Prop56
140
1.0
102
RTVSPost2010PropOp56
 70
     1
102
RTVSPost2010Prop57
140
1.0
102
RTVSPost2010PropOp57
 70
     1
  0
XRECORD
  5
417
102
{ACAD_REACTORS
330
416
102
}
330
416
100
AcDbXrecord
280
     1
102
RTVSPropertyOp0
 70
     1
102
RTVSPropertyOp1
 70
     1
102
RTVSPropertyOp2
 70
     1
102
RTVSPropertyOp3
 70
     1
102
RTVSPropertyOp4
 70
     1
102
RTVSPropertyOp5
 70
     1
102
RTVSPropertyOp6
 70
     1
102
RTVSPropertyOp7
 70
     1
102
RTVSPropertyOp8
 70
     1
102
RTVSPropertyOp9
 70
     1
102
RTVSPropertyOp10
 70
     1
102
RTVSPropertyOp11
 70
     1
102
RTVSPropertyOp12
 70
     1
102
RTVSPropertyOp13
 70
     1
102
RTVSPropertyOp14
 70
     1
102
RTVSPropertyOp15
 70
     1
102
RTVSPropertyOp16
 70
     1
102
RTVSPropertyOp17
 70
     1
102
RTVSPropertyOp18
 70
     1
102
RTVSPropertyOp19
 70
     1
102
RTVSPropertyOp20
 70
     1
102
RTVSPropertyOp21
 70
     1
102
RTVSPropertyOp22
 70
     1
102
RTVSPropertyOp23
 70
     1
102
RTVSPropertyOp24
 70
     1
102
RTVSPropertyOp25
 70
     1
102
RTVSPropertyOp26
 70
     1
102
RTVSPropertyOp27
 70
     1
102
RTVSPropertyOp28
 70
     1
102
RTVSPropertyOp29
 70
     1
102
RTVSPropertyOp30
 70
     1
102
RTVSPropertyOp31
 70
     1
102
RTVSPropertyOp32
 70
     1
102
RTVSPropertyOp33
 70
     1
102
RTVSPropertyOp34
 70
     1
102
RTVSPropertyOp35
 70
     1
102
RTVSPropertyOp36
 70
     1
102
RTVSPropertyOp37
 70
     1
102
RTVSPropertyOp38
 70
     1
102
RTVSPropertyOp39
 70
     1
102
RTVSPropertyOp40
 70
     1
102
RTVSPropertyOp41
 70
     1
102
RTVSPropertyOp42
 70
     1
102
RTVSPropertyOp43
 70
     1
102
RTVSPropertyOp44
 70
     1
102
RTVSPropertyOp45
 70
     1
102
RTVSPropertyOp46
 70
     1
102
RTVSPropertyOp47
 70
     1
102
RTVSPropertyOp48
 70
     1
102
RTVSPropertyOp49
 70
     1
102
RTVSPropertyOp50
 70
     1
102
RTVSPropertyOp51
 70
     0
102
RTVSPropertyOp52
 70
     0
102
RTVSPropertyOp53
 70
     1
102
RTVSPropertyOp54
 70
     1
102
RTVSPropertyOp55
 70
     1
102
RTVSPropertyOp56
 70
     1
102
RTVSPropertyOp57
 70
     1
102
RTVSPost2010Prop28
280
     0
102
RTVSPost2010PropOp28
 70
     1
102
RTVSPost2010Prop29
280
     1
102
RTVSPost2010PropOp29
 70
     1
102
RTVSPost2010Prop30
280
     1
102
RTVSPost2010PropOp30
 70
     1
102
RTVSPost2010Prop31
280
     0
102
RTVSPost2010PropOp31
 70
     1
102
RTVSPost2010Prop32
280
     0
102
RTVSPost2010PropOp32
 70
     1
102
RTVSPost2010Prop33
280
     0
102
RTVSPost2010PropOp33
 70
     1
102
RTVSPost2010Prop34
280
     0
102
RTVSPost2010PropOp34
 70
     1
102
RTVSPost2010Prop35
280
     0
102
RTVSPost2010PropOp35
 70
     1
102
RTVSPost2010Prop36
280
     0
102
RTVSPost2010PropOp36
 70
     1
102
RTVSPost2010Prop37
 90
       50
102
RTVSPost2010PropOp37
 70
     1
102
RTVSPost2010Prop38
140
0.0
102
RTVSPost2010PropOp38
 70
     1
102
RTVSPost2010Prop39
140
1.0
102
RTVSPost2010PropOp39
 70
     1
102
RTVSPost2010Prop40
 90
        0
102
RTVSPost2010PropOp40
 70
     1
102
RTVSPost2010Prop41ColorIndex
 90
       18
102
RTVSPost2010Prop41ColorRGB
 90
        0
102
RTVSPost2010PropOp41
 70
     1
102
RTVSPost2010Prop42
 90
       50
102
RTVSPost2010PropOp42
 70
     1
102
RTVSPost2010Prop43
 90
        3
102
RTVSPost2010PropOp43
 70
     1
102
RTVSPost2010Prop44ColorIndex
 90
        5
102
RTVSPost2010Prop44ColorRGB
 90
      255
102
RTVSPost2010PropOp44
 70
     1
102
RTVSPost2010Prop45
280
     0
102
RTVSPost2010PropOp45
 70
     1
102
RTVSPost2010Prop46
 90
       50
102
RTVSPost2010PropOp46
 70
     1
102
RTVSPost2010Prop47
 90
       50
102
RTVSPost2010PropOp47
 70
     1
102
RTVSPost2010Prop48
 90
       50
102
RTVSPost2010PropOp48
 70
     1
102
RTVSPost2010Prop49
280
     0
102
RTVSPost2010PropOp49
 70
     1
102
RTVSPost2010Prop50
 90
       50
102
RTVSPost2010PropOp50
 70
     1
102
RTVSPost2010Prop51ColorIndex
 90
      256
102
RTVSPost2010Prop51ColorRGB
 90
-16777216
102
RTVSPost2010PropOp51
 70
     0
102
RTVSPost2010Prop52
140
1.0
102
RTVSPost2010PropOp52
 70
     0
102
RTVSPost2010Prop53
 90
        2
102
RTVSPost2010PropOp53
 70
     1
102
RTVSPost2010Prop54
  1
strokes_ogs.tif
102
RTVSPost2010PropOp54
 70
     1
102
RTVSPost2010Prop55
280
     0
102
RTVSPost2010PropOp55
 70
     1
102
RTVSPost2010Prop56
140
1.0
102
RTVSPost2010PropOp56
 70
     1
102
RTVSPost2010Prop57
140
1.0
102
RTVSPost2010PropOp57
 70
     1
  0
XRECORD
  5
427
102
{ACAD_REACTORS
330
426
102
}
330
426
100
AcDbXrecord
280
     1
102
RTVSPropertyOp0
 70
     0
102
RTVSPropertyOp1
 70
     0
102
RTVSPropertyOp2
 70
     0
102
RTVSPropertyOp3
 70
     0
102
RTVSPropertyOp4
 70
     0
102
RTVSPropertyOp5
 70
     0
102
RTVSPropertyOp6
 70
     0
102
RTVSPropertyOp7
 70
     0
102
RTVSPropertyOp8
 70
     0
102
RTVSPropertyOp9
 70
     0
102
RTVSPropertyOp10
 70
     0
102
RTVSPropertyOp11
 70
     0
102
RTVSPropertyOp12
 70
     0
102
RTVSPropertyOp13
 70
     0
102
RTVSPropertyOp14
 70
     2
102
RTVSPropertyOp15
 70
     0
102
RTVSPropertyOp16
 70
     0
102
RTVSPropertyOp17
 70
     0
102
RTVSPropertyOp18
 70
     0
102
RTVSPropertyOp19
 70
     0
102
RTVSPropertyOp20
 70
     0
102
RTVSPropertyOp21
 70
     0
102
RTVSPropertyOp22
 70
     0
102
RTVSPropertyOp23
 70
     0
102
RTVSPropertyOp24
 70
     0
102
RTVSPropertyOp25
 70
     0
102
RTVSPropertyOp26
 70
     0
102
RTVSPropertyOp27
 70
     0
102
RTVSPropertyOp28
 70
     0
102
RTVSPropertyOp29
 70
     0
102
RTVSPropertyOp30
 70
     0
102
RTVSPropertyOp31
 70
     0
102
RTVSPropertyOp32
 70
     0
102
RTVSPropertyOp33
 70
     0
102
RTVSPropertyOp34
 70
     0
102
RTVSPropertyOp35
 70
     0
102
RTVSPropertyOp36
 70
     0
102
RTVSPropertyOp37
 70
     0
102
RTVSPropertyOp38
 70
     0
102
RTVSPropertyOp39
 70
     0
102
RTVSPropertyOp40
 70
     0
102
RTVSPropertyOp41
 70
     0
102
RTVSPropertyOp42
 70
     0
102
RTVSPropertyOp43
 70
     0
102
RTVSPropertyOp44
 70
     0
102
RTVSPropertyOp45
 70
     0
102
RTVSPropertyOp46
 70
     0
102
RTVSPropertyOp47
 70
     0
102
RTVSPropertyOp48
 70
     0
102
RTVSPropertyOp49
 70
     0
102
RTVSPropertyOp50
 70
     0
102
RTVSPropertyOp51
 70
     0
102
RTVSPropertyOp52
 70
     0
102
RTVSPropertyOp53
 70
     0
102
RTVSPropertyOp54
 70
     0
102
RTVSPropertyOp55
 70
     0
102
RTVSPropertyOp56
 70
     0
102
RTVSPropertyOp57
 70
     0
102
RTVSPost2010Prop28
280
     0
102
RTVSPost2010PropOp28
 70
     0
102
RTVSPost2010Prop29
280
     1
102
RTVSPost2010PropOp29
 70
     0
102
RTVSPost2010Prop30
280
     1
102
RTVSPost2010PropOp30
 70
     0
102
RTVSPost2010Prop31
280
     0
102
RTVSPost2010PropOp31
 70
     0
102
RTVSPost2010Prop32
280
     0
102
RTVSPost2010PropOp32
 70
     0
102
RTVSPost2010Prop33
280
     0
102
RTVSPost2010PropOp33
 70
     0
102
RTVSPost2010Prop34
280
     0
102
RTVSPost2010PropOp34
 70
     0
102
RTVSPost2010Prop35
280
     0
102
RTVSPost2010PropOp35
 70
     0
102
RTVSPost2010Prop36
280
     0
102
RTVSPost2010PropOp36
 70
     0
102
RTVSPost2010Prop37
 90
       50
102
RTVSPost2010PropOp37
 70
     0
102
RTVSPost2010Prop38
140
0.0
102
RTVSPost2010PropOp38
 70
     0
102
RTVSPost2010Prop39
140
1.0
102
RTVSPost2010PropOp39
 70
     0
102
RTVSPost2010Prop40
 90
        0
102
RTVSPost2010PropOp40
 70
     0
102
RTVSPost2010Prop41ColorIndex
 90
       18
102
RTVSPost2010Prop41ColorRGB
 90
        0
102
RTVSPost2010PropOp41
 70
     0
102
RTVSPost2010Prop42
 90
       50
102
RTVSPost2010PropOp42
 70
     0
102
RTVSPost2010Prop43
 90
        3
102
RTVSPost2010PropOp43
 70
     0
102
RTVSPost2010Prop44ColorIndex
 90
        5
102
RTVSPost2010Prop44ColorRGB
 90
      255
102
RTVSPost2010PropOp44
 70
     0
102
RTVSPost2010Prop45
280
     0
102
RTVSPost2010PropOp45
 70
     0
102
RTVSPost2010Prop46
 90
       50
102
RTVSPost2010PropOp46
 70
     0
102
RTVSPost2010Prop47
 90
       50
102
RTVSPost2010PropOp47
 70
     0
102
RTVSPost2010Prop48
 90
       50
102
RTVSPost2010PropOp48
 70
     0
102
RTVSPost2010Prop49
280
     0
102
RTVSPost2010PropOp49
 70
     0
102
RTVSPost2010Prop50
 90
       50
102
RTVSPost2010PropOp50
 70
     0
102
RTVSPost2010Prop51ColorIndex
 90
      256
102
RTVSPost2010Prop51ColorRGB
 90
-16777216
102
RTVSPost2010PropOp51
 70
     0
102
RTVSPost2010Prop52
140
1.0
102
RTVSPost2010PropOp52
 70
     0
102
RTVSPost2010Prop53
 90
        2
102
RTVSPost2010PropOp53
 70
     0
102
RTVSPost2010Prop54
  1
strokes_ogs.tif
102
RTVSPost2010PropOp54
 70
     0
102
RTVSPost2010Prop55
280
     0
102
RTVSPost2010PropOp55
 70
     0
102
RTVSPost2010Prop56
140
1.0
102
RTVSPost2010PropOp56
 70
     0
102
RTVSPost2010Prop57
140
1.0
102
RTVSPost2010PropOp57
 70
     0
  0
XRECORD
  5
41F
102
{ACAD_REACTORS
330
41E
102
}
330
41E
100
AcDbXrecord
280
     1
102
RTVSPropertyOp0
 70
     1
102
RTVSPropertyOp1
 70
     1
102
RTVSPropertyOp2
 70
     1
102
RTVSPropertyOp3
 70
     1
102
RTVSPropertyOp4
 70
     1
102
RTVSPropertyOp5
 70
     1
102
RTVSPropertyOp6
 70
     1
102
RTVSPropertyOp7
 70
     1
102
RTVSPropertyOp8
 70
     1
102
RTVSPropertyOp9
 70
     1
102
RTVSPropertyOp10
 70
     1
102
RTVSPropertyOp11
 70
     1
102
RTVSPropertyOp12
 70
     1
102
RTVSPropertyOp13
 70
     1
102
RTVSPropertyOp14
 70
     1
102
RTVSPropertyOp15
 70
     1
102
RTVSPropertyOp16
 70
     1
102
RTVSPropertyOp17
 70
     1
102
RTVSPropertyOp18
 70
     1
102
RTVSPropertyOp19
 70
     1
102
RTVSPropertyOp20
 70
     1
102
RTVSPropertyOp21
 70
     1
102
RTVSPropertyOp22
 70
     1
102
RTVSPropertyOp23
 70
     1
102
RTVSPropertyOp24
 70
     1
102
RTVSPropertyOp25
 70
     1
102
RTVSPropertyOp26
 70
     1
102
RTVSPropertyOp27
 70
     1
102
RTVSPropertyOp28
 70
     1
102
RTVSPropertyOp29
 70
     1
102
RTVSPropertyOp30
 70
     1
102
RTVSPropertyOp31
 70
     1
102
RTVSPropertyOp32
 70
     1
102
RTVSPropertyOp33
 70
     1
102
RTVSPropertyOp34
 70
     1
102
RTVSPropertyOp35
 70
     1
102
RTVSPropertyOp36
 70
     1
102
RTVSPropertyOp37
 70
     1
102
RTVSPropertyOp38
 70
     1
102
RTVSPropertyOp39
 70
     1
102
RTVSPropertyOp40
 70
     1
102
RTVSPropertyOp41
 70
     1
102
RTVSPropertyOp42
 70
     1
102
RTVSPropertyOp43
 70
     1
102
RTVSPropertyOp44
 70
     1
102
RTVSPropertyOp45
 70
     1
102
RTVSPropertyOp46
 70
     1
102
RTVSPropertyOp47
 70
     1
102
RTVSPropertyOp48
 70
     1
102
RTVSPropertyOp49
 70
     1
102
RTVSPropertyOp50
 70
     1
102
RTVSPropertyOp51
 70
     0
102
RTVSPropertyOp52
 70
     0
102
RTVSPropertyOp53
 70
     1
102
RTVSPropertyOp54
 70
     1
102
RTVSPropertyOp55
 70
     1
102
RTVSPropertyOp56
 70
     1
102
RTVSPropertyOp57
 70
     1
102
RTVSPost2010Prop28
280
     0
102
RTVSPost2010PropOp28
 70
     1
102
RTVSPost2010Prop29
280
     1
102
RTVSPost2010PropOp29
 70
     1
102
RTVSPost2010Prop30
280
     1
102
RTVSPost2010PropOp30
 70
     1
102
RTVSPost2010Prop31
280
     0
102
RTVSPost2010PropOp31
 70
     1
102
RTVSPost2010Prop32
280
     0
102
RTVSPost2010PropOp32
 70
     1
102
RTVSPost2010Prop33
280
     0
102
RTVSPost2010PropOp33
 70
     1
102
RTVSPost2010Prop34
280
     0
102
RTVSPost2010PropOp34
 70
     1
102
RTVSPost2010Prop35
280
     0
102
RTVSPost2010PropOp35
 70
     1
102
RTVSPost2010Prop36
280
     0
102
RTVSPost2010PropOp36
 70
     1
102
RTVSPost2010Prop37
 90
       50
102
RTVSPost2010PropOp37
 70
     1
102
RTVSPost2010Prop38
140
0.0
102
RTVSPost2010PropOp38
 70
     1
102
RTVSPost2010Prop39
140
1.0
102
RTVSPost2010PropOp39
 70
     1
102
RTVSPost2010Prop40
 90
        0
102
RTVSPost2010PropOp40
 70
     1
102
RTVSPost2010Prop41ColorIndex
 90
       18
102
RTVSPost2010Prop41ColorRGB
 90
        0
102
RTVSPost2010PropOp41
 70
     1
102
RTVSPost2010Prop42
 90
       50
102
RTVSPost2010PropOp42
 70
     1
102
RTVSPost2010Prop43
 90
        3
102
RTVSPost2010PropOp43
 70
     1
102
RTVSPost2010Prop44ColorIndex
 90
        5
102
RTVSPost2010Prop44ColorRGB
 90
      255
102
RTVSPost2010PropOp44
 70
     1
102
RTVSPost2010Prop45
280
     0
102
RTVSPost2010PropOp45
 70
     1
102
RTVSPost2010Prop46
 90
       50
102
RTVSPost2010PropOp46
 70
     1
102
RTVSPost2010Prop47
 90
       50
102
RTVSPost2010PropOp47
 70
     1
102
RTVSPost2010Prop48
 90
       50
102
RTVSPost2010PropOp48
 70
     1
102
RTVSPost2010Prop49
280
     0
102
RTVSPost2010PropOp49
 70
     1
102
RTVSPost2010Prop50
 90
       50
102
RTVSPost2010PropOp50
 70
     1
102
RTVSPost2010Prop51ColorIndex
 90
      256
102
RTVSPost2010Prop51ColorRGB
 90
-16777216
102
RTVSPost2010PropOp51
 70
     0
102
RTVSPost2010Prop52
140
1.0
102
RTVSPost2010PropOp52
 70
     0
102
RTVSPost2010Prop53
 90
        2
102
RTVSPost2010PropOp53
 70
     1
102
RTVSPost2010Prop54
  1
strokes_ogs.tif
102
RTVSPost2010PropOp54
 70
     1
102
RTVSPost2010Prop55
280
     0
102
RTVSPost2010PropOp55
 70
     1
102
RTVSPost2010Prop56
140
1.0
102
RTVSPost2010PropOp56
 70
     1
102
RTVSPost2010Prop57
140
1.0
102
RTVSPost2010PropOp57
 70
     1
  0
XRECORD
  5
403
102
{ACAD_REACTORS
330
402
102
}
330
402
100
AcDbXrecord
280
     1
102
RTVSPropertyOp0
 70
     1
102
RTVSPropertyOp1
 70
     1
102
RTVSPropertyOp2
 70
     1
102
RTVSPropertyOp3
 70
     1
102
RTVSPropertyOp4
 70
     1
102
RTVSPropertyOp5
 70
     1
102
RTVSPropertyOp6
 70
     1
102
RTVSPropertyOp7
 70
     1
102
RTVSPropertyOp8
 70
     1
102
RTVSPropertyOp9
 70
     1
102
RTVSPropertyOp10
 70
     1
102
RTVSPropertyOp11
 70
     1
102
RTVSPropertyOp12
 70
     1
102
RTVSPropertyOp13
 70
     1
102
RTVSPropertyOp14
 70
     1
102
RTVSPropertyOp15
 70
     1
102
RTVSPropertyOp16
 70
     1
102
RTVSPropertyOp17
 70
     1
102
RTVSPropertyOp18
 70
     1
102
RTVSPropertyOp19
 70
     1
102
RTVSPropertyOp20
 70
     1
102
RTVSPropertyOp21
 70
     1
102
RTVSPropertyOp22
 70
     1
102
RTVSPropertyOp23
 70
     1
102
RTVSPropertyOp24
 70
     1
102
RTVSPropertyOp25
 70
     1
102
RTVSPropertyOp26
 70
     1
102
RTVSPropertyOp27
 70
     1
102
RTVSPropertyOp28
 70
     1
102
RTVSPropertyOp29
 70
     1
102
RTVSPropertyOp30
 70
     1
102
RTVSPropertyOp31
 70
     1
102
RTVSPropertyOp32
 70
     1
102
RTVSPropertyOp33
 70
     1
102
RTVSPropertyOp34
 70
     1
102
RTVSPropertyOp35
 70
     1
102
RTVSPropertyOp36
 70
     1
102
RTVSPropertyOp37
 70
     1
102
RTVSPropertyOp38
 70
     1
102
RTVSPropertyOp39
 70
     1
102
RTVSPropertyOp40
 70
     1
102
RTVSPropertyOp41
 70
     1
102
RTVSPropertyOp42
 70
     1
102
RTVSPropertyOp43
 70
     1
102
RTVSPropertyOp44
 70
     1
102
RTVSPropertyOp45
 70
     1
102
RTVSPropertyOp46
 70
     1
102
RTVSPropertyOp47
 70
     1
102
RTVSPropertyOp48
 70
     1
102
RTVSPropertyOp49
 70
     1
102
RTVSPropertyOp50
 70
     1
102
RTVSPropertyOp51
 70
     0
102
RTVSPropertyOp52
 70
     0
102
RTVSPropertyOp53
 70
     1
102
RTVSPropertyOp54
 70
     1
102
RTVSPropertyOp55
 70
     1
102
RTVSPropertyOp56
 70
     1
102
RTVSPropertyOp57
 70
     1
102
RTVSPost2010Prop28
280
     0
102
RTVSPost2010PropOp28
 70
     1
102
RTVSPost2010Prop29
280
     1
102
RTVSPost2010PropOp29
 70
     1
102
RTVSPost2010Prop30
280
     1
102
RTVSPost2010PropOp30
 70
     1
102
RTVSPost2010Prop31
280
     0
102
RTVSPost2010PropOp31
 70
     1
102
RTVSPost2010Prop32
280
     0
102
RTVSPost2010PropOp32
 70
     1
102
RTVSPost2010Prop33
280
     0
102
RTVSPost2010PropOp33
 70
     1
102
RTVSPost2010Prop34
280
     0
102
RTVSPost2010PropOp34
 70
     1
102
RTVSPost2010Prop35
280
     0
102
RTVSPost2010PropOp35
 70
     1
102
RTVSPost2010Prop36
280
     0
102
RTVSPost2010PropOp36
 70
     1
102
RTVSPost2010Prop37
 90
       50
102
RTVSPost2010PropOp37
 70
     1
102
RTVSPost2010Prop38
140
0.0
102
RTVSPost2010PropOp38
 70
     1
102
RTVSPost2010Prop39
140
1.0
102
RTVSPost2010PropOp39
 70
     1
102
RTVSPost2010Prop40
 90
        0
102
RTVSPost2010PropOp40
 70
     1
102
RTVSPost2010Prop41ColorIndex
 90
       18
102
RTVSPost2010Prop41ColorRGB
 90
        0
102
RTVSPost2010PropOp41
 70
     1
102
RTVSPost2010Prop42
 90
       50
102
RTVSPost2010PropOp42
 70
     1
102
RTVSPost2010Prop43
 90
        3
102
RTVSPost2010PropOp43
 70
     1
102
RTVSPost2010Prop44ColorIndex
 90
        5
102
RTVSPost2010Prop44ColorRGB
 90
      255
102
RTVSPost2010PropOp44
 70
     1
102
RTVSPost2010Prop45
280
     0
102
RTVSPost2010PropOp45
 70
     1
102
RTVSPost2010Prop46
 90
       50
102
RTVSPost2010PropOp46
 70
     1
102
RTVSPost2010Prop47
 90
       50
102
RTVSPost2010PropOp47
 70
     1
102
RTVSPost2010Prop48
 90
       50
102
RTVSPost2010PropOp48
 70
     1
102
RTVSPost2010Prop49
280
     0
102
RTVSPost2010PropOp49
 70
     1
102
RTVSPost2010Prop50
 90
       50
102
RTVSPost2010PropOp50
 70
     1
102
RTVSPost2010Prop51ColorIndex
 90
      256
102
RTVSPost2010Prop51ColorRGB
 90
-16777216
102
RTVSPost2010PropOp51
 70
     0
102
RTVSPost2010Prop52
140
1.0
102
RTVSPost2010PropOp52
 70
     0
102
RTVSPost2010Prop53
 90
        2
102
RTVSPost2010PropOp53
 70
     1
102
RTVSPost2010Prop54
  1
strokes_ogs.tif
102
RTVSPost2010PropOp54
 70
     1
102
RTVSPost2010Prop55
280
     0
102
RTVSPost2010PropOp55
 70
     1
102
RTVSPost2010Prop56
140
1.0
102
RTVSPost2010PropOp56
 70
     1
102
RTVSPost2010Prop57
140
1.0
102
RTVSPost2010PropOp57
 70
     1
  0
XRECORD
  5
405
102
{ACAD_REACTORS
330
404
102
}
330
404
100
AcDbXrecord
280
     1
102
RTVSPropertyOp0
 70
     1
102
RTVSPropertyOp1
 70
     1
102
RTVSPropertyOp2
 70
     1
102
RTVSPropertyOp3
 70
     1
102
RTVSPropertyOp4
 70
     1
102
RTVSPropertyOp5
 70
     1
102
RTVSPropertyOp6
 70
     1
102
RTVSPropertyOp7
 70
     1
102
RTVSPropertyOp8
 70
     1
102
RTVSPropertyOp9
 70
     1
102
RTVSPropertyOp10
 70
     1
102
RTVSPropertyOp11
 70
     1
102
RTVSPropertyOp12
 70
     1
102
RTVSPropertyOp13
 70
     1
102
RTVSPropertyOp14
 70
     1
102
RTVSPropertyOp15
 70
     1
102
RTVSPropertyOp16
 70
     1
102
RTVSPropertyOp17
 70
     1
102
RTVSPropertyOp18
 70
     1
102
RTVSPropertyOp19
 70
     1
102
RTVSPropertyOp20
 70
     1
102
RTVSPropertyOp21
 70
     1
102
RTVSPropertyOp22
 70
     1
102
RTVSPropertyOp23
 70
     1
102
RTVSPropertyOp24
 70
     1
102
RTVSPropertyOp25
 70
     1
102
RTVSPropertyOp26
 70
     1
102
RTVSPropertyOp27
 70
     1
102
RTVSPropertyOp28
 70
     1
102
RTVSPropertyOp29
 70
     1
102
RTVSPropertyOp30
 70
     1
102
RTVSPropertyOp31
 70
     1
102
RTVSPropertyOp32
 70
     1
102
RTVSPropertyOp33
 70
     1
102
RTVSPropertyOp34
 70
     1
102
RTVSPropertyOp35
 70
     1
102
RTVSPropertyOp36
 70
     1
102
RTVSPropertyOp37
 70
     1
102
RTVSPropertyOp38
 70
     1
102
RTVSPropertyOp39
 70
     1
102
RTVSPropertyOp40
 70
     1
102
RTVSPropertyOp41
 70
     1
102
RTVSPropertyOp42
 70
     1
102
RTVSPropertyOp43
 70
     1
102
RTVSPropertyOp44
 70
     1
102
RTVSPropertyOp45
 70
     1
102
RTVSPropertyOp46
 70
     1
102
RTVSPropertyOp47
 70
     1
102
RTVSPropertyOp48
 70
     1
102
RTVSPropertyOp49
 70
     1
102
RTVSPropertyOp50
 70
     1
102
RTVSPropertyOp51
 70
     0
102
RTVSPropertyOp52
 70
     0
102
RTVSPropertyOp53
 70
     1
102
RTVSPropertyOp54
 70
     1
102
RTVSPropertyOp55
 70
     1
102
RTVSPropertyOp56
 70
     1
102
RTVSPropertyOp57
 70
     1
102
RTVSPost2010Prop28
280
     0
102
RTVSPost2010PropOp28
 70
     1
102
RTVSPost2010Prop29
280
     1
102
RTVSPost2010PropOp29
 70
     1
102
RTVSPost2010Prop30
280
     1
102
RTVSPost2010PropOp30
 70
     1
102
RTVSPost2010Prop31
280
     0
102
RTVSPost2010PropOp31
 70
     1
102
RTVSPost2010Prop32
280
     0
102
RTVSPost2010PropOp32
 70
     1
102
RTVSPost2010Prop33
280
     0
102
RTVSPost2010PropOp33
 70
     1
102
RTVSPost2010Prop34
280
     0
102
RTVSPost2010PropOp34
 70
     1
102
RTVSPost2010Prop35
280
     0
102
RTVSPost2010PropOp35
 70
     1
102
RTVSPost2010Prop36
280
     0
102
RTVSPost2010PropOp36
 70
     1
102
RTVSPost2010Prop37
 90
       50
102
RTVSPost2010PropOp37
 70
     1
102
RTVSPost2010Prop38
140
0.0
102
RTVSPost2010PropOp38
 70
     1
102
RTVSPost2010Prop39
140
1.0
102
RTVSPost2010PropOp39
 70
     1
102
RTVSPost2010Prop40
 90
        0
102
RTVSPost2010PropOp40
 70
     1
102
RTVSPost2010Prop41ColorIndex
 90
       18
102
RTVSPost2010Prop41ColorRGB
 90
        0
102
RTVSPost2010PropOp41
 70
     1
102
RTVSPost2010Prop42
 90
       50
102
RTVSPost2010PropOp42
 70
     1
102
RTVSPost2010Prop43
 90
        3
102
RTVSPost2010PropOp43
 70
     1
102
RTVSPost2010Prop44ColorIndex
 90
        5
102
RTVSPost2010Prop44ColorRGB
 90
      255
102
RTVSPost2010PropOp44
 70
     1
102
RTVSPost2010Prop45
280
     0
102
RTVSPost2010PropOp45
 70
     1
102
RTVSPost2010Prop46
 90
       50
102
RTVSPost2010PropOp46
 70
     1
102
RTVSPost2010Prop47
 90
       50
102
RTVSPost2010PropOp47
 70
     1
102
RTVSPost2010Prop48
 90
       50
102
RTVSPost2010PropOp48
 70
     1
102
RTVSPost2010Prop49
280
     0
102
RTVSPost2010PropOp49
 70
     1
102
RTVSPost2010Prop50
 90
       50
102
RTVSPost2010PropOp50
 70
     1
102
RTVSPost2010Prop51ColorIndex
 90
      256
102
RTVSPost2010Prop51ColorRGB
 90
-16777216
102
RTVSPost2010PropOp51
 70
     0
102
RTVSPost2010Prop52
140
1.0
102
RTVSPost2010PropOp52
 70
     0
102
RTVSPost2010Prop53
 90
        2
102
RTVSPost2010PropOp53
 70
     1
102
RTVSPost2010Prop54
  1
strokes_ogs.tif
102
RTVSPost2010PropOp54
 70
     1
102
RTVSPost2010Prop55
280
     0
102
RTVSPost2010PropOp55
 70
     1
102
RTVSPost2010Prop56
140
1.0
102
RTVSPost2010PropOp56
 70
     1
102
RTVSPost2010Prop57
140
1.0
102
RTVSPost2010PropOp57
 70
     1
  0
XRECORD
  5
407
102
{ACAD_REACTORS
330
406
102
}
330
406
100
AcDbXrecord
280
     1
102
RTVSPropertyOp0
 70
     1
102
RTVSPropertyOp1
 70
     1
102
RTVSPropertyOp2
 70
     1
102
RTVSPropertyOp3
 70
     1
102
RTVSPropertyOp4
 70
     1
102
RTVSPropertyOp5
 70
     1
102
RTVSPropertyOp6
 70
     1
102
RTVSPropertyOp7
 70
     1
102
RTVSPropertyOp8
 70
     1
102
RTVSPropertyOp9
 70
     1
102
RTVSPropertyOp10
 70
     1
102
RTVSPropertyOp11
 70
     1
102
RTVSPropertyOp12
 70
     1
102
RTVSPropertyOp13
 70
     1
102
RTVSPropertyOp14
 70
     1
102
RTVSPropertyOp15
 70
     1
102
RTVSPropertyOp16
 70
     1
102
RTVSPropertyOp17
 70
     1
102
RTVSPropertyOp18
 70
     1
102
RTVSPropertyOp19
 70
     1
102
RTVSPropertyOp20
 70
     1
102
RTVSPropertyOp21
 70
     1
102
RTVSPropertyOp22
 70
     1
102
RTVSPropertyOp23
 70
     1
102
RTVSPropertyOp24
 70
     1
102
RTVSPropertyOp25
 70
     1
102
RTVSPropertyOp26
 70
     1
102
RTVSPropertyOp27
 70
     1
102
RTVSPropertyOp28
 70
     1
102
RTVSPropertyOp29
 70
     1
102
RTVSPropertyOp30
 70
     1
102
RTVSPropertyOp31
 70
     1
102
RTVSPropertyOp32
 70
     1
102
RTVSPropertyOp33
 70
     1
102
RTVSPropertyOp34
 70
     1
102
RTVSPropertyOp35
 70
     1
102
RTVSPropertyOp36
 70
     1
102
RTVSPropertyOp37
 70
     1
102
RTVSPropertyOp38
 70
     1
102
RTVSPropertyOp39
 70
     1
102
RTVSPropertyOp40
 70
     1
102
RTVSPropertyOp41
 70
     1
102
RTVSPropertyOp42
 70
     1
102
RTVSPropertyOp43
 70
     1
102
RTVSPropertyOp44
 70
     1
102
RTVSPropertyOp45
 70
     1
102
RTVSPropertyOp46
 70
     1
102
RTVSPropertyOp47
 70
     1
102
RTVSPropertyOp48
 70
     1
102
RTVSPropertyOp49
 70
     1
102
RTVSPropertyOp50
 70
     1
102
RTVSPropertyOp51
 70
     0
102
RTVSPropertyOp52
 70
     0
102
RTVSPropertyOp53
 70
     1
102
RTVSPropertyOp54
 70
     1
102
RTVSPropertyOp55
 70
     1
102
RTVSPropertyOp56
 70
     1
102
RTVSPropertyOp57
 70
     1
102
RTVSPost2010Prop28
280
     0
102
RTVSPost2010PropOp28
 70
     1
102
RTVSPost2010Prop29
280
     1
102
RTVSPost2010PropOp29
 70
     1
102
RTVSPost2010Prop30
280
     1
102
RTVSPost2010PropOp30
 70
     1
102
RTVSPost2010Prop31
280
     0
102
RTVSPost2010PropOp31
 70
     1
102
RTVSPost2010Prop32
280
     0
102
RTVSPost2010PropOp32
 70
     1
102
RTVSPost2010Prop33
280
     0
102
RTVSPost2010PropOp33
 70
     1
102
RTVSPost2010Prop34
280
     0
102
RTVSPost2010PropOp34
 70
     1
102
RTVSPost2010Prop35
280
     0
102
RTVSPost2010PropOp35
 70
     1
102
RTVSPost2010Prop36
280
     0
102
RTVSPost2010PropOp36
 70
     1
102
RTVSPost2010Prop37
 90
       50
102
RTVSPost2010PropOp37
 70
     1
102
RTVSPost2010Prop38
140
0.0
102
RTVSPost2010PropOp38
 70
     1
102
RTVSPost2010Prop39
140
1.0
102
RTVSPost2010PropOp39
 70
     1
102
RTVSPost2010Prop40
 90
        0
102
RTVSPost2010PropOp40
 70
     1
102
RTVSPost2010Prop41ColorIndex
 90
       18
102
RTVSPost2010Prop41ColorRGB
 90
        0
102
RTVSPost2010PropOp41
 70
     1
102
RTVSPost2010Prop42
 90
       50
102
RTVSPost2010PropOp42
 70
     1
102
RTVSPost2010Prop43
 90
        3
102
RTVSPost2010PropOp43
 70
     1
102
RTVSPost2010Prop44ColorIndex
 90
        5
102
RTVSPost2010Prop44ColorRGB
 90
      255
102
RTVSPost2010PropOp44
 70
     1
102
RTVSPost2010Prop45
280
     0
102
RTVSPost2010PropOp45
 70
     1
102
RTVSPost2010Prop46
 90
       50
102
RTVSPost2010PropOp46
 70
     1
102
RTVSPost2010Prop47
 90
       50
102
RTVSPost2010PropOp47
 70
     1
102
RTVSPost2010Prop48
 90
       50
102
RTVSPost2010PropOp48
 70
     1
102
RTVSPost2010Prop49
280
     0
102
RTVSPost2010PropOp49
 70
     1
102
RTVSPost2010Prop50
 90
       50
102
RTVSPost2010PropOp50
 70
     1
102
RTVSPost2010Prop51ColorIndex
 90
      256
102
RTVSPost2010Prop51ColorRGB
 90
-16777216
102
RTVSPost2010PropOp51
 70
     0
102
RTVSPost2010Prop52
140
1.0
102
RTVSPost2010PropOp52
 70
     0
102
RTVSPost2010Prop53
 90
        2
102
RTVSPost2010PropOp53
 70
     1
102
RTVSPost2010Prop54
  1
strokes_ogs.tif
102
RTVSPost2010PropOp54
 70
     1
102
RTVSPost2010Prop55
280
     0
102
RTVSPost2010PropOp55
 70
     1
102
RTVSPost2010Prop56
140
1.0
102
RTVSPost2010PropOp56
 70
     1
102
RTVSPost2010Prop57
140
1.0
102
RTVSPost2010PropOp57
 70
     1
  0
XRECORD
  5
409
102
{ACAD_REACTORS
330
408
102
}
330
408
100
AcDbXrecord
280
     1
102
RTVSPropertyOp0
 70
     1
102
RTVSPropertyOp1
 70
     1
102
RTVSPropertyOp2
 70
     1
102
RTVSPropertyOp3
 70
     1
102
RTVSPropertyOp4
 70
     1
102
RTVSPropertyOp5
 70
     1
102
RTVSPropertyOp6
 70
     1
102
RTVSPropertyOp7
 70
     1
102
RTVSPropertyOp8
 70
     1
102
RTVSPropertyOp9
 70
     1
102
RTVSPropertyOp10
 70
     1
102
RTVSPropertyOp11
 70
     1
102
RTVSPropertyOp12
 70
     1
102
RTVSPropertyOp13
 70
     1
102
RTVSPropertyOp14
 70
     1
102
RTVSPropertyOp15
 70
     1
102
RTVSPropertyOp16
 70
     1
102
RTVSPropertyOp17
 70
     1
102
RTVSPropertyOp18
 70
     1
102
RTVSPropertyOp19
 70
     1
102
RTVSPropertyOp20
 70
     1
102
RTVSPropertyOp21
 70
     1
102
RTVSPropertyOp22
 70
     1
102
RTVSPropertyOp23
 70
     1
102
RTVSPropertyOp24
 70
     1
102
RTVSPropertyOp25
 70
     1
102
RTVSPropertyOp26
 70
     1
102
RTVSPropertyOp27
 70
     1
102
RTVSPropertyOp28
 70
     1
102
RTVSPropertyOp29
 70
     1
102
RTVSPropertyOp30
 70
     1
102
RTVSPropertyOp31
 70
     1
102
RTVSPropertyOp32
 70
     1
102
RTVSPropertyOp33
 70
     1
102
RTVSPropertyOp34
 70
     1
102
RTVSPropertyOp35
 70
     1
102
RTVSPropertyOp36
 70
     1
102
RTVSPropertyOp37
 70
     1
102
RTVSPropertyOp38
 70
     1
102
RTVSPropertyOp39
 70
     1
102
RTVSPropertyOp40
 70
     1
102
RTVSPropertyOp41
 70
     1
102
RTVSPropertyOp42
 70
     1
102
RTVSPropertyOp43
 70
     1
102
RTVSPropertyOp44
 70
     1
102
RTVSPropertyOp45
 70
     1
102
RTVSPropertyOp46
 70
     1
102
RTVSPropertyOp47
 70
     1
102
RTVSPropertyOp48
 70
     1
102
RTVSPropertyOp49
 70
     1
102
RTVSPropertyOp50
 70
     1
102
RTVSPropertyOp51
 70
     0
102
RTVSPropertyOp52
 70
     0
102
RTVSPropertyOp53
 70
     1
102
RTVSPropertyOp54
 70
     1
102
RTVSPropertyOp55
 70
     1
102
RTVSPropertyOp56
 70
     1
102
RTVSPropertyOp57
 70
     1
102
RTVSPost2010Prop28
280
     0
102
RTVSPost2010PropOp28
 70
     1
102
RTVSPost2010Prop29
280
     1
102
RTVSPost2010PropOp29
 70
     1
102
RTVSPost2010Prop30
280
     1
102
RTVSPost2010PropOp30
 70
     1
102
RTVSPost2010Prop31
280
     0
102
RTVSPost2010PropOp31
 70
     1
102
RTVSPost2010Prop32
280
     0
102
RTVSPost2010PropOp32
 70
     1
102
RTVSPost2010Prop33
280
     0
102
RTVSPost2010PropOp33
 70
     1
102
RTVSPost2010Prop34
280
     0
102
RTVSPost2010PropOp34
 70
     1
102
RTVSPost2010Prop35
280
     0
102
RTVSPost2010PropOp35
 70
     1
102
RTVSPost2010Prop36
280
     0
102
RTVSPost2010PropOp36
 70
     1
102
RTVSPost2010Prop37
 90
       50
102
RTVSPost2010PropOp37
 70
     1
102
RTVSPost2010Prop38
140
0.0
102
RTVSPost2010PropOp38
 70
     1
102
RTVSPost2010Prop39
140
1.0
102
RTVSPost2010PropOp39
 70
     1
102
RTVSPost2010Prop40
 90
        0
102
RTVSPost2010PropOp40
 70
     1
102
RTVSPost2010Prop41ColorIndex
 90
       18
102
RTVSPost2010Prop41ColorRGB
 90
        0
102
RTVSPost2010PropOp41
 70
     1
102
RTVSPost2010Prop42
 90
       50
102
RTVSPost2010PropOp42
 70
     1
102
RTVSPost2010Prop43
 90
        3
102
RTVSPost2010PropOp43
 70
     1
102
RTVSPost2010Prop44ColorIndex
 90
        5
102
RTVSPost2010Prop44ColorRGB
 90
      255
102
RTVSPost2010PropOp44
 70
     1
102
RTVSPost2010Prop45
280
     0
102
RTVSPost2010PropOp45
 70
     1
102
RTVSPost2010Prop46
 90
       50
102
RTVSPost2010PropOp46
 70
     1
102
RTVSPost2010Prop47
 90
       50
102
RTVSPost2010PropOp47
 70
     1
102
RTVSPost2010Prop48
 90
       50
102
RTVSPost2010PropOp48
 70
     1
102
RTVSPost2010Prop49
280
     0
102
RTVSPost2010PropOp49
 70
     1
102
RTVSPost2010Prop50
 90
       50
102
RTVSPost2010PropOp50
 70
     1
102
RTVSPost2010Prop51ColorIndex
 90
      256
102
RTVSPost2010Prop51ColorRGB
 90
-16777216
102
RTVSPost2010PropOp51
 70
     0
102
RTVSPost2010Prop52
140
1.0
102
RTVSPost2010PropOp52
 70
     0
102
RTVSPost2010Prop53
 90
        2
102
RTVSPost2010PropOp53
 70
     1
102
RTVSPost2010Prop54
  1
strokes_ogs.tif
102
RTVSPost2010PropOp54
 70
     1
102
RTVSPost2010Prop55
280
     0
102
RTVSPost2010PropOp55
 70
     1
102
RTVSPost2010Prop56
140
1.0
102
RTVSPost2010PropOp56
 70
     1
102
RTVSPost2010Prop57
140
1.0
102
RTVSPost2010PropOp57
 70
     1
  0
XRECORD
  5
40F
102
{ACAD_REACTORS
330
40E
102
}
330
40E
100
AcDbXrecord
280
     1
102
RTVSPropertyOp0
 70
     1
102
RTVSPropertyOp1
 70
     1
102
RTVSPropertyOp2
 70
     1
102
RTVSPropertyOp3
 70
     1
102
RTVSPropertyOp4
 70
     1
102
RTVSPropertyOp5
 70
     1
102
RTVSPropertyOp6
 70
     1
102
RTVSPropertyOp7
 70
     1
102
RTVSPropertyOp8
 70
     1
102
RTVSPropertyOp9
 70
     1
102
RTVSPropertyOp10
 70
     1
102
RTVSPropertyOp11
 70
     1
102
RTVSPropertyOp12
 70
     1
102
RTVSPropertyOp13
 70
     1
102
RTVSPropertyOp14
 70
     1
102
RTVSPropertyOp15
 70
     1
102
RTVSPropertyOp16
 70
     1
102
RTVSPropertyOp17
 70
     1
102
RTVSPropertyOp18
 70
     1
102
RTVSPropertyOp19
 70
     1
102
RTVSPropertyOp20
 70
     1
102
RTVSPropertyOp21
 70
     1
102
RTVSPropertyOp22
 70
     1
102
RTVSPropertyOp23
 70
     1
102
RTVSPropertyOp24
 70
     1
102
RTVSPropertyOp25
 70
     1
102
RTVSPropertyOp26
 70
     1
102
RTVSPropertyOp27
 70
     1
102
RTVSPropertyOp28
 70
     1
102
RTVSPropertyOp29
 70
     1
102
RTVSPropertyOp30
 70
     1
102
RTVSPropertyOp31
 70
     1
102
RTVSPropertyOp32
 70
     1
102
RTVSPropertyOp33
 70
     1
102
RTVSPropertyOp34
 70
     1
102
RTVSPropertyOp35
 70
     1
102
RTVSPropertyOp36
 70
     1
102
RTVSPropertyOp37
 70
     1
102
RTVSPropertyOp38
 70
     1
102
RTVSPropertyOp39
 70
     1
102
RTVSPropertyOp40
 70
     1
102
RTVSPropertyOp41
 70
     1
102
RTVSPropertyOp42
 70
     1
102
RTVSPropertyOp43
 70
     1
102
RTVSPropertyOp44
 70
     1
102
RTVSPropertyOp45
 70
     1
102
RTVSPropertyOp46
 70
     1
102
RTVSPropertyOp47
 70
     1
102
RTVSPropertyOp48
 70
     1
102
RTVSPropertyOp49
 70
     1
102
RTVSPropertyOp50
 70
     1
102
RTVSPropertyOp51
 70
     0
102
RTVSPropertyOp52
 70
     0
102
RTVSPropertyOp53
 70
     1
102
RTVSPropertyOp54
 70
     1
102
RTVSPropertyOp55
 70
     1
102
RTVSPropertyOp56
 70
     1
102
RTVSPropertyOp57
 70
     1
102
RTVSPost2010Prop28
280
     0
102
RTVSPost2010PropOp28
 70
     1
102
RTVSPost2010Prop29
280
     1
102
RTVSPost2010PropOp29
 70
     1
102
RTVSPost2010Prop30
280
     1
102
RTVSPost2010PropOp30
 70
     1
102
RTVSPost2010Prop31
280
     0
102
RTVSPost2010PropOp31
 70
     1
102
RTVSPost2010Prop32
280
     0
102
RTVSPost2010PropOp32
 70
     1
102
RTVSPost2010Prop33
280
     0
102
RTVSPost2010PropOp33
 70
     1
102
RTVSPost2010Prop34
280
     0
102
RTVSPost2010PropOp34
 70
     1
102
RTVSPost2010Prop35
280
     0
102
RTVSPost2010PropOp35
 70
     1
102
RTVSPost2010Prop36
280
     0
102
RTVSPost2010PropOp36
 70
     1
102
RTVSPost2010Prop37
 90
       50
102
RTVSPost2010PropOp37
 70
     1
102
RTVSPost2010Prop38
140
0.0
102
RTVSPost2010PropOp38
 70
     1
102
RTVSPost2010Prop39
140
1.0
102
RTVSPost2010PropOp39
 70
     1
102
RTVSPost2010Prop40
 90
        0
102
RTVSPost2010PropOp40
 70
     1
102
RTVSPost2010Prop41ColorIndex
 90
       18
102
RTVSPost2010Prop41ColorRGB
 90
        0
102
RTVSPost2010PropOp41
 70
     1
102
RTVSPost2010Prop42
 90
       50
102
RTVSPost2010PropOp42
 70
     1
102
RTVSPost2010Prop43
 90
        3
102
RTVSPost2010PropOp43
 70
     1
102
RTVSPost2010Prop44ColorIndex
 90
        5
102
RTVSPost2010Prop44ColorRGB
 90
      255
102
RTVSPost2010PropOp44
 70
     1
102
RTVSPost2010Prop45
280
     0
102
RTVSPost2010PropOp45
 70
     1
102
RTVSPost2010Prop46
 90
       50
102
RTVSPost2010PropOp46
 70
     1
102
RTVSPost2010Prop47
 90
       50
102
RTVSPost2010PropOp47
 70
     1
102
RTVSPost2010Prop48
 90
       50
102
RTVSPost2010PropOp48
 70
     1
102
RTVSPost2010Prop49
280
     0
102
RTVSPost2010PropOp49
 70
     1
102
RTVSPost2010Prop50
 90
       50
102
RTVSPost2010PropOp50
 70
     1
102
RTVSPost2010Prop51ColorIndex
 90
      256
102
RTVSPost2010Prop51ColorRGB
 90
-16777216
102
RTVSPost2010PropOp51
 70
     0
102
RTVSPost2010Prop52
140
1.0
102
RTVSPost2010PropOp52
 70
     0
102
RTVSPost2010Prop53
 90
        2
102
RTVSPost2010PropOp53
 70
     1
102
RTVSPost2010Prop54
  1
strokes_ogs.tif
102
RTVSPost2010PropOp54
 70
     1
102
RTVSPost2010Prop55
280
     0
102
RTVSPost2010PropOp55
 70
     1
102
RTVSPost2010Prop56
140
1.0
102
RTVSPost2010PropOp56
 70
     1
102
RTVSPost2010Prop57
140
1.0
102
RTVSPost2010PropOp57
 70
     1
  0
XRECORD
  5
423
102
{ACAD_REACTORS
330
422
102
}
330
422
100
AcDbXrecord
280
     1
102
RTVSPropertyOp0
 70
     0
102
RTVSPropertyOp1
 70
     0
102
RTVSPropertyOp2
 70
     0
102
RTVSPropertyOp3
 70
     0
102
RTVSPropertyOp4
 70
     0
102
RTVSPropertyOp5
 70
     0
102
RTVSPropertyOp6
 70
     0
102
RTVSPropertyOp7
 70
     0
102
RTVSPropertyOp8
 70
     0
102
RTVSPropertyOp9
 70
     0
102
RTVSPropertyOp10
 70
     0
102
RTVSPropertyOp11
 70
     0
102
RTVSPropertyOp12
 70
     0
102
RTVSPropertyOp13
 70
     0
102
RTVSPropertyOp14
 70
     2
102
RTVSPropertyOp15
 70
     0
102
RTVSPropertyOp16
 70
     0
102
RTVSPropertyOp17
 70
     0
102
RTVSPropertyOp18
 70
     0
102
RTVSPropertyOp19
 70
     0
102
RTVSPropertyOp20
 70
     0
102
RTVSPropertyOp21
 70
     0
102
RTVSPropertyOp22
 70
     0
102
RTVSPropertyOp23
 70
     0
102
RTVSPropertyOp24
 70
     0
102
RTVSPropertyOp25
 70
     0
102
RTVSPropertyOp26
 70
     0
102
RTVSPropertyOp27
 70
     0
102
RTVSPropertyOp28
 70
     0
102
RTVSPropertyOp29
 70
     0
102
RTVSPropertyOp30
 70
     0
102
RTVSPropertyOp31
 70
     0
102
RTVSPropertyOp32
 70
     0
102
RTVSPropertyOp33
 70
     0
102
RTVSPropertyOp34
 70
     0
102
RTVSPropertyOp35
 70
     0
102
RTVSPropertyOp36
 70
     0
102
RTVSPropertyOp37
 70
     0
102
RTVSPropertyOp38
 70
     0
102
RTVSPropertyOp39
 70
     0
102
RTVSPropertyOp40
 70
     0
102
RTVSPropertyOp41
 70
     0
102
RTVSPropertyOp42
 70
     0
102
RTVSPropertyOp43
 70
     0
102
RTVSPropertyOp44
 70
     0
102
RTVSPropertyOp45
 70
     0
102
RTVSPropertyOp46
 70
     0
102
RTVSPropertyOp47
 70
     0
102
RTVSPropertyOp48
 70
     0
102
RTVSPropertyOp49
 70
     0
102
RTVSPropertyOp50
 70
     0
102
RTVSPropertyOp51
 70
     0
102
RTVSPropertyOp52
 70
     0
102
RTVSPropertyOp53
 70
     0
102
RTVSPropertyOp54
 70
     0
102
RTVSPropertyOp55
 70
     0
102
RTVSPropertyOp56
 70
     0
102
RTVSPropertyOp57
 70
     0
102
RTVSPost2010Prop28
280
     0
102
RTVSPost2010PropOp28
 70
     0
102
RTVSPost2010Prop29
280
     1
102
RTVSPost2010PropOp29
 70
     0
102
RTVSPost2010Prop30
280
     1
102
RTVSPost2010PropOp30
 70
     0
102
RTVSPost2010Prop31
280
     0
102
RTVSPost2010PropOp31
 70
     0
102
RTVSPost2010Prop32
280
     0
102
RTVSPost2010PropOp32
 70
     0
102
RTVSPost2010Prop33
280
     0
102
RTVSPost2010PropOp33
 70
     0
102
RTVSPost2010Prop34
280
     0
102
RTVSPost2010PropOp34
 70
     0
102
RTVSPost2010Prop35
280
     0
102
RTVSPost2010PropOp35
 70
     0
102
RTVSPost2010Prop36
280
     0
102
RTVSPost2010PropOp36
 70
     0
102
RTVSPost2010Prop37
 90
       50
102
RTVSPost2010PropOp37
 70
     0
102
RTVSPost2010Prop38
140
0.0
102
RTVSPost2010PropOp38
 70
     0
102
RTVSPost2010Prop39
140
1.0
102
RTVSPost2010PropOp39
 70
     0
102
RTVSPost2010Prop40
 90
        0
102
RTVSPost2010PropOp40
 70
     0
102
RTVSPost2010Prop41ColorIndex
 90
       18
102
RTVSPost2010Prop41ColorRGB
 90
        0
102
RTVSPost2010PropOp41
 70
     0
102
RTVSPost2010Prop42
 90
       50
102
RTVSPost2010PropOp42
 70
     0
102
RTVSPost2010Prop43
 90
        3
102
RTVSPost2010PropOp43
 70
     0
102
RTVSPost2010Prop44ColorIndex
 90
        5
102
RTVSPost2010Prop44ColorRGB
 90
      255
102
RTVSPost2010PropOp44
 70
     0
102
RTVSPost2010Prop45
280
     0
102
RTVSPost2010PropOp45
 70
     0
102
RTVSPost2010Prop46
 90
       50
102
RTVSPost2010PropOp46
 70
     0
102
RTVSPost2010Prop47
 90
       50
102
RTVSPost2010PropOp47
 70
     0
102
RTVSPost2010Prop48
 90
       50
102
RTVSPost2010PropOp48
 70
     0
102
RTVSPost2010Prop49
280
     0
102
RTVSPost2010PropOp49
 70
     0
102
RTVSPost2010Prop50
 90
       50
102
RTVSPost2010PropOp50
 70
     0
102
RTVSPost2010Prop51ColorIndex
 90
      256
102
RTVSPost2010Prop51ColorRGB
 90
-16777216
102
RTVSPost2010PropOp51
 70
     0
102
RTVSPost2010Prop52
140
1.0
102
RTVSPost2010PropOp52
 70
     0
102
RTVSPost2010Prop53
 90
        2
102
RTVSPost2010PropOp53
 70
     0
102
RTVSPost2010Prop54
  1
strokes_ogs.tif
102
RTVSPost2010PropOp54
 70
     0
102
RTVSPost2010Prop55
280
     0
102
RTVSPost2010PropOp55
 70
     0
102
RTVSPost2010Prop56
140
1.0
102
RTVSPost2010PropOp56
 70
     0
102
RTVSPost2010Prop57
140
1.0
102
RTVSPost2010PropOp57
 70
     0
  0
XRECORD
  5
41D
102
{ACAD_REACTORS
330
41C
102
}
330
41C
100
AcDbXrecord
280
     1
102
RTVSPropertyOp0
 70
     1
102
RTVSPropertyOp1
 70
     1
102
RTVSPropertyOp2
 70
     1
102
RTVSPropertyOp3
 70
     1
102
RTVSPropertyOp4
 70
     1
102
RTVSPropertyOp5
 70
     1
102
RTVSPropertyOp6
 70
     1
102
RTVSPropertyOp7
 70
     1
102
RTVSPropertyOp8
 70
     1
102
RTVSPropertyOp9
 70
     1
102
RTVSPropertyOp10
 70
     1
102
RTVSPropertyOp11
 70
     1
102
RTVSPropertyOp12
 70
     1
102
RTVSPropertyOp13
 70
     1
102
RTVSPropertyOp14
 70
     1
102
RTVSPropertyOp15
 70
     1
102
RTVSPropertyOp16
 70
     1
102
RTVSPropertyOp17
 70
     1
102
RTVSPropertyOp18
 70
     1
102
RTVSPropertyOp19
 70
     1
102
RTVSPropertyOp20
 70
     1
102
RTVSPropertyOp21
 70
     1
102
RTVSPropertyOp22
 70
     1
102
RTVSPropertyOp23
 70
     1
102
RTVSPropertyOp24
 70
     1
102
RTVSPropertyOp25
 70
     1
102
RTVSPropertyOp26
 70
     1
102
RTVSPropertyOp27
 70
     1
102
RTVSPropertyOp28
 70
     1
102
RTVSPropertyOp29
 70
     1
102
RTVSPropertyOp30
 70
     1
102
RTVSPropertyOp31
 70
     1
102
RTVSPropertyOp32
 70
     1
102
RTVSPropertyOp33
 70
     1
102
RTVSPropertyOp34
 70
     1
102
RTVSPropertyOp35
 70
     1
102
RTVSPropertyOp36
 70
     1
102
RTVSPropertyOp37
 70
     1
102
RTVSPropertyOp38
 70
     1
102
RTVSPropertyOp39
 70
     1
102
RTVSPropertyOp40
 70
     1
102
RTVSPropertyOp41
 70
     1
102
RTVSPropertyOp42
 70
     1
102
RTVSPropertyOp43
 70
     1
102
RTVSPropertyOp44
 70
     1
102
RTVSPropertyOp45
 70
     1
102
RTVSPropertyOp46
 70
     1
102
RTVSPropertyOp47
 70
     1
102
RTVSPropertyOp48
 70
     1
102
RTVSPropertyOp49
 70
     1
102
RTVSPropertyOp50
 70
     1
102
RTVSPropertyOp51
 70
     0
102
RTVSPropertyOp52
 70
     0
102
RTVSPropertyOp53
 70
     1
102
RTVSPropertyOp54
 70
     1
102
RTVSPropertyOp55
 70
     1
102
RTVSPropertyOp56
 70
     1
102
RTVSPropertyOp57
 70
     1
102
RTVSPost2010Prop28
280
     0
102
RTVSPost2010PropOp28
 70
     1
102
RTVSPost2010Prop29
280
     1
102
RTVSPost2010PropOp29
 70
     1
102
RTVSPost2010Prop30
280
     1
102
RTVSPost2010PropOp30
 70
     1
102
RTVSPost2010Prop31
280
     0
102
RTVSPost2010PropOp31
 70
     1
102
RTVSPost2010Prop32
280
     0
102
RTVSPost2010PropOp32
 70
     1
102
RTVSPost2010Prop33
280
     0
102
RTVSPost2010PropOp33
 70
     1
102
RTVSPost2010Prop34
280
     0
102
RTVSPost2010PropOp34
 70
     1
102
RTVSPost2010Prop35
280
     0
102
RTVSPost2010PropOp35
 70
     1
102
RTVSPost2010Prop36
280
     0
102
RTVSPost2010PropOp36
 70
     1
102
RTVSPost2010Prop37
 90
       50
102
RTVSPost2010PropOp37
 70
     1
102
RTVSPost2010Prop38
140
0.0
102
RTVSPost2010PropOp38
 70
     1
102
RTVSPost2010Prop39
140
1.0
102
RTVSPost2010PropOp39
 70
     1
102
RTVSPost2010Prop40
 90
        0
102
RTVSPost2010PropOp40
 70
     1
102
RTVSPost2010Prop41ColorIndex
 90
       18
102
RTVSPost2010Prop41ColorRGB
 90
        0
102
RTVSPost2010PropOp41
 70
     1
102
RTVSPost2010Prop42
 90
       50
102
RTVSPost2010PropOp42
 70
     1
102
RTVSPost2010Prop43
 90
        3
102
RTVSPost2010PropOp43
 70
     1
102
RTVSPost2010Prop44ColorIndex
 90
        5
102
RTVSPost2010Prop44ColorRGB
 90
      255
102
RTVSPost2010PropOp44
 70
     1
102
RTVSPost2010Prop45
280
     0
102
RTVSPost2010PropOp45
 70
     1
102
RTVSPost2010Prop46
 90
       50
102
RTVSPost2010PropOp46
 70
     1
102
RTVSPost2010Prop47
 90
       50
102
RTVSPost2010PropOp47
 70
     1
102
RTVSPost2010Prop48
 90
       50
102
RTVSPost2010PropOp48
 70
     1
102
RTVSPost2010Prop49
280
     0
102
RTVSPost2010PropOp49
 70
     1
102
RTVSPost2010Prop50
 90
       50
102
RTVSPost2010PropOp50
 70
     1
102
RTVSPost2010Prop51ColorIndex
 90
      256
102
RTVSPost2010Prop51ColorRGB
 90
-16777216
102
RTVSPost2010PropOp51
 70
     0
102
RTVSPost2010Prop52
140
1.0
102
RTVSPost2010PropOp52
 70
     0
102
RTVSPost2010Prop53
 90
        2
102
RTVSPost2010PropOp53
 70
     1
102
RTVSPost2010Prop54
  1
strokes_ogs.tif
102
RTVSPost2010PropOp54
 70
     1
102
RTVSPost2010Prop55
280
     0
102
RTVSPost2010PropOp55
 70
     1
102
RTVSPost2010Prop56
140
1.0
102
RTVSPost2010PropOp56
 70
     1
102
RTVSPost2010Prop57
140
1.0
102
RTVSPost2010PropOp57
 70
     1
  0
XRECORD
  5
425
102
{ACAD_REACTORS
330
424
102
}
330
424
100
AcDbXrecord
280
     1
102
RTVSPropertyOp0
 70
     0
102
RTVSPropertyOp1
 70
     0
102
RTVSPropertyOp2
 70
     0
102
RTVSPropertyOp3
 70
     0
102
RTVSPropertyOp4
 70
     0
102
RTVSPropertyOp5
 70
     0
102
RTVSPropertyOp6
 70
     0
102
RTVSPropertyOp7
 70
     0
102
RTVSPropertyOp8
 70
     0
102
RTVSPropertyOp9
 70
     0
102
RTVSPropertyOp10
 70
     0
102
RTVSPropertyOp11
 70
     0
102
RTVSPropertyOp12
 70
     0
102
RTVSPropertyOp13
 70
     0
102
RTVSPropertyOp14
 70
     2
102
RTVSPropertyOp15
 70
     0
102
RTVSPropertyOp16
 70
     0
102
RTVSPropertyOp17
 70
     0
102
RTVSPropertyOp18
 70
     0
102
RTVSPropertyOp19
 70
     0
102
RTVSPropertyOp20
 70
     0
102
RTVSPropertyOp21
 70
     0
102
RTVSPropertyOp22
 70
     0
102
RTVSPropertyOp23
 70
     0
102
RTVSPropertyOp24
 70
     0
102
RTVSPropertyOp25
 70
     0
102
RTVSPropertyOp26
 70
     0
102
RTVSPropertyOp27
 70
     0
102
RTVSPropertyOp28
 70
     0
102
RTVSPropertyOp29
 70
     0
102
RTVSPropertyOp30
 70
     0
102
RTVSPropertyOp31
 70
     0
102
RTVSPropertyOp32
 70
     0
102
RTVSPropertyOp33
 70
     0
102
RTVSPropertyOp34
 70
     0
102
RTVSPropertyOp35
 70
     0
102
RTVSPropertyOp36
 70
     0
102
RTVSPropertyOp37
 70
     0
102
RTVSPropertyOp38
 70
     0
102
RTVSPropertyOp39
 70
     0
102
RTVSPropertyOp40
 70
     0
102
RTVSPropertyOp41
 70
     0
102
RTVSPropertyOp42
 70
     0
102
RTVSPropertyOp43
 70
     0
102
RTVSPropertyOp44
 70
     0
102
RTVSPropertyOp45
 70
     0
102
RTVSPropertyOp46
 70
     0
102
RTVSPropertyOp47
 70
     0
102
RTVSPropertyOp48
 70
     0
102
RTVSPropertyOp49
 70
     0
102
RTVSPropertyOp50
 70
     0
102
RTVSPropertyOp51
 70
     0
102
RTVSPropertyOp52
 70
     0
102
RTVSPropertyOp53
 70
     0
102
RTVSPropertyOp54
 70
     0
102
RTVSPropertyOp55
 70
     0
102
RTVSPropertyOp56
 70
     0
102
RTVSPropertyOp57
 70
     0
102
RTVSPost2010Prop28
280
     0
102
RTVSPost2010PropOp28
 70
     0
102
RTVSPost2010Prop29
280
     1
102
RTVSPost2010PropOp29
 70
     0
102
RTVSPost2010Prop30
280
     1
102
RTVSPost2010PropOp30
 70
     0
102
RTVSPost2010Prop31
280
     0
102
RTVSPost2010PropOp31
 70
     0
102
RTVSPost2010Prop32
280
     0
102
RTVSPost2010PropOp32
 70
     0
102
RTVSPost2010Prop33
280
     0
102
RTVSPost2010PropOp33
 70
     0
102
RTVSPost2010Prop34
280
     0
102
RTVSPost2010PropOp34
 70
     0
102
RTVSPost2010Prop35
280
     0
102
RTVSPost2010PropOp35
 70
     0
102
RTVSPost2010Prop36
280
     0
102
RTVSPost2010PropOp36
 70
     0
102
RTVSPost2010Prop37
 90
       50
102
RTVSPost2010PropOp37
 70
     0
102
RTVSPost2010Prop38
140
0.0
102
RTVSPost2010PropOp38
 70
     0
102
RTVSPost2010Prop39
140
1.0
102
RTVSPost2010PropOp39
 70
     0
102
RTVSPost2010Prop40
 90
        0
102
RTVSPost2010PropOp40
 70
     0
102
RTVSPost2010Prop41ColorIndex
 90
       18
102
RTVSPost2010Prop41ColorRGB
 90
        0
102
RTVSPost2010PropOp41
 70
     0
102
RTVSPost2010Prop42
 90
       50
102
RTVSPost2010PropOp42
 70
     0
102
RTVSPost2010Prop43
 90
        3
102
RTVSPost2010PropOp43
 70
     0
102
RTVSPost2010Prop44ColorIndex
 90
        5
102
RTVSPost2010Prop44ColorRGB
 90
      255
102
RTVSPost2010PropOp44
 70
     0
102
RTVSPost2010Prop45
280
     0
102
RTVSPost2010PropOp45
 70
     0
102
RTVSPost2010Prop46
 90
       50
102
RTVSPost2010PropOp46
 70
     0
102
RTVSPost2010Prop47
 90
       50
102
RTVSPost2010PropOp47
 70
     0
102
RTVSPost2010Prop48
 90
       50
102
RTVSPost2010PropOp48
 70
     0
102
RTVSPost2010Prop49
280
     0
102
RTVSPost2010PropOp49
 70
     0
102
RTVSPost2010Prop50
 90
       50
102
RTVSPost2010PropOp50
 70
     0
102
RTVSPost2010Prop51ColorIndex
 90
      256
102
RTVSPost2010Prop51ColorRGB
 90
-16777216
102
RTVSPost2010PropOp51
 70
     0
102
RTVSPost2010Prop52
140
1.0
102
RTVSPost2010PropOp52
 70
     0
102
RTVSPost2010Prop53
 90
        2
102
RTVSPost2010PropOp53
 70
     0
102
RTVSPost2010Prop54
  1
strokes_ogs.tif
102
RTVSPost2010PropOp54
 70
     0
102
RTVSPost2010Prop55
280
     0
102
RTVSPost2010PropOp55
 70
     0
102
RTVSPost2010Prop56
140
1.0
102
RTVSPost2010PropOp56
 70
     0
102
RTVSPost2010Prop57
140
1.0
102
RTVSPost2010PropOp57
 70
     0
  0
XRECORD
  5
413
102
{ACAD_REACTORS
330
412
102
}
330
412
100
AcDbXrecord
280
     1
102
RTVSPropertyOp0
 70
     1
102
RTVSPropertyOp1
 70
     1
102
RTVSPropertyOp2
 70
     1
102
RTVSPropertyOp3
 70
     1
102
RTVSPropertyOp4
 70
     1
102
RTVSPropertyOp5
 70
     1
102
RTVSPropertyOp6
 70
     1
102
RTVSPropertyOp7
 70
     1
102
RTVSPropertyOp8
 70
     1
102
RTVSPropertyOp9
 70
     1
102
RTVSPropertyOp10
 70
     1
102
RTVSPropertyOp11
 70
     1
102
RTVSPropertyOp12
 70
     1
102
RTVSPropertyOp13
 70
     1
102
RTVSPropertyOp14
 70
     1
102
RTVSPropertyOp15
 70
     1
102
RTVSPropertyOp16
 70
     1
102
RTVSPropertyOp17
 70
     1
102
RTVSPropertyOp18
 70
     1
102
RTVSPropertyOp19
 70
     1
102
RTVSPropertyOp20
 70
     1
102
RTVSPropertyOp21
 70
     1
102
RTVSPropertyOp22
 70
     1
102
RTVSPropertyOp23
 70
     1
102
RTVSPropertyOp24
 70
     1
102
RTVSPropertyOp25
 70
     1
102
RTVSPropertyOp26
 70
     1
102
RTVSPropertyOp27
 70
     1
102
RTVSPropertyOp28
 70
     1
102
RTVSPropertyOp29
 70
     1
102
RTVSPropertyOp30
 70
     1
102
RTVSPropertyOp31
 70
     1
102
RTVSPropertyOp32
 70
     1
102
RTVSPropertyOp33
 70
     1
102
RTVSPropertyOp34
 70
     1
102
RTVSPropertyOp35
 70
     1
102
RTVSPropertyOp36
 70
     1
102
RTVSPropertyOp37
 70
     1
102
RTVSPropertyOp38
 70
     1
102
RTVSPropertyOp39
 70
     1
102
RTVSPropertyOp40
 70
     1
102
RTVSPropertyOp41
 70
     1
102
RTVSPropertyOp42
 70
     1
102
RTVSPropertyOp43
 70
     1
102
RTVSPropertyOp44
 70
     1
102
RTVSPropertyOp45
 70
     1
102
RTVSPropertyOp46
 70
     1
102
RTVSPropertyOp47
 70
     1
102
RTVSPropertyOp48
 70
     1
102
RTVSPropertyOp49
 70
     1
102
RTVSPropertyOp50
 70
     1
102
RTVSPropertyOp51
 70
     0
102
RTVSPropertyOp52
 70
     0
102
RTVSPropertyOp53
 70
     1
102
RTVSPropertyOp54
 70
     1
102
RTVSPropertyOp55
 70
     1
102
RTVSPropertyOp56
 70
     1
102
RTVSPropertyOp57
 70
     1
102
RTVSPost2010Prop28
280
     0
102
RTVSPost2010PropOp28
 70
     1
102
RTVSPost2010Prop29
280
     1
102
RTVSPost2010PropOp29
 70
     1
102
RTVSPost2010Prop30
280
     1
102
RTVSPost2010PropOp30
 70
     1
102
RTVSPost2010Prop31
280
     0
102
RTVSPost2010PropOp31
 70
     1
102
RTVSPost2010Prop32
280
     0
102
RTVSPost2010PropOp32
 70
     1
102
RTVSPost2010Prop33
280
     0
102
RTVSPost2010PropOp33
 70
     1
102
RTVSPost2010Prop34
280
     0
102
RTVSPost2010PropOp34
 70
     1
102
RTVSPost2010Prop35
280
     0
102
RTVSPost2010PropOp35
 70
     1
102
RTVSPost2010Prop36
280
     0
102
RTVSPost2010PropOp36
 70
     1
102
RTVSPost2010Prop37
 90
       50
102
RTVSPost2010PropOp37
 70
     1
102
RTVSPost2010Prop38
140
0.0
102
RTVSPost2010PropOp38
 70
     1
102
RTVSPost2010Prop39
140
1.0
102
RTVSPost2010PropOp39
 70
     1
102
RTVSPost2010Prop40
 90
        0
102
RTVSPost2010PropOp40
 70
     1
102
RTVSPost2010Prop41ColorIndex
 90
       18
102
RTVSPost2010Prop41ColorRGB
 90
        0
102
RTVSPost2010PropOp41
 70
     1
102
RTVSPost2010Prop42
 90
       50
102
RTVSPost2010PropOp42
 70
     1
102
RTVSPost2010Prop43
 90
        3
102
RTVSPost2010PropOp43
 70
     1
102
RTVSPost2010Prop44ColorIndex
 90
        5
102
RTVSPost2010Prop44ColorRGB
 90
      255
102
RTVSPost2010PropOp44
 70
     1
102
RTVSPost2010Prop45
280
     0
102
RTVSPost2010PropOp45
 70
     1
102
RTVSPost2010Prop46
 90
       50
102
RTVSPost2010PropOp46
 70
     1
102
RTVSPost2010Prop47
 90
       50
102
RTVSPost2010PropOp47
 70
     1
102
RTVSPost2010Prop48
 90
       50
102
RTVSPost2010PropOp48
 70
     1
102
RTVSPost2010Prop49
280
     0
102
RTVSPost2010PropOp49
 70
     1
102
RTVSPost2010Prop50
 90
       50
102
RTVSPost2010PropOp50
 70
     1
102
RTVSPost2010Prop51ColorIndex
 90
      256
102
RTVSPost2010Prop51ColorRGB
 90
-16777216
102
RTVSPost2010PropOp51
 70
     0
102
RTVSPost2010Prop52
140
1.0
102
RTVSPost2010PropOp52
 70
     0
102
RTVSPost2010Prop53
 90
        2
102
RTVSPost2010PropOp53
 70
     1
102
RTVSPost2010Prop54
  1
strokes_ogs.tif
102
RTVSPost2010PropOp54
 70
     1
102
RTVSPost2010Prop55
280
     0
102
RTVSPost2010PropOp55
 70
     1
102
RTVSPost2010Prop56
140
1.0
102
RTVSPost2010PropOp56
 70
     1
102
RTVSPost2010Prop57
140
1.0
102
RTVSPost2010PropOp57
 70
     1
  0
XRECORD
  5
431
102
{ACAD_REACTORS
330
430
102
}
330
430
100
AcDbXrecord
280
     1
102
RTVSPropertyOp0
 70
     1
102
RTVSPropertyOp1
 70
     1
102
RTVSPropertyOp2
 70
     1
102
RTVSPropertyOp3
 70
     1
102
RTVSPropertyOp4
 70
     1
102
RTVSPropertyOp5
 70
     1
102
RTVSPropertyOp6
 70
     1
102
RTVSPropertyOp7
 70
     1
102
RTVSPropertyOp8
 70
     1
102
RTVSPropertyOp9
 70
     1
102
RTVSPropertyOp10
 70
     1
102
RTVSPropertyOp11
 70
     1
102
RTVSPropertyOp12
 70
     1
102
RTVSPropertyOp13
 70
     1
102
RTVSPropertyOp14
 70
     1
102
RTVSPropertyOp15
 70
     1
102
RTVSPropertyOp16
 70
     1
102
RTVSPropertyOp17
 70
     1
102
RTVSPropertyOp18
 70
     1
102
RTVSPropertyOp19
 70
     1
102
RTVSPropertyOp20
 70
     1
102
RTVSPropertyOp21
 70
     1
102
RTVSPropertyOp22
 70
     1
102
RTVSPropertyOp23
 70
     1
102
RTVSPropertyOp24
 70
     1
102
RTVSPropertyOp25
 70
     1
102
RTVSPropertyOp26
 70
     1
102
RTVSPropertyOp27
 70
     1
102
RTVSPropertyOp28
 70
     1
102
RTVSPropertyOp29
 70
     1
102
RTVSPropertyOp30
 70
     1
102
RTVSPropertyOp31
 70
     1
102
RTVSPropertyOp32
 70
     1
102
RTVSPropertyOp33
 70
     1
102
RTVSPropertyOp34
 70
     1
102
RTVSPropertyOp35
 70
     1
102
RTVSPropertyOp36
 70
     1
102
RTVSPropertyOp37
 70
     1
102
RTVSPropertyOp38
 70
     1
102
RTVSPropertyOp39
 70
     1
102
RTVSPropertyOp40
 70
     1
102
RTVSPropertyOp41
 70
     1
102
RTVSPropertyOp42
 70
     1
102
RTVSPropertyOp43
 70
     1
102
RTVSPropertyOp44
 70
     1
102
RTVSPropertyOp45
 70
     1
102
RTVSPropertyOp46
 70
     1
102
RTVSPropertyOp47
 70
     1
102
RTVSPropertyOp48
 70
     1
102
RTVSPropertyOp49
 70
     1
102
RTVSPropertyOp50
 70
     1
102
RTVSPropertyOp51
 70
     0
102
RTVSPropertyOp52
 70
     0
102
RTVSPropertyOp53
 70
     1
102
RTVSPropertyOp54
 70
     1
102
RTVSPropertyOp55
 70
     1
102
RTVSPropertyOp56
 70
     1
102
RTVSPropertyOp57
 70
     1
102
RTVSPost2010Prop28
280
     0
102
RTVSPost2010PropOp28
 70
     1
102
RTVSPost2010Prop29
280
     1
102
RTVSPost2010PropOp29
 70
     1
102
RTVSPost2010Prop30
280
     1
102
RTVSPost2010PropOp30
 70
     1
102
RTVSPost2010Prop31
280
     0
102
RTVSPost2010PropOp31
 70
     1
102
RTVSPost2010Prop32
280
     0
102
RTVSPost2010PropOp32
 70
     1
102
RTVSPost2010Prop33
280
     0
102
RTVSPost2010PropOp33
 70
     1
102
RTVSPost2010Prop34
280
     0
102
RTVSPost2010PropOp34
 70
     1
102
RTVSPost2010Prop35
280
     0
102
RTVSPost2010PropOp35
 70
     1
102
RTVSPost2010Prop36
280
     0
102
RTVSPost2010PropOp36
 70
     1
102
RTVSPost2010Prop37
 90
       50
102
RTVSPost2010PropOp37
 70
     1
102
RTVSPost2010Prop38
140
0.0
102
RTVSPost2010PropOp38
 70
     1
102
RTVSPost2010Prop39
140
1.0
102
RTVSPost2010PropOp39
 70
     1
102
RTVSPost2010Prop40
 90
        0
102
RTVSPost2010PropOp40
 70
     1
102
RTVSPost2010Prop41ColorIndex
 90
       18
102
RTVSPost2010Prop41ColorRGB
 90
        0
102
RTVSPost2010PropOp41
 70
     1
102
RTVSPost2010Prop42
 90
       50
102
RTVSPost2010PropOp42
 70
     1
102
RTVSPost2010Prop43
 90
        3
102
RTVSPost2010PropOp43
 70
     1
102
RTVSPost2010Prop44ColorIndex
 90
        5
102
RTVSPost2010Prop44ColorRGB
 90
      255
102
RTVSPost2010PropOp44
 70
     1
102
RTVSPost2010Prop45
280
     0
102
RTVSPost2010PropOp45
 70
     1
102
RTVSPost2010Prop46
 90
       50
102
RTVSPost2010PropOp46
 70
     1
102
RTVSPost2010Prop47
 90
       50
102
RTVSPost2010PropOp47
 70
     1
102
RTVSPost2010Prop48
 90
       50
102
RTVSPost2010PropOp48
 70
     1
102
RTVSPost2010Prop49
280
     0
102
RTVSPost2010PropOp49
 70
     1
102
RTVSPost2010Prop50
 90
       50
102
RTVSPost2010PropOp50
 70
     1
102
RTVSPost2010Prop51ColorIndex
 90
      256
102
RTVSPost2010Prop51ColorRGB
 90
-16777216
102
RTVSPost2010PropOp51
 70
     0
102
RTVSPost2010Prop52
140
1.0
102
RTVSPost2010PropOp52
 70
     0
102
RTVSPost2010Prop53
 90
        2
102
RTVSPost2010PropOp53
 70
     1
102
RTVSPost2010Prop54
  1
strokes_ogs.tif
102
RTVSPost2010PropOp54
 70
     1
102
RTVSPost2010Prop55
280
     0
102
RTVSPost2010PropOp55
 70
     1
102
RTVSPost2010Prop56
140
1.0
102
RTVSPost2010PropOp56
 70
     1
102
RTVSPost2010Prop57
140
1.0
102
RTVSPost2010PropOp57
 70
     1
  0
XRECORD
  5
42F
102
{ACAD_REACTORS
330
42E
102
}
330
42E
100
AcDbXrecord
280
     1
102
RTVSPropertyOp0
 70
     1
102
RTVSPropertyOp1
 70
     1
102
RTVSPropertyOp2
 70
     1
102
RTVSPropertyOp3
 70
     1
102
RTVSPropertyOp4
 70
     1
102
RTVSPropertyOp5
 70
     1
102
RTVSPropertyOp6
 70
     1
102
RTVSPropertyOp7
 70
     1
102
RTVSPropertyOp8
 70
     1
102
RTVSPropertyOp9
 70
     1
102
RTVSPropertyOp10
 70
     1
102
RTVSPropertyOp11
 70
     1
102
RTVSPropertyOp12
 70
     1
102
RTVSPropertyOp13
 70
     1
102
RTVSPropertyOp14
 70
     1
102
RTVSPropertyOp15
 70
     1
102
RTVSPropertyOp16
 70
     1
102
RTVSPropertyOp17
 70
     1
102
RTVSPropertyOp18
 70
     1
102
RTVSPropertyOp19
 70
     1
102
RTVSPropertyOp20
 70
     1
102
RTVSPropertyOp21
 70
     1
102
RTVSPropertyOp22
 70
     1
102
RTVSPropertyOp23
 70
     1
102
RTVSPropertyOp24
 70
     1
102
RTVSPropertyOp25
 70
     1
102
RTVSPropertyOp26
 70
     1
102
RTVSPropertyOp27
 70
     1
102
RTVSPropertyOp28
 70
     1
102
RTVSPropertyOp29
 70
     1
102
RTVSPropertyOp30
 70
     1
102
RTVSPropertyOp31
 70
     1
102
RTVSPropertyOp32
 70
     1
102
RTVSPropertyOp33
 70
     1
102
RTVSPropertyOp34
 70
     1
102
RTVSPropertyOp35
 70
     1
102
RTVSPropertyOp36
 70
     1
102
RTVSPropertyOp37
 70
     1
102
RTVSPropertyOp38
 70
     1
102
RTVSPropertyOp39
 70
     1
102
RTVSPropertyOp40
 70
     1
102
RTVSPropertyOp41
 70
     1
102
RTVSPropertyOp42
 70
     1
102
RTVSPropertyOp43
 70
     1
102
RTVSPropertyOp44
 70
     1
102
RTVSPropertyOp45
 70
     1
102
RTVSPropertyOp46
 70
     1
102
RTVSPropertyOp47
 70
     1
102
RTVSPropertyOp48
 70
     1
102
RTVSPropertyOp49
 70
     1
102
RTVSPropertyOp50
 70
     1
102
RTVSPropertyOp51
 70
     0
102
RTVSPropertyOp52
 70
     0
102
RTVSPropertyOp53
 70
     1
102
RTVSPropertyOp54
 70
     1
102
RTVSPropertyOp55
 70
     1
102
RTVSPropertyOp56
 70
     1
102
RTVSPropertyOp57
 70
     1
102
RTVSPost2010Prop28
280
     0
102
RTVSPost2010PropOp28
 70
     1
102
RTVSPost2010Prop29
280
     1
102
RTVSPost2010PropOp29
 70
     1
102
RTVSPost2010Prop30
280
     1
102
RTVSPost2010PropOp30
 70
     1
102
RTVSPost2010Prop31
280
     0
102
RTVSPost2010PropOp31
 70
     1
102
RTVSPost2010Prop32
280
     0
102
RTVSPost2010PropOp32
 70
     1
102
RTVSPost2010Prop33
280
     0
102
RTVSPost2010PropOp33
 70
     1
102
RTVSPost2010Prop34
280
     0
102
RTVSPost2010PropOp34
 70
     1
102
RTVSPost2010Prop35
280
     0
102
RTVSPost2010PropOp35
 70
     1
102
RTVSPost2010Prop36
280
     0
102
RTVSPost2010PropOp36
 70
     1
102
RTVSPost2010Prop37
 90
       50
102
RTVSPost2010PropOp37
 70
     1
102
RTVSPost2010Prop38
140
0.0
102
RTVSPost2010PropOp38
 70
     1
102
RTVSPost2010Prop39
140
1.0
102
RTVSPost2010PropOp39
 70
     1
102
RTVSPost2010Prop40
 90
        0
102
RTVSPost2010PropOp40
 70
     1
102
RTVSPost2010Prop41ColorIndex
 90
       18
102
RTVSPost2010Prop41ColorRGB
 90
        0
102
RTVSPost2010PropOp41
 70
     1
102
RTVSPost2010Prop42
 90
       50
102
RTVSPost2010PropOp42
 70
     1
102
RTVSPost2010Prop43
 90
        3
102
RTVSPost2010PropOp43
 70
     1
102
RTVSPost2010Prop44ColorIndex
 90
        5
102
RTVSPost2010Prop44ColorRGB
 90
      255
102
RTVSPost2010PropOp44
 70
     1
102
RTVSPost2010Prop45
280
     0
102
RTVSPost2010PropOp45
 70
     1
102
RTVSPost2010Prop46
 90
       50
102
RTVSPost2010PropOp46
 70
     1
102
RTVSPost2010Prop47
 90
       50
102
RTVSPost2010PropOp47
 70
     1
102
RTVSPost2010Prop48
 90
       50
102
RTVSPost2010PropOp48
 70
     1
102
RTVSPost2010Prop49
280
     0
102
RTVSPost2010PropOp49
 70
     1
102
RTVSPost2010Prop50
 90
       50
102
RTVSPost2010PropOp50
 70
     1
102
RTVSPost2010Prop51ColorIndex
 90
      256
102
RTVSPost2010Prop51ColorRGB
 90
-16777216
102
RTVSPost2010PropOp51
 70
     0
102
RTVSPost2010Prop52
140
1.0
102
RTVSPost2010PropOp52
 70
     0
102
RTVSPost2010Prop53
 90
        2
102
RTVSPost2010PropOp53
 70
     1
102
RTVSPost2010Prop54
  1
strokes_ogs.tif
102
RTVSPost2010PropOp54
 70
     1
102
RTVSPost2010Prop55
280
     0
102
RTVSPost2010PropOp55
 70
     1
102
RTVSPost2010Prop56
140
1.0
102
RTVSPost2010PropOp56
 70
     1
102
RTVSPost2010Prop57
140
1.0
102
RTVSPost2010PropOp57
 70
     1
  0
XRECORD
  5
429
102
{ACAD_REACTORS
330
428
102
}
330
428
100
AcDbXrecord
280
     1
102
RTVSPropertyOp0
 70
     1
102
RTVSPropertyOp1
 70
     1
102
RTVSPropertyOp2
 70
     1
102
RTVSPropertyOp3
 70
     1
102
RTVSPropertyOp4
 70
     1
102
RTVSPropertyOp5
 70
     1
102
RTVSPropertyOp6
 70
     1
102
RTVSPropertyOp7
 70
     1
102
RTVSPropertyOp8
 70
     1
102
RTVSPropertyOp9
 70
     1
102
RTVSPropertyOp10
 70
     1
102
RTVSPropertyOp11
 70
     1
102
RTVSPropertyOp12
 70
     1
102
RTVSPropertyOp13
 70
     1
102
RTVSPropertyOp14
 70
     1
102
RTVSPropertyOp15
 70
     1
102
RTVSPropertyOp16
 70
     1
102
RTVSPropertyOp17
 70
     1
102
RTVSPropertyOp18
 70
     1
102
RTVSPropertyOp19
 70
     1
102
RTVSPropertyOp20
 70
     1
102
RTVSPropertyOp21
 70
     1
102
RTVSPropertyOp22
 70
     1
102
RTVSPropertyOp23
 70
     1
102
RTVSPropertyOp24
 70
     1
102
RTVSPropertyOp25
 70
     1
102
RTVSPropertyOp26
 70
     1
102
RTVSPropertyOp27
 70
     1
102
RTVSPropertyOp28
 70
     1
102
RTVSPropertyOp29
 70
     1
102
RTVSPropertyOp30
 70
     1
102
RTVSPropertyOp31
 70
     1
102
RTVSPropertyOp32
 70
     1
102
RTVSPropertyOp33
 70
     1
102
RTVSPropertyOp34
 70
     1
102
RTVSPropertyOp35
 70
     1
102
RTVSPropertyOp36
 70
     1
102
RTVSPropertyOp37
 70
     1
102
RTVSPropertyOp38
 70
     1
102
RTVSPropertyOp39
 70
     1
102
RTVSPropertyOp40
 70
     1
102
RTVSPropertyOp41
 70
     1
102
RTVSPropertyOp42
 70
     1
102
RTVSPropertyOp43
 70
     1
102
RTVSPropertyOp44
 70
     1
102
RTVSPropertyOp45
 70
     1
102
RTVSPropertyOp46
 70
     1
102
RTVSPropertyOp47
 70
     1
102
RTVSPropertyOp48
 70
     1
102
RTVSPropertyOp49
 70
     1
102
RTVSPropertyOp50
 70
     1
102
RTVSPropertyOp51
 70
     0
102
RTVSPropertyOp52
 70
     0
102
RTVSPropertyOp53
 70
     1
102
RTVSPropertyOp54
 70
     1
102
RTVSPropertyOp55
 70
     1
102
RTVSPropertyOp56
 70
     1
102
RTVSPropertyOp57
 70
     1
102
RTVSPost2010Prop28
280
     0
102
RTVSPost2010PropOp28
 70
     1
102
RTVSPost2010Prop29
280
     1
102
RTVSPost2010PropOp29
 70
     1
102
RTVSPost2010Prop30
280
     1
102
RTVSPost2010PropOp30
 70
     1
102
RTVSPost2010Prop31
280
     0
102
RTVSPost2010PropOp31
 70
     1
102
RTVSPost2010Prop32
280
     0
102
RTVSPost2010PropOp32
 70
     1
102
RTVSPost2010Prop33
280
     0
102
RTVSPost2010PropOp33
 70
     1
102
RTVSPost2010Prop34
280
     0
102
RTVSPost2010PropOp34
 70
     1
102
RTVSPost2010Prop35
280
     0
102
RTVSPost2010PropOp35
 70
     1
102
RTVSPost2010Prop36
280
     0
102
RTVSPost2010PropOp36
 70
     1
102
RTVSPost2010Prop37
 90
       50
102
RTVSPost2010PropOp37
 70
     1
102
RTVSPost2010Prop38
140
0.0
102
RTVSPost2010PropOp38
 70
     1
102
RTVSPost2010Prop39
140
1.0
102
RTVSPost2010PropOp39
 70
     1
102
RTVSPost2010Prop40
 90
        0
102
RTVSPost2010PropOp40
 70
     1
102
RTVSPost2010Prop41ColorIndex
 90
       18
102
RTVSPost2010Prop41ColorRGB
 90
        0
102
RTVSPost2010PropOp41
 70
     1
102
RTVSPost2010Prop42
 90
       50
102
RTVSPost2010PropOp42
 70
     1
102
RTVSPost2010Prop43
 90
        3
102
RTVSPost2010PropOp43
 70
     1
102
RTVSPost2010Prop44ColorIndex
 90
        5
102
RTVSPost2010Prop44ColorRGB
 90
      255
102
RTVSPost2010PropOp44
 70
     1
102
RTVSPost2010Prop45
280
     0
102
RTVSPost2010PropOp45
 70
     1
102
RTVSPost2010Prop46
 90
       50
102
RTVSPost2010PropOp46
 70
     1
102
RTVSPost2010Prop47
 90
       50
102
RTVSPost2010PropOp47
 70
     1
102
RTVSPost2010Prop48
 90
       50
102
RTVSPost2010PropOp48
 70
     1
102
RTVSPost2010Prop49
280
     0
102
RTVSPost2010PropOp49
 70
     1
102
RTVSPost2010Prop50
 90
       50
102
RTVSPost2010PropOp50
 70
     1
102
RTVSPost2010Prop51ColorIndex
 90
      256
102
RTVSPost2010Prop51ColorRGB
 90
-16777216
102
RTVSPost2010PropOp51
 70
     0
102
RTVSPost2010Prop52
140
1.0
102
RTVSPost2010PropOp52
 70
     0
102
RTVSPost2010Prop53
 90
        2
102
RTVSPost2010PropOp53
 70
     1
102
RTVSPost2010Prop54
  1
strokes_ogs.tif
102
RTVSPost2010PropOp54
 70
     1
102
RTVSPost2010Prop55
280
     0
102
RTVSPost2010PropOp55
 70
     1
102
RTVSPost2010Prop56
140
1.0
102
RTVSPost2010PropOp56
 70
     1
102
RTVSPost2010Prop57
140
1.0
102
RTVSPost2010PropOp57
 70
     1
  0
XRECORD
  5
42B
102
{ACAD_REACTORS
330
42A
102
}
330
42A
100
AcDbXrecord
280
     1
102
RTVSPropertyOp0
 70
     1
102
RTVSPropertyOp1
 70
     1
102
RTVSPropertyOp2
 70
     1
102
RTVSPropertyOp3
 70
     1
102
RTVSPropertyOp4
 70
     1
102
RTVSPropertyOp5
 70
     1
102
RTVSPropertyOp6
 70
     1
102
RTVSPropertyOp7
 70
     1
102
RTVSPropertyOp8
 70
     1
102
RTVSPropertyOp9
 70
     1
102
RTVSPropertyOp10
 70
     1
102
RTVSPropertyOp11
 70
     1
102
RTVSPropertyOp12
 70
     1
102
RTVSPropertyOp13
 70
     1
102
RTVSPropertyOp14
 70
     1
102
RTVSPropertyOp15
 70
     1
102
RTVSPropertyOp16
 70
     1
102
RTVSPropertyOp17
 70
     1
102
RTVSPropertyOp18
 70
     1
102
RTVSPropertyOp19
 70
     1
102
RTVSPropertyOp20
 70
     1
102
RTVSPropertyOp21
 70
     1
102
RTVSPropertyOp22
 70
     1
102
RTVSPropertyOp23
 70
     1
102
RTVSPropertyOp24
 70
     1
102
RTVSPropertyOp25
 70
     1
102
RTVSPropertyOp26
 70
     1
102
RTVSPropertyOp27
 70
     1
102
RTVSPropertyOp28
 70
     1
102
RTVSPropertyOp29
 70
     1
102
RTVSPropertyOp30
 70
     1
102
RTVSPropertyOp31
 70
     1
102
RTVSPropertyOp32
 70
     1
102
RTVSPropertyOp33
 70
     1
102
RTVSPropertyOp34
 70
     1
102
RTVSPropertyOp35
 70
     1
102
RTVSPropertyOp36
 70
     1
102
RTVSPropertyOp37
 70
     1
102
RTVSPropertyOp38
 70
     1
102
RTVSPropertyOp39
 70
     1
102
RTVSPropertyOp40
 70
     1
102
RTVSPropertyOp41
 70
     1
102
RTVSPropertyOp42
 70
     1
102
RTVSPropertyOp43
 70
     1
102
RTVSPropertyOp44
 70
     1
102
RTVSPropertyOp45
 70
     1
102
RTVSPropertyOp46
 70
     1
102
RTVSPropertyOp47
 70
     1
102
RTVSPropertyOp48
 70
     1
102
RTVSPropertyOp49
 70
     1
102
RTVSPropertyOp50
 70
     1
102
RTVSPropertyOp51
 70
     0
102
RTVSPropertyOp52
 70
     0
102
RTVSPropertyOp53
 70
     1
102
RTVSPropertyOp54
 70
     1
102
RTVSPropertyOp55
 70
     1
102
RTVSPropertyOp56
 70
     1
102
RTVSPropertyOp57
 70
     1
102
RTVSPost2010Prop28
280
     0
102
RTVSPost2010PropOp28
 70
     1
102
RTVSPost2010Prop29
280
     1
102
RTVSPost2010PropOp29
 70
     1
102
RTVSPost2010Prop30
280
     1
102
RTVSPost2010PropOp30
 70
     1
102
RTVSPost2010Prop31
280
     0
102
RTVSPost2010PropOp31
 70
     1
102
RTVSPost2010Prop32
280
     0
102
RTVSPost2010PropOp32
 70
     1
102
RTVSPost2010Prop33
280
     0
102
RTVSPost2010PropOp33
 70
     1
102
RTVSPost2010Prop34
280
     0
102
RTVSPost2010PropOp34
 70
     1
102
RTVSPost2010Prop35
280
     0
102
RTVSPost2010PropOp35
 70
     1
102
RTVSPost2010Prop36
280
     0
102
RTVSPost2010PropOp36
 70
     1
102
RTVSPost2010Prop37
 90
       50
102
RTVSPost2010PropOp37
 70
     1
102
RTVSPost2010Prop38
140
0.0
102
RTVSPost2010PropOp38
 70
     1
102
RTVSPost2010Prop39
140
1.0
102
RTVSPost2010PropOp39
 70
     1
102
RTVSPost2010Prop40
 90
        0
102
RTVSPost2010PropOp40
 70
     1
102
RTVSPost2010Prop41ColorIndex
 90
       18
102
RTVSPost2010Prop41ColorRGB
 90
        0
102
RTVSPost2010PropOp41
 70
     1
102
RTVSPost2010Prop42
 90
       50
102
RTVSPost2010PropOp42
 70
     1
102
RTVSPost2010Prop43
 90
        3
102
RTVSPost2010PropOp43
 70
     1
102
RTVSPost2010Prop44ColorIndex
 90
        5
102
RTVSPost2010Prop44ColorRGB
 90
      255
102
RTVSPost2010PropOp44
 70
     1
102
RTVSPost2010Prop45
280
     0
102
RTVSPost2010PropOp45
 70
     1
102
RTVSPost2010Prop46
 90
       50
102
RTVSPost2010PropOp46
 70
     1
102
RTVSPost2010Prop47
 90
       50
102
RTVSPost2010PropOp47
 70
     1
102
RTVSPost2010Prop48
 90
       50
102
RTVSPost2010PropOp48
 70
     1
102
RTVSPost2010Prop49
280
     0
102
RTVSPost2010PropOp49
 70
     1
102
RTVSPost2010Prop50
 90
       50
102
RTVSPost2010PropOp50
 70
     1
102
RTVSPost2010Prop51ColorIndex
 90
      256
102
RTVSPost2010Prop51ColorRGB
 90
-16777216
102
RTVSPost2010PropOp51
 70
     0
102
RTVSPost2010Prop52
140
1.0
102
RTVSPost2010PropOp52
 70
     0
102
RTVSPost2010Prop53
 90
        2
102
RTVSPost2010PropOp53
 70
     1
102
RTVSPost2010Prop54
  1
strokes_ogs.tif
102
RTVSPost2010PropOp54
 70
     1
102
RTVSPost2010Prop55
280
     0
102
RTVSPost2010PropOp55
 70
     1
102
RTVSPost2010Prop56
140
1.0
102
RTVSPost2010PropOp56
 70
     1
102
RTVSPost2010Prop57
140
1.0
102
RTVSPost2010PropOp57
 70
     1
  0
XRECORD
  5
41B
102
{ACAD_REACTORS
330
41A
102
}
330
41A
100
AcDbXrecord
280
     1
102
RTVSPropertyOp0
 70
     1
102
RTVSPropertyOp1
 70
     1
102
RTVSPropertyOp2
 70
     1
102
RTVSPropertyOp3
 70
     1
102
RTVSPropertyOp4
 70
     1
102
RTVSPropertyOp5
 70
     1
102
RTVSPropertyOp6
 70
     1
102
RTVSPropertyOp7
 70
     1
102
RTVSPropertyOp8
 70
     1
102
RTVSPropertyOp9
 70
     1
102
RTVSPropertyOp10
 70
     1
102
RTVSPropertyOp11
 70
     1
102
RTVSPropertyOp12
 70
     1
102
RTVSPropertyOp13
 70
     1
102
RTVSPropertyOp14
 70
     1
102
RTVSPropertyOp15
 70
     1
102
RTVSPropertyOp16
 70
     1
102
RTVSPropertyOp17
 70
     1
102
RTVSPropertyOp18
 70
     1
102
RTVSPropertyOp19
 70
     1
102
RTVSPropertyOp20
 70
     1
102
RTVSPropertyOp21
 70
     1
102
RTVSPropertyOp22
 70
     1
102
RTVSPropertyOp23
 70
     1
102
RTVSPropertyOp24
 70
     1
102
RTVSPropertyOp25
 70
     1
102
RTVSPropertyOp26
 70
     1
102
RTVSPropertyOp27
 70
     1
102
RTVSPropertyOp28
 70
     1
102
RTVSPropertyOp29
 70
     1
102
RTVSPropertyOp30
 70
     1
102
RTVSPropertyOp31
 70
     1
102
RTVSPropertyOp32
 70
     1
102
RTVSPropertyOp33
 70
     1
102
RTVSPropertyOp34
 70
     1
102
RTVSPropertyOp35
 70
     1
102
RTVSPropertyOp36
 70
     1
102
RTVSPropertyOp37
 70
     1
102
RTVSPropertyOp38
 70
     1
102
RTVSPropertyOp39
 70
     1
102
RTVSPropertyOp40
 70
     1
102
RTVSPropertyOp41
 70
     1
102
RTVSPropertyOp42
 70
     1
102
RTVSPropertyOp43
 70
     1
102
RTVSPropertyOp44
 70
     1
102
RTVSPropertyOp45
 70
     1
102
RTVSPropertyOp46
 70
     1
102
RTVSPropertyOp47
 70
     1
102
RTVSPropertyOp48
 70
     1
102
RTVSPropertyOp49
 70
     1
102
RTVSPropertyOp50
 70
     1
102
RTVSPropertyOp51
 70
     0
102
RTVSPropertyOp52
 70
     0
102
RTVSPropertyOp53
 70
     1
102
RTVSPropertyOp54
 70
     1
102
RTVSPropertyOp55
 70
     1
102
RTVSPropertyOp56
 70
     1
102
RTVSPropertyOp57
 70
     1
102
RTVSPost2010Prop28
280
     0
102
RTVSPost2010PropOp28
 70
     1
102
RTVSPost2010Prop29
280
     1
102
RTVSPost2010PropOp29
 70
     1
102
RTVSPost2010Prop30
280
     1
102
RTVSPost2010PropOp30
 70
     1
102
RTVSPost2010Prop31
280
     0
102
RTVSPost2010PropOp31
 70
     1
102
RTVSPost2010Prop32
280
     0
102
RTVSPost2010PropOp32
 70
     1
102
RTVSPost2010Prop33
280
     0
102
RTVSPost2010PropOp33
 70
     1
102
RTVSPost2010Prop34
280
     0
102
RTVSPost2010PropOp34
 70
     1
102
RTVSPost2010Prop35
280
     0
102
RTVSPost2010PropOp35
 70
     1
102
RTVSPost2010Prop36
280
     0
102
RTVSPost2010PropOp36
 70
     1
102
RTVSPost2010Prop37
 90
       50
102
RTVSPost2010PropOp37
 70
     1
102
RTVSPost2010Prop38
140
0.0
102
RTVSPost2010PropOp38
 70
     1
102
RTVSPost2010Prop39
140
1.0
102
RTVSPost2010PropOp39
 70
     1
102
RTVSPost2010Prop40
 90
        0
102
RTVSPost2010PropOp40
 70
     1
102
RTVSPost2010Prop41ColorIndex
 90
       18
102
RTVSPost2010Prop41ColorRGB
 90
        0
102
RTVSPost2010PropOp41
 70
     1
102
RTVSPost2010Prop42
 90
       50
102
RTVSPost2010PropOp42
 70
     1
102
RTVSPost2010Prop43
 90
        3
102
RTVSPost2010PropOp43
 70
     1
102
RTVSPost2010Prop44ColorIndex
 90
        5
102
RTVSPost2010Prop44ColorRGB
 90
      255
102
RTVSPost2010PropOp44
 70
     1
102
RTVSPost2010Prop45
280
     0
102
RTVSPost2010PropOp45
 70
     1
102
RTVSPost2010Prop46
 90
       50
102
RTVSPost2010PropOp46
 70
     1
102
RTVSPost2010Prop47
 90
       50
102
RTVSPost2010PropOp47
 70
     1
102
RTVSPost2010Prop48
 90
       50
102
RTVSPost2010PropOp48
 70
     1
102
RTVSPost2010Prop49
280
     0
102
RTVSPost2010PropOp49
 70
     1
102
RTVSPost2010Prop50
 90
       50
102
RTVSPost2010PropOp50
 70
     1
102
RTVSPost2010Prop51ColorIndex
 90
      256
102
RTVSPost2010Prop51ColorRGB
 90
-16777216
102
RTVSPost2010PropOp51
 70
     0
102
RTVSPost2010Prop52
140
1.0
102
RTVSPost2010PropOp52
 70
     0
102
RTVSPost2010Prop53
 90
        2
102
RTVSPost2010PropOp53
 70
     1
102
RTVSPost2010Prop54
  1
strokes_ogs.tif
102
RTVSPost2010PropOp54
 70
     1
102
RTVSPost2010Prop55
280
     0
102
RTVSPost2010PropOp55
 70
     1
102
RTVSPost2010Prop56
140
1.0
102
RTVSPost2010PropOp56
 70
     1
102
RTVSPost2010Prop57
140
1.0
102
RTVSPost2010PropOp57
 70
     1
  0
XRECORD
  5
40D
102
{ACAD_REACTORS
330
40C
102
}
330
40C
100
AcDbXrecord
280
     1
102
RTVSPropertyOp0
 70
     1
102
RTVSPropertyOp1
 70
     1
102
RTVSPropertyOp2
 70
     1
102
RTVSPropertyOp3
 70
     1
102
RTVSPropertyOp4
 70
     1
102
RTVSPropertyOp5
 70
     1
102
RTVSPropertyOp6
 70
     1
102
RTVSPropertyOp7
 70
     1
102
RTVSPropertyOp8
 70
     1
102
RTVSPropertyOp9
 70
     1
102
RTVSPropertyOp10
 70
     1
102
RTVSPropertyOp11
 70
     1
102
RTVSPropertyOp12
 70
     1
102
RTVSPropertyOp13
 70
     1
102
RTVSPropertyOp14
 70
     1
102
RTVSPropertyOp15
 70
     1
102
RTVSPropertyOp16
 70
     1
102
RTVSPropertyOp17
 70
     1
102
RTVSPropertyOp18
 70
     1
102
RTVSPropertyOp19
 70
     1
102
RTVSPropertyOp20
 70
     1
102
RTVSPropertyOp21
 70
     1
102
RTVSPropertyOp22
 70
     1
102
RTVSPropertyOp23
 70
     1
102
RTVSPropertyOp24
 70
     1
102
RTVSPropertyOp25
 70
     1
102
RTVSPropertyOp26
 70
     1
102
RTVSPropertyOp27
 70
     1
102
RTVSPropertyOp28
 70
     1
102
RTVSPropertyOp29
 70
     1
102
RTVSPropertyOp30
 70
     1
102
RTVSPropertyOp31
 70
     1
102
RTVSPropertyOp32
 70
     1
102
RTVSPropertyOp33
 70
     1
102
RTVSPropertyOp34
 70
     1
102
RTVSPropertyOp35
 70
     1
102
RTVSPropertyOp36
 70
     1
102
RTVSPropertyOp37
 70
     1
102
RTVSPropertyOp38
 70
     1
102
RTVSPropertyOp39
 70
     1
102
RTVSPropertyOp40
 70
     1
102
RTVSPropertyOp41
 70
     1
102
RTVSPropertyOp42
 70
     1
102
RTVSPropertyOp43
 70
     1
102
RTVSPropertyOp44
 70
     1
102
RTVSPropertyOp45
 70
     1
102
RTVSPropertyOp46
 70
     1
102
RTVSPropertyOp47
 70
     1
102
RTVSPropertyOp48
 70
     1
102
RTVSPropertyOp49
 70
     1
102
RTVSPropertyOp50
 70
     1
102
RTVSPropertyOp51
 70
     0
102
RTVSPropertyOp52
 70
     0
102
RTVSPropertyOp53
 70
     1
102
RTVSPropertyOp54
 70
     1
102
RTVSPropertyOp55
 70
     1
102
RTVSPropertyOp56
 70
     1
102
RTVSPropertyOp57
 70
     1
102
RTVSPost2010Prop28
280
     0
102
RTVSPost2010PropOp28
 70
     1
102
RTVSPost2010Prop29
280
     1
102
RTVSPost2010PropOp29
 70
     1
102
RTVSPost2010Prop30
280
     1
102
RTVSPost2010PropOp30
 70
     1
102
RTVSPost2010Prop31
280
     0
102
RTVSPost2010PropOp31
 70
     1
102
RTVSPost2010Prop32
280
     0
102
RTVSPost2010PropOp32
 70
     1
102
RTVSPost2010Prop33
280
     0
102
RTVSPost2010PropOp33
 70
     1
102
RTVSPost2010Prop34
280
     0
102
RTVSPost2010PropOp34
 70
     1
102
RTVSPost2010Prop35
280
     0
102
RTVSPost2010PropOp35
 70
     1
102
RTVSPost2010Prop36
280
     0
102
RTVSPost2010PropOp36
 70
     1
102
RTVSPost2010Prop37
 90
       50
102
RTVSPost2010PropOp37
 70
     1
102
RTVSPost2010Prop38
140
0.0
102
RTVSPost2010PropOp38
 70
     1
102
RTVSPost2010Prop39
140
1.0
102
RTVSPost2010PropOp39
 70
     1
102
RTVSPost2010Prop40
 90
        0
102
RTVSPost2010PropOp40
 70
     1
102
RTVSPost2010Prop41ColorIndex
 90
       18
102
RTVSPost2010Prop41ColorRGB
 90
        0
102
RTVSPost2010PropOp41
 70
     1
102
RTVSPost2010Prop42
 90
       50
102
RTVSPost2010PropOp42
 70
     1
102
RTVSPost2010Prop43
 90
        3
102
RTVSPost2010PropOp43
 70
     1
102
RTVSPost2010Prop44ColorIndex
 90
        5
102
RTVSPost2010Prop44ColorRGB
 90
      255
102
RTVSPost2010PropOp44
 70
     1
102
RTVSPost2010Prop45
280
     0
102
RTVSPost2010PropOp45
 70
     1
102
RTVSPost2010Prop46
 90
       50
102
RTVSPost2010PropOp46
 70
     1
102
RTVSPost2010Prop47
 90
       50
102
RTVSPost2010PropOp47
 70
     1
102
RTVSPost2010Prop48
 90
       50
102
RTVSPost2010PropOp48
 70
     1
102
RTVSPost2010Prop49
280
     0
102
RTVSPost2010PropOp49
 70
     1
102
RTVSPost2010Prop50
 90
       50
102
RTVSPost2010PropOp50
 70
     1
102
RTVSPost2010Prop51ColorIndex
 90
      256
102
RTVSPost2010Prop51ColorRGB
 90
-16777216
102
RTVSPost2010PropOp51
 70
     0
102
RTVSPost2010Prop52
140
1.0
102
RTVSPost2010PropOp52
 70
     0
102
RTVSPost2010Prop53
 90
        2
102
RTVSPost2010PropOp53
 70
     1
102
RTVSPost2010Prop54
  1
strokes_ogs.tif
102
RTVSPost2010PropOp54
 70
     1
102
RTVSPost2010Prop55
280
     0
102
RTVSPost2010PropOp55
 70
     1
102
RTVSPost2010Prop56
140
1.0
102
RTVSPost2010PropOp56
 70
     1
102
RTVSPost2010Prop57
140
1.0
102
RTVSPost2010PropOp57
 70
     1
  0
XRECORD
  5
42D
102
{ACAD_REACTORS
330
42C
102
}
330
42C
100
AcDbXrecord
280
     1
102
RTVSPropertyOp0
 70
     1
102
RTVSPropertyOp1
 70
     1
102
RTVSPropertyOp2
 70
     1
102
RTVSPropertyOp3
 70
     1
102
RTVSPropertyOp4
 70
     1
102
RTVSPropertyOp5
 70
     1
102
RTVSPropertyOp6
 70
     1
102
RTVSPropertyOp7
 70
     1
102
RTVSPropertyOp8
 70
     1
102
RTVSPropertyOp9
 70
     1
102
RTVSPropertyOp10
 70
     1
102
RTVSPropertyOp11
 70
     1
102
RTVSPropertyOp12
 70
     1
102
RTVSPropertyOp13
 70
     1
102
RTVSPropertyOp14
 70
     1
102
RTVSPropertyOp15
 70
     1
102
RTVSPropertyOp16
 70
     1
102
RTVSPropertyOp17
 70
     1
102
RTVSPropertyOp18
 70
     1
102
RTVSPropertyOp19
 70
     1
102
RTVSPropertyOp20
 70
     1
102
RTVSPropertyOp21
 70
     1
102
RTVSPropertyOp22
 70
     1
102
RTVSPropertyOp23
 70
     1
102
RTVSPropertyOp24
 70
     1
102
RTVSPropertyOp25
 70
     1
102
RTVSPropertyOp26
 70
     1
102
RTVSPropertyOp27
 70
     1
102
RTVSPropertyOp28
 70
     1
102
RTVSPropertyOp29
 70
     1
102
RTVSPropertyOp30
 70
     1
102
RTVSPropertyOp31
 70
     1
102
RTVSPropertyOp32
 70
     1
102
RTVSPropertyOp33
 70
     1
102
RTVSPropertyOp34
 70
     1
102
RTVSPropertyOp35
 70
     1
102
RTVSPropertyOp36
 70
     1
102
RTVSPropertyOp37
 70
     1
102
RTVSPropertyOp38
 70
     1
102
RTVSPropertyOp39
 70
     1
102
RTVSPropertyOp40
 70
     1
102
RTVSPropertyOp41
 70
     1
102
RTVSPropertyOp42
 70
     1
102
RTVSPropertyOp43
 70
     1
102
RTVSPropertyOp44
 70
     1
102
RTVSPropertyOp45
 70
     1
102
RTVSPropertyOp46
 70
     1
102
RTVSPropertyOp47
 70
     1
102
RTVSPropertyOp48
 70
     1
102
RTVSPropertyOp49
 70
     1
102
RTVSPropertyOp50
 70
     1
102
RTVSPropertyOp51
 70
     0
102
RTVSPropertyOp52
 70
     0
102
RTVSPropertyOp53
 70
     1
102
RTVSPropertyOp54
 70
     1
102
RTVSPropertyOp55
 70
     1
102
RTVSPropertyOp56
 70
     1
102
RTVSPropertyOp57
 70
     1
102
RTVSPost2010Prop28
280
     0
102
RTVSPost2010PropOp28
 70
     1
102
RTVSPost2010Prop29
280
     1
102
RTVSPost2010PropOp29
 70
     1
102
RTVSPost2010Prop30
280
     1
102
RTVSPost2010PropOp30
 70
     1
102
RTVSPost2010Prop31
280
     0
102
RTVSPost2010PropOp31
 70
     1
102
RTVSPost2010Prop32
280
     0
102
RTVSPost2010PropOp32
 70
     1
102
RTVSPost2010Prop33
280
     0
102
RTVSPost2010PropOp33
 70
     1
102
RTVSPost2010Prop34
280
     0
102
RTVSPost2010PropOp34
 70
     1
102
RTVSPost2010Prop35
280
     0
102
RTVSPost2010PropOp35
 70
     1
102
RTVSPost2010Prop36
280
     0
102
RTVSPost2010PropOp36
 70
     1
102
RTVSPost2010Prop37
 90
       50
102
RTVSPost2010PropOp37
 70
     1
102
RTVSPost2010Prop38
140
0.0
102
RTVSPost2010PropOp38
 70
     1
102
RTVSPost2010Prop39
140
1.0
102
RTVSPost2010PropOp39
 70
     1
102
RTVSPost2010Prop40
 90
        0
102
RTVSPost2010PropOp40
 70
     1
102
RTVSPost2010Prop41ColorIndex
 90
       18
102
RTVSPost2010Prop41ColorRGB
 90
        0
102
RTVSPost2010PropOp41
 70
     1
102
RTVSPost2010Prop42
 90
       50
102
RTVSPost2010PropOp42
 70
     1
102
RTVSPost2010Prop43
 90
        3
102
RTVSPost2010PropOp43
 70
     1
102
RTVSPost2010Prop44ColorIndex
 90
        5
102
RTVSPost2010Prop44ColorRGB
 90
      255
102
RTVSPost2010PropOp44
 70
     1
102
RTVSPost2010Prop45
280
     0
102
RTVSPost2010PropOp45
 70
     1
102
RTVSPost2010Prop46
 90
       50
102
RTVSPost2010PropOp46
 70
     1
102
RTVSPost2010Prop47
 90
       50
102
RTVSPost2010PropOp47
 70
     1
102
RTVSPost2010Prop48
 90
       50
102
RTVSPost2010PropOp48
 70
     1
102
RTVSPost2010Prop49
280
     0
102
RTVSPost2010PropOp49
 70
     1
102
RTVSPost2010Prop50
 90
       50
102
RTVSPost2010PropOp50
 70
     1
102
RTVSPost2010Prop51ColorIndex
 90
      256
102
RTVSPost2010Prop51ColorRGB
 90
-16777216
102
RTVSPost2010PropOp51
 70
     0
102
RTVSPost2010Prop52
140
1.0
102
RTVSPost2010PropOp52
 70
     0
102
RTVSPost2010Prop53
 90
        2
102
RTVSPost2010PropOp53
 70
     1
102
RTVSPost2010Prop54
  1
strokes_ogs.tif
102
RTVSPost2010PropOp54
 70
     1
102
RTVSPost2010Prop55
280
     0
102
RTVSPost2010PropOp55
 70
     1
102
RTVSPost2010Prop56
140
1.0
102
RTVSPost2010PropOp56
 70
     1
102
RTVSPost2010Prop57
140
1.0
102
RTVSPost2010PropOp57
 70
     1
  0
ENDSEC
  0
EOF
