  0
SECTION
  2
HEADER
  9
$ACADVER
  1
AC1015
  9
$ACADMAINTVER
 70
     6
  9
$DWGCODEPAGE
  3
DOS932
  9
$INSBASE
 10
0.0
 20
0.0
 30
0.0
  9
$EXTMIN
 10
0.0
 20
-13.53691992573414
 30
0.0
  9
$EXTMAX
 10
2363.999999999999
 20
1608.0
 30
0.0
  9
$LIMMIN
 10
0.0
 20
0.0
  9
$LIMMAX
 10
12.0
 20
9.0
  9
$ORTHOMODE
 70
     0
  9
$REGENMODE
 70
     1
  9
$FILLMODE
 70
     1
  9
$QTEXTMODE
 70
     0
  9
$MIRRTEXT
 70
     1
  9
$LTSCALE
 40
1.0
  9
$ATTMODE
 70
     1
  9
$TEXTSIZE
 40
0.2
  9
$TRACEWID
 40
0.05
  9
$TEXTSTYLE
  7
Standard
  9
$CLAYER
  8
0
  9
$CELTYPE
  6
ByLayer
  9
$CECOLOR
 62
   256
  9
$CELTSCALE
 40
1.0
  9
$DISPSILH
 70
     0
  9
$DIMSCALE
 40
1.0
  9
$DIMASZ
 40
0.18
  9
$DIMEXO
 40
0.0625
  9
$DIMDLI
 40
0.38
  9
$DIMRND
 40
0.0
  9
$DIMDLE
 40
0.0
  9
$DIMEXE
 40
0.18
  9
$DIMTP
 40
0.0
  9
$DIMTM
 40
0.0
  9
$DIMTXT
 40
0.18
  9
$DIMCEN
 40
0.09
  9
$DIMTSZ
 40
0.0
  9
$DIMTOL
 70
     0
  9
$DIMLIM
 70
     0
  9
$DIMTIH
 70
     1
  9
$DIMTOH
 70
     1
  9
$DIMSE1
 70
     0
  9
$DIMSE2
 70
     0
  9
$DIMTAD
 70
     0
  9
$DIMZIN
 70
     0
  9
$DIMBLK
  1

  9
$DIMASO
 70
     1
  9
$DIMSHO
 70
     1
  9
$DIMPOST
  1

  9
$DIMAPOST
  1

  9
$DIMALT
 70
     0
  9
$DIMALTD
 70
     2
  9
$DIMALTF
 40
25.4
  9
$DIMLFAC
 40
1.0
  9
$DIMTOFL
 70
     0
  9
$DIMTVP
 40
0.0
  9
$DIMTIX
 70
     0
  9
$DIMSOXD
 70
     0
  9
$DIMSAH
 70
     0
  9
$DIMBLK1
  1

  9
$DIMBLK2
  1

  9
$DIMSTYLE
  2
Standard
  9
$DIMCLRD
 70
     0
  9
$DIMCLRE
 70
     0
  9
$DIMCLRT
 70
     0
  9
$DIMTFAC
 40
1.0
  9
$DIMGAP
 40
0.09
  9
$DIMJUST
 70
     0
  9
$DIMSD1
 70
     0
  9
$DIMSD2
 70
     0
  9
$DIMTOLJ
 70
     1
  9
$DIMTZIN
 70
     0
  9
$DIMALTZ
 70
     0
  9
$DIMALTTZ
 70
     0
  9
$DIMUPT
 70
     0
  9
$DIMDEC
 70
     4
  9
$DIMTDEC
 70
     4
  9
$DIMALTU
 70
     2
  9
$DIMALTTD
 70
     2
  9
$DIMTXSTY
  7
Standard
  9
$DIMAUNIT
 70
     0
  9
$DIMADEC
 70
     0
  9
$DIMALTRND
 40
0.0
  9
$DIMAZIN
 70
     0
  9
$DIMDSEP
 70
    46
  9
$DIMATFIT
 70
     3
  9
$DIMFRAC
 70
     0
  9
$DIMLDRBLK
  1

  9
$DIMLUNIT
 70
     2
  9
$DIMLWD
 70
    -2
  9
$DIMLWE
 70
    -2
  9
$DIMTMOVE
 70
     0
  9
$LUNITS
 70
     2
  9
$LUPREC
 70
     4
  9
$SKETCHINC
 40
0.1
  9
$FILLETRAD
 40
0.5
  9
$AUNITS
 70
     0
  9
$AUPREC
 70
     0
  9
$MENU
  1
.
  9
$ELEVATION
 40
0.0
  9
$PELEVATION
 40
0.0
  9
$THICKNESS
 40
0.0
  9
$LIMCHECK
 70
     0
  9
$CHAMFERA
 40
0.5
  9
$CHAMFERB
 40
0.5
  9
$CHAMFERC
 40
1.0
  9
$CHAMFERD
 40
0.0
  9
$SKPOLY
 70
     0
  9
$TDCREATE
 40
2456365.482818796
  9
$TDUCREATE
 40
2456365.107818796
  9
$TDUPDATE
 40
2456365.482818808
  9
$TDUUPDATE
 40
2456365.107818808
  9
$TDINDWG
 40
0.0000000116
  9
$TDUSRTIMER
 40
0.0000000116
  9
$USRTIMER
 70
     1
  9
$ANGBASE
 50
0.0
  9
$ANGDIR
 70
     0
  9
$PDMODE
 70
     0
  9
$PDSIZE
 40
0.0
  9
$PLINEWID
 40
0.0
  9
$SPLFRAME
 70
     0
  9
$SPLINETYPE
 70
     6
  9
$SPLINESEGS
 70
     8
  9
$HANDSEED
  5
5C2
  9
$SURFTAB1
 70
     6
  9
$SURFTAB2
 70
     6
  9
$SURFTYPE
 70
     6
  9
$SURFU
 70
     6
  9
$SURFV
 70
     6
  9
$UCSBASE
  2

  9
$UCSNAME
  2

  9
$UCSORG
 10
0.0
 20
0.0
 30
0.0
  9
$UCSXDIR
 10
1.0
 20
0.0
 30
0.0
  9
$UCSYDIR
 10
0.0
 20
1.0
 30
0.0
  9
$UCSORTHOREF
  2

  9
$UCSORTHOVIEW
 70
     0
  9
$UCSORGTOP
 10
0.0
 20
0.0
 30
0.0
  9
$UCSORGBOTTOM
 10
0.0
 20
0.0
 30
0.0
  9
$UCSORGLEFT
 10
0.0
 20
0.0
 30
0.0
  9
$UCSORGRIGHT
 10
0.0
 20
0.0
 30
0.0
  9
$UCSORGFRONT
 10
0.0
 20
0.0
 30
0.0
  9
$UCSORGBACK
 10
0.0
 20
0.0
 30
0.0
  9
$PUCSBASE
  2

  9
$PUCSNAME
  2

  9
$PUCSORG
 10
0.0
 20
0.0
 30
0.0
  9
$PUCSXDIR
 10
1.0
 20
0.0
 30
0.0
  9
$PUCSYDIR
 10
0.0
 20
1.0
 30
0.0
  9
$PUCSORTHOREF
  2

  9
$PUCSORTHOVIEW
 70
     0
  9
$PUCSORGTOP
 10
0.0
 20
0.0
 30
0.0
  9
$PUCSORGBOTTOM
 10
0.0
 20
0.0
 30
0.0
  9
$PUCSORGLEFT
 10
0.0
 20
0.0
 30
0.0
  9
$PUCSORGRIGHT
 10
0.0
 20
0.0
 30
0.0
  9
$PUCSORGFRONT
 10
0.0
 20
0.0
 30
0.0
  9
$PUCSORGBACK
 10
0.0
 20
0.0
 30
0.0
  9
$USERI1
 70
     0
  9
$USERI2
 70
     0
  9
$USERI3
 70
     0
  9
$USERI4
 70
     0
  9
$USERI5
 70
     0
  9
$USERR1
 40
14.0
  9
$USERR2
 40
0.0
  9
$USERR3
 40
0.0
  9
$USERR4
 40
0.0
  9
$USERR5
 40
0.0
  9
$WORLDVIEW
 70
     1
  9
$SHADEDGE
 70
     3
  9
$SHADEDIF
 70
    70
  9
$TILEMODE
 70
     1
  9
$MAXACTVP
 70
    64
  9
$PINSBASE
 10
0.0
 20
0.0
 30
0.0
  9
$PLIMCHECK
 70
     0
  9
$PEXTMIN
 10
1.00000000000000E+20
 20
1.00000000000000E+20
 30
1.00000000000000E+20
  9
$PEXTMAX
 10
-1.00000000000000E+20
 20
-1.00000000000000E+20
 30
-1.00000000000000E+20
  9
$PLIMMIN
 10
0.0
 20
0.0
  9
$PLIMMAX
 10
12.0
 20
9.0
  9
$UNITMODE
 70
     0
  9
$VISRETAIN
 70
     1
  9
$PLINEGEN
 70
     0
  9
$PSLTSCALE
 70
     1
  9
$TREEDEPTH
 70
  3020
  9
$CMLSTYLE
  2
Standard
  9
$CMLJUST
 70
     0
  9
$CMLSCALE
 40
1.0
  9
$PROXYGRAPHICS
 70
     1
  9
$MEASUREMENT
 70
     1
  9
$CELWEIGHT
370
    -1
  9
$ENDCAPS
280
     0
  9
$JOINSTYLE
280
     0
  9
$LWDISPLAY
290
     0
  9
$INSUNITS
 70
     1
  9
$HYPERLINKBASE
  1

  9
$STYLESHEET
  1

  9
$XEDIT
290
     1
  9
$CEPSNTYPE
380
     0
  9
$PSTYLEMODE
290
     1
  9
$FINGERPRINTGUID
  2
{81C9D266-E29F-496D-B650-F360EE08C92E}
  9
$VERSIONGUID
  2
{FAEB1C32-E019-11D5-929B-00C0DF256EC4}
  9
$EXTNAMES
290
     1
  9
$PSVPSCALE
 40
0.0
  9
$OLESTARTUP
290
     0
  0
ENDSEC
  0
SECTION
  2
CLASSES
  0
CLASS
  1
ACDBDICTIONARYWDFLT
  2
AcDbDictionaryWithDefault
  3
ObjectDBX Classes
 90
        0
280
     0
281
     0
  0
CLASS
  1

  2
exOdDbCircle
  3

 90
        0
280
     0
281
     1
  0
CLASS
  1

  2
exOdDbSpline
  3

 90
        0
280
     0
281
     1
  0
CLASS
  1

  2
exOdDbPolyline
  3

 90
        0
280
     0
281
     1
  0
CLASS
  1
ACDBPLACEHOLDER
  2
AcDbPlaceHolder
  3
ObjectDBX Classes
 90
        0
280
     0
281
     0
  0
CLASS
  1
LAYOUT
  2
AcDbLayout
  3
ObjectDBX Classes
 90
        0
280
     0
281
     0
  0
ENDSEC
  0
SECTION
  2
TABLES
  0
TABLE
  2
VPORT
  5
8
330
0
100
AcDbSymbolTable
 70
     1
  0
VPORT
  5
29
330
8
100
AcDbSymbolTableRecord
100
AcDbViewportTableRecord
  2
*Active
 70
     0
 10
0.0
 20
0.0
 11
1.0
 21
1.0
 12
1182.0
 22
797.231540037133
 13
0.0
 23
0.0
 14
0.5
 24
0.5
 15
0.5
 25
0.5
 16
0.0
 26
0.0
 36
1.0
 17
0.0
 27
0.0
 37
0.0
 40
1783.690611918308
 41
1.60267857142857
 42
50.0
 43
0.0
 44
0.0
 50
0.0
 51
0.0
 71
     0
 72
   100
 73
     1
 74
     3
 75
     0
 76
     0
 77
     0
 78
     0
281
     0
 65
     1
110
0.0
120
0.0
130
0.0
111
1.0
121
0.0
131
0.0
112
0.0
122
1.0
132
0.0
 79
     0
146
0.0
  0
ENDTAB
  0
TABLE
  2
LTYPE
  5
5
330
0
100
AcDbSymbolTable
 70
     8
  0
LTYPE
  5
14
330
5
100
AcDbSymbolTableRecord
100
AcDbLinetypeTableRecord
  2
ByBlock
 70
     0
  3

 72
    65
 73
     0
 40
0.0
  0
LTYPE
  5
15
330
5
100
AcDbSymbolTableRecord
100
AcDbLinetypeTableRecord
  2
ByLayer
 70
     0
  3

 72
    65
 73
     0
 40
0.0
  0
LTYPE
  5
16
330
5
100
AcDbSymbolTableRecord
100
AcDbLinetypeTableRecord
  2
Continuous
 70
     0
  3
Solid line
 72
    65
 73
     0
 40
0.0
  0
LTYPE
  5
2A
330
5
100
AcDbSymbolTableRecord
100
AcDbLinetypeTableRecord
  2
DASHED
 70
     0
  3
Dashed
 72
    65
 73
     2
 40
15.0
 49
7.0
 74
     0
 49
-8.0
 74
     0
  0
LTYPE
  5
2B
330
5
100
AcDbSymbolTableRecord
100
AcDbLinetypeTableRecord
  2
DOTTED
 70
     0
  3
Dotted
 72
    65
 73
     2
 40
1.0
 49
0.0
 74
     0
 49
-1.0
 74
     0
  0
LTYPE
  5
2C
330
5
100
AcDbSymbolTableRecord
100
AcDbLinetypeTableRecord
  2
DOT_CENTER
 70
     0
  3
Dot_Center
 72
    65
 73
     4
 40
14.0
 49
12.0
 74
     0
 49
-1.0
 74
     0
 49
0.0
 74
     0
 49
-1.0
 74
     0
  0
LTYPE
  5
2D
330
5
100
AcDbSymbolTableRecord
100
AcDbLinetypeTableRecord
  2
LONG_DASHED
 70
     0
  3
Long_Dashed
 72
    65
 73
     2
 40
15.0
 49
10.0
 74
     0
 49
-5.0
 74
     0
  0
LTYPE
  5
2E
330
5
100
AcDbSymbolTableRecord
100
AcDbLinetypeTableRecord
  2
DASH_CENTER
 70
     0
  3
Dash_Center
 72
    65
 73
     4
 40
14.0
 49
11.0
 74
     0
 49
-1.0
 74
     0
 49
1.0
 74
     0
 49
-1.0
 74
     0
  0
LTYPE
  5
2F
330
5
100
AcDbSymbolTableRecord
100
AcDbLinetypeTableRecord
  2
PHANTOM
 70
     0
  3
Phantom
 72
    65
 73
     6
 40
13.0
 49
10.0
 74
     0
 49
-1.0
 74
     0
 49
0.0
 74
     0
 49
-1.0
 74
     0
 49
0.0
 74
     0
 49
-1.0
 74
     0
  0
LTYPE
  5
30
330
5
100
AcDbSymbolTableRecord
100
AcDbLinetypeTableRecord
  2
CENTER_DASH_DASH
 70
     0
  3
Center_Dash_Dash
 72
    65
 73
     6
 40
14.0
 49
9.0
 74
     0
 49
-1.0
 74
     0
 49
1.0
 74
     0
 49
-1.0
 74
     0
 49
1.0
 74
     0
 49
-1.0
 74
     0
  0
ENDTAB
  0
TABLE
  2
LAYER
  5
2
330
0
100
AcDbSymbolTable
 70
     2
  0
LAYER
  5
10
330
2
100
AcDbSymbolTableRecord
100
AcDbLayerTableRecord
  2
0
 70
     0
 62
     7
  6
Continuous
370
    -3
390
F
  0
LAYER
  5
31
330
2
100
AcDbSymbolTableRecord
100
AcDbLayerTableRecord
  2
1
 70
     0
 62
     7
  6
Continuous
370
    -3
390
F
  0
ENDTAB
  0
TABLE
  2
STYLE
  5
3
330
0
100
AcDbSymbolTable
 70
     6
  0
STYLE
  5
11
330
3
100
AcDbSymbolTableRecord
100
AcDbTextStyleTableRecord
  2
Standard
 70
     0
 40
0.0
 41
1.0
 50
0.0
 71
     0
 42
0.2
  3
txt
  4

  0
STYLE
  5
50
330
3
100
AcDbSymbolTableRecord
100
AcDbTextStyleTableRecord
  2
CONVERTER_1
 70
     0
 40
0.0
 41
0.9
 50
0.0
 71
     0
 42
0.2
  3
txt.shx
  4

  0
STYLE
  5
53
330
3
100
AcDbSymbolTableRecord
100
AcDbTextStyleTableRecord
  2
CONVERTER_2
 70
     0
 40
0.0
 41
1.068
 50
0.0
 71
     0
 42
0.2
  3
msmincho.ttc
  4

1001
ACAD
1000
MS Mincho
1071
    32785
  0
STYLE
  5
56
330
3
100
AcDbSymbolTableRecord
100
AcDbTextStyleTableRecord
  2
CONVERTER_3
 70
     0
 40
0.0
 41
0.89
 50
0.0
 71
     0
 42
0.2
  3
MSMINCHO.TTC
  4

1001
ACAD
1000
MS Mincho
1071
    32785
  0
STYLE
  5
59
330
3
100
AcDbSymbolTableRecord
100
AcDbTextStyleTableRecord
  2
CONVERTER_4
 70
     0
 40
0.0
 41
0.801
 50
0.0
 71
     0
 42
0.2
  3
MSMINCHO.TTC
  4

1001
ACAD
1000
MS Mincho
1071
    32785
  0
STYLE
  5
5D
330
3
100
AcDbSymbolTableRecord
100
AcDbTextStyleTableRecord
  2
CONVERTER_5
 70
     0
 40
0.0
 41
0.9025
 50
0.0
 71
     0
 42
0.2
  3
complex.shx
  4

  0
ENDTAB
  0
TABLE
  2
VIEW
  5
6
330
0
100
AcDbSymbolTable
 70
     0
  0
ENDTAB
  0
TABLE
  2
UCS
  5
7
330
0
100
AcDbSymbolTable
 70
     0
  0
ENDTAB
  0
TABLE
  2
APPID
  5
9
330
0
100
AcDbSymbolTable
 70
     1
  0
APPID
  5
12
330
9
100
AcDbSymbolTableRecord
100
AcDbRegAppTableRecord
  2
ACAD
 70
     0
  0
ENDTAB
  0
TABLE
  2
DIMSTYLE
  5
A
330
0
100
AcDbSymbolTable
 70
    19
100
AcDbDimStyleTable
  0
DIMSTYLE
105
27
330
A
100
AcDbSymbolTableRecord
100
AcDbDimStyleTableRecord
  2
Standard
 70
     0
340
11
  0
DIMSTYLE
105
4D5
102
{ACAD_REACTORS
330
4D6
102
}
330
A
100
AcDbSymbolTableRecord
100
AcDbDimStyleTableRecord
  2
ME10_DIM_0
 70
     0
 41
19.2
 42
6.0
 44
6.0
 73
     0
 74
     0
 77
     1
 78
     8
140
19.2
147
4.2
172
     1
173
     1
176
     2
177
     2
178
     2
271
     2
340
50
343
4CF
344
4CF
  0
DIMSTYLE
105
4E2
102
{ACAD_REACTORS
330
4E3
102
}
330
A
100
AcDbSymbolTableRecord
100
AcDbDimStyleTableRecord
  2
ME10_DIM_1
 70
     0
 41
19.2
 42
6.0
 44
6.0
 73
     0
 74
     0
 77
     1
 78
     8
140
19.2
147
4.2
172
     1
173
     1
176
     2
177
     2
178
     2
271
     2
340
50
343
4CF
344
4CF
  0
DIMSTYLE
105
4F0
102
{ACAD_REACTORS
330
4F1
102
}
330
A
100
AcDbSymbolTableRecord
100
AcDbDimStyleTableRecord
  2
ME10_DIM_2
 70
     0
  3
外径{\Fgdt;n}<>
 41
19.20000000000001
 42
6.0
 44
6.0
 73
     0
 74
     0
 77
     1
 78
     8
140
19.20000000000001
147
4.2
172
     1
173
     1
176
     2
177
     2
178
     2
271
     2
340
56
343
4CF
344
4CF
  0
DIMSTYLE
105
4FE
102
{ACAD_REACTORS
330
4FF
102
}
330
A
100
AcDbSymbolTableRecord
100
AcDbDimStyleTableRecord
  2
ME10_DIM_3
 70
     0
  3
内径{\Fgdt;n}<>
 41
19.20000000000001
 42
6.0
 44
6.0
 73
     0
 74
     0
 77
     1
 78
     8
140
19.20000000000001
147
4.2
172
     1
173
     1
176
     2
177
     2
178
     2
271
     2
340
56
343
4CF
344
4CF
  0
DIMSTYLE
105
50C
102
{ACAD_REACTORS
330
50D
102
}
330
A
100
AcDbSymbolTableRecord
100
AcDbDimStyleTableRecord
  2
ME10_DIM_4
 70
     0
  3
内径{\Fgdt;n}<>
 41
19.20000000000001
 42
6.0
 44
6.0
 73
     0
 74
     0
 77
     1
 78
     8
140
19.20000000000001
147
4.2
172
     1
173
     1
176
     2
177
     2
178
     2
271
     2
340
56
343
4CF
344
4CF
  0
DIMSTYLE
105
51A
102
{ACAD_REACTORS
330
51B
102
}
330
A
100
AcDbSymbolTableRecord
100
AcDbDimStyleTableRecord
  2
ME10_DIM_5
 70
     0
  3
外径{\Fgdt;n}<>
 41
19.20000000000001
 42
6.0
 44
6.0
 73
     0
 74
     0
 77
     1
 78
     8
140
19.20000000000001
147
4.2
172
     1
173
     1
176
     2
177
     2
178
     2
271
     2
340
56
343
4CF
344
4CF
  0
DIMSTYLE
105
527
102
{ACAD_REACTORS
330
528
102
}
330
A
100
AcDbSymbolTableRecord
100
AcDbDimStyleTableRecord
  2
ME10_DIM_6
 70
     0
  3
<>
 41
19.2
 42
6.0
 44
6.0
 73
     0
 74
     0
 77
     1
 78
     8
140
19.2
147
4.2
172
     1
173
     1
176
     2
177
     2
178
     2
271
     2
340
56
343
4CF
344
4CF
  0
DIMSTYLE
105
534
102
{ACAD_REACTORS
330
535
102
}
330
A
100
AcDbSymbolTableRecord
100
AcDbDimStyleTableRecord
  2
ME10_DIM_7
 70
     0
  3
<>
 41
19.2
 42
6.0
 44
6.0
 73
     0
 74
     0
 77
     1
 78
     8
140
19.2
147
4.2
172
     1
173
     1
176
     2
177
     2
178
     2
271
     2
340
56
343
4CF
344
4CF
  0
DIMSTYLE
105
543
102
{ACAD_REACTORS
330
544
102
}
330
A
100
AcDbSymbolTableRecord
100
AcDbDimStyleTableRecord
  2
ME10_DIM_8
 70
     0
  3
<>
 41
19.2
 42
6.0
 44
6.0
 73
     0
 74
     0
 77
     1
 78
     8
140
19.2
147
4.2
172
     1
173
     1
176
     2
177
     2
178
     2
271
     2
340
56
343
4CF
344
4CF
  0
DIMSTYLE
105
551
102
{ACAD_REACTORS
330
552
102
}
330
A
100
AcDbSymbolTableRecord
100
AcDbDimStyleTableRecord
  2
ME10_DIM_9
 70
     0
 41
19.2
 42
6.0
 44
6.0
 73
     0
 74
     0
 77
     1
 78
     8
140
19.2
147
4.2
172
     1
173
     1
176
     2
177
     2
178
     2
271
     2
340
56
343
4CF
344
4CF
  0
DIMSTYLE
105
55E
102
{ACAD_REACTORS
330
55F
102
}
330
A
100
AcDbSymbolTableRecord
100
AcDbDimStyleTableRecord
  2
ME10_DIM_10
 70
     0
  3
<>
 41
19.2
 42
6.0
 44
6.0
 73
     0
 74
     0
 77
     1
 78
     8
140
19.2
147
4.2
172
     1
173
     1
176
     2
177
     2
178
     2
271
     2
340
56
343
4CF
344
4CF
  0
DIMSTYLE
105
56B
102
{ACAD_REACTORS
330
56C
102
}
330
A
100
AcDbSymbolTableRecord
100
AcDbDimStyleTableRecord
  2
ME10_DIM_11
 70
     0
  3
<>
 41
19.2
 42
6.0
 44
6.0
 73
     0
 74
     0
 77
     1
 78
     8
140
19.2
147
4.2
172
     1
173
     1
176
     2
177
     2
178
     2
271
     2
340
56
343
4CF
344
4CF
  0
DIMSTYLE
105
579
102
{ACAD_REACTORS
330
57A
102
}
330
A
100
AcDbSymbolTableRecord
100
AcDbDimStyleTableRecord
  2
ME10_DIM_12
 70
     0
 41
19.2
 42
6.0
 44
6.0
 73
     0
 74
     0
 77
     1
 78
     8
140
19.2
147
4.2
172
     1
173
     1
176
     2
177
     2
178
     2
271
     2
340
56
343
4CF
344
4CF
  0
DIMSTYLE
105
588
102
{ACAD_REACTORS
330
589
102
}
330
A
100
AcDbSymbolTableRecord
100
AcDbDimStyleTableRecord
  2
ME10_DIM_13
 70
     0
  3
<>
 41
19.2
 42
6.0
 44
6.0
 73
     0
 74
     0
 77
     1
 78
     8
140
19.2
147
4.2
172
     1
173
     1
176
     2
177
     2
178
     2
271
     2
340
56
343
4CF
344
4CF
  0
DIMSTYLE
105
595
102
{ACAD_REACTORS
330
596
102
}
330
A
100
AcDbSymbolTableRecord
100
AcDbDimStyleTableRecord
  2
ME10_DIM_14
 70
     0
  3
<>
 41
19.2
 42
6.0
 44
6.0
 73
     0
 74
     0
 77
     1
 78
     8
140
19.2
147
4.2
172
     1
173
     1
176
     2
177
     2
178
     2
271
     2
340
56
343
4CF
344
4CF
  0
DIMSTYLE
105
5A2
102
{ACAD_REACTORS
330
5A3
102
}
330
A
100
AcDbSymbolTableRecord
100
AcDbDimStyleTableRecord
  2
ME10_DIM_15
 70
     0
  3
<>
 41
19.2
 42
6.0
 44
6.0
 73
     0
 74
     0
 77
     1
 78
     8
140
19.2
147
4.2
172
     1
173
     1
176
     2
177
     2
178
     2
271
     2
340
56
343
4CF
344
4CF
  0
DIMSTYLE
105
5B1
102
{ACAD_REACTORS
330
5B2
102
}
330
A
100
AcDbSymbolTableRecord
100
AcDbDimStyleTableRecord
  2
ME10_DIM_16
 70
     0
 41
19.2
 42
6.0
 44
6.0
 73
     0
 74
     0
 77
     1
 78
     8
140
19.2
147
4.2
172
     1
173
     1
176
     2
177
     2
178
     2
271
     2
340
56
343
4CF
344
4CF
  0
DIMSTYLE
105
5C0
102
{ACAD_REACTORS
330
5C1
102
}
330
A
100
AcDbSymbolTableRecord
100
AcDbDimStyleTableRecord
  2
ME10_DIM_17
 70
     0
 41
19.2
 42
6.0
 44
6.0
 73
     0
 74
     0
 77
     1
 78
     8
140
19.2
147
4.2
172
     1
173
     1
176
     2
177
     2
178
     2
271
     2
340
56
343
4CF
344
4CF
  0
ENDTAB
  0
TABLE
  2
BLOCK_RECORD
  5
1
330
0
100
AcDbSymbolTable
 70
    21
  0
BLOCK_RECORD
  5
1F
330
1
100
AcDbSymbolTableRecord
100
AcDbBlockTableRecord
  2
*Model_Space
340
22
  0
BLOCK_RECORD
  5
1B
330
1
100
AcDbSymbolTableRecord
100
AcDbBlockTableRecord
  2
*Paper_Space
340
1E
  0
BLOCK_RECORD
  5
23
330
1
100
AcDbSymbolTableRecord
100
AcDbBlockTableRecord
  2
*Paper_Space0
340
26
  0
BLOCK_RECORD
  5
32
330
1
100
AcDbSymbolTableRecord
100
AcDbBlockTableRecord
  2
Zuwaku-A3-web
340
0
102
{BLKREFS
331
35
102
}
  0
BLOCK_RECORD
  5
4C4
330
1
100
AcDbSymbolTableRecord
100
AcDbBlockTableRecord
  2
*D02
340
0
  0
BLOCK_RECORD
  5
4CF
330
1
100
AcDbSymbolTableRecord
100
AcDbBlockTableRecord
  2
_Open30
340
0
  0
BLOCK_RECORD
  5
4D7
330
1
100
AcDbSymbolTableRecord
100
AcDbBlockTableRecord
  2
*D14
340
0
  0
BLOCK_RECORD
  5
4E4
330
1
100
AcDbSymbolTableRecord
100
AcDbBlockTableRecord
  2
*D25
340
0
  0
BLOCK_RECORD
  5
4F2
330
1
100
AcDbSymbolTableRecord
100
AcDbBlockTableRecord
  2
*D36
340
0
  0
BLOCK_RECORD
  5
500
330
1
100
AcDbSymbolTableRecord
100
AcDbBlockTableRecord
  2
*D47
340
0
  0
BLOCK_RECORD
  5
50E
330
1
100
AcDbSymbolTableRecord
100
AcDbBlockTableRecord
  2
*D58
340
0
  0
BLOCK_RECORD
  5
51C
330
1
100
AcDbSymbolTableRecord
100
AcDbBlockTableRecord
  2
*D69
340
0
  0
BLOCK_RECORD
  5
529
330
1
100
AcDbSymbolTableRecord
100
AcDbBlockTableRecord
  2
*D710
340
0
  0
BLOCK_RECORD
  5
536
330
1
100
AcDbSymbolTableRecord
100
AcDbBlockTableRecord
  2
*D811
340
0
  0
BLOCK_RECORD
  5
545
330
1
100
AcDbSymbolTableRecord
100
AcDbBlockTableRecord
  2
*D912
340
0
  0
BLOCK_RECORD
  5
553
330
1
100
AcDbSymbolTableRecord
100
AcDbBlockTableRecord
  2
*D1013
340
0
  0
BLOCK_RECORD
  5
560
330
1
100
AcDbSymbolTableRecord
100
AcDbBlockTableRecord
  2
*D1114
340
0
  0
BLOCK_RECORD
  5
56D
330
1
100
AcDbSymbolTableRecord
100
AcDbBlockTableRecord
  2
*D1215
340
0
  0
BLOCK_RECORD
  5
57B
330
1
100
AcDbSymbolTableRecord
100
AcDbBlockTableRecord
  2
*D1316
340
0
  0
BLOCK_RECORD
  5
58A
330
1
100
AcDbSymbolTableRecord
100
AcDbBlockTableRecord
  2
*D1417
340
0
  0
BLOCK_RECORD
  5
597
330
1
100
AcDbSymbolTableRecord
100
AcDbBlockTableRecord
  2
*D1518
340
0
  0
BLOCK_RECORD
  5
5A4
330
1
100
AcDbSymbolTableRecord
100
AcDbBlockTableRecord
  2
*D1619
340
0
  0
BLOCK_RECORD
  5
5B3
330
1
100
AcDbSymbolTableRecord
100
AcDbBlockTableRecord
  2
*D1720
340
0
  0
ENDTAB
  0
ENDSEC
  0
SECTION
  2
BLOCKS
  0
BLOCK
  5
20
330
1F
100
AcDbEntity
  8
0
100
AcDbBlockBegin
  2
*Model_Space
 70
     0
 71
     0
 10
0.0
 20
0.0
 30
0.0
  3
*Model_Space
  1

  0
ENDBLK
  5
21
330
1F
100
AcDbEntity
  8
0
100
AcDbBlockEnd
  0
BLOCK
  5
1C
330
1B
100
AcDbEntity
 67
     1
  8
0
100
AcDbBlockBegin
  2
*Paper_Space
 70
     0
 71
     0
 10
0.0
 20
0.0
 30
0.0
  3
*Paper_Space
  1

  0
ENDBLK
  5
1D
330
1B
100
AcDbEntity
 67
     1
  8
0
100
AcDbBlockEnd
  0
BLOCK
  5
24
330
23
100
AcDbEntity
  8
0
100
AcDbBlockBegin
  2
*Paper_Space0
 70
     0
 71
     0
 10
0.0
 20
0.0
 30
0.0
  3
*Paper_Space0
  1

  0
ENDBLK
  5
25
330
23
100
AcDbEntity
  8
0
100
AcDbBlockEnd
  0
BLOCK
  5
33
330
32
100
AcDbEntity
  8
0
100
AcDbBlockBegin
  2
Zuwaku-A3-web
 70
     0
 71
     0
 10
196.9999999999998
 20
134.0
 30
0.0
  3
Zuwaku-A3-web
  1

  0
POINT
  5
36
330
32
100
AcDbEntity
  8
1
 62
     3
 60
     1
100
AcDbPoint
 10
162.5
 20
20.0
 30
0.0
  0
POINT
  5
37
330
32
100
AcDbEntity
  8
1
 62
     3
 60
     1
100
AcDbPoint
 10
202.0
 20
15.0
 30
0.0
  0
POINT
  5
38
330
32
100
AcDbEntity
  8
1
 62
     3
 60
     1
100
AcDbPoint
 10
162.5
 20
15.0
 30
0.0
  0
POINT
  5
39
330
32
100
AcDbEntity
  8
1
 62
     3
 60
     1
100
AcDbPoint
 10
9.5
 20
12.5
 30
0.0
  0
POINT
  5
3A
330
32
100
AcDbEntity
  8
1
 62
     3
 60
     1
100
AcDbPoint
 10
2.5
 20
12.5
 30
0.0
  0
POINT
  5
3B
330
32
100
AcDbEntity
  8
1
 62
     3
 60
     1
100
AcDbPoint
 10
0.0
 20
0.0
 30
0.0
  0
LINE
  5
3C
330
32
100
AcDbEntity
  8
1
  6
Continuous
 62
     4
100
AcDbLine
 10
189.4945771572093
 20
2.13397584248199
 30
0.0
 11
195.2266254722454
 21
7.866024157518
 31
0.0
  0
LINE
  5
3D
330
32
100
AcDbEntity
  8
1
  6
Continuous
 62
     7
100
AcDbLine
 10
0.0
 20
0.0
 30
0.0
 11
394.0
 21
0.0
 31
0.0
  0
LINE
  5
3E
330
32
100
AcDbEntity
  8
1
  6
Continuous
 62
     4
100
AcDbLine
 10
162.5
 20
15.0
 30
0.0
 11
202.0
 21
15.0
 31
0.0
  0
LINE
  5
3F
330
32
100
AcDbEntity
  8
1
  6
Continuous
 62
     3
100
AcDbLine
 10
9.5
 20
12.5
 30
0.0
 11
6.0
 21
19.0
 31
0.0
  0
LINE
  5
40
330
32
100
AcDbEntity
  8
1
  6
Continuous
 62
     3
100
AcDbLine
 10
2.5
 20
12.5
 30
0.0
 11
9.5
 21
12.5
 31
0.0
  0
LINE
  5
41
330
32
100
AcDbEntity
  8
1
  6
Continuous
 62
     3
100
AcDbLine
 10
6.0
 20
19.0
 30
0.0
 11
2.5
 21
12.5
 31
0.0
  0
LINE
  5
42
330
32
100
AcDbEntity
  8
1
  6
Continuous
 62
     4
100
AcDbLine
 10
12.0
 20
20.0
 30
0.0
 11
12.0
 21
0.0
 31
0.0
  0
LINE
  5
43
330
32
100
AcDbEntity
  8
1
  6
Continuous
 62
     4
100
AcDbLine
 10
0.0
 20
10.0
 30
0.0
 11
394.0
 21
10.0
 31
0.0
  0
LINE
  5
44
330
32
100
AcDbEntity
  8
1
  6
Continuous
 62
     7
100
AcDbLine
 10
393.9999999999997
 20
268.0
 30
0.0
 11
0.0
 21
268.0
 31
0.0
  0
LINE
  5
45
330
32
100
AcDbEntity
  8
1
  6
Continuous
 62
     7
100
AcDbLine
 10
394.0
 20
0.0
 30
0.0
 11
393.9999999999997
 21
268.0
 31
0.0
  0
LINE
  5
46
330
32
100
AcDbEntity
  8
1
  6
Continuous
 62
     4
100
AcDbLine
 10
202.0
 20
0.0
 30
0.0
 11
202.0
 21
20.0
 31
0.0
  0
LINE
  5
47
330
32
100
AcDbEntity
  8
1
  6
Continuous
 62
     4
100
AcDbLine
 10
162.5
 20
0.0
 30
0.0
 11
162.5
 21
20.0
 31
0.0
  0
LINE
  5
48
330
32
100
AcDbEntity
  8
1
  6
Continuous
 62
     4
100
AcDbLine
 10
283.0
 20
20.0
 30
0.0
 11
283.0
 21
0.0
 31
0.0
  0
LINE
  5
49
330
32
100
AcDbEntity
  8
1
  6
Continuous
 62
     4
100
AcDbLine
 10
227.0
 20
20.0
 30
0.0
 11
227.0
 21
0.0
 31
0.0
  0
LINE
  5
4A
330
32
100
AcDbEntity
  8
1
  6
Continuous
 62
     4
100
AcDbLine
 10
170.5
 20
10.0
 30
0.0
 11
170.5
 21
0.0
 31
0.0
  0
LINE
  5
4B
330
32
100
AcDbEntity
  8
1
  6
Continuous
 62
     4
100
AcDbLine
 10
66.0
 20
20.0
 30
0.0
 11
66.0
 21
0.0
 31
0.0
  0
LINE
  5
4C
330
32
100
AcDbEntity
  8
1
  6
Continuous
 62
     7
100
AcDbLine
 10
0.0
 20
268.0
 30
0.0
 11
0.0
 21
0.0
 31
0.0
  0
LINE
  5
4D
330
32
100
AcDbEntity
  8
1
  6
Continuous
 62
     4
100
AcDbLine
 10
173.7445771572093
 20
2.13397584248199
 30
0.0
 11
179.4766254722454
 21
7.866024157518
 31
0.0
  0
LINE
  5
4E
330
32
100
AcDbEntity
  8
1
  6
Continuous
 62
     4
100
AcDbLine
 10
394.0
 20
20.0
 30
0.0
 11
0.0
 21
20.0
 31
0.0
  0
LINE
  5
4F
330
32
100
AcDbEntity
  8
1
  6
Continuous
 62
     4
100
AcDbLine
 10
295.0
 20
20.0
 30
0.0
 11
295.0
 21
0.0
 31
0.0
  0
MTEXT
  5
51
330
32
100
AcDbEntity
  8
1
 62
     2
100
AcDbMText
 10
180.9766254722454
 20
3.75
 30
0.0
 40
4.0
 41
0.0
 71
     5
 72
     1
  1
6
  7
CONVERTER_1
 73
     1
 44
0.60024009603842
  0
MTEXT
  5
52
330
32
100
AcDbEntity
  8
1
 62
     2
100
AcDbMText
 10
173.183432867907
 20
6.25
 30
0.0
 40
4.0
 41
0.0
 71
     5
 72
     1
  1
1
  7
CONVERTER_1
 73
     1
 44
0.60024009603842
  0
MTEXT
  5
54
330
32
100
AcDbEntity
  8
1
 62
     2
100
AcDbMText
 10
289.0
 20
2.75
 30
0.0
 40
3.5
 41
0.0
 71
     5
 72
     1
  1
番号
  7
CONVERTER_2
 73
     1
 44
0.78031212484994
  0
MTEXT
  5
55
330
32
100
AcDbEntity
  8
1
 62
     2
100
AcDbMText
 10
166.5
 20
2.75
 30
0.0
 40
3.5
 41
0.0
 71
     5
 72
     1
  1
度
  7
CONVERTER_2
 73
     1
 44
0.78031212484994
  0
MTEXT
  5
57
330
32
100
AcDbEntity
  8
1
 62
     2
100
AcDbMText
 10
5.67807803017169
 20
2.75
 30
0.0
 40
3.5
 41
0.0
 71
     5
 72
     1
  1
番号
  7
CONVERTER_3
 73
     1
 44
0.78031212484994
  0
MTEXT
  5
58
330
32
100
AcDbEntity
  8
1
 62
     7
100
AcDbMText
 10
114.25
 20
15.0
 30
0.0
 40
5.0
 41
0.0
 71
     5
 72
     1
  1
技術情報サービス
  7
CONVERTER_3
 73
     1
 44
1.20048019207683
  0
MTEXT
  5
5A
330
32
100
AcDbEntity
  8
1
 62
     2
100
AcDbMText
 10
214.5
 20
15.0
 30
0.0
 40
4.0
 41
0.0
 71
     5
 72
     1
  1
シリーズ名
  7
CONVERTER_4
 73
     1
 44
1.32052821128451
  0
MTEXT
  5
5B
330
32
100
AcDbEntity
  8
1
 62
     2
100
AcDbMText
 10
214.5
 20
5.0
 30
0.0
 40
4.0
 41
0.0
 71
     5
 72
     1
  1
機　種
  7
CONVERTER_3
 73
     1
 44
1.32052821128451
  0
MTEXT
  5
5C
330
32
100
AcDbEntity
  8
1
 62
     2
100
AcDbMText
 10
189.75
 20
6.5
 30
0.0
 40
4.0
 41
0.0
 71
     5
 72
     1
  1
1
  7
CONVERTER_1
 73
     1
 44
1.32052821128451
  0
MTEXT
  5
5E
330
32
100
AcDbEntity
  8
1
 62
     7
100
AcDbMText
 10
114.25
 20
5.0
 30
0.0
 40
4.0
 41
0.0
 71
     5
 72
     1
  1
MARUYASU KIKAI CO.,LTD.
  7
CONVERTER_5
 73
     1
 44
1.32052821128451
  0
MTEXT
  5
5F
330
32
100
AcDbEntity
  8
1
 62
     2
100
AcDbMText
 10
6.0
 20
7.25
 30
0.0
 40
3.5
 41
0.0
 71
     5
 72
     1
  1
改訂
  7
CONVERTER_3
 73
     1
 44
0.78031212484994
  0
MTEXT
  5
60
330
32
100
AcDbEntity
  8
1
 62
     2
100
AcDbMText
 10
39.0
 20
5.0
 30
0.0
 40
3.5
 41
0.0
 71
     5
 72
     1
  1
改　 訂　 記　 事
  7
CONVERTER_3
 73
     1
 44
1.32052821128451
  0
MTEXT
  5
61
330
32
100
AcDbEntity
  8
1
 62
     2
100
AcDbMText
 10
166.5
 20
7.25
 30
0.0
 40
3.5
 41
0.0
 71
     5
 72
     1
  1
尺
  7
CONVERTER_2
 73
     1
 44
0.78031212484994
  0
MTEXT
  5
62
330
32
100
AcDbEntity
  8
1
 62
     2
100
AcDbMText
 10
182.25
 20
17.5
 30
0.0
 40
3.5
 41
0.0
 71
     5
 72
     1
  1
年　　月　　日
  7
CONVERTER_3
 73
     1
 44
0.78031212484994
  0
MTEXT
  5
63
330
32
100
AcDbEntity
  8
1
 62
     2
100
AcDbMText
 10
289.0
 20
7.25
 30
0.0
 40
3.5
 41
0.0
 71
     5
 72
     1
  1
図面
  7
CONVERTER_2
 73
     1
 44
0.78031212484994
  0
MTEXT
  5
64
330
32
100
AcDbEntity
  8
1
 62
     2
100
AcDbMText
 10
289.0
 20
15.0
 30
0.0
 40
4.0
 41
0.0
 71
     5
 72
     1
  1
図名
  7
CONVERTER_3
 73
     1
 44
1.32052821128451
  0
MTEXT
  5
65
330
32
100
AcDbEntity
  8
1
 62
     4
100
AcDbMText
 10
393.4565543923691
 20
-0.25615332095569
 30
0.0
 40
2.0
 41
0.0
 71
     3
 72
     1
  1
A3
  7
CONVERTER_1
 73
     1
 44
1.32052821128451
  0
ENDBLK
  5
34
330
32
100
AcDbEntity
  8
0
100
AcDbBlockEnd
  0
BLOCK
  5
4CD
330
4C4
100
AcDbEntity
  8
0
100
AcDbBlockBegin
  2
*D02
 70
     1
 71
     0
 10
0.0
 20
0.0
 30
0.0
  3
*D02
  1

  0
LINE
  5
4C5
330
4C4
100
AcDbEntity
  8
1
  6
Continuous
 62
     2
100
AcDbLine
 10
2017.606530154681
 20
963.2311057375616
 30
0.0
 11
1970.106530154638
 21
1045.503519097055
 31
0.0
  0
LINE
  5
4C6
330
4C4
100
AcDbEntity
  8
1
  6
Continuous
 62
     2
100
AcDbLine
 10
1798.358722900635
 20
946.3448763461046
 30
0.0
 11
1975.302682577343
 21
1048.503519097057
 31
0.0
  0
LINE
  5
4C7
330
4C4
100
AcDbEntity
  8
1
  6
Continuous
 62
     2
100
AcDbLine
 10
1837.198468862827
 20
859.0724629866015
 30
0.0
 11
2022.802682577385
 21
966.2311057375645
 31
0.0
  0
LINE
  5
4C8
330
4C4
100
AcDbEntity
  8
1
 62
     2
100
AcDbLine
 10
2017.606530154681
 20
963.2311057375616
 30
0.0
 11
2003.551154649351
 21
977.2864812428768
 31
0.0
  0
LINE
  5
4C9
330
4C4
100
AcDbEntity
  8
1
 62
     2
100
AcDbLine
 10
2017.606530154681
 20
963.2311057375616
 30
0.0
 11
2012.461905659993
 21
982.4311057375589
 31
0.0
  0
LINE
  5
4CA
330
4C4
100
AcDbEntity
  8
1
 62
     2
100
AcDbLine
 10
1970.106530154638
 20
1045.503519097055
 30
0.0
 11
1984.161905659968
 21
1031.44814359174
 31
0.0
  0
LINE
  5
4CB
330
4C4
100
AcDbEntity
  8
1
 62
     2
100
AcDbLine
 10
1970.106530154638
 20
1045.503519097055
 30
0.0
 11
1975.251154649326
 21
1026.303519097058
 31
0.0
  0
MTEXT
  5
4CC
330
4C4
100
AcDbEntity
  8
1
 62
     2
100
AcDbMText
 10
1987.964450363756
 20
1028.732693977375
 30
0.0
 40
19.2
 41
0.0
 71
     7
 72
     1
  1
95
  7
CONVERTER_1
 11
0.5000000000004691
 21
-0.8660254037841678
 31
0.0
 73
     1
 44
0.60024009603842
  0
ENDBLK
  5
4CE
330
4C4
100
AcDbEntity
  8
0
100
AcDbBlockEnd
  0
BLOCK
  5
4D0
330
4CF
100
AcDbEntity
  8
0
100
AcDbBlockBegin
  2
_Open30
 70
     0
 71
     0
 10
0.0
 20
0.0
 30
0.0
  3
_Open30
  1

  0
LINE
  5
4D2
330
4CF
100
AcDbEntity
  8
0
  6
ByBlock
 62
     0
370
    -2
100
AcDbLine
 10
-1.0
 20
0.267949
 30
0.0
 11
0.0
 21
0.0
 31
0.0
  0
LINE
  5
4D3
330
4CF
100
AcDbEntity
  8
0
  6
ByBlock
 62
     0
370
    -2
100
AcDbLine
 10
0.0
 20
0.0
 30
0.0
 11
-1.0
 21
-0.267949
 31
0.0
  0
LINE
  5
4D4
330
4CF
100
AcDbEntity
  8
0
  6
ByBlock
 62
     0
370
    -2
100
AcDbLine
 10
0.0
 20
0.0
 30
0.0
 11
-1.0
 21
0.0
 31
0.0
  0
ENDBLK
  5
4D1
330
4CF
100
AcDbEntity
  8
0
100
AcDbBlockEnd
  0
BLOCK
  5
4E0
330
4D7
100
AcDbEntity
  8
0
100
AcDbBlockBegin
  2
*D14
 70
     1
 71
     0
 10
0.0
 20
0.0
 30
0.0
  3
*D14
  1

  0
LINE
  5
4D8
330
4D7
100
AcDbEntity
  8
1
  6
Continuous
 62
     2
100
AcDbLine
 10
825.259615699169
 20
973.5352078794755
 30
0.0
 11
777.7594855474194
 21
1055.807546095743
 31
0.0
  0
LINE
  5
4D9
330
4D7
100
AcDbEntity
  8
1
  6
Continuous
 62
     2
100
AcDbLine
 10
588.1651699645981
 20
946.344817048918
 30
0.0
 11
782.9556332242346
 21
1058.807554315853
 31
0.0
  0
LINE
  5
4DA
330
4D7
100
AcDbEntity
  8
1
  6
Continuous
 62
     2
100
AcDbLine
 10
627.0050539883287
 20
859.0724651324713
 30
0.0
 11
830.4557633759846
 21
976.5352160995852
 31
0.0
  0
LINE
  5
4DB
330
4D7
100
AcDbEntity
  8
1
 62
     2
100
AcDbLine
 10
825.259615699169
 20
973.5352078794755
 30
0.0
 11
811.2042179588005
 21
987.5905611497167
 31
0.0
  0
LINE
  5
4DC
330
4D7
100
AcDbEntity
  8
1
 62
     2
100
AcDbLine
 10
825.259615699169
 20
973.5352078794755
 30
0.0
 11
820.1149608308361
 21
992.7351997408533
 31
0.0
  0
LINE
  5
4DD
330
4D7
100
AcDbEntity
  8
1
 62
     2
100
AcDbLine
 10
777.7594855474194
 20
1055.807546095743
 30
0.0
 11
791.8148832877871
 21
1041.752192825501
 31
0.0
  0
LINE
  5
4DE
330
4D7
100
AcDbEntity
  8
1
 62
     2
100
AcDbLine
 10
777.7594855474194
 20
1055.807546095743
 30
0.0
 11
782.9041404157513
 21
1036.607554234365
 31
0.0
  0
MTEXT
  5
4DF
330
4D7
100
AcDbEntity
  8
1
 62
     2
100
AcDbMText
 10
796.3669280971951
 20
1037.738589146514
 30
0.0
 40
19.2
 41
0.0
 71
     7
 72
     1
  1
95
  7
CONVERTER_1
 11
0.5000013700182757
 21
-0.8660246128025735
 31
0.0
 73
     1
 44
0.60024009603842
  0
ENDBLK
  5
4E1
330
4D7
100
AcDbEntity
  8
0
100
AcDbBlockEnd
  0
BLOCK
  5
4EE
330
4E4
100
AcDbEntity
  8
0
100
AcDbBlockBegin
  2
*D25
 70
     1
 71
     0
 10
0.0
 20
0.0
 30
0.0
  3
*D25
  1

  0
LINE
  5
4E5
330
4E4
100
AcDbEntity
  8
1
  6
Continuous
 62
     2
100
AcDbLine
 10
235.3012301953513
 20
1264.467673583299
 30
0.0
 11
235.3012301953513
 21
1368.232752517117
 31
0.0
  0
LINE
  5
4E6
330
4E4
100
AcDbEntity
  8
1
  6
Continuous
 62
     2
100
AcDbLine
 10
235.3012301953513
 20
1368.232752517117
 30
0.0
 11
235.3012301953513
 21
1428.232752517117
 31
0.0
  0
LINE
  5
4E7
330
4E4
100
AcDbEntity
  8
1
  6
Continuous
 62
     2
100
AcDbLine
 10
334.6998409711041
 20
1428.232752517117
 30
0.0
 11
229.3012301953513
 21
1428.232752517117
 31
0.0
  0
LINE
  5
4E8
330
4E4
100
AcDbEntity
  8
1
  6
Continuous
 62
     2
100
AcDbLine
 10
334.6998409711041
 20
1368.232752517117
 30
0.0
 11
229.3012301953513
 21
1368.232752517117
 31
0.0
  0
LINE
  5
4E9
330
4E4
100
AcDbEntity
  8
1
 62
     2
100
AcDbLine
 10
235.3012301953513
 20
1368.232752517117
 30
0.0
 11
230.1566057006737
 21
1387.432752517117
 31
0.0
  0
LINE
  5
4EA
330
4E4
100
AcDbEntity
  8
1
 62
     2
100
AcDbLine
 10
235.3012301953513
 20
1368.232752517117
 30
0.0
 11
240.4458546900289
 21
1387.432752517117
 31
0.0
  0
LINE
  5
4EB
330
4E4
100
AcDbEntity
  8
1
 62
     2
100
AcDbLine
 10
235.3012301953513
 20
1428.232752517117
 30
0.0
 11
240.4458546900288
 21
1409.032752517117
 31
0.0
  0
LINE
  5
4EC
330
4E4
100
AcDbEntity
  8
1
 62
     2
100
AcDbLine
 10
235.3012301953513
 20
1428.232752517117
 30
0.0
 11
230.1566057006737
 21
1409.032752517117
 31
0.0
  0
MTEXT
  5
4ED
330
4E4
100
AcDbEntity
  8
1
 62
     2
100
AcDbMText
 10
228.2212301953515
 20
1247.187673583299
 30
0.0
 40
19.20000000000001
 41
0.0
 71
     7
 72
     1
  1
\C2;外径{\Fgdt;n}\C2;60
  7
CONVERTER_3
 11
0.0
 21
1.0
 31
0.0
 73
     1
 44
0.60024009603842
  0
ENDBLK
  5
4EF
330
4E4
100
AcDbEntity
  8
0
100
AcDbBlockEnd
  0
BLOCK
  5
4FC
330
4F2
100
AcDbEntity
  8
0
100
AcDbBlockBegin
  2
*D36
 70
     1
 71
     0
 10
0.0
 20
0.0
 30
0.0
  3
*D36
  1

  0
LINE
  5
4F3
330
4F2
100
AcDbEntity
  8
1
  6
Continuous
 62
     2
100
AcDbLine
 10
282.2083092512308
 20
1262.68079378202
 30
0.0
 11
282.2083092512308
 21
1371.232752517117
 31
0.0
  0
LINE
  5
4F4
330
4F2
100
AcDbEntity
  8
1
  6
Continuous
 62
     2
100
AcDbLine
 10
282.2083092512308
 20
1371.232752517117
 30
0.0
 11
282.2083092512308
 21
1425.232752517117
 31
0.0
  0
LINE
  5
4F5
330
4F2
100
AcDbEntity
  8
1
  6
Continuous
 62
     2
100
AcDbLine
 10
334.6998409711037
 20
1425.232752517117
 30
0.0
 11
276.2083092512308
 21
1425.232752517117
 31
0.0
  0
LINE
  5
4F6
330
4F2
100
AcDbEntity
  8
1
  6
Continuous
 62
     2
100
AcDbLine
 10
334.6998409711037
 20
1371.232752517117
 30
0.0
 11
276.2083092512308
 21
1371.232752517117
 31
0.0
  0
LINE
  5
4F7
330
4F2
100
AcDbEntity
  8
1
 62
     2
100
AcDbLine
 10
282.2083092512308
 20
1371.232752517117
 30
0.0
 11
277.0636847565532
 21
1390.432752517117
 31
0.0
  0
LINE
  5
4F8
330
4F2
100
AcDbEntity
  8
1
 62
     2
100
AcDbLine
 10
282.2083092512308
 20
1371.232752517117
 30
0.0
 11
287.3529337459083
 21
1390.432752517117
 31
0.0
  0
LINE
  5
4F9
330
4F2
100
AcDbEntity
  8
1
 62
     2
100
AcDbLine
 10
282.2083092512308
 20
1425.232752517117
 30
0.0
 11
287.3529337459083
 21
1406.032752517117
 31
0.0
  0
LINE
  5
4FA
330
4F2
100
AcDbEntity
  8
1
 62
     2
100
AcDbLine
 10
282.2083092512308
 20
1425.232752517117
 30
0.0
 11
277.0636847565532
 21
1406.032752517117
 31
0.0
  0
MTEXT
  5
4FB
330
4F2
100
AcDbEntity
  8
1
 62
     2
100
AcDbMText
 10
278.0083092512306
 20
1245.40079378202
 30
0.0
 40
19.20000000000001
 41
0.0
 71
     7
 72
     1
  1
\C2;内径{\Fgdt;n}\C2;54
  7
CONVERTER_3
 11
0.0
 21
1.0
 31
0.0
 73
     1
 44
0.60024009603842
  0
ENDBLK
  5
4FD
330
4F2
100
AcDbEntity
  8
0
100
AcDbBlockEnd
  0
BLOCK
  5
50A
330
500
100
AcDbEntity
  8
0
100
AcDbBlockBegin
  2
*D47
 70
     1
 71
     0
 10
0.0
 20
0.0
 30
0.0
  3
*D47
  1

  0
LINE
  5
501
330
500
100
AcDbEntity
  8
1
  6
Continuous
 62
     2
100
AcDbLine
 10
1400.904000572987
 20
1260.859629727219
 30
0.0
 11
1400.904000572987
 21
1371.232752517117
 31
0.0
  0
LINE
  5
502
330
500
100
AcDbEntity
  8
1
  6
Continuous
 62
     2
100
AcDbLine
 10
1400.904000572987
 20
1371.232752517117
 30
0.0
 11
1400.904000572987
 21
1425.232752517117
 31
0.0
  0
LINE
  5
503
330
500
100
AcDbEntity
  8
1
  6
Continuous
 62
     2
100
AcDbLine
 10
1444.893332591509
 20
1425.232752517117
 30
0.0
 11
1394.904000572987
 21
1425.232752517117
 31
0.0
  0
LINE
  5
504
330
500
100
AcDbEntity
  8
1
  6
Continuous
 62
     2
100
AcDbLine
 10
1444.893332591509
 20
1371.232752517117
 30
0.0
 11
1394.904000572987
 21
1371.232752517117
 31
0.0
  0
LINE
  5
505
330
500
100
AcDbEntity
  8
1
 62
     2
100
AcDbLine
 10
1400.904000572987
 20
1371.232752517117
 30
0.0
 11
1395.75937607831
 21
1390.432752517117
 31
0.0
  0
LINE
  5
506
330
500
100
AcDbEntity
  8
1
 62
     2
100
AcDbLine
 10
1400.904000572987
 20
1371.232752517117
 30
0.0
 11
1406.048625067665
 21
1390.432752517117
 31
0.0
  0
LINE
  5
507
330
500
100
AcDbEntity
  8
1
 62
     2
100
AcDbLine
 10
1400.904000572987
 20
1425.232752517117
 30
0.0
 11
1406.048625067665
 21
1406.032752517117
 31
0.0
  0
LINE
  5
508
330
500
100
AcDbEntity
  8
1
 62
     2
100
AcDbLine
 10
1400.904000572987
 20
1425.232752517117
 30
0.0
 11
1395.75937607831
 21
1406.032752517117
 31
0.0
  0
MTEXT
  5
509
330
500
100
AcDbEntity
  8
1
 62
     2
100
AcDbMText
 10
1396.704000572987
 20
1243.579629727219
 30
0.0
 40
19.20000000000001
 41
0.0
 71
     7
 72
     1
  1
\C2;内径{\Fgdt;n}\C2;54
  7
CONVERTER_3
 11
0.0
 21
1.0
 31
0.0
 73
     1
 44
0.60024009603842
  0
ENDBLK
  5
50B
330
500
100
AcDbEntity
  8
0
100
AcDbBlockEnd
  0
BLOCK
  5
518
330
50E
100
AcDbEntity
  8
0
100
AcDbBlockBegin
  2
*D58
 70
     1
 71
     0
 10
0.0
 20
0.0
 30
0.0
  3
*D58
  1

  0
LINE
  5
50F
330
50E
100
AcDbEntity
  8
1
  6
Continuous
 62
     2
100
AcDbLine
 10
1348.785023844238
 20
1260.859629727219
 30
0.0
 11
1348.785023844238
 21
1368.232752517117
 31
0.0
  0
LINE
  5
510
330
50E
100
AcDbEntity
  8
1
  6
Continuous
 62
     2
100
AcDbLine
 10
1348.785023844238
 20
1368.232752517117
 30
0.0
 11
1348.785023844238
 21
1428.232752517117
 31
0.0
  0
LINE
  5
511
330
50E
100
AcDbEntity
  8
1
  6
Continuous
 62
     2
100
AcDbLine
 10
1444.89333259151
 20
1428.232752517117
 30
0.0
 11
1342.785023844238
 21
1428.232752517117
 31
0.0
  0
LINE
  5
512
330
50E
100
AcDbEntity
  8
1
  6
Continuous
 62
     2
100
AcDbLine
 10
1444.89333259151
 20
1368.232752517117
 30
0.0
 11
1342.785023844238
 21
1368.232752517117
 31
0.0
  0
LINE
  5
513
330
50E
100
AcDbEntity
  8
1
 62
     2
100
AcDbLine
 10
1348.785023844238
 20
1368.232752517117
 30
0.0
 11
1343.64039934956
 21
1387.432752517117
 31
0.0
  0
LINE
  5
514
330
50E
100
AcDbEntity
  8
1
 62
     2
100
AcDbLine
 10
1348.785023844238
 20
1368.232752517117
 30
0.0
 11
1353.929648338915
 21
1387.432752517117
 31
0.0
  0
LINE
  5
515
330
50E
100
AcDbEntity
  8
1
 62
     2
100
AcDbLine
 10
1348.785023844238
 20
1428.232752517117
 30
0.0
 11
1353.929648338915
 21
1409.032752517117
 31
0.0
  0
LINE
  5
516
330
50E
100
AcDbEntity
  8
1
 62
     2
100
AcDbLine
 10
1348.785023844238
 20
1428.232752517117
 30
0.0
 11
1343.64039934956
 21
1409.032752517117
 31
0.0
  0
MTEXT
  5
517
330
50E
100
AcDbEntity
  8
1
 62
     2
100
AcDbMText
 10
1341.705023844238
 20
1243.579629727219
 30
0.0
 40
19.20000000000001
 41
0.0
 71
     7
 72
     1
  1
\C2;外径{\Fgdt;n}\C2;60
  7
CONVERTER_3
 11
0.0
 21
1.0
 31
0.0
 73
     1
 44
0.60024009603842
  0
ENDBLK
  5
519
330
50E
100
AcDbEntity
  8
0
100
AcDbBlockEnd
  0
BLOCK
  5
525
330
51C
100
AcDbEntity
  8
0
100
AcDbBlockBegin
  2
*D69
 70
     1
 71
     0
 10
0.0
 20
0.0
 30
0.0
  3
*D69
  1

  0
LINE
  5
51D
330
51C
100
AcDbEntity
  8
1
  6
Continuous
 62
     2
100
AcDbLine
 10
512.4960816462121
 20
1125.407653221085
 30
0.0
 11
289.9275528736171
 21
996.9076532210895
 31
0.0
  0
LINE
  5
51E
330
51C
100
AcDbEntity
  8
1
  6
Continuous
 62
     2
100
AcDbLine
 10
345.8813121985053
 20
899.9928991959012
 30
0.0
 11
286.9275528736171
 21
1002.103805643796
 31
0.0
  0
LINE
  5
51F
330
51C
100
AcDbEntity
  8
1
  6
Continuous
 62
     2
100
AcDbLine
 10
583.6998409711003
 20
1002.079124380481
 30
0.0
 11
509.4960816462119
 21
1130.603805643792
 31
0.0
  0
LINE
  5
520
330
51C
100
AcDbEntity
  8
1
 62
     2
100
AcDbLine
 10
512.4960816462121
 20
1125.407653221085
 30
0.0
 11
498.4407061408898
 21
1111.352277715762
 31
0.0
  0
LINE
  5
521
330
51C
100
AcDbEntity
  8
1
 62
     2
100
AcDbLine
 10
512.4960816462121
 20
1125.407653221085
 30
0.0
 11
493.2960816462122
 21
1120.263028726407
 31
0.0
  0
LINE
  5
522
330
51C
100
AcDbEntity
  8
1
 62
     2
100
AcDbLine
 10
289.9275528736171
 20
996.9076532210895
 30
0.0
 11
303.9829283789394
 21
1010.963028726412
 31
0.0
  0
LINE
  5
523
330
51C
100
AcDbEntity
  8
1
 62
     2
100
AcDbLine
 10
289.9275528736171
 20
996.9076532210895
 30
0.0
 11
309.127552873617
 21
1002.052277715767
 31
0.0
  0
MTEXT
  5
524
330
51C
100
AcDbEntity
  8
1
 62
     2
100
AcDbMText
 10
344.865054949216
 20
1033.475577094235
 30
0.0
 40
19.2
 41
0.0
 71
     7
 72
     1
  1
\C2;\C2;実機長(257)
  7
CONVERTER_3
 11
0.8660254037844407
 21
0.4999999999999964
 31
0.0
 73
     1
 44
0.60024009603842
  0
ENDBLK
  5
526
330
51C
100
AcDbEntity
  8
0
100
AcDbBlockEnd
  0
BLOCK
  5
532
330
529
100
AcDbEntity
  8
0
100
AcDbBlockBegin
  2
*D710
 70
     1
 71
     0
 10
0.0
 20
0.0
 30
0.0
  3
*D710
  1

  0
LINE
  5
52A
330
529
100
AcDbEntity
  8
1
  6
Continuous
 62
     2
100
AcDbLine
 10
1727.234739153995
 20
1117.535229832057
 30
0.0
 11
1418.063670002958
 21
939.0352298320491
 31
0.0
  0
LINE
  5
52B
330
529
100
AcDbEntity
  8
1
  6
Continuous
 62
     2
100
AcDbLine
 10
1469.472263440467
 20
849.9929340526368
 30
0.0
 11
1415.063670002958
 21
944.2313822547555
 31
0.0
  0
LINE
  5
52C
330
529
100
AcDbEntity
  8
1
  6
Continuous
 62
     2
100
AcDbLine
 10
1793.893332591506
 20
1002.079159237218
 30
0.0
 11
1724.234739153995
 21
1122.731382254764
 31
0.0
  0
LINE
  5
52D
330
529
100
AcDbEntity
  8
1
 62
     2
100
AcDbLine
 10
1727.234739153995
 20
1117.535229832057
 30
0.0
 11
1713.179363648672
 21
1103.479854326735
 31
0.0
  0
LINE
  5
52E
330
529
100
AcDbEntity
  8
1
 62
     2
100
AcDbLine
 10
1727.234739153995
 20
1117.535229832057
 30
0.0
 11
1708.034739153995
 21
1112.390605337381
 31
0.0
  0
LINE
  5
52F
330
529
100
AcDbEntity
  8
1
 62
     2
100
AcDbLine
 10
1418.063670002958
 20
939.0352298320491
 30
0.0
 11
1432.119045508281
 21
953.0906053373709
 31
0.0
  0
LINE
  5
530
330
529
100
AcDbEntity
  8
1
 62
     2
100
AcDbLine
 10
1418.063670002958
 20
939.0352298320491
 30
0.0
 11
1437.263670002958
 21
944.1798543267258
 31
0.0
  0
MTEXT
  5
531
330
529
100
AcDbEntity
  8
1
 62
     2
100
AcDbMText
 10
1525.453944833717
 20
1005.886776175133
 30
0.0
 40
19.2
 41
0.0
 71
     7
 72
     1
  1
\C2;\C2;実機長(357)
  7
CONVERTER_3
 11
0.8660254037844239
 21
0.5000000000000254
 31
0.0
 73
     1
 44
0.60024009603842
  0
ENDBLK
  5
533
330
529
100
AcDbEntity
  8
0
100
AcDbBlockEnd
  0
BLOCK
  5
541
330
536
100
AcDbEntity
  8
0
100
AcDbBlockBegin
  2
*D811
 70
     1
 71
     0
 10
0.0
 20
0.0
 30
0.0
  3
*D811
  1

  0
LINE
  5
537
330
536
100
AcDbEntity
  8
1
  6
Continuous
 62
     2
100
AcDbLine
 10
775.475506713522
 20
1205.77575311475
 30
0.0
 11
775.475506713522
 21
1373.232752517117
 31
0.0
  0
LINE
  5
538
330
536
100
AcDbEntity
  8
1
  6
Continuous
 62
     2
100
AcDbLine
 10
775.475506713522
 20
1373.232752517117
 30
0.0
 11
775.475506713522
 21
1423.232752517117
 31
0.0
  0
LINE
  5
539
330
536
100
AcDbEntity
  8
1
  6
Continuous
 62
     2
100
AcDbLine
 10
775.475506713522
 20
1423.232752517117
 30
0.0
 11
775.475506713522
 21
1461.632752517117
 31
0.0
  0
LINE
  5
53A
330
536
100
AcDbEntity
  8
1
  6
Continuous
 62
     2
100
AcDbLine
 10
593.6998409711023
 20
1423.232752517117
 30
0.0
 11
781.475506713522
 21
1423.232752517117
 31
0.0
  0
LINE
  5
53B
330
536
100
AcDbEntity
  8
1
  6
Continuous
 62
     2
100
AcDbLine
 10
593.6998409711023
 20
1373.232752517117
 30
0.0
 11
781.475506713522
 21
1373.232752517117
 31
0.0
  0
LINE
  5
53C
330
536
100
AcDbEntity
  8
1
 62
     2
100
AcDbLine
 10
775.475506713522
 20
1373.232752517117
 30
0.0
 11
780.6201312081996
 21
1354.032752517117
 31
0.0
  0
LINE
  5
53D
330
536
100
AcDbEntity
  8
1
 62
     2
100
AcDbLine
 10
775.475506713522
 20
1373.232752517117
 30
0.0
 11
770.3308822188444
 21
1354.032752517117
 31
0.0
  0
LINE
  5
53E
330
536
100
AcDbEntity
  8
1
 62
     2
100
AcDbLine
 10
775.475506713522
 20
1423.232752517117
 30
0.0
 11
770.3308822188444
 21
1442.432752517117
 31
0.0
  0
LINE
  5
53F
330
536
100
AcDbEntity
  8
1
 62
     2
100
AcDbLine
 10
775.475506713522
 20
1423.232752517117
 30
0.0
 11
780.6201312081996
 21
1442.432752517117
 31
0.0
  0
MTEXT
  5
540
330
536
100
AcDbEntity
  8
1
 62
     2
100
AcDbMText
 10
771.2755067135221
 20
1205.77575311475
 30
0.0
 40
19.2
 41
0.0
 71
     7
 72
     1
  1
\C2;\C2;呼び幅(50)
  7
CONVERTER_3
 11
0.0
 21
1.0
 31
0.0
 73
     1
 44
0.60024009603842
  0
ENDBLK
  5
542
330
536
100
AcDbEntity
  8
0
100
AcDbBlockEnd
  0
BLOCK
  5
54F
330
545
100
AcDbEntity
  8
0
100
AcDbBlockBegin
  2
*D912
 70
     1
 71
     0
 10
0.0
 20
0.0
 30
0.0
  3
*D912
  1

  0
LINE
  5
546
330
545
100
AcDbEntity
  8
1
  6
Continuous
 62
     2
100
AcDbLine
 10
831.609506782463
 20
1357.232752517116
 30
0.0
 11
831.609506782463
 21
1439.232752517116
 31
0.0
  0
LINE
  5
547
330
545
100
AcDbEntity
  8
1
  6
Continuous
 62
     2
100
AcDbLine
 10
831.609506782463
 20
1086.31709255962
 30
0.0
 11
831.609506782463
 21
1357.232752517116
 31
0.0
  0
LINE
  5
548
330
545
100
AcDbEntity
  8
1
  6
Continuous
 62
     2
100
AcDbLine
 10
739.7183646376552
 20
1357.232752517116
 30
0.0
 11
837.609506782463
 21
1357.232752517116
 31
0.0
  0
LINE
  5
549
330
545
100
AcDbEntity
  8
1
  6
Continuous
 62
     2
100
AcDbLine
 10
739.7183646376552
 20
1439.232752517116
 30
0.0
 11
837.609506782463
 21
1439.232752517116
 31
0.0
  0
LINE
  5
54A
330
545
100
AcDbEntity
  8
1
 62
     2
100
AcDbLine
 10
831.609506782463
 20
1357.232752517116
 30
0.0
 11
826.4648822877854
 21
1376.432752517116
 31
0.0
  0
LINE
  5
54B
330
545
100
AcDbEntity
  8
1
 62
     2
100
AcDbLine
 10
831.609506782463
 20
1357.232752517116
 30
0.0
 11
836.7541312771406
 21
1376.432752517116
 31
0.0
  0
LINE
  5
54C
330
545
100
AcDbEntity
  8
1
 62
     2
100
AcDbLine
 10
831.609506782463
 20
1439.232752517116
 30
0.0
 11
836.7541312771406
 21
1420.032752517116
 31
0.0
  0
LINE
  5
54D
330
545
100
AcDbEntity
  8
1
 62
     2
100
AcDbLine
 10
831.609506782463
 20
1439.232752517116
 30
0.0
 11
826.4648822877854
 21
1420.032752517116
 31
0.0
  0
MTEXT
  5
54E
330
545
100
AcDbEntity
  8
1
 62
     2
100
AcDbMText
 10
827.409506782463
 20
1086.31709255962
 30
0.0
 40
19.2
 41
0.0
 71
     7
 72
     1
  1
投入側コンベヤ機幅(82)
  7
CONVERTER_3
 11
0.0
 21
1.0
 31
0.0
 73
     1
 44
0.60024009603842
  0
ENDBLK
  5
550
330
545
100
AcDbEntity
  8
0
100
AcDbBlockEnd
  0
BLOCK
  5
55C
330
553
100
AcDbEntity
  8
0
100
AcDbBlockBegin
  2
*D1013
 70
     1
 71
     0
 10
0.0
 20
0.0
 30
0.0
  3
*D1013
  1

  0
LINE
  5
554
330
553
100
AcDbEntity
  8
1
  6
Continuous
 62
     2
100
AcDbLine
 10
883.7183646376536
 20
1323.232752517117
 30
0.0
 11
883.7183646376536
 21
1473.232752517117
 31
0.0
  0
LINE
  5
555
330
553
100
AcDbEntity
  8
1
  6
Continuous
 62
     2
100
AcDbLine
 10
563.7003205275278
 20
1473.232752517117
 30
0.0
 11
889.7183646376536
 21
1473.232752517117
 31
0.0
  0
LINE
  5
556
330
553
100
AcDbEntity
  8
1
  6
Continuous
 62
     2
100
AcDbLine
 10
563.7003205275278
 20
1323.232752517117
 30
0.0
 11
889.7183646376536
 21
1323.232752517117
 31
0.0
  0
LINE
  5
557
330
553
100
AcDbEntity
  8
1
 62
     2
100
AcDbLine
 10
883.7183646376536
 20
1323.232752517117
 30
0.0
 11
878.573740142976
 21
1342.432752517117
 31
0.0
  0
LINE
  5
558
330
553
100
AcDbEntity
  8
1
 62
     2
100
AcDbLine
 10
883.7183646376536
 20
1323.232752517117
 30
0.0
 11
888.8629891323312
 21
1342.432752517117
 31
0.0
  0
LINE
  5
559
330
553
100
AcDbEntity
  8
1
 62
     2
100
AcDbLine
 10
883.7183646376536
 20
1473.232752517117
 30
0.0
 11
888.8629891323312
 21
1454.032752517117
 31
0.0
  0
LINE
  5
55A
330
553
100
AcDbEntity
  8
1
 62
     2
100
AcDbLine
 10
883.7183646376536
 20
1473.232752517117
 30
0.0
 11
878.573740142976
 21
1454.032752517117
 31
0.0
  0
MTEXT
  5
55B
330
553
100
AcDbEntity
  8
1
 62
     2
100
AcDbMText
 10
879.5183646376537
 20
1345.928612802999
 30
0.0
 40
19.2
 41
0.0
 71
     7
 72
     1
  1
\C2;\C2;機幅(150)
  7
CONVERTER_3
 11
0.0
 21
1.0
 31
0.0
 73
     1
 44
0.60024009603842
  0
ENDBLK
  5
55D
330
553
100
AcDbEntity
  8
0
100
AcDbBlockEnd
  0
BLOCK
  5
569
330
560
100
AcDbEntity
  8
0
100
AcDbBlockBegin
  2
*D1114
 70
     1
 71
     0
 10
0.0
 20
0.0
 30
0.0
  3
*D1114
  1

  0
LINE
  5
561
330
560
100
AcDbEntity
  8
1
  6
Continuous
 62
     2
100
AcDbLine
 10
2093.911702287827
 20
1323.232752517117
 30
0.0
 11
2093.911702287827
 21
1473.232752517117
 31
0.0
  0
LINE
  5
562
330
560
100
AcDbEntity
  8
1
  6
Continuous
 62
     2
100
AcDbLine
 10
1773.893729975142
 20
1473.232752517117
 30
0.0
 11
2099.911702287827
 21
1473.232752517117
 31
0.0
  0
LINE
  5
563
330
560
100
AcDbEntity
  8
1
  6
Continuous
 62
     2
100
AcDbLine
 10
1773.893729975142
 20
1323.232752517117
 30
0.0
 11
2099.911702287827
 21
1323.232752517117
 31
0.0
  0
LINE
  5
564
330
560
100
AcDbEntity
  8
1
 62
     2
100
AcDbLine
 10
2093.911702287827
 20
1323.232752517117
 30
0.0
 11
2088.76707779315
 21
1342.432752517117
 31
0.0
  0
LINE
  5
565
330
560
100
AcDbEntity
  8
1
 62
     2
100
AcDbLine
 10
2093.911702287827
 20
1323.232752517117
 30
0.0
 11
2099.056326782505
 21
1342.432752517117
 31
0.0
  0
LINE
  5
566
330
560
100
AcDbEntity
  8
1
 62
     2
100
AcDbLine
 10
2093.911702287827
 20
1473.232752517117
 30
0.0
 11
2099.056326782505
 21
1454.032752517117
 31
0.0
  0
LINE
  5
567
330
560
100
AcDbEntity
  8
1
 62
     2
100
AcDbLine
 10
2093.911702287827
 20
1473.232752517117
 30
0.0
 11
2088.76707779315
 21
1454.032752517117
 31
0.0
  0
MTEXT
  5
568
330
560
100
AcDbEntity
  8
1
 62
     2
100
AcDbMText
 10
2089.711702287827
 20
1349.639149522949
 30
0.0
 40
19.2
 41
0.0
 71
     7
 72
     1
  1
\C2;\C2;機幅(150)
  7
CONVERTER_3
 11
0.0
 21
1.0
 31
0.0
 73
     1
 44
0.60024009603842
  0
ENDBLK
  5
56A
330
560
100
AcDbEntity
  8
0
100
AcDbBlockEnd
  0
BLOCK
  5
577
330
56D
100
AcDbEntity
  8
0
100
AcDbBlockBegin
  2
*D1215
 70
     1
 71
     0
 10
0.0
 20
0.0
 30
0.0
  3
*D1215
  1

  0
LINE
  5
56E
330
56D
100
AcDbEntity
  8
1
  6
Continuous
 62
     2
100
AcDbLine
 10
2047.20668620207
 20
1357.232752517117
 30
0.0
 11
2047.20668620207
 21
1439.232752517117
 31
0.0
  0
LINE
  5
56F
330
56D
100
AcDbEntity
  8
1
  6
Continuous
 62
     2
100
AcDbLine
 10
2047.20668620207
 20
1086.31709255962
 30
0.0
 11
2047.20668620207
 21
1357.232752517117
 31
0.0
  0
LINE
  5
570
330
56D
100
AcDbEntity
  8
1
  6
Continuous
 62
     2
100
AcDbLine
 10
1949.911702287826
 20
1357.232752517116
 30
0.0
 11
2053.20668620207
 21
1357.232752517116
 31
0.0
  0
LINE
  5
571
330
56D
100
AcDbEntity
  8
1
  6
Continuous
 62
     2
100
AcDbLine
 10
1949.911702287825
 20
1439.232752517116
 30
0.0
 11
2053.20668620207
 21
1439.232752517116
 31
0.0
  0
LINE
  5
572
330
56D
100
AcDbEntity
  8
1
 62
     2
100
AcDbLine
 10
2047.20668620207
 20
1357.232752517117
 30
0.0
 11
2042.062061707392
 21
1376.432752517117
 31
0.0
  0
LINE
  5
573
330
56D
100
AcDbEntity
  8
1
 62
     2
100
AcDbLine
 10
2047.20668620207
 20
1357.232752517117
 30
0.0
 11
2052.351310696748
 21
1376.432752517117
 31
0.0
  0
LINE
  5
574
330
56D
100
AcDbEntity
  8
1
 62
     2
100
AcDbLine
 10
2047.20668620207
 20
1439.232752517117
 30
0.0
 11
2052.351310696748
 21
1420.032752517117
 31
0.0
  0
LINE
  5
575
330
56D
100
AcDbEntity
  8
1
 62
     2
100
AcDbLine
 10
2047.20668620207
 20
1439.232752517117
 30
0.0
 11
2042.062061707392
 21
1420.032752517117
 31
0.0
  0
MTEXT
  5
576
330
56D
100
AcDbEntity
  8
1
 62
     2
100
AcDbMText
 10
2043.00668620207
 20
1086.31709255962
 30
0.0
 40
19.2
 41
0.0
 71
     7
 72
     1
  1
投入側コンベヤ機幅(82)
  7
CONVERTER_3
 11
0.0
 21
1.0
 31
0.0
 73
     1
 44
0.60024009603842
  0
ENDBLK
  5
578
330
56D
100
AcDbEntity
  8
0
100
AcDbBlockEnd
  0
BLOCK
  5
586
330
57B
100
AcDbEntity
  8
0
100
AcDbBlockBegin
  2
*D1316
 70
     1
 71
     0
 10
0.0
 20
0.0
 30
0.0
  3
*D1316
  1

  0
LINE
  5
57C
330
57B
100
AcDbEntity
  8
1
  6
Continuous
 62
     2
100
AcDbLine
 10
1986.21739561765
 20
1202.88796477975
 30
0.0
 11
1986.21739561765
 21
1373.232752517117
 31
0.0
  0
LINE
  5
57D
330
57B
100
AcDbEntity
  8
1
  6
Continuous
 62
     2
100
AcDbLine
 10
1986.21739561765
 20
1373.232752517117
 30
0.0
 11
1986.21739561765
 21
1423.232752517117
 31
0.0
  0
LINE
  5
57E
330
57B
100
AcDbEntity
  8
1
  6
Continuous
 62
     2
100
AcDbLine
 10
1986.21739561765
 20
1423.232752517117
 30
0.0
 11
1986.21739561765
 21
1461.632752517118
 31
0.0
  0
LINE
  5
57F
330
57B
100
AcDbEntity
  8
1
  6
Continuous
 62
     2
100
AcDbLine
 10
1803.89333259151
 20
1423.232752517117
 30
0.0
 11
1992.21739561765
 21
1423.232752517117
 31
0.0
  0
LINE
  5
580
330
57B
100
AcDbEntity
  8
1
  6
Continuous
 62
     2
100
AcDbLine
 10
1803.89333259151
 20
1373.232752517117
 30
0.0
 11
1992.21739561765
 21
1373.232752517117
 31
0.0
  0
LINE
  5
581
330
57B
100
AcDbEntity
  8
1
 62
     2
100
AcDbLine
 10
1986.21739561765
 20
1373.232752517117
 30
0.0
 11
1991.362020112328
 21
1354.032752517117
 31
0.0
  0
LINE
  5
582
330
57B
100
AcDbEntity
  8
1
 62
     2
100
AcDbLine
 10
1986.21739561765
 20
1373.232752517117
 30
0.0
 11
1981.072771122972
 21
1354.032752517117
 31
0.0
  0
LINE
  5
583
330
57B
100
AcDbEntity
  8
1
 62
     2
100
AcDbLine
 10
1986.21739561765
 20
1423.232752517117
 30
0.0
 11
1981.072771122972
 21
1442.432752517118
 31
0.0
  0
LINE
  5
584
330
57B
100
AcDbEntity
  8
1
 62
     2
100
AcDbLine
 10
1986.21739561765
 20
1423.232752517117
 30
0.0
 11
1991.362020112328
 21
1442.432752517118
 31
0.0
  0
MTEXT
  5
585
330
57B
100
AcDbEntity
  8
1
 62
     2
100
AcDbMText
 10
1982.01739561765
 20
1202.88796477975
 30
0.0
 40
19.2
 41
0.0
 71
     7
 72
     1
  1
\C2;\C2;呼び幅(50)
  7
CONVERTER_3
 11
0.0
 21
1.0
 31
0.0
 73
     1
 44
0.60024009603842
  0
ENDBLK
  5
587
330
57B
100
AcDbEntity
  8
0
100
AcDbBlockEnd
  0
BLOCK
  5
593
330
58A
100
AcDbEntity
  8
0
100
AcDbBlockBegin
  2
*D1417
 70
     1
 71
     0
 10
0.0
 20
0.0
 30
0.0
  3
*D1417
  1

  0
LINE
  5
58B
330
58A
100
AcDbEntity
  8
1
  6
Continuous
 62
     2
100
AcDbLine
 10
1708.471508496072
 20
1050.03409864572
 30
0.0
 11
1448.663887360747
 21
900.0340986457138
 31
0.0
  0
LINE
  5
58C
330
58A
100
AcDbEntity
  8
1
  6
Continuous
 62
     2
100
AcDbLine
 10
1491.034441266961
 20
826.64614653532
 30
0.0
 11
1445.663887360747
 21
905.2302510684204
 31
0.0
  0
LINE
  5
58D
330
58A
100
AcDbEntity
  8
1
  6
Continuous
 62
     2
100
AcDbLine
 10
1750.592062402286
 20
977.0791592372166
 30
0.0
 11
1705.471508496072
 21
1055.230251068426
 31
0.0
  0
LINE
  5
58E
330
58A
100
AcDbEntity
  8
1
 62
     2
100
AcDbLine
 10
1708.471508496072
 20
1050.03409864572
 30
0.0
 11
1694.416132990749
 21
1035.978723140398
 31
0.0
  0
LINE
  5
58F
330
58A
100
AcDbEntity
  8
1
 62
     2
100
AcDbLine
 10
1708.471508496072
 20
1050.03409864572
 30
0.0
 11
1689.271508496071
 21
1044.889474151043
 31
0.0
  0
LINE
  5
590
330
58A
100
AcDbEntity
  8
1
 62
     2
100
AcDbLine
 10
1448.663887360747
 20
900.0340986457138
 30
0.0
 11
1462.719262866071
 21
914.0894741510356
 31
0.0
  0
LINE
  5
591
330
58A
100
AcDbEntity
  8
1
 62
     2
100
AcDbLine
 10
1448.663887360747
 20
900.0340986457138
 30
0.0
 11
1467.863887360748
 21
905.1787231403905
 31
0.0
  0
MTEXT
  5
592
330
58A
100
AcDbEntity
  8
1
 62
     2
100
AcDbMText
 10
1518.107508575778
 20
944.9771343089097
 30
0.0
 40
19.2
 41
0.0
 71
     7
 72
     1
  1
\C2;\C2;呼び機長(300)
  7
CONVERTER_3
 11
0.8660254037844244
 21
0.5000000000000248
 31
0.0
 73
     1
 44
0.60024009603842
  0
ENDBLK
  5
594
330
58A
100
AcDbEntity
  8
0
100
AcDbBlockEnd
  0
BLOCK
  5
5A0
330
597
100
AcDbEntity
  8
0
100
AcDbBlockBegin
  2
*D1518
 70
     1
 71
     0
 10
0.0
 20
0.0
 30
0.0
  3
*D1518
  1

  0
LINE
  5
598
330
597
100
AcDbEntity
  8
1
  6
Continuous
 62
     2
100
AcDbLine
 10
498.9645390422566
 20
1048.844972515923
 30
0.0
 11
325.7594582853757
 21
948.8449725159193
 31
0.0
  0
LINE
  5
599
330
597
100
AcDbEntity
  8
1
  6
Continuous
 62
     2
100
AcDbLine
 10
367.4434900249983
 20
876.6461116785845
 30
0.0
 11
322.7594582853754
 21
954.0411249386259
 31
0.0
  0
LINE
  5
59A
330
597
100
AcDbEntity
  8
1
  6
Continuous
 62
     2
100
AcDbLine
 10
540.3985707818791
 20
977.0791243804799
 30
0.0
 11
495.9645390422563
 21
1054.041124938629
 31
0.0
  0
LINE
  5
59B
330
597
100
AcDbEntity
  8
1
 62
     2
100
AcDbLine
 10
498.9645390422566
 20
1048.844972515923
 30
0.0
 11
484.9091635369342
 21
1034.7895970106
 31
0.0
  0
LINE
  5
59C
330
597
100
AcDbEntity
  8
1
 62
     2
100
AcDbLine
 10
498.9645390422566
 20
1048.844972515923
 30
0.0
 11
479.7645390422566
 21
1043.700348021245
 31
0.0
  0
LINE
  5
59D
330
597
100
AcDbEntity
  8
1
 62
     2
100
AcDbLine
 10
325.7594582853757
 20
948.8449725159193
 30
0.0
 11
339.814833790698
 21
962.9003480212418
 31
0.0
  0
LINE
  5
59E
330
597
100
AcDbEntity
  8
1
 62
     2
100
AcDbLine
 10
325.7594582853757
 20
948.8449725159193
 30
0.0
 11
344.9594582853756
 21
953.989597010597
 31
0.0
  0
MTEXT
  5
59F
330
597
100
AcDbEntity
  8
1
 62
     2
100
AcDbMText
 10
347.7107260513975
 20
966.3682851308795
 30
0.0
 40
19.2
 41
0.0
 71
     7
 72
     1
  1
\C2;\C2;呼び機長(200)
  7
CONVERTER_3
 11
0.8660254037844225
 21
0.500000000000028
 31
0.0
 73
     1
 44
0.60024009603842
  0
ENDBLK
  5
5A1
330
597
100
AcDbEntity
  8
0
100
AcDbBlockEnd
  0
BLOCK
  5
5AF
330
5A4
100
AcDbEntity
  8
0
100
AcDbBlockBegin
  2
*D1619
 70
     1
 71
     0
 10
0.0
 20
0.0
 30
0.0
  3
*D1619
  1

  0
LINE
  5
5A5
330
5A4
100
AcDbEntity
  8
1
  6
Continuous
 62
     2
100
AcDbLine
 10
721.7313016823503
 20
996.8830068145137
 30
0.0
 11
727.7313016823503
 21
996.8830068145136
 31
0.0
  0
LINE
  5
5A6
330
5A4
100
AcDbEntity
  8
1
  6
Continuous
 62
     2
100
AcDbLine
 10
704.1764227305592
 20
1062.39870698332
 30
0.0
 11
709.3725751532659
 21
1065.39870698332
 31
0.0
  0
LINE
  5
5A7
330
5A4
100
AcDbEntity
  8
1
  6
Continuous
 62
     2
100
AcDbLine
 10
631.6998409711014
 20
996.8830068145161
 30
0.0
 11
721.7313016823503
 21
996.8830068145137
 31
0.0
  0
LINE
  5
5A8
330
5A4
100
AcDbEntity
  8
1
  6
Continuous
 62
     2
100
AcDbLine
 10
618.5660477086639
 20
1012.971533919001
 30
0.0
 11
704.1764227305592
 21
1062.39870698332
 31
0.0
  0
ARC
  5
5A9
330
5A4
100
AcDbEntity
  8
1
  6
Continuous
 62
     2
100
AcDbCircle
 10
590.69990134475
 20
996.8830068145171
 30
0.0
 40
131.0314003376002
100
AcDbArc
 50
-12.59330546514245
 51
72.37385020725064
  0
LINE
  5
5AA
330
5A4
100
AcDbEntity
  8
1
 62
     2
100
AcDbLine
 10
721.7313016823503
 20
996.8830068145137
 30
0.0
 11
725.4566972362759
 21
977.3579309079256
 31
0.0
  0
LINE
  5
5AB
330
5A4
100
AcDbEntity
  8
1
 62
     2
100
AcDbLine
 10
721.7313016823503
 20
996.8830068145137
 30
0.0
 11
715.1950509179014
 21
978.111097291626
 31
0.0
  0
LINE
  5
5AC
330
5A4
100
AcDbEntity
  8
1
 62
     2
100
AcDbLine
 10
704.1764227305592
 20
1062.39870698332
 30
0.0
 11
689.1299087615982
 21
1075.38753212546
 31
0.0
  0
LINE
  5
5AD
330
5A4
100
AcDbEntity
  8
1
 62
     2
100
AcDbLine
 10
704.1764227305592
 20
1062.39870698332
 30
0.0
 11
697.6401719661118
 21
1081.170616506208
 31
0.0
  0
MTEXT
  5
5AE
330
5A4
100
AcDbEntity
  8
1
 62
     2
100
AcDbMText
 10
634.554285847821
 20
1134.910939484412
 30
0.0
 40
19.2
 41
0.0
 71
     7
 72
     1
  1
30{\Fgdt;~}±15{\Fgdt;~}
  7
CONVERTER_3
 11
0.781519142249049
 21
-0.6238812629806338
 31
0.0
 73
     1
 44
0.60024009603842
  0
ENDBLK
  5
5B0
330
5A4
100
AcDbEntity
  8
0
100
AcDbBlockEnd
  0
BLOCK
  5
5BE
330
5B3
100
AcDbEntity
  8
0
100
AcDbBlockBegin
  2
*D1720
 70
     1
 71
     0
 10
0.0
 20
0.0
 30
0.0
  3
*D1720
  1

  0
LINE
  5
5B4
330
5B3
100
AcDbEntity
  8
1
  6
Continuous
 62
     2
100
AcDbLine
 10
1936.753515058544
 20
996.8830068145136
 30
0.0
 11
1942.753515058544
 21
996.8830068145135
 31
0.0
  0
LINE
  5
5B5
330
5B3
100
AcDbEntity
  8
1
  6
Continuous
 62
     2
100
AcDbLine
 10
1918.55170197075
 20
1064.813098048033
 30
0.0
 11
1923.747854393457
 21
1067.813098048034
 31
0.0
  0
LINE
  5
5B6
330
5B3
100
AcDbEntity
  8
1
  6
Continuous
 62
     2
100
AcDbLine
 10
1841.893332591509
 20
996.8830068145161
 30
0.0
 11
1936.753515058544
 21
996.8830068145136
 31
0.0
  0
LINE
  5
5B7
330
5B3
100
AcDbEntity
  8
1
  6
Continuous
 62
     2
100
AcDbLine
 10
1830.611665991146
 20
1014.04089460266
 30
0.0
 11
1918.55170197075
 21
1064.813098048033
 31
0.0
  0
ARC
  5
5B8
330
5B3
100
AcDbEntity
  8
1
  6
Continuous
 62
     2
100
AcDbCircle
 10
1800.893332591518
 20
996.8830068145171
 30
0.0
 40
135.8601824670259
100
AcDbArc
 50
-12.14571053868018
 51
77.53326584575332
  0
LINE
  5
5B9
330
5B3
100
AcDbEntity
  8
1
 62
     2
100
AcDbLine
 10
1936.753515058544
 20
996.8830068145136
 30
0.0
 11
1940.529741255776
 21
977.3676980314433
 31
0.0
  0
LINE
  5
5BA
330
5B3
100
AcDbEntity
  8
1
 62
     2
100
AcDbLine
 10
1936.753515058544
 20
996.8830068145136
 30
0.0
 11
1930.266168484248
 21
978.0941405470614
 31
0.0
  0
LINE
  5
5BB
330
5B3
100
AcDbEntity
  8
1
 62
     2
100
AcDbLine
 10
1918.55170197075
 20
1064.813098048033
 30
0.0
 11
1903.53906190053
 21
1077.841060256807
 31
0.0
  0
LINE
  5
5BC
330
5B3
100
AcDbEntity
  8
1
 62
     2
100
AcDbLine
 10
1918.55170197075
 20
1064.813098048033
 30
0.0
 11
1912.064355396454
 21
1083.601964315486
 31
0.0
  0
MTEXT
  5
5BD
330
5B3
100
AcDbEntity
  8
1
 62
     2
100
AcDbMText
 10
1833.13307214103
 20
1142.707694389962
 30
0.0
 40
19.2
 41
0.0
 71
     7
 72
     1
  1
30{\Fgdt;~}±15{\Fgdt;~}
  7
CONVERTER_3
 11
0.8407784344527635
 21
-0.5413793717525264
 31
0.0
 73
     1
 44
0.60024009603842
  0
ENDBLK
  5
5BF
330
5B3
100
AcDbEntity
  8
0
100
AcDbBlockEnd
  0
ENDSEC
  0
SECTION
  2
ENTITIES
  0
INSERT
  5
35
330
1F
100
AcDbEntity
  8
0
100
AcDbBlockReference
  2
Zuwaku-A3-web
 10
1181.999999999998
 20
803.9999999999998
 30
0.0
 41
6.0
 42
6.0
 43
6.0
  0
LINE
  5
66
330
1F
100
AcDbEntity
  8
1
  6
DASH_CENTER
 62
     3
100
AcDbLine
 10
587.6998409711023
 20
995.1509211502064
 30
0.0
 11
613.3698952859573
 21
1009.971533919001
 31
0.0
  0
LINE
  5
67
330
1F
100
AcDbEntity
  8
1
  6
DASH_CENTER
 62
     3
100
AcDbLine
 10
1797.893332591509
 20
995.1509560069428
 30
0.0
 11
1825.415513568439
 21
1011.04089460266
 31
0.0
  0
LINE
  5
68
330
1F
100
AcDbEntity
  8
1
  6
Continuous
 62
     4
100
AcDbLine
 10
452.893229886951
 20
968.7113107978883
 30
0.0
 11
428.9746455999058
 21
964.1395140281641
 31
0.0
  0
LINE
  5
69
330
1F
100
AcDbEntity
  8
1
  6
Continuous
 62
     4
100
AcDbLine
 10
450.393229886951
 20
973.0414378168105
 30
0.0
 11
452.893229886951
 21
968.7113107978883
 31
0.0
  0
LINE
  5
6A
330
1F
100
AcDbEntity
  8
1
  6
Continuous
 62
     4
100
AcDbLine
 10
472.9098903853471
 20
986.0414378168089
 30
0.0
 11
450.393229886951
 21
973.0414378168105
 31
0.0
  0
LINE
  5
6B
330
1F
100
AcDbEntity
  8
1
  6
Continuous
 62
     4
100
AcDbLine
 10
471.4098903853448
 20
988.63951402816
 30
0.0
 11
472.9098903853471
 21
986.0414378168089
 31
0.0
  0
LINE
  5
6C
330
1F
100
AcDbEntity
  8
1
  6
Continuous
 62
     4
100
AcDbLine
 10
469.9098903853457
 20
991.237590239514
 30
0.0
 11
471.4098903853448
 21
988.63951402816
 31
0.0
  0
LINE
  5
6D
330
1F
100
AcDbEntity
  8
1
  6
Continuous
 62
     4
100
AcDbLine
 10
447.3932298869501
 20
978.2375902395157
 30
0.0
 11
469.9098903853457
 21
991.237590239514
 31
0.0
  0
LINE
  5
6E
330
1F
100
AcDbEntity
  8
1
  6
Continuous
 62
     4
100
AcDbLine
 10
444.8932298869519
 20
982.5677172584396
 30
0.0
 11
447.3932298869501
 21
978.2375902395157
 31
0.0
  0
LINE
  5
6F
330
1F
100
AcDbEntity
  8
1
  6
Continuous
 62
     4
100
AcDbLine
 10
428.9746455999058
 20
964.1395140281641
 30
0.0
 11
444.8932298869519
 21
982.5677172584396
 31
0.0
  0
LINE
  5
70
330
1F
100
AcDbEntity
  8
1
  6
Continuous
 62
     4
100
AcDbLine
 10
1579.980426493481
 20
925.5809569618713
 30
0.0
 11
1595.899010780527
 21
944.0091601921446
 31
0.0
  0
LINE
  5
71
330
1F
100
AcDbEntity
  8
1
  6
Continuous
 62
     4
100
AcDbLine
 10
1595.899010780527
 20
944.0091601921446
 30
0.0
 11
1598.399010780526
 21
939.679033173221
 31
0.0
  0
LINE
  5
72
330
1F
100
AcDbEntity
  8
1
  6
Continuous
 62
     4
100
AcDbLine
 10
1598.399010780526
 20
939.679033173221
 30
0.0
 11
1620.915671278921
 21
952.6790331732192
 31
0.0
  0
LINE
  5
73
330
1F
100
AcDbEntity
  8
1
  6
Continuous
 62
     4
100
AcDbLine
 10
1620.915671278921
 20
952.6790331732192
 30
0.0
 11
1622.41567127892
 21
950.0809569618655
 31
0.0
  0
LINE
  5
74
330
1F
100
AcDbEntity
  8
1
  6
Continuous
 62
     4
100
AcDbLine
 10
1622.41567127892
 20
950.0809569618655
 30
0.0
 11
1623.915671278921
 21
947.4828807505136
 31
0.0
  0
LINE
  5
75
330
1F
100
AcDbEntity
  8
1
  6
Continuous
 62
     4
100
AcDbLine
 10
1623.915671278921
 20
947.4828807505136
 30
0.0
 11
1601.399010780527
 21
934.482880750516
 31
0.0
  0
LINE
  5
76
330
1F
100
AcDbEntity
  8
1
  6
Continuous
 62
     4
100
AcDbLine
 10
1601.399010780527
 20
934.482880750516
 30
0.0
 11
1603.899010780526
 21
930.1527537315927
 31
0.0
  0
LINE
  5
77
330
1F
100
AcDbEntity
  8
1
  6
Continuous
 62
     4
100
AcDbLine
 10
1603.899010780526
 20
930.1527537315927
 30
0.0
 11
1579.980426493481
 21
925.5809569618713
 31
0.0
  0
LINE
  5
78
330
1F
100
AcDbEntity
  8
1
  6
Continuous
 62
     2
100
AcDbLine
 10
681.8851224439713
 20
876.0172283140112
 30
0.0
 11
697.7295044744396
 21
848.5739536227103
 31
0.0
  0
LINE
  5
79
330
1F
100
AcDbEntity
  8
1
  6
Continuous
 62
     2
100
AcDbLine
 10
515.7042584989976
 20
1163.850927912388
 30
0.0
 11
531.5486405294653
 21
1136.407653221087
 31
0.0
  0
LINE
  5
7A
330
1F
100
AcDbEntity
  8
1
  6
Continuous
 62
     2
100
AcDbLine
 10
407.8307663026544
 20
758.6932971863117
 30
0.0
 11
391.9863842722084
 21
786.1365718776248
 31
0.0
  0
LINE
  5
7B
330
1F
100
AcDbEntity
  8
1
  6
Continuous
 62
     2
100
AcDbLine
 10
280.0859349567934
 20
979.9538354816834
 30
0.0
 11
264.2415529263465
 21
1007.397110172996
 31
0.0
  0
LINE
  5
7C
330
1F
100
AcDbEntity
  8
1
  6
Continuous
 62
     2
100
AcDbLine
 10
1527.04701636647
 20
708.2705367515239
 30
0.0
 11
1511.202634336024
 21
735.7138114428369
 31
0.0
  0
LINE
  5
7D
330
1F
100
AcDbEntity
  8
1
  6
Continuous
 62
     2
100
AcDbLine
 10
1399.877136523476
 20
928.5352298320439
 30
0.0
 11
1384.032754493029
 21
955.9785045233564
 31
0.0
  0
LINE
  5
7E
330
1F
100
AcDbEntity
  8
1
  6
Continuous
 62
     2
100
AcDbLine
 10
1730.442916006782
 20
1155.978504523357
 30
0.0
 11
1746.287298037251
 21
1128.535229832056
 31
0.0
  0
LINE
  5
7F
330
1F
100
AcDbEntity
  8
1
  6
Continuous
 62
     2
100
AcDbLine
 10
1891.2886793826
 20
877.3854701742685
 30
0.0
 11
1907.133061413067
 21
849.9421954829677
 31
0.0
  0
LINE
  5
80
330
1F
100
AcDbEntity
  8
1
  6
Continuous
 62
     2
100
AcDbLine
 10
934.2484721178507
 20
798.0651260749614
 30
0.0
 11
1049.248472117851
 21
798.0651260749614
 31
0.0
  0
LINE
  5
81
330
1F
100
AcDbEntity
  8
1
  6
Continuous
 62
     2
100
AcDbLine
 10
60.4420706119995
 20
751.800600230272
 30
0.0
 11
164.4420706119995
 21
751.800600230272
 31
0.0
  0
LINE
  5
82
330
1F
100
AcDbEntity
  8
1
  6
Continuous
 62
     2
100
AcDbLine
 10
2139.24847211785
 20
798.0651260749614
 30
0.0
 11
2254.24847211785
 21
798.0651260749614
 31
0.0
  0
LINE
  5
83
330
1F
100
AcDbEntity
  8
1
  6
Continuous
 62
     2
100
AcDbLine
 10
1168.442070611999
 20
700.8006002302741
 30
0.0
 11
1272.442070611999
 21
700.8006002302741
 31
0.0
  0
LINE
  5
84
330
1F
100
AcDbEntity
  8
1
  6
Continuous
 62
     2
100
AcDbLine
 10
490.5894511867435
 20
1163.351050199495
 30
0.0
 11
517.3717152031406
 21
1178.813797538872
 31
0.0
  0
LINE
  5
85
330
1F
100
AcDbEntity
  8
1
  6
Continuous
 62
     2
100
AcDbLine
 10
265.0209224141875
 20
1040.047202622131
 30
0.0
 11
233.0340849342786
 21
1021.579593392577
 31
0.0
  0
LINE
  5
86
330
1F
100
AcDbEntity
  8
1
  6
Continuous
 62
     2
100
AcDbLine
 10
411.5203572525297
 20
1284.967322308448
 30
0.0
 11
506.5203572525297
 21
1284.967322308448
 31
0.0
  0
LINE
  5
87
330
1F
100
AcDbEntity
  8
1
  6
Continuous
 62
     2
100
AcDbLine
 10
1393.15703954353
 20
982.1747792331004
 30
0.0
 11
1361.17020206362
 21
963.7071700035455
 31
0.0
  0
LINE
  5
88
330
1F
100
AcDbEntity
  8
1
  6
Continuous
 62
     2
100
AcDbLine
 10
1705.32810869453
 20
1155.478626810465
 30
0.0
 11
1732.110372710927
 21
1170.941374149842
 31
0.0
  0
LINE
  5
89
330
1F
100
AcDbEntity
  8
1
  6
Continuous
 62
     2
100
AcDbLine
 10
1590.52035725253
 20
1284.967322308448
 30
0.0
 11
1685.52035725253
 21
1284.967322308448
 31
0.0
  0
LINE
  5
8A
330
1F
100
AcDbEntity
  8
1
  6
PHANTOM
 62
   140
100
AcDbLine
 10
607.6998409711005
 20
969.955970928432
 30
0.0
 11
607.6998409711014
 21
999.8012733846913
 31
0.0
  0
LINE
  5
8B
330
1F
100
AcDbEntity
  8
1
  6
PHANTOM
 62
   140
100
AcDbLine
 10
591.4564711698986
 20
984.8830068145176
 30
0.0
 11
626.1598469308306
 21
984.883006814516
 31
0.0
  0
LINE
  5
8C
330
1F
100
AcDbEntity
  8
1
  6
PHANTOM
 62
   140
100
AcDbLine
 10
607.1998409711005
 20
962.8830068145167
 30
0.0
 11
767.7937848506786
 21
962.883006814511
 31
0.0
  0
LINE
  5
8D
330
1F
100
AcDbEntity
  8
1
  6
PHANTOM
 62
   140
100
AcDbLine
 10
625.6998409711014
 20
996.8830068145162
 30
0.0
 11
625.6998409711005
 21
962.883006814516
 31
0.0
  0
LINE
  5
8E
330
1F
100
AcDbEntity
  8
1
  6
PHANTOM
 62
   140
100
AcDbLine
 10
625.6998409711014
 20
996.8830068145162
 30
0.0
 11
607.1998409711023
 21
996.8830068145167
 31
0.0
  0
LINE
  5
8F
330
1F
100
AcDbEntity
  8
1
  6
PHANTOM
 62
   140
100
AcDbLine
 10
593.6998409711014
 20
983.3830068145171
 30
0.0
 11
593.6998409711005
 21
976.3830068145176
 31
0.0
  0
LINE
  5
90
330
1F
100
AcDbEntity
  8
1
  6
PHANTOM
 62
   140
100
AcDbLine
 10
625.6998409711014
 20
990.133006814516
 30
0.0
 11
767.7937848506795
 21
990.1330068145109
 31
0.0
  0
LINE
  5
91
330
1F
100
AcDbEntity
  8
1
  6
PHANTOM
 62
   140
100
AcDbLine
 10
767.7937848506795
 20
996.8830068145109
 30
0.0
 11
625.6998409711014
 21
996.8830068145162
 31
0.0
  0
LINE
  5
92
330
1F
100
AcDbEntity
  8
1
  6
PHANTOM
 62
   140
100
AcDbLine
 10
767.7937848506786
 20
983.6330068145107
 30
0.0
 11
625.6998409711014
 21
983.633006814516
 31
0.0
  0
LINE
  5
93
330
1F
100
AcDbEntity
  8
1
  6
PHANTOM
 62
   140
100
AcDbLine
 10
767.7937848506786
 20
976.1330068145107
 30
0.0
 11
625.6998409711005
 21
976.133006814516
 31
0.0
  0
LINE
  5
94
330
1F
100
AcDbEntity
  8
1
  6
PHANTOM
 62
   140
100
AcDbLine
 10
767.7937848506786
 20
969.6330068145107
 30
0.0
 11
625.6998409711005
 21
969.633006814516
 31
0.0
  0
LINE
  5
95
330
1F
100
AcDbEntity
  8
1
  6
PHANTOM
 62
   140
100
AcDbLine
 10
648.6998409711014
 20
990.1330068145151
 30
0.0
 11
648.6998409711014
 21
983.6330068145151
 31
0.0
  0
LINE
  5
96
330
1F
100
AcDbEntity
  8
1
  6
PHANTOM
 62
   140
100
AcDbLine
 10
648.6998409711014
 20
976.1330068145151
 30
0.0
 11
648.6998409711014
 21
969.6330068145151
 31
0.0
  0
LINE
  5
97
330
1F
100
AcDbEntity
  8
1
  6
PHANTOM
 62
   140
100
AcDbLine
 10
1858.893332591508
 20
976.1330068145151
 30
0.0
 11
1858.893332591508
 21
969.6330068145151
 31
0.0
  0
LINE
  5
98
330
1F
100
AcDbEntity
  8
1
  6
PHANTOM
 62
   140
100
AcDbLine
 10
1858.893332591509
 20
990.1330068145151
 30
0.0
 11
1858.893332591509
 21
983.6330068145151
 31
0.0
  0
LINE
  5
99
330
1F
100
AcDbEntity
  8
1
  6
PHANTOM
 62
   140
100
AcDbLine
 10
1977.987276471085
 20
969.6330068145107
 30
0.0
 11
1835.893332591508
 21
969.633006814516
 31
0.0
  0
LINE
  5
9A
330
1F
100
AcDbEntity
  8
1
  6
PHANTOM
 62
   140
100
AcDbLine
 10
1977.987276471085
 20
976.1330068145107
 30
0.0
 11
1835.893332591508
 21
976.133006814516
 31
0.0
  0
LINE
  5
9B
330
1F
100
AcDbEntity
  8
1
  6
PHANTOM
 62
   140
100
AcDbLine
 10
1977.987276471087
 20
983.6330068145107
 30
0.0
 11
1835.893332591509
 21
983.633006814516
 31
0.0
  0
LINE
  5
9C
330
1F
100
AcDbEntity
  8
1
  6
PHANTOM
 62
   140
100
AcDbLine
 10
1977.987276471087
 20
996.8830068145109
 30
0.0
 11
1835.893332591509
 21
996.8830068145162
 31
0.0
  0
LINE
  5
9D
330
1F
100
AcDbEntity
  8
1
  6
PHANTOM
 62
   140
100
AcDbLine
 10
1835.893332591509
 20
990.133006814516
 30
0.0
 11
1977.987276471087
 21
990.1330068145109
 31
0.0
  0
LINE
  5
9E
330
1F
100
AcDbEntity
  8
1
  6
PHANTOM
 62
   140
100
AcDbLine
 10
1803.893332591509
 20
983.3830068145171
 30
0.0
 11
1803.893332591508
 21
976.3830068145176
 31
0.0
  0
LINE
  5
9F
330
1F
100
AcDbEntity
  8
1
  6
PHANTOM
 62
   140
100
AcDbLine
 10
1835.893332591509
 20
996.8830068145162
 30
0.0
 11
1817.393332591509
 21
996.8830068145167
 31
0.0
  0
LINE
  5
A0
330
1F
100
AcDbEntity
  8
1
  6
PHANTOM
 62
   140
100
AcDbLine
 10
1835.893332591508
 20
962.883006814516
 30
0.0
 11
1835.893332591509
 21
996.8830068145162
 31
0.0
  0
LINE
  5
A1
330
1F
100
AcDbEntity
  8
1
  6
PHANTOM
 62
   140
100
AcDbLine
 10
1817.393332591508
 20
962.8830068145167
 30
0.0
 11
1977.987276471085
 21
962.8830068145109
 31
0.0
  0
LINE
  5
A2
330
1F
100
AcDbEntity
  8
1
  6
PHANTOM
 62
   140
100
AcDbLine
 10
1801.649962790305
 20
984.8830068145176
 30
0.0
 11
1836.353338551236
 21
984.883006814516
 31
0.0
  0
LINE
  5
A3
330
1F
100
AcDbEntity
  8
1
  6
PHANTOM
 62
   140
100
AcDbLine
 10
1817.893332591508
 20
969.955970928432
 30
0.0
 11
1817.893332591509
 21
999.8012733846913
 31
0.0
  0
LINE
  5
A4
330
1F
100
AcDbEntity
  8
1
  6
PHANTOM
 62
   140
100
AcDbLine
 10
412.0436118552393
 20
798.3232286637591
 30
0.0
 11
288.6975318454383
 21
798.3232286637539
 31
0.0
  0
LINE
  5
A5
330
1F
100
AcDbEntity
  8
1
  6
PHANTOM
 62
   140
100
AcDbLine
 10
412.0436118552393
 20
804.8232286637591
 30
0.0
 11
288.6975318454383
 21
804.8232286637539
 31
0.0
  0
LINE
  5
A6
330
1F
100
AcDbEntity
  8
1
  6
PHANTOM
 62
   140
100
AcDbLine
 10
412.0436118552375
 20
812.323228663759
 30
0.0
 11
288.6975318454356
 21
812.3232286637539
 31
0.0
  0
LINE
  5
A7
330
1F
100
AcDbEntity
  8
1
  6
PHANTOM
 62
   140
100
AcDbLine
 10
412.0436118552375
 20
825.5732286637592
 30
0.0
 11
288.6975318454356
 21
825.573228663754
 31
0.0
  0
LINE
  5
A8
330
1F
100
AcDbEntity
  8
1
  6
PHANTOM
 62
   140
100
AcDbLine
 10
288.6975318454356
 20
818.8232286637539
 30
0.0
 11
412.0436118552375
 21
818.823228663759
 31
0.0
  0
LINE
  5
A9
330
1F
100
AcDbEntity
  8
1
  6
PHANTOM
 62
   140
100
AcDbLine
 10
444.0436118552393
 20
805.0732286637605
 30
0.0
 11
444.0436118552375
 21
812.0732286637601
 31
0.0
  0
LINE
  5
AA
330
1F
100
AcDbEntity
  8
1
  6
PHANTOM
 62
   140
100
AcDbLine
 10
430.5436118552366
 20
825.5732286637599
 30
0.0
 11
412.0436118552375
 21
825.5732286637592
 31
0.0
  0
LINE
  5
AB
330
1F
100
AcDbEntity
  8
1
  6
PHANTOM
 62
   140
100
AcDbLine
 10
412.0436118552375
 20
825.5732286637592
 30
0.0
 11
412.0436118552393
 21
791.5732286637591
 31
0.0
  0
LINE
  5
AC
330
1F
100
AcDbEntity
  8
1
  6
PHANTOM
 62
   140
100
AcDbLine
 10
288.6975318454383
 20
791.5732286637539
 30
0.0
 11
430.5436118552393
 21
791.5732286637598
 31
0.0
  0
LINE
  5
AD
330
1F
100
AcDbEntity
  8
1
  6
PHANTOM
 62
   140
100
AcDbLine
 10
411.5836058955097
 20
813.573228663759
 30
0.0
 11
446.2869816564416
 21
813.5732286637605
 31
0.0
  0
LINE
  5
AE
330
1F
100
AcDbEntity
  8
1
  6
PHANTOM
 62
   140
100
AcDbLine
 10
430.0436118552375
 20
828.4914952339344
 30
0.0
 11
430.0436118552393
 21
798.6461927776749
 31
0.0
  0
LINE
  5
AF
330
1F
100
AcDbEntity
  8
1
  6
PHANTOM
 62
   140
100
AcDbLine
 10
1553.634441266861
 20
778.4918616241216
 30
0.0
 11
1553.634441266865
 21
748.6465591678621
 31
0.0
  0
LINE
  5
B0
330
1F
100
AcDbEntity
  8
1
  6
PHANTOM
 62
   140
100
AcDbLine
 10
1535.174435307134
 20
763.5735950539462
 30
0.0
 11
1569.877811068066
 21
763.5735950539477
 31
0.0
  0
LINE
  5
B1
330
1F
100
AcDbEntity
  8
1
  6
PHANTOM
 62
   140
100
AcDbLine
 10
1412.288361257064
 20
741.5735950539411
 30
0.0
 11
1554.134441266865
 21
741.573595053947
 31
0.0
  0
LINE
  5
B2
330
1F
100
AcDbEntity
  8
1
  6
PHANTOM
 62
   140
100
AcDbLine
 10
1535.634441266865
 20
741.5735950539463
 30
0.0
 11
1535.634441266861
 21
775.5735950539464
 31
0.0
  0
LINE
  5
B3
330
1F
100
AcDbEntity
  8
1
  6
PHANTOM
 62
   140
100
AcDbLine
 10
1535.634441266861
 20
775.5735950539464
 30
0.0
 11
1535.634441266865
 21
741.5735950539463
 31
0.0
  0
LINE
  5
B4
330
1F
100
AcDbEntity
  8
1
  6
PHANTOM
 62
   140
100
AcDbLine
 10
1554.13444126686
 20
775.5735950539471
 30
0.0
 11
1535.634441266861
 21
775.5735950539464
 31
0.0
  0
LINE
  5
B5
330
1F
100
AcDbEntity
  8
1
  6
PHANTOM
 62
   140
100
AcDbLine
 10
1567.634441266865
 20
755.0735950539477
 30
0.0
 11
1567.634441266861
 21
762.0735950539473
 31
0.0
  0
LINE
  5
B6
330
1F
100
AcDbEntity
  8
1
  6
PHANTOM
 62
   140
100
AcDbLine
 10
1412.28836125706
 20
768.8235950539411
 30
0.0
 11
1535.634441266861
 21
768.8235950539462
 31
0.0
  0
LINE
  5
B7
330
1F
100
AcDbEntity
  8
1
  6
PHANTOM
 62
   140
100
AcDbLine
 10
1535.634441266861
 20
775.5735950539464
 30
0.0
 11
1412.28836125706
 21
775.5735950539412
 31
0.0
  0
LINE
  5
B8
330
1F
100
AcDbEntity
  8
1
  6
PHANTOM
 62
   140
100
AcDbLine
 10
1535.634441266861
 20
762.3235950539462
 30
0.0
 11
1412.28836125706
 21
762.3235950539411
 31
0.0
  0
LINE
  5
B9
330
1F
100
AcDbEntity
  8
1
  6
PHANTOM
 62
   140
100
AcDbLine
 10
1535.634441266865
 20
754.8235950539463
 30
0.0
 11
1412.288361257064
 21
754.8235950539411
 31
0.0
  0
LINE
  5
BA
330
1F
100
AcDbEntity
  8
1
  6
PHANTOM
 62
   140
100
AcDbLine
 10
1535.634441266865
 20
748.3235950539463
 30
0.0
 11
1412.288361257064
 21
748.3235950539411
 31
0.0
  0
LINE
  5
BB
330
1F
100
AcDbEntity
  8
1
  6
DASHED
 62
     4
100
AcDbLine
 10
337.7003205274737
 20
1365.732752517117
 30
0.0
 11
337.7003205274737
 21
1430.732752517117
 31
0.0
  0
LINE
  5
BC
330
1F
100
AcDbEntity
  8
1
  6
DASHED
 62
     4
100
AcDbLine
 10
557.7003205275273
 20
1430.732752517117
 30
0.0
 11
557.7003205275273
 21
1365.732752517117
 31
0.0
  0
LINE
  5
BD
330
1F
100
AcDbEntity
  8
1
  6
Continuous
 62
     7
100
AcDbLine
 10
337.7003205274737
 20
1430.732752517117
 30
0.0
 11
337.7003205274737
 21
1460.032752517115
 31
0.0
  0
LINE
  5
BE
330
1F
100
AcDbEntity
  8
1
  6
Continuous
 62
     7
100
AcDbLine
 10
557.7003205275273
 20
1365.732752517117
 30
0.0
 11
557.7003205275273
 21
1323.232752517116
 31
0.0
  0
LINE
  5
BF
330
1F
100
AcDbEntity
  8
1
  6
Continuous
 62
     7
100
AcDbLine
 10
403.1998402266435
 20
1355.713726007574
 30
0.0
 11
403.1998402266436
 21
1345.732752517118
 31
0.0
  0
LINE
  5
C0
330
1F
100
AcDbEntity
  8
1
  6
Continuous
 62
     7
100
AcDbLine
 10
392.1998402266436
 20
1355.713726007574
 30
0.0
 11
392.1998402266436
 21
1345.732752517118
 31
0.0
  0
LINE
  5
C1
330
1F
100
AcDbEntity
  8
1
  6
Continuous
 62
     7
100
AcDbLine
 10
543.1999650325006
 20
1355.713726007574
 30
0.0
 11
543.1999650325006
 21
1345.732752517118
 31
0.0
  0
LINE
  5
C2
330
1F
100
AcDbEntity
  8
1
  6
Continuous
 62
     7
100
AcDbLine
 10
532.1999650325006
 20
1355.713726007574
 30
0.0
 11
532.1999650325006
 21
1345.732752517118
 31
0.0
  0
LINE
  5
C3
330
1F
100
AcDbEntity
  8
1
  6
DASHED
 62
     4
100
AcDbLine
 10
1447.893729975089
 20
1430.732752517117
 30
0.0
 11
1447.893729975089
 21
1365.732752517117
 31
0.0
  0
LINE
  5
C4
330
1F
100
AcDbEntity
  8
1
  6
Continuous
 62
     7
100
AcDbLine
 10
1447.893729975089
 20
1365.732752517117
 30
0.0
 11
1447.893729975089
 21
1336.43275251712
 31
0.0
  0
LINE
  5
C5
330
1F
100
AcDbEntity
  8
1
  6
Continuous
 62
     7
100
AcDbLine
 10
1767.893729975142
 20
1430.732752517117
 30
0.0
 11
1767.893729975142
 21
1473.232752517116
 31
0.0
  0
LINE
  5
C6
330
1F
100
AcDbEntity
  8
1
  6
Continuous
 62
     7
100
AcDbLine
 10
1513.39333184705
 20
1355.713726007574
 30
0.0
 11
1513.39333184705
 21
1345.732752517118
 31
0.0
  0
LINE
  5
C7
330
1F
100
AcDbEntity
  8
1
  6
Continuous
 62
     7
100
AcDbLine
 10
1502.39333184705
 20
1355.713726007574
 30
0.0
 11
1502.39333184705
 21
1345.732752517118
 31
0.0
  0
LINE
  5
C8
330
1F
100
AcDbEntity
  8
1
  6
Continuous
 62
     7
100
AcDbLine
 10
1753.392935207993
 20
1355.713726007574
 30
0.0
 11
1753.392935207993
 21
1345.732752517118
 31
0.0
  0
LINE
  5
C9
330
1F
100
AcDbEntity
  8
1
  6
Continuous
 62
     7
100
AcDbLine
 10
1742.392935207993
 20
1355.713726007574
 30
0.0
 11
1742.392935207993
 21
1345.732752517118
 31
0.0
  0
LINE
  5
CA
330
1F
100
AcDbEntity
  8
1
  6
Continuous
 62
     7
100
AcDbLine
 10
532.1999650325006
 20
1450.732752517116
 30
0.0
 11
532.1999650325006
 21
1440.713726007575
 31
0.0
  0
LINE
  5
CB
330
1F
100
AcDbEntity
  8
1
  6
Continuous
 62
     7
100
AcDbLine
 10
543.1999650325006
 20
1450.732752517116
 30
0.0
 11
543.1999650325006
 21
1440.713726007575
 31
0.0
  0
LINE
  5
CC
330
1F
100
AcDbEntity
  8
1
  6
DOT_CENTER
 62
     3
100
AcDbLine
 10
537.6999650325006
 20
1458.982752517116
 30
0.0
 11
537.6999650325006
 21
1456.232752517116
 31
0.0
  0
LINE
  5
CD
330
1F
100
AcDbEntity
  8
1
  6
DOT_CENTER
 62
     3
100
AcDbLine
 10
537.6999650325006
 20
1456.232752517116
 30
0.0
 11
537.6999650325006
 21
1426.232752517116
 31
0.0
  0
LINE
  5
CE
330
1F
100
AcDbEntity
  8
1
  6
DOT_CENTER
 62
     3
100
AcDbLine
 10
537.6999650325006
 20
1426.232752517116
 30
0.0
 11
537.6999650325006
 21
1423.482752517116
 31
0.0
  0
LINE
  5
CF
330
1F
100
AcDbEntity
  8
1
  6
DOT_CENTER
 62
     3
100
AcDbLine
 10
529.4499650325006
 20
1441.232752517116
 30
0.0
 11
545.9499650325006
 21
1441.232752517116
 31
0.0
  0
LINE
  5
D0
330
1F
100
AcDbEntity
  8
1
  6
DOT_CENTER
 62
     3
100
AcDbLine
 10
389.4498402266436
 20
1441.232752517116
 30
0.0
 11
405.9498402266436
 21
1441.232752517116
 31
0.0
  0
LINE
  5
D1
330
1F
100
AcDbEntity
  8
1
  6
DOT_CENTER
 62
     3
100
AcDbLine
 10
397.6998402266436
 20
1426.232752517116
 30
0.0
 11
397.6998402266436
 21
1423.482752517116
 31
0.0
  0
LINE
  5
D2
330
1F
100
AcDbEntity
  8
1
  6
DOT_CENTER
 62
     3
100
AcDbLine
 10
397.6998402266436
 20
1456.232752517116
 30
0.0
 11
397.6998402266436
 21
1426.232752517116
 31
0.0
  0
LINE
  5
D3
330
1F
100
AcDbEntity
  8
1
  6
DOT_CENTER
 62
     3
100
AcDbLine
 10
397.6998402266436
 20
1458.982752517116
 30
0.0
 11
397.6998402266436
 21
1456.232752517116
 31
0.0
  0
LINE
  5
D4
330
1F
100
AcDbEntity
  8
1
  6
Continuous
 62
     7
100
AcDbLine
 10
403.1998402266436
 20
1450.732752517116
 30
0.0
 11
403.1998402266435
 21
1440.713726007575
 31
0.0
  0
LINE
  5
D5
330
1F
100
AcDbEntity
  8
1
  6
Continuous
 62
     7
100
AcDbLine
 10
392.1998402266436
 20
1450.732752517116
 30
0.0
 11
392.1998402266436
 21
1440.713726007575
 31
0.0
  0
LINE
  5
D6
330
1F
100
AcDbEntity
  8
1
  6
DOT_CENTER
 62
     3
100
AcDbLine
 10
397.6998402266436
 20
1340.232752517118
 30
0.0
 11
397.6998402266436
 21
1337.482752517118
 31
0.0
  0
LINE
  5
D7
330
1F
100
AcDbEntity
  8
1
  6
DOT_CENTER
 62
     3
100
AcDbLine
 10
397.6998402266436
 20
1370.232752517118
 30
0.0
 11
397.6998402266436
 21
1340.232752517118
 31
0.0
  0
LINE
  5
D8
330
1F
100
AcDbEntity
  8
1
  6
DOT_CENTER
 62
     3
100
AcDbLine
 10
397.6998402266436
 20
1372.982752517118
 30
0.0
 11
397.6998402266436
 21
1370.232752517118
 31
0.0
  0
LINE
  5
D9
330
1F
100
AcDbEntity
  8
1
  6
DOT_CENTER
 62
     3
100
AcDbLine
 10
405.9498402266436
 20
1355.232752517118
 30
0.0
 11
389.4498402266436
 21
1355.232752517118
 31
0.0
  0
LINE
  5
DA
330
1F
100
AcDbEntity
  8
1
  6
DOT_CENTER
 62
     3
100
AcDbLine
 10
545.9499650325006
 20
1355.232752517118
 30
0.0
 11
529.4499650325006
 21
1355.232752517118
 31
0.0
  0
LINE
  5
DB
330
1F
100
AcDbEntity
  8
1
  6
DOT_CENTER
 62
     3
100
AcDbLine
 10
537.6999650325006
 20
1372.982752517118
 30
0.0
 11
537.6999650325006
 21
1370.232752517118
 31
0.0
  0
LINE
  5
DC
330
1F
100
AcDbEntity
  8
1
  6
DOT_CENTER
 62
     3
100
AcDbLine
 10
537.6999650325006
 20
1370.232752517118
 30
0.0
 11
537.6999650325006
 21
1340.232752517118
 31
0.0
  0
LINE
  5
DD
330
1F
100
AcDbEntity
  8
1
  6
DOT_CENTER
 62
     3
100
AcDbLine
 10
537.6999650325006
 20
1340.232752517118
 30
0.0
 11
537.6999650325006
 21
1337.482752517118
 31
0.0
  0
LINE
  5
DE
330
1F
100
AcDbEntity
  8
1
  6
DOT_CENTER
 62
     3
100
AcDbLine
 10
1747.892935207993
 20
1340.232752517118
 30
0.0
 11
1747.892935207993
 21
1337.482752517118
 31
0.0
  0
LINE
  5
DF
330
1F
100
AcDbEntity
  8
1
  6
DOT_CENTER
 62
     3
100
AcDbLine
 10
1756.142935207993
 20
1355.232752517118
 30
0.0
 11
1739.642935207993
 21
1355.232752517118
 31
0.0
  0
LINE
  5
E0
330
1F
100
AcDbEntity
  8
1
  6
DOT_CENTER
 62
     3
100
AcDbLine
 10
1516.14333184705
 20
1355.232752517118
 30
0.0
 11
1499.64333184705
 21
1355.232752517118
 31
0.0
  0
LINE
  5
E1
330
1F
100
AcDbEntity
  8
1
  6
DOT_CENTER
 62
     3
100
AcDbLine
 10
1507.893331847052
 20
1459.837920340127
 30
0.0
 11
1507.89333184705
 21
1337.482752517118
 31
0.0
  0
LINE
  5
E2
330
1F
100
AcDbEntity
  8
1
  6
Continuous
 62
     7
100
AcDbLine
 10
1502.39333184705
 20
1450.732752517116
 30
0.0
 11
1502.39333184705
 21
1440.713726007575
 31
0.0
  0
LINE
  5
E3
330
1F
100
AcDbEntity
  8
1
  6
Continuous
 62
     7
100
AcDbLine
 10
1513.39333184705
 20
1450.732752517116
 30
0.0
 11
1513.39333184705
 21
1440.713726007575
 31
0.0
  0
LINE
  5
E4
330
1F
100
AcDbEntity
  8
1
  6
DOT_CENTER
 62
     3
100
AcDbLine
 10
1499.64333184705
 20
1441.232752517116
 30
0.0
 11
1516.14333184705
 21
1441.232752517116
 31
0.0
  0
LINE
  5
E5
330
1F
100
AcDbEntity
  8
1
  6
DOT_CENTER
 62
     3
100
AcDbLine
 10
1739.642935207993
 20
1441.232752517116
 30
0.0
 11
1756.142935207993
 21
1441.232752517116
 31
0.0
  0
LINE
  5
E6
330
1F
100
AcDbEntity
  8
1
  6
DOT_CENTER
 62
     3
100
AcDbLine
 10
1747.892935207993
 20
1458.982752517116
 30
0.0
 11
1747.892935207993
 21
1340.232752517118
 31
0.0
  0
LINE
  5
E7
330
1F
100
AcDbEntity
  8
1
  6
Continuous
 62
     7
100
AcDbLine
 10
1753.392935207993
 20
1450.732752517116
 30
0.0
 11
1753.392935207993
 21
1440.713726007575
 31
0.0
  0
LINE
  5
E8
330
1F
100
AcDbEntity
  8
1
  6
Continuous
 62
     7
100
AcDbLine
 10
1742.392935207993
 20
1450.732752517116
 30
0.0
 11
1742.392935207993
 21
1440.713726007575
 31
0.0
  0
LINE
  5
E9
330
1F
100
AcDbEntity
  8
1
  6
Continuous
 62
     7
100
AcDbLine
 10
469.7931719893654
 20
853.1747568789718
 30
0.0
 11
583.7325729639097
 21
836.5729574237961
 31
0.0
  0
LINE
  5
EA
330
1F
100
AcDbEntity
  8
1
  6
Continuous
 62
     7
100
AcDbLine
 10
1594.378414828976
 20
804.0593428765717
 30
0.0
 11
1795.527193963917
 21
835.783199850236
 31
0.0
  0
LINE
  5
EB
330
1F
100
AcDbEntity
  8
1
  6
DASH_CENTER
 62
     3
100
AcDbLine
 10
1602.760221256518
 20
812.6314190779335
 30
0.0
 11
1611.853487996254
 21
817.8814190779358
 31
0.0
  0
LINE
  5
EC
330
1F
100
AcDbEntity
  8
1
  6
DASH_CENTER
 62
     3
100
AcDbLine
 10
1604.681854626385
 20
819.8030524478022
 30
0.0
 11
1609.931854626388
 21
810.7097857080669
 31
0.0
  0
LINE
  5
ED
330
1F
100
AcDbEntity
  8
1
  6
DASH_CENTER
 62
     3
100
AcDbLine
 10
481.0909615071673
 20
869.8027862779061
 30
0.0
 11
486.3409615071696
 21
860.7095195381708
 31
0.0
  0
LINE
  5
EE
330
1F
100
AcDbEntity
  8
1
  6
DASH_CENTER
 62
     3
100
AcDbLine
 10
479.1693281373005
 20
862.6311529080374
 30
0.0
 11
488.2625948770356
 21
867.8811529080397
 31
0.0
  0
LINE
  5
EF
330
1F
100
AcDbEntity
  8
1
  6
Continuous
 62
     7
100
AcDbLine
 10
392.4436074711784
 20
833.344507424723
 30
0.0
 11
394.0436118552393
 21
830.5732286637571
 31
0.0
  0
LINE
  5
F0
330
1F
100
AcDbEntity
  8
1
  6
Continuous
 62
     7
100
AcDbLine
 10
457.3954534314685
 20
870.8446101761685
 30
0.0
 11
466.1839726604644
 21
855.6225039605265
 31
0.0
  0
LINE
  5
F1
330
1F
100
AcDbEntity
  8
1
  6
Continuous
 62
     7
100
AcDbLine
 10
394.0436118552393
 20
830.5732286637571
 30
0.0
 11
458.9954578155293
 21
868.0733314152035
 31
0.0
  0
LINE
  5
F2
330
1F
100
AcDbEntity
  8
1
  6
Continuous
 62
     7
100
AcDbLine
 10
392.4436074711784
 20
833.344507424723
 30
0.0
 11
582.9690222877835
 21
943.3448088288083
 31
0.0
  0
LINE
  5
F3
330
1F
100
AcDbEntity
  8
1
  6
Continuous
 62
     7
100
AcDbLine
 10
582.9690222877835
 20
943.3448088288083
 30
0.0
 11
590.9690442080046
 21
929.4884150240912
 31
0.0
  0
LINE
  5
F4
330
1F
100
AcDbEntity
  8
1
  6
Continuous
 62
     7
100
AcDbLine
 10
590.9690442080046
 20
929.4884150240912
 30
0.0
 11
625.4691387393505
 21
869.732716740567
 31
0.0
  0
LINE
  5
F5
330
1F
100
AcDbEntity
  8
1
  6
Continuous
 62
     7
100
AcDbLine
 10
621.8089063115135
 20
856.0724569123615
 30
0.0
 11
590.1744341343183
 21
837.8082191590728
 31
0.0
  0
LINE
  5
F6
330
1F
100
AcDbEntity
  8
1
  6
DASH_CENTER
 62
     3
100
AcDbLine
 10
1813.217062402272
 20
868.609477413225
 30
0.0
 11
1818.467062402278
 21
859.5162106734927
 31
0.0
  0
LINE
  5
F7
330
1F
100
AcDbEntity
  8
1
  6
DASH_CENTER
 62
     3
100
AcDbLine
 10
1811.295429032407
 20
861.4378440433561
 30
0.0
 11
1820.388695772141
 21
866.6878440433609
 31
0.0
  0
LINE
  5
F8
330
1F
100
AcDbEntity
  8
1
  6
Continuous
 62
     7
100
AcDbLine
 10
1832.002316440121
 20
856.0724629865985
 30
0.0
 11
1798.969315953993
 21
837.0008512637633
 31
0.0
  0
LINE
  5
F9
330
1F
100
AcDbEntity
  8
1
  6
Continuous
 62
     7
100
AcDbLine
 10
1801.162570477857
 20
929.4884698856722
 30
0.0
 11
1835.662570477959
 21
869.7327170244444
 31
0.0
  0
LINE
  5
FA
330
1F
100
AcDbEntity
  8
1
  6
Continuous
 62
     7
100
AcDbLine
 10
1793.16257047793
 20
943.3448763461015
 30
0.0
 11
1801.162570477857
 21
929.4884698856722
 31
0.0
  0
LINE
  5
FB
330
1F
100
AcDbEntity
  8
1
  6
Continuous
 62
     7
100
AcDbLine
 10
1516.034441266861
 20
783.3448763460535
 30
0.0
 11
1793.16257047793
 21
943.3448763461015
 31
0.0
  0
LINE
  5
FC
330
1F
100
AcDbEntity
  8
1
  6
Continuous
 62
     7
100
AcDbLine
 10
1517.634441266864
 20
780.5735950539443
 30
0.0
 11
1582.586346550689
 21
818.0735950539572
 31
0.0
  0
LINE
  5
FD
330
1F
100
AcDbEntity
  8
1
  6
Continuous
 62
     7
100
AcDbLine
 10
1580.986346550686
 20
820.8448763460647
 30
0.0
 11
1589.26934880509
 21
806.4982956022531
 31
0.0
  0
LINE
  5
FE
330
1F
100
AcDbEntity
  8
1
  6
Continuous
 62
     7
100
AcDbLine
 10
1516.034441266861
 20
783.3448763460535
 30
0.0
 11
1517.634441266864
 21
780.5735950539443
 31
0.0
  0
LINE
  5
FF
330
1F
100
AcDbEntity
  8
1
  6
Continuous
 62
     7
100
AcDbLine
 10
2267.084006526218
 20
947.8509211502326
 30
0.0
 11
2267.084006526218
 21
857.6509211502323
 31
0.0
  0
LINE
  5
100
330
1F
100
AcDbEntity
  8
1
  6
Continuous
 62
     7
100
AcDbLine
 10
2267.084006526218
 20
857.6509211502323
 30
0.0
 11
2270.284006526219
 21
857.6509211502323
 31
0.0
  0
LINE
  5
101
330
1F
100
AcDbEntity
  8
1
  6
Continuous
 62
     7
100
AcDbLine
 10
2270.284006526219
 20
857.6509211502323
 30
0.0
 11
2270.284006526219
 21
949.4509211502334
 31
0.0
  0
LINE
  5
102
330
1F
100
AcDbEntity
  8
1
  6
Continuous
 62
     7
100
AcDbLine
 10
2267.084006526218
 20
952.6509211502323
 30
0.0
 11
2123.484006526221
 21
952.6509211502323
 31
0.0
  0
LINE
  5
103
330
1F
100
AcDbEntity
  8
1
  6
Continuous
 62
     7
100
AcDbLine
 10
2120.284006526219
 20
949.4509211502334
 30
0.0
 11
2120.284006526219
 21
857.6509211502323
 31
0.0
  0
LINE
  5
104
330
1F
100
AcDbEntity
  8
1
  6
Continuous
 62
     7
100
AcDbLine
 10
2120.284006526219
 20
857.6509211502323
 30
0.0
 11
2123.484006526218
 21
857.6509211502323
 31
0.0
  0
LINE
  5
105
330
1F
100
AcDbEntity
  8
1
  6
Continuous
 62
     7
100
AcDbLine
 10
2123.484006526218
 20
857.6509211502323
 30
0.0
 11
2123.484006526218
 21
947.8509211502326
 31
0.0
  0
LINE
  5
106
330
1F
100
AcDbEntity
  8
1
  6
Continuous
 62
     7
100
AcDbLine
 10
2125.08400652622
 20
949.4509211502334
 30
0.0
 11
2265.484006526219
 21
949.4509211502334
 31
0.0
  0
LINE
  5
107
330
1F
100
AcDbEntity
  8
1
  6
DASH_CENTER
 62
     3
100
AcDbLine
 10
949.2840065262185
 20
934.3812136488434
 30
0.0
 11
949.2840065262185
 21
961.2547910868523
 31
0.0
  0
LINE
  5
108
330
1F
100
AcDbEntity
  8
1
  6
DASH_CENTER
 62
     3
100
AcDbLine
 10
1035.284006526219
 20
961.2547910868523
 30
0.0
 11
1035.284006526219
 21
934.3812136488434
 31
0.0
  0
LINE
  5
109
330
1F
100
AcDbEntity
  8
1
  6
Continuous
 62
     7
100
AcDbLine
 10
922.0840065262196
 20
949.4509211502334
 30
0.0
 11
1062.48400652622
 21
949.4509211502334
 31
0.0
  0
LINE
  5
10A
330
1F
100
AcDbEntity
  8
1
  6
Continuous
 62
     7
100
AcDbLine
 10
920.4840065262183
 20
857.6509211502324
 30
0.0
 11
920.4840065262183
 21
947.8509211502326
 31
0.0
  0
LINE
  5
10B
330
1F
100
AcDbEntity
  8
1
  6
Continuous
 62
     7
100
AcDbLine
 10
917.2840065262185
 20
857.6509211502324
 30
0.0
 11
920.4840065262183
 21
857.6509211502324
 31
0.0
  0
LINE
  5
10C
330
1F
100
AcDbEntity
  8
1
  6
Continuous
 62
     7
100
AcDbLine
 10
917.2840065262185
 20
949.4509211502334
 30
0.0
 11
917.2840065262185
 21
857.6509211502324
 31
0.0
  0
LINE
  5
10D
330
1F
100
AcDbEntity
  8
1
  6
Continuous
 62
     7
100
AcDbLine
 10
1064.084006526217
 20
952.6509211502323
 30
0.0
 11
920.4840065262183
 21
952.6509211502323
 31
0.0
  0
LINE
  5
10E
330
1F
100
AcDbEntity
  8
1
  6
Continuous
 62
     7
100
AcDbLine
 10
1067.284006526219
 20
857.6509211502324
 30
0.0
 11
1067.284006526219
 21
949.4509211502334
 31
0.0
  0
LINE
  5
10F
330
1F
100
AcDbEntity
  8
1
  6
Continuous
 62
     7
100
AcDbLine
 10
1064.084006526217
 20
857.6509211502324
 30
0.0
 11
1067.284006526219
 21
857.6509211502324
 31
0.0
  0
LINE
  5
110
330
1F
100
AcDbEntity
  8
1
  6
Continuous
 62
     7
100
AcDbLine
 10
1064.084006526217
 20
947.8509211502326
 30
0.0
 11
1064.084006526217
 21
857.6509211502324
 31
0.0
  0
LINE
  5
111
330
1F
100
AcDbEntity
  8
1
  6
DASH_CENTER
 62
     3
100
AcDbLine
 10
992.2840065262185
 20
984.5156898104276
 30
0.0
 11
992.2840065262185
 21
835.5156898104277
 31
0.0
  0
LINE
  5
112
330
1F
100
AcDbEntity
  8
1
  6
Continuous
 62
     7
100
AcDbLine
 10
347.7003205274737
 20
1470.032752517115
 30
0.0
 11
412.7003205275623
 21
1470.032752517115
 31
0.0
  0
LINE
  5
113
330
1F
100
AcDbEntity
  8
1
  6
Continuous
 62
     7
100
AcDbLine
 10
412.7003205275623
 20
1473.232752517116
 30
0.0
 11
557.7003205275273
 21
1473.232752517116
 31
0.0
  0
LINE
  5
114
330
1F
100
AcDbEntity
  8
1
  6
Continuous
 62
     7
100
AcDbLine
 10
337.7003205274737
 20
1336.432752517115
 30
0.0
 11
337.7003205274737
 21
1365.732752517117
 31
0.0
  0
LINE
  5
115
330
1F
100
AcDbEntity
  8
1
  6
Continuous
 62
     7
100
AcDbLine
 10
412.7003205275623
 20
1323.232752517116
 30
0.0
 11
412.7003205275555
 21
1326.43275251711
 31
0.0
  0
LINE
  5
116
330
1F
100
AcDbEntity
  8
1
  6
Continuous
 62
     7
100
AcDbLine
 10
557.7003205275273
 20
1473.232752517116
 30
0.0
 11
557.7003205275273
 21
1430.732752517117
 31
0.0
  0
LINE
  5
117
330
1F
100
AcDbEntity
  8
1
  6
Continuous
 62
     7
100
AcDbLine
 10
412.7003205275623
 20
1470.032752517115
 30
0.0
 11
412.7003205275623
 21
1473.232752517116
 31
0.0
  0
LINE
  5
118
330
1F
100
AcDbEntity
  8
1
  6
Continuous
 62
     7
100
AcDbLine
 10
412.7003205275555
 20
1326.43275251711
 30
0.0
 11
347.7003205274737
 21
1326.432752517115
 31
0.0
  0
LINE
  5
119
330
1F
100
AcDbEntity
  8
1
  6
Continuous
 62
     7
100
AcDbLine
 10
557.7003205275273
 20
1323.232752517116
 30
0.0
 11
412.7003205275623
 21
1323.232752517116
 31
0.0
  0
LINE
  5
11A
330
1F
100
AcDbEntity
  8
1
  6
Continuous
 62
     7
100
AcDbLine
 10
1447.893729975089
 20
1460.032752517117
 30
0.0
 11
1447.893729975089
 21
1430.732752517117
 31
0.0
  0
LINE
  5
11B
330
1F
100
AcDbEntity
  8
1
  6
Continuous
 62
     7
100
AcDbLine
 10
1522.893729975089
 20
1473.232752517116
 30
0.0
 11
1522.893729975084
 21
1470.032752517117
 31
0.0
  0
LINE
  5
11C
330
1F
100
AcDbEntity
  8
1
  6
Continuous
 62
     7
100
AcDbLine
 10
1457.893729975089
 20
1326.432752517119
 30
0.0
 11
1522.89372997509
 21
1326.432752517119
 31
0.0
  0
LINE
  5
11D
330
1F
100
AcDbEntity
  8
1
  6
Continuous
 62
     7
100
AcDbLine
 10
1522.89372997509
 20
1323.232752517116
 30
0.0
 11
1767.893729975142
 21
1323.232752517116
 31
0.0
  0
LINE
  5
11E
330
1F
100
AcDbEntity
  8
1
  6
Continuous
 62
     7
100
AcDbLine
 10
1767.893729975142
 20
1323.232752517116
 30
0.0
 11
1767.893729975142
 21
1365.732752517117
 31
0.0
  0
LINE
  5
11F
330
1F
100
AcDbEntity
  8
1
  6
Continuous
 62
     7
100
AcDbLine
 10
1522.89372997509
 20
1326.432752517119
 30
0.0
 11
1522.89372997509
 21
1323.232752517116
 31
0.0
  0
LINE
  5
120
330
1F
100
AcDbEntity
  8
1
  6
Continuous
 62
     7
100
AcDbLine
 10
1522.893729975084
 20
1470.032752517117
 30
0.0
 11
1457.893729975089
 21
1470.032752517118
 31
0.0
  0
LINE
  5
121
330
1F
100
AcDbEntity
  8
1
  6
Continuous
 62
     7
100
AcDbLine
 10
1767.893729975142
 20
1473.232752517116
 30
0.0
 11
1522.893729975089
 21
1473.232752517116
 31
0.0
  0
LINE
  5
122
330
1F
100
AcDbEntity
  8
1
  6
Continuous
 62
     7
100
AcDbLine
 10
2232.240624363695
 20
946.9509211502334
 30
0.0
 11
2253.289335669658
 21
946.9509211502334
 31
0.0
  0
LINE
  5
123
330
1F
100
AcDbEntity
  8
1
  6
Continuous
 62
     7
100
AcDbLine
 10
2252.674381093435
 20
946.9509211502334
 30
0.0
 11
2232.855578939918
 21
946.9509211502334
 31
0.0
  0
LINE
  5
124
330
1F
100
AcDbEntity
  8
1
  6
Continuous
 62
     7
100
AcDbLine
 10
459.7553992512134
 20
856.3880362734722
 30
0.0
 11
442.7553992512117
 21
846.5730816972505
 31
0.0
  0
LINE
  5
125
330
1F
100
AcDbEntity
  8
1
  6
Continuous
 62
     7
100
AcDbLine
 10
450.625915092377
 20
842.7561052162893
 30
0.0
 11
447.0054511340981
 21
849.0267972979053
 31
0.0
  0
LINE
  5
126
330
1F
100
AcDbEntity
  8
1
  6
DASH_CENTER
 62
     3
100
AcDbLine
 10
399.5440905780565
 20
941.0462390782877
 30
0.0
 11
456.1554721335147
 21
842.9935088584297
 31
0.0
  0
LINE
  5
127
330
1F
100
AcDbEntity
  8
1
  6
DASH_CENTER
 62
     3
100
AcDbLine
 10
523.2877551929196
 20
1006.716174462297
 30
0.0
 11
577.3991367483795
 21
912.9935712613574
 31
0.0
  0
LINE
  5
128
330
1F
100
AcDbEntity
  8
1
  6
Continuous
 62
     7
100
AcDbLine
 10
934.2406243636965
 20
938.93103597466
 30
0.0
 11
955.2893356696604
 21
938.93103597466
 31
0.0
  0
LINE
  5
129
330
1F
100
AcDbEntity
  8
1
  6
DASH_CENTER
 62
     3
100
AcDbLine
 10
944.7649800166764
 20
979.1509211502255
 30
0.0
 11
944.7649800166764
 21
929.1509211502255
 31
0.0
  0
LINE
  5
12A
330
1F
100
AcDbEntity
  8
1
  6
Continuous
 62
     7
100
AcDbLine
 10
446.3758045619366
 20
840.3023557550861
 30
0.0
 11
442.7553992512117
 21
846.5730816972505
 31
0.0
  0
LINE
  5
12B
330
1F
100
AcDbEntity
  8
1
  6
Continuous
 62
     7
100
AcDbLine
 10
446.3758045619366
 20
840.3023557550861
 30
0.0
 11
442.7553992512117
 21
846.5730816972505
 31
0.0
  0
LINE
  5
12C
330
1F
100
AcDbEntity
  8
1
  6
Continuous
 62
     7
100
AcDbLine
 10
455.5053992512134
 20
853.9342976294175
 30
0.0
 11
459.1258045619366
 21
847.6635716872537
 31
0.0
  0
LINE
  5
12D
330
1F
100
AcDbEntity
  8
1
  6
Continuous
 62
     7
100
AcDbLine
 10
461.6303992512143
 20
848.2329637211705
 30
0.0
 11
448.8803992512134
 21
840.8717477890024
 31
0.0
  0
LINE
  5
12E
330
1F
100
AcDbEntity
  8
1
  6
Continuous
 62
     7
100
AcDbLine
 10
459.7553992512134
 20
856.3880362734722
 30
0.0
 11
463.3758045619375
 21
850.11731033131
 31
0.0
  0
LINE
  5
12F
330
1F
100
AcDbEntity
  8
1
  6
Continuous
 62
     7
100
AcDbLine
 10
934.2406243636965
 20
932.6509211502323
 30
0.0
 11
934.2406243636965
 21
938.93103597466
 31
0.0
  0
LINE
  5
130
330
1F
100
AcDbEntity
  8
1
  6
Continuous
 62
     7
100
AcDbLine
 10
1044.227157843167
 20
938.93103597466
 30
0.0
 11
1044.227157843167
 21
932.6509211502325
 31
0.0
  0
LINE
  5
131
330
1F
100
AcDbEntity
  8
1
  6
Continuous
 62
     7
100
AcDbLine
 10
1035.302802190186
 20
938.93103597466
 30
0.0
 11
1035.302802190186
 21
932.6509211502325
 31
0.0
  0
LINE
  5
132
330
1F
100
AcDbEntity
  8
1
  6
Continuous
 62
     7
100
AcDbLine
 10
1050.289335669659
 20
938.93103597466
 30
0.0
 11
1050.289335669659
 21
932.6509211502323
 31
0.0
  0
LINE
  5
133
330
1F
100
AcDbEntity
  8
1
  6
Continuous
 62
     7
100
AcDbLine
 10
1029.240624363695
 20
938.93103597466
 30
0.0
 11
1050.289335669659
 21
938.93103597466
 31
0.0
  0
LINE
  5
134
330
1F
100
AcDbEntity
  8
1
  6
Continuous
 62
     7
100
AcDbLine
 10
1029.240624363695
 20
931.6902253532143
 30
0.0
 11
1029.240624363695
 21
938.93103597466
 31
0.0
  0
LINE
  5
135
330
1F
100
AcDbEntity
  8
1
  6
Continuous
 62
     7
100
AcDbLine
 10
1049.674381093435
 20
938.93103597466
 30
0.0
 11
1029.855578939918
 21
938.93103597466
 31
0.0
  0
LINE
  5
136
330
1F
100
AcDbEntity
  8
1
  6
Continuous
 62
     7
100
AcDbLine
 10
955.2893356696604
 20
938.93103597466
 30
0.0
 11
955.2893356696604
 21
931.6902253532143
 31
0.0
  0
LINE
  5
137
330
1F
100
AcDbEntity
  8
1
  6
Continuous
 62
     7
100
AcDbLine
 10
940.3028021901873
 20
938.93103597466
 30
0.0
 11
940.3028021901873
 21
932.6509211502325
 31
0.0
  0
LINE
  5
138
330
1F
100
AcDbEntity
  8
1
  6
Continuous
 62
     7
100
AcDbLine
 10
949.2271578431696
 20
938.93103597466
 30
0.0
 11
949.2271578431696
 21
932.6509211502325
 31
0.0
  0
LINE
  5
139
330
1F
100
AcDbEntity
  8
1
  6
Continuous
 62
     7
100
AcDbLine
 10
1569.9667558039
 20
790.3023906118216
 30
0.0
 11
1566.346350493173
 21
796.5731165539861
 31
0.0
  0
LINE
  5
13A
330
1F
100
AcDbEntity
  8
1
  6
Continuous
 62
     7
100
AcDbLine
 10
1566.346350493173
 20
796.5731165539861
 30
0.0
 11
1583.346350493177
 21
806.3880711302078
 31
0.0
  0
LINE
  5
13B
330
1F
100
AcDbEntity
  8
1
  6
Continuous
 62
     7
100
AcDbLine
 10
1570.596350493176
 20
799.0268551980411
 30
0.0
 11
1574.216755803897
 21
792.7561292558765
 31
0.0
  0
LINE
  5
13C
330
1F
100
AcDbEntity
  8
1
  6
Continuous
 62
     7
100
AcDbLine
 10
1585.221350493177
 20
798.232998577906
 30
0.0
 11
1572.471350493177
 21
790.8717826457379
 31
0.0
  0
LINE
  5
13D
330
1F
100
AcDbEntity
  8
1
  6
Continuous
 62
     7
100
AcDbLine
 10
1579.096350493176
 20
803.934332486153
 30
0.0
 11
1582.716755803899
 21
797.6636065439892
 31
0.0
  0
LINE
  5
13E
330
1F
100
AcDbEntity
  8
1
  6
Continuous
 62
     7
100
AcDbLine
 10
1583.346350493177
 20
806.3880711302078
 30
0.0
 11
1586.9667558039
 21
800.1173451880455
 31
0.0
  0
LINE
  5
13F
330
1F
100
AcDbEntity
  8
1
  6
Continuous
 62
     7
100
AcDbLine
 10
2238.014980016677
 20
954.9509211502334
 30
0.0
 11
2238.014980016677
 21
979.1509211502255
 31
0.0
  0
LINE
  5
140
330
1F
100
AcDbEntity
  8
1
  6
Continuous
 62
     3
100
AcDbLine
 10
2238.826980016677
 20
954.9509211502334
 30
0.0
 11
2238.826980016678
 21
966.7509211502245
 31
0.0
  0
LINE
  5
141
330
1F
100
AcDbEntity
  8
1
  6
Continuous
 62
     7
100
AcDbLine
 10
2137.240624363697
 20
932.6509211502323
 30
0.0
 11
2137.240624363697
 21
938.7725560937308
 31
0.0
  0
LINE
  5
142
330
1F
100
AcDbEntity
  8
1
  6
Continuous
 62
     3
100
AcDbLine
 10
2143.826980016676
 20
954.9509211502334
 30
0.0
 11
2143.826980016676
 21
966.7509211502245
 31
0.0
  0
LINE
  5
143
330
1F
100
AcDbEntity
  8
1
  6
Continuous
 62
     7
100
AcDbLine
 10
2143.014980016677
 20
954.9509211502334
 30
0.0
 11
2143.014980016677
 21
979.1509211502255
 31
0.0
  0
LINE
  5
144
330
1F
100
AcDbEntity
  8
1
  6
Continuous
 62
     7
100
AcDbLine
 10
2152.22715784317
 20
938.7725560937308
 30
0.0
 11
2152.22715784317
 21
932.6509211502323
 31
0.0
  0
LINE
  5
145
330
1F
100
AcDbEntity
  8
1
  6
Continuous
 62
     7
100
AcDbLine
 10
2143.302802190187
 20
938.7725560937308
 30
0.0
 11
2143.302802190187
 21
932.6509211502323
 31
0.0
  0
LINE
  5
146
330
1F
100
AcDbEntity
  8
1
  6
Continuous
 62
     7
100
AcDbLine
 10
2158.289335669661
 20
938.7725560937308
 30
0.0
 11
2158.289335669661
 21
931.5317454722851
 31
0.0
  0
LINE
  5
147
330
1F
100
AcDbEntity
  8
1
  6
Continuous
 62
     7
100
AcDbLine
 10
2137.240624363697
 20
938.7725560937308
 30
0.0
 11
2158.289335669661
 21
938.7725560937308
 31
0.0
  0
LINE
  5
148
330
1F
100
AcDbEntity
  8
1
  6
Continuous
 62
     7
100
AcDbLine
 10
2157.674381093436
 20
938.7725560937308
 30
0.0
 11
2137.855578939919
 21
938.7725560937308
 31
0.0
  0
LINE
  5
149
330
1F
100
AcDbEntity
  8
1
  6
Continuous
 62
     7
100
AcDbLine
 10
2252.674381093435
 20
938.7725560937308
 30
0.0
 11
2232.855578939918
 21
938.7725560937308
 31
0.0
  0
LINE
  5
14A
330
1F
100
AcDbEntity
  8
1
  6
Continuous
 62
     7
100
AcDbLine
 10
2232.240624363695
 20
931.5317454722851
 30
0.0
 11
2232.240624363695
 21
938.7725560937308
 31
0.0
  0
LINE
  5
14B
330
1F
100
AcDbEntity
  8
1
  6
Continuous
 62
     7
100
AcDbLine
 10
2232.240624363695
 20
938.7725560937308
 30
0.0
 11
2253.289335669658
 21
938.7725560937308
 31
0.0
  0
LINE
  5
14C
330
1F
100
AcDbEntity
  8
1
  6
Continuous
 62
     7
100
AcDbLine
 10
2253.289335669658
 20
938.7725560937308
 30
0.0
 11
2253.289335669658
 21
932.6509211502323
 31
0.0
  0
LINE
  5
14D
330
1F
100
AcDbEntity
  8
1
  6
Continuous
 62
     7
100
AcDbLine
 10
2238.302802190187
 20
938.7725560937308
 30
0.0
 11
2238.302802190187
 21
932.6509211502323
 31
0.0
  0
LINE
  5
14E
330
1F
100
AcDbEntity
  8
1
  6
Continuous
 62
     7
100
AcDbLine
 10
2247.227157843168
 20
938.7725560937308
 30
0.0
 11
2247.227157843168
 21
932.6509211502323
 31
0.0
  0
LINE
  5
14F
330
1F
100
AcDbEntity
  8
1
  6
Continuous
 62
     7
100
AcDbLine
 10
2167.264980016677
 20
954.9509211502334
 30
0.0
 11
2132.764980016677
 21
954.9509211502334
 31
0.0
  0
LINE
  5
150
330
1F
100
AcDbEntity
  8
1
  6
Continuous
 62
     7
100
AcDbLine
 10
2167.264980016677
 20
952.6509211502346
 30
0.0
 11
2167.264980016677
 21
962.6509211502346
 31
0.0
  0
LINE
  5
151
330
1F
100
AcDbEntity
  8
1
  6
Continuous
 62
     7
100
AcDbLine
 10
2223.264980016677
 20
952.6509211502346
 30
0.0
 11
2167.264980016677
 21
952.6509211502346
 31
0.0
  0
LINE
  5
152
330
1F
100
AcDbEntity
  8
1
  6
Continuous
 62
     7
100
AcDbLine
 10
2223.264980016677
 20
962.6509211502346
 30
0.0
 11
2223.264980016677
 21
952.6509211502346
 31
0.0
  0
LINE
  5
153
330
1F
100
AcDbEntity
  8
1
  6
Continuous
 62
     7
100
AcDbLine
 10
2167.264980016677
 20
962.6509211502346
 30
0.0
 11
2223.264980016677
 21
962.6509211502346
 31
0.0
  0
LINE
  5
154
330
1F
100
AcDbEntity
  8
1
  6
Continuous
 62
     7
100
AcDbLine
 10
2257.764980016677
 20
952.6509211502346
 30
0.0
 11
2257.764980016677
 21
954.9509211502334
 31
0.0
  0
LINE
  5
155
330
1F
100
AcDbEntity
  8
1
  6
Continuous
 62
     7
100
AcDbLine
 10
2132.764980016677
 20
954.9509211502334
 30
0.0
 11
2132.764980016677
 21
952.6509211502346
 31
0.0
  0
LINE
  5
156
330
1F
100
AcDbEntity
  8
1
  6
Continuous
 62
     7
100
AcDbLine
 10
2257.764980016677
 20
954.9509211502334
 30
0.0
 11
2223.264980016677
 21
954.9509211502334
 31
0.0
  0
LINE
  5
157
330
1F
100
AcDbEntity
  8
1
  6
Continuous
 62
     7
100
AcDbLine
 10
2137.855578939919
 20
949.4509211502334
 30
0.0
 11
2157.674381093436
 21
949.4509211502334
 31
0.0
  0
LINE
  5
158
330
1F
100
AcDbEntity
  8
1
  6
Continuous
 62
     7
100
AcDbLine
 10
2157.674381093436
 20
949.4509211502334
 30
0.0
 11
2157.674381093436
 21
946.9509211502334
 31
0.0
  0
LINE
  5
159
330
1F
100
AcDbEntity
  8
1
  6
Continuous
 62
     7
100
AcDbLine
 10
2157.674381093436
 20
946.9509211502334
 30
0.0
 11
2137.855578939919
 21
946.9509211502334
 31
0.0
  0
LINE
  5
15A
330
1F
100
AcDbEntity
  8
1
  6
Continuous
 62
     7
100
AcDbLine
 10
2137.855578939919
 20
946.9509211502334
 30
0.0
 11
2137.855578939919
 21
949.4509211502334
 31
0.0
  0
LINE
  5
15B
330
1F
100
AcDbEntity
  8
1
  6
Continuous
 62
     7
100
AcDbLine
 10
2137.240624363697
 20
939.7101105287877
 30
0.0
 11
2137.240624363697
 21
946.9509211502334
 31
0.0
  0
LINE
  5
15C
330
1F
100
AcDbEntity
  8
1
  6
Continuous
 62
     7
100
AcDbLine
 10
2137.240624363697
 20
946.9509211502334
 30
0.0
 11
2158.289335669661
 21
946.9509211502334
 31
0.0
  0
LINE
  5
15D
330
1F
100
AcDbEntity
  8
1
  6
Continuous
 62
     7
100
AcDbLine
 10
2158.289335669661
 20
946.9509211502334
 30
0.0
 11
2158.289335669661
 21
939.7101105287877
 31
0.0
  0
LINE
  5
15E
330
1F
100
AcDbEntity
  8
1
  6
Continuous
 62
     7
100
AcDbLine
 10
2143.302802190187
 20
946.9509211502334
 30
0.0
 11
2143.302802190187
 21
939.7101105287877
 31
0.0
  0
LINE
  5
15F
330
1F
100
AcDbEntity
  8
1
  6
Continuous
 62
     7
100
AcDbLine
 10
2152.22715784317
 20
946.9509211502334
 30
0.0
 11
2152.22715784317
 21
939.7101105287877
 31
0.0
  0
LINE
  5
160
330
1F
100
AcDbEntity
  8
1
  6
Continuous
 62
     7
100
AcDbLine
 10
2152.514980016677
 20
979.1509211502255
 30
0.0
 11
2143.014980016677
 21
979.1509211502255
 31
0.0
  0
LINE
  5
161
330
1F
100
AcDbEntity
  8
1
  6
Continuous
 62
     7
100
AcDbLine
 10
2238.014980016677
 20
979.1509211502255
 30
0.0
 11
2247.514980016677
 21
979.1509211502255
 31
0.0
  0
LINE
  5
162
330
1F
100
AcDbEntity
  8
1
  6
Continuous
 62
     7
100
AcDbLine
 10
2152.564078024339
 20
964.4172922838027
 30
0.0
 11
2155.053033035759
 21
995.1509211502255
 31
0.0
  0
LINE
  5
163
330
1F
100
AcDbEntity
  8
1
  6
Continuous
 62
     7
100
AcDbLine
 10
2162.526025005258
 20
963.5457348563266
 30
0.0
 11
2152.564078024339
 21
964.4172922838027
 31
0.0
  0
LINE
  5
164
330
1F
100
AcDbEntity
  8
1
  6
Continuous
 62
     7
100
AcDbLine
 10
2165.014980016677
 20
994.2793637227485
 30
0.0
 11
2162.526025005258
 21
963.5457348563266
 31
0.0
  0
LINE
  5
165
330
1F
100
AcDbEntity
  8
1
  6
Continuous
 62
     7
100
AcDbLine
 10
2237.965882009028
 20
964.4172922838045
 30
0.0
 11
2235.514980016677
 21
995.1509211502255
 31
0.0
  0
LINE
  5
166
330
1F
100
AcDbEntity
  8
1
  6
Continuous
 62
     7
100
AcDbLine
 10
2228.00393502811
 20
963.5457348563266
 30
0.0
 11
2237.965882009028
 21
964.4172922838045
 31
0.0
  0
LINE
  5
167
330
1F
100
AcDbEntity
  8
1
  6
Continuous
 62
     7
100
AcDbLine
 10
2225.553033035759
 20
994.2793637227466
 30
0.0
 11
2228.00393502811
 21
963.5457348563266
 31
0.0
  0
LINE
  5
168
330
1F
100
AcDbEntity
  8
1
  6
Continuous
 62
     7
100
AcDbLine
 10
2247.227157843168
 20
946.9509211502334
 30
0.0
 11
2247.227157843168
 21
939.7101105287877
 31
0.0
  0
LINE
  5
169
330
1F
100
AcDbEntity
  8
1
  6
Continuous
 62
     7
100
AcDbLine
 10
2238.302802190187
 20
946.9509211502334
 30
0.0
 11
2238.302802190187
 21
939.7101105287877
 31
0.0
  0
LINE
  5
16A
330
1F
100
AcDbEntity
  8
1
  6
Continuous
 62
     7
100
AcDbLine
 10
2253.289335669658
 20
946.9509211502334
 30
0.0
 11
2253.289335669658
 21
939.7101105287877
 31
0.0
  0
LINE
  5
16B
330
1F
100
AcDbEntity
  8
1
  6
Continuous
 62
     7
100
AcDbLine
 10
2232.240624363695
 20
939.7101105287877
 30
0.0
 11
2232.240624363695
 21
946.9509211502334
 31
0.0
  0
LINE
  5
16C
330
1F
100
AcDbEntity
  8
1
  6
Continuous
 62
     7
100
AcDbLine
 10
2232.855578939918
 20
946.9509211502334
 30
0.0
 11
2232.855578939918
 21
949.4509211502334
 31
0.0
  0
LINE
  5
16D
330
1F
100
AcDbEntity
  8
1
  6
Continuous
 62
     7
100
AcDbLine
 10
2252.674381093435
 20
949.4509211502334
 30
0.0
 11
2252.674381093435
 21
946.9509211502334
 31
0.0
  0
LINE
  5
16E
330
1F
100
AcDbEntity
  8
1
  6
Continuous
 62
     7
100
AcDbLine
 10
2152.514980016677
 20
979.1509211502255
 30
0.0
 11
2152.514980016677
 21
954.9509211502334
 31
0.0
  0
LINE
  5
16F
330
1F
100
AcDbEntity
  8
1
  6
Continuous
 62
     7
100
AcDbLine
 10
2152.514980016677
 20
966.7509211502245
 30
0.0
 11
2143.014980016677
 21
966.7509211502245
 31
0.0
  0
LINE
  5
170
330
1F
100
AcDbEntity
  8
1
  6
Continuous
 62
     3
100
AcDbLine
 10
2143.826980016676
 20
966.7509211502245
 30
0.0
 11
2143.014980016677
 21
968.1573464059712
 31
0.0
  0
LINE
  5
171
330
1F
100
AcDbEntity
  8
1
  6
Continuous
 62
     3
100
AcDbLine
 10
2151.702980016678
 20
966.7509211502245
 30
0.0
 11
2151.702980016678
 21
954.9509211502334
 31
0.0
  0
LINE
  5
172
330
1F
100
AcDbEntity
  8
1
  6
Continuous
 62
     3
100
AcDbLine
 10
2152.514980016677
 20
968.1573464059712
 30
0.0
 11
2151.702980016678
 21
966.7509211502245
 31
0.0
  0
LINE
  5
173
330
1F
100
AcDbEntity
  8
1
  6
DASH_CENTER
 62
     3
100
AcDbLine
 10
2147.764980016677
 20
979.1509211502255
 30
0.0
 11
2147.764980016677
 21
929.1509211502255
 31
0.0
  0
LINE
  5
174
330
1F
100
AcDbEntity
  8
1
  6
DASH_CENTER
 62
     3
100
AcDbLine
 10
2242.764980016677
 20
929.1509211502255
 30
0.0
 11
2242.764980016677
 21
979.1509211502255
 31
0.0
  0
LINE
  5
175
330
1F
100
AcDbEntity
  8
1
  6
Continuous
 62
     3
100
AcDbLine
 10
2238.826980016678
 20
966.7509211502245
 30
0.0
 11
2238.014980016677
 21
968.1573464059712
 31
0.0
  0
LINE
  5
176
330
1F
100
AcDbEntity
  8
1
  6
Continuous
 62
     3
100
AcDbLine
 10
2246.702980016678
 20
966.7509211502245
 30
0.0
 11
2246.702980016678
 21
954.9509211502334
 31
0.0
  0
LINE
  5
177
330
1F
100
AcDbEntity
  8
1
  6
Continuous
 62
     3
100
AcDbLine
 10
2247.514980016677
 20
968.1573464059712
 30
0.0
 11
2246.702980016678
 21
966.7509211502245
 31
0.0
  0
LINE
  5
178
330
1F
100
AcDbEntity
  8
1
  6
Continuous
 62
     7
100
AcDbLine
 10
2247.514980016677
 20
966.7509211502245
 30
0.0
 11
2238.014980016677
 21
966.7509211502245
 31
0.0
  0
LINE
  5
179
330
1F
100
AcDbEntity
  8
1
  6
Continuous
 62
     7
100
AcDbLine
 10
2247.514980016677
 20
979.1509211502255
 30
0.0
 11
2247.514980016677
 21
954.9509211502334
 31
0.0
  0
LINE
  5
17A
330
1F
100
AcDbEntity
  8
1
  6
Continuous
 62
     7
100
AcDbLine
 10
1044.514980016676
 20
979.1509211502255
 30
0.0
 11
1044.514980016676
 21
954.9509211502336
 31
0.0
  0
LINE
  5
17B
330
1F
100
AcDbEntity
  8
1
  6
Continuous
 62
     7
100
AcDbLine
 10
1044.514980016676
 20
966.7509211502245
 30
0.0
 11
1035.014980016676
 21
966.7509211502245
 31
0.0
  0
LINE
  5
17C
330
1F
100
AcDbEntity
  8
1
  6
Continuous
 62
     3
100
AcDbLine
 10
1044.514980016676
 20
968.1573464059712
 30
0.0
 11
1043.702980016677
 21
966.7509211502245
 31
0.0
  0
LINE
  5
17D
330
1F
100
AcDbEntity
  8
1
  6
Continuous
 62
     3
100
AcDbLine
 10
1043.702980016677
 20
966.7509211502245
 30
0.0
 11
1043.702980016677
 21
954.9509211502336
 31
0.0
  0
LINE
  5
17E
330
1F
100
AcDbEntity
  8
1
  6
Continuous
 62
     3
100
AcDbLine
 10
1035.826980016678
 20
966.7509211502245
 30
0.0
 11
1035.014980016676
 21
968.1573464059712
 31
0.0
  0
LINE
  5
17F
330
1F
100
AcDbEntity
  8
1
  6
DASH_CENTER
 62
     3
100
AcDbLine
 10
1039.764980016676
 20
929.1509211502255
 30
0.0
 11
1039.764980016676
 21
979.1509211502255
 31
0.0
  0
LINE
  5
180
330
1F
100
AcDbEntity
  8
1
  6
Continuous
 62
     3
100
AcDbLine
 10
949.5149800166764
 20
968.1573464059712
 30
0.0
 11
948.7029800166774
 21
966.7509211502245
 31
0.0
  0
LINE
  5
181
330
1F
100
AcDbEntity
  8
1
  6
Continuous
 62
     3
100
AcDbLine
 10
948.7029800166774
 20
966.7509211502245
 30
0.0
 11
948.7029800166774
 21
954.9509211502336
 31
0.0
  0
LINE
  5
182
330
1F
100
AcDbEntity
  8
1
  6
Continuous
 62
     3
100
AcDbLine
 10
940.8269800166763
 20
966.7509211502245
 30
0.0
 11
940.0149800166764
 21
968.1573464059712
 31
0.0
  0
LINE
  5
183
330
1F
100
AcDbEntity
  8
1
  6
Continuous
 62
     7
100
AcDbLine
 10
949.5149800166764
 20
966.7509211502245
 30
0.0
 11
940.0149800166764
 21
966.7509211502245
 31
0.0
  0
LINE
  5
184
330
1F
100
AcDbEntity
  8
1
  6
Continuous
 62
     7
100
AcDbLine
 10
949.5149800166764
 20
979.1509211502255
 30
0.0
 11
949.5149800166764
 21
954.9509211502336
 31
0.0
  0
LINE
  5
185
330
1F
100
AcDbEntity
  8
1
  6
Continuous
 62
     7
100
AcDbLine
 10
1049.674381093435
 20
949.4509211502334
 30
0.0
 11
1049.674381093435
 21
946.9509211502334
 31
0.0
  0
LINE
  5
186
330
1F
100
AcDbEntity
  8
1
  6
Continuous
 62
     7
100
AcDbLine
 10
1029.855578939918
 20
946.9509211502334
 30
0.0
 11
1029.855578939918
 21
949.4509211502334
 31
0.0
  0
LINE
  5
187
330
1F
100
AcDbEntity
  8
1
  6
Continuous
 62
     7
100
AcDbLine
 10
1029.240624363695
 20
939.7101105287877
 30
0.0
 11
1029.240624363695
 21
946.9509211502334
 31
0.0
  0
LINE
  5
188
330
1F
100
AcDbEntity
  8
1
  6
Continuous
 62
     7
100
AcDbLine
 10
1029.240624363695
 20
946.9509211502334
 30
0.0
 11
1050.289335669659
 21
946.9509211502334
 31
0.0
  0
LINE
  5
189
330
1F
100
AcDbEntity
  8
1
  6
Continuous
 62
     7
100
AcDbLine
 10
1050.289335669659
 20
946.9509211502334
 30
0.0
 11
1050.289335669659
 21
939.7101105287877
 31
0.0
  0
LINE
  5
18A
330
1F
100
AcDbEntity
  8
1
  6
Continuous
 62
     7
100
AcDbLine
 10
1035.302802190186
 20
946.9509211502334
 30
0.0
 11
1035.302802190186
 21
939.7101105287877
 31
0.0
  0
LINE
  5
18B
330
1F
100
AcDbEntity
  8
1
  6
Continuous
 62
     7
100
AcDbLine
 10
1044.227157843167
 20
946.9509211502334
 30
0.0
 11
1044.227157843167
 21
939.7101105287877
 31
0.0
  0
LINE
  5
18C
330
1F
100
AcDbEntity
  8
1
  6
Continuous
 62
     7
100
AcDbLine
 10
1046.680896487226
 20
938.9509211502334
 30
0.0
 11
1032.849063546129
 21
938.9509211502334
 31
0.0
  0
LINE
  5
18D
330
1F
100
AcDbEntity
  8
1
  6
Continuous
 62
     7
100
AcDbLine
 10
1022.55303303576
 20
994.2793637227466
 30
0.0
 11
1025.00393502811
 21
963.5457348563266
 31
0.0
  0
LINE
  5
18E
330
1F
100
AcDbEntity
  8
1
  6
Continuous
 62
     7
100
AcDbLine
 10
1025.00393502811
 20
963.5457348563266
 30
0.0
 11
1034.965882009028
 21
964.4172922838045
 31
0.0
  0
LINE
  5
18F
330
1F
100
AcDbEntity
  8
1
  6
Continuous
 62
     7
100
AcDbLine
 10
1034.965882009028
 20
964.4172922838045
 30
0.0
 11
1032.514980016676
 21
995.1509211502255
 31
0.0
  0
LINE
  5
190
330
1F
100
AcDbEntity
  8
1
  6
Continuous
 62
     7
100
AcDbLine
 10
962.0149800166764
 20
994.2793637227485
 30
0.0
 11
959.5260250052575
 21
963.5457348563266
 31
0.0
  0
LINE
  5
191
330
1F
100
AcDbEntity
  8
1
  6
Continuous
 62
     7
100
AcDbLine
 10
959.5260250052575
 20
963.5457348563266
 30
0.0
 11
949.5640780243393
 21
964.4172922838027
 31
0.0
  0
LINE
  5
192
330
1F
100
AcDbEntity
  8
1
  6
Continuous
 62
     7
100
AcDbLine
 10
949.5640780243393
 20
964.4172922838027
 30
0.0
 11
952.0530330357597
 21
995.1509211502255
 31
0.0
  0
LINE
  5
193
330
1F
100
AcDbEntity
  8
1
  6
Continuous
 62
     7
100
AcDbLine
 10
1035.014980016676
 20
979.1509211502255
 30
0.0
 11
1044.514980016676
 21
979.1509211502255
 31
0.0
  0
LINE
  5
194
330
1F
100
AcDbEntity
  8
1
  6
Continuous
 62
     7
100
AcDbLine
 10
949.5149800166764
 20
979.1509211502255
 30
0.0
 11
940.0149800166764
 21
979.1509211502255
 31
0.0
  0
LINE
  5
195
330
1F
100
AcDbEntity
  8
1
  6
Continuous
 62
     7
100
AcDbLine
 10
951.6808964872275
 20
938.9509211502334
 30
0.0
 11
937.8490635461317
 21
938.9509211502334
 31
0.0
  0
LINE
  5
196
330
1F
100
AcDbEntity
  8
1
  6
Continuous
 62
     7
100
AcDbLine
 10
949.2271578431696
 20
946.9509211502334
 30
0.0
 11
949.2271578431696
 21
939.7101105287877
 31
0.0
  0
LINE
  5
197
330
1F
100
AcDbEntity
  8
1
  6
Continuous
 62
     7
100
AcDbLine
 10
940.3028021901873
 20
946.9509211502334
 30
0.0
 11
940.3028021901873
 21
939.7101105287877
 31
0.0
  0
LINE
  5
198
330
1F
100
AcDbEntity
  8
1
  6
Continuous
 62
     7
100
AcDbLine
 10
955.2893356696604
 20
946.9509211502334
 30
0.0
 11
955.2893356696604
 21
939.7101105287877
 31
0.0
  0
LINE
  5
199
330
1F
100
AcDbEntity
  8
1
  6
Continuous
 62
     7
100
AcDbLine
 10
934.2406243636965
 20
946.9509211502334
 30
0.0
 11
955.2893356696604
 21
946.9509211502334
 31
0.0
  0
LINE
  5
19A
330
1F
100
AcDbEntity
  8
1
  6
Continuous
 62
     7
100
AcDbLine
 10
934.2406243636965
 20
939.7101105287877
 30
0.0
 11
934.2406243636965
 21
946.9509211502334
 31
0.0
  0
LINE
  5
19B
330
1F
100
AcDbEntity
  8
1
  6
Continuous
 62
     7
100
AcDbLine
 10
934.8555789399197
 20
946.9509211502334
 30
0.0
 11
934.8555789399197
 21
949.4509211502334
 31
0.0
  0
LINE
  5
19C
330
1F
100
AcDbEntity
  8
1
  6
Continuous
 62
     7
100
AcDbLine
 10
954.6743810934363
 20
949.4509211502334
 30
0.0
 11
954.6743810934363
 21
946.9509211502334
 31
0.0
  0
LINE
  5
19D
330
1F
100
AcDbEntity
  8
1
  6
Continuous
 62
     7
100
AcDbLine
 10
1054.764980016676
 20
954.9509211502334
 30
0.0
 11
1020.264980016676
 21
954.9509211502334
 31
0.0
  0
LINE
  5
19E
330
1F
100
AcDbEntity
  8
1
  6
Continuous
 62
     7
100
AcDbLine
 10
929.7649800166764
 20
954.9509211502334
 30
0.0
 11
929.7649800166764
 21
952.6509211502346
 31
0.0
  0
LINE
  5
19F
330
1F
100
AcDbEntity
  8
1
  6
Continuous
 62
     7
100
AcDbLine
 10
1054.764980016676
 20
952.6509211502346
 30
0.0
 11
1054.764980016676
 21
954.9509211502334
 31
0.0
  0
LINE
  5
1A0
330
1F
100
AcDbEntity
  8
1
  6
Continuous
 62
     7
100
AcDbLine
 10
964.2649800166764
 20
962.6509211502346
 30
0.0
 11
1020.264980016676
 21
962.6509211502346
 31
0.0
  0
LINE
  5
1A1
330
1F
100
AcDbEntity
  8
1
  6
Continuous
 62
     7
100
AcDbLine
 10
1020.264980016676
 20
962.6509211502346
 30
0.0
 11
1020.264980016676
 21
952.6509211502346
 31
0.0
  0
LINE
  5
1A2
330
1F
100
AcDbEntity
  8
1
  6
Continuous
 62
     7
100
AcDbLine
 10
964.2649800166764
 20
952.6509211502346
 30
0.0
 11
964.2649800166764
 21
962.6509211502346
 31
0.0
  0
LINE
  5
1A3
330
1F
100
AcDbEntity
  8
1
  6
Continuous
 62
     7
100
AcDbLine
 10
964.2649800166764
 20
954.9509211502334
 30
0.0
 11
929.7649800166764
 21
954.9509211502334
 31
0.0
  0
LINE
  5
1A4
330
1F
100
AcDbEntity
  8
1
  6
Continuous
 62
     7
100
AcDbLine
 10
402.6998402266436
 20
1445.713726007575
 30
0.0
 11
402.6998402266436
 21
1440.713726007575
 31
0.0
  0
LINE
  5
1A5
330
1F
100
AcDbEntity
  8
1
  6
Continuous
 62
     7
100
AcDbLine
 10
392.6998402266436
 20
1445.713726007575
 30
0.0
 11
392.6998402266436
 21
1440.713726007575
 31
0.0
  0
LINE
  5
1A6
330
1F
100
AcDbEntity
  8
1
  6
DOT_CENTER
 62
     3
100
AcDbLine
 10
405.1998402266436
 20
1445.713726007575
 30
0.0
 11
390.1998402266436
 21
1445.713726007575
 31
0.0
  0
LINE
  5
1A7
330
1F
100
AcDbEntity
  8
1
  6
DOT_CENTER
 62
     3
100
AcDbLine
 10
390.1998402266436
 20
1350.713726007574
 30
0.0
 11
405.1998402266436
 21
1350.713726007574
 31
0.0
  0
LINE
  5
1A8
330
1F
100
AcDbEntity
  8
1
  6
Continuous
 62
     7
100
AcDbLine
 10
453.9728329660316
 20
865.1738257250968
 30
0.0
 11
455.2228329660284
 21
863.0087622156359
 31
0.0
  0
LINE
  5
1A9
330
1F
100
AcDbEntity
  8
1
  6
Continuous
 62
     7
100
AcDbLine
 10
439.2879655363963
 20
853.8087622156389
 30
0.0
 11
438.0379655363986
 21
855.9738257250976
 31
0.0
  0
LINE
  5
1AA
330
1F
100
AcDbEntity
  8
1
  6
Continuous
 62
     7
100
AcDbLine
 10
442.3758045619366
 20
847.2305589853615
 30
0.0
 11
438.7553992512117
 21
853.5012849275259
 31
0.0
  0
LINE
  5
1AB
330
1F
100
AcDbEntity
  8
1
  6
Continuous
 62
     7
100
AcDbLine
 10
438.7553992512117
 20
853.5012849275259
 30
0.0
 11
455.7553992512135
 21
863.3162395037476
 31
0.0
  0
LINE
  5
1AC
330
1F
100
AcDbEntity
  8
1
  6
Continuous
 62
     7
100
AcDbLine
 10
455.7553992512135
 20
863.3162395037476
 30
0.0
 11
459.3758045619375
 21
857.0455135615855
 31
0.0
  0
LINE
  5
1AD
330
1F
100
AcDbEntity
  8
1
  6
Continuous
 62
     7
100
AcDbLine
 10
443.0053992512135
 20
855.955023571581
 30
0.0
 11
446.6258045619347
 21
849.6842976294165
 31
0.0
  0
LINE
  5
1AE
330
1F
100
AcDbEntity
  8
1
  6
Continuous
 62
     7
100
AcDbLine
 10
451.5053992512135
 20
860.862500859693
 30
0.0
 11
455.1258045619366
 21
854.5917749175292
 31
0.0
  0
LINE
  5
1AF
330
1F
100
AcDbEntity
  8
1
  6
Continuous
 62
     7
100
AcDbLine
 10
451.0753451145924
 20
841.7925469641043
 30
0.0
 11
450.9253222527263
 21
842.0523846343979
 31
0.0
  0
LINE
  5
1B0
330
1F
100
AcDbEntity
  8
1
  6
Continuous
 62
     7
100
AcDbLine
 10
453.1243832202695
 20
841.2435088584289
 30
0.0
 11
451.0753451145924
 21
841.7925469641043
 31
0.0
  0
LINE
  5
1B1
330
1F
100
AcDbEntity
  8
1
  6
Continuous
 62
     7
100
AcDbLine
 10
459.1865610467617
 20
844.7435088584293
 30
0.0
 11
453.1243832202695
 21
841.2435088584289
 31
0.0
  0
LINE
  5
1B2
330
1F
100
AcDbEntity
  8
1
  6
Continuous
 62
     7
100
AcDbLine
 10
459.7355991524364
 20
846.7925469641064
 30
0.0
 11
459.1865610467617
 21
844.7435088584293
 31
0.0
  0
LINE
  5
1B3
330
1F
100
AcDbEntity
  8
1
  6
Continuous
 62
     7
100
AcDbLine
 10
435.4853009378176
 20
888.7946068733589
 30
0.0
 11
448.7353979138097
 21
865.8450329106535
 31
0.0
  0
LINE
  5
1B4
330
1F
100
AcDbEntity
  8
1
  6
Continuous
 62
     7
100
AcDbLine
 10
435.4855483226033
 20
888.7947497010316
 30
0.0
 11
426.8252942847603
 21
883.7947497010325
 31
0.0
  0
LINE
  5
1B5
330
1F
100
AcDbEntity
  8
1
  6
Continuous
 62
     3
100
AcDbLine
 10
452.1845577424647
 20
841.4953343362329
 30
0.0
 11
451.6285352737594
 21
842.4583848613891
 31
0.0
  0
LINE
  5
1B6
330
1F
100
AcDbEntity
  8
1
  6
Continuous
 62
     3
100
AcDbLine
 10
459.7355991524364
 20
846.7925469641064
 30
0.0
 11
451.0753451145924
 21
841.7925469641043
 31
0.0
  0
LINE
  5
1B7
330
1F
100
AcDbEntity
  8
1
  6
Continuous
 62
     3
100
AcDbLine
 10
434.7823356947333
 20
888.3887497010321
 30
0.0
 11
448.0323194999364
 21
865.4391103991387
 31
0.0
  0
LINE
  5
1B8
330
1F
100
AcDbEntity
  8
1
  6
Continuous
 62
     3
100
AcDbLine
 10
440.7784907178407
 20
861.2511103991398
 30
0.0
 11
427.5285069126335
 21
884.2007497010337
 31
0.0
  0
LINE
  5
1B9
330
1F
100
AcDbEntity
  8
1
  6
Continuous
 62
     7
100
AcDbLine
 10
440.0751438759667
 20
860.8450329106495
 30
0.0
 11
426.8250468999727
 21
883.7946068733586
 31
0.0
  0
LINE
  5
1BA
330
1F
100
AcDbEntity
  8
1
  6
Continuous
 62
     7
100
AcDbLine
 10
561.3188272180114
 20
930.845062877151
 30
0.0
 11
548.0687064311164
 21
953.7946663412
 31
0.0
  0
LINE
  5
1BB
330
1F
100
AcDbEntity
  8
1
  6
Continuous
 62
     3
100
AcDbLine
 10
562.0221740598845
 20
931.2511403656413
 30
0.0
 11
548.7721715275015
 21
954.200812103963
 31
0.0
  0
LINE
  5
1BC
330
1F
100
AcDbEntity
  8
1
  6
Continuous
 62
     3
100
AcDbLine
 10
556.0260003095987
 20
958.3888121039623
 30
0.0
 11
569.2760028419825
 21
935.4391403656414
 31
0.0
  0
LINE
  5
1BD
330
1F
100
AcDbEntity
  8
1
  6
Continuous
 62
     7
100
AcDbLine
 10
556.7292129374664
 20
958.7948121039609
 30
0.0
 11
548.0689588996233
 21
953.7948121039615
 31
0.0
  0
LINE
  5
1BE
330
1F
100
AcDbEntity
  8
1
  6
Continuous
 62
     3
100
AcDbLine
 10
458.8823640558585
 20
846.6463848613893
 30
0.0
 11
459.4383865245645
 21
845.683334336232
 31
0.0
  0
LINE
  5
1BF
330
1F
100
AcDbEntity
  8
1
  6
Continuous
 62
     7
100
AcDbLine
 10
459.5855762905713
 20
847.0523846343981
 30
0.0
 11
459.7355991524364
 21
846.7925469641064
 31
0.0
  0
LINE
  5
1C0
330
1F
100
AcDbEntity
  8
1
  6
Continuous
 62
     7
100
AcDbLine
 10
388.7991692523706
 20
929.6570428863142
 30
0.0
 11
425.6649344436687
 21
865.8043075587334
 31
0.0
  0
LINE
  5
1C1
330
1F
100
AcDbEntity
  8
1
  6
Continuous
 62
     7
100
AcDbLine
 10
425.6649344436687
 20
865.8043075587334
 30
0.0
 11
434.3251166006517
 21
870.8042660582978
 31
0.0
  0
LINE
  5
1C2
330
1F
100
AcDbEntity
  8
1
  6
Continuous
 62
     7
100
AcDbLine
 10
442.9853706384974
 20
875.8042660582991
 30
0.0
 11
451.6456965576736
 21
880.8043075590049
 31
0.0
  0
LINE
  5
1C3
330
1F
100
AcDbEntity
  8
1
  6
Continuous
 62
     7
100
AcDbLine
 10
451.6456965576736
 20
880.8043075590049
 30
0.0
 11
414.7799313663754
 21
944.6570428865869
 31
0.0
  0
LINE
  5
1C4
330
1F
100
AcDbEntity
  8
1
  6
Continuous
 62
     7
100
AcDbLine
 10
414.7799313663754
 20
944.6570428865869
 30
0.0
 11
388.7991692523706
 21
929.6570428863142
 31
0.0
  0
LINE
  5
1C5
330
1F
100
AcDbEntity
  8
1
  6
Continuous
 62
     7
100
AcDbLine
 10
556.7289604689627
 20
958.7946663412006
 30
0.0
 11
569.9790812558554
 21
935.8450628771523
 31
0.0
  0
LINE
  5
1C6
330
1F
100
AcDbEntity
  8
1
  6
Continuous
 62
     7
100
AcDbLine
 10
511.2928211190524
 20
997.4920344196153
 30
0.0
 11
546.9085944690487
 21
935.8043673119202
 31
0.0
  0
LINE
  5
1C7
330
1F
100
AcDbEntity
  8
1
  6
Continuous
 62
     7
100
AcDbLine
 10
546.9085944690487
 20
935.8043673119202
 30
0.0
 11
555.5687791941696
 21
940.8043272942014
 31
0.0
  0
LINE
  5
1C8
330
1F
100
AcDbEntity
  8
1
  6
Continuous
 62
     7
100
AcDbLine
 10
564.2290332320135
 20
945.8043272942014
 30
0.0
 11
572.8893671466385
 21
950.804373411082
 31
0.0
  0
LINE
  5
1C9
330
1F
100
AcDbEntity
  8
1
  6
Continuous
 62
     7
100
AcDbLine
 10
572.8893671466385
 20
950.804373411082
 30
0.0
 11
537.2735725337325
 21
1012.492028242631
 31
0.0
  0
LINE
  5
1CA
330
1F
100
AcDbEntity
  8
1
  6
Continuous
 62
     7
100
AcDbLine
 10
537.2735725337325
 20
1012.492028242631
 30
0.0
 11
511.2928211190524
 21
997.4920344196153
 31
0.0
  0
LINE
  5
1CB
330
1F
100
AcDbEntity
  8
1
  6
Continuous
 62
     7
100
AcDbLine
 10
382.6967915934265
 20
1355.713726007574
 30
0.0
 11
412.6963876643067
 21
1355.713726007574
 31
0.0
  0
LINE
  5
1CC
330
1F
100
AcDbEntity
  8
1
  6
Continuous
 62
     7
100
AcDbLine
 10
412.6963876643067
 20
1355.713726007574
 30
0.0
 11
412.6963876643067
 21
1440.713726007575
 31
0.0
  0
LINE
  5
1CD
330
1F
100
AcDbEntity
  8
1
  6
Continuous
 62
     7
100
AcDbLine
 10
412.6963876643067
 20
1440.713726007575
 30
0.0
 11
382.6967915934265
 21
1440.713726007575
 31
0.0
  0
LINE
  5
1CE
330
1F
100
AcDbEntity
  8
1
  6
Continuous
 62
     7
100
AcDbLine
 10
382.6967915934265
 20
1440.713726007575
 30
0.0
 11
382.6967915934265
 21
1355.713726007574
 31
0.0
  0
LINE
  5
1CF
330
1F
100
AcDbEntity
  8
1
  6
Continuous
 62
     7
100
AcDbLine
 10
392.6998402266436
 20
1355.713726007574
 30
0.0
 11
392.6998402266436
 21
1350.713726007574
 31
0.0
  0
LINE
  5
1D0
330
1F
100
AcDbEntity
  8
1
  6
Continuous
 62
     7
100
AcDbLine
 10
402.6998402266436
 20
1355.713726007574
 30
0.0
 11
402.6998402266436
 21
1350.713726007574
 31
0.0
  0
LINE
  5
1D1
330
1F
100
AcDbEntity
  8
1
  6
Continuous
 62
     7
100
AcDbLine
 10
542.6999650325006
 20
1355.713726007574
 30
0.0
 11
542.6999650325006
 21
1350.713726007574
 31
0.0
  0
LINE
  5
1D2
330
1F
100
AcDbEntity
  8
1
  6
Continuous
 62
     7
100
AcDbLine
 10
532.6999650325006
 20
1355.713726007574
 30
0.0
 11
532.6999650325006
 21
1350.713726007574
 31
0.0
  0
LINE
  5
1D3
330
1F
100
AcDbEntity
  8
1
  6
Continuous
 62
     7
100
AcDbLine
 10
522.6969163992835
 20
1440.713726007575
 30
0.0
 11
522.6969163992835
 21
1355.713726007574
 31
0.0
  0
LINE
  5
1D4
330
1F
100
AcDbEntity
  8
1
  6
Continuous
 62
     7
100
AcDbLine
 10
552.6965124701637
 20
1440.713726007575
 30
0.0
 11
522.6969163992835
 21
1440.713726007575
 31
0.0
  0
LINE
  5
1D5
330
1F
100
AcDbEntity
  8
1
  6
Continuous
 62
     7
100
AcDbLine
 10
552.6965124701637
 20
1355.713726007574
 30
0.0
 11
552.6965124701637
 21
1440.713726007575
 31
0.0
  0
LINE
  5
1D6
330
1F
100
AcDbEntity
  8
1
  6
Continuous
 62
     7
100
AcDbLine
 10
522.6969163992835
 20
1355.713726007574
 30
0.0
 11
552.6965124701637
 21
1355.713726007574
 31
0.0
  0
LINE
  5
1D7
330
1F
100
AcDbEntity
  8
1
  6
DOT_CENTER
 62
     3
100
AcDbLine
 10
530.1999650325006
 20
1350.713726007574
 30
0.0
 11
545.1999650325006
 21
1350.713726007574
 31
0.0
  0
LINE
  5
1D8
330
1F
100
AcDbEntity
  8
1
  6
DOT_CENTER
 62
     3
100
AcDbLine
 10
545.1999650325006
 20
1445.713726007575
 30
0.0
 11
530.1999650325006
 21
1445.713726007575
 31
0.0
  0
LINE
  5
1D9
330
1F
100
AcDbEntity
  8
1
  6
Continuous
 62
     7
100
AcDbLine
 10
532.6999650325006
 20
1445.713726007575
 30
0.0
 11
532.6999650325006
 21
1440.713726007575
 31
0.0
  0
LINE
  5
1DA
330
1F
100
AcDbEntity
  8
1
  6
Continuous
 62
     7
100
AcDbLine
 10
542.6999650325006
 20
1445.713726007575
 30
0.0
 11
542.6999650325006
 21
1440.713726007575
 31
0.0
  0
LINE
  5
1DB
330
1F
100
AcDbEntity
  8
1
  6
Continuous
 62
     7
100
AcDbLine
 10
1752.892935207993
 20
1445.713726007575
 30
0.0
 11
1752.892935207993
 21
1440.713726007575
 31
0.0
  0
LINE
  5
1DC
330
1F
100
AcDbEntity
  8
1
  6
Continuous
 62
     7
100
AcDbLine
 10
1742.892935207993
 20
1445.713726007575
 30
0.0
 11
1742.892935207993
 21
1440.713726007575
 31
0.0
  0
LINE
  5
1DD
330
1F
100
AcDbEntity
  8
1
  6
DOT_CENTER
 62
     3
100
AcDbLine
 10
1755.392935207993
 20
1445.713726007575
 30
0.0
 11
1740.392935207993
 21
1445.713726007575
 31
0.0
  0
LINE
  5
1DE
330
1F
100
AcDbEntity
  8
1
  6
DOT_CENTER
 62
     3
100
AcDbLine
 10
1740.392935207993
 20
1350.713726007574
 30
0.0
 11
1755.392935207993
 21
1350.713726007574
 31
0.0
  0
LINE
  5
1DF
330
1F
100
AcDbEntity
  8
1
  6
Continuous
 62
     7
100
AcDbLine
 10
1732.889886574776
 20
1355.713726007574
 30
0.0
 11
1762.889482645655
 21
1355.713726007574
 31
0.0
  0
LINE
  5
1E0
330
1F
100
AcDbEntity
  8
1
  6
Continuous
 62
     7
100
AcDbLine
 10
1762.889482645655
 20
1355.713726007574
 30
0.0
 11
1762.889482645655
 21
1440.713726007575
 31
0.0
  0
LINE
  5
1E1
330
1F
100
AcDbEntity
  8
1
  6
Continuous
 62
     7
100
AcDbLine
 10
1762.889482645655
 20
1440.713726007575
 30
0.0
 11
1732.889886574776
 21
1440.713726007575
 31
0.0
  0
LINE
  5
1E2
330
1F
100
AcDbEntity
  8
1
  6
Continuous
 62
     7
100
AcDbLine
 10
1732.889886574776
 20
1440.713726007575
 30
0.0
 11
1732.889886574776
 21
1355.713726007574
 31
0.0
  0
LINE
  5
1E3
330
1F
100
AcDbEntity
  8
1
  6
Continuous
 62
     7
100
AcDbLine
 10
1742.892935207993
 20
1355.713726007574
 30
0.0
 11
1742.892935207993
 21
1350.713726007574
 31
0.0
  0
LINE
  5
1E4
330
1F
100
AcDbEntity
  8
1
  6
Continuous
 62
     7
100
AcDbLine
 10
1752.892935207993
 20
1355.713726007574
 30
0.0
 11
1752.892935207993
 21
1350.713726007574
 31
0.0
  0
LINE
  5
1E5
330
1F
100
AcDbEntity
  8
1
  6
Continuous
 62
     7
100
AcDbLine
 10
1512.89333184705
 20
1355.713726007574
 30
0.0
 11
1512.89333184705
 21
1350.713726007574
 31
0.0
  0
LINE
  5
1E6
330
1F
100
AcDbEntity
  8
1
  6
Continuous
 62
     7
100
AcDbLine
 10
1502.89333184705
 20
1355.713726007574
 30
0.0
 11
1502.89333184705
 21
1350.713726007574
 31
0.0
  0
LINE
  5
1E7
330
1F
100
AcDbEntity
  8
1
  6
Continuous
 62
     7
100
AcDbLine
 10
1492.890283213833
 20
1440.713726007575
 30
0.0
 11
1492.890283213833
 21
1355.713726007574
 31
0.0
  0
LINE
  5
1E8
330
1F
100
AcDbEntity
  8
1
  6
Continuous
 62
     7
100
AcDbLine
 10
1522.889879284714
 20
1440.713726007575
 30
0.0
 11
1492.890283213833
 21
1440.713726007575
 31
0.0
  0
LINE
  5
1E9
330
1F
100
AcDbEntity
  8
1
  6
Continuous
 62
     7
100
AcDbLine
 10
1522.889879284714
 20
1355.713726007574
 30
0.0
 11
1522.889879284714
 21
1440.713726007575
 31
0.0
  0
LINE
  5
1EA
330
1F
100
AcDbEntity
  8
1
  6
Continuous
 62
     7
100
AcDbLine
 10
1492.890283213833
 20
1355.713726007574
 30
0.0
 11
1522.889879284714
 21
1355.713726007574
 31
0.0
  0
LINE
  5
1EB
330
1F
100
AcDbEntity
  8
1
  6
Continuous
 62
     7
100
AcDbLine
 10
1747.466612569595
 20
1012.491802376908
 30
0.0
 11
1721.485861154916
 21
997.4918085538932
 31
0.0
  0
LINE
  5
1EC
330
1F
100
AcDbEntity
  8
1
  6
Continuous
 62
     7
100
AcDbLine
 10
1783.082407182503
 20
950.8041475453604
 30
0.0
 11
1747.466612569595
 21
1012.491802376908
 31
0.0
  0
LINE
  5
1ED
330
1F
100
AcDbEntity
  8
1
  6
Continuous
 62
     7
100
AcDbLine
 10
1774.422073267877
 20
945.8041014284795
 30
0.0
 11
1783.082407182503
 21
950.8041475453604
 31
0.0
  0
LINE
  5
1EE
330
1F
100
AcDbEntity
  8
1
  6
Continuous
 62
     7
100
AcDbLine
 10
1757.101634504912
 20
935.8041414461981
 30
0.0
 11
1765.761819230032
 21
940.8041014284795
 31
0.0
  0
LINE
  5
1EF
330
1F
100
AcDbEntity
  8
1
  6
Continuous
 62
     7
100
AcDbLine
 10
1721.485861154916
 20
997.4918085538932
 30
0.0
 11
1757.101634504912
 21
935.8041414461981
 31
0.0
  0
LINE
  5
1F0
330
1F
100
AcDbEntity
  8
1
  6
Continuous
 62
     7
100
AcDbLine
 10
1766.922000504825
 20
958.7944404754783
 30
0.0
 11
1780.17212129172
 21
935.8448370114304
 31
0.0
  0
LINE
  5
1F1
330
1F
100
AcDbEntity
  8
1
  6
Continuous
 62
     7
100
AcDbLine
 10
1538.370882608338
 20
894.6570777433224
 30
0.0
 11
1512.390120494333
 21
879.6570777430499
 31
0.0
  0
LINE
  5
1F2
330
1F
100
AcDbEntity
  8
1
  6
Continuous
 62
     7
100
AcDbLine
 10
1575.236647799637
 20
830.8043424157404
 30
0.0
 11
1538.370882608338
 21
894.6570777433224
 31
0.0
  0
LINE
  5
1F3
330
1F
100
AcDbEntity
  8
1
  6
Continuous
 62
     7
100
AcDbLine
 10
1566.576321880461
 20
825.8043009150345
 30
0.0
 11
1575.236647799637
 21
830.8043424157404
 31
0.0
  0
LINE
  5
1F4
330
1F
100
AcDbEntity
  8
1
  6
Continuous
 62
     7
100
AcDbLine
 10
1549.25588568563
 20
815.8043424154689
 30
0.0
 11
1557.916067842615
 21
820.8043009150333
 31
0.0
  0
LINE
  5
1F5
330
1F
100
AcDbEntity
  8
1
  6
Continuous
 62
     7
100
AcDbLine
 10
1512.390120494333
 20
879.6570777430499
 30
0.0
 11
1549.25588568563
 21
815.8043424154689
 31
0.0
  0
LINE
  5
1F6
330
1F
100
AcDbEntity
  8
1
  6
Continuous
 62
     7
100
AcDbLine
 10
1583.176527532534
 20
797.0524194911336
 30
0.0
 11
1583.326550394399
 21
796.7925818208419
 31
0.0
  0
LINE
  5
1F7
330
1F
100
AcDbEntity
  8
1
  6
Continuous
 62
     3
100
AcDbLine
 10
1582.473315297821
 20
796.6464197181248
 30
0.0
 11
1583.029337766527
 21
795.6833691929676
 31
0.0
  0
LINE
  5
1F8
330
1F
100
AcDbEntity
  8
1
  6
Continuous
 62
     7
100
AcDbLine
 10
1766.922252973331
 20
958.7945862382387
 30
0.0
 11
1758.261998935487
 21
953.7945862382392
 31
0.0
  0
LINE
  5
1F9
330
1F
100
AcDbEntity
  8
1
  6
Continuous
 62
     3
100
AcDbLine
 10
1766.219040345462
 20
958.3885862382406
 30
0.0
 11
1779.469042877845
 21
935.4389144999193
 31
0.0
  0
LINE
  5
1FA
330
1F
100
AcDbEntity
  8
1
  6
DASH_CENTER
 62
     3
100
AcDbLine
 10
1733.480795228782
 20
1006.715948596575
 30
0.0
 11
1787.592176784242
 21
912.9933453956353
 31
0.0
  0
LINE
  5
1FB
330
1F
100
AcDbEntity
  8
1
  6
Continuous
 62
     3
100
AcDbLine
 10
1772.215214095747
 20
931.2509144999194
 30
0.0
 11
1758.965211563364
 21
954.200586238241
 31
0.0
  0
LINE
  5
1FC
330
1F
100
AcDbEntity
  8
1
  6
Continuous
 62
     7
100
AcDbLine
 10
1771.511867253876
 20
930.8448370114295
 30
0.0
 11
1758.261746466981
 21
953.7944404754783
 31
0.0
  0
LINE
  5
1FD
330
1F
100
AcDbEntity
  8
1
  6
Continuous
 62
     7
100
AcDbLine
 10
1563.66609511793
 20
810.845067767385
 30
0.0
 11
1550.415998141934
 21
833.7946417300939
 31
0.0
  0
LINE
  5
1FE
330
1F
100
AcDbEntity
  8
1
  6
Continuous
 62
     3
100
AcDbLine
 10
1564.369441959802
 20
811.2511452558754
 30
0.0
 11
1551.119458154596
 21
834.2007845577693
 31
0.0
  0
LINE
  5
1FF
330
1F
100
AcDbEntity
  8
1
  6
Continuous
 62
     3
100
AcDbLine
 10
1558.373286936695
 20
838.3887845577676
 30
0.0
 11
1571.623270741899
 21
815.4391452558741
 31
0.0
  0
LINE
  5
200
330
1F
100
AcDbEntity
  8
1
  6
Continuous
 62
     7
100
AcDbLine
 10
1583.326550394399
 20
796.7925818208419
 30
0.0
 11
1574.666296356555
 21
791.7925818208398
 31
0.0
  0
LINE
  5
201
330
1F
100
AcDbEntity
  8
1
  6
Continuous
 62
     3
100
AcDbLine
 10
1575.775508984426
 20
791.4953691929684
 30
0.0
 11
1575.219486515721
 21
792.4584197181239
 31
0.0
  0
LINE
  5
202
330
1F
100
AcDbEntity
  8
1
  6
Continuous
 62
     7
100
AcDbLine
 10
1559.076499564565
 20
838.7947845577671
 30
0.0
 11
1550.416245526722
 21
833.794784557768
 31
0.0
  0
LINE
  5
203
330
1F
100
AcDbEntity
  8
1
  6
Continuous
 62
     7
100
AcDbLine
 10
1559.076252179781
 20
838.7946417300943
 30
0.0
 11
1572.326349155772
 21
815.8450677673889
 31
0.0
  0
LINE
  5
204
330
1F
100
AcDbEntity
  8
1
  6
Continuous
 62
     7
100
AcDbLine
 10
1583.326550394399
 20
796.7925818208419
 30
0.0
 11
1582.777512288723
 21
794.7435437151648
 31
0.0
  0
LINE
  5
205
330
1F
100
AcDbEntity
  8
1
  6
Continuous
 62
     7
100
AcDbLine
 10
1582.777512288723
 20
794.7435437151648
 30
0.0
 11
1576.715334462232
 21
791.2435437151644
 31
0.0
  0
LINE
  5
206
330
1F
100
AcDbEntity
  8
1
  6
Continuous
 62
     7
100
AcDbLine
 10
1576.715334462232
 20
791.2435437151644
 30
0.0
 11
1574.666296356555
 21
791.7925818208398
 31
0.0
  0
LINE
  5
207
330
1F
100
AcDbEntity
  8
1
  6
Continuous
 62
     7
100
AcDbLine
 10
1574.666296356555
 20
791.7925818208398
 30
0.0
 11
1574.516273494689
 21
792.0524194911332
 31
0.0
  0
LINE
  5
208
330
1F
100
AcDbEntity
  8
1
  6
Continuous
 62
     7
100
AcDbLine
 10
1581.221350493177
 20
805.1612018081814
 30
0.0
 11
1568.471350493177
 21
797.7999858760134
 31
0.0
  0
LINE
  5
209
330
1F
100
AcDbEntity
  8
1
  6
Continuous
 62
     7
100
AcDbLine
 10
1575.096350493176
 20
810.8625357164285
 30
0.0
 11
1578.716755803899
 21
804.5918097742647
 31
0.0
  0
LINE
  5
20A
330
1F
100
AcDbEntity
  8
1
  6
Continuous
 62
     7
100
AcDbLine
 10
1566.596350493176
 20
805.9550584283165
 30
0.0
 11
1570.216755803897
 21
799.684332486152
 31
0.0
  0
LINE
  5
20B
330
1F
100
AcDbEntity
  8
1
  6
Continuous
 62
     7
100
AcDbLine
 10
1579.346350493177
 20
813.3162743604833
 30
0.0
 11
1582.9667558039
 21
807.045548418321
 31
0.0
  0
LINE
  5
20C
330
1F
100
AcDbEntity
  8
1
  6
Continuous
 62
     7
100
AcDbLine
 10
1562.346350493173
 20
803.5013197842616
 30
0.0
 11
1579.346350493177
 21
813.3162743604833
 31
0.0
  0
LINE
  5
20D
330
1F
100
AcDbEntity
  8
1
  6
Continuous
 62
     7
100
AcDbLine
 10
1565.9667558039
 20
797.2305938420971
 30
0.0
 11
1562.346350493173
 21
803.5013197842616
 31
0.0
  0
LINE
  5
20E
330
1F
100
AcDbEntity
  8
1
  6
Continuous
 62
     7
100
AcDbLine
 10
1562.878916778358
 20
803.8087970723743
 30
0.0
 11
1561.628916778362
 21
805.9738605818332
 31
0.0
  0
LINE
  5
20F
330
1F
100
AcDbEntity
  8
1
  6
Continuous
 62
     7
100
AcDbLine
 10
1578.813784207991
 20
813.0087970723714
 30
0.0
 11
1562.878916778358
 21
803.8087970723743
 31
0.0
  0
LINE
  5
210
330
1F
100
AcDbEntity
  8
1
  6
Continuous
 62
     7
100
AcDbLine
 10
1577.563784207994
 20
815.1738605818323
 30
0.0
 11
1578.813784207991
 21
813.0087970723714
 31
0.0
  0
LINE
  5
211
330
1F
100
AcDbEntity
  8
1
  6
Continuous
 62
     7
100
AcDbLine
 10
1561.628916778362
 20
805.9738605818332
 30
0.0
 11
1577.563784207994
 21
815.1738605818323
 31
0.0
  0
LINE
  5
212
330
1F
100
AcDbEntity
  8
1
  6
DOT_CENTER
 62
     3
100
AcDbLine
 10
1500.39333184705
 20
1350.713726007574
 30
0.0
 11
1515.39333184705
 21
1350.713726007574
 31
0.0
  0
LINE
  5
213
330
1F
100
AcDbEntity
  8
1
  6
DOT_CENTER
 62
     3
100
AcDbLine
 10
1515.39333184705
 20
1445.713726007575
 30
0.0
 11
1500.39333184705
 21
1445.713726007575
 31
0.0
  0
LINE
  5
214
330
1F
100
AcDbEntity
  8
1
  6
Continuous
 62
     7
100
AcDbLine
 10
1502.89333184705
 20
1445.713726007575
 30
0.0
 11
1502.89333184705
 21
1440.713726007575
 31
0.0
  0
LINE
  5
215
330
1F
100
AcDbEntity
  8
1
  6
Continuous
 62
     7
100
AcDbLine
 10
1512.89333184705
 20
1445.713726007575
 30
0.0
 11
1512.89333184705
 21
1440.713726007575
 31
0.0
  0
LINE
  5
216
330
1F
100
AcDbEntity
  8
1
  6
Continuous
 62
     3
100
AcDbLine
 10
1035.826980016676
 20
954.9509211502333
 30
0.0
 11
1035.826980016678
 21
966.7509211502245
 31
0.0
  0
LINE
  5
217
330
1F
100
AcDbEntity
  8
1
  6
Continuous
 62
     7
100
AcDbLine
 10
1035.014980016676
 20
954.9509211502333
 30
0.0
 11
1035.014980016676
 21
979.1509211502255
 31
0.0
  0
LINE
  5
218
330
1F
100
AcDbEntity
  8
1
  6
Continuous
 62
     3
100
AcDbLine
 10
940.8269800166763
 20
954.9509211502333
 30
0.0
 11
940.8269800166763
 21
966.7509211502245
 31
0.0
  0
LINE
  5
219
330
1F
100
AcDbEntity
  8
1
  6
Continuous
 62
     7
100
AcDbLine
 10
940.0149800166764
 20
954.9509211502333
 30
0.0
 11
940.0149800166764
 21
979.1509211502255
 31
0.0
  0
LINE
  5
21A
330
1F
100
AcDbEntity
  8
1
  6
Continuous
 62
     7
100
AcDbLine
 10
1767.893332591511
 20
1430.732752517117
 30
0.0
 11
1767.893332591511
 21
1428.232752517117
 31
0.0
  0
LINE
  5
21B
330
1F
100
AcDbEntity
  8
1
  6
Continuous
 62
     7
100
AcDbLine
 10
1767.893332591511
 20
1368.232752517117
 30
0.0
 11
1767.893729975142
 21
1365.732752517117
 31
0.0
  0
LINE
  5
21C
330
1F
100
AcDbEntity
  8
1
  6
DASHED
 62
     4
100
AcDbLine
 10
1770.893332591515
 20
1373.232752517117
 30
0.0
 11
1770.893332591515
 21
1423.232752517117
 31
0.0
  0
LINE
  5
21D
330
1F
100
AcDbEntity
  8
1
  6
Continuous
 62
     7
100
AcDbLine
 10
1789.010646689332
 20
956.5362192971943
 30
0.0
 11
1790.760646689332
 21
953.5051303839489
 31
0.0
  0
LINE
  5
21E
330
1F
100
AcDbEntity
  8
1
  6
Continuous
 62
     7
100
AcDbLine
 10
578.8171550689253
 20
956.5361844404578
 30
0.0
 11
580.5671550689253
 21
953.5050955272124
 31
0.0
  0
LINE
  5
21F
330
1F
100
AcDbEntity
  8
1
  6
DASHED
 62
     4
100
AcDbLine
 10
560.6998409711073
 20
1373.232752517117
 30
0.0
 11
560.6998409711073
 21
1423.232752517117
 31
0.0
  0
LINE
  5
220
330
1F
100
AcDbEntity
  8
1
  6
Continuous
 62
     7
100
AcDbLine
 10
564.9790356758736
 20
944.5052905994734
 30
0.0
 11
577.9690788575726
 21
952.0050955272127
 31
0.0
  0
LINE
  5
221
330
1F
100
AcDbEntity
  8
1
  6
Continuous
 62
     7
100
AcDbLine
 10
412.6963876643067
 20
1430.732752517117
 30
0.0
 11
420.6998409711086
 21
1430.732752517117
 31
0.0
  0
LINE
  5
222
330
1F
100
AcDbEntity
  8
1
  6
Continuous
 62
     7
100
AcDbLine
 10
382.6967915934265
 20
1365.732752517117
 30
0.0
 11
333.6998409711046
 21
1365.732752517117
 31
0.0
  0
LINE
  5
223
330
1F
100
AcDbEntity
  8
1
  6
Continuous
 62
     7
100
AcDbLine
 10
552.6965124701637
 20
1367.232752517117
 30
0.0
 11
557.6998409711023
 21
1367.232752517117
 31
0.0
  0
LINE
  5
224
330
1F
100
AcDbEntity
  8
1
  6
Continuous
 62
     7
100
AcDbLine
 10
522.6969163992835
 20
1365.732752517117
 30
0.0
 11
520.6998409711046
 21
1365.732752517117
 31
0.0
  0
LINE
  5
225
330
1F
100
AcDbEntity
  8
1
  6
Continuous
 62
     7
100
AcDbLine
 10
552.6965124701637
 20
1429.232752517117
 30
0.0
 11
557.6998409711046
 21
1429.232752517117
 31
0.0
  0
LINE
  5
226
330
1F
100
AcDbEntity
  8
1
  6
Continuous
 62
     7
100
AcDbLine
 10
552.6965124701637
 20
1430.732752517117
 30
0.0
 11
557.6998409711046
 21
1430.732752517117
 31
0.0
  0
LINE
  5
227
330
1F
100
AcDbEntity
  8
1
  6
Continuous
 62
     7
100
AcDbLine
 10
432.3955794857396
 20
914.146218013177
 30
0.0
 11
439.3235985391067
 21
918.1461116785871
 31
0.0
  0
LINE
  5
228
330
1F
100
AcDbEntity
  8
1
  6
Continuous
 62
     7
100
AcDbLine
 10
1492.890283213833
 20
1365.732752517117
 30
0.0
 11
1443.893332591511
 21
1365.732752517117
 31
0.0
  0
LINE
  5
229
330
1F
100
AcDbEntity
  8
1
  6
Continuous
 62
     7
100
AcDbLine
 10
1522.889879284714
 20
1430.732752517117
 30
0.0
 11
1530.893332591515
 21
1430.732752517117
 31
0.0
  0
LINE
  5
22A
330
1F
100
AcDbEntity
  8
1
  6
Continuous
 62
     7
100
AcDbLine
 10
1732.889886574776
 20
1365.732752517117
 30
0.0
 11
1730.893332591511
 21
1365.732752517117
 31
0.0
  0
LINE
  5
22B
330
1F
100
AcDbEntity
  8
1
  6
Continuous
 62
     7
100
AcDbLine
 10
1762.889482645655
 20
1367.232752517117
 30
0.0
 11
1767.89333259151
 21
1367.232752517117
 31
0.0
  0
LINE
  5
22C
330
1F
100
AcDbEntity
  8
1
  6
Continuous
 62
     7
100
AcDbLine
 10
1762.889482645655
 20
1429.232752517117
 30
0.0
 11
1767.893332591511
 21
1429.232752517117
 31
0.0
  0
LINE
  5
22D
330
1F
100
AcDbEntity
  8
1
  6
Continuous
 62
     7
100
AcDbLine
 10
1762.889482645655
 20
1430.732752517117
 30
0.0
 11
1767.893332591511
 21
1430.732752517117
 31
0.0
  0
LINE
  5
22E
330
1F
100
AcDbEntity
  8
1
  6
Continuous
 62
     7
100
AcDbLine
 10
1555.986502403848
 20
864.1462365171248
 30
0.0
 11
1562.914549781069
 21
868.1461465353222
 31
0.0
  0
LINE
  5
22F
330
1F
100
AcDbEntity
  8
1
  6
DASHED
 62
     4
100
AcDbLine
 10
1530.005740289842
 20
849.1462365168519
 30
0.0
 11
1555.986502403848
 21
864.1462365171248
 31
0.0
  0
LINE
  5
230
330
1F
100
AcDbEntity
  8
1
  6
Continuous
 62
     7
100
AcDbLine
 10
1775.172075711737
 20
944.5050647337523
 30
0.0
 11
1788.162570477979
 21
952.0051303839495
 31
0.0
  0
LINE
  5
231
330
1F
100
AcDbEntity
  8
1
  6
Continuous
 62
     7
100
AcDbLine
 10
393.9146946350256
 20
920.7967822454393
 30
0.0
 11
351.4793884098604
 21
896.2967467731958
 31
0.0
  0
LINE
  5
232
330
1F
100
AcDbEntity
  8
1
  6
Continuous
 62
     7
100
AcDbLine
 10
536.1585079617125
 20
954.42386354823
 30
0.0
 11
534.4261389175517
 21
953.4236798142483
 31
0.0
  0
LINE
  5
233
330
1F
100
AcDbEntity
  8
1
  6
Continuous
 62
     7
100
AcDbLine
 10
1517.505645876988
 20
870.7968171021744
 30
0.0
 11
1475.070339651823
 21
846.2967816299313
 31
0.0
  0
LINE
  5
234
330
1F
100
AcDbEntity
  8
1
  6
Continuous
 62
     7
100
AcDbLine
 10
1746.351547997575
 20
954.4236376825077
 30
0.0
 11
1744.619630537958
 21
953.4237146709833
 31
0.0
  0
LINE
  5
235
330
1F
100
AcDbEntity
  8
1
  6
Continuous
 62
     7
100
AcDbLine
 10
2179.284006526219
 20
985.6509211502064
 30
0.0
 11
2164.203465990378
 21
985.6509211502064
 31
0.0
  0
LINE
  5
236
330
1F
100
AcDbEntity
  8
1
  6
DASHED
 62
     4
100
AcDbLine
 10
2211.284006526215
 20
985.6509211502064
 30
0.0
 11
2179.284006526219
 21
985.6509211502064
 31
0.0
  0
LINE
  5
237
330
1F
100
AcDbEntity
  8
1
  6
DOT_CENTER
 62
     3
100
AcDbLine
 10
2201.534006526219
 20
979.1509211502064
 30
0.0
 11
2209.034006526219
 21
979.1509211502064
 31
0.0
  0
LINE
  5
238
330
1F
100
AcDbEntity
  8
1
  6
DOT_CENTER
 62
     3
100
AcDbLine
 10
2205.284006526219
 20
975.4009211502064
 30
0.0
 11
2205.284006526219
 21
982.9009211502064
 31
0.0
  0
LINE
  5
239
330
1F
100
AcDbEntity
  8
1
  6
DOT_CENTER
 62
     3
100
AcDbLine
 10
2185.284006526219
 20
975.4009211502064
 30
0.0
 11
2185.284006526219
 21
982.9009211502064
 31
0.0
  0
LINE
  5
23A
330
1F
100
AcDbEntity
  8
1
  6
DOT_CENTER
 62
     3
100
AcDbLine
 10
2181.534006526219
 20
979.1509211502064
 30
0.0
 11
2189.034006526219
 21
979.1509211502064
 31
0.0
  0
LINE
  5
23B
330
1F
100
AcDbEntity
  8
1
  6
Continuous
 62
     7
100
AcDbLine
 10
2226.364547062057
 20
985.6509211502064
 30
0.0
 11
2211.284006526215
 21
985.6509211502064
 31
0.0
  0
LINE
  5
23C
330
1F
100
AcDbEntity
  8
1
  6
Continuous
 62
     7
100
AcDbLine
 10
141.7822234549985
 20
877.6509211502018
 30
0.0
 11
78.53667025163031
 21
877.6509211502018
 31
0.0
  0
LINE
  5
23D
330
1F
100
AcDbEntity
  8
1
  6
DASHED
 62
     4
100
AcDbLine
 10
520.6998409711046
 20
1368.232752517117
 30
0.0
 11
520.6998409711046
 21
1428.232752517117
 31
0.0
  0
LINE
  5
23E
330
1F
100
AcDbEntity
  8
1
  6
Continuous
 62
     7
100
AcDbLine
 10
545.9261389175485
 20
933.5050955272116
 30
0.0
 11
556.3187816380286
 21
939.5052905994728
 31
0.0
  0
LINE
  5
23F
330
1F
100
AcDbEntity
  8
1
  6
Continuous
 62
     7
100
AcDbLine
 10
1023.364547062058
 20
985.6509211502064
 30
0.0
 11
1008.284006526215
 21
985.6509211502064
 31
0.0
  0
LINE
  5
240
330
1F
100
AcDbEntity
  8
1
  6
Continuous
 62
     7
100
AcDbLine
 10
426.8235985391057
 20
939.7967467731958
 30
0.0
 11
419.8954567490305
 21
935.7967822457119
 31
0.0
  0
LINE
  5
241
330
1F
100
AcDbEntity
  8
1
  6
Continuous
 62
     7
100
AcDbLine
 10
351.4793884098604
 20
896.2967467731958
 30
0.0
 11
363.9793884098585
 21
874.6461116785861
 31
0.0
  0
LINE
  5
242
330
1F
100
AcDbEntity
  8
1
  6
Continuous
 62
     7
100
AcDbLine
 10
363.9793884098585
 20
874.6461116785861
 30
0.0
 11
406.4148173717355
 21
899.1462180129041
 31
0.0
  0
LINE
  5
243
330
1F
100
AcDbEntity
  8
1
  6
Continuous
 62
     7
100
AcDbLine
 10
439.3235985391067
 20
918.1461116785871
 30
0.0
 11
426.8235985391057
 21
939.7967467731958
 31
0.0
  0
LINE
  5
244
330
1F
100
AcDbEntity
  8
1
  6
Continuous
 62
     7
100
AcDbLine
 10
351.4793884098604
 20
896.2967467731958
 30
0.0
 11
348.8813121985054
 21
894.7967467731945
 31
0.0
  0
LINE
  5
245
330
1F
100
AcDbEntity
  8
1
  6
Continuous
 62
     7
100
AcDbLine
 10
348.8813121985054
 20
894.7967467731945
 30
0.0
 11
361.3813121985037
 21
873.146111678585
 31
0.0
  0
LINE
  5
246
330
1F
100
AcDbEntity
  8
1
  6
Continuous
 62
     7
100
AcDbLine
 10
361.3813121985037
 20
873.146111678585
 30
0.0
 11
363.9793884098585
 21
874.6461116785861
 31
0.0
  0
LINE
  5
247
330
1F
100
AcDbEntity
  8
1
  6
Continuous
 62
     7
100
AcDbLine
 10
577.9690788575726
 20
952.0050955272127
 30
0.0
 11
580.5671550689253
 21
953.5050955272124
 31
0.0
  0
LINE
  5
248
330
1F
100
AcDbEntity
  8
1
  6
Continuous
 62
     7
100
AcDbLine
 10
534.4261389175517
 20
953.4236798142483
 30
0.0
 11
545.9261389175485
 21
933.5050955272116
 31
0.0
  0
LINE
  5
249
330
1F
100
AcDbEntity
  8
1
  6
Continuous
 62
     7
100
AcDbLine
 10
566.4690788575736
 20
971.9236798142481
 30
0.0
 11
562.1392742214116
 21
969.4238659420214
 31
0.0
  0
LINE
  5
24A
330
1F
100
AcDbEntity
  8
1
  6
Continuous
 62
     7
100
AcDbLine
 10
577.9690788575726
 20
952.0050955272127
 30
0.0
 11
566.4690788575736
 21
971.9236798142481
 31
0.0
  0
LINE
  5
24B
330
1F
100
AcDbEntity
  8
1
  6
Continuous
 62
     7
100
AcDbLine
 10
420.6998409711086
 20
1365.732752517117
 30
0.0
 11
412.6963876643067
 21
1365.732752517117
 31
0.0
  0
LINE
  5
24C
330
1F
100
AcDbEntity
  8
1
  6
Continuous
 62
     7
100
AcDbLine
 10
333.6998409711046
 20
1365.732752517117
 30
0.0
 11
333.6998409711046
 21
1430.732752517117
 31
0.0
  0
LINE
  5
24D
330
1F
100
AcDbEntity
  8
1
  6
Continuous
 62
     7
100
AcDbLine
 10
333.6998409711046
 20
1430.732752517117
 30
0.0
 11
382.6967915934265
 21
1430.732752517117
 31
0.0
  0
LINE
  5
24E
330
1F
100
AcDbEntity
  8
1
  6
Continuous
 62
     7
100
AcDbLine
 10
420.6998409711086
 20
1430.732752517117
 30
0.0
 11
420.6998409711086
 21
1365.732752517117
 31
0.0
  0
LINE
  5
24F
330
1F
100
AcDbEntity
  8
1
  6
Continuous
 62
     7
100
AcDbLine
 10
333.6998409711046
 20
1430.732752517117
 30
0.0
 11
330.6998409711046
 21
1430.732752517117
 31
0.0
  0
LINE
  5
250
330
1F
100
AcDbEntity
  8
1
  6
Continuous
 62
     7
100
AcDbLine
 10
330.6998409711046
 20
1430.732752517117
 30
0.0
 11
330.6998409711046
 21
1365.732752517117
 31
0.0
  0
LINE
  5
251
330
1F
100
AcDbEntity
  8
1
  6
Continuous
 62
     7
100
AcDbLine
 10
333.6998409711046
 20
1365.732752517117
 30
0.0
 11
330.6998409711046
 21
1365.732752517117
 31
0.0
  0
LINE
  5
252
330
1F
100
AcDbEntity
  8
1
  6
DOT_CENTER
 62
     3
100
AcDbLine
 10
978.5340065262185
 20
979.1509211502064
 30
0.0
 11
986.0340065262185
 21
979.1509211502064
 31
0.0
  0
LINE
  5
253
330
1F
100
AcDbEntity
  8
1
  6
DOT_CENTER
 62
     3
100
AcDbLine
 10
982.2840065262185
 20
975.4009211502064
 30
0.0
 11
982.2840065262185
 21
982.9009211502064
 31
0.0
  0
LINE
  5
254
330
1F
100
AcDbEntity
  8
1
  6
Continuous
 62
     7
100
AcDbLine
 10
520.6998409711046
 20
1429.232752517117
 30
0.0
 11
522.6969163992835
 21
1429.232752517117
 31
0.0
  0
LINE
  5
255
330
1F
100
AcDbEntity
  8
1
  6
Continuous
 62
     7
100
AcDbLine
 10
520.6998409711023
 20
1367.232752517117
 30
0.0
 11
522.6969163992835
 21
1367.232752517117
 31
0.0
  0
LINE
  5
256
330
1F
100
AcDbEntity
  8
1
  6
Continuous
 62
     7
100
AcDbLine
 10
560.6998409711114
 20
1365.732752517117
 30
0.0
 11
557.6998409711046
 21
1365.732752517117
 31
0.0
  0
LINE
  5
257
330
1F
100
AcDbEntity
  8
1
  6
Continuous
 62
     7
100
AcDbLine
 10
560.6998409711114
 20
1365.732752517117
 30
0.0
 11
560.6998409711073
 21
1373.232752517117
 31
0.0
  0
LINE
  5
258
330
1F
100
AcDbEntity
  8
1
  6
Continuous
 62
     7
100
AcDbLine
 10
560.6998409711114
 20
1430.732752517117
 30
0.0
 11
557.6998409711046
 21
1430.732752517117
 31
0.0
  0
LINE
  5
259
330
1F
100
AcDbEntity
  8
1
  6
Continuous
 62
     7
100
AcDbLine
 10
520.6998409711046
 20
1365.732752517117
 30
0.0
 11
520.6998409711046
 21
1368.232752517117
 31
0.0
  0
LINE
  5
25A
330
1F
100
AcDbEntity
  8
1
  6
Continuous
 62
     7
100
AcDbLine
 10
557.6998409711046
 20
1430.732752517117
 30
0.0
 11
557.6998409711064
 21
1423.987482507331
 31
0.0
  0
LINE
  5
25B
330
1F
100
AcDbEntity
  8
1
  6
Continuous
 62
     7
100
AcDbLine
 10
557.6998409711046
 20
1365.732752517117
 30
0.0
 11
552.6965124701637
 21
1365.732752517117
 31
0.0
  0
LINE
  5
25C
330
1F
100
AcDbEntity
  8
1
  6
Continuous
 62
     7
100
AcDbLine
 10
520.6998409711046
 20
1430.732752517117
 30
0.0
 11
522.6969163992835
 21
1430.732752517117
 31
0.0
  0
LINE
  5
25D
330
1F
100
AcDbEntity
  8
1
  6
Continuous
 62
     7
100
AcDbLine
 10
520.6998409711046
 20
1428.232752517117
 30
0.0
 11
520.6998409711046
 21
1430.732752517117
 31
0.0
  0
LINE
  5
25E
330
1F
100
AcDbEntity
  8
1
  6
Continuous
 62
     7
100
AcDbLine
 10
566.4690788575736
 20
971.9236798142481
 30
0.0
 11
569.0671550689285
 21
973.4236798142492
 31
0.0
  0
LINE
  5
25F
330
1F
100
AcDbEntity
  8
1
  6
DOT_CENTER
 62
     3
100
AcDbLine
 10
1002.284006526219
 20
975.4009211502064
 30
0.0
 11
1002.284006526219
 21
982.9009211502064
 31
0.0
  0
LINE
  5
260
330
1F
100
AcDbEntity
  8
1
  6
DOT_CENTER
 62
     3
100
AcDbLine
 10
998.5340065262185
 20
979.1509211502064
 30
0.0
 11
1006.034006526219
 21
979.1509211502064
 31
0.0
  0
LINE
  5
261
330
1F
100
AcDbEntity
  8
1
  6
Continuous
 62
     7
100
AcDbLine
 10
560.6998409711073
 20
1423.232752517117
 30
0.0
 11
560.6998409711114
 21
1430.732752517117
 31
0.0
  0
LINE
  5
262
330
1F
100
AcDbEntity
  8
1
  6
Continuous
 62
     7
100
AcDbLine
 10
1770.893332591515
 20
1423.232752517117
 30
0.0
 11
1770.893332591519
 21
1430.732752517117
 31
0.0
  0
LINE
  5
263
330
1F
100
AcDbEntity
  8
1
  6
Continuous
 62
     7
100
AcDbLine
 10
1776.662570477979
 20
971.9237146709836
 30
0.0
 11
1779.260646689334
 21
973.4237146709849
 31
0.0
  0
LINE
  5
264
330
1F
100
AcDbEntity
  8
1
  6
Continuous
 62
     7
100
AcDbLine
 10
1730.893332591511
 20
1428.232752517117
 30
0.0
 11
1730.893332591511
 21
1430.732752517117
 31
0.0
  0
LINE
  5
265
330
1F
100
AcDbEntity
  8
1
  6
Continuous
 62
     7
100
AcDbLine
 10
1730.893332591511
 20
1430.732752517117
 30
0.0
 11
1732.889886574776
 21
1430.732752517117
 31
0.0
  0
LINE
  5
266
330
1F
100
AcDbEntity
  8
1
  6
Continuous
 62
     7
100
AcDbLine
 10
1767.893332591511
 20
1365.732752517117
 30
0.0
 11
1762.889482645655
 21
1365.732752517117
 31
0.0
  0
LINE
  5
267
330
1F
100
AcDbEntity
  8
1
  6
Continuous
 62
     7
100
AcDbLine
 10
1730.893332591511
 20
1365.732752517117
 30
0.0
 11
1730.893332591511
 21
1368.232752517117
 31
0.0
  0
LINE
  5
268
330
1F
100
AcDbEntity
  8
1
  6
Continuous
 62
     7
100
AcDbLine
 10
1770.893332591519
 20
1430.732752517117
 30
0.0
 11
1767.893332591511
 21
1430.732752517117
 31
0.0
  0
LINE
  5
269
330
1F
100
AcDbEntity
  8
1
  6
Continuous
 62
     7
100
AcDbLine
 10
1770.893332591519
 20
1365.732752517117
 30
0.0
 11
1770.893332591515
 21
1373.232752517117
 31
0.0
  0
LINE
  5
26A
330
1F
100
AcDbEntity
  8
1
  6
Continuous
 62
     7
100
AcDbLine
 10
1770.893332591519
 20
1365.732752517117
 30
0.0
 11
1767.893332591511
 21
1365.732752517117
 31
0.0
  0
LINE
  5
26B
330
1F
100
AcDbEntity
  8
1
  6
Continuous
 62
     7
100
AcDbLine
 10
1730.89333259151
 20
1367.232752517117
 30
0.0
 11
1732.889886574776
 21
1367.232752517117
 31
0.0
  0
LINE
  5
26C
330
1F
100
AcDbEntity
  8
1
  6
Continuous
 62
     7
100
AcDbLine
 10
1730.893332591511
 20
1429.232752517117
 30
0.0
 11
1732.889886574776
 21
1429.232752517117
 31
0.0
  0
LINE
  5
26D
330
1F
100
AcDbEntity
  8
1
  6
Continuous
 62
     7
100
AcDbLine
 10
1443.893332591511
 20
1365.732752517117
 30
0.0
 11
1440.893332591511
 21
1365.732752517117
 31
0.0
  0
LINE
  5
26E
330
1F
100
AcDbEntity
  8
1
  6
Continuous
 62
     7
100
AcDbLine
 10
1440.893332591511
 20
1430.732752517117
 30
0.0
 11
1440.893332591511
 21
1365.732752517117
 31
0.0
  0
LINE
  5
26F
330
1F
100
AcDbEntity
  8
1
  6
Continuous
 62
     7
100
AcDbLine
 10
1443.893332591511
 20
1430.732752517117
 30
0.0
 11
1440.893332591511
 21
1430.732752517117
 31
0.0
  0
LINE
  5
270
330
1F
100
AcDbEntity
  8
1
  6
Continuous
 62
     7
100
AcDbLine
 10
1530.893332591515
 20
1430.732752517117
 30
0.0
 11
1530.893332591515
 21
1365.732752517117
 31
0.0
  0
LINE
  5
271
330
1F
100
AcDbEntity
  8
1
  6
Continuous
 62
     7
100
AcDbLine
 10
1443.893332591511
 20
1430.732752517117
 30
0.0
 11
1492.890283213833
 21
1430.732752517117
 31
0.0
  0
LINE
  5
272
330
1F
100
AcDbEntity
  8
1
  6
Continuous
 62
     7
100
AcDbLine
 10
1443.893332591511
 20
1365.732752517117
 30
0.0
 11
1443.893332591511
 21
1430.732752517117
 31
0.0
  0
LINE
  5
273
330
1F
100
AcDbEntity
  8
1
  6
Continuous
 62
     7
100
AcDbLine
 10
1530.893332591515
 20
1365.732752517117
 30
0.0
 11
1522.889879284714
 21
1365.732752517117
 31
0.0
  0
LINE
  5
274
330
1F
100
AcDbEntity
  8
1
  6
Continuous
 62
     7
100
AcDbLine
 10
1788.162570477979
 20
952.0051303839495
 30
0.0
 11
1776.662570477979
 21
971.9237146709836
 31
0.0
  0
LINE
  5
275
330
1F
100
AcDbEntity
  8
1
  6
Continuous
 62
     7
100
AcDbLine
 10
1776.662570477979
 20
971.9237146709836
 30
0.0
 11
1772.332314257275
 21
969.4236400762998
 31
0.0
  0
LINE
  5
276
330
1F
100
AcDbEntity
  8
1
  6
Continuous
 62
     7
100
AcDbLine
 10
1744.619630537958
 20
953.4237146709833
 30
0.0
 11
1756.119630537955
 21
933.5051303839475
 31
0.0
  0
LINE
  5
277
330
1F
100
AcDbEntity
  8
1
  6
Continuous
 62
     7
100
AcDbLine
 10
1788.162570477979
 20
952.0051303839495
 30
0.0
 11
1790.760646689332
 21
953.5051303839489
 31
0.0
  0
LINE
  5
278
330
1F
100
AcDbEntity
  8
1
  6
Continuous
 62
     7
100
AcDbLine
 10
1484.972263440467
 20
823.1461465353194
 30
0.0
 11
1487.570339651822
 21
824.6461465353207
 31
0.0
  0
LINE
  5
279
330
1F
100
AcDbEntity
  8
1
  6
Continuous
 62
     7
100
AcDbLine
 10
1475.070339651823
 20
846.2967816299313
 30
0.0
 11
1472.472263440468
 21
844.7967816299299
 31
0.0
  0
LINE
  5
27A
330
1F
100
AcDbEntity
  8
1
  6
Continuous
 62
     7
100
AcDbLine
 10
1562.914549781069
 20
868.1461465353222
 30
0.0
 11
1550.414549781067
 21
889.7967816299299
 31
0.0
  0
LINE
  5
27B
330
1F
100
AcDbEntity
  8
1
  6
Continuous
 62
     7
100
AcDbLine
 10
1487.570339651822
 20
824.6461465353207
 30
0.0
 11
1530.005740289842
 21
849.1462365168519
 31
0.0
  0
LINE
  5
27C
330
1F
100
AcDbEntity
  8
1
  6
Continuous
 62
     7
100
AcDbLine
 10
1475.070339651823
 20
846.2967816299313
 30
0.0
 11
1487.570339651822
 21
824.6461465353207
 31
0.0
  0
LINE
  5
27D
330
1F
100
AcDbEntity
  8
1
  6
Continuous
 62
     7
100
AcDbLine
 10
1550.414549781067
 20
889.7967816299299
 30
0.0
 11
1543.486407990994
 21
885.796817102447
 31
0.0
  0
LINE
  5
27E
330
1F
100
AcDbEntity
  8
1
  6
Continuous
 62
     7
100
AcDbLine
 10
1756.119630537955
 20
933.5051303839475
 30
0.0
 11
1766.511821673893
 21
939.505064733752
 31
0.0
  0
LINE
  5
27F
330
1F
100
AcDbEntity
  8
1
  6
DASHED
 62
     4
100
AcDbLine
 10
1730.893332591511
 20
1368.232752517117
 30
0.0
 11
1730.893332591511
 21
1428.232752517117
 31
0.0
  0
LINE
  5
280
330
1F
100
AcDbEntity
  8
1
  6
Continuous
 62
     7
100
AcDbLine
 10
1251.782223454998
 20
827.6509560069362
 30
0.0
 11
1188.536670251629
 21
827.6509560069362
 31
0.0
  0
LINE
  5
281
330
1F
100
AcDbEntity
  8
1
  6
Continuous
 62
     7
100
AcDbLine
 10
976.2840065262186
 20
985.6509211502064
 30
0.0
 11
961.2034659903784
 21
985.6509211502064
 31
0.0
  0
LINE
  5
282
330
1F
100
AcDbEntity
  8
1
  6
Continuous
 62
     7
100
AcDbLine
 10
451.1456927811673
 20
881.6703307824039
 30
0.0
 11
544.6761389175495
 21
935.6701590366731
 31
0.0
  0
LINE
  5
283
330
1F
100
AcDbEntity
  8
1
  6
Continuous
 62
     7
100
AcDbLine
 10
1574.73664402313
 20
831.6703656391389
 30
0.0
 11
1754.869630537955
 21
935.6701938934086
 31
0.0
  0
LINE
  5
284
330
1F
100
AcDbEntity
  8
1
  6
Continuous
 62
     7
100
AcDbLine
 10
552.6965124701637
 20
1368.232752517117
 30
0.0
 11
557.6998409711046
 21
1368.232752517117
 31
0.0
  0
LINE
  5
285
330
1F
100
AcDbEntity
  8
1
  6
Continuous
 62
     7
100
AcDbLine
 10
522.6969163992835
 20
1428.232752517117
 30
0.0
 11
421.6998409711096
 21
1428.232752517117
 31
0.0
  0
LINE
  5
286
330
1F
100
AcDbEntity
  8
1
  6
Continuous
 62
     7
100
AcDbLine
 10
1762.889482645655
 20
1368.232752517117
 30
0.0
 11
1767.893332591511
 21
1368.232752517117
 31
0.0
  0
LINE
  5
287
330
1F
100
AcDbEntity
  8
1
  6
Continuous
 62
     7
100
AcDbLine
 10
1732.889886574777
 20
1428.232752517117
 30
0.0
 11
1531.893332591516
 21
1428.232752517117
 31
0.0
  0
LINE
  5
288
330
1F
100
AcDbEntity
  8
1
  6
Continuous
 62
     7
100
AcDbLine
 10
516.4083490296075
 20
988.6317752382295
 30
0.0
 11
428.0735985391053
 21
937.6316832637358
 31
0.0
  0
LINE
  5
289
330
1F
100
AcDbEntity
  8
1
  6
Continuous
 62
     7
100
AcDbLine
 10
1726.60138906547
 20
988.6315493725087
 30
0.0
 11
1552.530575184854
 21
888.1317181204709
 31
0.0
  0
LINE
  5
28A
330
1F
100
AcDbEntity
  8
1
  6
DASH_CENTER
 62
     3
100
AcDbLine
 10
74.65944685331442
 20
870.1509211502018
 30
0.0
 11
145.6594468533144
 21
870.1509211502018
 31
0.0
  0
LINE
  5
28B
330
1F
100
AcDbEntity
  8
1
  6
DASH_CENTER
 62
     3
100
AcDbLine
 10
110.1594468533144
 20
905.6509211502018
 30
0.0
 11
110.1594468533144
 21
834.6509211502018
 31
0.0
  0
LINE
  5
28C
330
1F
100
AcDbEntity
  8
1
  6
Continuous
 62
     7
100
AcDbLine
 10
557.6998409711046
 20
1428.232752517117
 30
0.0
 11
552.6965124701637
 21
1428.232752517117
 31
0.0
  0
LINE
  5
28D
330
1F
100
AcDbEntity
  8
1
  6
DASHED
 62
     4
100
AcDbLine
 10
340.6998409711036
 20
1428.232752517117
 30
0.0
 11
340.6998409711036
 21
1368.232752517117
 31
0.0
  0
LINE
  5
28E
330
1F
100
AcDbEntity
  8
1
  6
DASHED
 62
     4
100
AcDbLine
 10
340.6998409711036
 20
1368.232752517117
 30
0.0
 11
421.6998409711096
 21
1368.232752517117
 31
0.0
  0
LINE
  5
28F
330
1F
100
AcDbEntity
  8
1
  6
DASHED
 62
     4
100
AcDbLine
 10
557.6998409711046
 20
1425.232752517117
 30
0.0
 11
340.6998409711036
 21
1425.232752517117
 31
0.0
  0
LINE
  5
290
330
1F
100
AcDbEntity
  8
1
  6
DASHED
 62
     4
100
AcDbLine
 10
557.6998409711046
 20
1371.232752517117
 30
0.0
 11
340.6998409711036
 21
1371.232752517117
 31
0.0
  0
LINE
  5
291
330
1F
100
AcDbEntity
  8
1
  6
DASHED
 62
     4
100
AcDbLine
 10
575.2190788575726
 20
956.7682352480258
 30
0.0
 11
384.6934900250003
 21
846.7682352480229
 31
0.0
  0
LINE
  5
292
330
1F
100
AcDbEntity
  8
1
  6
DASHED
 62
     4
100
AcDbLine
 10
548.2190788575695
 20
1003.533607052386
 30
0.0
 11
357.6934900249985
 21
893.5336070523813
 31
0.0
  0
LINE
  5
293
330
1F
100
AcDbEntity
  8
1
  6
Continuous
 62
     7
100
AcDbLine
 10
386.1934900250003
 20
844.1701590366696
 30
0.0
 11
425.1649306671634
 21
866.6703307821312
 31
0.0
  0
LINE
  5
294
330
1F
100
AcDbEntity
  8
1
  6
Continuous
 62
     7
100
AcDbLine
 10
546.7190788575695
 20
1006.131683263739
 30
0.0
 11
542.3891034982994
 21
1003.63177082448
 31
0.0
  0
LINE
  5
295
330
1F
100
AcDbEntity
  8
1
  6
Continuous
 62
     7
100
AcDbLine
 10
421.6998409711096
 20
1368.232752517117
 30
0.0
 11
522.6969163992835
 21
1368.232752517117
 31
0.0
  0
LINE
  5
296
330
1F
100
AcDbEntity
  8
1
  6
DASHED
 62
     4
100
AcDbLine
 10
421.6998409711096
 20
1428.232752517117
 30
0.0
 11
340.6998409711036
 21
1428.232752517117
 31
0.0
  0
LINE
  5
297
330
1F
100
AcDbEntity
  8
1
  6
Continuous
 62
     7
100
AcDbLine
 10
356.1934900249985
 20
896.1316832637347
 30
0.0
 11
386.1934900250003
 21
844.1701590366696
 31
0.0
  0
LINE
  5
298
330
1F
100
AcDbEntity
  8
1
  6
Continuous
 62
     7
100
AcDbLine
 10
566.4690788575736
 20
971.9236798142481
 30
0.0
 11
546.7190788575695
 21
1006.131683263739
 31
0.0
  0
LINE
  5
299
330
1F
100
AcDbEntity
  8
1
  6
PHANTOM
 62
     4
100
AcDbLine
 10
110.1594468533144
 20
840.1509211502018
 30
0.0
 11
117.1594468533144
 21
840.1509211502018
 31
0.0
  0
LINE
  5
29A
330
1F
100
AcDbEntity
  8
1
  6
DASH_CENTER
 62
     3
100
AcDbLine
 10
947.2840065262185
 20
995.1509211502064
 30
0.0
 11
1037.284006526219
 21
995.1509211502064
 31
0.0
  0
LINE
  5
29B
330
1F
100
AcDbEntity
  8
1
  6
DASH_CENTER
 62
     3
100
AcDbLine
 10
992.2840065262185
 20
1040.150921150206
 30
0.0
 11
992.2840065262185
 21
950.1509211502064
 31
0.0
  0
LINE
  5
29C
330
1F
100
AcDbEntity
  8
1
  6
DASH_CENTER
 62
     3
100
AcDbLine
 10
2195.284006526219
 20
1040.150921150206
 30
0.0
 11
2195.284006526219
 21
845.9176972531639
 31
0.0
  0
LINE
  5
29D
330
1F
100
AcDbEntity
  8
1
  6
DASH_CENTER
 62
     3
100
AcDbLine
 10
2150.284006526219
 20
995.1509211502064
 30
0.0
 11
2240.284006526219
 21
995.1509211502064
 31
0.0
  0
LINE
  5
29E
330
1F
100
AcDbEntity
  8
1
  6
PHANTOM
 62
     4
100
AcDbLine
 10
1220.159446853314
 20
790.1509560069362
 30
0.0
 11
1227.159446853314
 21
790.1509560069362
 31
0.0
  0
LINE
  5
29F
330
1F
100
AcDbEntity
  8
1
  6
Continuous
 62
     7
100
AcDbLine
 10
1776.662570477979
 20
971.9237146709836
 30
0.0
 11
1756.912570477975
 21
1006.131718120475
 31
0.0
  0
LINE
  5
2A0
330
1F
100
AcDbEntity
  8
1
  6
Continuous
 62
     7
100
AcDbLine
 10
1494.784441266961
 20
820.1509560069369
 30
0.0
 11
1509.784441266963
 21
794.170193893405
 31
0.0
  0
LINE
  5
2A1
330
1F
100
AcDbEntity
  8
1
  6
DASHED
 62
     4
100
AcDbLine
 10
1531.893332591516
 20
1428.232752517117
 30
0.0
 11
1450.89333259151
 21
1428.232752517117
 31
0.0
  0
LINE
  5
2A2
330
1F
100
AcDbEntity
  8
1
  6
Continuous
 62
     7
100
AcDbLine
 10
1531.893332591516
 20
1368.232752517117
 30
0.0
 11
1732.889886574777
 21
1368.232752517117
 31
0.0
  0
LINE
  5
2A3
330
1F
100
AcDbEntity
  8
1
  6
Continuous
 62
     7
100
AcDbLine
 10
1756.912570477975
 20
1006.131718120475
 30
0.0
 11
1752.582143534163
 21
1003.631544958759
 31
0.0
  0
LINE
  5
2A4
330
1F
100
AcDbEntity
  8
1
  6
Continuous
 62
     7
100
AcDbLine
 10
1509.784441266963
 20
794.170193893405
 30
0.0
 11
1548.755881909126
 21
816.6703656388658
 31
0.0
  0
LINE
  5
2A5
330
1F
100
AcDbEntity
  8
1
  6
DASHED
 62
     4
100
AcDbLine
 10
1758.412570477975
 20
1003.533641909123
 30
0.0
 11
1481.28444126696
 21
843.5336419091157
 31
0.0
  0
LINE
  5
2A6
330
1F
100
AcDbEntity
  8
1
  6
DASHED
 62
     4
100
AcDbLine
 10
1785.412570477979
 20
956.7682701047613
 30
0.0
 11
1508.284441266962
 21
796.768270104759
 31
0.0
  0
LINE
  5
2A7
330
1F
100
AcDbEntity
  8
1
  6
DASHED
 62
     4
100
AcDbLine
 10
1767.893332591511
 20
1371.232752517117
 30
0.0
 11
1450.89333259151
 21
1371.232752517117
 31
0.0
  0
LINE
  5
2A8
330
1F
100
AcDbEntity
  8
1
  6
DASHED
 62
     4
100
AcDbLine
 10
1767.893332591511
 20
1425.232752517117
 30
0.0
 11
1450.89333259151
 21
1425.232752517117
 31
0.0
  0
LINE
  5
2A9
330
1F
100
AcDbEntity
  8
1
  6
Continuous
 62
     7
100
AcDbLine
 10
1767.893332591511
 20
1368.232752517117
 30
0.0
 11
1767.893332591511
 21
1428.232752517117
 31
0.0
  0
LINE
  5
2AA
330
1F
100
AcDbEntity
  8
1
  6
DASHED
 62
     4
100
AcDbLine
 10
1450.89333259151
 20
1368.232752517117
 30
0.0
 11
1531.893332591516
 21
1368.232752517117
 31
0.0
  0
LINE
  5
2AB
330
1F
100
AcDbEntity
  8
1
  6
DASHED
 62
     4
100
AcDbLine
 10
1450.89333259151
 20
1428.232752517117
 30
0.0
 11
1450.89333259151
 21
1368.232752517117
 31
0.0
  0
LINE
  5
2AC
330
1F
100
AcDbEntity
  8
1
  6
Continuous
 62
     7
100
AcDbLine
 10
1767.893332591511
 20
1428.232752517117
 30
0.0
 11
1762.889482645655
 21
1428.232752517117
 31
0.0
  0
LINE
  5
2AD
330
1F
100
AcDbEntity
  8
1
  6
DASH_CENTER
 62
     3
100
AcDbLine
 10
1220.159446853314
 20
855.6509560069371
 30
0.0
 11
1220.159446853314
 21
784.6509560069362
 31
0.0
  0
LINE
  5
2AE
330
1F
100
AcDbEntity
  8
1
  6
DASH_CENTER
 62
     3
100
AcDbLine
 10
1184.659446853314
 20
820.1509560069362
 30
0.0
 11
1255.659446853314
 21
820.1509560069362
 31
0.0
  0
LINE
  5
2AF
330
1F
100
AcDbEntity
  8
1
  6
Continuous
 62
     7
100
AcDbLine
 10
356.2473376022895
 20
884.0384165239968
 30
0.0
 11
361.2473376022895
 21
875.3781624861524
 31
0.0
  0
LINE
  5
2B0
330
1F
100
AcDbEntity
  8
1
  6
Continuous
 62
     7
100
AcDbLine
 10
361.2473376022895
 20
875.3781624861524
 30
0.0
 11
360.3813121985077
 21
874.8781624861537
 31
0.0
  0
LINE
  5
2B1
330
1F
100
AcDbEntity
  8
1
  6
Continuous
 62
     7
100
AcDbLine
 10
355.3813121985054
 20
883.5384165239968
 30
0.0
 11
356.2473376022895
 21
884.0384165239968
 31
0.0
  0
LINE
  5
2B2
330
1F
100
AcDbEntity
  8
1
  6
Continuous
 62
     7
100
AcDbLine
 10
360.1813121985056
 20
875.2245726476663
 30
0.0
 11
359.0554791735876
 21
874.5745726476673
 31
0.0
  0
LINE
  5
2B3
330
1F
100
AcDbEntity
  8
1
  6
Continuous
 62
     7
100
AcDbLine
 10
359.0554791735876
 20
874.5745726476673
 30
0.0
 11
354.4554791735864
 21
882.5420063624836
 31
0.0
  0
LINE
  5
2B4
330
1F
100
AcDbEntity
  8
1
  6
Continuous
 62
     7
100
AcDbLine
 10
354.4554791735864
 20
882.5420063624836
 30
0.0
 11
355.5813121985057
 21
883.192006362483
 31
0.0
  0
LINE
  5
2B5
330
1F
100
AcDbEntity
  8
1
  6
Continuous
 62
     7
100
AcDbLine
 10
351.7243902603404
 20
880.986922300028
 30
0.0
 11
354.4460780968284
 21
882.5582895050745
 31
0.0
  0
LINE
  5
2B6
330
1F
100
AcDbEntity
  8
1
  6
Continuous
 62
     7
100
AcDbLine
 10
359.0648802503447
 20
874.5582895050756
 30
0.0
 11
356.3431924138577
 21
872.9869223000294
 31
0.0
  0
LINE
  5
2B7
330
1F
100
AcDbEntity
  8
1
  6
Continuous
 62
     7
100
AcDbLine
 10
355.5054791735865
 20
880.7233530145359
 30
0.0
 11
363.3863103480244
 21
885.2733530145358
 31
0.0
  0
LINE
  5
2B8
330
1F
100
AcDbEntity
  8
1
  6
Continuous
 62
     7
100
AcDbLine
 10
363.3863103480244
 20
885.2733530145358
 30
0.0
 11
364.6157332114303
 21
884.9439301511299
 31
0.0
  0
LINE
  5
2B9
330
1F
100
AcDbEntity
  8
1
  6
Continuous
 62
     7
100
AcDbLine
 10
364.6157332114303
 20
884.9439301511299
 30
0.0
 11
366.2157332114316
 21
882.17264885902
 31
0.0
  0
LINE
  5
2BA
330
1F
100
AcDbEntity
  8
1
  6
Continuous
 62
     7
100
AcDbLine
 10
366.2157332114316
 20
882.17264885902
 30
0.0
 11
365.8863103480244
 21
880.9432259956136
 31
0.0
  0
LINE
  5
2BB
330
1F
100
AcDbEntity
  8
1
  6
Continuous
 62
     7
100
AcDbLine
 10
365.8863103480244
 20
880.9432259956136
 30
0.0
 11
358.0054791735875
 21
876.3932259956146
 31
0.0
  0
LINE
  5
2BC
330
1F
100
AcDbEntity
  8
1
  6
Continuous
 62
     7
100
AcDbLine
 10
355.6007786352075
 20
880.5582895050748
 30
0.0
 11
352.8790907987204
 21
878.9869223000287
 31
0.0
  0
LINE
  5
2BD
330
1F
100
AcDbEntity
  8
1
  6
Continuous
 62
     7
100
AcDbLine
 10
357.9101797119665
 20
876.5582895050748
 30
0.0
 11
355.1884918754777
 21
874.9869223000294
 31
0.0
  0
LINE
  5
2BE
330
1F
100
AcDbEntity
  8
1
  6
Continuous
 62
     7
100
AcDbLine
 10
355.4564410679104
 20
873.8082895050757
 30
0.0
 11
351.9923394527723
 21
879.8082895050756
 31
0.0
  0
LINE
  5
2BF
330
1F
100
AcDbEntity
  8
1
  6
Continuous
 62
     7
100
AcDbLine
 10
356.1549791735874
 20
881.0983420143753
 30
0.0
 11
358.6549791735874
 21
876.7682149954532
 31
0.0
  0
LINE
  5
2C0
330
1F
100
AcDbEntity
  8
1
  6
Continuous
 62
     3
100
AcDbLine
 10
355.5054791735865
 20
880.7233530145359
 30
0.0
 11
356.3714791735865
 21
880.7233530145361
 31
0.0
  0
LINE
  5
2C1
330
1F
100
AcDbEntity
  8
1
  6
Continuous
 62
     3
100
AcDbLine
 10
356.3714791735865
 20
880.7233530145361
 30
0.0
 11
363.9777993478615
 21
885.1148640146967
 31
0.0
  0
LINE
  5
2C2
330
1F
100
AcDbEntity
  8
1
  6
Continuous
 62
     3
100
AcDbLine
 10
363.3863103480244
 20
885.2733530145358
 30
0.0
 11
365.8863103480244
 21
880.9432259956136
 31
0.0
  0
LINE
  5
2C3
330
1F
100
AcDbEntity
  8
1
  6
Continuous
 62
     3
100
AcDbLine
 10
366.0447993478624
 20
881.5347149954523
 30
0.0
 11
358.4384791735865
 21
877.1432039952913
 31
0.0
  0
LINE
  5
2C4
330
1F
100
AcDbEntity
  8
1
  6
Continuous
 62
     3
100
AcDbLine
 10
358.4384791735865
 20
877.1432039952913
 30
0.0
 11
358.0054791735875
 21
876.3932259956146
 31
0.0
  0
LINE
  5
2C5
330
1F
100
AcDbEntity
  8
1
  6
DASH_CENTER
 62
     3
100
AcDbLine
 10
365.4157332114314
 20
883.5582895050752
 30
0.0
 11
353.7243902603414
 21
876.8082895050752
 31
0.0
  0
LINE
  5
2C6
330
1F
100
AcDbEntity
  8
1
  6
DASH_CENTER
 62
     3
100
AcDbLine
 10
339.3998409711035
 20
1398.232752517117
 30
0.0
 11
325.8998409711044
 21
1398.232752517117
 31
0.0
  0
LINE
  5
2C7
330
1F
100
AcDbEntity
  8
1
  6
Continuous
 62
     3
100
AcDbLine
 10
330.1498189707813
 20
1396.165752517117
 30
0.0
 11
329.3998409711044
 21
1395.732752517117
 31
0.0
  0
LINE
  5
2C8
330
1F
100
AcDbEntity
  8
1
  6
Continuous
 62
     3
100
AcDbLine
 10
338.9328409711034
 20
1396.165752517117
 30
0.0
 11
330.1498189707813
 21
1396.165752517117
 31
0.0
  0
LINE
  5
2C9
330
1F
100
AcDbEntity
  8
1
  6
Continuous
 62
     3
100
AcDbLine
 10
338.4998409711043
 20
1400.732752517117
 30
0.0
 11
338.4998409711043
 21
1395.732752517117
 31
0.0
  0
LINE
  5
2CA
330
1F
100
AcDbEntity
  8
1
  6
Continuous
 62
     3
100
AcDbLine
 10
330.1498189707813
 20
1400.299752517117
 30
0.0
 11
338.9328409711034
 21
1400.299752517117
 31
0.0
  0
LINE
  5
2CB
330
1F
100
AcDbEntity
  8
1
  6
Continuous
 62
     3
100
AcDbLine
 10
329.3998409711044
 20
1400.732752517117
 30
0.0
 11
330.1498189707813
 21
1400.299752517117
 31
0.0
  0
LINE
  5
2CC
330
1F
100
AcDbEntity
  8
1
  6
Continuous
 62
     7
100
AcDbLine
 10
330.1498189707813
 20
1400.732752517117
 30
0.0
 11
330.1498189707813
 21
1395.732752517117
 31
0.0
  0
LINE
  5
2CD
330
1F
100
AcDbEntity
  8
1
  6
Continuous
 62
     7
100
AcDbLine
 10
325.8998409711044
 20
1394.768650901979
 30
0.0
 11
325.8998409711044
 21
1401.696854132254
 31
0.0
  0
LINE
  5
2CE
330
1F
100
AcDbEntity
  8
1
  6
Continuous
 62
     7
100
AcDbLine
 10
329.3998409711044
 20
1395.923351440358
 30
0.0
 11
326.2571065610114
 21
1395.923351440358
 31
0.0
  0
LINE
  5
2CF
330
1F
100
AcDbEntity
  8
1
  6
Continuous
 62
     7
100
AcDbLine
 10
329.3998409711044
 20
1400.542153593875
 30
0.0
 11
326.2571065610114
 21
1400.542153593875
 31
0.0
  0
LINE
  5
2D0
330
1F
100
AcDbEntity
  8
1
  6
Continuous
 62
     7
100
AcDbLine
 10
338.4998409711043
 20
1395.732752517117
 30
0.0
 11
329.3998409711044
 21
1395.732752517117
 31
0.0
  0
LINE
  5
2D1
330
1F
100
AcDbEntity
  8
1
  6
Continuous
 62
     7
100
AcDbLine
 10
339.3998409711035
 20
1396.632752517117
 30
0.0
 11
338.4998409711043
 21
1395.732752517117
 31
0.0
  0
LINE
  5
2D2
330
1F
100
AcDbEntity
  8
1
  6
Continuous
 62
     7
100
AcDbLine
 10
339.3998409711035
 20
1399.832752517116
 30
0.0
 11
339.3998409711035
 21
1396.632752517117
 31
0.0
  0
LINE
  5
2D3
330
1F
100
AcDbEntity
  8
1
  6
Continuous
 62
     7
100
AcDbLine
 10
338.4998409711043
 20
1400.732752517117
 30
0.0
 11
339.3998409711035
 21
1399.832752517116
 31
0.0
  0
LINE
  5
2D4
330
1F
100
AcDbEntity
  8
1
  6
Continuous
 62
     7
100
AcDbLine
 10
329.3998409711044
 20
1400.732752517117
 30
0.0
 11
338.4998409711043
 21
1400.732752517117
 31
0.0
  0
LINE
  5
2D5
330
1F
100
AcDbEntity
  8
1
  6
Continuous
 62
     7
100
AcDbLine
 10
329.3998409711044
 20
1393.6139503636
 30
0.0
 11
326.2571065610114
 21
1393.6139503636
 31
0.0
  0
LINE
  5
2D6
330
1F
100
AcDbEntity
  8
1
  6
Continuous
 62
     7
100
AcDbLine
 10
329.3998409711044
 20
1402.851554670634
 30
0.0
 11
329.3998409711044
 21
1393.6139503636
 31
0.0
  0
LINE
  5
2D7
330
1F
100
AcDbEntity
  8
1
  6
Continuous
 62
     7
100
AcDbLine
 10
326.2571065610114
 20
1402.851554670634
 30
0.0
 11
329.3998409711044
 21
1402.851554670634
 31
0.0
  0
LINE
  5
2D8
330
1F
100
AcDbEntity
  8
1
  6
Continuous
 62
     7
100
AcDbLine
 10
329.3998409711044
 20
1402.832752517116
 30
0.0
 11
330.6998409711046
 21
1402.832752517116
 31
0.0
  0
LINE
  5
2D9
330
1F
100
AcDbEntity
  8
1
  6
Continuous
 62
     7
100
AcDbLine
 10
330.6998409711046
 20
1393.632752517117
 30
0.0
 11
329.3998409711044
 21
1393.632752517117
 31
0.0
  0
LINE
  5
2DA
330
1F
100
AcDbEntity
  8
1
  6
Continuous
 62
     7
100
AcDbLine
 10
330.6998409711046
 20
1403.232752517117
 30
0.0
 11
331.6998409711046
 21
1403.232752517117
 31
0.0
  0
LINE
  5
2DB
330
1F
100
AcDbEntity
  8
1
  6
Continuous
 62
     7
100
AcDbLine
 10
330.6998409711046
 20
1393.232752517117
 30
0.0
 11
330.6998409711046
 21
1403.232752517117
 31
0.0
  0
LINE
  5
2DC
330
1F
100
AcDbEntity
  8
1
  6
Continuous
 62
     7
100
AcDbLine
 10
331.6998409711046
 20
1393.232752517117
 30
0.0
 11
330.6998409711046
 21
1393.232752517117
 31
0.0
  0
LINE
  5
2DD
330
1F
100
AcDbEntity
  8
1
  6
Continuous
 62
     7
100
AcDbLine
 10
331.6998409711046
 20
1403.232752517117
 30
0.0
 11
331.6998409711046
 21
1393.232752517117
 31
0.0
  0
LINE
  5
2DE
330
1F
100
AcDbEntity
  8
1
  6
Continuous
 62
     7
100
AcDbLine
 10
579.0721532184457
 20
975.6945146896512
 30
0.0
 11
582.5362548335834
 21
969.6945146896503
 31
0.0
  0
LINE
  5
2DF
330
1F
100
AcDbEntity
  8
1
  6
Continuous
 62
     7
100
AcDbLine
 10
581.6495034876384
 20
970.5158818946978
 30
0.0
 11
578.9278156511496
 21
968.944514689651
 31
0.0
  0
LINE
  5
2E0
330
1F
100
AcDbEntity
  8
1
  6
Continuous
 62
     7
100
AcDbLine
 10
579.3401024108794
 20
974.5158818946968
 30
0.0
 11
576.6184145743914
 21
972.9445146896505
 31
0.0
  0
LINE
  5
2E1
330
1F
100
AcDbEntity
  8
1
  6
Continuous
 62
     7
100
AcDbLine
 10
582.8042040260175
 20
968.5158818946973
 30
0.0
 11
580.0825161895277
 21
966.9445146896512
 31
0.0
  0
LINE
  5
2E2
330
1F
100
AcDbEntity
  8
1
  6
Continuous
 62
     7
100
AcDbLine
 10
575.4637140360114
 20
974.9445146896503
 30
0.0
 11
578.1854018724994
 21
976.5158818946972
 31
0.0
  0
LINE
  5
2E3
330
1F
100
AcDbEntity
  8
1
  6
Continuous
 62
     7
100
AcDbLine
 10
574.3472820878487
 20
974.2782315470579
 30
0.0
 11
575.4731151127685
 21
974.9282315470603
 31
0.0
  0
LINE
  5
2E4
330
1F
100
AcDbEntity
  8
1
  6
Continuous
 62
     7
100
AcDbLine
 10
575.4731151127685
 20
974.9282315470603
 30
0.0
 11
580.0731151127693
 21
966.9607978322416
 31
0.0
  0
LINE
  5
2E5
330
1F
100
AcDbEntity
  8
1
  6
Continuous
 62
     7
100
AcDbLine
 10
580.0731151127693
 20
966.9607978322416
 30
0.0
 11
578.9472820878505
 21
966.3107978322423
 31
0.0
  0
LINE
  5
2E6
330
1F
100
AcDbEntity
  8
1
  6
Continuous
 62
     7
100
AcDbLine
 10
573.2812566840676
 20
974.1246417085738
 30
0.0
 11
574.1472820878494
 21
974.6246417085717
 31
0.0
  0
LINE
  5
2E7
330
1F
100
AcDbEntity
  8
1
  6
Continuous
 62
     7
100
AcDbLine
 10
574.1472820878494
 20
974.6246417085717
 30
0.0
 11
579.1472820878494
 21
965.9643876707274
 31
0.0
  0
LINE
  5
2E8
330
1F
100
AcDbEntity
  8
1
  6
Continuous
 62
     7
100
AcDbLine
 10
579.1472820878494
 20
965.9643876707274
 30
0.0
 11
578.2812566840644
 21
965.4643876707274
 31
0.0
  0
LINE
  5
2E9
330
1F
100
AcDbEntity
  8
1
  6
Continuous
 62
     7
100
AcDbLine
 10
1789.340773708257
 20
965.9644225274622
 30
0.0
 11
1788.474748304472
 21
965.4644225274627
 31
0.0
  0
LINE
  5
2EA
330
1F
100
AcDbEntity
  8
1
  6
Continuous
 62
     7
100
AcDbLine
 10
1784.340773708257
 20
974.6246765653065
 30
0.0
 11
1789.340773708257
 21
965.9644225274622
 31
0.0
  0
LINE
  5
2EB
330
1F
100
AcDbEntity
  8
1
  6
Continuous
 62
     7
100
AcDbLine
 10
1783.474748304474
 20
974.1246765653094
 30
0.0
 11
1784.340773708257
 21
974.6246765653065
 31
0.0
  0
LINE
  5
2EC
330
1F
100
AcDbEntity
  8
1
  6
Continuous
 62
     7
100
AcDbLine
 10
1790.266606733178
 20
966.9608326889762
 30
0.0
 11
1789.140773708258
 21
966.3108326889769
 31
0.0
  0
LINE
  5
2ED
330
1F
100
AcDbEntity
  8
1
  6
Continuous
 62
     7
100
AcDbLine
 10
1785.666606733175
 20
974.9282664037951
 30
0.0
 11
1790.266606733178
 21
966.9608326889762
 31
0.0
  0
LINE
  5
2EE
330
1F
100
AcDbEntity
  8
1
  6
Continuous
 62
     7
100
AcDbLine
 10
1784.540773708256
 20
974.2782664037935
 30
0.0
 11
1785.666606733175
 21
974.9282664037951
 31
0.0
  0
LINE
  5
2EF
330
1F
100
AcDbEntity
  8
1
  6
Continuous
 62
     7
100
AcDbLine
 10
1785.657205656419
 20
974.9445495463849
 30
0.0
 11
1788.378893492908
 21
976.5159167514318
 31
0.0
  0
LINE
  5
2F0
330
1F
100
AcDbEntity
  8
1
  6
Continuous
 62
     7
100
AcDbLine
 10
1792.997695646423
 20
968.5159167514318
 30
0.0
 11
1790.276007809935
 21
966.9445495463858
 31
0.0
  0
LINE
  5
2F1
330
1F
100
AcDbEntity
  8
1
  6
Continuous
 62
     7
100
AcDbLine
 10
1789.533594031287
 20
974.5159167514323
 30
0.0
 11
1786.811906194797
 21
972.9445495463853
 31
0.0
  0
LINE
  5
2F2
330
1F
100
AcDbEntity
  8
1
  6
Continuous
 62
     7
100
AcDbLine
 10
1791.842995108044
 20
970.5159167514324
 30
0.0
 11
1789.121307271556
 21
968.9445495463856
 31
0.0
  0
LINE
  5
2F3
330
1F
100
AcDbEntity
  8
1
  6
Continuous
 62
     7
100
AcDbLine
 10
1789.265644838853
 20
975.6945495463858
 30
0.0
 11
1792.729746453991
 21
969.6945495463856
 31
0.0
  0
LINE
  5
2F4
330
1F
100
AcDbEntity
  8
1
  6
Continuous
 62
     7
100
AcDbLine
 10
1441.893332591511
 20
1403.232752517117
 30
0.0
 11
1441.893332591511
 21
1393.232752517117
 31
0.0
  0
LINE
  5
2F5
330
1F
100
AcDbEntity
  8
1
  6
Continuous
 62
     7
100
AcDbLine
 10
1441.893332591511
 20
1393.232752517117
 30
0.0
 11
1440.893332591511
 21
1393.232752517117
 31
0.0
  0
LINE
  5
2F6
330
1F
100
AcDbEntity
  8
1
  6
Continuous
 62
     7
100
AcDbLine
 10
1440.893332591511
 20
1393.232752517117
 30
0.0
 11
1440.893332591511
 21
1403.232752517117
 31
0.0
  0
LINE
  5
2F7
330
1F
100
AcDbEntity
  8
1
  6
Continuous
 62
     7
100
AcDbLine
 10
1440.893332591511
 20
1403.232752517117
 30
0.0
 11
1441.893332591511
 21
1403.232752517117
 31
0.0
  0
LINE
  5
2F8
330
1F
100
AcDbEntity
  8
1
  6
Continuous
 62
     6
100
AcDbLine
 10
1441.893332591511
 20
1400.882752517117
 30
0.0
 11
1440.893332591511
 21
1400.882752517117
 31
0.0
  0
LINE
  5
2F9
330
1F
100
AcDbEntity
  8
1
  6
Continuous
 62
     6
100
AcDbLine
 10
1441.893332591511
 20
1395.582752517115
 30
0.0
 11
1440.893332591511
 21
1395.582752517115
 31
0.0
  0
LINE
  5
2FA
330
1F
100
AcDbEntity
  8
1
  6
Continuous
 62
     7
100
AcDbLine
 10
1440.893332591511
 20
1402.832752517115
 30
0.0
 11
1440.893332591511
 21
1393.632752517117
 31
0.0
  0
LINE
  5
2FB
330
1F
100
AcDbEntity
  8
1
  6
Continuous
 62
     7
100
AcDbLine
 10
1440.893332591511
 20
1393.632752517117
 30
0.0
 11
1439.593332591513
 21
1393.632752517117
 31
0.0
  0
LINE
  5
2FC
330
1F
100
AcDbEntity
  8
1
  6
Continuous
 62
     7
100
AcDbLine
 10
1439.593332591513
 20
1393.632752517117
 30
0.0
 11
1439.593332591513
 21
1402.832752517115
 31
0.0
  0
LINE
  5
2FD
330
1F
100
AcDbEntity
  8
1
  6
Continuous
 62
     7
100
AcDbLine
 10
1439.593332591513
 20
1402.832752517115
 30
0.0
 11
1440.893332591511
 21
1402.832752517115
 31
0.0
  0
LINE
  5
2FE
330
1F
100
AcDbEntity
  8
1
  6
Continuous
 62
     6
100
AcDbLine
 10
1440.893332591511
 20
1400.782752517117
 30
0.0
 11
1439.593332591513
 21
1400.782752517117
 31
0.0
  0
LINE
  5
2FF
330
1F
100
AcDbEntity
  8
1
  6
Continuous
 62
     6
100
AcDbLine
 10
1440.893332591511
 20
1395.682752517117
 30
0.0
 11
1439.593332591513
 21
1395.682752517117
 31
0.0
  0
LINE
  5
300
330
1F
100
AcDbEntity
  8
1
  6
Continuous
 62
     7
100
AcDbLine
 10
1436.450598181419
 20
1402.851554670634
 30
0.0
 11
1439.593332591513
 21
1402.851554670634
 31
0.0
  0
LINE
  5
301
330
1F
100
AcDbEntity
  8
1
  6
Continuous
 62
     7
100
AcDbLine
 10
1439.593332591513
 20
1402.851554670634
 30
0.0
 11
1439.593332591513
 21
1393.6139503636
 31
0.0
  0
LINE
  5
302
330
1F
100
AcDbEntity
  8
1
  6
Continuous
 62
     7
100
AcDbLine
 10
1439.593332591513
 20
1393.6139503636
 30
0.0
 11
1436.450598181419
 21
1393.6139503636
 31
0.0
  0
LINE
  5
303
330
1F
100
AcDbEntity
  8
1
  6
Continuous
 62
     7
100
AcDbLine
 10
1439.593332591513
 20
1400.732752517117
 30
0.0
 11
1448.693332591512
 21
1400.732752517117
 31
0.0
  0
LINE
  5
304
330
1F
100
AcDbEntity
  8
1
  6
Continuous
 62
     7
100
AcDbLine
 10
1448.693332591512
 20
1400.732752517117
 30
0.0
 11
1449.593332591512
 21
1399.832752517115
 31
0.0
  0
LINE
  5
305
330
1F
100
AcDbEntity
  8
1
  6
Continuous
 62
     7
100
AcDbLine
 10
1449.593332591512
 20
1399.832752517115
 30
0.0
 11
1449.593332591512
 21
1396.632752517117
 31
0.0
  0
LINE
  5
306
330
1F
100
AcDbEntity
  8
1
  6
Continuous
 62
     7
100
AcDbLine
 10
1449.593332591512
 20
1396.632752517117
 30
0.0
 11
1448.693332591512
 21
1395.732752517117
 31
0.0
  0
LINE
  5
307
330
1F
100
AcDbEntity
  8
1
  6
Continuous
 62
     7
100
AcDbLine
 10
1448.693332591512
 20
1395.732752517117
 30
0.0
 11
1439.593332591513
 21
1395.732752517117
 31
0.0
  0
LINE
  5
308
330
1F
100
AcDbEntity
  8
1
  6
Continuous
 62
     7
100
AcDbLine
 10
1439.593332591513
 20
1400.542153593875
 30
0.0
 11
1436.450598181419
 21
1400.542153593875
 31
0.0
  0
LINE
  5
309
330
1F
100
AcDbEntity
  8
1
  6
Continuous
 62
     7
100
AcDbLine
 10
1439.593332591513
 20
1395.923351440358
 30
0.0
 11
1436.450598181419
 21
1395.923351440358
 31
0.0
  0
LINE
  5
30A
330
1F
100
AcDbEntity
  8
1
  6
Continuous
 62
     7
100
AcDbLine
 10
1436.093332591513
 20
1394.76865090198
 30
0.0
 11
1436.093332591513
 21
1401.696854132254
 31
0.0
  0
LINE
  5
30B
330
1F
100
AcDbEntity
  8
1
  6
Continuous
 62
     7
100
AcDbLine
 10
1440.34331059119
 20
1400.732752517117
 30
0.0
 11
1440.343310591189
 21
1395.732752517117
 31
0.0
  0
LINE
  5
30C
330
1F
100
AcDbEntity
  8
1
  6
Continuous
 62
     3
100
AcDbLine
 10
1439.593332591513
 20
1400.732752517117
 30
0.0
 11
1440.343310591189
 21
1400.299752517117
 31
0.0
  0
LINE
  5
30D
330
1F
100
AcDbEntity
  8
1
  6
Continuous
 62
     3
100
AcDbLine
 10
1440.343310591189
 20
1400.299752517117
 30
0.0
 11
1449.126332591511
 21
1400.299752517117
 31
0.0
  0
LINE
  5
30E
330
1F
100
AcDbEntity
  8
1
  6
Continuous
 62
     3
100
AcDbLine
 10
1448.693332591512
 20
1400.732752517117
 30
0.0
 11
1448.693332591512
 21
1395.732752517117
 31
0.0
  0
LINE
  5
30F
330
1F
100
AcDbEntity
  8
1
  6
Continuous
 62
     3
100
AcDbLine
 10
1449.126332591512
 20
1396.165752517117
 30
0.0
 11
1440.34331059119
 21
1396.165752517117
 31
0.0
  0
LINE
  5
310
330
1F
100
AcDbEntity
  8
1
  6
Continuous
 62
     3
100
AcDbLine
 10
1440.34331059119
 20
1396.165752517117
 30
0.0
 11
1439.593332591513
 21
1395.732752517117
 31
0.0
  0
LINE
  5
311
330
1F
100
AcDbEntity
  8
1
  6
DASH_CENTER
 62
     3
100
AcDbLine
 10
1449.593332591512
 20
1398.232752517117
 30
0.0
 11
1436.093332591513
 21
1398.232752517117
 31
0.0
  0
LINE
  5
312
330
1F
100
AcDbEntity
  8
1
  6
Continuous
 62
     3
100
AcDbLine
 10
1482.02943041555
 20
827.1432388520273
 30
0.0
 11
1481.596430415551
 21
826.3932608523505
 31
0.0
  0
LINE
  5
313
330
1F
100
AcDbEntity
  8
1
  6
Continuous
 62
     3
100
AcDbLine
 10
1489.635750589825
 20
831.5347498521878
 30
0.0
 11
1482.02943041555
 21
827.1432388520273
 31
0.0
  0
LINE
  5
314
330
1F
100
AcDbEntity
  8
1
  6
Continuous
 62
     3
100
AcDbLine
 10
1486.977261589987
 20
835.2733878712713
 30
0.0
 11
1489.477261589987
 21
830.9432608523491
 31
0.0
  0
LINE
  5
315
330
1F
100
AcDbEntity
  8
1
  6
Continuous
 62
     3
100
AcDbLine
 10
1479.96243041555
 20
830.7233878712721
 30
0.0
 11
1487.568750589825
 21
835.1148988714322
 31
0.0
  0
LINE
  5
316
330
1F
100
AcDbEntity
  8
1
  6
Continuous
 62
     3
100
AcDbLine
 10
1479.096430415549
 20
830.7233878712718
 30
0.0
 11
1479.96243041555
 21
830.7233878712721
 31
0.0
  0
LINE
  5
317
330
1F
100
AcDbEntity
  8
1
  6
Continuous
 62
     7
100
AcDbLine
 10
1479.74593041555
 20
831.0983768711108
 30
0.0
 11
1482.24593041555
 21
826.7682498521886
 31
0.0
  0
LINE
  5
318
330
1F
100
AcDbEntity
  8
1
  6
Continuous
 62
     7
100
AcDbLine
 10
1479.047392309873
 20
823.8083243618116
 30
0.0
 11
1475.583290694734
 21
829.808324361811
 31
0.0
  0
LINE
  5
319
330
1F
100
AcDbEntity
  8
1
  6
Continuous
 62
     7
100
AcDbLine
 10
1481.501130953929
 20
826.55832436181
 30
0.0
 11
1478.779443117441
 21
824.9869571567654
 31
0.0
  0
LINE
  5
31A
330
1F
100
AcDbEntity
  8
1
  6
Continuous
 62
     7
100
AcDbLine
 10
1479.19172987717
 20
830.5583243618103
 30
0.0
 11
1476.470042040683
 21
828.9869571567642
 31
0.0
  0
LINE
  5
31B
330
1F
100
AcDbEntity
  8
1
  6
Continuous
 62
     7
100
AcDbLine
 10
1489.477261589987
 20
830.9432608523491
 30
0.0
 11
1481.596430415551
 21
826.3932608523505
 31
0.0
  0
LINE
  5
31C
330
1F
100
AcDbEntity
  8
1
  6
Continuous
 62
     7
100
AcDbLine
 10
1489.806684453394
 20
832.1726837157555
 30
0.0
 11
1489.477261589987
 21
830.9432608523491
 31
0.0
  0
LINE
  5
31D
330
1F
100
AcDbEntity
  8
1
  6
Continuous
 62
     7
100
AcDbLine
 10
1488.206684453392
 20
834.9439650078664
 30
0.0
 11
1489.806684453394
 21
832.1726837157555
 31
0.0
  0
LINE
  5
31E
330
1F
100
AcDbEntity
  8
1
  6
Continuous
 62
     7
100
AcDbLine
 10
1486.977261589987
 20
835.2733878712713
 30
0.0
 11
1488.206684453392
 21
834.9439650078664
 31
0.0
  0
LINE
  5
31F
330
1F
100
AcDbEntity
  8
1
  6
Continuous
 62
     7
100
AcDbLine
 10
1479.096430415549
 20
830.7233878712718
 30
0.0
 11
1486.977261589987
 21
835.2733878712713
 31
0.0
  0
LINE
  5
320
330
1F
100
AcDbEntity
  8
1
  6
Continuous
 62
     7
100
AcDbLine
 10
1482.655831492308
 20
824.558324361811
 30
0.0
 11
1479.934143655821
 21
822.9869571567649
 31
0.0
  0
LINE
  5
321
330
1F
100
AcDbEntity
  8
1
  6
Continuous
 62
     7
100
AcDbLine
 10
1475.315341502304
 20
830.9869571567649
 30
0.0
 11
1478.037029338791
 21
832.558324361811
 31
0.0
  0
LINE
  5
322
330
1F
100
AcDbEntity
  8
1
  6
Continuous
 62
     7
100
AcDbLine
 10
1478.046430415549
 20
832.5420412192202
 30
0.0
 11
1479.172263440469
 21
833.1920412192178
 31
0.0
  0
LINE
  5
323
330
1F
100
AcDbEntity
  8
1
  6
Continuous
 62
     7
100
AcDbLine
 10
1482.646430415551
 20
824.5746075044033
 30
0.0
 11
1478.046430415549
 21
832.5420412192202
 31
0.0
  0
LINE
  5
324
330
1F
100
AcDbEntity
  8
1
  6
Continuous
 62
     7
100
AcDbLine
 10
1483.772263440468
 20
825.2246075044016
 30
0.0
 11
1482.646430415551
 21
824.5746075044033
 31
0.0
  0
LINE
  5
325
330
1F
100
AcDbEntity
  8
1
  6
Continuous
 62
     7
100
AcDbLine
 10
1478.972263440468
 20
833.5384513807323
 30
0.0
 11
1479.838288844253
 21
834.0384513807323
 31
0.0
  0
LINE
  5
326
330
1F
100
AcDbEntity
  8
1
  6
Continuous
 62
     7
100
AcDbLine
 10
1484.838288844253
 20
825.3781973428879
 30
0.0
 11
1483.972263440469
 21
824.8781973428891
 31
0.0
  0
LINE
  5
327
330
1F
100
AcDbEntity
  8
1
  6
Continuous
 62
     7
100
AcDbLine
 10
1479.838288844253
 20
834.0384513807323
 30
0.0
 11
1484.838288844253
 21
825.3781973428879
 31
0.0
  0
LINE
  5
328
330
1F
100
AcDbEntity
  8
1
  6
Continuous
 62
     7
100
AcDbLine
 10
1770.893332591515
 20
1423.232752517117
 30
0.0
 11
1797.89333259151
 21
1423.232752517117
 31
0.0
  0
LINE
  5
329
330
1F
100
AcDbEntity
  8
1
  6
DASHED
 62
     4
100
AcDbLine
 10
1770.893332591515
 20
1373.232752517117
 30
0.0
 11
1747.89333259151
 21
1373.232752517117
 31
0.0
  0
LINE
  5
32A
330
1F
100
AcDbEntity
  8
1
  6
DASHED
 62
     4
100
AcDbLine
 10
560.6998409711073
 20
1373.232752517117
 30
0.0
 11
537.6998409711023
 21
1373.232752517117
 31
0.0
  0
LINE
  5
32B
330
1F
100
AcDbEntity
  8
1
  6
Continuous
 62
     7
100
AcDbLine
 10
560.6998409711073
 20
1423.232752517117
 30
0.0
 11
587.6998409711023
 21
1423.232752517117
 31
0.0
  0
LINE
  5
32C
330
1F
100
AcDbEntity
  8
1
  6
Continuous
 62
     7
100
AcDbLine
 10
587.6998409711023
 20
1373.232752517117
 30
0.0
 11
560.6998409711073
 21
1373.232752517117
 31
0.0
  0
LINE
  5
32D
330
1F
100
AcDbEntity
  8
1
  6
DASH_CENTER
 62
     3
100
AcDbLine
 10
337.6998409711014
 20
1398.232752517117
 30
0.0
 11
587.6998409711014
 21
1398.232752517117
 31
0.0
  0
LINE
  5
32E
330
1F
100
AcDbEntity
  8
1
  6
DASHED
 62
     4
100
AcDbLine
 10
537.6998409711023
 20
1423.232752517117
 30
0.0
 11
560.6998409711073
 21
1423.232752517117
 31
0.0
  0
LINE
  5
32F
330
1F
100
AcDbEntity
  8
1
  6
Continuous
 62
     7
100
AcDbLine
 10
587.6998409711023
 20
1423.232752517117
 30
0.0
 11
587.6998409711023
 21
1373.232752517117
 31
0.0
  0
LINE
  5
330
330
1F
100
AcDbEntity
  8
1
  6
DASHED
 62
     4
100
AcDbLine
 10
564.6998409711014
 20
1414.232752517115
 30
0.0
 11
560.6998409711014
 21
1414.232752517115
 31
0.0
  0
LINE
  5
331
330
1F
100
AcDbEntity
  8
1
  6
DASHED
 62
     4
100
AcDbLine
 10
560.6998409711014
 20
1382.232752517115
 30
0.0
 11
564.6998409711014
 21
1382.232752517115
 31
0.0
  0
LINE
  5
332
330
1F
100
AcDbEntity
  8
1
  6
DASHED
 62
     4
100
AcDbLine
 10
564.6998409711014
 20
1382.232752517115
 30
0.0
 11
564.6998409711014
 21
1414.232752517115
 31
0.0
  0
LINE
  5
333
330
1F
100
AcDbEntity
  8
1
  6
DASH_CENTER
 62
     3
100
AcDbLine
 10
470.2960304034345
 20
898.5002860555942
 30
0.0
 11
445.2960304034355
 21
941.801556244817
 31
0.0
  0
LINE
  5
334
330
1F
100
AcDbEntity
  8
1
  6
Continuous
 62
     7
100
AcDbLine
 10
85.15944685331442
 20
870.1509211502018
 30
0.0
 11
85.15944685331442
 21
868.1509211502018
 31
0.0
  0
LINE
  5
335
330
1F
100
AcDbEntity
  8
1
  6
Continuous
 62
     7
100
AcDbLine
 10
135.1594468533144
 20
870.1509211502018
 30
0.0
 11
135.1594468533144
 21
872.1509211502018
 31
0.0
  0
LINE
  5
336
330
1F
100
AcDbEntity
  8
1
  6
Continuous
 62
     7
100
AcDbLine
 10
135.1594468533144
 20
868.1509211502018
 30
0.0
 11
135.1594468533144
 21
870.1509211502018
 31
0.0
  0
LINE
  5
337
330
1F
100
AcDbEntity
  8
1
  6
Continuous
 62
     7
100
AcDbLine
 10
560.7190788575695
 20
981.8829719577743
 30
0.0
 11
586.6998409711005
 21
996.8829719577741
 31
0.0
  0
LINE
  5
338
330
1F
100
AcDbEntity
  8
1
  6
Continuous
 62
     7
100
AcDbLine
 10
85.15944685331442
 20
872.1509211502018
 30
0.0
 11
85.15944685331442
 21
870.1509211502018
 31
0.0
  0
LINE
  5
339
330
1F
100
AcDbEntity
  8
1
  6
Continuous
 62
     7
100
AcDbLine
 10
135.1594468533144
 20
872.1509211502018
 30
0.0
 11
116.1594468533135
 21
872.1509211502018
 31
0.0
  0
LINE
  5
33A
330
1F
100
AcDbEntity
  8
1
  6
Continuous
 62
     7
100
AcDbLine
 10
85.15944685331442
 20
868.1509211502018
 30
0.0
 11
135.1594468533144
 21
868.1509211502018
 31
0.0
  0
LINE
  5
33B
330
1F
100
AcDbEntity
  8
1
  6
DASH_CENTER
 62
     3
100
AcDbLine
 10
587.6998409711023
 20
995.1509211502064
 30
0.0
 11
371.1934900249976
 21
870.1509211502007
 31
0.0
  0
LINE
  5
33C
330
1F
100
AcDbEntity
  8
1
  6
DASHED
 62
     4
100
AcDbLine
 10
545.3985707818797
 20
968.4188703426344
 30
0.0
 11
562.7190788575736
 21
978.4188703426385
 31
0.0
  0
LINE
  5
33D
330
1F
100
AcDbEntity
  8
1
  6
Continuous
 62
     7
100
AcDbLine
 10
586.6998409711005
 20
996.8829719577741
 30
0.0
 11
588.6998409711005
 21
993.4188703426368
 31
0.0
  0
LINE
  5
33E
330
1F
100
AcDbEntity
  8
1
  6
DASHED
 62
     4
100
AcDbLine
 10
543.3985707818797
 20
971.8829719577734
 30
0.0
 11
560.7190788575695
 21
981.8829719577743
 31
0.0
  0
LINE
  5
33F
330
1F
100
AcDbEntity
  8
1
  6
Continuous
 62
     7
100
AcDbLine
 10
967.2840065262185
 20
997.1509211502064
 30
0.0
 11
967.2840065262185
 21
993.1509211502064
 31
0.0
  0
LINE
  5
340
330
1F
100
AcDbEntity
  8
1
  6
Continuous
 62
     7
100
AcDbLine
 10
1017.284006526219
 20
997.1509211502064
 30
0.0
 11
967.2840065262185
 21
997.1509211502064
 31
0.0
  0
LINE
  5
341
330
1F
100
AcDbEntity
  8
1
  6
Continuous
 62
     7
100
AcDbLine
 10
1017.284006526219
 20
993.1509211502064
 30
0.0
 11
1017.284006526219
 21
997.1509211502064
 31
0.0
  0
LINE
  5
342
330
1F
100
AcDbEntity
  8
1
  6
Continuous
 62
     7
100
AcDbLine
 10
967.2840065262185
 20
993.1509211502064
 30
0.0
 11
1017.284006526219
 21
993.1509211502064
 31
0.0
  0
LINE
  5
343
330
1F
100
AcDbEntity
  8
1
  6
Continuous
 62
     7
100
AcDbLine
 10
104.1594468533144
 20
877.650921150202
 30
0.0
 11
104.1594468533144
 21
868.1509211502018
 31
0.0
  0
LINE
  5
344
330
1F
100
AcDbEntity
  8
1
  6
Continuous
 62
     7
100
AcDbLine
 10
363.9793884098585
 20
874.6461116785861
 30
0.0
 11
368.7293884098576
 21
866.4188703426387
 31
0.0
  0
LINE
  5
345
330
1F
100
AcDbEntity
  8
1
  6
Continuous
 62
     7
100
AcDbLine
 10
104.1594468533144
 20
868.1509211502018
 30
0.0
 11
116.1594468533135
 21
868.1509211502018
 31
0.0
  0
LINE
  5
346
330
1F
100
AcDbEntity
  8
1
  6
Continuous
 62
     7
100
AcDbLine
 10
116.1594468533135
 20
868.1509211502018
 30
0.0
 11
116.1594468533135
 21
877.650921150202
 31
0.0
  0
LINE
  5
347
330
1F
100
AcDbEntity
  8
1
  6
Continuous
 62
     7
100
AcDbLine
 10
368.7293884098576
 20
866.4188703426387
 30
0.0
 11
372.1934900249944
 21
868.4188703426387
 31
0.0
  0
LINE
  5
348
330
1F
100
AcDbEntity
  8
1
  6
Continuous
 62
     7
100
AcDbLine
 10
978.2840065262167
 20
966.1509211502064
 30
0.0
 11
1006.284006526214
 21
966.1509211502064
 31
0.0
  0
LINE
  5
349
330
1F
100
AcDbEntity
  8
1
  6
Continuous
 62
     7
100
AcDbLine
 10
976.2840065262185
 20
993.1509211502064
 30
0.0
 11
976.2840065262185
 21
991.1509211502064
 31
0.0
  0
LINE
  5
34A
330
1F
100
AcDbEntity
  8
1
  6
Continuous
 62
     7
100
AcDbLine
 10
1008.284006526214
 20
993.1509211502064
 30
0.0
 11
976.2840065262185
 21
993.1509211502064
 31
0.0
  0
LINE
  5
34B
330
1F
100
AcDbEntity
  8
1
  6
Continuous
 62
     7
100
AcDbLine
 10
1008.284006526219
 20
968.1509211502064
 30
0.0
 11
1008.284006526214
 21
991.1509211502064
 31
0.0
  0
LINE
  5
34C
330
1F
100
AcDbEntity
  8
1
  6
Continuous
 62
     7
100
AcDbLine
 10
1006.284006526214
 20
966.1509211502064
 30
0.0
 11
1008.284006526219
 21
968.1509211502064
 31
0.0
  0
LINE
  5
34D
330
1F
100
AcDbEntity
  8
1
  6
Continuous
 62
     7
100
AcDbLine
 10
978.2840065262167
 20
966.1509211502064
 30
0.0
 11
976.2840065262185
 21
968.1509211502073
 31
0.0
  0
LINE
  5
34E
330
1F
100
AcDbEntity
  8
1
  6
Continuous
 62
     7
100
AcDbLine
 10
582.2812566840626
 20
958.5361844404588
 30
0.0
 11
568.7812566840626
 21
981.9188703426387
 31
0.0
  0
LINE
  5
34F
330
1F
100
AcDbEntity
  8
1
  6
Continuous
 62
     7
100
AcDbLine
 10
565.3171550689253
 20
979.9188703426376
 30
0.0
 11
578.8171550689253
 21
956.5361844404578
 31
0.0
  0
LINE
  5
350
330
1F
100
AcDbEntity
  8
1
  6
Continuous
 62
     7
100
AcDbLine
 10
578.8171550689253
 20
956.5361844404578
 30
0.0
 11
582.2812566840626
 21
958.5361844404588
 31
0.0
  0
LINE
  5
351
330
1F
100
AcDbEntity
  8
1
  6
DOT_CENTER
 62
     3
100
AcDbLine
 10
106.4094468533144
 20
884.6509211502018
 30
0.0
 11
113.9094468533144
 21
884.6509211502018
 31
0.0
  0
LINE
  5
352
330
1F
100
AcDbEntity
  8
1
  6
Continuous
 62
     7
100
AcDbLine
 10
562.7190788575736
 20
978.4188703426385
 30
0.0
 11
588.6998409711005
 21
993.4188703426368
 31
0.0
  0
LINE
  5
353
330
1F
100
AcDbEntity
  8
1
  6
Continuous
 62
     7
100
AcDbLine
 10
976.2840065262185
 20
991.1509211502064
 30
0.0
 11
976.2840065262185
 21
968.1509211502073
 31
0.0
  0
LINE
  5
354
330
1F
100
AcDbEntity
  8
1
  6
Continuous
 62
     7
100
AcDbLine
 10
1008.284006526214
 20
991.1509211502064
 30
0.0
 11
1008.284006526214
 21
993.1509211502064
 31
0.0
  0
LINE
  5
355
330
1F
100
AcDbEntity
  8
1
  6
Continuous
 62
     7
100
AcDbLine
 10
2179.284006526219
 20
993.1509211502064
 30
0.0
 11
2179.284006526219
 21
968.1509211502073
 31
0.0
  0
LINE
  5
356
330
1F
100
AcDbEntity
  8
1
  6
Continuous
 62
     7
100
AcDbLine
 10
1772.912570477979
 20
978.4189051993751
 30
0.0
 11
1798.893332591506
 21
993.4189051993728
 31
0.0
  0
LINE
  5
357
330
1F
100
AcDbEntity
  8
1
  6
DOT_CENTER
 62
     3
100
AcDbLine
 10
1216.409446853314
 20
834.6509560069362
 30
0.0
 11
1223.909446853314
 21
834.6509560069362
 31
0.0
  0
LINE
  5
358
330
1F
100
AcDbEntity
  8
1
  6
Continuous
 62
     7
100
AcDbLine
 10
1789.010646689332
 20
956.5362192971943
 30
0.0
 11
1792.474748304468
 21
958.5362192971943
 31
0.0
  0
LINE
  5
359
330
1F
100
AcDbEntity
  8
1
  6
Continuous
 62
     7
100
AcDbLine
 10
1775.510646689332
 20
979.9189051993742
 30
0.0
 11
1789.010646689332
 21
956.5362192971943
 31
0.0
  0
LINE
  5
35A
330
1F
100
AcDbEntity
  8
1
  6
Continuous
 62
     7
100
AcDbLine
 10
1792.474748304468
 20
958.5362192971943
 30
0.0
 11
1778.974748304468
 21
981.9189051993751
 31
0.0
  0
LINE
  5
35B
330
1F
100
AcDbEntity
  8
1
  6
Continuous
 62
     7
100
AcDbLine
 10
2181.284006526217
 20
966.1509211502073
 30
0.0
 11
2179.284006526219
 21
968.1509211502073
 31
0.0
  0
LINE
  5
35C
330
1F
100
AcDbEntity
  8
1
  6
Continuous
 62
     7
100
AcDbLine
 10
2209.284006526214
 20
966.1509211502073
 30
0.0
 11
2211.284006526219
 21
968.1509211502073
 31
0.0
  0
LINE
  5
35D
330
1F
100
AcDbEntity
  8
1
  6
Continuous
 62
     7
100
AcDbLine
 10
2211.284006526219
 20
968.1509211502073
 30
0.0
 11
2211.284006526214
 21
993.1509211502064
 31
0.0
  0
LINE
  5
35E
330
1F
100
AcDbEntity
  8
1
  6
Continuous
 62
     7
100
AcDbLine
 10
2181.284006526217
 20
966.1509211502073
 30
0.0
 11
2209.284006526214
 21
966.1509211502073
 31
0.0
  0
LINE
  5
35F
330
1F
100
AcDbEntity
  8
1
  6
Continuous
 62
     7
100
AcDbLine
 10
1495.784441266957
 20
818.4189051993751
 30
0.0
 11
1494.78444126696
 21
820.1509560069362
 31
0.0
  0
LINE
  5
360
330
1F
100
AcDbEntity
  8
1
  6
Continuous
 62
     7
100
AcDbLine
 10
1492.32033965182
 20
816.4189051993751
 30
0.0
 11
1495.784441266957
 21
818.4189051993751
 31
0.0
  0
LINE
  5
361
330
1F
100
AcDbEntity
  8
1
  6
Continuous
 62
     7
100
AcDbLine
 10
1226.159446853312
 20
818.1509560069362
 30
0.0
 11
1226.159446853312
 21
827.6509560069362
 31
0.0
  0
LINE
  5
362
330
1F
100
AcDbEntity
  8
1
  6
Continuous
 62
     7
100
AcDbLine
 10
1214.159446853314
 20
818.1509560069362
 30
0.0
 11
1226.159446853312
 21
818.1509560069362
 31
0.0
  0
LINE
  5
363
330
1F
100
AcDbEntity
  8
1
  6
Continuous
 62
     7
100
AcDbLine
 10
1487.570339651822
 20
824.6461465353207
 30
0.0
 11
1492.32033965182
 21
816.4189051993751
 31
0.0
  0
LINE
  5
364
330
1F
100
AcDbEntity
  8
1
  6
Continuous
 62
     7
100
AcDbLine
 10
1214.159446853314
 20
827.6509560069362
 30
0.0
 11
1214.159446853314
 21
818.1509560069362
 31
0.0
  0
LINE
  5
365
330
1F
100
AcDbEntity
  8
1
  6
Continuous
 62
     7
100
AcDbLine
 10
2170.284006526219
 20
993.1509211502064
 30
0.0
 11
2220.284006526219
 21
993.1509211502064
 31
0.0
  0
LINE
  5
366
330
1F
100
AcDbEntity
  8
1
  6
Continuous
 62
     7
100
AcDbLine
 10
2220.284006526219
 20
993.1509211502064
 30
0.0
 11
2220.284006526219
 21
997.1509211502064
 31
0.0
  0
LINE
  5
367
330
1F
100
AcDbEntity
  8
1
  6
Continuous
 62
     7
100
AcDbLine
 10
2220.284006526219
 20
997.1509211502064
 30
0.0
 11
2170.284006526219
 21
997.1509211502064
 31
0.0
  0
LINE
  5
368
330
1F
100
AcDbEntity
  8
1
  6
Continuous
 62
     7
100
AcDbLine
 10
2170.284006526219
 20
997.1509211502064
 30
0.0
 11
2170.284006526219
 21
993.1509211502064
 31
0.0
  0
LINE
  5
369
330
1F
100
AcDbEntity
  8
1
  6
DASHED
 62
     4
100
AcDbLine
 10
1753.592062402286
 20
971.8830068145101
 30
0.0
 11
1770.912570477975
 21
981.883006814511
 31
0.0
  0
LINE
  5
36A
330
1F
100
AcDbEntity
  8
1
  6
Continuous
 62
     7
100
AcDbLine
 10
1796.893332591506
 20
996.8830068145109
 30
0.0
 11
1798.893332591506
 21
993.4189051993728
 31
0.0
  0
LINE
  5
36B
330
1F
100
AcDbEntity
  8
1
  6
DASHED
 62
     4
100
AcDbLine
 10
1755.592062402286
 20
968.4189051993699
 30
0.0
 11
1772.912570477979
 21
978.4189051993751
 31
0.0
  0
LINE
  5
36C
330
1F
100
AcDbEntity
  8
1
  6
DASH_CENTER
 62
     3
100
AcDbLine
 10
1797.893332591509
 20
995.1509560069428
 30
0.0
 11
1494.78444126696
 21
820.1509560069362
 31
0.0
  0
LINE
  5
36D
330
1F
100
AcDbEntity
  8
1
  6
Continuous
 62
     7
100
AcDbLine
 10
1195.159446853314
 20
818.1509560069362
 30
0.0
 11
1245.159446853314
 21
818.1509560069362
 31
0.0
  0
LINE
  5
36E
330
1F
100
AcDbEntity
  8
1
  6
Continuous
 62
     7
100
AcDbLine
 10
1245.159446853314
 20
822.1509560069362
 30
0.0
 11
1226.159446853312
 21
822.1509560069362
 31
0.0
  0
LINE
  5
36F
330
1F
100
AcDbEntity
  8
1
  6
Continuous
 62
     7
100
AcDbLine
 10
1195.159446853314
 20
822.1509560069362
 30
0.0
 11
1195.159446853314
 21
820.1509560069362
 31
0.0
  0
LINE
  5
370
330
1F
100
AcDbEntity
  8
1
  6
Continuous
 62
     7
100
AcDbLine
 10
1770.912570477975
 20
981.883006814511
 30
0.0
 11
1796.893332591506
 21
996.8830068145109
 31
0.0
  0
LINE
  5
371
330
1F
100
AcDbEntity
  8
1
  6
Continuous
 62
     7
100
AcDbLine
 10
1245.159446853314
 20
818.1509560069362
 30
0.0
 11
1245.159446853314
 21
820.1509560069362
 31
0.0
  0
LINE
  5
372
330
1F
100
AcDbEntity
  8
1
  6
Continuous
 62
     7
100
AcDbLine
 10
1245.159446853314
 20
820.1509560069362
 30
0.0
 11
1245.159446853314
 21
822.1509560069362
 31
0.0
  0
LINE
  5
373
330
1F
100
AcDbEntity
  8
1
  6
Continuous
 62
     7
100
AcDbLine
 10
1195.159446853314
 20
820.1509560069362
 30
0.0
 11
1195.159446853314
 21
818.1509560069362
 31
0.0
  0
LINE
  5
374
330
1F
100
AcDbEntity
  8
1
  6
DASH_CENTER
 62
     3
100
AcDbLine
 10
1637.188251834621
 20
873.5003209123319
 30
0.0
 11
1612.18825183462
 21
916.8015911015528
 31
0.0
  0
LINE
  5
375
330
1F
100
AcDbEntity
  8
1
  6
DASHED
 62
     4
100
AcDbLine
 10
1774.893332591509
 20
1382.232752517115
 30
0.0
 11
1774.89333259151
 21
1414.232752517115
 31
0.0
  0
LINE
  5
376
330
1F
100
AcDbEntity
  8
1
  6
DASHED
 62
     4
100
AcDbLine
 10
1770.893332591509
 20
1382.232752517115
 30
0.0
 11
1774.893332591509
 21
1382.232752517115
 31
0.0
  0
LINE
  5
377
330
1F
100
AcDbEntity
  8
1
  6
DASHED
 62
     4
100
AcDbLine
 10
1774.89333259151
 20
1414.232752517115
 30
0.0
 11
1770.89333259151
 21
1414.232752517115
 31
0.0
  0
LINE
  5
378
330
1F
100
AcDbEntity
  8
1
  6
DASHED
 62
     4
100
AcDbLine
 10
1447.893332591511
 20
1404.232752517117
 30
0.0
 11
1447.893332591511
 21
1392.232752517117
 31
0.0
  0
LINE
  5
379
330
1F
100
AcDbEntity
  8
1
  6
DASHED
 62
     4
100
AcDbLine
 10
1443.893332591511
 20
1404.232752517117
 30
0.0
 11
1447.893332591511
 21
1404.232752517117
 31
0.0
  0
LINE
  5
37A
330
1F
100
AcDbEntity
  8
1
  6
DASHED
 62
     4
100
AcDbLine
 10
1443.893332591511
 20
1392.232752517117
 30
0.0
 11
1443.893332591511
 21
1404.232752517117
 31
0.0
  0
LINE
  5
37B
330
1F
100
AcDbEntity
  8
1
  6
DASHED
 62
     4
100
AcDbLine
 10
1447.893332591511
 20
1392.232752517117
 30
0.0
 11
1443.893332591511
 21
1392.232752517117
 31
0.0
  0
LINE
  5
37C
330
1F
100
AcDbEntity
  8
1
  6
Continuous
 62
     7
100
AcDbLine
 10
1797.89333259151
 20
1423.232752517117
 30
0.0
 11
1797.89333259151
 21
1373.232752517117
 31
0.0
  0
LINE
  5
37D
330
1F
100
AcDbEntity
  8
1
  6
DASHED
 62
     4
100
AcDbLine
 10
1747.89333259151
 20
1423.232752517117
 30
0.0
 11
1770.893332591515
 21
1423.232752517117
 31
0.0
  0
LINE
  5
37E
330
1F
100
AcDbEntity
  8
1
  6
DASHED
 62
     4
100
AcDbLine
 10
1447.89333259151
 20
1423.232752517117
 30
0.0
 11
1447.89333259151
 21
1373.232752517117
 31
0.0
  0
LINE
  5
37F
330
1F
100
AcDbEntity
  8
1
  6
DASH_CENTER
 62
     3
100
AcDbLine
 10
1447.893332591509
 20
1398.232752517117
 30
0.0
 11
1797.893332591509
 21
1398.232752517117
 31
0.0
  0
LINE
  5
380
330
1F
100
AcDbEntity
  8
1
  6
Continuous
 62
     7
100
AcDbLine
 10
1797.89333259151
 20
1373.232752517117
 30
0.0
 11
1770.893332591515
 21
1373.232752517117
 31
0.0
  0
LINE
  5
381
330
1F
100
AcDbEntity
  8
1
  6
Continuous
 62
     7
100
AcDbLine
 10
1214.159446853314
 20
822.1509560069362
 30
0.0
 11
1195.159446853314
 21
822.1509560069362
 31
0.0
  0
LINE
  5
382
330
1F
100
AcDbEntity
  8
1
  6
Continuous
 62
     7
100
AcDbLine
 10
104.1594468533144
 20
872.1509211502018
 30
0.0
 11
85.15944685331442
 21
872.1509211502018
 31
0.0
  0
LINE
  5
383
330
1F
100
AcDbEntity
  8
1
  6
DASH_CENTER
 62
     3
100
AcDbLine
 10
543.6485707818797
 20
971.4499592558813
 30
0.0
 11
545.1485707818806
 21
968.8518830445271
 31
0.0
  0
LINE
  5
384
330
1F
100
AcDbEntity
  8
1
  6
DASH_CENTER
 62
     3
100
AcDbLine
 10
543.6485707818797
 20
971.4499592558813
 30
0.0
 11
545.1485707818806
 21
968.8518830445271
 31
0.0
  0
LINE
  5
385
330
1F
100
AcDbEntity
  8
1
  6
DASH_CENTER
 62
     3
100
AcDbLine
 10
1753.842062402287
 20
971.4499941126159
 30
0.0
 11
1755.342062402287
 21
968.8519179012626
 31
0.0
  0
LINE
  5
386
330
1F
100
AcDbEntity
  8
1
  6
DASH_CENTER
 62
     3
100
AcDbLine
 10
1753.842062402287
 20
971.4499941126159
 30
0.0
 11
1755.342062402287
 21
968.8519179012626
 31
0.0
  0
LINE
  5
387
330
1F
100
AcDbEntity
  8
1
  6
Continuous
 62
     7
100
AcDbLine
 10
1943.911702287826
 20
1439.232752517118
 30
0.0
 11
1943.911702287826
 21
1443.732752517118
 31
0.0
  0
LINE
  5
388
330
1F
100
AcDbEntity
  8
1
  6
Continuous
 62
     7
100
AcDbLine
 10
1943.911702287826
 20
1443.732752517118
 30
0.0
 11
1822.893824892833
 21
1443.732752517118
 31
0.0
  0
LINE
  5
389
330
1F
100
AcDbEntity
  8
1
  6
Continuous
 62
     7
100
AcDbLine
 10
1767.893729975142
 20
1465.532752517114
 30
0.0
 11
1786.393824892833
 21
1465.532752517114
 31
0.0
  0
LINE
  5
38A
330
1F
100
AcDbEntity
  8
1
  6
Continuous
 62
     7
100
AcDbLine
 10
1822.893824892833
 20
1443.732752517118
 30
0.0
 11
1787.893824892833
 21
1470.032752517114
 31
0.0
  0
LINE
  5
38B
330
1F
100
AcDbEntity
  8
1
  6
Continuous
 62
     7
100
AcDbLine
 10
1786.393824892833
 20
1465.532752517114
 30
0.0
 11
1821.393824892833
 21
1439.232752517118
 31
0.0
  0
LINE
  5
38C
330
1F
100
AcDbEntity
  8
1
  6
Continuous
 62
     7
100
AcDbLine
 10
1787.893824892833
 20
1470.032752517114
 30
0.0
 11
1767.893729975142
 21
1470.032752517114
 31
0.0
  0
LINE
  5
38D
330
1F
100
AcDbEntity
  8
1
  6
Continuous
 62
     7
100
AcDbLine
 10
1820.483078553723
 20
936.0243682704231
 30
0.0
 11
1855.483078553711
 21
875.4025900054849
 31
0.0
  0
LINE
  5
38E
330
1F
100
AcDbEntity
  8
1
  6
Continuous
 62
     7
100
AcDbLine
 10
1885.793967686181
 20
892.9025900054591
 30
0.0
 11
1850.793967686193
 21
953.5243682703961
 31
0.0
  0
LINE
  5
38F
330
1F
100
AcDbEntity
  8
1
  6
Continuous
 62
     7
100
AcDbLine
 10
733.7183646376534
 20
1443.732752517118
 30
0.0
 11
612.7004154452184
 21
1443.732752517118
 31
0.0
  0
LINE
  5
390
330
1F
100
AcDbEntity
  8
1
  6
Continuous
 62
     7
100
AcDbLine
 10
577.7004154452184
 20
1470.032752517118
 30
0.0
 11
557.7003205275273
 21
1470.032752517118
 31
0.0
  0
LINE
  5
391
330
1F
100
AcDbEntity
  8
1
  6
Continuous
 62
     7
100
AcDbLine
 10
576.2004154452184
 20
1465.532752517118
 30
0.0
 11
611.2004154452184
 21
1439.232752517118
 31
0.0
  0
LINE
  5
392
330
1F
100
AcDbEntity
  8
1
  6
Continuous
 62
     7
100
AcDbLine
 10
612.7004154452184
 20
1443.732752517118
 30
0.0
 11
577.7004154452184
 21
1470.032752517118
 31
0.0
  0
LINE
  5
393
330
1F
100
AcDbEntity
  8
1
  6
Continuous
 62
     7
100
AcDbLine
 10
557.7003205275273
 20
1465.532752517118
 30
0.0
 11
576.2004154452184
 21
1465.532752517118
 31
0.0
  0
LINE
  5
394
330
1F
100
AcDbEntity
  8
1
  6
Continuous
 62
     7
100
AcDbLine
 10
675.6005449170634
 20
892.9025583662799
 30
0.0
 11
640.6005449171084
 21
953.5243366312341
 31
0.0
  0
LINE
  5
395
330
1F
100
AcDbEntity
  8
1
  6
Continuous
 62
     7
100
AcDbLine
 10
610.2896557846375
 20
936.0243366312611
 30
0.0
 11
645.2896557845925
 21
875.4025583663063
 31
0.0
  0
LINE
  5
396
330
1F
100
AcDbEntity
  8
1
  6
DOT_CENTER
 62
     3
100
AcDbLine
 10
1957.146508064667
 20
968.4025900053964
 30
0.0
 11
1967.646508064667
 21
968.4025900053964
 31
0.0
  0
LINE
  5
397
330
1F
100
AcDbEntity
  8
1
  6
DOT_CENTER
 62
     3
100
AcDbLine
 10
1962.396508064667
 20
955.902590005396
 30
0.0
 11
1962.396508064667
 21
954.1525900053964
 31
0.0
  0
LINE
  5
398
330
1F
100
AcDbEntity
  8
1
  6
DOT_CENTER
 62
     3
100
AcDbLine
 10
1962.396508064667
 20
980.9025900053952
 30
0.0
 11
1962.396508064667
 21
955.902590005396
 31
0.0
  0
LINE
  5
399
330
1F
100
AcDbEntity
  8
1
  6
DOT_CENTER
 62
     3
100
AcDbLine
 10
1962.396508064667
 20
982.6525900053949
 30
0.0
 11
1962.396508064667
 21
980.9025900053952
 31
0.0
  0
LINE
  5
39A
330
1F
100
AcDbEntity
  8
1
  6
DOT_CENTER
 62
     3
100
AcDbLine
 10
1907.146508064668
 20
968.4025900053964
 30
0.0
 11
1917.646508064668
 21
968.4025900053964
 31
0.0
  0
LINE
  5
39B
330
1F
100
AcDbEntity
  8
1
  6
DOT_CENTER
 62
     3
100
AcDbLine
 10
1912.396508064668
 20
955.902590005396
 30
0.0
 11
1912.396508064668
 21
954.1525900053964
 31
0.0
  0
LINE
  5
39C
330
1F
100
AcDbEntity
  8
1
  6
DOT_CENTER
 62
     3
100
AcDbLine
 10
1912.396508064668
 20
980.9025900053952
 30
0.0
 11
1912.396508064668
 21
955.902590005396
 31
0.0
  0
LINE
  5
39D
330
1F
100
AcDbEntity
  8
1
  6
DOT_CENTER
 62
     3
100
AcDbLine
 10
1912.396508064668
 20
982.6525900053949
 30
0.0
 11
1912.396508064668
 21
980.9025900053952
 31
0.0
  0
LINE
  5
39E
330
1F
100
AcDbEntity
  8
1
  6
DOT_CENTER
 62
     3
100
AcDbLine
 10
696.9530852955854
 20
968.4025583662364
 30
0.0
 11
707.4530852955854
 21
968.4025583662364
 31
0.0
  0
LINE
  5
39F
330
1F
100
AcDbEntity
  8
1
  6
DOT_CENTER
 62
     3
100
AcDbLine
 10
702.2030852955854
 20
955.9025583662361
 30
0.0
 11
702.2030852955854
 21
954.1525583662364
 31
0.0
  0
LINE
  5
3A0
330
1F
100
AcDbEntity
  8
1
  6
DOT_CENTER
 62
     3
100
AcDbLine
 10
702.2030852955854
 20
980.9025583662352
 30
0.0
 11
702.2030852955854
 21
955.9025583662361
 31
0.0
  0
LINE
  5
3A1
330
1F
100
AcDbEntity
  8
1
  6
DOT_CENTER
 62
     3
100
AcDbLine
 10
702.2030852955854
 20
982.6525583662356
 30
0.0
 11
702.2030852955854
 21
980.9025583662352
 31
0.0
  0
LINE
  5
3A2
330
1F
100
AcDbEntity
  8
1
  6
DOT_CENTER
 62
     3
100
AcDbLine
 10
746.9530852955854
 20
968.4025583662364
 30
0.0
 11
757.4530852955854
 21
968.4025583662364
 31
0.0
  0
LINE
  5
3A3
330
1F
100
AcDbEntity
  8
1
  6
DOT_CENTER
 62
     3
100
AcDbLine
 10
752.2030852955854
 20
955.9025583662361
 30
0.0
 11
752.2030852955854
 21
954.1525583662364
 31
0.0
  0
LINE
  5
3A4
330
1F
100
AcDbEntity
  8
1
  6
DOT_CENTER
 62
     3
100
AcDbLine
 10
752.2030852955854
 20
980.9025583662352
 30
0.0
 11
752.2030852955854
 21
955.9025583662361
 31
0.0
  0
LINE
  5
3A5
330
1F
100
AcDbEntity
  8
1
  6
DOT_CENTER
 62
     3
100
AcDbLine
 10
752.2030852955854
 20
982.6525583662356
 30
0.0
 11
752.2030852955854
 21
980.9025583662352
 31
0.0
  0
LINE
  5
3A6
330
1F
100
AcDbEntity
  8
1
  6
Continuous
 62
     7
100
AcDbLine
 10
1822.893824892833
 20
1352.732752517116
 30
0.0
 11
1943.911702287826
 21
1352.732752517116
 31
0.0
  0
LINE
  5
3A7
330
1F
100
AcDbEntity
  8
1
  6
Continuous
 62
     7
100
AcDbLine
 10
1943.911702287826
 20
1352.732752517116
 30
0.0
 11
1943.911702287826
 21
1357.232752517116
 31
0.0
  0
LINE
  5
3A8
330
1F
100
AcDbEntity
  8
1
  6
Continuous
 62
     7
100
AcDbLine
 10
1943.911702287826
 20
1357.232752517116
 30
0.0
 11
1821.393824892833
 21
1357.232752517116
 31
0.0
  0
LINE
  5
3A9
330
1F
100
AcDbEntity
  8
1
  6
Continuous
 62
     7
100
AcDbLine
 10
1767.893729975142
 20
1326.43275251712
 30
0.0
 11
1787.893824892833
 21
1326.43275251712
 31
0.0
  0
LINE
  5
3AA
330
1F
100
AcDbEntity
  8
1
  6
Continuous
 62
     7
100
AcDbLine
 10
1821.393824892833
 20
1357.232752517116
 30
0.0
 11
1786.393824892833
 21
1330.93275251712
 31
0.0
  0
LINE
  5
3AB
330
1F
100
AcDbEntity
  8
1
  6
Continuous
 62
     7
100
AcDbLine
 10
1787.893824892833
 20
1326.43275251712
 30
0.0
 11
1822.893824892833
 21
1352.732752517116
 31
0.0
  0
LINE
  5
3AC
330
1F
100
AcDbEntity
  8
1
  6
Continuous
 62
     7
100
AcDbLine
 10
1821.393824892836
 20
1439.232752517116
 30
0.0
 11
1943.911702287825
 21
1439.232752517116
 31
0.0
  0
LINE
  5
3AD
330
1F
100
AcDbEntity
  8
1
  6
Continuous
 62
     7
100
AcDbLine
 10
1786.393824892833
 20
1330.93275251712
 30
0.0
 11
1767.893729975142
 21
1330.93275251712
 31
0.0
  0
LINE
  5
3AE
330
1F
100
AcDbEntity
  8
1
  6
Continuous
 62
     7
100
AcDbLine
 10
576.2004154452184
 20
1330.932752517116
 30
0.0
 11
557.7003205275273
 21
1330.932752517116
 31
0.0
  0
LINE
  5
3AF
330
1F
100
AcDbEntity
  8
1
  6
Continuous
 62
     7
100
AcDbLine
 10
733.7183646376543
 20
1439.232752517116
 30
0.0
 11
733.7183646376543
 21
1443.732752517116
 31
0.0
  0
LINE
  5
3B0
330
1F
100
AcDbEntity
  8
1
  6
Continuous
 62
     7
100
AcDbLine
 10
611.2004154452206
 20
1439.232752517116
 30
0.0
 11
733.7183646376543
 21
1439.232752517116
 31
0.0
  0
LINE
  5
3B1
330
1F
100
AcDbEntity
  8
1
  6
Continuous
 62
     7
100
AcDbLine
 10
577.7004154452184
 20
1326.432752517116
 30
0.0
 11
612.7004154452184
 21
1352.732752517116
 31
0.0
  0
LINE
  5
3B2
330
1F
100
AcDbEntity
  8
1
  6
Continuous
 62
     7
100
AcDbLine
 10
611.2004154452184
 20
1357.232752517116
 30
0.0
 11
576.2004154452184
 21
1330.932752517116
 31
0.0
  0
LINE
  5
3B3
330
1F
100
AcDbEntity
  8
1
  6
Continuous
 62
     7
100
AcDbLine
 10
557.7003205275273
 20
1326.432752517115
 30
0.0
 11
577.7004154452184
 21
1326.432752517116
 31
0.0
  0
LINE
  5
3B4
330
1F
100
AcDbEntity
  8
1
  6
Continuous
 62
     7
100
AcDbLine
 10
733.7183646376543
 20
1357.232752517116
 30
0.0
 11
611.2004154452184
 21
1357.232752517116
 31
0.0
  0
LINE
  5
3B5
330
1F
100
AcDbEntity
  8
1
  6
Continuous
 62
     7
100
AcDbLine
 10
733.7183646376534
 20
1352.732752517116
 30
0.0
 11
733.7183646376543
 21
1357.232752517116
 31
0.0
  0
LINE
  5
3B6
330
1F
100
AcDbEntity
  8
1
  6
Continuous
 62
     7
100
AcDbLine
 10
612.7004154452184
 20
1352.732752517116
 30
0.0
 11
733.7183646376534
 21
1352.732752517116
 31
0.0
  0
LINE
  5
3B7
330
1F
100
AcDbEntity
  8
1
  6
DOT_CENTER
 62
     3
100
AcDbLine
 10
576.7515253162014
 20
905.1140825934493
 30
0.0
 11
584.5457539502654
 21
909.6140825934406
 31
0.0
  0
LINE
  5
3B8
330
1F
100
AcDbEntity
  8
1
  6
DOT_CENTER
 62
     3
100
AcDbLine
 10
582.8986396332284
 20
903.4669682764127
 30
0.0
 11
578.3986396332343
 21
911.2611969104762
 31
0.0
  0
LINE
  5
3B9
330
1F
100
AcDbEntity
  8
1
  6
DOT_CENTER
 62
     3
100
AcDbLine
 10
601.7515253161646
 20
861.8128124042041
 30
0.0
 11
609.5457539502277
 21
866.3128124041957
 31
0.0
  0
LINE
  5
3BA
330
1F
100
AcDbEntity
  8
1
  6
DOT_CENTER
 62
     3
100
AcDbLine
 10
607.8986396331925
 20
860.1656980871687
 30
0.0
 11
603.3986396331984
 21
867.9599267212329
 31
0.0
  0
LINE
  5
3BB
330
1F
100
AcDbEntity
  8
1
  6
DASHED
 62
     4
100
AcDbLine
 10
564.3903093840313
 20
909.5243366313175
 30
0.0
 11
592.9690655078034
 21
926.0242891724109
 31
0.0
  0
LINE
  5
3BC
330
1F
100
AcDbEntity
  8
1
  6
DASHED
 62
     4
100
AcDbLine
 10
592.6582585764236
 20
856.5628124042109
 30
0.0
 11
567.6582585764554
 21
899.8640825934702
 31
0.0
  0
LINE
  5
3BD
330
1F
100
AcDbEntity
  8
1
  6
Continuous
 62
     7
100
AcDbLine
 10
698.0831938097094
 20
986.402558366283
 30
0.0
 11
760.2030852955977
 21
986.4025583662289
 31
0.0
  0
LINE
  5
3BE
330
1F
100
AcDbEntity
  8
1
  6
Continuous
 62
     7
100
AcDbLine
 10
762.2030852955913
 20
984.4025583662258
 30
0.0
 11
762.2030852955445
 21
948.6760610580873
 31
0.0
  0
LINE
  5
3BF
330
1F
100
AcDbEntity
  8
1
  6
DASHED
 62
     4
100
AcDbLine
 10
592.6582585764236
 20
856.5628124042109
 30
0.0
 11
596.6582585764186
 21
849.6346091739338
 31
0.0
  0
LINE
  5
3C0
330
1F
100
AcDbEntity
  8
1
  6
Continuous
 62
     7
100
AcDbLine
 10
757.2030852955363
 20
940.0158070202517
 30
0.0
 11
626.8088926113087
 21
864.7326847734016
 31
0.0
  0
LINE
  5
3C1
330
1F
100
AcDbEntity
  8
1
  6
Continuous
 62
     7
100
AcDbLine
 10
592.9690655077957
 20
926.024289172424
 30
0.0
 11
697.0831938097085
 21
986.1346091738527
 31
0.0
  0
LINE
  5
3C2
330
1F
100
AcDbEntity
  8
1
  6
DASHED
 62
     4
100
AcDbLine
 10
626.8088926113087
 20
864.7326847734016
 30
0.0
 11
599.3903093839854
 21
848.9025583663622
 31
0.0
  0
LINE
  5
3C3
330
1F
100
AcDbEntity
  8
1
  6
DASHED
 62
     4
100
AcDbLine
 10
567.6582585764554
 20
899.8640825934702
 30
0.0
 11
563.6582585764604
 21
906.7922858237494
 31
0.0
  0
LINE
  5
3C4
330
1F
100
AcDbEntity
  8
1
  6
DASHED
 62
     4
100
AcDbLine
 10
1777.851681345538
 20
899.8641142326301
 30
0.0
 11
1773.851681345543
 21
906.7923174629091
 31
0.0
  0
LINE
  5
3C5
330
1F
100
AcDbEntity
  8
1
  6
DASHED
 62
     4
100
AcDbLine
 10
1837.002316440116
 20
864.7327170243948
 30
0.0
 11
1809.583732153068
 21
848.902590005522
 31
0.0
  0
LINE
  5
3C6
330
1F
100
AcDbEntity
  8
1
  6
Continuous
 62
     7
100
AcDbLine
 10
1803.162488276877
 20
926.0243208115837
 30
0.0
 11
1907.276616578791
 21
986.1346408130127
 31
0.0
  0
LINE
  5
3C7
330
1F
100
AcDbEntity
  8
1
  6
Continuous
 62
     7
100
AcDbLine
 10
1967.396508064619
 20
940.0158386594115
 30
0.0
 11
1837.002316440116
 21
864.7327170243948
 31
0.0
  0
LINE
  5
3C8
330
1F
100
AcDbEntity
  8
1
  6
DASHED
 62
     4
100
AcDbLine
 10
1802.851681345505
 20
856.5628440433708
 30
0.0
 11
1806.8516813455
 21
849.6346408130936
 31
0.0
  0
LINE
  5
3C9
330
1F
100
AcDbEntity
  8
1
  6
Continuous
 62
     7
100
AcDbLine
 10
1972.396508064674
 20
984.4025900053856
 30
0.0
 11
1972.396508064627
 21
948.6760926972472
 31
0.0
  0
LINE
  5
3CA
330
1F
100
AcDbEntity
  8
1
  6
Continuous
 62
     7
100
AcDbLine
 10
1908.276616578791
 20
986.402590005443
 30
0.0
 11
1970.396508064679
 21
986.4025900053887
 31
0.0
  0
LINE
  5
3CB
330
1F
100
AcDbEntity
  8
1
  6
DASHED
 62
     4
100
AcDbLine
 10
1802.851681345505
 20
856.5628440433708
 30
0.0
 11
1777.851681345538
 21
899.8641142326301
 31
0.0
  0
LINE
  5
3CC
330
1F
100
AcDbEntity
  8
1
  6
DASHED
 62
     4
100
AcDbLine
 10
1774.583732153114
 20
909.5243682704772
 30
0.0
 11
1803.162488276886
 21
926.0243208115708
 31
0.0
  0
LINE
  5
3CD
330
1F
100
AcDbEntity
  8
1
  6
DOT_CENTER
 62
     3
100
AcDbLine
 10
1818.092062402275
 20
860.1657297263286
 30
0.0
 11
1813.592062402281
 21
867.9599583603928
 31
0.0
  0
LINE
  5
3CE
330
1F
100
AcDbEntity
  8
1
  6
DOT_CENTER
 62
     3
100
AcDbLine
 10
1811.944948085246
 20
861.812844043364
 30
0.0
 11
1819.739176719309
 21
866.3128440433555
 31
0.0
  0
LINE
  5
3CF
330
1F
100
AcDbEntity
  8
1
  6
DOT_CENTER
 62
     3
100
AcDbLine
 10
1793.092062402311
 20
903.4669999155726
 30
0.0
 11
1788.592062402317
 21
911.2612285496359
 31
0.0
  0
LINE
  5
3D0
330
1F
100
AcDbEntity
  8
1
  6
DOT_CENTER
 62
     3
100
AcDbLine
 10
1786.944948085284
 20
905.1141142326092
 30
0.0
 11
1794.739176719348
 21
909.6141142326005
 31
0.0
  0
LINE
  5
3D1
330
1F
100
AcDbEntity
  8
1
  6
Continuous
 62
     7
100
AcDbLine
 10
2154.284006526219
 20
932.6509211502323
 30
0.0
 11
2123.484006526218
 21
932.6509211502323
 31
0.0
  0
LINE
  5
3D2
330
1F
100
AcDbEntity
  8
1
  6
Continuous
 62
     7
100
AcDbLine
 10
2123.484006526218
 20
862.6509211502323
 30
0.0
 11
2154.284006526219
 21
862.6509211502323
 31
0.0
  0
LINE
  5
3D3
330
1F
100
AcDbEntity
  8
1
  6
Continuous
 62
     7
100
AcDbLine
 10
2154.284006526219
 20
862.6509211502323
 30
0.0
 11
2154.284006526219
 21
932.6509211502323
 31
0.0
  0
LINE
  5
3D4
330
1F
100
AcDbEntity
  8
1
  6
Continuous
 62
     7
100
AcDbLine
 10
2149.784006526219
 20
862.6509211502323
 30
0.0
 11
2149.784006526219
 21
932.6509211502324
 31
0.0
  0
LINE
  5
3D5
330
1F
100
AcDbEntity
  8
1
  6
Continuous
 62
     7
100
AcDbLine
 10
2240.784006526215
 20
932.6509211502324
 30
0.0
 11
2240.784006526215
 21
862.6509211502323
 31
0.0
  0
LINE
  5
3D6
330
1F
100
AcDbEntity
  8
1
  6
Continuous
 62
     7
100
AcDbLine
 10
2236.284006526215
 20
932.6509211502323
 30
0.0
 11
2236.284006526215
 21
862.6509211502323
 31
0.0
  0
LINE
  5
3D7
330
1F
100
AcDbEntity
  8
1
  6
Continuous
 62
     7
100
AcDbLine
 10
2236.284006526215
 20
862.6509211502323
 30
0.0
 11
2267.084006526218
 21
862.6509211502323
 31
0.0
  0
LINE
  5
3D8
330
1F
100
AcDbEntity
  8
1
  6
Continuous
 62
     7
100
AcDbLine
 10
2267.084006526218
 20
932.6509211502323
 30
0.0
 11
2236.284006526215
 21
932.6509211502323
 31
0.0
  0
LINE
  5
3D9
330
1F
100
AcDbEntity
  8
1
  6
Continuous
 62
     7
100
AcDbLine
 10
1064.084006526217
 20
932.6509211502323
 30
0.0
 11
1033.284006526214
 21
932.6509211502324
 31
0.0
  0
LINE
  5
3DA
330
1F
100
AcDbEntity
  8
1
  6
Continuous
 62
     7
100
AcDbLine
 10
1033.284006526214
 20
862.6509211502323
 30
0.0
 11
1064.084006526217
 21
862.6509211502323
 31
0.0
  0
LINE
  5
3DB
330
1F
100
AcDbEntity
  8
1
  6
Continuous
 62
     7
100
AcDbLine
 10
1033.284006526214
 20
932.6509211502324
 30
0.0
 11
1033.284006526214
 21
862.6509211502323
 31
0.0
  0
LINE
  5
3DC
330
1F
100
AcDbEntity
  8
1
  6
Continuous
 62
     7
100
AcDbLine
 10
1037.784006526214
 20
932.6509211502324
 30
0.0
 11
1037.784006526214
 21
862.6509211502323
 31
0.0
  0
LINE
  5
3DD
330
1F
100
AcDbEntity
  8
1
  6
Continuous
 62
     7
100
AcDbLine
 10
946.7840065262194
 20
862.6509211502323
 30
0.0
 11
946.7840065262194
 21
932.6509211502324
 31
0.0
  0
LINE
  5
3DE
330
1F
100
AcDbEntity
  8
1
  6
Continuous
 62
     7
100
AcDbLine
 10
951.2840065262194
 20
862.6509211502323
 30
0.0
 11
951.2840065262194
 21
932.6509211502324
 31
0.0
  0
LINE
  5
3DF
330
1F
100
AcDbEntity
  8
1
  6
Continuous
 62
     7
100
AcDbLine
 10
920.4840065262183
 20
862.6509211502323
 30
0.0
 11
951.2840065262194
 21
862.6509211502323
 31
0.0
  0
LINE
  5
3E0
330
1F
100
AcDbEntity
  8
1
  6
Continuous
 62
     7
100
AcDbLine
 10
951.2840065262194
 20
932.6509211502324
 30
0.0
 11
920.4840065262183
 21
932.6509211502323
 31
0.0
  0
LINE
  5
3E1
330
1F
100
AcDbEntity
  8
1
  6
DASH_CENTER
 62
     3
100
AcDbLine
 10
1523.135041820019
 20
891.0462739350234
 30
0.0
 11
1579.746423375476
 21
792.9935437151651
 31
0.0
  0
LINE
  5
3E2
330
1F
100
AcDbEntity
  8
1
  6
Continuous
 62
     7
100
AcDbLine
 10
1472.472263440468
 20
844.7967816299299
 30
0.0
 11
1484.972263440467
 21
823.1461465353194
 31
0.0
  0
LINE
  5
3E3
330
1F
100
AcDbEntity
  8
1
  6
DASH_CENTER
 62
     3
100
AcDbLine
 10
1489.006684453394
 20
833.5583243618107
 30
0.0
 11
1477.315341502304
 21
826.8083243618107
 31
0.0
  0
LINE
  5
3E4
330
1F
100
AcDbEntity
  8
1
  6
Continuous
 62
     7
100
AcDbLine
 10
1494.784441266961
 20
820.1509560069369
 30
0.0
 11
1491.03444126696
 21
826.6461465353209
 31
0.0
  0
ARC
  5
3E5
330
1F
100
AcDbEntity
  8
1
  6
PHANTOM
 62
   140
100
AcDbCircle
 10
607.6998409711014
 20
984.8830068145167
 30
0.0
 40
13.60000000000182
100
AcDbArc
 50
168.5231320115218
 51
61.92751306413487
  0
ARC
  5
3E6
330
1F
100
AcDbEntity
  8
1
  6
PHANTOM
 62
   140
100
AcDbCircle
 10
607.6998409711014
 20
984.8830068145167
 30
0.0
 40
13.60000000000154
100
AcDbArc
 50
61.92751306413487
 51
82.15931114737423
  0
ARC
  5
3E7
330
1F
100
AcDbEntity
  8
1
  6
PHANTOM
 62
   140
100
AcDbCircle
 10
607.6998409711014
 20
984.8830068145167
 30
0.0
 40
13.59999999999859
100
AcDbArc
 50
82.15931114737423
 51
168.5231320115218
  0
ARC
  5
3E8
330
1F
100
AcDbEntity
  8
1
  6
PHANTOM
 62
   140
100
AcDbCircle
 10
1817.893332591509
 20
984.8830068145167
 30
0.0
 40
13.5999999999984
100
AcDbArc
 50
82.15931114737992
 51
168.5231320115218
  0
ARC
  5
3E9
330
1F
100
AcDbEntity
  8
1
  6
PHANTOM
 62
   140
100
AcDbCircle
 10
1817.893332591509
 20
984.8830068145167
 30
0.0
 40
13.6000000000009
100
AcDbArc
 50
61.92751306413994
 51
82.15931114737992
  0
ARC
  5
3EA
330
1F
100
AcDbEntity
  8
1
  6
PHANTOM
 62
   140
100
AcDbCircle
 10
1817.893332591509
 20
984.8830068145167
 30
0.0
 40
13.60000000000182
100
AcDbArc
 50
168.5231320115218
 51
61.92751306413994
  0
ARC
  5
3EB
330
1F
100
AcDbEntity
  8
1
  6
PHANTOM
 62
   140
100
AcDbCircle
 10
430.0436118552375
 20
813.5732286637598
 30
0.0
 40
13.60000000000182
100
AcDbArc
 50
11.47686798847819
 51
97.84068885261985
  0
ARC
  5
3EC
330
1F
100
AcDbEntity
  8
1
  6
PHANTOM
 62
   140
100
AcDbCircle
 10
430.0436118552375
 20
813.5732286637598
 30
0.0
 40
13.5999999999984
100
AcDbArc
 50
97.84068885261985
 51
118.0724869358605
  0
ARC
  5
3ED
330
1F
100
AcDbEntity
  8
1
  6
PHANTOM
 62
   140
100
AcDbCircle
 10
430.0436118552375
 20
813.5732286637598
 30
0.0
 40
13.6000000000007
100
AcDbArc
 50
118.0724869358605
 51
11.47686798847819
  0
ARC
  5
3EE
330
1F
100
AcDbEntity
  8
1
  6
PHANTOM
 62
   140
100
AcDbCircle
 10
1553.634441266861
 20
763.573595053947
 30
0.0
 40
13.60000000000027
100
AcDbArc
 50
118.0724869358571
 51
11.47686798847819
  0
ARC
  5
3EF
330
1F
100
AcDbEntity
  8
1
  6
PHANTOM
 62
   140
100
AcDbCircle
 10
1553.634441266861
 20
763.573595053947
 30
0.0
 40
13.59999999999828
100
AcDbArc
 50
97.8406888526163
 51
118.0724869358571
  0
ARC
  5
3F0
330
1F
100
AcDbEntity
  8
1
  6
PHANTOM
 62
   140
100
AcDbCircle
 10
1553.634441266861
 20
763.573595053947
 30
0.0
 40
13.60000000000182
100
AcDbArc
 50
11.47686798847819
 51
97.8406888526163
  0
ARC
  5
3F1
330
1F
100
AcDbEntity
  8
1
  6
Continuous
 62
     7
100
AcDbCircle
 10
537.6999650325006
 20
1450.732752517116
 30
0.0
 40
5.5
100
AcDbArc
 50
0.0
 51
180.0
  0
ARC
  5
3F2
330
1F
100
AcDbEntity
  8
1
  6
Continuous
 62
     7
100
AcDbCircle
 10
397.6998402266436
 20
1450.732752517116
 30
0.0
 40
5.5
100
AcDbArc
 50
0.0
 51
180.0
  0
ARC
  5
3F3
330
1F
100
AcDbEntity
  8
1
  6
Continuous
 62
     7
100
AcDbCircle
 10
397.6998402266436
 20
1345.732752517118
 30
0.0
 40
5.5
100
AcDbArc
 50
180.0
 51
0.0
  0
ARC
  5
3F4
330
1F
100
AcDbEntity
  8
1
  6
Continuous
 62
     7
100
AcDbCircle
 10
537.6999650325006
 20
1345.732752517118
 30
0.0
 40
5.5
100
AcDbArc
 50
180.0
 51
0.0
  0
ARC
  5
3F5
330
1F
100
AcDbEntity
  8
1
  6
Continuous
 62
     7
100
AcDbCircle
 10
1747.892935207993
 20
1345.732752517118
 30
0.0
 40
5.5
100
AcDbArc
 50
180.0
 51
0.0
  0
ARC
  5
3F6
330
1F
100
AcDbEntity
  8
1
  6
Continuous
 62
     7
100
AcDbCircle
 10
1507.89333184705
 20
1345.732752517118
 30
0.0
 40
5.5
100
AcDbArc
 50
180.0
 51
0.0
  0
ARC
  5
3F7
330
1F
100
AcDbEntity
  8
1
  6
Continuous
 62
     7
100
AcDbCircle
 10
1507.89333184705
 20
1450.732752517116
 30
0.0
 40
5.5
100
AcDbArc
 50
0.0
 51
180.0
  0
ARC
  5
3F8
330
1F
100
AcDbEntity
  8
1
  6
Continuous
 62
     7
100
AcDbCircle
 10
1747.892935207993
 20
1450.732752517116
 30
0.0
 40
5.5
100
AcDbArc
 50
0.0
 51
180.0
  0
ARC
  5
3F9
330
1F
100
AcDbEntity
  8
1
  6
Continuous
 62
     7
100
AcDbCircle
 10
446.7079499150544
 20
844.6345404160996
 30
0.0
 40
4.344898672318957
100
AcDbArc
 50
-94.38424746804338
 51
-25.61575253197622
  0
ARC
  5
3FA
330
1F
100
AcDbEntity
  8
1
  6
Continuous
 62
     7
100
AcDbCircle
 10
447.1349939404894
 20
858.6173103313082
 30
0.0
 40
16.24081062144462
100
AcDbArc
 50
-77.58795377399306
 51
-42.41204622599766
  0
ARC
  5
3FB
330
1F
100
AcDbEntity
  8
1
  6
Continuous
 62
     7
100
AcDbCircle
 10
459.4579499150527
 20
851.9957563482691
 30
0.0
 40
4.34489867232064
100
AcDbArc
 50
-94.38424746801914
 51
-25.61575253195538
  0
ARC
  5
3FC
330
1F
100
AcDbEntity
  8
1
  6
Continuous
 62
     7
100
AcDbCircle
 10
459.4579499150527
 20
851.9957563482691
 30
0.0
 40
4.34489867232064
100
AcDbArc
 50
-94.38424746801914
 51
-25.61575253195538
  0
ARC
  5
3FD
330
1F
100
AcDbEntity
  8
1
  6
Continuous
 62
     7
100
AcDbCircle
 10
1032.27171327694
 20
936.1196309513952
 30
0.0
 40
5.367227771689414
100
AcDbArc
 50
-124.3842474680316
 51
-79.12853635113281
  0
ARC
  5
3FE
330
1F
100
AcDbEntity
  8
1
  6
Continuous
 62
     7
100
AcDbCircle
 10
952.2582467564143
 20
936.1196309513969
 30
0.0
 40
5.367227771691261
100
AcDbArc
 50
-100.458102269783
 51
-55.61575253197067
  0
ARC
  5
3FF
330
1F
100
AcDbEntity
  8
1
  6
Continuous
 62
     7
100
AcDbCircle
 10
1570.298901157017
 20
794.6345752728352
 30
0.0
 40
4.3448986723189
100
AcDbArc
 50
-94.38424746803368
 51
-25.61575253197752
  0
ARC
  5
400
330
1F
100
AcDbEntity
  8
1
  6
Continuous
 62
     7
100
AcDbCircle
 10
1583.048901157015
 20
801.9957912050046
 30
0.0
 40
4.344898672320626
100
AcDbArc
 50
-94.3842474680169
 51
-25.61575253195441
  0
ARC
  5
401
330
1F
100
AcDbEntity
  8
1
  6
Continuous
 62
     7
100
AcDbCircle
 10
1570.725945182452
 20
808.6173451880437
 30
0.0
 40
16.24081062144457
100
AcDbArc
 50
-77.58795377399385
 51
-42.41204622599806
  0
ARC
  5
402
330
1F
100
AcDbEntity
  8
1
  6
Continuous
 62
     7
100
AcDbCircle
 10
1583.048901157015
 20
801.9957912050046
 30
0.0
 40
4.344898672320626
100
AcDbArc
 50
-94.3842474680169
 51
-25.61575253195441
  0
ARC
  5
403
330
1F
100
AcDbEntity
  8
1
  6
Continuous
 62
     7
100
AcDbCircle
 10
2235.27171327694
 20
935.961151070466
 30
0.0
 40
5.367227771689157
100
AcDbArc
 50
-124.3842474680276
 51
-79.1285363511218
  0
ARC
  5
404
330
1F
100
AcDbEntity
  8
1
  6
Continuous
 62
     7
100
AcDbCircle
 10
2155.258246756414
 20
935.9611510704677
 30
0.0
 40
5.367227771691729
100
AcDbArc
 50
-100.4581022697833
 51
-55.61575253196266
  0
ARC
  5
405
330
1F
100
AcDbEntity
  8
1
  6
Continuous
 62
     7
100
AcDbCircle
 10
2155.258246756414
 20
944.1395161269703
 30
0.0
 40
5.36722777169005
100
AcDbArc
 50
-124.3842474680093
 51
-55.61575253196266
  0
ARC
  5
406
330
1F
100
AcDbEntity
  8
1
  6
Continuous
 62
     7
100
AcDbCircle
 10
2147.764980016677
 20
953.7869453203635
 30
0.0
 40
14.76713610367762
100
AcDbArc
 50
-107.5879537739893
 51
-72.41204622599898
  0
ARC
  5
407
330
1F
100
AcDbEntity
  8
1
  6
Continuous
 62
     7
100
AcDbCircle
 10
2140.271713276943
 20
944.1395161269686
 30
0.0
 40
5.367227771689927
100
AcDbArc
 50
-124.3842474680396
 51
-55.61575253198042
  0
ARC
  5
408
330
1F
100
AcDbEntity
  8
1
  6
Continuous
 62
     7
100
AcDbCircle
 10
2195.284006526219
 20
995.1509211502255
 30
0.0
 40
40.23097349045793
100
AcDbArc
 50
0.0
 51
180.0
  0
ARC
  5
409
330
1F
100
AcDbEntity
  8
1
  6
Continuous
 62
     7
100
AcDbCircle
 10
2195.284006526219
 20
995.1509211502255
 30
0.0
 40
30.23097349045793
100
AcDbArc
 50
0.0
 51
180.0
  0
ARC
  5
40A
330
1F
100
AcDbEntity
  8
1
  6
Continuous
 62
     7
100
AcDbCircle
 10
2235.27171327694
 20
944.1395161269686
 30
0.0
 40
5.367227771689157
100
AcDbArc
 50
-124.3842474680276
 51
-55.61575253195238
  0
ARC
  5
40B
330
1F
100
AcDbEntity
  8
1
  6
Continuous
 62
     7
100
AcDbCircle
 10
2242.764980016677
 20
953.7869453203635
 30
0.0
 40
14.76713610367762
100
AcDbArc
 50
-107.5879537739893
 51
-72.41204622600739
  0
ARC
  5
40C
330
1F
100
AcDbEntity
  8
1
  6
Continuous
 62
     7
100
AcDbCircle
 10
2250.258246756414
 20
944.1395161269703
 30
0.0
 40
5.367227771691335
100
AcDbArc
 50
-124.3842474680293
 51
-55.6157525319867
  0
ARC
  5
40D
330
1F
100
AcDbEntity
  8
1
  6
Continuous
 62
     7
100
AcDbCircle
 10
1047.258246756413
 20
944.1395161269703
 30
0.0
 40
5.367227771691206
100
AcDbArc
 50
-124.3842474680273
 51
-55.61575253197067
  0
ARC
  5
40E
330
1F
100
AcDbEntity
  8
1
  6
Continuous
 62
     7
100
AcDbCircle
 10
1039.764980016676
 20
953.7869453203635
 30
0.0
 40
14.76713610367762
100
AcDbArc
 50
-107.5879537739893
 51
-72.41204622600655
  0
ARC
  5
40F
330
1F
100
AcDbEntity
  8
1
  6
Continuous
 62
     7
100
AcDbCircle
 10
1032.27171327694
 20
944.1395161269686
 30
0.0
 40
5.367227771689414
100
AcDbArc
 50
-124.3842474680316
 51
-55.61575253196239
  0
ARC
  5
410
330
1F
100
AcDbEntity
  8
1
  6
Continuous
 62
     7
100
AcDbCircle
 10
992.2840065262185
 20
995.1509211502255
 30
0.0
 40
30.23097349045747
100
AcDbArc
 50
0.0
 51
180.0
  0
ARC
  5
411
330
1F
100
AcDbEntity
  8
1
  6
Continuous
 62
     7
100
AcDbCircle
 10
992.2840065262185
 20
995.1509211502255
 30
0.0
 40
40.23097349045747
100
AcDbArc
 50
0.0
 51
180.0
  0
ARC
  5
412
330
1F
100
AcDbEntity
  8
1
  6
Continuous
 62
     7
100
AcDbCircle
 10
937.2717132769426
 20
944.1395161269686
 30
0.0
 40
5.367227771689927
100
AcDbArc
 50
-124.3842474680396
 51
-55.61575253197241
  0
ARC
  5
413
330
1F
100
AcDbEntity
  8
1
  6
Continuous
 62
     7
100
AcDbCircle
 10
944.7649800166764
 20
953.7869453203635
 30
0.0
 40
14.76713610367734
100
AcDbArc
 50
-107.5879537739859
 51
-72.41204622599898
  0
ARC
  5
414
330
1F
100
AcDbEntity
  8
1
  6
Continuous
 62
     7
100
AcDbCircle
 10
952.2582467564143
 20
944.1395161269703
 30
0.0
 40
5.367227771690564
100
AcDbArc
 50
-124.3842474680173
 51
-55.61575253197067
  0
ARC
  5
415
330
1F
100
AcDbEntity
  8
1
  6
Continuous
 62
     7
100
AcDbCircle
 10
455.4579499150527
 20
858.9239595785446
 30
0.0
 40
4.34489867232064
100
AcDbArc
 50
-94.38424746801914
 51
-25.61575253195538
  0
ARC
  5
416
330
1F
100
AcDbEntity
  8
1
  6
Continuous
 62
     7
100
AcDbCircle
 10
443.1349939404895
 20
865.5455135615837
 30
0.0
 40
16.24081062144461
100
AcDbArc
 50
-77.58795377399326
 51
-42.41204622599793
  0
ARC
  5
417
330
1F
100
AcDbEntity
  8
1
  6
Continuous
 62
     7
100
AcDbCircle
 10
442.7079499150545
 20
851.5627436463751
 30
0.0
 40
4.344898672318961
100
AcDbArc
 50
-94.38424746804414
 51
-25.61575253197622
  0
ARC
  5
418
330
1F
100
AcDbEntity
  8
1
  6
Continuous
 62
     7
100
AcDbCircle
 10
1566.298901157017
 20
801.5627785031106
 30
0.0
 40
4.3448986723189
100
AcDbArc
 50
-94.38424746803368
 51
-25.61575253197752
  0
ARC
  5
419
330
1F
100
AcDbEntity
  8
1
  6
Continuous
 62
     7
100
AcDbCircle
 10
1566.725945182452
 20
815.5455484183192
 30
0.0
 40
16.24081062144457
100
AcDbArc
 50
-77.58795377399385
 51
-42.41204622599806
  0
ARC
  5
41A
330
1F
100
AcDbEntity
  8
1
  6
Continuous
 62
     7
100
AcDbCircle
 10
1579.048901157015
 20
808.9239944352801
 30
0.0
 40
4.344898672320626
100
AcDbArc
 50
-94.3842474680169
 51
-25.61575253195441
  0
ARC
  5
41B
330
1F
100
AcDbEntity
  8
1
  6
Continuous
 62
     7
100
AcDbCircle
 10
2195.284006526219
 20
995.1509211502164
 30
0.0
 40
32.50000000000379
100
AcDbArc
 50
-163.0038351829317
 51
-16.99616481706969
  0
ARC
  5
41C
330
1F
100
AcDbEntity
  8
1
  6
DASHED
 62
     4
100
AcDbCircle
 10
2195.284006526219
 20
995.1509211502244
 30
0.0
 40
31.00000000000243
100
AcDbArc
 50
-162.1544822531413
 51
-17.84551774685973
  0
ARC
  5
41D
330
1F
100
AcDbEntity
  8
1
  6
Continuous
 62
     7
100
AcDbCircle
 10
110.1594468533144
 20
870.1509211502018
 30
0.0
 40
32.50000000000029
100
AcDbArc
 50
13.34236379708812
 51
166.6576362029119
  0
ARC
  5
41E
330
1F
100
AcDbEntity
  8
1
  6
Continuous
 62
     7
100
AcDbCircle
 10
1220.159446853314
 20
820.1509560069362
 30
0.0
 40
32.50000000000031
100
AcDbArc
 50
13.34236379708811
 51
166.6576362029123
  0
ARC
  5
41F
330
1F
100
AcDbEntity
  8
1
  6
Continuous
 62
     7
100
AcDbCircle
 10
992.2840065262185
 20
995.1509211502164
 30
0.0
 40
32.50000000000292
100
AcDbArc
 50
-163.0038351829313
 51
-16.99616481706905
  0
ARC
  5
420
330
1F
100
AcDbEntity
  8
1
  6
Continuous
 62
     7
100
AcDbCircle
 10
110.1594468533144
 20
870.1509211502018
 30
0.0
 40
30.00000000000008
100
AcDbArc
 50
165.5224878140699
 51
14.47751218592986
  0
ARC
  5
421
330
1F
100
AcDbEntity
  8
1
  6
Continuous
 62
     7
100
AcDbCircle
 10
110.1594468533144
 20
870.1509211502018
 30
0.0
 40
26.99999999999999
100
AcDbArc
 50
163.872379786839
 51
16.12762021316075
  0
ARC
  5
422
330
1F
100
AcDbEntity
  8
1
  6
Continuous
 62
     7
100
AcDbCircle
 10
992.2840065262185
 20
995.1509211502064
 30
0.0
 40
30.00000000000241
100
AcDbArc
 50
-18.46145829676947
 51
-161.5385417032303
  0
ARC
  5
423
330
1F
100
AcDbEntity
  8
1
  6
Continuous
 62
     7
100
AcDbCircle
 10
992.2840065262185
 20
995.1509211502064
 30
0.0
 40
26.99999999999977
100
AcDbArc
 50
-20.60062454965321
 51
-159.3993754503471
  0
ARC
  5
424
330
1F
100
AcDbEntity
  8
1
  6
Continuous
 62
     7
100
AcDbCircle
 10
2195.284006526219
 20
995.1509211502064
 30
0.0
 40
26.99999999999923
100
AcDbArc
 50
-20.60062454965363
 51
-159.3993754503477
  0
ARC
  5
425
330
1F
100
AcDbEntity
  8
1
  6
Continuous
 62
     7
100
AcDbCircle
 10
2195.284006526219
 20
995.1509211502064
 30
0.0
 40
30.00000000000079
100
AcDbArc
 50
-18.46145829677051
 51
-161.5385417032309
  0
ARC
  5
426
330
1F
100
AcDbEntity
  8
1
  6
Continuous
 62
     7
100
AcDbCircle
 10
1220.159446853314
 20
820.1509560069362
 30
0.0
 40
27.00000000000019
100
AcDbArc
 50
163.8723797868394
 51
16.12762021316131
  0
ARC
  5
427
330
1F
100
AcDbEntity
  8
1
  6
Continuous
 62
     7
100
AcDbCircle
 10
1220.159446853314
 20
820.1509560069362
 30
0.0
 40
30.00000000000139
100
AcDbArc
 50
165.5224878140708
 51
14.47751218592978
  0
ARC
  5
428
330
1F
100
AcDbEntity
  8
1
  6
Continuous
 62
     7
100
AcDbCircle
 10
357.2271670100786
 20
874.8306186044486
 30
0.0
 40
2.044658198744237
100
AcDbArc
 50
175.6157525320821
 51
-115.6157525320439
  0
ARC
  5
429
330
1F
100
AcDbEntity
  8
1
  6
Continuous
 62
     7
100
AcDbCircle
 10
360.3431924138786
 20
880.6296567101326
 30
0.0
 40
7.642734410114399
100
AcDbArc
 50
-167.5879537739383
 51
-132.4120462260685
  0
ARC
  5
42A
330
1F
100
AcDbEntity
  8
1
  6
Continuous
 62
     7
100
AcDbCircle
 10
353.7630653949414
 20
880.8306186044479
 30
0.0
 40
2.044658198744355
100
AcDbArc
 50
175.6157525321015
 51
-115.6157525320468
  0
ARC
  5
42B
330
1F
100
AcDbEntity
  8
1
  6
Continuous
 62
     7
100
AcDbCircle
 10
327.9444991698483
 20
1401.696854132254
 30
0.0
 40
2.044658198744324
100
AcDbArc
 50
145.6157525320445
 51
-145.6157525320655
  0
ARC
  5
42C
330
1F
100
AcDbEntity
  8
1
  6
Continuous
 62
     7
100
AcDbCircle
 10
333.5425753812206
 20
1398.232752517117
 30
0.0
 40
7.642734410115985
100
AcDbArc
 50
162.4120462260682
 51
-162.4120462260601
  0
ARC
  5
42D
330
1F
100
AcDbEntity
  8
1
  6
Continuous
 62
     7
100
AcDbCircle
 10
327.9444991698483
 20
1394.768650901979
 30
0.0
 40
2.044658198743682
100
AcDbArc
 50
145.6157525320707
 51
-145.6157525320655
  0
ARC
  5
42E
330
1F
100
AcDbEntity
  8
1
  6
Continuous
 62
     7
100
AcDbCircle
 10
577.3014272762794
 20
974.6721855902781
 30
0.0
 40
2.044658198743421
100
AcDbArc
 50
-4.38424746793247
 51
64.38424746797624
  0
ARC
  5
42F
330
1F
100
AcDbEntity
  8
1
  6
Continuous
 62
     7
100
AcDbCircle
 10
574.1854018724785
 20
968.8731474845922
 30
0.0
 40
7.642734410116487
100
AcDbArc
 50
12.41204622607135
 51
47.58795377393845
  0
ARC
  5
430
330
1F
100
AcDbEntity
  8
1
  6
Continuous
 62
     7
100
AcDbCircle
 10
580.7655288914175
 20
968.6721855902807
 30
0.0
 40
2.044658198743587
100
AcDbArc
 50
-4.38424746799282
 51
64.38424746792985
  0
ARC
  5
431
330
1F
100
AcDbEntity
  8
1
  6
Continuous
 62
     7
100
AcDbCircle
 10
1790.959020511823
 20
968.6722204470153
 30
0.0
 40
2.044658198743595
100
AcDbArc
 50
-4.384247467996
 51
64.3842474679241
  0
ARC
  5
432
330
1F
100
AcDbEntity
  8
1
  6
Continuous
 62
     7
100
AcDbCircle
 10
1784.378893492883
 20
968.8731823413275
 30
0.0
 40
7.642734410117451
100
AcDbArc
 50
12.41204622606452
 51
47.58795377392197
  0
ARC
  5
433
330
1F
100
AcDbEntity
  8
1
  6
Continuous
 62
     7
100
AcDbCircle
 10
1787.494918896686
 20
974.6722204470136
 30
0.0
 40
2.044658198744555
100
AcDbArc
 50
-4.38424746793003
 51
64.38424746791351
  0
ARC
  5
434
330
1F
100
AcDbEntity
  8
1
  6
Continuous
 62
     7
100
AcDbCircle
 10
1438.137990790256
 20
1394.76865090198
 30
0.0
 40
2.044658198743215
100
AcDbArc
 50
145.6157525320927
 51
-145.6157525320454
  0
ARC
  5
435
330
1F
100
AcDbEntity
  8
1
  6
Continuous
 62
     7
100
AcDbCircle
 10
1443.736067001627
 20
1398.232752517117
 30
0.0
 40
7.642734410114684
100
AcDbArc
 50
162.4120462260651
 51
-162.412046226057
  0
ARC
  5
436
330
1F
100
AcDbEntity
  8
1
  6
Continuous
 62
     7
100
AcDbCircle
 10
1438.137990790256
 20
1401.696854132254
 30
0.0
 40
2.044658198744371
100
AcDbArc
 50
145.6157525320454
 51
-145.6157525320664
  0
ARC
  5
437
330
1F
100
AcDbEntity
  8
1
  6
Continuous
 62
     7
100
AcDbCircle
 10
1477.354016636904
 20
830.8306534611834
 30
0.0
 40
2.044658198743439
100
AcDbArc
 50
175.6157525320612
 51
-115.6157525320454
  0
ARC
  5
438
330
1F
100
AcDbEntity
  8
1
  6
Continuous
 62
     7
100
AcDbCircle
 10
1483.934143655841
 20
830.6296915668681
 30
0.0
 40
7.642734410114121
100
AcDbArc
 50
-167.5879537739378
 51
-132.4120462260657
  0
ARC
  5
439
330
1F
100
AcDbEntity
  8
1
  6
Continuous
 62
     7
100
AcDbCircle
 10
1480.818118252042
 20
824.8306534611841
 30
0.0
 40
2.044658198744555
100
AcDbArc
 50
175.61575253207
 51
-115.6157525320511
  0
ARC
  5
43A
330
1F
100
AcDbEntity
  8
1
  6
DASHED
 62
     4
100
AcDbCircle
 10
1438.559999258132
 20
1911.03275251732
 30
0.0
 40
537.8809822919288
100
AcDbArc
 50
-89.00575133623968
 51
-72.43415728835097
  0
ARC
  5
43B
330
1F
100
AcDbEntity
  8
1
  6
DASHED
 62
     4
100
AcDbCircle
 10
1755.226665924839
 20
935.4327525170984
 30
0.0
 40
487.8551196593061
100
AcDbArc
 50
90.86129028398975
 51
108.442376649616
  0
ARC
  5
43C
330
1F
100
AcDbEntity
  8
1
  6
DASHED
 62
     4
100
AcDbCircle
 10
1756.226665924842
 20
1885.732752517118
 30
0.0
 40
512.5677461999001
100
AcDbArc
 50
-107.9930878179737
 51
-90.93155659807735
  0
ARC
  5
43D
330
1F
100
AcDbEntity
  8
1
  6
DASHED
 62
     4
100
AcDbCircle
 10
1439.559999258177
 20
910.7327525171145
 30
0.0
 40
512.5677461999013
100
AcDbArc
 50
72.00691218202647
 51
89.06844340192255
  0
ARC
  5
43E
330
1F
100
AcDbEntity
  8
1
  6
DASHED
 62
     4
100
AcDbCircle
 10
1756.226665924842
 20
910.7327525171154
 30
0.0
 40
512.567746199901
100
AcDbArc
 50
90.93155659807735
 51
107.9930878179737
  0
ARC
  5
43F
330
1F
100
AcDbEntity
  8
1
  6
DASHED
 62
     4
100
AcDbCircle
 10
1439.559999258176
 20
1885.732752517118
 30
0.0
 40
512.5677461999003
100
AcDbArc
 50
-89.06844340192245
 51
-72.00691218202631
  0
ARC
  5
440
330
1F
100
AcDbEntity
  8
1
  6
DASHED
 62
     4
100
AcDbCircle
 10
537.6998409711022
 20
1585.732752517117
 30
0.0
 40
212.5
100
AcDbArc
 50
-118.0724869358529
 51
-89.99999999999997
  0
ARC
  5
441
330
1F
100
AcDbEntity
  8
1
  6
DASHED
 62
     4
100
AcDbCircle
 10
537.6998409711022
 20
1210.732752517117
 30
0.0
 40
212.5
100
AcDbArc
 50
89.99999999999997
 51
118.0724869358529
  0
ARC
  5
442
330
1F
100
AcDbEntity
  8
1
  6
DASHED
 62
     4
100
AcDbCircle
 10
337.6998409711023
 20
1585.732752517117
 30
0.0
 40
212.5
100
AcDbArc
 50
-90.0
 51
-61.92751306414706
  0
ARC
  5
443
330
1F
100
AcDbEntity
  8
1
  6
DASHED
 62
     4
100
AcDbCircle
 10
337.6998409711023
 20
1210.732752517117
 30
0.0
 40
212.5
100
AcDbArc
 50
61.92751306414706
 51
90.0
  0
ARC
  5
444
330
1F
100
AcDbEntity
  8
1
  6
DASHED
 62
     4
100
AcDbCircle
 10
539.6998409711022
 20
1218.732752517117
 30
0.0
 40
204.5097797172546
100
AcDbArc
 50
90.56033205756766
 51
118.6328189934206
  0
ARC
  5
445
330
1F
100
AcDbEntity
  8
1
  6
DASHED
 62
     4
100
AcDbCircle
 10
339.6998409711023
 20
1593.732752517117
 30
0.0
 40
220.5090701082384
100
AcDbArc
 50
-90.51967535913516
 51
-62.44718842328222
  0
CIRCLE
  5
446
330
1F
100
AcDbEntity
  8
1
  6
Continuous
 62
     3
100
AcDbCircle
 10
397.6998402266436
 20
1445.713726007575
 30
0.0
 40
5.0
  0
CIRCLE
  5
447
330
1F
100
AcDbEntity
  8
1
  6
Continuous
 62
     7
100
AcDbCircle
 10
397.6998402266436
 20
1445.713726007575
 30
0.0
 40
4.0
  0
CIRCLE
  5
448
330
1F
100
AcDbEntity
  8
1
  6
Continuous
 62
     7
100
AcDbCircle
 10
397.6998402266436
 20
1350.713726007574
 30
0.0
 40
4.0
  0
CIRCLE
  5
449
330
1F
100
AcDbEntity
  8
1
  6
Continuous
 62
     3
100
AcDbCircle
 10
397.6998402266436
 20
1350.713726007574
 30
0.0
 40
5.0
  0
CIRCLE
  5
44A
330
1F
100
AcDbEntity
  8
1
  6
Continuous
 62
     3
100
AcDbCircle
 10
537.6999650325006
 20
1350.713726007574
 30
0.0
 40
5.0
  0
CIRCLE
  5
44B
330
1F
100
AcDbEntity
  8
1
  6
Continuous
 62
     7
100
AcDbCircle
 10
537.6999650325006
 20
1350.713726007574
 30
0.0
 40
4.0
  0
CIRCLE
  5
44C
330
1F
100
AcDbEntity
  8
1
  6
Continuous
 62
     7
100
AcDbCircle
 10
537.6999650325006
 20
1445.713726007575
 30
0.0
 40
4.0
  0
CIRCLE
  5
44D
330
1F
100
AcDbEntity
  8
1
  6
Continuous
 62
     3
100
AcDbCircle
 10
537.6999650325006
 20
1445.713726007575
 30
0.0
 40
5.0
  0
CIRCLE
  5
44E
330
1F
100
AcDbEntity
  8
1
  6
Continuous
 62
     3
100
AcDbCircle
 10
1747.892935207993
 20
1445.713726007575
 30
0.0
 40
5.0
  0
CIRCLE
  5
44F
330
1F
100
AcDbEntity
  8
1
  6
Continuous
 62
     7
100
AcDbCircle
 10
1747.892935207993
 20
1445.713726007575
 30
0.0
 40
4.0
  0
CIRCLE
  5
450
330
1F
100
AcDbEntity
  8
1
  6
Continuous
 62
     7
100
AcDbCircle
 10
1747.892935207993
 20
1350.713726007574
 30
0.0
 40
4.0
  0
CIRCLE
  5
451
330
1F
100
AcDbEntity
  8
1
  6
Continuous
 62
     3
100
AcDbCircle
 10
1747.892935207993
 20
1350.713726007574
 30
0.0
 40
5.0
  0
CIRCLE
  5
452
330
1F
100
AcDbEntity
  8
1
  6
Continuous
 62
     3
100
AcDbCircle
 10
1507.89333184705
 20
1350.713726007574
 30
0.0
 40
5.0
  0
CIRCLE
  5
453
330
1F
100
AcDbEntity
  8
1
  6
Continuous
 62
     7
100
AcDbCircle
 10
1507.89333184705
 20
1350.713726007574
 30
0.0
 40
4.0
  0
CIRCLE
  5
454
330
1F
100
AcDbEntity
  8
1
  6
Continuous
 62
     7
100
AcDbCircle
 10
1507.89333184705
 20
1445.713726007575
 30
0.0
 40
4.0
  0
CIRCLE
  5
455
330
1F
100
AcDbEntity
  8
1
  6
Continuous
 62
     3
100
AcDbCircle
 10
1507.89333184705
 20
1445.713726007575
 30
0.0
 40
5.0
  0
SPLINE
  5
456
330
1F
100
AcDbEntity
  8
1
  6
DASHED
 62
     4
100
AcDbSpline
210
0.0
220
0.0
230
1.0
 70
     8
 71
     3
 72
     9
 73
     5
 74
     3
 42
0.0000000001
 43
0.0000000001
 44
0.00000001
 40
0.0
 40
0.0
 40
0.0
 40
0.0
 40
102.6109155986801
 40
205.2218311973607
 40
205.2218311973607
 40
205.2218311973607
 40
205.2218311973607
 10
545.3985707818797
 20
968.4188703426344
 30
0.0
 10
522.2810573223984
 20
941.7929115324482
 30
0.0
 10
476.0460304034356
 20
888.5409939120751
 30
0.0
 10
406.8110034844748
 20
875.1262448657842
 30
0.0
 10
372.1934900249944
 20
868.4188703426387
 30
0.0
 11
545.3985707818797
 21
968.4188703426344
 31
0.0
 11
470.2960304034363
 21
898.5002860555958
 31
0.0
 11
372.1934900249944
 21
868.4188703426387
 31
0.0
  0
SPLINE
  5
457
330
1F
100
AcDbEntity
  8
1
  6
DASHED
 62
     4
100
AcDbSpline
210
0.0
220
0.0
230
1.0
 70
     8
 71
     3
 72
     9
 73
     5
 74
     3
 42
0.0000000001
 43
0.0000000001
 44
0.00000001
 40
0.0
 40
0.0
 40
0.0
 40
0.0
 40
53.66980526771057
 40
104.3021000825935
 40
104.3021000825935
 40
104.3021000825935
 40
104.3021000825935
 10
543.3985707818797
 20
971.8829719577734
 30
0.0
 10
533.0635058808297
 20
957.0860759937018
 30
0.0
 10
512.978302137451
 20
928.3297330918048
 30
0.0
 10
484.2445236817392
 20
908.2484982424476
 30
0.0
 10
470.2960304034345
 20
898.5002860555942
 30
0.0
 11
543.3985707818797
 21
971.8829719577734
 31
0.0
 11
510.1034657562973
 21
929.7892197039126
 31
0.0
 11
470.2960304034345
 21
898.5002860555942
 31
0.0
  0
SPLINE
  5
458
330
1F
100
AcDbEntity
  8
1
  6
DASHED
 62
     4
100
AcDbSpline
210
0.0
220
0.0
230
1.0
 70
     8
 71
     3
 72
     9
 73
     5
 74
     3
 42
0.0000000001
 43
0.0000000001
 44
0.00000001
 40
0.0
 40
0.0
 40
0.0
 40
0.0
 40
102.6704345430415
 40
205.3350622832038
 40
205.3350622832038
 40
205.3350622832038
 40
205.3350622832038
 10
370.4434900249985
 20
871.449959255878
 30
0.0
 10
393.4324738879369
 20
898.2424502872573
 30
0.0
 10
439.4091414099303
 20
951.8259170285429
 30
0.0
 10
508.736081171669
 20
965.1974130284214
 30
0.0
 10
543.3985707818797
 20
971.8829719577734
 30
0.0
 11
370.4434900249985
 21
871.449959255878
 31
0.0
 11
445.2483398471352
 21
941.7738710664744
 31
0.0
 11
543.3985707818797
 21
971.8829719577734
 31
0.0
  0
SPLINE
  5
459
330
1F
100
AcDbEntity
  8
1
  6
DASHED
 62
     4
100
AcDbSpline
210
0.0
220
0.0
230
1.0
 70
     8
 71
     3
 72
     9
 73
     5
 74
     3
 42
0.0000000001
 43
0.0000000001
 44
0.00000001
 40
0.0
 40
0.0
 40
0.0
 40
0.0
 40
53.66980526770966
 40
104.3021000825902
 40
104.3021000825902
 40
104.3021000825902
 40
104.3021000825902
 10
372.1934900249944
 20
868.4188703426387
 30
0.0
 10
382.5285549260437
 20
883.2157663067108
 30
0.0
 10
402.6137586694204
 20
911.9721092086079
 30
0.0
 10
431.3475371251313
 20
932.0533440579643
 30
0.0
 10
445.2960304034355
 20
941.801556244817
 30
0.0
 11
372.1934900249944
 21
868.4188703426387
 31
0.0
 11
405.4885950505747
 21
910.5126225965
 31
0.0
 11
445.2960304034355
 21
941.801556244817
 31
0.0
  0
SPLINE
  5
45A
330
1F
100
AcDbEntity
  8
1
  6
DASHED
 62
     4
100
AcDbSpline
210
0.0
220
0.0
230
1.0
 70
     8
 71
     3
 72
     9
 73
     5
 74
     3
 42
0.0000000001
 43
0.0000000001
 44
0.00000001
 40
0.0
 40
0.0
 40
0.0
 40
0.0
 40
65.4502106183978
 40
153.3637082206671
 40
153.3637082206671
 40
153.3637082206671
 40
153.3637082206671
 10
1495.784441266957
 20
818.4189051993751
 30
0.0
 10
1509.801780733956
 20
835.3223322021011
 30
0.0
 10
1542.647376488884
 20
874.9306424318424
 30
0.0
 10
1586.849838464343
 20
901.5451911738255
 30
0.0
 10
1612.18825183462
 20
916.8015911015528
 30
0.0
 11
1495.784441266957
 21
818.4189051993751
 31
0.0
 11
1539.904863839843
 21
866.7626574532353
 31
0.0
 11
1612.18825183462
 21
916.8015911015528
 31
0.0
  0
SPLINE
  5
45B
330
1F
100
AcDbEntity
  8
1
  6
DASHED
 62
     4
100
AcDbSpline
210
0.0
220
0.0
230
1.0
 70
     8
 71
     3
 72
     9
 73
     5
 74
     3
 42
0.0000000001
 43
0.0000000001
 44
0.00000001
 40
0.0
 40
0.0
 40
0.0
 40
0.0
 40
151.7751750024088
 40
303.5827511350611
 40
303.5827511350611
 40
303.5827511350611
 40
303.5827511350611
 10
1494.034441266961
 20
821.4499941126135
 30
0.0
 10
1531.4604227769
 20
856.5764880337495
 30
0.0
 10
1606.320375536216
 20
926.8369747183358
 30
0.0
 10
1704.498007308398
 20
956.8665944371479
 30
0.0
 10
1753.592062402286
 20
971.8830068145101
 30
0.0
 11
1494.034441266961
 21
821.4499941126135
 31
0.0
 11
1612.140561278319
 21
916.7739059232106
 31
0.0
 11
1753.592062402286
 21
971.8830068145101
 31
0.0
  0
SPLINE
  5
45C
330
1F
100
AcDbEntity
  8
1
  6
DASHED
 62
     4
100
AcDbSpline
210
0.0
220
0.0
230
1.0
 70
     8
 71
     3
 72
     9
 73
     5
 74
     3
 42
0.0000000001
 43
0.0000000001
 44
0.00000001
 40
0.0
 40
0.0
 40
0.0
 40
0.0
 40
65.4502106184008
 40
153.3637082206734
 40
153.3637082206734
 40
153.3637082206734
 40
153.3637082206734
 10
1753.592062402286
 20
971.8830068145101
 30
0.0
 10
1739.574722935287
 20
954.9795798117837
 30
0.0
 10
1706.729127180356
 20
915.3712695820414
 30
0.0
 10
1662.526665204895
 20
888.7567208400574
 30
0.0
 10
1637.188251834617
 20
873.5003209123297
 30
0.0
 11
1753.592062402286
 21
971.8830068145101
 31
0.0
 11
1709.471639829397
 21
923.5392545606485
 31
0.0
 11
1637.188251834617
 21
873.5003209123297
 31
0.0
  0
SPLINE
  5
45D
330
1F
100
AcDbEntity
  8
1
  6
DASHED
 62
     4
100
AcDbSpline
210
0.0
220
0.0
230
1.0
 70
     8
 71
     3
 72
     9
 73
     5
 74
     3
 42
0.0000000001
 43
0.0000000001
 44
0.00000001
 40
0.0
 40
0.0
 40
0.0
 40
0.0
 40
151.7530889306676
 40
303.506177861336
 40
303.506177861336
 40
303.506177861336
 40
303.506177861336
 10
1755.592062402286
 20
968.4189051993699
 30
0.0
 10
1718.040792213064
 20
933.4596130558504
 30
0.0
 10
1642.93825183462
 20
863.5410287688108
 30
0.0
 10
1544.835711456178
 20
833.4596130558537
 30
0.0
 10
1495.784441266957
 20
818.4189051993751
 30
0.0
 11
1755.592062402286
 21
968.4189051993699
 31
0.0
 11
1637.188251834621
 21
873.5003209123315
 31
0.0
 11
1495.784441266957
 21
818.4189051993751
 31
0.0
  0
ARC
  5
45E
330
1F
100
AcDbEntity
  8
1
  6
PHANTOM
 62
   140
100
AcDbCircle
 10
607.1998409711014
 20
983.3830068145167
 30
0.0
 40
13.5
100
AcDbArc
 50
89.99999999999615
 51
179.9999999999981
  0
ARC
  5
45F
330
1F
100
AcDbEntity
  8
1
  6
PHANTOM
 62
   140
100
AcDbCircle
 10
607.1998409711014
 20
976.3830068145167
 30
0.0
 40
13.50000000000091
100
AcDbArc
 50
179.9999999999962
 51
-90.00000000000387
  0
ARC
  5
460
330
1F
100
AcDbEntity
  8
1
  6
PHANTOM
 62
   140
100
AcDbCircle
 10
1817.393332591509
 20
976.3830068145167
 30
0.0
 40
13.50000000000114
100
AcDbArc
 50
179.9999999999962
 51
-90.00000000000483
  0
ARC
  5
461
330
1F
100
AcDbEntity
  8
1
  6
PHANTOM
 62
   140
100
AcDbCircle
 10
1817.393332591509
 20
983.3830068145167
 30
0.0
 40
13.5
100
AcDbArc
 50
90.0
 51
179.9999999999981
  0
ARC
  5
462
330
1F
100
AcDbEntity
  8
1
  6
PHANTOM
 62
   140
100
AcDbCircle
 10
430.5436118552375
 20
805.0732286637598
 30
0.0
 40
13.5
100
AcDbArc
 50
-89.99999999999228
 51
0.0000000000029
  0
ARC
  5
463
330
1F
100
AcDbEntity
  8
1
  6
PHANTOM
 62
   140
100
AcDbCircle
 10
430.5436118552375
 20
812.0732286637598
 30
0.0
 40
13.5
100
AcDbArc
 50
0.00000000000145
 51
90.00000000000387
  0
ARC
  5
464
330
1F
100
AcDbEntity
  8
1
  6
PHANTOM
 62
   140
100
AcDbCircle
 10
1554.134441266861
 20
762.073595053947
 30
0.0
 40
13.5
100
AcDbArc
 50
0.00000000000145
 51
90.00000000000387
  0
ARC
  5
465
330
1F
100
AcDbEntity
  8
1
  6
PHANTOM
 62
   140
100
AcDbCircle
 10
1554.134441266861
 20
755.073595053947
 30
0.0
 40
13.5
100
AcDbArc
 50
-89.99999999998263
 51
0.0000000000029
  0
ARC
  5
466
330
1F
100
AcDbEntity
  8
1
  6
Continuous
 62
     7
100
AcDbCircle
 10
585.1744204341294
 20
846.4684652870953
 30
0.0
 40
9.999999999999824
100
AcDbArc
 50
-98.29007255254815
 51
-59.99990936023948
  0
ARC
  5
467
330
1F
100
AcDbEntity
  8
1
  6
Continuous
 62
     7
100
AcDbCircle
 10
1793.969315953987
 20
845.6611053016045
 30
0.0
 40
9.999999999999959
100
AcDbArc
 50
-81.03751102541638
 51
-59.99999999996167
  0
ARC
  5
468
330
1F
100
AcDbEntity
  8
1
  6
Continuous
 62
     7
100
AcDbCircle
 10
1593.59947582401
 20
808.998295602256
 30
0.0
 40
4.999999999999526
100
AcDbArc
 50
-149.9999999999577
 51
-81.0375110254036
  0
ARC
  5
469
330
1F
100
AcDbEntity
  8
1
  6
Continuous
 62
     7
100
AcDbCircle
 10
470.5140957244753
 20
858.1225108106215
 30
0.0
 40
5.000000000000097
100
AcDbArc
 50
-149.9999093602316
 51
-98.29007255254805
  0
ARC
  5
46A
330
1F
100
AcDbEntity
  8
1
  6
Continuous
 62
     7
100
AcDbCircle
 10
347.7003205274737
 20
1460.032752517115
 30
0.0
 40
10.0
100
AcDbArc
 50
90.0
 51
180.0
  0
ARC
  5
46B
330
1F
100
AcDbEntity
  8
1
  6
Continuous
 62
     7
100
AcDbCircle
 10
347.7003205274737
 20
1336.432752517115
 30
0.0
 40
10.0
100
AcDbArc
 50
180.0
 51
-90.0
  0
ARC
  5
46C
330
1F
100
AcDbEntity
  8
1
  6
Continuous
 62
     7
100
AcDbCircle
 10
616.8088926113255
 20
864.7327030403841
 30
0.0
 40
9.99999999999986
100
AcDbArc
 50
-59.99990936024399
 51
30.00009063972379
  0
ARC
  5
46D
330
1F
100
AcDbEntity
  8
1
  6
Continuous
 62
     7
100
AcDbCircle
 10
1457.893729975089
 20
1460.032752517117
 30
0.0
 40
10.00000000000114
100
AcDbArc
 50
90.0
 51
180.0
  0
ARC
  5
46E
330
1F
100
AcDbEntity
  8
1
  6
Continuous
 62
     7
100
AcDbCircle
 10
1457.893729975089
 20
1336.43275251712
 30
0.0
 40
10.0
100
AcDbArc
 50
180.0
 51
-90.0
  0
ARC
  5
46F
330
1F
100
AcDbEntity
  8
1
  6
Continuous
 62
     7
100
AcDbCircle
 10
1827.002316440116
 20
864.7327170244398
 30
0.0
 40
9.999999999999876
100
AcDbArc
 50
-59.9999999999665
 51
30.00000000002637
  0
ARC
  5
470
330
1F
100
AcDbEntity
  8
1
  6
Continuous
 62
     7
100
AcDbCircle
 10
2267.084006526218
 20
949.4509211502334
 30
0.0
 40
3.200000000000728
100
AcDbArc
 50
0.0
 51
90.0
  0
ARC
  5
471
330
1F
100
AcDbEntity
  8
1
  6
Continuous
 62
     7
100
AcDbCircle
 10
2123.484006526218
 20
949.4509211502334
 30
0.0
 40
3.199999999998909
100
AcDbArc
 50
89.999999999943
 51
180.0
  0
ARC
  5
472
330
1F
100
AcDbEntity
  8
1
  6
Continuous
 62
     7
100
AcDbCircle
 10
2265.484006526219
 20
947.8509211502326
 30
0.0
 40
1.599999999999
100
AcDbArc
 50
0.0
 51
90.0
  0
ARC
  5
473
330
1F
100
AcDbEntity
  8
1
  6
Continuous
 62
     7
100
AcDbCircle
 10
2125.08400652622
 20
947.8509211502326
 30
0.0
 40
1.600000000000819
100
AcDbArc
 50
90.0
 51
180.0
  0
ARC
  5
474
330
1F
100
AcDbEntity
  8
1
  6
Continuous
 62
     7
100
AcDbCircle
 10
922.0840065262196
 20
947.8509211502326
 30
0.0
 40
1.600000000000819
100
AcDbArc
 50
90.0
 51
180.0
  0
ARC
  5
475
330
1F
100
AcDbEntity
  8
1
  6
Continuous
 62
     7
100
AcDbCircle
 10
1062.48400652622
 20
947.8509211502326
 30
0.0
 40
1.599999999997181
100
AcDbArc
 50
0.0
 51
90.0
  0
ARC
  5
476
330
1F
100
AcDbEntity
  8
1
  6
Continuous
 62
     7
100
AcDbCircle
 10
920.4840065262183
 20
949.4509211502334
 30
0.0
 40
3.199999999998909
100
AcDbArc
 50
90.0
 51
180.0
  0
ARC
  5
477
330
1F
100
AcDbEntity
  8
1
  6
Continuous
 62
     7
100
AcDbCircle
 10
1064.084006526217
 20
949.4509211502334
 30
0.0
 40
3.200000000001865
100
AcDbArc
 50
0.0
 51
90.0
  0
ARC
  5
478
330
1F
100
AcDbEntity
  8
1
  6
Continuous
 62
     7
100
AcDbCircle
 10
1908.276616578788
 20
984.402590005443
 30
0.0
 40
2.0
100
AcDbArc
 50
89.99999999991532
 51
119.9999999999158
  0
ARC
  5
479
330
1F
100
AcDbEntity
  8
1
  6
Continuous
 62
     7
100
AcDbCircle
 10
698.0831938097076
 20
984.402558366283
 30
0.0
 40
2.0
100
AcDbArc
 50
89.99999999994789
 51
119.999999999965
  0
ARC
  5
47A
330
1F
100
AcDbEntity
  8
1
  6
Continuous
 62
     7
100
AcDbCircle
 10
752.2030852955445
 20
948.6760610581005
 30
0.0
 40
9.999999999999682
100
AcDbArc
 50
-60.0000000000531
 51
-0.00000000007556
  0
ARC
  5
47B
330
1F
100
AcDbEntity
  8
1
  6
Continuous
 62
     7
100
AcDbCircle
 10
1962.396508064627
 20
948.6760926972604
 30
0.0
 40
9.999999999999893
100
AcDbArc
 50
-60.0000000000523
 51
-0.00000000007556
  0
ARC
  5
47C
330
1F
100
AcDbEntity
  8
1
  6
DASHED
 62
     4
100
AcDbCircle
 10
598.3903093839863
 20
850.6346091739322
 30
0.0
 40
1.999999999998187
100
AcDbArc
 50
-150.0000000000227
 51
-60.00000000003831
  0
ARC
  5
47D
330
1F
100
AcDbEntity
  8
1
  6
Continuous
 62
     7
100
AcDbCircle
 10
760.2030852955945
 20
984.4025583662285
 30
0.0
 40
2.00000000000091
100
AcDbArc
 50
-0.00000000005862
 51
89.99999999990881
  0
ARC
  5
47E
330
1F
100
AcDbEntity
  8
1
  6
DASHED
 62
     4
100
AcDbCircle
 10
565.3903093840304
 20
907.7922858237477
 30
0.0
 40
2.000000000000398
100
AcDbArc
 50
119.9999999999633
 51
-150.000000000058
  0
ARC
  5
47F
330
1F
100
AcDbEntity
  8
1
  6
DASHED
 62
     4
100
AcDbCircle
 10
1775.583732153113
 20
907.7923174629075
 30
0.0
 40
2.0000000000003
100
AcDbArc
 50
119.999999999965
 51
-150.0000000000553
  0
ARC
  5
480
330
1F
100
AcDbEntity
  8
1
  6
Continuous
 62
     7
100
AcDbCircle
 10
1970.396508064677
 20
984.4025900053882
 30
0.0
 40
2.000000000001137
100
AcDbArc
 50
-0.00000000005211
 51
89.99999999994138
  0
ARC
  5
481
330
1F
100
AcDbEntity
  8
1
  6
DASHED
 62
     4
100
AcDbCircle
 10
1808.583732153069
 20
850.634640813092
 30
0.0
 40
1.999999999999171
100
AcDbArc
 50
-150.000000000039
 51
-60.00000000003831
  0
LINE
  5
482
330
1F
100
AcDbEntity
  8
1
 62
     2
100
AcDbLine
 10
693.7960555119307
 20
855.3868870747536
 30
0.0
 11
704.7768176254655
 21
866.3676491882852
 31
0.0
  0
LINE
  5
483
330
1F
100
AcDbEntity
  8
1
 62
     2
100
AcDbLine
 10
693.7960555119307
 20
855.3868870747536
 30
0.0
 11
708.7960555119313
 21
859.4061249612183
 31
0.0
  0
LEADER
  5
484
330
1F
100
AcDbEntity
  8
1
  6
Continuous
 62
     2
100
AcDbLeader
  3
Standard
 71
     0
 76
     2
 10
693.7960555119307
 20
855.3868870747536
 30
0.0
 10
726.3085015250927
 20
874.1579565324603
 30
0.0
  0
LINE
  5
485
330
1F
100
AcDbEntity
  8
1
 62
     2
100
AcDbLine
 10
527.6151915669573
 20
1143.220586673129
 30
0.0
 11
538.595953680491
 21
1154.201348786662
 31
0.0
  0
LINE
  5
486
330
1F
100
AcDbEntity
  8
1
 62
     2
100
AcDbLine
 10
527.6151915669573
 20
1143.220586673129
 30
0.0
 11
542.6151915669575
 21
1147.239824559595
 31
0.0
  0
LEADER
  5
487
330
1F
100
AcDbEntity
  8
1
  6
Continuous
 62
     2
100
AcDbLeader
  3
Standard
 71
     0
 76
     2
 10
527.6151915669573
 20
1143.220586673129
 30
0.0
 10
560.1276375801183
 20
1161.991656130836
 30
0.0
  0
LINE
  5
488
330
1F
100
AcDbEntity
  8
1
 62
     2
100
AcDbLine
 10
403.8973173401514
 20
765.506230638358
 30
0.0
 11
392.9165552266111
 21
754.525468524832
 31
0.0
  0
LINE
  5
489
330
1F
100
AcDbEntity
  8
1
 62
     2
100
AcDbLine
 10
403.8973173401514
 20
765.506230638358
 30
0.0
 11
388.8973173401488
 21
761.486992751901
 31
0.0
  0
LEADER
  5
48A
330
1F
100
AcDbEntity
  8
1
  6
Continuous
 62
     2
100
AcDbLeader
  3
Standard
 71
     0
 76
     2
 10
403.8973173401514
 20
765.506230638358
 30
0.0
 10
371.3848713269804
 20
746.7351611806672
 30
0.0
  0
LINE
  5
48B
330
1F
100
AcDbEntity
  8
1
 62
     2
100
AcDbLine
 10
276.1524859942904
 20
986.7667689337295
 30
0.0
 11
265.1717238807501
 21
975.7860068202035
 31
0.0
  0
LINE
  5
48C
330
1F
100
AcDbEntity
  8
1
 62
     2
100
AcDbLine
 10
276.1524859942904
 20
986.7667689337295
 30
0.0
 11
261.1524859942878
 21
982.7475310472725
 31
0.0
  0
LEADER
  5
48D
330
1F
100
AcDbEntity
  8
1
  6
Continuous
 62
     2
100
AcDbLeader
  3
Standard
 71
     0
 76
     2
 10
276.1524859942904
 20
986.7667689337295
 30
0.0
 10
243.6400399811185
 20
967.9956994760375
 30
0.0
  0
LINE
  5
48E
330
1F
100
AcDbEntity
  8
1
 62
     2
100
AcDbLine
 10
1523.113567403967
 20
715.0834702035702
 30
0.0
 11
1512.132805290427
 21
704.1027080900442
 31
0.0
  0
LINE
  5
48F
330
1F
100
AcDbEntity
  8
1
 62
     2
100
AcDbLine
 10
1523.113567403967
 20
715.0834702035702
 30
0.0
 11
1508.113567403964
 21
711.0642323171131
 31
0.0
  0
LEADER
  5
490
330
1F
100
AcDbEntity
  8
1
  6
Continuous
 62
     2
100
AcDbLeader
  3
Standard
 71
     0
 76
     2
 10
1523.113567403967
 20
715.0834702035702
 30
0.0
 10
1490.601121390796
 20
696.3124007458794
 30
0.0
  0
LINE
  5
491
330
1F
100
AcDbEntity
  8
1
 62
     2
100
AcDbLine
 10
1395.943687560973
 20
935.3481632840902
 30
0.0
 11
1384.962925447433
 21
924.3674011705642
 31
0.0
  0
LINE
  5
492
330
1F
100
AcDbEntity
  8
1
 62
     2
100
AcDbLine
 10
1395.943687560973
 20
935.3481632840902
 30
0.0
 11
1380.94368756097
 21
931.3289253976332
 31
0.0
  0
LEADER
  5
493
330
1F
100
AcDbEntity
  8
1
  6
Continuous
 62
     2
100
AcDbLeader
  3
Standard
 71
     0
 76
     2
 10
1395.943687560973
 20
935.3481632840902
 30
0.0
 10
1363.431241547802
 20
916.5770938263988
 30
0.0
  0
LINE
  5
494
330
1F
100
AcDbEntity
  8
1
 62
     2
100
AcDbLine
 10
1742.353849074743
 20
1135.348163284099
 30
0.0
 11
1753.334611188277
 21
1146.328925397632
 31
0.0
  0
LINE
  5
495
330
1F
100
AcDbEntity
  8
1
 62
     2
100
AcDbLine
 10
1742.353849074743
 20
1135.348163284099
 30
0.0
 11
1757.353849074743
 21
1139.367401170565
 31
0.0
  0
LEADER
  5
496
330
1F
100
AcDbEntity
  8
1
  6
Continuous
 62
     2
100
AcDbLeader
  3
Standard
 71
     0
 76
     2
 10
1742.353849074743
 20
1135.348163284099
 30
0.0
 10
1774.866295087904
 20
1154.119232741806
 30
0.0
  0
LINE
  5
497
330
1F
100
AcDbEntity
  8
1
 62
     2
100
AcDbLine
 10
1903.199612450558
 20
856.755128935011
 30
0.0
 11
1914.180374564093
 21
867.7358910485426
 31
0.0
  0
LINE
  5
498
330
1F
100
AcDbEntity
  8
1
 62
     2
100
AcDbLine
 10
1903.199612450558
 20
856.755128935011
 30
0.0
 11
1918.199612450559
 21
860.7743668214757
 31
0.0
  0
LEADER
  5
499
330
1F
100
AcDbEntity
  8
1
  6
Continuous
 62
     2
100
AcDbLeader
  3
Standard
 71
     0
 76
     2
 10
1903.199612450558
 20
856.755128935011
 30
0.0
 10
1935.71205846372
 20
875.5261983927178
 30
0.0
  0
LINE
  5
49A
330
1F
100
AcDbEntity
  8
1
 62
     2
100
AcDbLine
 10
503.8321290166767
 20
1170.9967138094
 30
0.0
 11
492.8513669031423
 21
1181.977475922932
 31
0.0
  0
LINE
  5
49B
330
1F
100
AcDbEntity
  8
1
 62
     2
100
AcDbLine
 10
503.8321290166767
 20
1170.9967138094
 30
0.0
 11
499.8128911302081
 21
1185.9967138094
 31
0.0
  0
LEADER
  5
49C
330
1F
100
AcDbEntity
  8
1
  6
Continuous
 62
     2
100
AcDbLeader
  3
Standard
 71
     0
 76
     2
 10
503.8321290166767
 20
1170.9967138094
 30
0.0
 10
483.6098931784983
 20
1206.022653723758
 30
0.0
  0
LINE
  5
49D
330
1F
100
AcDbEntity
  8
1
 62
     2
100
AcDbLine
 10
249.4275667526725
 20
1031.044374533384
 30
0.0
 11
238.4468046391381
 21
1042.025136646916
 31
0.0
  0
LINE
  5
49E
330
1F
100
AcDbEntity
  8
1
 62
     2
100
AcDbLine
 10
249.4275667526725
 20
1031.044374533384
 30
0.0
 11
245.4083288662039
 21
1046.044374533384
 31
0.0
  0
LEADER
  5
49F
330
1F
100
AcDbEntity
  8
1
  6
Continuous
 62
     2
100
AcDbLeader
  3
Standard
 71
     0
 76
     2
 10
249.4275667526725
 20
1031.044374533384
 30
0.0
 10
229.2053309144947
 20
1066.070314447743
 30
0.0
  0
LINE
  5
4A0
330
1F
100
AcDbEntity
  8
1
 62
     2
100
AcDbLine
 10
1377.563683882015
 20
973.1719511443524
 30
0.0
 11
1366.582921768482
 21
984.1527132578855
 31
0.0
  0
LINE
  5
4A1
330
1F
100
AcDbEntity
  8
1
 62
     2
100
AcDbLine
 10
1377.563683882015
 20
973.1719511443524
 30
0.0
 11
1373.544445995548
 21
988.1719511443524
 31
0.0
  0
LEADER
  5
4A2
330
1F
100
AcDbEntity
  8
1
  6
Continuous
 62
     2
100
AcDbLeader
  3
Standard
 71
     0
 76
     2
 10
1377.563683882015
 20
973.1719511443524
 30
0.0
 10
1357.341448043835
 20
1008.19789105871
 30
0.0
  0
LINE
  5
4A3
330
1F
100
AcDbEntity
  8
1
 62
     2
100
AcDbLine
 10
1718.570786524463
 20
1163.12429042037
 30
0.0
 11
1707.590024410929
 21
1174.105052533902
 31
0.0
  0
LINE
  5
4A4
330
1F
100
AcDbEntity
  8
1
 62
     2
100
AcDbLine
 10
1718.570786524463
 20
1163.12429042037
 30
0.0
 11
1714.551548637995
 21
1178.12429042037
 31
0.0
  0
LEADER
  5
4A5
330
1F
100
AcDbEntity
  8
1
  6
Continuous
 62
     2
100
AcDbLeader
  3
Standard
 71
     0
 76
     2
 10
1718.570786524463
 20
1163.12429042037
 30
0.0
 10
1698.348550686285
 20
1198.150230334728
 30
0.0
  0
MTEXT
  5
4A6
330
1F
100
AcDbEntity
  8
1
 62
     2
100
AcDbMText
 10
708.6141423999866
 20
869.027774610457
 30
0.0
 40
19.2
 41
0.0
 71
     7
 72
     1
  1
A
  7
CONVERTER_1
 11
0.8660254037845032
 21
0.4999999999998884
 31
0.0
 73
     1
 44
0.60024009603842
  0
MTEXT
  5
4A7
330
1F
100
AcDbEntity
  8
1
 62
     2
100
AcDbMText
 10
542.4332784550127
 20
1156.861474208833
 30
0.0
 40
19.20000000000001
 41
0.0
 71
     7
 72
     1
  1
A
  7
CONVERTER_1
 11
0.8660254037845031
 21
0.4999999999998885
 31
0.0
 73
     1
 44
0.60024009603842
  0
MTEXT
  5
4A8
330
1F
100
AcDbEntity
  8
1
 62
     2
100
AcDbMText
 10
371.9500324239493
 20
752.1471181741428
 30
0.0
 40
19.2
 41
0.0
 71
     7
 72
     1
  1
B
  7
CONVERTER_1
 11
0.8660254037845031
 21
0.4999999999998885
 31
0.0
 73
     1
 44
0.60024009603842
  0
MTEXT
  5
4A9
330
1F
100
AcDbEntity
  8
1
 62
     2
100
AcDbMText
 10
244.2052010782784
 20
973.4076564696236
 30
0.0
 40
19.2
 41
0.0
 71
     7
 72
     1
  1
B
  7
CONVERTER_1
 11
0.8660254037845031
 21
0.4999999999998885
 31
0.0
 73
     1
 44
0.60024009603842
  0
MTEXT
  5
4AA
330
1F
100
AcDbEntity
  8
1
 62
     2
100
AcDbMText
 10
1491.166282487764
 20
701.7243577393549
 30
0.0
 40
19.2
 41
0.0
 71
     7
 72
     1
  1
B
  7
CONVERTER_1
 11
0.8660254037845031
 21
0.4999999999998885
 31
0.0
 73
     1
 44
0.60024009603842
  0
MTEXT
  5
4AB
330
1F
100
AcDbEntity
  8
1
 62
     2
100
AcDbMText
 10
1363.996402644961
 20
921.989050819985
 30
0.0
 40
19.2
 41
0.0
 71
     7
 72
     1
  1
B
  7
CONVERTER_1
 11
0.8660254037845031
 21
0.4999999999998885
 31
0.0
 73
     1
 44
0.60024009603842
  0
MTEXT
  5
4AC
330
1F
100
AcDbEntity
  8
1
 62
     2
100
AcDbMText
 10
1757.171935962797
 20
1148.989050819803
 30
0.0
 40
19.20000000000002
 41
0.0
 71
     7
 72
     1
  1
A
  7
CONVERTER_1
 11
0.8660254037845031
 21
0.4999999999998884
 31
0.0
 73
     1
 44
0.60024009603842
  0
MTEXT
  5
4AD
330
1F
100
AcDbEntity
  8
1
 62
     2
100
AcDbMText
 10
1918.017699338614
 20
870.3960164707144
 30
0.0
 40
19.20000000000002
 41
0.0
 71
     7
 72
     1
  1
A
  7
CONVERTER_1
 11
0.8660254037845032
 21
0.4999999999998885
 31
0.0
 73
     1
 44
0.60024009603842
  0
TEXT
  5
4AE
330
1F
100
AcDbEntity
  8
1
 62
     2
100
AcDbText
 10
942.3444829439213
 20
804.8118017633606
 30
0.0
 40
19.2
  1
AA矢視図
 41
0.89
  7
CONVERTER_3
100
AcDbText
  0
TEXT
  5
4AF
330
1F
100
AcDbEntity
  8
1
 62
     2
100
AcDbText
 10
65.83941116270944
 20
759.8966110563417
 30
0.0
 40
19.2
  1
BB矢視図
 41
0.89
  7
CONVERTER_3
100
AcDbText
  0
TEXT
  5
4B0
330
1F
100
AcDbEntity
  8
1
 62
     2
100
AcDbText
 10
2147.344482943922
 20
804.8118017633606
 30
0.0
 40
19.2
  1
AA矢視図
 41
0.89
  7
CONVERTER_3
100
AcDbText
  0
TEXT
  5
4B1
330
1F
100
AcDbEntity
  8
1
 62
     2
100
AcDbText
 10
1173.839411162709
 20
708.8966110563438
 30
0.0
 40
19.2
  1
BB矢視図
 41
0.89
  7
CONVERTER_3
100
AcDbText
  0
MTEXT
  5
4B2
330
1F
100
AcDbEntity
  8
1
 62
     2
100
AcDbMText
 10
477.1145612048406
 20
1176.220637822265
 30
0.0
 40
19.2
 41
0.0
 71
     7
 72
     1
  1
C
  7
CONVERTER_1
 11
0.8660254037843457
 21
0.5000000000001611
 31
0.0
 73
     1
 44
0.60024009603842
  0
MTEXT
  5
4B3
330
1F
100
AcDbEntity
  8
1
 62
     2
100
AcDbMText
 10
222.9759697557354
 20
1036.478757008031
 30
0.0
 40
19.2
 41
0.0
 71
     7
 72
     1
  1
C
  7
CONVERTER_1
 11
0.8660254037843457
 21
0.5000000000001613
 31
0.0
 73
     1
 44
0.60024009603842
  0
TEXT
  5
4B4
330
1F
100
AcDbEntity
  8
1
 62
     2
100
AcDbText
 10
412.6486040246796
 20
1289.645844258329
 30
0.0
 40
19.2
  1
CC矢視図
 41
0.89
  7
CONVERTER_3
100
AcDbText
  0
MTEXT
  5
4B5
330
1F
100
AcDbEntity
  8
1
 62
     2
100
AcDbMText
 10
1351.112086885077
 20
978.6063336189985
 30
0.0
 40
19.2
 41
0.0
 71
     7
 72
     1
  1
C
  7
CONVERTER_1
 11
0.8660254037843457
 21
0.5000000000001613
 31
0.0
 73
     1
 44
0.60024009603842
  0
MTEXT
  5
4B6
330
1F
100
AcDbEntity
  8
1
 62
     2
100
AcDbMText
 10
1691.853218712626
 20
1168.348214433235
 30
0.0
 40
19.2
 41
0.0
 71
     7
 72
     1
  1
C
  7
CONVERTER_1
 11
0.8660254037843457
 21
0.5000000000001611
 31
0.0
 73
     1
 44
0.60024009603842
  0
TEXT
  5
4B7
330
1F
100
AcDbEntity
  8
1
 62
     2
100
AcDbText
 10
1591.64860402468
 20
1289.645844258329
 30
0.0
 40
19.2
  1
CC矢視図
 41
0.89
  7
CONVERTER_3
100
AcDbText
  0
MTEXT
  5
4B8
330
1F
100
AcDbEntity
  8
1
 62
     2
100
AcDbMText
 10
1008.431862123119
 20
324.1638097856445
 30
0.0
 40
23.99999999999999
 41
0.0
 71
     7
 72
     1
  1
注1：本図はねじり方向Lタイプ\P注2：排出側装置とのジョイントを取る事\P※1：本図はMMX2型、ベルト幅50mmの場合です
  7
CONVERTER_3
 73
     1
 44
0.90036014405762
  0
MTEXT
  5
4B9
330
1F
100
AcDbEntity
  8
1
 62
     2
100
AcDbMText
 10
800.2634651666031
 20
1092.608540383231
 30
0.0
 40
19.2
 41
0.0
 71
     7
 72
     1
  1
※1
  7
CONVERTER_3
 11
0.0
 21
1.0
 31
0.0
 73
     1
 44
0.60024009603842
  0
MTEXT
  5
4BA
330
1F
100
AcDbEntity
  8
1
 62
     2
100
AcDbMText
 10
2011.884387236213
 20
1093.653859326211
 30
0.0
 40
19.2
 41
0.0
 71
     7
 72
     1
  1
※1
  7
CONVERTER_3
 11
0.0
 21
1.0
 31
0.0
 73
     1
 44
0.60024009603842
  0
TEXT
  5
4BB
330
1F
100
AcDbEntity
  8
1
 62
     2
100
AcDbText
 10
1454.776248795929
 20
80.77005641942959
 30
0.0
 40
23.99999999999999
  1
ミニシリーズ
 41
0.89
  7
CONVERTER_3
100
AcDbText
  0
TEXT
  5
4BC
330
1F
100
AcDbEntity
  8
1
 62
     2
100
AcDbText
 10
1031.498896924949
 20
65.24585808511741
 30
0.0
 40
19.2
  1
2013.3.10
 41
0.9
  7
CONVERTER_1
100
AcDbText
  0
TEXT
  5
4BD
330
1F
100
AcDbEntity
  8
1
 62
     2
100
AcDbText
 10
1495.94361497179
 20
17.4916886541703
 30
0.0
 40
23.99999999999999
  1
MTS
 41
0.9
  7
CONVERTER_1
100
AcDbText
  0
TEXT
  5
4BE
330
1F
100
AcDbEntity
  8
1
 62
     2
100
AcDbText
 10
1797.19676396325
 20
80.7415509257963
 30
0.0
 40
19.2
  1
本体組立図  呼び幅 50 mm  呼び機長 20 cm、30 cm
 41
0.801
  7
CONVERTER_4
100
AcDbText
  0
TEXT
  5
4BF
330
1F
100
AcDbEntity
  8
1
 62
     2
100
AcDbText
 10
2136.3677927618
 20
20.9893579124614
 30
0.0
 40
19.2
  1
W_MTS_S_030
 41
0.9
  7
CONVERTER_1
100
AcDbText
  0
LWPOLYLINE
  5
4C0
330
1F
100
AcDbEntity
  8
1
 62
     2
100
AcDbPolyline
 90
        4
 70
     1
 43
0.0
 10
425.025402504472
 20
652.667497103322
 10
425.025402504472
 20
592.667497103322
 10
725.0254025044719
 20
592.667497103322
 10
725.0254025044719
 20
652.667497103322
  0
TEXT
  5
4C1
330
1F
100
AcDbEntity
  8
1
 62
     2
100
AcDbText
 10
440.025402504472
 20
607.667497103322
 30
0.0
 40
29.99999999999999
  1
呼び機長 20 cm
 41
0.89
  7
CONVERTER_3
100
AcDbText
  0
LWPOLYLINE
  5
4C2
330
1F
100
AcDbEntity
  8
1
 62
     2
100
AcDbPolyline
 90
        4
 70
     1
 43
0.0
 10
1571.713416815744
 20
652.667497103322
 10
1571.713416815744
 20
592.667497103322
 10
1871.713416815744
 20
592.667497103322
 10
1871.713416815744
 20
652.667497103322
  0
TEXT
  5
4C3
330
1F
100
AcDbEntity
  8
1
 62
     2
100
AcDbText
 10
1586.713416815744
 20
607.667497103322
 30
0.0
 40
29.99999999999999
  1
呼び機長 30 cm
 41
0.89
  7
CONVERTER_3
100
AcDbText
  0
DIMENSION
  5
4D6
330
1F
100
AcDbEntity
  8
1
100
AcDbDimension
  2
*D02
 10
2017.606530154681
 20
963.2311057375616
 30
0.0
 11
2002.231217658642
 21
1020.341928162887
 31
0.0
 70
    32
  1
<>
 71
     5
 42
-1.0
 53
-59.99999999996877
  3
ME10_DIM_0
100
AcDbAlignedDimension
 13
1793.16257047793
 23
943.3448763461015
 33
0.0
 14
1832.002316440121
 24
856.0724629865985
 34
0.0
 50
-59.99999999996877
100
AcDbRotatedDimension
  0
DIMENSION
  5
4E3
330
1F
100
AcDbEntity
  8
1
100
AcDbDimension
  2
*D14
 10
825.259615699169
 20
973.5352078794755
 30
0.0
 11
810.6337086659273
 21
1029.347845901506
 31
0.0
 70
    32
  1
<>
 71
     5
 42
-1.0
 53
-59.99990936027895
  3
ME10_DIM_1
100
AcDbAlignedDimension
 13
582.9690222877835
 23
943.3448088288083
 33
0.0
 14
621.8089063115135
 24
856.0724569123615
 34
0.0
 50
-59.99990936027895
100
AcDbRotatedDimension
  0
DIMENSION
  5
4F1
330
1F
100
AcDbEntity
  8
1
100
AcDbDimension
  2
*D25
 10
235.3012301953513
 20
1368.232752517117
 30
0.0
 11
220.0612301953515
 21
1309.587673583299
 31
0.0
 70
    32
  1
<>
 71
     5
 42
-1.0
 53
90.0
  3
ME10_DIM_2
100
AcDbAlignedDimension
 13
340.6998409711036
 23
1428.232752517117
 33
0.0
 14
340.6998409711036
 24
1368.232752517117
 34
0.0
 50
90.0
100
AcDbRotatedDimension
  0
DIMENSION
  5
4FF
330
1F
100
AcDbEntity
  8
1
100
AcDbDimension
  2
*D36
 10
282.2083092512308
 20
1371.232752517117
 30
0.0
 11
268.4083092512306
 21
1307.80079378202
 31
0.0
 70
    32
  1
<>
 71
     5
 42
-1.0
 53
90.0
  3
ME10_DIM_3
100
AcDbAlignedDimension
 13
340.6998409711036
 23
1425.232752517117
 33
0.0
 14
340.6998409711036
 24
1371.232752517117
 34
0.0
 50
90.0
100
AcDbRotatedDimension
  0
DIMENSION
  5
50D
330
1F
100
AcDbEntity
  8
1
100
AcDbDimension
  2
*D47
 10
1400.904000572987
 20
1371.232752517117
 30
0.0
 11
1387.104000572987
 21
1305.979629727219
 31
0.0
 70
    32
  1
<>
 71
     5
 42
-1.0
 53
90.0
  3
ME10_DIM_4
100
AcDbAlignedDimension
 13
1450.89333259151
 23
1425.232752517117
 33
0.0
 14
1450.89333259151
 24
1371.232752517117
 34
0.0
 50
90.0
100
AcDbRotatedDimension
  0
DIMENSION
  5
51B
330
1F
100
AcDbEntity
  8
1
100
AcDbDimension
  2
*D58
 10
1348.785023844238
 20
1368.232752517117
 30
0.0
 11
1333.545023844238
 21
1305.979629727219
 31
0.0
 70
    32
  1
<>
 71
     5
 42
-1.0
 53
90.0
  3
ME10_DIM_5
100
AcDbAlignedDimension
 13
1450.89333259151
 23
1428.232752517117
 33
0.0
 14
1450.89333259151
 24
1368.232752517117
 34
0.0
 50
90.0
100
AcDbRotatedDimension
  0
DIMENSION
  5
528
330
1F
100
AcDbEntity
  8
1
100
AcDbDimension
  2
*D69
 10
512.4960816462121
 20
1125.407653221085
 30
0.0
 11
392.442271370099
 21
1072.029420970565
 31
0.0
 70
    32
  1
実機長(257)
 71
     5
 42
-1.0
 53
29.99999999999974
  3
ME10_DIM_6
100
AcDbAlignedDimension
 13
348.8813121985054
 23
894.7967467731945
 33
0.0
 14
586.6998409711005
 24
996.8829719577741
 34
0.0
 50
29.99999999999974
100
AcDbRotatedDimension
  0
DIMENSION
  5
535
330
1F
100
AcDbEntity
  8
1
100
AcDbDimension
  2
*D710
 10
1727.234739153995
 20
1117.535229832057
 30
0.0
 11
1573.031161254599
 21
1044.440620051465
 31
0.0
 70
    32
  1
実機長(357)
 71
     5
 42
-1.0
 53
30.00000000000169
  3
ME10_DIM_7
100
AcDbAlignedDimension
 13
1472.472263440468
 23
844.7967816299299
 33
0.0
 14
1796.893332591506
 24
996.8830068145109
 34
0.0
 50
30.00000000000169
100
AcDbRotatedDimension
  0
DIMENSION
  5
544
330
1F
100
AcDbEntity
  8
1
100
AcDbDimension
  2
*D811
 10
775.475506713522
 20
1373.232752517117
 30
0.0
 11
761.6755067135221
 21
1257.61575311475
 31
0.0
 70
    32
  1
呼び幅(50)
 71
     5
 42
-1.0
 53
90.0
  3
ME10_DIM_8
100
AcDbAlignedDimension
 13
587.6998409711023
 23
1423.232752517117
 33
0.0
 14
587.6998409711023
 24
1373.232752517117
 34
0.0
 50
90.0
100
AcDbRotatedDimension
  0
DIMENSION
  5
552
330
1F
100
AcDbEntity
  8
1
100
AcDbDimension
  2
*D912
 10
831.609506782463
 20
1357.232752517116
 30
0.0
 11
817.809506782463
 21
1195.75709255962
 31
0.0
 70
    32
  1
投入側コンベヤ機幅(82)
 71
     5
 42
-1.0
 53
90.0
  3
ME10_DIM_9
100
AcDbAlignedDimension
 13
733.7183646376543
 23
1439.232752517116
 33
0.0
 14
733.7183646376543
 24
1357.232752517116
 34
0.0
 50
90.0
100
AcDbRotatedDimension
  0
DIMENSION
  5
55F
330
1F
100
AcDbEntity
  8
1
100
AcDbDimension
  2
*D1013
 10
883.7183646376536
 20
1323.232752517117
 30
0.0
 11
869.9183646376537
 21
1393.928612802999
 31
0.0
 70
    32
  1
機幅(150)
 71
     5
 42
-1.0
 53
90.0
  3
ME10_DIM_10
100
AcDbAlignedDimension
 13
557.7003205275273
 23
1473.232752517116
 33
0.0
 14
557.7003205275273
 24
1323.232752517116
 34
0.0
 50
90.0
100
AcDbRotatedDimension
  0
DIMENSION
  5
56C
330
1F
100
AcDbEntity
  8
1
100
AcDbDimension
  2
*D1114
 10
2093.911702287827
 20
1323.232752517117
 30
0.0
 11
2080.111702287827
 21
1397.639149522949
 31
0.0
 70
    32
  1
機幅(150)
 71
     5
 42
-1.0
 53
90.0
  3
ME10_DIM_11
100
AcDbAlignedDimension
 13
1767.893729975142
 23
1473.232752517116
 33
0.0
 14
1767.893729975142
 24
1323.232752517116
 34
0.0
 50
90.0
100
AcDbRotatedDimension
  0
DIMENSION
  5
57A
330
1F
100
AcDbEntity
  8
1
100
AcDbDimension
  2
*D1215
 10
2047.20668620207
 20
1357.232752517117
 30
0.0
 11
2033.40668620207
 21
1195.75709255962
 31
0.0
 70
    32
  1
投入側コンベヤ機幅(82)
 71
     5
 42
-1.0
 53
90.0
  3
ME10_DIM_12
100
AcDbAlignedDimension
 13
1943.911702287825
 23
1439.232752517116
 33
0.0
 14
1943.911702287826
 24
1357.232752517116
 34
0.0
 50
90.0
100
AcDbRotatedDimension
  0
DIMENSION
  5
589
330
1F
100
AcDbEntity
  8
1
100
AcDbDimension
  2
*D1316
 10
1986.21739561765
 20
1373.232752517117
 30
0.0
 11
1972.41739561765
 21
1254.72796477975
 31
0.0
 70
    32
  1
呼び幅(50)
 71
     5
 42
-1.0
 53
90.0
  3
ME10_DIM_13
100
AcDbAlignedDimension
 13
1797.89333259151
 23
1423.232752517117
 33
0.0
 14
1797.89333259151
 24
1373.232752517117
 34
0.0
 50
90.0
100
AcDbRotatedDimension
  0
DIMENSION
  5
596
330
1F
100
AcDbEntity
  8
1
100
AcDbDimension
  2
*D1417
 10
1708.471508496072
 20
1050.03409864572
 30
0.0
 11
1573.99856887299
 21
988.330978185242
 31
0.0
 70
    32
  1
呼び機長(300)
 71
     5
 42
-1.0
 53
30.00000000000163
  3
ME10_DIM_14
100
AcDbAlignedDimension
 13
1494.034441266961
 23
821.4499941126135
 33
0.0
 14
1753.592062402286
 24
971.8830068145101
 34
0.0
 50
30.00000000000163
100
AcDbRotatedDimension
  0
DIMENSION
  5
5A3
330
1F
100
AcDbEntity
  8
1
100
AcDbDimension
  2
*D1518
 10
498.9645390422566
 20
1048.844972515923
 30
0.0
 11
403.6017863486096
 21
1009.722129007212
 31
0.0
 70
    32
  1
呼び機長(200)
 71
     5
 42
-1.0
 53
30.00000000000186
  3
ME10_DIM_15
100
AcDbAlignedDimension
 13
370.4434900249985
 23
871.449959255878
 33
0.0
 14
543.3985707818797
 24
971.8829719577734
 34
0.0
 50
30.00000000000186
100
AcDbRotatedDimension
  0
DIMENSION
  5
5B2
330
1F
100
AcDbEntity
  8
1
100
AcDbDimension
  2
*D1619
 10
717.2665149856601
 20
1030.796428728341
 30
0.0
 11
681.0574983066258
 21
1110.071518577087
 31
0.0
 70
    37
  1
30^N0^O±15^N0^O
 71
     5
 42
-1.0
  3
ME10_DIM_16
100
AcDb3PointAngularDimension
 13
625.6998409711014
 23
996.8830068145162
 33
0.0
 14
613.3698952859573
 24
1009.971533919001
 34
0.0
 15
590.69990134475
 25
996.8830068145171
 35
0.0
  0
DIMENSION
  5
5C1
330
1F
100
AcDbEntity
  8
1
100
AcDbDimension
  2
*D1720
 10
1932.124191600764
 20
1032.046209508087
 30
0.0
 11
1881.916268151885
 21
1122.714060729058
 31
0.0
 70
    37
  1
30^N0^O±15^N0^O
 71
     5
 42
-1.0
  3
ME10_DIM_17
100
AcDb3PointAngularDimension
 13
1835.893332591509
 23
996.8830068145162
 33
0.0
 14
1825.415513568439
 24
1011.04089460266
 34
0.0
 15
1800.893332591518
 25
996.8830068145171
 35
0.0
  0
ENDSEC
  0
SECTION
  2
OBJECTS
  0
DICTIONARY
  5
C
330
0
100
AcDbDictionary
281
     1
  3
ACAD_GROUP
350
D
  3
ACAD_LAYOUT
350
1A
  3
ACAD_MLINESTYLE
350
17
  3
ACAD_PLOTSETTINGS
350
19
  3
ACAD_PLOTSTYLENAME
350
E
  0
DICTIONARY
  5
D
102
{ACAD_REACTORS
330
C
102
}
330
C
100
AcDbDictionary
281
     1
  0
DICTIONARY
  5
1A
102
{ACAD_REACTORS
330
C
102
}
330
C
100
AcDbDictionary
281
     1
  3
Layout1
350
1E
  3
Layout2
350
26
  3
Model
350
22
  0
DICTIONARY
  5
17
102
{ACAD_REACTORS
330
C
102
}
330
C
100
AcDbDictionary
281
     1
  3
Standard
350
18
  0
DICTIONARY
  5
19
102
{ACAD_REACTORS
330
C
102
}
330
C
100
AcDbDictionary
281
     1
  0
ACDBDICTIONARYWDFLT
  5
E
102
{ACAD_REACTORS
330
C
102
}
330
C
100
AcDbDictionary
281
     1
  3
Normal
350
F
100
AcDbDictionaryWithDefault
340
F
  0
LAYOUT
  5
1E
102
{ACAD_REACTORS
330
1A
102
}
330
1A
100
AcDbPlotSettings
  1

  2

  4

  6

 40
0.0
 41
0.0
 42
0.0
 43
0.0
 44
0.0
 45
0.0
 46
0.0
 47
0.0
 48
0.0
 49
0.0
140
0.0
141
0.0
142
1.0
143
1.0
 70
   688
 72
     0
 73
     0
 74
     5
  7

 75
    16
147
1.0
148
0.0
149
0.0
100
AcDbLayout
  1
Layout1
 70
     1
 71
     1
 10
0.0
 20
0.0
 11
0.0
 21
0.0
 12
0.0
 22
0.0
 32
0.0
 14
0.0
 24
0.0
 34
0.0
 15
0.0
 25
0.0
 35
0.0
146
0.0
 13
0.0
 23
0.0
 33
0.0
 16
1.0
 26
0.0
 36
0.0
 17
0.0
 27
1.0
 37
0.0
 76
     0
330
1B
  0
LAYOUT
  5
26
102
{ACAD_REACTORS
330
1A
102
}
330
1A
100
AcDbPlotSettings
  1

  2

  4

  6

 40
0.0
 41
0.0
 42
0.0
 43
0.0
 44
0.0
 45
0.0
 46
0.0
 47
0.0
 48
0.0
 49
0.0
140
0.0
141
0.0
142
1.0
143
1.0
 70
   688
 72
     0
 73
     0
 74
     5
  7

 75
    16
147
1.0
148
0.0
149
0.0
100
AcDbLayout
  1
Layout2
 70
     1
 71
     2
 10
0.0
 20
0.0
 11
0.0
 21
0.0
 12
0.0
 22
0.0
 32
0.0
 14
0.0
 24
0.0
 34
0.0
 15
0.0
 25
0.0
 35
0.0
146
0.0
 13
0.0
 23
0.0
 33
0.0
 16
1.0
 26
0.0
 36
0.0
 17
0.0
 27
1.0
 37
0.0
 76
     0
330
23
  0
LAYOUT
  5
22
102
{ACAD_REACTORS
330
1A
102
}
330
1A
100
AcDbPlotSettings
  1

  2

  4

  6

 40
0.0
 41
0.0
 42
0.0
 43
0.0
 44
0.0
 45
0.0
 46
0.0
 47
0.0
 48
0.0
 49
0.0
140
0.0
141
0.0
142
1.0
143
1.0
 70
  1712
 72
     0
 73
     0
 74
     0
  7

 75
     0
147
1.0
148
0.0
149
0.0
100
AcDbLayout
  1
Model
 70
     1
 71
     0
 10
0.0
 20
0.0
 11
0.0
 21
0.0
 12
0.0
 22
0.0
 32
0.0
 14
0.0
 24
-13.53691992573414
 34
0.0
 15
2363.999999999999
 25
1608.0
 35
0.0
146
0.0
 13
0.0
 23
0.0
 33
0.0
 16
1.0
 26
0.0
 36
0.0
 17
0.0
 27
1.0
 37
0.0
 76
     0
330
1F
  0
MLINESTYLE
  5
18
102
{ACAD_REACTORS
330
17
102
}
330
17
100
AcDbMlineStyle
  2
Standard
 70
     0
  3

 62
   256
 51
90.0
 52
90.0
 71
     2
 49
0.5
 62
   256
  6
BYLAYER
 49
-0.5
 62
   256
  6
BYLAYER
  0
ACDBPLACEHOLDER
  5
F
102
{ACAD_REACTORS
330
E
102
}
330
E
  0
ENDSEC
  0
EOF
