  0
SECTION
  2
HEADER
  9
$ACADVER
  1
AC1015
  9
$ACADMAINTVER
 70
     6
  9
$DWGCODEPAGE
  3
DOS932
  9
$INSBASE
 10
0.0
 20
0.0
 30
0.0
  9
$EXTMIN
 10
0.0
 20
-13.53691992573413
 30
0.0
  9
$EXTMAX
 10
2363.999999999999
 20
1608.0
 30
0.0
  9
$LIMMIN
 10
0.0
 20
0.0
  9
$LIMMAX
 10
12.0
 20
9.0
  9
$ORTHOMODE
 70
     0
  9
$REGENMODE
 70
     1
  9
$FILLMODE
 70
     1
  9
$QTEXTMODE
 70
     0
  9
$MIRRTEXT
 70
     1
  9
$LTSCALE
 40
1.0
  9
$ATTMODE
 70
     1
  9
$TEXTSIZE
 40
0.2
  9
$TRACEWID
 40
0.05
  9
$TEXTSTYLE
  7
Standard
  9
$CLAYER
  8
0
  9
$CELTYPE
  6
ByLayer
  9
$CECOLOR
 62
   256
  9
$CELTSCALE
 40
1.0
  9
$DISPSILH
 70
     0
  9
$DIMSCALE
 40
1.0
  9
$DIMASZ
 40
0.18
  9
$DIMEXO
 40
0.0625
  9
$DIMDLI
 40
0.38
  9
$DIMRND
 40
0.0
  9
$DIMDLE
 40
0.0
  9
$DIMEXE
 40
0.18
  9
$DIMTP
 40
0.0
  9
$DIMTM
 40
0.0
  9
$DIMTXT
 40
0.18
  9
$DIMCEN
 40
0.09
  9
$DIMTSZ
 40
0.0
  9
$DIMTOL
 70
     0
  9
$DIMLIM
 70
     0
  9
$DIMTIH
 70
     1
  9
$DIMTOH
 70
     1
  9
$DIMSE1
 70
     0
  9
$DIMSE2
 70
     0
  9
$DIMTAD
 70
     0
  9
$DIMZIN
 70
     0
  9
$DIMBLK
  1

  9
$DIMASO
 70
     1
  9
$DIMSHO
 70
     1
  9
$DIMPOST
  1

  9
$DIMAPOST
  1

  9
$DIMALT
 70
     0
  9
$DIMALTD
 70
     2
  9
$DIMALTF
 40
25.4
  9
$DIMLFAC
 40
1.0
  9
$DIMTOFL
 70
     0
  9
$DIMTVP
 40
0.0
  9
$DIMTIX
 70
     0
  9
$DIMSOXD
 70
     0
  9
$DIMSAH
 70
     0
  9
$DIMBLK1
  1

  9
$DIMBLK2
  1

  9
$DIMSTYLE
  2
Standard
  9
$DIMCLRD
 70
     0
  9
$DIMCLRE
 70
     0
  9
$DIMCLRT
 70
     0
  9
$DIMTFAC
 40
1.0
  9
$DIMGAP
 40
0.09
  9
$DIMJUST
 70
     0
  9
$DIMSD1
 70
     0
  9
$DIMSD2
 70
     0
  9
$DIMTOLJ
 70
     1
  9
$DIMTZIN
 70
     0
  9
$DIMALTZ
 70
     0
  9
$DIMALTTZ
 70
     0
  9
$DIMUPT
 70
     0
  9
$DIMDEC
 70
     4
  9
$DIMTDEC
 70
     4
  9
$DIMALTU
 70
     2
  9
$DIMALTTD
 70
     2
  9
$DIMTXSTY
  7
Standard
  9
$DIMAUNIT
 70
     0
  9
$DIMADEC
 70
     0
  9
$DIMALTRND
 40
0.0
  9
$DIMAZIN
 70
     0
  9
$DIMDSEP
 70
    46
  9
$DIMATFIT
 70
     3
  9
$DIMFRAC
 70
     0
  9
$DIMLDRBLK
  1

  9
$DIMLUNIT
 70
     2
  9
$DIMLWD
 70
    -2
  9
$DIMLWE
 70
    -2
  9
$DIMTMOVE
 70
     0
  9
$LUNITS
 70
     2
  9
$LUPREC
 70
     4
  9
$SKETCHINC
 40
0.1
  9
$FILLETRAD
 40
0.5
  9
$AUNITS
 70
     0
  9
$AUPREC
 70
     0
  9
$MENU
  1
.
  9
$ELEVATION
 40
0.0
  9
$PELEVATION
 40
0.0
  9
$THICKNESS
 40
0.0
  9
$LIMCHECK
 70
     0
  9
$CHAMFERA
 40
0.5
  9
$CHAMFERB
 40
0.5
  9
$CHAMFERC
 40
1.0
  9
$CHAMFERD
 40
0.0
  9
$SKPOLY
 70
     0
  9
$TDCREATE
 40
2456365.482813194
  9
$TDUCREATE
 40
2456365.107813194
  9
$TDUPDATE
 40
2456365.482813206
  9
$TDUUPDATE
 40
2456365.107813206
  9
$TDINDWG
 40
0.0000000116
  9
$TDUSRTIMER
 40
0.0000000116
  9
$USRTIMER
 70
     1
  9
$ANGBASE
 50
0.0
  9
$ANGDIR
 70
     0
  9
$PDMODE
 70
     0
  9
$PDSIZE
 40
0.0
  9
$PLINEWID
 40
0.0
  9
$SPLFRAME
 70
     0
  9
$SPLINETYPE
 70
     6
  9
$SPLINESEGS
 70
     8
  9
$HANDSEED
  5
5A1
  9
$SURFTAB1
 70
     6
  9
$SURFTAB2
 70
     6
  9
$SURFTYPE
 70
     6
  9
$SURFU
 70
     6
  9
$SURFV
 70
     6
  9
$UCSBASE
  2

  9
$UCSNAME
  2

  9
$UCSORG
 10
0.0
 20
0.0
 30
0.0
  9
$UCSXDIR
 10
1.0
 20
0.0
 30
0.0
  9
$UCSYDIR
 10
0.0
 20
1.0
 30
0.0
  9
$UCSORTHOREF
  2

  9
$UCSORTHOVIEW
 70
     0
  9
$UCSORGTOP
 10
0.0
 20
0.0
 30
0.0
  9
$UCSORGBOTTOM
 10
0.0
 20
0.0
 30
0.0
  9
$UCSORGLEFT
 10
0.0
 20
0.0
 30
0.0
  9
$UCSORGRIGHT
 10
0.0
 20
0.0
 30
0.0
  9
$UCSORGFRONT
 10
0.0
 20
0.0
 30
0.0
  9
$UCSORGBACK
 10
0.0
 20
0.0
 30
0.0
  9
$PUCSBASE
  2

  9
$PUCSNAME
  2

  9
$PUCSORG
 10
0.0
 20
0.0
 30
0.0
  9
$PUCSXDIR
 10
1.0
 20
0.0
 30
0.0
  9
$PUCSYDIR
 10
0.0
 20
1.0
 30
0.0
  9
$PUCSORTHOREF
  2

  9
$PUCSORTHOVIEW
 70
     0
  9
$PUCSORGTOP
 10
0.0
 20
0.0
 30
0.0
  9
$PUCSORGBOTTOM
 10
0.0
 20
0.0
 30
0.0
  9
$PUCSORGLEFT
 10
0.0
 20
0.0
 30
0.0
  9
$PUCSORGRIGHT
 10
0.0
 20
0.0
 30
0.0
  9
$PUCSORGFRONT
 10
0.0
 20
0.0
 30
0.0
  9
$PUCSORGBACK
 10
0.0
 20
0.0
 30
0.0
  9
$USERI1
 70
     0
  9
$USERI2
 70
     0
  9
$USERI3
 70
     0
  9
$USERI4
 70
     0
  9
$USERI5
 70
     0
  9
$USERR1
 40
14.0
  9
$USERR2
 40
0.0
  9
$USERR3
 40
0.0
  9
$USERR4
 40
0.0
  9
$USERR5
 40
0.0
  9
$WORLDVIEW
 70
     1
  9
$SHADEDGE
 70
     3
  9
$SHADEDIF
 70
    70
  9
$TILEMODE
 70
     1
  9
$MAXACTVP
 70
    64
  9
$PINSBASE
 10
0.0
 20
0.0
 30
0.0
  9
$PLIMCHECK
 70
     0
  9
$PEXTMIN
 10
1.00000000000000E+20
 20
1.00000000000000E+20
 30
1.00000000000000E+20
  9
$PEXTMAX
 10
-1.00000000000000E+20
 20
-1.00000000000000E+20
 30
-1.00000000000000E+20
  9
$PLIMMIN
 10
0.0
 20
0.0
  9
$PLIMMAX
 10
12.0
 20
9.0
  9
$UNITMODE
 70
     0
  9
$VISRETAIN
 70
     1
  9
$PLINEGEN
 70
     0
  9
$PSLTSCALE
 70
     1
  9
$TREEDEPTH
 70
  3020
  9
$CMLSTYLE
  2
Standard
  9
$CMLJUST
 70
     0
  9
$CMLSCALE
 40
1.0
  9
$PROXYGRAPHICS
 70
     1
  9
$MEASUREMENT
 70
     1
  9
$CELWEIGHT
370
    -1
  9
$ENDCAPS
280
     0
  9
$JOINSTYLE
280
     0
  9
$LWDISPLAY
290
     0
  9
$INSUNITS
 70
     1
  9
$HYPERLINKBASE
  1

  9
$STYLESHEET
  1

  9
$XEDIT
290
     1
  9
$CEPSNTYPE
380
     0
  9
$PSTYLEMODE
290
     1
  9
$FINGERPRINTGUID
  2
{EB23B983-DC29-4841-828B-C65C74022383}
  9
$VERSIONGUID
  2
{FAEB1C32-E019-11D5-929B-00C0DF256EC4}
  9
$EXTNAMES
290
     1
  9
$PSVPSCALE
 40
0.0
  9
$OLESTARTUP
290
     0
  0
ENDSEC
  0
SECTION
  2
CLASSES
  0
CLASS
  1
ACDBDICTIONARYWDFLT
  2
AcDbDictionaryWithDefault
  3
ObjectDBX Classes
 90
        0
280
     0
281
     0
  0
CLASS
  1

  2
exOdDbCircle
  3

 90
        0
280
     0
281
     1
  0
CLASS
  1

  2
exOdDbSpline
  3

 90
        0
280
     0
281
     1
  0
CLASS
  1

  2
exOdDbPolyline
  3

 90
        0
280
     0
281
     1
  0
CLASS
  1
ACDBPLACEHOLDER
  2
AcDbPlaceHolder
  3
ObjectDBX Classes
 90
        0
280
     0
281
     0
  0
CLASS
  1
LAYOUT
  2
AcDbLayout
  3
ObjectDBX Classes
 90
        0
280
     0
281
     0
  0
ENDSEC
  0
SECTION
  2
TABLES
  0
TABLE
  2
VPORT
  5
8
330
0
100
AcDbSymbolTable
 70
     1
  0
VPORT
  5
29
330
8
100
AcDbSymbolTableRecord
100
AcDbViewportTableRecord
  2
*Active
 70
     0
 10
0.0
 20
0.0
 11
1.0
 21
1.0
 12
1182.0
 22
797.231540037133
 13
0.0
 23
0.0
 14
0.5
 24
0.5
 15
0.5
 25
0.5
 16
0.0
 26
0.0
 36
1.0
 17
0.0
 27
0.0
 37
0.0
 40
1783.690611918308
 41
1.60267857142857
 42
50.0
 43
0.0
 44
0.0
 50
0.0
 51
0.0
 71
     0
 72
   100
 73
     1
 74
     3
 75
     0
 76
     0
 77
     0
 78
     0
281
     0
 65
     1
110
0.0
120
0.0
130
0.0
111
1.0
121
0.0
131
0.0
112
0.0
122
1.0
132
0.0
 79
     0
146
0.0
  0
ENDTAB
  0
TABLE
  2
LTYPE
  5
5
330
0
100
AcDbSymbolTable
 70
     8
  0
LTYPE
  5
14
330
5
100
AcDbSymbolTableRecord
100
AcDbLinetypeTableRecord
  2
ByBlock
 70
     0
  3

 72
    65
 73
     0
 40
0.0
  0
LTYPE
  5
15
330
5
100
AcDbSymbolTableRecord
100
AcDbLinetypeTableRecord
  2
ByLayer
 70
     0
  3

 72
    65
 73
     0
 40
0.0
  0
LTYPE
  5
16
330
5
100
AcDbSymbolTableRecord
100
AcDbLinetypeTableRecord
  2
Continuous
 70
     0
  3
Solid line
 72
    65
 73
     0
 40
0.0
  0
LTYPE
  5
2A
330
5
100
AcDbSymbolTableRecord
100
AcDbLinetypeTableRecord
  2
DASHED
 70
     0
  3
Dashed
 72
    65
 73
     2
 40
15.0
 49
7.0
 74
     0
 49
-8.0
 74
     0
  0
LTYPE
  5
2B
330
5
100
AcDbSymbolTableRecord
100
AcDbLinetypeTableRecord
  2
DOTTED
 70
     0
  3
Dotted
 72
    65
 73
     2
 40
1.0
 49
0.0
 74
     0
 49
-1.0
 74
     0
  0
LTYPE
  5
2C
330
5
100
AcDbSymbolTableRecord
100
AcDbLinetypeTableRecord
  2
DOT_CENTER
 70
     0
  3
Dot_Center
 72
    65
 73
     4
 40
14.0
 49
12.0
 74
     0
 49
-1.0
 74
     0
 49
0.0
 74
     0
 49
-1.0
 74
     0
  0
LTYPE
  5
2D
330
5
100
AcDbSymbolTableRecord
100
AcDbLinetypeTableRecord
  2
LONG_DASHED
 70
     0
  3
Long_Dashed
 72
    65
 73
     2
 40
15.0
 49
10.0
 74
     0
 49
-5.0
 74
     0
  0
LTYPE
  5
2E
330
5
100
AcDbSymbolTableRecord
100
AcDbLinetypeTableRecord
  2
DASH_CENTER
 70
     0
  3
Dash_Center
 72
    65
 73
     4
 40
14.0
 49
11.0
 74
     0
 49
-1.0
 74
     0
 49
1.0
 74
     0
 49
-1.0
 74
     0
  0
LTYPE
  5
2F
330
5
100
AcDbSymbolTableRecord
100
AcDbLinetypeTableRecord
  2
PHANTOM
 70
     0
  3
Phantom
 72
    65
 73
     6
 40
13.0
 49
10.0
 74
     0
 49
-1.0
 74
     0
 49
0.0
 74
     0
 49
-1.0
 74
     0
 49
0.0
 74
     0
 49
-1.0
 74
     0
  0
LTYPE
  5
30
330
5
100
AcDbSymbolTableRecord
100
AcDbLinetypeTableRecord
  2
CENTER_DASH_DASH
 70
     0
  3
Center_Dash_Dash
 72
    65
 73
     6
 40
14.0
 49
9.0
 74
     0
 49
-1.0
 74
     0
 49
1.0
 74
     0
 49
-1.0
 74
     0
 49
1.0
 74
     0
 49
-1.0
 74
     0
  0
ENDTAB
  0
TABLE
  2
LAYER
  5
2
330
0
100
AcDbSymbolTable
 70
     2
  0
LAYER
  5
10
330
2
100
AcDbSymbolTableRecord
100
AcDbLayerTableRecord
  2
0
 70
     0
 62
     7
  6
Continuous
370
    -3
390
F
  0
LAYER
  5
31
330
2
100
AcDbSymbolTableRecord
100
AcDbLayerTableRecord
  2
1
 70
     0
 62
     7
  6
Continuous
370
    -3
390
F
  0
ENDTAB
  0
TABLE
  2
STYLE
  5
3
330
0
100
AcDbSymbolTable
 70
     6
  0
STYLE
  5
11
330
3
100
AcDbSymbolTableRecord
100
AcDbTextStyleTableRecord
  2
Standard
 70
     0
 40
0.0
 41
1.0
 50
0.0
 71
     0
 42
0.2
  3
txt
  4

  0
STYLE
  5
4A
330
3
100
AcDbSymbolTableRecord
100
AcDbTextStyleTableRecord
  2
CONVERTER_1
 70
     0
 40
0.0
 41
0.9
 50
0.0
 71
     0
 42
0.2
  3
txt.shx
  4

  0
STYLE
  5
4C
330
3
100
AcDbSymbolTableRecord
100
AcDbTextStyleTableRecord
  2
CONVERTER_2
 70
     0
 40
0.0
 41
0.89
 50
0.0
 71
     0
 42
0.2
  3
MSMINCHO.TTC
  4

1001
ACAD
1000
MS Mincho
1071
    32785
  0
STYLE
  5
4E
330
3
100
AcDbSymbolTableRecord
100
AcDbTextStyleTableRecord
  2
CONVERTER_3
 70
     0
 40
0.0
 41
1.068
 50
0.0
 71
     0
 42
0.2
  3
msmincho.ttc
  4

1001
ACAD
1000
MS Mincho
1071
    32785
  0
STYLE
  5
54
330
3
100
AcDbSymbolTableRecord
100
AcDbTextStyleTableRecord
  2
CONVERTER_4
 70
     0
 40
0.0
 41
0.9025
 50
0.0
 71
     0
 42
0.2
  3
complex.shx
  4

  0
STYLE
  5
58
330
3
100
AcDbSymbolTableRecord
100
AcDbTextStyleTableRecord
  2
CONVERTER_5
 70
     0
 40
0.0
 41
0.801
 50
0.0
 71
     0
 42
0.2
  3
MSMINCHO.TTC
  4

1001
ACAD
1000
MS Mincho
1071
    32785
  0
ENDTAB
  0
TABLE
  2
VIEW
  5
6
330
0
100
AcDbSymbolTable
 70
     0
  0
ENDTAB
  0
TABLE
  2
UCS
  5
7
330
0
100
AcDbSymbolTable
 70
     0
  0
ENDTAB
  0
TABLE
  2
APPID
  5
9
330
0
100
AcDbSymbolTable
 70
     1
  0
APPID
  5
12
330
9
100
AcDbSymbolTableRecord
100
AcDbRegAppTableRecord
  2
ACAD
 70
     0
  0
ENDTAB
  0
TABLE
  2
DIMSTYLE
  5
A
330
0
100
AcDbSymbolTable
 70
    19
100
AcDbDimStyleTable
  0
DIMSTYLE
105
27
330
A
100
AcDbSymbolTableRecord
100
AcDbDimStyleTableRecord
  2
Standard
 70
     0
340
11
  0
DIMSTYLE
105
4B0
102
{ACAD_REACTORS
330
4B1
102
}
330
A
100
AcDbSymbolTableRecord
100
AcDbDimStyleTableRecord
  2
ME10_DIM_0
 70
     0
  3
<>
 41
19.2
 42
6.0
 44
6.0
 73
     0
 74
     0
 77
     1
 78
     8
140
19.2
147
4.2
172
     1
173
     1
176
     2
177
     2
178
     2
271
     2
340
4C
343
4AA
344
4AA
  0
DIMSTYLE
105
4BD
102
{ACAD_REACTORS
330
4BE
102
}
330
A
100
AcDbSymbolTableRecord
100
AcDbDimStyleTableRecord
  2
ME10_DIM_1
 70
     0
  3
<>
 41
19.2
 42
6.0
 44
6.0
 73
     0
 74
     0
 77
     1
 78
     8
140
19.2
147
4.2
172
     1
173
     1
176
     2
177
     2
178
     2
271
     2
340
4C
343
4AA
344
4AA
  0
DIMSTYLE
105
4CA
102
{ACAD_REACTORS
330
4CB
102
}
330
A
100
AcDbSymbolTableRecord
100
AcDbDimStyleTableRecord
  2
ME10_DIM_2
 70
     0
  3
<>
 41
19.2
 42
6.0
 44
6.0
 73
     0
 74
     0
 77
     1
 78
     8
140
19.2
147
4.2
172
     1
173
     1
176
     2
177
     2
178
     2
271
     2
340
4C
343
4AA
344
4AA
  0
DIMSTYLE
105
4D8
102
{ACAD_REACTORS
330
4D9
102
}
330
A
100
AcDbSymbolTableRecord
100
AcDbDimStyleTableRecord
  2
ME10_DIM_3
 70
     0
 41
19.2
 42
6.0
 44
6.0
 73
     0
 74
     0
 77
     1
 78
     8
140
19.2
147
4.2
172
     1
173
     1
176
     2
177
     2
178
     2
271
     2
340
4C
343
4AA
344
4AA
  0
DIMSTYLE
105
4E5
102
{ACAD_REACTORS
330
4E6
102
}
330
A
100
AcDbSymbolTableRecord
100
AcDbDimStyleTableRecord
  2
ME10_DIM_4
 70
     0
  3
<>
 41
19.2
 42
6.0
 44
6.0
 73
     0
 74
     0
 77
     1
 78
     8
140
19.2
147
4.2
172
     1
173
     1
176
     2
177
     2
178
     2
271
     2
340
4C
343
4AA
344
4AA
  0
DIMSTYLE
105
4F3
102
{ACAD_REACTORS
330
4F4
102
}
330
A
100
AcDbSymbolTableRecord
100
AcDbDimStyleTableRecord
  2
ME10_DIM_5
 70
     0
 41
19.2
 42
6.0
 44
6.0
 73
     0
 74
     0
 77
     1
 78
     8
140
19.2
147
4.2
172
     1
173
     1
176
     2
177
     2
178
     2
271
     2
340
4C
343
4AA
344
4AA
  0
DIMSTYLE
105
500
102
{ACAD_REACTORS
330
501
102
}
330
A
100
AcDbSymbolTableRecord
100
AcDbDimStyleTableRecord
  2
ME10_DIM_6
 70
     0
  3
<>
 41
19.2
 42
6.0
 44
6.0
 73
     0
 74
     0
 77
     1
 78
     8
140
19.2
147
4.2
172
     1
173
     1
176
     2
177
     2
178
     2
271
     2
340
4C
343
4AA
344
4AA
  0
DIMSTYLE
105
50D
102
{ACAD_REACTORS
330
50E
102
}
330
A
100
AcDbSymbolTableRecord
100
AcDbDimStyleTableRecord
  2
ME10_DIM_7
 70
     0
  3
<>
 41
19.2
 42
6.0
 44
6.0
 73
     0
 74
     0
 77
     1
 78
     8
140
19.2
147
4.2
172
     1
173
     1
176
     2
177
     2
178
     2
271
     2
340
4C
343
4AA
344
4AA
  0
DIMSTYLE
105
51C
102
{ACAD_REACTORS
330
51D
102
}
330
A
100
AcDbSymbolTableRecord
100
AcDbDimStyleTableRecord
  2
ME10_DIM_8
 70
     0
  3
<>
 41
19.20000000000001
 42
6.0
 44
6.0
 73
     0
 74
     0
 77
     1
 78
     8
140
19.20000000000001
147
4.2
172
     1
173
     1
176
     2
177
     2
178
     2
271
     2
340
4C
343
4AA
344
4AA
  0
DIMSTYLE
105
52B
102
{ACAD_REACTORS
330
52C
102
}
330
A
100
AcDbSymbolTableRecord
100
AcDbDimStyleTableRecord
  2
ME10_DIM_9
 70
     0
  3
内径{\Fgdt;n}<>
 41
19.20000000000001
 42
6.0
 44
6.0
 73
     0
 74
     0
 77
     1
 78
     8
140
19.20000000000001
147
4.2
172
     1
173
     1
176
     2
177
     2
178
     2
271
     2
340
4C
343
4AA
344
4AA
  0
DIMSTYLE
105
53A
102
{ACAD_REACTORS
330
53B
102
}
330
A
100
AcDbSymbolTableRecord
100
AcDbDimStyleTableRecord
  2
ME10_DIM_10
 70
     0
  3
外径{\Fgdt;n}<>
 41
19.20000000000001
 42
6.0
 44
6.0
 73
     0
 74
     0
 77
     1
 78
     8
140
19.20000000000001
147
4.2
172
     1
173
     1
176
     2
177
     2
178
     2
271
     2
340
4C
343
4AA
344
4AA
  0
DIMSTYLE
105
549
102
{ACAD_REACTORS
330
54A
102
}
330
A
100
AcDbSymbolTableRecord
100
AcDbDimStyleTableRecord
  2
ME10_DIM_11
 70
     0
  3
外径{\Fgdt;n}<>
 41
19.20000000000001
 42
6.0
 44
6.0
 73
     0
 74
     0
 77
     1
 78
     8
140
19.20000000000001
147
4.2
172
     1
173
     1
176
     2
177
     2
178
     2
271
     2
340
4C
343
4AA
344
4AA
  0
DIMSTYLE
105
558
102
{ACAD_REACTORS
330
559
102
}
330
A
100
AcDbSymbolTableRecord
100
AcDbDimStyleTableRecord
  2
ME10_DIM_12
 70
     0
  3
内径{\Fgdt;n}<>
 41
19.20000000000001
 42
6.0
 44
6.0
 73
     0
 74
     0
 77
     1
 78
     8
140
19.20000000000001
147
4.2
172
     1
173
     1
176
     2
177
     2
178
     2
271
     2
340
4C
343
4AA
344
4AA
  0
DIMSTYLE
105
567
102
{ACAD_REACTORS
330
568
102
}
330
A
100
AcDbSymbolTableRecord
100
AcDbDimStyleTableRecord
  2
ME10_DIM_13
 70
     0
  3
<>
 41
19.20000000000001
 42
6.0
 44
6.0
 73
     0
 74
     0
 77
     1
 78
     8
140
19.20000000000001
147
4.2
172
     1
173
     1
176
     2
177
     2
178
     2
271
     2
340
4C
343
4AA
344
4AA
  0
DIMSTYLE
105
574
102
{ACAD_REACTORS
330
575
102
}
330
A
100
AcDbSymbolTableRecord
100
AcDbDimStyleTableRecord
  2
ME10_DIM_14
 70
     0
 41
19.2
 42
6.0
 44
6.0
 73
     0
 74
     0
 77
     1
 78
     8
140
19.2
147
4.2
172
     1
173
     1
176
     2
177
     2
178
     2
271
     2
340
4A
343
4AA
344
4AA
  0
DIMSTYLE
105
581
102
{ACAD_REACTORS
330
582
102
}
330
A
100
AcDbSymbolTableRecord
100
AcDbDimStyleTableRecord
  2
ME10_DIM_15
 70
     0
 41
19.2
 42
6.0
 44
6.0
 73
     0
 74
     0
 77
     1
 78
     8
140
19.2
147
4.2
172
     1
173
     1
176
     2
177
     2
178
     2
271
     2
340
4A
343
4AA
344
4AA
  0
DIMSTYLE
105
590
102
{ACAD_REACTORS
330
591
102
}
330
A
100
AcDbSymbolTableRecord
100
AcDbDimStyleTableRecord
  2
ME10_DIM_16
 70
     0
 41
19.2
 42
6.0
 44
6.0
 73
     0
 74
     0
 77
     1
 78
     8
140
19.2
147
4.2
172
     1
173
     1
176
     2
177
     2
178
     2
271
     2
340
4C
343
4AA
344
4AA
  0
DIMSTYLE
105
59F
102
{ACAD_REACTORS
330
5A0
102
}
330
A
100
AcDbSymbolTableRecord
100
AcDbDimStyleTableRecord
  2
ME10_DIM_17
 70
     0
 41
19.2
 42
6.0
 44
6.0
 73
     0
 74
     0
 77
     1
 78
     8
140
19.2
147
4.2
172
     1
173
     1
176
     2
177
     2
178
     2
271
     2
340
4C
343
4AA
344
4AA
  0
ENDTAB
  0
TABLE
  2
BLOCK_RECORD
  5
1
330
0
100
AcDbSymbolTable
 70
    21
  0
BLOCK_RECORD
  5
1F
330
1
100
AcDbSymbolTableRecord
100
AcDbBlockTableRecord
  2
*Model_Space
340
22
  0
BLOCK_RECORD
  5
1B
330
1
100
AcDbSymbolTableRecord
100
AcDbBlockTableRecord
  2
*Paper_Space
340
1E
  0
BLOCK_RECORD
  5
23
330
1
100
AcDbSymbolTableRecord
100
AcDbBlockTableRecord
  2
*Paper_Space0
340
26
  0
BLOCK_RECORD
  5
32
330
1
100
AcDbSymbolTableRecord
100
AcDbBlockTableRecord
  2
Zuwaku-A3-web
340
0
102
{BLKREFS
331
35
102
}
  0
BLOCK_RECORD
  5
49F
330
1
100
AcDbSymbolTableRecord
100
AcDbBlockTableRecord
  2
*D02
340
0
  0
BLOCK_RECORD
  5
4AA
330
1
100
AcDbSymbolTableRecord
100
AcDbBlockTableRecord
  2
_Open30
340
0
  0
BLOCK_RECORD
  5
4B2
330
1
100
AcDbSymbolTableRecord
100
AcDbBlockTableRecord
  2
*D14
340
0
  0
BLOCK_RECORD
  5
4BF
330
1
100
AcDbSymbolTableRecord
100
AcDbBlockTableRecord
  2
*D25
340
0
  0
BLOCK_RECORD
  5
4CC
330
1
100
AcDbSymbolTableRecord
100
AcDbBlockTableRecord
  2
*D36
340
0
  0
BLOCK_RECORD
  5
4DA
330
1
100
AcDbSymbolTableRecord
100
AcDbBlockTableRecord
  2
*D47
340
0
  0
BLOCK_RECORD
  5
4E7
330
1
100
AcDbSymbolTableRecord
100
AcDbBlockTableRecord
  2
*D58
340
0
  0
BLOCK_RECORD
  5
4F5
330
1
100
AcDbSymbolTableRecord
100
AcDbBlockTableRecord
  2
*D69
340
0
  0
BLOCK_RECORD
  5
502
330
1
100
AcDbSymbolTableRecord
100
AcDbBlockTableRecord
  2
*D710
340
0
  0
BLOCK_RECORD
  5
50F
330
1
100
AcDbSymbolTableRecord
100
AcDbBlockTableRecord
  2
*D811
340
0
  0
BLOCK_RECORD
  5
51E
330
1
100
AcDbSymbolTableRecord
100
AcDbBlockTableRecord
  2
*D912
340
0
  0
BLOCK_RECORD
  5
52D
330
1
100
AcDbSymbolTableRecord
100
AcDbBlockTableRecord
  2
*D1013
340
0
  0
BLOCK_RECORD
  5
53C
330
1
100
AcDbSymbolTableRecord
100
AcDbBlockTableRecord
  2
*D1114
340
0
  0
BLOCK_RECORD
  5
54B
330
1
100
AcDbSymbolTableRecord
100
AcDbBlockTableRecord
  2
*D1215
340
0
  0
BLOCK_RECORD
  5
55A
330
1
100
AcDbSymbolTableRecord
100
AcDbBlockTableRecord
  2
*D1316
340
0
  0
BLOCK_RECORD
  5
569
330
1
100
AcDbSymbolTableRecord
100
AcDbBlockTableRecord
  2
*D1417
340
0
  0
BLOCK_RECORD
  5
576
330
1
100
AcDbSymbolTableRecord
100
AcDbBlockTableRecord
  2
*D1518
340
0
  0
BLOCK_RECORD
  5
583
330
1
100
AcDbSymbolTableRecord
100
AcDbBlockTableRecord
  2
*D1619
340
0
  0
BLOCK_RECORD
  5
592
330
1
100
AcDbSymbolTableRecord
100
AcDbBlockTableRecord
  2
*D1720
340
0
  0
ENDTAB
  0
ENDSEC
  0
SECTION
  2
BLOCKS
  0
BLOCK
  5
20
330
1F
100
AcDbEntity
  8
0
100
AcDbBlockBegin
  2
*Model_Space
 70
     0
 71
     0
 10
0.0
 20
0.0
 30
0.0
  3
*Model_Space
  1

  0
ENDBLK
  5
21
330
1F
100
AcDbEntity
  8
0
100
AcDbBlockEnd
  0
BLOCK
  5
1C
330
1B
100
AcDbEntity
 67
     1
  8
0
100
AcDbBlockBegin
  2
*Paper_Space
 70
     0
 71
     0
 10
0.0
 20
0.0
 30
0.0
  3
*Paper_Space
  1

  0
ENDBLK
  5
1D
330
1B
100
AcDbEntity
 67
     1
  8
0
100
AcDbBlockEnd
  0
BLOCK
  5
24
330
23
100
AcDbEntity
  8
0
100
AcDbBlockBegin
  2
*Paper_Space0
 70
     0
 71
     0
 10
0.0
 20
0.0
 30
0.0
  3
*Paper_Space0
  1

  0
ENDBLK
  5
25
330
23
100
AcDbEntity
  8
0
100
AcDbBlockEnd
  0
BLOCK
  5
33
330
32
100
AcDbEntity
  8
0
100
AcDbBlockBegin
  2
Zuwaku-A3-web
 70
     0
 71
     0
 10
196.9999999999998
 20
134.0
 30
0.0
  3
Zuwaku-A3-web
  1

  0
LINE
  5
36
330
32
100
AcDbEntity
  8
1
  6
Continuous
 62
     4
100
AcDbLine
 10
295.0000000000001
 20
20.0
 30
0.0
 11
295.0000000000001
 21
0.0
 31
0.0
  0
LINE
  5
37
330
32
100
AcDbEntity
  8
1
  6
Continuous
 62
     4
100
AcDbLine
 10
394.0
 20
20.0
 30
0.0
 11
0.0
 21
20.0
 31
0.0
  0
LINE
  5
38
330
32
100
AcDbEntity
  8
1
  6
Continuous
 62
     4
100
AcDbLine
 10
173.7445771572093
 20
2.13397584248199
 30
0.0
 11
179.4766254722454
 21
7.866024157518
 31
0.0
  0
LINE
  5
39
330
32
100
AcDbEntity
  8
1
  6
Continuous
 62
     7
100
AcDbLine
 10
0.0
 20
268.0
 30
0.0
 11
0.0
 21
0.0
 31
0.0
  0
LINE
  5
3A
330
32
100
AcDbEntity
  8
1
  6
Continuous
 62
     4
100
AcDbLine
 10
66.0
 20
20.0
 30
0.0
 11
66.0
 21
0.0
 31
0.0
  0
LINE
  5
3B
330
32
100
AcDbEntity
  8
1
  6
Continuous
 62
     4
100
AcDbLine
 10
170.5
 20
10.0
 30
0.0
 11
170.5
 21
0.0
 31
0.0
  0
LINE
  5
3C
330
32
100
AcDbEntity
  8
1
  6
Continuous
 62
     4
100
AcDbLine
 10
227.0
 20
20.0
 30
0.0
 11
227.0
 21
0.0
 31
0.0
  0
LINE
  5
3D
330
32
100
AcDbEntity
  8
1
  6
Continuous
 62
     4
100
AcDbLine
 10
283.0000000000001
 20
20.0
 30
0.0
 11
283.0000000000001
 21
0.0
 31
0.0
  0
LINE
  5
3E
330
32
100
AcDbEntity
  8
1
  6
Continuous
 62
     4
100
AcDbLine
 10
162.5
 20
0.0
 30
0.0
 11
162.5
 21
20.0
 31
0.0
  0
LINE
  5
3F
330
32
100
AcDbEntity
  8
1
  6
Continuous
 62
     4
100
AcDbLine
 10
202.0
 20
0.0
 30
0.0
 11
202.0
 21
20.0
 31
0.0
  0
LINE
  5
40
330
32
100
AcDbEntity
  8
1
  6
Continuous
 62
     7
100
AcDbLine
 10
394.0
 20
0.0
 30
0.0
 11
393.9999999999996
 21
268.0
 31
0.0
  0
LINE
  5
41
330
32
100
AcDbEntity
  8
1
  6
Continuous
 62
     7
100
AcDbLine
 10
393.9999999999996
 20
268.0
 30
0.0
 11
0.0
 21
268.0
 31
0.0
  0
LINE
  5
42
330
32
100
AcDbEntity
  8
1
  6
Continuous
 62
     4
100
AcDbLine
 10
0.0
 20
10.0
 30
0.0
 11
394.0
 21
10.0
 31
0.0
  0
LINE
  5
43
330
32
100
AcDbEntity
  8
1
  6
Continuous
 62
     4
100
AcDbLine
 10
12.0
 20
20.0
 30
0.0
 11
12.0
 21
0.0
 31
0.0
  0
LINE
  5
44
330
32
100
AcDbEntity
  8
1
  6
Continuous
 62
     3
100
AcDbLine
 10
6.0
 20
19.0
 30
0.0
 11
2.5
 21
12.5
 31
0.0
  0
LINE
  5
45
330
32
100
AcDbEntity
  8
1
  6
Continuous
 62
     3
100
AcDbLine
 10
2.5
 20
12.5
 30
0.0
 11
9.5
 21
12.5
 31
0.0
  0
LINE
  5
46
330
32
100
AcDbEntity
  8
1
  6
Continuous
 62
     3
100
AcDbLine
 10
9.5
 20
12.5
 30
0.0
 11
6.0
 21
19.0
 31
0.0
  0
LINE
  5
47
330
32
100
AcDbEntity
  8
1
  6
Continuous
 62
     4
100
AcDbLine
 10
162.5
 20
15.0
 30
0.0
 11
202.0
 21
15.0
 31
0.0
  0
LINE
  5
48
330
32
100
AcDbEntity
  8
1
  6
Continuous
 62
     7
100
AcDbLine
 10
0.0
 20
0.0
 30
0.0
 11
394.0
 21
0.0
 31
0.0
  0
LINE
  5
49
330
32
100
AcDbEntity
  8
1
  6
Continuous
 62
     4
100
AcDbLine
 10
189.4945771572093
 20
2.13397584248199
 30
0.0
 11
195.2266254722454
 21
7.866024157518
 31
0.0
  0
MTEXT
  5
4B
330
32
100
AcDbEntity
  8
1
 62
     4
100
AcDbMText
 10
393.4565543923691
 20
-0.25615332095569
 30
0.0
 40
2.0
 41
0.0
 71
     3
 72
     1
  1
A3
  7
CONVERTER_1
 73
     1
 44
1.32052821128451
  0
MTEXT
  5
4D
330
32
100
AcDbEntity
  8
1
 62
     2
100
AcDbMText
 10
289.0000000000001
 20
15.0
 30
0.0
 40
4.0
 41
0.0
 71
     5
 72
     1
  1
図名
  7
CONVERTER_2
 73
     1
 44
1.32052821128451
  0
MTEXT
  5
4F
330
32
100
AcDbEntity
  8
1
 62
     2
100
AcDbMText
 10
289.0000000000001
 20
7.25
 30
0.0
 40
3.5
 41
0.0
 71
     5
 72
     1
  1
図面
  7
CONVERTER_3
 73
     1
 44
0.78031212484994
  0
MTEXT
  5
50
330
32
100
AcDbEntity
  8
1
 62
     2
100
AcDbMText
 10
182.25
 20
17.5
 30
0.0
 40
3.5
 41
0.0
 71
     5
 72
     1
  1
年　　月　　日
  7
CONVERTER_2
 73
     1
 44
0.78031212484994
  0
MTEXT
  5
51
330
32
100
AcDbEntity
  8
1
 62
     2
100
AcDbMText
 10
166.5
 20
7.25
 30
0.0
 40
3.5
 41
0.0
 71
     5
 72
     1
  1
尺
  7
CONVERTER_3
 73
     1
 44
0.78031212484994
  0
MTEXT
  5
52
330
32
100
AcDbEntity
  8
1
 62
     2
100
AcDbMText
 10
39.0
 20
5.0
 30
0.0
 40
3.5
 41
0.0
 71
     5
 72
     1
  1
改　 訂　 記　 事
  7
CONVERTER_2
 73
     1
 44
1.32052821128451
  0
MTEXT
  5
53
330
32
100
AcDbEntity
  8
1
 62
     2
100
AcDbMText
 10
6.0
 20
7.25
 30
0.0
 40
3.5
 41
0.0
 71
     5
 72
     1
  1
改訂
  7
CONVERTER_2
 73
     1
 44
0.78031212484994
  0
MTEXT
  5
55
330
32
100
AcDbEntity
  8
1
 62
     7
100
AcDbMText
 10
114.25
 20
5.0
 30
0.0
 40
4.0
 41
0.0
 71
     5
 72
     1
  1
MARUYASU KIKAI CO.,LTD.
  7
CONVERTER_4
 73
     1
 44
1.32052821128451
  0
MTEXT
  5
56
330
32
100
AcDbEntity
  8
1
 62
     2
100
AcDbMText
 10
189.75
 20
6.5
 30
0.0
 40
4.0
 41
0.0
 71
     5
 72
     1
  1
1
  7
CONVERTER_1
 73
     1
 44
1.32052821128451
  0
MTEXT
  5
57
330
32
100
AcDbEntity
  8
1
 62
     2
100
AcDbMText
 10
214.5
 20
5.0
 30
0.0
 40
4.0
 41
0.0
 71
     5
 72
     1
  1
機　種
  7
CONVERTER_2
 73
     1
 44
1.32052821128451
  0
MTEXT
  5
59
330
32
100
AcDbEntity
  8
1
 62
     2
100
AcDbMText
 10
214.5
 20
15.0
 30
0.0
 40
4.0
 41
0.0
 71
     5
 72
     1
  1
シリーズ名
  7
CONVERTER_5
 73
     1
 44
1.32052821128451
  0
MTEXT
  5
5A
330
32
100
AcDbEntity
  8
1
 62
     7
100
AcDbMText
 10
114.25
 20
15.0
 30
0.0
 40
5.0
 41
0.0
 71
     5
 72
     1
  1
技術情報サービス
  7
CONVERTER_2
 73
     1
 44
1.20048019207683
  0
MTEXT
  5
5B
330
32
100
AcDbEntity
  8
1
 62
     2
100
AcDbMText
 10
5.67807803017169
 20
2.75
 30
0.0
 40
3.5
 41
0.0
 71
     5
 72
     1
  1
番号
  7
CONVERTER_2
 73
     1
 44
0.78031212484994
  0
MTEXT
  5
5C
330
32
100
AcDbEntity
  8
1
 62
     2
100
AcDbMText
 10
166.5
 20
2.75
 30
0.0
 40
3.5
 41
0.0
 71
     5
 72
     1
  1
度
  7
CONVERTER_3
 73
     1
 44
0.78031212484994
  0
MTEXT
  5
5D
330
32
100
AcDbEntity
  8
1
 62
     2
100
AcDbMText
 10
289.0000000000001
 20
2.75
 30
0.0
 40
3.5
 41
0.0
 71
     5
 72
     1
  1
番号
  7
CONVERTER_3
 73
     1
 44
0.78031212484994
  0
MTEXT
  5
5E
330
32
100
AcDbEntity
  8
1
 62
     2
100
AcDbMText
 10
173.183432867907
 20
6.25
 30
0.0
 40
4.0
 41
0.0
 71
     5
 72
     1
  1
1
  7
CONVERTER_1
 73
     1
 44
0.60024009603842
  0
MTEXT
  5
5F
330
32
100
AcDbEntity
  8
1
 62
     2
100
AcDbMText
 10
180.9766254722454
 20
3.75
 30
0.0
 40
4.0
 41
0.0
 71
     5
 72
     1
  1
6
  7
CONVERTER_1
 73
     1
 44
0.60024009603842
  0
ENDBLK
  5
34
330
32
100
AcDbEntity
  8
0
100
AcDbBlockEnd
  0
BLOCK
  5
4A8
330
49F
100
AcDbEntity
  8
0
100
AcDbBlockBegin
  2
*D02
 70
     1
 71
     0
 10
0.0
 20
0.0
 30
0.0
  3
*D02
  1

  0
LINE
  5
4A0
330
49F
100
AcDbEntity
  8
1
  6
Continuous
 62
     2
100
AcDbLine
 10
505.2120876253632
 20
1041.055127829887
 30
0.0
 11
332.0070068684814
 21
941.0551278298827
 31
0.0
  0
LINE
  5
4A1
330
49F
100
AcDbEntity
  8
1
  6
Continuous
 62
     2
100
AcDbLine
 10
542.1486303140115
 20
977.0791592372168
 30
0.0
 11
502.212087625363
 21
1046.251280252594
 31
0.0
  0
LINE
  5
4A2
330
49F
100
AcDbEntity
  8
1
  6
Continuous
 62
     2
100
AcDbLine
 10
368.9435495571292
 20
877.0791592372132
 30
0.0
 11
329.0070068684812
 21
946.2512802525893
 31
0.0
  0
LINE
  5
4A3
330
49F
100
AcDbEntity
  8
1
 62
     2
100
AcDbLine
 10
505.2120876253632
 20
1041.055127829887
 30
0.0
 11
491.1567121200408
 21
1026.999752324565
 31
0.0
  0
LINE
  5
4A4
330
49F
100
AcDbEntity
  8
1
 62
     2
100
AcDbLine
 10
505.2120876253632
 20
1041.055127829887
 30
0.0
 11
486.0120876253632
 21
1035.91050333521
 31
0.0
  0
LINE
  5
4A5
330
49F
100
AcDbEntity
  8
1
 62
     2
100
AcDbLine
 10
332.0070068684814
 20
941.0551278298827
 30
0.0
 11
346.0623823738037
 21
955.1105033352053
 31
0.0
  0
LINE
  5
4A6
330
49F
100
AcDbEntity
  8
1
 62
     2
100
AcDbLine
 10
332.0070068684814
 20
941.0551278298827
 30
0.0
 11
351.2070068684813
 21
946.1997523245605
 31
0.0
  0
MTEXT
  5
4A7
330
49F
100
AcDbEntity
  8
1
 62
     2
100
AcDbMText
 10
362.1767635729757
 20
963.3233872458025
 30
0.0
 40
19.2
 41
0.0
 71
     7
 72
     1
  1
\C2;\C2;呼び機長(200)
  7
CONVERTER_2
 11
0.8660254037844212
 21
0.5000000000000303
 31
0.0
 73
     1
 44
0.60024009603842
  0
ENDBLK
  5
4A9
330
49F
100
AcDbEntity
  8
0
100
AcDbBlockEnd
  0
BLOCK
  5
4AB
330
4AA
100
AcDbEntity
  8
0
100
AcDbBlockBegin
  2
_Open30
 70
     0
 71
     0
 10
0.0
 20
0.0
 30
0.0
  3
_Open30
  1

  0
LINE
  5
4AD
330
4AA
100
AcDbEntity
  8
0
  6
ByBlock
 62
     0
370
    -2
100
AcDbLine
 10
-1.0
 20
0.267949
 30
0.0
 11
0.0
 21
0.0
 31
0.0
  0
LINE
  5
4AE
330
4AA
100
AcDbEntity
  8
0
  6
ByBlock
 62
     0
370
    -2
100
AcDbLine
 10
0.0
 20
0.0
 30
0.0
 11
-1.0
 21
-0.267949
 31
0.0
  0
LINE
  5
4AF
330
4AA
100
AcDbEntity
  8
0
  6
ByBlock
 62
     0
370
    -2
100
AcDbLine
 10
0.0
 20
0.0
 30
0.0
 11
-1.0
 21
0.0
 31
0.0
  0
ENDBLK
  5
4AC
330
4AA
100
AcDbEntity
  8
0
100
AcDbBlockEnd
  0
BLOCK
  5
4BB
330
4B2
100
AcDbEntity
  8
0
100
AcDbBlockBegin
  2
*D14
 70
     1
 71
     0
 10
0.0
 20
0.0
 30
0.0
  3
*D14
  1

  0
LINE
  5
4B3
330
4B2
100
AcDbEntity
  8
1
  6
Continuous
 62
     2
100
AcDbLine
 10
1698.221306873828
 20
1041.03926063843
 30
0.0
 11
1438.413685738504
 21
891.0392606384233
 31
0.0
  0
LINE
  5
4B4
330
4B2
100
AcDbEntity
  8
1
  6
Continuous
 62
     2
100
AcDbLine
 10
1735.148664413578
 20
977.079201190325
 30
0.0
 11
1695.221306873828
 21
1046.235413061136
 31
0.0
  0
LINE
  5
4B5
330
4B2
100
AcDbEntity
  8
1
  6
Continuous
 62
     2
100
AcDbLine
 10
1475.341043278252
 20
827.0792011903224
 30
0.0
 11
1435.413685738504
 21
896.2354130611299
 31
0.0
  0
LINE
  5
4B6
330
4B2
100
AcDbEntity
  8
1
 62
     2
100
AcDbLine
 10
1698.221306873828
 20
1041.03926063843
 30
0.0
 11
1684.165931368505
 21
1026.983885133108
 31
0.0
  0
LINE
  5
4B7
330
4B2
100
AcDbEntity
  8
1
 62
     2
100
AcDbLine
 10
1698.221306873828
 20
1041.03926063843
 30
0.0
 11
1679.021306873828
 21
1035.894636143753
 31
0.0
  0
LINE
  5
4B8
330
4B2
100
AcDbEntity
  8
1
 62
     2
100
AcDbLine
 10
1438.413685738504
 20
891.0392606384233
 30
0.0
 11
1452.469061243827
 21
905.0946361437451
 31
0.0
  0
LINE
  5
4B9
330
4B2
100
AcDbEntity
  8
1
 62
     2
100
AcDbLine
 10
1438.413685738504
 20
891.0392606384233
 30
0.0
 11
1457.613685738504
 21
896.1838851331
 31
0.0
  0
MTEXT
  5
4BA
330
4B2
100
AcDbEntity
  8
1
 62
     2
100
AcDbMText
 10
1520.952616233608
 20
943.5428766395917
 30
0.0
 40
19.2
 41
0.0
 71
     7
 72
     1
  1
\C2;\C2;呼び機長(300)
  7
CONVERTER_2
 11
0.8660254037844232
 21
0.5000000000000269
 31
0.0
 73
     1
 44
0.60024009603842
  0
ENDBLK
  5
4BC
330
4B2
100
AcDbEntity
  8
0
100
AcDbBlockEnd
  0
BLOCK
  5
4C8
330
4BF
100
AcDbEntity
  8
0
100
AcDbBlockBegin
  2
*D25
 70
     1
 71
     0
 10
0.0
 20
0.0
 30
0.0
  3
*D25
  1

  0
LINE
  5
4C0
330
4BF
100
AcDbEntity
  8
1
  6
Continuous
 62
     2
100
AcDbLine
 10
2075.967883795308
 20
1323.232752517117
 30
0.0
 11
2075.967883795308
 21
1473.232752517117
 31
0.0
  0
LINE
  5
4C1
330
4BF
100
AcDbEntity
  8
1
  6
Continuous
 62
     2
100
AcDbLine
 10
1758.199934602858
 20
1323.232752517117
 30
0.0
 11
2081.967883795308
 21
1323.232752517117
 31
0.0
  0
LINE
  5
4C2
330
4BF
100
AcDbEntity
  8
1
  6
Continuous
 62
     2
100
AcDbLine
 10
1758.199934602858
 20
1473.232752517117
 30
0.0
 11
2081.967883795308
 21
1473.232752517117
 31
0.0
  0
LINE
  5
4C3
330
4BF
100
AcDbEntity
  8
1
 62
     2
100
AcDbLine
 10
2075.967883795308
 20
1323.232752517117
 30
0.0
 11
2070.823259300631
 21
1342.432752517117
 31
0.0
  0
LINE
  5
4C4
330
4BF
100
AcDbEntity
  8
1
 62
     2
100
AcDbLine
 10
2075.967883795308
 20
1323.232752517117
 30
0.0
 11
2081.112508289986
 21
1342.432752517117
 31
0.0
  0
LINE
  5
4C5
330
4BF
100
AcDbEntity
  8
1
 62
     2
100
AcDbLine
 10
2075.967883795308
 20
1473.232752517117
 30
0.0
 11
2081.112508289986
 21
1454.032752517117
 31
0.0
  0
LINE
  5
4C6
330
4BF
100
AcDbEntity
  8
1
 62
     2
100
AcDbLine
 10
2075.967883795308
 20
1473.232752517117
 30
0.0
 11
2070.823259300631
 21
1454.032752517117
 31
0.0
  0
MTEXT
  5
4C7
330
4BF
100
AcDbEntity
  8
1
 62
     2
100
AcDbMText
 10
2071.767883795308
 20
1346.953327449409
 30
0.0
 40
19.2
 41
0.0
 71
     7
 72
     1
  1
\C2;\C2;機幅(150)
  7
CONVERTER_2
 11
0.0
 21
1.0
 31
0.0
 73
     1
 44
0.60024009603842
  0
ENDBLK
  5
4C9
330
4BF
100
AcDbEntity
  8
0
100
AcDbBlockEnd
  0
BLOCK
  5
4D6
330
4CC
100
AcDbEntity
  8
0
100
AcDbBlockBegin
  2
*D36
 70
     1
 71
     0
 10
0.0
 20
0.0
 30
0.0
  3
*D36
  1

  0
LINE
  5
4CD
330
4CC
100
AcDbEntity
  8
1
  6
Continuous
 62
     2
100
AcDbLine
 10
2025.967883795308
 20
1357.232752517117
 30
0.0
 11
2025.967883795308
 21
1439.232752517117
 31
0.0
  0
LINE
  5
4CE
330
4CC
100
AcDbEntity
  8
1
  6
Continuous
 62
     2
100
AcDbLine
 10
2025.967883795308
 20
1085.18448022444
 30
0.0
 11
2025.967883795308
 21
1357.232752517117
 31
0.0
  0
LINE
  5
4CF
330
4CC
100
AcDbEntity
  8
1
  6
Continuous
 62
     2
100
AcDbLine
 10
1931.967883795308
 20
1357.232752517117
 30
0.0
 11
2031.967883795308
 21
1357.232752517117
 31
0.0
  0
LINE
  5
4D0
330
4CC
100
AcDbEntity
  8
1
  6
Continuous
 62
     2
100
AcDbLine
 10
1931.967883795308
 20
1439.232752517117
 30
0.0
 11
2031.967883795308
 21
1439.232752517117
 31
0.0
  0
LINE
  5
4D1
330
4CC
100
AcDbEntity
  8
1
 62
     2
100
AcDbLine
 10
2025.967883795308
 20
1357.232752517117
 30
0.0
 11
2020.82325930063
 21
1376.432752517117
 31
0.0
  0
LINE
  5
4D2
330
4CC
100
AcDbEntity
  8
1
 62
     2
100
AcDbLine
 10
2025.967883795308
 20
1357.232752517117
 30
0.0
 11
2031.112508289986
 21
1376.432752517117
 31
0.0
  0
LINE
  5
4D3
330
4CC
100
AcDbEntity
  8
1
 62
     2
100
AcDbLine
 10
2025.967883795308
 20
1439.232752517117
 30
0.0
 11
2031.112508289986
 21
1420.032752517117
 31
0.0
  0
LINE
  5
4D4
330
4CC
100
AcDbEntity
  8
1
 62
     2
100
AcDbLine
 10
2025.967883795308
 20
1439.232752517117
 30
0.0
 11
2020.82325930063
 21
1420.032752517117
 31
0.0
  0
MTEXT
  5
4D5
330
4CC
100
AcDbEntity
  8
1
 62
     2
100
AcDbMText
 10
2021.767883795308
 20
1085.18448022444
 30
0.0
 40
19.2
 41
0.0
 71
     7
 72
     1
  1
投入側コンベヤ機幅(82)
  7
CONVERTER_2
 11
0.0
 21
1.0
 31
0.0
 73
     1
 44
0.60024009603842
  0
ENDBLK
  5
4D7
330
4CC
100
AcDbEntity
  8
0
100
AcDbBlockEnd
  0
BLOCK
  5
4E3
330
4DA
100
AcDbEntity
  8
0
100
AcDbBlockBegin
  2
*D47
 70
     1
 71
     0
 10
0.0
 20
0.0
 30
0.0
  3
*D47
  1

  0
LINE
  5
4DB
330
4DA
100
AcDbEntity
  8
1
  6
Continuous
 62
     2
100
AcDbLine
 10
882.9678496957433
 20
1323.232752517117
 30
0.0
 11
882.9678496957433
 21
1473.232752517117
 31
0.0
  0
LINE
  5
4DC
330
4DA
100
AcDbEntity
  8
1
  6
Continuous
 62
     2
100
AcDbLine
 10
565.1999005032925
 20
1323.232752517117
 30
0.0
 11
888.9678496957433
 21
1323.232752517117
 31
0.0
  0
LINE
  5
4DD
330
4DA
100
AcDbEntity
  8
1
  6
Continuous
 62
     2
100
AcDbLine
 10
565.1999005032925
 20
1473.232752517117
 30
0.0
 11
888.9678496957433
 21
1473.232752517117
 31
0.0
  0
LINE
  5
4DE
330
4DA
100
AcDbEntity
  8
1
 62
     2
100
AcDbLine
 10
882.9678496957433
 20
1323.232752517117
 30
0.0
 11
877.8232252010657
 21
1342.432752517117
 31
0.0
  0
LINE
  5
4DF
330
4DA
100
AcDbEntity
  8
1
 62
     2
100
AcDbLine
 10
882.9678496957433
 20
1323.232752517117
 30
0.0
 11
888.1124741904209
 21
1342.432752517117
 31
0.0
  0
LINE
  5
4E0
330
4DA
100
AcDbEntity
  8
1
 62
     2
100
AcDbLine
 10
882.9678496957433
 20
1473.232752517117
 30
0.0
 11
888.1124741904209
 21
1454.032752517117
 31
0.0
  0
LINE
  5
4E1
330
4DA
100
AcDbEntity
  8
1
 62
     2
100
AcDbLine
 10
882.9678496957433
 20
1473.232752517117
 30
0.0
 11
877.8232252010657
 21
1454.032752517117
 31
0.0
  0
MTEXT
  5
4E2
330
4DA
100
AcDbEntity
  8
1
 62
     2
100
AcDbMText
 10
878.7678496957434
 20
1347.12469803616
 30
0.0
 40
19.2
 41
0.0
 71
     7
 72
     1
  1
\C2;\C2;機幅(150)
  7
CONVERTER_2
 11
0.0
 21
1.0
 31
0.0
 73
     1
 44
0.60024009603842
  0
ENDBLK
  5
4E4
330
4DA
100
AcDbEntity
  8
0
100
AcDbBlockEnd
  0
BLOCK
  5
4F1
330
4E7
100
AcDbEntity
  8
0
100
AcDbBlockBegin
  2
*D58
 70
     1
 71
     0
 10
0.0
 20
0.0
 30
0.0
  3
*D58
  1

  0
LINE
  5
4E8
330
4E7
100
AcDbEntity
  8
1
  6
Continuous
 62
     2
100
AcDbLine
 10
839.972516409
 20
1357.232752517116
 30
0.0
 11
839.972516409
 21
1439.232752517116
 31
0.0
  0
LINE
  5
4E9
330
4E7
100
AcDbEntity
  8
1
  6
Continuous
 62
     2
100
AcDbLine
 10
839.972516409
 20
1089.22929385256
 30
0.0
 11
839.972516409
 21
1357.232752517116
 31
0.0
  0
LINE
  5
4EA
330
4E7
100
AcDbEntity
  8
1
  6
Continuous
 62
     2
100
AcDbLine
 10
738.9678496957436
 20
1357.232752517116
 30
0.0
 11
845.972516409
 21
1357.232752517116
 31
0.0
  0
LINE
  5
4EB
330
4E7
100
AcDbEntity
  8
1
  6
Continuous
 62
     2
100
AcDbLine
 10
738.9678496957436
 20
1439.232752517116
 30
0.0
 11
845.972516409
 21
1439.232752517116
 31
0.0
  0
LINE
  5
4EC
330
4E7
100
AcDbEntity
  8
1
 62
     2
100
AcDbLine
 10
839.972516409
 20
1357.232752517116
 30
0.0
 11
834.8278919143224
 21
1376.432752517116
 31
0.0
  0
LINE
  5
4ED
330
4E7
100
AcDbEntity
  8
1
 62
     2
100
AcDbLine
 10
839.972516409
 20
1357.232752517116
 30
0.0
 11
845.1171409036776
 21
1376.432752517116
 31
0.0
  0
LINE
  5
4EE
330
4E7
100
AcDbEntity
  8
1
 62
     2
100
AcDbLine
 10
839.972516409
 20
1439.232752517116
 30
0.0
 11
845.1171409036776
 21
1420.032752517116
 31
0.0
  0
LINE
  5
4EF
330
4E7
100
AcDbEntity
  8
1
 62
     2
100
AcDbLine
 10
839.972516409
 20
1439.232752517116
 30
0.0
 11
834.8278919143224
 21
1420.032752517116
 31
0.0
  0
MTEXT
  5
4F0
330
4E7
100
AcDbEntity
  8
1
 62
     2
100
AcDbMText
 10
835.7725164090001
 20
1089.22929385256
 30
0.0
 40
19.2
 41
0.0
 71
     7
 72
     1
  1
投入側コンベヤ機幅(82)
  7
CONVERTER_2
 11
0.0
 21
1.0
 31
0.0
 73
     1
 44
0.60024009603842
  0
ENDBLK
  5
4F2
330
4E7
100
AcDbEntity
  8
0
100
AcDbBlockEnd
  0
BLOCK
  5
4FE
330
4F5
100
AcDbEntity
  8
0
100
AcDbBlockBegin
  2
*D69
 70
     1
 71
     0
 10
0.0
 20
0.0
 30
0.0
  3
*D69
  1

  0
LINE
  5
4F6
330
4F5
100
AcDbEntity
  8
1
  6
Continuous
 62
     2
100
AcDbLine
 10
1705.490917860323
 20
1128.447925058548
 30
0.0
 11
1397.185874113077
 21
950.4479250585363
 31
0.0
  0
LINE
  5
4F7
330
4F5
100
AcDbEntity
  8
1
  6
Continuous
 62
     2
100
AcDbLine
 10
1778.449934602798
 20
1002.079201190326
 30
0.0
 11
1702.490917860322
 21
1133.644077481254
 31
0.0
  0
LINE
  5
4F8
330
4F5
100
AcDbEntity
  8
1
  6
Continuous
 62
     2
100
AcDbLine
 10
1457.144890855544
 20
846.5958616887165
 30
0.0
 11
1394.185874113076
 21
955.6440774812429
 31
0.0
  0
LINE
  5
4F9
330
4F5
100
AcDbEntity
  8
1
 62
     2
100
AcDbLine
 10
1705.490917860323
 20
1128.447925058548
 30
0.0
 11
1691.435542355001
 21
1114.392549553224
 31
0.0
  0
LINE
  5
4FA
330
4F5
100
AcDbEntity
  8
1
 62
     2
100
AcDbLine
 10
1705.490917860323
 20
1128.447925058548
 30
0.0
 11
1686.290917860323
 21
1123.303300563869
 31
0.0
  0
LINE
  5
4FB
330
4F5
100
AcDbEntity
  8
1
 62
     2
100
AcDbLine
 10
1397.185874113077
 20
950.4479250585363
 30
0.0
 11
1411.241249618398
 21
964.5033005638596
 31
0.0
  0
LINE
  5
4FC
330
4F5
100
AcDbEntity
  8
1
 62
     2
100
AcDbLine
 10
1397.185874113077
 20
950.4479250585363
 30
0.0
 11
1416.385874113076
 21
955.5925495532151
 31
0.0
  0
MTEXT
  5
4FD
330
4F5
100
AcDbEntity
  8
1
 62
     2
100
AcDbMText
 10
1501.099006350829
 20
1018.617479740072
 30
0.0
 40
19.2
 41
0.0
 71
     7
 72
     1
  1
\C2;\C2;実機長(356)
  7
CONVERTER_2
 11
0.8660254037844152
 21
0.5000000000000408
 31
0.0
 73
     1
 44
0.60024009603842
  0
ENDBLK
  5
4FF
330
4F5
100
AcDbEntity
  8
0
100
AcDbBlockEnd
  0
BLOCK
  5
50B
330
502
100
AcDbEntity
  8
0
100
AcDbBlockBegin
  2
*D710
 70
     1
 71
     0
 10
0.0
 20
0.0
 30
0.0
  3
*D710
  1

  0
LINE
  5
503
330
502
100
AcDbEntity
  8
1
  6
Continuous
 62
     2
100
AcDbLine
 10
514.1621498738294
 20
1125.553165284602
 30
0.0
 11
292.4596465050474
 21
997.5531652845809
 31
0.0
  0
LINE
  5
504
330
502
100
AcDbEntity
  8
1
  6
Continuous
 62
     2
100
AcDbLine
 10
585.4499005032312
 20
1002.079159237217
 30
0.0
 11
511.1621498738287
 21
1130.749317707308
 31
0.0
  0
LINE
  5
505
330
502
100
AcDbEntity
  8
1
  6
Continuous
 62
     2
100
AcDbLine
 10
350.747397134422
 20
896.5958197356077
 30
0.0
 11
289.4596465050472
 21
1002.749317707287
 31
0.0
  0
LINE
  5
506
330
502
100
AcDbEntity
  8
1
 62
     2
100
AcDbLine
 10
514.1621498738294
 20
1125.553165284602
 30
0.0
 11
500.1067743685099
 21
1111.497789779277
 31
0.0
  0
LINE
  5
507
330
502
100
AcDbEntity
  8
1
 62
     2
100
AcDbLine
 10
514.1621498738294
 20
1125.553165284602
 30
0.0
 11
494.9621498738305
 21
1120.408540789921
 31
0.0
  0
LINE
  5
508
330
502
100
AcDbEntity
  8
1
 62
     2
100
AcDbLine
 10
292.4596465050474
 20
997.5531652845809
 30
0.0
 11
306.5150220103679
 21
1011.608540789905
 31
0.0
  0
LINE
  5
509
330
502
100
AcDbEntity
  8
1
 62
     2
100
AcDbLine
 10
292.4596465050474
 20
997.5531652845809
 30
0.0
 11
311.6596465050467
 21
1002.697789779261
 31
0.0
  0
MTEXT
  5
50A
330
502
100
AcDbEntity
  8
1
 62
     2
100
AcDbMText
 10
344.1220045237525
 20
1035.555721405386
 30
0.0
 40
19.2
 41
0.0
 71
     7
 72
     1
  1
\C2;\C2;実機長(256)
  7
CONVERTER_2
 11
0.8660254037843695
 21
0.5000000000001198
 31
0.0
 73
     1
 44
0.60024009603842
  0
ENDBLK
  5
50C
330
502
100
AcDbEntity
  8
0
100
AcDbBlockEnd
  0
BLOCK
  5
51A
330
50F
100
AcDbEntity
  8
0
100
AcDbBlockBegin
  2
*D811
 70
     1
 71
     0
 10
0.0
 20
0.0
 30
0.0
  3
*D811
  1

  0
LINE
  5
510
330
50F
100
AcDbEntity
  8
1
  6
Continuous
 62
     2
100
AcDbLine
 10
1977.47119856887
 20
1418.232752517117
 30
0.0
 11
1977.47119856887
 21
1456.632752517117
 31
0.0
  0
LINE
  5
511
330
50F
100
AcDbEntity
  8
1
  6
Continuous
 62
     2
100
AcDbLine
 10
1977.47119856887
 20
1378.232752517117
 30
0.0
 11
1977.47119856887
 21
1418.232752517117
 31
0.0
  0
LINE
  5
512
330
50F
100
AcDbEntity
  8
1
  6
Continuous
 62
     2
100
AcDbLine
 10
1977.47119856887
 20
1200.11264916057
 30
0.0
 11
1977.47119856887
 21
1378.232752517117
 31
0.0
  0
LINE
  5
513
330
50F
100
AcDbEntity
  8
1
  6
Continuous
 62
     2
100
AcDbLine
 10
1788.1999346028
 20
1378.232752517117
 30
0.0
 11
1983.47119856887
 21
1378.232752517117
 31
0.0
  0
LINE
  5
514
330
50F
100
AcDbEntity
  8
1
  6
Continuous
 62
     2
100
AcDbLine
 10
1788.1999346028
 20
1418.232752517117
 30
0.0
 11
1983.47119856887
 21
1418.232752517117
 31
0.0
  0
LINE
  5
515
330
50F
100
AcDbEntity
  8
1
 62
     2
100
AcDbLine
 10
1977.47119856887
 20
1378.232752517117
 30
0.0
 11
1982.615823063548
 21
1359.032752517117
 31
0.0
  0
LINE
  5
516
330
50F
100
AcDbEntity
  8
1
 62
     2
100
AcDbLine
 10
1977.47119856887
 20
1378.232752517117
 30
0.0
 11
1972.326574074192
 21
1359.032752517117
 31
0.0
  0
LINE
  5
517
330
50F
100
AcDbEntity
  8
1
 62
     2
100
AcDbLine
 10
1977.47119856887
 20
1418.232752517117
 30
0.0
 11
1972.326574074192
 21
1437.432752517117
 31
0.0
  0
LINE
  5
518
330
50F
100
AcDbEntity
  8
1
 62
     2
100
AcDbLine
 10
1977.47119856887
 20
1418.232752517117
 30
0.0
 11
1982.615823063548
 21
1437.432752517117
 31
0.0
  0
MTEXT
  5
519
330
50F
100
AcDbEntity
  8
1
 62
     2
100
AcDbMText
 10
1973.27119856887
 20
1200.11264916057
 30
0.0
 40
19.20000000000001
 41
0.0
 71
     7
 72
     1
  1
\C2;\C2;呼び幅(40)
  7
CONVERTER_2
 11
0.0
 21
1.0
 31
0.0
 73
     1
 44
0.60024009603842
  0
ENDBLK
  5
51B
330
50F
100
AcDbEntity
  8
0
100
AcDbBlockEnd
  0
BLOCK
  5
529
330
51E
100
AcDbEntity
  8
0
100
AcDbBlockBegin
  2
*D912
 70
     1
 71
     0
 10
0.0
 20
0.0
 30
0.0
  3
*D912
  1

  0
LINE
  5
51F
330
51E
100
AcDbEntity
  8
1
  6
Continuous
 62
     2
100
AcDbLine
 10
1382.566828032424
 20
1420.232752517118
 30
0.0
 11
1382.566828032424
 21
1458.632752517118
 31
0.0
  0
LINE
  5
520
330
51E
100
AcDbEntity
  8
1
  6
Continuous
 62
     2
100
AcDbLine
 10
1382.566828032424
 20
1376.232752517118
 30
0.0
 11
1382.566828032424
 21
1420.232752517118
 31
0.0
  0
LINE
  5
521
330
51E
100
AcDbEntity
  8
1
  6
Continuous
 62
     2
100
AcDbLine
 10
1382.566828032424
 20
1249.72245498843
 30
0.0
 11
1382.566828032424
 21
1376.232752517118
 31
0.0
  0
LINE
  5
522
330
51E
100
AcDbEntity
  8
1
  6
Continuous
 62
     2
100
AcDbLine
 10
1429.1999346028
 20
1376.232752517118
 30
0.0
 11
1376.566828032424
 21
1376.232752517118
 31
0.0
  0
LINE
  5
523
330
51E
100
AcDbEntity
  8
1
  6
Continuous
 62
     2
100
AcDbLine
 10
1429.1999346028
 20
1420.232752517118
 30
0.0
 11
1376.566828032424
 21
1420.232752517118
 31
0.0
  0
LINE
  5
524
330
51E
100
AcDbEntity
  8
1
 62
     2
100
AcDbLine
 10
1382.566828032424
 20
1376.232752517118
 30
0.0
 11
1387.711452527102
 21
1357.032752517118
 31
0.0
  0
LINE
  5
525
330
51E
100
AcDbEntity
  8
1
 62
     2
100
AcDbLine
 10
1382.566828032424
 20
1376.232752517118
 30
0.0
 11
1377.422203537746
 21
1357.032752517118
 31
0.0
  0
LINE
  5
526
330
51E
100
AcDbEntity
  8
1
 62
     2
100
AcDbLine
 10
1382.566828032424
 20
1420.232752517118
 30
0.0
 11
1377.422203537746
 21
1439.432752517118
 31
0.0
  0
LINE
  5
527
330
51E
100
AcDbEntity
  8
1
 62
     2
100
AcDbLine
 10
1382.566828032424
 20
1420.232752517118
 30
0.0
 11
1387.711452527102
 21
1439.432752517118
 31
0.0
  0
MTEXT
  5
528
330
51E
100
AcDbEntity
  8
1
 62
     2
100
AcDbMText
 10
1378.366828032424
 20
1232.44245498843
 30
0.0
 40
19.20000000000001
 41
0.0
 71
     7
 72
     1
  1
\C2;内径{\Fgdt;n}\C2;44
  7
CONVERTER_2
 11
0.0
 21
1.0
 31
0.0
 73
     1
 44
0.60024009603842
  0
ENDBLK
  5
52A
330
51E
100
AcDbEntity
  8
0
100
AcDbBlockEnd
  0
BLOCK
  5
538
330
52D
100
AcDbEntity
  8
0
100
AcDbBlockBegin
  2
*D1013
 70
     1
 71
     0
 10
0.0
 20
0.0
 30
0.0
  3
*D1013
  1

  0
LINE
  5
52E
330
52D
100
AcDbEntity
  8
1
  6
Continuous
 62
     2
100
AcDbLine
 10
1333.331812935155
 20
1423.232752517117
 30
0.0
 11
1333.331812935155
 21
1461.632752517118
 31
0.0
  0
LINE
  5
52F
330
52D
100
AcDbEntity
  8
1
  6
Continuous
 62
     2
100
AcDbLine
 10
1333.331812935155
 20
1373.232752517117
 30
0.0
 11
1333.331812935155
 21
1423.232752517117
 31
0.0
  0
LINE
  5
530
330
52D
100
AcDbEntity
  8
1
  6
Continuous
 62
     2
100
AcDbLine
 10
1333.331812935155
 20
1247.92370082772
 30
0.0
 11
1333.331812935155
 21
1373.232752517117
 31
0.0
  0
LINE
  5
531
330
52D
100
AcDbEntity
  8
1
  6
Continuous
 62
     2
100
AcDbLine
 10
1429.1999346028
 20
1373.232752517117
 30
0.0
 11
1327.331812935155
 21
1373.232752517117
 31
0.0
  0
LINE
  5
532
330
52D
100
AcDbEntity
  8
1
  6
Continuous
 62
     2
100
AcDbLine
 10
1429.1999346028
 20
1423.232752517117
 30
0.0
 11
1327.331812935155
 21
1423.232752517117
 31
0.0
  0
LINE
  5
533
330
52D
100
AcDbEntity
  8
1
 62
     2
100
AcDbLine
 10
1333.331812935155
 20
1373.232752517117
 30
0.0
 11
1338.476437429833
 21
1354.032752517117
 31
0.0
  0
LINE
  5
534
330
52D
100
AcDbEntity
  8
1
 62
     2
100
AcDbLine
 10
1333.331812935155
 20
1373.232752517117
 30
0.0
 11
1328.187188440477
 21
1354.032752517117
 31
0.0
  0
LINE
  5
535
330
52D
100
AcDbEntity
  8
1
 62
     2
100
AcDbLine
 10
1333.331812935155
 20
1423.232752517117
 30
0.0
 11
1328.187188440477
 21
1442.432752517117
 31
0.0
  0
LINE
  5
536
330
52D
100
AcDbEntity
  8
1
 62
     2
100
AcDbLine
 10
1333.331812935155
 20
1423.232752517117
 30
0.0
 11
1338.476437429833
 21
1442.432752517117
 31
0.0
  0
MTEXT
  5
537
330
52D
100
AcDbEntity
  8
1
 62
     2
100
AcDbMText
 10
1329.131812935155
 20
1230.64370082772
 30
0.0
 40
19.20000000000001
 41
0.0
 71
     7
 72
     1
  1
\C2;外径{\Fgdt;n}\C2;50
  7
CONVERTER_2
 11
0.0
 21
1.0
 31
0.0
 73
     1
 44
0.60024009603842
  0
ENDBLK
  5
539
330
52D
100
AcDbEntity
  8
0
100
AcDbBlockEnd
  0
BLOCK
  5
547
330
53C
100
AcDbEntity
  8
0
100
AcDbBlockBegin
  2
*D1114
 70
     1
 71
     0
 10
0.0
 20
0.0
 30
0.0
  3
*D1114
  1

  0
LINE
  5
53D
330
53C
100
AcDbEntity
  8
1
  6
Continuous
 62
     2
100
AcDbLine
 10
243.3227231158872
 20
1423.232752517117
 30
0.0
 11
243.3227231158872
 21
1461.632752517117
 31
0.0
  0
LINE
  5
53E
330
53C
100
AcDbEntity
  8
1
  6
Continuous
 62
     2
100
AcDbLine
 10
243.3227231158872
 20
1373.232752517117
 30
0.0
 11
243.3227231158872
 21
1423.232752517117
 31
0.0
  0
LINE
  5
53F
330
53C
100
AcDbEntity
  8
1
  6
Continuous
 62
     2
100
AcDbLine
 10
243.3227231158872
 20
1246.13574431186
 30
0.0
 11
243.3227231158872
 21
1373.232752517117
 31
0.0
  0
LINE
  5
540
330
53C
100
AcDbEntity
  8
1
  6
Continuous
 62
     2
100
AcDbLine
 10
336.1999005032333
 20
1373.232752517117
 30
0.0
 11
237.3227231158872
 21
1373.232752517117
 31
0.0
  0
LINE
  5
541
330
53C
100
AcDbEntity
  8
1
  6
Continuous
 62
     2
100
AcDbLine
 10
336.1999005032333
 20
1423.232752517117
 30
0.0
 11
237.3227231158872
 21
1423.232752517117
 31
0.0
  0
LINE
  5
542
330
53C
100
AcDbEntity
  8
1
 62
     2
100
AcDbLine
 10
243.3227231158872
 20
1373.232752517117
 30
0.0
 11
248.4673476105648
 21
1354.032752517117
 31
0.0
  0
LINE
  5
543
330
53C
100
AcDbEntity
  8
1
 62
     2
100
AcDbLine
 10
243.3227231158872
 20
1373.232752517117
 30
0.0
 11
238.1780986212097
 21
1354.032752517117
 31
0.0
  0
LINE
  5
544
330
53C
100
AcDbEntity
  8
1
 62
     2
100
AcDbLine
 10
243.3227231158872
 20
1423.232752517117
 30
0.0
 11
238.1780986212097
 21
1442.432752517117
 31
0.0
  0
LINE
  5
545
330
53C
100
AcDbEntity
  8
1
 62
     2
100
AcDbLine
 10
243.3227231158872
 20
1423.232752517117
 30
0.0
 11
248.4673476105648
 21
1442.432752517117
 31
0.0
  0
MTEXT
  5
546
330
53C
100
AcDbEntity
  8
1
 62
     2
100
AcDbMText
 10
239.1227231158873
 20
1228.85574431186
 30
0.0
 40
19.20000000000001
 41
0.0
 71
     7
 72
     1
  1
\C2;外径{\Fgdt;n}\C2;50
  7
CONVERTER_2
 11
0.0
 21
1.0
 31
0.0
 73
     1
 44
0.60024009603842
  0
ENDBLK
  5
548
330
53C
100
AcDbEntity
  8
0
100
AcDbBlockEnd
  0
BLOCK
  5
556
330
54B
100
AcDbEntity
  8
0
100
AcDbBlockBegin
  2
*D1215
 70
     1
 71
     0
 10
0.0
 20
0.0
 30
0.0
  3
*D1215
  1

  0
LINE
  5
54C
330
54B
100
AcDbEntity
  8
1
  6
Continuous
 62
     2
100
AcDbLine
 10
285.1724859485652
 20
1420.232752517117
 30
0.0
 11
285.1724859485652
 21
1458.632752517117
 31
0.0
  0
LINE
  5
54D
330
54B
100
AcDbEntity
  8
1
  6
Continuous
 62
     2
100
AcDbLine
 10
285.1724859485652
 20
1376.232752517117
 30
0.0
 11
285.1724859485652
 21
1420.232752517117
 31
0.0
  0
LINE
  5
54E
330
54B
100
AcDbEntity
  8
1
  6
Continuous
 62
     2
100
AcDbLine
 10
285.1724859485652
 20
1249.067168328049
 30
0.0
 11
285.1724859485652
 21
1376.232752517117
 31
0.0
  0
LINE
  5
54F
330
54B
100
AcDbEntity
  8
1
  6
Continuous
 62
     2
100
AcDbLine
 10
336.1999005032334
 20
1376.232752517117
 30
0.0
 11
279.1724859485652
 21
1376.232752517117
 31
0.0
  0
LINE
  5
550
330
54B
100
AcDbEntity
  8
1
  6
Continuous
 62
     2
100
AcDbLine
 10
336.1999005032334
 20
1420.232752517117
 30
0.0
 11
279.1724859485652
 21
1420.232752517117
 31
0.0
  0
LINE
  5
551
330
54B
100
AcDbEntity
  8
1
 62
     2
100
AcDbLine
 10
285.1724859485652
 20
1376.232752517117
 30
0.0
 11
290.3171104432427
 21
1357.032752517117
 31
0.0
  0
LINE
  5
552
330
54B
100
AcDbEntity
  8
1
 62
     2
100
AcDbLine
 10
285.1724859485652
 20
1376.232752517117
 30
0.0
 11
280.0278614538876
 21
1357.032752517117
 31
0.0
  0
LINE
  5
553
330
54B
100
AcDbEntity
  8
1
 62
     2
100
AcDbLine
 10
285.1724859485652
 20
1420.232752517117
 30
0.0
 11
280.0278614538876
 21
1439.432752517117
 31
0.0
  0
LINE
  5
554
330
54B
100
AcDbEntity
  8
1
 62
     2
100
AcDbLine
 10
285.1724859485652
 20
1420.232752517117
 30
0.0
 11
290.3171104432427
 21
1439.432752517117
 31
0.0
  0
MTEXT
  5
555
330
54B
100
AcDbEntity
  8
1
 62
     2
100
AcDbMText
 10
280.9724859485652
 20
1231.787168328049
 30
0.0
 40
19.20000000000001
 41
0.0
 71
     7
 72
     1
  1
\C2;内径{\Fgdt;n}\C2;44
  7
CONVERTER_2
 11
0.0
 21
1.0
 31
0.0
 73
     1
 44
0.60024009603842
  0
ENDBLK
  5
557
330
54B
100
AcDbEntity
  8
0
100
AcDbBlockEnd
  0
BLOCK
  5
565
330
55A
100
AcDbEntity
  8
0
100
AcDbBlockBegin
  2
*D1316
 70
     1
 71
     0
 10
0.0
 20
0.0
 30
0.0
  3
*D1316
  1

  0
LINE
  5
55B
330
55A
100
AcDbEntity
  8
1
  6
Continuous
 62
     2
100
AcDbLine
 10
784.2644007155629
 20
1418.232752517117
 30
0.0
 11
784.2644007155629
 21
1456.632752517117
 31
0.0
  0
LINE
  5
55C
330
55A
100
AcDbEntity
  8
1
  6
Continuous
 62
     2
100
AcDbLine
 10
784.2644007155629
 20
1378.232752517117
 30
0.0
 11
784.2644007155629
 21
1418.232752517117
 31
0.0
  0
LINE
  5
55D
330
55A
100
AcDbEntity
  8
1
  6
Continuous
 62
     2
100
AcDbLine
 10
784.2644007155629
 20
1204.76452751477
 30
0.0
 11
784.2644007155629
 21
1378.232752517117
 31
0.0
  0
LINE
  5
55E
330
55A
100
AcDbEntity
  8
1
  6
Continuous
 62
     2
100
AcDbLine
 10
595.1999005032335
 20
1378.232752517117
 30
0.0
 11
790.2644007155629
 21
1378.232752517117
 31
0.0
  0
LINE
  5
55F
330
55A
100
AcDbEntity
  8
1
  6
Continuous
 62
     2
100
AcDbLine
 10
595.1999005032335
 20
1418.232752517117
 30
0.0
 11
790.2644007155629
 21
1418.232752517117
 31
0.0
  0
LINE
  5
560
330
55A
100
AcDbEntity
  8
1
 62
     2
100
AcDbLine
 10
784.2644007155629
 20
1378.232752517117
 30
0.0
 11
789.4090252102405
 21
1359.032752517117
 31
0.0
  0
LINE
  5
561
330
55A
100
AcDbEntity
  8
1
 62
     2
100
AcDbLine
 10
784.2644007155629
 20
1378.232752517117
 30
0.0
 11
779.1197762208853
 21
1359.032752517117
 31
0.0
  0
LINE
  5
562
330
55A
100
AcDbEntity
  8
1
 62
     2
100
AcDbLine
 10
784.2644007155629
 20
1418.232752517117
 30
0.0
 11
779.1197762208853
 21
1437.432752517117
 31
0.0
  0
LINE
  5
563
330
55A
100
AcDbEntity
  8
1
 62
     2
100
AcDbLine
 10
784.2644007155629
 20
1418.232752517117
 30
0.0
 11
789.4090252102405
 21
1437.432752517117
 31
0.0
  0
MTEXT
  5
564
330
55A
100
AcDbEntity
  8
1
 62
     2
100
AcDbMText
 10
780.064400715563
 20
1204.76452751477
 30
0.0
 40
19.20000000000001
 41
0.0
 71
     7
 72
     1
  1
\C2;\C2;呼び幅(40)
  7
CONVERTER_2
 11
0.0
 21
1.0
 31
0.0
 73
     1
 44
0.60024009603842
  0
ENDBLK
  5
566
330
55A
100
AcDbEntity
  8
0
100
AcDbBlockEnd
  0
BLOCK
  5
572
330
569
100
AcDbEntity
  8
0
100
AcDbBlockBegin
  2
*D1417
 70
     1
 71
     0
 10
0.0
 20
0.0
 30
0.0
  3
*D1417
  1

  0
LINE
  5
56A
330
569
100
AcDbEntity
  8
1
  6
Continuous
 62
     2
100
AcDbLine
 10
1963.268226114545
 20
1056.822621567466
 30
0.0
 11
2010.768226114587
 21
974.5502082079738
 31
0.0
  0
LINE
  5
56B
330
569
100
AcDbEntity
  8
1
  6
Continuous
 62
     2
100
AcDbLine
 10
1780.165705594957
 20
951.108332056051
 30
0.0
 11
1968.46437853725
 21
1059.822621567469
 31
0.0
  0
LINE
  5
56C
330
569
100
AcDbEntity
  8
1
  6
Continuous
 62
     2
100
AcDbLine
 10
1819.005451557149
 20
863.8359186965483
 30
0.0
 11
2015.964378537292
 21
977.5502082079765
 31
0.0
  0
LINE
  5
56D
330
569
100
AcDbEntity
  8
1
 62
     2
100
AcDbLine
 10
1963.268226114545
 20
1056.822621567466
 30
0.0
 11
1977.323601619875
 21
1042.767246062152
 31
0.0
  0
LINE
  5
56E
330
569
100
AcDbEntity
  8
1
 62
     2
100
AcDbLine
 10
1963.268226114545
 20
1056.822621567466
 30
0.0
 11
1968.412850609233
 21
1037.622621567469
 31
0.0
  0
LINE
  5
56F
330
569
100
AcDbEntity
  8
1
 62
     2
100
AcDbLine
 10
2010.768226114587
 20
974.5502082079738
 30
0.0
 11
1996.712850609258
 21
988.605583713289
 31
0.0
  0
LINE
  5
570
330
569
100
AcDbEntity
  8
1
 62
     2
100
AcDbLine
 10
2010.768226114587
 20
974.5502082079738
 30
0.0
 11
2005.6236016199
 21
993.7502082079711
 31
0.0
  0
MTEXT
  5
571
330
569
100
AcDbEntity
  8
1
 62
     2
100
AcDbMText
 10
1986.857909315766
 20
1030.124091728534
 30
0.0
 40
19.2
 41
0.0
 71
     7
 72
     1
  1
95
  7
CONVERTER_1
 11
0.5000000000004701
 21
-0.8660254037841673
 31
0.0
 73
     1
 44
0.60024009603842
  0
ENDBLK
  5
573
330
569
100
AcDbEntity
  8
0
100
AcDbBlockEnd
  0
BLOCK
  5
57F
330
576
100
AcDbEntity
  8
0
100
AcDbBlockBegin
  2
*D1518
 70
     1
 71
     0
 10
0.0
 20
0.0
 30
0.0
  3
*D1518
  1

  0
LINE
  5
577
330
576
100
AcDbEntity
  8
1
  6
Continuous
 62
     2
100
AcDbLine
 10
767.8385513727166
 20
1055.420156823784
 30
0.0
 11
815.3386815244679
 21
973.1478186075175
 31
0.0
  0
LINE
  5
578
330
576
100
AcDbEntity
  8
1
  6
Continuous
 62
     2
100
AcDbLine
 10
587.165636663787
 20
951.1082197908129
 30
0.0
 11
773.0346990495319
 21
1058.420165043894
 31
0.0
  0
LINE
  5
579
330
576
100
AcDbEntity
  8
1
  6
Continuous
 62
     2
100
AcDbLine
 10
626.0055206875177
 20
863.8358678743665
 30
0.0
 11
820.5348292012833
 21
976.1478268276272
 31
0.0
  0
LINE
  5
57A
330
576
100
AcDbEntity
  8
1
 62
     2
100
AcDbLine
 10
767.8385513727166
 20
1055.420156823784
 30
0.0
 11
781.8939491130858
 21
1041.364803553543
 31
0.0
  0
LINE
  5
57B
330
576
100
AcDbEntity
  8
1
 62
     2
100
AcDbLine
 10
767.8385513727166
 20
1055.420156823784
 30
0.0
 11
772.9832062410505
 21
1036.220164962406
 31
0.0
  0
LINE
  5
57C
330
576
100
AcDbEntity
  8
1
 62
     2
100
AcDbLine
 10
815.3386815244679
 20
973.1478186075175
 30
0.0
 11
801.2832837840995
 21
987.2031718777587
 31
0.0
  0
LINE
  5
57D
330
576
100
AcDbEntity
  8
1
 62
     2
100
AcDbLine
 10
815.3386815244679
 20
973.1478186075175
 30
0.0
 11
810.1940266561351
 21
992.3478104688953
 31
0.0
  0
MTEXT
  5
57E
330
576
100
AcDbEntity
  8
1
 62
     2
100
AcDbMText
 10
787.2489054214518
 20
1035.960521445064
 30
0.0
 40
19.2
 41
0.0
 71
     7
 72
     1
  1
95
  7
CONVERTER_1
 11
0.5000013700182969
 21
-0.8660246128025615
 31
0.0
 73
     1
 44
0.60024009603842
  0
ENDBLK
  5
580
330
576
100
AcDbEntity
  8
0
100
AcDbBlockEnd
  0
BLOCK
  5
58E
330
583
100
AcDbEntity
  8
0
100
AcDbBlockBegin
  2
*D1619
 70
     1
 71
     0
 10
0.0
 20
0.0
 30
0.0
  3
*D1619
  1

  0
LINE
  5
584
330
583
100
AcDbEntity
  8
1
  6
Continuous
 62
     2
100
AcDbLine
 10
1806.756804508864
 20
1009.761926112664
 30
0.0
 11
1894.327147932299
 21
1060.320687461217
 31
0.0
  0
LINE
  5
585
330
583
100
AcDbEntity
  8
1
  6
Continuous
 62
     2
100
AcDbLine
 10
1825.9499346028
 20
996.8830068145161
 30
0.0
 11
1911.325223231287
 21
996.8830068145138
 31
0.0
  0
LINE
  5
586
330
583
100
AcDbEntity
  8
1
  6
Continuous
 62
     2
100
AcDbLine
 10
1894.327147932299
 20
1060.320687461217
 30
0.0
 11
1899.523300355006
 21
1063.320687461217
 31
0.0
  0
LINE
  5
587
330
583
100
AcDbEntity
  8
1
  6
Continuous
 62
     2
100
AcDbLine
 10
1911.325223231287
 20
996.8830068145138
 30
0.0
 11
1917.325223231287
 21
996.8830068145137
 31
0.0
  0
ARC
  5
588
330
583
100
AcDbEntity
  8
1
  6
Continuous
 62
     2
100
AcDbCircle
 10
1784.449861937896
 20
996.8830068145171
 30
0.0
 40
126.8753612933908
100
AcDbArc
 50
-13.00582266844532
 51
76.65196193811183
  0
LINE
  5
589
330
583
100
AcDbEntity
  8
1
 62
     2
100
AcDbLine
 10
1911.325223231287
 20
996.8830068145138
 30
0.0
 11
1915.00374932912
 21
977.3490464649381
 31
0.0
  0
LINE
  5
58A
330
583
100
AcDbEntity
  8
1
 62
     2
100
AcDbLine
 10
1911.325223231287
 20
996.8830068145138
 30
0.0
 11
1904.743940105706
 21
978.1268378663468
 31
0.0
  0
LINE
  5
58B
330
583
100
AcDbEntity
  8
1
 62
     2
100
AcDbLine
 10
1894.327147932299
 20
1060.320687461217
 30
0.0
 11
1879.249505081963
 21
1073.27336468521
 31
0.0
  0
LINE
  5
58C
330
583
100
AcDbEntity
  8
1
 62
     2
100
AcDbLine
 10
1894.327147932299
 20
1060.320687461217
 30
0.0
 11
1887.745864806716
 21
1079.076856409383
 31
0.0
  0
MTEXT
  5
58D
330
583
100
AcDbEntity
  8
1
 62
     2
100
AcDbMText
 10
1816.99137713462
 20
1134.029591631254
 30
0.0
 40
19.2
 41
0.0
 71
     7
 72
     1
  1
30{\Fgdt;~}±15{\Fgdt;~}
  7
CONVERTER_2
 11
0.819884968468354
 21
-0.5725282861830026
 31
0.0
 73
     1
 44
0.60024009603842
  0
ENDBLK
  5
58F
330
583
100
AcDbEntity
  8
0
100
AcDbBlockEnd
  0
BLOCK
  5
59D
330
592
100
AcDbEntity
  8
0
100
AcDbBlockBegin
  2
*D1720
 70
     1
 71
     0
 10
0.0
 20
0.0
 30
0.0
  3
*D1720
  1

  0
LINE
  5
593
330
592
100
AcDbEntity
  8
1
  6
Continuous
 62
     2
100
AcDbLine
 10
622.795271745468
 20
1014.980265339066
 30
0.0
 11
705.3152514649978
 21
1062.623197843664
 31
0.0
  0
LINE
  5
594
330
592
100
AcDbEntity
  8
1
  6
Continuous
 62
     2
100
AcDbLine
 10
632.9499005032343
 20
996.8830068145161
 30
0.0
 11
722.9302825615266
 21
996.8830068145137
 31
0.0
  0
LINE
  5
595
330
592
100
AcDbEntity
  8
1
  6
Continuous
 62
     2
100
AcDbLine
 10
705.3152514649978
 20
1062.623197843664
 30
0.0
 11
710.5114038877043
 21
1065.623197843664
 31
0.0
  0
LINE
  5
596
330
592
100
AcDbEntity
  8
1
  6
Continuous
 62
     2
100
AcDbLine
 10
722.9302825615266
 20
996.8830068145137
 30
0.0
 11
728.9302825615266
 21
996.8830068145136
 31
0.0
  0
ARC
  5
597
330
592
100
AcDbEntity
  8
1
  6
Continuous
 62
     2
100
AcDbCircle
 10
591.4499005032427
 20
996.8830068145171
 30
0.0
 40
131.480382058284
100
AcDbArc
 50
-12.55030160503555
 51
73.66581324667099
  0
LINE
  5
598
330
592
100
AcDbEntity
  8
1
 62
     2
100
AcDbLine
 10
722.9302825615266
 20
996.8830068145137
 30
0.0
 11
726.6605629056315
 21
977.3588635619758
 31
0.0
  0
LINE
  5
599
330
592
100
AcDbEntity
  8
1
 62
     2
100
AcDbLine
 10
722.9302825615266
 20
996.8830068145137
 30
0.0
 11
716.3987284764903
 21
978.1094625986369
 31
0.0
  0
LINE
  5
59A
330
592
100
AcDbEntity
  8
1
 62
     2
100
AcDbLine
 10
705.3152514649978
 20
1062.623197843664
 30
0.0
 11
690.2719875932262
 21
1075.615787011165
 31
0.0
  0
LINE
  5
59B
330
592
100
AcDbEntity
  8
1
 62
     2
100
AcDbLine
 10
705.3152514649978
 20
1062.623197843664
 30
0.0
 11
698.7836973799618
 21
1081.39674205954
 31
0.0
  0
MTEXT
  5
59C
330
592
100
AcDbEntity
  8
1
 62
     2
100
AcDbMText
 10
632.2989370855698
 20
1136.267037053916
 30
0.0
 40
19.2
 41
0.0
 71
     7
 72
     1
  1
30{\Fgdt;~}±15{\Fgdt;~}
  7
CONVERTER_2
 11
0.796057321481358
 21
-0.6052212330346035
 31
0.0
 73
     1
 44
0.60024009603842
  0
ENDBLK
  5
59E
330
592
100
AcDbEntity
  8
0
100
AcDbBlockEnd
  0
ENDSEC
  0
SECTION
  2
ENTITIES
  0
INSERT
  5
35
330
1F
100
AcDbEntity
  8
0
100
AcDbBlockReference
  2
Zuwaku-A3-web
 10
1181.999999999998
 20
803.9999999999998
 30
0.0
 41
6.0
 42
6.0
 43
6.0
  0
LINE
  5
60
330
1F
100
AcDbEntity
  8
1
  6
DASHED
 62
     4
100
AcDbLine
 10
1752.199934602804
 20
1418.232752517117
 30
0.0
 11
1752.199934602804
 21
1378.232752517117
 31
0.0
  0
LINE
  5
61
330
1F
100
AcDbEntity
  8
1
  6
DASHED
 62
     4
100
AcDbLine
 10
1755.199934602805
 20
1378.232752517117
 30
0.0
 11
1755.199934602805
 21
1418.232752517117
 31
0.0
  0
LINE
  5
62
330
1F
100
AcDbEntity
  8
1
  6
Continuous
 62
     7
100
AcDbLine
 10
1759.567248700621
 20
980.784972556268
 30
0.0
 11
1772.567248700621
 21
958.2683120578727
 31
0.0
  0
LINE
  5
63
330
1F
100
AcDbEntity
  8
1
  6
Continuous
 62
     7
100
AcDbLine
 10
450.1457136758845
 20
886.4334830526331
 30
0.0
 11
543.6761984496798
 21
940.4333336142227
 31
0.0
  0
LINE
  5
64
330
1F
100
AcDbEntity
  8
1
  6
Continuous
 62
     7
100
AcDbLine
 10
915.8719141323816
 20
938.0839627214675
 30
0.0
 11
885.0719141323805
 21
938.0839627214675
 31
0.0
  0
LINE
  5
65
330
1F
100
AcDbEntity
  8
1
  6
Continuous
 62
     7
100
AcDbLine
 10
885.0719141323805
 20
868.0839627214674
 30
0.0
 11
915.8719141323816
 21
868.0839627214674
 31
0.0
  0
LINE
  5
66
330
1F
100
AcDbEntity
  8
1
  6
Continuous
 62
     7
100
AcDbLine
 10
915.8719141323816
 20
868.0839627214674
 30
0.0
 11
915.8719141323816
 21
938.0839627214675
 31
0.0
  0
LINE
  5
67
330
1F
100
AcDbEntity
  8
1
  6
Continuous
 62
     7
100
AcDbLine
 10
911.3719141323816
 20
868.0839627214674
 30
0.0
 11
911.3719141323816
 21
938.0839627214675
 31
0.0
  0
LINE
  5
68
330
1F
100
AcDbEntity
  8
1
  6
Continuous
 62
     7
100
AcDbLine
 10
1002.371914132377
 20
938.0839627214675
 30
0.0
 11
1002.371914132377
 21
868.0839627214674
 31
0.0
  0
LINE
  5
69
330
1F
100
AcDbEntity
  8
1
  6
Continuous
 62
     7
100
AcDbLine
 10
997.8719141323771
 20
938.0839627214676
 30
0.0
 11
997.8719141323771
 21
868.0839627214674
 31
0.0
  0
LINE
  5
6A
330
1F
100
AcDbEntity
  8
1
  6
Continuous
 62
     7
100
AcDbLine
 10
997.8719141323771
 20
868.0839627214674
 30
0.0
 11
1028.671914132379
 21
868.0839627214674
 31
0.0
  0
LINE
  5
6B
330
1F
100
AcDbEntity
  8
1
  6
Continuous
 62
     7
100
AcDbLine
 10
1028.67191413238
 20
938.0839627214675
 30
0.0
 11
997.8719141323771
 21
938.0839627214676
 31
0.0
  0
LINE
  5
6C
330
1F
100
AcDbEntity
  8
1
  6
Continuous
 62
     7
100
AcDbLine
 10
2246.671914132381
 20
938.0839627214675
 30
0.0
 11
2215.871914132377
 21
938.0839627214675
 31
0.0
  0
LINE
  5
6D
330
1F
100
AcDbEntity
  8
1
  6
Continuous
 62
     7
100
AcDbLine
 10
2215.871914132377
 20
868.0839627214674
 30
0.0
 11
2246.671914132379
 21
868.0839627214674
 31
0.0
  0
LINE
  5
6E
330
1F
100
AcDbEntity
  8
1
  6
Continuous
 62
     7
100
AcDbLine
 10
2215.871914132377
 20
938.0839627214675
 30
0.0
 11
2215.871914132377
 21
868.0839627214674
 31
0.0
  0
LINE
  5
6F
330
1F
100
AcDbEntity
  8
1
  6
Continuous
 62
     7
100
AcDbLine
 10
2220.371914132377
 20
938.0839627214675
 30
0.0
 11
2220.371914132377
 21
868.0839627214674
 31
0.0
  0
LINE
  5
70
330
1F
100
AcDbEntity
  8
1
  6
Continuous
 62
     7
100
AcDbLine
 10
2129.371914132381
 20
868.0839627214674
 30
0.0
 11
2129.371914132381
 21
938.0839627214675
 31
0.0
  0
LINE
  5
71
330
1F
100
AcDbEntity
  8
1
  6
Continuous
 62
     7
100
AcDbLine
 10
2133.871914132381
 20
868.0839627214674
 30
0.0
 11
2133.871914132381
 21
938.0839627214675
 31
0.0
  0
LINE
  5
72
330
1F
100
AcDbEntity
  8
1
  6
Continuous
 62
     7
100
AcDbLine
 10
2103.07191413238
 20
868.0839627214674
 30
0.0
 11
2133.871914132381
 21
868.0839627214674
 31
0.0
  0
LINE
  5
73
330
1F
100
AcDbEntity
  8
1
  6
Continuous
 62
     7
100
AcDbLine
 10
2133.871914132381
 20
938.0839627214675
 30
0.0
 11
2103.07191413238
 21
938.0839627214675
 31
0.0
  0
LINE
  5
74
330
1F
100
AcDbEntity
  8
1
  6
DASHED
 62
     4
100
AcDbLine
 10
1818.80929913444
 20
869.4961727343421
 30
0.0
 11
1791.390714847391
 21
853.6660457154692
 31
0.0
  0
LINE
  5
75
330
1F
100
AcDbEntity
  8
1
  6
Continuous
 62
     7
100
AcDbLine
 10
1784.969553172346
 20
930.7878239803843
 30
0.0
 11
1881.28937063905
 21
986.3980965229666
 31
0.0
  0
LINE
  5
76
330
1F
100
AcDbEntity
  8
1
  6
Continuous
 62
     7
100
AcDbLine
 10
1949.203490758956
 20
944.7792943693671
 30
0.0
 11
1818.80929913444
 21
869.4961727343421
 31
0.0
  0
LINE
  5
77
330
1F
100
AcDbEntity
  8
1
  6
Continuous
 62
     7
100
AcDbLine
 10
1954.203490759005
 20
984.6660457153328
 30
0.0
 11
1954.203490758965
 21
953.4395484072029
 31
0.0
  0
LINE
  5
78
330
1F
100
AcDbEntity
  8
1
  6
Continuous
 62
     7
100
AcDbLine
 10
1882.28937063905
 20
986.6660457153969
 30
0.0
 11
1952.203490759002
 21
986.6660457153357
 31
0.0
  0
LINE
  5
79
330
1F
100
AcDbEntity
  8
1
  6
DASHED
 62
     4
100
AcDbLine
 10
1788.658664039824
 20
854.3980965230406
 30
0.0
 11
1755.658664039865
 21
911.5557731728561
 31
0.0
  0
LINE
  5
7A
330
1F
100
AcDbEntity
  8
1
  6
DASHED
 62
     4
100
AcDbLine
 10
1756.390714847436
 20
914.2878239804243
 30
0.0
 11
1784.969553172354
 21
930.7878239803715
 31
0.0
  0
LINE
  5
7B
330
1F
100
AcDbEntity
  8
1
  6
DOT_CENTER
 62
     3
100
AcDbLine
 10
1799.899045096598
 20
864.9291854362757
 30
0.0
 11
1795.399045096604
 21
872.7234140703399
 31
0.0
  0
LINE
  5
7C
330
1F
100
AcDbEntity
  8
1
  6
DOT_CENTER
 62
     3
100
AcDbLine
 10
1793.751930779569
 20
866.5762997533111
 30
0.0
 11
1801.546159413632
 21
871.0762997533027
 31
0.0
  0
LINE
  5
7D
330
1F
100
AcDbEntity
  8
1
  6
DOT_CENTER
 62
     3
100
AcDbLine
 10
1774.899045096634
 20
908.2304556255197
 30
0.0
 11
1770.399045096639
 21
916.0246842595828
 31
0.0
  0
LINE
  5
7E
330
1F
100
AcDbEntity
  8
1
  6
DOT_CENTER
 62
     3
100
AcDbLine
 10
1768.751930779607
 20
909.8775699425562
 30
0.0
 11
1776.546159413671
 21
914.3775699425474
 31
0.0
  0
LINE
  5
7F
330
1F
100
AcDbEntity
  8
1
  6
DOT_CENTER
 62
     3
100
AcDbLine
 10
575.7519920153907
 20
909.8774853353448
 30
0.0
 11
583.5462206494547
 21
914.3774853353361
 31
0.0
  0
LINE
  5
80
330
1F
100
AcDbEntity
  8
1
  6
DOT_CENTER
 62
     3
100
AcDbLine
 10
581.8991063324181
 20
908.2303710183084
 30
0.0
 11
577.3991063324236
 21
916.0245996523715
 31
0.0
  0
LINE
  5
81
330
1F
100
AcDbEntity
  8
1
  6
DOT_CENTER
 62
     3
100
AcDbLine
 10
600.7519920153534
 20
866.5762151460998
 30
0.0
 11
608.5462206494165
 21
871.0762151460913
 31
0.0
  0
LINE
  5
82
330
1F
100
AcDbEntity
  8
1
  6
DOT_CENTER
 62
     3
100
AcDbLine
 10
606.8991063323817
 20
864.9291008290644
 30
0.0
 11
602.3991063323881
 21
872.7233294631286
 31
0.0
  0
LINE
  5
83
330
1F
100
AcDbEntity
  8
1
  6
DASHED
 62
     4
100
AcDbLine
 10
563.3907760832205
 20
914.287739373213
 30
0.0
 11
591.9696144081379
 21
930.7877393731601
 31
0.0
  0
LINE
  5
84
330
1F
100
AcDbEntity
  8
1
  6
DASHED
 62
     4
100
AcDbLine
 10
591.6587252756124
 20
861.3262151461065
 30
0.0
 11
566.6587252756442
 21
904.6274853353657
 31
0.0
  0
LINE
  5
85
330
1F
100
AcDbEntity
  8
1
  6
Continuous
 62
     7
100
AcDbLine
 10
689.2894318748339
 20
986.6659611081855
 30
0.0
 11
759.2035519947865
 21
986.6659611081244
 31
0.0
  0
LINE
  5
86
330
1F
100
AcDbEntity
  8
1
  6
Continuous
 62
     7
100
AcDbLine
 10
761.203551994788
 20
984.6659611081215
 30
0.0
 11
761.2035519947475
 21
953.4394637999912
 31
0.0
  0
LINE
  5
87
330
1F
100
AcDbEntity
  8
1
  6
DASHED
 62
     4
100
AcDbLine
 10
591.6587252756124
 20
861.3262151461065
 30
0.0
 11
595.6587252756076
 21
854.3980119158293
 31
0.0
  0
LINE
  5
88
330
1F
100
AcDbEntity
  8
1
  6
Continuous
 62
     7
100
AcDbLine
 10
756.2035519947399
 20
944.7792097621555
 30
0.0
 11
625.8093593104975
 21
869.4960875152975
 31
0.0
  0
LINE
  5
89
330
1F
100
AcDbEntity
  8
1
  6
Continuous
 62
     7
100
AcDbLine
 10
591.9696144081306
 20
930.7877393731729
 30
0.0
 11
688.2894318748338
 21
986.3980119157553
 31
0.0
  0
LINE
  5
8A
330
1F
100
AcDbEntity
  8
1
  6
DASHED
 62
     4
100
AcDbLine
 10
625.8093593104975
 20
869.4960875152975
 30
0.0
 11
598.3907760831748
 21
853.6659611082579
 31
0.0
  0
LINE
  5
8B
330
1F
100
AcDbEntity
  8
1
  6
DASHED
 62
     4
100
AcDbLine
 10
566.6587252756442
 20
904.6274853353657
 30
0.0
 11
562.6587252756492
 21
911.5556885656447
 31
0.0
  0
LINE
  5
8C
330
1F
100
AcDbEntity
  8
1
  6
Continuous
 62
     7
100
AcDbLine
 10
1807.199934602854
 20
1352.732752517116
 30
0.0
 11
1925.967883795307
 21
1352.732752517116
 31
0.0
  0
LINE
  5
8D
330
1F
100
AcDbEntity
  8
1
  6
Continuous
 62
     7
100
AcDbLine
 10
1925.967883795307
 20
1352.732752517116
 30
0.0
 11
1925.967883795307
 21
1357.232752517116
 31
0.0
  0
LINE
  5
8E
330
1F
100
AcDbEntity
  8
1
  6
Continuous
 62
     7
100
AcDbLine
 10
1925.967883795307
 20
1357.232752517116
 30
0.0
 11
1805.697650107444
 21
1357.232752517117
 31
0.0
  0
LINE
  5
8F
330
1F
100
AcDbEntity
  8
1
  6
Continuous
 62
     7
100
AcDbLine
 10
1752.199934602858
 20
1326.432752517119
 30
0.0
 11
1772.199934602855
 21
1326.43275251712
 31
0.0
  0
LINE
  5
90
330
1F
100
AcDbEntity
  8
1
  6
Continuous
 62
     7
100
AcDbLine
 10
1805.697650107444
 20
1357.232752517117
 30
0.0
 11
1770.697650107445
 21
1330.93275251712
 31
0.0
  0
LINE
  5
91
330
1F
100
AcDbEntity
  8
1
  6
Continuous
 62
     7
100
AcDbLine
 10
1772.199934602855
 20
1326.43275251712
 30
0.0
 11
1807.199934602854
 21
1352.732752517116
 31
0.0
  0
LINE
  5
92
330
1F
100
AcDbEntity
  8
1
  6
Continuous
 62
     7
100
AcDbLine
 10
1805.697650107444
 20
1439.232752517116
 30
0.0
 11
1925.967883795307
 21
1439.232752517116
 31
0.0
  0
LINE
  5
93
330
1F
100
AcDbEntity
  8
1
  6
Continuous
 62
     7
100
AcDbLine
 10
1925.967883795307
 20
1439.232752517116
 30
0.0
 11
1925.967883795307
 21
1443.732752517116
 31
0.0
  0
LINE
  5
94
330
1F
100
AcDbEntity
  8
1
  6
Continuous
 62
     7
100
AcDbLine
 10
1770.697650107445
 20
1330.93275251712
 30
0.0
 11
1752.199934602858
 21
1330.93275251712
 31
0.0
  0
LINE
  5
95
330
1F
100
AcDbEntity
  8
1
  6
Continuous
 62
     7
100
AcDbLine
 10
577.6976160078798
 20
1330.932752517116
 30
0.0
 11
559.1999005032925
 21
1330.932752517116
 31
0.0
  0
LINE
  5
96
330
1F
100
AcDbEntity
  8
1
  6
Continuous
 62
     7
100
AcDbLine
 10
612.6976160078823
 20
1439.232752517116
 30
0.0
 11
732.9678496957436
 21
1439.232752517116
 31
0.0
  0
LINE
  5
97
330
1F
100
AcDbEntity
  8
1
  6
Continuous
 62
     7
100
AcDbLine
 10
579.199900503291
 20
1326.432752517116
 30
0.0
 11
614.199900503291
 21
1352.732752517116
 31
0.0
  0
LINE
  5
98
330
1F
100
AcDbEntity
  8
1
  6
Continuous
 62
     7
100
AcDbLine
 10
612.6976160078798
 20
1357.232752517116
 30
0.0
 11
577.6976160078798
 21
1330.932752517116
 31
0.0
  0
LINE
  5
99
330
1F
100
AcDbEntity
  8
1
  6
Continuous
 62
     7
100
AcDbLine
 10
559.1999005032924
 20
1326.432752517115
 30
0.0
 11
579.199900503291
 21
1326.432752517116
 31
0.0
  0
LINE
  5
9A
330
1F
100
AcDbEntity
  8
1
  6
Continuous
 62
     7
100
AcDbLine
 10
732.9678496957436
 20
1357.232752517116
 30
0.0
 11
612.6976160078798
 21
1357.232752517116
 31
0.0
  0
LINE
  5
9B
330
1F
100
AcDbEntity
  8
1
  6
Continuous
 62
     7
100
AcDbLine
 10
732.9678496957431
 20
1352.732752517116
 30
0.0
 11
732.9678496957436
 21
1357.232752517116
 31
0.0
  0
LINE
  5
9C
330
1F
100
AcDbEntity
  8
1
  6
Continuous
 62
     7
100
AcDbLine
 10
614.199900503291
 20
1352.732752517116
 30
0.0
 11
732.9678496957431
 21
1352.732752517116
 31
0.0
  0
LINE
  5
9D
330
1F
100
AcDbEntity
  8
1
  6
DOT_CENTER
 62
     3
100
AcDbLine
 10
701.2035519947748
 20
982.9129447364844
 30
0.0
 11
701.2035519947748
 21
981.1629447364845
 31
0.0
  0
LINE
  5
9E
330
1F
100
AcDbEntity
  8
1
  6
DOT_CENTER
 62
     3
100
AcDbLine
 10
701.2035519947748
 20
981.1629447364845
 30
0.0
 11
701.2035519947748
 21
956.1629447364854
 31
0.0
  0
LINE
  5
9F
330
1F
100
AcDbEntity
  8
1
  6
DOT_CENTER
 62
     3
100
AcDbLine
 10
701.2035519947748
 20
956.1629447364854
 30
0.0
 11
701.2035519947748
 21
954.4129447364849
 31
0.0
  0
LINE
  5
A0
330
1F
100
AcDbEntity
  8
1
  6
DOT_CENTER
 62
     3
100
AcDbLine
 10
695.9535519947748
 20
968.6629447364844
 30
0.0
 11
706.4535519947748
 21
968.6629447364844
 31
0.0
  0
LINE
  5
A1
330
1F
100
AcDbEntity
  8
1
  6
DOT_CENTER
 62
     3
100
AcDbLine
 10
751.2035519947743
 20
954.4129447364849
 30
0.0
 11
751.2035519947743
 21
956.1629447364854
 31
0.0
  0
LINE
  5
A2
330
1F
100
AcDbEntity
  8
1
  6
DOT_CENTER
 62
     3
100
AcDbLine
 10
751.2035519947743
 20
956.1629447364854
 30
0.0
 11
751.2035519947743
 21
981.1629447364845
 31
0.0
  0
LINE
  5
A3
330
1F
100
AcDbEntity
  8
1
  6
DOT_CENTER
 62
     3
100
AcDbLine
 10
751.2035519947743
 20
981.1629447364845
 30
0.0
 11
751.2035519947743
 21
982.9129447364844
 31
0.0
  0
LINE
  5
A4
330
1F
100
AcDbEntity
  8
1
  6
DOT_CENTER
 62
     3
100
AcDbLine
 10
756.4535519947743
 20
968.6629447364844
 30
0.0
 11
745.9535519947743
 21
968.6629447364844
 31
0.0
  0
LINE
  5
A5
330
1F
100
AcDbEntity
  8
1
  6
DOT_CENTER
 62
     3
100
AcDbLine
 10
1944.203490758991
 20
982.9129447364844
 30
0.0
 11
1944.203490758991
 21
981.1629447364845
 31
0.0
  0
LINE
  5
A6
330
1F
100
AcDbEntity
  8
1
  6
DOT_CENTER
 62
     3
100
AcDbLine
 10
1944.203490758991
 20
981.1629447364845
 30
0.0
 11
1944.203490758991
 21
956.1629447364854
 31
0.0
  0
LINE
  5
A7
330
1F
100
AcDbEntity
  8
1
  6
DOT_CENTER
 62
     3
100
AcDbLine
 10
1944.203490758991
 20
956.1629447364854
 30
0.0
 11
1944.203490758991
 21
954.4129447364849
 31
0.0
  0
LINE
  5
A8
330
1F
100
AcDbEntity
  8
1
  6
DOT_CENTER
 62
     3
100
AcDbLine
 10
1938.953490758991
 20
968.6629447364844
 30
0.0
 11
1949.453490758991
 21
968.6629447364844
 31
0.0
  0
LINE
  5
A9
330
1F
100
AcDbEntity
  8
1
  6
DOT_CENTER
 62
     3
100
AcDbLine
 10
1894.203490758991
 20
954.4129447364849
 30
0.0
 11
1894.203490758991
 21
956.1629447364854
 31
0.0
  0
LINE
  5
AA
330
1F
100
AcDbEntity
  8
1
  6
DOT_CENTER
 62
     3
100
AcDbLine
 10
1894.203490758991
 20
956.1629447364854
 30
0.0
 11
1894.203490758991
 21
981.1629447364845
 31
0.0
  0
LINE
  5
AB
330
1F
100
AcDbEntity
  8
1
  6
DOT_CENTER
 62
     3
100
AcDbLine
 10
1894.203490758991
 20
981.1629447364845
 30
0.0
 11
1894.203490758991
 21
982.9129447364844
 31
0.0
  0
LINE
  5
AC
330
1F
100
AcDbEntity
  8
1
  6
DOT_CENTER
 62
     3
100
AcDbLine
 10
1899.453490758991
 20
968.6629447364844
 30
0.0
 11
1888.953490758991
 21
968.6629447364844
 31
0.0
  0
LINE
  5
AD
330
1F
100
AcDbEntity
  8
1
  6
Continuous
 62
     7
100
AcDbLine
 10
674.601011616252
 20
897.6659611081741
 30
0.0
 11
639.6010116162975
 21
958.2877393731295
 31
0.0
  0
LINE
  5
AE
330
1F
100
AcDbEntity
  8
1
  6
Continuous
 62
     7
100
AcDbLine
 10
644.2901224837813
 20
880.1659611082007
 30
0.0
 11
609.2901224838267
 21
940.787739373156
 31
0.0
  0
LINE
  5
AF
330
1F
100
AcDbEntity
  8
1
  6
Continuous
 62
     7
100
AcDbLine
 10
579.199900503291
 20
1470.032752517118
 30
0.0
 11
559.1999005032924
 21
1470.032752517118
 31
0.0
  0
LINE
  5
B0
330
1F
100
AcDbEntity
  8
1
  6
Continuous
 62
     7
100
AcDbLine
 10
577.6976160078798
 20
1465.532752517118
 30
0.0
 11
612.6976160078798
 21
1439.232752517118
 31
0.0
  0
LINE
  5
B1
330
1F
100
AcDbEntity
  8
1
  6
Continuous
 62
     7
100
AcDbLine
 10
614.199900503291
 20
1443.732752517118
 30
0.0
 11
579.199900503291
 21
1470.032752517118
 31
0.0
  0
LINE
  5
B2
330
1F
100
AcDbEntity
  8
1
  6
Continuous
 62
     7
100
AcDbLine
 10
559.1999005032925
 20
1465.532752517118
 30
0.0
 11
577.6976160078798
 21
1465.532752517118
 31
0.0
  0
LINE
  5
B3
330
1F
100
AcDbEntity
  8
1
  6
Continuous
 62
     7
100
AcDbLine
 10
732.9678496957431
 20
1443.732752517118
 30
0.0
 11
614.199900503291
 21
1443.732752517118
 31
0.0
  0
LINE
  5
B4
330
1F
100
AcDbEntity
  8
1
  6
Continuous
 62
     7
100
AcDbLine
 10
732.9678496957436
 20
1439.232752517118
 30
0.0
 11
732.9678496957431
 21
1443.732752517118
 31
0.0
  0
LINE
  5
B5
330
1F
100
AcDbEntity
  8
1
  6
Continuous
 62
     7
100
AcDbLine
 10
1802.290061248043
 20
940.7878239803677
 30
0.0
 11
1837.290061247998
 21
880.1660457154123
 31
0.0
  0
LINE
  5
B6
330
1F
100
AcDbEntity
  8
1
  6
Continuous
 62
     7
100
AcDbLine
 10
1867.600950380469
 20
897.6660457153855
 30
0.0
 11
1832.600950380514
 21
958.2878239803412
 31
0.0
  0
LINE
  5
B7
330
1F
100
AcDbEntity
  8
1
  6
Continuous
 62
     7
100
AcDbLine
 10
1770.697650107445
 20
1465.532752517112
 30
0.0
 11
1805.697650107444
 21
1439.232752517116
 31
0.0
  0
LINE
  5
B8
330
1F
100
AcDbEntity
  8
1
  6
Continuous
 62
     7
100
AcDbLine
 10
1807.199934602854
 20
1443.732752517116
 30
0.0
 11
1772.199934602855
 21
1470.032752517112
 31
0.0
  0
LINE
  5
B9
330
1F
100
AcDbEntity
  8
1
  6
Continuous
 62
     7
100
AcDbLine
 10
1752.199934602858
 20
1465.532752517112
 30
0.0
 11
1770.697650107445
 21
1465.532752517112
 31
0.0
  0
LINE
  5
BA
330
1F
100
AcDbEntity
  8
1
  6
Continuous
 62
     7
100
AcDbLine
 10
1772.199934602855
 20
1470.032752517112
 30
0.0
 11
1752.199934602858
 21
1470.032752517112
 31
0.0
  0
LINE
  5
BB
330
1F
100
AcDbEntity
  8
1
  6
Continuous
 62
     7
100
AcDbLine
 10
1925.967883795307
 20
1443.732752517116
 30
0.0
 11
1807.199934602854
 21
1443.732752517116
 31
0.0
  0
LINE
  5
BC
330
1F
100
AcDbEntity
  8
1
  6
DASH_CENTER
 62
     3
100
AcDbLine
 10
1738.148664413578
 20
971.8830487676185
 30
0.0
 11
1739.648664413578
 21
969.2849725562649
 31
0.0
  0
LINE
  5
BD
330
1F
100
AcDbEntity
  8
1
  6
DASH_CENTER
 62
     3
100
AcDbLine
 10
1738.148664413578
 20
971.8830487676185
 30
0.0
 11
1739.648664413578
 21
969.2849725562649
 31
0.0
  0
LINE
  5
BE
330
1F
100
AcDbEntity
  8
1
  6
DASH_CENTER
 62
     3
100
AcDbLine
 10
545.1486303140117
 20
971.8830068145103
 30
0.0
 11
546.6486303140111
 21
969.2849306031557
 31
0.0
  0
LINE
  5
BF
330
1F
100
AcDbEntity
  8
1
  6
DASH_CENTER
 62
     3
100
AcDbLine
 10
545.1486303140117
 20
971.8830068145103
 30
0.0
 11
546.6486303140111
 21
969.2849306031557
 31
0.0
  0
LINE
  5
C0
330
1F
100
AcDbEntity
  8
1
  6
Continuous
 62
     7
100
AcDbLine
 10
133.6594468533147
 20
872.0839687088269
 30
0.0
 11
119.6594468533147
 21
872.0839687088269
 31
0.0
  0
LINE
  5
C1
330
1F
100
AcDbEntity
  8
1
  6
Continuous
 62
     7
100
AcDbLine
 10
1253.659446853315
 20
822.0839687088702
 30
0.0
 11
1239.659446853315
 21
822.0839687088702
 31
0.0
  0
LINE
  5
C2
330
1F
100
AcDbEntity
  8
1
  6
Continuous
 62
     7
100
AcDbLine
 10
2187.371914132381
 20
991.0839687088355
 30
0.0
 11
2187.371914132381
 21
994.0839687088367
 31
0.0
  0
LINE
  5
C3
330
1F
100
AcDbEntity
  8
1
  6
Continuous
 62
     7
100
AcDbLine
 10
2162.371914132381
 20
991.0839687088355
 30
0.0
 11
2162.371914132381
 21
970.0839687088367
 31
0.0
  0
LINE
  5
C4
330
1F
100
AcDbEntity
  8
1
  6
Continuous
 62
     7
100
AcDbLine
 10
1756.969172489269
 20
979.2849725562689
 30
0.0
 11
1782.949934602799
 21
994.2849725562678
 31
0.0
  0
LINE
  5
C5
330
1F
100
AcDbEntity
  8
1
  6
DASHED
 62
     4
100
AcDbLine
 10
1758.1999346028
 20
1385.732752517117
 30
0.0
 11
1758.1999346028
 21
1410.732752517117
 31
0.0
  0
LINE
  5
C6
330
1F
100
AcDbEntity
  8
1
  6
DASHED
 62
     4
100
AcDbLine
 10
1755.1999346028
 20
1385.732752517117
 30
0.0
 11
1758.1999346028
 21
1385.732752517117
 31
0.0
  0
LINE
  5
C7
330
1F
100
AcDbEntity
  8
1
  6
DASHED
 62
     4
100
AcDbLine
 10
1758.1999346028
 20
1410.732752517117
 30
0.0
 11
1755.1999346028
 21
1410.732752517117
 31
0.0
  0
LINE
  5
C8
330
1F
100
AcDbEntity
  8
1
  6
DASHED
 62
     4
100
AcDbLine
 10
1432.199934602802
 20
1404.232752517117
 30
0.0
 11
1432.199934602801
 21
1392.232752517117
 31
0.0
  0
LINE
  5
C9
330
1F
100
AcDbEntity
  8
1
  6
DASHED
 62
     4
100
AcDbLine
 10
1429.199934602802
 20
1404.232752517117
 30
0.0
 11
1432.199934602802
 21
1404.232752517117
 31
0.0
  0
LINE
  5
CA
330
1F
100
AcDbEntity
  8
1
  6
DASHED
 62
     4
100
AcDbLine
 10
1429.199934602802
 20
1392.232752517117
 30
0.0
 11
1429.199934602802
 21
1404.232752517117
 31
0.0
  0
LINE
  5
CB
330
1F
100
AcDbEntity
  8
1
  6
DASHED
 62
     4
100
AcDbLine
 10
1432.199934602801
 20
1392.232752517117
 30
0.0
 11
1429.199934602802
 21
1392.232752517117
 31
0.0
  0
LINE
  5
CC
330
1F
100
AcDbEntity
  8
1
  6
DOT_CENTER
 62
     3
100
AcDbLine
 10
1255.909446853315
 20
832.5839687088702
 30
0.0
 11
1263.409446853315
 21
832.5839687088702
 31
0.0
  0
LINE
  5
CD
330
1F
100
AcDbEntity
  8
1
  6
Continuous
 62
     7
100
AcDbLine
 10
1772.567248700625
 20
958.2683120578664
 30
0.0
 11
1775.165324911978
 21
959.7683120578666
 31
0.0
  0
LINE
  5
CE
330
1F
100
AcDbEntity
  8
1
  6
Continuous
 62
     7
100
AcDbLine
 10
1775.165324911978
 20
959.7683120578666
 30
0.0
 11
1762.165324911976
 21
982.2849725562689
 31
0.0
  0
LINE
  5
CF
330
1F
100
AcDbEntity
  8
1
  6
Continuous
 62
     7
100
AcDbLine
 10
2164.37191413238
 20
968.0839687088367
 30
0.0
 11
2162.371914132381
 21
970.0839687088367
 31
0.0
  0
LINE
  5
D0
330
1F
100
AcDbEntity
  8
1
  6
Continuous
 62
     7
100
AcDbLine
 10
2185.371914132381
 20
968.0839687088367
 30
0.0
 11
2187.371914132381
 21
970.0839687088367
 31
0.0
  0
LINE
  5
D1
330
1F
100
AcDbEntity
  8
1
  6
Continuous
 62
     7
100
AcDbLine
 10
2187.371914132381
 20
970.0839687088367
 30
0.0
 11
2187.371914132381
 21
991.0839687088355
 31
0.0
  0
LINE
  5
D2
330
1F
100
AcDbEntity
  8
1
  6
Continuous
 62
     7
100
AcDbLine
 10
2187.371914132381
 20
994.0839687088367
 30
0.0
 11
2162.371914132381
 21
994.0839687088367
 31
0.0
  0
LINE
  5
D3
330
1F
100
AcDbEntity
  8
1
  6
Continuous
 62
     7
100
AcDbLine
 10
2162.371914132381
 20
994.0839687088367
 30
0.0
 11
2162.371914132381
 21
991.0839687088355
 31
0.0
  0
LINE
  5
D4
330
1F
100
AcDbEntity
  8
1
  6
Continuous
 62
     7
100
AcDbLine
 10
2164.37191413238
 20
968.0839687088367
 30
0.0
 11
2185.371914132381
 21
968.0839687088367
 31
0.0
  0
LINE
  5
D5
330
1F
100
AcDbEntity
  8
1
  6
DASH_CENTER
 62
     3
100
AcDbLine
 10
1475.227789113046
 20
832.2099662902605
 30
0.0
 11
1468.654714195506
 21
828.4149997172154
 31
0.0
  0
LINE
  5
D6
330
1F
100
AcDbEntity
  8
1
  6
Continuous
 62
     7
100
AcDbLine
 10
1479.841043278251
 20
819.2849725562618
 30
0.0
 11
1479.091043278251
 21
820.5840106619386
 31
0.0
  0
LINE
  5
D7
330
1F
100
AcDbEntity
  8
1
  6
Continuous
 62
     7
100
AcDbLine
 10
1477.242967066898
 20
817.7849725562618
 30
0.0
 11
1479.841043278251
 21
819.2849725562618
 31
0.0
  0
LINE
  5
D8
330
1F
100
AcDbEntity
  8
1
  6
Continuous
 62
     7
100
AcDbLine
 10
1265.659446853315
 20
819.0839687088702
 30
0.0
 11
1265.659446853315
 21
828.0839687088702
 31
0.0
  0
LINE
  5
D9
330
1F
100
AcDbEntity
  8
1
  6
Continuous
 62
     7
100
AcDbLine
 10
1472.742967066899
 20
825.5792011903226
 30
0.0
 11
1477.242967066898
 21
817.7849725562618
 31
0.0
  0
LINE
  5
DA
330
1F
100
AcDbEntity
  8
1
  6
Continuous
 62
     7
100
AcDbLine
 10
1253.659446853315
 20
828.0839687088702
 30
0.0
 11
1253.659446853315
 21
819.0839687088702
 31
0.0
  0
LINE
  5
DB
330
1F
100
AcDbEntity
  8
1
  6
Continuous
 62
     7
100
AcDbLine
 10
2154.871914132381
 20
994.0839687088367
 30
0.0
 11
2194.871914132381
 21
994.0839687088367
 31
0.0
  0
LINE
  5
DC
330
1F
100
AcDbEntity
  8
1
  6
Continuous
 62
     7
100
AcDbLine
 10
2194.871914132381
 20
994.0839687088367
 30
0.0
 11
2194.871914132381
 21
997.0839687088367
 31
0.0
  0
LINE
  5
DD
330
1F
100
AcDbEntity
  8
1
  6
Continuous
 62
     7
100
AcDbLine
 10
2194.871914132381
 20
997.0839687088367
 30
0.0
 11
2154.871914132381
 21
997.0839687088367
 31
0.0
  0
LINE
  5
DE
330
1F
100
AcDbEntity
  8
1
  6
Continuous
 62
     7
100
AcDbLine
 10
2154.871914132381
 20
997.0839687088367
 30
0.0
 11
2154.871914132381
 21
994.0839687088367
 31
0.0
  0
LINE
  5
DF
330
1F
100
AcDbEntity
  8
1
  6
DASHED
 62
     4
100
AcDbLine
 10
1738.148664413578
 20
971.8830487676185
 30
0.0
 11
1755.469172489269
 21
981.8830487676194
 31
0.0
  0
LINE
  5
E0
330
1F
100
AcDbEntity
  8
1
  6
Continuous
 62
     7
100
AcDbLine
 10
1781.449934602798
 20
996.8830487676199
 30
0.0
 11
1782.949934602799
 21
994.2849725562678
 31
0.0
  0
LINE
  5
E1
330
1F
100
AcDbEntity
  8
1
  6
DASHED
 62
     4
100
AcDbLine
 10
1739.648664413578
 20
969.2849725562649
 30
0.0
 11
1756.969172489269
 21
979.2849725562689
 31
0.0
  0
LINE
  5
E2
330
1F
100
AcDbEntity
  8
1
  6
DASHED
 62
     4
100
AcDbLine
 10
1478.341043278252
 20
821.8830487676158
 30
0.0
 11
1479.841043278251
 21
819.2849725562618
 31
0.0
  0
LINE
  5
E3
330
1F
100
AcDbEntity
  8
1
  6
Continuous
 62
     7
100
AcDbLine
 10
1782.1999346028
 20
1418.232752517117
 30
0.0
 11
1782.1999346028
 21
1378.232752517117
 31
0.0
  0
LINE
  5
E4
330
1F
100
AcDbEntity
  8
1
  6
DASHED
 62
     4
100
AcDbLine
 10
1732.1999346028
 20
1418.232752517117
 30
0.0
 11
1755.199934602805
 21
1418.232752517117
 31
0.0
  0
LINE
  5
E5
330
1F
100
AcDbEntity
  8
1
  6
Continuous
 62
     7
100
AcDbLine
 10
1279.659446853315
 20
822.0839687088702
 30
0.0
 11
1265.659446853315
 21
822.0839687088702
 31
0.0
  0
LINE
  5
E6
330
1F
100
AcDbEntity
  8
1
  6
Continuous
 62
     7
100
AcDbLine
 10
1239.659446853315
 20
822.0839687088702
 30
0.0
 11
1239.659446853315
 21
820.5839687088702
 31
0.0
  0
LINE
  5
E7
330
1F
100
AcDbEntity
  8
1
  6
Continuous
 62
     7
100
AcDbLine
 10
1755.469172489269
 20
981.8830487676194
 30
0.0
 11
1781.449934602798
 21
996.8830487676199
 31
0.0
  0
LINE
  5
E8
330
1F
100
AcDbEntity
  8
1
  6
Continuous
 62
     7
100
AcDbLine
 10
1279.659446853315
 20
819.0839687088702
 30
0.0
 11
1279.659446853315
 21
820.5839687088702
 31
0.0
  0
LINE
  5
E9
330
1F
100
AcDbEntity
  8
1
  6
Continuous
 62
     7
100
AcDbLine
 10
1279.659446853315
 20
820.5839687088702
 30
0.0
 11
1279.659446853315
 21
822.0839687088702
 31
0.0
  0
LINE
  5
EA
330
1F
100
AcDbEntity
  8
1
  6
Continuous
 62
     7
100
AcDbLine
 10
1239.659446853315
 20
820.5839687088702
 30
0.0
 11
1239.659446853315
 21
819.0839687088702
 31
0.0
  0
LINE
  5
EB
330
1F
100
AcDbEntity
  8
1
  6
Continuous
 62
     7
100
AcDbLine
 10
1782.1999346028
 20
1378.232752517117
 30
0.0
 11
1755.199934602805
 21
1378.232752517117
 31
0.0
  0
LINE
  5
EC
330
1F
100
AcDbEntity
  8
1
  6
DASH_CENTER
 62
     3
100
AcDbLine
 10
1618.994853845913
 20
878.2635025862525
 30
0.0
 11
1598.994853845913
 21
912.904518737629
 31
0.0
  0
LINE
  5
ED
330
1F
100
AcDbEntity
  8
1
  6
DASH_CENTER
 62
     3
100
AcDbLine
 10
469.2960899355687
 20
903.2634606331433
 30
0.0
 11
449.2960899355687
 21
937.9044767845209
 31
0.0
  0
LINE
  5
EE
330
1F
100
AcDbEntity
  8
1
  6
Continuous
 62
     7
100
AcDbLine
 10
589.1999005032335
 20
1378.232752517117
 30
0.0
 11
562.1999005032385
 21
1378.232752517117
 31
0.0
  0
LINE
  5
EF
330
1F
100
AcDbEntity
  8
1
  6
Continuous
 62
     7
100
AcDbLine
 10
119.6594468533147
 20
870.5839687088269
 30
0.0
 11
119.6594468533147
 21
869.0839687088269
 31
0.0
  0
LINE
  5
F0
330
1F
100
AcDbEntity
  8
1
  6
Continuous
 62
     7
100
AcDbLine
 10
159.6594468533147
 20
870.5839687088269
 30
0.0
 11
159.6594468533147
 21
872.0839687088269
 31
0.0
  0
LINE
  5
F1
330
1F
100
AcDbEntity
  8
1
  6
Continuous
 62
     7
100
AcDbLine
 10
159.6594468533147
 20
869.0839687088269
 30
0.0
 11
159.6594468533147
 21
870.5839687088269
 31
0.0
  0
LINE
  5
F2
330
1F
100
AcDbEntity
  8
1
  6
Continuous
 62
     7
100
AcDbLine
 10
562.4691383897027
 20
981.8830068145106
 30
0.0
 11
588.449900503232
 21
996.8830068145109
 31
0.0
  0
LINE
  5
F3
330
1F
100
AcDbEntity
  8
1
  6
Continuous
 62
     7
100
AcDbLine
 10
119.6594468533147
 20
872.0839687088269
 30
0.0
 11
119.6594468533147
 21
870.5839687088269
 31
0.0
  0
LINE
  5
F4
330
1F
100
AcDbEntity
  8
1
  6
Continuous
 62
     7
100
AcDbLine
 10
159.6594468533147
 20
872.0839687088269
 30
0.0
 11
145.659446853314
 21
872.0839687088269
 31
0.0
  0
LINE
  5
F5
330
1F
100
AcDbEntity
  8
1
  6
Continuous
 62
     7
100
AcDbLine
 10
119.6594468533147
 20
869.0839687088269
 30
0.0
 11
159.6594468533147
 21
869.0839687088269
 31
0.0
  0
LINE
  5
F6
330
1F
100
AcDbEntity
  8
1
  6
DASH_CENTER
 62
     3
100
AcDbLine
 10
339.1999005032334
 20
1398.232752517117
 30
0.0
 11
589.1999005032335
 21
1398.232752517117
 31
0.0
  0
LINE
  5
F7
330
1F
100
AcDbEntity
  8
1
  6
DASH_CENTER
 62
     3
100
AcDbLine
 10
589.1999005032335
 20
995.583968708835
 30
0.0
 11
372.69354955713
 21
870.5839687088304
 31
0.0
  0
LINE
  5
F8
330
1F
100
AcDbEntity
  8
1
  6
DASHED
 62
     4
100
AcDbLine
 10
339.1999005032334
 20
1418.232752517117
 30
0.0
 11
339.1999005032334
 21
1378.232752517117
 31
0.0
  0
LINE
  5
F9
330
1F
100
AcDbEntity
  8
1
  6
DASHED
 62
     4
100
AcDbLine
 10
539.1999005032335
 20
1418.232752517117
 30
0.0
 11
562.1999005032385
 21
1418.232752517117
 31
0.0
  0
LINE
  5
FA
330
1F
100
AcDbEntity
  8
1
  6
Continuous
 62
     7
100
AcDbLine
 10
589.1999005032335
 20
1418.232752517117
 30
0.0
 11
589.1999005032335
 21
1378.232752517117
 31
0.0
  0
LINE
  5
FB
330
1F
100
AcDbEntity
  8
1
  6
DASHED
 62
     4
100
AcDbLine
 10
546.6486303140111
 20
969.2849306031557
 30
0.0
 11
563.9691383897039
 21
979.284930603159
 31
0.0
  0
LINE
  5
FC
330
1F
100
AcDbEntity
  8
1
  6
Continuous
 62
     7
100
AcDbLine
 10
588.449900503232
 20
996.8830068145109
 30
0.0
 11
589.949900503233
 21
994.2849306031582
 31
0.0
  0
LINE
  5
FD
330
1F
100
AcDbEntity
  8
1
  6
DASHED
 62
     4
100
AcDbLine
 10
545.1486303140117
 20
971.8830068145103
 30
0.0
 11
562.4691383897027
 21
981.8830068145106
 31
0.0
  0
LINE
  5
FE
330
1F
100
AcDbEntity
  8
1
  6
Continuous
 62
     7
100
AcDbLine
 10
936.8719141323807
 20
997.0839687088367
 30
0.0
 11
936.8719141323807
 21
994.0839687088367
 31
0.0
  0
LINE
  5
FF
330
1F
100
AcDbEntity
  8
1
  6
Continuous
 62
     7
100
AcDbLine
 10
976.8719141323801
 20
997.0839687088367
 30
0.0
 11
936.8719141323807
 21
997.0839687088367
 31
0.0
  0
LINE
  5
100
330
1F
100
AcDbEntity
  8
1
  6
Continuous
 62
     7
100
AcDbLine
 10
976.8719141323801
 20
994.0839687088367
 30
0.0
 11
976.8719141323801
 21
997.0839687088367
 31
0.0
  0
LINE
  5
101
330
1F
100
AcDbEntity
  8
1
  6
Continuous
 62
     7
100
AcDbLine
 10
936.8719141323807
 20
994.0839687088367
 30
0.0
 11
976.8719141323801
 21
994.0839687088367
 31
0.0
  0
LINE
  5
102
330
1F
100
AcDbEntity
  8
1
  6
Continuous
 62
     7
100
AcDbLine
 10
133.6594468533147
 20
878.0839687088269
 30
0.0
 11
133.6594468533147
 21
869.0839687088269
 31
0.0
  0
LINE
  5
103
330
1F
100
AcDbEntity
  8
1
  6
Continuous
 62
     7
100
AcDbLine
 10
366.3454733457767
 20
875.5791592372148
 30
0.0
 11
370.8454733457754
 21
867.7849306031529
 31
0.0
  0
LINE
  5
104
330
1F
100
AcDbEntity
  8
1
  6
Continuous
 62
     7
100
AcDbLine
 10
145.6594468533147
 20
869.0839687088269
 30
0.0
 11
145.6594468533126
 21
878.0839687088269
 31
0.0
  0
LINE
  5
105
330
1F
100
AcDbEntity
  8
1
  6
Continuous
 62
     7
100
AcDbLine
 10
370.8454733457754
 20
867.7849306031529
 30
0.0
 11
373.4435495571286
 21
869.2849306031529
 31
0.0
  0
LINE
  5
106
330
1F
100
AcDbEntity
  8
1
  6
Continuous
 62
     7
100
AcDbLine
 10
944.3719141323803
 20
994.0839687088367
 30
0.0
 11
944.3719141323803
 21
991.0839687088355
 31
0.0
  0
LINE
  5
107
330
1F
100
AcDbEntity
  8
1
  6
Continuous
 62
     7
100
AcDbLine
 10
969.3719141323803
 20
970.0839687088367
 30
0.0
 11
969.3719141323803
 21
991.0839687088355
 31
0.0
  0
LINE
  5
108
330
1F
100
AcDbEntity
  8
1
  6
Continuous
 62
     7
100
AcDbLine
 10
967.3719141323803
 20
968.0839687088367
 30
0.0
 11
969.3719141323803
 21
970.0839687088367
 31
0.0
  0
LINE
  5
109
330
1F
100
AcDbEntity
  8
1
  6
Continuous
 62
     7
100
AcDbLine
 10
946.3719141323794
 20
968.0839687088367
 30
0.0
 11
944.3719141323803
 21
970.0839687088367
 31
0.0
  0
LINE
  5
10A
330
1F
100
AcDbEntity
  8
1
  6
Continuous
 62
     7
100
AcDbLine
 10
582.1652908124119
 20
959.7682701047575
 30
0.0
 11
569.1652908124098
 21
982.2849306031601
 31
0.0
  0
LINE
  5
10B
330
1F
100
AcDbEntity
  8
1
  6
Continuous
 62
     7
100
AcDbLine
 10
566.5672146010556
 20
980.7849306031581
 30
0.0
 11
579.5672146010591
 21
958.2682701047567
 31
0.0
  0
LINE
  5
10C
330
1F
100
AcDbEntity
  8
1
  6
Continuous
 62
     7
100
AcDbLine
 10
579.5672146010591
 20
958.2682701047567
 30
0.0
 11
582.1652908124119
 21
959.7682701047575
 31
0.0
  0
LINE
  5
10D
330
1F
100
AcDbEntity
  8
1
  6
DOT_CENTER
 62
     3
100
AcDbLine
 10
135.9094468533147
 20
882.5839687088269
 30
0.0
 11
143.4094468533147
 21
882.5839687088269
 31
0.0
  0
LINE
  5
10E
330
1F
100
AcDbEntity
  8
1
  6
DASHED
 62
     4
100
AcDbLine
 10
339.1999005032348
 20
1392.232752517117
 30
0.0
 11
336.1999005032355
 21
1392.232752517117
 31
0.0
  0
LINE
  5
10F
330
1F
100
AcDbEntity
  8
1
  6
DASHED
 62
     4
100
AcDbLine
 10
336.1999005032355
 20
1392.232752517117
 30
0.0
 11
336.1999005032355
 21
1404.232752517117
 31
0.0
  0
LINE
  5
110
330
1F
100
AcDbEntity
  8
1
  6
DASHED
 62
     4
100
AcDbLine
 10
336.1999005032355
 20
1404.232752517117
 30
0.0
 11
339.1999005032348
 21
1404.232752517117
 31
0.0
  0
LINE
  5
111
330
1F
100
AcDbEntity
  8
1
  6
DASHED
 62
     4
100
AcDbLine
 10
565.1999005032335
 20
1410.732752517117
 30
0.0
 11
562.1999005032335
 21
1410.732752517117
 31
0.0
  0
LINE
  5
112
330
1F
100
AcDbEntity
  8
1
  6
DASHED
 62
     4
100
AcDbLine
 10
562.1999005032335
 20
1385.732752517117
 30
0.0
 11
565.1999005032335
 21
1385.732752517117
 31
0.0
  0
LINE
  5
113
330
1F
100
AcDbEntity
  8
1
  6
DASHED
 62
     4
100
AcDbLine
 10
565.1999005032335
 20
1385.732752517117
 30
0.0
 11
565.1999005032335
 21
1410.732752517117
 31
0.0
  0
LINE
  5
114
330
1F
100
AcDbEntity
  8
1
  6
Continuous
 62
     7
100
AcDbLine
 10
563.9691383897039
 20
979.284930603159
 30
0.0
 11
589.949900503233
 21
994.2849306031582
 31
0.0
  0
LINE
  5
115
330
1F
100
AcDbEntity
  8
1
  6
Continuous
 62
     7
100
AcDbLine
 10
944.3719141323803
 20
991.0839687088355
 30
0.0
 11
944.3719141323803
 21
970.0839687088367
 31
0.0
  0
LINE
  5
116
330
1F
100
AcDbEntity
  8
1
  6
Continuous
 62
     7
100
AcDbLine
 10
969.3719141323803
 20
991.0839687088355
 30
0.0
 11
969.3719141323803
 21
994.0839687088367
 31
0.0
  0
LINE
  5
117
330
1F
100
AcDbEntity
  8
1
  6
DASHED
 62
     4
100
AcDbLine
 10
562.1999005032385
 20
1378.232752517117
 30
0.0
 11
539.1999005032335
 21
1378.232752517117
 31
0.0
  0
LINE
  5
118
330
1F
100
AcDbEntity
  8
1
  6
Continuous
 62
     7
100
AcDbLine
 10
562.1999005032385
 20
1418.232752517117
 30
0.0
 11
589.1999005032335
 21
1418.232752517117
 31
0.0
  0
LINE
  5
119
330
1F
100
AcDbEntity
  8
1
  6
DASHED
 62
     4
100
AcDbLine
 10
1755.199934602805
 20
1378.232752517117
 30
0.0
 11
1732.1999346028
 21
1378.232752517117
 31
0.0
  0
LINE
  5
11A
330
1F
100
AcDbEntity
  8
1
  6
Continuous
 62
     7
100
AcDbLine
 10
1755.199934602805
 20
1418.232752517117
 30
0.0
 11
1782.1999346028
 21
1418.232752517117
 31
0.0
  0
LINE
  5
11B
330
1F
100
AcDbEntity
  8
1
  6
Continuous
 62
     7
100
AcDbLine
 10
368.9435495571285
 20
877.079159237214
 30
0.0
 11
373.4435495571286
 21
869.2849306031529
 31
0.0
  0
LINE
  5
11C
330
1F
100
AcDbEntity
  8
1
  6
Continuous
 62
     7
100
AcDbLine
 10
1239.659446853315
 20
819.0839687088702
 30
0.0
 11
1279.659446853315
 21
819.0839687088702
 31
0.0
  0
LINE
  5
11D
330
1F
100
AcDbEntity
  8
1
  6
Continuous
 62
     7
100
AcDbLine
 10
1772.781350315763
 20
965.8974771824653
 30
0.0
 11
1771.91532491198
 21
965.3974771824645
 31
0.0
  0
LINE
  5
11E
330
1F
100
AcDbEntity
  8
1
  6
Continuous
 62
     7
100
AcDbLine
 10
1766.915324911979
 20
974.0577312203099
 30
0.0
 11
1767.781350315764
 21
974.5577312203089
 31
0.0
  0
LINE
  5
11F
330
1F
100
AcDbEntity
  8
1
  6
Continuous
 62
     7
100
AcDbLine
 10
1773.707183340684
 20
966.8938873439786
 30
0.0
 11
1772.581350315764
 21
966.2438873439785
 31
0.0
  0
LINE
  5
120
330
1F
100
AcDbEntity
  8
1
  6
Continuous
 62
     7
100
AcDbLine
 10
1767.981350315764
 20
974.2113210587952
 30
0.0
 11
1769.107183340684
 21
974.861321058796
 31
0.0
  0
LINE
  5
121
330
1F
100
AcDbEntity
  8
1
  6
Continuous
 62
     7
100
AcDbLine
 10
1769.097782263926
 20
974.8776042013858
 30
0.0
 11
1771.819470100415
 21
976.4489714064333
 31
0.0
  0
LINE
  5
122
330
1F
100
AcDbEntity
  8
1
  6
Continuous
 62
     7
100
AcDbLine
 10
1773.716584417442
 20
966.8776042013872
 30
0.0
 11
1769.097782263926
 21
974.8776042013858
 31
0.0
  0
LINE
  5
123
330
1F
100
AcDbEntity
  8
1
  6
Continuous
 62
     7
100
AcDbLine
 10
1776.438272253931
 20
968.4489714064323
 30
0.0
 11
1773.716584417442
 21
966.8776042013872
 31
0.0
  0
LINE
  5
124
330
1F
100
AcDbEntity
  8
1
  6
Continuous
 62
     7
100
AcDbLine
 10
1772.974170638793
 20
974.4489714064323
 30
0.0
 11
1770.252482802305
 21
972.8776042013865
 31
0.0
  0
LINE
  5
125
330
1F
100
AcDbEntity
  8
1
  6
Continuous
 62
     7
100
AcDbLine
 10
1775.283571715553
 20
970.4489714064339
 30
0.0
 11
1772.561883879063
 21
968.8776042013865
 31
0.0
  0
LINE
  5
126
330
1F
100
AcDbEntity
  8
1
  6
Continuous
 62
     7
100
AcDbLine
 10
1772.706221446361
 20
975.6276042013865
 30
0.0
 11
1776.170323061499
 21
969.6276042013865
 31
0.0
  0
LINE
  5
127
330
1F
100
AcDbEntity
  8
1
  6
Continuous
 62
     7
100
AcDbLine
 10
1426.199934602801
 20
1393.232752517117
 30
0.0
 11
1425.199934602801
 21
1393.232752517117
 31
0.0
  0
LINE
  5
128
330
1F
100
AcDbEntity
  8
1
  6
Continuous
 62
     7
100
AcDbLine
 10
1425.199934602801
 20
1393.232752517117
 30
0.0
 11
1425.199934602802
 21
1403.232752517117
 31
0.0
  0
LINE
  5
129
330
1F
100
AcDbEntity
  8
1
  6
Continuous
 62
     7
100
AcDbLine
 10
1425.199934602802
 20
1403.232752517117
 30
0.0
 11
1426.199934602802
 21
1403.232752517117
 31
0.0
  0
LINE
  5
12A
330
1F
100
AcDbEntity
  8
1
  6
Continuous
 62
     7
100
AcDbLine
 10
1425.199934602801
 20
1393.632752517117
 30
0.0
 11
1423.899934602803
 21
1393.632752517117
 31
0.0
  0
LINE
  5
12B
330
1F
100
AcDbEntity
  8
1
  6
Continuous
 62
     7
100
AcDbLine
 10
1423.899934602803
 20
1393.632752517117
 30
0.0
 11
1423.899934602803
 21
1402.832752517115
 31
0.0
  0
LINE
  5
12C
330
1F
100
AcDbEntity
  8
1
  6
Continuous
 62
     7
100
AcDbLine
 10
1423.899934602803
 20
1402.832752517115
 30
0.0
 11
1425.199934602802
 21
1402.832752517115
 31
0.0
  0
LINE
  5
12D
330
1F
100
AcDbEntity
  8
1
  6
Continuous
 62
     7
100
AcDbLine
 10
1420.75720019271
 20
1402.851554670634
 30
0.0
 11
1423.899934602803
 21
1402.851554670634
 31
0.0
  0
LINE
  5
12E
330
1F
100
AcDbEntity
  8
1
  6
Continuous
 62
     7
100
AcDbLine
 10
1423.899934602803
 20
1402.851554670634
 30
0.0
 11
1423.899934602803
 21
1393.6139503636
 31
0.0
  0
LINE
  5
12F
330
1F
100
AcDbEntity
  8
1
  6
Continuous
 62
     7
100
AcDbLine
 10
1423.899934602803
 20
1393.6139503636
 30
0.0
 11
1420.75720019271
 21
1393.6139503636
 31
0.0
  0
LINE
  5
130
330
1F
100
AcDbEntity
  8
1
  6
Continuous
 62
     7
100
AcDbLine
 10
1423.899934602803
 20
1400.732752517117
 30
0.0
 11
1432.999934602802
 21
1400.732752517117
 31
0.0
  0
LINE
  5
131
330
1F
100
AcDbEntity
  8
1
  6
Continuous
 62
     7
100
AcDbLine
 10
1432.999934602802
 20
1400.732752517117
 30
0.0
 11
1433.899934602801
 21
1399.832752517115
 31
0.0
  0
LINE
  5
132
330
1F
100
AcDbEntity
  8
1
  6
Continuous
 62
     7
100
AcDbLine
 10
1433.899934602801
 20
1399.832752517115
 30
0.0
 11
1433.899934602801
 21
1396.632752517117
 31
0.0
  0
LINE
  5
133
330
1F
100
AcDbEntity
  8
1
  6
Continuous
 62
     7
100
AcDbLine
 10
1433.899934602801
 20
1396.632752517117
 30
0.0
 11
1432.999934602801
 21
1395.732752517117
 31
0.0
  0
LINE
  5
134
330
1F
100
AcDbEntity
  8
1
  6
Continuous
 62
     7
100
AcDbLine
 10
1432.999934602801
 20
1395.732752517117
 30
0.0
 11
1423.899934602803
 21
1395.732752517117
 31
0.0
  0
LINE
  5
135
330
1F
100
AcDbEntity
  8
1
  6
Continuous
 62
     7
100
AcDbLine
 10
1423.899934602803
 20
1400.542153593875
 30
0.0
 11
1420.75720019271
 21
1400.542153593875
 31
0.0
  0
LINE
  5
136
330
1F
100
AcDbEntity
  8
1
  6
Continuous
 62
     7
100
AcDbLine
 10
1423.899934602803
 20
1395.923351440358
 30
0.0
 11
1420.75720019271
 21
1395.923351440358
 31
0.0
  0
LINE
  5
137
330
1F
100
AcDbEntity
  8
1
  6
Continuous
 62
     7
100
AcDbLine
 10
1420.399934602803
 20
1394.76865090198
 30
0.0
 11
1420.399934602803
 21
1401.696854132254
 31
0.0
  0
LINE
  5
138
330
1F
100
AcDbEntity
  8
1
  6
Continuous
 62
     7
100
AcDbLine
 10
1424.649912602479
 20
1400.732752517117
 30
0.0
 11
1424.649912602478
 21
1395.732752517117
 31
0.0
  0
LINE
  5
139
330
1F
100
AcDbEntity
  8
1
  6
Continuous
 62
     3
100
AcDbLine
 10
1423.899934602803
 20
1400.732752517117
 30
0.0
 11
1424.649912602478
 21
1400.299752517117
 31
0.0
  0
LINE
  5
13A
330
1F
100
AcDbEntity
  8
1
  6
Continuous
 62
     3
100
AcDbLine
 10
1424.649912602478
 20
1400.299752517117
 30
0.0
 11
1433.432934602802
 21
1400.299752517117
 31
0.0
  0
LINE
  5
13B
330
1F
100
AcDbEntity
  8
1
  6
Continuous
 62
     3
100
AcDbLine
 10
1432.999934602802
 20
1400.732752517117
 30
0.0
 11
1432.999934602801
 21
1395.732752517117
 31
0.0
  0
LINE
  5
13C
330
1F
100
AcDbEntity
  8
1
  6
Continuous
 62
     3
100
AcDbLine
 10
1433.432934602802
 20
1396.165752517117
 30
0.0
 11
1424.649912602479
 21
1396.165752517117
 31
0.0
  0
LINE
  5
13D
330
1F
100
AcDbEntity
  8
1
  6
Continuous
 62
     3
100
AcDbLine
 10
1424.649912602479
 20
1396.165752517117
 30
0.0
 11
1423.899934602803
 21
1395.732752517117
 31
0.0
  0
LINE
  5
13E
330
1F
100
AcDbEntity
  8
1
  6
DASH_CENTER
 62
     3
100
AcDbLine
 10
1433.899934602801
 20
1398.232752517117
 30
0.0
 11
1420.399934602803
 21
1398.232752517117
 31
0.0
  0
LINE
  5
13F
330
1F
100
AcDbEntity
  8
1
  6
DASH_CENTER
 62
     3
100
AcDbLine
 10
1474.563286464684
 20
831.8263155073518
 30
0.0
 11
1462.871943513594
 21
825.0763155073518
 31
0.0
  0
LINE
  5
140
330
1F
100
AcDbEntity
  8
1
  6
Continuous
 62
     3
100
AcDbLine
 10
1467.58603242684
 20
825.4112299975679
 30
0.0
 11
1467.153032426841
 21
824.6612519978913
 31
0.0
  0
LINE
  5
141
330
1F
100
AcDbEntity
  8
1
  6
Continuous
 62
     3
100
AcDbLine
 10
1475.192352601117
 20
829.8027409977294
 30
0.0
 11
1467.58603242684
 21
825.4112299975679
 31
0.0
  0
LINE
  5
142
330
1F
100
AcDbEntity
  8
1
  6
Continuous
 62
     3
100
AcDbLine
 10
1472.533863601278
 20
833.541379016813
 30
0.0
 11
1475.033863601278
 21
829.2112519978908
 31
0.0
  0
LINE
  5
143
330
1F
100
AcDbEntity
  8
1
  6
Continuous
 62
     3
100
AcDbLine
 10
1465.51903242684
 20
828.9913790168129
 30
0.0
 11
1473.125352601116
 21
833.3828900169739
 31
0.0
  0
LINE
  5
144
330
1F
100
AcDbEntity
  8
1
  6
Continuous
 62
     3
100
AcDbLine
 10
1464.65303242684
 20
828.9913790168129
 30
0.0
 11
1465.51903242684
 21
828.9913790168129
 31
0.0
  0
LINE
  5
145
330
1F
100
AcDbEntity
  8
1
  6
Continuous
 62
     7
100
AcDbLine
 10
1465.30253242684
 20
829.3663680166516
 30
0.0
 11
1467.80253242684
 21
825.0362409977294
 31
0.0
  0
LINE
  5
146
330
1F
100
AcDbEntity
  8
1
  6
Continuous
 62
     7
100
AcDbLine
 10
1464.603994321165
 20
822.0763155073524
 30
0.0
 11
1461.139892706025
 21
828.076315507352
 31
0.0
  0
LINE
  5
147
330
1F
100
AcDbEntity
  8
1
  6
Continuous
 62
     7
100
AcDbLine
 10
1467.057732965221
 20
824.8263155073519
 30
0.0
 11
1464.336045128732
 21
823.2549483023066
 31
0.0
  0
LINE
  5
148
330
1F
100
AcDbEntity
  8
1
  6
Continuous
 62
     7
100
AcDbLine
 10
1464.748331888461
 20
828.8263155073513
 30
0.0
 11
1462.026644051974
 21
827.2549483023055
 31
0.0
  0
LINE
  5
149
330
1F
100
AcDbEntity
  8
1
  6
Continuous
 62
     7
100
AcDbLine
 10
1475.033863601278
 20
829.2112519978908
 30
0.0
 11
1467.153032426841
 21
824.6612519978913
 31
0.0
  0
LINE
  5
14A
330
1F
100
AcDbEntity
  8
1
  6
Continuous
 62
     7
100
AcDbLine
 10
1475.363286464684
 20
830.4406748612965
 30
0.0
 11
1475.033863601278
 21
829.2112519978908
 31
0.0
  0
LINE
  5
14B
330
1F
100
AcDbEntity
  8
1
  6
Continuous
 62
     7
100
AcDbLine
 10
1473.763286464685
 20
833.2119561534059
 30
0.0
 11
1475.363286464684
 21
830.4406748612965
 31
0.0
  0
LINE
  5
14C
330
1F
100
AcDbEntity
  8
1
  6
Continuous
 62
     7
100
AcDbLine
 10
1472.533863601278
 20
833.541379016813
 30
0.0
 11
1473.763286464685
 21
833.2119561534059
 31
0.0
  0
LINE
  5
14D
330
1F
100
AcDbEntity
  8
1
  6
Continuous
 62
     7
100
AcDbLine
 10
1464.65303242684
 20
828.9913790168129
 30
0.0
 11
1472.533863601278
 21
833.541379016813
 31
0.0
  0
LINE
  5
14E
330
1F
100
AcDbEntity
  8
1
  6
Continuous
 62
     7
100
AcDbLine
 10
1468.212433503599
 20
822.8263155073526
 30
0.0
 11
1465.490745667111
 21
821.2549483023061
 31
0.0
  0
LINE
  5
14F
330
1F
100
AcDbEntity
  8
1
  6
Continuous
 62
     7
100
AcDbLine
 10
1463.593631350081
 20
830.8263155073518
 30
0.0
 11
1468.212433503599
 21
822.8263155073526
 31
0.0
  0
LINE
  5
150
330
1F
100
AcDbEntity
  8
1
  6
Continuous
 62
     7
100
AcDbLine
 10
1460.871943513595
 20
829.2549483023059
 30
0.0
 11
1463.593631350081
 21
830.8263155073518
 31
0.0
  0
LINE
  5
151
330
1F
100
AcDbEntity
  8
1
  6
Continuous
 62
     7
100
AcDbLine
 10
1463.603032426841
 20
830.8100323647599
 30
0.0
 11
1464.728865451759
 21
831.4600323647584
 31
0.0
  0
LINE
  5
152
330
1F
100
AcDbEntity
  8
1
  6
Continuous
 62
     7
100
AcDbLine
 10
1469.32886545176
 20
823.4925986499433
 30
0.0
 11
1468.203032426841
 21
822.8425986499439
 31
0.0
  0
LINE
  5
153
330
1F
100
AcDbEntity
  8
1
  6
Continuous
 62
     7
100
AcDbLine
 10
1464.52886545176
 20
831.8064425262741
 30
0.0
 11
1465.394890855544
 21
832.3064425262741
 31
0.0
  0
LINE
  5
154
330
1F
100
AcDbEntity
  8
1
  6
Continuous
 62
     7
100
AcDbLine
 10
1470.394890855544
 20
823.6461884884296
 30
0.0
 11
1469.52886545176
 21
823.1461884884296
 31
0.0
  0
LINE
  5
155
330
1F
100
AcDbEntity
  8
1
  6
Continuous
 62
     7
100
AcDbLine
 10
1465.394890855544
 20
832.3064425262741
 30
0.0
 11
1470.394890855544
 21
823.6461884884296
 31
0.0
  0
LINE
  5
156
330
1F
100
AcDbEntity
  8
1
  6
Continuous
 62
     7
100
AcDbLine
 10
363.997397134422
 20
873.6461465353207
 30
0.0
 11
363.1313717306376
 21
873.1461465353207
 31
0.0
  0
LINE
  5
157
330
1F
100
AcDbEntity
  8
1
  6
Continuous
 62
     7
100
AcDbLine
 10
363.1313717306376
 20
873.1461465353207
 30
0.0
 11
358.1313717306377
 21
881.8064005731651
 31
0.0
  0
LINE
  5
158
330
1F
100
AcDbEntity
  8
1
  6
Continuous
 62
     7
100
AcDbLine
 10
358.1313717306377
 20
881.8064005731651
 30
0.0
 11
358.9973971344226
 21
882.3064005731642
 31
0.0
  0
LINE
  5
159
330
1F
100
AcDbEntity
  8
1
  6
Continuous
 62
     7
100
AcDbLine
 10
362.9313717306378
 20
873.4925566968344
 30
0.0
 11
361.8055387057186
 21
872.8425566968349
 31
0.0
  0
LINE
  5
15A
330
1F
100
AcDbEntity
  8
1
  6
Continuous
 62
     7
100
AcDbLine
 10
357.2055387057187
 20
880.8099904116516
 30
0.0
 11
358.3313717306359
 21
881.4599904116501
 31
0.0
  0
LINE
  5
15B
330
1F
100
AcDbEntity
  8
1
  6
Continuous
 62
     7
100
AcDbLine
 10
354.4744497924725
 20
879.2549063491961
 30
0.0
 11
357.1961376289596
 21
880.8262735542421
 31
0.0
  0
LINE
  5
15C
330
1F
100
AcDbEntity
  8
1
  6
Continuous
 62
     7
100
AcDbLine
 10
357.1961376289596
 20
880.8262735542421
 30
0.0
 11
361.814939782477
 21
872.8262735542435
 31
0.0
  0
LINE
  5
15D
330
1F
100
AcDbEntity
  8
1
  6
Continuous
 62
     7
100
AcDbLine
 10
361.814939782477
 20
872.8262735542435
 30
0.0
 11
359.093251945989
 21
871.254906349197
 31
0.0
  0
LINE
  5
15E
330
1F
100
AcDbEntity
  8
1
  6
Continuous
 62
     7
100
AcDbLine
 10
358.2555387057177
 20
878.9913370637039
 30
0.0
 11
366.1363698801562
 21
883.5413370637039
 31
0.0
  0
LINE
  5
15F
330
1F
100
AcDbEntity
  8
1
  6
Continuous
 62
     7
100
AcDbLine
 10
366.1363698801562
 20
883.5413370637039
 30
0.0
 11
367.3657927435622
 21
883.2119142002978
 31
0.0
  0
LINE
  5
160
330
1F
100
AcDbEntity
  8
1
  6
Continuous
 62
     7
100
AcDbLine
 10
367.3657927435622
 20
883.2119142002978
 30
0.0
 11
368.9657927435621
 21
880.4406329081876
 31
0.0
  0
LINE
  5
161
330
1F
100
AcDbEntity
  8
1
  6
Continuous
 62
     7
100
AcDbLine
 10
368.9657927435621
 20
880.4406329081876
 30
0.0
 11
368.6363698801561
 21
879.2112100447818
 31
0.0
  0
LINE
  5
162
330
1F
100
AcDbEntity
  8
1
  6
Continuous
 62
     7
100
AcDbLine
 10
368.6363698801561
 20
879.2112100447818
 30
0.0
 11
360.7555387057186
 21
874.6612100447823
 31
0.0
  0
LINE
  5
163
330
1F
100
AcDbEntity
  8
1
  6
Continuous
 62
     7
100
AcDbLine
 10
358.3508381673391
 20
878.8262735542417
 30
0.0
 11
355.6291503308516
 21
877.2549063491965
 31
0.0
  0
LINE
  5
164
330
1F
100
AcDbEntity
  8
1
  6
Continuous
 62
     7
100
AcDbLine
 10
360.6602392440983
 20
874.8262735542428
 30
0.0
 11
357.9385514076095
 21
873.2549063491975
 31
0.0
  0
LINE
  5
165
330
1F
100
AcDbEntity
  8
1
  6
Continuous
 62
     7
100
AcDbLine
 10
358.2065006000419
 20
872.0762735542434
 30
0.0
 11
354.7423989849031
 21
878.076273554243
 31
0.0
  0
LINE
  5
166
330
1F
100
AcDbEntity
  8
1
  6
Continuous
 62
     7
100
AcDbLine
 10
358.9050387057176
 20
879.3663260635426
 30
0.0
 11
361.4050387057176
 21
875.0361990446202
 31
0.0
  0
LINE
  5
167
330
1F
100
AcDbEntity
  8
1
  6
Continuous
 62
     3
100
AcDbLine
 10
358.2555387057177
 20
878.9913370637039
 30
0.0
 11
359.1215387057176
 21
878.9913370637039
 31
0.0
  0
LINE
  5
168
330
1F
100
AcDbEntity
  8
1
  6
Continuous
 62
     3
100
AcDbLine
 10
359.1215387057176
 20
878.9913370637039
 30
0.0
 11
366.7278588799941
 21
883.3828480638649
 31
0.0
  0
LINE
  5
169
330
1F
100
AcDbEntity
  8
1
  6
Continuous
 62
     3
100
AcDbLine
 10
366.1363698801562
 20
883.5413370637039
 30
0.0
 11
368.6363698801561
 21
879.2112100447818
 31
0.0
  0
LINE
  5
16A
330
1F
100
AcDbEntity
  8
1
  6
Continuous
 62
     3
100
AcDbLine
 10
368.7948588799948
 20
879.8026990446203
 30
0.0
 11
361.1885387057176
 21
875.4111880444589
 31
0.0
  0
LINE
  5
16B
330
1F
100
AcDbEntity
  8
1
  6
Continuous
 62
     3
100
AcDbLine
 10
361.1885387057176
 20
875.4111880444589
 30
0.0
 11
360.7555387057186
 21
874.6612100447823
 31
0.0
  0
LINE
  5
16C
330
1F
100
AcDbEntity
  8
1
  6
DASH_CENTER
 62
     3
100
AcDbLine
 10
368.1657927435621
 20
881.8262735542428
 30
0.0
 11
356.4744497924722
 21
875.0762735542428
 31
0.0
  0
LINE
  5
16D
330
1F
100
AcDbEntity
  8
1
  6
DASH_CENTER
 62
     3
100
AcDbLine
 10
340.8999005032353
 20
1398.232752517117
 30
0.0
 11
327.3999005032364
 21
1398.232752517117
 31
0.0
  0
LINE
  5
16E
330
1F
100
AcDbEntity
  8
1
  6
Continuous
 62
     3
100
AcDbLine
 10
331.6498785029125
 20
1396.165752517117
 30
0.0
 11
330.8999005032364
 21
1395.732752517117
 31
0.0
  0
LINE
  5
16F
330
1F
100
AcDbEntity
  8
1
  6
Continuous
 62
     3
100
AcDbLine
 10
340.4329005032353
 20
1396.165752517117
 30
0.0
 11
331.6498785029125
 21
1396.165752517117
 31
0.0
  0
LINE
  5
170
330
1F
100
AcDbEntity
  8
1
  6
Continuous
 62
     3
100
AcDbLine
 10
339.9999005032354
 20
1400.732752517117
 30
0.0
 11
339.9999005032354
 21
1395.732752517117
 31
0.0
  0
LINE
  5
171
330
1F
100
AcDbEntity
  8
1
  6
Continuous
 62
     3
100
AcDbLine
 10
331.6498785029125
 20
1400.299752517117
 30
0.0
 11
340.4329005032353
 21
1400.299752517117
 31
0.0
  0
LINE
  5
172
330
1F
100
AcDbEntity
  8
1
  6
Continuous
 62
     3
100
AcDbLine
 10
330.8999005032364
 20
1400.732752517117
 30
0.0
 11
331.6498785029125
 21
1400.299752517117
 31
0.0
  0
LINE
  5
173
330
1F
100
AcDbEntity
  8
1
  6
Continuous
 62
     7
100
AcDbLine
 10
331.6498785029125
 20
1400.732752517117
 30
0.0
 11
331.6498785029125
 21
1395.732752517117
 31
0.0
  0
LINE
  5
174
330
1F
100
AcDbEntity
  8
1
  6
Continuous
 62
     7
100
AcDbLine
 10
327.3999005032364
 20
1394.768650901979
 30
0.0
 11
327.3999005032364
 21
1401.696854132254
 31
0.0
  0
LINE
  5
175
330
1F
100
AcDbEntity
  8
1
  6
Continuous
 62
     7
100
AcDbLine
 10
330.8999005032364
 20
1395.923351440358
 30
0.0
 11
327.7571660931434
 21
1395.923351440358
 31
0.0
  0
LINE
  5
176
330
1F
100
AcDbEntity
  8
1
  6
Continuous
 62
     7
100
AcDbLine
 10
330.8999005032364
 20
1400.542153593875
 30
0.0
 11
327.7571660931434
 21
1400.542153593875
 31
0.0
  0
LINE
  5
177
330
1F
100
AcDbEntity
  8
1
  6
Continuous
 62
     7
100
AcDbLine
 10
339.9999005032354
 20
1395.732752517117
 30
0.0
 11
330.8999005032364
 21
1395.732752517117
 31
0.0
  0
LINE
  5
178
330
1F
100
AcDbEntity
  8
1
  6
Continuous
 62
     7
100
AcDbLine
 10
340.8999005032353
 20
1396.632752517117
 30
0.0
 11
339.9999005032354
 21
1395.732752517117
 31
0.0
  0
LINE
  5
179
330
1F
100
AcDbEntity
  8
1
  6
Continuous
 62
     7
100
AcDbLine
 10
340.8999005032353
 20
1399.832752517116
 30
0.0
 11
340.8999005032353
 21
1396.632752517117
 31
0.0
  0
LINE
  5
17A
330
1F
100
AcDbEntity
  8
1
  6
Continuous
 62
     7
100
AcDbLine
 10
339.9999005032354
 20
1400.732752517117
 30
0.0
 11
340.8999005032353
 21
1399.832752517116
 31
0.0
  0
LINE
  5
17B
330
1F
100
AcDbEntity
  8
1
  6
Continuous
 62
     7
100
AcDbLine
 10
330.8999005032364
 20
1400.732752517117
 30
0.0
 11
339.9999005032354
 21
1400.732752517117
 31
0.0
  0
LINE
  5
17C
330
1F
100
AcDbEntity
  8
1
  6
Continuous
 62
     7
100
AcDbLine
 10
330.8999005032364
 20
1393.6139503636
 30
0.0
 11
327.7571660931434
 21
1393.6139503636
 31
0.0
  0
LINE
  5
17D
330
1F
100
AcDbEntity
  8
1
  6
Continuous
 62
     7
100
AcDbLine
 10
330.8999005032364
 20
1402.851554670634
 30
0.0
 11
330.8999005032364
 21
1393.6139503636
 31
0.0
  0
LINE
  5
17E
330
1F
100
AcDbEntity
  8
1
  6
Continuous
 62
     7
100
AcDbLine
 10
327.7571660931434
 20
1402.851554670634
 30
0.0
 11
330.8999005032364
 21
1402.851554670634
 31
0.0
  0
LINE
  5
17F
330
1F
100
AcDbEntity
  8
1
  6
Continuous
 62
     6
100
AcDbLine
 10
332.1999005032355
 20
1395.682752517117
 30
0.0
 11
330.8999005032364
 21
1395.682752517117
 31
0.0
  0
LINE
  5
180
330
1F
100
AcDbEntity
  8
1
  6
Continuous
 62
     6
100
AcDbLine
 10
332.1999005032355
 20
1400.782752517117
 30
0.0
 11
330.8999005032364
 21
1400.782752517117
 31
0.0
  0
LINE
  5
181
330
1F
100
AcDbEntity
  8
1
  6
Continuous
 62
     7
100
AcDbLine
 10
330.8999005032364
 20
1402.832752517116
 30
0.0
 11
332.1999005032355
 21
1402.832752517116
 31
0.0
  0
LINE
  5
182
330
1F
100
AcDbEntity
  8
1
  6
Continuous
 62
     7
100
AcDbLine
 10
330.8999005032364
 20
1393.632752517117
 30
0.0
 11
330.8999005032364
 21
1402.832752517116
 31
0.0
  0
LINE
  5
183
330
1F
100
AcDbEntity
  8
1
  6
Continuous
 62
     7
100
AcDbLine
 10
332.1999005032355
 20
1393.632752517117
 30
0.0
 11
330.8999005032364
 21
1393.632752517117
 31
0.0
  0
LINE
  5
184
330
1F
100
AcDbEntity
  8
1
  6
Continuous
 62
     7
100
AcDbLine
 10
332.1999005032355
 20
1402.832752517116
 30
0.0
 11
332.1999005032355
 21
1393.632752517117
 31
0.0
  0
LINE
  5
185
330
1F
100
AcDbEntity
  8
1
  6
Continuous
 62
     6
100
AcDbLine
 10
333.1999005032355
 20
1395.582752517116
 30
0.0
 11
332.1999005032355
 21
1395.582752517116
 31
0.0
  0
LINE
  5
186
330
1F
100
AcDbEntity
  8
1
  6
Continuous
 62
     6
100
AcDbLine
 10
333.1999005032355
 20
1400.882752517117
 30
0.0
 11
332.1999005032355
 21
1400.882752517117
 31
0.0
  0
LINE
  5
187
330
1F
100
AcDbEntity
  8
1
  6
Continuous
 62
     7
100
AcDbLine
 10
332.1999005032355
 20
1403.232752517117
 30
0.0
 11
333.1999005032355
 21
1403.232752517117
 31
0.0
  0
LINE
  5
188
330
1F
100
AcDbEntity
  8
1
  6
Continuous
 62
     7
100
AcDbLine
 10
332.1999005032355
 20
1393.232752517117
 30
0.0
 11
332.1999005032355
 21
1403.232752517117
 31
0.0
  0
LINE
  5
189
330
1F
100
AcDbEntity
  8
1
  6
Continuous
 62
     7
100
AcDbLine
 10
333.1999005032355
 20
1393.232752517117
 30
0.0
 11
332.1999005032355
 21
1393.232752517117
 31
0.0
  0
LINE
  5
18A
330
1F
100
AcDbEntity
  8
1
  6
Continuous
 62
     7
100
AcDbLine
 10
333.1999005032355
 20
1403.232752517117
 30
0.0
 11
333.1999005032355
 21
1393.232752517117
 31
0.0
  0
LINE
  5
18B
330
1F
100
AcDbEntity
  8
1
  6
Continuous
 62
     7
100
AcDbLine
 10
579.7061873467942
 20
975.6275622482783
 30
0.0
 11
583.1702889619324
 21
969.6275622482774
 31
0.0
  0
LINE
  5
18C
330
1F
100
AcDbEntity
  8
1
  6
Continuous
 62
     7
100
AcDbLine
 10
582.2835376159861
 20
970.4489294533253
 30
0.0
 11
579.5618497794974
 21
968.8775622482783
 31
0.0
  0
LINE
  5
18D
330
1F
100
AcDbEntity
  8
1
  6
Continuous
 62
     7
100
AcDbLine
 10
579.9741365392275
 20
974.4489294533237
 30
0.0
 11
577.252448702739
 21
972.8775622482781
 31
0.0
  0
LINE
  5
18E
330
1F
100
AcDbEntity
  8
1
  6
Continuous
 62
     7
100
AcDbLine
 10
583.438238154365
 20
968.4489294533242
 30
0.0
 11
580.716550317876
 21
966.8775622482783
 31
0.0
  0
LINE
  5
18F
330
1F
100
AcDbEntity
  8
1
  6
Continuous
 62
     7
100
AcDbLine
 10
580.716550317876
 20
966.8775622482783
 30
0.0
 11
576.0977481643599
 21
974.8775622482776
 31
0.0
  0
LINE
  5
190
330
1F
100
AcDbEntity
  8
1
  6
Continuous
 62
     7
100
AcDbLine
 10
576.0977481643599
 20
974.8775622482776
 30
0.0
 11
578.8194360008494
 21
976.4489294533249
 31
0.0
  0
LINE
  5
191
330
1F
100
AcDbEntity
  8
1
  6
Continuous
 62
     7
100
AcDbLine
 10
574.9813162161973
 20
974.2112791056875
 30
0.0
 11
576.1071492411174
 21
974.8612791056878
 31
0.0
  0
LINE
  5
192
330
1F
100
AcDbEntity
  8
1
  6
Continuous
 62
     7
100
AcDbLine
 10
580.7071492411185
 20
966.8938453908692
 30
0.0
 11
579.5813162161984
 21
966.243845390869
 31
0.0
  0
LINE
  5
193
330
1F
100
AcDbEntity
  8
1
  6
Continuous
 62
     7
100
AcDbLine
 10
573.9152908124136
 20
974.0576892672002
 30
0.0
 11
574.7813162161983
 21
974.5576892671995
 31
0.0
  0
LINE
  5
194
330
1F
100
AcDbEntity
  8
1
  6
Continuous
 62
     7
100
AcDbLine
 10
574.7813162161983
 20
974.5576892671995
 30
0.0
 11
579.7813162161978
 21
965.8974352293549
 31
0.0
  0
LINE
  5
195
330
1F
100
AcDbEntity
  8
1
  6
Continuous
 62
     7
100
AcDbLine
 10
579.7813162161978
 20
965.8974352293549
 30
0.0
 11
578.9152908124133
 21
965.3974352293549
 31
0.0
  0
LINE
  5
196
330
1F
100
AcDbEntity
  8
1
  6
Continuous
 62
     7
100
AcDbLine
 10
363.997397134422
 20
873.6461465353207
 30
0.0
 11
363.7473971344199
 21
874.0791592372127
 31
0.0
  0
LINE
  5
197
330
1F
100
AcDbEntity
  8
1
  6
Continuous
 62
     7
100
AcDbLine
 10
1767.781350315764
 20
974.5577312203089
 30
0.0
 11
1772.781350315763
 21
965.8974771824653
 31
0.0
  0
LINE
  5
198
330
1F
100
AcDbEntity
  8
1
  6
Continuous
 62
     7
100
AcDbLine
 10
1469.52886545176
 20
823.1461884884296
 30
0.0
 11
1464.52886545176
 21
831.8064425262741
 31
0.0
  0
LINE
  5
199
330
1F
100
AcDbEntity
  8
1
  6
PHANTOM
 62
     4
100
AcDbLine
 10
1259.659446853315
 20
795.5839687088711
 30
0.0
 11
1266.659446853315
 21
795.5839687088711
 31
0.0
  0
LINE
  5
19A
330
1F
100
AcDbEntity
  8
1
  6
Continuous
 62
     7
100
AcDbLine
 10
1769.969172489269
 20
956.7683120578736
 30
0.0
 11
1743.719172489268
 21
1002.234645756556
 31
0.0
  0
LINE
  5
19B
330
1F
100
AcDbEntity
  8
1
  6
Continuous
 62
     7
100
AcDbLine
 10
1479.091043278252
 20
820.5840106619393
 30
0.0
 11
1491.591043278253
 21
798.9333755673291
 31
0.0
  0
LINE
  5
19C
330
1F
100
AcDbEntity
  8
1
  6
DASHED
 62
     4
100
AcDbLine
 10
1516.199934602806
 20
1423.232752517117
 30
0.0
 11
1435.1999346028
 21
1423.232752517117
 31
0.0
  0
LINE
  5
19D
330
1F
100
AcDbEntity
  8
1
  6
Continuous
 62
     7
100
AcDbLine
 10
1516.199934602806
 20
1373.232752517117
 30
0.0
 11
1717.197010030982
 21
1373.232752517117
 31
0.0
  0
LINE
  5
19E
330
1F
100
AcDbEntity
  8
1
  6
Continuous
 62
     7
100
AcDbLine
 10
1743.719172489268
 20
1002.234645756556
 30
0.0
 11
1739.389196131707
 21
999.7347327409332
 31
0.0
  0
LINE
  5
19F
330
1F
100
AcDbEntity
  8
1
  6
Continuous
 62
     7
100
AcDbLine
 10
1491.591043278253
 20
798.9333755673291
 30
0.0
 11
1530.562445283002
 21
821.4335250054686
 31
0.0
  0
LINE
  5
1A0
330
1F
100
AcDbEntity
  8
1
  6
DASHED
 62
     4
100
AcDbLine
 10
1745.219172489267
 20
999.6365695452032
 30
0.0
 11
1468.091043278253
 21
839.6365695451971
 31
0.0
  0
LINE
  5
1A1
330
1F
100
AcDbEntity
  8
1
  6
DASHED
 62
     4
100
AcDbLine
 10
1767.219172489269
 20
961.5314517786851
 30
0.0
 11
1490.091043278253
 21
801.5314517786825
 31
0.0
  0
LINE
  5
1A2
330
1F
100
AcDbEntity
  8
1
  6
DASH_CENTER
 62
     3
100
AcDbLine
 10
1782.1999346028
 20
995.5840106619421
 30
0.0
 11
1479.091043278252
 21
820.5840106619393
 31
0.0
  0
LINE
  5
1A3
330
1F
100
AcDbEntity
  8
1
  6
DASH_CENTER
 62
     3
100
AcDbLine
 10
1782.1999346028
 20
1398.232752517117
 30
0.0
 11
1433.899934602801
 21
1398.232752517117
 31
0.0
  0
LINE
  5
1A4
330
1F
100
AcDbEntity
  8
1
  6
DASHED
 62
     4
100
AcDbLine
 10
1752.199934602802
 20
1376.232752517117
 30
0.0
 11
1435.1999346028
 21
1376.232752517117
 31
0.0
  0
LINE
  5
1A5
330
1F
100
AcDbEntity
  8
1
  6
DASHED
 62
     4
100
AcDbLine
 10
1752.199934602802
 20
1420.232752517117
 30
0.0
 11
1435.1999346028
 21
1420.232752517117
 31
0.0
  0
LINE
  5
1A6
330
1F
100
AcDbEntity
  8
1
  6
DASHED
 62
     4
100
AcDbLine
 10
1435.1999346028
 20
1373.232752517117
 30
0.0
 11
1516.199934602806
 21
1373.232752517117
 31
0.0
  0
LINE
  5
1A7
330
1F
100
AcDbEntity
  8
1
  6
DASHED
 62
     4
100
AcDbLine
 10
1435.1999346028
 20
1423.232752517117
 30
0.0
 11
1435.1999346028
 21
1373.232752517117
 31
0.0
  0
LINE
  5
1A8
330
1F
100
AcDbEntity
  8
1
  6
Continuous
 62
     7
100
AcDbLine
 10
1752.199934602802
 20
1423.232752517117
 30
0.0
 11
1747.196606101862
 21
1423.232752517117
 31
0.0
  0
LINE
  5
1A9
330
1F
100
AcDbEntity
  8
1
  6
DASH_CENTER
 62
     3
100
AcDbLine
 10
1259.659446853315
 20
851.1654456186362
 30
0.0
 11
1259.659446853315
 21
795.0839687088702
 31
0.0
  0
LINE
  5
1AA
330
1F
100
AcDbEntity
  8
1
  6
DASH_CENTER
 62
     3
100
AcDbLine
 10
1234.159446853315
 20
820.5839687088702
 30
0.0
 11
1285.159446853315
 21
820.5839687088702
 31
0.0
  0
LINE
  5
1AB
330
1F
100
AcDbEntity
  8
1
  6
DASH_CENTER
 62
     3
100
AcDbLine
 10
2137.371914132381
 20
995.5839687088367
 30
0.0
 11
2212.371914132381
 21
995.5839687088367
 31
0.0
  0
LINE
  5
1AC
330
1F
100
AcDbEntity
  8
1
  6
DASH_CENTER
 62
     3
100
AcDbLine
 10
919.3719141323807
 20
995.5839687088367
 30
0.0
 11
994.3719141323801
 21
995.5839687088367
 31
0.0
  0
LINE
  5
1AD
330
1F
100
AcDbEntity
  8
1
  6
DASH_CENTER
 62
     3
100
AcDbLine
 10
114.1594468533147
 20
870.5839687088269
 30
0.0
 11
165.1594468533147
 21
870.5839687088269
 31
0.0
  0
LINE
  5
1AE
330
1F
100
AcDbEntity
  8
1
  6
DASH_CENTER
 62
     3
100
AcDbLine
 10
139.6594468533147
 20
901.165445618592
 30
0.0
 11
139.6594468533147
 21
845.0839687088269
 31
0.0
  0
LINE
  5
1AF
330
1F
100
AcDbEntity
  8
1
  6
Continuous
 62
     7
100
AcDbLine
 10
559.1999005032355
 20
1423.232752517117
 30
0.0
 11
554.1965720022957
 21
1423.232752517117
 31
0.0
  0
LINE
  5
1B0
330
1F
100
AcDbEntity
  8
1
  6
DASHED
 62
     4
100
AcDbLine
 10
342.1999005032334
 20
1423.232752517117
 30
0.0
 11
342.1999005032334
 21
1373.232752517117
 31
0.0
  0
LINE
  5
1B1
330
1F
100
AcDbEntity
  8
1
  6
DASHED
 62
     4
100
AcDbLine
 10
342.1999005032334
 20
1373.232752517117
 30
0.0
 11
423.1999005032396
 21
1373.232752517117
 31
0.0
  0
LINE
  5
1B2
330
1F
100
AcDbEntity
  8
1
  6
Continuous
 62
     7
100
AcDbLine
 10
559.1999005032355
 20
1373.232752517117
 30
0.0
 11
559.1999005032355
 21
1423.232752517117
 31
0.0
  0
LINE
  5
1B3
330
1F
100
AcDbEntity
  8
1
  6
DASHED
 62
     4
100
AcDbLine
 10
559.1999005032355
 20
1420.232752517117
 30
0.0
 11
342.1999005032334
 21
1420.232752517117
 31
0.0
  0
LINE
  5
1B4
330
1F
100
AcDbEntity
  8
1
  6
DASHED
 62
     4
100
AcDbLine
 10
559.1999005032355
 20
1376.232752517117
 30
0.0
 11
342.1999005032334
 21
1376.232752517117
 31
0.0
  0
LINE
  5
1B5
330
1F
100
AcDbEntity
  8
1
  6
DASHED
 62
     4
100
AcDbLine
 10
574.2191383897027
 20
961.5314098255763
 30
0.0
 11
383.6935495571311
 21
851.5314098255734
 31
0.0
  0
LINE
  5
1B6
330
1F
100
AcDbEntity
  8
1
  6
DASHED
 62
     4
100
AcDbLine
 10
552.2191383897017
 20
999.6365275920934
 30
0.0
 11
361.6935495571303
 21
889.6365275920882
 31
0.0
  0
LINE
  5
1B7
330
1F
100
AcDbEntity
  8
1
  6
Continuous
 62
     7
100
AcDbLine
 10
385.1935495571311
 20
848.9333336142202
 30
0.0
 11
424.1649515618797
 21
871.4334830523601
 31
0.0
  0
LINE
  5
1B8
330
1F
100
AcDbEntity
  8
1
  6
Continuous
 62
     7
100
AcDbLine
 10
550.7191383897023
 20
1002.234603803446
 30
0.0
 11
546.3891620321422
 21
999.7346907878232
 31
0.0
  0
LINE
  5
1B9
330
1F
100
AcDbEntity
  8
1
  6
Continuous
 62
     7
100
AcDbLine
 10
423.1999005032396
 20
1373.232752517117
 30
0.0
 11
524.1969759314159
 21
1373.232752517117
 31
0.0
  0
LINE
  5
1BA
330
1F
100
AcDbEntity
  8
1
  6
DASHED
 62
     4
100
AcDbLine
 10
423.1999005032396
 20
1423.232752517117
 30
0.0
 11
342.1999005032334
 21
1423.232752517117
 31
0.0
  0
LINE
  5
1BB
330
1F
100
AcDbEntity
  8
1
  6
Continuous
 62
     7
100
AcDbLine
 10
372.69354955713
 20
870.5839687088304
 30
0.0
 11
385.1935495571311
 21
848.9333336142202
 31
0.0
  0
LINE
  5
1BC
330
1F
100
AcDbEntity
  8
1
  6
Continuous
 62
     7
100
AcDbLine
 10
567.7191383897052
 20
972.7897400747696
 30
0.0
 11
550.7191383897023
 21
1002.234603803446
 31
0.0
  0
LINE
  5
1BD
330
1F
100
AcDbEntity
  8
1
  6
PHANTOM
 62
     4
100
AcDbLine
 10
139.6594468533147
 20
845.5839687088269
 30
0.0
 11
146.6594468533147
 21
845.5839687088269
 31
0.0
  0
LINE
  5
1BE
330
1F
100
AcDbEntity
  8
1
  6
Continuous
 62
     7
100
AcDbLine
 10
1713.408441731962
 20
984.7347371944898
 30
0.0
 11
1539.337177196146
 21
884.2346457565507
 31
0.0
  0
LINE
  5
1BF
330
1F
100
AcDbEntity
  8
1
  6
Continuous
 62
     7
100
AcDbLine
 10
520.408407632397
 20
984.7346952413795
 30
0.0
 11
432.9396834750232
 21
934.2346038034425
 31
0.0
  0
LINE
  5
1C0
330
1F
100
AcDbEntity
  8
1
  6
Continuous
 62
     7
100
AcDbLine
 10
1717.197010030982
 20
1423.232752517117
 30
0.0
 11
1516.199934602806
 21
1423.232752517117
 31
0.0
  0
LINE
  5
1C1
330
1F
100
AcDbEntity
  8
1
  6
Continuous
 62
     7
100
AcDbLine
 10
1747.196606101862
 20
1373.232752517117
 30
0.0
 11
1752.199934602802
 21
1373.232752517117
 31
0.0
  0
LINE
  5
1C2
330
1F
100
AcDbEntity
  8
1
  6
Continuous
 62
     7
100
AcDbLine
 10
554.1965720022957
 20
1373.232752517117
 30
0.0
 11
559.1999005032355
 21
1373.232752517117
 31
0.0
  0
LINE
  5
1C3
330
1F
100
AcDbEntity
  8
1
  6
Continuous
 62
     7
100
AcDbLine
 10
524.1969759314159
 20
1423.232752517117
 30
0.0
 11
423.1999005032396
 21
1423.232752517117
 31
0.0
  0
LINE
  5
1C4
330
1F
100
AcDbEntity
  8
1
  6
Continuous
 62
     7
100
AcDbLine
 10
1556.543207397007
 20
836.4335250057414
 30
0.0
 11
1736.676232549246
 21
940.4333755673324
 31
0.0
  0
LINE
  5
1C5
330
1F
100
AcDbEntity
  8
1
  6
Continuous
 62
     7
100
AcDbLine
 10
944.3719141323803
 20
986.5839687088367
 30
0.0
 11
930.8863412120087
 21
986.5839687088367
 31
0.0
  0
LINE
  5
1C6
330
1F
100
AcDbEntity
  8
1
  6
Continuous
 62
     7
100
AcDbLine
 10
969.3719141323803
 20
986.5839687088367
 30
0.0
 11
982.85748705275
 21
986.5839687088367
 31
0.0
  0
LINE
  5
1C7
330
1F
100
AcDbEntity
  8
1
  6
Continuous
 62
     7
100
AcDbLine
 10
1752.199934602804
 20
1378.232752517117
 30
0.0
 11
1752.199934602802
 21
1370.732752517117
 31
0.0
  0
LINE
  5
1C8
330
1F
100
AcDbEntity
  8
1
  6
Continuous
 62
     7
100
AcDbLine
 10
1755.199934602805
 20
1418.232752517117
 30
0.0
 11
1755.19993460281
 21
1425.732752517117
 31
0.0
  0
LINE
  5
1C9
330
1F
100
AcDbEntity
  8
1
  6
Continuous
 62
     7
100
AcDbLine
 10
1715.199934602802
 20
1423.232752517117
 30
0.0
 11
1715.199934602802
 21
1425.732752517117
 31
0.0
  0
LINE
  5
1CA
330
1F
100
AcDbEntity
  8
1
  6
Continuous
 62
     7
100
AcDbLine
 10
1715.199934602802
 20
1425.732752517117
 30
0.0
 11
1717.197010030982
 21
1425.732752517117
 31
0.0
  0
LINE
  5
1CB
330
1F
100
AcDbEntity
  8
1
  6
Continuous
 62
     7
100
AcDbLine
 10
1752.199934602802
 20
1370.732752517117
 30
0.0
 11
1747.196606101862
 21
1370.732752517117
 31
0.0
  0
LINE
  5
1CC
330
1F
100
AcDbEntity
  8
1
  6
Continuous
 62
     7
100
AcDbLine
 10
1752.199934602802
 20
1425.732752517117
 30
0.0
 11
1752.199934602804
 21
1418.232752517117
 31
0.0
  0
LINE
  5
1CD
330
1F
100
AcDbEntity
  8
1
  6
Continuous
 62
     7
100
AcDbLine
 10
1715.199934602802
 20
1370.732752517117
 30
0.0
 11
1715.199934602802
 21
1373.232752517117
 31
0.0
  0
LINE
  5
1CE
330
1F
100
AcDbEntity
  8
1
  6
Continuous
 62
     7
100
AcDbLine
 10
1755.19993460281
 20
1425.732752517117
 30
0.0
 11
1752.199934602802
 21
1425.732752517117
 31
0.0
  0
LINE
  5
1CF
330
1F
100
AcDbEntity
  8
1
  6
Continuous
 62
     7
100
AcDbLine
 10
1755.199934602808
 20
1370.732752517117
 30
0.0
 11
1755.199934602805
 21
1378.232752517117
 31
0.0
  0
LINE
  5
1D0
330
1F
100
AcDbEntity
  8
1
  6
Continuous
 62
     7
100
AcDbLine
 10
1755.199934602808
 20
1370.732752517117
 30
0.0
 11
1752.199934602802
 21
1370.732752517117
 31
0.0
  0
LINE
  5
1D1
330
1F
100
AcDbEntity
  8
1
  6
Continuous
 62
     7
100
AcDbLine
 10
1715.1999346028
 20
1372.232752517117
 30
0.0
 11
1717.197010030982
 21
1372.232752517117
 31
0.0
  0
LINE
  5
1D2
330
1F
100
AcDbEntity
  8
1
  6
Continuous
 62
     7
100
AcDbLine
 10
1715.199934602802
 20
1424.232752517117
 30
0.0
 11
1717.197010030982
 21
1424.232752517117
 31
0.0
  0
LINE
  5
1D3
330
1F
100
AcDbEntity
  8
1
  6
Continuous
 62
     7
100
AcDbLine
 10
1429.199934602802
 20
1370.732752517117
 30
0.0
 11
1426.199934602802
 21
1370.732752517117
 31
0.0
  0
LINE
  5
1D4
330
1F
100
AcDbEntity
  8
1
  6
Continuous
 62
     7
100
AcDbLine
 10
1426.199934602802
 20
1425.732752517117
 30
0.0
 11
1426.199934602802
 21
1370.732752517117
 31
0.0
  0
LINE
  5
1D5
330
1F
100
AcDbEntity
  8
1
  6
Continuous
 62
     7
100
AcDbLine
 10
1429.199934602802
 20
1425.732752517117
 30
0.0
 11
1426.199934602802
 21
1425.732752517117
 31
0.0
  0
LINE
  5
1D6
330
1F
100
AcDbEntity
  8
1
  6
Continuous
 62
     7
100
AcDbLine
 10
1516.199934602806
 20
1425.732752517117
 30
0.0
 11
1516.199934602806
 21
1370.732752517117
 31
0.0
  0
LINE
  5
1D7
330
1F
100
AcDbEntity
  8
1
  6
Continuous
 62
     7
100
AcDbLine
 10
1429.199934602802
 20
1425.732752517117
 30
0.0
 11
1477.196885225125
 21
1425.732752517117
 31
0.0
  0
LINE
  5
1D8
330
1F
100
AcDbEntity
  8
1
  6
Continuous
 62
     7
100
AcDbLine
 10
1429.199934602802
 20
1370.732752517117
 30
0.0
 11
1429.199934602802
 21
1425.732752517117
 31
0.0
  0
LINE
  5
1D9
330
1F
100
AcDbEntity
  8
1
  6
Continuous
 62
     7
100
AcDbLine
 10
1516.199934602806
 20
1370.732752517117
 30
0.0
 11
1507.196481296005
 21
1370.732752517117
 31
0.0
  0
LINE
  5
1DA
330
1F
100
AcDbEntity
  8
1
  6
Continuous
 62
     7
100
AcDbLine
 10
1724.176232549246
 20
962.0840106619417
 30
0.0
 11
1737.926232549246
 21
938.2683120578715
 31
0.0
  0
LINE
  5
1DB
330
1F
100
AcDbEntity
  8
1
  6
Continuous
 62
     7
100
AcDbLine
 10
1769.969172489269
 20
956.7683120578736
 30
0.0
 11
1772.567248700621
 21
958.2683120578727
 31
0.0
  0
LINE
  5
1DC
330
1F
100
AcDbEntity
  8
1
  6
Continuous
 62
     7
100
AcDbLine
 10
1470.144890855543
 20
824.0792011903213
 30
0.0
 11
1472.742967066899
 21
825.5792011903226
 31
0.0
  0
LINE
  5
1DD
330
1F
100
AcDbEntity
  8
1
  6
Continuous
 62
     7
100
AcDbLine
 10
1460.144890855544
 20
841.3997092660105
 30
0.0
 11
1470.144890855543
 21
824.0792011903213
 31
0.0
  0
LINE
  5
1DE
330
1F
100
AcDbEntity
  8
1
  6
Continuous
 62
     7
100
AcDbLine
 10
1462.742967066899
 20
842.8997092660114
 30
0.0
 11
1460.144890855544
 21
841.3997092660105
 31
0.0
  0
LINE
  5
1DF
330
1F
100
AcDbEntity
  8
1
  6
Continuous
 62
     7
100
AcDbLine
 10
1548.087177196145
 20
869.0792011903241
 30
0.0
 11
1538.087177196144
 21
886.3997092660143
 31
0.0
  0
LINE
  5
1E0
330
1F
100
AcDbEntity
  8
1
  6
Continuous
 62
     7
100
AcDbLine
 10
1472.742967066899
 20
825.5792011903226
 30
0.0
 11
1514.312350870147
 21
849.5792961191761
 31
0.0
  0
LINE
  5
1E1
330
1F
100
AcDbEntity
  8
1
  6
Continuous
 62
     7
100
AcDbLine
 10
1462.742967066899
 20
842.8997092660114
 30
0.0
 11
1472.742967066899
 21
825.5792011903226
 31
0.0
  0
LINE
  5
1E2
330
1F
100
AcDbEntity
  8
1
  6
Continuous
 62
     7
100
AcDbLine
 10
1538.087177196144
 20
886.3997092660143
 30
0.0
 11
1530.29300913001
 21
881.8997442349227
 31
0.0
  0
LINE
  5
1E3
330
1F
100
AcDbEntity
  8
1
  6
Continuous
 62
     7
100
AcDbLine
 10
1737.926232549246
 20
938.2683120578715
 30
0.0
 11
1739.658652970831
 21
939.2685254546233
 31
0.0
  0
LINE
  5
1E4
330
1F
100
AcDbEntity
  8
1
  6
DASHED
 62
     4
100
AcDbLine
 10
1715.199934602802
 20
1373.232752517117
 30
0.0
 11
1715.199934602802
 21
1423.232752517117
 31
0.0
  0
LINE
  5
1E5
330
1F
100
AcDbEntity
  8
1
  6
Continuous
 62
     7
100
AcDbLine
 10
1286.116959963961
 20
828.0839687088702
 30
0.0
 11
1233.201933742669
 21
828.0839687088702
 31
0.0
  0
LINE
  5
1E6
330
1F
100
AcDbEntity
  8
1
  6
Continuous
 62
     7
100
AcDbLine
 10
166.1169599639616
 20
878.0839687088269
 30
0.0
 11
113.2019337426686
 21
878.0839687088269
 31
0.0
  0
LINE
  5
1E7
330
1F
100
AcDbEntity
  8
1
  6
DASHED
 62
     4
100
AcDbLine
 10
522.1999005032355
 20
1373.232752517117
 30
0.0
 11
522.1999005032355
 21
1423.232752517117
 31
0.0
  0
LINE
  5
1E8
330
1F
100
AcDbEntity
  8
1
  6
Continuous
 62
     7
100
AcDbLine
 10
544.9261984496804
 20
938.268270104762
 30
0.0
 11
546.6586188712654
 21
939.2684835015139
 31
0.0
  0
LINE
  5
1E9
330
1F
100
AcDbEntity
  8
1
  6
Continuous
 62
     7
100
AcDbLine
 10
431.6896834750226
 20
936.3996673129046
 30
0.0
 11
423.8955154088889
 21
931.899702281813
 31
0.0
  0
LINE
  5
1EA
330
1F
100
AcDbEntity
  8
1
  6
Continuous
 62
     7
100
AcDbLine
 10
356.345473345777
 20
892.8996673129025
 30
0.0
 11
366.3454733457767
 21
875.5791592372148
 31
0.0
  0
LINE
  5
1EB
330
1F
100
AcDbEntity
  8
1
  6
Continuous
 62
     7
100
AcDbLine
 10
366.3454733457767
 20
875.5791592372148
 30
0.0
 11
407.9148571490244
 21
899.5792541660679
 31
0.0
  0
LINE
  5
1EC
330
1F
100
AcDbEntity
  8
1
  6
Continuous
 62
     7
100
AcDbLine
 10
441.6896834750228
 20
919.0791592372157
 30
0.0
 11
431.6896834750226
 21
936.3996673129046
 31
0.0
  0
LINE
  5
1ED
330
1F
100
AcDbEntity
  8
1
  6
Continuous
 62
     7
100
AcDbLine
 10
356.345473345777
 20
892.8996673129025
 30
0.0
 11
353.7473971344221
 21
891.3996673129016
 31
0.0
  0
LINE
  5
1EE
330
1F
100
AcDbEntity
  8
1
  6
Continuous
 62
     7
100
AcDbLine
 10
353.7473971344221
 20
891.3996673129016
 30
0.0
 11
363.7473971344199
 21
874.0791592372127
 31
0.0
  0
LINE
  5
1EF
330
1F
100
AcDbEntity
  8
1
  6
Continuous
 62
     7
100
AcDbLine
 10
363.7473971344199
 20
874.0791592372127
 30
0.0
 11
366.3454733457767
 21
875.5791592372148
 31
0.0
  0
LINE
  5
1F0
330
1F
100
AcDbEntity
  8
1
  6
Continuous
 62
     7
100
AcDbLine
 10
576.9691383897039
 20
956.7682701047634
 30
0.0
 11
579.5672146010556
 21
958.2682701047625
 31
0.0
  0
LINE
  5
1F1
330
1F
100
AcDbEntity
  8
1
  6
Continuous
 62
     7
100
AcDbLine
 10
535.676198449681
 20
954.2897400747696
 30
0.0
 11
544.9261984496804
 21
938.268270104762
 31
0.0
  0
LINE
  5
1F2
330
1F
100
AcDbEntity
  8
1
  6
Continuous
 62
     7
100
AcDbLine
 10
567.7191383897041
 20
972.7897400747715
 30
0.0
 11
563.3893089836804
 21
970.2899119016581
 31
0.0
  0
LINE
  5
1F3
330
1F
100
AcDbEntity
  8
1
  6
Continuous
 62
     7
100
AcDbLine
 10
576.9691383897039
 20
956.7682701047634
 30
0.0
 11
567.7191383897041
 21
972.7897400747715
 31
0.0
  0
LINE
  5
1F4
330
1F
100
AcDbEntity
  8
1
  6
Continuous
 62
     7
100
AcDbLine
 10
423.1999005032396
 20
1370.732752517117
 30
0.0
 11
414.1964471964387
 21
1370.732752517117
 31
0.0
  0
LINE
  5
1F5
330
1F
100
AcDbEntity
  8
1
  6
Continuous
 62
     7
100
AcDbLine
 10
336.1999005032355
 20
1370.732752517117
 30
0.0
 11
336.1999005032355
 21
1425.732752517117
 31
0.0
  0
LINE
  5
1F6
330
1F
100
AcDbEntity
  8
1
  6
Continuous
 62
     7
100
AcDbLine
 10
336.1999005032355
 20
1425.732752517117
 30
0.0
 11
384.1968511255589
 21
1425.732752517117
 31
0.0
  0
LINE
  5
1F7
330
1F
100
AcDbEntity
  8
1
  6
Continuous
 62
     7
100
AcDbLine
 10
423.1999005032396
 20
1425.732752517117
 30
0.0
 11
423.1999005032396
 21
1370.732752517117
 31
0.0
  0
LINE
  5
1F8
330
1F
100
AcDbEntity
  8
1
  6
Continuous
 62
     7
100
AcDbLine
 10
336.1999005032355
 20
1425.732752517117
 30
0.0
 11
333.1999005032355
 21
1425.732752517117
 31
0.0
  0
LINE
  5
1F9
330
1F
100
AcDbEntity
  8
1
  6
Continuous
 62
     7
100
AcDbLine
 10
333.1999005032355
 20
1425.732752517117
 30
0.0
 11
333.1999005032355
 21
1370.732752517117
 31
0.0
  0
LINE
  5
1FA
330
1F
100
AcDbEntity
  8
1
  6
Continuous
 62
     7
100
AcDbLine
 10
336.1999005032355
 20
1370.732752517117
 30
0.0
 11
333.1999005032355
 21
1370.732752517117
 31
0.0
  0
LINE
  5
1FB
330
1F
100
AcDbEntity
  8
1
  6
DOT_CENTER
 62
     3
100
AcDbLine
 10
947.1219141323803
 20
979.5839687088367
 30
0.0
 11
954.6219141323803
 21
979.5839687088367
 31
0.0
  0
LINE
  5
1FC
330
1F
100
AcDbEntity
  8
1
  6
DOT_CENTER
 62
     3
100
AcDbLine
 10
950.8719141323803
 20
975.8339687088367
 30
0.0
 11
950.8719141323803
 21
983.3339687088367
 31
0.0
  0
LINE
  5
1FD
330
1F
100
AcDbEntity
  8
1
  6
Continuous
 62
     7
100
AcDbLine
 10
522.1999005032355
 20
1424.232752517117
 30
0.0
 11
524.1969759314159
 21
1424.232752517117
 31
0.0
  0
LINE
  5
1FE
330
1F
100
AcDbEntity
  8
1
  6
Continuous
 62
     7
100
AcDbLine
 10
522.1999005032335
 20
1372.232752517117
 30
0.0
 11
524.1969759314159
 21
1372.232752517117
 31
0.0
  0
LINE
  5
1FF
330
1F
100
AcDbEntity
  8
1
  6
Continuous
 62
     7
100
AcDbLine
 10
562.1999005032415
 20
1370.732752517117
 30
0.0
 11
559.1999005032355
 21
1370.732752517117
 31
0.0
  0
LINE
  5
200
330
1F
100
AcDbEntity
  8
1
  6
Continuous
 62
     7
100
AcDbLine
 10
562.1999005032415
 20
1370.732752517117
 30
0.0
 11
562.1999005032385
 21
1378.232752517117
 31
0.0
  0
LINE
  5
201
330
1F
100
AcDbEntity
  8
1
  6
Continuous
 62
     7
100
AcDbLine
 10
562.1999005032435
 20
1425.732752517117
 30
0.0
 11
559.1999005032355
 21
1425.732752517117
 31
0.0
  0
LINE
  5
202
330
1F
100
AcDbEntity
  8
1
  6
Continuous
 62
     7
100
AcDbLine
 10
522.1999005032355
 20
1370.732752517117
 30
0.0
 11
522.1999005032355
 21
1373.232752517117
 31
0.0
  0
LINE
  5
203
330
1F
100
AcDbEntity
  8
1
  6
Continuous
 62
     7
100
AcDbLine
 10
559.1999005032355
 20
1425.732752517117
 30
0.0
 11
559.1999005032375
 21
1418.232752517117
 31
0.0
  0
LINE
  5
204
330
1F
100
AcDbEntity
  8
1
  6
Continuous
 62
     7
100
AcDbLine
 10
559.1999005032355
 20
1370.732752517117
 30
0.0
 11
554.1965720022957
 21
1370.732752517117
 31
0.0
  0
LINE
  5
205
330
1F
100
AcDbEntity
  8
1
  6
Continuous
 62
     7
100
AcDbLine
 10
522.1999005032355
 20
1425.732752517117
 30
0.0
 11
524.1969759314159
 21
1425.732752517117
 31
0.0
  0
LINE
  5
206
330
1F
100
AcDbEntity
  8
1
  6
Continuous
 62
     7
100
AcDbLine
 10
522.1999005032355
 20
1423.232752517117
 30
0.0
 11
522.1999005032355
 21
1425.732752517117
 31
0.0
  0
LINE
  5
207
330
1F
100
AcDbEntity
  8
1
  6
Continuous
 62
     7
100
AcDbLine
 10
567.7191383897041
 20
972.7897400747715
 30
0.0
 11
570.3172146010581
 21
974.2897400747704
 31
0.0
  0
LINE
  5
208
330
1F
100
AcDbEntity
  8
1
  6
DOT_CENTER
 62
     3
100
AcDbLine
 10
962.8719141323803
 20
975.8339687088367
 30
0.0
 11
962.8719141323803
 21
983.3339687088367
 31
0.0
  0
LINE
  5
209
330
1F
100
AcDbEntity
  8
1
  6
DOT_CENTER
 62
     3
100
AcDbLine
 10
959.1219141323803
 20
979.5839687088367
 30
0.0
 11
966.6219141323803
 21
979.5839687088367
 31
0.0
  0
LINE
  5
20A
330
1F
100
AcDbEntity
  8
1
  6
Continuous
 62
     7
100
AcDbLine
 10
562.1999005032385
 20
1418.232752517117
 30
0.0
 11
562.1999005032435
 21
1425.732752517117
 31
0.0
  0
LINE
  5
20B
330
1F
100
AcDbEntity
  8
1
  6
Continuous
 62
     7
100
AcDbLine
 10
559.1999005032374
 20
1378.232752517117
 30
0.0
 11
559.1999005032355
 21
1370.732752517117
 31
0.0
  0
LINE
  5
20C
330
1F
100
AcDbEntity
  8
1
  6
DOT_CENTER
 62
     3
100
AcDbLine
 10
2177.121914132381
 20
979.5839687088367
 30
0.0
 11
2184.621914132381
 21
979.5839687088367
 31
0.0
  0
LINE
  5
20D
330
1F
100
AcDbEntity
  8
1
  6
DOT_CENTER
 62
     3
100
AcDbLine
 10
2180.871914132381
 20
975.8339687088367
 30
0.0
 11
2180.871914132381
 21
983.3339687088367
 31
0.0
  0
LINE
  5
20E
330
1F
100
AcDbEntity
  8
1
  6
DOT_CENTER
 62
     3
100
AcDbLine
 10
2168.871914132381
 20
975.8339687088367
 30
0.0
 11
2168.871914132381
 21
983.3339687088367
 31
0.0
  0
LINE
  5
20F
330
1F
100
AcDbEntity
  8
1
  6
DOT_CENTER
 62
     3
100
AcDbLine
 10
2165.121914132381
 20
979.5839687088367
 30
0.0
 11
2172.621914132381
 21
979.5839687088367
 31
0.0
  0
LINE
  5
210
330
1F
100
AcDbEntity
  8
1
  6
Continuous
 62
     7
100
AcDbLine
 10
2187.371914132381
 20
986.5839687088367
 30
0.0
 11
2200.85748705275
 21
986.5839687088367
 31
0.0
  0
LINE
  5
211
330
1F
100
AcDbEntity
  8
1
  6
Continuous
 62
     7
100
AcDbLine
 10
2162.371914132381
 20
986.5839687088367
 30
0.0
 11
2148.886341212009
 21
986.5839687088367
 31
0.0
  0
LINE
  5
212
330
1F
100
AcDbEntity
  8
1
  6
Continuous
 62
     7
100
AcDbLine
 10
1504.312247016006
 20
866.8997442346494
 30
0.0
 11
1462.742967066899
 21
842.8997092660114
 31
0.0
  0
LINE
  5
213
330
1F
100
AcDbEntity
  8
1
  6
Continuous
 62
     7
100
AcDbLine
 10
397.9147532948844
 20
916.8997022815399
 30
0.0
 11
356.345473345777
 21
892.8996673129025
 31
0.0
  0
LINE
  5
214
330
1F
100
AcDbEntity
  8
1
  6
Continuous
 62
     7
100
AcDbLine
 10
537.4085444347138
 20
955.2899104955582
 30
0.0
 11
535.676198449681
 21
954.2897400747696
 31
0.0
  0
LINE
  5
215
330
1F
100
AcDbEntity
  8
1
  6
Continuous
 62
     7
100
AcDbLine
 10
1765.639423042167
 20
954.2685300490656
 30
0.0
 11
1769.969172489269
 21
956.7683120578736
 31
0.0
  0
LINE
  5
216
330
1F
100
AcDbEntity
  8
1
  6
Continuous
 62
     7
100
AcDbLine
 10
1540.293112984152
 20
864.5792961194488
 30
0.0
 11
1548.087177196145
 21
869.0792011903241
 31
0.0
  0
LINE
  5
217
330
1F
100
AcDbEntity
  8
1
  6
Continuous
 62
     7
100
AcDbLine
 10
1747.196606101862
 20
1425.732752517117
 30
0.0
 11
1752.199934602802
 21
1425.732752517117
 31
0.0
  0
LINE
  5
218
330
1F
100
AcDbEntity
  8
1
  6
Continuous
 62
     7
100
AcDbLine
 10
1747.196606101862
 20
1424.232752517117
 30
0.0
 11
1752.199934602802
 21
1424.232752517117
 31
0.0
  0
LINE
  5
219
330
1F
100
AcDbEntity
  8
1
  6
Continuous
 62
     7
100
AcDbLine
 10
1747.196606101862
 20
1372.232752517117
 30
0.0
 11
1752.1999346028
 21
1372.232752517117
 31
0.0
  0
LINE
  5
21A
330
1F
100
AcDbEntity
  8
1
  6
Continuous
 62
     7
100
AcDbLine
 10
1717.197010030982
 20
1370.732752517117
 30
0.0
 11
1715.199934602802
 21
1370.732752517117
 31
0.0
  0
LINE
  5
21B
330
1F
100
AcDbEntity
  8
1
  6
Continuous
 62
     7
100
AcDbLine
 10
1477.196885225125
 20
1370.732752517117
 30
0.0
 11
1429.199934602802
 21
1370.732752517117
 31
0.0
  0
LINE
  5
21C
330
1F
100
AcDbEntity
  8
1
  6
Continuous
 62
     7
100
AcDbLine
 10
1507.196481296005
 20
1425.732752517117
 30
0.0
 11
1516.199934602806
 21
1425.732752517117
 31
0.0
  0
LINE
  5
21D
330
1F
100
AcDbEntity
  8
1
  6
Continuous
 62
     7
100
AcDbLine
 10
554.1965720022957
 20
1425.732752517117
 30
0.0
 11
559.1999005032355
 21
1425.732752517117
 31
0.0
  0
LINE
  5
21E
330
1F
100
AcDbEntity
  8
1
  6
Continuous
 62
     7
100
AcDbLine
 10
554.1965720022957
 20
1424.232752517117
 30
0.0
 11
559.1999005032355
 21
1424.232752517117
 31
0.0
  0
LINE
  5
21F
330
1F
100
AcDbEntity
  8
1
  6
Continuous
 62
     7
100
AcDbLine
 10
554.1965720022957
 20
1372.232752517117
 30
0.0
 11
559.1999005032335
 21
1372.232752517117
 31
0.0
  0
LINE
  5
220
330
1F
100
AcDbEntity
  8
1
  6
Continuous
 62
     7
100
AcDbLine
 10
524.1969759314159
 20
1370.732752517117
 30
0.0
 11
522.1999005032355
 21
1370.732752517117
 31
0.0
  0
LINE
  5
221
330
1F
100
AcDbEntity
  8
1
  6
Continuous
 62
     7
100
AcDbLine
 10
384.1968511255589
 20
1370.732752517117
 30
0.0
 11
336.1999005032355
 21
1370.732752517117
 31
0.0
  0
LINE
  5
222
330
1F
100
AcDbEntity
  8
1
  6
Continuous
 62
     7
100
AcDbLine
 10
414.1964471964387
 20
1425.732752517117
 30
0.0
 11
423.1999005032396
 21
1425.732752517117
 31
0.0
  0
LINE
  5
223
330
1F
100
AcDbEntity
  8
1
  6
Continuous
 62
     7
100
AcDbLine
 10
572.6393889426025
 20
954.2684880959556
 30
0.0
 11
576.9691383897039
 21
956.7682701047634
 31
0.0
  0
LINE
  5
224
330
1F
100
AcDbEntity
  8
1
  6
Continuous
 62
     7
100
AcDbLine
 10
433.8956192630296
 20
914.5792541663401
 30
0.0
 11
441.6896834750228
 21
919.0791592372157
 31
0.0
  0
LINE
  5
225
330
1F
100
AcDbEntity
  8
1
  6
DASHED
 62
     4
100
AcDbLine
 10
407.9148571490244
 20
899.5792541660679
 30
0.0
 11
433.8956192630296
 21
914.5792541663401
 31
0.0
  0
LINE
  5
226
330
1F
100
AcDbEntity
  8
1
  6
DASHED
 62
     4
100
AcDbLine
 10
559.1999005032375
 20
1418.232752517117
 30
0.0
 11
559.1999005032374
 21
1378.232752517117
 31
0.0
  0
LINE
  5
227
330
1F
100
AcDbEntity
  8
1
  6
DASHED
 62
     4
100
AcDbLine
 10
562.1999005032385
 20
1378.232752517117
 30
0.0
 11
562.1999005032385
 21
1418.232752517117
 31
0.0
  0
LINE
  5
228
330
1F
100
AcDbEntity
  8
1
  6
Continuous
 62
     7
100
AcDbLine
 10
1747.196606101862
 20
1361.732752517117
 30
0.0
 11
1747.196606101862
 21
1434.732752517116
 31
0.0
  0
LINE
  5
229
330
1F
100
AcDbEntity
  8
1
  6
DASH_CENTER
 62
     3
100
AcDbLine
 10
1732.200058664203
 20
1337.20373400048
 30
0.0
 11
1732.200058664199
 21
1459.60267452637
 31
0.0
  0
LINE
  5
22A
330
1F
100
AcDbEntity
  8
1
  6
Continuous
 62
     7
100
AcDbLine
 10
1717.197010030982
 20
1361.732752517117
 30
0.0
 11
1747.196606101862
 21
1361.732752517117
 31
0.0
  0
LINE
  5
22B
330
1F
100
AcDbEntity
  8
1
  6
Continuous
 62
     7
100
AcDbLine
 10
1747.196606101862
 20
1434.732752517116
 30
0.0
 11
1717.197010030982
 21
1434.732752517116
 31
0.0
  0
LINE
  5
22C
330
1F
100
AcDbEntity
  8
1
  6
Continuous
 62
     7
100
AcDbLine
 10
1717.197010030982
 20
1434.732752517116
 30
0.0
 11
1717.197010030982
 21
1361.732752517117
 31
0.0
  0
LINE
  5
22D
330
1F
100
AcDbEntity
  8
1
  6
Continuous
 62
     7
100
AcDbLine
 10
1497.199933858342
 20
1361.732752517117
 30
0.0
 11
1497.199933858342
 21
1356.732752517117
 31
0.0
  0
LINE
  5
22E
330
1F
100
AcDbEntity
  8
1
  6
Continuous
 62
     7
100
AcDbLine
 10
1487.199933858342
 20
1361.732752517117
 30
0.0
 11
1487.199933858342
 21
1356.732752517117
 31
0.0
  0
LINE
  5
22F
330
1F
100
AcDbEntity
  8
1
  6
Continuous
 62
     7
100
AcDbLine
 10
1477.196885225125
 20
1434.732752517116
 30
0.0
 11
1477.196885225125
 21
1361.732752517117
 31
0.0
  0
LINE
  5
230
330
1F
100
AcDbEntity
  8
1
  6
Continuous
 62
     7
100
AcDbLine
 10
1507.196481296005
 20
1434.732752517116
 30
0.0
 11
1477.196885225125
 21
1434.732752517116
 31
0.0
  0
LINE
  5
231
330
1F
100
AcDbEntity
  8
1
  6
Continuous
 62
     7
100
AcDbLine
 10
1507.196481296005
 20
1361.732752517117
 30
0.0
 11
1507.196481296005
 21
1434.732752517116
 31
0.0
  0
LINE
  5
232
330
1F
100
AcDbEntity
  8
1
  6
Continuous
 62
     7
100
AcDbLine
 10
1477.196885225125
 20
1361.732752517117
 30
0.0
 11
1507.196481296005
 21
1361.732752517117
 31
0.0
  0
LINE
  5
233
330
1F
100
AcDbEntity
  8
1
  6
Continuous
 62
     7
100
AcDbLine
 10
1734.389152910671
 20
1008.394961825093
 30
0.0
 11
1708.40840149599
 21
993.3949680020779
 31
0.0
  0
LINE
  5
234
330
1F
100
AcDbEntity
  8
1
  6
Continuous
 62
     7
100
AcDbLine
 10
1770.004947523576
 20
946.7073069935448
 30
0.0
 11
1734.389152910671
 21
1008.394961825093
 31
0.0
  0
LINE
  5
235
330
1F
100
AcDbEntity
  8
1
  6
Continuous
 62
     7
100
AcDbLine
 10
1761.344613608952
 20
941.7072608766641
 30
0.0
 11
1770.004947523576
 21
946.7073069935448
 31
0.0
  0
LINE
  5
236
330
1F
100
AcDbEntity
  8
1
  6
Continuous
 62
     7
100
AcDbLine
 10
1744.024174845986
 20
931.7073008943828
 30
0.0
 11
1752.684359571107
 21
936.7072608766639
 31
0.0
  0
LINE
  5
237
330
1F
100
AcDbEntity
  8
1
  6
Continuous
 62
     7
100
AcDbLine
 10
1708.40840149599
 20
993.3949680020779
 30
0.0
 11
1744.024174845986
 21
931.7073008943828
 31
0.0
  0
LINE
  5
238
330
1F
100
AcDbEntity
  8
1
  6
Continuous
 62
     7
100
AcDbLine
 10
1753.8445408459
 20
954.6975999236631
 30
0.0
 11
1761.979177881206
 21
940.6082742226566
 31
0.0
  0
LINE
  5
239
330
1F
100
AcDbEntity
  8
1
  6
Continuous
 62
     7
100
AcDbLine
 10
1525.292971364871
 20
890.5599764690488
 30
0.0
 11
1499.312209250866
 21
875.5599764687764
 31
0.0
  0
LINE
  5
23A
330
1F
100
AcDbEntity
  8
1
  6
Continuous
 62
     7
100
AcDbLine
 10
1562.158736556168
 20
826.7072411414678
 30
0.0
 11
1525.292971364871
 21
890.5599764690488
 31
0.0
  0
LINE
  5
23B
330
1F
100
AcDbEntity
  8
1
  6
Continuous
 62
     7
100
AcDbLine
 10
1553.498410636992
 20
821.7071996407616
 30
0.0
 11
1562.158736556168
 21
826.7072411414678
 31
0.0
  0
LINE
  5
23C
330
1F
100
AcDbEntity
  8
1
  6
Continuous
 62
     7
100
AcDbLine
 10
1536.177974442162
 20
811.7072411411961
 30
0.0
 11
1544.838156599146
 21
816.7071996407609
 31
0.0
  0
LINE
  5
23D
330
1F
100
AcDbEntity
  8
1
  6
Continuous
 62
     7
100
AcDbLine
 10
1499.312209250866
 20
875.5599764687764
 30
0.0
 11
1536.177974442162
 21
811.7072411411961
 31
0.0
  0
LINE
  5
23E
330
1F
100
AcDbEntity
  8
1
  6
Continuous
 62
     7
100
AcDbLine
 10
1753.844793314405
 20
954.6977456864229
 30
0.0
 11
1745.184539276562
 21
949.6977456864233
 31
0.0
  0
LINE
  5
23F
330
1F
100
AcDbEntity
  8
1
  6
Continuous
 62
     3
100
AcDbLine
 10
1753.141580686536
 20
954.2917456864252
 30
0.0
 11
1761.276099467334
 21
940.2023517111458
 31
0.0
  0
LINE
  5
240
330
1F
100
AcDbEntity
  8
1
  6
DASH_CENTER
 62
     3
100
AcDbLine
 10
1720.403335569858
 20
1002.619108044759
 30
0.0
 11
1768.549198642959
 21
919.2289692078432
 31
0.0
  0
LINE
  5
241
330
1F
100
AcDbEntity
  8
1
  6
Continuous
 62
     3
100
AcDbLine
 10
1754.022270685235
 20
936.0143517111457
 30
0.0
 11
1745.887751904439
 21
950.1037456864248
 31
0.0
  0
LINE
  5
242
330
1F
100
AcDbEntity
  8
1
  6
Continuous
 62
     7
100
AcDbLine
 10
1753.318923843362
 20
935.6082742226566
 30
0.0
 11
1745.184286808055
 21
949.6975999236629
 31
0.0
  0
LINE
  5
243
330
1F
100
AcDbEntity
  8
1
  6
Continuous
 62
     7
100
AcDbLine
 10
1545.472700122874
 20
815.6082442561541
 30
0.0
 11
1537.338086898466
 21
829.6975404558212
 31
0.0
  0
LINE
  5
244
330
1F
100
AcDbEntity
  8
1
  6
Continuous
 62
     3
100
AcDbLine
 10
1546.176046964747
 20
816.0143217446442
 30
0.0
 11
1538.041546911129
 21
830.103683283496
 31
0.0
  0
LINE
  5
245
330
1F
100
AcDbEntity
  8
1
  6
Continuous
 62
     3
100
AcDbLine
 10
1545.295375693227
 20
834.291683283495
 30
0.0
 11
1553.429875746844
 21
820.2023217446434
 31
0.0
  0
LINE
  5
246
330
1F
100
AcDbEntity
  8
1
  6
Continuous
 62
     7
100
AcDbLine
 10
1545.998588321097
 20
834.6976832834945
 30
0.0
 11
1537.338334283254
 21
829.6976832834954
 31
0.0
  0
LINE
  5
247
330
1F
100
AcDbEntity
  8
1
  6
Continuous
 62
     7
100
AcDbLine
 10
1545.998340936312
 20
834.6975404558219
 30
0.0
 11
1554.132954160718
 21
820.6082442561577
 31
0.0
  0
LINE
  5
248
330
1F
100
AcDbEntity
  8
1
  6
Continuous
 62
     7
100
AcDbLine
 10
1563.734082562898
 20
800.9789068049155
 30
0.0
 11
1557.671904736406
 21
797.478906804915
 31
0.0
  0
LINE
  5
249
330
1F
100
AcDbEntity
  8
1
  6
Continuous
 62
     7
100
AcDbLine
 10
1556.902955498121
 20
815.6257122051974
 30
0.0
 11
1560.523360808844
 21
809.3549862630329
 31
0.0
  0
LINE
  5
24A
330
1F
100
AcDbEntity
  8
1
  6
Continuous
 62
     7
100
AcDbLine
 10
1548.402955498121
 20
810.7182349170854
 30
0.0
 11
1552.023360808842
 21
804.4475089749216
 31
0.0
  0
LINE
  5
24B
330
1F
100
AcDbEntity
  8
1
  6
Continuous
 62
     7
100
AcDbLine
 10
1561.152955498121
 20
818.0794508492523
 30
0.0
 11
1564.773360808844
 21
811.8087249070906
 31
0.0
  0
LINE
  5
24C
330
1F
100
AcDbEntity
  8
1
  6
Continuous
 62
     7
100
AcDbLine
 10
1544.152955498119
 20
808.2644962730298
 30
0.0
 11
1561.152955498121
 21
818.0794508492523
 31
0.0
  0
LINE
  5
24D
330
1F
100
AcDbEntity
  8
1
  6
Continuous
 62
     7
100
AcDbLine
 10
1547.773360808843
 20
801.9937703308664
 30
0.0
 11
1544.152955498119
 21
808.2644962730298
 31
0.0
  0
LINE
  5
24E
330
1F
100
AcDbEntity
  8
1
  6
Continuous
 62
     7
100
AcDbLine
 10
1544.685521783304
 20
808.5719735611427
 30
0.0
 11
1543.435521783306
 21
810.7370370706025
 31
0.0
  0
LINE
  5
24F
330
1F
100
AcDbEntity
  8
1
  6
Continuous
 62
     7
100
AcDbLine
 10
1559.370389212938
 20
819.9370370706016
 30
0.0
 11
1560.620389212936
 21
817.7719735611403
 31
0.0
  0
LINE
  5
250
330
1F
100
AcDbEntity
  8
1
  6
DOT_CENTER
 62
     3
100
AcDbLine
 10
1484.699933858342
 20
1356.732752517117
 30
0.0
 11
1499.699933858342
 21
1356.732752517117
 31
0.0
  0
LINE
  5
251
330
1F
100
AcDbEntity
  8
1
  6
DOT_CENTER
 62
     3
100
AcDbLine
 10
1492.199933858342
 20
1335.93881680792
 30
0.0
 11
1492.199933858342
 21
1364.232752517117
 31
0.0
  0
LINE
  5
252
330
1F
100
AcDbEntity
  8
1
  6
DOT_CENTER
 62
     3
100
AcDbLine
 10
1492.199933858346
 20
1364.232752517117
 30
0.0
 11
1492.199933858342
 21
1460.01371415352
 31
0.0
  0
LINE
  5
253
330
1F
100
AcDbEntity
  8
1
  6
DOT_CENTER
 62
     3
100
AcDbLine
 10
1499.699933858342
 20
1439.732752517116
 30
0.0
 11
1484.699933858342
 21
1439.732752517116
 31
0.0
  0
LINE
  5
254
330
1F
100
AcDbEntity
  8
1
  6
Continuous
 62
     7
100
AcDbLine
 10
1487.199933858342
 20
1439.732752517116
 30
0.0
 11
1487.199933858342
 21
1434.732752517116
 31
0.0
  0
LINE
  5
255
330
1F
100
AcDbEntity
  8
1
  6
Continuous
 62
     7
100
AcDbLine
 10
1497.199933858342
 20
1439.732752517116
 30
0.0
 11
1497.199933858342
 21
1434.732752517116
 31
0.0
  0
LINE
  5
256
330
1F
100
AcDbEntity
  8
1
  6
Continuous
 62
     7
100
AcDbLine
 10
404.1998997587756
 20
1439.732752517116
 30
0.0
 11
404.199899758776
 21
1434.732752517116
 31
0.0
  0
LINE
  5
257
330
1F
100
AcDbEntity
  8
1
  6
Continuous
 62
     7
100
AcDbLine
 10
394.199899758776
 20
1439.732752517116
 30
0.0
 11
394.199899758776
 21
1434.732752517116
 31
0.0
  0
LINE
  5
258
330
1F
100
AcDbEntity
  8
1
  6
DOT_CENTER
 62
     3
100
AcDbLine
 10
406.699899758776
 20
1439.732752517116
 30
0.0
 11
391.699899758776
 21
1439.732752517116
 31
0.0
  0
LINE
  5
259
330
1F
100
AcDbEntity
  8
1
  6
DOT_CENTER
 62
     3
100
AcDbLine
 10
391.699899758776
 20
1356.732752517116
 30
0.0
 11
406.6998997587756
 21
1356.732752517116
 31
0.0
  0
LINE
  5
25A
330
1F
100
AcDbEntity
  8
1
  6
Continuous
 62
     7
100
AcDbLine
 10
452.9728954918159
 20
869.9369951174928
 30
0.0
 11
454.2228954918135
 21
867.7719316080313
 31
0.0
  0
LINE
  5
25B
330
1F
100
AcDbEntity
  8
1
  6
Continuous
 62
     7
100
AcDbLine
 10
454.2228954918135
 20
867.7719316080313
 30
0.0
 11
438.2880280621822
 21
858.5719316080338
 31
0.0
  0
LINE
  5
25C
330
1F
100
AcDbEntity
  8
1
  6
Continuous
 62
     7
100
AcDbLine
 10
438.2880280621822
 20
858.5719316080338
 30
0.0
 11
437.0380280621838
 21
860.7369951174936
 31
0.0
  0
LINE
  5
25D
330
1F
100
AcDbEntity
  8
1
  6
Continuous
 62
     7
100
AcDbLine
 10
441.3758670877213
 20
851.9937283777574
 30
0.0
 11
437.7554617769968
 21
858.2644543199208
 31
0.0
  0
LINE
  5
25E
330
1F
100
AcDbEntity
  8
1
  6
Continuous
 62
     7
100
AcDbLine
 10
437.7554617769968
 20
858.2644543199208
 30
0.0
 11
454.7554617769991
 21
868.0794088961435
 31
0.0
  0
LINE
  5
25F
330
1F
100
AcDbEntity
  8
1
  6
Continuous
 62
     7
100
AcDbLine
 10
454.7554617769991
 20
868.0794088961435
 30
0.0
 11
458.3758670877222
 21
861.8086829539817
 31
0.0
  0
LINE
  5
260
330
1F
100
AcDbEntity
  8
1
  6
Continuous
 62
     7
100
AcDbLine
 10
442.0054617769984
 20
860.7181929639764
 30
0.0
 11
445.6258670877201
 21
854.4474670218127
 31
0.0
  0
LINE
  5
261
330
1F
100
AcDbEntity
  8
1
  6
Continuous
 62
     7
100
AcDbLine
 10
450.5054617769988
 20
865.6256702520884
 30
0.0
 11
454.1258670877218
 21
859.3549443099239
 31
0.0
  0
LINE
  5
262
330
1F
100
AcDbEntity
  8
1
  6
Continuous
 62
     7
100
AcDbLine
 10
456.6304617769997
 20
859.9243363438415
 30
0.0
 11
443.880461776999
 21
852.5631204116733
 31
0.0
  0
LINE
  5
263
330
1F
100
AcDbEntity
  8
1
  6
Continuous
 62
     7
100
AcDbLine
 10
457.3365888417757
 20
850.9788648518065
 30
0.0
 11
451.2744110152838
 21
847.4788648518061
 31
0.0
  0
LINE
  5
264
330
1F
100
AcDbEntity
  8
1
  6
Continuous
 62
     7
100
AcDbLine
 10
439.6008472151897
 20
884.697498502713
 30
0.0
 11
447.7354604395962
 21
870.6082023030488
 31
0.0
  0
LINE
  5
265
330
1F
100
AcDbEntity
  8
1
  6
Continuous
 62
     7
100
AcDbLine
 10
439.6010945999753
 20
884.6976413303855
 30
0.0
 11
430.9408405621325
 21
879.6976413303864
 31
0.0
  0
LINE
  5
266
330
1F
100
AcDbEntity
  8
1
  6
Continuous
 62
     3
100
AcDbLine
 10
438.8978819721052
 20
884.2916413303861
 30
0.0
 11
447.0323820257216
 21
870.2022797915345
 31
0.0
  0
LINE
  5
267
330
1F
100
AcDbEntity
  8
1
  6
Continuous
 62
     3
100
AcDbLine
 10
439.7785532436245
 20
866.0142797915354
 30
0.0
 11
431.6440531900065
 21
880.1036413303871
 31
0.0
  0
LINE
  5
268
330
1F
100
AcDbEntity
  8
1
  6
Continuous
 62
     7
100
AcDbLine
 10
439.0752064017522
 20
865.6082023030454
 30
0.0
 11
430.9405931773441
 21
879.6974985027123
 31
0.0
  0
LINE
  5
269
330
1F
100
AcDbEntity
  8
1
  6
Continuous
 62
     7
100
AcDbLine
 10
560.3188897437962
 20
935.6082322695477
 30
0.0
 11
552.1842527084889
 21
949.697557970554
 31
0.0
  0
LINE
  5
26A
330
1F
100
AcDbEntity
  8
1
  6
Continuous
 62
     3
100
AcDbLine
 10
561.0222365856691
 20
936.0143097580369
 30
0.0
 11
552.8877178048731
 21
950.1037037333159
 31
0.0
  0
LINE
  5
26B
330
1F
100
AcDbEntity
  8
1
  6
DASH_CENTER
 62
     3
100
AcDbLine
 10
527.4033014702919
 20
1002.61906609165
 30
0.0
 11
575.5491645433932
 21
919.2289272547343
 31
0.0
  0
LINE
  5
26C
330
1F
100
AcDbEntity
  8
1
  6
Continuous
 62
     3
100
AcDbLine
 10
560.1415465869704
 20
954.2917037333164
 30
0.0
 11
568.2760653677677
 21
940.2023097580369
 31
0.0
  0
LINE
  5
26D
330
1F
100
AcDbEntity
  8
1
  6
Continuous
 62
     7
100
AcDbLine
 10
560.8447592148394
 20
954.697703733314
 30
0.0
 11
552.1845051769958
 21
949.6977037333145
 31
0.0
  0
LINE
  5
26E
330
1F
100
AcDbEntity
  8
1
  6
Continuous
 62
     7
100
AcDbLine
 10
392.9147155297436
 20
925.5599345156675
 30
0.0
 11
429.7804807210401
 21
861.7071991880872
 31
0.0
  0
LINE
  5
26F
330
1F
100
AcDbEntity
  8
1
  6
Continuous
 62
     7
100
AcDbLine
 10
429.7804807210401
 20
861.7071991880872
 30
0.0
 11
438.440662878024
 21
866.7071576876521
 31
0.0
  0
LINE
  5
270
330
1F
100
AcDbEntity
  8
1
  6
Continuous
 62
     7
100
AcDbLine
 10
447.1009169158696
 20
871.7071576876527
 30
0.0
 11
455.7612428350456
 21
876.7071991883589
 31
0.0
  0
LINE
  5
271
330
1F
100
AcDbEntity
  8
1
  6
Continuous
 62
     7
100
AcDbLine
 10
455.7612428350456
 20
876.7071991883589
 30
0.0
 11
418.8954776437485
 21
940.5599345159399
 31
0.0
  0
LINE
  5
272
330
1F
100
AcDbEntity
  8
1
  6
Continuous
 62
     7
100
AcDbLine
 10
418.8954776437485
 20
940.5599345159399
 30
0.0
 11
392.9147155297436
 21
925.5599345156675
 31
0.0
  0
LINE
  5
273
330
1F
100
AcDbEntity
  8
1
  6
Continuous
 62
     7
100
AcDbLine
 10
560.8445067463337
 20
954.6975579705543
 30
0.0
 11
568.9791437816405
 21
940.6082322695477
 31
0.0
  0
LINE
  5
274
330
1F
100
AcDbEntity
  8
1
  6
Continuous
 62
     7
100
AcDbLine
 10
515.4083673964244
 20
993.3949260489692
 30
0.0
 11
551.0241407464205
 21
931.707258941274
 31
0.0
  0
LINE
  5
275
330
1F
100
AcDbEntity
  8
1
  6
Continuous
 62
     7
100
AcDbLine
 10
551.0241407464205
 20
931.707258941274
 30
0.0
 11
559.6843254715409
 21
936.7072189235552
 31
0.0
  0
LINE
  5
276
330
1F
100
AcDbEntity
  8
1
  6
Continuous
 62
     7
100
AcDbLine
 10
568.3445795093855
 20
941.7072189235555
 30
0.0
 11
577.0049134240103
 21
946.7072650404359
 31
0.0
  0
LINE
  5
277
330
1F
100
AcDbEntity
  8
1
  6
Continuous
 62
     7
100
AcDbLine
 10
577.0049134240103
 20
946.7072650404359
 30
0.0
 11
541.3891188111049
 21
1008.394919871984
 31
0.0
  0
LINE
  5
278
330
1F
100
AcDbEntity
  8
1
  6
Continuous
 62
     7
100
AcDbLine
 10
541.3891188111049
 20
1008.394919871984
 30
0.0
 11
515.4083673964244
 21
993.3949260489692
 31
0.0
  0
LINE
  5
279
330
1F
100
AcDbEntity
  8
1
  6
Continuous
 62
     7
100
AcDbLine
 10
384.1968511255589
 20
1361.732752517116
 30
0.0
 11
414.1964471964387
 21
1361.732752517116
 31
0.0
  0
LINE
  5
27A
330
1F
100
AcDbEntity
  8
1
  6
Continuous
 62
     7
100
AcDbLine
 10
414.1964471964387
 20
1361.732752517116
 30
0.0
 11
414.1964471964387
 21
1434.732752517116
 31
0.0
  0
LINE
  5
27B
330
1F
100
AcDbEntity
  8
1
  6
Continuous
 62
     7
100
AcDbLine
 10
414.1964471964387
 20
1434.732752517116
 30
0.0
 11
384.1968511255589
 21
1434.732752517116
 31
0.0
  0
LINE
  5
27C
330
1F
100
AcDbEntity
  8
1
  6
Continuous
 62
     7
100
AcDbLine
 10
384.1968511255589
 20
1434.732752517116
 30
0.0
 11
384.1968511255589
 21
1361.732752517116
 31
0.0
  0
LINE
  5
27D
330
1F
100
AcDbEntity
  8
1
  6
Continuous
 62
     7
100
AcDbLine
 10
394.199899758776
 20
1361.732752517116
 30
0.0
 11
394.199899758776
 21
1356.732752517116
 31
0.0
  0
LINE
  5
27E
330
1F
100
AcDbEntity
  8
1
  6
Continuous
 62
     7
100
AcDbLine
 10
404.199899758776
 20
1361.732752517116
 30
0.0
 11
404.1998997587756
 21
1356.732752517116
 31
0.0
  0
LINE
  5
27F
330
1F
100
AcDbEntity
  8
1
  6
Continuous
 62
     7
100
AcDbLine
 10
544.2000245646329
 20
1361.732752517116
 30
0.0
 11
544.2000245646329
 21
1356.732752517116
 31
0.0
  0
LINE
  5
280
330
1F
100
AcDbEntity
  8
1
  6
Continuous
 62
     7
100
AcDbLine
 10
534.2000245646329
 20
1361.732752517116
 30
0.0
 11
534.2000245646327
 21
1356.732752517116
 31
0.0
  0
LINE
  5
281
330
1F
100
AcDbEntity
  8
1
  6
Continuous
 62
     7
100
AcDbLine
 10
524.1969759314159
 20
1434.732752517116
 30
0.0
 11
524.1969759314159
 21
1361.732752517116
 31
0.0
  0
LINE
  5
282
330
1F
100
AcDbEntity
  8
1
  6
Continuous
 62
     7
100
AcDbLine
 10
554.1965720022957
 20
1434.732752517116
 30
0.0
 11
524.1969759314159
 21
1434.732752517116
 31
0.0
  0
LINE
  5
283
330
1F
100
AcDbEntity
  8
1
  6
Continuous
 62
     7
100
AcDbLine
 10
554.1965720022957
 20
1361.732752517116
 30
0.0
 11
554.1965720022957
 21
1434.732752517116
 31
0.0
  0
LINE
  5
284
330
1F
100
AcDbEntity
  8
1
  6
Continuous
 62
     7
100
AcDbLine
 10
524.1969759314159
 20
1361.732752517116
 30
0.0
 11
554.1965720022957
 21
1361.732752517116
 31
0.0
  0
LINE
  5
285
330
1F
100
AcDbEntity
  8
1
  6
DOT_CENTER
 62
     3
100
AcDbLine
 10
531.7000245646327
 20
1356.732752517116
 30
0.0
 11
546.7000245646329
 21
1356.732752517116
 31
0.0
  0
LINE
  5
286
330
1F
100
AcDbEntity
  8
1
  6
DOT_CENTER
 62
     3
100
AcDbLine
 10
546.7000245646329
 20
1439.732752517116
 30
0.0
 11
531.7000245646327
 21
1439.732752517116
 31
0.0
  0
LINE
  5
287
330
1F
100
AcDbEntity
  8
1
  6
Continuous
 62
     7
100
AcDbLine
 10
534.2000245646329
 20
1439.732752517116
 30
0.0
 11
534.2000245646329
 21
1434.732752517116
 31
0.0
  0
LINE
  5
288
330
1F
100
AcDbEntity
  8
1
  6
Continuous
 62
     7
100
AcDbLine
 10
544.2000245646329
 20
1439.732752517116
 30
0.0
 11
544.2000245646329
 21
1434.732752517116
 31
0.0
  0
LINE
  5
289
330
1F
100
AcDbEntity
  8
1
  6
Continuous
 62
     7
100
AcDbLine
 10
934.8838611132964
 20
960.3839687088423
 30
0.0
 11
900.3838611132964
 21
960.3839687088423
 31
0.0
  0
LINE
  5
28A
330
1F
100
AcDbEntity
  8
1
  6
Continuous
 62
     7
100
AcDbLine
 10
934.8838611132964
 20
958.0839687088403
 30
0.0
 11
934.8838611132964
 21
968.0839687088403
 31
0.0
  0
LINE
  5
28B
330
1F
100
AcDbEntity
  8
1
  6
Continuous
 62
     7
100
AcDbLine
 10
978.8819141323811
 20
968.0839687088403
 30
0.0
 11
978.8819141323811
 21
958.0839687088403
 31
0.0
  0
LINE
  5
28C
330
1F
100
AcDbEntity
  8
1
  6
Continuous
 62
     7
100
AcDbLine
 10
934.8838611132964
 20
968.0839687088403
 30
0.0
 11
978.8819141323811
 21
968.0839687088403
 31
0.0
  0
LINE
  5
28D
330
1F
100
AcDbEntity
  8
1
  6
Continuous
 62
     7
100
AcDbLine
 10
1013.381914132381
 20
958.0839687088403
 30
0.0
 11
1013.381914132381
 21
960.3839687088423
 31
0.0
  0
LINE
  5
28E
330
1F
100
AcDbEntity
  8
1
  6
Continuous
 62
     7
100
AcDbLine
 10
900.3838611132964
 20
960.3839687088423
 30
0.0
 11
900.3838611132964
 21
958.0839687088403
 31
0.0
  0
LINE
  5
28F
330
1F
100
AcDbEntity
  8
1
  6
Continuous
 62
     7
100
AcDbLine
 10
1013.381914132381
 20
960.3839687088423
 30
0.0
 11
978.8819141323811
 21
960.3839687088423
 31
0.0
  0
LINE
  5
290
330
1F
100
AcDbEntity
  8
1
  6
Continuous
 62
     7
100
AcDbLine
 10
925.2932621900562
 20
954.8839687088423
 30
0.0
 11
925.2932621900562
 21
952.3839687088423
 31
0.0
  0
LINE
  5
291
330
1F
100
AcDbEntity
  8
1
  6
Continuous
 62
     7
100
AcDbLine
 10
905.4744600365392
 20
952.3839687088423
 30
0.0
 11
905.4744600365392
 21
954.8839687088423
 31
0.0
  0
LINE
  5
292
330
1F
100
AcDbEntity
  8
1
  6
Continuous
 62
     7
100
AcDbLine
 10
904.8595054603173
 20
945.1431580873962
 30
0.0
 11
904.8595054603173
 21
952.3839687088423
 31
0.0
  0
LINE
  5
293
330
1F
100
AcDbEntity
  8
1
  6
Continuous
 62
     7
100
AcDbLine
 10
904.8595054603173
 20
952.3839687088423
 30
0.0
 11
925.9082167662813
 21
952.3839687088423
 31
0.0
  0
LINE
  5
294
330
1F
100
AcDbEntity
  8
1
  6
Continuous
 62
     7
100
AcDbLine
 10
925.9082167662813
 20
952.3839687088423
 30
0.0
 11
925.9082167662813
 21
945.1431580873962
 31
0.0
  0
LINE
  5
295
330
1F
100
AcDbEntity
  8
1
  6
Continuous
 62
     7
100
AcDbLine
 10
910.9216832868082
 20
952.3839687088423
 30
0.0
 11
910.9216832868082
 21
945.1431580873962
 31
0.0
  0
LINE
  5
296
330
1F
100
AcDbEntity
  8
1
  6
Continuous
 62
     7
100
AcDbLine
 10
919.8460389397903
 20
952.3839687088423
 30
0.0
 11
919.8460389397903
 21
945.1431580873962
 31
0.0
  0
LINE
  5
297
330
1F
100
AcDbEntity
  8
1
  6
Continuous
 62
     7
100
AcDbLine
 10
920.1338611132962
 20
984.2839687088383
 30
0.0
 11
910.6338611132962
 21
984.2839687088383
 31
0.0
  0
LINE
  5
298
330
1F
100
AcDbEntity
  8
1
  6
Continuous
 62
     7
100
AcDbLine
 10
993.6319141323811
 20
984.2839687088383
 30
0.0
 11
1003.131914132379
 21
984.2839687088383
 31
0.0
  0
LINE
  5
299
330
1F
100
AcDbEntity
  8
1
  6
Continuous
 62
     7
100
AcDbLine
 10
920.1829591209602
 20
969.5503398424155
 30
0.0
 11
922.5719141323806
 21
996.2839687088383
 31
0.0
  0
LINE
  5
29A
330
1F
100
AcDbEntity
  8
1
  6
Continuous
 62
     7
100
AcDbLine
 10
930.1449061018783
 20
968.678782414939
 30
0.0
 11
920.1829591209602
 21
969.5503398424155
 31
0.0
  0
LINE
  5
29B
330
1F
100
AcDbEntity
  8
1
  6
Continuous
 62
     7
100
AcDbLine
 10
932.5719141323806
 20
996.2839687088383
 30
0.0
 11
930.1449061018783
 21
968.678782414939
 31
0.0
  0
LINE
  5
29C
330
1F
100
AcDbEntity
  8
1
  6
Continuous
 62
     7
100
AcDbLine
 10
993.58281612473
 20
969.550339842419
 30
0.0
 11
991.2319141323801
 21
996.2839687088383
 31
0.0
  0
LINE
  5
29D
330
1F
100
AcDbEntity
  8
1
  6
Continuous
 62
     7
100
AcDbLine
 10
983.620869143813
 20
968.6787824149379
 30
0.0
 11
993.58281612473
 21
969.550339842419
 31
0.0
  0
LINE
  5
29E
330
1F
100
AcDbEntity
  8
1
  6
Continuous
 62
     7
100
AcDbLine
 10
981.2319141323801
 20
996.2839687088383
 30
0.0
 11
983.620869143813
 21
968.6787824149379
 31
0.0
  0
LINE
  5
29F
330
1F
100
AcDbEntity
  8
1
  6
Continuous
 62
     7
100
AcDbLine
 10
1002.84409195887
 20
952.3839687088423
 30
0.0
 11
1002.84409195887
 21
945.1431580873962
 31
0.0
  0
LINE
  5
2A0
330
1F
100
AcDbEntity
  8
1
  6
Continuous
 62
     7
100
AcDbLine
 10
993.9197363058891
 20
952.3839687088423
 30
0.0
 11
993.9197363058891
 21
945.1431580873962
 31
0.0
  0
LINE
  5
2A1
330
1F
100
AcDbEntity
  8
1
  6
Continuous
 62
     7
100
AcDbLine
 10
1008.906269785362
 20
952.3839687088423
 30
0.0
 11
1008.906269785362
 21
945.1431580873962
 31
0.0
  0
LINE
  5
2A2
330
1F
100
AcDbEntity
  8
1
  6
Continuous
 62
     7
100
AcDbLine
 10
987.8575584793971
 20
952.3839687088423
 30
0.0
 11
1008.906269785362
 21
952.3839687088423
 31
0.0
  0
LINE
  5
2A3
330
1F
100
AcDbEntity
  8
1
  6
Continuous
 62
     7
100
AcDbLine
 10
987.8575584793971
 20
945.1431580873962
 30
0.0
 11
987.8575584793971
 21
952.3839687088423
 31
0.0
  0
LINE
  5
2A4
330
1F
100
AcDbEntity
  8
1
  6
Continuous
 62
     7
100
AcDbLine
 10
988.472513055621
 20
952.3839687088423
 30
0.0
 11
988.472513055621
 21
954.8839687088423
 31
0.0
  0
LINE
  5
2A5
330
1F
100
AcDbEntity
  8
1
  6
Continuous
 62
     7
100
AcDbLine
 10
1008.291315209138
 20
954.8839687088423
 30
0.0
 11
1008.291315209138
 21
952.3839687088423
 31
0.0
  0
LINE
  5
2A6
330
1F
100
AcDbEntity
  8
1
  6
Continuous
 62
     7
100
AcDbLine
 10
920.1338611132962
 20
984.2839687088383
 30
0.0
 11
920.1338611132962
 21
960.3839687088423
 31
0.0
  0
LINE
  5
2A7
330
1F
100
AcDbEntity
  8
1
  6
Continuous
 62
     7
100
AcDbLine
 10
920.1338611132962
 20
971.8839687088378
 30
0.0
 11
910.6338611132962
 21
971.8839687088378
 31
0.0
  0
LINE
  5
2A8
330
1F
100
AcDbEntity
  8
1
  6
Continuous
 62
     3
100
AcDbLine
 10
911.445861113297
 20
971.8839687088378
 30
0.0
 11
910.6338611132962
 21
973.2903939645842
 31
0.0
  0
LINE
  5
2A9
330
1F
100
AcDbEntity
  8
1
  6
Continuous
 62
     3
100
AcDbLine
 10
919.3218611132983
 20
971.8839687088378
 30
0.0
 11
919.3218611132983
 21
960.3839687088423
 31
0.0
  0
LINE
  5
2AA
330
1F
100
AcDbEntity
  8
1
  6
Continuous
 62
     3
100
AcDbLine
 10
920.1338611132962
 20
973.2903939645842
 30
0.0
 11
919.3218611132983
 21
971.8839687088378
 31
0.0
  0
LINE
  5
2AB
330
1F
100
AcDbEntity
  8
1
  6
DASH_CENTER
 62
     3
100
AcDbLine
 10
915.3838611132962
 20
984.2839687088383
 30
0.0
 11
915.3838611132962
 21
936.2839687088383
 31
0.0
  0
LINE
  5
2AC
330
1F
100
AcDbEntity
  8
1
  6
DASH_CENTER
 62
     3
100
AcDbLine
 10
998.381914132381
 20
936.2839687088383
 30
0.0
 11
998.381914132381
 21
984.2839687088383
 31
0.0
  0
LINE
  5
2AD
330
1F
100
AcDbEntity
  8
1
  6
Continuous
 62
     3
100
AcDbLine
 10
994.4439141323801
 20
971.8839687088378
 30
0.0
 11
993.6319141323811
 21
973.2903939645842
 31
0.0
  0
LINE
  5
2AE
330
1F
100
AcDbEntity
  8
1
  6
Continuous
 62
     3
100
AcDbLine
 10
1002.319914132381
 20
971.8839687088378
 30
0.0
 11
1002.319914132381
 21
960.3839687088423
 31
0.0
  0
LINE
  5
2AF
330
1F
100
AcDbEntity
  8
1
  6
Continuous
 62
     3
100
AcDbLine
 10
1003.131914132379
 20
973.2903939645842
 30
0.0
 11
1002.319914132381
 21
971.8839687088378
 31
0.0
  0
LINE
  5
2B0
330
1F
100
AcDbEntity
  8
1
  6
Continuous
 62
     7
100
AcDbLine
 10
1003.131914132379
 20
971.8839687088378
 30
0.0
 11
993.6319141323811
 21
971.8839687088378
 31
0.0
  0
LINE
  5
2B1
330
1F
100
AcDbEntity
  8
1
  6
Continuous
 62
     7
100
AcDbLine
 10
1003.131914132379
 20
984.2839687088383
 30
0.0
 11
1003.131914132379
 21
960.3839687088423
 31
0.0
  0
LINE
  5
2B2
330
1F
100
AcDbEntity
  8
1
  6
Continuous
 62
     7
100
AcDbLine
 10
2221.131914132379
 20
984.2839687088383
 30
0.0
 11
2221.131914132379
 21
960.3839687088424
 31
0.0
  0
LINE
  5
2B3
330
1F
100
AcDbEntity
  8
1
  6
Continuous
 62
     7
100
AcDbLine
 10
2221.131914132379
 20
971.8839687088378
 30
0.0
 11
2211.631914132381
 21
971.8839687088378
 31
0.0
  0
LINE
  5
2B4
330
1F
100
AcDbEntity
  8
1
  6
Continuous
 62
     3
100
AcDbLine
 10
2221.131914132379
 20
973.2903939645842
 30
0.0
 11
2220.319914132382
 21
971.8839687088378
 31
0.0
  0
LINE
  5
2B5
330
1F
100
AcDbEntity
  8
1
  6
Continuous
 62
     3
100
AcDbLine
 10
2220.319914132382
 20
971.8839687088378
 30
0.0
 11
2220.319914132382
 21
960.3839687088424
 31
0.0
  0
LINE
  5
2B6
330
1F
100
AcDbEntity
  8
1
  6
Continuous
 62
     3
100
AcDbLine
 10
2212.443914132381
 20
971.8839687088378
 30
0.0
 11
2211.631914132381
 21
973.2903939645842
 31
0.0
  0
LINE
  5
2B7
330
1F
100
AcDbEntity
  8
1
  6
DASH_CENTER
 62
     3
100
AcDbLine
 10
2133.383861113297
 20
984.2839687088383
 30
0.0
 11
2133.383861113297
 21
936.2839687088383
 31
0.0
  0
LINE
  5
2B8
330
1F
100
AcDbEntity
  8
1
  6
Continuous
 62
     3
100
AcDbLine
 10
2138.133861113297
 20
973.2903939645842
 30
0.0
 11
2137.321861113298
 21
971.8839687088378
 31
0.0
  0
LINE
  5
2B9
330
1F
100
AcDbEntity
  8
1
  6
Continuous
 62
     3
100
AcDbLine
 10
2137.321861113298
 20
971.8839687088378
 30
0.0
 11
2137.321861113298
 21
960.3839687088423
 31
0.0
  0
LINE
  5
2BA
330
1F
100
AcDbEntity
  8
1
  6
Continuous
 62
     3
100
AcDbLine
 10
2129.445861113297
 20
971.8839687088378
 30
0.0
 11
2128.633861113297
 21
973.2903939645842
 31
0.0
  0
LINE
  5
2BB
330
1F
100
AcDbEntity
  8
1
  6
Continuous
 62
     7
100
AcDbLine
 10
2138.133861113297
 20
971.8839687088378
 30
0.0
 11
2128.633861113297
 21
971.8839687088378
 31
0.0
  0
LINE
  5
2BC
330
1F
100
AcDbEntity
  8
1
  6
Continuous
 62
     7
100
AcDbLine
 10
2138.133861113297
 20
984.2839687088383
 30
0.0
 11
2138.133861113297
 21
960.3839687088423
 31
0.0
  0
LINE
  5
2BD
330
1F
100
AcDbEntity
  8
1
  6
Continuous
 62
     7
100
AcDbLine
 10
2226.291315209138
 20
954.8839687088423
 30
0.0
 11
2226.291315209138
 21
952.3839687088423
 31
0.0
  0
LINE
  5
2BE
330
1F
100
AcDbEntity
  8
1
  6
Continuous
 62
     7
100
AcDbLine
 10
2206.472513055622
 20
952.3839687088423
 30
0.0
 11
2206.472513055622
 21
954.8839687088423
 31
0.0
  0
LINE
  5
2BF
330
1F
100
AcDbEntity
  8
1
  6
Continuous
 62
     7
100
AcDbLine
 10
2205.857558479398
 20
945.1431580873962
 30
0.0
 11
2205.857558479398
 21
952.3839687088423
 31
0.0
  0
LINE
  5
2C0
330
1F
100
AcDbEntity
  8
1
  6
Continuous
 62
     7
100
AcDbLine
 10
2205.857558479398
 20
952.3839687088423
 30
0.0
 11
2226.906269785362
 21
952.3839687088423
 31
0.0
  0
LINE
  5
2C1
330
1F
100
AcDbEntity
  8
1
  6
Continuous
 62
     7
100
AcDbLine
 10
2226.906269785362
 20
952.3839687088423
 30
0.0
 11
2226.906269785362
 21
945.1431580873962
 31
0.0
  0
LINE
  5
2C2
330
1F
100
AcDbEntity
  8
1
  6
Continuous
 62
     7
100
AcDbLine
 10
2211.919736305889
 20
952.3839687088423
 30
0.0
 11
2211.919736305889
 21
945.1431580873962
 31
0.0
  0
LINE
  5
2C3
330
1F
100
AcDbEntity
  8
1
  6
Continuous
 62
     7
100
AcDbLine
 10
2220.844091958871
 20
952.3839687088423
 30
0.0
 11
2220.844091958871
 21
945.1431580873962
 31
0.0
  0
LINE
  5
2C4
330
1F
100
AcDbEntity
  8
1
  6
Continuous
 62
     7
100
AcDbLine
 10
2199.231914132381
 20
996.2839687088383
 30
0.0
 11
2201.620869143813
 21
968.6787824149379
 31
0.0
  0
LINE
  5
2C5
330
1F
100
AcDbEntity
  8
1
  6
Continuous
 62
     7
100
AcDbLine
 10
2201.620869143813
 20
968.6787824149379
 30
0.0
 11
2211.582816124731
 21
969.550339842419
 31
0.0
  0
LINE
  5
2C6
330
1F
100
AcDbEntity
  8
1
  6
Continuous
 62
     7
100
AcDbLine
 10
2211.582816124731
 20
969.550339842419
 30
0.0
 11
2209.23191413238
 21
996.2839687088383
 31
0.0
  0
LINE
  5
2C7
330
1F
100
AcDbEntity
  8
1
  6
Continuous
 62
     7
100
AcDbLine
 10
2150.57191413238
 20
996.2839687088383
 30
0.0
 11
2148.144906101879
 21
968.678782414939
 31
0.0
  0
LINE
  5
2C8
330
1F
100
AcDbEntity
  8
1
  6
Continuous
 62
     7
100
AcDbLine
 10
2148.144906101879
 20
968.678782414939
 30
0.0
 11
2138.18295912096
 21
969.5503398424155
 31
0.0
  0
LINE
  5
2C9
330
1F
100
AcDbEntity
  8
1
  6
Continuous
 62
     7
100
AcDbLine
 10
2138.18295912096
 20
969.5503398424155
 30
0.0
 11
2140.57191413238
 21
996.2839687088383
 31
0.0
  0
LINE
  5
2CA
330
1F
100
AcDbEntity
  8
1
  6
Continuous
 62
     7
100
AcDbLine
 10
2211.631914132381
 20
984.2839687088383
 30
0.0
 11
2221.131914132379
 21
984.2839687088383
 31
0.0
  0
LINE
  5
2CB
330
1F
100
AcDbEntity
  8
1
  6
Continuous
 62
     7
100
AcDbLine
 10
2138.133861113297
 20
984.2839687088383
 30
0.0
 11
2128.633861113297
 21
984.2839687088383
 31
0.0
  0
LINE
  5
2CC
330
1F
100
AcDbEntity
  8
1
  6
Continuous
 62
     7
100
AcDbLine
 10
2137.846038939791
 20
952.3839687088423
 30
0.0
 11
2137.846038939791
 21
945.1431580873962
 31
0.0
  0
LINE
  5
2CD
330
1F
100
AcDbEntity
  8
1
  6
Continuous
 62
     7
100
AcDbLine
 10
2128.921683286808
 20
952.3839687088423
 30
0.0
 11
2128.921683286808
 21
945.1431580873962
 31
0.0
  0
LINE
  5
2CE
330
1F
100
AcDbEntity
  8
1
  6
Continuous
 62
     7
100
AcDbLine
 10
2143.908216766282
 20
952.3839687088423
 30
0.0
 11
2143.908216766282
 21
945.1431580873962
 31
0.0
  0
LINE
  5
2CF
330
1F
100
AcDbEntity
  8
1
  6
Continuous
 62
     7
100
AcDbLine
 10
2122.859505460318
 20
952.3839687088423
 30
0.0
 11
2143.908216766282
 21
952.3839687088423
 31
0.0
  0
LINE
  5
2D0
330
1F
100
AcDbEntity
  8
1
  6
Continuous
 62
     7
100
AcDbLine
 10
2122.859505460318
 20
945.1431580873962
 30
0.0
 11
2122.859505460318
 21
952.3839687088423
 31
0.0
  0
LINE
  5
2D1
330
1F
100
AcDbEntity
  8
1
  6
Continuous
 62
     7
100
AcDbLine
 10
2123.474460036539
 20
952.3839687088423
 30
0.0
 11
2123.474460036539
 21
954.8839687088423
 31
0.0
  0
LINE
  5
2D2
330
1F
100
AcDbEntity
  8
1
  6
Continuous
 62
     7
100
AcDbLine
 10
2143.293262190056
 20
954.8839687088423
 30
0.0
 11
2143.293262190056
 21
952.3839687088423
 31
0.0
  0
LINE
  5
2D3
330
1F
100
AcDbEntity
  8
1
  6
Continuous
 62
     7
100
AcDbLine
 10
2231.381914132381
 20
960.3839687088423
 30
0.0
 11
2196.881914132381
 21
960.3839687088423
 31
0.0
  0
LINE
  5
2D4
330
1F
100
AcDbEntity
  8
1
  6
Continuous
 62
     7
100
AcDbLine
 10
2118.383861113297
 20
960.3839687088423
 30
0.0
 11
2118.383861113297
 21
958.0839687088403
 31
0.0
  0
LINE
  5
2D5
330
1F
100
AcDbEntity
  8
1
  6
Continuous
 62
     7
100
AcDbLine
 10
2231.381914132381
 20
958.0839687088403
 30
0.0
 11
2231.381914132381
 21
960.3839687088423
 31
0.0
  0
LINE
  5
2D6
330
1F
100
AcDbEntity
  8
1
  6
Continuous
 62
     7
100
AcDbLine
 10
2152.883861113297
 20
968.0839687088403
 30
0.0
 11
2196.881914132381
 21
968.0839687088403
 31
0.0
  0
LINE
  5
2D7
330
1F
100
AcDbEntity
  8
1
  6
Continuous
 62
     7
100
AcDbLine
 10
2196.881914132381
 20
968.0839687088403
 30
0.0
 11
2196.881914132381
 21
958.0839687088403
 31
0.0
  0
LINE
  5
2D8
330
1F
100
AcDbEntity
  8
1
  6
Continuous
 62
     7
100
AcDbLine
 10
2152.883861113297
 20
958.0839687088403
 30
0.0
 11
2152.883861113297
 21
968.0839687088403
 31
0.0
  0
LINE
  5
2D9
330
1F
100
AcDbEntity
  8
1
  6
Continuous
 62
     7
100
AcDbLine
 10
2152.883861113297
 20
960.3839687088423
 30
0.0
 11
2118.383861113297
 21
960.3839687088423
 31
0.0
  0
LINE
  5
2DA
330
1F
100
AcDbEntity
  8
1
  6
Continuous
 62
     7
100
AcDbLine
 10
2220.844091958871
 20
944.214237039809
 30
0.0
 11
2220.844091958871
 21
938.0839627214676
 31
0.0
  0
LINE
  5
2DB
330
1F
100
AcDbEntity
  8
1
  6
Continuous
 62
     7
100
AcDbLine
 10
2211.919736305889
 20
944.214237039809
 30
0.0
 11
2211.919736305889
 21
936.9734264183628
 31
0.0
  0
LINE
  5
2DC
330
1F
100
AcDbEntity
  8
1
  6
Continuous
 62
     7
100
AcDbLine
 10
2226.906269785362
 20
944.214237039809
 30
0.0
 11
2226.906269785362
 21
938.0839627214676
 31
0.0
  0
LINE
  5
2DD
330
1F
100
AcDbEntity
  8
1
  6
Continuous
 62
     7
100
AcDbLine
 10
2205.857558479398
 20
944.214237039809
 30
0.0
 11
2226.906269785362
 21
944.214237039809
 31
0.0
  0
LINE
  5
2DE
330
1F
100
AcDbEntity
  8
1
  6
Continuous
 62
     7
100
AcDbLine
 10
2205.857558479398
 20
936.9734264183628
 30
0.0
 11
2205.857558479398
 21
944.214237039809
 31
0.0
  0
LINE
  5
2DF
330
1F
100
AcDbEntity
  8
1
  6
Continuous
 62
     3
100
AcDbLine
 10
2212.443914132381
 20
960.3839687088423
 30
0.0
 11
2212.443914132381
 21
971.8839687088378
 31
0.0
  0
LINE
  5
2E0
330
1F
100
AcDbEntity
  8
1
  6
Continuous
 62
     7
100
AcDbLine
 10
2211.631914132381
 20
960.3839687088424
 30
0.0
 11
2211.631914132381
 21
984.2839687088383
 31
0.0
  0
LINE
  5
2E1
330
1F
100
AcDbEntity
  8
1
  6
Continuous
 62
     7
100
AcDbLine
 10
2122.859505460318
 20
944.2077982435608
 30
0.0
 11
2143.908216766282
 21
944.2077982435608
 31
0.0
  0
LINE
  5
2E2
330
1F
100
AcDbEntity
  8
1
  6
Continuous
 62
     7
100
AcDbLine
 10
2143.908216766282
 20
944.2077982435608
 30
0.0
 11
2143.908216766282
 21
936.9669876221146
 31
0.0
  0
LINE
  5
2E3
330
1F
100
AcDbEntity
  8
1
  6
Continuous
 62
     7
100
AcDbLine
 10
2128.921683286808
 20
944.2077982435608
 30
0.0
 11
2128.921683286808
 21
938.0839627214676
 31
0.0
  0
LINE
  5
2E4
330
1F
100
AcDbEntity
  8
1
  6
Continuous
 62
     7
100
AcDbLine
 10
2137.846038939791
 20
944.2077982435608
 30
0.0
 11
2137.846038939791
 21
936.9669876221146
 31
0.0
  0
LINE
  5
2E5
330
1F
100
AcDbEntity
  8
1
  6
Continuous
 62
     7
100
AcDbLine
 10
2140.299777583849
 20
936.0390388009564
 30
0.0
 11
2133.871914132381
 21
936.0390388009565
 31
0.0
  0
LINE
  5
2E6
330
1F
100
AcDbEntity
  8
1
  6
Continuous
 62
     3
100
AcDbLine
 10
2129.445861113297
 20
960.3839687088423
 30
0.0
 11
2129.445861113297
 21
971.8839687088378
 31
0.0
  0
LINE
  5
2E7
330
1F
100
AcDbEntity
  8
1
  6
Continuous
 62
     7
100
AcDbLine
 10
2128.633861113297
 20
960.3839687088423
 30
0.0
 11
2128.633861113297
 21
984.2839687088383
 31
0.0
  0
LINE
  5
2E8
330
1F
100
AcDbEntity
  8
1
  6
Continuous
 62
     7
100
AcDbLine
 10
2122.859505460318
 20
938.0839627214676
 30
0.0
 11
2122.859505460318
 21
944.2077982435608
 31
0.0
  0
LINE
  5
2E9
330
1F
100
AcDbEntity
  8
1
  6
Continuous
 62
     7
100
AcDbLine
 10
2215.871914132377
 20
936.0458236133039
 30
0.0
 11
2209.465997661834
 21
936.0458236133038
 31
0.0
  0
LINE
  5
2EA
330
1F
100
AcDbEntity
  8
1
  6
Continuous
 62
     7
100
AcDbLine
 10
1565.152955498121
 20
811.1512476189769
 30
0.0
 11
1568.773360808844
 21
804.8805216768151
 31
0.0
  0
LINE
  5
2EB
330
1F
100
AcDbEntity
  8
1
  6
Continuous
 62
     7
100
AcDbLine
 10
1560.902955498121
 20
808.6975089749219
 30
0.0
 11
1564.523360808844
 21
802.4267830327574
 31
0.0
  0
LINE
  5
2EC
330
1F
100
AcDbEntity
  8
1
  6
Continuous
 62
     7
100
AcDbLine
 10
1551.773360808843
 20
795.0655671005909
 30
0.0
 11
1548.152955498119
 21
801.3362930427543
 31
0.0
  0
LINE
  5
2ED
330
1F
100
AcDbEntity
  8
1
  6
Continuous
 62
     7
100
AcDbLine
 10
1554.27795549812
 20
795.6349591345072
 30
0.0
 11
1567.027955498121
 21
802.9961750666735
 31
0.0
  0
LINE
  5
2EE
330
1F
100
AcDbEntity
  8
1
  6
Continuous
 62
     7
100
AcDbLine
 10
458.7554617769991
 20
861.1512056658679
 30
0.0
 11
462.3758670877222
 21
854.8804797237061
 31
0.0
  0
LINE
  5
2EF
330
1F
100
AcDbEntity
  8
1
  6
Continuous
 62
     7
100
AcDbLine
 10
454.5054617769988
 20
858.6974670218128
 30
0.0
 11
458.1258670877218
 21
852.4267410796483
 31
0.0
  0
LINE
  5
2F0
330
1F
100
AcDbEntity
  8
1
  6
Continuous
 62
     7
100
AcDbLine
 10
460.6304617769997
 20
852.9961331135659
 30
0.0
 11
447.880461776999
 21
845.6349171813977
 31
0.0
  0
LINE
  5
2F1
330
1F
100
AcDbEntity
  8
1
  6
Continuous
 62
     7
100
AcDbLine
 10
446.0054617769984
 20
853.7899897337009
 30
0.0
 11
449.6258670877201
 21
847.5192637915371
 31
0.0
  0
LINE
  5
2F2
330
1F
100
AcDbEntity
  8
1
  6
Continuous
 62
     7
100
AcDbLine
 10
445.3758670877213
 20
845.0655251474818
 30
0.0
 11
441.7554617769968
 21
851.3362510896452
 31
0.0
  0
LINE
  5
2F3
330
1F
100
AcDbEntity
  8
1
  6
Continuous
 62
     7
100
AcDbLine
 10
458.7554617769991
 20
861.1512056658679
 30
0.0
 11
462.3758670877222
 21
854.8804797237061
 31
0.0
  0
LINE
  5
2F4
330
1F
100
AcDbEntity
  8
1
  6
Continuous
 62
     7
100
AcDbLine
 10
441.7554617769968
 20
851.3362510896452
 30
0.0
 11
458.7554617769991
 21
861.1512056658679
 31
0.0
  0
LINE
  5
2F5
330
1F
100
AcDbEntity
  8
1
  6
Continuous
 62
     3
100
AcDbLine
 10
994.4439141323801
 20
960.3839687088423
 30
0.0
 11
994.4439141323801
 21
971.8839687088378
 31
0.0
  0
LINE
  5
2F6
330
1F
100
AcDbEntity
  8
1
  6
Continuous
 62
     7
100
AcDbLine
 10
993.6319141323811
 20
960.3839687088423
 30
0.0
 11
993.6319141323811
 21
984.2839687088383
 31
0.0
  0
LINE
  5
2F7
330
1F
100
AcDbEntity
  8
1
  6
Continuous
 62
     3
100
AcDbLine
 10
911.445861113297
 20
960.3839687088423
 30
0.0
 11
911.445861113297
 21
971.8839687088378
 31
0.0
  0
LINE
  5
2F8
330
1F
100
AcDbEntity
  8
1
  6
Continuous
 62
     7
100
AcDbLine
 10
910.6338611132964
 20
960.3839687088423
 30
0.0
 11
910.6338611132962
 21
984.2839687088383
 31
0.0
  0
LINE
  5
2F9
330
1F
100
AcDbEntity
  8
1
  6
Continuous
 62
     7
100
AcDbLine
 10
987.8575584793971
 20
937.021817582301
 30
0.0
 11
987.8575584793971
 21
944.2626282037471
 31
0.0
  0
LINE
  5
2FA
330
1F
100
AcDbEntity
  8
1
  6
Continuous
 62
     7
100
AcDbLine
 10
1008.906269785362
 20
944.2626282037471
 30
0.0
 11
1008.906269785362
 21
938.0839627214676
 31
0.0
  0
LINE
  5
2FB
330
1F
100
AcDbEntity
  8
1
  6
Continuous
 62
     7
100
AcDbLine
 10
993.9197363058891
 20
944.2626282037471
 30
0.0
 11
993.9197363058891
 21
937.021817582301
 31
0.0
  0
LINE
  5
2FC
330
1F
100
AcDbEntity
  8
1
  6
Continuous
 62
     7
100
AcDbLine
 10
1002.84409195887
 20
944.2626282037471
 30
0.0
 11
1002.84409195887
 21
938.0839627214676
 31
0.0
  0
LINE
  5
2FD
330
1F
100
AcDbEntity
  8
1
  6
Continuous
 62
     7
100
AcDbLine
 10
922.2997775838484
 20
936.0956276577369
 30
0.0
 11
915.8719141323816
 21
936.0956276577371
 31
0.0
  0
LINE
  5
2FE
330
1F
100
AcDbEntity
  8
1
  6
Continuous
 62
     7
100
AcDbLine
 10
919.8460389397903
 20
944.2626282037471
 30
0.0
 11
919.8460389397903
 21
937.021817582301
 31
0.0
  0
LINE
  5
2FF
330
1F
100
AcDbEntity
  8
1
  6
Continuous
 62
     7
100
AcDbLine
 10
910.9216832868082
 20
944.2626282037471
 30
0.0
 11
910.9216832868083
 21
938.0839627214676
 31
0.0
  0
LINE
  5
300
330
1F
100
AcDbEntity
  8
1
  6
Continuous
 62
     7
100
AcDbLine
 10
925.9082167662813
 20
944.2626282037471
 30
0.0
 11
925.9082167662813
 21
937.021817582301
 31
0.0
  0
LINE
  5
301
330
1F
100
AcDbEntity
  8
1
  6
Continuous
 62
     7
100
AcDbLine
 10
904.8595054603173
 20
944.2626282037471
 30
0.0
 11
925.9082167662813
 21
944.2626282037471
 31
0.0
  0
LINE
  5
302
330
1F
100
AcDbEntity
  8
1
  6
Continuous
 62
     7
100
AcDbLine
 10
997.8719141323771
 20
936.1000008900421
 30
0.0
 11
991.4659976618341
 21
936.100000890042
 31
0.0
  0
LINE
  5
303
330
1F
100
AcDbEntity
  8
1
  6
Continuous
 62
     7
100
AcDbLine
 10
904.8595054603175
 20
938.0839627214676
 30
0.0
 11
904.8595054603173
 21
944.2626282037471
 31
0.0
  0
LINE
  5
304
330
1F
100
AcDbEntity
  8
1
  6
DASH_CENTER
 62
     3
100
AcDbLine
 10
2216.381914132381
 20
936.2839687088383
 30
0.0
 11
2216.381914132381
 21
984.2839687088383
 31
0.0
  0
LINE
  5
305
330
1F
100
AcDbEntity
  8
1
  6
Continuous
 62
     7
100
AcDbLine
 10
987.8575584793971
 20
944.2626282037471
 30
0.0
 11
1008.906269785362
 21
944.2626282037471
 31
0.0
  0
LINE
  5
306
330
1F
100
AcDbEntity
  8
1
  6
DASH_CENTER
 62
     3
100
AcDbLine
 10
1510.057130576551
 20
886.9491726607499
 30
0.0
 11
1560.702993649651
 21
799.2289068049155
 31
0.0
  0
LINE
  5
307
330
1F
100
AcDbEntity
  8
1
  6
Continuous
 62
     7
100
AcDbLine
 10
1565.152955498121
 20
811.1512476189769
 30
0.0
 11
1548.152955498119
 21
801.3362930427543
 31
0.0
  0
LINE
  5
308
330
1F
100
AcDbEntity
  8
1
  6
Continuous
 62
     7
100
AcDbLine
 10
1556.023383920985
 20
797.5192663786859
 30
0.0
 11
1552.402920281865
 21
803.7899586445733
 31
0.0
  0
LINE
  5
309
330
1F
100
AcDbEntity
  8
1
  6
Continuous
 62
     7
100
AcDbLine
 10
1737.2000586642
 20
1439.732752517116
 30
0.0
 11
1737.2000586642
 21
1434.732752517116
 31
0.0
  0
LINE
  5
30A
330
1F
100
AcDbEntity
  8
1
  6
Continuous
 62
     7
100
AcDbLine
 10
1727.2000586642
 20
1439.732752517116
 30
0.0
 11
1727.2000586642
 21
1434.732752517116
 31
0.0
  0
LINE
  5
30B
330
1F
100
AcDbEntity
  8
1
  6
DOT_CENTER
 62
     3
100
AcDbLine
 10
1739.7000586642
 20
1439.732752517116
 30
0.0
 11
1724.7000586642
 21
1439.732752517116
 31
0.0
  0
LINE
  5
30C
330
1F
100
AcDbEntity
  8
1
  6
PHANTOM
 62
   140
100
AcDbLine
 10
429.0440785544261
 20
833.2548979758288
 30
0.0
 11
429.0440785544282
 21
803.4095955195693
 31
0.0
  0
LINE
  5
30D
330
1F
100
AcDbEntity
  8
1
  6
PHANTOM
 62
   140
100
AcDbLine
 10
410.5840725946979
 20
818.3366314056534
 30
0.0
 11
445.2874483556302
 21
818.3366314056549
 31
0.0
  0
LINE
  5
30E
330
1F
100
AcDbEntity
  8
1
  6
PHANTOM
 62
   140
100
AcDbLine
 10
287.6979985446275
 20
796.3366314056483
 30
0.0
 11
429.5440785544282
 21
796.3366314056542
 31
0.0
  0
LINE
  5
30F
330
1F
100
AcDbEntity
  8
1
  6
PHANTOM
 62
   140
100
AcDbLine
 10
411.0440785544257
 20
830.3366314056536
 30
0.0
 11
411.0440785544286
 21
796.3366314056535
 31
0.0
  0
LINE
  5
310
330
1F
100
AcDbEntity
  8
1
  6
PHANTOM
 62
   140
100
AcDbLine
 10
429.5440785544251
 20
830.3366314056543
 30
0.0
 11
411.0440785544257
 21
830.3366314056536
 31
0.0
  0
LINE
  5
311
330
1F
100
AcDbEntity
  8
1
  6
PHANTOM
 62
   140
100
AcDbLine
 10
443.0440785544282
 20
809.8366314056549
 30
0.0
 11
443.0440785544261
 21
816.8366314056545
 31
0.0
  0
LINE
  5
312
330
1F
100
AcDbEntity
  8
1
  6
PHANTOM
 62
   140
100
AcDbLine
 10
287.6979985446247
 20
823.5866314056483
 30
0.0
 11
411.0440785544257
 21
823.5866314056534
 31
0.0
  0
LINE
  5
313
330
1F
100
AcDbEntity
  8
1
  6
PHANTOM
 62
   140
100
AcDbLine
 10
411.0440785544257
 20
830.3366314056536
 30
0.0
 11
287.6979985446247
 21
830.3366314056484
 31
0.0
  0
LINE
  5
314
330
1F
100
AcDbEntity
  8
1
  6
PHANTOM
 62
   140
100
AcDbLine
 10
411.0440785544257
 20
817.0866314056534
 30
0.0
 11
287.6979985446247
 21
817.0866314056483
 31
0.0
  0
LINE
  5
315
330
1F
100
AcDbEntity
  8
1
  6
PHANTOM
 62
   140
100
AcDbLine
 10
411.0440785544286
 20
809.5866314056535
 30
0.0
 11
287.6979985446275
 21
809.5866314056483
 31
0.0
  0
LINE
  5
316
330
1F
100
AcDbEntity
  8
1
  6
PHANTOM
 62
   140
100
AcDbLine
 10
411.0440785544286
 20
803.0866314056535
 30
0.0
 11
287.6979985446275
 21
803.0866314056483
 31
0.0
  0
LINE
  5
317
330
1F
100
AcDbEntity
  8
1
  6
PHANTOM
 62
   140
100
AcDbLine
 10
1517.441423961187
 20
753.0864770360548
 30
0.0
 11
1394.095343951386
 21
753.0864770360496
 31
0.0
  0
LINE
  5
318
330
1F
100
AcDbEntity
  8
1
  6
PHANTOM
 62
   140
100
AcDbLine
 10
1517.441423961187
 20
759.5864770360548
 30
0.0
 11
1394.095343951386
 21
759.5864770360496
 31
0.0
  0
LINE
  5
319
330
1F
100
AcDbEntity
  8
1
  6
PHANTOM
 62
   140
100
AcDbLine
 10
1517.441423961184
 20
767.0864770360547
 30
0.0
 11
1394.095343951383
 21
767.0864770360496
 31
0.0
  0
LINE
  5
31A
330
1F
100
AcDbEntity
  8
1
  6
PHANTOM
 62
   140
100
AcDbLine
 10
1517.441423961184
 20
780.3364770360549
 30
0.0
 11
1394.095343951383
 21
780.3364770360497
 31
0.0
  0
LINE
  5
31B
330
1F
100
AcDbEntity
  8
1
  6
PHANTOM
 62
   140
100
AcDbLine
 10
1394.095343951383
 20
773.5864770360496
 30
0.0
 11
1517.441423961184
 21
773.5864770360547
 31
0.0
  0
LINE
  5
31C
330
1F
100
AcDbEntity
  8
1
  6
PHANTOM
 62
   140
100
AcDbLine
 10
1549.441423961187
 20
759.8364770360562
 30
0.0
 11
1549.441423961184
 21
766.8364770360558
 31
0.0
  0
LINE
  5
31D
330
1F
100
AcDbEntity
  8
1
  6
PHANTOM
 62
   140
100
AcDbLine
 10
1535.941423961183
 20
780.3364770360556
 30
0.0
 11
1517.441423961184
 21
780.3364770360549
 31
0.0
  0
LINE
  5
31E
330
1F
100
AcDbEntity
  8
1
  6
PHANTOM
 62
   140
100
AcDbLine
 10
1517.441423961187
 20
746.3364770360548
 30
0.0
 11
1517.441423961184
 21
780.3364770360549
 31
0.0
  0
LINE
  5
31F
330
1F
100
AcDbEntity
  8
1
  6
PHANTOM
 62
   140
100
AcDbLine
 10
1394.095343951386
 20
746.3364770360496
 30
0.0
 11
1535.941423961187
 21
746.3364770360555
 31
0.0
  0
LINE
  5
320
330
1F
100
AcDbEntity
  8
1
  6
PHANTOM
 62
   140
100
AcDbLine
 10
1516.981418001456
 20
768.3364770360547
 30
0.0
 11
1551.684793762388
 21
768.3364770360562
 31
0.0
  0
LINE
  5
321
330
1F
100
AcDbEntity
  8
1
  6
PHANTOM
 62
   140
100
AcDbLine
 10
1535.441423961184
 20
783.2547436062301
 30
0.0
 11
1535.441423961187
 21
753.4094411499706
 31
0.0
  0
LINE
  5
322
330
1F
100
AcDbEntity
  8
1
  6
PHANTOM
 62
   140
100
AcDbLine
 10
1970.043878482378
 20
969.6330068145109
 30
0.0
 11
1819.949934602799
 21
969.633006814516
 31
0.0
  0
LINE
  5
323
330
1F
100
AcDbEntity
  8
1
  6
PHANTOM
 62
   140
100
AcDbLine
 10
1970.043878482378
 20
976.1330068145109
 30
0.0
 11
1819.949934602799
 21
976.133006814516
 31
0.0
  0
LINE
  5
324
330
1F
100
AcDbEntity
  8
1
  6
PHANTOM
 62
   140
100
AcDbLine
 10
1970.043878482379
 20
983.6330068145109
 30
0.0
 11
1819.9499346028
 21
983.633006814516
 31
0.0
  0
LINE
  5
325
330
1F
100
AcDbEntity
  8
1
  6
PHANTOM
 62
   140
100
AcDbLine
 10
1970.043878482379
 20
996.8830068145109
 30
0.0
 11
1819.9499346028
 21
996.8830068145162
 31
0.0
  0
LINE
  5
326
330
1F
100
AcDbEntity
  8
1
  6
PHANTOM
 62
   140
100
AcDbLine
 10
1819.9499346028
 20
990.133006814516
 30
0.0
 11
1970.043878482379
 21
990.1330068145109
 31
0.0
  0
LINE
  5
327
330
1F
100
AcDbEntity
  8
1
  6
PHANTOM
 62
   140
100
AcDbLine
 10
1787.9499346028
 20
983.3830068145171
 30
0.0
 11
1787.949934602799
 21
976.3830068145176
 31
0.0
  0
LINE
  5
328
330
1F
100
AcDbEntity
  8
1
  6
PHANTOM
 62
   140
100
AcDbLine
 10
1819.9499346028
 20
996.8830068145162
 30
0.0
 11
1801.449934602801
 21
996.8830068145167
 31
0.0
  0
LINE
  5
329
330
1F
100
AcDbEntity
  8
1
  6
PHANTOM
 62
   140
100
AcDbLine
 10
1819.949934602799
 20
962.883006814516
 30
0.0
 11
1819.9499346028
 21
996.8830068145162
 31
0.0
  0
LINE
  5
32A
330
1F
100
AcDbEntity
  8
1
  6
PHANTOM
 62
   140
100
AcDbLine
 10
1819.9499346028
 20
996.8830068145162
 30
0.0
 11
1819.949934602799
 21
962.883006814516
 31
0.0
  0
LINE
  5
32B
330
1F
100
AcDbEntity
  8
1
  6
PHANTOM
 62
   140
100
AcDbLine
 10
1801.449934602799
 20
962.8830068145167
 30
0.0
 11
1970.043878482378
 21
962.8830068145109
 31
0.0
  0
LINE
  5
32C
330
1F
100
AcDbEntity
  8
1
  6
PHANTOM
 62
   140
100
AcDbLine
 10
1785.706564801596
 20
984.8830068145176
 30
0.0
 11
1820.409940562529
 21
984.883006814516
 31
0.0
  0
LINE
  5
32D
330
1F
100
AcDbEntity
  8
1
  6
PHANTOM
 62
   140
100
AcDbLine
 10
1801.949934602799
 20
969.955970928432
 30
0.0
 11
1801.9499346028
 21
999.8012733846915
 31
0.0
  0
LINE
  5
32E
330
1F
100
AcDbEntity
  8
1
  6
PHANTOM
 62
   140
100
AcDbLine
 10
608.949900503233
 20
969.955970928432
 30
0.0
 11
608.9499005032343
 21
999.8012733846915
 31
0.0
  0
LINE
  5
32F
330
1F
100
AcDbEntity
  8
1
  6
PHANTOM
 62
   140
100
AcDbLine
 10
592.7065307020303
 20
984.8830068145176
 30
0.0
 11
627.409906462963
 21
984.883006814516
 31
0.0
  0
LINE
  5
330
330
1F
100
AcDbEntity
  8
1
  6
PHANTOM
 62
   140
100
AcDbLine
 10
608.449900503233
 20
962.8830068145167
 30
0.0
 11
777.0438443828114
 21
962.8830068145109
 31
0.0
  0
LINE
  5
331
330
1F
100
AcDbEntity
  8
1
  6
PHANTOM
 62
   140
100
AcDbLine
 10
626.949900503233
 20
962.883006814516
 30
0.0
 11
626.9499005032343
 21
996.8830068145162
 31
0.0
  0
LINE
  5
332
330
1F
100
AcDbEntity
  8
1
  6
PHANTOM
 62
   140
100
AcDbLine
 10
626.9499005032343
 20
996.8830068145162
 30
0.0
 11
608.4499005032352
 21
996.8830068145167
 31
0.0
  0
LINE
  5
333
330
1F
100
AcDbEntity
  8
1
  6
PHANTOM
 62
   140
100
AcDbLine
 10
594.9499005032343
 20
983.3830068145171
 30
0.0
 11
594.949900503233
 21
976.3830068145176
 31
0.0
  0
LINE
  5
334
330
1F
100
AcDbEntity
  8
1
  6
PHANTOM
 62
   140
100
AcDbLine
 10
626.9499005032343
 20
990.133006814516
 30
0.0
 11
777.0438443828123
 21
990.133006814511
 31
0.0
  0
LINE
  5
335
330
1F
100
AcDbEntity
  8
1
  6
PHANTOM
 62
   140
100
AcDbLine
 10
777.0438443828123
 20
996.8830068145109
 30
0.0
 11
626.9499005032343
 21
996.8830068145162
 31
0.0
  0
LINE
  5
336
330
1F
100
AcDbEntity
  8
1
  6
PHANTOM
 62
   140
100
AcDbLine
 10
777.0438443828123
 20
983.6330068145109
 30
0.0
 11
626.9499005032343
 21
983.633006814516
 31
0.0
  0
LINE
  5
337
330
1F
100
AcDbEntity
  8
1
  6
PHANTOM
 62
   140
100
AcDbLine
 10
777.0438443828114
 20
976.1330068145109
 30
0.0
 11
626.949900503233
 21
976.133006814516
 31
0.0
  0
LINE
  5
338
330
1F
100
AcDbEntity
  8
1
  6
PHANTOM
 62
   140
100
AcDbLine
 10
777.0438443828114
 20
969.6330068145109
 30
0.0
 11
626.949900503233
 21
969.633006814516
 31
0.0
  0
LINE
  5
339
330
1F
100
AcDbEntity
  8
1
  6
Continuous
 62
     7
100
AcDbLine
 10
349.1999005032382
 20
1470.032752517115
 30
0.0
 11
414.1999005033275
 21
1470.032752517115
 31
0.0
  0
LINE
  5
33A
330
1F
100
AcDbEntity
  8
1
  6
Continuous
 62
     7
100
AcDbLine
 10
414.1999005033275
 20
1473.232752517116
 30
0.0
 11
559.1999005032924
 21
1473.232752517116
 31
0.0
  0
LINE
  5
33B
330
1F
100
AcDbEntity
  8
1
  6
Continuous
 62
     7
100
AcDbLine
 10
339.1999005032382
 20
1336.432752517115
 30
0.0
 11
339.1999005032382
 21
1370.732752517117
 31
0.0
  0
LINE
  5
33C
330
1F
100
AcDbEntity
  8
1
  6
Continuous
 62
     7
100
AcDbLine
 10
414.1999005033275
 20
1323.232752517116
 30
0.0
 11
414.1999005033202
 21
1326.43275251711
 31
0.0
  0
LINE
  5
33D
330
1F
100
AcDbEntity
  8
1
  6
Continuous
 62
     7
100
AcDbLine
 10
559.1999005032924
 20
1473.232752517116
 30
0.0
 11
559.1999005032924
 21
1425.732752517117
 31
0.0
  0
LINE
  5
33E
330
1F
100
AcDbEntity
  8
1
  6
Continuous
 62
     7
100
AcDbLine
 10
414.1999005033275
 20
1470.032752517115
 30
0.0
 11
414.1999005033275
 21
1473.232752517116
 31
0.0
  0
LINE
  5
33F
330
1F
100
AcDbEntity
  8
1
  6
Continuous
 62
     7
100
AcDbLine
 10
414.1999005033202
 20
1326.43275251711
 30
0.0
 11
349.1999005032376
 21
1326.432752517115
 31
0.0
  0
LINE
  5
340
330
1F
100
AcDbEntity
  8
1
  6
Continuous
 62
     7
100
AcDbLine
 10
559.1999005032924
 20
1323.232752517116
 30
0.0
 11
414.1999005033275
 21
1323.232752517116
 31
0.0
  0
LINE
  5
341
330
1F
100
AcDbEntity
  8
1
  6
Continuous
 62
     7
100
AcDbLine
 10
886.6719141323814
 20
954.8839627214686
 30
0.0
 11
1027.071914132381
 21
954.8839627214686
 31
0.0
  0
LINE
  5
342
330
1F
100
AcDbEntity
  8
1
  6
Continuous
 62
     7
100
AcDbLine
 10
885.0719141323806
 20
863.0839627214674
 30
0.0
 11
885.0719141323806
 21
953.2839627214676
 31
0.0
  0
LINE
  5
343
330
1F
100
AcDbEntity
  8
1
  6
Continuous
 62
     7
100
AcDbLine
 10
881.8719141323812
 20
863.0839627214674
 30
0.0
 11
885.0719141323806
 21
863.0839627214674
 31
0.0
  0
LINE
  5
344
330
1F
100
AcDbEntity
  8
1
  6
Continuous
 62
     7
100
AcDbLine
 10
881.8719141323812
 20
954.8839627214686
 30
0.0
 11
881.8719141323812
 21
863.0839627214674
 31
0.0
  0
LINE
  5
345
330
1F
100
AcDbEntity
  8
1
  6
Continuous
 62
     7
100
AcDbLine
 10
1028.671914132379
 20
958.0839627214675
 30
0.0
 11
885.0719141323806
 21
958.0839627214675
 31
0.0
  0
LINE
  5
346
330
1F
100
AcDbEntity
  8
1
  6
Continuous
 62
     7
100
AcDbLine
 10
1031.87191413238
 20
863.0839627214674
 30
0.0
 11
1031.87191413238
 21
954.8839627214686
 31
0.0
  0
LINE
  5
347
330
1F
100
AcDbEntity
  8
1
  6
Continuous
 62
     7
100
AcDbLine
 10
1028.671914132379
 20
863.0839627214674
 30
0.0
 11
1031.87191413238
 21
863.0839627214674
 31
0.0
  0
LINE
  5
348
330
1F
100
AcDbEntity
  8
1
  6
Continuous
 62
     7
100
AcDbLine
 10
1028.671914132379
 20
953.2839627214676
 30
0.0
 11
1028.671914132379
 21
863.0839627214674
 31
0.0
  0
LINE
  5
349
330
1F
100
AcDbEntity
  8
1
  6
DASH_CENTER
 62
     3
100
AcDbLine
 10
956.8719141323803
 20
1034.48148259462
 30
0.0
 11
956.8719141323803
 21
846.5487373689358
 31
0.0
  0
LINE
  5
34A
330
1F
100
AcDbEntity
  8
1
  6
Continuous
 62
     7
100
AcDbLine
 10
1432.199934602805
 20
1460.032752517117
 30
0.0
 11
1432.199934602805
 21
1425.732752517117
 31
0.0
  0
LINE
  5
34B
330
1F
100
AcDbEntity
  8
1
  6
Continuous
 62
     7
100
AcDbLine
 10
1507.199934602805
 20
1473.232752517116
 30
0.0
 11
1507.1999346028
 21
1470.032752517117
 31
0.0
  0
LINE
  5
34C
330
1F
100
AcDbEntity
  8
1
  6
Continuous
 62
     7
100
AcDbLine
 10
1442.199934602805
 20
1326.432752517119
 30
0.0
 11
1507.199934602806
 21
1326.432752517119
 31
0.0
  0
LINE
  5
34D
330
1F
100
AcDbEntity
  8
1
  6
Continuous
 62
     7
100
AcDbLine
 10
1507.199934602806
 20
1323.232752517116
 30
0.0
 11
1752.199934602858
 21
1323.232752517116
 31
0.0
  0
LINE
  5
34E
330
1F
100
AcDbEntity
  8
1
  6
Continuous
 62
     7
100
AcDbLine
 10
1752.199934602858
 20
1323.232752517116
 30
0.0
 11
1752.199934602858
 21
1370.732752517117
 31
0.0
  0
LINE
  5
34F
330
1F
100
AcDbEntity
  8
1
  6
Continuous
 62
     7
100
AcDbLine
 10
1507.199934602806
 20
1326.432752517119
 30
0.0
 11
1507.199934602806
 21
1323.232752517116
 31
0.0
  0
LINE
  5
350
330
1F
100
AcDbEntity
  8
1
  6
Continuous
 62
     7
100
AcDbLine
 10
1507.1999346028
 20
1470.032752517117
 30
0.0
 11
1442.199934602805
 21
1470.032752517117
 31
0.0
  0
LINE
  5
351
330
1F
100
AcDbEntity
  8
1
  6
Continuous
 62
     7
100
AcDbLine
 10
1752.199934602858
 20
1473.232752517116
 30
0.0
 11
1507.199934602805
 21
1473.232752517116
 31
0.0
  0
LINE
  5
352
330
1F
100
AcDbEntity
  8
1
  6
DASHED
 62
     4
100
AcDbLine
 10
457.9959245147175
 20
872.8367341570986
 30
0.0
 11
583.5694933710313
 21
945.3369328097374
 31
0.0
  0
LINE
  5
353
330
1F
100
AcDbEntity
  8
1
  6
Continuous
 62
     7
100
AcDbLine
 10
391.4440741703674
 20
838.1079101666185
 30
0.0
 11
393.0440785544282
 21
835.3366314056526
 31
0.0
  0
LINE
  5
354
330
1F
100
AcDbEntity
  8
1
  6
Continuous
 62
     7
100
AcDbLine
 10
456.3959201306565
 20
875.6080129180637
 30
0.0
 11
465.1844393596533
 21
860.3859067024217
 31
0.0
  0
LINE
  5
355
330
1F
100
AcDbEntity
  8
1
  6
Continuous
 62
     7
100
AcDbLine
 10
393.0440785544282
 20
835.3366314056526
 30
0.0
 11
457.9959245147175
 21
872.8367341570986
 31
0.0
  0
LINE
  5
356
330
1F
100
AcDbEntity
  8
1
  6
Continuous
 62
     7
100
AcDbLine
 10
391.4440741703674
 20
838.1079101666185
 30
0.0
 11
581.9694889869716
 21
948.1082115707034
 31
0.0
  0
LINE
  5
357
330
1F
100
AcDbEntity
  8
1
  6
Continuous
 62
     7
100
AcDbLine
 10
581.9694889869716
 20
948.1082115707034
 30
0.0
 11
589.9695109071923
 21
934.2518177659865
 31
0.0
  0
LINE
  5
358
330
1F
100
AcDbEntity
  8
1
  6
Continuous
 62
     7
100
AcDbLine
 10
589.9695109071923
 20
934.2518177659865
 30
0.0
 11
624.4696054385397
 21
874.4961194824626
 31
0.0
  0
LINE
  5
359
330
1F
100
AcDbEntity
  8
1
  6
Continuous
 62
     7
100
AcDbLine
 10
620.8093730107024
 20
860.8358596542571
 30
0.0
 11
589.1749008335077
 21
842.5716219009686
 31
0.0
  0
LINE
  5
35A
330
1F
100
AcDbEntity
  8
1
  6
Continuous
 62
     7
100
AcDbLine
 10
1813.809299134445
 20
860.8359186965457
 30
0.0
 11
1780.776298648315
 21
841.7643069737105
 31
0.0
  0
LINE
  5
35B
330
1F
100
AcDbEntity
  8
1
  6
Continuous
 62
     7
100
AcDbLine
 10
1782.96955317218
 20
934.2519255956194
 30
0.0
 11
1817.469553172281
 21
874.4961727343916
 31
0.0
  0
LINE
  5
35C
330
1F
100
AcDbEntity
  8
1
  6
Continuous
 62
     7
100
AcDbLine
 10
1774.969553172253
 20
948.1083320560484
 30
0.0
 11
1782.96955317218
 21
934.2519255956194
 31
0.0
  0
LINE
  5
35D
330
1F
100
AcDbEntity
  8
1
  6
Continuous
 62
     7
100
AcDbLine
 10
1497.841423961185
 20
788.1083320560011
 30
0.0
 11
1774.969553172253
 21
948.1083320560484
 31
0.0
  0
LINE
  5
35E
330
1F
100
AcDbEntity
  8
1
  6
Continuous
 62
     7
100
AcDbLine
 10
1499.441423961186
 20
785.3370507638917
 30
0.0
 11
1564.393329245012
 21
822.8370507639044
 31
0.0
  0
LINE
  5
35F
330
1F
100
AcDbEntity
  8
1
  6
Continuous
 62
     7
100
AcDbLine
 10
1562.793329245009
 20
825.6083320560121
 30
0.0
 11
1571.076331499413
 21
811.2617513122007
 31
0.0
  0
LINE
  5
360
330
1F
100
AcDbEntity
  8
1
  6
Continuous
 62
     7
100
AcDbLine
 10
1497.841423961185
 20
788.1083320560011
 30
0.0
 11
1499.441423961186
 21
785.3370507638917
 31
0.0
  0
LINE
  5
361
330
1F
100
AcDbEntity
  8
1
  6
DASHED
 62
     4
100
AcDbLine
 10
1564.393329245012
 20
822.8370507639044
 30
0.0
 11
1776.569553172254
 21
945.3370507639377
 31
0.0
  0
LINE
  5
362
330
1F
100
AcDbEntity
  8
1
  6
DASH_CENTER
 62
     3
100
AcDbLine
 10
1754.298928139544
 20
943.9109048369064
 30
0.0
 11
1762.966787438726
 21
928.8977321378607
 31
0.0
  0
LINE
  5
363
330
1F
100
AcDbEntity
  8
1
  6
DASH_CENTER
 62
     3
100
AcDbLine
 10
2174.871914132381
 20
1034.5135155725
 30
0.0
 11
2174.871914132381
 21
846.5487373689358
 31
0.0
  0
LINE
  5
364
330
1F
100
AcDbEntity
  8
1
  6
Continuous
 62
     7
100
AcDbLine
 10
2246.671914132379
 20
953.2839627214676
 30
0.0
 11
2246.671914132379
 21
863.0839627214674
 31
0.0
  0
LINE
  5
365
330
1F
100
AcDbEntity
  8
1
  6
Continuous
 62
     7
100
AcDbLine
 10
2246.671914132379
 20
863.0839627214674
 30
0.0
 11
2249.871914132381
 21
863.0839627214674
 31
0.0
  0
LINE
  5
366
330
1F
100
AcDbEntity
  8
1
  6
Continuous
 62
     7
100
AcDbLine
 10
2249.871914132381
 20
863.0839627214674
 30
0.0
 11
2249.871914132381
 21
954.8839627214686
 31
0.0
  0
LINE
  5
367
330
1F
100
AcDbEntity
  8
1
  6
Continuous
 62
     7
100
AcDbLine
 10
2246.671914132379
 20
958.0839627214675
 30
0.0
 11
2103.07191413238
 21
958.0839627214675
 31
0.0
  0
LINE
  5
368
330
1F
100
AcDbEntity
  8
1
  6
Continuous
 62
     7
100
AcDbLine
 10
2099.871914132381
 20
954.8839627214686
 30
0.0
 11
2099.871914132381
 21
863.0839627214674
 31
0.0
  0
LINE
  5
369
330
1F
100
AcDbEntity
  8
1
  6
Continuous
 62
     7
100
AcDbLine
 10
2099.871914132381
 20
863.0839627214674
 30
0.0
 11
2103.07191413238
 21
863.0839627214674
 31
0.0
  0
LINE
  5
36A
330
1F
100
AcDbEntity
  8
1
  6
Continuous
 62
     7
100
AcDbLine
 10
2103.07191413238
 20
863.0839627214674
 30
0.0
 11
2103.07191413238
 21
953.2839627214676
 31
0.0
  0
LINE
  5
36B
330
1F
100
AcDbEntity
  8
1
  6
Continuous
 62
     7
100
AcDbLine
 10
2104.671914132382
 20
954.8839627214686
 30
0.0
 11
2245.071914132382
 21
954.8839627214686
 31
0.0
  0
LINE
  5
36C
330
1F
100
AcDbEntity
  8
1
  6
DASH_CENTER
 62
     3
100
AcDbLine
 10
478.1697948364882
 20
867.3945556499326
 30
0.0
 11
487.2630615762228
 21
872.6445556499348
 31
0.0
  0
LINE
  5
36D
330
1F
100
AcDbEntity
  8
1
  6
DASH_CENTER
 62
     3
100
AcDbLine
 10
480.0914282063552
 20
874.5661890198014
 30
0.0
 11
485.3414282063569
 21
865.472922280066
 31
0.0
  0
LINE
  5
36E
330
1F
100
AcDbEntity
  8
1
  6
DASH_CENTER
 62
     3
100
AcDbLine
 10
1586.488837320708
 20
824.5665081577496
 30
0.0
 11
1591.73883732071
 21
815.4732414180143
 31
0.0
  0
LINE
  5
36F
330
1F
100
AcDbEntity
  8
1
  6
DASH_CENTER
 62
     3
100
AcDbLine
 10
1584.567203950841
 20
817.3948747878809
 30
0.0
 11
1593.660470690576
 21
822.6448747878832
 31
0.0
  0
LINE
  5
370
330
1F
100
AcDbEntity
  8
1
  6
Continuous
 62
     7
100
AcDbLine
 10
1576.185397523298
 20
808.8227985865194
 30
0.0
 11
1777.33417665824
 21
840.5466555601835
 31
0.0
  0
LINE
  5
371
330
1F
100
AcDbEntity
  8
1
  6
Continuous
 62
     7
100
AcDbLine
 10
468.7936386885537
 20
857.9381596208672
 30
0.0
 11
582.7330396630987
 21
841.3363601656919
 31
0.0
  0
LINE
  5
372
330
1F
100
AcDbEntity
  8
1
  6
Continuous
 62
     7
100
AcDbLine
 10
533.7000245646328
 20
1450.732752517116
 30
0.0
 11
533.7000245646328
 21
1434.732752517116
 31
0.0
  0
LINE
  5
373
330
1F
100
AcDbEntity
  8
1
  6
Continuous
 62
     7
100
AcDbLine
 10
544.7000245646328
 20
1450.732752517116
 30
0.0
 11
544.7000245646328
 21
1434.732752517116
 31
0.0
  0
LINE
  5
374
330
1F
100
AcDbEntity
  8
1
  6
DOT_CENTER
 62
     3
100
AcDbLine
 10
539.2000245646328
 20
1458.982752517116
 30
0.0
 11
539.2000245646328
 21
1456.232752517116
 31
0.0
  0
LINE
  5
375
330
1F
100
AcDbEntity
  8
1
  6
DOT_CENTER
 62
     3
100
AcDbLine
 10
539.2000245646328
 20
1456.232752517116
 30
0.0
 11
539.2000245646328
 21
1340.232752517118
 31
0.0
  0
LINE
  5
376
330
1F
100
AcDbEntity
  8
1
  6
DOT_CENTER
 62
     3
100
AcDbLine
 10
530.9500245646328
 20
1441.232752517116
 30
0.0
 11
547.4500245646328
 21
1441.232752517116
 31
0.0
  0
LINE
  5
377
330
1F
100
AcDbEntity
  8
1
  6
DOT_CENTER
 62
     3
100
AcDbLine
 10
390.9498997587762
 20
1441.232752517116
 30
0.0
 11
407.4498997587762
 21
1441.232752517116
 31
0.0
  0
LINE
  5
378
330
1F
100
AcDbEntity
  8
1
  6
DOT_CENTER
 62
     3
100
AcDbLine
 10
399.1998997587762
 20
1458.982752517116
 30
0.0
 11
399.1998997587762
 21
1336.67929485182
 31
0.0
  0
LINE
  5
379
330
1F
100
AcDbEntity
  8
1
  6
Continuous
 62
     7
100
AcDbLine
 10
404.6998997587762
 20
1450.732752517116
 30
0.0
 11
404.6998997587762
 21
1434.732752517116
 31
0.0
  0
LINE
  5
37A
330
1F
100
AcDbEntity
  8
1
  6
Continuous
 62
     7
100
AcDbLine
 10
393.6998997587762
 20
1450.732752517116
 30
0.0
 11
393.6998997587762
 21
1434.732752517116
 31
0.0
  0
LINE
  5
37B
330
1F
100
AcDbEntity
  8
1
  6
DOT_CENTER
 62
     3
100
AcDbLine
 10
407.4498997587762
 20
1355.232752517118
 30
0.0
 11
390.9498997587762
 21
1355.232752517118
 31
0.0
  0
LINE
  5
37C
330
1F
100
AcDbEntity
  8
1
  6
DOT_CENTER
 62
     3
100
AcDbLine
 10
547.4500245646328
 20
1355.232752517118
 30
0.0
 11
530.9500245646328
 21
1355.232752517118
 31
0.0
  0
LINE
  5
37D
330
1F
100
AcDbEntity
  8
1
  6
DOT_CENTER
 62
     3
100
AcDbLine
 10
539.2000245646328
 20
1340.232752517118
 30
0.0
 11
539.2000245646328
 21
1337.482752517118
 31
0.0
  0
LINE
  5
37E
330
1F
100
AcDbEntity
  8
1
  6
DOT_CENTER
 62
     3
100
AcDbLine
 10
1740.449537219284
 20
1355.232752517118
 30
0.0
 11
1723.949537219284
 21
1355.232752517118
 31
0.0
  0
LINE
  5
37F
330
1F
100
AcDbEntity
  8
1
  6
DOT_CENTER
 62
     3
100
AcDbLine
 10
1500.449933858342
 20
1355.232752517118
 30
0.0
 11
1483.949933858342
 21
1355.232752517118
 31
0.0
  0
LINE
  5
380
330
1F
100
AcDbEntity
  8
1
  6
Continuous
 62
     7
100
AcDbLine
 10
1486.699933858341
 20
1450.732752517116
 30
0.0
 11
1486.699933858341
 21
1434.732752517116
 31
0.0
  0
LINE
  5
381
330
1F
100
AcDbEntity
  8
1
  6
Continuous
 62
     7
100
AcDbLine
 10
1497.699933858342
 20
1450.732752517116
 30
0.0
 11
1497.699933858342
 21
1434.732752517116
 31
0.0
  0
LINE
  5
382
330
1F
100
AcDbEntity
  8
1
  6
DOT_CENTER
 62
     3
100
AcDbLine
 10
1483.949933858342
 20
1441.232752517116
 30
0.0
 11
1500.449933858342
 21
1441.232752517116
 31
0.0
  0
LINE
  5
383
330
1F
100
AcDbEntity
  8
1
  6
DOT_CENTER
 62
     3
100
AcDbLine
 10
1723.949537219284
 20
1441.232752517116
 30
0.0
 11
1740.449537219284
 21
1441.232752517116
 31
0.0
  0
LINE
  5
384
330
1F
100
AcDbEntity
  8
1
  6
Continuous
 62
     7
100
AcDbLine
 10
1737.699537219284
 20
1450.732752517116
 30
0.0
 11
1737.699537219284
 21
1434.732752517116
 31
0.0
  0
LINE
  5
385
330
1F
100
AcDbEntity
  8
1
  6
Continuous
 62
     7
100
AcDbLine
 10
1726.699537219284
 20
1450.732752517116
 30
0.0
 11
1726.699537219284
 21
1434.732752517116
 31
0.0
  0
LINE
  5
386
330
1F
100
AcDbEntity
  8
1
  6
Continuous
 62
     7
100
AcDbLine
 10
1752.199934602858
 20
1425.732752517117
 30
0.0
 11
1752.199934602858
 21
1473.232752517116
 31
0.0
  0
LINE
  5
387
330
1F
100
AcDbEntity
  8
1
  6
Continuous
 62
     7
100
AcDbLine
 10
1432.199934602805
 20
1370.732752517117
 30
0.0
 11
1432.199934602805
 21
1336.432752517119
 31
0.0
  0
LINE
  5
388
330
1F
100
AcDbEntity
  8
1
  6
DASHED
 62
     4
100
AcDbLine
 10
1432.199934602805
 20
1425.732752517117
 30
0.0
 11
1432.199934602805
 21
1370.732752517117
 31
0.0
  0
LINE
  5
389
330
1F
100
AcDbEntity
  8
1
  6
Continuous
 62
     7
100
AcDbLine
 10
1726.699537219284
 20
1361.732752517117
 30
0.0
 11
1726.699537219284
 21
1345.732752517118
 31
0.0
  0
LINE
  5
38A
330
1F
100
AcDbEntity
  8
1
  6
Continuous
 62
     7
100
AcDbLine
 10
1737.699537219284
 20
1361.732752517117
 30
0.0
 11
1737.699537219284
 21
1345.732752517118
 31
0.0
  0
LINE
  5
38B
330
1F
100
AcDbEntity
  8
1
  6
Continuous
 62
     7
100
AcDbLine
 10
1486.699933858341
 20
1361.732752517117
 30
0.0
 11
1486.699933858341
 21
1345.732752517118
 31
0.0
  0
LINE
  5
38C
330
1F
100
AcDbEntity
  8
1
  6
Continuous
 62
     7
100
AcDbLine
 10
1497.699933858342
 20
1361.732752517117
 30
0.0
 11
1497.699933858342
 21
1345.732752517118
 31
0.0
  0
LINE
  5
38D
330
1F
100
AcDbEntity
  8
1
  6
Continuous
 62
     7
100
AcDbLine
 10
533.7000245646328
 20
1361.732752517116
 30
0.0
 11
533.7000245646328
 21
1345.732752517118
 31
0.0
  0
LINE
  5
38E
330
1F
100
AcDbEntity
  8
1
  6
Continuous
 62
     7
100
AcDbLine
 10
544.7000245646328
 20
1361.732752517116
 30
0.0
 11
544.7000245646328
 21
1345.732752517118
 31
0.0
  0
LINE
  5
38F
330
1F
100
AcDbEntity
  8
1
  6
Continuous
 62
     7
100
AcDbLine
 10
393.6998997587762
 20
1361.732752517116
 30
0.0
 11
393.6998997587762
 21
1345.732752517118
 31
0.0
  0
LINE
  5
390
330
1F
100
AcDbEntity
  8
1
  6
Continuous
 62
     7
100
AcDbLine
 10
404.6998997587762
 20
1361.732752517116
 30
0.0
 11
404.6998997587762
 21
1345.732752517118
 31
0.0
  0
LINE
  5
391
330
1F
100
AcDbEntity
  8
1
  6
Continuous
 62
     7
100
AcDbLine
 10
559.1999005032924
 20
1370.732752517117
 30
0.0
 11
559.1999005032924
 21
1323.232752517116
 31
0.0
  0
LINE
  5
392
330
1F
100
AcDbEntity
  8
1
  6
Continuous
 62
     7
100
AcDbLine
 10
339.1999005032382
 20
1425.732752517117
 30
0.0
 11
339.1999005032382
 21
1460.032752517115
 31
0.0
  0
LINE
  5
393
330
1F
100
AcDbEntity
  8
1
  6
DASHED
 62
     4
100
AcDbLine
 10
339.1999005032382
 20
1370.732752517117
 30
0.0
 11
339.1999005032382
 21
1425.732752517117
 31
0.0
  0
LINE
  5
394
330
1F
100
AcDbEntity
  8
1
  6
Continuous
 62
     2
100
AcDbLine
 10
1376.212692616155
 20
986.7745410075465
 30
0.0
 11
1344.225855136245
 21
968.3069317779927
 31
0.0
  0
LINE
  5
395
330
1F
100
AcDbEntity
  8
1
  6
Continuous
 62
     2
100
AcDbLine
 10
1684.517736363367
 20
1164.774541007619
 30
0.0
 11
1711.300000379765
 21
1180.237288346997
 31
0.0
  0
LINE
  5
396
330
1F
100
AcDbEntity
  8
1
  6
Continuous
 62
     2
100
AcDbLine
 10
1558.520357252531
 20
1286.967322308446
 30
0.0
 11
1653.520357252531
 21
1286.967322308446
 31
0.0
  0
LINE
  5
397
330
1F
100
AcDbEntity
  8
1
  6
Continuous
 62
     2
100
AcDbLine
 10
410.5111815535678
 20
1291.731430671302
 30
0.0
 11
505.5111815535673
 21
1291.731430671302
 31
0.0
  0
LINE
  5
398
330
1F
100
AcDbEntity
  8
1
  6
Continuous
 62
     2
100
AcDbLine
 10
489.2555194143794
 20
1168.692714685716
 30
0.0
 11
516.0377834307767
 21
1184.155462025094
 31
0.0
  0
LINE
  5
399
330
1F
100
AcDbEntity
  8
1
  6
Continuous
 62
     2
100
AcDbLine
 10
267.5530160456103
 20
1040.692714685646
 30
0.0
 11
235.5661785657001
 21
1022.225105456091
 31
0.0
  0
LINE
  5
39A
330
1F
100
AcDbEntity
  8
1
  6
Continuous
 62
     2
100
AcDbLine
 10
1203.942070612002
 20
683.8006002302752
 30
0.0
 11
1307.942070612002
 21
683.8006002302752
 31
0.0
  0
LINE
  5
39B
330
1F
100
AcDbEntity
  8
1
  6
Continuous
 62
     2
100
AcDbLine
 10
2122.836379724014
 20
798.0651260749614
 30
0.0
 11
2237.836379724014
 21
798.0651260749614
 31
0.0
  0
LINE
  5
39C
330
1F
100
AcDbEntity
  8
1
  6
Continuous
 62
     2
100
AcDbLine
 10
88.94207061200211
 20
730.8006002302707
 30
0.0
 11
192.9420706120021
 21
730.8006002302707
 31
0.0
  0
LINE
  5
39D
330
1F
100
AcDbEntity
  8
1
  6
Continuous
 62
     2
100
AcDbLine
 10
898.8363797240126
 20
798.0651260749614
 30
0.0
 11
1013.836379724013
 21
798.0651260749614
 31
0.0
  0
LINE
  5
39E
330
1F
100
AcDbEntity
  8
1
  6
Continuous
 62
     2
100
AcDbLine
 10
1381.200738788531
 20
932.1349916064903
 30
0.0
 11
1365.356356758084
 21
959.5782662978037
 31
0.0
  0
LINE
  5
39F
330
1F
100
AcDbEntity
  8
1
  6
Continuous
 62
     2
100
AcDbLine
 10
1511.118720551178
 20
707.1104463767562
 30
0.0
 11
1495.274338520732
 21
734.5537210680692
 31
0.0
  0
LINE
  5
3A0
330
1F
100
AcDbEntity
  8
1
  6
Continuous
 62
     2
100
AcDbLine
 10
1712.632543675622
 20
1160.078266297805
 30
0.0
 11
1728.47692570609
 21
1132.634991606504
 31
0.0
  0
LINE
  5
3A1
330
1F
100
AcDbEntity
  8
1
  6
Continuous
 62
     2
100
AcDbLine
 10
1873.230977891047
 20
881.9136186206952
 30
0.0
 11
1889.075359921515
 21
854.4703439293943
 31
0.0
  0
LINE
  5
3A2
330
1F
100
AcDbEntity
  8
1
  6
Continuous
 62
     2
100
AcDbLine
 10
272.5410622179879
 20
986.0531652845896
 30
0.0
 11
256.6966801875406
 21
1013.496439975903
 31
0.0
  0
LINE
  5
3A3
330
1F
100
AcDbEntity
  8
1
  6
Continuous
 62
     2
100
AcDbLine
 10
402.4590439806347
 20
761.028620054855
 30
0.0
 11
386.6146619501892
 21
788.471894746168
 31
0.0
  0
LINE
  5
3A4
330
1F
100
AcDbEntity
  8
1
  6
Continuous
 62
     2
100
AcDbLine
 10
517.3703267266351
 20
1163.996439975903
 30
0.0
 11
533.214708757103
 21
1136.553165284602
 31
0.0
  0
LINE
  5
3A5
330
1F
100
AcDbEntity
  8
1
  6
Continuous
 62
     2
100
AcDbLine
 10
681.3817999517569
 20
879.9202353257833
 30
0.0
 11
697.2261819822247
 21
852.4769606344825
 31
0.0
  0
LINE
  5
3A6
330
1F
100
AcDbEntity
  8
1
  6
Continuous
 62
     4
100
AcDbLine
 10
1574.18895229342
 20
931.4518337903807
 30
0.0
 11
1590.107536580465
 21
949.880037020655
 31
0.0
  0
LINE
  5
3A7
330
1F
100
AcDbEntity
  8
1
  6
Continuous
 62
     4
100
AcDbLine
 10
1590.107536580465
 20
949.880037020655
 30
0.0
 11
1592.607536580464
 21
945.5499100017312
 31
0.0
  0
LINE
  5
3A8
330
1F
100
AcDbEntity
  8
1
  6
Continuous
 62
     4
100
AcDbLine
 10
1592.607536580464
 20
945.5499100017312
 30
0.0
 11
1615.124197078861
 21
958.5499100017298
 31
0.0
  0
LINE
  5
3A9
330
1F
100
AcDbEntity
  8
1
  6
Continuous
 62
     4
100
AcDbLine
 10
1615.124197078861
 20
958.5499100017298
 30
0.0
 11
1616.624197078861
 21
955.9518337903766
 31
0.0
  0
LINE
  5
3AA
330
1F
100
AcDbEntity
  8
1
  6
Continuous
 62
     4
100
AcDbLine
 10
1616.624197078861
 20
955.9518337903766
 30
0.0
 11
1618.12419707886
 21
953.3537575790238
 31
0.0
  0
LINE
  5
3AB
330
1F
100
AcDbEntity
  8
1
  6
Continuous
 62
     4
100
AcDbLine
 10
1618.12419707886
 20
953.3537575790238
 30
0.0
 11
1595.607536580465
 21
940.353757579026
 31
0.0
  0
LINE
  5
3AC
330
1F
100
AcDbEntity
  8
1
  6
Continuous
 62
     4
100
AcDbLine
 10
1595.607536580465
 20
940.353757579026
 30
0.0
 11
1598.107536580464
 21
936.0236305601034
 31
0.0
  0
LINE
  5
3AD
330
1F
100
AcDbEntity
  8
1
  6
Continuous
 62
     4
100
AcDbLine
 10
1598.107536580464
 20
936.0236305601034
 30
0.0
 11
1574.18895229342
 21
931.4518337903807
 31
0.0
  0
LINE
  5
3AE
330
1F
100
AcDbEntity
  8
1
  6
Continuous
 62
     4
100
AcDbLine
 10
460.3728742852571
 20
967.5498680486242
 30
0.0
 11
436.4542899982145
 21
962.9780712789009
 31
0.0
  0
LINE
  5
3AF
330
1F
100
AcDbEntity
  8
1
  6
Continuous
 62
     4
100
AcDbLine
 10
457.8728742852579
 20
971.8799950675468
 30
0.0
 11
460.3728742852571
 21
967.5498680486242
 31
0.0
  0
LINE
  5
3B0
330
1F
100
AcDbEntity
  8
1
  6
Continuous
 62
     4
100
AcDbLine
 10
480.3895347836534
 20
984.8799950675448
 30
0.0
 11
457.8728742852579
 21
971.8799950675468
 31
0.0
  0
LINE
  5
3B1
330
1F
100
AcDbEntity
  8
1
  6
Continuous
 62
     4
100
AcDbLine
 10
478.8895347836527
 20
987.4780712788966
 30
0.0
 11
480.3895347836534
 21
984.8799950675448
 31
0.0
  0
LINE
  5
3B2
330
1F
100
AcDbEntity
  8
1
  6
Continuous
 62
     4
100
AcDbLine
 10
477.3895347836539
 20
990.0761474902506
 30
0.0
 11
478.8895347836527
 21
987.4780712788966
 31
0.0
  0
LINE
  5
3B3
330
1F
100
AcDbEntity
  8
1
  6
Continuous
 62
     4
100
AcDbLine
 10
454.8728742852576
 20
977.0761474902523
 30
0.0
 11
477.3895347836539
 21
990.0761474902506
 31
0.0
  0
LINE
  5
3B4
330
1F
100
AcDbEntity
  8
1
  6
Continuous
 62
     4
100
AcDbLine
 10
452.3728742852579
 20
981.4062745091757
 30
0.0
 11
454.8728742852576
 21
977.0761474902523
 31
0.0
  0
LINE
  5
3B5
330
1F
100
AcDbEntity
  8
1
  6
Continuous
 62
     4
100
AcDbLine
 10
436.4542899982145
 20
962.9780712789009
 30
0.0
 11
452.3728742852579
 21
981.4062745091757
 31
0.0
  0
LINE
  5
3B6
330
1F
100
AcDbEntity
  8
1
  6
DASH_CENTER
 62
     3
100
AcDbLine
 10
1782.1999346028
 20
995.5840106619421
 30
0.0
 11
1801.560652086158
 21
1006.761926112664
 31
0.0
  0
LINE
  5
3B7
330
1F
100
AcDbEntity
  8
1
  6
DASH_CENTER
 62
     3
100
AcDbLine
 10
589.1999005032335
 20
995.583968708835
 30
0.0
 11
617.5991193227615
 21
1011.980265339066
 31
0.0
  0
LINE
  5
3B8
330
1F
100
AcDbEntity
  8
1
  6
DASH_CENTER
 62
     3
100
AcDbLine
 10
403.6596368554291
 20
936.949130707641
 30
0.0
 11
454.3054999285287
 21
849.2288648518065
 31
0.0
  0
LINE
  5
3B9
330
1F
100
AcDbEntity
  8
1
  6
DOT_CENTER
 62
     3
100
AcDbLine
 10
1724.700058664202
 20
1356.732752517117
 30
0.0
 11
1739.700058664202
 21
1356.732752517117
 31
0.0
  0
ARC
  5
3BA
330
1F
100
AcDbEntity
  8
1
  6
DASHED
 62
     4
100
AcDbCircle
 10
1440.033267936111
 20
1913.532752517321
 30
0.0
 40
535.3573116259169
100
AcDbArc
 50
-90.83838017375588
 51
-74.26678612586721
  0
ARC
  5
3BB
330
1F
100
AcDbEntity
  8
1
  6
DASHED
 62
     4
100
AcDbCircle
 10
1723.366601269461
 20
932.9327525170984
 30
0.0
 40
485.3803846240554
100
AcDbArc
 50
88.95722885329353
 51
106.5383152189197
  0
ARC
  5
3BC
330
1F
100
AcDbEntity
  8
1
  6
DASHED
 62
     4
100
AcDbCircle
 10
1723.866601269466
 20
1888.232752517118
 30
0.0
 40
510.0680782448997
100
AcDbArc
 50
-106.1254089785395
 51
-89.06387775864323
  0
ARC
  5
3BD
330
1F
100
AcDbEntity
  8
1
  6
DASHED
 62
     4
100
AcDbCircle
 10
1440.533267936133
 20
908.2327525171154
 30
0.0
 40
510.0680782449007
100
AcDbArc
 50
73.87459102146042
 51
90.93612224135663
  0
ARC
  5
3BE
330
1F
100
AcDbEntity
  8
1
  6
DASHED
 62
     4
100
AcDbCircle
 10
1723.866601269466
 20
908.2327525171154
 30
0.0
 40
510.0680782449007
100
AcDbArc
 50
89.06387775864323
 51
106.1254089785394
  0
ARC
  5
3BF
330
1F
100
AcDbEntity
  8
1
  6
DASHED
 62
     4
100
AcDbCircle
 10
1440.533267936133
 20
1888.232752517118
 30
0.0
 40
510.0680782448999
100
AcDbArc
 50
-90.93612224135663
 51
-73.87459102146039
  0
ARC
  5
3C0
330
1F
100
AcDbEntity
  8
1
  6
DASHED
 62
     4
100
AcDbCircle
 10
322.5332338365665
 20
1721.566085850451
 30
0.0
 40
343.7376260399143
100
AcDbArc
 50
-87.22083313592789
 51
-70.15930191603167
  0
ARC
  5
3C1
330
1F
100
AcDbEntity
  8
1
  6
DASHED
 62
     4
100
AcDbCircle
 10
555.8665671698996
 20
1074.899419183782
 30
0.0
 40
343.7376260399154
100
AcDbArc
 50
92.77916686407197
 51
109.8406980839682
  0
ARC
  5
3C2
330
1F
100
AcDbEntity
  8
1
  6
DASHED
 62
     4
100
AcDbCircle
 10
322.5332338365665
 20
1074.899419183782
 30
0.0
 40
343.7376260399154
100
AcDbArc
 50
70.15930191603172
 51
87.2208331359279
  0
ARC
  5
3C3
330
1F
100
AcDbEntity
  8
1
  6
DASHED
 62
     4
100
AcDbCircle
 10
555.8665671698996
 20
1721.566085850451
 30
0.0
 40
343.7376260399141
100
AcDbArc
 50
-109.8406980839682
 51
-92.77916686407198
  0
ARC
  5
3C4
330
1F
100
AcDbEntity
  8
1
  6
DASHED
 62
     4
100
AcDbCircle
 10
555.3665671699005
 20
1094.599419183783
 30
0.0
 40
324.0368737590769
100
AcDbArc
 50
92.85975625472376
 51
110.44084262035
  0
ARC
  5
3C5
330
1F
100
AcDbEntity
  8
1
  6
DASHED
 62
     4
100
AcDbCircle
 10
322.0332338365494
 20
1741.866085850458
 30
0.0
 40
364.0383160541782
100
AcDbArc
 50
-87.29714592745711
 51
-70.72555187956844
  0
ARC
  5
3C6
330
1F
100
AcDbEntity
  8
1
  6
Continuous
 62
     7
100
AcDbCircle
 10
1774.399597119332
 20
968.6052751020173
 30
0.0
 40
2.044658198742801
100
AcDbArc
 50
-4.38424746803924
 51
64.38424746791722
  0
ARC
  5
3C7
330
1F
100
AcDbEntity
  8
1
  6
Continuous
 62
     7
100
AcDbCircle
 10
1767.819470100392
 20
968.806236996329
 30
0.0
 40
7.642734410117451
100
AcDbArc
 50
12.41204622606452
 51
47.58795377393086
  0
ARC
  5
3C8
330
1F
100
AcDbEntity
  8
1
  6
Continuous
 62
     7
100
AcDbCircle
 10
1770.935495504192
 20
974.6052751020145
 30
0.0
 40
2.044658198744624
100
AcDbArc
 50
-4.38424746795544
 51
64.38424746789879
  0
ARC
  5
3C9
330
1F
100
AcDbEntity
  8
1
  6
Continuous
 62
     7
100
AcDbCircle
 10
1422.444592801548
 20
1394.76865090198
 30
0.0
 40
2.044658198744153
100
AcDbArc
 50
145.6157525321107
 51
-145.6157525320633
  0
ARC
  5
3CA
330
1F
100
AcDbEntity
  8
1
  6
Continuous
 62
     7
100
AcDbCircle
 10
1428.042669012917
 20
1398.232752517117
 30
0.0
 40
7.642734410114034
100
AcDbArc
 50
162.4120462260636
 51
-162.4120462260554
  0
ARC
  5
3CB
330
1F
100
AcDbEntity
  8
1
  6
Continuous
 62
     7
100
AcDbCircle
 10
1422.444592801548
 20
1401.696854132254
 30
0.0
 40
2.044658198745309
100
AcDbArc
 50
145.6157525320633
 51
-145.6157525320844
  0
ARC
  5
3CC
330
1F
100
AcDbEntity
  8
1
  6
Continuous
 62
     7
100
AcDbCircle
 10
1462.910618648194
 20
829.0986446067242
 30
0.0
 40
2.04465819874255
100
AcDbArc
 50
175.6157525320529
 51
-115.6157525320279
  0
ARC
  5
3CD
330
1F
100
AcDbEntity
  8
1
  6
Continuous
 62
     7
100
AcDbCircle
 10
1469.490745667133
 20
828.8976827124101
 30
0.0
 40
7.642734410115378
100
AcDbArc
 50
-167.5879537739347
 51
-132.4120462260686
  0
ARC
  5
3CE
330
1F
100
AcDbEntity
  8
1
  6
Continuous
 62
     7
100
AcDbCircle
 10
1466.374720263331
 20
823.0986446067246
 30
0.0
 40
2.044658198742567
100
AcDbArc
 50
175.6157525320465
 51
-115.6157525320293
  0
ARC
  5
3CF
330
1F
100
AcDbEntity
  8
1
  6
Continuous
 62
     7
100
AcDbCircle
 10
359.9772265422091
 20
873.0986026536157
 30
0.0
 40
2.044658198743068
100
AcDbArc
 50
175.6157525320508
 51
-115.6157525320308
  0
ARC
  5
3D0
330
1F
100
AcDbEntity
  8
1
  6
Continuous
 62
     7
100
AcDbCircle
 10
363.0932519460103
 20
878.8976407593009
 30
0.0
 40
7.642734410114997
100
AcDbArc
 50
-167.5879537739358
 51
-132.4120462260673
  0
ARC
  5
3D1
330
1F
100
AcDbEntity
  8
1
  6
Continuous
 62
     7
100
AcDbCircle
 10
356.5131249270717
 20
879.0986026536152
 30
0.0
 40
2.044658198742593
100
AcDbArc
 50
175.6157525320786
 51
-115.6157525320308
  0
ARC
  5
3D2
330
1F
100
AcDbEntity
  8
1
  6
Continuous
 62
     7
100
AcDbCircle
 10
329.4445587019815
 20
1401.696854132254
 30
0.0
 40
2.044658198745356
100
AcDbArc
 50
145.6157525320643
 51
-145.6157525320853
  0
ARC
  5
3D3
330
1F
100
AcDbEntity
  8
1
  6
Continuous
 62
     7
100
AcDbCircle
 10
335.0426349133508
 20
1398.232752517117
 30
0.0
 40
7.642734410114305
100
AcDbArc
 50
162.4120462260642
 51
-162.4120462260561
  0
ARC
  5
3D4
330
1F
100
AcDbEntity
  8
1
  6
Continuous
 62
     7
100
AcDbCircle
 10
329.4445587019815
 20
1394.768650901979
 30
0.0
 40
2.044658198744714
100
AcDbArc
 50
145.6157525320905
 51
-145.6157525320853
  0
ARC
  5
3D5
330
1F
100
AcDbEntity
  8
1
  6
Continuous
 62
     7
100
AcDbCircle
 10
577.9354614046271
 20
974.605233148905
 30
0.0
 40
2.044658198743875
100
AcDbArc
 50
-4.38424746793149
 51
64.38424746792981
  0
ARC
  5
3D6
330
1F
100
AcDbEntity
  8
1
  6
Continuous
 62
     7
100
AcDbCircle
 10
574.8194360008263
 20
968.8061950432198
 30
0.0
 40
7.642734410116351
100
AcDbArc
 50
12.4120462260707
 51
47.58795377393311
  0
ARC
  5
3D7
330
1F
100
AcDbEntity
  8
1
  6
Continuous
 62
     7
100
AcDbCircle
 10
581.3995630197652
 20
968.6052331489082
 30
0.0
 40
2.044658198743395
100
AcDbArc
 50
-4.38424746800601
 51
64.38424746792985
  0
ARC
  5
3D8
330
1F
100
AcDbEntity
  8
1
  6
Continuous
 62
     7
100
AcDbCircle
 10
1259.659446853315
 20
820.5839687088702
 30
0.0
 40
22.00000000000063
100
AcDbArc
 50
160.0677295277995
 51
19.93227047220151
  0
ARC
  5
3D9
330
1F
100
AcDbEntity
  8
1
  6
Continuous
 62
     7
100
AcDbCircle
 10
1259.659446853315
 20
820.5839687088702
 30
0.0
 40
25.00000000000036
100
AcDbArc
 50
162.5423968762782
 51
17.45760312372262
  0
ARC
  5
3DA
330
1F
100
AcDbEntity
  8
1
  6
Continuous
 62
     7
100
AcDbCircle
 10
2174.871914132381
 20
995.5839687088367
 30
0.0
 40
25.00000000000074
100
AcDbArc
 50
-21.10019602409237
 51
-158.8998039759076
  0
ARC
  5
3DB
330
1F
100
AcDbEntity
  8
1
  6
Continuous
 62
     7
100
AcDbCircle
 10
2174.871914132381
 20
995.5839687088367
 30
0.0
 40
21.99999999999925
100
AcDbArc
 50
-24.14773991702316
 51
-155.8522600829778
  0
ARC
  5
3DC
330
1F
100
AcDbEntity
  8
1
  6
Continuous
 62
     7
100
AcDbCircle
 10
956.8719141323803
 20
995.5839687088367
 30
0.0
 40
21.99999999999914
100
AcDbArc
 50
-24.14773991702328
 51
-155.8522600829766
  0
ARC
  5
3DD
330
1F
100
AcDbEntity
  8
1
  6
Continuous
 62
     7
100
AcDbCircle
 10
956.8719141323803
 20
995.5839687088367
 30
0.0
 40
25.00000000000053
100
AcDbArc
 50
-21.10019602409255
 51
-158.8998039759074
  0
ARC
  5
3DE
330
1F
100
AcDbEntity
  8
1
  6
Continuous
 62
     7
100
AcDbCircle
 10
139.6594468533151
 20
870.5839687088269
 30
0.0
 40
25.00000000000044
100
AcDbArc
 50
162.5423968762783
 51
17.45760312372178
  0
ARC
  5
3DF
330
1F
100
AcDbEntity
  8
1
  6
Continuous
 62
     7
100
AcDbCircle
 10
139.6594468533151
 20
870.5839687088269
 30
0.0
 40
22.00000000000044
100
AcDbArc
 50
160.0677295277993
 51
19.93227047220068
  0
ARC
  5
3E0
330
1F
100
AcDbEntity
  8
1
  6
Continuous
 62
     7
100
AcDbCircle
 10
2174.87191413238
 20
995.5839687088417
 30
0.0
 40
27.5000000000001
100
AcDbArc
 50
-160.8966755225031
 51
-117.035691789411
  0
ARC
  5
3E1
330
1F
100
AcDbEntity
  8
1
  6
Continuous
 62
     7
100
AcDbCircle
 10
956.8719141323794
 20
995.5839687088417
 30
0.0
 40
27.49999999999989
100
AcDbArc
 50
-160.8966755225029
 51
-117.0356917894104
  0
ARC
  5
3E2
330
1F
100
AcDbEntity
  8
1
  6
Continuous
 62
     7
100
AcDbCircle
 10
956.8719141323794
 20
995.5839687088417
 30
0.0
 40
27.49999999999988
100
AcDbArc
 50
-62.96430821058572
 51
-19.10332447749716
  0
ARC
  5
3E3
330
1F
100
AcDbEntity
  8
1
  6
Continuous
 62
     7
100
AcDbCircle
 10
1259.659446853315
 20
820.5839687088702
 30
0.0
 40
27.5000000000001
100
AcDbArc
 50
15.82662013187229
 51
164.1733798681277
  0
ARC
  5
3E4
330
1F
100
AcDbEntity
  8
1
  6
Continuous
 62
     7
100
AcDbCircle
 10
139.6594468533151
 20
870.5839687088269
 30
0.0
 40
27.50000000000056
100
AcDbArc
 50
15.82662013187201
 51
164.173379868128
  0
ARC
  5
3E5
330
1F
100
AcDbEntity
  8
1
  6
Continuous
 62
     7
100
AcDbCircle
 10
2174.87191413238
 20
995.5839687088417
 30
0.0
 40
27.49999999999932
100
AcDbArc
 50
-62.96430821058486
 51
-19.10332447749755
  0
ARC
  5
3E6
330
1F
100
AcDbEntity
  8
1
  6
Continuous
 62
     7
100
AcDbCircle
 10
1548.105506161961
 20
806.3259549918801
 30
0.0
 40
4.344898672319083
100
AcDbArc
 50
-94.38424746804552
 51
-25.61575253197098
  0
ARC
  5
3E7
330
1F
100
AcDbEntity
  8
1
  6
Continuous
 62
     7
100
AcDbCircle
 10
1548.532550187396
 20
820.3087249070885
 30
0.0
 40
16.24081062144455
100
AcDbArc
 50
-77.58795377399055
 51
-42.41204622599886
  0
ARC
  5
3E8
330
1F
100
AcDbEntity
  8
1
  6
Continuous
 62
     7
100
AcDbCircle
 10
1560.85550616196
 20
813.6871709240492
 30
0.0
 40
4.344898672321533
100
AcDbArc
 50
-94.38424746801599
 51
-25.61575253195419
  0
ARC
  5
3E9
330
1F
100
AcDbEntity
  8
1
  6
Continuous
 62
     7
100
AcDbCircle
 10
454.4580124408384
 20
863.6871289709403
 30
0.0
 40
4.344898672321695
100
AcDbArc
 50
-94.38424746802409
 51
-25.61575253195548
  0
ARC
  5
3EA
330
1F
100
AcDbEntity
  8
1
  6
Continuous
 62
     7
100
AcDbCircle
 10
442.1350564662743
 20
870.3086829539798
 30
0.0
 40
16.24081062144464
100
AcDbArc
 50
-77.58795377399103
 51
-42.41204622600053
  0
ARC
  5
3EB
330
1F
100
AcDbEntity
  8
1
  6
Continuous
 62
     7
100
AcDbCircle
 10
441.7080124408394
 20
856.3259130387712
 30
0.0
 40
4.344898672319205
100
AcDbArc
 50
-94.38424746804689
 51
-25.61575253197196
  0
ARC
  5
3EC
330
1F
100
AcDbEntity
  8
1
  6
Continuous
 62
     7
100
AcDbCircle
 10
922.8771278530352
 20
949.5725636855771
 30
0.0
 40
5.367227771689221
100
AcDbArc
 50
-124.3842474680286
 51
-55.61575253196039
  0
ARC
  5
3ED
330
1F
100
AcDbEntity
  8
1
  6
Continuous
 62
     7
100
AcDbCircle
 10
915.3838611132962
 20
959.2199928789706
 30
0.0
 40
14.76713610367573
100
AcDbArc
 50
-107.5879537739837
 51
-72.41204622599402
  0
ARC
  5
3EE
330
1F
100
AcDbEntity
  8
1
  6
Continuous
 62
     7
100
AcDbCircle
 10
907.8905943735634
 20
949.572563685576
 30
0.0
 40
5.367227771689082
100
AcDbArc
 50
-124.3842474680458
 51
-55.61575253196624
  0
ARC
  5
3EF
330
1F
100
AcDbEntity
  8
1
  6
Continuous
 62
     7
100
AcDbCircle
 10
956.9019141323803
 20
996.2839687088383
 30
0.0
 40
34.32999999999981
100
AcDbArc
 50
0.0
 51
180.0
  0
ARC
  5
3F0
330
1F
100
AcDbEntity
  8
1
  6
Continuous
 62
     7
100
AcDbCircle
 10
956.9019141323803
 20
996.2839687088383
 30
0.0
 40
24.32999999999981
100
AcDbArc
 50
0.0
 51
180.0
  0
ARC
  5
3F1
330
1F
100
AcDbEntity
  8
1
  6
Continuous
 62
     7
100
AcDbCircle
 10
990.8886473926441
 20
949.572563685576
 30
0.0
 40
5.367227771689596
100
AcDbArc
 50
-124.3842474680538
 51
-55.61575253196424
  0
ARC
  5
3F2
330
1F
100
AcDbEntity
  8
1
  6
Continuous
 62
     7
100
AcDbCircle
 10
998.3819141323789
 20
959.2199928789706
 30
0.0
 40
14.76713610367628
100
AcDbArc
 50
-107.5879537739904
 51
-72.41204622600537
  0
ARC
  5
3F3
330
1F
100
AcDbEntity
  8
1
  6
Continuous
 62
     7
100
AcDbCircle
 10
1005.875180872116
 20
949.5725636855771
 30
0.0
 40
5.367227771689863
100
AcDbArc
 50
-124.3842474680386
 51
-55.61575253196039
  0
ARC
  5
3F4
330
1F
100
AcDbEntity
  8
1
  6
Continuous
 62
     7
100
AcDbCircle
 10
2223.875180872116
 20
949.5725636855771
 30
0.0
 40
5.367227771689157
100
AcDbArc
 50
-124.3842474680276
 51
-55.61575253196039
  0
ARC
  5
3F5
330
1F
100
AcDbEntity
  8
1
  6
Continuous
 62
     7
100
AcDbCircle
 10
2216.381914132379
 20
959.2199928789706
 30
0.0
 40
14.76713610367632
100
AcDbArc
 50
-107.5879537739909
 51
-72.41204622600074
  0
ARC
  5
3F6
330
1F
100
AcDbEntity
  8
1
  6
Continuous
 62
     7
100
AcDbCircle
 10
2208.888647392644
 20
949.572563685576
 30
0.0
 40
5.367227771689082
100
AcDbArc
 50
-124.3842474680458
 51
-55.61575253196624
  0
ARC
  5
3F7
330
1F
100
AcDbEntity
  8
1
  6
Continuous
 62
     7
100
AcDbCircle
 10
2174.901914132381
 20
996.2839687088383
 30
0.0
 40
24.32999999999993
100
AcDbArc
 50
0.0
 51
180.0
  0
ARC
  5
3F8
330
1F
100
AcDbEntity
  8
1
  6
Continuous
 62
     7
100
AcDbCircle
 10
2174.901914132381
 20
996.2839687088383
 30
0.0
 40
34.32999999999902
100
AcDbArc
 50
0.0
 51
180.0
  0
ARC
  5
3F9
330
1F
100
AcDbEntity
  8
1
  6
Continuous
 62
     7
100
AcDbCircle
 10
2125.890594373564
 20
949.572563685576
 30
0.0
 40
5.367227771689082
100
AcDbArc
 50
-124.3842474680458
 51
-55.61575253197425
  0
ARC
  5
3FA
330
1F
100
AcDbEntity
  8
1
  6
Continuous
 62
     7
100
AcDbCircle
 10
2133.383861113297
 20
959.2199928789706
 30
0.0
 40
14.76713610367604
100
AcDbArc
 50
-107.5879537739875
 51
-72.41204622599402
  0
ARC
  5
3FB
330
1F
100
AcDbEntity
  8
1
  6
Continuous
 62
     7
100
AcDbCircle
 10
2140.877127853035
 20
949.5725636855771
 30
0.0
 40
5.367227771688643
100
AcDbArc
 50
-124.3842474680196
 51
-55.61575253195238
  0
ARC
  5
3FC
330
1F
100
AcDbEntity
  8
1
  6
Continuous
 62
     7
100
AcDbCircle
 10
2208.888647392644
 20
941.4028320165427
 30
0.0
 40
5.367227771689082
100
AcDbArc
 50
-124.3842474680458
 51
-55.61575253196624
  0
ARC
  5
3FD
330
1F
100
AcDbEntity
  8
1
  6
Continuous
 62
     7
100
AcDbCircle
 10
2140.877127853035
 20
941.3963932202955
 30
0.0
 40
5.367227771688643
100
AcDbArc
 50
-124.3842474680196
 51
-55.61575253195238
  0
ARC
  5
3FE
330
1F
100
AcDbEntity
  8
1
  6
Continuous
 62
     7
100
AcDbCircle
 10
2133.383861113297
 20
951.0438224136891
 30
0.0
 40
14.76713610367731
100
AcDbArc
 50
-88.1060328010107
 51
-72.41204622599402
  0
ARC
  5
3FF
330
1F
100
AcDbEntity
  8
1
  6
Continuous
 62
     7
100
AcDbCircle
 10
2216.381914132379
 20
951.0502612099373
 30
0.0
 40
14.76713610367632
100
AcDbArc
 50
-107.5879537739909
 51
-91.97916910264976
  0
ARC
  5
400
330
1F
100
AcDbEntity
  8
1
  6
Continuous
 62
     7
100
AcDbCircle
 10
1564.85550616196
 20
806.7589676937737
 30
0.0
 40
4.344898672321533
100
AcDbArc
 50
-94.38424746801599
 51
-25.61575253195419
  0
ARC
  5
401
330
1F
100
AcDbEntity
  8
1
  6
Continuous
 62
     7
100
AcDbCircle
 10
1564.85550616196
 20
806.7589676937737
 30
0.0
 40
4.344898672321533
100
AcDbArc
 50
-94.38424746801599
 51
-25.61575253195419
  0
ARC
  5
402
330
1F
100
AcDbEntity
  8
1
  6
Continuous
 62
     7
100
AcDbCircle
 10
1552.532550187396
 20
813.380521676813
 30
0.0
 40
16.24081062144455
100
AcDbArc
 50
-77.58795377399055
 51
-42.41204622599886
  0
ARC
  5
403
330
1F
100
AcDbEntity
  8
1
  6
Continuous
 62
     7
100
AcDbCircle
 10
1552.105506161961
 20
799.3977517616046
 30
0.0
 40
4.344898672319083
100
AcDbArc
 50
-94.38424746804552
 51
-25.61575253197098
  0
ARC
  5
404
330
1F
100
AcDbEntity
  8
1
  6
Continuous
 62
     7
100
AcDbCircle
 10
458.4580124408384
 20
856.7589257406647
 30
0.0
 40
4.344898672321695
100
AcDbArc
 50
-94.38424746802409
 51
-25.61575253195548
  0
ARC
  5
405
330
1F
100
AcDbEntity
  8
1
  6
Continuous
 62
     7
100
AcDbCircle
 10
446.1350564662743
 20
863.3804797237042
 30
0.0
 40
16.24081062144464
100
AcDbArc
 50
-77.58795377399103
 51
-42.41204622600053
  0
ARC
  5
406
330
1F
100
AcDbEntity
  8
1
  6
Continuous
 62
     7
100
AcDbCircle
 10
458.4580124408384
 20
856.7589257406647
 30
0.0
 40
4.344898672321695
100
AcDbArc
 50
-94.38424746802409
 51
-25.61575253195548
  0
ARC
  5
407
330
1F
100
AcDbEntity
  8
1
  6
Continuous
 62
     7
100
AcDbCircle
 10
445.7080124408394
 20
849.3977098084956
 30
0.0
 40
4.344898672319205
100
AcDbArc
 50
-94.38424746804689
 51
-25.61575253197196
  0
ARC
  5
408
330
1F
100
AcDbEntity
  8
1
  6
Continuous
 62
     7
100
AcDbCircle
 10
446.1350564662743
 20
863.3804797237042
 30
0.0
 40
16.24081062144464
100
AcDbArc
 50
-77.58795377399103
 51
-42.41204622600053
  0
ARC
  5
409
330
1F
100
AcDbEntity
  8
1
  6
Continuous
 62
     7
100
AcDbCircle
 10
990.8886473926441
 20
941.4512231804808
 30
0.0
 40
5.367227771689596
100
AcDbArc
 50
-124.3842474680538
 51
-55.61575253196424
  0
ARC
  5
40A
330
1F
100
AcDbEntity
  8
1
  6
Continuous
 62
     7
100
AcDbCircle
 10
915.3838611132962
 20
951.0986523738754
 30
0.0
 40
14.76713610367747
100
AcDbArc
 50
-88.10603280100543
 51
-72.41204622599402
  0
ARC
  5
40B
330
1F
100
AcDbEntity
  8
1
  6
Continuous
 62
     7
100
AcDbCircle
 10
922.8771278530352
 20
941.4512231804819
 30
0.0
 40
5.367227771689221
100
AcDbArc
 50
-124.3842474680286
 51
-55.61575253196039
  0
ARC
  5
40C
330
1F
100
AcDbEntity
  8
1
  6
Continuous
 62
     7
100
AcDbCircle
 10
998.3819141323789
 20
951.0986523738754
 30
0.0
 40
14.76713610367628
100
AcDbArc
 50
-107.5879537739904
 51
-91.97916910264893
  0
ARC
  5
40D
330
1F
100
AcDbEntity
  8
1
  6
PHANTOM
 62
   140
100
AcDbCircle
 10
429.0440785544261
 20
818.3366314056542
 30
0.0
 40
13.60000000000075
100
AcDbArc
 50
118.0724869358609
 51
11.47686798847829
  0
ARC
  5
40E
330
1F
100
AcDbEntity
  8
1
  6
PHANTOM
 62
   140
100
AcDbCircle
 10
429.0440785544261
 20
818.3366314056542
 30
0.0
 40
13.59999999999843
100
AcDbArc
 50
97.8406888526208
 51
118.0724869358609
  0
ARC
  5
40F
330
1F
100
AcDbEntity
  8
1
  6
PHANTOM
 62
   140
100
AcDbCircle
 10
429.0440785544261
 20
818.3366314056542
 30
0.0
 40
13.60000000000171
100
AcDbArc
 50
11.47686798847829
 51
97.8406888526208
  0
ARC
  5
410
330
1F
100
AcDbEntity
  8
1
  6
PHANTOM
 62
   140
100
AcDbCircle
 10
1535.441423961184
 20
768.3364770360555
 30
0.0
 40
13.60000000000182
100
AcDbArc
 50
11.47686798847819
 51
97.84068885262104
  0
ARC
  5
411
330
1F
100
AcDbEntity
  8
1
  6
PHANTOM
 62
   140
100
AcDbCircle
 10
1535.441423961184
 20
768.3364770360555
 30
0.0
 40
13.59999999999844
100
AcDbArc
 50
97.84068885262104
 51
118.0724869358605
  0
ARC
  5
412
330
1F
100
AcDbEntity
  8
1
  6
PHANTOM
 62
   140
100
AcDbCircle
 10
1535.441423961184
 20
768.3364770360555
 30
0.0
 40
13.6000000000007
100
AcDbArc
 50
118.0724869358605
 51
11.47686798847819
  0
ARC
  5
413
330
1F
100
AcDbEntity
  8
1
  6
PHANTOM
 62
   140
100
AcDbCircle
 10
1801.9499346028
 20
984.8830068145167
 30
0.0
 40
13.5999999999984
100
AcDbArc
 50
82.15931114737992
 51
168.523132011522
  0
ARC
  5
414
330
1F
100
AcDbEntity
  8
1
  6
PHANTOM
 62
   140
100
AcDbCircle
 10
1801.9499346028
 20
984.8830068145167
 30
0.0
 40
13.6000000000009
100
AcDbArc
 50
61.92751306413994
 51
82.15931114737992
  0
ARC
  5
415
330
1F
100
AcDbEntity
  8
1
  6
PHANTOM
 62
   140
100
AcDbCircle
 10
1801.9499346028
 20
984.8830068145167
 30
0.0
 40
13.60000000000204
100
AcDbArc
 50
168.523132011522
 51
61.92751306413994
  0
ARC
  5
416
330
1F
100
AcDbEntity
  8
1
  6
PHANTOM
 62
   140
100
AcDbCircle
 10
608.9499005032343
 20
984.8830068145167
 30
0.0
 40
13.60000000000182
100
AcDbArc
 50
168.5231320115218
 51
61.92751306413994
  0
ARC
  5
417
330
1F
100
AcDbEntity
  8
1
  6
PHANTOM
 62
   140
100
AcDbCircle
 10
608.9499005032343
 20
984.8830068145167
 30
0.0
 40
13.6000000000009
100
AcDbArc
 50
61.92751306413994
 51
82.15931114737992
  0
ARC
  5
418
330
1F
100
AcDbEntity
  8
1
  6
PHANTOM
 62
   140
100
AcDbCircle
 10
608.9499005032343
 20
984.8830068145167
 30
0.0
 40
13.5999999999984
100
AcDbArc
 50
82.15931114737992
 51
168.5231320115218
  0
ARC
  5
419
330
1F
100
AcDbEntity
  8
1
  6
Continuous
 62
     7
100
AcDbCircle
 10
539.2000245646328
 20
1450.732752517116
 30
0.0
 40
5.5
100
AcDbArc
 50
0.0
 51
180.0
  0
ARC
  5
41A
330
1F
100
AcDbEntity
  8
1
  6
Continuous
 62
     7
100
AcDbCircle
 10
399.1998997587762
 20
1450.732752517116
 30
0.0
 40
5.5
100
AcDbArc
 50
0.0
 51
180.0
  0
ARC
  5
41B
330
1F
100
AcDbEntity
  8
1
  6
Continuous
 62
     7
100
AcDbCircle
 10
399.1998997587762
 20
1345.732752517118
 30
0.0
 40
5.5
100
AcDbArc
 50
180.0
 51
0.0
  0
ARC
  5
41C
330
1F
100
AcDbEntity
  8
1
  6
Continuous
 62
     7
100
AcDbCircle
 10
539.2000245646328
 20
1345.732752517118
 30
0.0
 40
5.5
100
AcDbArc
 50
180.0
 51
0.0
  0
ARC
  5
41D
330
1F
100
AcDbEntity
  8
1
  6
Continuous
 62
     7
100
AcDbCircle
 10
1732.199537219284
 20
1345.732752517118
 30
0.0
 40
5.5
100
AcDbArc
 50
180.0
 51
0.0
  0
ARC
  5
41E
330
1F
100
AcDbEntity
  8
1
  6
Continuous
 62
     7
100
AcDbCircle
 10
1492.199933858342
 20
1345.732752517118
 30
0.0
 40
5.500000000001137
100
AcDbArc
 50
180.0
 51
0.0
  0
ARC
  5
41F
330
1F
100
AcDbEntity
  8
1
  6
Continuous
 62
     7
100
AcDbCircle
 10
1492.199933858342
 20
1450.732752517116
 30
0.0
 40
5.5
100
AcDbArc
 50
0.0
 51
180.0
  0
ARC
  5
420
330
1F
100
AcDbEntity
  8
1
  6
Continuous
 62
     7
100
AcDbCircle
 10
1732.199537219284
 20
1450.732752517116
 30
0.0
 40
5.5
100
AcDbArc
 50
0.0
 51
180.0
  0
CIRCLE
  5
421
330
1F
100
AcDbEntity
  8
1
  6
Continuous
 62
     3
100
AcDbCircle
 10
1492.199933858342
 20
1356.732752517117
 30
0.0
 40
5.0
  0
CIRCLE
  5
422
330
1F
100
AcDbEntity
  8
1
  6
Continuous
 62
     7
100
AcDbCircle
 10
1492.199933858342
 20
1356.732752517117
 30
0.0
 40
4.0
  0
CIRCLE
  5
423
330
1F
100
AcDbEntity
  8
1
  6
Continuous
 62
     7
100
AcDbCircle
 10
1492.199933858342
 20
1439.732752517116
 30
0.0
 40
4.0
  0
CIRCLE
  5
424
330
1F
100
AcDbEntity
  8
1
  6
Continuous
 62
     3
100
AcDbCircle
 10
1492.199933858342
 20
1439.732752517116
 30
0.0
 40
5.0
  0
CIRCLE
  5
425
330
1F
100
AcDbEntity
  8
1
  6
Continuous
 62
     3
100
AcDbCircle
 10
399.199899758776
 20
1439.732752517116
 30
0.0
 40
5.0
  0
CIRCLE
  5
426
330
1F
100
AcDbEntity
  8
1
  6
Continuous
 62
     7
100
AcDbCircle
 10
399.199899758776
 20
1439.732752517116
 30
0.0
 40
4.0
  0
CIRCLE
  5
427
330
1F
100
AcDbEntity
  8
1
  6
Continuous
 62
     7
100
AcDbCircle
 10
399.199899758776
 20
1356.732752517116
 30
0.0
 40
4.000000000000398
  0
CIRCLE
  5
428
330
1F
100
AcDbEntity
  8
1
  6
Continuous
 62
     3
100
AcDbCircle
 10
399.199899758776
 20
1356.732752517116
 30
0.0
 40
5.0
  0
CIRCLE
  5
429
330
1F
100
AcDbEntity
  8
1
  6
Continuous
 62
     3
100
AcDbCircle
 10
539.2000245646327
 20
1356.732752517116
 30
0.0
 40
5.0
  0
CIRCLE
  5
42A
330
1F
100
AcDbEntity
  8
1
  6
Continuous
 62
     7
100
AcDbCircle
 10
539.2000245646327
 20
1356.732752517116
 30
0.0
 40
3.999999999999773
  0
CIRCLE
  5
42B
330
1F
100
AcDbEntity
  8
1
  6
Continuous
 62
     7
100
AcDbCircle
 10
539.2000245646329
 20
1439.732752517116
 30
0.0
 40
4.000000000000227
  0
CIRCLE
  5
42C
330
1F
100
AcDbEntity
  8
1
  6
Continuous
 62
     3
100
AcDbCircle
 10
539.2000245646329
 20
1439.732752517116
 30
0.0
 40
5.0
  0
CIRCLE
  5
42D
330
1F
100
AcDbEntity
  8
1
  6
Continuous
 62
     3
100
AcDbCircle
 10
1732.2000586642
 20
1439.732752517116
 30
0.0
 40
5.0
  0
CIRCLE
  5
42E
330
1F
100
AcDbEntity
  8
1
  6
Continuous
 62
     7
100
AcDbCircle
 10
1732.2000586642
 20
1439.732752517116
 30
0.0
 40
4.0
  0
CIRCLE
  5
42F
330
1F
100
AcDbEntity
  8
1
  6
Continuous
 62
     3
100
AcDbCircle
 10
1732.200058664202
 20
1356.732752517117
 30
0.0
 40
5.0
  0
CIRCLE
  5
430
330
1F
100
AcDbEntity
  8
1
  6
Continuous
 62
     7
100
AcDbCircle
 10
1732.200058664202
 20
1356.732752517117
 30
0.0
 40
4.0
  0
SPLINE
  5
431
330
1F
100
AcDbEntity
  8
1
  6
DASHED
 62
     4
100
AcDbSpline
210
0.0
220
0.0
230
1.0
 70
     8
 71
     3
 72
     9
 73
     5
 74
     3
 42
0.0000000001
 43
0.0000000001
 44
0.00000001
 40
0.0
 40
0.0
 40
0.0
 40
0.0
 40
151.1365276827528
 40
302.2730553655062
 40
302.2730553655062
 40
302.2730553655062
 40
302.2730553655062
 10
1739.648664413578
 20
969.2849725562649
 30
0.0
 10
1700.972394224357
 20
936.2742375712589
 30
0.0
 10
1623.619853845914
 20
870.2527676012471
 30
0.0
 10
1527.767313467472
 20
836.2742375712571
 30
0.0
 10
1479.841043278251
 20
819.2849725562618
 30
0.0
 11
1739.648664413578
 21
969.2849725562649
 31
0.0
 11
1618.994853845914
 21
878.2635025862527
 31
0.0
 11
1479.841043278251
 21
819.2849725562618
 31
0.0
  0
SPLINE
  5
432
330
1F
100
AcDbEntity
  8
1
  6
DASHED
 62
     4
100
AcDbSpline
210
0.0
220
0.0
230
1.0
 70
     8
 71
     3
 72
     9
 73
     5
 74
     3
 42
0.0000000001
 43
0.0000000001
 44
0.00000001
 40
0.0
 40
0.0
 40
0.0
 40
0.0
 40
64.39045486979386
 40
152.1497220633725
 40
152.1497220633725
 40
152.1497220633725
 40
152.1497220633725
 10
1738.148664413578
 20
971.8830487676185
 30
0.0
 10
1723.276949541059
 20
956.2808764116821
 30
0.0
 10
1688.13622427308
 20
919.4141359554949
 30
0.0
 10
1644.286928228958
 20
893.3165001426236
 30
0.0
 10
1618.994853845913
 20
878.2635025862525
 30
0.0
 11
1738.148664413578
 21
971.8830487676185
 31
0.0
 11
1691.973796548927
 21
927.0053008738017
 31
0.0
 11
1618.994853845913
 21
878.2635025862525
 31
0.0
  0
SPLINE
  5
433
330
1F
100
AcDbEntity
  8
1
  6
DASHED
 62
     4
100
AcDbSpline
210
0.0
220
0.0
230
1.0
 70
     8
 71
     3
 72
     9
 73
     5
 74
     3
 42
0.0000000001
 43
0.0000000001
 44
0.00000001
 40
0.0
 40
0.0
 40
0.0
 40
0.0
 40
151.136527682752
 40
302.2730553655055
 40
302.2730553655055
 40
302.2730553655055
 40
302.2730553655055
 10
1478.341043278252
 20
821.8830487676158
 30
0.0
 10
1517.017313467472
 20
854.8937837526221
 30
0.0
 10
1594.369853845914
 20
920.9152537226355
 30
0.0
 10
1690.222394224356
 20
954.8937837526241
 30
0.0
 10
1738.148664413578
 20
971.8830487676185
 30
0.0
 11
1478.341043278252
 21
821.8830487676158
 31
0.0
 11
1598.994853845914
 21
912.9045187376291
 31
0.0
 11
1738.148664413578
 21
971.8830487676185
 31
0.0
  0
SPLINE
  5
434
330
1F
100
AcDbEntity
  8
1
  6
DASHED
 62
     4
100
AcDbSpline
210
0.0
220
0.0
230
1.0
 70
     8
 71
     3
 72
     9
 73
     5
 74
     3
 42
0.0000000001
 43
0.0000000001
 44
0.00000001
 40
0.0
 40
0.0
 40
0.0
 40
0.0
 40
64.39045486979401
 40
152.1497220633709
 40
152.1497220633709
 40
152.1497220633709
 40
152.1497220633709
 10
1479.841043278251
 20
819.2849725562618
 30
0.0
 10
1494.71275815077
 20
834.8871449121984
 30
0.0
 10
1529.853483418747
 20
871.7538853683858
 30
0.0
 10
1573.702779462868
 20
897.8515211812576
 30
0.0
 10
1598.994853845913
 20
912.904518737629
 30
0.0
 11
1479.841043278251
 21
819.2849725562618
 31
0.0
 11
1526.015911142901
 21
864.1627204500794
 31
0.0
 11
1598.994853845913
 21
912.904518737629
 31
0.0
  0
SPLINE
  5
435
330
1F
100
AcDbEntity
  8
1
  6
DASHED
 62
     4
100
AcDbSpline
210
0.0
220
0.0
230
1.0
 70
     8
 71
     3
 72
     9
 73
     5
 74
     3
 42
0.0000000001
 43
0.0000000001
 44
0.00000001
 40
0.0
 40
0.0
 40
0.0
 40
0.0
 40
52.36118423972908
 40
102.759598583935
 40
102.759598583935
 40
102.759598583935
 40
102.759598583935
 10
373.4435495571287
 20
869.2849306031529
 30
0.0
 10
384.6551167845313
 20
882.7950597791213
 30
0.0
 10
406.6579833069917
 20
909.3088881253923
 30
0.0
 10
435.2655281410142
 20
928.4947678303089
 30
0.0
 10
449.2960899355687
 20
937.9044767845209
 30
0.0
 11
373.4435495571287
 21
869.2849306031529
 31
0.0
 11
408.7930998744735
 21
907.9126784969709
 31
0.0
 11
449.2960899355687
 21
937.9044767845209
 31
0.0
  0
SPLINE
  5
436
330
1F
100
AcDbEntity
  8
1
  6
DASHED
 62
     4
100
AcDbSpline
210
0.0
220
0.0
230
1.0
 70
     8
 71
     3
 72
     9
 73
     5
 74
     3
 42
0.0000000001
 43
0.0000000001
 44
0.00000001
 40
0.0
 40
0.0
 40
0.0
 40
0.0
 40
101.6968534419806
 40
203.3937068839616
 40
203.3937068839616
 40
203.3937068839616
 40
203.3937068839616
 10
371.9435495571293
 20
871.8830068145066
 30
0.0
 10
396.1860630166094
 20
896.5604084661798
 30
0.0
 10
444.6710899355697
 20
945.9152117695264
 30
0.0
 10
511.656116854531
 20
963.2270751328489
 30
0.0
 10
545.1486303140117
 20
971.8830068145103
 30
0.0
 11
371.9435495571293
 21
871.8830068145066
 31
0.0
 11
449.2960899355699
 21
937.9044767845203
 31
0.0
 11
545.1486303140117
 21
971.8830068145103
 31
0.0
  0
SPLINE
  5
437
330
1F
100
AcDbEntity
  8
1
  6
DASHED
 62
     4
100
AcDbSpline
210
0.0
220
0.0
230
1.0
 70
     8
 71
     3
 72
     9
 73
     5
 74
     3
 42
0.0000000001
 43
0.0000000001
 44
0.00000001
 40
0.0
 40
0.0
 40
0.0
 40
0.0
 40
52.36118423972927
 40
102.7595985839366
 40
102.7595985839366
 40
102.7595985839366
 40
102.7595985839366
 10
545.1486303140117
 20
971.8830068145103
 30
0.0
 10
533.9370630866087
 20
958.372877638542
 30
0.0
 10
511.9341965641474
 20
931.8590492922713
 30
0.0
 10
483.326651730124
 20
912.6731695873552
 30
0.0
 10
469.2960899355687
 20
903.2634606331433
 30
0.0
 11
545.1486303140117
 21
971.8830068145103
 31
0.0
 11
509.7990799966659
 21
933.255258920693
 31
0.0
 11
469.2960899355687
 21
903.2634606331433
 31
0.0
  0
SPLINE
  5
438
330
1F
100
AcDbEntity
  8
1
  6
DASHED
 62
     4
100
AcDbSpline
210
0.0
220
0.0
230
1.0
 70
     8
 71
     3
 72
     9
 73
     5
 74
     3
 42
0.0000000001
 43
0.0000000001
 44
0.00000001
 40
0.0
 40
0.0
 40
0.0
 40
0.0
 40
101.69685344198
 40
203.3937068839608
 40
203.3937068839608
 40
203.3937068839608
 40
203.3937068839608
 10
546.6486303140111
 20
969.2849306031557
 30
0.0
 10
522.4061168545308
 20
944.6075289514834
 30
0.0
 10
473.9210899355697
 20
895.2527256481383
 30
0.0
 10
406.9360630166091
 20
877.9408622848147
 30
0.0
 10
373.4435495571286
 20
869.2849306031529
 30
0.0
 11
546.6486303140111
 21
969.2849306031557
 31
0.0
 11
469.29608993557
 21
903.2634606331437
 31
0.0
 11
373.4435495571286
 21
869.2849306031529
 31
0.0
  0
ARC
  5
439
330
1F
100
AcDbEntity
  8
1
  6
DASHED
 62
     4
100
AcDbCircle
 10
1757.390714847435
 20
912.5557731728545
 30
0.0
 40
2.0000000000003
100
AcDbArc
 50
119.999999999965
 51
-150.0000000000553
  0
ARC
  5
43A
330
1F
100
AcDbEntity
  8
1
  6
Continuous
 62
     7
100
AcDbCircle
 10
1952.203490759
 20
984.6660457153353
 30
0.0
 40
2.00000000000091
100
AcDbArc
 50
-0.00000000004885
 51
89.99999999994138
  0
ARC
  5
43B
330
1F
100
AcDbEntity
  8
1
  6
DASHED
 62
     4
100
AcDbCircle
 10
1790.390714847392
 20
855.398096523039
 30
0.0
 40
1.999999999998384
100
AcDbArc
 50
-150.000000000026
 51
-60.00000000003669
  0
ARC
  5
43C
330
1F
100
AcDbEntity
  8
1
  6
DASHED
 62
     4
100
AcDbCircle
 10
597.3907760831758
 20
855.3980119158277
 30
0.0
 40
1.999999999998581
100
AcDbArc
 50
-150.0000000000292
 51
-60.00000000003669
  0
ARC
  5
43D
330
1F
100
AcDbEntity
  8
1
  6
Continuous
 62
     7
100
AcDbCircle
 10
759.2035519947838
 20
984.6659611081241
 30
0.0
 40
2.00000000000091
100
AcDbArc
 50
-0.00000000005211
 51
89.99999999992184
  0
ARC
  5
43E
330
1F
100
AcDbEntity
  8
1
  6
DASHED
 62
     4
100
AcDbCircle
 10
564.3907760832196
 20
912.5556885656432
 30
0.0
 40
2.0000000000003
100
AcDbArc
 50
119.999999999965
 51
-150.000000000059
  0
ARC
  5
43F
330
1F
100
AcDbEntity
  8
1
  6
Continuous
 62
     7
100
AcDbCircle
 10
1944.203490758965
 20
953.4395484072159
 30
0.0
 40
9.999999999999227
100
AcDbArc
 50
-60.00000000005762
 51
-0.00000000007426
  0
ARC
  5
440
330
1F
100
AcDbEntity
  8
1
  6
Continuous
 62
     7
100
AcDbCircle
 10
751.2035519947475
 20
953.4394638000042
 30
0.0
 40
9.999999999999966
100
AcDbArc
 50
-60.00000000005029
 51
-0.00000000007426
  0
ARC
  5
441
330
1F
100
AcDbEntity
  8
1
  6
Continuous
 62
     7
100
AcDbCircle
 10
689.2894318748322
 20
984.6659611081855
 30
0.0
 40
2.0
100
AcDbArc
 50
89.99999999995114
 51
119.9999999999464
  0
ARC
  5
442
330
1F
100
AcDbEntity
  8
1
  6
Continuous
 62
     7
100
AcDbCircle
 10
1882.289370639049
 20
984.6660457153969
 30
0.0
 40
2.0
100
AcDbArc
 50
89.99999999996743
 51
119.9999999999593
  0
ARC
  5
443
330
1F
100
AcDbEntity
  8
1
  6
PHANTOM
 62
   140
100
AcDbCircle
 10
429.5440785544261
 20
816.8366314056542
 30
0.0
 40
13.5
100
AcDbArc
 50
0.00000000000145
 51
90.00000000000435
  0
ARC
  5
444
330
1F
100
AcDbEntity
  8
1
  6
PHANTOM
 62
   140
100
AcDbCircle
 10
429.5440785544261
 20
809.8366314056542
 30
0.0
 40
13.5
100
AcDbArc
 50
-89.99999999999108
 51
0.0000000000029
  0
ARC
  5
445
330
1F
100
AcDbEntity
  8
1
  6
PHANTOM
 62
   140
100
AcDbCircle
 10
1535.941423961184
 20
759.8364770360555
 30
0.0
 40
13.5
100
AcDbArc
 50
-89.99999999998745
 51
0.0000000000029
  0
ARC
  5
446
330
1F
100
AcDbEntity
  8
1
  6
PHANTOM
 62
   140
100
AcDbCircle
 10
1535.941423961184
 20
766.8364770360555
 30
0.0
 40
13.5
100
AcDbArc
 50
0.00000000000145
 51
90.00000000000387
  0
ARC
  5
447
330
1F
100
AcDbEntity
  8
1
  6
PHANTOM
 62
   140
100
AcDbCircle
 10
1801.4499346028
 20
976.3830068145167
 30
0.0
 40
13.50000000000114
100
AcDbArc
 50
179.9999999999962
 51
-90.00000000000483
  0
ARC
  5
448
330
1F
100
AcDbEntity
  8
1
  6
PHANTOM
 62
   140
100
AcDbCircle
 10
1801.4499346028
 20
983.3830068145167
 30
0.0
 40
13.5
100
AcDbArc
 50
89.99999999999615
 51
179.9999999999981
  0
ARC
  5
449
330
1F
100
AcDbEntity
  8
1
  6
PHANTOM
 62
   140
100
AcDbCircle
 10
608.4499005032343
 20
983.3830068145167
 30
0.0
 40
13.5
100
AcDbArc
 50
89.99999999999615
 51
179.9999999999981
  0
ARC
  5
44A
330
1F
100
AcDbEntity
  8
1
  6
PHANTOM
 62
   140
100
AcDbCircle
 10
608.4499005032343
 20
976.3830068145167
 30
0.0
 40
13.50000000000125
100
AcDbArc
 50
179.9999999999962
 51
-90.0000000000053
  0
ARC
  5
44B
330
1F
100
AcDbEntity
  8
1
  6
Continuous
 62
     7
100
AcDbCircle
 10
886.6719141323814
 20
953.2839627214676
 30
0.0
 40
1.600000000001046
100
AcDbArc
 50
90.0
 51
180.0
  0
ARC
  5
44C
330
1F
100
AcDbEntity
  8
1
  6
Continuous
 62
     7
100
AcDbCircle
 10
1027.071914132381
 20
953.2839627214676
 30
0.0
 40
1.59999999999809
100
AcDbArc
 50
0.0
 51
90.0
  0
ARC
  5
44D
330
1F
100
AcDbEntity
  8
1
  6
Continuous
 62
     7
100
AcDbCircle
 10
885.0719141323806
 20
954.8839627214686
 30
0.0
 40
3.199999999998909
100
AcDbArc
 50
90.0
 51
180.0
  0
ARC
  5
44E
330
1F
100
AcDbEntity
  8
1
  6
Continuous
 62
     7
100
AcDbCircle
 10
1028.671914132379
 20
954.8839627214686
 30
0.0
 40
3.200000000000955
100
AcDbArc
 50
0.0
 51
90.0
  0
ARC
  5
44F
330
1F
100
AcDbEntity
  8
1
  6
Continuous
 62
     7
100
AcDbCircle
 10
2246.671914132379
 20
954.8839627214686
 30
0.0
 40
3.200000000002092
100
AcDbArc
 50
0.0
 51
90.0
  0
ARC
  5
450
330
1F
100
AcDbEntity
  8
1
  6
Continuous
 62
     7
100
AcDbCircle
 10
2103.07191413238
 20
954.8839627214686
 30
0.0
 40
3.199999999998909
100
AcDbArc
 50
90.0
 51
180.0
  0
ARC
  5
451
330
1F
100
AcDbEntity
  8
1
  6
Continuous
 62
     7
100
AcDbCircle
 10
2245.071914132382
 20
953.2839627214676
 30
0.0
 40
1.599999999996726
100
AcDbArc
 50
0.0
 51
90.0
  0
ARC
  5
452
330
1F
100
AcDbEntity
  8
1
  6
Continuous
 62
     7
100
AcDbCircle
 10
2104.671914132382
 20
953.2839627214676
 30
0.0
 40
1.600000000001046
100
AcDbArc
 50
90.0
 51
180.0
  0
ARC
  5
453
330
1F
100
AcDbEntity
  8
1
  6
Continuous
 62
     7
100
AcDbCircle
 10
1808.80929913444
 20
869.4961727343871
 30
0.0
 40
9.999999999999876
100
AcDbArc
 50
-59.9999999999665
 51
30.00000000003223
  0
ARC
  5
454
330
1F
100
AcDbEntity
  8
1
  6
Continuous
 62
     7
100
AcDbCircle
 10
1442.199934602805
 20
1336.432752517119
 30
0.0
 40
10.0
100
AcDbArc
 50
180.0
 51
-90.0
  0
ARC
  5
455
330
1F
100
AcDbEntity
  8
1
  6
Continuous
 62
     7
100
AcDbCircle
 10
1442.199934602805
 20
1460.032752517117
 30
0.0
 40
10.0
100
AcDbArc
 50
90.0
 51
180.0
  0
ARC
  5
456
330
1F
100
AcDbEntity
  8
1
  6
Continuous
 62
     7
100
AcDbCircle
 10
349.1999005032382
 20
1336.432752517115
 30
0.0
 40
10.0
100
AcDbArc
 50
180.0
 51
-90.00000000000358
  0
ARC
  5
457
330
1F
100
AcDbEntity
  8
1
  6
Continuous
 62
     7
100
AcDbCircle
 10
349.1999005032382
 20
1460.032752517115
 30
0.0
 40
10.0
100
AcDbArc
 50
90.0
 51
180.0
  0
ARC
  5
458
330
1F
100
AcDbEntity
  8
1
  6
Continuous
 62
     7
100
AcDbCircle
 10
615.8093593105141
 20
869.4961057822796
 30
0.0
 40
10.00000000000003
100
AcDbArc
 50
-59.9999093602423
 51
30.0000906397224
  0
ARC
  5
459
330
1F
100
AcDbEntity
  8
1
  6
Continuous
 62
     7
100
AcDbCircle
 10
469.514562423664
 20
862.8859135525169
 30
0.0
 40
5.000000000000005
100
AcDbArc
 50
-149.9999093602295
 51
-98.29007255255323
  0
ARC
  5
45A
330
1F
100
AcDbEntity
  8
1
  6
Continuous
 62
     7
100
AcDbCircle
 10
1575.406458518334
 20
813.7617513122037
 30
0.0
 40
5.00000000000037
100
AcDbArc
 50
-149.9999999999618
 51
-81.03751102542677
  0
ARC
  5
45B
330
1F
100
AcDbEntity
  8
1
  6
Continuous
 62
     7
100
AcDbCircle
 10
1775.776298648309
 20
850.424561011552
 30
0.0
 40
10.00000000000014
100
AcDbArc
 50
-81.03751102540994
 51
-59.99999999996118
  0
ARC
  5
45C
330
1F
100
AcDbEntity
  8
1
  6
Continuous
 62
     7
100
AcDbCircle
 10
584.1748871333193
 20
851.2318680289911
 30
0.0
 40
9.999999999999956
100
AcDbArc
 50
-98.29007255255331
 51
-59.9999093602423
  0
LINE
  5
45D
330
1F
100
AcDbEntity
  8
1
 62
     2
100
AcDbLine
 10
1360.619336954639
 20
977.7717129187986
 30
0.0
 11
1349.638574841106
 21
988.7524750323316
 31
0.0
  0
LINE
  5
45E
330
1F
100
AcDbEntity
  8
1
 62
     2
100
AcDbLine
 10
1360.619336954639
 20
977.7717129187986
 30
0.0
 11
1356.600099068172
 21
992.7717129187986
 31
0.0
  0
LEADER
  5
45F
330
1F
100
AcDbEntity
  8
1
  6
Continuous
 62
     2
100
AcDbLeader
  3
Standard
 71
     0
 76
     2
 10
1360.619336954639
 20
977.7717129187986
 30
0.0
 10
1340.397101116461
 20
1012.797652833158
 30
0.0
  0
LINE
  5
460
330
1F
100
AcDbEntity
  8
1
 62
     2
100
AcDbLine
 10
1697.760414193301
 20
1172.420204617524
 30
0.0
 11
1686.779652079767
 21
1183.400966731056
 31
0.0
  0
LINE
  5
461
330
1F
100
AcDbEntity
  8
1
 62
     2
100
AcDbLine
 10
1697.760414193301
 20
1172.420204617524
 30
0.0
 11
1693.741176306833
 21
1187.420204617524
 31
0.0
  0
LEADER
  5
462
330
1F
100
AcDbEntity
  8
1
  6
Continuous
 62
     2
100
AcDbLeader
  3
Standard
 71
     0
 76
     2
 10
1697.760414193301
 20
1172.420204617524
 30
0.0
 10
1677.538178355123
 20
1207.446144531882
 30
0.0
  0
LINE
  5
463
330
1F
100
AcDbEntity
  8
1
 62
     2
100
AcDbLine
 10
502.4981972443126
 20
1176.338378295621
 30
0.0
 11
491.5174351307782
 21
1187.319140409153
 31
0.0
  0
LINE
  5
464
330
1F
100
AcDbEntity
  8
1
 62
     2
100
AcDbLine
 10
502.4981972443126
 20
1176.338378295621
 30
0.0
 11
498.4789593578441
 21
1191.338378295621
 31
0.0
  0
LEADER
  5
465
330
1F
100
AcDbEntity
  8
1
  6
Continuous
 62
     2
100
AcDbLeader
  3
Standard
 71
     0
 76
     2
 10
502.4981972443126
 20
1176.338378295621
 30
0.0
 10
482.2759614061349
 20
1211.364318209979
 30
0.0
  0
LINE
  5
466
330
1F
100
AcDbEntity
  8
1
 62
     2
100
AcDbLine
 10
251.9596603840945
 20
1031.689886596898
 30
0.0
 11
240.9788982705601
 21
1042.67064871043
 31
0.0
  0
LINE
  5
467
330
1F
100
AcDbEntity
  8
1
 62
     2
100
AcDbLine
 10
251.9596603840945
 20
1031.689886596898
 30
0.0
 11
247.9404224976259
 21
1046.689886596898
 31
0.0
  0
LEADER
  5
468
330
1F
100
AcDbEntity
  8
1
  6
Continuous
 62
     2
100
AcDbLeader
  3
Standard
 71
     0
 76
     2
 10
251.9596603840945
 20
1031.689886596898
 30
0.0
 10
231.7374245459166
 20
1066.715826511256
 30
0.0
  0
LINE
  5
469
330
1F
100
AcDbEntity
  8
1
 62
     2
100
AcDbLine
 10
1377.267289826028
 20
938.9479250585366
 30
0.0
 11
1366.286527712488
 21
927.9671629450106
 31
0.0
  0
LINE
  5
46A
330
1F
100
AcDbEntity
  8
1
 62
     2
100
AcDbLine
 10
1377.267289826028
 20
938.9479250585366
 30
0.0
 11
1362.267289826025
 21
934.9286871720796
 31
0.0
  0
LEADER
  5
46B
330
1F
100
AcDbEntity
  8
1
  6
Continuous
 62
     2
100
AcDbLeader
  3
Standard
 71
     0
 76
     2
 10
1377.267289826028
 20
938.9479250585366
 30
0.0
 10
1344.754843812857
 20
920.1768556008453
 30
0.0
  0
LINE
  5
46C
330
1F
100
AcDbEntity
  8
1
 62
     2
100
AcDbLine
 10
1507.185271588675
 20
713.9233798288025
 30
0.0
 11
1496.204509475135
 21
702.9426177152765
 31
0.0
  0
LINE
  5
46D
330
1F
100
AcDbEntity
  8
1
 62
     2
100
AcDbLine
 10
1507.185271588675
 20
713.9233798288025
 30
0.0
 11
1492.185271588672
 21
709.9041419423454
 31
0.0
  0
LEADER
  5
46E
330
1F
100
AcDbEntity
  8
1
  6
Continuous
 62
     2
100
AcDbLeader
  3
Standard
 71
     0
 76
     2
 10
1507.185271588675
 20
713.9233798288025
 30
0.0
 10
1474.672825575504
 20
695.1523103711116
 30
0.0
  0
LINE
  5
46F
330
1F
100
AcDbEntity
  8
1
 62
     2
100
AcDbLine
 10
1724.543476743582
 20
1139.447925058547
 30
0.0
 11
1735.524238857116
 21
1150.42868717208
 31
0.0
  0
LINE
  5
470
330
1F
100
AcDbEntity
  8
1
 62
     2
100
AcDbLine
 10
1724.543476743582
 20
1139.447925058547
 30
0.0
 11
1739.543476743582
 21
1143.467162945013
 31
0.0
  0
LEADER
  5
471
330
1F
100
AcDbEntity
  8
1
  6
Continuous
 62
     2
100
AcDbLeader
  3
Standard
 71
     0
 76
     2
 10
1724.543476743582
 20
1139.447925058547
 30
0.0
 10
1757.055922756743
 20
1158.218994516254
 30
0.0
  0
LINE
  5
472
330
1F
100
AcDbEntity
  8
1
 62
     2
100
AcDbLine
 10
1885.141910959006
 20
861.2832773814376
 30
0.0
 11
1896.122673072541
 21
872.2640394949692
 31
0.0
  0
LINE
  5
473
330
1F
100
AcDbEntity
  8
1
 62
     2
100
AcDbLine
 10
1885.141910959006
 20
861.2832773814376
 30
0.0
 11
1900.141910959007
 21
865.3025152679023
 31
0.0
  0
LEADER
  5
474
330
1F
100
AcDbEntity
  8
1
  6
Continuous
 62
     2
100
AcDbLeader
  3
Standard
 71
     0
 76
     2
 10
1885.141910959006
 20
861.2832773814376
 30
0.0
 10
1917.654356972168
 20
880.0543468391443
 30
0.0
  0
LINE
  5
475
330
1F
100
AcDbEntity
  8
1
 62
     2
100
AcDbLine
 10
268.6076132554844
 20
992.8660987366357
 30
0.0
 11
257.6268511419441
 21
981.8853366231097
 31
0.0
  0
LINE
  5
476
330
1F
100
AcDbEntity
  8
1
 62
     2
100
AcDbLine
 10
268.6076132554844
 20
992.8660987366357
 30
0.0
 11
253.6076132554818
 21
988.8468608501786
 31
0.0
  0
LEADER
  5
477
330
1F
100
AcDbEntity
  8
1
  6
Continuous
 62
     2
100
AcDbLeader
  3
Standard
 71
     0
 76
     2
 10
268.6076132554844
 20
992.8660987366357
 30
0.0
 10
236.0951672423135
 20
974.0950292789446
 30
0.0
  0
LINE
  5
478
330
1F
100
AcDbEntity
  8
1
 62
     2
100
AcDbLine
 10
398.5255950181322
 20
767.8415535069013
 30
0.0
 11
387.5448329045919
 21
756.8607913933753
 31
0.0
  0
LINE
  5
479
330
1F
100
AcDbEntity
  8
1
 62
     2
100
AcDbLine
 10
398.5255950181322
 20
767.8415535069013
 30
0.0
 11
383.5255950181296
 21
763.8223156204442
 31
0.0
  0
LEADER
  5
47A
330
1F
100
AcDbEntity
  8
1
  6
Continuous
 62
     2
100
AcDbLeader
  3
Standard
 71
     0
 76
     2
 10
398.5255950181322
 20
767.8415535069013
 30
0.0
 10
366.013149004961
 20
749.0704840492105
 30
0.0
  0
LINE
  5
47B
330
1F
100
AcDbEntity
  8
1
 62
     2
100
AcDbLine
 10
529.281259794595
 20
1143.366098736645
 30
0.0
 11
540.2620219081288
 21
1154.346860850178
 31
0.0
  0
LINE
  5
47C
330
1F
100
AcDbEntity
  8
1
 62
     2
100
AcDbLine
 10
529.281259794595
 20
1143.366098736645
 30
0.0
 11
544.2812597945953
 21
1147.385336623111
 31
0.0
  0
LEADER
  5
47D
330
1F
100
AcDbEntity
  8
1
  6
Continuous
 62
     2
100
AcDbLeader
  3
Standard
 71
     0
 76
     2
 10
529.281259794595
 20
1143.366098736645
 30
0.0
 10
561.7937058077562
 20
1162.137168194352
 30
0.0
  0
LINE
  5
47E
330
1F
100
AcDbEntity
  8
1
 62
     2
100
AcDbLine
 10
693.2927330197157
 20
859.2898940865258
 30
0.0
 11
704.2734951332504
 21
870.2706562000574
 31
0.0
  0
LINE
  5
47F
330
1F
100
AcDbEntity
  8
1
 62
     2
100
AcDbLine
 10
693.2927330197157
 20
859.2898940865258
 30
0.0
 11
708.2927330197163
 21
863.3091319729905
 31
0.0
  0
LEADER
  5
480
330
1F
100
AcDbEntity
  8
1
  6
Continuous
 62
     2
100
AcDbLeader
  3
Standard
 71
     0
 76
     2
 10
693.2927330197157
 20
859.2898940865258
 30
0.0
 10
725.8051790328777
 20
878.0609635442327
 30
0.0
  0
TEXT
  5
481
330
1F
100
AcDbEntity
  8
1
 62
     2
100
AcDbText
 10
2123.13037914919
 20
21.1573816405511
 30
0.0
 40
19.2
  1
W_MTS_S_020
 41
0.9
  7
CONVERTER_1
100
AcDbText
  0
TEXT
  5
482
330
1F
100
AcDbEntity
  8
1
 62
     2
100
AcDbText
 10
1794.23987182509
 20
78.3794991578897
 30
0.0
 40
19.2
  1
本体組立図  呼び幅 40 mm  呼び機長 20 cm、30 cm
 41
0.801
  7
CONVERTER_5
100
AcDbText
  0
TEXT
  5
483
330
1F
100
AcDbEntity
  8
1
 62
     2
100
AcDbText
 10
1498.55241630691
 20
16.9788075509978
 30
0.0
 40
23.99999999999999
  1
MTS
 41
0.9
  7
CONVERTER_1
100
AcDbText
  0
TEXT
  5
484
330
1F
100
AcDbEntity
  8
1
 62
     2
100
AcDbText
 10
1461.1210230382
 20
78.164738855621
 30
0.0
 40
23.99999999999999
  1
ミニシリーズ
 41
0.89
  7
CONVERTER_2
100
AcDbText
  0
TEXT
  5
485
330
1F
100
AcDbEntity
  8
1
 62
     2
100
AcDbText
 10
1028.30285457356
 20
65.1650689556913
 30
0.0
 40
19.2
  1
2013.3.10
 41
0.9
  7
CONVERTER_1
100
AcDbText
  0
LWPOLYLINE
  5
486
330
1F
100
AcDbEntity
  8
1
 62
     2
100
AcDbPolyline
 90
        4
 70
     1
 43
0.0
 10
1532.172450805008
 20
622.430287800997
 10
1532.172450805008
 20
562.430287800997
 10
1832.172450805008
 20
562.430287800997
 10
1832.172450805008
 20
622.430287800997
  0
TEXT
  5
487
330
1F
100
AcDbEntity
  8
1
 62
     2
100
AcDbText
 10
1547.172450805008
 20
577.430287800997
 30
0.0
 40
29.99999999999999
  1
呼び機長 30 cm
 41
0.89
  7
CONVERTER_2
100
AcDbText
  0
LWPOLYLINE
  5
488
330
1F
100
AcDbEntity
  8
1
 62
     2
100
AcDbPolyline
 90
        4
 70
     1
 43
0.0
 10
425.025402504472
 20
622.430287800997
 10
425.025402504472
 20
562.430287800997
 10
725.0254025044719
 20
562.430287800997
 10
725.0254025044719
 20
622.430287800997
  0
TEXT
  5
489
330
1F
100
AcDbEntity
  8
1
 62
     2
100
AcDbText
 10
440.025402504472
 20
577.430287800997
 30
0.0
 40
29.99999999999999
  1
呼び機長 20 cm
 41
0.89
  7
CONVERTER_2
100
AcDbText
  0
MTEXT
  5
48A
330
1F
100
AcDbEntity
  8
1
 62
     2
100
AcDbMText
 10
1334.167739957702
 20
983.2060953934447
 30
0.0
 40
19.2
 41
0.0
 71
     7
 72
     1
  1
C
  7
CONVERTER_1
 11
0.8660254037843457
 21
0.5000000000001613
 31
0.0
 73
     1
 44
0.60024009603842
  0
MTEXT
  5
48B
330
1F
100
AcDbEntity
  8
1
 62
     2
100
AcDbMText
 10
1671.042846381465
 20
1177.64412863039
 30
0.0
 40
19.2
 41
0.0
 71
     7
 72
     1
  1
C
  7
CONVERTER_1
 11
0.8660254037843457
 21
0.5000000000001611
 31
0.0
 73
     1
 44
0.60024009603842
  0
TEXT
  5
48C
330
1F
100
AcDbEntity
  8
1
 62
     2
100
AcDbText
 10
1559.648604024681
 20
1291.645844258328
 30
0.0
 40
19.2
  1
CC矢視図
 41
0.89
  7
CONVERTER_2
100
AcDbText
  0
TEXT
  5
48D
330
1F
100
AcDbEntity
  8
1
 62
     2
100
AcDbText
 10
411.6394283257176
 20
1296.409952621184
 30
0.0
 40
19.2
  1
CC矢視図
 41
0.89
  7
CONVERTER_2
100
AcDbText
  0
MTEXT
  5
48E
330
1F
100
AcDbEntity
  8
1
 62
     2
100
AcDbMText
 10
475.780629432477
 20
1181.562302308487
 30
0.0
 40
19.2
 41
0.0
 71
     7
 72
     1
  1
C
  7
CONVERTER_1
 11
0.8660254037843457
 21
0.5000000000001611
 31
0.0
 73
     1
 44
0.60024009603842
  0
MTEXT
  5
48F
330
1F
100
AcDbEntity
  8
1
 62
     2
100
AcDbMText
 10
225.5080633871574
 20
1037.124269071544
 30
0.0
 40
19.2
 41
0.0
 71
     7
 72
     1
  1
C
  7
CONVERTER_1
 11
0.8660254037843457
 21
0.5000000000001613
 31
0.0
 73
     1
 44
0.60024009603842
  0
TEXT
  5
490
330
1F
100
AcDbEntity
  8
1
 62
     2
100
AcDbText
 10
1209.339411162712
 20
691.8966110563449
 30
0.0
 40
19.2
  1
BB矢視図
 41
0.89
  7
CONVERTER_2
100
AcDbText
  0
TEXT
  5
491
330
1F
100
AcDbEntity
  8
1
 62
     2
100
AcDbText
 10
2130.932390550085
 20
804.8118017633606
 30
0.0
 40
19.2
  1
AA矢視図
 41
0.89
  7
CONVERTER_2
100
AcDbText
  0
TEXT
  5
492
330
1F
100
AcDbEntity
  8
1
 62
     2
100
AcDbText
 10
94.33941116271205
 20
738.8966110563404
 30
0.0
 40
19.2
  1
BB矢視図
 41
0.89
  7
CONVERTER_2
100
AcDbText
  0
TEXT
  5
493
330
1F
100
AcDbEntity
  8
1
 62
     2
100
AcDbText
 10
906.9323905500836
 20
804.8118017633606
 30
0.0
 40
19.2
  1
AA矢視図
 41
0.89
  7
CONVERTER_2
100
AcDbText
  0
MTEXT
  5
494
330
1F
100
AcDbEntity
  8
1
 62
     2
100
AcDbMText
 10
1345.320004910016
 20
925.5888125944314
 30
0.0
 40
19.2
 41
0.0
 71
     7
 72
     1
  1
B
  7
CONVERTER_1
 11
0.8660254037845031
 21
0.4999999999998885
 31
0.0
 73
     1
 44
0.60024009603842
  0
MTEXT
  5
495
330
1F
100
AcDbEntity
  8
1
 62
     2
100
AcDbMText
 10
1475.237986672473
 20
700.5642673645872
 30
0.0
 40
19.2
 41
0.0
 71
     7
 72
     1
  1
B
  7
CONVERTER_1
 11
0.8660254037845031
 21
0.4999999999998885
 31
0.0
 73
     1
 44
0.60024009603842
  0
MTEXT
  5
496
330
1F
100
AcDbEntity
  8
1
 62
     2
100
AcDbMText
 10
1739.361563631637
 20
1153.088812594251
 30
0.0
 40
19.20000000000001
 41
0.0
 71
     7
 72
     1
  1
A
  7
CONVERTER_1
 11
0.8660254037845031
 21
0.4999999999998885
 31
0.0
 73
     1
 44
0.60024009603842
  0
MTEXT
  5
497
330
1F
100
AcDbEntity
  8
1
 62
     2
100
AcDbMText
 10
1899.959997847062
 20
874.924164917141
 30
0.0
 40
19.20000000000001
 41
0.0
 71
     7
 72
     1
  1
A
  7
CONVERTER_1
 11
0.8660254037845031
 21
0.4999999999998885
 31
0.0
 73
     1
 44
0.60024009603842
  0
MTEXT
  5
498
330
1F
100
AcDbEntity
  8
1
 62
     2
100
AcDbMText
 10
236.6603283394726
 20
979.5069862725306
 30
0.0
 40
19.2
 41
0.0
 71
     7
 72
     1
  1
B
  7
CONVERTER_1
 11
0.8660254037845031
 21
0.4999999999998885
 31
0.0
 73
     1
 44
0.60024009603842
  0
MTEXT
  5
499
330
1F
100
AcDbEntity
  8
1
 62
     2
100
AcDbMText
 10
366.57831010193
 20
754.482441042686
 30
0.0
 40
19.2
 41
0.0
 71
     7
 72
     1
  1
B
  7
CONVERTER_1
 11
0.8660254037845031
 21
0.4999999999998885
 31
0.0
 73
     1
 44
0.60024009603842
  0
MTEXT
  5
49A
330
1F
100
AcDbEntity
  8
1
 62
     2
100
AcDbMText
 10
544.09934668265
 20
1157.006986272349
 30
0.0
 40
19.20000000000001
 41
0.0
 71
     7
 72
     1
  1
A
  7
CONVERTER_1
 11
0.8660254037845031
 21
0.4999999999998886
 31
0.0
 73
     1
 44
0.60024009603842
  0
MTEXT
  5
49B
330
1F
100
AcDbEntity
  8
1
 62
     2
100
AcDbMText
 10
708.1108199077719
 20
872.9307816222291
 30
0.0
 40
19.20000000000001
 41
0.0
 71
     7
 72
     1
  1
A
  7
CONVERTER_1
 11
0.8660254037845031
 21
0.4999999999998886
 31
0.0
 73
     1
 44
0.60024009603842
  0
MTEXT
  5
49C
330
1F
100
AcDbEntity
  8
1
 62
     2
100
AcDbMText
 10
1148.863346917397
 20
254.3856344725864
 30
0.0
 40
23.99999999999999
 41
0.0
 71
     7
 72
     1
  1
注1：本図はねじり方向Lタイプ\P注2：排出側装置とのジョイントを取る事\P※1：本図はMMX2型、ベルト幅50mmの場合です
  7
CONVERTER_2
 73
     1
 44
0.90036014405762
  0
MTEXT
  5
49D
330
1F
100
AcDbEntity
  8
1
 62
     2
100
AcDbMText
 10
804.5655151833299
 20
1094.488558904374
 30
0.0
 40
19.2
 41
0.0
 71
     7
 72
     1
  1
※1
  7
CONVERTER_2
 11
0.0
 21
1.0
 31
0.0
 73
     1
 44
0.60024009603842
  0
MTEXT
  5
49E
330
1F
100
AcDbEntity
  8
1
 62
     2
100
AcDbMText
 10
1993.202036474983
 20
1090.562365347351
 30
0.0
 40
19.2
 41
0.0
 71
     7
 72
     1
  1
※1
  7
CONVERTER_2
 11
0.0
 21
1.0
 31
0.0
 73
     1
 44
0.60024009603842
  0
DIMENSION
  5
4B1
330
1F
100
AcDbEntity
  8
1
100
AcDbDimension
  2
*D02
 10
505.2120876253632
 20
1041.055127829887
 30
0.0
 11
418.0678238701876
 21
1006.677231122135
 31
0.0
 70
    32
  1
呼び機長(200)
 71
     5
 42
-1.0
 53
30.00000000000203
  3
ME10_DIM_0
100
AcDbAlignedDimension
 13
371.9435495571293
 23
871.8830068145066
 33
0.0
 14
545.1486303140117
 24
971.8830068145103
 34
0.0
 50
30.00000000000203
100
AcDbRotatedDimension
  0
DIMENSION
  5
4BE
330
1F
100
AcDbEntity
  8
1
100
AcDbDimension
  2
*D14
 10
1698.221306873828
 20
1041.03926063843
 30
0.0
 11
1576.84367653082
 21
986.896720515924
 31
0.0
 70
    32
  1
呼び機長(300)
 71
     5
 42
-1.0
 53
30.00000000000177
  3
ME10_DIM_1
100
AcDbAlignedDimension
 13
1478.341043278252
 23
821.8830487676158
 33
0.0
 14
1738.148664413578
 24
971.8830487676185
 34
0.0
 50
30.00000000000177
100
AcDbRotatedDimension
  0
DIMENSION
  5
4CB
330
1F
100
AcDbEntity
  8
1
100
AcDbDimension
  2
*D25
 10
2075.967883795308
 20
1323.232752517117
 30
0.0
 11
2062.167883795308
 21
1394.953327449409
 31
0.0
 70
    32
  1
機幅(150)
 71
     5
 42
-1.0
 53
90.0
  3
ME10_DIM_2
100
AcDbAlignedDimension
 13
1752.199934602858
 23
1473.232752517116
 33
0.0
 14
1752.199934602858
 24
1323.232752517116
 34
0.0
 50
90.0
100
AcDbRotatedDimension
  0
DIMENSION
  5
4D9
330
1F
100
AcDbEntity
  8
1
100
AcDbDimension
  2
*D36
 10
2025.967883795308
 20
1357.232752517117
 30
0.0
 11
2012.167883795308
 21
1194.62448022444
 31
0.0
 70
    32
  1
投入側コンベヤ機幅(82)
 71
     5
 42
-1.0
 53
90.0
  3
ME10_DIM_3
100
AcDbAlignedDimension
 13
1925.967883795307
 23
1439.232752517116
 33
0.0
 14
1925.967883795307
 24
1357.232752517116
 34
0.0
 50
90.0
100
AcDbRotatedDimension
  0
DIMENSION
  5
4E6
330
1F
100
AcDbEntity
  8
1
100
AcDbDimension
  2
*D47
 10
882.9678496957433
 20
1323.232752517117
 30
0.0
 11
869.1678496957434
 21
1395.12469803616
 31
0.0
 70
    32
  1
機幅(150)
 71
     5
 42
-1.0
 53
90.0
  3
ME10_DIM_4
100
AcDbAlignedDimension
 13
559.1999005032924
 23
1473.232752517116
 33
0.0
 14
559.1999005032924
 24
1323.232752517116
 34
0.0
 50
90.0
100
AcDbRotatedDimension
  0
DIMENSION
  5
4F4
330
1F
100
AcDbEntity
  8
1
100
AcDbDimension
  2
*D58
 10
839.972516409
 20
1357.232752517116
 30
0.0
 11
826.1725164090001
 21
1198.66929385256
 31
0.0
 70
    32
  1
投入側コンベヤ機幅(82)
 71
     5
 42
-1.0
 53
90.0
  3
ME10_DIM_5
100
AcDbAlignedDimension
 13
732.9678496957436
 23
1439.232752517116
 33
0.0
 14
732.9678496957436
 24
1357.232752517116
 34
0.0
 50
90.0
100
AcDbRotatedDimension
  0
DIMENSION
  5
501
330
1F
100
AcDbEntity
  8
1
100
AcDbDimension
  2
*D69
 10
1705.490917860323
 20
1128.447925058548
 30
0.0
 11
1549.39622277171
 21
1055.924247034955
 31
0.0
 70
    32
  1
実機長(356)
 71
     5
 42
-1.0
 53
30.00000000000272
  3
ME10_DIM_6
100
AcDbAlignedDimension
 13
1460.144890855544
 23
841.3997092660105
 33
0.0
 14
1781.449934602798
 24
996.8830487676199
 34
0.0
 50
30.00000000000272
100
AcDbRotatedDimension
  0
DIMENSION
  5
50E
330
1F
100
AcDbEntity
  8
1
100
AcDbDimension
  2
*D710
 10
514.1621498738294
 20
1125.553165284602
 30
0.0
 11
392.4192209446302
 21
1072.862488700274
 31
0.0
 70
    32
  1
実機長(256)
 71
     5
 42
-1.0
 53
30.00000000000793
  3
ME10_DIM_7
100
AcDbAlignedDimension
 13
353.7473971344221
 23
891.3996673129016
 33
0.0
 14
588.449900503232
 24
996.8830068145109
 34
0.0
 50
30.00000000000793
100
AcDbRotatedDimension
  0
DIMENSION
  5
51D
330
1F
100
AcDbEntity
  8
1
100
AcDbDimension
  2
*D811
 10
1977.47119856887
 20
1378.232752517117
 30
0.0
 11
1963.67119856887
 21
1251.95264916057
 31
0.0
 70
    32
  1
呼び幅(40)
 71
     5
 42
-1.0
 53
90.0
  3
ME10_DIM_8
100
AcDbAlignedDimension
 13
1782.1999346028
 23
1418.232752517117
 33
0.0
 14
1782.1999346028
 24
1378.232752517117
 34
0.0
 50
90.0
100
AcDbRotatedDimension
  0
DIMENSION
  5
52C
330
1F
100
AcDbEntity
  8
1
100
AcDbDimension
  2
*D912
 10
1382.566828032424
 20
1376.232752517118
 30
0.0
 11
1368.766828032424
 21
1294.84245498843
 31
0.0
 70
    32
  1
<>
 71
     5
 42
-1.0
 53
90.0
  3
ME10_DIM_9
100
AcDbAlignedDimension
 13
1435.1999346028
 23
1420.232752517117
 33
0.0
 14
1435.1999346028
 24
1376.232752517117
 34
0.0
 50
90.0
100
AcDbRotatedDimension
  0
DIMENSION
  5
53B
330
1F
100
AcDbEntity
  8
1
100
AcDbDimension
  2
*D1013
 10
1333.331812935155
 20
1373.232752517117
 30
0.0
 11
1319.531812935155
 21
1293.04370082772
 31
0.0
 70
    32
  1
<>
 71
     5
 42
-1.0
 53
90.0
  3
ME10_DIM_10
100
AcDbAlignedDimension
 13
1435.1999346028
 23
1423.232752517117
 33
0.0
 14
1435.1999346028
 24
1373.232752517117
 34
0.0
 50
90.0
100
AcDbRotatedDimension
  0
DIMENSION
  5
54A
330
1F
100
AcDbEntity
  8
1
100
AcDbDimension
  2
*D1114
 10
243.3227231158872
 20
1373.232752517117
 30
0.0
 11
229.5227231158873
 21
1291.25574431186
 31
0.0
 70
    32
  1
<>
 71
     5
 42
-1.0
 53
90.0
  3
ME10_DIM_11
100
AcDbAlignedDimension
 13
342.1999005032334
 23
1423.232752517117
 33
0.0
 14
342.1999005032334
 24
1373.232752517117
 34
0.0
 50
90.0
100
AcDbRotatedDimension
  0
DIMENSION
  5
559
330
1F
100
AcDbEntity
  8
1
100
AcDbDimension
  2
*D1215
 10
285.1724859485652
 20
1376.232752517117
 30
0.0
 11
271.3724859485652
 21
1294.187168328049
 31
0.0
 70
    32
  1
<>
 71
     5
 42
-1.0
 53
90.0
  3
ME10_DIM_12
100
AcDbAlignedDimension
 13
342.1999005032334
 23
1420.232752517117
 33
0.0
 14
342.1999005032334
 24
1376.232752517117
 34
0.0
 50
90.0
100
AcDbRotatedDimension
  0
DIMENSION
  5
568
330
1F
100
AcDbEntity
  8
1
100
AcDbDimension
  2
*D1316
 10
784.2644007155629
 20
1378.232752517117
 30
0.0
 11
770.464400715563
 21
1256.60452751477
 31
0.0
 70
    32
  1
呼び幅(40)
 71
     5
 42
-1.0
 53
90.0
  3
ME10_DIM_13
100
AcDbAlignedDimension
 13
589.1999005032335
 23
1418.232752517117
 33
0.0
 14
589.1999005032335
 24
1378.232752517117
 34
0.0
 50
90.0
100
AcDbRotatedDimension
  0
DIMENSION
  5
575
330
1F
100
AcDbEntity
  8
1
100
AcDbDimension
  2
*D1417
 10
1963.268226114545
 20
1056.822621567466
 30
0.0
 11
2001.124676610652
 21
1021.733325914046
 31
0.0
 70
    32
  1
<>
 71
     5
 42
-1.0
 53
-59.99999999996954
  3
ME10_DIM_14
100
AcDbAlignedDimension
 13
1813.809299134445
 23
860.8359186965457
 33
0.0
 14
1774.969553172253
 24
948.1083320560484
 34
0.0
 50
-59.99999999996954
100
AcDbRotatedDimension
  0
DIMENSION
  5
582
330
1F
100
AcDbEntity
  8
1
100
AcDbDimension
  2
*D1518
 10
767.8385513727166
 20
1055.420156823784
 30
0.0
 11
801.5156859901841
 21
1027.569778200056
 31
0.0
 70
    32
  1
<>
 71
     5
 42
-1.0
 53
-59.99990936027774
  3
ME10_DIM_15
100
AcDbAlignedDimension
 13
620.8093730107024
 23
860.8358596542571
 33
0.0
 14
581.9694889869716
 24
948.1082115707034
 34
0.0
 50
-59.99990936027774
100
AcDbRotatedDimension
  0
DIMENSION
  5
591
330
1F
100
AcDbEntity
  8
1
100
AcDbDimension
  2
*D1619
 10
1907.002050130939
 20
1029.720766671511
 30
0.0
 11
1864.990485447376
 21
1112.220620972823
 31
0.0
 70
    37
  1
30^N0^O±15^N0^O
 71
     5
 42
-1.0
  3
ME10_DIM_16
100
AcDb3PointAngularDimension
 13
1819.9499346028
 23
996.8830068145162
 33
0.0
 14
1801.560652086158
 24
1006.761926112664
 34
0.0
 15
1784.449861937896
 25
996.8830068145171
 35
0.0
  0
DIMENSION
  5
5A0
330
1F
100
AcDbEntity
  8
1
100
AcDbDimension
  2
*D1720
 10
718.4501971836928
 20
1030.912633748558
 30
0.0
 11
679.3766724682956
 21
1112.534518619623
 31
0.0
 70
    37
  1
30^N0^O±15^N0^O
 71
     5
 42
-1.0
  3
ME10_DIM_17
100
AcDb3PointAngularDimension
 13
626.9499005032343
 23
996.8830068145162
 33
0.0
 14
617.5991193227615
 24
1011.980265339066
 34
0.0
 15
591.4499005032427
 25
996.8830068145171
 35
0.0
  0
ENDSEC
  0
SECTION
  2
OBJECTS
  0
DICTIONARY
  5
C
330
0
100
AcDbDictionary
281
     1
  3
ACAD_GROUP
350
D
  3
ACAD_LAYOUT
350
1A
  3
ACAD_MLINESTYLE
350
17
  3
ACAD_PLOTSETTINGS
350
19
  3
ACAD_PLOTSTYLENAME
350
E
  0
DICTIONARY
  5
D
102
{ACAD_REACTORS
330
C
102
}
330
C
100
AcDbDictionary
281
     1
  0
DICTIONARY
  5
1A
102
{ACAD_REACTORS
330
C
102
}
330
C
100
AcDbDictionary
281
     1
  3
Layout1
350
1E
  3
Layout2
350
26
  3
Model
350
22
  0
DICTIONARY
  5
17
102
{ACAD_REACTORS
330
C
102
}
330
C
100
AcDbDictionary
281
     1
  3
Standard
350
18
  0
DICTIONARY
  5
19
102
{ACAD_REACTORS
330
C
102
}
330
C
100
AcDbDictionary
281
     1
  0
ACDBDICTIONARYWDFLT
  5
E
102
{ACAD_REACTORS
330
C
102
}
330
C
100
AcDbDictionary
281
     1
  3
Normal
350
F
100
AcDbDictionaryWithDefault
340
F
  0
LAYOUT
  5
1E
102
{ACAD_REACTORS
330
1A
102
}
330
1A
100
AcDbPlotSettings
  1

  2

  4

  6

 40
0.0
 41
0.0
 42
0.0
 43
0.0
 44
0.0
 45
0.0
 46
0.0
 47
0.0
 48
0.0
 49
0.0
140
0.0
141
0.0
142
1.0
143
1.0
 70
   688
 72
     0
 73
     0
 74
     5
  7

 75
    16
147
1.0
148
0.0
149
0.0
100
AcDbLayout
  1
Layout1
 70
     1
 71
     1
 10
0.0
 20
0.0
 11
0.0
 21
0.0
 12
0.0
 22
0.0
 32
0.0
 14
0.0
 24
0.0
 34
0.0
 15
0.0
 25
0.0
 35
0.0
146
0.0
 13
0.0
 23
0.0
 33
0.0
 16
1.0
 26
0.0
 36
0.0
 17
0.0
 27
1.0
 37
0.0
 76
     0
330
1B
  0
LAYOUT
  5
26
102
{ACAD_REACTORS
330
1A
102
}
330
1A
100
AcDbPlotSettings
  1

  2

  4

  6

 40
0.0
 41
0.0
 42
0.0
 43
0.0
 44
0.0
 45
0.0
 46
0.0
 47
0.0
 48
0.0
 49
0.0
140
0.0
141
0.0
142
1.0
143
1.0
 70
   688
 72
     0
 73
     0
 74
     5
  7

 75
    16
147
1.0
148
0.0
149
0.0
100
AcDbLayout
  1
Layout2
 70
     1
 71
     2
 10
0.0
 20
0.0
 11
0.0
 21
0.0
 12
0.0
 22
0.0
 32
0.0
 14
0.0
 24
0.0
 34
0.0
 15
0.0
 25
0.0
 35
0.0
146
0.0
 13
0.0
 23
0.0
 33
0.0
 16
1.0
 26
0.0
 36
0.0
 17
0.0
 27
1.0
 37
0.0
 76
     0
330
23
  0
LAYOUT
  5
22
102
{ACAD_REACTORS
330
1A
102
}
330
1A
100
AcDbPlotSettings
  1

  2

  4

  6

 40
0.0
 41
0.0
 42
0.0
 43
0.0
 44
0.0
 45
0.0
 46
0.0
 47
0.0
 48
0.0
 49
0.0
140
0.0
141
0.0
142
1.0
143
1.0
 70
  1712
 72
     0
 73
     0
 74
     0
  7

 75
     0
147
1.0
148
0.0
149
0.0
100
AcDbLayout
  1
Model
 70
     1
 71
     0
 10
0.0
 20
0.0
 11
0.0
 21
0.0
 12
0.0
 22
0.0
 32
0.0
 14
0.0
 24
-13.53691992573413
 34
0.0
 15
2363.999999999999
 25
1608.0
 35
0.0
146
0.0
 13
0.0
 23
0.0
 33
0.0
 16
1.0
 26
0.0
 36
0.0
 17
0.0
 27
1.0
 37
0.0
 76
     0
330
1F
  0
MLINESTYLE
  5
18
102
{ACAD_REACTORS
330
17
102
}
330
17
100
AcDbMlineStyle
  2
Standard
 70
     0
  3

 62
   256
 51
90.0
 52
90.0
 71
     2
 49
0.5
 62
   256
  6
BYLAYER
 49
-0.5
 62
   256
  6
BYLAYER
  0
ACDBPLACEHOLDER
  5
F
102
{ACAD_REACTORS
330
E
102
}
330
E
  0
ENDSEC
  0
EOF
