  0
SECTION
  2
HEADER
  9
$ACADVER
  1
AC1015
  9
$ACADMAINTVER
 70
     6
  9
$DWGCODEPAGE
  3
DOS932
  9
$INSBASE
 10
0.0
 20
0.0
 30
0.0
  9
$EXTMIN
 10
0.0
 20
-13.53691992573414
 30
0.0
  9
$EXTMAX
 10
2363.999999999999
 20
1608.0
 30
0.0
  9
$LIMMIN
 10
0.0
 20
0.0
  9
$LIMMAX
 10
12.0
 20
9.0
  9
$ORTHOMODE
 70
     0
  9
$REGENMODE
 70
     1
  9
$FILLMODE
 70
     1
  9
$QTEXTMODE
 70
     0
  9
$MIRRTEXT
 70
     1
  9
$LTSCALE
 40
1.0
  9
$ATTMODE
 70
     1
  9
$TEXTSIZE
 40
0.2
  9
$TRACEWID
 40
0.05
  9
$TEXTSTYLE
  7
Standard
  9
$CLAYER
  8
0
  9
$CELTYPE
  6
ByLayer
  9
$CECOLOR
 62
   256
  9
$CELTSCALE
 40
1.0
  9
$DISPSILH
 70
     0
  9
$DIMSCALE
 40
1.0
  9
$DIMASZ
 40
0.18
  9
$DIMEXO
 40
0.0625
  9
$DIMDLI
 40
0.38
  9
$DIMRND
 40
0.0
  9
$DIMDLE
 40
0.0
  9
$DIMEXE
 40
0.18
  9
$DIMTP
 40
0.0
  9
$DIMTM
 40
0.0
  9
$DIMTXT
 40
0.18
  9
$DIMCEN
 40
0.09
  9
$DIMTSZ
 40
0.0
  9
$DIMTOL
 70
     0
  9
$DIMLIM
 70
     0
  9
$DIMTIH
 70
     1
  9
$DIMTOH
 70
     1
  9
$DIMSE1
 70
     0
  9
$DIMSE2
 70
     0
  9
$DIMTAD
 70
     0
  9
$DIMZIN
 70
     0
  9
$DIMBLK
  1

  9
$DIMASO
 70
     1
  9
$DIMSHO
 70
     1
  9
$DIMPOST
  1

  9
$DIMAPOST
  1

  9
$DIMALT
 70
     0
  9
$DIMALTD
 70
     2
  9
$DIMALTF
 40
25.4
  9
$DIMLFAC
 40
1.0
  9
$DIMTOFL
 70
     0
  9
$DIMTVP
 40
0.0
  9
$DIMTIX
 70
     0
  9
$DIMSOXD
 70
     0
  9
$DIMSAH
 70
     0
  9
$DIMBLK1
  1

  9
$DIMBLK2
  1

  9
$DIMSTYLE
  2
Standard
  9
$DIMCLRD
 70
     0
  9
$DIMCLRE
 70
     0
  9
$DIMCLRT
 70
     0
  9
$DIMTFAC
 40
1.0
  9
$DIMGAP
 40
0.09
  9
$DIMJUST
 70
     0
  9
$DIMSD1
 70
     0
  9
$DIMSD2
 70
     0
  9
$DIMTOLJ
 70
     1
  9
$DIMTZIN
 70
     0
  9
$DIMALTZ
 70
     0
  9
$DIMALTTZ
 70
     0
  9
$DIMUPT
 70
     0
  9
$DIMDEC
 70
     4
  9
$DIMTDEC
 70
     4
  9
$DIMALTU
 70
     2
  9
$DIMALTTD
 70
     2
  9
$DIMTXSTY
  7
Standard
  9
$DIMAUNIT
 70
     0
  9
$DIMADEC
 70
     0
  9
$DIMALTRND
 40
0.0
  9
$DIMAZIN
 70
     0
  9
$DIMDSEP
 70
    46
  9
$DIMATFIT
 70
     3
  9
$DIMFRAC
 70
     0
  9
$DIMLDRBLK
  1

  9
$DIMLUNIT
 70
     2
  9
$DIMLWD
 70
    -2
  9
$DIMLWE
 70
    -2
  9
$DIMTMOVE
 70
     0
  9
$LUNITS
 70
     2
  9
$LUPREC
 70
     4
  9
$SKETCHINC
 40
0.1
  9
$FILLETRAD
 40
0.5
  9
$AUNITS
 70
     0
  9
$AUPREC
 70
     0
  9
$MENU
  1
.
  9
$ELEVATION
 40
0.0
  9
$PELEVATION
 40
0.0
  9
$THICKNESS
 40
0.0
  9
$LIMCHECK
 70
     0
  9
$CHAMFERA
 40
0.5
  9
$CHAMFERB
 40
0.5
  9
$CHAMFERC
 40
1.0
  9
$CHAMFERD
 40
0.0
  9
$SKPOLY
 70
     0
  9
$TDCREATE
 40
2456365.482807222
  9
$TDUCREATE
 40
2456365.107807222
  9
$TDUPDATE
 40
2456365.482807234
  9
$TDUUPDATE
 40
2456365.107807234
  9
$TDINDWG
 40
0.0000000116
  9
$TDUSRTIMER
 40
0.0000000116
  9
$USRTIMER
 70
     1
  9
$ANGBASE
 50
0.0
  9
$ANGDIR
 70
     0
  9
$PDMODE
 70
     0
  9
$PDSIZE
 40
0.0
  9
$PLINEWID
 40
0.0
  9
$SPLFRAME
 70
     0
  9
$SPLINETYPE
 70
     6
  9
$SPLINESEGS
 70
     8
  9
$HANDSEED
  5
5C1
  9
$SURFTAB1
 70
     6
  9
$SURFTAB2
 70
     6
  9
$SURFTYPE
 70
     6
  9
$SURFU
 70
     6
  9
$SURFV
 70
     6
  9
$UCSBASE
  2

  9
$UCSNAME
  2

  9
$UCSORG
 10
0.0
 20
0.0
 30
0.0
  9
$UCSXDIR
 10
1.0
 20
0.0
 30
0.0
  9
$UCSYDIR
 10
0.0
 20
1.0
 30
0.0
  9
$UCSORTHOREF
  2

  9
$UCSORTHOVIEW
 70
     0
  9
$UCSORGTOP
 10
0.0
 20
0.0
 30
0.0
  9
$UCSORGBOTTOM
 10
0.0
 20
0.0
 30
0.0
  9
$UCSORGLEFT
 10
0.0
 20
0.0
 30
0.0
  9
$UCSORGRIGHT
 10
0.0
 20
0.0
 30
0.0
  9
$UCSORGFRONT
 10
0.0
 20
0.0
 30
0.0
  9
$UCSORGBACK
 10
0.0
 20
0.0
 30
0.0
  9
$PUCSBASE
  2

  9
$PUCSNAME
  2

  9
$PUCSORG
 10
0.0
 20
0.0
 30
0.0
  9
$PUCSXDIR
 10
1.0
 20
0.0
 30
0.0
  9
$PUCSYDIR
 10
0.0
 20
1.0
 30
0.0
  9
$PUCSORTHOREF
  2

  9
$PUCSORTHOVIEW
 70
     0
  9
$PUCSORGTOP
 10
0.0
 20
0.0
 30
0.0
  9
$PUCSORGBOTTOM
 10
0.0
 20
0.0
 30
0.0
  9
$PUCSORGLEFT
 10
0.0
 20
0.0
 30
0.0
  9
$PUCSORGRIGHT
 10
0.0
 20
0.0
 30
0.0
  9
$PUCSORGFRONT
 10
0.0
 20
0.0
 30
0.0
  9
$PUCSORGBACK
 10
0.0
 20
0.0
 30
0.0
  9
$USERI1
 70
     0
  9
$USERI2
 70
     0
  9
$USERI3
 70
     0
  9
$USERI4
 70
     0
  9
$USERI5
 70
     0
  9
$USERR1
 40
14.0
  9
$USERR2
 40
0.0
  9
$USERR3
 40
0.0
  9
$USERR4
 40
0.0
  9
$USERR5
 40
0.0
  9
$WORLDVIEW
 70
     1
  9
$SHADEDGE
 70
     3
  9
$SHADEDIF
 70
    70
  9
$TILEMODE
 70
     1
  9
$MAXACTVP
 70
    64
  9
$PINSBASE
 10
0.0
 20
0.0
 30
0.0
  9
$PLIMCHECK
 70
     0
  9
$PEXTMIN
 10
1.00000000000000E+20
 20
1.00000000000000E+20
 30
1.00000000000000E+20
  9
$PEXTMAX
 10
-1.00000000000000E+20
 20
-1.00000000000000E+20
 30
-1.00000000000000E+20
  9
$PLIMMIN
 10
0.0
 20
0.0
  9
$PLIMMAX
 10
12.0
 20
9.0
  9
$UNITMODE
 70
     0
  9
$VISRETAIN
 70
     1
  9
$PLINEGEN
 70
     0
  9
$PSLTSCALE
 70
     1
  9
$TREEDEPTH
 70
  3020
  9
$CMLSTYLE
  2
Standard
  9
$CMLJUST
 70
     0
  9
$CMLSCALE
 40
1.0
  9
$PROXYGRAPHICS
 70
     1
  9
$MEASUREMENT
 70
     1
  9
$CELWEIGHT
370
    -1
  9
$ENDCAPS
280
     0
  9
$JOINSTYLE
280
     0
  9
$LWDISPLAY
290
     0
  9
$INSUNITS
 70
     1
  9
$HYPERLINKBASE
  1

  9
$STYLESHEET
  1

  9
$XEDIT
290
     1
  9
$CEPSNTYPE
380
     0
  9
$PSTYLEMODE
290
     1
  9
$FINGERPRINTGUID
  2
{6544D9F8-1CD9-4C16-8A83-4294D8837379}
  9
$VERSIONGUID
  2
{FAEB1C32-E019-11D5-929B-00C0DF256EC4}
  9
$EXTNAMES
290
     1
  9
$PSVPSCALE
 40
0.0
  9
$OLESTARTUP
290
     0
  0
ENDSEC
  0
SECTION
  2
CLASSES
  0
CLASS
  1
ACDBDICTIONARYWDFLT
  2
AcDbDictionaryWithDefault
  3
ObjectDBX Classes
 90
        0
280
     0
281
     0
  0
CLASS
  1

  2
exOdDbCircle
  3

 90
        0
280
     0
281
     1
  0
CLASS
  1

  2
exOdDbSpline
  3

 90
        0
280
     0
281
     1
  0
CLASS
  1

  2
exOdDbPolyline
  3

 90
        0
280
     0
281
     1
  0
CLASS
  1
ACDBPLACEHOLDER
  2
AcDbPlaceHolder
  3
ObjectDBX Classes
 90
        0
280
     0
281
     0
  0
CLASS
  1
LAYOUT
  2
AcDbLayout
  3
ObjectDBX Classes
 90
        0
280
     0
281
     0
  0
ENDSEC
  0
SECTION
  2
TABLES
  0
TABLE
  2
VPORT
  5
8
330
0
100
AcDbSymbolTable
 70
     1
  0
VPORT
  5
29
330
8
100
AcDbSymbolTableRecord
100
AcDbViewportTableRecord
  2
*Active
 70
     0
 10
0.0
 20
0.0
 11
1.0
 21
1.0
 12
1182.0
 22
797.231540037133
 13
0.0
 23
0.0
 14
0.5
 24
0.5
 15
0.5
 25
0.5
 16
0.0
 26
0.0
 36
1.0
 17
0.0
 27
0.0
 37
0.0
 40
1783.690611918308
 41
1.60267857142857
 42
50.0
 43
0.0
 44
0.0
 50
0.0
 51
0.0
 71
     0
 72
   100
 73
     1
 74
     3
 75
     0
 76
     0
 77
     0
 78
     0
281
     0
 65
     1
110
0.0
120
0.0
130
0.0
111
1.0
121
0.0
131
0.0
112
0.0
122
1.0
132
0.0
 79
     0
146
0.0
  0
ENDTAB
  0
TABLE
  2
LTYPE
  5
5
330
0
100
AcDbSymbolTable
 70
     8
  0
LTYPE
  5
14
330
5
100
AcDbSymbolTableRecord
100
AcDbLinetypeTableRecord
  2
ByBlock
 70
     0
  3

 72
    65
 73
     0
 40
0.0
  0
LTYPE
  5
15
330
5
100
AcDbSymbolTableRecord
100
AcDbLinetypeTableRecord
  2
ByLayer
 70
     0
  3

 72
    65
 73
     0
 40
0.0
  0
LTYPE
  5
16
330
5
100
AcDbSymbolTableRecord
100
AcDbLinetypeTableRecord
  2
Continuous
 70
     0
  3
Solid line
 72
    65
 73
     0
 40
0.0
  0
LTYPE
  5
2A
330
5
100
AcDbSymbolTableRecord
100
AcDbLinetypeTableRecord
  2
DASHED
 70
     0
  3
Dashed
 72
    65
 73
     2
 40
15.0
 49
7.0
 74
     0
 49
-8.0
 74
     0
  0
LTYPE
  5
2B
330
5
100
AcDbSymbolTableRecord
100
AcDbLinetypeTableRecord
  2
DOTTED
 70
     0
  3
Dotted
 72
    65
 73
     2
 40
1.0
 49
0.0
 74
     0
 49
-1.0
 74
     0
  0
LTYPE
  5
2C
330
5
100
AcDbSymbolTableRecord
100
AcDbLinetypeTableRecord
  2
DOT_CENTER
 70
     0
  3
Dot_Center
 72
    65
 73
     4
 40
14.0
 49
12.0
 74
     0
 49
-1.0
 74
     0
 49
0.0
 74
     0
 49
-1.0
 74
     0
  0
LTYPE
  5
2D
330
5
100
AcDbSymbolTableRecord
100
AcDbLinetypeTableRecord
  2
LONG_DASHED
 70
     0
  3
Long_Dashed
 72
    65
 73
     2
 40
15.0
 49
10.0
 74
     0
 49
-5.0
 74
     0
  0
LTYPE
  5
2E
330
5
100
AcDbSymbolTableRecord
100
AcDbLinetypeTableRecord
  2
DASH_CENTER
 70
     0
  3
Dash_Center
 72
    65
 73
     4
 40
14.0
 49
11.0
 74
     0
 49
-1.0
 74
     0
 49
1.0
 74
     0
 49
-1.0
 74
     0
  0
LTYPE
  5
2F
330
5
100
AcDbSymbolTableRecord
100
AcDbLinetypeTableRecord
  2
PHANTOM
 70
     0
  3
Phantom
 72
    65
 73
     6
 40
13.0
 49
10.0
 74
     0
 49
-1.0
 74
     0
 49
0.0
 74
     0
 49
-1.0
 74
     0
 49
0.0
 74
     0
 49
-1.0
 74
     0
  0
LTYPE
  5
30
330
5
100
AcDbSymbolTableRecord
100
AcDbLinetypeTableRecord
  2
CENTER_DASH_DASH
 70
     0
  3
Center_Dash_Dash
 72
    65
 73
     6
 40
14.0
 49
9.0
 74
     0
 49
-1.0
 74
     0
 49
1.0
 74
     0
 49
-1.0
 74
     0
 49
1.0
 74
     0
 49
-1.0
 74
     0
  0
ENDTAB
  0
TABLE
  2
LAYER
  5
2
330
0
100
AcDbSymbolTable
 70
     2
  0
LAYER
  5
10
330
2
100
AcDbSymbolTableRecord
100
AcDbLayerTableRecord
  2
0
 70
     0
 62
     7
  6
Continuous
370
    -3
390
F
  0
LAYER
  5
31
330
2
100
AcDbSymbolTableRecord
100
AcDbLayerTableRecord
  2
1
 70
     0
 62
     7
  6
Continuous
370
    -3
390
F
  0
ENDTAB
  0
TABLE
  2
STYLE
  5
3
330
0
100
AcDbSymbolTable
 70
     6
  0
STYLE
  5
11
330
3
100
AcDbSymbolTableRecord
100
AcDbTextStyleTableRecord
  2
Standard
 70
     0
 40
0.0
 41
1.0
 50
0.0
 71
     0
 42
0.2
  3
txt
  4

  0
STYLE
  5
4A
330
3
100
AcDbSymbolTableRecord
100
AcDbTextStyleTableRecord
  2
CONVERTER_1
 70
     0
 40
0.0
 41
0.9
 50
0.0
 71
     0
 42
0.2
  3
txt.shx
  4

  0
STYLE
  5
4C
330
3
100
AcDbSymbolTableRecord
100
AcDbTextStyleTableRecord
  2
CONVERTER_2
 70
     0
 40
0.0
 41
0.89
 50
0.0
 71
     0
 42
0.2
  3
MSMINCHO.TTC
  4

1001
ACAD
1000
MS Mincho
1071
    32785
  0
STYLE
  5
4E
330
3
100
AcDbSymbolTableRecord
100
AcDbTextStyleTableRecord
  2
CONVERTER_3
 70
     0
 40
0.0
 41
1.068
 50
0.0
 71
     0
 42
0.2
  3
msmincho.ttc
  4

1001
ACAD
1000
MS Mincho
1071
    32785
  0
STYLE
  5
54
330
3
100
AcDbSymbolTableRecord
100
AcDbTextStyleTableRecord
  2
CONVERTER_4
 70
     0
 40
0.0
 41
0.9025
 50
0.0
 71
     0
 42
0.2
  3
complex.shx
  4

  0
STYLE
  5
58
330
3
100
AcDbSymbolTableRecord
100
AcDbTextStyleTableRecord
  2
CONVERTER_5
 70
     0
 40
0.0
 41
0.801
 50
0.0
 71
     0
 42
0.2
  3
MSMINCHO.TTC
  4

1001
ACAD
1000
MS Mincho
1071
    32785
  0
ENDTAB
  0
TABLE
  2
VIEW
  5
6
330
0
100
AcDbSymbolTable
 70
     0
  0
ENDTAB
  0
TABLE
  2
UCS
  5
7
330
0
100
AcDbSymbolTable
 70
     0
  0
ENDTAB
  0
TABLE
  2
APPID
  5
9
330
0
100
AcDbSymbolTable
 70
     1
  0
APPID
  5
12
330
9
100
AcDbSymbolTableRecord
100
AcDbRegAppTableRecord
  2
ACAD
 70
     0
  0
ENDTAB
  0
TABLE
  2
DIMSTYLE
  5
A
330
0
100
AcDbSymbolTable
 70
    19
100
AcDbDimStyleTable
  0
DIMSTYLE
105
27
330
A
100
AcDbSymbolTableRecord
100
AcDbDimStyleTableRecord
  2
Standard
 70
     0
340
11
  0
DIMSTYLE
105
4D0
102
{ACAD_REACTORS
330
4D1
102
}
330
A
100
AcDbSymbolTableRecord
100
AcDbDimStyleTableRecord
  2
ME10_DIM_0
 70
     0
  3
<>
 41
19.2
 42
6.0
 44
6.0
 73
     0
 74
     0
 77
     1
 78
     8
140
19.2
147
4.2
172
     1
173
     1
176
     2
177
     2
178
     2
271
     2
340
4C
343
4CA
344
4CA
  0
DIMSTYLE
105
4DE
102
{ACAD_REACTORS
330
4DF
102
}
330
A
100
AcDbSymbolTableRecord
100
AcDbDimStyleTableRecord
  2
ME10_DIM_1
 70
     0
 41
19.2
 42
6.0
 44
6.0
 73
     0
 74
     0
 77
     1
 78
     8
140
19.2
147
4.2
172
     1
173
     1
176
     2
177
     2
178
     2
271
     2
340
4C
343
4CA
344
4CA
  0
DIMSTYLE
105
4ED
102
{ACAD_REACTORS
330
4EE
102
}
330
A
100
AcDbSymbolTableRecord
100
AcDbDimStyleTableRecord
  2
ME10_DIM_2
 70
     0
  3
<>
 41
19.2
 42
6.0
 44
6.0
 73
     0
 74
     0
 77
     1
 78
     8
140
19.2
147
4.2
172
     1
173
     1
176
     2
177
     2
178
     2
271
     2
340
4C
343
4CA
344
4CA
  0
DIMSTYLE
105
4FB
102
{ACAD_REACTORS
330
4FC
102
}
330
A
100
AcDbSymbolTableRecord
100
AcDbDimStyleTableRecord
  2
ME10_DIM_3
 70
     0
 41
19.2
 42
6.0
 44
6.0
 73
     0
 74
     0
 77
     1
 78
     8
140
19.2
147
4.2
172
     1
173
     1
176
     2
177
     2
178
     2
271
     2
340
4C
343
4CA
344
4CA
  0
DIMSTYLE
105
508
102
{ACAD_REACTORS
330
509
102
}
330
A
100
AcDbSymbolTableRecord
100
AcDbDimStyleTableRecord
  2
ME10_DIM_4
 70
     0
  3
<>
 41
19.2
 42
6.0
 44
6.0
 73
     0
 74
     0
 77
     1
 78
     8
140
19.2
147
4.2
172
     1
173
     1
176
     2
177
     2
178
     2
271
     2
340
4C
343
4CA
344
4CA
  0
DIMSTYLE
105
517
102
{ACAD_REACTORS
330
518
102
}
330
A
100
AcDbSymbolTableRecord
100
AcDbDimStyleTableRecord
  2
ME10_DIM_5
 70
     0
  3
<>
 41
19.20000000000001
 42
6.0
 44
6.0
 73
     0
 74
     0
 77
     1
 78
     8
140
19.20000000000001
147
4.2
172
     1
173
     1
176
     2
177
     2
178
     2
271
     2
340
4C
343
4CA
344
4CA
  0
DIMSTYLE
105
524
102
{ACAD_REACTORS
330
525
102
}
330
A
100
AcDbSymbolTableRecord
100
AcDbDimStyleTableRecord
  2
ME10_DIM_6
 70
     0
 41
19.2
 42
6.0
 44
6.0
 73
     0
 74
     0
 77
     1
 78
     8
140
19.2
147
4.2
172
     1
173
     1
176
     2
177
     2
178
     2
271
     2
340
4A
343
4CA
344
4CA
  0
DIMSTYLE
105
531
102
{ACAD_REACTORS
330
532
102
}
330
A
100
AcDbSymbolTableRecord
100
AcDbDimStyleTableRecord
  2
ME10_DIM_7
 70
     0
 41
19.2
 42
6.0
 44
6.0
 73
     0
 74
     0
 77
     1
 78
     8
140
19.2
147
4.2
172
     1
173
     1
176
     2
177
     2
178
     2
271
     2
340
4A
343
4CA
344
4CA
  0
DIMSTYLE
105
53E
102
{ACAD_REACTORS
330
53F
102
}
330
A
100
AcDbSymbolTableRecord
100
AcDbDimStyleTableRecord
  2
ME10_DIM_8
 70
     0
  3
<>
 41
19.2
 42
6.0
 44
6.0
 73
     0
 74
     0
 77
     1
 78
     8
140
19.2
147
4.2
172
     1
173
     1
176
     2
177
     2
178
     2
271
     2
340
4C
343
4CA
344
4CA
  0
DIMSTYLE
105
54B
102
{ACAD_REACTORS
330
54C
102
}
330
A
100
AcDbSymbolTableRecord
100
AcDbDimStyleTableRecord
  2
ME10_DIM_9
 70
     0
  3
<>
 41
19.2
 42
6.0
 44
6.0
 73
     0
 74
     0
 77
     1
 78
     8
140
19.2
147
4.2
172
     1
173
     1
176
     2
177
     2
178
     2
271
     2
340
4C
343
4CA
344
4CA
  0
DIMSTYLE
105
55A
102
{ACAD_REACTORS
330
55B
102
}
330
A
100
AcDbSymbolTableRecord
100
AcDbDimStyleTableRecord
  2
ME10_DIM_10
 70
     0
  3
外径{\Fgdt;n}<>
 41
19.20000000000001
 42
6.0
 44
6.0
 73
     0
 74
     0
 77
     1
 78
     8
140
19.20000000000001
147
4.2
172
     1
173
     1
176
     2
177
     2
178
     2
271
     2
340
4C
343
4CA
344
4CA
  0
DIMSTYLE
105
569
102
{ACAD_REACTORS
330
56A
102
}
330
A
100
AcDbSymbolTableRecord
100
AcDbDimStyleTableRecord
  2
ME10_DIM_11
 70
     0
  3
内径{\Fgdt;n}<>
 41
19.20000000000001
 42
6.0
 44
6.0
 73
     0
 74
     0
 77
     1
 78
     8
140
19.20000000000001
147
4.2
172
     1
173
     1
176
     2
177
     2
178
     2
271
     2
340
4C
343
4CA
344
4CA
  0
DIMSTYLE
105
578
102
{ACAD_REACTORS
330
579
102
}
330
A
100
AcDbSymbolTableRecord
100
AcDbDimStyleTableRecord
  2
ME10_DIM_12
 70
     0
  3
内径{\Fgdt;n}<>
 41
19.20000000000001
 42
6.0
 44
6.0
 73
     0
 74
     0
 77
     1
 78
     8
140
19.20000000000001
147
4.2
172
     1
173
     1
176
     2
177
     2
178
     2
271
     2
340
4C
343
4CA
344
4CA
  0
DIMSTYLE
105
585
102
{ACAD_REACTORS
330
586
102
}
330
A
100
AcDbSymbolTableRecord
100
AcDbDimStyleTableRecord
  2
ME10_DIM_13
 70
     0
  3
<>
 41
19.2
 42
6.0
 44
6.0
 73
     0
 74
     0
 77
     1
 78
     8
140
19.2
147
4.2
172
     1
173
     1
176
     2
177
     2
178
     2
271
     2
340
4C
343
4CA
344
4CA
  0
DIMSTYLE
105
592
102
{ACAD_REACTORS
330
593
102
}
330
A
100
AcDbSymbolTableRecord
100
AcDbDimStyleTableRecord
  2
ME10_DIM_14
 70
     0
  3
<>
 41
19.2
 42
6.0
 44
6.0
 73
     0
 74
     0
 77
     1
 78
     8
140
19.2
147
4.2
172
     1
173
     1
176
     2
177
     2
178
     2
271
     2
340
4C
343
4CA
344
4CA
  0
DIMSTYLE
105
5A1
102
{ACAD_REACTORS
330
5A2
102
}
330
A
100
AcDbSymbolTableRecord
100
AcDbDimStyleTableRecord
  2
ME10_DIM_15
 70
     0
  3
外径{\Fgdt;n}<>
 41
19.20000000000001
 42
6.0
 44
6.0
 73
     0
 74
     0
 77
     1
 78
     8
140
19.20000000000001
147
4.2
172
     1
173
     1
176
     2
177
     2
178
     2
271
     2
340
4C
343
4CA
344
4CA
  0
DIMSTYLE
105
5B0
102
{ACAD_REACTORS
330
5B1
102
}
330
A
100
AcDbSymbolTableRecord
100
AcDbDimStyleTableRecord
  2
ME10_DIM_16
 70
     0
  3
±15{\Fgdt;~}
 41
19.2
 42
6.0
 44
6.0
 73
     0
 74
     0
 77
     1
 78
     8
140
19.2
147
4.2
172
     1
173
     1
176
     2
177
     2
178
     2
271
     2
340
4C
343
4CA
344
4CA
  0
DIMSTYLE
105
5BF
102
{ACAD_REACTORS
330
5C0
102
}
330
A
100
AcDbSymbolTableRecord
100
AcDbDimStyleTableRecord
  2
ME10_DIM_17
 70
     0
  3
±15{\Fgdt;~}
 41
19.2
 42
6.0
 44
6.0
 73
     0
 74
     0
 77
     1
 78
     8
140
19.2
147
4.2
172
     1
173
     1
176
     2
177
     2
178
     2
271
     2
340
4C
343
4CA
344
4CA
  0
ENDTAB
  0
TABLE
  2
BLOCK_RECORD
  5
1
330
0
100
AcDbSymbolTable
 70
    21
  0
BLOCK_RECORD
  5
1F
330
1
100
AcDbSymbolTableRecord
100
AcDbBlockTableRecord
  2
*Model_Space
340
22
  0
BLOCK_RECORD
  5
1B
330
1
100
AcDbSymbolTableRecord
100
AcDbBlockTableRecord
  2
*Paper_Space
340
1E
  0
BLOCK_RECORD
  5
23
330
1
100
AcDbSymbolTableRecord
100
AcDbBlockTableRecord
  2
*Paper_Space0
340
26
  0
BLOCK_RECORD
  5
32
330
1
100
AcDbSymbolTableRecord
100
AcDbBlockTableRecord
  2
Zuwaku-A3-web
340
0
102
{BLKREFS
331
35
102
}
  0
BLOCK_RECORD
  5
4BF
330
1
100
AcDbSymbolTableRecord
100
AcDbBlockTableRecord
  2
*D02
340
0
  0
BLOCK_RECORD
  5
4CA
330
1
100
AcDbSymbolTableRecord
100
AcDbBlockTableRecord
  2
_Open30
340
0
  0
BLOCK_RECORD
  5
4D2
330
1
100
AcDbSymbolTableRecord
100
AcDbBlockTableRecord
  2
*D14
340
0
  0
BLOCK_RECORD
  5
4E0
330
1
100
AcDbSymbolTableRecord
100
AcDbBlockTableRecord
  2
*D25
340
0
  0
BLOCK_RECORD
  5
4EF
330
1
100
AcDbSymbolTableRecord
100
AcDbBlockTableRecord
  2
*D36
340
0
  0
BLOCK_RECORD
  5
4FD
330
1
100
AcDbSymbolTableRecord
100
AcDbBlockTableRecord
  2
*D47
340
0
  0
BLOCK_RECORD
  5
50A
330
1
100
AcDbSymbolTableRecord
100
AcDbBlockTableRecord
  2
*D58
340
0
  0
BLOCK_RECORD
  5
519
330
1
100
AcDbSymbolTableRecord
100
AcDbBlockTableRecord
  2
*D69
340
0
  0
BLOCK_RECORD
  5
526
330
1
100
AcDbSymbolTableRecord
100
AcDbBlockTableRecord
  2
*D710
340
0
  0
BLOCK_RECORD
  5
533
330
1
100
AcDbSymbolTableRecord
100
AcDbBlockTableRecord
  2
*D811
340
0
  0
BLOCK_RECORD
  5
540
330
1
100
AcDbSymbolTableRecord
100
AcDbBlockTableRecord
  2
*D912
340
0
  0
BLOCK_RECORD
  5
54D
330
1
100
AcDbSymbolTableRecord
100
AcDbBlockTableRecord
  2
*D1013
340
0
  0
BLOCK_RECORD
  5
55C
330
1
100
AcDbSymbolTableRecord
100
AcDbBlockTableRecord
  2
*D1114
340
0
  0
BLOCK_RECORD
  5
56B
330
1
100
AcDbSymbolTableRecord
100
AcDbBlockTableRecord
  2
*D1215
340
0
  0
BLOCK_RECORD
  5
57A
330
1
100
AcDbSymbolTableRecord
100
AcDbBlockTableRecord
  2
*D1316
340
0
  0
BLOCK_RECORD
  5
587
330
1
100
AcDbSymbolTableRecord
100
AcDbBlockTableRecord
  2
*D1417
340
0
  0
BLOCK_RECORD
  5
594
330
1
100
AcDbSymbolTableRecord
100
AcDbBlockTableRecord
  2
*D1518
340
0
  0
BLOCK_RECORD
  5
5A3
330
1
100
AcDbSymbolTableRecord
100
AcDbBlockTableRecord
  2
*D1619
340
0
  0
BLOCK_RECORD
  5
5B2
330
1
100
AcDbSymbolTableRecord
100
AcDbBlockTableRecord
  2
*D1720
340
0
  0
ENDTAB
  0
ENDSEC
  0
SECTION
  2
BLOCKS
  0
BLOCK
  5
20
330
1F
100
AcDbEntity
  8
0
100
AcDbBlockBegin
  2
*Model_Space
 70
     0
 71
     0
 10
0.0
 20
0.0
 30
0.0
  3
*Model_Space
  1

  0
ENDBLK
  5
21
330
1F
100
AcDbEntity
  8
0
100
AcDbBlockEnd
  0
BLOCK
  5
1C
330
1B
100
AcDbEntity
 67
     1
  8
0
100
AcDbBlockBegin
  2
*Paper_Space
 70
     0
 71
     0
 10
0.0
 20
0.0
 30
0.0
  3
*Paper_Space
  1

  0
ENDBLK
  5
1D
330
1B
100
AcDbEntity
 67
     1
  8
0
100
AcDbBlockEnd
  0
BLOCK
  5
24
330
23
100
AcDbEntity
  8
0
100
AcDbBlockBegin
  2
*Paper_Space0
 70
     0
 71
     0
 10
0.0
 20
0.0
 30
0.0
  3
*Paper_Space0
  1

  0
ENDBLK
  5
25
330
23
100
AcDbEntity
  8
0
100
AcDbBlockEnd
  0
BLOCK
  5
33
330
32
100
AcDbEntity
  8
0
100
AcDbBlockBegin
  2
Zuwaku-A3-web
 70
     0
 71
     0
 10
196.9999999999998
 20
134.0
 30
0.0
  3
Zuwaku-A3-web
  1

  0
LINE
  5
36
330
32
100
AcDbEntity
  8
1
  6
Continuous
 62
     4
100
AcDbLine
 10
295.0
 20
20.0
 30
0.0
 11
295.0
 21
0.0
 31
0.0
  0
LINE
  5
37
330
32
100
AcDbEntity
  8
1
  6
Continuous
 62
     4
100
AcDbLine
 10
394.0
 20
20.0
 30
0.0
 11
0.0
 21
20.0
 31
0.0
  0
LINE
  5
38
330
32
100
AcDbEntity
  8
1
  6
Continuous
 62
     4
100
AcDbLine
 10
173.7445771572093
 20
2.13397584248199
 30
0.0
 11
179.4766254722454
 21
7.866024157518
 31
0.0
  0
LINE
  5
39
330
32
100
AcDbEntity
  8
1
  6
Continuous
 62
     7
100
AcDbLine
 10
0.0
 20
268.0
 30
0.0
 11
0.0
 21
0.0
 31
0.0
  0
LINE
  5
3A
330
32
100
AcDbEntity
  8
1
  6
Continuous
 62
     4
100
AcDbLine
 10
66.0
 20
20.0
 30
0.0
 11
66.0
 21
0.0
 31
0.0
  0
LINE
  5
3B
330
32
100
AcDbEntity
  8
1
  6
Continuous
 62
     4
100
AcDbLine
 10
170.5
 20
10.0
 30
0.0
 11
170.5
 21
0.0
 31
0.0
  0
LINE
  5
3C
330
32
100
AcDbEntity
  8
1
  6
Continuous
 62
     4
100
AcDbLine
 10
227.0
 20
20.0
 30
0.0
 11
227.0
 21
0.0
 31
0.0
  0
LINE
  5
3D
330
32
100
AcDbEntity
  8
1
  6
Continuous
 62
     4
100
AcDbLine
 10
283.0
 20
20.0
 30
0.0
 11
283.0
 21
0.0
 31
0.0
  0
LINE
  5
3E
330
32
100
AcDbEntity
  8
1
  6
Continuous
 62
     4
100
AcDbLine
 10
162.5
 20
0.0
 30
0.0
 11
162.5
 21
20.0
 31
0.0
  0
LINE
  5
3F
330
32
100
AcDbEntity
  8
1
  6
Continuous
 62
     4
100
AcDbLine
 10
202.0
 20
0.0
 30
0.0
 11
202.0
 21
20.0
 31
0.0
  0
LINE
  5
40
330
32
100
AcDbEntity
  8
1
  6
Continuous
 62
     7
100
AcDbLine
 10
394.0
 20
0.0
 30
0.0
 11
393.9999999999996
 21
268.0
 31
0.0
  0
LINE
  5
41
330
32
100
AcDbEntity
  8
1
  6
Continuous
 62
     7
100
AcDbLine
 10
393.9999999999996
 20
268.0
 30
0.0
 11
0.0
 21
268.0
 31
0.0
  0
LINE
  5
42
330
32
100
AcDbEntity
  8
1
  6
Continuous
 62
     4
100
AcDbLine
 10
0.0
 20
10.0
 30
0.0
 11
394.0
 21
10.0
 31
0.0
  0
LINE
  5
43
330
32
100
AcDbEntity
  8
1
  6
Continuous
 62
     4
100
AcDbLine
 10
12.0
 20
20.0
 30
0.0
 11
12.0
 21
0.0
 31
0.0
  0
LINE
  5
44
330
32
100
AcDbEntity
  8
1
  6
Continuous
 62
     3
100
AcDbLine
 10
6.0
 20
19.0
 30
0.0
 11
2.5
 21
12.5
 31
0.0
  0
LINE
  5
45
330
32
100
AcDbEntity
  8
1
  6
Continuous
 62
     3
100
AcDbLine
 10
2.5
 20
12.5
 30
0.0
 11
9.5
 21
12.5
 31
0.0
  0
LINE
  5
46
330
32
100
AcDbEntity
  8
1
  6
Continuous
 62
     3
100
AcDbLine
 10
9.5
 20
12.5
 30
0.0
 11
6.0
 21
19.0
 31
0.0
  0
LINE
  5
47
330
32
100
AcDbEntity
  8
1
  6
Continuous
 62
     4
100
AcDbLine
 10
162.5
 20
15.0
 30
0.0
 11
202.0
 21
15.0
 31
0.0
  0
LINE
  5
48
330
32
100
AcDbEntity
  8
1
  6
Continuous
 62
     7
100
AcDbLine
 10
0.0
 20
0.0
 30
0.0
 11
394.0
 21
0.0
 31
0.0
  0
LINE
  5
49
330
32
100
AcDbEntity
  8
1
  6
Continuous
 62
     4
100
AcDbLine
 10
189.4945771572093
 20
2.13397584248199
 30
0.0
 11
195.2266254722454
 21
7.866024157518
 31
0.0
  0
MTEXT
  5
4B
330
32
100
AcDbEntity
  8
1
 62
     4
100
AcDbMText
 10
393.4565543923691
 20
-0.25615332095569
 30
0.0
 40
2.0
 41
0.0
 71
     3
 72
     1
  1
A3
  7
CONVERTER_1
 73
     1
 44
1.32052821128451
  0
MTEXT
  5
4D
330
32
100
AcDbEntity
  8
1
 62
     2
100
AcDbMText
 10
289.0
 20
15.0
 30
0.0
 40
4.0
 41
0.0
 71
     5
 72
     1
  1
図名
  7
CONVERTER_2
 73
     1
 44
1.32052821128451
  0
MTEXT
  5
4F
330
32
100
AcDbEntity
  8
1
 62
     2
100
AcDbMText
 10
289.0
 20
7.25
 30
0.0
 40
3.5
 41
0.0
 71
     5
 72
     1
  1
図面
  7
CONVERTER_3
 73
     1
 44
0.78031212484994
  0
MTEXT
  5
50
330
32
100
AcDbEntity
  8
1
 62
     2
100
AcDbMText
 10
182.25
 20
17.5
 30
0.0
 40
3.5
 41
0.0
 71
     5
 72
     1
  1
年　　月　　日
  7
CONVERTER_2
 73
     1
 44
0.78031212484994
  0
MTEXT
  5
51
330
32
100
AcDbEntity
  8
1
 62
     2
100
AcDbMText
 10
166.5
 20
7.25
 30
0.0
 40
3.5
 41
0.0
 71
     5
 72
     1
  1
尺
  7
CONVERTER_3
 73
     1
 44
0.78031212484994
  0
MTEXT
  5
52
330
32
100
AcDbEntity
  8
1
 62
     2
100
AcDbMText
 10
39.0
 20
5.0
 30
0.0
 40
3.5
 41
0.0
 71
     5
 72
     1
  1
改　 訂　 記　 事
  7
CONVERTER_2
 73
     1
 44
1.32052821128451
  0
MTEXT
  5
53
330
32
100
AcDbEntity
  8
1
 62
     2
100
AcDbMText
 10
6.0
 20
7.25
 30
0.0
 40
3.5
 41
0.0
 71
     5
 72
     1
  1
改訂
  7
CONVERTER_2
 73
     1
 44
0.78031212484994
  0
MTEXT
  5
55
330
32
100
AcDbEntity
  8
1
 62
     7
100
AcDbMText
 10
114.25
 20
5.0
 30
0.0
 40
4.0
 41
0.0
 71
     5
 72
     1
  1
MARUYASU KIKAI CO.,LTD.
  7
CONVERTER_4
 73
     1
 44
1.32052821128451
  0
MTEXT
  5
56
330
32
100
AcDbEntity
  8
1
 62
     2
100
AcDbMText
 10
189.75
 20
6.5
 30
0.0
 40
4.0
 41
0.0
 71
     5
 72
     1
  1
1
  7
CONVERTER_1
 73
     1
 44
1.32052821128451
  0
MTEXT
  5
57
330
32
100
AcDbEntity
  8
1
 62
     2
100
AcDbMText
 10
214.5
 20
5.0
 30
0.0
 40
4.0
 41
0.0
 71
     5
 72
     1
  1
機　種
  7
CONVERTER_2
 73
     1
 44
1.32052821128451
  0
MTEXT
  5
59
330
32
100
AcDbEntity
  8
1
 62
     2
100
AcDbMText
 10
214.5
 20
15.0
 30
0.0
 40
4.0
 41
0.0
 71
     5
 72
     1
  1
シリーズ名
  7
CONVERTER_5
 73
     1
 44
1.32052821128451
  0
MTEXT
  5
5A
330
32
100
AcDbEntity
  8
1
 62
     7
100
AcDbMText
 10
114.25
 20
15.0
 30
0.0
 40
5.0
 41
0.0
 71
     5
 72
     1
  1
技術情報サービス
  7
CONVERTER_2
 73
     1
 44
1.20048019207683
  0
MTEXT
  5
5B
330
32
100
AcDbEntity
  8
1
 62
     2
100
AcDbMText
 10
5.67807803017169
 20
2.75
 30
0.0
 40
3.5
 41
0.0
 71
     5
 72
     1
  1
番号
  7
CONVERTER_2
 73
     1
 44
0.78031212484994
  0
MTEXT
  5
5C
330
32
100
AcDbEntity
  8
1
 62
     2
100
AcDbMText
 10
166.5
 20
2.75
 30
0.0
 40
3.5
 41
0.0
 71
     5
 72
     1
  1
度
  7
CONVERTER_3
 73
     1
 44
0.78031212484994
  0
MTEXT
  5
5D
330
32
100
AcDbEntity
  8
1
 62
     2
100
AcDbMText
 10
289.0
 20
2.75
 30
0.0
 40
3.5
 41
0.0
 71
     5
 72
     1
  1
番号
  7
CONVERTER_3
 73
     1
 44
0.78031212484994
  0
MTEXT
  5
5E
330
32
100
AcDbEntity
  8
1
 62
     2
100
AcDbMText
 10
173.183432867907
 20
6.25
 30
0.0
 40
4.0
 41
0.0
 71
     5
 72
     1
  1
1
  7
CONVERTER_1
 73
     1
 44
0.60024009603842
  0
MTEXT
  5
5F
330
32
100
AcDbEntity
  8
1
 62
     2
100
AcDbMText
 10
180.9766254722454
 20
3.75
 30
0.0
 40
4.0
 41
0.0
 71
     5
 72
     1
  1
6
  7
CONVERTER_1
 73
     1
 44
0.60024009603842
  0
ENDBLK
  5
34
330
32
100
AcDbEntity
  8
0
100
AcDbBlockEnd
  0
BLOCK
  5
4C8
330
4BF
100
AcDbEntity
  8
0
100
AcDbBlockBegin
  2
*D02
 70
     1
 71
     0
 10
0.0
 20
0.0
 30
0.0
  3
*D02
  1

  0
LINE
  5
4C0
330
4BF
100
AcDbEntity
  8
1
  6
Continuous
 62
     2
100
AcDbLine
 10
2107.869390332656
 20
1211.36521769
 30
0.0
 11
2107.869390332656
 21
1361.36521769
 31
0.0
  0
LINE
  5
4C1
330
4BF
100
AcDbEntity
  8
1
  6
Continuous
 62
     2
100
AcDbLine
 10
1790.851441140149
 20
1361.36521769
 30
0.0
 11
2113.869390332656
 21
1361.36521769
 31
0.0
  0
LINE
  5
4C2
330
4BF
100
AcDbEntity
  8
1
  6
Continuous
 62
     2
100
AcDbLine
 10
1790.851441140149
 20
1211.36521769
 30
0.0
 11
2113.869390332656
 21
1211.36521769
 31
0.0
  0
LINE
  5
4C3
330
4BF
100
AcDbEntity
  8
1
 62
     2
100
AcDbLine
 10
2107.869390332656
 20
1211.36521769
 30
0.0
 11
2102.724765837979
 21
1230.56521769
 31
0.0
  0
LINE
  5
4C4
330
4BF
100
AcDbEntity
  8
1
 62
     2
100
AcDbLine
 10
2107.869390332656
 20
1211.36521769
 30
0.0
 11
2113.014014827334
 21
1230.56521769
 31
0.0
  0
LINE
  5
4C5
330
4BF
100
AcDbEntity
  8
1
 62
     2
100
AcDbLine
 10
2107.869390332656
 20
1361.36521769
 30
0.0
 11
2113.014014827334
 21
1342.16521769
 31
0.0
  0
LINE
  5
4C6
330
4BF
100
AcDbEntity
  8
1
 62
     2
100
AcDbLine
 10
2107.869390332656
 20
1361.36521769
 30
0.0
 11
2102.724765837979
 21
1342.16521769
 31
0.0
  0
MTEXT
  5
4C7
330
4BF
100
AcDbEntity
  8
1
 62
     2
100
AcDbMText
 10
2103.669390332656
 20
1235.523886315596
 30
0.0
 40
19.2
 41
0.0
 71
     7
 72
     1
  1
\C2;\C2;機幅(150)
  7
CONVERTER_2
 11
0.0
 21
1.0
 31
0.0
 73
     1
 44
0.60024009603842
  0
ENDBLK
  5
4C9
330
4BF
100
AcDbEntity
  8
0
100
AcDbBlockEnd
  0
BLOCK
  5
4CB
330
4CA
100
AcDbEntity
  8
0
100
AcDbBlockBegin
  2
_Open30
 70
     0
 71
     0
 10
0.0
 20
0.0
 30
0.0
  3
_Open30
  1

  0
LINE
  5
4CD
330
4CA
100
AcDbEntity
  8
0
  6
ByBlock
 62
     0
370
    -2
100
AcDbLine
 10
-1.0
 20
0.267949
 30
0.0
 11
0.0
 21
0.0
 31
0.0
  0
LINE
  5
4CE
330
4CA
100
AcDbEntity
  8
0
  6
ByBlock
 62
     0
370
    -2
100
AcDbLine
 10
0.0
 20
0.0
 30
0.0
 11
-1.0
 21
-0.267949
 31
0.0
  0
LINE
  5
4CF
330
4CA
100
AcDbEntity
  8
0
  6
ByBlock
 62
     0
370
    -2
100
AcDbLine
 10
0.0
 20
0.0
 30
0.0
 11
-1.0
 21
0.0
 31
0.0
  0
ENDBLK
  5
4CC
330
4CA
100
AcDbEntity
  8
0
100
AcDbBlockEnd
  0
BLOCK
  5
4DC
330
4D2
100
AcDbEntity
  8
0
100
AcDbBlockBegin
  2
*D14
 70
     1
 71
     0
 10
0.0
 20
0.0
 30
0.0
  3
*D14
  1

  0
LINE
  5
4D3
330
4D2
100
AcDbEntity
  8
1
  6
Continuous
 62
     2
100
AcDbLine
 10
2059.97754551477
 20
973.54398626587
 30
0.0
 11
2059.97754551477
 21
1245.365217689999
 31
0.0
  0
LINE
  5
4D4
330
4D2
100
AcDbEntity
  8
1
  6
Continuous
 62
     2
100
AcDbLine
 10
2059.97754551477
 20
1245.365217689999
 30
0.0
 11
2059.97754551477
 21
1327.36521769
 31
0.0
  0
LINE
  5
4D5
330
4D2
100
AcDbEntity
  8
1
  6
Continuous
 62
     2
100
AcDbLine
 10
1963.869390332656
 20
1327.36521769
 30
0.0
 11
2065.97754551477
 21
1327.36521769
 31
0.0
  0
LINE
  5
4D6
330
4D2
100
AcDbEntity
  8
1
  6
Continuous
 62
     2
100
AcDbLine
 10
1963.869390332656
 20
1245.365217689998
 30
0.0
 11
2065.97754551477
 21
1245.365217689998
 31
0.0
  0
LINE
  5
4D7
330
4D2
100
AcDbEntity
  8
1
 62
     2
100
AcDbLine
 10
2059.97754551477
 20
1245.365217689999
 30
0.0
 11
2054.832921020093
 21
1264.565217689999
 31
0.0
  0
LINE
  5
4D8
330
4D2
100
AcDbEntity
  8
1
 62
     2
100
AcDbLine
 10
2059.97754551477
 20
1245.365217689999
 30
0.0
 11
2065.122170009448
 21
1264.565217689999
 31
0.0
  0
LINE
  5
4D9
330
4D2
100
AcDbEntity
  8
1
 62
     2
100
AcDbLine
 10
2059.97754551477
 20
1327.36521769
 30
0.0
 11
2065.122170009448
 21
1308.16521769
 31
0.0
  0
LINE
  5
4DA
330
4D2
100
AcDbEntity
  8
1
 62
     2
100
AcDbLine
 10
2059.97754551477
 20
1327.36521769
 30
0.0
 11
2054.832921020093
 21
1308.16521769
 31
0.0
  0
MTEXT
  5
4DB
330
4D2
100
AcDbEntity
  8
1
 62
     2
100
AcDbMText
 10
2055.77754551477
 20
973.54398626587
 30
0.0
 40
19.2
 41
0.0
 71
     7
 72
     1
  1
投入側コンベヤ機幅(82)
  7
CONVERTER_2
 11
0.0
 21
1.0
 31
0.0
 73
     1
 44
0.60024009603842
  0
ENDBLK
  5
4DD
330
4D2
100
AcDbEntity
  8
0
100
AcDbBlockEnd
  0
BLOCK
  5
4EB
330
4E0
100
AcDbEntity
  8
0
100
AcDbBlockBegin
  2
*D25
 70
     1
 71
     0
 10
0.0
 20
0.0
 30
0.0
  3
*D25
  1

  0
LINE
  5
4E1
330
4E0
100
AcDbEntity
  8
1
  6
Continuous
 62
     2
100
AcDbLine
 10
2010.0343470483
 20
1093.11944701388
 30
0.0
 11
2010.0343470483
 21
1271.365217690001
 31
0.0
  0
LINE
  5
4E2
330
4E0
100
AcDbEntity
  8
1
  6
Continuous
 62
     2
100
AcDbLine
 10
2010.0343470483
 20
1271.365217690001
 30
0.0
 11
2010.0343470483
 21
1301.365217690001
 31
0.0
  0
LINE
  5
4E3
330
4E0
100
AcDbEntity
  8
1
  6
Continuous
 62
     2
100
AcDbLine
 10
2010.0343470483
 20
1301.365217690001
 30
0.0
 11
2010.0343470483
 21
1339.765217690001
 31
0.0
  0
LINE
  5
4E4
330
4E0
100
AcDbEntity
  8
1
  6
Continuous
 62
     2
100
AcDbLine
 10
1820.851441140095
 20
1301.365217690001
 30
0.0
 11
2016.0343470483
 21
1301.365217690001
 31
0.0
  0
LINE
  5
4E5
330
4E0
100
AcDbEntity
  8
1
  6
Continuous
 62
     2
100
AcDbLine
 10
1820.851441140095
 20
1271.365217690001
 30
0.0
 11
2016.0343470483
 21
1271.365217690001
 31
0.0
  0
LINE
  5
4E6
330
4E0
100
AcDbEntity
  8
1
 62
     2
100
AcDbLine
 10
2010.0343470483
 20
1271.365217690001
 30
0.0
 11
2015.178971542978
 21
1252.165217690001
 31
0.0
  0
LINE
  5
4E7
330
4E0
100
AcDbEntity
  8
1
 62
     2
100
AcDbLine
 10
2010.0343470483
 20
1271.365217690001
 30
0.0
 11
2004.889722553622
 21
1252.165217690001
 31
0.0
  0
LINE
  5
4E8
330
4E0
100
AcDbEntity
  8
1
 62
     2
100
AcDbLine
 10
2010.0343470483
 20
1301.365217690001
 30
0.0
 11
2004.889722553622
 21
1320.565217690001
 31
0.0
  0
LINE
  5
4E9
330
4E0
100
AcDbEntity
  8
1
 62
     2
100
AcDbLine
 10
2010.0343470483
 20
1301.365217690001
 30
0.0
 11
2015.178971542978
 21
1320.565217690001
 31
0.0
  0
MTEXT
  5
4EA
330
4E0
100
AcDbEntity
  8
1
 62
     2
100
AcDbMText
 10
2005.8343470483
 20
1093.11944701388
 30
0.0
 40
19.2
 41
0.0
 71
     7
 72
     1
  1
\C2;\C2;呼び幅(30)
  7
CONVERTER_2
 11
0.0
 21
1.0
 31
0.0
 73
     1
 44
0.60024009603842
  0
ENDBLK
  5
4EC
330
4E0
100
AcDbEntity
  8
0
100
AcDbBlockEnd
  0
BLOCK
  5
4F9
330
4EF
100
AcDbEntity
  8
0
100
AcDbBlockBegin
  2
*D36
 70
     1
 71
     0
 10
0.0
 20
0.0
 30
0.0
  3
*D36
  1

  0
LINE
  5
4F0
330
4EF
100
AcDbEntity
  8
1
  6
Continuous
 62
     2
100
AcDbLine
 10
813.249181230221
 20
976.86957998196
 30
0.0
 11
813.249181230221
 21
1245.365217689999
 31
0.0
  0
LINE
  5
4F1
330
4EF
100
AcDbEntity
  8
1
  6
Continuous
 62
     2
100
AcDbLine
 10
813.249181230221
 20
1245.365217689999
 30
0.0
 11
813.249181230221
 21
1327.36521769
 31
0.0
  0
LINE
  5
4F2
330
4EF
100
AcDbEntity
  8
1
  6
Continuous
 62
     2
100
AcDbLine
 10
717.3021104961564
 20
1327.36521769
 30
0.0
 11
819.249181230221
 21
1327.36521769
 31
0.0
  0
LINE
  5
4F3
330
4EF
100
AcDbEntity
  8
1
  6
Continuous
 62
     2
100
AcDbLine
 10
717.3021104961564
 20
1245.365217689998
 30
0.0
 11
819.249181230221
 21
1245.365217689998
 31
0.0
  0
LINE
  5
4F4
330
4EF
100
AcDbEntity
  8
1
 62
     2
100
AcDbLine
 10
813.249181230221
 20
1245.365217689999
 30
0.0
 11
808.1045567355434
 21
1264.565217689999
 31
0.0
  0
LINE
  5
4F5
330
4EF
100
AcDbEntity
  8
1
 62
     2
100
AcDbLine
 10
813.249181230221
 20
1245.365217689999
 30
0.0
 11
818.3938057248986
 21
1264.565217689999
 31
0.0
  0
LINE
  5
4F6
330
4EF
100
AcDbEntity
  8
1
 62
     2
100
AcDbLine
 10
813.249181230221
 20
1327.36521769
 30
0.0
 11
818.3938057248986
 21
1308.16521769
 31
0.0
  0
LINE
  5
4F7
330
4EF
100
AcDbEntity
  8
1
 62
     2
100
AcDbLine
 10
813.249181230221
 20
1327.36521769
 30
0.0
 11
808.1045567355434
 21
1308.16521769
 31
0.0
  0
MTEXT
  5
4F8
330
4EF
100
AcDbEntity
  8
1
 62
     2
100
AcDbMText
 10
809.0491812302211
 20
976.86957998196
 30
0.0
 40
19.2
 41
0.0
 71
     7
 72
     1
  1
投入側コンベヤ機幅(82)
  7
CONVERTER_2
 11
0.0
 21
1.0
 31
0.0
 73
     1
 44
0.60024009603842
  0
ENDBLK
  5
4FA
330
4EF
100
AcDbEntity
  8
0
100
AcDbBlockEnd
  0
BLOCK
  5
506
330
4FD
100
AcDbEntity
  8
0
100
AcDbBlockBegin
  2
*D47
 70
     1
 71
     0
 10
0.0
 20
0.0
 30
0.0
  3
*D47
  1

  0
LINE
  5
4FE
330
4FD
100
AcDbEntity
  8
1
  6
Continuous
 62
     2
100
AcDbLine
 10
861.3021104961566
 20
1361.365217690001
 30
0.0
 11
861.3021104961566
 21
1211.365217690001
 31
0.0
  0
LINE
  5
4FF
330
4FD
100
AcDbEntity
  8
1
  6
Continuous
 62
     2
100
AcDbLine
 10
545.5341613037004
 20
1211.365217690001
 30
0.0
 11
867.3021104961566
 21
1211.365217690001
 31
0.0
  0
LINE
  5
500
330
4FD
100
AcDbEntity
  8
1
  6
Continuous
 62
     2
100
AcDbLine
 10
545.5341613037004
 20
1361.365217690001
 30
0.0
 11
867.3021104961566
 21
1361.365217690001
 31
0.0
  0
LINE
  5
501
330
4FD
100
AcDbEntity
  8
1
 62
     2
100
AcDbLine
 10
861.3021104961566
 20
1361.365217690001
 30
0.0
 11
866.4467349908342
 21
1342.165217690001
 31
0.0
  0
LINE
  5
502
330
4FD
100
AcDbEntity
  8
1
 62
     2
100
AcDbLine
 10
861.3021104961566
 20
1361.365217690001
 30
0.0
 11
856.157486001479
 21
1342.165217690001
 31
0.0
  0
LINE
  5
503
330
4FD
100
AcDbEntity
  8
1
 62
     2
100
AcDbLine
 10
861.3021104961566
 20
1211.365217690001
 30
0.0
 11
856.157486001479
 21
1230.565217690001
 31
0.0
  0
LINE
  5
504
330
4FD
100
AcDbEntity
  8
1
 62
     2
100
AcDbLine
 10
861.3021104961566
 20
1211.365217690001
 30
0.0
 11
866.4467349908342
 21
1230.565217690001
 31
0.0
  0
MTEXT
  5
505
330
4FD
100
AcDbEntity
  8
1
 62
     2
100
AcDbMText
 10
857.1021104961567
 20
1236.606903930697
 30
0.0
 40
19.2
 41
0.0
 71
     7
 72
     1
  1
\C2;\C2;機幅(150)
  7
CONVERTER_2
 11
0.0
 21
1.0
 31
0.0
 73
     1
 44
0.60024009603842
  0
ENDBLK
  5
507
330
4FD
100
AcDbEntity
  8
0
100
AcDbBlockEnd
  0
BLOCK
  5
515
330
50A
100
AcDbEntity
  8
0
100
AcDbBlockBegin
  2
*D58
 70
     1
 71
     0
 10
0.0
 20
0.0
 30
0.0
  3
*D58
  1

  0
LINE
  5
50B
330
50A
100
AcDbEntity
  8
1
  6
Continuous
 62
     2
100
AcDbLine
 10
756.35313059034
 20
1090.79350783677
 30
0.0
 11
756.35313059034
 21
1271.36521769
 31
0.0
  0
LINE
  5
50C
330
50A
100
AcDbEntity
  8
1
  6
Continuous
 62
     2
100
AcDbLine
 10
756.35313059034
 20
1271.36521769
 30
0.0
 11
756.35313059034
 21
1301.36521769
 31
0.0
  0
LINE
  5
50D
330
50A
100
AcDbEntity
  8
1
  6
Continuous
 62
     2
100
AcDbLine
 10
756.35313059034
 20
1301.36521769
 30
0.0
 11
756.35313059034
 21
1339.76521769
 31
0.0
  0
LINE
  5
50E
330
50A
100
AcDbEntity
  8
1
  6
Continuous
 62
     2
100
AcDbLine
 10
575.5341613036454
 20
1301.36521769
 30
0.0
 11
762.35313059034
 21
1301.36521769
 31
0.0
  0
LINE
  5
50F
330
50A
100
AcDbEntity
  8
1
  6
Continuous
 62
     2
100
AcDbLine
 10
575.5341613036454
 20
1271.36521769
 30
0.0
 11
762.35313059034
 21
1271.36521769
 31
0.0
  0
LINE
  5
510
330
50A
100
AcDbEntity
  8
1
 62
     2
100
AcDbLine
 10
756.35313059034
 20
1271.36521769
 30
0.0
 11
761.4977550850176
 21
1252.16521769
 31
0.0
  0
LINE
  5
511
330
50A
100
AcDbEntity
  8
1
 62
     2
100
AcDbLine
 10
756.35313059034
 20
1271.36521769
 30
0.0
 11
751.2085060956624
 21
1252.16521769
 31
0.0
  0
LINE
  5
512
330
50A
100
AcDbEntity
  8
1
 62
     2
100
AcDbLine
 10
756.35313059034
 20
1301.36521769
 30
0.0
 11
751.2085060956624
 21
1320.56521769
 31
0.0
  0
LINE
  5
513
330
50A
100
AcDbEntity
  8
1
 62
     2
100
AcDbLine
 10
756.35313059034
 20
1301.36521769
 30
0.0
 11
761.4977550850176
 21
1320.56521769
 31
0.0
  0
MTEXT
  5
514
330
50A
100
AcDbEntity
  8
1
 62
     2
100
AcDbMText
 10
752.1531305903401
 20
1090.79350783677
 30
0.0
 40
19.20000000000001
 41
0.0
 71
     7
 72
     1
  1
\C2;\C2;呼び幅(30)
  7
CONVERTER_2
 11
0.0
 21
1.0
 31
0.0
 73
     1
 44
0.60024009603842
  0
ENDBLK
  5
516
330
50A
100
AcDbEntity
  8
0
100
AcDbBlockEnd
  0
BLOCK
  5
522
330
519
100
AcDbEntity
  8
0
100
AcDbBlockBegin
  2
*D69
 70
     1
 71
     0
 10
0.0
 20
0.0
 30
0.0
  3
*D69
  1

  0
LINE
  5
51A
330
519
100
AcDbEntity
  8
1
  6
Continuous
 62
     2
100
AcDbLine
 10
786.7261720049079
 20
862.5808014053101
 30
0.0
 11
739.2261720049443
 21
944.8532147648831
 31
0.0
  0
LINE
  5
51B
330
519
100
AcDbEntity
  8
1
  6
Continuous
 62
     2
100
AcDbLine
 10
564.6995516129333
 20
844.0902235009419
 30
0.0
 11
744.4223244276528
 21
947.8532147648799
 31
0.0
  0
LINE
  5
51C
330
519
100
AcDbEntity
  8
1
  6
Continuous
 62
     2
100
AcDbLine
 10
603.5392975750534
 20
756.8178101413763
 30
0.0
 11
791.9223244276165
 21
865.5808014053071
 31
0.0
  0
LINE
  5
51D
330
519
100
AcDbEntity
  8
1
 62
     2
100
AcDbLine
 10
786.7261720049079
 20
862.5808014053101
 30
0.0
 11
772.6707964995946
 21
876.6361769106418
 31
0.0
  0
LINE
  5
51E
330
519
100
AcDbEntity
  8
1
 62
     2
100
AcDbLine
 10
786.7261720049079
 20
862.5808014053101
 30
0.0
 11
781.5815475102429
 21
881.7808014053135
 31
0.0
  0
LINE
  5
51F
330
519
100
AcDbEntity
  8
1
 62
     2
100
AcDbLine
 10
739.2261720049443
 20
944.8532147648831
 30
0.0
 11
753.2815475102575
 21
930.7978392595514
 31
0.0
  0
LINE
  5
520
330
519
100
AcDbEntity
  8
1
 62
     2
100
AcDbLine
 10
739.2261720049443
 20
944.8532147648831
 30
0.0
 11
744.3707964996092
 21
925.6532147648798
 31
0.0
  0
MTEXT
  5
521
330
519
100
AcDbEntity
  8
1
 62
     2
100
AcDbMText
 10
762.1918322401126
 20
919.2355244081671
 30
0.0
 40
19.2
 41
0.0
 71
     7
 72
     1
  1
95
  7
CONVERTER_1
 11
0.499999999999479
 21
-0.8660254037847395
 31
0.0
 73
     1
 44
0.60024009603842
  0
ENDBLK
  5
523
330
519
100
AcDbEntity
  8
0
100
AcDbBlockEnd
  0
BLOCK
  5
52F
330
526
100
AcDbEntity
  8
0
100
AcDbBlockBegin
  2
*D710
 70
     1
 71
     0
 10
0.0
 20
0.0
 30
0.0
  3
*D710
  1

  0
LINE
  5
527
330
526
100
AcDbEntity
  8
1
  6
Continuous
 62
     2
100
AcDbLine
 10
1983.217125020276
 20
944.0874596177548
 30
0.0
 11
2030.717125020264
 21
861.8150462582305
 31
0.0
  0
LINE
  5
528
330
526
100
AcDbEntity
  8
1
  6
Continuous
 62
     2
100
AcDbLine
 10
1848.856577411529
 20
756.8178101413832
 30
0.0
 11
2035.913277442971
 21
864.8150462582298
 31
0.0
  0
LINE
  5
529
330
526
100
AcDbEntity
  8
1
  6
Continuous
 62
     2
100
AcDbLine
 10
1810.016831449395
 20
844.0902235009118
 30
0.0
 11
1988.413277442983
 21
947.0874596177541
 31
0.0
  0
LINE
  5
52A
330
526
100
AcDbEntity
  8
1
 62
     2
100
AcDbLine
 10
1983.217125020276
 20
944.0874596177548
 30
0.0
 11
1997.272500525597
 21
930.0320841124317
 31
0.0
  0
LINE
  5
52B
330
526
100
AcDbEntity
  8
1
 62
     2
100
AcDbLine
 10
1983.217125020276
 20
944.0874596177548
 30
0.0
 11
1988.361749514952
 21
924.8874596177545
 31
0.0
  0
LINE
  5
52C
330
526
100
AcDbEntity
  8
1
 62
     2
100
AcDbLine
 10
2030.717125020264
 20
861.8150462582305
 30
0.0
 11
2016.661749514942
 21
875.8704217635536
 31
0.0
  0
LINE
  5
52D
330
526
100
AcDbEntity
  8
1
 62
     2
100
AcDbLine
 10
2030.717125020264
 20
861.8150462582305
 30
0.0
 11
2025.572500525587
 21
881.0150462582308
 31
0.0
  0
MTEXT
  5
52E
330
526
100
AcDbEntity
  8
1
 62
     2
100
AcDbMText
 10
2004.018838674253
 20
922.2178346845592
 30
0.0
 40
19.2
 41
0.0
 71
     7
 72
     1
  1
95
  7
CONVERTER_1
 11
0.4999999999998947
 21
-0.8660254037844994
 31
0.0
 73
     1
 44
0.60024009603842
  0
ENDBLK
  5
530
330
526
100
AcDbEntity
  8
0
100
AcDbBlockEnd
  0
BLOCK
  5
53C
330
533
100
AcDbEntity
  8
0
100
AcDbBlockBegin
  2
*D811
 70
     1
 71
     0
 10
0.0
 20
0.0
 30
0.0
  3
*D811
  1

  0
LINE
  5
534
330
533
100
AcDbEntity
  8
1
  6
Continuous
 62
     2
100
AcDbLine
 10
1730.079123436908
 20
1030.546395219044
 30
0.0
 11
1421.774079689634
 21
852.5463952190826
 31
0.0
  0
LINE
  5
535
330
533
100
AcDbEntity
  8
1
  6
Continuous
 62
     2
100
AcDbLine
 10
1492.296397392823
 20
730.3981578896123
 30
0.0
 11
1418.774079689635
 21
857.7425476417893
 31
0.0
  0
LINE
  5
536
330
533
100
AcDbEntity
  8
1
  6
Continuous
 62
     2
100
AcDbLine
 10
1811.101441140095
 20
890.2116244101046
 30
0.0
 11
1727.079123436908
 21
1035.74254764175
 31
0.0
  0
LINE
  5
537
330
533
100
AcDbEntity
  8
1
 62
     2
100
AcDbLine
 10
1730.079123436908
 20
1030.546395219044
 30
0.0
 11
1716.023747931585
 21
1016.491019713722
 31
0.0
  0
LINE
  5
538
330
533
100
AcDbEntity
  8
1
 62
     2
100
AcDbLine
 10
1730.079123436908
 20
1030.546395219044
 30
0.0
 11
1710.879123436907
 21
1025.401770724367
 31
0.0
  0
LINE
  5
539
330
533
100
AcDbEntity
  8
1
 62
     2
100
AcDbLine
 10
1421.774079689634
 20
852.5463952190826
 30
0.0
 11
1435.829455194958
 21
866.601770724403
 31
0.0
  0
LINE
  5
53A
330
533
100
AcDbEntity
  8
1
 62
     2
100
AcDbLine
 10
1421.774079689634
 20
852.5463952190826
 30
0.0
 11
1440.974079689635
 21
857.6910197137573
 31
0.0
  0
MTEXT
  5
53B
330
533
100
AcDbEntity
  8
1
 62
     2
100
AcDbMText
 10
1504.0371951531
 20
908.2163068880038
 30
0.0
 40
19.2
 41
0.0
 71
     7
 72
     1
  1
\C2;\C2;実機長(356)
  7
CONVERTER_2
 11
0.8660254037844959
 21
0.4999999999999013
 31
0.0
 73
     1
 44
0.60024009603842
  0
ENDBLK
  5
53D
330
533
100
AcDbEntity
  8
0
100
AcDbBlockEnd
  0
BLOCK
  5
549
330
540
100
AcDbEntity
  8
0
100
AcDbBlockBegin
  2
*D912
 70
     1
 71
     0
 10
0.0
 20
0.0
 30
0.0
  3
*D912
  1

  0
LINE
  5
541
330
540
100
AcDbEntity
  8
1
  6
Continuous
 62
     2
100
AcDbLine
 10
499.5889000101514
 20
1004.865180190715
 30
0.0
 11
277.8863966413462
 21
876.8651801907099
 31
0.0
  0
LINE
  5
542
330
540
100
AcDbEntity
  8
1
  6
Continuous
 62
     2
100
AcDbLine
 10
333.5816579348382
 20
780.3981578895664
 30
0.0
 11
274.8863966413459
 21
882.0613326134164
 31
0.0
  0
LINE
  5
543
330
540
100
AcDbEntity
  8
1
  6
Continuous
 62
     2
100
AcDbLine
 10
565.7841613036444
 20
890.2116244101023
 30
0.0
 11
496.5889000101511
 21
1010.061332613422
 31
0.0
  0
LINE
  5
544
330
540
100
AcDbEntity
  8
1
 62
     2
100
AcDbLine
 10
499.5889000101514
 20
1004.865180190715
 30
0.0
 11
485.5335245048291
 21
990.8098046853928
 31
0.0
  0
LINE
  5
545
330
540
100
AcDbEntity
  8
1
 62
     2
100
AcDbLine
 10
499.5889000101514
 20
1004.865180190715
 30
0.0
 11
480.3889000101515
 21
999.7205556960377
 31
0.0
  0
LINE
  5
546
330
540
100
AcDbEntity
  8
1
 62
     2
100
AcDbLine
 10
277.8863966413462
 20
876.8651801907099
 30
0.0
 11
291.9417721466685
 21
890.9205556960325
 31
0.0
  0
LINE
  5
547
330
540
100
AcDbEntity
  8
1
 62
     2
100
AcDbLine
 10
277.8863966413462
 20
876.8651801907099
 30
0.0
 11
297.0863966413461
 21
882.0098046853876
 31
0.0
  0
MTEXT
  5
548
330
540
100
AcDbEntity
  8
1
 62
     2
100
AcDbMText
 10
329.2652454894692
 20
914.7040522155548
 30
0.0
 40
19.2
 41
0.0
 71
     7
 72
     1
  1
\C2;\C2;実機長(256)
  7
CONVERTER_2
 11
0.8660254037844186
 21
0.5000000000000348
 31
0.0
 73
     1
 44
0.60024009603842
  0
ENDBLK
  5
54A
330
540
100
AcDbEntity
  8
0
100
AcDbBlockEnd
  0
BLOCK
  5
558
330
54D
100
AcDbEntity
  8
0
100
AcDbBlockBegin
  2
*D1013
 70
     1
 71
     0
 10
0.0
 20
0.0
 30
0.0
  3
*D1013
  1

  0
LINE
  5
54E
330
54D
100
AcDbEntity
  8
1
  6
Continuous
 62
     2
100
AcDbLine
 10
1362.859686558647
 20
1143.269655356734
 30
0.0
 11
1362.859686558647
 21
1266.365217690002
 31
0.0
  0
LINE
  5
54F
330
54D
100
AcDbEntity
  8
1
  6
Continuous
 62
     2
100
AcDbLine
 10
1362.859686558647
 20
1266.365217690002
 30
0.0
 11
1362.859686558647
 21
1306.365217690002
 31
0.0
  0
LINE
  5
550
330
54D
100
AcDbEntity
  8
1
  6
Continuous
 62
     2
100
AcDbLine
 10
1362.859686558647
 20
1306.365217690002
 30
0.0
 11
1362.859686558647
 21
1344.765217690002
 31
0.0
  0
LINE
  5
551
330
54D
100
AcDbEntity
  8
1
  6
Continuous
 62
     2
100
AcDbLine
 10
1461.851441140095
 20
1306.365217690002
 30
0.0
 11
1356.859686558647
 21
1306.365217690002
 31
0.0
  0
LINE
  5
552
330
54D
100
AcDbEntity
  8
1
  6
Continuous
 62
     2
100
AcDbLine
 10
1461.851441140095
 20
1266.365217690002
 30
0.0
 11
1356.859686558647
 21
1266.365217690002
 31
0.0
  0
LINE
  5
553
330
54D
100
AcDbEntity
  8
1
 62
     2
100
AcDbLine
 10
1362.859686558647
 20
1266.365217690002
 30
0.0
 11
1368.004311053325
 21
1247.165217690002
 31
0.0
  0
LINE
  5
554
330
54D
100
AcDbEntity
  8
1
 62
     2
100
AcDbLine
 10
1362.859686558647
 20
1266.365217690002
 30
0.0
 11
1357.71506206397
 21
1247.165217690002
 31
0.0
  0
LINE
  5
555
330
54D
100
AcDbEntity
  8
1
 62
     2
100
AcDbLine
 10
1362.859686558647
 20
1306.365217690002
 30
0.0
 11
1357.71506206397
 21
1325.565217690002
 31
0.0
  0
LINE
  5
556
330
54D
100
AcDbEntity
  8
1
 62
     2
100
AcDbLine
 10
1362.859686558647
 20
1306.365217690002
 30
0.0
 11
1368.004311053325
 21
1325.565217690002
 31
0.0
  0
MTEXT
  5
557
330
54D
100
AcDbEntity
  8
1
 62
     2
100
AcDbMText
 10
1358.659686558647
 20
1125.989655356734
 30
0.0
 40
19.20000000000001
 41
0.0
 71
     7
 72
     1
  1
\C2;外径{\Fgdt;n}\C2;40
  7
CONVERTER_2
 11
0.0
 21
1.0
 31
0.0
 73
     1
 44
0.60024009603842
  0
ENDBLK
  5
559
330
54D
100
AcDbEntity
  8
0
100
AcDbBlockEnd
  0
BLOCK
  5
567
330
55C
100
AcDbEntity
  8
0
100
AcDbBlockBegin
  2
*D1114
 70
     1
 71
     0
 10
0.0
 20
0.0
 30
0.0
  3
*D1114
  1

  0
LINE
  5
55D
330
55C
100
AcDbEntity
  8
1
  6
Continuous
 62
     2
100
AcDbLine
 10
1411.259816273718
 20
1144.296697145872
 30
0.0
 11
1411.259816273718
 21
1269.36521769
 31
0.0
  0
LINE
  5
55E
330
55C
100
AcDbEntity
  8
1
  6
Continuous
 62
     2
100
AcDbLine
 10
1411.259816273718
 20
1269.36521769
 30
0.0
 11
1411.259816273718
 21
1303.36521769
 31
0.0
  0
LINE
  5
55F
330
55C
100
AcDbEntity
  8
1
  6
Continuous
 62
     2
100
AcDbLine
 10
1411.259816273718
 20
1303.36521769
 30
0.0
 11
1411.259816273718
 21
1341.76521769
 31
0.0
  0
LINE
  5
560
330
55C
100
AcDbEntity
  8
1
  6
Continuous
 62
     2
100
AcDbLine
 10
1461.851441140096
 20
1303.36521769
 30
0.0
 11
1405.259816273718
 21
1303.36521769
 31
0.0
  0
LINE
  5
561
330
55C
100
AcDbEntity
  8
1
  6
Continuous
 62
     2
100
AcDbLine
 10
1461.851441140096
 20
1269.36521769
 30
0.0
 11
1405.259816273718
 21
1269.36521769
 31
0.0
  0
LINE
  5
562
330
55C
100
AcDbEntity
  8
1
 62
     2
100
AcDbLine
 10
1411.259816273718
 20
1269.36521769
 30
0.0
 11
1416.404440768396
 21
1250.16521769
 31
0.0
  0
LINE
  5
563
330
55C
100
AcDbEntity
  8
1
 62
     2
100
AcDbLine
 10
1411.259816273718
 20
1269.36521769
 30
0.0
 11
1406.115191779041
 21
1250.16521769
 31
0.0
  0
LINE
  5
564
330
55C
100
AcDbEntity
  8
1
 62
     2
100
AcDbLine
 10
1411.259816273718
 20
1303.36521769
 30
0.0
 11
1406.115191779041
 21
1322.56521769
 31
0.0
  0
LINE
  5
565
330
55C
100
AcDbEntity
  8
1
 62
     2
100
AcDbLine
 10
1411.259816273718
 20
1303.36521769
 30
0.0
 11
1416.404440768396
 21
1322.56521769
 31
0.0
  0
MTEXT
  5
566
330
55C
100
AcDbEntity
  8
1
 62
     2
100
AcDbMText
 10
1407.059816273718
 20
1127.016697145872
 30
0.0
 40
19.20000000000001
 41
0.0
 71
     7
 72
     1
  1
\C2;内径{\Fgdt;n}\C2;34
  7
CONVERTER_2
 11
0.0
 21
1.0
 31
0.0
 73
     1
 44
0.60024009603842
  0
ENDBLK
  5
568
330
55C
100
AcDbEntity
  8
0
100
AcDbBlockEnd
  0
BLOCK
  5
576
330
56B
100
AcDbEntity
  8
0
100
AcDbBlockBegin
  2
*D1215
 70
     1
 71
     0
 10
0.0
 20
0.0
 30
0.0
  3
*D1215
  1

  0
LINE
  5
56C
330
56B
100
AcDbEntity
  8
1
  6
Continuous
 62
     2
100
AcDbLine
 10
270.2827251558675
 20
1145.897425642544
 30
0.0
 11
270.2827251558675
 21
1269.365217690002
 31
0.0
  0
LINE
  5
56D
330
56B
100
AcDbEntity
  8
1
  6
Continuous
 62
     2
100
AcDbLine
 10
270.2827251558675
 20
1269.365217690002
 30
0.0
 11
270.2827251558675
 21
1303.365217690002
 31
0.0
  0
LINE
  5
56E
330
56B
100
AcDbEntity
  8
1
  6
Continuous
 62
     2
100
AcDbLine
 10
270.2827251558675
 20
1303.365217690002
 30
0.0
 11
270.2827251558675
 21
1341.765217690002
 31
0.0
  0
LINE
  5
56F
330
56B
100
AcDbEntity
  8
1
  6
Continuous
 62
     2
100
AcDbLine
 10
316.5341613036454
 20
1303.365217690002
 30
0.0
 11
264.2827251558675
 21
1303.365217690002
 31
0.0
  0
LINE
  5
570
330
56B
100
AcDbEntity
  8
1
  6
Continuous
 62
     2
100
AcDbLine
 10
316.5341613036454
 20
1269.365217690002
 30
0.0
 11
264.2827251558675
 21
1269.365217690002
 31
0.0
  0
LINE
  5
571
330
56B
100
AcDbEntity
  8
1
 62
     2
100
AcDbLine
 10
270.2827251558675
 20
1269.365217690002
 30
0.0
 11
275.427349650545
 21
1250.165217690002
 31
0.0
  0
LINE
  5
572
330
56B
100
AcDbEntity
  8
1
 62
     2
100
AcDbLine
 10
270.2827251558675
 20
1269.365217690002
 30
0.0
 11
265.1381006611899
 21
1250.165217690002
 31
0.0
  0
LINE
  5
573
330
56B
100
AcDbEntity
  8
1
 62
     2
100
AcDbLine
 10
270.2827251558675
 20
1303.365217690002
 30
0.0
 11
265.1381006611899
 21
1322.565217690002
 31
0.0
  0
LINE
  5
574
330
56B
100
AcDbEntity
  8
1
 62
     2
100
AcDbLine
 10
270.2827251558675
 20
1303.365217690002
 30
0.0
 11
275.427349650545
 21
1322.565217690002
 31
0.0
  0
MTEXT
  5
575
330
56B
100
AcDbEntity
  8
1
 62
     2
100
AcDbMText
 10
266.0827251558673
 20
1128.617425642544
 30
0.0
 40
19.20000000000001
 41
0.0
 71
     7
 72
     1
  1
\C2;内径{\Fgdt;n}\C2;34
  7
CONVERTER_2
 11
0.0
 21
1.0
 31
0.0
 73
     1
 44
0.60024009603842
  0
ENDBLK
  5
577
330
56B
100
AcDbEntity
  8
0
100
AcDbBlockEnd
  0
BLOCK
  5
583
330
57A
100
AcDbEntity
  8
0
100
AcDbBlockBegin
  2
*D1316
 70
     1
 71
     0
 10
0.0
 20
0.0
 30
0.0
  3
*D1316
  1

  0
LINE
  5
57B
330
57A
100
AcDbEntity
  8
1
  6
Continuous
 62
     2
100
AcDbLine
 10
1720.766140599473
 20
946.6769546634851
 30
0.0
 11
1460.95851946413
 21
796.6769546635107
 31
0.0
  0
LINE
  5
57C
330
57A
100
AcDbEntity
  8
1
  6
Continuous
 62
     2
100
AcDbLine
 10
1507.992549815526
 20
715.211624410137
 30
0.0
 11
1457.95851946413
 21
801.8731070862177
 31
0.0
  0
LINE
  5
57D
330
57A
100
AcDbEntity
  8
1
  6
Continuous
 62
     2
100
AcDbLine
 10
1767.800170950872
 20
865.2116244101084
 30
0.0
 11
1717.766140599473
 21
951.873107086192
 31
0.0
  0
LINE
  5
57E
330
57A
100
AcDbEntity
  8
1
 62
     2
100
AcDbLine
 10
1720.766140599473
 20
946.6769546634851
 30
0.0
 11
1706.710765094148
 21
932.6215791581647
 31
0.0
  0
LINE
  5
57F
330
57A
100
AcDbEntity
  8
1
 62
     2
100
AcDbLine
 10
1720.766140599473
 20
946.6769546634851
 30
0.0
 11
1701.566140599472
 21
941.5323301688103
 31
0.0
  0
LINE
  5
580
330
57A
100
AcDbEntity
  8
1
 62
     2
100
AcDbLine
 10
1460.95851946413
 20
796.6769546635107
 30
0.0
 11
1475.013894969454
 21
810.7323301688311
 31
0.0
  0
LINE
  5
581
330
57A
100
AcDbEntity
  8
1
 62
     2
100
AcDbLine
 10
1460.95851946413
 20
796.6769546635107
 30
0.0
 11
1480.15851946413
 21
801.8215791581855
 31
0.0
  0
MTEXT
  5
582
330
57A
100
AcDbEntity
  8
1
 62
     2
100
AcDbMText
 10
1526.957540763488
 20
839.6312496381319
 30
0.0
 40
19.2
 41
0.0
 71
     7
 72
     1
  1
\C2;\C2;呼び機長(300)
  7
CONVERTER_2
 11
0.8660254037844856
 21
0.4999999999999187
 31
0.0
 73
     1
 44
0.60024009603842
  0
ENDBLK
  5
584
330
57A
100
AcDbEntity
  8
0
100
AcDbBlockEnd
  0
BLOCK
  5
590
330
587
100
AcDbEntity
  8
0
100
AcDbBlockBegin
  2
*D1417
 70
     1
 71
     0
 10
0.0
 20
0.0
 30
0.0
  3
*D1417
  1

  0
LINE
  5
588
330
587
100
AcDbEntity
  8
1
  6
Continuous
 62
     2
100
AcDbLine
 10
481.6541986062867
 20
935.9289942408127
 30
0.0
 11
308.4491178493953
 21
835.9289942408323
 31
0.0
  0
LINE
  5
589
330
587
100
AcDbEntity
  8
1
  6
Continuous
 62
     2
100
AcDbLine
 10
349.2778103575457
 20
765.2116244100937
 30
0.0
 11
305.4491178493959
 21
841.125146663539
 31
0.0
  0
LINE
  5
58A
330
587
100
AcDbEntity
  8
1
  6
Continuous
 62
     2
100
AcDbLine
 10
522.482891114423
 20
865.2116244100987
 30
0.0
 11
478.6541986062873
 21
941.1251466635196
 31
0.0
  0
LINE
  5
58B
330
587
100
AcDbEntity
  8
1
 62
     2
100
AcDbLine
 10
481.6541986062867
 20
935.9289942408127
 30
0.0
 11
467.5988231009627
 21
921.873618735492
 31
0.0
  0
LINE
  5
58C
330
587
100
AcDbEntity
  8
1
 62
     2
100
AcDbLine
 10
481.6541986062867
 20
935.9289942408127
 30
0.0
 11
462.4541986062861
 21
930.7843697461374
 31
0.0
  0
LINE
  5
58D
330
587
100
AcDbEntity
  8
1
 62
     2
100
AcDbLine
 10
308.4491178493953
 20
835.9289942408323
 30
0.0
 11
322.5044933547194
 21
849.984369746153
 31
0.0
  0
LINE
  5
58E
330
587
100
AcDbEntity
  8
1
 62
     2
100
AcDbLine
 10
308.4491178493953
 20
835.9289942408323
 30
0.0
 11
327.6491178493959
 21
841.0736187355076
 31
0.0
  0
MTEXT
  5
58F
330
587
100
AcDbEntity
  8
1
 62
     2
100
AcDbMText
 10
336.1155732077567
 20
856.7519719506939
 30
0.0
 40
19.2
 41
0.0
 71
     7
 72
     1
  1
\C2;\C2;呼び機長(200)
  7
CONVERTER_2
 11
0.8660254037844856
 21
0.4999999999999187
 31
0.0
 73
     1
 44
0.60024009603842
  0
ENDBLK
  5
591
330
587
100
AcDbEntity
  8
0
100
AcDbBlockEnd
  0
BLOCK
  5
59F
330
594
100
AcDbEntity
  8
0
100
AcDbBlockBegin
  2
*D1518
 70
     1
 71
     0
 10
0.0
 20
0.0
 30
0.0
  3
*D1518
  1

  0
LINE
  5
595
330
594
100
AcDbEntity
  8
1
  6
Continuous
 62
     2
100
AcDbLine
 10
226.4921316041386
 20
1143.179422662243
 30
0.0
 11
226.4921316041386
 21
1266.365217690001
 31
0.0
  0
LINE
  5
596
330
594
100
AcDbEntity
  8
1
  6
Continuous
 62
     2
100
AcDbLine
 10
226.4921316041386
 20
1266.365217690001
 30
0.0
 11
226.4921316041386
 21
1306.365217690001
 31
0.0
  0
LINE
  5
597
330
594
100
AcDbEntity
  8
1
  6
Continuous
 62
     2
100
AcDbLine
 10
226.4921316041386
 20
1306.365217690001
 30
0.0
 11
226.4921316041386
 21
1344.765217690001
 31
0.0
  0
LINE
  5
598
330
594
100
AcDbEntity
  8
1
  6
Continuous
 62
     2
100
AcDbLine
 10
316.5341613036459
 20
1306.365217690001
 30
0.0
 11
220.4921316041386
 21
1306.365217690001
 31
0.0
  0
LINE
  5
599
330
594
100
AcDbEntity
  8
1
  6
Continuous
 62
     2
100
AcDbLine
 10
316.5341613036459
 20
1266.365217690001
 30
0.0
 11
220.4921316041386
 21
1266.365217690001
 31
0.0
  0
LINE
  5
59A
330
594
100
AcDbEntity
  8
1
 62
     2
100
AcDbLine
 10
226.4921316041386
 20
1266.365217690001
 30
0.0
 11
231.6367560988162
 21
1247.16521769
 31
0.0
  0
LINE
  5
59B
330
594
100
AcDbEntity
  8
1
 62
     2
100
AcDbLine
 10
226.4921316041386
 20
1266.365217690001
 30
0.0
 11
221.3475071094611
 21
1247.16521769
 31
0.0
  0
LINE
  5
59C
330
594
100
AcDbEntity
  8
1
 62
     2
100
AcDbLine
 10
226.4921316041386
 20
1306.365217690001
 30
0.0
 11
221.3475071094611
 21
1325.565217690001
 31
0.0
  0
LINE
  5
59D
330
594
100
AcDbEntity
  8
1
 62
     2
100
AcDbLine
 10
226.4921316041386
 20
1306.365217690001
 30
0.0
 11
231.6367560988162
 21
1325.565217690001
 31
0.0
  0
MTEXT
  5
59E
330
594
100
AcDbEntity
  8
1
 62
     2
100
AcDbMText
 10
222.2921316041386
 20
1125.899422662243
 30
0.0
 40
19.20000000000001
 41
0.0
 71
     7
 72
     1
  1
\C2;外径{\Fgdt;n}\C2;40
  7
CONVERTER_2
 11
0.0
 21
1.0
 31
0.0
 73
     1
 44
0.60024009603842
  0
ENDBLK
  5
5A0
330
594
100
AcDbEntity
  8
0
100
AcDbBlockEnd
  0
BLOCK
  5
5AE
330
5A3
100
AcDbEntity
  8
0
100
AcDbBlockBegin
  2
*D1619
 70
     1
 71
     0
 10
0.0
 20
0.0
 30
0.0
  3
*D1619
  1

  0
LINE
  5
5A4
330
5A3
100
AcDbEntity
  8
1
  6
Continuous
 62
     2
100
AcDbLine
 10
708.0953952118605
 20
885.015471987396
 30
0.0
 11
714.0953952118605
 21
885.0154719873958
 31
0.0
  0
LINE
  5
5A5
330
5A3
100
AcDbEntity
  8
1
  6
Continuous
 62
     2
100
AcDbLine
 10
689.8331526893601
 20
953.1710889415101
 30
0.0
 11
695.0293051120666
 21
956.1710889415103
 31
0.0
  0
LINE
  5
5A6
330
5A3
100
AcDbEntity
  8
1
  6
Continuous
 62
     2
100
AcDbLine
 10
613.2841613036486
 20
885.015471987399
 30
0.0
 11
708.0953952118605
 21
885.015471987396
 31
0.0
  0
LINE
  5
5A7
330
5A3
100
AcDbEntity
  8
1
  6
Continuous
 62
     2
100
AcDbLine
 10
595.3829275618433
 20
898.6402260391116
 30
0.0
 11
689.8331526893601
 21
953.1710889415101
 31
0.0
  0
ARC
  5
5A8
330
5A3
100
AcDbEntity
  8
1
  6
Continuous
 62
     2
100
AcDbCircle
 10
571.7841613036521
 20
885.0154719874004
 30
0.0
 40
136.3112339082084
100
AcDbArc
 50
-12.10552059918964
 51
72.45401495157883
  0
LINE
  5
5A9
330
5A3
100
AcDbEntity
  8
1
 62
     2
100
AcDbLine
 10
708.0953952118605
 20
885.015471987396
 30
0.0
 11
711.8761842892674
 21
865.5010466783228
 31
0.0
  0
LINE
  5
5AA
330
5A3
100
AcDbEntity
  8
1
 62
     2
100
AcDbLine
 10
708.0953952118605
 20
885.015471987396
 30
0.0
 11
701.612441944709
 21
866.2250893907813
 31
0.0
  0
LINE
  5
5AB
330
5A3
100
AcDbEntity
  8
1
 62
     2
100
AcDbLine
 10
689.8331526893601
 20
953.1710889415101
 30
0.0
 11
674.8235591701517
 21
966.2025609834313
 31
0.0
  0
LINE
  5
5AC
330
5A3
100
AcDbEntity
  8
1
 62
     2
100
AcDbLine
 10
689.8331526893601
 20
953.1710889415101
 30
0.0
 11
683.350199422208
 21
971.9614715381248
 31
0.0
  0
MTEXT
  5
5AD
330
5A3
100
AcDbEntity
  8
1
 62
     2
100
AcDbMText
 10
617.1388341071828
 20
1028.46057685087
 30
0.0
 40
19.2
 41
0.0
 71
     7
 72
     1
  1
\C2;30{\Fgdt;~}\C2;±15{\Fgdt;~}
  7
CONVERTER_2
 11
0.782793057809854
 21
-0.6222821133896576
 31
0.0
 73
     1
 44
0.60024009603842
  0
ENDBLK
  5
5AF
330
5A3
100
AcDbEntity
  8
0
100
AcDbBlockEnd
  0
BLOCK
  5
5BD
330
5B2
100
AcDbEntity
  8
0
100
AcDbBlockBegin
  2
*D1720
 70
     1
 71
     0
 10
0.0
 20
0.0
 30
0.0
  3
*D1720
  1

  0
LINE
  5
5B3
330
5B2
100
AcDbEntity
  8
1
  6
Continuous
 62
     2
100
AcDbLine
 10
1962.682507445398
 20
885.0154719873952
 30
0.0
 11
1968.682507445398
 21
885.015471987395
 31
0.0
  0
LINE
  5
5B4
330
5B2
100
AcDbEntity
  8
1
  6
Continuous
 62
     2
100
AcDbLine
 10
1943.178342870523
 20
957.8060051400362
 30
0.0
 11
1948.37449529323
 21
960.8060051400355
 31
0.0
  0
LINE
  5
5B5
330
5B2
100
AcDbEntity
  8
1
  6
Continuous
 62
     2
100
AcDbLine
 10
1858.601441140095
 20
885.0154719873992
 30
0.0
 11
1962.682507445398
 21
885.0154719873952
 31
0.0
  0
LINE
  5
5B6
330
5B2
100
AcDbEntity
  8
1
  6
Continuous
 62
     2
100
AcDbLine
 10
1841.792194131142
 20
899.2706848732703
 30
0.0
 11
1943.178342870523
 21
957.8060051400362
 31
0.0
  0
ARC
  5
5B7
330
5B2
100
AcDbEntity
  8
1
  6
Continuous
 62
     2
100
AcDbCircle
 10
1817.101441140099
 20
885.0154719874008
 30
0.0
 40
145.5810663052994
100
AcDbArc
 50
-11.33470506745908
 51
75.06848458184115
  0
LINE
  5
5B8
330
5B2
100
AcDbEntity
  8
1
 62
     2
100
AcDbLine
 10
1962.682507445398
 20
885.0154719873952
 30
0.0
 11
1966.550769151021
 21
865.5181974966351
 31
0.0
  0
LINE
  5
5B9
330
5B2
100
AcDbEntity
  8
1
 62
     2
100
AcDbLine
 10
1962.682507445398
 20
885.0154719873952
 30
0.0
 11
1956.283883105574
 21
866.1962061210271
 31
0.0
  0
LINE
  5
5BA
330
5B2
100
AcDbEntity
  8
1
 62
     2
100
AcDbLine
 10
1943.178342870523
 20
957.8060051400362
 30
0.0
 11
1928.227338709782
 21
970.9046552909767
 31
0.0
  0
LINE
  5
5BB
330
5B2
100
AcDbEntity
  8
1
 62
     2
100
AcDbLine
 10
1943.178342870523
 20
957.8060051400362
 30
0.0
 11
1936.779718530705
 21
976.6252710064061
 31
0.0
  0
MTEXT
  5
5BC
330
5B2
100
AcDbEntity
  8
1
 62
     2
100
AcDbMText
 10
1858.105301771817
 20
1038.778890383478
 30
0.0
 40
19.2
 41
0.0
 71
     7
 72
     1
  1
\C2;30{\Fgdt;~}\C2;±15{\Fgdt;~}
  7
CONVERTER_2
 11
0.8223845192720732
 21
-0.5689320719221593
 31
0.0
 73
     1
 44
0.60024009603842
  0
ENDBLK
  5
5BE
330
5B2
100
AcDbEntity
  8
0
100
AcDbBlockEnd
  0
ENDSEC
  0
SECTION
  2
ENTITIES
  0
INSERT
  5
35
330
1F
100
AcDbEntity
  8
0
100
AcDbBlockReference
  2
Zuwaku-A3-web
 10
1181.999999999998
 20
803.9999999999998
 30
0.0
 41
6.0
 42
6.0
 43
6.0
  0
LINE
  5
60
330
1F
100
AcDbEntity
  8
1
  6
Continuous
 62
     7
100
AcDbLine
 10
1504.046397392816
 20
710.0465609006745
 30
0.0
 11
1504.296397392818
 21
709.6135481987838
 31
0.0
  0
LINE
  5
61
330
1F
100
AcDbEntity
  8
1
  6
Continuous
 62
     7
100
AcDbLine
 10
1503.430371989036
 20
709.1135481987845
 30
0.0
 11
1498.430371989035
 21
717.7738022366287
 31
0.0
  0
LINE
  5
62
330
1F
100
AcDbEntity
  8
1
  6
Continuous
 62
     7
100
AcDbLine
 10
345.331657934837
 20
760.0465609006294
 30
0.0
 11
345.5816579348376
 21
759.6135481987396
 31
0.0
  0
LINE
  5
63
330
1F
100
AcDbEntity
  8
1
  6
DASH_CENTER
 62
     3
100
AcDbLine
 10
95.19919281564137
 20
758.7164338817104
 30
0.0
 11
146.1991928156413
 21
758.7164338817104
 31
0.0
  0
LINE
  5
64
330
1F
100
AcDbEntity
  8
1
  6
Continuous
 62
     7
100
AcDbLine
 10
1595.004477768893
 20
704.1333858487591
 30
0.0
 11
1578.00447776889
 21
694.3184312725381
 31
0.0
  0
LINE
  5
65
330
1F
100
AcDbEntity
  8
1
  6
Continuous
 62
     7
100
AcDbLine
 10
1582.254477768891
 20
696.7721699165945
 30
0.0
 11
1585.874883079612
 21
690.5014439744288
 31
0.0
  0
LINE
  5
66
330
1F
100
AcDbEntity
  8
1
  6
DASHED
 62
     4
100
AcDbLine
 10
322.5341613036454
 20
1266.365217690001
 30
0.0
 11
403.5341613036513
 21
1266.365217690001
 31
0.0
  0
LINE
  5
67
330
1F
100
AcDbEntity
  8
1
  6
Continuous
 62
     7
100
AcDbLine
 10
1539.851441140097
 20
1211.36521769
 30
0.0
 11
1784.851441140149
 21
1211.36521769
 31
0.0
  0
LINE
  5
68
330
1F
100
AcDbEntity
  8
1
  6
DASH_CENTER
 62
     3
100
AcDbLine
 10
1754.888903777383
 20
887.5738003776637
 30
0.0
 11
1797.550285332832
 21
813.6831789233845
 31
0.0
  0
LINE
  5
69
330
1F
100
AcDbEntity
  8
1
  6
Continuous
 62
     7
100
AcDbLine
 10
345.5816579348376
 20
759.6135481987396
 30
0.0
 11
344.7156325310544
 21
759.1135481987401
 31
0.0
  0
LINE
  5
6A
330
1F
100
AcDbEntity
  8
1
  6
Continuous
 62
     7
100
AcDbLine
 10
344.7156325310544
 20
759.1135481987401
 30
0.0
 11
339.7156325310535
 21
767.7738022365838
 31
0.0
  0
LINE
  5
6B
330
1F
100
AcDbEntity
  8
1
  6
Continuous
 62
     7
100
AcDbLine
 10
339.7156325310535
 20
767.7738022365838
 30
0.0
 11
340.5816579348376
 21
768.2738022365829
 31
0.0
  0
LINE
  5
6C
330
1F
100
AcDbEntity
  8
1
  6
Continuous
 62
     7
100
AcDbLine
 10
344.5156325310546
 20
759.4599583602542
 30
0.0
 11
343.3897995061335
 21
758.8099583602541
 31
0.0
  0
LINE
  5
6D
330
1F
100
AcDbEntity
  8
1
  6
Continuous
 62
     7
100
AcDbLine
 10
338.7897995061354
 20
766.7773920750708
 30
0.0
 11
339.9156325310515
 21
767.4273920750698
 31
0.0
  0
LINE
  5
6E
330
1F
100
AcDbEntity
  8
1
  6
Continuous
 62
     7
100
AcDbLine
 10
336.0587105928872
 20
765.2223080126146
 30
0.0
 11
338.7803984293756
 21
766.7936752176613
 31
0.0
  0
LINE
  5
6F
330
1F
100
AcDbEntity
  8
1
  6
Continuous
 62
     7
100
AcDbLine
 10
338.7803984293756
 20
766.7936752176613
 30
0.0
 11
343.3992005828924
 21
758.7936752176627
 31
0.0
  0
LINE
  5
70
330
1F
100
AcDbEntity
  8
1
  6
Continuous
 62
     7
100
AcDbLine
 10
343.3992005828924
 20
758.7936752176627
 30
0.0
 11
340.6775127464044
 21
757.2223080126164
 31
0.0
  0
LINE
  5
71
330
1F
100
AcDbEntity
  8
1
  6
Continuous
 62
     7
100
AcDbLine
 10
339.8397995061324
 20
764.9587387271232
 30
0.0
 11
347.7206306805703
 21
769.5087387271233
 31
0.0
  0
LINE
  5
72
330
1F
100
AcDbEntity
  8
1
  6
Continuous
 62
     7
100
AcDbLine
 10
347.7206306805703
 20
769.5087387271233
 30
0.0
 11
348.9500535439784
 21
769.179315863717
 31
0.0
  0
LINE
  5
73
330
1F
100
AcDbEntity
  8
1
  6
Continuous
 62
     7
100
AcDbLine
 10
348.9500535439784
 20
769.179315863717
 30
0.0
 11
350.5500535439774
 21
766.4080345716072
 31
0.0
  0
LINE
  5
74
330
1F
100
AcDbEntity
  8
1
  6
Continuous
 62
     7
100
AcDbLine
 10
350.5500535439774
 20
766.4080345716072
 30
0.0
 11
350.2206306805716
 21
765.1786117082013
 31
0.0
  0
LINE
  5
75
330
1F
100
AcDbEntity
  8
1
  6
Continuous
 62
     7
100
AcDbLine
 10
350.2206306805716
 20
765.1786117082013
 30
0.0
 11
342.3397995061333
 21
760.6286117082013
 31
0.0
  0
LINE
  5
76
330
1F
100
AcDbEntity
  8
1
  6
Continuous
 62
     7
100
AcDbLine
 10
339.9350989677542
 20
764.7936752176609
 30
0.0
 11
337.2134111312676
 21
763.2223080126157
 31
0.0
  0
LINE
  5
77
330
1F
100
AcDbEntity
  8
1
  6
Continuous
 62
     7
100
AcDbLine
 10
342.2445000445133
 20
760.7936752176618
 30
0.0
 11
339.5228122080245
 21
759.2223080126164
 31
0.0
  0
LINE
  5
78
330
1F
100
AcDbEntity
  8
1
  6
Continuous
 62
     7
100
AcDbLine
 10
339.7907614004585
 20
758.0436752176624
 30
0.0
 11
336.3266597853186
 21
764.0436752176627
 31
0.0
  0
LINE
  5
79
330
1F
100
AcDbEntity
  8
1
  6
Continuous
 62
     7
100
AcDbLine
 10
340.4892995061325
 20
765.3337277269619
 30
0.0
 11
342.9892995061333
 21
761.0036007080399
 31
0.0
  0
LINE
  5
7A
330
1F
100
AcDbEntity
  8
1
  6
Continuous
 62
     3
100
AcDbLine
 10
339.8397995061324
 20
764.9587387271232
 30
0.0
 11
340.7057995061333
 21
764.9587387271231
 31
0.0
  0
LINE
  5
7B
330
1F
100
AcDbEntity
  8
1
  6
Continuous
 62
     3
100
AcDbLine
 10
340.7057995061333
 20
764.9587387271231
 30
0.0
 11
348.3121196804082
 21
769.3502497272839
 31
0.0
  0
LINE
  5
7C
330
1F
100
AcDbEntity
  8
1
  6
Continuous
 62
     3
100
AcDbLine
 10
347.7206306805703
 20
769.5087387271233
 30
0.0
 11
350.2206306805716
 21
765.1786117082013
 31
0.0
  0
LINE
  5
7D
330
1F
100
AcDbEntity
  8
1
  6
Continuous
 62
     3
100
AcDbLine
 10
350.3791196804106
 20
765.7701007080391
 30
0.0
 11
342.7727995061333
 21
761.3785897078781
 31
0.0
  0
LINE
  5
7E
330
1F
100
AcDbEntity
  8
1
  6
Continuous
 62
     3
100
AcDbLine
 10
342.7727995061333
 20
761.3785897078781
 30
0.0
 11
342.3397995061333
 21
760.6286117082013
 31
0.0
  0
LINE
  5
7F
330
1F
100
AcDbEntity
  8
1
  6
DASH_CENTER
 62
     3
100
AcDbLine
 10
349.7500535439773
 20
767.7936752176623
 30
0.0
 11
338.0587105928886
 21
761.0436752176621
 31
0.0
  0
LINE
  5
80
330
1F
100
AcDbEntity
  8
1
  6
DASH_CENTER
 62
     3
100
AcDbLine
 10
321.2341613036484
 20
1286.365217690001
 30
0.0
 11
307.7341613036484
 21
1286.365217690001
 31
0.0
  0
LINE
  5
81
330
1F
100
AcDbEntity
  8
1
  6
Continuous
 62
     3
100
AcDbLine
 10
311.9841393033254
 20
1284.298217690001
 30
0.0
 11
311.2341613036484
 21
1283.865217690001
 31
0.0
  0
LINE
  5
82
330
1F
100
AcDbEntity
  8
1
  6
Continuous
 62
     3
100
AcDbLine
 10
320.7671613036474
 20
1284.298217690001
 30
0.0
 11
311.9841393033254
 21
1284.298217690001
 31
0.0
  0
LINE
  5
83
330
1F
100
AcDbEntity
  8
1
  6
Continuous
 62
     3
100
AcDbLine
 10
320.3341613036474
 20
1288.865217690001
 30
0.0
 11
320.3341613036474
 21
1283.865217690001
 31
0.0
  0
LINE
  5
84
330
1F
100
AcDbEntity
  8
1
  6
Continuous
 62
     3
100
AcDbLine
 10
311.9841393033254
 20
1288.432217690001
 30
0.0
 11
320.7671613036474
 21
1288.432217690001
 31
0.0
  0
LINE
  5
85
330
1F
100
AcDbEntity
  8
1
  6
Continuous
 62
     3
100
AcDbLine
 10
311.2341613036484
 20
1288.865217690001
 30
0.0
 11
311.9841393033254
 21
1288.432217690001
 31
0.0
  0
LINE
  5
86
330
1F
100
AcDbEntity
  8
1
  6
Continuous
 62
     7
100
AcDbLine
 10
311.9841393033254
 20
1288.865217690001
 30
0.0
 11
311.9841393033254
 21
1283.865217690001
 31
0.0
  0
LINE
  5
87
330
1F
100
AcDbEntity
  8
1
  6
Continuous
 62
     7
100
AcDbLine
 10
307.7341613036484
 20
1282.901116074863
 30
0.0
 11
307.7341613036484
 21
1289.829319305138
 31
0.0
  0
LINE
  5
88
330
1F
100
AcDbEntity
  8
1
  6
Continuous
 62
     7
100
AcDbLine
 10
311.2341613036484
 20
1284.055816613241
 30
0.0
 11
308.0914268935554
 21
1284.055816613241
 31
0.0
  0
LINE
  5
89
330
1F
100
AcDbEntity
  8
1
  6
Continuous
 62
     7
100
AcDbLine
 10
311.2341613036484
 20
1288.674618766758
 30
0.0
 11
308.0914268935554
 21
1288.674618766758
 31
0.0
  0
LINE
  5
8A
330
1F
100
AcDbEntity
  8
1
  6
Continuous
 62
     7
100
AcDbLine
 10
320.3341613036474
 20
1283.865217690001
 30
0.0
 11
311.2341613036484
 21
1283.865217690001
 31
0.0
  0
LINE
  5
8B
330
1F
100
AcDbEntity
  8
1
  6
Continuous
 62
     7
100
AcDbLine
 10
321.2341613036484
 20
1284.765217690001
 30
0.0
 11
320.3341613036474
 21
1283.865217690001
 31
0.0
  0
LINE
  5
8C
330
1F
100
AcDbEntity
  8
1
  6
Continuous
 62
     7
100
AcDbLine
 10
321.2341613036484
 20
1287.96521769
 30
0.0
 11
321.2341613036484
 21
1284.765217690001
 31
0.0
  0
LINE
  5
8D
330
1F
100
AcDbEntity
  8
1
  6
Continuous
 62
     7
100
AcDbLine
 10
320.3341613036474
 20
1288.865217690001
 30
0.0
 11
321.2341613036484
 21
1287.96521769
 31
0.0
  0
LINE
  5
8E
330
1F
100
AcDbEntity
  8
1
  6
Continuous
 62
     7
100
AcDbLine
 10
311.2341613036484
 20
1288.865217690001
 30
0.0
 11
320.3341613036474
 21
1288.865217690001
 31
0.0
  0
LINE
  5
8F
330
1F
100
AcDbEntity
  8
1
  6
Continuous
 62
     7
100
AcDbLine
 10
311.2341613036484
 20
1281.746415536484
 30
0.0
 11
308.0914268935554
 21
1281.746415536484
 31
0.0
  0
LINE
  5
90
330
1F
100
AcDbEntity
  8
1
  6
Continuous
 62
     7
100
AcDbLine
 10
308.0914268935554
 20
1290.984019843517
 30
0.0
 11
311.2341613036484
 21
1290.984019843517
 31
0.0
  0
LINE
  5
91
330
1F
100
AcDbEntity
  8
1
  6
Continuous
 62
     6
100
AcDbLine
 10
312.5341613036495
 20
1283.815217690001
 30
0.0
 11
311.2341613036484
 21
1283.815217690001
 31
0.0
  0
LINE
  5
92
330
1F
100
AcDbEntity
  8
1
  6
Continuous
 62
     6
100
AcDbLine
 10
312.5341613036495
 20
1288.91521769
 30
0.0
 11
311.2341613036484
 21
1288.91521769
 31
0.0
  0
LINE
  5
93
330
1F
100
AcDbEntity
  8
1
  6
Continuous
 62
     7
100
AcDbLine
 10
311.2341613036484
 20
1290.96521769
 30
0.0
 11
312.5341613036495
 21
1290.96521769
 31
0.0
  0
LINE
  5
94
330
1F
100
AcDbEntity
  8
1
  6
Continuous
 62
     7
100
AcDbLine
 10
312.5341613036495
 20
1281.765217690001
 30
0.0
 11
311.2341613036484
 21
1281.765217690001
 31
0.0
  0
LINE
  5
95
330
1F
100
AcDbEntity
  8
1
  6
Continuous
 62
     6
100
AcDbLine
 10
313.5341613036495
 20
1283.71521769
 30
0.0
 11
312.5341613036495
 21
1283.71521769
 31
0.0
  0
LINE
  5
96
330
1F
100
AcDbEntity
  8
1
  6
Continuous
 62
     6
100
AcDbLine
 10
313.5341613036495
 20
1289.015217690001
 30
0.0
 11
312.5341613036495
 21
1289.015217690001
 31
0.0
  0
LINE
  5
97
330
1F
100
AcDbEntity
  8
1
  6
Continuous
 62
     7
100
AcDbLine
 10
312.5341613036495
 20
1291.365217690001
 30
0.0
 11
313.5341613036495
 21
1291.365217690001
 31
0.0
  0
LINE
  5
98
330
1F
100
AcDbEntity
  8
1
  6
Continuous
 62
     7
100
AcDbLine
 10
312.5341613036495
 20
1281.365217690001
 30
0.0
 11
312.5341613036495
 21
1291.365217690001
 31
0.0
  0
LINE
  5
99
330
1F
100
AcDbEntity
  8
1
  6
Continuous
 62
     7
100
AcDbLine
 10
313.5341613036495
 20
1281.365217690001
 30
0.0
 11
312.5341613036495
 21
1281.365217690001
 31
0.0
  0
LINE
  5
9A
330
1F
100
AcDbEntity
  8
1
  6
Continuous
 62
     7
100
AcDbLine
 10
313.5341613036495
 20
1291.365217690001
 30
0.0
 11
313.5341613036495
 21
1281.365217690001
 31
0.0
  0
LINE
  5
9B
330
1F
100
AcDbEntity
  8
1
  6
Continuous
 62
     7
100
AcDbLine
 10
558.7904481472043
 20
865.9250909306311
 30
0.0
 11
562.2545497623433
 21
859.9250909306302
 31
0.0
  0
LINE
  5
9C
330
1F
100
AcDbEntity
  8
1
  6
Continuous
 62
     7
100
AcDbLine
 10
561.3677984163957
 20
860.7464581356779
 30
0.0
 11
558.6461105799073
 21
859.1750909306311
 31
0.0
  0
LINE
  5
9D
330
1F
100
AcDbEntity
  8
1
  6
Continuous
 62
     7
100
AcDbLine
 10
559.0583973396366
 20
864.7464581356763
 30
0.0
 11
556.3367095031496
 21
863.1750909306305
 31
0.0
  0
LINE
  5
9E
330
1F
100
AcDbEntity
  8
1
  6
Continuous
 62
     7
100
AcDbLine
 10
562.5224989547743
 20
858.746458135677
 30
0.0
 11
559.8008111182863
 21
857.1750909306309
 31
0.0
  0
LINE
  5
9F
330
1F
100
AcDbEntity
  8
1
  6
Continuous
 62
     7
100
AcDbLine
 10
559.8008111182863
 20
857.1750909306309
 30
0.0
 11
555.1820089647687
 21
865.1750909306298
 31
0.0
  0
LINE
  5
A0
330
1F
100
AcDbEntity
  8
1
  6
Continuous
 62
     7
100
AcDbLine
 10
555.1820089647687
 20
865.1750909306298
 30
0.0
 11
557.9036968012584
 21
866.7464581356777
 31
0.0
  0
LINE
  5
A1
330
1F
100
AcDbEntity
  8
1
  6
Continuous
 62
     7
100
AcDbLine
 10
558.7664100415274
 20
858.9667261509808
 30
0.0
 11
557.6405770166076
 21
858.3167261509811
 31
0.0
  0
LINE
  5
A2
330
1F
100
AcDbEntity
  8
1
  6
Continuous
 62
     7
100
AcDbLine
 10
556.2164100415263
 20
863.3834557102815
 30
0.0
 11
555.0905770166074
 21
862.7334557102804
 31
0.0
  0
LINE
  5
A3
330
1F
100
AcDbEntity
  8
1
  6
Continuous
 62
     7
100
AcDbLine
 10
554.0655770166064
 20
864.5088077880399
 30
0.0
 11
555.1914100415285
 21
865.1588077880407
 31
0.0
  0
LINE
  5
A4
330
1F
100
AcDbEntity
  8
1
  6
Continuous
 62
     7
100
AcDbLine
 10
555.1914100415285
 20
865.1588077880407
 30
0.0
 11
559.7914100415275
 21
857.1913740732224
 31
0.0
  0
LINE
  5
A5
330
1F
100
AcDbEntity
  8
1
  6
Continuous
 62
     7
100
AcDbLine
 10
559.7914100415275
 20
857.1913740732224
 30
0.0
 11
558.6655770166086
 21
856.5413740732229
 31
0.0
  0
LINE
  5
A6
330
1F
100
AcDbEntity
  8
1
  6
Continuous
 62
     7
100
AcDbLine
 10
558.6655770166086
 20
856.5413740732229
 30
0.0
 11
554.0655770166064
 21
864.5088077880399
 31
0.0
  0
LINE
  5
A7
330
1F
100
AcDbEntity
  8
1
  6
Continuous
 62
     7
100
AcDbLine
 10
557.6905770166082
 20
858.2301236106024
 30
0.0
 11
556.8245516128224
 21
857.7301236106025
 31
0.0
  0
LINE
  5
A8
330
1F
100
AcDbEntity
  8
1
  6
Continuous
 62
     7
100
AcDbLine
 10
555.0405770166063
 20
862.8200582506604
 30
0.0
 11
554.1745516128236
 21
862.3200582506595
 31
0.0
  0
LINE
  5
A9
330
1F
100
AcDbEntity
  8
1
  6
Continuous
 62
     7
100
AcDbLine
 10
552.9995516128234
 20
864.3552179495534
 30
0.0
 11
553.8655770166075
 21
864.8552179495515
 31
0.0
  0
LINE
  5
AA
330
1F
100
AcDbEntity
  8
1
  6
Continuous
 62
     7
100
AcDbLine
 10
553.8655770166075
 20
864.8552179495515
 30
0.0
 11
558.8655770166084
 21
856.1949639117073
 31
0.0
  0
LINE
  5
AB
330
1F
100
AcDbEntity
  8
1
  6
Continuous
 62
     7
100
AcDbLine
 10
558.8655770166084
 20
856.1949639117073
 30
0.0
 11
557.9995516128234
 21
855.6949639117083
 31
0.0
  0
LINE
  5
AC
330
1F
100
AcDbEntity
  8
1
  6
Continuous
 62
     7
100
AcDbLine
 10
1804.182856853052
 20
856.194963911712
 30
0.0
 11
1803.316831449268
 21
855.6949639117123
 31
0.0
  0
LINE
  5
AD
330
1F
100
AcDbEntity
  8
1
  6
Continuous
 62
     7
100
AcDbLine
 10
1799.182856853053
 20
864.8552179495569
 30
0.0
 11
1804.182856853052
 21
856.194963911712
 31
0.0
  0
LINE
  5
AE
330
1F
100
AcDbEntity
  8
1
  6
Continuous
 62
     7
100
AcDbLine
 10
1798.316831449269
 20
864.3552179495584
 30
0.0
 11
1799.182856853053
 21
864.8552179495569
 31
0.0
  0
LINE
  5
AF
330
1F
100
AcDbEntity
  8
1
  6
Continuous
 62
     7
100
AcDbLine
 10
1800.357856853053
 20
862.8200582506643
 30
0.0
 11
1799.49183144927
 21
862.3200582506637
 31
0.0
  0
LINE
  5
B0
330
1F
100
AcDbEntity
  8
1
  6
Continuous
 62
     7
100
AcDbLine
 10
1803.007856853053
 20
858.2301236106059
 30
0.0
 11
1802.141831449269
 21
857.7301236106059
 31
0.0
  0
LINE
  5
B1
330
1F
100
AcDbEntity
  8
1
  6
Continuous
 62
     7
100
AcDbLine
 10
1805.108689877972
 20
857.1913740732255
 30
0.0
 11
1803.982856853053
 21
856.5413740732259
 31
0.0
  0
LINE
  5
B2
330
1F
100
AcDbEntity
  8
1
  6
Continuous
 62
     7
100
AcDbLine
 10
1800.508689877973
 20
865.1588077880444
 30
0.0
 11
1805.108689877972
 21
857.1913740732255
 31
0.0
  0
LINE
  5
B3
330
1F
100
AcDbEntity
  8
1
  6
Continuous
 62
     7
100
AcDbLine
 10
1799.382856853053
 20
864.508807788043
 30
0.0
 11
1800.508689877973
 21
865.1588077880444
 31
0.0
  0
LINE
  5
B4
330
1F
100
AcDbEntity
  8
1
  6
Continuous
 62
     7
100
AcDbLine
 10
1801.533689877974
 20
863.3834557102839
 30
0.0
 11
1800.407856853054
 21
862.733455710284
 31
0.0
  0
LINE
  5
B5
330
1F
100
AcDbEntity
  8
1
  6
Continuous
 62
     7
100
AcDbLine
 10
1804.083689877973
 20
858.9667261509844
 30
0.0
 11
1802.957856853053
 21
858.3167261509844
 31
0.0
  0
LINE
  5
B6
330
1F
100
AcDbEntity
  8
1
  6
Continuous
 62
     7
100
AcDbLine
 10
1800.499288801216
 20
865.1750909306336
 30
0.0
 11
1803.220976637705
 21
866.746458135681
 31
0.0
  0
LINE
  5
B7
330
1F
100
AcDbEntity
  8
1
  6
Continuous
 62
     7
100
AcDbLine
 10
1807.83977879122
 20
858.7464581356798
 30
0.0
 11
1805.118090954731
 21
857.1750909306337
 31
0.0
  0
LINE
  5
B8
330
1F
100
AcDbEntity
  8
1
  6
Continuous
 62
     7
100
AcDbLine
 10
1804.375677176083
 20
864.7464581356796
 30
0.0
 11
1801.653989339595
 21
863.1750909306345
 31
0.0
  0
LINE
  5
B9
330
1F
100
AcDbEntity
  8
1
  6
Continuous
 62
     7
100
AcDbLine
 10
1806.685078252841
 20
860.746458135681
 30
0.0
 11
1803.963390416352
 21
859.1750909306345
 31
0.0
  0
LINE
  5
BA
330
1F
100
AcDbEntity
  8
1
  6
Continuous
 62
     7
100
AcDbLine
 10
1804.107727983651
 20
865.9250909306337
 30
0.0
 11
1807.571829598788
 21
859.9250909306343
 31
0.0
  0
LINE
  5
BB
330
1F
100
AcDbEntity
  8
1
  6
Continuous
 62
     7
100
AcDbLine
 10
1458.851441140098
 20
1281.365217690001
 30
0.0
 11
1457.851441140098
 21
1281.365217690001
 31
0.0
  0
LINE
  5
BC
330
1F
100
AcDbEntity
  8
1
  6
Continuous
 62
     7
100
AcDbLine
 10
1457.851441140098
 20
1281.365217690001
 30
0.0
 11
1457.851441140098
 21
1291.365217690001
 31
0.0
  0
LINE
  5
BD
330
1F
100
AcDbEntity
  8
1
  6
Continuous
 62
     7
100
AcDbLine
 10
1457.851441140098
 20
1291.365217690001
 30
0.0
 11
1458.851441140098
 21
1291.365217690001
 31
0.0
  0
LINE
  5
BE
330
1F
100
AcDbEntity
  8
1
  6
Continuous
 62
     6
100
AcDbLine
 10
1458.851441140098
 20
1289.015217690001
 30
0.0
 11
1457.851441140098
 21
1289.015217690001
 31
0.0
  0
LINE
  5
BF
330
1F
100
AcDbEntity
  8
1
  6
Continuous
 62
     6
100
AcDbLine
 10
1458.851441140098
 20
1283.715217689999
 30
0.0
 11
1457.851441140098
 21
1283.715217689999
 31
0.0
  0
LINE
  5
C0
330
1F
100
AcDbEntity
  8
1
  6
Continuous
 62
     7
100
AcDbLine
 10
1457.851441140098
 20
1281.765217690001
 30
0.0
 11
1456.551441140098
 21
1281.765217690001
 31
0.0
  0
LINE
  5
C1
330
1F
100
AcDbEntity
  8
1
  6
Continuous
 62
     7
100
AcDbLine
 10
1456.551441140098
 20
1290.965217689999
 30
0.0
 11
1457.851441140098
 21
1290.965217689999
 31
0.0
  0
LINE
  5
C2
330
1F
100
AcDbEntity
  8
1
  6
Continuous
 62
     6
100
AcDbLine
 10
1457.851441140098
 20
1288.91521769
 30
0.0
 11
1456.551441140098
 21
1288.91521769
 31
0.0
  0
LINE
  5
C3
330
1F
100
AcDbEntity
  8
1
  6
Continuous
 62
     6
100
AcDbLine
 10
1457.851441140098
 20
1283.815217690001
 30
0.0
 11
1456.551441140098
 21
1283.815217690001
 31
0.0
  0
LINE
  5
C4
330
1F
100
AcDbEntity
  8
1
  6
Continuous
 62
     7
100
AcDbLine
 10
1453.408706730005
 20
1290.984019843517
 30
0.0
 11
1456.551441140098
 21
1290.984019843517
 31
0.0
  0
LINE
  5
C5
330
1F
100
AcDbEntity
  8
1
  6
Continuous
 62
     7
100
AcDbLine
 10
1456.551441140098
 20
1290.984019843517
 30
0.0
 11
1456.551441140098
 21
1281.746415536484
 31
0.0
  0
LINE
  5
C6
330
1F
100
AcDbEntity
  8
1
  6
Continuous
 62
     7
100
AcDbLine
 10
1456.551441140098
 20
1281.746415536484
 30
0.0
 11
1453.408706730005
 21
1281.746415536484
 31
0.0
  0
LINE
  5
C7
330
1F
100
AcDbEntity
  8
1
  6
Continuous
 62
     7
100
AcDbLine
 10
1456.551441140098
 20
1288.865217690001
 30
0.0
 11
1465.651441140097
 21
1288.865217690001
 31
0.0
  0
LINE
  5
C8
330
1F
100
AcDbEntity
  8
1
  6
Continuous
 62
     7
100
AcDbLine
 10
1465.651441140097
 20
1288.865217690001
 30
0.0
 11
1466.551441140097
 21
1287.965217689999
 31
0.0
  0
LINE
  5
C9
330
1F
100
AcDbEntity
  8
1
  6
Continuous
 62
     7
100
AcDbLine
 10
1466.551441140097
 20
1287.965217689999
 30
0.0
 11
1466.551441140097
 21
1284.765217690001
 31
0.0
  0
LINE
  5
CA
330
1F
100
AcDbEntity
  8
1
  6
Continuous
 62
     7
100
AcDbLine
 10
1466.551441140097
 20
1284.765217690001
 30
0.0
 11
1465.651441140097
 21
1283.865217690001
 31
0.0
  0
LINE
  5
CB
330
1F
100
AcDbEntity
  8
1
  6
Continuous
 62
     7
100
AcDbLine
 10
1465.651441140097
 20
1283.865217690001
 30
0.0
 11
1456.551441140098
 21
1283.865217690001
 31
0.0
  0
LINE
  5
CC
330
1F
100
AcDbEntity
  8
1
  6
Continuous
 62
     7
100
AcDbLine
 10
1456.551441140098
 20
1288.674618766758
 30
0.0
 11
1453.408706730005
 21
1288.674618766758
 31
0.0
  0
LINE
  5
CD
330
1F
100
AcDbEntity
  8
1
  6
Continuous
 62
     7
100
AcDbLine
 10
1456.551441140098
 20
1284.055816613241
 30
0.0
 11
1453.408706730005
 21
1284.055816613241
 31
0.0
  0
LINE
  5
CE
330
1F
100
AcDbEntity
  8
1
  6
Continuous
 62
     7
100
AcDbLine
 10
1453.051441140098
 20
1282.901116074864
 30
0.0
 11
1453.051441140098
 21
1289.829319305138
 31
0.0
  0
LINE
  5
CF
330
1F
100
AcDbEntity
  8
1
  6
Continuous
 62
     7
100
AcDbLine
 10
1457.301419139775
 20
1288.865217690001
 30
0.0
 11
1457.301419139775
 21
1283.865217690001
 31
0.0
  0
LINE
  5
D0
330
1F
100
AcDbEntity
  8
1
  6
Continuous
 62
     3
100
AcDbLine
 10
1456.551441140098
 20
1288.865217690001
 30
0.0
 11
1457.301419139775
 21
1288.432217690001
 31
0.0
  0
LINE
  5
D1
330
1F
100
AcDbEntity
  8
1
  6
Continuous
 62
     3
100
AcDbLine
 10
1457.301419139775
 20
1288.432217690001
 30
0.0
 11
1466.084441140097
 21
1288.432217690001
 31
0.0
  0
LINE
  5
D2
330
1F
100
AcDbEntity
  8
1
  6
Continuous
 62
     3
100
AcDbLine
 10
1465.651441140097
 20
1288.865217690001
 30
0.0
 11
1465.651441140097
 21
1283.865217690001
 31
0.0
  0
LINE
  5
D3
330
1F
100
AcDbEntity
  8
1
  6
Continuous
 62
     3
100
AcDbLine
 10
1466.084441140097
 20
1284.298217690001
 30
0.0
 11
1457.301419139775
 21
1284.298217690001
 31
0.0
  0
LINE
  5
D4
330
1F
100
AcDbEntity
  8
1
  6
Continuous
 62
     3
100
AcDbLine
 10
1457.301419139775
 20
1284.298217690001
 30
0.0
 11
1456.551441140098
 21
1283.865217690001
 31
0.0
  0
LINE
  5
D5
330
1F
100
AcDbEntity
  8
1
  6
DASH_CENTER
 62
     3
100
AcDbLine
 10
1508.464793001961
 20
717.7936752177058
 30
0.0
 11
1496.77345005087
 21
711.0436752177071
 31
0.0
  0
LINE
  5
D6
330
1F
100
AcDbEntity
  8
1
  6
Continuous
 62
     3
100
AcDbLine
 10
1501.487538964114
 20
711.3785897079225
 30
0.0
 11
1501.054538964115
 21
710.6286117082457
 31
0.0
  0
LINE
  5
D7
330
1F
100
AcDbEntity
  8
1
  6
Continuous
 62
     3
100
AcDbLine
 10
1509.093859138392
 20
715.7701007080824
 30
0.0
 11
1501.487538964114
 21
711.3785897079225
 31
0.0
  0
LINE
  5
D8
330
1F
100
AcDbEntity
  8
1
  6
Continuous
 62
     3
100
AcDbLine
 10
1506.435370138554
 20
719.5087387271667
 30
0.0
 11
1508.935370138554
 21
715.1786117082444
 31
0.0
  0
LINE
  5
D9
330
1F
100
AcDbEntity
  8
1
  6
Continuous
 62
     3
100
AcDbLine
 10
1499.420538964115
 20
714.9587387271675
 30
0.0
 11
1507.026859138392
 21
719.3502497273277
 31
0.0
  0
LINE
  5
DA
330
1F
100
AcDbEntity
  8
1
  6
Continuous
 62
     3
100
AcDbLine
 10
1498.554538964117
 20
714.9587387271679
 30
0.0
 11
1499.420538964115
 21
714.9587387271675
 31
0.0
  0
LINE
  5
DB
330
1F
100
AcDbEntity
  8
1
  6
Continuous
 62
     7
100
AcDbLine
 10
1499.204038964115
 20
715.333727727006
 30
0.0
 11
1501.704038964115
 21
711.0036007080842
 31
0.0
  0
LINE
  5
DC
330
1F
100
AcDbEntity
  8
1
  6
Continuous
 62
     7
100
AcDbLine
 10
1498.50550085844
 20
708.0436752177074
 30
0.0
 11
1495.041399243301
 21
714.0436752177076
 31
0.0
  0
LINE
  5
DD
330
1F
100
AcDbEntity
  8
1
  6
Continuous
 62
     7
100
AcDbLine
 10
1500.959239502495
 20
710.7936752177062
 30
0.0
 11
1498.237551666005
 21
709.2223080126611
 31
0.0
  0
LINE
  5
DE
330
1F
100
AcDbEntity
  8
1
  6
Continuous
 62
     7
100
AcDbLine
 10
1498.649838425738
 20
714.7936752177062
 30
0.0
 11
1495.92815058925
 21
713.2223080126606
 31
0.0
  0
LINE
  5
DF
330
1F
100
AcDbEntity
  8
1
  6
Continuous
 62
     7
100
AcDbLine
 10
1508.935370138554
 20
715.1786117082444
 30
0.0
 11
1501.054538964115
 21
710.6286117082457
 31
0.0
  0
LINE
  5
E0
330
1F
100
AcDbEntity
  8
1
  6
Continuous
 62
     7
100
AcDbLine
 10
1509.264793001959
 20
716.4080345716506
 30
0.0
 11
1508.935370138554
 21
715.1786117082444
 31
0.0
  0
LINE
  5
E1
330
1F
100
AcDbEntity
  8
1
  6
Continuous
 62
     7
100
AcDbLine
 10
1507.664793001961
 20
719.1793158637597
 30
0.0
 11
1509.264793001959
 21
716.4080345716506
 31
0.0
  0
LINE
  5
E2
330
1F
100
AcDbEntity
  8
1
  6
Continuous
 62
     7
100
AcDbLine
 10
1506.435370138554
 20
719.5087387271667
 30
0.0
 11
1507.664793001961
 21
719.1793158637597
 31
0.0
  0
LINE
  5
E3
330
1F
100
AcDbEntity
  8
1
  6
Continuous
 62
     7
100
AcDbLine
 10
1498.554538964117
 20
714.9587387271679
 30
0.0
 11
1506.435370138554
 21
719.5087387271667
 31
0.0
  0
LINE
  5
E4
330
1F
100
AcDbEntity
  8
1
  6
Continuous
 62
     7
100
AcDbLine
 10
1502.113940040874
 20
708.7936752177066
 30
0.0
 11
1499.392252204385
 21
707.2223080126609
 31
0.0
  0
LINE
  5
E5
330
1F
100
AcDbEntity
  8
1
  6
Continuous
 62
     7
100
AcDbLine
 10
1494.77345005087
 20
715.2223080126609
 30
0.0
 11
1497.495137887358
 21
716.793675217707
 31
0.0
  0
LINE
  5
E6
330
1F
100
AcDbEntity
  8
1
  6
Continuous
 62
     7
100
AcDbLine
 10
1497.504538964116
 20
716.7773920751149
 30
0.0
 11
1498.630371989034
 21
717.427392075114
 31
0.0
  0
LINE
  5
E7
330
1F
100
AcDbEntity
  8
1
  6
Continuous
 62
     7
100
AcDbLine
 10
1502.104538964115
 20
708.8099583602982
 30
0.0
 11
1497.504538964116
 21
716.7773920751149
 31
0.0
  0
LINE
  5
E8
330
1F
100
AcDbEntity
  8
1
  6
Continuous
 62
     7
100
AcDbLine
 10
1503.230371989035
 20
709.4599583602982
 30
0.0
 11
1502.104538964115
 21
708.8099583602982
 31
0.0
  0
LINE
  5
E9
330
1F
100
AcDbEntity
  8
1
  6
Continuous
 62
     7
100
AcDbLine
 10
1498.430371989035
 20
717.7738022366287
 30
0.0
 11
1499.29639739282
 21
718.2738022366281
 31
0.0
  0
LINE
  5
EA
330
1F
100
AcDbEntity
  8
1
  6
Continuous
 62
     7
100
AcDbLine
 10
1504.296397392818
 20
709.6135481987838
 30
0.0
 11
1503.430371989036
 21
709.1135481987845
 31
0.0
  0
LINE
  5
EB
330
1F
100
AcDbEntity
  8
1
  6
Continuous
 62
     7
100
AcDbLine
 10
311.2341613036484
 20
1281.765217690001
 30
0.0
 11
311.2341613036484
 21
1290.96521769
 31
0.0
  0
LINE
  5
EC
330
1F
100
AcDbEntity
  8
1
  6
Continuous
 62
     7
100
AcDbLine
 10
1539.847987833296
 20
1308.865217690001
 30
0.0
 11
1548.851441140102
 21
1308.865217690001
 31
0.0
  0
LINE
  5
ED
330
1F
100
AcDbEntity
  8
1
  6
Continuous
 62
     7
100
AcDbLine
 10
1509.848391762416
 20
1263.865217690001
 30
0.0
 11
1461.851441140097
 21
1263.865217690001
 31
0.0
  0
LINE
  5
EE
330
1F
100
AcDbEntity
  8
1
  6
Continuous
 62
     7
100
AcDbLine
 10
1749.847995123358
 20
1263.865217690001
 30
0.0
 11
1747.851441140097
 21
1263.865217690001
 31
0.0
  0
LINE
  5
EF
330
1F
100
AcDbEntity
  8
1
  6
Continuous
 62
     7
100
AcDbLine
 10
1779.847591194238
 20
1265.365217690001
 30
0.0
 11
1784.851441140095
 21
1265.365217690001
 31
0.0
  0
LINE
  5
F0
330
1F
100
AcDbEntity
  8
1
  6
Continuous
 62
     7
100
AcDbLine
 10
1779.847591194238
 20
1307.365217690001
 30
0.0
 11
1784.851441140098
 21
1307.365217690001
 31
0.0
  0
LINE
  5
F1
330
1F
100
AcDbEntity
  8
1
  6
Continuous
 62
     7
100
AcDbLine
 10
1779.847591194238
 20
1308.865217690001
 30
0.0
 11
1784.851441140098
 21
1308.865217690001
 31
0.0
  0
LINE
  5
F2
330
1F
100
AcDbEntity
  8
1
  6
DASHED
 62
     4
100
AcDbLine
 10
1548.213859576989
 20
735.5466570821228
 30
0.0
 11
1574.194621690996
 21
750.5466570823929
 31
0.0
  0
LINE
  5
F3
330
1F
100
AcDbEntity
  8
1
  6
Continuous
 62
     7
100
AcDbLine
 10
1574.194621690996
 20
750.5466570823929
 30
0.0
 11
1581.988683733425
 21
755.0465609006693
 31
0.0
  0
LINE
  5
F4
330
1F
100
AcDbEntity
  8
1
  6
Continuous
 62
     7
100
AcDbLine
 10
1787.130184241902
 20
841.7307966357473
 30
0.0
 11
1800.120679026561
 21
849.2308622965753
 31
0.0
  0
LINE
  5
F5
330
1F
100
AcDbEntity
  8
1
  6
Continuous
 62
     7
100
AcDbLine
 10
516.4924161954133
 20
845.5872145657179
 30
0.0
 11
514.7604592500962
 21
844.5872687571142
 31
0.0
  0
LINE
  5
F6
330
1F
100
AcDbEntity
  8
1
  6
Continuous
 62
     7
100
AcDbLine
 10
380.7486175331765
 20
800.7018114802504
 30
0.0
 11
339.1797341461925
 21
776.7020054668612
 31
0.0
  0
LINE
  5
F7
330
1F
100
AcDbEntity
  8
1
  6
Continuous
 62
     7
100
AcDbLine
 10
1761.809659755309
 20
845.5871936214533
 30
0.0
 11
1760.077739086539
 21
844.5872687571239
 31
0.0
  0
LINE
  5
F8
330
1F
100
AcDbEntity
  8
1
  6
Continuous
 62
     7
100
AcDbLine
 10
1539.46377229916
 20
750.7020512584744
 30
0.0
 11
1497.894473604175
 21
726.7020054669056
 31
0.0
  0
LINE
  5
F9
330
1F
100
AcDbEntity
  8
1
  6
Continuous
 62
     7
100
AcDbLine
 10
2220.323752488544
 20
877.2164338817202
 30
0.0
 11
2211.283093260005
 21
877.2164338817202
 31
0.0
  0
LINE
  5
FA
330
1F
100
AcDbEntity
  8
1
  6
Continuous
 62
     7
100
AcDbLine
 10
2245.323752488544
 20
877.2164338817202
 30
0.0
 11
2254.364411717081
 21
877.2164338817202
 31
0.0
  0
LINE
  5
FB
330
1F
100
AcDbEntity
  8
1
  6
DOT_CENTER
 62
     3
100
AcDbLine
 10
2235.073752488544
 20
870.2164338817202
 30
0.0
 11
2242.573752488544
 21
870.2164338817202
 31
0.0
  0
LINE
  5
FC
330
1F
100
AcDbEntity
  8
1
  6
DOT_CENTER
 62
     3
100
AcDbLine
 10
2238.823752488544
 20
866.4664338817202
 30
0.0
 11
2238.823752488544
 21
873.9664338817202
 31
0.0
  0
LINE
  5
FD
330
1F
100
AcDbEntity
  8
1
  6
DOT_CENTER
 62
     3
100
AcDbLine
 10
2226.823752488544
 20
866.4664338817202
 30
0.0
 11
2226.823752488544
 21
873.9664338817202
 31
0.0
  0
LINE
  5
FE
330
1F
100
AcDbEntity
  8
1
  6
DOT_CENTER
 62
     3
100
AcDbLine
 10
2223.073752488544
 20
870.2164338817202
 30
0.0
 11
2230.573752488544
 21
870.2164338817202
 31
0.0
  0
LINE
  5
FF
330
1F
100
AcDbEntity
  8
1
  6
Continuous
 62
     7
100
AcDbLine
 10
142.6366037841213
 20
763.7164338817104
 30
0.0
 11
98.76178184716048
 21
763.7164338817104
 31
0.0
  0
LINE
  5
100
330
1F
100
AcDbEntity
  8
1
  6
DASHED
 62
     4
100
AcDbLine
 10
502.5341613036472
 20
1266.365217690001
 30
0.0
 11
502.5341613036495
 21
1306.365217690001
 31
0.0
  0
LINE
  5
101
330
1F
100
AcDbEntity
  8
1
  6
Continuous
 62
     7
100
AcDbLine
 10
522.7604592500953
 20
830.7308622965691
 30
0.0
 11
554.8033991901185
 21
849.2308622965702
 31
0.0
  0
LINE
  5
102
330
1F
100
AcDbEntity
  8
1
  6
Continuous
 62
     7
100
AcDbLine
 10
414.5239442754365
 20
820.2020054668642
 30
0.0
 11
406.7293796471814
 21
815.7018114805245
 31
0.0
  0
LINE
  5
103
330
1F
100
AcDbEntity
  8
1
  6
Continuous
 62
     7
100
AcDbLine
 10
339.1797341461925
 20
776.7020054668612
 30
0.0
 11
347.9297341461933
 21
761.546560900631
 31
0.0
  0
LINE
  5
104
330
1F
100
AcDbEntity
  8
1
  6
Continuous
 62
     7
100
AcDbLine
 10
347.9297341461933
 20
761.546560900631
 30
0.0
 11
423.2739442754399
 21
805.0465609006336
 31
0.0
  0
LINE
  5
105
330
1F
100
AcDbEntity
  8
1
  6
Continuous
 62
     7
100
AcDbLine
 10
423.2739442754399
 20
805.0465609006336
 30
0.0
 11
414.5239442754365
 21
820.2020054668642
 31
0.0
  0
LINE
  5
106
330
1F
100
AcDbEntity
  8
1
  6
Continuous
 62
     7
100
AcDbLine
 10
339.1797341461925
 20
776.7020054668612
 30
0.0
 11
336.5816579348385
 21
775.2020054668599
 31
0.0
  0
LINE
  5
107
330
1F
100
AcDbEntity
  8
1
  6
Continuous
 62
     7
100
AcDbLine
 10
336.5816579348385
 20
775.2020054668599
 30
0.0
 11
345.331657934837
 21
760.0465609006294
 31
0.0
  0
LINE
  5
108
330
1F
100
AcDbEntity
  8
1
  6
Continuous
 62
     7
100
AcDbLine
 10
345.331657934837
 20
760.0465609006294
 30
0.0
 11
347.9297341461933
 21
761.546560900631
 31
0.0
  0
LINE
  5
109
330
1F
100
AcDbEntity
  8
1
  6
DASH_CENTER
 62
     3
100
AcDbLine
 10
348.2778103575452
 20
766.9436752176633
 30
0.0
 11
341.3496071272703
 21
762.9436752176633
 31
0.0
  0
LINE
  5
10A
330
1F
100
AcDbEntity
  8
1
  6
Continuous
 62
     7
100
AcDbLine
 10
554.8033991901185
 20
849.2308622965702
 30
0.0
 11
557.4014754014703
 21
850.73086229657
 31
0.0
  0
LINE
  5
10B
330
1F
100
AcDbEntity
  8
1
  6
Continuous
 62
     7
100
AcDbLine
 10
514.7604592500962
 20
844.5872687571142
 30
0.0
 11
522.7604592500953
 21
830.7308622965691
 31
0.0
  0
LINE
  5
10C
330
1F
100
AcDbEntity
  8
1
  6
Continuous
 62
     7
100
AcDbLine
 10
546.8033991901203
 20
863.0872687571158
 30
0.0
 11
542.4731826931962
 21
860.5872170969672
 31
0.0
  0
LINE
  5
10D
330
1F
100
AcDbEntity
  8
1
  6
Continuous
 62
     7
100
AcDbLine
 10
554.8033991901185
 20
849.2308622965702
 30
0.0
 11
546.8033991901203
 21
863.0872687571158
 31
0.0
  0
LINE
  5
10E
330
1F
100
AcDbEntity
  8
1
  6
Continuous
 62
     7
100
AcDbLine
 10
403.5341613036504
 20
1263.865217690001
 30
0.0
 11
394.5302284404785
 21
1263.865217690001
 31
0.0
  0
LINE
  5
10F
330
1F
100
AcDbEntity
  8
1
  6
Continuous
 62
     7
100
AcDbLine
 10
316.5341613036472
 20
1263.865217690001
 30
0.0
 11
316.5341613036495
 21
1308.865217690001
 31
0.0
  0
LINE
  5
110
330
1F
100
AcDbEntity
  8
1
  6
Continuous
 62
     7
100
AcDbLine
 10
316.5341613036495
 20
1308.865217690001
 30
0.0
 11
364.5306323695996
 21
1308.865217690001
 31
0.0
  0
LINE
  5
111
330
1F
100
AcDbEntity
  8
1
  6
Continuous
 62
     7
100
AcDbLine
 10
403.5341613036522
 20
1308.865217690001
 30
0.0
 11
403.5341613036504
 21
1263.865217690001
 31
0.0
  0
LINE
  5
112
330
1F
100
AcDbEntity
  8
1
  6
Continuous
 62
     7
100
AcDbLine
 10
316.5341613036495
 20
1308.865217690001
 30
0.0
 11
313.5341613036495
 21
1308.865217690001
 31
0.0
  0
LINE
  5
113
330
1F
100
AcDbEntity
  8
1
  6
Continuous
 62
     7
100
AcDbLine
 10
313.5341613036495
 20
1308.865217690001
 30
0.0
 11
313.5341613036472
 21
1263.865217690001
 31
0.0
  0
LINE
  5
114
330
1F
100
AcDbEntity
  8
1
  6
Continuous
 62
     7
100
AcDbLine
 10
316.5341613036472
 20
1263.865217690001
 30
0.0
 11
313.5341613036472
 21
1263.865217690001
 31
0.0
  0
LINE
  5
115
330
1F
100
AcDbEntity
  8
1
  6
DOT_CENTER
 62
     3
100
AcDbLine
 10
976.0737524885445
 20
870.2164338817202
 30
0.0
 11
983.5737524885445
 21
870.2164338817202
 31
0.0
  0
LINE
  5
116
330
1F
100
AcDbEntity
  8
1
  6
DOT_CENTER
 62
     3
100
AcDbLine
 10
979.8237524885445
 20
866.4664338817202
 30
0.0
 11
979.8237524885445
 21
873.9664338817202
 31
0.0
  0
LINE
  5
117
330
1F
100
AcDbEntity
  8
1
  6
Continuous
 62
     7
100
AcDbLine
 10
502.5341613036495
 20
1307.365217690001
 30
0.0
 11
504.5307571754565
 21
1307.365217690001
 31
0.0
  0
LINE
  5
118
330
1F
100
AcDbEntity
  8
1
  6
Continuous
 62
     7
100
AcDbLine
 10
502.5341613036454
 20
1265.365217690001
 30
0.0
 11
504.5307571754565
 21
1265.365217690001
 31
0.0
  0
LINE
  5
119
330
1F
100
AcDbEntity
  8
1
  6
Continuous
 62
     7
100
AcDbLine
 10
542.5341613036554
 20
1263.865217690001
 30
0.0
 11
539.5341613036472
 21
1263.865217690001
 31
0.0
  0
LINE
  5
11A
330
1F
100
AcDbEntity
  8
1
  6
Continuous
 62
     7
100
AcDbLine
 10
542.5341613036554
 20
1263.865217690001
 30
0.0
 11
542.5341613036504
 21
1271.365217690001
 31
0.0
  0
LINE
  5
11B
330
1F
100
AcDbEntity
  8
1
  6
Continuous
 62
     7
100
AcDbLine
 10
542.5341613036554
 20
1308.865217690001
 30
0.0
 11
539.5341613036495
 21
1308.865217690001
 31
0.0
  0
LINE
  5
11C
330
1F
100
AcDbEntity
  8
1
  6
Continuous
 62
     7
100
AcDbLine
 10
502.5341613036472
 20
1263.865217690001
 30
0.0
 11
502.5341613036472
 21
1266.365217690001
 31
0.0
  0
LINE
  5
11D
330
1F
100
AcDbEntity
  8
1
  6
Continuous
 62
     7
100
AcDbLine
 10
539.5341613036472
 20
1263.865217690001
 30
0.0
 11
534.5303532463364
 21
1263.865217690001
 31
0.0
  0
LINE
  5
11E
330
1F
100
AcDbEntity
  8
1
  6
Continuous
 62
     7
100
AcDbLine
 10
502.5341613036495
 20
1308.865217690001
 30
0.0
 11
504.5307571754565
 21
1308.865217690001
 31
0.0
  0
LINE
  5
11F
330
1F
100
AcDbEntity
  8
1
  6
Continuous
 62
     7
100
AcDbLine
 10
502.5341613036495
 20
1306.365217690001
 30
0.0
 11
502.5341613036495
 21
1308.865217690001
 31
0.0
  0
LINE
  5
120
330
1F
100
AcDbEntity
  8
1
  6
Continuous
 62
     7
100
AcDbLine
 10
546.8033991901203
 20
863.0872687571158
 30
0.0
 11
549.4014754014726
 21
864.5872687571158
 31
0.0
  0
LINE
  5
121
330
1F
100
AcDbEntity
  8
1
  6
DOT_CENTER
 62
     3
100
AcDbLine
 10
991.8237524885445
 20
866.4664338817202
 30
0.0
 11
991.8237524885445
 21
873.9664338817202
 31
0.0
  0
LINE
  5
122
330
1F
100
AcDbEntity
  8
1
  6
DOT_CENTER
 62
     3
100
AcDbLine
 10
988.0737524885445
 20
870.2164338817202
 30
0.0
 11
995.5737524885445
 21
870.2164338817202
 31
0.0
  0
LINE
  5
123
330
1F
100
AcDbEntity
  8
1
  6
Continuous
 62
     7
100
AcDbLine
 10
542.5341613036504
 20
1301.365217690001
 30
0.0
 11
542.5341613036554
 21
1308.865217690001
 31
0.0
  0
LINE
  5
124
330
1F
100
AcDbEntity
  8
1
  6
Continuous
 62
     7
100
AcDbLine
 10
1784.851441140098
 20
1271.365217690001
 30
0.0
 11
1784.851441140097
 21
1263.865217690001
 31
0.0
  0
LINE
  5
125
330
1F
100
AcDbEntity
  8
1
  6
Continuous
 62
     7
100
AcDbLine
 10
1787.8514411401
 20
1301.365217690001
 30
0.0
 11
1787.851441140105
 21
1308.865217690001
 31
0.0
  0
LINE
  5
126
330
1F
100
AcDbEntity
  8
1
  6
Continuous
 62
     7
100
AcDbLine
 10
1792.120679026566
 20
863.0872687571198
 30
0.0
 11
1794.718755237919
 21
864.5872687571205
 31
0.0
  0
LINE
  5
127
330
1F
100
AcDbEntity
  8
1
  6
Continuous
 62
     7
100
AcDbLine
 10
1747.851441140098
 20
1306.365217690001
 30
0.0
 11
1747.851441140098
 21
1308.865217690001
 31
0.0
  0
LINE
  5
128
330
1F
100
AcDbEntity
  8
1
  6
DASHED
 62
     4
100
AcDbLine
 10
1787.851441140099
 20
1271.365217690001
 30
0.0
 11
1787.8514411401
 21
1301.365217690001
 31
0.0
  0
LINE
  5
129
330
1F
100
AcDbEntity
  8
1
  6
Continuous
 62
     7
100
AcDbLine
 10
1747.851441140098
 20
1308.865217690001
 30
0.0
 11
1749.847995123358
 21
1308.865217690001
 31
0.0
  0
LINE
  5
12A
330
1F
100
AcDbEntity
  8
1
  6
Continuous
 62
     7
100
AcDbLine
 10
1784.851441140097
 20
1263.865217690001
 30
0.0
 11
1779.847591194238
 21
1263.865217690001
 31
0.0
  0
LINE
  5
12B
330
1F
100
AcDbEntity
  8
1
  6
Continuous
 62
     7
100
AcDbLine
 10
1784.851441140098
 20
1308.865217690001
 30
0.0
 11
1784.851441140098
 21
1271.365217690001
 31
0.0
  0
LINE
  5
12C
330
1F
100
AcDbEntity
  8
1
  6
Continuous
 62
     7
100
AcDbLine
 10
1747.851441140097
 20
1263.865217690001
 30
0.0
 11
1747.851441140097
 21
1266.365217690001
 31
0.0
  0
LINE
  5
12D
330
1F
100
AcDbEntity
  8
1
  6
Continuous
 62
     7
100
AcDbLine
 10
1787.851441140105
 20
1308.865217690001
 30
0.0
 11
1784.851441140098
 21
1308.865217690001
 31
0.0
  0
LINE
  5
12E
330
1F
100
AcDbEntity
  8
1
  6
Continuous
 62
     7
100
AcDbLine
 10
1787.851441140104
 20
1263.865217690001
 30
0.0
 11
1787.851441140099
 21
1271.365217690001
 31
0.0
  0
LINE
  5
12F
330
1F
100
AcDbEntity
  8
1
  6
Continuous
 62
     7
100
AcDbLine
 10
1787.851441140104
 20
1263.865217690001
 30
0.0
 11
1784.851441140097
 21
1263.865217690001
 31
0.0
  0
LINE
  5
130
330
1F
100
AcDbEntity
  8
1
  6
Continuous
 62
     7
100
AcDbLine
 10
1747.851441140095
 20
1265.365217690001
 30
0.0
 11
1749.847995123358
 21
1265.365217690001
 31
0.0
  0
LINE
  5
131
330
1F
100
AcDbEntity
  8
1
  6
Continuous
 62
     7
100
AcDbLine
 10
1747.851441140098
 20
1307.365217690001
 30
0.0
 11
1749.847995123358
 21
1307.365217690001
 31
0.0
  0
LINE
  5
132
330
1F
100
AcDbEntity
  8
1
  6
Continuous
 62
     7
100
AcDbLine
 10
1461.851441140097
 20
1263.865217690001
 30
0.0
 11
1458.851441140097
 21
1263.865217690001
 31
0.0
  0
LINE
  5
133
330
1F
100
AcDbEntity
  8
1
  6
Continuous
 62
     7
100
AcDbLine
 10
1458.851441140098
 20
1308.865217690001
 30
0.0
 11
1458.851441140097
 21
1263.865217690001
 31
0.0
  0
LINE
  5
134
330
1F
100
AcDbEntity
  8
1
  6
Continuous
 62
     7
100
AcDbLine
 10
1461.851441140098
 20
1308.865217690001
 30
0.0
 11
1458.851441140098
 21
1308.865217690001
 31
0.0
  0
LINE
  5
135
330
1F
100
AcDbEntity
  8
1
  6
Continuous
 62
     7
100
AcDbLine
 10
1548.851441140102
 20
1308.865217690001
 30
0.0
 11
1548.8514411401
 21
1263.865217690001
 31
0.0
  0
LINE
  5
136
330
1F
100
AcDbEntity
  8
1
  6
Continuous
 62
     7
100
AcDbLine
 10
1461.851441140098
 20
1308.865217690001
 30
0.0
 11
1509.848391762416
 21
1308.865217690001
 31
0.0
  0
LINE
  5
137
330
1F
100
AcDbEntity
  8
1
  6
Continuous
 62
     7
100
AcDbLine
 10
1461.851441140097
 20
1263.865217690001
 30
0.0
 11
1461.851441140098
 21
1308.865217690001
 31
0.0
  0
LINE
  5
138
330
1F
100
AcDbEntity
  8
1
  6
Continuous
 62
     7
100
AcDbLine
 10
1548.8514411401
 20
1263.865217690001
 30
0.0
 11
1539.847987833296
 21
1263.865217690001
 31
0.0
  0
LINE
  5
139
330
1F
100
AcDbEntity
  8
1
  6
Continuous
 62
     7
100
AcDbLine
 10
1801.305506583863
 20
853.1786807691202
 30
0.0
 11
1795.332003891968
 21
863.5250909306358
 31
0.0
  0
LINE
  5
13A
330
1F
100
AcDbEntity
  8
1
  6
Continuous
 62
     7
100
AcDbLine
 10
1800.120679026561
 20
849.2308622965753
 30
0.0
 11
1792.120679026566
 21
863.0872687571198
 31
0.0
  0
LINE
  5
13B
330
1F
100
AcDbEntity
  8
1
  6
Continuous
 62
     7
100
AcDbLine
 10
1792.120679026566
 20
863.0872687571198
 30
0.0
 11
1787.790426253095
 21
860.587196152699
 31
0.0
  0
LINE
  5
13C
330
1F
100
AcDbEntity
  8
1
  6
Continuous
 62
     7
100
AcDbLine
 10
1760.077739086539
 20
844.5872687571239
 30
0.0
 11
1768.077739086535
 21
830.7308622965772
 31
0.0
  0
LINE
  5
13D
330
1F
100
AcDbEntity
  8
1
  6
Continuous
 62
     7
100
AcDbLine
 10
1800.120679026561
 20
849.2308622965753
 30
0.0
 11
1802.718755237914
 21
850.7308622965744
 31
0.0
  0
LINE
  5
13E
330
1F
100
AcDbEntity
  8
1
  6
Continuous
 62
     7
100
AcDbLine
 10
1802.718755237914
 20
850.7308622965744
 30
0.0
 11
1794.718755237919
 21
864.5872687571205
 31
0.0
  0
LINE
  5
13F
330
1F
100
AcDbEntity
  8
1
  6
Continuous
 62
     7
100
AcDbLine
 10
1504.046397392816
 20
710.0465609006745
 30
0.0
 11
1506.644473604174
 21
711.5465609006765
 31
0.0
  0
LINE
  5
140
330
1F
100
AcDbEntity
  8
1
  6
Continuous
 62
     7
100
AcDbLine
 10
1495.296397392822
 20
725.2020054669054
 30
0.0
 11
1504.046397392816
 21
710.0465609006745
 31
0.0
  0
LINE
  5
141
330
1F
100
AcDbEntity
  8
1
  6
Continuous
 62
     7
100
AcDbLine
 10
1497.894473604175
 20
726.7020054669056
 30
0.0
 11
1495.296397392822
 21
725.2020054669054
 31
0.0
  0
LINE
  5
142
330
1F
100
AcDbEntity
  8
1
  6
Continuous
 62
     7
100
AcDbLine
 10
1581.988683733425
 20
755.0465609006693
 30
0.0
 11
1573.238683733425
 21
770.2020054668988
 31
0.0
  0
LINE
  5
143
330
1F
100
AcDbEntity
  8
1
  6
Continuous
 62
     7
100
AcDbLine
 10
1506.644473604174
 20
711.5465609006765
 30
0.0
 11
1548.213859576989
 21
735.5466570821228
 31
0.0
  0
LINE
  5
144
330
1F
100
AcDbEntity
  8
1
  6
Continuous
 62
     7
100
AcDbLine
 10
1497.894473604175
 20
726.7020054669056
 30
0.0
 11
1506.644473604174
 21
711.5465609006765
 31
0.0
  0
LINE
  5
145
330
1F
100
AcDbEntity
  8
1
  6
Continuous
 62
     7
100
AcDbLine
 10
1573.238683733425
 20
770.2020054668988
 30
0.0
 11
1565.444534413167
 21
765.7020512587446
 31
0.0
  0
LINE
  5
146
330
1F
100
AcDbEntity
  8
1
  6
Continuous
 62
     7
100
AcDbLine
 10
1768.077739086535
 20
830.7308622965772
 30
0.0
 11
1778.469930204057
 21
836.7307966357478
 31
0.0
  0
LINE
  5
147
330
1F
100
AcDbEntity
  8
1
  6
DASHED
 62
     4
100
AcDbLine
 10
1747.851441140097
 20
1266.365217690001
 30
0.0
 11
1747.851441140098
 21
1306.365217690001
 31
0.0
  0
LINE
  5
148
330
1F
100
AcDbEntity
  8
1
  6
Continuous
 62
     7
100
AcDbLine
 10
1273.636603784121
 20
713.7164338817537
 30
0.0
 11
1229.76178184716
 21
713.7164338817537
 31
0.0
  0
LINE
  5
149
330
1F
100
AcDbEntity
  8
1
  6
Continuous
 62
     7
100
AcDbLine
 10
998.3237524885445
 20
877.2164338817202
 30
0.0
 11
1007.364411717081
 21
877.2164338817202
 31
0.0
  0
LINE
  5
14A
330
1F
100
AcDbEntity
  8
1
  6
Continuous
 62
     7
100
AcDbLine
 10
973.3237524885445
 20
877.2164338817202
 30
0.0
 11
964.2830932600056
 21
877.2164338817202
 31
0.0
  0
LINE
  5
14B
330
1F
100
AcDbEntity
  8
1
  6
DASHED
 62
     4
100
AcDbLine
 10
542.5341613036504
 20
1271.365217690001
 30
0.0
 11
542.5341613036504
 21
1301.365217690001
 31
0.0
  0
LINE
  5
14C
330
1F
100
AcDbEntity
  8
1
  6
Continuous
 62
     7
100
AcDbLine
 10
2245.323752488544
 20
861.816433881624
 30
0.0
 11
2251.804725979004
 21
861.816433881624
 31
0.0
  0
LINE
  5
14D
330
1F
100
AcDbEntity
  8
1
  6
Continuous
 62
     7
100
AcDbLine
 10
966.8047259790034
 20
854.1164338816243
 30
0.0
 11
932.3047259790034
 21
854.1164338816243
 31
0.0
  0
LINE
  5
14E
330
1F
100
AcDbEntity
  8
1
  6
Continuous
 62
     7
100
AcDbLine
 10
966.8047259790034
 20
851.816433881624
 30
0.0
 11
966.8047259790034
 21
861.816433881624
 31
0.0
  0
LINE
  5
14F
330
1F
100
AcDbEntity
  8
1
  6
Continuous
 62
     7
100
AcDbLine
 10
1004.804725979003
 20
861.816433881624
 30
0.0
 11
1004.804725979003
 21
851.816433881624
 31
0.0
  0
LINE
  5
150
330
1F
100
AcDbEntity
  8
1
  6
Continuous
 62
     7
100
AcDbLine
 10
966.8047259790034
 20
861.816433881624
 30
0.0
 11
1004.804725979003
 21
861.816433881624
 31
0.0
  0
LINE
  5
151
330
1F
100
AcDbEntity
  8
1
  6
Continuous
 62
     7
100
AcDbLine
 10
1039.304725979003
 20
851.816433881624
 30
0.0
 11
1039.304725979003
 21
854.1164338816243
 31
0.0
  0
LINE
  5
152
330
1F
100
AcDbEntity
  8
1
  6
Continuous
 62
     7
100
AcDbLine
 10
932.3047259790034
 20
854.1164338816243
 30
0.0
 11
932.3047259790034
 21
851.816433881624
 31
0.0
  0
LINE
  5
153
330
1F
100
AcDbEntity
  8
1
  6
Continuous
 62
     7
100
AcDbLine
 10
1039.304725979003
 20
854.1164338816243
 30
0.0
 11
1004.804725979003
 21
854.1164338816243
 31
0.0
  0
LINE
  5
154
330
1F
100
AcDbEntity
  8
1
  6
Continuous
 62
     7
100
AcDbLine
 10
957.2141270557646
 20
848.6164338816243
 30
0.0
 11
957.2141270557646
 21
846.1164338816243
 31
0.0
  0
LINE
  5
155
330
1F
100
AcDbEntity
  8
1
  6
Continuous
 62
     7
100
AcDbLine
 10
957.2141270557646
 20
846.1164338816243
 30
0.0
 11
937.3953249022476
 21
846.1164338816243
 31
0.0
  0
LINE
  5
156
330
1F
100
AcDbEntity
  8
1
  6
Continuous
 62
     7
100
AcDbLine
 10
937.3953249022476
 20
846.1164338816243
 30
0.0
 11
937.3953249022476
 21
848.6164338816243
 31
0.0
  0
LINE
  5
157
330
1F
100
AcDbEntity
  8
1
  6
Continuous
 62
     6
100
AcDbLine
 10
942.6500254406275
 20
848.6164338816243
 30
0.0
 11
942.6500254406275
 21
846.1164338816243
 31
0.0
  0
LINE
  5
158
330
1F
100
AcDbEntity
  8
1
  6
Continuous
 62
     6
100
AcDbLine
 10
951.9594265173834
 20
848.6164338816243
 30
0.0
 11
951.9594265173834
 21
846.1164338816243
 31
0.0
  0
LINE
  5
159
330
1F
100
AcDbEntity
  8
1
  6
Continuous
 62
     7
100
AcDbLine
 10
936.7803703260244
 20
838.875623260177
 30
0.0
 11
936.7803703260244
 21
846.1164338816243
 31
0.0
  0
LINE
  5
15A
330
1F
100
AcDbEntity
  8
1
  6
Continuous
 62
     7
100
AcDbLine
 10
936.7803703260244
 20
846.1164338816243
 30
0.0
 11
957.8290816319874
 21
846.1164338816243
 31
0.0
  0
LINE
  5
15B
330
1F
100
AcDbEntity
  8
1
  6
Continuous
 62
     7
100
AcDbLine
 10
957.8290816319874
 20
846.1164338816243
 30
0.0
 11
957.8290816319874
 21
838.875623260177
 31
0.0
  0
LINE
  5
15C
330
1F
100
AcDbEntity
  8
1
  6
Continuous
 62
     7
100
AcDbLine
 10
942.8425481525156
 20
846.1164338816243
 30
0.0
 11
942.8425481525156
 21
838.875623260177
 31
0.0
  0
LINE
  5
15D
330
1F
100
AcDbEntity
  8
1
  6
Continuous
 62
     7
100
AcDbLine
 10
951.7669038054975
 20
846.1164338816243
 30
0.0
 11
951.7669038054975
 21
838.875623260177
 31
0.0
  0
LINE
  5
15E
330
1F
100
AcDbEntity
  8
1
  6
Continuous
 62
     7
100
AcDbLine
 10
954.2206424495554
 20
838.1164338816243
 30
0.0
 11
940.3888095084595
 21
838.1164338816243
 31
0.0
  0
LINE
  5
15F
330
1F
100
AcDbEntity
  8
1
  6
Continuous
 62
     7
100
AcDbLine
 10
952.0547259790034
 20
876.7164338817202
 30
0.0
 11
942.5547259790034
 21
876.7164338817202
 31
0.0
  0
LINE
  5
160
330
1F
100
AcDbEntity
  8
1
  6
Continuous
 62
     7
100
AcDbLine
 10
1019.554725979003
 20
876.7164338817202
 30
0.0
 11
1029.054725979002
 21
876.7164338817202
 31
0.0
  0
LINE
  5
161
330
1F
100
AcDbEntity
  8
1
  6
Continuous
 62
     7
100
AcDbLine
 10
952.1038239866676
 20
861.9828050152983
 30
0.0
 11
954.4927789980876
 21
883.7164338817202
 31
0.0
  0
LINE
  5
162
330
1F
100
AcDbEntity
  8
1
  6
Continuous
 62
     7
100
AcDbLine
 10
962.0657709675853
 20
861.1112475878213
 30
0.0
 11
952.1038239866676
 21
861.9828050152983
 31
0.0
  0
LINE
  5
163
330
1F
100
AcDbEntity
  8
1
  6
Continuous
 62
     7
100
AcDbLine
 10
964.4547259790044
 20
882.8448764542432
 30
0.0
 11
962.0657709675853
 21
861.1112475878213
 31
0.0
  0
LINE
  5
164
330
1F
100
AcDbEntity
  8
1
  6
Continuous
 62
     7
100
AcDbLine
 10
1019.505627971354
 20
861.9828050152989
 30
0.0
 11
1017.154725979003
 21
883.7164338817202
 31
0.0
  0
LINE
  5
165
330
1F
100
AcDbEntity
  8
1
  6
Continuous
 62
     7
100
AcDbLine
 10
1009.543680990436
 20
861.1112475878213
 30
0.0
 11
1019.505627971354
 21
861.9828050152989
 31
0.0
  0
LINE
  5
166
330
1F
100
AcDbEntity
  8
1
  6
Continuous
 62
     7
100
AcDbLine
 10
1007.192778998087
 20
882.8448764542411
 30
0.0
 11
1009.543680990436
 21
861.1112475878213
 31
0.0
  0
LINE
  5
167
330
1F
100
AcDbEntity
  8
1
  6
Continuous
 62
     7
100
AcDbLine
 10
1031.220642449553
 20
838.1164338816243
 30
0.0
 11
1017.388809508456
 21
838.1164338816243
 31
0.0
  0
LINE
  5
168
330
1F
100
AcDbEntity
  8
1
  6
Continuous
 62
     7
100
AcDbLine
 10
1028.766903805493
 20
846.1164338816243
 30
0.0
 11
1028.766903805493
 21
838.875623260177
 31
0.0
  0
LINE
  5
169
330
1F
100
AcDbEntity
  8
1
  6
Continuous
 62
     7
100
AcDbLine
 10
1019.842548152512
 20
846.1164338816243
 30
0.0
 11
1019.842548152512
 21
838.875623260177
 31
0.0
  0
LINE
  5
16A
330
1F
100
AcDbEntity
  8
1
  6
Continuous
 62
     7
100
AcDbLine
 10
1034.829081631986
 20
846.1164338816243
 30
0.0
 11
1034.829081631986
 21
838.875623260177
 31
0.0
  0
LINE
  5
16B
330
1F
100
AcDbEntity
  8
1
  6
Continuous
 62
     7
100
AcDbLine
 10
1013.780370326022
 20
846.1164338816243
 30
0.0
 11
1034.829081631986
 21
846.1164338816243
 31
0.0
  0
LINE
  5
16C
330
1F
100
AcDbEntity
  8
1
  6
Continuous
 62
     7
100
AcDbLine
 10
1013.780370326022
 20
838.875623260177
 30
0.0
 11
1013.780370326022
 21
846.1164338816243
 31
0.0
  0
LINE
  5
16D
330
1F
100
AcDbEntity
  8
1
  6
Continuous
 62
     6
100
AcDbLine
 10
1028.959426517381
 20
848.6164338816243
 30
0.0
 11
1028.959426517381
 21
846.1164338816243
 31
0.0
  0
LINE
  5
16E
330
1F
100
AcDbEntity
  8
1
  6
Continuous
 62
     6
100
AcDbLine
 10
1019.650025440623
 20
848.6164338816243
 30
0.0
 11
1019.650025440623
 21
846.1164338816243
 31
0.0
  0
LINE
  5
16F
330
1F
100
AcDbEntity
  8
1
  6
Continuous
 62
     7
100
AcDbLine
 10
1014.395324902245
 20
846.1164338816243
 30
0.0
 11
1014.395324902245
 21
848.6164338816243
 31
0.0
  0
LINE
  5
170
330
1F
100
AcDbEntity
  8
1
  6
Continuous
 62
     7
100
AcDbLine
 10
1034.214127055762
 20
846.1164338816243
 30
0.0
 11
1014.395324902245
 21
846.1164338816243
 31
0.0
  0
LINE
  5
171
330
1F
100
AcDbEntity
  8
1
  6
Continuous
 62
     7
100
AcDbLine
 10
1034.214127055762
 20
848.6164338816243
 30
0.0
 11
1034.214127055762
 21
846.1164338816243
 31
0.0
  0
LINE
  5
172
330
1F
100
AcDbEntity
  8
1
  6
Continuous
 62
     7
100
AcDbLine
 10
952.0547259790034
 20
876.7164338817202
 30
0.0
 11
952.0547259790035
 21
848.6164338816243
 31
0.0
  0
LINE
  5
173
330
1F
100
AcDbEntity
  8
1
  6
Continuous
 62
     7
100
AcDbLine
 10
952.0547259790025
 20
864.31643388172
 30
0.0
 11
942.5547259790034
 21
864.31643388172
 31
0.0
  0
LINE
  5
174
330
1F
100
AcDbEntity
  8
1
  6
Continuous
 62
     3
100
AcDbLine
 10
943.3667259790046
 20
864.31643388172
 30
0.0
 11
942.5547259790034
 21
865.7228591374663
 31
0.0
  0
LINE
  5
175
330
1F
100
AcDbEntity
  8
1
  6
Continuous
 62
     3
100
AcDbLine
 10
951.2427259790044
 20
864.31643388172
 30
0.0
 11
951.2427259790045
 21
848.6164338816251
 31
0.0
  0
LINE
  5
176
330
1F
100
AcDbEntity
  8
1
  6
Continuous
 62
     3
100
AcDbLine
 10
952.0547259790025
 20
865.7228591374663
 30
0.0
 11
951.2427259790044
 21
864.31643388172
 31
0.0
  0
LINE
  5
177
330
1F
100
AcDbEntity
  8
1
  6
DASH_CENTER
 62
     3
100
AcDbLine
 10
947.3047259790034
 20
876.7164338817202
 30
0.0
 11
947.3047259790034
 21
831.7164338817202
 31
0.0
  0
LINE
  5
178
330
1F
100
AcDbEntity
  8
1
  6
DASH_CENTER
 62
     3
100
AcDbLine
 10
1024.304725979003
 20
830.1164338816243
 30
0.0
 11
1024.304725979003
 21
876.7164338817202
 31
0.0
  0
LINE
  5
179
330
1F
100
AcDbEntity
  8
1
  6
Continuous
 62
     3
100
AcDbLine
 10
1020.366725979005
 20
864.31643388172
 30
0.0
 11
1019.554725979003
 21
865.7228591374663
 31
0.0
  0
LINE
  5
17A
330
1F
100
AcDbEntity
  8
1
  6
Continuous
 62
     3
100
AcDbLine
 10
1028.242725979004
 20
864.31643388172
 30
0.0
 11
1028.242725979004
 21
854.1164338816242
 31
0.0
  0
LINE
  5
17B
330
1F
100
AcDbEntity
  8
1
  6
Continuous
 62
     3
100
AcDbLine
 10
1029.054725979002
 20
865.7228591374663
 30
0.0
 11
1028.242725979004
 21
864.31643388172
 31
0.0
  0
LINE
  5
17C
330
1F
100
AcDbEntity
  8
1
  6
Continuous
 62
     7
100
AcDbLine
 10
1029.054725979002
 20
864.31643388172
 30
0.0
 11
1019.554725979003
 21
864.31643388172
 31
0.0
  0
LINE
  5
17D
330
1F
100
AcDbEntity
  8
1
  6
Continuous
 62
     7
100
AcDbLine
 10
1029.054725979002
 20
876.7164338817202
 30
0.0
 11
1029.054725979002
 21
854.1164338816243
 31
0.0
  0
LINE
  5
17E
330
1F
100
AcDbEntity
  8
1
  6
Continuous
 62
     7
100
AcDbLine
 10
2276.054725979003
 20
876.7164338817202
 30
0.0
 11
2276.054725979004
 21
854.1164338816242
 31
0.0
  0
LINE
  5
17F
330
1F
100
AcDbEntity
  8
1
  6
Continuous
 62
     7
100
AcDbLine
 10
2276.054725979003
 20
864.31643388172
 30
0.0
 11
2266.554725979004
 21
864.31643388172
 31
0.0
  0
LINE
  5
180
330
1F
100
AcDbEntity
  8
1
  6
Continuous
 62
     3
100
AcDbLine
 10
2276.054725979003
 20
865.7228591374663
 30
0.0
 11
2275.242725979005
 21
864.31643388172
 31
0.0
  0
LINE
  5
181
330
1F
100
AcDbEntity
  8
1
  6
Continuous
 62
     3
100
AcDbLine
 10
2275.242725979005
 20
864.31643388172
 30
0.0
 11
2275.242725979005
 21
854.1164338816242
 31
0.0
  0
LINE
  5
182
330
1F
100
AcDbEntity
  8
1
  6
Continuous
 62
     3
100
AcDbLine
 10
2267.366725979004
 20
864.31643388172
 30
0.0
 11
2266.554725979004
 21
865.7228591374663
 31
0.0
  0
LINE
  5
183
330
1F
100
AcDbEntity
  8
1
  6
DASH_CENTER
 62
     3
100
AcDbLine
 10
2194.304725979004
 20
876.7164338817202
 30
0.0
 11
2194.304725979004
 21
830.1164338816243
 31
0.0
  0
LINE
  5
184
330
1F
100
AcDbEntity
  8
1
  6
Continuous
 62
     3
100
AcDbLine
 10
2199.054725979003
 20
865.7228591374663
 30
0.0
 11
2198.242725979005
 21
864.31643388172
 31
0.0
  0
LINE
  5
185
330
1F
100
AcDbEntity
  8
1
  6
Continuous
 62
     3
100
AcDbLine
 10
2198.242725979005
 20
864.31643388172
 30
0.0
 11
2198.242725979005
 21
854.1164338816242
 31
0.0
  0
LINE
  5
186
330
1F
100
AcDbEntity
  8
1
  6
Continuous
 62
     3
100
AcDbLine
 10
2190.366725979004
 20
864.31643388172
 30
0.0
 11
2189.554725979004
 21
865.7228591374663
 31
0.0
  0
LINE
  5
187
330
1F
100
AcDbEntity
  8
1
  6
Continuous
 62
     7
100
AcDbLine
 10
2199.054725979003
 20
864.31643388172
 30
0.0
 11
2189.554725979004
 21
864.31643388172
 31
0.0
  0
LINE
  5
188
330
1F
100
AcDbEntity
  8
1
  6
Continuous
 62
     7
100
AcDbLine
 10
2199.054725979004
 20
876.7164338817202
 30
0.0
 11
2199.054725979004
 21
854.1164338816242
 31
0.0
  0
LINE
  5
189
330
1F
100
AcDbEntity
  8
1
  6
Continuous
 62
     7
100
AcDbLine
 10
2281.214127055763
 20
848.6164338816243
 30
0.0
 11
2281.214127055763
 21
846.1164338816243
 31
0.0
  0
LINE
  5
18A
330
1F
100
AcDbEntity
  8
1
  6
Continuous
 62
     7
100
AcDbLine
 10
2261.395324902246
 20
846.1164338816243
 30
0.0
 11
2261.395324902246
 21
848.6164338816243
 31
0.0
  0
LINE
  5
18B
330
1F
100
AcDbEntity
  8
1
  6
Continuous
 62
     7
100
AcDbLine
 10
2260.780370326021
 20
838.875623260177
 30
0.0
 11
2260.780370326021
 21
846.1164338816243
 31
0.0
  0
LINE
  5
18C
330
1F
100
AcDbEntity
  8
1
  6
Continuous
 62
     7
100
AcDbLine
 10
2260.780370326021
 20
846.1164338816243
 30
0.0
 11
2281.829081631986
 21
846.1164338816243
 31
0.0
  0
LINE
  5
18D
330
1F
100
AcDbEntity
  8
1
  6
Continuous
 62
     7
100
AcDbLine
 10
2281.829081631986
 20
846.1164338816243
 30
0.0
 11
2281.829081631986
 21
838.875623260177
 31
0.0
  0
LINE
  5
18E
330
1F
100
AcDbEntity
  8
1
  6
Continuous
 62
     7
100
AcDbLine
 10
2266.842548152513
 20
846.1164338816243
 30
0.0
 11
2266.842548152513
 21
838.875623260177
 31
0.0
  0
LINE
  5
18F
330
1F
100
AcDbEntity
  8
1
  6
Continuous
 62
     7
100
AcDbLine
 10
2275.766903805494
 20
846.1164338816243
 30
0.0
 11
2275.766903805494
 21
838.875623260177
 31
0.0
  0
LINE
  5
190
330
1F
100
AcDbEntity
  8
1
  6
Continuous
 62
     7
100
AcDbLine
 10
2278.220642449553
 20
838.1164338816243
 30
0.0
 11
2264.388809508457
 21
838.1164338816243
 31
0.0
  0
LINE
  5
191
330
1F
100
AcDbEntity
  8
1
  6
Continuous
 62
     7
100
AcDbLine
 10
2254.192778998086
 20
882.8448764542411
 30
0.0
 11
2256.543680990437
 21
861.1112475878213
 31
0.0
  0
LINE
  5
192
330
1F
100
AcDbEntity
  8
1
  6
Continuous
 62
     7
100
AcDbLine
 10
2256.543680990437
 20
861.1112475878213
 30
0.0
 11
2266.505627971354
 21
861.9828050152989
 31
0.0
  0
LINE
  5
193
330
1F
100
AcDbEntity
  8
1
  6
Continuous
 62
     7
100
AcDbLine
 10
2266.505627971354
 20
861.9828050152989
 30
0.0
 11
2264.154725979004
 21
883.7164338817202
 31
0.0
  0
LINE
  5
194
330
1F
100
AcDbEntity
  8
1
  6
Continuous
 62
     7
100
AcDbLine
 10
2211.454725979004
 20
882.8448764542432
 30
0.0
 11
2209.065770967586
 21
861.1112475878213
 31
0.0
  0
LINE
  5
195
330
1F
100
AcDbEntity
  8
1
  6
Continuous
 62
     7
100
AcDbLine
 10
2209.065770967586
 20
861.1112475878213
 30
0.0
 11
2199.103823986667
 21
861.9828050152983
 31
0.0
  0
LINE
  5
196
330
1F
100
AcDbEntity
  8
1
  6
Continuous
 62
     7
100
AcDbLine
 10
2199.103823986667
 20
861.9828050152983
 30
0.0
 11
2201.492778998087
 21
883.7164338817202
 31
0.0
  0
LINE
  5
197
330
1F
100
AcDbEntity
  8
1
  6
Continuous
 62
     7
100
AcDbLine
 10
2266.554725979004
 20
876.7164338817202
 30
0.0
 11
2276.054725979003
 21
876.7164338817202
 31
0.0
  0
LINE
  5
198
330
1F
100
AcDbEntity
  8
1
  6
Continuous
 62
     7
100
AcDbLine
 10
2199.054725979004
 20
876.7164338817202
 30
0.0
 11
2189.554725979004
 21
876.7164338817202
 31
0.0
  0
LINE
  5
199
330
1F
100
AcDbEntity
  8
1
  6
Continuous
 62
     7
100
AcDbLine
 10
2201.220642449555
 20
838.1164338816243
 30
0.0
 11
2187.388809508459
 21
838.1164338816243
 31
0.0
  0
LINE
  5
19A
330
1F
100
AcDbEntity
  8
1
  6
Continuous
 62
     7
100
AcDbLine
 10
2198.766903805497
 20
846.1164338816243
 30
0.0
 11
2198.766903805497
 21
838.875623260177
 31
0.0
  0
LINE
  5
19B
330
1F
100
AcDbEntity
  8
1
  6
Continuous
 62
     7
100
AcDbLine
 10
2189.842548152515
 20
846.1164338816243
 30
0.0
 11
2189.842548152515
 21
838.875623260177
 31
0.0
  0
LINE
  5
19C
330
1F
100
AcDbEntity
  8
1
  6
Continuous
 62
     7
100
AcDbLine
 10
2204.829081631988
 20
846.1164338816243
 30
0.0
 11
2204.829081631988
 21
838.875623260177
 31
0.0
  0
LINE
  5
19D
330
1F
100
AcDbEntity
  8
1
  6
Continuous
 62
     7
100
AcDbLine
 10
2183.780370326024
 20
846.1164338816243
 30
0.0
 11
2204.829081631988
 21
846.1164338816243
 31
0.0
  0
LINE
  5
19E
330
1F
100
AcDbEntity
  8
1
  6
Continuous
 62
     7
100
AcDbLine
 10
2183.780370326024
 20
838.875623260177
 30
0.0
 11
2183.780370326024
 21
846.1164338816243
 31
0.0
  0
LINE
  5
19F
330
1F
100
AcDbEntity
  8
1
  6
Continuous
 62
     7
100
AcDbLine
 10
2184.395324902248
 20
846.1164338816243
 30
0.0
 11
2184.395324902248
 21
848.6164338816243
 31
0.0
  0
LINE
  5
1A0
330
1F
100
AcDbEntity
  8
1
  6
Continuous
 62
     7
100
AcDbLine
 10
2204.214127055765
 20
848.6164338816243
 30
0.0
 11
2204.214127055765
 21
846.1164338816243
 31
0.0
  0
LINE
  5
1A1
330
1F
100
AcDbEntity
  8
1
  6
Continuous
 62
     7
100
AcDbLine
 10
2286.304725979004
 20
854.1164338816243
 30
0.0
 11
2251.804725979004
 21
854.1164338816243
 31
0.0
  0
LINE
  5
1A2
330
1F
100
AcDbEntity
  8
1
  6
Continuous
 62
     7
100
AcDbLine
 10
2179.304725979004
 20
854.1164338816243
 30
0.0
 11
2179.304725979004
 21
851.816433881624
 31
0.0
  0
LINE
  5
1A3
330
1F
100
AcDbEntity
  8
1
  6
Continuous
 62
     7
100
AcDbLine
 10
2286.304725979004
 20
851.816433881624
 30
0.0
 11
2286.304725979004
 21
854.1164338816243
 31
0.0
  0
LINE
  5
1A4
330
1F
100
AcDbEntity
  8
1
  6
Continuous
 62
     7
100
AcDbLine
 10
2213.804725979004
 20
861.816433881624
 30
0.0
 11
2220.323752488545
 21
861.816433881624
 31
0.0
  0
LINE
  5
1A5
330
1F
100
AcDbEntity
  8
1
  6
Continuous
 62
     7
100
AcDbLine
 10
2251.804725979004
 20
861.816433881624
 30
0.0
 11
2251.804725979004
 21
851.816433881624
 31
0.0
  0
LINE
  5
1A6
330
1F
100
AcDbEntity
  8
1
  6
Continuous
 62
     7
100
AcDbLine
 10
2251.804725979004
 20
851.816433881624
 30
0.0
 11
2213.804725979004
 21
851.816433881624
 31
0.0
  0
LINE
  5
1A7
330
1F
100
AcDbEntity
  8
1
  6
Continuous
 62
     7
100
AcDbLine
 10
2213.804725979004
 20
851.816433881624
 30
0.0
 11
2213.804725979004
 21
861.816433881624
 31
0.0
  0
LINE
  5
1A8
330
1F
100
AcDbEntity
  8
1
  6
Continuous
 62
     7
100
AcDbLine
 10
2213.804725979004
 20
854.1164338816243
 30
0.0
 11
2179.304725979004
 21
854.1164338816243
 31
0.0
  0
LINE
  5
1A9
330
1F
100
AcDbEntity
  8
1
  6
Continuous
 62
     7
100
AcDbLine
 10
384.5336810028163
 20
1324.86521769
 30
0.0
 11
384.5336810028163
 21
1319.86521769
 31
0.0
  0
LINE
  5
1AA
330
1F
100
AcDbEntity
  8
1
  6
Continuous
 62
     7
100
AcDbLine
 10
374.5336810028163
 20
1324.86521769
 30
0.0
 11
374.5336810028163
 21
1319.86521769
 31
0.0
  0
LINE
  5
1AB
330
1F
100
AcDbEntity
  8
1
  6
DOT_CENTER
 62
     3
100
AcDbLine
 10
387.0336810028163
 20
1324.86521769
 30
0.0
 11
372.0336810028163
 21
1324.86521769
 31
0.0
  0
LINE
  5
1AC
330
1F
100
AcDbEntity
  8
1
  6
DOT_CENTER
 62
     3
100
AcDbLine
 10
379.5336810028193
 20
1224.1368027031
 30
0.0
 11
379.5336810028163
 21
1347.296834006663
 31
0.0
  0
LINE
  5
1AD
330
1F
100
AcDbEntity
  8
1
  6
DOT_CENTER
 62
     3
100
AcDbLine
 10
372.0336810028163
 20
1247.86521769
 30
0.0
 11
387.0336810028163
 21
1247.86521769
 31
0.0
  0
LINE
  5
1AE
330
1F
100
AcDbEntity
  8
1
  6
Continuous
 62
     7
100
AcDbLine
 10
430.5067567177312
 20
762.918935522169
 30
0.0
 11
431.7567567177294
 21
760.753872012708
 31
0.0
  0
LINE
  5
1AF
330
1F
100
AcDbEntity
  8
1
  6
Continuous
 62
     7
100
AcDbLine
 10
415.8218892880983
 20
751.5538720127094
 30
0.0
 11
414.5718892880996
 21
753.7189355221697
 31
0.0
  0
LINE
  5
1B0
330
1F
100
AcDbEntity
  8
1
  6
Continuous
 62
     7
100
AcDbLine
 10
418.9097283136376
 20
744.975668782433
 30
0.0
 11
415.2893230029145
 21
751.2463947245964
 31
0.0
  0
LINE
  5
1B1
330
1F
100
AcDbEntity
  8
1
  6
Continuous
 62
     7
100
AcDbLine
 10
415.2893230029145
 20
751.2463947245964
 30
0.0
 11
432.2893230029154
 21
761.0613493008198
 31
0.0
  0
LINE
  5
1B2
330
1F
100
AcDbEntity
  8
1
  6
Continuous
 62
     7
100
AcDbLine
 10
432.2893230029154
 20
761.0613493008198
 30
0.0
 11
435.9097283136385
 21
754.7906233586576
 31
0.0
  0
LINE
  5
1B3
330
1F
100
AcDbEntity
  8
1
  6
Continuous
 62
     7
100
AcDbLine
 10
419.5393230029154
 20
753.7001333686528
 30
0.0
 11
423.1597283136362
 21
747.4294074264885
 31
0.0
  0
LINE
  5
1B4
330
1F
100
AcDbEntity
  8
1
  6
Continuous
 62
     7
100
AcDbLine
 10
428.0393230029154
 20
758.6076106567648
 30
0.0
 11
431.6597283136385
 21
752.3368847146001
 31
0.0
  0
LINE
  5
1B5
330
1F
100
AcDbEntity
  8
1
  6
Continuous
 62
     7
100
AcDbLine
 10
412.8192059623794
 20
785.1541084607319
 30
0.0
 11
425.2693216655135
 21
763.5901427077241
 31
0.0
  0
LINE
  5
1B6
330
1F
100
AcDbEntity
  8
1
  6
Continuous
 62
     7
100
AcDbLine
 10
412.8194533471652
 20
785.1542512884042
 30
0.0
 11
404.1591993093226
 21
780.1542512884053
 31
0.0
  0
LINE
  5
1B7
330
1F
100
AcDbEntity
  8
1
  6
Continuous
 62
     3
100
AcDbLine
 10
412.1162407192944
 20
784.7482512884048
 30
0.0
 11
424.5662432516384
 21
763.1842201962098
 31
0.0
  0
LINE
  5
1B8
330
1F
100
AcDbEntity
  8
1
  6
Continuous
 62
     3
100
AcDbLine
 10
417.3124144695404
 20
758.9962201962106
 30
0.0
 11
404.8624119371953
 21
780.560251288406
 31
0.0
  0
LINE
  5
1B9
330
1F
100
AcDbEntity
  8
1
  6
Continuous
 62
     7
100
AcDbLine
 10
416.6090676276687
 20
758.5901427077215
 30
0.0
 11
404.1589519245337
 21
780.1541084607311
 31
0.0
  0
LINE
  5
1BA
330
1F
100
AcDbEntity
  8
1
  6
Continuous
 62
     7
100
AcDbLine
 10
537.8527509697107
 20
828.5901726742252
 30
0.0
 11
525.4026114556774
 21
850.1541679285747
 31
0.0
  0
LINE
  5
1BB
330
1F
100
AcDbEntity
  8
1
  6
Continuous
 62
     3
100
AcDbLine
 10
538.5560978115833
 20
828.9962501627141
 30
0.0
 11
526.1060765520593
 21
850.5603136913379
 31
0.0
  0
LINE
  5
1BC
330
1F
100
AcDbEntity
  8
1
  6
DASH_CENTER
 62
     3
100
AcDbLine
 10
509.5716602174803
 20
887.5738213219272
 30
0.0
 11
552.2330417729396
 21
813.6831998676541
 31
0.0
  0
LINE
  5
1BD
330
1F
100
AcDbEntity
  8
1
  6
Continuous
 62
     3
100
AcDbLine
 10
533.3599053341596
 20
854.7483136913374
 30
0.0
 11
545.8099265936813
 21
833.1842501627145
 31
0.0
  0
LINE
  5
1BE
330
1F
100
AcDbEntity
  8
1
  6
Continuous
 62
     7
100
AcDbLine
 10
534.0631179620265
 20
855.1543136913356
 30
0.0
 11
525.4028639241843
 21
850.1543136913354
 31
0.0
  0
LINE
  5
1BF
330
1F
100
AcDbEntity
  8
1
  6
Continuous
 62
     7
100
AcDbLine
 10
375.0830742769323
 20
810.5146897459423
 30
0.0
 11
402.9988394682306
 21
762.1638091461048
 31
0.0
  0
LINE
  5
1C0
330
1F
100
AcDbEntity
  8
1
  6
Continuous
 62
     7
100
AcDbLine
 10
402.9988394682306
 20
762.1638091461048
 30
0.0
 11
411.6590216252145
 21
767.1637676456705
 31
0.0
  0
LINE
  5
1C1
330
1F
100
AcDbEntity
  8
1
  6
Continuous
 62
     7
100
AcDbLine
 10
420.3192756630584
 20
772.1637676456711
 30
0.0
 11
428.9796015822345
 21
777.1638091463781
 31
0.0
  0
LINE
  5
1C2
330
1F
100
AcDbEntity
  8
1
  6
Continuous
 62
     7
100
AcDbLine
 10
428.9796015822345
 20
777.1638091463781
 30
0.0
 11
401.0638363909386
 21
825.5146897462155
 31
0.0
  0
LINE
  5
1C3
330
1F
100
AcDbEntity
  8
1
  6
Continuous
 62
     7
100
AcDbLine
 10
401.0638363909386
 20
825.5146897462155
 30
0.0
 11
375.0830742769323
 21
810.5146897459423
 31
0.0
  0
LINE
  5
1C4
330
1F
100
AcDbEntity
  8
1
  6
Continuous
 62
     7
100
AcDbLine
 10
534.0628654935223
 20
855.1541679285759
 30
0.0
 11
546.5130050075555
 21
833.5901726742256
 31
0.0
  0
LINE
  5
1C5
330
1F
100
AcDbEntity
  8
1
  6
Continuous
 62
     7
100
AcDbLine
 10
497.5767261436145
 20
878.3496812792455
 30
0.0
 11
524.2424994936083
 21
832.1638688992963
 31
0.0
  0
LINE
  5
1C6
330
1F
100
AcDbEntity
  8
1
  6
Continuous
 62
     7
100
AcDbLine
 10
524.2424994936083
 20
832.1638688992963
 30
0.0
 11
532.9026842187283
 21
837.1638288815761
 31
0.0
  0
LINE
  5
1C7
330
1F
100
AcDbEntity
  8
1
  6
Continuous
 62
     7
100
AcDbLine
 10
541.5629382565745
 20
842.1638288815769
 30
0.0
 11
550.2232721711995
 21
847.1638749984574
 31
0.0
  0
LINE
  5
1C8
330
1F
100
AcDbEntity
  8
1
  6
Continuous
 62
     7
100
AcDbLine
 10
550.2232721711995
 20
847.1638749984574
 30
0.0
 11
523.5574775582923
 21
893.3496751022605
 31
0.0
  0
LINE
  5
1C9
330
1F
100
AcDbEntity
  8
1
  6
Continuous
 62
     7
100
AcDbLine
 10
523.5574775582923
 20
893.3496751022605
 30
0.0
 11
497.5767261436145
 21
878.3496812792455
 31
0.0
  0
LINE
  5
1CA
330
1F
100
AcDbEntity
  8
1
  6
Continuous
 62
     7
100
AcDbLine
 10
364.5306323695996
 20
1252.86521769
 30
0.0
 11
394.5302284404785
 21
1252.86521769
 31
0.0
  0
LINE
  5
1CB
330
1F
100
AcDbEntity
  8
1
  6
Continuous
 62
     7
100
AcDbLine
 10
394.5302284404785
 20
1252.86521769
 30
0.0
 11
394.5302284404785
 21
1319.86521769
 31
0.0
  0
LINE
  5
1CC
330
1F
100
AcDbEntity
  8
1
  6
Continuous
 62
     7
100
AcDbLine
 10
394.5302284404785
 20
1319.86521769
 30
0.0
 11
364.5306323695996
 21
1319.86521769
 31
0.0
  0
LINE
  5
1CD
330
1F
100
AcDbEntity
  8
1
  6
Continuous
 62
     7
100
AcDbLine
 10
364.5306323695996
 20
1319.86521769
 30
0.0
 11
364.5306323695996
 21
1252.86521769
 31
0.0
  0
LINE
  5
1CE
330
1F
100
AcDbEntity
  8
1
  6
Continuous
 62
     7
100
AcDbLine
 10
374.5336810028163
 20
1252.86521769
 30
0.0
 11
374.5336810028163
 21
1247.86521769
 31
0.0
  0
LINE
  5
1CF
330
1F
100
AcDbEntity
  8
1
  6
Continuous
 62
     7
100
AcDbLine
 10
384.5336810028163
 20
1252.86521769
 30
0.0
 11
384.5336810028163
 21
1247.86521769
 31
0.0
  0
LINE
  5
1D0
330
1F
100
AcDbEntity
  8
1
  6
Continuous
 62
     7
100
AcDbLine
 10
524.5338058086732
 20
1252.86521769
 30
0.0
 11
524.5338058086732
 21
1247.86521769
 31
0.0
  0
LINE
  5
1D1
330
1F
100
AcDbEntity
  8
1
  6
Continuous
 62
     7
100
AcDbLine
 10
514.5338058086732
 20
1252.86521769
 30
0.0
 11
514.5338058086732
 21
1247.86521769
 31
0.0
  0
LINE
  5
1D2
330
1F
100
AcDbEntity
  8
1
  6
Continuous
 62
     7
100
AcDbLine
 10
504.5307571754566
 20
1319.86521769
 30
0.0
 11
504.5307571754566
 21
1252.86521769
 31
0.0
  0
LINE
  5
1D3
330
1F
100
AcDbEntity
  8
1
  6
Continuous
 62
     7
100
AcDbLine
 10
534.5303532463364
 20
1319.86521769
 30
0.0
 11
504.5307571754566
 21
1319.86521769
 31
0.0
  0
LINE
  5
1D4
330
1F
100
AcDbEntity
  8
1
  6
Continuous
 62
     7
100
AcDbLine
 10
534.5303532463364
 20
1252.86521769
 30
0.0
 11
534.5303532463364
 21
1319.86521769
 31
0.0
  0
LINE
  5
1D5
330
1F
100
AcDbEntity
  8
1
  6
Continuous
 62
     7
100
AcDbLine
 10
504.5307571754566
 20
1252.86521769
 30
0.0
 11
534.5303532463364
 21
1252.86521769
 31
0.0
  0
LINE
  5
1D6
330
1F
100
AcDbEntity
  8
1
  6
DOT_CENTER
 62
     3
100
AcDbLine
 10
512.0338058086732
 20
1247.86521769
 30
0.0
 11
527.0338058086733
 21
1247.86521769
 31
0.0
  0
LINE
  5
1D7
330
1F
100
AcDbEntity
  8
1
  6
DOT_CENTER
 62
     3
100
AcDbLine
 10
527.0338058086733
 20
1324.86521769
 30
0.0
 11
512.0338058086732
 21
1324.86521769
 31
0.0
  0
LINE
  5
1D8
330
1F
100
AcDbEntity
  8
1
  6
Continuous
 62
     7
100
AcDbLine
 10
514.5338058086732
 20
1324.86521769
 30
0.0
 11
514.5338058086732
 21
1319.86521769
 31
0.0
  0
LINE
  5
1D9
330
1F
100
AcDbEntity
  8
1
  6
Continuous
 62
     7
100
AcDbLine
 10
524.5338058086732
 20
1324.86521769
 30
0.0
 11
524.5338058086732
 21
1319.86521769
 31
0.0
  0
LINE
  5
1DA
330
1F
100
AcDbEntity
  8
1
  6
Continuous
 62
     7
100
AcDbLine
 10
1769.851043756575
 20
1324.86521769
 30
0.0
 11
1769.851043756575
 21
1319.86521769
 31
0.0
  0
LINE
  5
1DB
330
1F
100
AcDbEntity
  8
1
  6
Continuous
 62
     7
100
AcDbLine
 10
1759.851043756575
 20
1324.86521769
 30
0.0
 11
1759.851043756575
 21
1319.86521769
 31
0.0
  0
LINE
  5
1DC
330
1F
100
AcDbEntity
  8
1
  6
DOT_CENTER
 62
     3
100
AcDbLine
 10
1764.851043756578
 20
1255.36521769
 30
0.0
 11
1764.851043756575
 21
1344.36521769
 31
0.0
  0
LINE
  5
1DD
330
1F
100
AcDbEntity
  8
1
  6
DOT_CENTER
 62
     3
100
AcDbLine
 10
1764.851043756575
 20
1225.310256153204
 30
0.0
 11
1764.851043756575
 21
1255.36521769
 31
0.0
  0
LINE
  5
1DE
330
1F
100
AcDbEntity
  8
1
  6
DOT_CENTER
 62
     3
100
AcDbLine
 10
1757.351043756575
 20
1247.86521769
 30
0.0
 11
1772.351043756575
 21
1247.86521769
 31
0.0
  0
LINE
  5
1DF
330
1F
100
AcDbEntity
  8
1
  6
Continuous
 62
     7
100
AcDbLine
 10
1749.847995123358
 20
1252.86521769
 30
0.0
 11
1779.847591194238
 21
1252.86521769
 31
0.0
  0
LINE
  5
1E0
330
1F
100
AcDbEntity
  8
1
  6
Continuous
 62
     7
100
AcDbLine
 10
1779.847591194238
 20
1252.86521769
 30
0.0
 11
1779.847591194238
 21
1319.86521769
 31
0.0
  0
LINE
  5
1E1
330
1F
100
AcDbEntity
  8
1
  6
Continuous
 62
     7
100
AcDbLine
 10
1779.847591194238
 20
1319.86521769
 30
0.0
 11
1749.847995123358
 21
1319.86521769
 31
0.0
  0
LINE
  5
1E2
330
1F
100
AcDbEntity
  8
1
  6
Continuous
 62
     7
100
AcDbLine
 10
1749.847995123358
 20
1319.86521769
 30
0.0
 11
1749.847995123358
 21
1252.86521769
 31
0.0
  0
LINE
  5
1E3
330
1F
100
AcDbEntity
  8
1
  6
Continuous
 62
     7
100
AcDbLine
 10
1759.851043756575
 20
1252.86521769
 30
0.0
 11
1759.851043756575
 21
1247.86521769
 31
0.0
  0
LINE
  5
1E4
330
1F
100
AcDbEntity
  8
1
  6
Continuous
 62
     7
100
AcDbLine
 10
1769.851043756575
 20
1252.86521769
 30
0.0
 11
1769.851043756575
 21
1247.86521769
 31
0.0
  0
LINE
  5
1E5
330
1F
100
AcDbEntity
  8
1
  6
Continuous
 62
     7
100
AcDbLine
 10
1529.851440395633
 20
1252.86521769
 30
0.0
 11
1529.851440395633
 21
1247.86521769
 31
0.0
  0
LINE
  5
1E6
330
1F
100
AcDbEntity
  8
1
  6
Continuous
 62
     7
100
AcDbLine
 10
1519.851440395633
 20
1252.86521769
 30
0.0
 11
1519.851440395633
 21
1247.86521769
 31
0.0
  0
LINE
  5
1E7
330
1F
100
AcDbEntity
  8
1
  6
Continuous
 62
     7
100
AcDbLine
 10
1509.848391762416
 20
1319.86521769
 30
0.0
 11
1509.848391762416
 21
1252.86521769
 31
0.0
  0
LINE
  5
1E8
330
1F
100
AcDbEntity
  8
1
  6
Continuous
 62
     7
100
AcDbLine
 10
1539.847987833296
 20
1319.86521769
 30
0.0
 11
1509.848391762416
 21
1319.86521769
 31
0.0
  0
LINE
  5
1E9
330
1F
100
AcDbEntity
  8
1
  6
Continuous
 62
     7
100
AcDbLine
 10
1539.847987833296
 20
1252.86521769
 30
0.0
 11
1539.847987833296
 21
1319.86521769
 31
0.0
  0
LINE
  5
1EA
330
1F
100
AcDbEntity
  8
1
  6
Continuous
 62
     7
100
AcDbLine
 10
1509.848391762416
 20
1252.86521769
 30
0.0
 11
1539.847987833296
 21
1252.86521769
 31
0.0
  0
LINE
  5
1EB
330
1F
100
AcDbEntity
  8
1
  6
Continuous
 62
     7
100
AcDbLine
 10
1768.874721118197
 20
893.3496541579945
 30
0.0
 11
1742.893969703515
 21
878.3496603349836
 31
0.0
  0
LINE
  5
1EC
330
1F
100
AcDbEntity
  8
1
  6
Continuous
 62
     7
100
AcDbLine
 10
1795.540515731096
 20
847.1638540541881
 30
0.0
 11
1768.874721118197
 21
893.3496541579945
 31
0.0
  0
LINE
  5
1ED
330
1F
100
AcDbEntity
  8
1
  6
Continuous
 62
     7
100
AcDbLine
 10
1786.880181816471
 20
842.1638079373082
 30
0.0
 11
1795.540515731096
 21
847.1638540541881
 31
0.0
  0
LINE
  5
1EE
330
1F
100
AcDbEntity
  8
1
  6
Continuous
 62
     7
100
AcDbLine
 10
1769.559743053503
 20
832.1638479550304
 30
0.0
 11
1778.219927778625
 21
837.1638079373088
 31
0.0
  0
LINE
  5
1EF
330
1F
100
AcDbEntity
  8
1
  6
Continuous
 62
     7
100
AcDbLine
 10
1742.893969703515
 20
878.3496603349836
 30
0.0
 11
1769.559743053503
 21
832.1638479550304
 31
0.0
  0
LINE
  5
1F0
330
1F
100
AcDbEntity
  8
1
  6
Continuous
 62
     7
100
AcDbLine
 10
1779.380109053421
 20
855.1541469843085
 30
0.0
 11
1791.83024856745
 21
833.5901517299568
 31
0.0
  0
LINE
  5
1F1
330
1F
100
AcDbEntity
  8
1
  6
Continuous
 62
     7
100
AcDbLine
 10
1559.778991156926
 20
775.5149295244353
 30
0.0
 11
1533.79822904292
 21
760.5149295241663
 31
0.0
  0
LINE
  5
1F2
330
1F
100
AcDbEntity
  8
1
  6
Continuous
 62
     7
100
AcDbLine
 10
1587.694756348217
 20
727.1640489245939
 30
0.0
 11
1559.778991156926
 21
775.5149295244353
 31
0.0
  0
LINE
  5
1F3
330
1F
100
AcDbEntity
  8
1
  6
Continuous
 62
     7
100
AcDbLine
 10
1579.034430429039
 20
722.1640074238886
 30
0.0
 11
1587.694756348217
 21
727.1640489245939
 31
0.0
  0
LINE
  5
1F4
330
1F
100
AcDbEntity
  8
1
  6
Continuous
 62
     7
100
AcDbLine
 10
1561.713994234209
 20
712.1640489243247
 30
0.0
 11
1570.374176391192
 21
717.1640074238884
 31
0.0
  0
LINE
  5
1F5
330
1F
100
AcDbEntity
  8
1
  6
Continuous
 62
     7
100
AcDbLine
 10
1533.79822904292
 20
760.5149295241663
 30
0.0
 11
1561.713994234209
 21
712.1640489243247
 31
0.0
  0
LINE
  5
1F6
330
1F
100
AcDbEntity
  8
1
  6
Continuous
 62
     7
100
AcDbLine
 10
1779.380361521926
 20
855.1542927470678
 30
0.0
 11
1770.720107484082
 21
850.1542927470694
 31
0.0
  0
LINE
  5
1F7
330
1F
100
AcDbEntity
  8
1
  6
Continuous
 62
     3
100
AcDbLine
 10
1778.677148894057
 20
854.7482927470705
 30
0.0
 11
1791.127170153578
 21
833.1842292184458
 31
0.0
  0
LINE
  5
1F8
330
1F
100
AcDbEntity
  8
1
  6
Continuous
 62
     3
100
AcDbLine
 10
1783.873341371479
 20
828.9962292184465
 30
0.0
 11
1771.423320111958
 21
850.5602927470713
 31
0.0
  0
LINE
  5
1F9
330
1F
100
AcDbEntity
  8
1
  6
Continuous
 62
     7
100
AcDbLine
 10
1783.169994529606
 20
828.5901517299581
 30
0.0
 11
1770.719855015574
 21
850.154146984309
 31
0.0
  0
LINE
  5
1FA
330
1F
100
AcDbEntity
  8
1
  6
Continuous
 62
     7
100
AcDbLine
 10
1575.324222393646
 20
708.5903824859388
 30
0.0
 11
1562.874106690515
 21
730.1543482389501
 31
0.0
  0
LINE
  5
1FB
330
1F
100
AcDbEntity
  8
1
  6
Continuous
 62
     3
100
AcDbLine
 10
1576.027569235519
 20
708.9964599744282
 30
0.0
 11
1563.577566703179
 21
730.5604910666249
 31
0.0
  0
LINE
  5
1FC
330
1F
100
AcDbEntity
  8
1
  6
DASH_CENTER
 62
     3
100
AcDbLine
 10
1544.543150368606
 20
771.9041257161377
 30
0.0
 11
1590.504540046509
 21
692.297741286556
 31
0.0
  0
LINE
  5
1FD
330
1F
100
AcDbEntity
  8
1
  6
Continuous
 62
     3
100
AcDbLine
 10
1570.831395485277
 20
734.7484910666231
 30
0.0
 11
1583.281398017617
 21
713.1844599744263
 31
0.0
  0
LINE
  5
1FE
330
1F
100
AcDbEntity
  8
1
  6
Continuous
 62
     7
100
AcDbLine
 10
1571.534608113147
 20
735.1544910666219
 30
0.0
 11
1562.874354075304
 21
730.1544910666243
 31
0.0
  0
LINE
  5
1FF
330
1F
100
AcDbEntity
  8
1
  6
Continuous
 62
     7
100
AcDbLine
 10
1571.534360728361
 20
735.1543482389501
 30
0.0
 11
1583.984476431491
 21
713.5903824859403
 31
0.0
  0
LINE
  5
200
330
1F
100
AcDbEntity
  8
1
  6
Continuous
 62
     7
100
AcDbLine
 10
1586.754477768893
 20
708.6078504349807
 30
0.0
 11
1590.374883079614
 21
702.3371244928162
 31
0.0
  0
LINE
  5
201
330
1F
100
AcDbEntity
  8
1
  6
Continuous
 62
     7
100
AcDbLine
 10
1578.254477768891
 20
703.7003731468692
 30
0.0
 11
1581.874883079612
 21
697.4296472047047
 31
0.0
  0
LINE
  5
202
330
1F
100
AcDbEntity
  8
1
  6
Continuous
 62
     7
100
AcDbLine
 10
1591.004477768893
 20
711.061589079035
 30
0.0
 11
1594.624883079616
 21
704.7908631368728
 31
0.0
  0
LINE
  5
203
330
1F
100
AcDbEntity
  8
1
  6
Continuous
 62
     7
100
AcDbLine
 10
1574.00447776889
 20
701.246634502814
 30
0.0
 11
1591.004477768893
 21
711.061589079035
 31
0.0
  0
LINE
  5
204
330
1F
100
AcDbEntity
  8
1
  6
Continuous
 62
     7
100
AcDbLine
 10
1577.624883079614
 20
694.9759085606502
 30
0.0
 11
1574.00447776889
 21
701.246634502814
 31
0.0
  0
LINE
  5
205
330
1F
100
AcDbEntity
  8
1
  6
Continuous
 62
     7
100
AcDbLine
 10
1574.537044054076
 20
701.5541117909277
 30
0.0
 11
1573.287044054078
 21
703.7191753003878
 31
0.0
  0
LINE
  5
206
330
1F
100
AcDbEntity
  8
1
  6
Continuous
 62
     7
100
AcDbLine
 10
1590.471911483709
 20
710.7541117909232
 30
0.0
 11
1574.537044054076
 21
701.5541117909277
 31
0.0
  0
LINE
  5
207
330
1F
100
AcDbEntity
  8
1
  6
Continuous
 62
     7
100
AcDbLine
 10
1589.22191148371
 20
712.9191753003843
 30
0.0
 11
1590.471911483709
 21
710.7541117909232
 31
0.0
  0
LINE
  5
208
330
1F
100
AcDbEntity
  8
1
  6
DOT_CENTER
 62
     3
100
AcDbLine
 10
1517.351440395633
 20
1247.86521769
 30
0.0
 11
1532.351440395633
 21
1247.86521769
 31
0.0
  0
LINE
  5
209
330
1F
100
AcDbEntity
  8
1
  6
DOT_CENTER
 62
     3
100
AcDbLine
 10
1532.351440395633
 20
1324.86521769
 30
0.0
 11
1517.351440395633
 21
1324.86521769
 31
0.0
  0
LINE
  5
20A
330
1F
100
AcDbEntity
  8
1
  6
Continuous
 62
     7
100
AcDbLine
 10
1519.851440395633
 20
1324.86521769
 30
0.0
 11
1519.851440395633
 21
1319.86521769
 31
0.0
  0
LINE
  5
20B
330
1F
100
AcDbEntity
  8
1
  6
Continuous
 62
     7
100
AcDbLine
 10
1529.851440395633
 20
1324.86521769
 30
0.0
 11
1529.851440395633
 21
1319.86521769
 31
0.0
  0
LINE
  5
20C
330
1F
100
AcDbEntity
  8
1
  6
Continuous
 62
     7
100
AcDbLine
 10
1034.214127055762
 20
838.1164338816243
 30
0.0
 11
1014.395324902245
 21
838.1164338816243
 31
0.0
  0
LINE
  5
20D
330
1F
100
AcDbEntity
  8
1
  6
Continuous
 62
     7
100
AcDbLine
 10
1013.780370326022
 20
830.875623260177
 30
0.0
 11
1013.780370326022
 21
838.1164338816243
 31
0.0
  0
LINE
  5
20E
330
1F
100
AcDbEntity
  8
1
  6
Continuous
 62
     7
100
AcDbLine
 10
1013.780370326022
 20
838.1164338816243
 30
0.0
 11
1034.829081631986
 21
838.1164338816243
 31
0.0
  0
LINE
  5
20F
330
1F
100
AcDbEntity
  8
1
  6
Continuous
 62
     7
100
AcDbLine
 10
1034.829081631986
 20
838.1164338816243
 30
0.0
 11
1034.829081631986
 21
830.875623260177
 31
0.0
  0
LINE
  5
210
330
1F
100
AcDbEntity
  8
1
  6
Continuous
 62
     7
100
AcDbLine
 10
1019.842548152512
 20
838.1164338816243
 30
0.0
 11
1019.842548152512
 21
830.875623260177
 31
0.0
  0
LINE
  5
211
330
1F
100
AcDbEntity
  8
1
  6
Continuous
 62
     7
100
AcDbLine
 10
1028.766903805493
 20
838.1164338816243
 30
0.0
 11
1028.766903805493
 21
830.875623260177
 31
0.0
  0
LINE
  5
212
330
1F
100
AcDbEntity
  8
1
  6
Continuous
 62
     7
100
AcDbLine
 10
1031.220642449553
 20
830.1164338816243
 30
0.0
 11
1017.388809508456
 21
830.1164338816243
 31
0.0
  0
LINE
  5
213
330
1F
100
AcDbEntity
  8
1
  6
Continuous
 62
     7
100
AcDbLine
 10
954.2206424495554
 20
830.1164338816243
 30
0.0
 11
940.3888095084595
 21
830.1164338816243
 31
0.0
  0
LINE
  5
214
330
1F
100
AcDbEntity
  8
1
  6
Continuous
 62
     7
100
AcDbLine
 10
951.7669038054975
 20
838.1164338816243
 30
0.0
 11
951.7669038054975
 21
830.875623260177
 31
0.0
  0
LINE
  5
215
330
1F
100
AcDbEntity
  8
1
  6
Continuous
 62
     7
100
AcDbLine
 10
942.8425481525156
 20
838.1164338816243
 30
0.0
 11
942.8425481525156
 21
830.875623260177
 31
0.0
  0
LINE
  5
216
330
1F
100
AcDbEntity
  8
1
  6
Continuous
 62
     7
100
AcDbLine
 10
957.8290816319874
 20
838.1164338816243
 30
0.0
 11
957.8290816319874
 21
830.875623260177
 31
0.0
  0
LINE
  5
217
330
1F
100
AcDbEntity
  8
1
  6
Continuous
 62
     7
100
AcDbLine
 10
936.7803703260244
 20
838.1164338816243
 30
0.0
 11
957.8290816319874
 21
838.1164338816243
 31
0.0
  0
LINE
  5
218
330
1F
100
AcDbEntity
  8
1
  6
Continuous
 62
     7
100
AcDbLine
 10
936.7803703260244
 20
830.875623260177
 30
0.0
 11
936.7803703260244
 21
838.1164338816243
 31
0.0
  0
LINE
  5
219
330
1F
100
AcDbEntity
  8
1
  6
Continuous
 62
     7
100
AcDbLine
 10
957.2141270557646
 20
838.1164338816243
 30
0.0
 11
937.3953249022476
 21
838.1164338816243
 31
0.0
  0
LINE
  5
21A
330
1F
100
AcDbEntity
  8
1
  6
Continuous
 62
     7
100
AcDbLine
 10
942.5547259790034
 20
848.6164338816251
 30
0.0
 11
942.5547259790034
 21
876.7164338817202
 31
0.0
  0
LINE
  5
21B
330
1F
100
AcDbEntity
  8
1
  6
Continuous
 62
     3
100
AcDbLine
 10
943.3667259790046
 20
848.6164338816251
 30
0.0
 11
943.3667259790046
 21
864.31643388172
 31
0.0
  0
LINE
  5
21C
330
1F
100
AcDbEntity
  8
1
  6
Continuous
 62
     7
100
AcDbLine
 10
1019.554725979003
 20
854.1164338816243
 30
0.0
 11
1019.554725979003
 21
876.7164338817202
 31
0.0
  0
LINE
  5
21D
330
1F
100
AcDbEntity
  8
1
  6
Continuous
 62
     7
100
AcDbLine
 10
436.2893230029154
 20
754.1331460705449
 30
0.0
 11
439.9097283136385
 21
747.8624201283827
 31
0.0
  0
LINE
  5
21E
330
1F
100
AcDbEntity
  8
1
  6
Continuous
 62
     7
100
AcDbLine
 10
438.1643230029154
 20
745.9780735182427
 30
0.0
 11
425.4143230029154
 21
738.6168575860751
 31
0.0
  0
LINE
  5
21F
330
1F
100
AcDbEntity
  8
1
  6
Continuous
 62
     7
100
AcDbLine
 10
432.0393230029154
 20
751.6794074264899
 30
0.0
 11
435.6597283136385
 21
745.4086814843251
 31
0.0
  0
LINE
  5
220
330
1F
100
AcDbEntity
  8
1
  6
Continuous
 62
     7
100
AcDbLine
 10
423.5393230029154
 20
746.7719301383779
 30
0.0
 11
427.1597283136362
 21
740.5012041962136
 31
0.0
  0
LINE
  5
221
330
1F
100
AcDbEntity
  8
1
  6
Continuous
 62
     7
100
AcDbLine
 10
422.9097283136376
 20
738.0474655521581
 30
0.0
 11
419.2893230029145
 21
744.3181914943215
 31
0.0
  0
LINE
  5
222
330
1F
100
AcDbEntity
  8
1
  6
Continuous
 62
     7
100
AcDbLine
 10
2278.220642449553
 20
830.1164338816243
 30
0.0
 11
2264.388809508457
 21
830.1164338816243
 31
0.0
  0
LINE
  5
223
330
1F
100
AcDbEntity
  8
1
  6
Continuous
 62
     7
100
AcDbLine
 10
2275.766903805494
 20
838.1164338816243
 30
0.0
 11
2275.766903805494
 21
830.875623260177
 31
0.0
  0
LINE
  5
224
330
1F
100
AcDbEntity
  8
1
  6
Continuous
 62
     7
100
AcDbLine
 10
2266.842548152513
 20
838.1164338816243
 30
0.0
 11
2266.842548152513
 21
830.875623260177
 31
0.0
  0
LINE
  5
225
330
1F
100
AcDbEntity
  8
1
  6
Continuous
 62
     7
100
AcDbLine
 10
2281.829081631986
 20
838.1164338816243
 30
0.0
 11
2281.829081631986
 21
830.875623260177
 31
0.0
  0
LINE
  5
226
330
1F
100
AcDbEntity
  8
1
  6
Continuous
 62
     7
100
AcDbLine
 10
2260.780370326021
 20
838.1164338816243
 30
0.0
 11
2281.829081631986
 21
838.1164338816243
 31
0.0
  0
LINE
  5
227
330
1F
100
AcDbEntity
  8
1
  6
Continuous
 62
     7
100
AcDbLine
 10
2260.780370326021
 20
830.875623260177
 30
0.0
 11
2260.780370326021
 21
838.1164338816243
 31
0.0
  0
LINE
  5
228
330
1F
100
AcDbEntity
  8
1
  6
Continuous
 62
     7
100
AcDbLine
 10
2281.214127055763
 20
838.1164338816243
 30
0.0
 11
2261.395324902246
 21
838.1164338816243
 31
0.0
  0
LINE
  5
229
330
1F
100
AcDbEntity
  8
1
  6
Continuous
 62
     7
100
AcDbLine
 10
2204.214127055765
 20
838.1164338816243
 30
0.0
 11
2184.395324902248
 21
838.1164338816243
 31
0.0
  0
LINE
  5
22A
330
1F
100
AcDbEntity
  8
1
  6
Continuous
 62
     7
100
AcDbLine
 10
2183.780370326024
 20
830.875623260177
 30
0.0
 11
2183.780370326024
 21
838.1164338816243
 31
0.0
  0
LINE
  5
22B
330
1F
100
AcDbEntity
  8
1
  6
Continuous
 62
     7
100
AcDbLine
 10
2183.780370326024
 20
838.1164338816243
 30
0.0
 11
2204.829081631988
 21
838.1164338816243
 31
0.0
  0
LINE
  5
22C
330
1F
100
AcDbEntity
  8
1
  6
Continuous
 62
     7
100
AcDbLine
 10
2204.829081631988
 20
838.1164338816243
 30
0.0
 11
2204.829081631988
 21
830.875623260177
 31
0.0
  0
LINE
  5
22D
330
1F
100
AcDbEntity
  8
1
  6
Continuous
 62
     7
100
AcDbLine
 10
2189.842548152515
 20
838.1164338816243
 30
0.0
 11
2189.842548152515
 21
830.875623260177
 31
0.0
  0
LINE
  5
22E
330
1F
100
AcDbEntity
  8
1
  6
Continuous
 62
     7
100
AcDbLine
 10
2198.766903805497
 20
838.1164338816243
 30
0.0
 11
2198.766903805497
 21
830.875623260177
 31
0.0
  0
LINE
  5
22F
330
1F
100
AcDbEntity
  8
1
  6
Continuous
 62
     7
100
AcDbLine
 10
2201.220642449555
 20
830.1164338816243
 30
0.0
 11
2187.388809508459
 21
830.1164338816243
 31
0.0
  0
LINE
  5
230
330
1F
100
AcDbEntity
  8
1
  6
Continuous
 62
     3
100
AcDbLine
 10
2190.366725979004
 20
854.1164338816242
 30
0.0
 11
2190.366725979004
 21
864.31643388172
 31
0.0
  0
LINE
  5
231
330
1F
100
AcDbEntity
  8
1
  6
Continuous
 62
     7
100
AcDbLine
 10
2189.554725979004
 20
854.1164338816242
 30
0.0
 11
2189.554725979004
 21
876.7164338817202
 31
0.0
  0
LINE
  5
232
330
1F
100
AcDbEntity
  8
1
  6
Continuous
 62
     7
100
AcDbLine
 10
2266.554725979004
 20
854.1164338816242
 30
0.0
 11
2266.554725979004
 21
876.7164338817202
 31
0.0
  0
LINE
  5
233
330
1F
100
AcDbEntity
  8
1
  6
Continuous
 62
     3
100
AcDbLine
 10
2267.366725979004
 20
854.1164338816242
 30
0.0
 11
2267.366725979004
 21
864.31643388172
 31
0.0
  0
LINE
  5
234
330
1F
100
AcDbEntity
  8
1
  6
Continuous
 62
     7
100
AcDbLine
 10
1595.004477768893
 20
704.1333858487591
 30
0.0
 11
1598.624883079616
 21
697.8626599065968
 31
0.0
  0
LINE
  5
235
330
1F
100
AcDbEntity
  8
1
  6
Continuous
 62
     7
100
AcDbLine
 10
1596.879477768893
 20
695.978313296457
 30
0.0
 11
1584.129477768892
 21
688.6170973642903
 31
0.0
  0
LINE
  5
236
330
1F
100
AcDbEntity
  8
1
  6
Continuous
 62
     7
100
AcDbLine
 10
1594.374971158855
 20
695.4090385512454
 30
0.0
 11
1590.754492331256
 21
701.6797220478459
 31
0.0
  0
LINE
  5
237
330
1F
100
AcDbEntity
  8
1
  6
Continuous
 62
     7
100
AcDbLine
 10
1581.624883079614
 20
688.0477053303742
 30
0.0
 11
1578.00447776889
 21
694.3184312725381
 31
0.0
  0
LINE
  5
238
330
1F
100
AcDbEntity
  8
1
  6
Continuous
 62
     7
100
AcDbLine
 10
1595.004477768893
 20
704.1333858487591
 30
0.0
 11
1598.624883079616
 21
697.8626599065968
 31
0.0
  0
LINE
  5
239
330
1F
100
AcDbEntity
  8
1
  6
DASH_CENTER
 62
     3
100
AcDbLine
 10
385.8279956026196
 20
821.9038859379159
 30
0.0
 11
431.7893852806124
 21
742.2975015082041
 31
0.0
  0
LINE
  5
23A
330
1F
100
AcDbEntity
  8
1
  6
Continuous
 62
     7
100
AcDbLine
 10
419.2893230029145
 20
744.3181914943215
 30
0.0
 11
436.2893230029154
 21
754.1331460705449
 31
0.0
  0
LINE
  5
23B
330
1F
100
AcDbEntity
  8
1
  6
Continuous
 62
     3
100
AcDbLine
 10
1020.366725979004
 20
854.1164338816242
 30
0.0
 11
1020.366725979005
 21
864.31643388172
 31
0.0
  0
LINE
  5
23C
330
1F
100
AcDbEntity
  8
1
  6
DASH_CENTER
 62
     3
100
AcDbLine
 10
2271.304725979004
 20
830.1164338816243
 30
0.0
 11
2271.304725979004
 21
876.7164338817202
 31
0.0
  0
LINE
  5
23D
330
1F
100
AcDbEntity
  8
1
  6
DOT_CENTER
 62
     3
100
AcDbLine
 10
1772.351043756575
 20
1324.86521769
 30
0.0
 11
1757.351043756575
 21
1324.86521769
 31
0.0
  0
LINE
  5
23E
330
1F
100
AcDbEntity
  8
1
  6
Continuous
 62
     7
100
AcDbLine
 10
1784.85144114015
 20
1301.365217690001
 30
0.0
 11
1814.851441140095
 21
1301.365217690001
 31
0.0
  0
LINE
  5
23F
330
1F
100
AcDbEntity
  8
1
  6
DASHED
 62
     4
100
AcDbLine
 10
1784.851441140149
 20
1271.365217690001
 30
0.0
 11
1764.851441140095
 21
1271.365217690001
 31
0.0
  0
LINE
  5
240
330
1F
100
AcDbEntity
  8
1
  6
Continuous
 62
     7
100
AcDbLine
 10
539.5341613036495
 20
1301.365217690001
 30
0.0
 11
569.5341613036454
 21
1301.365217690001
 31
0.0
  0
LINE
  5
241
330
1F
100
AcDbEntity
  8
1
  6
DASH_CENTER
 62
     3
100
AcDbLine
 10
447.1303507359845
 20
795.7260528249476
 30
0.0
 11
432.1303507359845
 21
821.7068149384802
 31
0.0
  0
LINE
  5
242
330
1F
100
AcDbEntity
  8
1
  6
Continuous
 62
     7
100
AcDbLine
 10
569.5341613036454
 20
1271.365217690001
 30
0.0
 11
539.5341613036495
 21
1271.365217690001
 31
0.0
  0
LINE
  5
243
330
1F
100
AcDbEntity
  8
1
  6
Continuous
 62
     7
100
AcDbLine
 10
105.6991928156414
 20
758.7164338817104
 30
0.0
 11
105.6991928156414
 21
757.2164338817104
 31
0.0
  0
LINE
  5
244
330
1F
100
AcDbEntity
  8
1
  6
Continuous
 62
     7
100
AcDbLine
 10
135.6991928156413
 20
758.7164338817104
 30
0.0
 11
135.6991928156413
 21
760.2164338817104
 31
0.0
  0
LINE
  5
245
330
1F
100
AcDbEntity
  8
1
  6
Continuous
 62
     7
100
AcDbLine
 10
135.6991928156413
 20
757.2164338817104
 30
0.0
 11
135.6991928156413
 21
758.7164338817104
 31
0.0
  0
LINE
  5
246
330
1F
100
AcDbEntity
  8
1
  6
Continuous
 62
     7
100
AcDbLine
 10
542.8033991901176
 20
870.0154719873954
 30
0.0
 11
568.7841613036454
 21
885.015471987396
 31
0.0
  0
LINE
  5
247
330
1F
100
AcDbEntity
  8
1
  6
Continuous
 62
     7
100
AcDbLine
 10
105.6991928156414
 20
760.2164338817104
 30
0.0
 11
105.6991928156414
 21
758.7164338817104
 31
0.0
  0
LINE
  5
248
330
1F
100
AcDbEntity
  8
1
  6
Continuous
 62
     7
100
AcDbLine
 10
135.6991928156413
 20
760.2164338817104
 30
0.0
 11
126.6991928156404
 21
760.2164338817104
 31
0.0
  0
LINE
  5
249
330
1F
100
AcDbEntity
  8
1
  6
Continuous
 62
     7
100
AcDbLine
 10
105.6991928156414
 20
757.2164338817104
 30
0.0
 11
135.6991928156413
 21
757.2164338817104
 31
0.0
  0
LINE
  5
24A
330
1F
100
AcDbEntity
  8
1
  6
DASH_CENTER
 62
     3
100
AcDbLine
 10
319.5341613036454
 20
1286.365217690001
 30
0.0
 11
569.5341613036454
 21
1286.365217690001
 31
0.0
  0
LINE
  5
24B
330
1F
100
AcDbEntity
  8
1
  6
DASH_CENTER
 62
     3
100
AcDbLine
 10
569.5341613036463
 20
883.7164338817202
 30
0.0
 11
353.0278103575452
 21
758.7164338817104
 31
0.0
  0
LINE
  5
24C
330
1F
100
AcDbEntity
  8
1
  6
DASHED
 62
     4
100
AcDbLine
 10
519.5341613036454
 20
1301.365217690001
 30
0.0
 11
539.5341613036495
 21
1301.365217690001
 31
0.0
  0
LINE
  5
24D
330
1F
100
AcDbEntity
  8
1
  6
Continuous
 62
     7
100
AcDbLine
 10
569.5341613036454
 20
1301.365217690001
 30
0.0
 11
569.5341613036454
 21
1271.365217690001
 31
0.0
  0
LINE
  5
24E
330
1F
100
AcDbEntity
  8
1
  6
DASHED
 62
     4
100
AcDbLine
 10
352.2778103575452
 20
760.0154719873868
 30
0.0
 11
353.7778103575452
 21
757.4173957760338
 31
0.0
  0
LINE
  5
24F
330
1F
100
AcDbEntity
  8
1
  6
DASHED
 62
     4
100
AcDbLine
 10
526.9828911144265
 20
857.4173957760396
 30
0.0
 11
544.3033991901162
 21
867.4173957760432
 31
0.0
  0
LINE
  5
250
330
1F
100
AcDbEntity
  8
1
  6
Continuous
 62
     7
100
AcDbLine
 10
568.7841613036454
 20
885.015471987396
 30
0.0
 11
570.2841613036463
 21
882.4173957760429
 31
0.0
  0
LINE
  5
251
330
1F
100
AcDbEntity
  8
1
  6
DASHED
 62
     4
100
AcDbLine
 10
525.4828911144265
 20
860.015471987394
 30
0.0
 11
542.8033991901176
 21
870.0154719873954
 31
0.0
  0
LINE
  5
252
330
1F
100
AcDbEntity
  8
1
  6
Continuous
 62
     7
100
AcDbLine
 10
970.8237524885445
 20
885.2164338817202
 30
0.0
 11
970.8237524885445
 21
882.2164338817202
 31
0.0
  0
LINE
  5
253
330
1F
100
AcDbEntity
  8
1
  6
Continuous
 62
     7
100
AcDbLine
 10
1000.823752488545
 20
885.2164338817202
 30
0.0
 11
970.8237524885445
 21
885.2164338817202
 31
0.0
  0
LINE
  5
254
330
1F
100
AcDbEntity
  8
1
  6
Continuous
 62
     7
100
AcDbLine
 10
1000.823752488545
 20
882.2164338817202
 30
0.0
 11
1000.823752488545
 21
885.2164338817202
 31
0.0
  0
LINE
  5
255
330
1F
100
AcDbEntity
  8
1
  6
Continuous
 62
     7
100
AcDbLine
 10
970.8237524885445
 20
882.2164338817202
 30
0.0
 11
1000.823752488545
 21
882.2164338817202
 31
0.0
  0
LINE
  5
256
330
1F
100
AcDbEntity
  8
1
  6
Continuous
 62
     7
100
AcDbLine
 10
114.6991928156413
 20
763.7164338817104
 30
0.0
 11
114.6991928156413
 21
757.2164338817104
 31
0.0
  0
LINE
  5
257
330
1F
100
AcDbEntity
  8
1
  6
Continuous
 62
     7
100
AcDbLine
 10
347.9297341461933
 20
761.546560900631
 30
0.0
 11
351.1797341461925
 21
755.9173957760341
 31
0.0
  0
LINE
  5
258
330
1F
100
AcDbEntity
  8
1
  6
Continuous
 62
     7
100
AcDbLine
 10
114.6991928156413
 20
757.2164338817104
 30
0.0
 11
126.6991928156404
 21
757.2164338817104
 31
0.0
  0
LINE
  5
259
330
1F
100
AcDbEntity
  8
1
  6
Continuous
 62
     7
100
AcDbLine
 10
126.6991928156404
 20
757.2164338817104
 30
0.0
 11
126.6991928156404
 21
763.7164338817104
 31
0.0
  0
LINE
  5
25A
330
1F
100
AcDbEntity
  8
1
  6
Continuous
 62
     7
100
AcDbLine
 10
351.1797341461925
 20
755.9173957760341
 30
0.0
 11
353.7778103575452
 21
757.4173957760338
 31
0.0
  0
LINE
  5
25B
330
1F
100
AcDbEntity
  8
1
  6
Continuous
 62
     7
100
AcDbLine
 10
353.7778103575452
 20
757.4173957760338
 30
0.0
 11
353.0278103575452
 21
758.7164338817104
 31
0.0
  0
LINE
  5
25C
330
1F
100
AcDbEntity
  8
1
  6
Continuous
 62
     7
100
AcDbLine
 10
975.3237524885436
 20
859.2164338817202
 30
0.0
 11
996.3237524885445
 21
859.2164338817202
 31
0.0
  0
LINE
  5
25D
330
1F
100
AcDbEntity
  8
1
  6
Continuous
 62
     7
100
AcDbLine
 10
973.3237524885445
 20
882.2164338817202
 30
0.0
 11
973.3237524885445
 21
879.216433881719
 31
0.0
  0
LINE
  5
25E
330
1F
100
AcDbEntity
  8
1
  6
Continuous
 62
     7
100
AcDbLine
 10
998.3237524885445
 20
882.2164338817202
 30
0.0
 11
973.3237524885445
 21
882.2164338817202
 31
0.0
  0
LINE
  5
25F
330
1F
100
AcDbEntity
  8
1
  6
Continuous
 62
     7
100
AcDbLine
 10
998.3237524885445
 20
861.2164338817202
 30
0.0
 11
998.3237524885445
 21
879.216433881719
 31
0.0
  0
LINE
  5
260
330
1F
100
AcDbEntity
  8
1
  6
Continuous
 62
     7
100
AcDbLine
 10
996.3237524885445
 20
859.2164338817202
 30
0.0
 11
998.3237524885445
 21
861.2164338817202
 31
0.0
  0
LINE
  5
261
330
1F
100
AcDbEntity
  8
1
  6
Continuous
 62
     7
100
AcDbLine
 10
975.3237524885436
 20
859.2164338817202
 30
0.0
 11
973.3237524885454
 21
861.2164338817202
 31
0.0
  0
LINE
  5
262
330
1F
100
AcDbEntity
  8
1
  6
Continuous
 62
     7
100
AcDbLine
 10
560.9995516128234
 20
850.4988114890025
 30
0.0
 11
549.4995516128234
 21
870.4173957760445
 31
0.0
  0
LINE
  5
263
330
1F
100
AcDbEntity
  8
1
  6
Continuous
 62
     7
100
AcDbLine
 10
546.9014754014703
 20
868.9173957760427
 30
0.0
 11
558.4014754014703
 21
848.9988114890012
 31
0.0
  0
LINE
  5
264
330
1F
100
AcDbEntity
  8
1
  6
Continuous
 62
     7
100
AcDbLine
 10
558.4014754014703
 20
848.9988114890012
 30
0.0
 11
560.9995516128234
 21
850.4988114890025
 31
0.0
  0
LINE
  5
265
330
1F
100
AcDbEntity
  8
1
  6
DOT_CENTER
 62
     3
100
AcDbLine
 10
116.9491928156413
 20
768.2164338817104
 30
0.0
 11
124.4491928156413
 21
768.2164338817104
 31
0.0
  0
LINE
  5
266
330
1F
100
AcDbEntity
  8
1
  6
DASHED
 62
     4
100
AcDbLine
 10
319.5341613036495
 20
1280.365217690001
 30
0.0
 11
316.5341613036495
 21
1280.365217690001
 31
0.0
  0
LINE
  5
267
330
1F
100
AcDbEntity
  8
1
  6
DASHED
 62
     4
100
AcDbLine
 10
316.5341613036495
 20
1292.365217690001
 30
0.0
 11
319.5341613036495
 21
1292.365217690001
 31
0.0
  0
LINE
  5
268
330
1F
100
AcDbEntity
  8
1
  6
DASHED
 62
     4
100
AcDbLine
 10
545.5341613036454
 20
1298.865217690001
 30
0.0
 11
542.5341613036454
 21
1298.865217690001
 31
0.0
  0
LINE
  5
269
330
1F
100
AcDbEntity
  8
1
  6
DASHED
 62
     4
100
AcDbLine
 10
542.5341613036454
 20
1273.865217690001
 30
0.0
 11
545.5341613036454
 21
1273.865217690001
 31
0.0
  0
LINE
  5
26A
330
1F
100
AcDbEntity
  8
1
  6
DASHED
 62
     4
100
AcDbLine
 10
545.5341613036454
 20
1273.865217690001
 30
0.0
 11
545.5341613036454
 21
1298.865217690001
 31
0.0
  0
LINE
  5
26B
330
1F
100
AcDbEntity
  8
1
  6
Continuous
 62
     7
100
AcDbLine
 10
544.3033991901162
 20
867.4173957760432
 30
0.0
 11
570.2841613036463
 21
882.4173957760429
 31
0.0
  0
LINE
  5
26C
330
1F
100
AcDbEntity
  8
1
  6
Continuous
 62
     7
100
AcDbLine
 10
973.3237524885445
 20
879.216433881719
 30
0.0
 11
973.3237524885454
 21
861.2164338817202
 31
0.0
  0
LINE
  5
26D
330
1F
100
AcDbEntity
  8
1
  6
Continuous
 62
     7
100
AcDbLine
 10
998.3237524885445
 20
879.216433881719
 30
0.0
 11
998.3237524885445
 21
882.2164338817202
 31
0.0
  0
LINE
  5
26E
330
1F
100
AcDbEntity
  8
1
  6
Continuous
 62
     7
100
AcDbLine
 10
2245.323752488544
 20
879.216433881719
 30
0.0
 11
2245.323752488544
 21
882.2164338817202
 31
0.0
  0
LINE
  5
26F
330
1F
100
AcDbEntity
  8
1
  6
Continuous
 62
     7
100
AcDbLine
 10
2220.323752488544
 20
879.216433881719
 30
0.0
 11
2220.323752488545
 21
861.2164338817202
 31
0.0
  0
LINE
  5
270
330
1F
100
AcDbEntity
  8
1
  6
Continuous
 62
     7
100
AcDbLine
 10
2222.323752488543
 20
859.2164338817202
 30
0.0
 11
2220.323752488545
 21
861.2164338817202
 31
0.0
  0
LINE
  5
271
330
1F
100
AcDbEntity
  8
1
  6
Continuous
 62
     7
100
AcDbLine
 10
2243.323752488544
 20
859.2164338817202
 30
0.0
 11
2245.323752488544
 21
861.2164338817202
 31
0.0
  0
LINE
  5
272
330
1F
100
AcDbEntity
  8
1
  6
Continuous
 62
     7
100
AcDbLine
 10
2245.323752488544
 20
861.2164338817202
 30
0.0
 11
2245.323752488544
 21
879.216433881719
 31
0.0
  0
LINE
  5
273
330
1F
100
AcDbEntity
  8
1
  6
Continuous
 62
     7
100
AcDbLine
 10
2220.323752488544
 20
882.2164338817202
 30
0.0
 11
2220.323752488544
 21
879.216433881719
 31
0.0
  0
LINE
  5
274
330
1F
100
AcDbEntity
  8
1
  6
Continuous
 62
     7
100
AcDbLine
 10
2222.323752488543
 20
859.2164338817202
 30
0.0
 11
2243.323752488544
 21
859.2164338817202
 31
0.0
  0
LINE
  5
275
330
1F
100
AcDbEntity
  8
1
  6
Continuous
 62
     7
100
AcDbLine
 10
2217.823752488544
 20
882.2164338817202
 30
0.0
 11
2247.823752488544
 21
882.2164338817202
 31
0.0
  0
LINE
  5
276
330
1F
100
AcDbEntity
  8
1
  6
Continuous
 62
     7
100
AcDbLine
 10
2247.823752488544
 20
882.2164338817202
 30
0.0
 11
2247.823752488544
 21
885.2164338817202
 31
0.0
  0
LINE
  5
277
330
1F
100
AcDbEntity
  8
1
  6
Continuous
 62
     7
100
AcDbLine
 10
2247.823752488544
 20
885.2164338817202
 30
0.0
 11
2217.823752488544
 21
885.2164338817202
 31
0.0
  0
LINE
  5
278
330
1F
100
AcDbEntity
  8
1
  6
Continuous
 62
     7
100
AcDbLine
 10
2217.823752488544
 20
885.2164338817202
 30
0.0
 11
2217.823752488544
 21
882.2164338817202
 31
0.0
  0
LINE
  5
279
330
1F
100
AcDbEntity
  8
1
  6
Continuous
 62
     7
100
AcDbLine
 10
1257.69919281564
 20
707.2164338817537
 30
0.0
 11
1257.69919281564
 21
713.7164338817537
 31
0.0
  0
LINE
  5
27A
330
1F
100
AcDbEntity
  8
1
  6
Continuous
 62
     7
100
AcDbLine
 10
1245.699192815641
 20
707.2164338817537
 30
0.0
 11
1257.69919281564
 21
707.2164338817537
 31
0.0
  0
LINE
  5
27B
330
1F
100
AcDbEntity
  8
1
  6
Continuous
 62
     7
100
AcDbLine
 10
1245.699192815641
 20
713.7164338817537
 30
0.0
 11
1245.699192815641
 21
707.2164338817537
 31
0.0
  0
LINE
  5
27C
330
1F
100
AcDbEntity
  8
1
  6
Continuous
 62
     7
100
AcDbLine
 10
1236.699192815641
 20
707.2164338817537
 30
0.0
 11
1266.699192815641
 21
707.2164338817537
 31
0.0
  0
LINE
  5
27D
330
1F
100
AcDbEntity
  8
1
  6
Continuous
 62
     7
100
AcDbLine
 10
1266.699192815641
 20
710.2164338817537
 30
0.0
 11
1257.69919281564
 21
710.2164338817537
 31
0.0
  0
LINE
  5
27E
330
1F
100
AcDbEntity
  8
1
  6
Continuous
 62
     7
100
AcDbLine
 10
1236.699192815641
 20
710.2164338817537
 30
0.0
 11
1236.699192815641
 21
708.7164338817537
 31
0.0
  0
LINE
  5
27F
330
1F
100
AcDbEntity
  8
1
  6
Continuous
 62
     7
100
AcDbLine
 10
1266.699192815641
 20
707.2164338817537
 30
0.0
 11
1266.699192815641
 21
708.7164338817537
 31
0.0
  0
LINE
  5
280
330
1F
100
AcDbEntity
  8
1
  6
Continuous
 62
     7
100
AcDbLine
 10
1266.699192815641
 20
708.7164338817537
 30
0.0
 11
1266.699192815641
 21
710.2164338817537
 31
0.0
  0
LINE
  5
281
330
1F
100
AcDbEntity
  8
1
  6
Continuous
 62
     7
100
AcDbLine
 10
1236.699192815641
 20
708.7164338817537
 30
0.0
 11
1236.699192815641
 21
707.2164338817537
 31
0.0
  0
LINE
  5
282
330
1F
100
AcDbEntity
  8
1
  6
DASH_CENTER
 62
     3
100
AcDbLine
 10
1649.146360383196
 20
770.7260528249722
 30
0.0
 11
1634.146360383199
 21
796.7068149385063
 31
0.0
  0
LINE
  5
283
330
1F
100
AcDbEntity
  8
1
  6
Continuous
 62
     7
100
AcDbLine
 10
1788.120679026564
 20
870.015471987401
 30
0.0
 11
1814.101441140094
 21
885.0154719873975
 31
0.0
  0
LINE
  5
284
330
1F
100
AcDbEntity
  8
1
  6
DASH_CENTER
 62
     3
100
AcDbLine
 10
1814.851441140095
 20
883.7164338817222
 30
0.0
 11
1511.742549815527
 21
708.7164338817537
 31
0.0
  0
LINE
  5
285
330
1F
100
AcDbEntity
  8
1
  6
DASHED
 62
     4
100
AcDbLine
 10
1772.30017095087
 20
857.4173957760474
 30
0.0
 11
1789.620679026564
 21
867.4173957760497
 31
0.0
  0
LINE
  5
286
330
1F
100
AcDbEntity
  8
1
  6
Continuous
 62
     7
100
AcDbLine
 10
1814.101441140094
 20
885.0154719873975
 30
0.0
 11
1815.601441140094
 21
882.4173957760455
 31
0.0
  0
LINE
  5
287
330
1F
100
AcDbEntity
  8
1
  6
DASHED
 62
     4
100
AcDbLine
 10
1770.800170950871
 20
860.0154719874015
 30
0.0
 11
1788.120679026564
 21
870.015471987401
 31
0.0
  0
LINE
  5
288
330
1F
100
AcDbEntity
  8
1
  6
Continuous
 62
     7
100
AcDbLine
 10
1506.644473604174
 20
711.5465609006765
 30
0.0
 11
1509.894473604174
 21
705.9173957760768
 31
0.0
  0
LINE
  5
289
330
1F
100
AcDbEntity
  8
1
  6
PHANTOM
 62
     4
100
AcDbLine
 10
1501.894473604174
 20
719.7738022366291
 30
0.0
 11
1506.644473604174
 21
711.5465609006765
 31
0.0
  0
LINE
  5
28A
330
1F
100
AcDbEntity
  8
1
  6
Continuous
 62
     7
100
AcDbLine
 10
1509.894473604174
 20
705.9173957760768
 30
0.0
 11
1512.492549815526
 21
707.4173957760767
 31
0.0
  0
LINE
  5
28B
330
1F
100
AcDbEntity
  8
1
  6
Continuous
 62
     7
100
AcDbLine
 10
1806.316831449267
 20
850.4988114890052
 30
0.0
 11
1794.81683144927
 21
870.4173957760493
 31
0.0
  0
LINE
  5
28C
330
1F
100
AcDbEntity
  8
1
  6
Continuous
 62
     7
100
AcDbLine
 10
1792.218755237916
 20
868.917395776049
 30
0.0
 11
1803.718755237914
 21
848.9988114890055
 31
0.0
  0
LINE
  5
28D
330
1F
100
AcDbEntity
  8
1
  6
Continuous
 62
     7
100
AcDbLine
 10
1803.718755237914
 20
848.9988114890055
 30
0.0
 11
1806.316831449267
 21
850.4988114890052
 31
0.0
  0
LINE
  5
28E
330
1F
100
AcDbEntity
  8
1
  6
Continuous
 62
     7
100
AcDbLine
 10
1789.620679026564
 20
867.4173957760497
 30
0.0
 11
1815.601441140094
 21
882.4173957760455
 31
0.0
  0
LINE
  5
28F
330
1F
100
AcDbEntity
  8
1
  6
DASHED
 62
     4
100
AcDbLine
 10
1790.851441140095
 20
1273.865217690001
 30
0.0
 11
1790.851441140095
 21
1298.865217690001
 31
0.0
  0
LINE
  5
290
330
1F
100
AcDbEntity
  8
1
  6
DASHED
 62
     4
100
AcDbLine
 10
1787.851441140095
 20
1273.865217690001
 30
0.0
 11
1790.851441140095
 21
1273.865217690001
 31
0.0
  0
LINE
  5
291
330
1F
100
AcDbEntity
  8
1
  6
DASHED
 62
     4
100
AcDbLine
 10
1790.851441140095
 20
1298.865217690001
 30
0.0
 11
1787.851441140095
 21
1298.865217690001
 31
0.0
  0
LINE
  5
292
330
1F
100
AcDbEntity
  8
1
  6
DASHED
 62
     4
100
AcDbLine
 10
1461.851441140098
 20
1292.365217690001
 30
0.0
 11
1464.851441140098
 21
1292.365217690001
 31
0.0
  0
LINE
  5
293
330
1F
100
AcDbEntity
  8
1
  6
DASHED
 62
     4
100
AcDbLine
 10
1464.851441140098
 20
1280.365217690001
 30
0.0
 11
1461.851441140098
 21
1280.365217690001
 31
0.0
  0
LINE
  5
294
330
1F
100
AcDbEntity
  8
1
  6
Continuous
 62
     7
100
AcDbLine
 10
1814.851441140095
 20
1301.365217690001
 30
0.0
 11
1814.851441140095
 21
1271.365217690001
 31
0.0
  0
LINE
  5
295
330
1F
100
AcDbEntity
  8
1
  6
DASHED
 62
     4
100
AcDbLine
 10
1764.851441140095
 20
1301.365217690001
 30
0.0
 11
1784.85144114015
 21
1301.365217690001
 31
0.0
  0
LINE
  5
296
330
1F
100
AcDbEntity
  8
1
  6
DASH_CENTER
 62
     3
100
AcDbLine
 10
1453.051441140098
 20
1286.365217690001
 30
0.0
 11
1814.851441140095
 21
1286.365217690001
 31
0.0
  0
LINE
  5
297
330
1F
100
AcDbEntity
  8
1
  6
Continuous
 62
     7
100
AcDbLine
 10
1814.851441140095
 20
1271.365217690001
 30
0.0
 11
1784.851441140149
 21
1271.365217690001
 31
0.0
  0
LINE
  5
298
330
1F
100
AcDbEntity
  8
1
  6
Continuous
 62
     7
100
AcDbLine
 10
1245.699192815641
 20
710.2164338817537
 30
0.0
 11
1236.699192815641
 21
710.2164338817537
 31
0.0
  0
LINE
  5
299
330
1F
100
AcDbEntity
  8
1
  6
Continuous
 62
     7
100
AcDbLine
 10
114.6991928156413
 20
760.2164338817104
 30
0.0
 11
105.6991928156414
 21
760.2164338817104
 31
0.0
  0
LINE
  5
29A
330
1F
100
AcDbEntity
  8
1
  6
DOT_CENTER
 62
     3
100
AcDbLine
 10
1247.949192815641
 20
718.2164338817537
 30
0.0
 11
1255.449192815641
 21
718.2164338817537
 31
0.0
  0
LINE
  5
29B
330
1F
100
AcDbEntity
  8
1
  6
Continuous
 62
     7
100
AcDbLine
 10
1897.45207623489
 20
790.6479371602577
 30
0.0
 11
1862.452076234898
 21
851.2697154251916
 31
0.0
  0
LINE
  5
29C
330
1F
100
AcDbEntity
  8
1
  6
Continuous
 62
     7
100
AcDbLine
 10
1957.869390332656
 20
1327.365217690003
 30
0.0
 11
1957.869390332656
 21
1331.865217690003
 31
0.0
  0
LINE
  5
29D
330
1F
100
AcDbEntity
  8
1
  6
Continuous
 62
     7
100
AcDbLine
 10
1803.34915664479
 20
1353.665217689998
 30
0.0
 11
1838.34915664479
 21
1327.365217690003
 31
0.0
  0
LINE
  5
29E
330
1F
100
AcDbEntity
  8
1
  6
Continuous
 62
     7
100
AcDbLine
 10
1784.851441140149
 20
1353.665217689998
 30
0.0
 11
1803.34915664479
 21
1353.665217689998
 31
0.0
  0
LINE
  5
29F
330
1F
100
AcDbEntity
  8
1
  6
Continuous
 62
     7
100
AcDbLine
 10
1839.8514411402
 20
1331.865217690003
 30
0.0
 11
1804.851441140201
 21
1358.165217689998
 31
0.0
  0
LINE
  5
2A0
330
1F
100
AcDbEntity
  8
1
  6
Continuous
 62
     7
100
AcDbLine
 10
1804.851441140201
 20
1358.165217689998
 30
0.0
 11
1784.851441140149
 21
1358.165217689998
 31
0.0
  0
LINE
  5
2A1
330
1F
100
AcDbEntity
  8
1
  6
Continuous
 62
     7
100
AcDbLine
 10
1957.869390332656
 20
1331.865217690003
 30
0.0
 11
1839.8514411402
 21
1331.865217690003
 31
0.0
  0
LINE
  5
2A2
330
1F
100
AcDbEntity
  8
1
  6
Continuous
 62
     7
100
AcDbLine
 10
652.1347963983945
 20
790.6479371602409
 30
0.0
 11
617.1347963984023
 21
851.269715425175
 31
0.0
  0
LINE
  5
2A3
330
1F
100
AcDbEntity
  8
1
  6
Continuous
 62
     7
100
AcDbLine
 10
711.3021104961564
 20
1327.365217690003
 30
0.0
 11
711.3021104961564
 21
1331.865217690003
 31
0.0
  0
LINE
  5
2A4
330
1F
100
AcDbEntity
  8
1
  6
Continuous
 62
     7
100
AcDbLine
 10
711.3021104961564
 20
1331.865217690003
 30
0.0
 11
594.5341613036995
 21
1331.865217690003
 31
0.0
  0
LINE
  5
2A5
330
1F
100
AcDbEntity
  8
1
  6
Continuous
 62
     7
100
AcDbLine
 10
559.5341613037004
 20
1358.165217690003
 30
0.0
 11
539.5341613037004
 21
1358.165217690003
 31
0.0
  0
LINE
  5
2A6
330
1F
100
AcDbEntity
  8
1
  6
Continuous
 62
     7
100
AcDbLine
 10
558.0318768082885
 20
1353.665217690003
 30
0.0
 11
593.0318768082885
 21
1327.365217690003
 31
0.0
  0
LINE
  5
2A7
330
1F
100
AcDbEntity
  8
1
  6
Continuous
 62
     7
100
AcDbLine
 10
594.5341613036995
 20
1331.865217690003
 30
0.0
 11
559.5341613037004
 21
1358.165217690003
 31
0.0
  0
LINE
  5
2A8
330
1F
100
AcDbEntity
  8
1
  6
Continuous
 62
     7
100
AcDbLine
 10
539.5341613037004
 20
1353.665217690003
 30
0.0
 11
558.0318768082885
 21
1353.665217690003
 31
0.0
  0
LINE
  5
2A9
330
1F
100
AcDbEntity
  8
1
  6
DASHED
 62
     4
100
AcDbLine
 10
1789.509789894242
 20
797.6094613874261
 30
0.0
 11
1785.509789894247
 21
804.5376646177051
 31
0.0
  0
LINE
  5
2AA
330
1F
100
AcDbEntity
  8
1
  6
DASHED
 62
     4
100
AcDbLine
 10
1848.660424988822
 20
762.4780641791917
 30
0.0
 11
1821.241840701773
 21
746.6479371603183
 31
0.0
  0
LINE
  5
2AB
330
1F
100
AcDbEntity
  8
1
  6
Continuous
 62
     7
100
AcDbLine
 10
1814.820679026728
 20
823.7697154252332
 30
0.0
 11
1902.480242455654
 21
874.379987967865
 31
0.0
  0
LINE
  5
2AC
330
1F
100
AcDbEntity
  8
1
  6
Continuous
 62
     7
100
AcDbLine
 10
1867.14118710242
 20
773.1479371602829
 30
0.0
 11
1832.141187102429
 21
833.7697154252171
 31
0.0
  0
LINE
  5
2AD
330
1F
100
AcDbEntity
  8
1
  6
Continuous
 62
     7
100
AcDbLine
 10
1979.054616613337
 20
837.761185814215
 30
0.0
 11
1848.660424988822
 21
762.4780641791917
 31
0.0
  0
LINE
  5
2AE
330
1F
100
AcDbEntity
  8
1
  6
DASHED
 62
     4
100
AcDbLine
 10
1814.50978989421
 20
754.3081911981669
 30
0.0
 11
1818.509789894206
 21
747.3799879678898
 31
0.0
  0
LINE
  5
2AF
330
1F
100
AcDbEntity
  8
1
  6
Continuous
 62
     7
100
AcDbLine
 10
1984.054616613379
 20
872.6479371601818
 30
0.0
 11
1984.054616613344
 21
846.421439852051
 31
0.0
  0
LINE
  5
2B0
330
1F
100
AcDbEntity
  8
1
  6
Continuous
 62
     7
100
AcDbLine
 10
1903.480242455654
 20
874.6479371602952
 30
0.0
 11
1982.054616613384
 21
874.6479371601847
 31
0.0
  0
LINE
  5
2B1
330
1F
100
AcDbEntity
  8
1
  6
DASHED
 62
     4
100
AcDbLine
 10
1814.50978989421
 20
754.3081911981669
 30
0.0
 11
1789.509789894242
 21
797.6094613874261
 31
0.0
  0
LINE
  5
2B2
330
1F
100
AcDbEntity
  8
1
  6
DASHED
 62
     4
100
AcDbLine
 10
1786.241840701818
 20
807.2697154252733
 30
0.0
 11
1814.820679026736
 21
823.7697154252205
 31
0.0
  0
LINE
  5
2B3
330
1F
100
AcDbEntity
  8
1
  6
DOT_CENTER
 62
     3
100
AcDbLine
 10
1829.75017095098
 20
757.9110768811248
 30
0.0
 11
1825.250170950986
 21
765.7053055151889
 31
0.0
  0
LINE
  5
2B4
330
1F
100
AcDbEntity
  8
1
  6
DOT_CENTER
 62
     3
100
AcDbLine
 10
1823.603056633951
 20
759.5581911981601
 30
0.0
 11
1831.397285268014
 21
764.0581911981518
 31
0.0
  0
LINE
  5
2B5
330
1F
100
AcDbEntity
  8
1
  6
DOT_CENTER
 62
     3
100
AcDbLine
 10
1804.750170951016
 20
801.2123470703687
 30
0.0
 11
1800.250170951021
 21
809.006575704432
 31
0.0
  0
LINE
  5
2B6
330
1F
100
AcDbEntity
  8
1
  6
DOT_CENTER
 62
     3
100
AcDbLine
 10
1798.603056633988
 20
802.8594613874053
 30
0.0
 11
1806.397285268052
 21
807.3594613873966
 31
0.0
  0
LINE
  5
2B7
330
1F
100
AcDbEntity
  8
1
  6
DOT_CENTER
 62
     3
100
AcDbLine
 10
1924.054616613372
 20
842.3949207885457
 30
0.0
 11
1924.054616613372
 21
844.1449207885455
 31
0.0
  0
LINE
  5
2B8
330
1F
100
AcDbEntity
  8
1
  6
DOT_CENTER
 62
     3
100
AcDbLine
 10
1924.054616613372
 20
844.1449207885455
 30
0.0
 11
1924.054616613372
 21
869.1449207885446
 31
0.0
  0
LINE
  5
2B9
330
1F
100
AcDbEntity
  8
1
  6
DOT_CENTER
 62
     3
100
AcDbLine
 10
1924.054616613372
 20
869.1449207885446
 30
0.0
 11
1924.054616613372
 21
870.8949207885451
 31
0.0
  0
LINE
  5
2BA
330
1F
100
AcDbEntity
  8
1
  6
DOT_CENTER
 62
     3
100
AcDbLine
 10
1929.304616613372
 20
856.6449207885457
 30
0.0
 11
1918.804616613372
 21
856.6449207885457
 31
0.0
  0
LINE
  5
2BB
330
1F
100
AcDbEntity
  8
1
  6
DOT_CENTER
 62
     3
100
AcDbLine
 10
1974.054616613373
 20
842.3949207885457
 30
0.0
 11
1974.054616613373
 21
844.1449207885455
 31
0.0
  0
LINE
  5
2BC
330
1F
100
AcDbEntity
  8
1
  6
DOT_CENTER
 62
     3
100
AcDbLine
 10
1974.054616613373
 20
844.1449207885455
 30
0.0
 11
1974.054616613373
 21
869.1449207885446
 31
0.0
  0
LINE
  5
2BD
330
1F
100
AcDbEntity
  8
1
  6
DOT_CENTER
 62
     3
100
AcDbLine
 10
1974.054616613373
 20
869.1449207885446
 30
0.0
 11
1974.054616613373
 21
870.8949207885451
 31
0.0
  0
LINE
  5
2BE
330
1F
100
AcDbEntity
  8
1
  6
DOT_CENTER
 62
     3
100
AcDbLine
 10
1979.304616613373
 20
856.6449207885457
 30
0.0
 11
1968.804616613373
 21
856.6449207885457
 31
0.0
  0
LINE
  5
2BF
330
1F
100
AcDbEntity
  8
1
  6
DOT_CENTER
 62
     3
100
AcDbLine
 10
733.9873367768774
 20
856.644920788529
 30
0.0
 11
723.4873367768774
 21
856.644920788529
 31
0.0
  0
LINE
  5
2C0
330
1F
100
AcDbEntity
  8
1
  6
DOT_CENTER
 62
     3
100
AcDbLine
 10
728.7373367768774
 20
869.144920788528
 30
0.0
 11
728.7373367768774
 21
870.8949207885283
 31
0.0
  0
LINE
  5
2C1
330
1F
100
AcDbEntity
  8
1
  6
DOT_CENTER
 62
     3
100
AcDbLine
 10
728.7373367768774
 20
844.1449207885288
 30
0.0
 11
728.7373367768774
 21
869.144920788528
 31
0.0
  0
LINE
  5
2C2
330
1F
100
AcDbEntity
  8
1
  6
DOT_CENTER
 62
     3
100
AcDbLine
 10
728.7373367768774
 20
842.394920788529
 30
0.0
 11
728.7373367768774
 21
844.1449207885288
 31
0.0
  0
LINE
  5
2C3
330
1F
100
AcDbEntity
  8
1
  6
DOT_CENTER
 62
     3
100
AcDbLine
 10
683.9873367768765
 20
856.644920788529
 30
0.0
 11
673.4873367768765
 21
856.644920788529
 31
0.0
  0
LINE
  5
2C4
330
1F
100
AcDbEntity
  8
1
  6
DOT_CENTER
 62
     3
100
AcDbLine
 10
678.7373367768765
 20
869.144920788528
 30
0.0
 11
678.7373367768765
 21
870.8949207885283
 31
0.0
  0
LINE
  5
2C5
330
1F
100
AcDbEntity
  8
1
  6
DOT_CENTER
 62
     3
100
AcDbLine
 10
678.7373367768765
 20
844.1449207885288
 30
0.0
 11
678.7373367768765
 21
869.144920788528
 31
0.0
  0
LINE
  5
2C6
330
1F
100
AcDbEntity
  8
1
  6
DOT_CENTER
 62
     3
100
AcDbLine
 10
678.7373367768765
 20
842.394920788529
 30
0.0
 11
678.7373367768765
 21
844.1449207885288
 31
0.0
  0
LINE
  5
2C7
330
1F
100
AcDbEntity
  8
1
  6
Continuous
 62
     7
100
AcDbLine
 10
1839.8514411402
 20
1240.865217689998
 30
0.0
 11
1957.869390332656
 21
1240.865217689998
 31
0.0
  0
LINE
  5
2C8
330
1F
100
AcDbEntity
  8
1
  6
Continuous
 62
     7
100
AcDbLine
 10
1957.869390332656
 20
1240.865217689998
 30
0.0
 11
1957.869390332656
 21
1245.365217689998
 31
0.0
  0
LINE
  5
2C9
330
1F
100
AcDbEntity
  8
1
  6
Continuous
 62
     7
100
AcDbLine
 10
1957.869390332656
 20
1245.365217689998
 30
0.0
 11
1838.34915664479
 21
1245.36521769
 31
0.0
  0
LINE
  5
2CA
330
1F
100
AcDbEntity
  8
1
  6
Continuous
 62
     7
100
AcDbLine
 10
1784.851441140149
 20
1214.565217690003
 30
0.0
 11
1804.851441140201
 21
1214.565217690003
 31
0.0
  0
LINE
  5
2CB
330
1F
100
AcDbEntity
  8
1
  6
Continuous
 62
     7
100
AcDbLine
 10
1838.34915664479
 20
1245.36521769
 30
0.0
 11
1803.34915664479
 21
1219.065217690003
 31
0.0
  0
LINE
  5
2CC
330
1F
100
AcDbEntity
  8
1
  6
Continuous
 62
     7
100
AcDbLine
 10
1804.851441140201
 20
1214.565217690003
 30
0.0
 11
1839.8514411402
 21
1240.865217689998
 31
0.0
  0
LINE
  5
2CD
330
1F
100
AcDbEntity
  8
1
  6
Continuous
 62
     7
100
AcDbLine
 10
1838.349156644793
 20
1327.36521769
 30
0.0
 11
1957.869390332656
 21
1327.36521769
 31
0.0
  0
LINE
  5
2CE
330
1F
100
AcDbEntity
  8
1
  6
Continuous
 62
     7
100
AcDbLine
 10
1803.34915664479
 20
1219.065217690003
 30
0.0
 11
1784.851441140149
 21
1219.065217690003
 31
0.0
  0
LINE
  5
2CF
330
1F
100
AcDbEntity
  8
1
  6
DOT_CENTER
 62
     3
100
AcDbLine
 10
553.2857767974925
 20
802.8594613873886
 30
0.0
 11
561.0800054315565
 21
807.3594613873797
 31
0.0
  0
LINE
  5
2D0
330
1F
100
AcDbEntity
  8
1
  6
DOT_CENTER
 62
     3
100
AcDbLine
 10
559.4328911145204
 20
801.2123470703519
 30
0.0
 11
554.9328911145254
 21
809.0065757044151
 31
0.0
  0
LINE
  5
2D1
330
1F
100
AcDbEntity
  8
1
  6
DOT_CENTER
 62
     3
100
AcDbLine
 10
578.2857767974552
 20
759.5581911981434
 30
0.0
 11
586.0800054315183
 21
764.0581911981351
 31
0.0
  0
LINE
  5
2D2
330
1F
100
AcDbEntity
  8
1
  6
DOT_CENTER
 62
     3
100
AcDbLine
 10
584.4328911144845
 20
757.9110768811081
 30
0.0
 11
579.9328911144904
 21
765.7053055151722
 31
0.0
  0
LINE
  5
2D3
330
1F
100
AcDbEntity
  8
1
  6
DASHED
 62
     4
100
AcDbLine
 10
540.9245608653224
 20
807.2697154252564
 30
0.0
 11
569.5033991902407
 21
823.7697154252037
 31
0.0
  0
LINE
  5
2D4
330
1F
100
AcDbEntity
  8
1
  6
DASHED
 62
     4
100
AcDbLine
 10
569.1925100577142
 20
754.3081911981501
 30
0.0
 11
544.1925100577465
 21
797.6094613874093
 31
0.0
  0
LINE
  5
2D5
330
1F
100
AcDbEntity
  8
1
  6
Continuous
 62
     7
100
AcDbLine
 10
658.1629626191585
 20
874.6479371602784
 30
0.0
 11
736.7373367768884
 21
874.647937160168
 31
0.0
  0
LINE
  5
2D6
330
1F
100
AcDbEntity
  8
1
  6
Continuous
 62
     7
100
AcDbLine
 10
738.7373367768834
 20
872.647937160165
 30
0.0
 11
738.7373367768483
 21
846.4214398520342
 31
0.0
  0
LINE
  5
2D7
330
1F
100
AcDbEntity
  8
1
  6
DASHED
 62
     4
100
AcDbLine
 10
569.1925100577142
 20
754.3081911981501
 30
0.0
 11
573.1925100577106
 21
747.3799879678729
 31
0.0
  0
LINE
  5
2D8
330
1F
100
AcDbEntity
  8
1
  6
Continuous
 62
     7
100
AcDbLine
 10
733.7373367768415
 20
837.7611858141981
 30
0.0
 11
603.3431451523444
 21
762.4780641791857
 31
0.0
  0
LINE
  5
2D9
330
1F
100
AcDbEntity
  8
1
  6
Continuous
 62
     7
100
AcDbLine
 10
621.8239072659236
 20
773.1479371602662
 30
0.0
 11
586.8239072659322
 21
833.7697154252003
 31
0.0
  0
LINE
  5
2DA
330
1F
100
AcDbEntity
  8
1
  6
Continuous
 62
     7
100
AcDbLine
 10
569.5033991902325
 20
823.7697154252165
 30
0.0
 11
657.1629626191585
 21
874.3799879678481
 31
0.0
  0
LINE
  5
2DB
330
1F
100
AcDbEntity
  8
1
  6
DASHED
 62
     4
100
AcDbLine
 10
603.3431451523444
 20
762.4780641791857
 30
0.0
 11
575.9245608652774
 21
746.6479371603015
 31
0.0
  0
LINE
  5
2DC
330
1F
100
AcDbEntity
  8
1
  6
DASHED
 62
     4
100
AcDbLine
 10
544.1925100577465
 20
797.6094613874093
 30
0.0
 11
540.1925100577515
 21
804.5376646176883
 31
0.0
  0
LINE
  5
2DD
330
1F
100
AcDbEntity
  8
1
  6
Continuous
 62
     7
100
AcDbLine
 10
558.0318768082885
 20
1219.065217689999
 30
0.0
 11
539.5341613037004
 21
1219.065217689999
 31
0.0
  0
LINE
  5
2DE
330
1F
100
AcDbEntity
  8
1
  6
Continuous
 62
     7
100
AcDbLine
 10
593.0318768082926
 20
1327.36521769
 30
0.0
 11
711.3021104961564
 21
1327.36521769
 31
0.0
  0
LINE
  5
2DF
330
1F
100
AcDbEntity
  8
1
  6
Continuous
 62
     7
100
AcDbLine
 10
559.5341613036995
 20
1214.565217689999
 30
0.0
 11
594.5341613036995
 21
1240.865217689998
 31
0.0
  0
LINE
  5
2E0
330
1F
100
AcDbEntity
  8
1
  6
Continuous
 62
     7
100
AcDbLine
 10
593.0318768082885
 20
1245.365217689998
 30
0.0
 11
558.0318768082885
 21
1219.065217689999
 31
0.0
  0
LINE
  5
2E1
330
1F
100
AcDbEntity
  8
1
  6
Continuous
 62
     7
100
AcDbLine
 10
539.5341613037004
 20
1214.565217689999
 30
0.0
 11
559.5341613036995
 21
1214.565217689999
 31
0.0
  0
LINE
  5
2E2
330
1F
100
AcDbEntity
  8
1
  6
Continuous
 62
     7
100
AcDbLine
 10
711.3021104961564
 20
1245.365217689998
 30
0.0
 11
593.0318768082885
 21
1245.365217689998
 31
0.0
  0
LINE
  5
2E3
330
1F
100
AcDbEntity
  8
1
  6
Continuous
 62
     7
100
AcDbLine
 10
711.3021104961564
 20
1240.865217689998
 30
0.0
 11
711.3021104961564
 21
1245.365217689998
 31
0.0
  0
LINE
  5
2E4
330
1F
100
AcDbEntity
  8
1
  6
Continuous
 62
     7
100
AcDbLine
 10
594.5341613036995
 20
1240.865217689998
 30
0.0
 11
711.3021104961564
 21
1240.865217689998
 31
0.0
  0
LINE
  5
2E5
330
1F
100
AcDbEntity
  8
1
  6
Continuous
 62
     7
100
AcDbLine
 10
2191.823752488548
 20
831.8164338816341
 30
0.0
 11
2161.023752488547
 21
831.816433881634
 31
0.0
  0
LINE
  5
2E6
330
1F
100
AcDbEntity
  8
1
  6
Continuous
 62
     7
100
AcDbLine
 10
2161.023752488547
 20
831.816433881634
 30
0.0
 11
2161.023752488547
 21
761.8164338816339
 31
0.0
  0
LINE
  5
2E7
330
1F
100
AcDbEntity
  8
1
  6
Continuous
 62
     7
100
AcDbLine
 10
2161.023752488547
 20
761.8164338816339
 30
0.0
 11
2191.823752488548
 21
761.8164338816339
 31
0.0
  0
LINE
  5
2E8
330
1F
100
AcDbEntity
  8
1
  6
Continuous
 62
     7
100
AcDbLine
 10
2191.823752488548
 20
761.8164338816339
 30
0.0
 11
2191.823752488548
 21
831.8164338816341
 31
0.0
  0
LINE
  5
2E9
330
1F
100
AcDbEntity
  8
1
  6
Continuous
 62
     7
100
AcDbLine
 10
2187.323752488548
 20
761.8164338816339
 30
0.0
 11
2187.323752488548
 21
831.8164338816341
 31
0.0
  0
LINE
  5
2EA
330
1F
100
AcDbEntity
  8
1
  6
Continuous
 62
     7
100
AcDbLine
 10
2278.323752488543
 20
831.8164338816341
 30
0.0
 11
2278.323752488543
 21
761.8164338816339
 31
0.0
  0
LINE
  5
2EB
330
1F
100
AcDbEntity
  8
1
  6
Continuous
 62
     7
100
AcDbLine
 10
2273.823752488543
 20
831.816433881634
 30
0.0
 11
2273.823752488543
 21
761.8164338816339
 31
0.0
  0
LINE
  5
2EC
330
1F
100
AcDbEntity
  8
1
  6
Continuous
 62
     7
100
AcDbLine
 10
2273.823752488543
 20
761.8164338816339
 30
0.0
 11
2304.623752488545
 21
761.8164338816339
 31
0.0
  0
LINE
  5
2ED
330
1F
100
AcDbEntity
  8
1
  6
Continuous
 62
     7
100
AcDbLine
 10
2304.623752488545
 20
761.8164338816339
 30
0.0
 11
2304.623752488546
 21
831.8164338816339
 31
0.0
  0
LINE
  5
2EE
330
1F
100
AcDbEntity
  8
1
  6
Continuous
 62
     7
100
AcDbLine
 10
2304.623752488546
 20
831.8164338816339
 30
0.0
 11
2273.823752488543
 21
831.816433881634
 31
0.0
  0
LINE
  5
2EF
330
1F
100
AcDbEntity
  8
1
  6
Continuous
 62
     7
100
AcDbLine
 10
1057.623752488542
 20
831.8164338816339
 30
0.0
 11
1026.823752488539
 21
831.816433881634
 31
0.0
  0
LINE
  5
2F0
330
1F
100
AcDbEntity
  8
1
  6
Continuous
 62
     7
100
AcDbLine
 10
1057.623752488541
 20
761.8164338816339
 30
0.0
 11
1057.623752488542
 21
831.8164338816339
 31
0.0
  0
LINE
  5
2F1
330
1F
100
AcDbEntity
  8
1
  6
Continuous
 62
     7
100
AcDbLine
 10
1026.823752488539
 20
761.8164338816339
 30
0.0
 11
1057.623752488541
 21
761.8164338816339
 31
0.0
  0
LINE
  5
2F2
330
1F
100
AcDbEntity
  8
1
  6
Continuous
 62
     7
100
AcDbLine
 10
1026.823752488539
 20
831.816433881634
 30
0.0
 11
1026.823752488539
 21
761.8164338816339
 31
0.0
  0
LINE
  5
2F3
330
1F
100
AcDbEntity
  8
1
  6
Continuous
 62
     7
100
AcDbLine
 10
1031.323752488539
 20
831.8164338816341
 30
0.0
 11
1031.323752488539
 21
761.8164338816339
 31
0.0
  0
LINE
  5
2F4
330
1F
100
AcDbEntity
  8
1
  6
Continuous
 62
     7
100
AcDbLine
 10
940.3237524885445
 20
761.8164338816339
 30
0.0
 11
940.3237524885445
 21
831.8164338816341
 31
0.0
  0
LINE
  5
2F5
330
1F
100
AcDbEntity
  8
1
  6
Continuous
 62
     7
100
AcDbLine
 10
944.8237524885445
 20
761.8164338816339
 30
0.0
 11
944.8237524885445
 21
831.8164338816341
 31
0.0
  0
LINE
  5
2F6
330
1F
100
AcDbEntity
  8
1
  6
Continuous
 62
     7
100
AcDbLine
 10
914.0237524885434
 20
761.8164338816339
 30
0.0
 11
944.8237524885445
 21
761.8164338816339
 31
0.0
  0
LINE
  5
2F7
330
1F
100
AcDbEntity
  8
1
  6
Continuous
 62
     7
100
AcDbLine
 10
914.0237524885434
 20
831.816433881634
 30
0.0
 11
914.0237524885434
 21
761.8164338816339
 31
0.0
  0
LINE
  5
2F8
330
1F
100
AcDbEntity
  8
1
  6
Continuous
 62
     7
100
AcDbLine
 10
944.8237524885445
 20
831.8164338816341
 30
0.0
 11
914.0237524885434
 21
831.816433881634
 31
0.0
  0
LINE
  5
2F9
330
1F
100
AcDbEntity
  8
1
  6
PHANTOM
 62
   140
100
AcDbLine
 10
1547.292549815513
 20
646.0689422089415
 30
0.0
 11
1423.946469805712
 21
646.0689422089363
 31
0.0
  0
LINE
  5
2FA
330
1F
100
AcDbEntity
  8
1
  6
PHANTOM
 62
   140
100
AcDbLine
 10
1547.292549815513
 20
652.5689422089415
 30
0.0
 11
1423.946469805712
 21
652.5689422089363
 31
0.0
  0
LINE
  5
2FB
330
1F
100
AcDbEntity
  8
1
  6
PHANTOM
 62
   140
100
AcDbLine
 10
1547.292549815511
 20
660.0689422089414
 30
0.0
 11
1423.94646980571
 21
660.0689422089363
 31
0.0
  0
LINE
  5
2FC
330
1F
100
AcDbEntity
  8
1
  6
PHANTOM
 62
   140
100
AcDbLine
 10
1547.292549815511
 20
673.3189422089416
 30
0.0
 11
1423.94646980571
 21
673.3189422089364
 31
0.0
  0
LINE
  5
2FD
330
1F
100
AcDbEntity
  8
1
  6
PHANTOM
 62
   140
100
AcDbLine
 10
1423.94646980571
 20
666.5689422089363
 30
0.0
 11
1547.292549815511
 21
666.5689422089414
 31
0.0
  0
LINE
  5
2FE
330
1F
100
AcDbEntity
  8
1
  6
PHANTOM
 62
   140
100
AcDbLine
 10
1579.292549815513
 20
652.8189422089429
 30
0.0
 11
1579.292549815511
 21
659.8189422089425
 31
0.0
  0
LINE
  5
2FF
330
1F
100
AcDbEntity
  8
1
  6
PHANTOM
 62
   140
100
AcDbLine
 10
1565.792549815511
 20
673.3189422089423
 30
0.0
 11
1547.292549815511
 21
673.3189422089416
 31
0.0
  0
LINE
  5
300
330
1F
100
AcDbEntity
  8
1
  6
PHANTOM
 62
   140
100
AcDbLine
 10
1547.292549815513
 20
639.3189422089415
 30
0.0
 11
1547.292549815511
 21
673.3189422089416
 31
0.0
  0
LINE
  5
301
330
1F
100
AcDbEntity
  8
1
  6
PHANTOM
 62
   140
100
AcDbLine
 10
1423.946469805712
 20
639.3189422089363
 30
0.0
 11
1565.792549815513
 21
639.3189422089422
 31
0.0
  0
LINE
  5
302
330
1F
100
AcDbEntity
  8
1
  6
PHANTOM
 62
   140
100
AcDbLine
 10
1546.832543855783
 20
661.3189422089414
 30
0.0
 11
1581.535919616716
 21
661.3189422089429
 31
0.0
  0
LINE
  5
303
330
1F
100
AcDbEntity
  8
1
  6
PHANTOM
 62
   140
100
AcDbLine
 10
1565.292549815511
 20
676.2372087791168
 30
0.0
 11
1565.292549815513
 21
646.3919063228573
 31
0.0
  0
LINE
  5
304
330
1F
100
AcDbEntity
  8
1
  6
PHANTOM
 62
   140
100
AcDbLine
 10
406.5778103575386
 20
726.2372087790679
 30
0.0
 11
406.5778103575404
 21
696.3919063228084
 31
0.0
  0
LINE
  5
305
330
1F
100
AcDbEntity
  8
1
  6
PHANTOM
 62
   140
100
AcDbLine
 10
388.1178043978104
 20
711.3189422088925
 30
0.0
 11
422.8211801587423
 21
711.318942208894
 31
0.0
  0
LINE
  5
306
330
1F
100
AcDbEntity
  8
1
  6
PHANTOM
 62
   140
100
AcDbLine
 10
265.2317303477394
 20
689.3189422088874
 30
0.0
 11
407.0778103575404
 21
689.3189422088933
 31
0.0
  0
LINE
  5
307
330
1F
100
AcDbEntity
  8
1
  6
PHANTOM
 62
   140
100
AcDbLine
 10
388.5778103575386
 20
723.3189422088927
 30
0.0
 11
388.5778103575404
 21
689.3189422088926
 31
0.0
  0
LINE
  5
308
330
1F
100
AcDbEntity
  8
1
  6
PHANTOM
 62
   140
100
AcDbLine
 10
407.0778103575372
 20
723.3189422088934
 30
0.0
 11
388.5778103575386
 21
723.3189422088927
 31
0.0
  0
LINE
  5
309
330
1F
100
AcDbEntity
  8
1
  6
PHANTOM
 62
   140
100
AcDbLine
 10
420.5778103575404
 20
702.818942208894
 30
0.0
 11
420.5778103575386
 21
709.8189422088937
 31
0.0
  0
LINE
  5
30A
330
1F
100
AcDbEntity
  8
1
  6
PHANTOM
 62
   140
100
AcDbLine
 10
265.2317303477376
 20
716.5689422088874
 30
0.0
 11
388.5778103575386
 21
716.5689422088925
 31
0.0
  0
LINE
  5
30B
330
1F
100
AcDbEntity
  8
1
  6
PHANTOM
 62
   140
100
AcDbLine
 10
388.5778103575386
 20
723.3189422088927
 30
0.0
 11
265.2317303477376
 21
723.3189422088875
 31
0.0
  0
LINE
  5
30C
330
1F
100
AcDbEntity
  8
1
  6
PHANTOM
 62
   140
100
AcDbLine
 10
388.5778103575386
 20
710.0689422088925
 30
0.0
 11
265.2317303477376
 21
710.0689422088874
 31
0.0
  0
LINE
  5
30D
330
1F
100
AcDbEntity
  8
1
  6
PHANTOM
 62
   140
100
AcDbLine
 10
388.5778103575404
 20
702.5689422088926
 30
0.0
 11
265.2317303477394
 21
702.5689422088874
 31
0.0
  0
LINE
  5
30E
330
1F
100
AcDbEntity
  8
1
  6
PHANTOM
 62
   140
100
AcDbLine
 10
388.5778103575404
 20
696.0689422088926
 30
0.0
 11
265.2317303477394
 21
696.0689422088874
 31
0.0
  0
LINE
  5
30F
330
1F
100
AcDbEntity
  8
1
  6
PHANTOM
 62
   140
100
AcDbLine
 10
1834.601441140094
 20
858.0884361013152
 30
0.0
 11
1834.601441140095
 21
887.9337385575748
 31
0.0
  0
LINE
  5
310
330
1F
100
AcDbEntity
  8
1
  6
PHANTOM
 62
   140
100
AcDbLine
 10
1818.358071338891
 20
873.0154719874008
 30
0.0
 11
1853.061447099824
 21
873.0154719873995
 31
0.0
  0
LINE
  5
311
330
1F
100
AcDbEntity
  8
1
  6
PHANTOM
 62
   140
100
AcDbLine
 10
1834.101441140094
 20
851.0154719874001
 30
0.0
 11
2002.695385019672
 21
851.0154719873941
 31
0.0
  0
LINE
  5
312
330
1F
100
AcDbEntity
  8
1
  6
PHANTOM
 62
   140
100
AcDbLine
 10
1852.601441140094
 20
851.0154719873995
 30
0.0
 11
1852.601441140095
 21
885.0154719873995
 31
0.0
  0
LINE
  5
313
330
1F
100
AcDbEntity
  8
1
  6
PHANTOM
 62
   140
100
AcDbLine
 10
1852.601441140095
 20
885.0154719873995
 30
0.0
 11
1834.101441140096
 21
885.0154719874001
 31
0.0
  0
LINE
  5
314
330
1F
100
AcDbEntity
  8
1
  6
PHANTOM
 62
   140
100
AcDbLine
 10
1820.601441140095
 20
871.5154719874006
 30
0.0
 11
1820.601441140094
 21
864.5154719874008
 31
0.0
  0
LINE
  5
315
330
1F
100
AcDbEntity
  8
1
  6
PHANTOM
 62
   140
100
AcDbLine
 10
1852.601441140095
 20
878.2654719873995
 30
0.0
 11
2002.695385019673
 21
878.2654719873942
 31
0.0
  0
LINE
  5
316
330
1F
100
AcDbEntity
  8
1
  6
PHANTOM
 62
   140
100
AcDbLine
 10
2002.695385019673
 20
885.0154719873943
 30
0.0
 11
1852.601441140095
 21
885.0154719873995
 31
0.0
  0
LINE
  5
317
330
1F
100
AcDbEntity
  8
1
  6
PHANTOM
 62
   140
100
AcDbLine
 10
2002.695385019673
 20
871.7654719873942
 30
0.0
 11
1852.601441140095
 21
871.7654719873995
 31
0.0
  0
LINE
  5
318
330
1F
100
AcDbEntity
  8
1
  6
PHANTOM
 62
   140
100
AcDbLine
 10
2002.695385019672
 20
864.2654719873942
 30
0.0
 11
1852.601441140094
 21
864.2654719873995
 31
0.0
  0
LINE
  5
319
330
1F
100
AcDbEntity
  8
1
  6
PHANTOM
 62
   140
100
AcDbLine
 10
2002.695385019672
 20
857.7654719873942
 30
0.0
 11
1852.601441140094
 21
857.7654719873995
 31
0.0
  0
LINE
  5
31A
330
1F
100
AcDbEntity
  8
1
  6
PHANTOM
 62
   140
100
AcDbLine
 10
757.3781051832253
 20
857.765471987394
 30
0.0
 11
607.2841613036472
 21
857.765471987399
 31
0.0
  0
LINE
  5
31B
330
1F
100
AcDbEntity
  8
1
  6
PHANTOM
 62
   140
100
AcDbLine
 10
757.3781051832253
 20
864.265471987394
 30
0.0
 11
607.2841613036472
 21
864.265471987399
 31
0.0
  0
LINE
  5
31C
330
1F
100
AcDbEntity
  8
1
  6
PHANTOM
 62
   140
100
AcDbLine
 10
757.3781051832276
 20
871.765471987394
 30
0.0
 11
607.2841613036486
 21
871.765471987399
 31
0.0
  0
LINE
  5
31D
330
1F
100
AcDbEntity
  8
1
  6
PHANTOM
 62
   140
100
AcDbLine
 10
757.3781051832276
 20
885.015471987394
 30
0.0
 11
607.2841613036486
 21
885.0154719873992
 31
0.0
  0
LINE
  5
31E
330
1F
100
AcDbEntity
  8
1
  6
PHANTOM
 62
   140
100
AcDbLine
 10
607.2841613036486
 20
878.265471987399
 30
0.0
 11
757.3781051832276
 21
878.265471987394
 31
0.0
  0
LINE
  5
31F
330
1F
100
AcDbEntity
  8
1
  6
PHANTOM
 62
   140
100
AcDbLine
 10
575.2841613036486
 20
871.5154719874001
 30
0.0
 11
575.2841613036472
 21
864.5154719874006
 31
0.0
  0
LINE
  5
320
330
1F
100
AcDbEntity
  8
1
  6
PHANTOM
 62
   140
100
AcDbLine
 10
607.2841613036486
 20
885.0154719873992
 30
0.0
 11
588.7841613036495
 21
885.0154719873998
 31
0.0
  0
LINE
  5
321
330
1F
100
AcDbEntity
  8
1
  6
PHANTOM
 62
   140
100
AcDbLine
 10
607.2841613036486
 20
885.0154719873992
 30
0.0
 11
607.2841613036472
 21
851.015471987399
 31
0.0
  0
LINE
  5
322
330
1F
100
AcDbEntity
  8
1
  6
PHANTOM
 62
   140
100
AcDbLine
 10
588.7841613036472
 20
851.0154719873998
 30
0.0
 11
757.3781051832253
 21
851.015471987394
 31
0.0
  0
LINE
  5
323
330
1F
100
AcDbEntity
  8
1
  6
PHANTOM
 62
   140
100
AcDbLine
 10
573.0407915024445
 20
873.0154719874006
 30
0.0
 11
607.7441672633773
 21
873.015471987399
 31
0.0
  0
LINE
  5
324
330
1F
100
AcDbEntity
  8
1
  6
PHANTOM
 62
   140
100
AcDbLine
 10
589.2841613036472
 20
858.088436101315
 30
0.0
 11
589.2841613036486
 21
887.9337385575744
 31
0.0
  0
LINE
  5
325
330
1F
100
AcDbEntity
  8
1
  6
Continuous
 62
     7
100
AcDbLine
 10
427.9795916076257
 20
778.8958541951049
 30
0.0
 11
521.5104592500935
 21
832.8959258060298
 31
0.0
  0
LINE
  5
326
330
1F
100
AcDbEntity
  8
1
  6
Continuous
 62
     7
100
AcDbLine
 10
1586.694746373607
 20
728.8960939733215
 30
0.0
 11
1766.827739086535
 21
832.8959258060381
 31
0.0
  0
LINE
  5
327
330
1F
100
AcDbEntity
  8
1
  6
Continuous
 62
     7
100
AcDbLine
 10
534.5303532463364
 20
1266.365217690001
 30
0.0
 11
539.5341613036495
 21
1266.365217690001
 31
0.0
  0
LINE
  5
328
330
1F
100
AcDbEntity
  8
1
  6
Continuous
 62
     7
100
AcDbLine
 10
504.5307571754566
 20
1306.365217690001
 30
0.0
 11
403.5341613036522
 21
1306.365217690001
 31
0.0
  0
LINE
  5
329
330
1F
100
AcDbEntity
  8
1
  6
Continuous
 62
     7
100
AcDbLine
 10
1779.847591194238
 20
1266.365217690001
 30
0.0
 11
1784.851441140098
 21
1266.365217690001
 31
0.0
  0
LINE
  5
32A
330
1F
100
AcDbEntity
  8
1
  6
Continuous
 62
     7
100
AcDbLine
 10
1749.847995123358
 20
1306.365217690001
 30
0.0
 11
1548.851441140102
 21
1306.365217690001
 31
0.0
  0
LINE
  5
32B
330
1F
100
AcDbEntity
  8
1
  6
Continuous
 62
     7
100
AcDbLine
 10
503.2422737823655
 20
868.5368055438014
 30
0.0
 11
415.7739442754365
 21
818.0369419574029
 31
0.0
  0
LINE
  5
32C
330
1F
100
AcDbEntity
  8
1
  6
Continuous
 62
     7
100
AcDbLine
 10
1748.559517342264
 20
868.536784599539
 30
0.0
 11
1574.488683733426
 21
768.0369419574356
 31
0.0
  0
LINE
  5
32D
330
1F
100
AcDbEntity
  8
1
  6
DASH_CENTER
 62
     3
100
AcDbLine
 10
120.6991928156413
 20
784.2164338817104
 30
0.0
 11
120.6991928156413
 21
733.2164338817104
 31
0.0
  0
LINE
  5
32E
330
1F
100
AcDbEntity
  8
1
  6
Continuous
 62
     7
100
AcDbLine
 10
539.5341613036495
 20
1306.365217690001
 30
0.0
 11
534.5303532463364
 21
1306.365217690001
 31
0.0
  0
LINE
  5
32F
330
1F
100
AcDbEntity
  8
1
  6
DASHED
 62
     4
100
AcDbLine
 10
322.5341613036454
 20
1306.365217690001
 30
0.0
 11
322.5341613036454
 21
1266.365217690001
 31
0.0
  0
LINE
  5
330
330
1F
100
AcDbEntity
  8
1
  6
DASHED
 62
     4
100
AcDbLine
 10
539.5341613036495
 20
1303.365217690001
 30
0.0
 11
322.5341613036454
 21
1303.365217690001
 31
0.0
  0
LINE
  5
331
330
1F
100
AcDbEntity
  8
1
  6
DASHED
 62
     4
100
AcDbLine
 10
539.5341613036495
 20
1269.365217690001
 30
0.0
 11
322.5341613036454
 21
1269.365217690001
 31
0.0
  0
LINE
  5
332
330
1F
100
AcDbEntity
  8
1
  6
DASHED
 62
     4
100
AcDbLine
 10
552.0533991901185
 20
853.9940020173838
 30
0.0
 11
361.5278103575475
 21
743.994002017376
 31
0.0
  0
LINE
  5
333
330
1F
100
AcDbEntity
  8
1
  6
DASHED
 62
     4
100
AcDbLine
 10
535.0533991901153
 20
883.4388657460548
 30
0.0
 11
344.5278103575452
 21
773.4388657460457
 31
0.0
  0
LINE
  5
334
330
1F
100
AcDbEntity
  8
1
  6
DASHED
 62
     4
100
AcDbLine
 10
553.5533991901176
 20
851.3959258060304
 30
0.0
 11
546.8033991901203
 21
863.0872687571148
 31
0.0
  0
LINE
  5
335
330
1F
100
AcDbEntity
  8
1
  6
Continuous
 62
     7
100
AcDbLine
 10
363.0278103575475
 20
741.3959258060227
 30
0.0
 11
401.9988294936217
 21
763.8958541948311
 31
0.0
  0
LINE
  5
336
330
1F
100
AcDbEntity
  8
1
  6
DASHED
 62
     4
100
AcDbLine
 10
343.0278103575452
 20
776.036941957399
 30
0.0
 11
353.0278103575466
 21
758.7164338817109
 31
0.0
  0
LINE
  5
337
330
1F
100
AcDbEntity
  8
1
  6
Continuous
 62
     7
100
AcDbLine
 10
533.5533991901153
 20
886.0369419574085
 30
0.0
 11
529.2230297146713
 21
883.5368019750702
 31
0.0
  0
LINE
  5
338
330
1F
100
AcDbEntity
  8
1
  6
DASH_CENTER
 62
     3
100
AcDbLine
 10
960.3237524885445
 20
883.7164338817202
 30
0.0
 11
1011.323752488545
 21
883.7164338817202
 31
0.0
  0
LINE
  5
339
330
1F
100
AcDbEntity
  8
1
  6
DASH_CENTER
 62
     3
100
AcDbLine
 10
985.8237524885445
 20
909.2164338817205
 30
0.0
 11
985.8237524885445
 21
858.2164338817202
 31
0.0
  0
LINE
  5
33A
330
1F
100
AcDbEntity
  8
1
  6
Continuous
 62
     7
100
AcDbLine
 10
403.5341613036513
 20
1266.365217690001
 30
0.0
 11
504.5307571754566
 21
1266.365217690001
 31
0.0
  0
LINE
  5
33B
330
1F
100
AcDbEntity
  8
1
  6
Continuous
 62
     7
100
AcDbLine
 10
353.0278103575466
 20
758.7164338817109
 30
0.0
 11
363.0278103575475
 21
741.3959258060227
 31
0.0
  0
LINE
  5
33C
330
1F
100
AcDbEntity
  8
1
  6
Continuous
 62
     7
100
AcDbLine
 10
546.8033991901203
 20
863.0872687571148
 30
0.0
 11
533.5533991901153
 21
886.0369419574085
 31
0.0
  0
LINE
  5
33D
330
1F
100
AcDbEntity
  8
1
  6
PHANTOM
 62
     4
100
AcDbLine
 10
120.6991928156413
 20
738.7164338817104
 30
0.0
 11
127.6991928156413
 21
738.7164338817104
 31
0.0
  0
LINE
  5
33E
330
1F
100
AcDbEntity
  8
1
  6
PHANTOM
 62
     4
100
AcDbLine
 10
1251.699192815641
 20
688.7164338817537
 30
0.0
 11
1258.699192815641
 21
688.7164338817537
 31
0.0
  0
LINE
  5
33F
330
1F
100
AcDbEntity
  8
1
  6
Continuous
 62
     7
100
AcDbLine
 10
1792.120679026566
 20
863.0872687571198
 30
0.0
 11
1778.870679026564
 21
886.0369419574161
 31
0.0
  0
LINE
  5
340
330
1F
100
AcDbEntity
  8
1
  6
Continuous
 62
     7
100
AcDbLine
 10
1509.242549815527
 20
713.0465609006761
 30
0.0
 11
1521.742549815525
 21
691.3959258060645
 31
0.0
  0
LINE
  5
341
330
1F
100
AcDbEntity
  8
1
  6
DASHED
 62
     4
100
AcDbLine
 10
1548.851441140102
 20
1306.365217690001
 30
0.0
 11
1467.851441140095
 21
1306.365217690001
 31
0.0
  0
LINE
  5
342
330
1F
100
AcDbEntity
  8
1
  6
Continuous
 62
     7
100
AcDbLine
 10
1548.851441140102
 20
1266.365217690001
 30
0.0
 11
1749.847995123358
 21
1266.365217690001
 31
0.0
  0
LINE
  5
343
330
1F
100
AcDbEntity
  8
1
  6
DASH_CENTER
 62
     3
100
AcDbLine
 10
2207.323752488544
 20
883.7164338817202
 30
0.0
 11
2258.323752488544
 21
883.7164338817202
 31
0.0
  0
LINE
  5
344
330
1F
100
AcDbEntity
  8
1
  6
Continuous
 62
     7
100
AcDbLine
 10
1778.870679026564
 20
886.0369419574161
 30
0.0
 11
1774.540273274573
 21
883.5367810308045
 31
0.0
  0
LINE
  5
345
330
1F
100
AcDbEntity
  8
1
  6
DASHED
 62
     4
100
AcDbLine
 10
1501.742549815529
 20
726.0369419574431
 30
0.0
 11
1509.242549815527
 21
713.0465609006761
 31
0.0
  0
LINE
  5
346
330
1F
100
AcDbEntity
  8
1
  6
Continuous
 62
     7
100
AcDbLine
 10
1521.742549815525
 20
691.3959258060645
 30
0.0
 11
1560.713984259599
 21
713.8960939730513
 31
0.0
  0
LINE
  5
347
330
1F
100
AcDbEntity
  8
1
  6
DASHED
 62
     4
100
AcDbLine
 10
1780.370679026563
 20
883.4388657460629
 30
0.0
 11
1503.242549815529
 21
723.4388657460899
 31
0.0
  0
LINE
  5
348
330
1F
100
AcDbEntity
  8
1
  6
DASHED
 62
     4
100
AcDbLine
 10
1797.370679026561
 20
853.9940020173877
 30
0.0
 11
1520.242549815526
 21
693.9940020174179
 31
0.0
  0
LINE
  5
349
330
1F
100
AcDbEntity
  8
1
  6
DASHED
 62
     4
100
AcDbLine
 10
1784.851441140098
 20
1269.365217690001
 30
0.0
 11
1467.851441140095
 21
1269.365217690001
 31
0.0
  0
LINE
  5
34A
330
1F
100
AcDbEntity
  8
1
  6
DASHED
 62
     4
100
AcDbLine
 10
1784.851441140098
 20
1303.365217690001
 30
0.0
 11
1467.851441140095
 21
1303.365217690001
 31
0.0
  0
LINE
  5
34B
330
1F
100
AcDbEntity
  8
1
  6
DASHED
 62
     4
100
AcDbLine
 10
1467.851441140095
 20
1266.365217690001
 30
0.0
 11
1548.851441140102
 21
1266.365217690001
 31
0.0
  0
LINE
  5
34C
330
1F
100
AcDbEntity
  8
1
  6
DASHED
 62
     4
100
AcDbLine
 10
1467.851441140095
 20
1306.365217690001
 30
0.0
 11
1467.851441140095
 21
1266.365217690001
 31
0.0
  0
LINE
  5
34D
330
1F
100
AcDbEntity
  8
1
  6
Continuous
 62
     7
100
AcDbLine
 10
1784.851441140098
 20
1306.365217690001
 30
0.0
 11
1779.847591194238
 21
1306.365217690001
 31
0.0
  0
LINE
  5
34E
330
1F
100
AcDbEntity
  8
1
  6
DASH_CENTER
 62
     3
100
AcDbLine
 10
1251.699192815641
 20
734.2164338817546
 30
0.0
 11
1251.699192815641
 21
683.2164338817537
 31
0.0
  0
LINE
  5
34F
330
1F
100
AcDbEntity
  8
1
  6
DASH_CENTER
 62
     3
100
AcDbLine
 10
1226.199192815641
 20
708.7164338817537
 30
0.0
 11
1277.199192815641
 21
708.7164338817537
 31
0.0
  0
LINE
  5
350
330
1F
100
AcDbEntity
  8
1
  6
DASHED
 62
     4
100
AcDbLine
 10
319.5341613036463
 20
1263.865217690001
 30
0.0
 11
319.5341613036463
 21
1308.865217690001
 31
0.0
  0
LINE
  5
351
330
1F
100
AcDbEntity
  8
1
  6
Continuous
 62
     7
100
AcDbLine
 10
319.5341613036463
 20
1308.865217690001
 30
0.0
 11
319.5341613036463
 21
1348.165217689998
 31
0.0
  0
LINE
  5
352
330
1F
100
AcDbEntity
  8
1
  6
Continuous
 62
     7
100
AcDbLine
 10
539.5341613037004
 20
1263.865217690001
 30
0.0
 11
539.5341613037004
 21
1211.36521769
 31
0.0
  0
LINE
  5
353
330
1F
100
AcDbEntity
  8
1
  6
DASHED
 62
     4
100
AcDbLine
 10
1464.851441140095
 20
1263.865217690001
 30
0.0
 11
1464.851441140095
 21
1308.865217690001
 31
0.0
  0
LINE
  5
354
330
1F
100
AcDbEntity
  8
1
  6
Continuous
 62
     7
100
AcDbLine
 10
1464.851441140095
 20
1263.865217690001
 30
0.0
 11
1464.851441140095
 21
1224.565217690003
 31
0.0
  0
LINE
  5
355
330
1F
100
AcDbEntity
  8
1
  6
Continuous
 62
     7
100
AcDbLine
 10
1784.851441140149
 20
1308.865217690001
 30
0.0
 11
1784.851441140149
 21
1361.36521769
 31
0.0
  0
LINE
  5
356
330
1F
100
AcDbEntity
  8
1
  6
Continuous
 62
     7
100
AcDbLine
 10
1759.351043756575
 20
1252.865217690001
 30
0.0
 11
1759.351043756575
 21
1233.865217690001
 31
0.0
  0
LINE
  5
357
330
1F
100
AcDbEntity
  8
1
  6
Continuous
 62
     7
100
AcDbLine
 10
1770.351043756575
 20
1252.865217690001
 30
0.0
 11
1770.351043756575
 21
1233.865217690001
 31
0.0
  0
LINE
  5
358
330
1F
100
AcDbEntity
  8
1
  6
DOT_CENTER
 62
     3
100
AcDbLine
 10
1773.101043756575
 20
1243.365217690001
 30
0.0
 11
1756.601043756575
 21
1243.365217690001
 31
0.0
  0
LINE
  5
359
330
1F
100
AcDbEntity
  8
1
  6
DOT_CENTER
 62
     3
100
AcDbLine
 10
1533.101440395633
 20
1243.365217690001
 30
0.0
 11
1516.601440395633
 21
1243.365217690001
 31
0.0
  0
LINE
  5
35A
330
1F
100
AcDbEntity
  8
1
  6
Continuous
 62
     7
100
AcDbLine
 10
1530.351440395633
 20
1252.865217690001
 30
0.0
 11
1530.351440395633
 21
1233.865217690001
 31
0.0
  0
LINE
  5
35B
330
1F
100
AcDbEntity
  8
1
  6
Continuous
 62
     7
100
AcDbLine
 10
1519.351440395632
 20
1252.865217690001
 30
0.0
 11
1519.351440395632
 21
1233.865217690001
 31
0.0
  0
LINE
  5
35C
330
1F
100
AcDbEntity
  8
1
  6
Continuous
 62
     7
100
AcDbLine
 10
1519.351440395632
 20
1338.86521769
 30
0.0
 11
1519.351440395632
 21
1319.86521769
 31
0.0
  0
LINE
  5
35D
330
1F
100
AcDbEntity
  8
1
  6
Continuous
 62
     7
100
AcDbLine
 10
1530.351440395633
 20
1338.86521769
 30
0.0
 11
1530.351440395633
 21
1319.86521769
 31
0.0
  0
LINE
  5
35E
330
1F
100
AcDbEntity
  8
1
  6
DOT_CENTER
 62
     3
100
AcDbLine
 10
1524.851440395633
 20
1347.11521769
 30
0.0
 11
1524.851440395633
 21
1344.36521769
 31
0.0
  0
LINE
  5
35F
330
1F
100
AcDbEntity
  8
1
  6
DOT_CENTER
 62
     3
100
AcDbLine
 10
1524.851440395633
 20
1344.36521769
 30
0.0
 11
1524.851440395633
 21
1314.36521769
 31
0.0
  0
LINE
  5
360
330
1F
100
AcDbEntity
  8
1
  6
DOT_CENTER
 62
     3
100
AcDbLine
 10
1524.851440395633
 20
1314.36521769
 30
0.0
 11
1524.851440395632
 21
1225.31125603152
 31
0.0
  0
LINE
  5
361
330
1F
100
AcDbEntity
  8
1
  6
DOT_CENTER
 62
     3
100
AcDbLine
 10
1516.601440395633
 20
1329.36521769
 30
0.0
 11
1533.101440395633
 21
1329.36521769
 31
0.0
  0
LINE
  5
362
330
1F
100
AcDbEntity
  8
1
  6
DOT_CENTER
 62
     3
100
AcDbLine
 10
1756.601043756575
 20
1329.36521769
 30
0.0
 11
1773.101043756575
 21
1329.36521769
 31
0.0
  0
LINE
  5
363
330
1F
100
AcDbEntity
  8
1
  6
DOT_CENTER
 62
     3
100
AcDbLine
 10
1764.851043756575
 20
1347.11521769
 30
0.0
 11
1764.851043756575
 21
1344.36521769
 31
0.0
  0
LINE
  5
364
330
1F
100
AcDbEntity
  8
1
  6
Continuous
 62
     7
100
AcDbLine
 10
1770.351043756575
 20
1338.86521769
 30
0.0
 11
1770.351043756575
 21
1319.86521769
 31
0.0
  0
LINE
  5
365
330
1F
100
AcDbEntity
  8
1
  6
Continuous
 62
     7
100
AcDbLine
 10
1759.351043756575
 20
1338.86521769
 30
0.0
 11
1759.351043756575
 21
1319.86521769
 31
0.0
  0
LINE
  5
366
330
1F
100
AcDbEntity
  8
1
  6
Continuous
 62
     7
100
AcDbLine
 10
514.0338058086732
 20
1338.86521769
 30
0.0
 11
514.0338058086732
 21
1319.86521769
 31
0.0
  0
LINE
  5
367
330
1F
100
AcDbEntity
  8
1
  6
Continuous
 62
     7
100
AcDbLine
 10
525.0338058086732
 20
1338.86521769
 30
0.0
 11
525.0338058086732
 21
1319.86521769
 31
0.0
  0
LINE
  5
368
330
1F
100
AcDbEntity
  8
1
  6
DOT_CENTER
 62
     3
100
AcDbLine
 10
511.2838058086732
 20
1329.36521769
 30
0.0
 11
527.7838058086733
 21
1329.36521769
 31
0.0
  0
LINE
  5
369
330
1F
100
AcDbEntity
  8
1
  6
DOT_CENTER
 62
     3
100
AcDbLine
 10
371.2836810028163
 20
1329.36521769
 30
0.0
 11
387.7836810028163
 21
1329.36521769
 31
0.0
  0
LINE
  5
36A
330
1F
100
AcDbEntity
  8
1
  6
Continuous
 62
     7
100
AcDbLine
 10
385.0336810028163
 20
1338.86521769
 30
0.0
 11
385.0336810028163
 21
1319.86521769
 31
0.0
  0
LINE
  5
36B
330
1F
100
AcDbEntity
  8
1
  6
Continuous
 62
     7
100
AcDbLine
 10
374.0336810028163
 20
1338.86521769
 30
0.0
 11
374.0336810028163
 21
1319.86521769
 31
0.0
  0
LINE
  5
36C
330
1F
100
AcDbEntity
  8
1
  6
Continuous
 62
     7
100
AcDbLine
 10
374.0336810028163
 20
1252.865217690001
 30
0.0
 11
374.0336810028163
 21
1233.865217690001
 31
0.0
  0
LINE
  5
36D
330
1F
100
AcDbEntity
  8
1
  6
Continuous
 62
     7
100
AcDbLine
 10
385.0336810028163
 20
1252.865217690001
 30
0.0
 11
385.0336810028163
 21
1233.865217690001
 31
0.0
  0
LINE
  5
36E
330
1F
100
AcDbEntity
  8
1
  6
DOT_CENTER
 62
     3
100
AcDbLine
 10
387.7836810028163
 20
1243.365217690001
 30
0.0
 11
371.2836810028163
 21
1243.365217690001
 31
0.0
  0
LINE
  5
36F
330
1F
100
AcDbEntity
  8
1
  6
DOT_CENTER
 62
     3
100
AcDbLine
 10
527.7838058086733
 20
1243.365217690001
 30
0.0
 11
511.2838058086732
 21
1243.365217690001
 31
0.0
  0
LINE
  5
370
330
1F
100
AcDbEntity
  8
1
  6
DOT_CENTER
 62
     3
100
AcDbLine
 10
519.5338058086732
 20
1347.11521769
 30
0.0
 11
519.5338058086732
 21
1225.615217690001
 31
0.0
  0
LINE
  5
371
330
1F
100
AcDbEntity
  8
1
  6
Continuous
 62
     7
100
AcDbLine
 10
525.0338058086732
 20
1252.865217690001
 30
0.0
 11
525.0338058086732
 21
1233.865217690001
 31
0.0
  0
LINE
  5
372
330
1F
100
AcDbEntity
  8
1
  6
Continuous
 62
     7
100
AcDbLine
 10
514.0338058086732
 20
1252.865217690001
 30
0.0
 11
514.0338058086732
 21
1233.865217690001
 31
0.0
  0
LINE
  5
373
330
1F
100
AcDbEntity
  8
1
  6
Continuous
 62
     7
100
AcDbLine
 10
446.3274062463343
 20
750.9203505911373
 30
0.0
 11
560.2667809573173
 21
734.3183708881592
 31
0.0
  0
LINE
  5
374
330
1F
100
AcDbEntity
  8
1
  6
Continuous
 62
     7
100
AcDbLine
 10
1606.03652337764
 20
701.804690031515
 30
0.0
 11
1807.185302512603
 21
733.5285470050462
 31
0.0
  0
LINE
  5
375
330
1F
100
AcDbEntity
  8
1
  6
DASH_CENTER
 62
     3
100
AcDbLine
 10
1614.418329805194
 20
710.3767662328856
 30
0.0
 11
1623.511596544929
 21
715.6267662328879
 31
0.0
  0
LINE
  5
376
330
1F
100
AcDbEntity
  8
1
  6
DASH_CENTER
 62
     3
100
AcDbLine
 10
1616.339963175061
 20
717.5483996027543
 30
0.0
 11
1621.589963175063
 21
708.455132863019
 31
0.0
  0
LINE
  5
377
330
1F
100
AcDbEntity
  8
1
  6
DASH_CENTER
 62
     3
100
AcDbLine
 10
457.6252237171912
 20
767.5483996027726
 30
0.0
 11
462.8752237171935
 21
758.4551328630373
 31
0.0
  0
LINE
  5
378
330
1F
100
AcDbEntity
  8
1
  6
DASH_CENTER
 62
     3
100
AcDbLine
 10
455.7035903473245
 20
760.376766232904
 30
0.0
 11
464.7968570870596
 21
765.6267662329062
 31
0.0
  0
LINE
  5
379
330
1F
100
AcDbEntity
  8
1
  6
Continuous
 62
     7
100
AcDbLine
 10
1464.851441140095
 20
1348.16521769
 30
0.0
 11
1464.851441140095
 21
1308.865217690001
 31
0.0
  0
LINE
  5
37A
330
1F
100
AcDbEntity
  8
1
  6
Continuous
 62
     7
100
AcDbLine
 10
1539.851441140097
 20
1361.36521769
 30
0.0
 11
1539.851441140092
 21
1358.16521769
 31
0.0
  0
LINE
  5
37B
330
1F
100
AcDbEntity
  8
1
  6
Continuous
 62
     7
100
AcDbLine
 10
1474.851441140095
 20
1214.565217690003
 30
0.0
 11
1539.851441140097
 21
1214.565217690003
 31
0.0
  0
LINE
  5
37C
330
1F
100
AcDbEntity
  8
1
  6
Continuous
 62
     7
100
AcDbLine
 10
1784.851441140149
 20
1211.36521769
 30
0.0
 11
1784.851441140149
 21
1263.865217690001
 31
0.0
  0
LINE
  5
37D
330
1F
100
AcDbEntity
  8
1
  6
Continuous
 62
     7
100
AcDbLine
 10
1539.851441140097
 20
1214.565217690003
 30
0.0
 11
1539.851441140097
 21
1211.36521769
 31
0.0
  0
LINE
  5
37E
330
1F
100
AcDbEntity
  8
1
  6
Continuous
 62
     7
100
AcDbLine
 10
1539.851441140092
 20
1358.16521769
 30
0.0
 11
1474.851441140095
 21
1358.16521769
 31
0.0
  0
LINE
  5
37F
330
1F
100
AcDbEntity
  8
1
  6
Continuous
 62
     7
100
AcDbLine
 10
1784.851441140149
 20
1361.36521769
 30
0.0
 11
1539.851441140097
 21
1361.36521769
 31
0.0
  0
LINE
  5
380
330
1F
100
AcDbEntity
  8
1
  6
Continuous
 62
     7
100
AcDbLine
 10
329.5341613036463
 20
1358.165217689998
 30
0.0
 11
394.5341613037354
 21
1358.165217689998
 31
0.0
  0
LINE
  5
381
330
1F
100
AcDbEntity
  8
1
  6
Continuous
 62
     7
100
AcDbLine
 10
394.5341613037354
 20
1361.36521769
 30
0.0
 11
539.5341613037004
 21
1361.36521769
 31
0.0
  0
LINE
  5
382
330
1F
100
AcDbEntity
  8
1
  6
Continuous
 62
     7
100
AcDbLine
 10
319.5341613036463
 20
1224.565217689999
 30
0.0
 11
319.5341613036463
 21
1263.865217690001
 31
0.0
  0
LINE
  5
383
330
1F
100
AcDbEntity
  8
1
  6
Continuous
 62
     7
100
AcDbLine
 10
394.5341613037354
 20
1211.36521769
 30
0.0
 11
394.5341613037286
 21
1214.565217689994
 31
0.0
  0
LINE
  5
384
330
1F
100
AcDbEntity
  8
1
  6
Continuous
 62
     7
100
AcDbLine
 10
394.5341613037354
 20
1358.165217689998
 30
0.0
 11
394.5341613037354
 21
1361.36521769
 31
0.0
  0
LINE
  5
385
330
1F
100
AcDbEntity
  8
1
  6
Continuous
 62
     7
100
AcDbLine
 10
394.5341613037286
 20
1214.565217689994
 30
0.0
 11
329.5341613036454
 21
1214.565217689999
 31
0.0
  0
LINE
  5
386
330
1F
100
AcDbEntity
  8
1
  6
Continuous
 62
     7
100
AcDbLine
 10
539.5341613037004
 20
1211.36521769
 30
0.0
 11
394.5341613037354
 21
1211.36521769
 31
0.0
  0
LINE
  5
387
330
1F
100
AcDbEntity
  8
1
  6
DASH_CENTER
 62
     3
100
AcDbLine
 10
1824.87517095098
 20
766.354824568023
 30
0.0
 11
1830.12517095098
 21
757.2615578282869
 31
0.0
  0
LINE
  5
388
330
1F
100
AcDbEntity
  8
1
  6
DASH_CENTER
 62
     3
100
AcDbLine
 10
1822.95353758111
 20
759.1831911981554
 30
0.0
 11
1832.046804320847
 21
764.4331911981542
 31
0.0
  0
LINE
  5
389
330
1F
100
AcDbEntity
  8
1
  6
Continuous
 62
     7
100
AcDbLine
 10
1843.660424988822
 20
753.8178101413841
 30
0.0
 11
1810.627424502678
 21
734.746198418571
 31
0.0
  0
LINE
  5
38A
330
1F
100
AcDbEntity
  8
1
  6
Continuous
 62
     7
100
AcDbLine
 10
1812.820679026605
 20
827.233817040478
 30
0.0
 11
1847.320679026667
 21
767.4780641792279
 31
0.0
  0
LINE
  5
38B
330
1F
100
AcDbEntity
  8
1
  6
Continuous
 62
     7
100
AcDbLine
 10
1804.820679026688
 20
841.0902235009125
 30
0.0
 11
1812.820679026605
 21
827.233817040478
 31
0.0
  0
LINE
  5
38C
330
1F
100
AcDbEntity
  8
1
  6
Continuous
 62
     7
100
AcDbLine
 10
1527.692549815513
 20
681.090223501049
 30
0.0
 11
1804.820679026688
 21
841.0902235009125
 31
0.0
  0
LINE
  5
38D
330
1F
100
AcDbEntity
  8
1
  6
Continuous
 62
     7
100
AcDbLine
 10
1529.292549815513
 20
678.3189422089384
 30
0.0
 11
1594.244455099363
 21
715.8189422089081
 31
0.0
  0
LINE
  5
38E
330
1F
100
AcDbEntity
  8
1
  6
Continuous
 62
     7
100
AcDbLine
 10
1592.644455099363
 20
718.5902235010167
 30
0.0
 11
1600.927457353756
 21
704.2436427571997
 31
0.0
  0
LINE
  5
38F
330
1F
100
AcDbEntity
  8
1
  6
Continuous
 62
     7
100
AcDbLine
 10
1527.692549815513
 20
681.090223501049
 30
0.0
 11
1529.292549815513
 21
678.3189422089384
 31
0.0
  0
LINE
  5
390
330
1F
100
AcDbEntity
  8
1
  6
Continuous
 62
     7
100
AcDbLine
 10
2157.823752488544
 20
848.6164338816252
 30
0.0
 11
2157.823752488544
 21
756.816433881634
 31
0.0
  0
LINE
  5
391
330
1F
100
AcDbEntity
  8
1
  6
Continuous
 62
     7
100
AcDbLine
 10
2157.823752488544
 20
756.816433881634
 30
0.0
 11
2161.023752488547
 21
756.816433881634
 31
0.0
  0
LINE
  5
392
330
1F
100
AcDbEntity
  8
1
  6
Continuous
 62
     7
100
AcDbLine
 10
2161.023752488547
 20
756.816433881634
 30
0.0
 11
2161.023752488547
 21
847.0164338816242
 31
0.0
  0
LINE
  5
393
330
1F
100
AcDbEntity
  8
1
  6
Continuous
 62
     7
100
AcDbLine
 10
2162.623752488545
 20
848.6164338816252
 30
0.0
 11
2303.023752488543
 21
848.6164338816252
 31
0.0
  0
LINE
  5
394
330
1F
100
AcDbEntity
  8
1
  6
Continuous
 62
     7
100
AcDbLine
 10
2304.623752488545
 20
847.0164338816242
 30
0.0
 11
2304.623752488545
 21
756.816433881634
 31
0.0
  0
LINE
  5
395
330
1F
100
AcDbEntity
  8
1
  6
Continuous
 62
     7
100
AcDbLine
 10
2304.623752488545
 20
756.816433881634
 30
0.0
 11
2307.823752488544
 21
756.816433881634
 31
0.0
  0
LINE
  5
396
330
1F
100
AcDbEntity
  8
1
  6
Continuous
 62
     7
100
AcDbLine
 10
2307.823752488544
 20
756.816433881634
 30
0.0
 11
2307.823752488544
 21
848.6164338816252
 31
0.0
  0
LINE
  5
397
330
1F
100
AcDbEntity
  8
1
  6
Continuous
 62
     7
100
AcDbLine
 10
2304.623752488545
 20
851.816433881624
 30
0.0
 11
2161.023752488546
 21
851.816433881624
 31
0.0
  0
LINE
  5
398
330
1F
100
AcDbEntity
  8
1
  6
Continuous
 62
     7
100
AcDbLine
 10
914.0237524885434
 20
756.816433881624
 30
0.0
 11
914.0237524885434
 21
847.0164338816242
 31
0.0
  0
LINE
  5
399
330
1F
100
AcDbEntity
  8
1
  6
Continuous
 62
     7
100
AcDbLine
 10
910.8237524885445
 20
756.816433881624
 30
0.0
 11
914.0237524885434
 21
756.816433881624
 31
0.0
  0
LINE
  5
39A
330
1F
100
AcDbEntity
  8
1
  6
Continuous
 62
     7
100
AcDbLine
 10
910.8237524885445
 20
848.6164338816252
 30
0.0
 11
910.8237524885445
 21
756.816433881624
 31
0.0
  0
LINE
  5
39B
330
1F
100
AcDbEntity
  8
1
  6
Continuous
 62
     7
100
AcDbLine
 10
1057.623752488543
 20
851.816433881624
 30
0.0
 11
914.0237524885434
 21
851.816433881624
 31
0.0
  0
LINE
  5
39C
330
1F
100
AcDbEntity
  8
1
  6
Continuous
 62
     7
100
AcDbLine
 10
1060.823752488544
 20
756.816433881624
 30
0.0
 11
1060.823752488544
 21
848.6164338816252
 31
0.0
  0
LINE
  5
39D
330
1F
100
AcDbEntity
  8
1
  6
Continuous
 62
     7
100
AcDbLine
 10
1057.623752488543
 20
756.816433881624
 30
0.0
 11
1060.823752488544
 21
756.816433881624
 31
0.0
  0
LINE
  5
39E
330
1F
100
AcDbEntity
  8
1
  6
Continuous
 62
     7
100
AcDbLine
 10
1057.623752488543
 20
847.0164338816242
 30
0.0
 11
1057.623752488543
 21
756.816433881624
 31
0.0
  0
LINE
  5
39F
330
1F
100
AcDbEntity
  8
1
  6
DASH_CENTER
 62
     3
100
AcDbLine
 10
2232.823752488544
 20
906.6826765534845
 30
0.0
 11
2232.823752488544
 21
752.6826765534844
 31
0.0
  0
LINE
  5
3A0
330
1F
100
AcDbEntity
  8
1
  6
DASH_CENTER
 62
     3
100
AcDbLine
 10
538.8327741575137
 20
836.8927962818143
 30
0.0
 11
547.5006334566884
 21
821.8796235827635
 31
0.0
  0
LINE
  5
3A1
330
1F
100
AcDbEntity
  8
1
  6
Continuous
 62
     7
100
AcDbLine
 10
368.9778103575405
 20
731.0902235010013
 30
0.0
 11
370.5778103575404
 21
728.3189422088924
 31
0.0
  0
LINE
  5
3A2
330
1F
100
AcDbEntity
  8
1
  6
Continuous
 62
     7
100
AcDbLine
 10
433.9297156414924
 20
768.5902235010351
 30
0.0
 11
442.7182107896816
 21
753.3681033823058
 31
0.0
  0
LINE
  5
3A3
330
1F
100
AcDbEntity
  8
1
  6
Continuous
 62
     7
100
AcDbLine
 10
370.5778103575404
 20
728.3189422088924
 30
0.0
 11
435.5297156414932
 21
765.8189422089268
 31
0.0
  0
LINE
  5
3A4
330
1F
100
AcDbEntity
  8
1
  6
Continuous
 62
     7
100
AcDbLine
 10
368.9778103575405
 20
731.0902235010013
 30
0.0
 11
559.5033991902243
 21
841.0902235009451
 31
0.0
  0
LINE
  5
3A5
330
1F
100
AcDbEntity
  8
1
  6
Continuous
 62
     7
100
AcDbLine
 10
559.5033991902243
 20
841.0902235009451
 30
0.0
 11
567.5033991901433
 21
827.233817040513
 31
0.0
  0
LINE
  5
3A6
330
1F
100
AcDbEntity
  8
1
  6
Continuous
 62
     7
100
AcDbLine
 10
567.5033991901433
 20
827.233817040513
 30
0.0
 11
602.0033991901925
 21
767.4780641792186
 31
0.0
  0
LINE
  5
3A7
330
1F
100
AcDbEntity
  8
1
  6
Continuous
 62
     7
100
AcDbLine
 10
598.3431451523444
 20
753.8178101413795
 30
0.0
 11
566.7086440818554
 21
735.5536224326535
 31
0.0
  0
LINE
  5
3A8
330
1F
100
AcDbEntity
  8
1
  6
DASH_CENTER
 62
     3
100
AcDbLine
 10
577.6362577446154
 20
759.1831911981376
 30
0.0
 11
586.7295244843537
 21
764.4331911981381
 31
0.0
  0
LINE
  5
3A9
330
1F
100
AcDbEntity
  8
1
  6
DASH_CENTER
 62
     3
100
AcDbLine
 10
579.5578911144854
 20
766.3548245680058
 30
0.0
 11
584.8078911144872
 21
757.2615578282703
 31
0.0
  0
LINE
  5
3AA
330
1F
100
AcDbEntity
  8
1
  6
Continuous
 62
     7
100
AcDbLine
 10
915.6237524885443
 20
848.6164338816252
 30
0.0
 11
1056.023752488545
 21
848.6164338816252
 31
0.0
  0
LINE
  5
3AB
330
1F
100
AcDbEntity
  8
1
  6
Continuous
 62
     2
100
AcDbLine
 10
1742.874187219744
 20
1058.384694661041
 30
0.0
 11
1758.718569250213
 21
1030.941419969741
 31
0.0
  0
LINE
  5
3AC
330
1F
100
AcDbEntity
  8
1
  6
Continuous
 62
     2
100
AcDbLine
 10
1907.576578611826
 20
773.11178464187
 30
0.0
 11
1923.420960642294
 21
745.6685099505692
 31
0.0
  0
LINE
  5
3AD
330
1F
100
AcDbEntity
  8
1
  6
Continuous
 62
     2
100
AcDbLine
 10
1198.981816574327
 20
586.9330654031961
 30
0.0
 11
1302.981816574327
 21
586.9330654031961
 31
0.0
  0
LINE
  5
3AE
330
1F
100
AcDbEntity
  8
1
  6
Continuous
 62
     2
100
AcDbLine
 10
2173.630450191374
 20
686.1975912478449
 30
0.0
 11
2288.630450191374
 21
686.1975912478449
 31
0.0
  0
LINE
  5
3AF
330
1F
100
AcDbEntity
  8
1
  6
Continuous
 62
     2
100
AcDbLine
 10
67.98181657432735
 20
636.9330654031528
 30
0.0
 11
171.9818165743273
 21
636.9330654031528
 31
0.0
  0
LINE
  5
3B0
330
1F
100
AcDbEntity
  8
1
  6
Continuous
 62
     2
100
AcDbLine
 10
921.4899236025773
 20
686.1975912478449
 30
0.0
 11
1036.489923602577
 21
686.1975912478449
 31
0.0
  0
LINE
  5
3B1
330
1F
100
AcDbEntity
  8
1
  6
Continuous
 62
     2
100
AcDbLine
 10
392.4720672570653
 20
640.3969768648858
 30
0.0
 11
376.6276852266194
 21
667.8402515561988
 31
0.0
  0
LINE
  5
3B2
330
1F
100
AcDbEntity
  8
1
  6
Continuous
 62
     2
100
AcDbLine
 10
260.2638018472705
 20
869.3884097352253
 30
0.0
 11
244.4194198168236
 21
896.8316844265384
 31
0.0
  0
LINE
  5
3B3
330
1F
100
AcDbEntity
  8
1
  6
Continuous
 62
     2
100
AcDbLine
 10
499.8969139332095
 20
1044.331684426544
 30
0.0
 11
515.7412959636778
 21
1016.888409735243
 31
0.0
  0
LINE
  5
3B4
330
1F
100
AcDbEntity
  8
1
  6
Continuous
 62
     2
100
AcDbLine
 10
660.6451860646376
 20
765.9075098660078
 30
0.0
 11
676.4895680951055
 21
738.4642351747069
 31
0.0
  0
LINE
  5
3B5
330
1F
100
AcDbEntity
  8
1
  6
Continuous
 62
     4
100
AcDbLine
 10
434.7693129121622
 20
847.0579775685233
 30
0.0
 11
410.8507286251193
 21
842.4861807987991
 31
0.0
  0
LINE
  5
3B6
330
1F
100
AcDbEntity
  8
1
  6
Continuous
 62
     4
100
AcDbLine
 10
432.2693129121622
 20
851.3881045874452
 30
0.0
 11
434.7693129121622
 21
847.0579775685233
 31
0.0
  0
LINE
  5
3B7
330
1F
100
AcDbEntity
  8
1
  6
Continuous
 62
     4
100
AcDbLine
 10
454.7859734105583
 20
864.388104587444
 30
0.0
 11
432.2693129121622
 21
851.3881045874452
 31
0.0
  0
LINE
  5
3B8
330
1F
100
AcDbEntity
  8
1
  6
Continuous
 62
     4
100
AcDbLine
 10
453.2859734105574
 20
866.986180798796
 30
0.0
 11
454.7859734105583
 21
864.388104587444
 31
0.0
  0
LINE
  5
3B9
330
1F
100
AcDbEntity
  8
1
  6
Continuous
 62
     4
100
AcDbLine
 10
451.7859734105574
 20
869.5842570101493
 30
0.0
 11
453.2859734105574
 21
866.986180798796
 31
0.0
  0
LINE
  5
3BA
330
1F
100
AcDbEntity
  8
1
  6
Continuous
 62
     4
100
AcDbLine
 10
429.2693129121622
 20
856.5842570101512
 30
0.0
 11
451.7859734105574
 21
869.5842570101493
 31
0.0
  0
LINE
  5
3BB
330
1F
100
AcDbEntity
  8
1
  6
Continuous
 62
     4
100
AcDbLine
 10
426.7693129121645
 20
860.9143840290744
 30
0.0
 11
429.2693129121622
 21
856.5842570101512
 31
0.0
  0
LINE
  5
3BC
330
1F
100
AcDbEntity
  8
1
  6
Continuous
 62
     4
100
AcDbLine
 10
410.8507286251193
 20
842.4861807987991
 30
0.0
 11
426.7693129121645
 21
860.9143840290744
 31
0.0
  0
LINE
  5
3BD
330
1F
100
AcDbEntity
  8
1
  6
Continuous
 62
     4
100
AcDbLine
 10
1596.10840802314
 20
798.3881045874798
 30
0.0
 11
1612.026992310186
 21
816.816307817752
 31
0.0
  0
LINE
  5
3BE
330
1F
100
AcDbEntity
  8
1
  6
Continuous
 62
     4
100
AcDbLine
 10
1612.026992310186
 20
816.816307817752
 30
0.0
 11
1614.526992310185
 21
812.4861807988282
 31
0.0
  0
LINE
  5
3BF
330
1F
100
AcDbEntity
  8
1
  6
Continuous
 62
     4
100
AcDbLine
 10
1614.526992310185
 20
812.4861807988282
 30
0.0
 11
1637.043652808581
 21
825.4861807988229
 31
0.0
  0
LINE
  5
3C0
330
1F
100
AcDbEntity
  8
1
  6
Continuous
 62
     4
100
AcDbLine
 10
1637.043652808581
 20
825.4861807988229
 30
0.0
 11
1638.54365280858
 21
822.8881045874696
 31
0.0
  0
LINE
  5
3C1
330
1F
100
AcDbEntity
  8
1
  6
Continuous
 62
     4
100
AcDbLine
 10
1638.54365280858
 20
822.8881045874696
 30
0.0
 11
1640.043652808581
 21
820.2900283761173
 31
0.0
  0
LINE
  5
3C2
330
1F
100
AcDbEntity
  8
1
  6
Continuous
 62
     4
100
AcDbLine
 10
1640.043652808581
 20
820.2900283761173
 30
0.0
 11
1617.526992310184
 21
807.2900283761219
 31
0.0
  0
LINE
  5
3C3
330
1F
100
AcDbEntity
  8
1
  6
Continuous
 62
     4
100
AcDbLine
 10
1617.526992310184
 20
807.2900283761219
 30
0.0
 11
1620.026992310183
 21
802.9599013571994
 31
0.0
  0
LINE
  5
3C4
330
1F
100
AcDbEntity
  8
1
  6
Continuous
 62
     4
100
AcDbLine
 10
1620.026992310183
 20
802.9599013571994
 30
0.0
 11
1596.10840802314
 21
798.3881045874798
 31
0.0
  0
LINE
  5
3C5
330
1F
100
AcDbEntity
  8
1
  6
Continuous
 62
     2
100
AcDbLine
 10
1551.076971218616
 20
584.5872175252205
 30
0.0
 11
1535.232589188171
 21
612.0304922165335
 31
0.0
  0
LINE
  5
3C6
330
1F
100
AcDbEntity
  8
1
  6
Continuous
 62
     2
100
AcDbLine
 10
1409.710331525061
 20
829.4414199697704
 30
0.0
 11
1393.865949494612
 21
856.8846946610828
 31
0.0
  0
LINE
  5
3C7
330
1F
100
AcDbEntity
  8
1
  6
Continuous
 62
     2
100
AcDbLine
 10
251.8116540597536
 20
922.0279591362794
 30
0.0
 11
219.8248165798438
 21
903.5603499067253
 31
0.0
  0
LINE
  5
3C8
330
1F
100
AcDbEntity
  8
1
  6
Continuous
 62
     2
100
AcDbLine
 10
383.0601032148585
 20
1172.099787481332
 30
0.0
 11
478.0601032148585
 21
1172.099787481332
 31
0.0
  0
LINE
  5
3C9
330
1F
100
AcDbEntity
  8
1
  6
Continuous
 62
     2
100
AcDbLine
 10
473.5141574285228
 20
1050.027959136351
 30
0.0
 11
500.2964214449195
 21
1065.490706475727
 31
0.0
  0
LINE
  5
3CA
330
1F
100
AcDbEntity
  8
1
  6
Continuous
 62
     2
100
AcDbLine
 10
1403.856259948925
 20
883.5809693708378
 30
0.0
 11
1371.869422469014
 21
865.1133601412838
 31
0.0
  0
LINE
  5
3CB
330
1F
100
AcDbEntity
  8
1
  6
Continuous
 62
     2
100
AcDbLine
 10
1712.161303696161
 20
1061.580969370868
 30
0.0
 11
1738.943567712558
 21
1077.043716710245
 31
0.0
  0
LINE
  5
3CC
330
1F
100
AcDbEntity
  8
1
  6
Continuous
 62
     2
100
AcDbLine
 10
1584.060103214857
 20
1175.09978748133
 30
0.0
 11
1679.060103214856
 21
1175.09978748133
 31
0.0
  0
LINE
  5
3CD
330
1F
100
AcDbEntity
  8
1
  6
Continuous
 62
     7
100
AcDbLine
 10
534.5303532463364
 20
1308.865217690001
 30
0.0
 11
539.5341613036495
 21
1308.865217690001
 31
0.0
  0
LINE
  5
3CE
330
1F
100
AcDbEntity
  8
1
  6
Continuous
 62
     7
100
AcDbLine
 10
534.5303532463364
 20
1265.365217690001
 30
0.0
 11
539.5341613036454
 21
1265.365217690001
 31
0.0
  0
LINE
  5
3CF
330
1F
100
AcDbEntity
  8
1
  6
Continuous
 62
     7
100
AcDbLine
 10
504.5307571754565
 20
1263.865217690001
 30
0.0
 11
502.5341613036472
 21
1263.865217690001
 31
0.0
  0
LINE
  5
3D0
330
1F
100
AcDbEntity
  8
1
  6
DASHED
 62
     4
100
AcDbLine
 10
539.5341613036495
 20
1271.365217690001
 30
0.0
 11
519.5341613036454
 21
1271.365217690001
 31
0.0
  0
LINE
  5
3D1
330
1F
100
AcDbEntity
  8
1
  6
Continuous
 62
     7
100
AcDbLine
 10
539.5341613037004
 20
1361.36521769
 30
0.0
 11
539.5341613037004
 21
1308.865217690001
 31
0.0
  0
LINE
  5
3D2
330
1F
100
AcDbEntity
  8
1
  6
Continuous
 62
     7
100
AcDbLine
 10
539.5341613036495
 20
1308.865217690001
 30
0.0
 11
539.5341613036495
 21
1263.865217690001
 31
0.0
  0
LINE
  5
3D3
330
1F
100
AcDbEntity
  8
1
  6
Continuous
 62
     7
100
AcDbLine
 10
534.5303532463364
 20
1307.365217690001
 30
0.0
 11
539.5341613036495
 21
1307.365217690001
 31
0.0
  0
LINE
  5
3D4
330
1F
100
AcDbEntity
  8
1
  6
Continuous
 62
     7
100
AcDbLine
 10
394.5302284404785
 20
1308.865217690001
 30
0.0
 11
403.5341613036522
 21
1308.865217690001
 31
0.0
  0
LINE
  5
3D5
330
1F
100
AcDbEntity
  8
1
  6
Continuous
 62
     7
100
AcDbLine
 10
364.5306323695996
 20
1263.865217690001
 30
0.0
 11
316.5341613036472
 21
1263.865217690001
 31
0.0
  0
LINE
  5
3D6
330
1F
100
AcDbEntity
  8
1
  6
DASHED
 62
     4
100
AcDbLine
 10
403.5341613036522
 20
1306.365217690001
 30
0.0
 11
322.5341613036454
 21
1306.365217690001
 31
0.0
  0
LINE
  5
3D7
330
1F
100
AcDbEntity
  8
1
  6
DASH_CENTER
 62
     3
100
AcDbLine
 10
569.5341613036463
 20
883.7164338817202
 30
0.0
 11
590.1867751391368
 21
895.6402260391113
 31
0.0
  0
LINE
  5
3D8
330
1F
100
AcDbEntity
  8
1
  6
DASH_CENTER
 62
     3
100
AcDbLine
 10
1814.851441140095
 20
883.7164338817222
 30
0.0
 11
1836.596041708435
 21
896.270684873271
 31
0.0
  0
ARC
  5
3D9
330
1F
100
AcDbEntity
  8
1
  6
Continuous
 62
     7
100
AcDbCircle
 10
341.5614873426254
 20
759.0660043170351
 30
0.0
 40
2.044658198744328
100
AcDbArc
 50
175.6157525320695
 51
-115.6157525320538
  0
ARC
  5
3DA
330
1F
100
AcDbEntity
  8
1
  6
Continuous
 62
     7
100
AcDbCircle
 10
344.6775127464262
 20
764.8650424227196
 30
0.0
 40
7.642734410114787
100
AcDbArc
 50
-167.587953773939
 51
-132.4120462260729
  0
ARC
  5
3DB
330
1F
100
AcDbEntity
  8
1
  6
Continuous
 62
     7
100
AcDbCircle
 10
338.0973857274863
 20
765.0660043170342
 30
0.0
 40
2.044658198742445
100
AcDbArc
 50
175.615752532091
 51
-115.6157525319976
  0
ARC
  5
3DC
330
1F
100
AcDbEntity
  8
1
  6
Continuous
 62
     7
100
AcDbCircle
 10
309.7788195023923
 20
1289.829319305138
 30
0.0
 40
2.04465819874381
100
AcDbArc
 50
145.6157525320655
 51
-145.6157525320445
  0
ARC
  5
3DD
330
1F
100
AcDbEntity
  8
1
  6
Continuous
 62
     7
100
AcDbCircle
 10
315.3768957137655
 20
1286.365217690001
 30
0.0
 40
7.642734410116577
100
AcDbArc
 50
162.4120462260767
 51
-162.4120462260556
  0
ARC
  5
3DE
330
1F
100
AcDbEntity
  8
1
  6
Continuous
 62
     7
100
AcDbCircle
 10
309.7788195023923
 20
1282.901116074863
 30
0.0
 40
2.044658198743168
100
AcDbArc
 50
145.6157525320918
 51
-145.6157525320655
  0
ARC
  5
3DF
330
1F
100
AcDbEntity
  8
1
  6
Continuous
 62
     7
100
AcDbCircle
 10
557.0197222050366
 20
864.9027618312581
 30
0.0
 40
2.044658198743456
100
AcDbArc
 50
-4.38424746794517
 51
64.38424746793716
  0
ARC
  5
3E0
330
1F
100
AcDbEntity
  8
1
  6
Continuous
 62
     7
100
AcDbCircle
 10
553.9036968012366
 20
859.1037237255721
 30
0.0
 40
7.642734410115647
100
AcDbArc
 50
12.41204622607448
 51
47.58795377394175
  0
ARC
  5
3E1
330
1F
100
AcDbEntity
  8
1
  6
Continuous
 62
     7
100
AcDbCircle
 10
560.4838238201743
 20
858.9027618312608
 30
0.0
 40
2.044658198743613
100
AcDbArc
 50
-4.38424746800235
 51
64.38424746791834
  0
ARC
  5
3E2
330
1F
100
AcDbEntity
  8
1
  6
Continuous
 62
     7
100
AcDbCircle
 10
1805.80110365662
 20
858.902761831264
 30
0.0
 40
2.044658198743647
100
AcDbArc
 50
-4.38424746801505
 51
64.38424746792272
  0
ARC
  5
3E3
330
1F
100
AcDbEntity
  8
1
  6
Continuous
 62
     7
100
AcDbCircle
 10
1799.220976637681
 20
859.1037237255769
 30
0.0
 40
7.642734410116391
100
AcDbArc
 50
12.41204622606016
 51
47.58795377392296
  0
ARC
  5
3E4
330
1F
100
AcDbEntity
  8
1
  6
Continuous
 62
     7
100
AcDbCircle
 10
1802.337002041482
 20
864.9027618312621
 30
0.0
 40
2.044658198744415
100
AcDbArc
 50
-4.38424746796228
 51
64.38424746790017
  0
ARC
  5
3E5
330
1F
100
AcDbEntity
  8
1
  6
Continuous
 62
     7
100
AcDbCircle
 10
1455.096099338842
 20
1282.901116074864
 30
0.0
 40
2.044658198742702
100
AcDbArc
 50
145.6157525321137
 51
-145.6157525320454
  0
ARC
  5
3E6
330
1F
100
AcDbEntity
  8
1
  6
Continuous
 62
     7
100
AcDbCircle
 10
1460.694175550214
 20
1286.365217690001
 30
0.0
 40
7.642734410115494
100
AcDbArc
 50
162.4120462260742
 51
-162.4120462260531
  0
ARC
  5
3E7
330
1F
100
AcDbEntity
  8
1
  6
Continuous
 62
     7
100
AcDbCircle
 10
1455.096099338842
 20
1289.829319305138
 30
0.0
 40
2.044658198743857
100
AcDbArc
 50
145.6157525320664
 51
-145.6157525320454
  0
ARC
  5
3E8
330
1F
100
AcDbEntity
  8
1
  6
Continuous
 62
     7
100
AcDbCircle
 10
1496.81212518547
 20
715.0660043170792
 30
0.0
 40
2.044658198743448
100
AcDbArc
 50
175.615752532058
 51
-115.6157525320293
  0
ARC
  5
3E9
330
1F
100
AcDbEntity
  8
1
  6
Continuous
 62
     7
100
AcDbCircle
 10
1503.392252204407
 20
714.8650424227639
 30
0.0
 40
7.642734410113087
100
AcDbArc
 50
-167.5879537739414
 51
-132.4120462260771
  0
ARC
  5
3EA
330
1F
100
AcDbEntity
  8
1
  6
Continuous
 62
     7
100
AcDbCircle
 10
1500.276226800607
 20
709.0660043170797
 30
0.0
 40
2.04465819874547
100
AcDbArc
 50
175.6157525320687
 51
-115.6157525320782
  0
ARC
  5
3EB
330
1F
100
AcDbEntity
  8
1
  6
Continuous
 62
     7
100
AcDbCircle
 10
2232.823752488544
 20
883.7164338817202
 30
0.0
 40
22.50000000000091
100
AcDbArc
 50
-163.208552885412
 51
-123.748988595885
  0
ARC
  5
3EC
330
1F
100
AcDbEntity
  8
1
  6
Continuous
 62
     7
100
AcDbCircle
 10
2232.823752488544
 20
883.7164338817202
 30
0.0
 40
22.49999999999958
100
AcDbArc
 50
-56.2510114041107
 51
-16.79144711458933
  0
ARC
  5
3ED
330
1F
100
AcDbEntity
  8
1
  6
Continuous
 62
     7
100
AcDbCircle
 10
120.6991928156413
 20
758.7164338817104
 30
0.0
 40
22.4999999999997
100
AcDbArc
 50
12.83958840690433
 51
167.1604115930961
  0
ARC
  5
3EE
330
1F
100
AcDbEntity
  8
1
  6
Continuous
 62
     7
100
AcDbCircle
 10
985.8237524885445
 20
883.7164338817202
 30
0.0
 40
22.50000000000091
100
AcDbArc
 50
-163.208552885412
 51
-123.7489885958864
  0
ARC
  5
3EF
330
1F
100
AcDbEntity
  8
1
  6
Continuous
 62
     7
100
AcDbCircle
 10
985.8237524885445
 20
883.7164338817202
 30
0.0
 40
22.49999999999987
100
AcDbArc
 50
-56.25101140411118
 51
-16.79144711458983
  0
ARC
  5
3F0
330
1F
100
AcDbEntity
  8
1
  6
Continuous
 62
     7
100
AcDbCircle
 10
1251.699192815641
 20
708.7164338817537
 30
0.0
 40
22.49999999999968
100
AcDbArc
 50
12.83958840690433
 51
167.1604115930963
  0
ARC
  5
3F1
330
1F
100
AcDbEntity
  8
1
  6
Continuous
 62
     7
100
AcDbCircle
 10
954.7979927187427
 20
843.3050288583604
 30
0.0
 40
5.367227771691478
100
AcDbArc
 50
-124.3842474680165
 51
-55.61575253198749
  0
ARC
  5
3F2
330
1F
100
AcDbEntity
  8
1
  6
Continuous
 62
     7
100
AcDbCircle
 10
947.3047259790034
 20
852.952458051753
 30
0.0
 40
14.76713610367704
100
AcDbArc
 50
-107.5879537739807
 51
-72.41204622599575
  0
ARC
  5
3F3
330
1F
100
AcDbEntity
  8
1
  6
Continuous
 62
     7
100
AcDbCircle
 10
939.8114592392695
 20
843.3050288583579
 30
0.0
 40
5.367227771689414
100
AcDbArc
 50
-124.3842474680316
 51
-55.61575253196039
  0
ARC
  5
3F4
330
1F
100
AcDbEntity
  8
1
  6
Continuous
 62
     7
100
AcDbCircle
 10
985.8237524885445
 20
883.7164338817202
 30
0.0
 40
31.33097349045852
100
AcDbArc
 50
0.0
 51
180.0
  0
ARC
  5
3F5
330
1F
100
AcDbEntity
  8
1
  6
Continuous
 62
     7
100
AcDbCircle
 10
985.8237524885445
 20
883.7164338817202
 30
0.0
 40
21.33097349046045
100
AcDbArc
 50
0.0
 51
180.0
  0
ARC
  5
3F6
330
1F
100
AcDbEntity
  8
1
  6
Continuous
 62
     7
100
AcDbCircle
 10
1016.811459239266
 20
843.3050288583579
 30
0.0
 40
5.367227771688771
100
AcDbArc
 50
-124.3842474680216
 51
-55.61575253196139
  0
ARC
  5
3F7
330
1F
100
AcDbEntity
  8
1
  6
Continuous
 62
     7
100
AcDbCircle
 10
1024.304725979002
 20
852.952458051753
 30
0.0
 40
14.76713610367769
100
AcDbArc
 50
-107.5879537739887
 51
-72.41204622600668
  0
ARC
  5
3F8
330
1F
100
AcDbEntity
  8
1
  6
Continuous
 62
     7
100
AcDbCircle
 10
1031.797992718739
 20
843.3050288583604
 30
0.0
 40
5.367227771691863
100
AcDbArc
 50
-124.3842474680225
 51
-55.61575253196746
  0
ARC
  5
3F9
330
1F
100
AcDbEntity
  8
1
  6
Continuous
 62
     7
100
AcDbCircle
 10
2278.79799271874
 20
843.3050288583604
 30
0.0
 40
5.367227771691734
100
AcDbArc
 50
-124.3842474680205
 51
-55.61575253197547
  0
ARC
  5
3FA
330
1F
100
AcDbEntity
  8
1
  6
Continuous
 62
     7
100
AcDbCircle
 10
2271.304725979003
 20
852.952458051753
 30
0.0
 40
14.76713610367773
100
AcDbArc
 50
-107.5879537739891
 51
-72.41204622600584
  0
ARC
  5
3FB
330
1F
100
AcDbEntity
  8
1
  6
Continuous
 62
     7
100
AcDbCircle
 10
2263.811459239267
 20
843.3050288583579
 30
0.0
 40
5.367227771689927
100
AcDbArc
 50
-124.3842474680396
 51
-55.6157525319644
  0
ARC
  5
3FC
330
1F
100
AcDbEntity
  8
1
  6
Continuous
 62
     7
100
AcDbCircle
 10
2232.823752488544
 20
883.7164338817202
 30
0.0
 40
21.33097349046102
100
AcDbArc
 50
0.0
 51
180.0
  0
ARC
  5
3FD
330
1F
100
AcDbEntity
  8
1
  6
Continuous
 62
     7
100
AcDbCircle
 10
2232.823752488544
 20
883.7164338817202
 30
0.0
 40
31.33097349046011
100
AcDbArc
 50
0.0
 51
180.0
  0
ARC
  5
3FE
330
1F
100
AcDbEntity
  8
1
  6
Continuous
 62
     7
100
AcDbCircle
 10
2186.81145923927
 20
843.3050288583579
 30
0.0
 40
5.367227771689927
100
AcDbArc
 50
-124.3842474680396
 51
-55.6157525319684
  0
ARC
  5
3FF
330
1F
100
AcDbEntity
  8
1
  6
Continuous
 62
     7
100
AcDbCircle
 10
2194.304725979004
 20
852.952458051753
 30
0.0
 40
14.76713610367745
100
AcDbArc
 50
-107.5879537739858
 51
-72.41204622600078
  0
ARC
  5
400
330
1F
100
AcDbEntity
  8
1
  6
Continuous
 62
     7
100
AcDbCircle
 10
2201.797992718742
 20
843.3050288583604
 30
0.0
 40
5.367227771691478
100
AcDbArc
 50
-124.3842474680165
 51
-55.61575253197547
  0
ARC
  5
401
330
1F
100
AcDbEntity
  8
1
  6
Continuous
 62
     7
100
AcDbCircle
 10
431.9918736667542
 20
756.6690693756167
 30
0.0
 40
4.344898672321857
100
AcDbArc
 50
-94.38424746801265
 51
-25.6157525319583
  0
ARC
  5
402
330
1F
100
AcDbEntity
  8
1
  6
Continuous
 62
     7
100
AcDbCircle
 10
419.6689176921896
 20
763.2906233586559
 30
0.0
 40
16.24081062144514
100
AcDbArc
 50
-77.58795377398853
 51
-42.41204622599729
  0
ARC
  5
403
330
1F
100
AcDbEntity
  8
1
  6
Continuous
 62
     7
100
AcDbCircle
 10
419.2418736667556
 20
749.3078534434469
 30
0.0
 40
4.344898672319314
100
AcDbArc
 50
-94.38424746804603
 51
-25.61575253197125
  0
ARC
  5
404
330
1F
100
AcDbEntity
  8
1
  6
Continuous
 62
     7
100
AcDbCircle
 10
1577.957028432732
 20
699.308093221664
 30
0.0
 40
4.344898672319197
100
AcDbArc
 50
-94.3842474680454
 51
-25.61575253198563
  0
ARC
  5
405
330
1F
100
AcDbEntity
  8
1
  6
Continuous
 62
     7
100
AcDbCircle
 10
1578.384072458169
 20
713.290863136873
 30
0.0
 40
16.24081062144525
100
AcDbArc
 50
-77.58795377400176
 51
-42.41204622600885
  0
ARC
  5
406
330
1F
100
AcDbEntity
  8
1
  6
Continuous
 62
     7
100
AcDbCircle
 10
1590.707028432732
 20
706.6693091538322
 30
0.0
 40
4.34489867232135
100
AcDbArc
 50
-94.38424746804323
 51
-25.61575253196365
  0
ARC
  5
407
330
1F
100
AcDbEntity
  8
1
  6
Continuous
 62
     7
100
AcDbCircle
 10
1031.797992718739
 20
835.3050288583604
 30
0.0
 40
5.367227771691863
100
AcDbArc
 50
-124.3842474680225
 51
-55.61575253196746
  0
ARC
  5
408
330
1F
100
AcDbEntity
  8
1
  6
Continuous
 62
     7
100
AcDbCircle
 10
1024.304725979002
 20
844.952458051753
 30
0.0
 40
14.76713610367769
100
AcDbArc
 50
-107.5879537739887
 51
-72.41204622600668
  0
ARC
  5
409
330
1F
100
AcDbEntity
  8
1
  6
Continuous
 62
     7
100
AcDbCircle
 10
1016.811459239266
 20
835.3050288583579
 30
0.0
 40
5.367227771688771
100
AcDbArc
 50
-124.3842474680216
 51
-55.61575253196139
  0
ARC
  5
40A
330
1F
100
AcDbEntity
  8
1
  6
Continuous
 62
     7
100
AcDbCircle
 10
939.8114592392695
 20
835.3050288583579
 30
0.0
 40
5.367227771689414
100
AcDbArc
 50
-124.3842474680316
 51
-55.61575253196039
  0
ARC
  5
40B
330
1F
100
AcDbEntity
  8
1
  6
Continuous
 62
     7
100
AcDbCircle
 10
947.3047259790034
 20
844.952458051753
 30
0.0
 40
14.76713610367704
100
AcDbArc
 50
-107.5879537739807
 51
-72.41204622599575
  0
ARC
  5
40C
330
1F
100
AcDbEntity
  8
1
  6
Continuous
 62
     7
100
AcDbCircle
 10
954.7979927187427
 20
835.3050288583604
 30
0.0
 40
5.367227771691478
100
AcDbArc
 50
-124.3842474680165
 51
-55.61575253198749
  0
ARC
  5
40D
330
1F
100
AcDbEntity
  8
1
  6
Continuous
 62
     7
100
AcDbCircle
 10
435.9918736667542
 20
749.7408661453418
 30
0.0
 40
4.344898672321857
100
AcDbArc
 50
-94.38424746801265
 51
-25.6157525319583
  0
ARC
  5
40E
330
1F
100
AcDbEntity
  8
1
  6
Continuous
 62
     7
100
AcDbCircle
 10
423.6689176921896
 20
756.362420128381
 30
0.0
 40
16.24081062144514
100
AcDbArc
 50
-77.58795377398853
 51
-42.41204622599729
  0
ARC
  5
40F
330
1F
100
AcDbEntity
  8
1
  6
Continuous
 62
     7
100
AcDbCircle
 10
423.2418736667556
 20
742.379650213172
 30
0.0
 40
4.344898672319314
100
AcDbArc
 50
-94.38424746804603
 51
-25.61575253197125
  0
ARC
  5
410
330
1F
100
AcDbEntity
  8
1
  6
Continuous
 62
     7
100
AcDbCircle
 10
2263.811459239267
 20
835.3050288583579
 30
0.0
 40
5.367227771689927
100
AcDbArc
 50
-124.3842474680396
 51
-55.6157525319644
  0
ARC
  5
411
330
1F
100
AcDbEntity
  8
1
  6
Continuous
 62
     7
100
AcDbCircle
 10
2271.304725979003
 20
844.952458051753
 30
0.0
 40
14.76713610367773
100
AcDbArc
 50
-107.5879537739891
 51
-72.41204622600584
  0
ARC
  5
412
330
1F
100
AcDbEntity
  8
1
  6
Continuous
 62
     7
100
AcDbCircle
 10
2278.79799271874
 20
835.3050288583604
 30
0.0
 40
5.367227771691734
100
AcDbArc
 50
-124.3842474680205
 51
-55.61575253197547
  0
ARC
  5
413
330
1F
100
AcDbEntity
  8
1
  6
Continuous
 62
     7
100
AcDbCircle
 10
2201.797992718742
 20
835.3050288583604
 30
0.0
 40
5.367227771691478
100
AcDbArc
 50
-124.3842474680165
 51
-55.61575253197547
  0
ARC
  5
414
330
1F
100
AcDbEntity
  8
1
  6
Continuous
 62
     7
100
AcDbCircle
 10
2194.304725979004
 20
844.952458051753
 30
0.0
 40
14.76713610367745
100
AcDbArc
 50
-107.5879537739858
 51
-72.41204622600078
  0
ARC
  5
415
330
1F
100
AcDbEntity
  8
1
  6
Continuous
 62
     7
100
AcDbCircle
 10
2186.81145923927
 20
835.3050288583579
 30
0.0
 40
5.367227771689927
100
AcDbArc
 50
-124.3842474680396
 51
-55.6157525319684
  0
ARC
  5
416
330
1F
100
AcDbEntity
  8
1
  6
Continuous
 62
     7
100
AcDbCircle
 10
1594.707028432732
 20
699.7411059235562
 30
0.0
 40
4.34489867232135
100
AcDbArc
 50
-94.38424746804323
 51
-25.61575253196365
  0
ARC
  5
417
330
1F
100
AcDbEntity
  8
1
  6
Continuous
 62
     7
100
AcDbCircle
 10
1582.384072458169
 20
706.3626599065971
 30
0.0
 40
16.24081062144525
100
AcDbArc
 50
-77.58795377400176
 51
-42.41204622600885
  0
ARC
  5
418
330
1F
100
AcDbEntity
  8
1
  6
Continuous
 62
     7
100
AcDbCircle
 10
1581.957028432732
 20
692.379889991388
 30
0.0
 40
4.344898672319197
100
AcDbArc
 50
-94.3842474680454
 51
-25.61575253198563
  0
ARC
  5
419
330
1F
100
AcDbEntity
  8
1
  6
DASHED
 62
     4
100
AcDbCircle
 10
1466.351043756577
 20
2043.867224478127
 30
0.0
 40
772.5034630936498
100
AcDbArc
 50
-90.11125351196721
 51
-78.6900822655947
  0
ARC
  5
41A
330
1F
100
AcDbEntity
  8
1
  6
DASHED
 62
     4
100
AcDbCircle
 10
1766.351441140095
 20
558.8632506402255
 30
0.0
 40
742.5034821957278
100
AcDbArc
 50
90.11574858541289
 51
101.5369198317854
  0
ARC
  5
41B
330
1F
100
AcDbEntity
  8
1
  6
DASHED
 62
     4
100
AcDbCircle
 10
1464.851043756577
 20
543.8632307710489
 30
0.0
 40
757.5019869189503
100
AcDbArc
 50
78.57882875362751
 51
90.0
  0
ARC
  5
41C
330
1F
100
AcDbEntity
  8
1
  6
DASHED
 62
     4
100
AcDbCircle
 10
1764.851441140095
 20
543.8632307710489
 30
0.0
 40
757.5019869189491
100
AcDbArc
 50
90.0
 51
101.4211712463725
  0
ARC
  5
41D
330
1F
100
AcDbEntity
  8
1
  6
DASHED
 62
     4
100
AcDbCircle
 10
1464.851043756577
 20
2028.86720460895
 30
0.0
 40
757.5019869189491
100
AcDbArc
 50
-90.0
 51
-78.57882875362749
  0
ARC
  5
41E
330
1F
100
AcDbEntity
  8
1
  6
DASHED
 62
     4
100
AcDbCircle
 10
1764.851441140095
 20
2028.86720460895
 30
0.0
 40
757.5019869189491
100
AcDbArc
 50
-101.4211712463725
 51
-90.0
  0
ARC
  5
41F
330
1F
100
AcDbEntity
  8
1
  6
DASHED
 62
     4
100
AcDbCircle
 10
319.5341613036454
 20
1612.198551023334
 30
0.0
 40
340.833333333333
100
AcDbArc
 50
-90.0
 51
-72.93846878010372
  0
ARC
  5
420
330
1F
100
AcDbEntity
  8
1
  6
DASHED
 62
     4
100
AcDbCircle
 10
519.5341613036454
 20
960.5318843566654
 30
0.0
 40
340.8333333333355
100
AcDbArc
 50
90.0
 51
107.0615312198962
  0
ARC
  5
421
330
1F
100
AcDbEntity
  8
1
  6
DASHED
 62
     4
100
AcDbCircle
 10
319.5341613036454
 20
960.5318843566654
 30
0.0
 40
340.8333333333354
100
AcDbArc
 50
72.93846878010385
 51
90.0
  0
ARC
  5
422
330
1F
100
AcDbEntity
  8
1
  6
DASHED
 62
     4
100
AcDbCircle
 10
519.5341613036454
 20
1612.198551023334
 30
0.0
 40
340.833333333333
100
AcDbArc
 50
-107.0615312198963
 51
-90.0
  0
ARC
  5
423
330
1F
100
AcDbEntity
  8
1
  6
DASHED
 62
     4
100
AcDbCircle
 10
248.1976610642892
 20
1118.065356400391
 30
0.0
 40
378.7833703444713
100
AcDbArc
 50
-58.31906267341212
 51
-42.94216713360683
  0
ARC
  5
424
330
1F
100
AcDbEntity
  8
1
  6
DASHED
 62
     4
100
AcDbCircle
 10
631.0630404076757
 20
499.3675113630352
 30
0.0
 40
378.7833703444704
100
AcDbArc
 50
121.6809373265872
 51
137.0578328663929
  0
ARC
  5
425
330
1F
100
AcDbEntity
  8
1
  6
DASHED
 62
     4
100
AcDbCircle
 10
258.5701655507856
 20
1122.321873850273
 30
0.0
 40
377.1203703703674
100
AcDbArc
 50
-75.37689553980276
 51
-44.62310446019206
  0
ARC
  5
426
330
1F
100
AcDbEntity
  8
1
  6
DASHED
 62
     4
100
AcDbCircle
 10
620.6905359211825
 20
495.1109939131545
 30
0.0
 40
377.1203703703656
100
AcDbArc
 50
104.6231044601974
 51
135.3768955398082
  0
ARC
  5
427
330
1F
100
AcDbEntity
  8
1
  6
DASHED
 62
     4
100
AcDbCircle
 10
519.5341613036454
 20
980.2318843566675
 30
0.0
 40
321.1333333333334
100
AcDbArc
 50
90.0
 51
107.5810863656262
  0
ARC
  5
428
330
1F
100
AcDbEntity
  8
1
  6
DASHED
 62
     4
100
AcDbCircle
 10
319.5341613036463
 20
1632.498551023341
 30
0.0
 40
361.13333333334
100
AcDbArc
 50
-90.00000000000014
 51
-73.42840595211143
  0
ARC
  5
429
330
1F
100
AcDbEntity
  8
1
  6
PHANTOM
 62
   140
100
AcDbCircle
 10
1565.292549815511
 20
661.3189422089422
 30
0.0
 40
13.60000000000182
100
AcDbArc
 50
11.47686798847819
 51
97.8406888526163
  0
ARC
  5
42A
330
1F
100
AcDbEntity
  8
1
  6
PHANTOM
 62
   140
100
AcDbCircle
 10
1565.292549815511
 20
661.3189422089422
 30
0.0
 40
13.59999999999828
100
AcDbArc
 50
97.8406888526163
 51
118.0724869358571
  0
ARC
  5
42B
330
1F
100
AcDbEntity
  8
1
  6
PHANTOM
 62
   140
100
AcDbCircle
 10
1565.292549815511
 20
661.3189422089422
 30
0.0
 40
13.60000000000027
100
AcDbArc
 50
118.0724869358571
 51
11.47686798847819
  0
ARC
  5
42C
330
1F
100
AcDbEntity
  8
1
  6
PHANTOM
 62
   140
100
AcDbCircle
 10
406.5778103575386
 20
711.3189422088933
 30
0.0
 40
13.60000000000094
100
AcDbArc
 50
118.0724869358624
 51
11.47686798847819
  0
ARC
  5
42D
330
1F
100
AcDbEntity
  8
1
  6
PHANTOM
 62
   140
100
AcDbCircle
 10
406.5778103575386
 20
711.3189422088933
 30
0.0
 40
13.59999999999847
100
AcDbArc
 50
97.84068885262222
 51
118.0724869358624
  0
ARC
  5
42E
330
1F
100
AcDbEntity
  8
1
  6
PHANTOM
 62
   140
100
AcDbCircle
 10
406.5778103575386
 20
711.3189422088933
 30
0.0
 40
13.60000000000182
100
AcDbArc
 50
11.47686798847819
 51
97.84068885262222
  0
ARC
  5
42F
330
1F
100
AcDbEntity
  8
1
  6
PHANTOM
 62
   140
100
AcDbCircle
 10
1834.601441140095
 20
873.0154719874001
 30
0.0
 40
13.60000000000182
100
AcDbArc
 50
168.5231320115218
 51
61.92751306413865
  0
ARC
  5
430
330
1F
100
AcDbEntity
  8
1
  6
PHANTOM
 62
   140
100
AcDbCircle
 10
1834.601441140095
 20
873.0154719874001
 30
0.0
 40
13.6000000000008
100
AcDbArc
 50
61.92751306413865
 51
82.15931114737897
  0
ARC
  5
431
330
1F
100
AcDbEntity
  8
1
  6
PHANTOM
 62
   140
100
AcDbCircle
 10
1834.601441140095
 20
873.0154719874001
 30
0.0
 40
13.59999999999844
100
AcDbArc
 50
82.15931114737897
 51
168.5231320115218
  0
ARC
  5
432
330
1F
100
AcDbEntity
  8
1
  6
PHANTOM
 62
   140
100
AcDbCircle
 10
589.2841613036486
 20
873.0154719873998
 30
0.0
 40
13.5999999999984
100
AcDbArc
 50
82.15931114737992
 51
168.5231320115223
  0
ARC
  5
433
330
1F
100
AcDbEntity
  8
1
  6
PHANTOM
 62
   140
100
AcDbCircle
 10
589.2841613036486
 20
873.0154719873998
 30
0.0
 40
13.6000000000008
100
AcDbArc
 50
61.92751306413972
 51
82.15931114737992
  0
ARC
  5
434
330
1F
100
AcDbEntity
  8
1
  6
PHANTOM
 62
   140
100
AcDbCircle
 10
589.2841613036486
 20
873.0154719873998
 30
0.0
 40
13.6000000000018
100
AcDbArc
 50
168.5231320115223
 51
61.92751306413972
  0
ARC
  5
435
330
1F
100
AcDbEntity
  8
1
  6
Continuous
 62
     7
100
AcDbCircle
 10
120.6991928156413
 20
758.7164338817104
 30
0.0
 40
19.99999999999972
100
AcDbArc
 50
165.5224878140699
 51
14.47751218592977
  0
ARC
  5
436
330
1F
100
AcDbEntity
  8
1
  6
Continuous
 62
     7
100
AcDbCircle
 10
120.6991928156413
 20
758.7164338817104
 30
0.0
 40
16.99999999999988
100
AcDbArc
 50
162.8953648233561
 51
17.10463517664383
  0
ARC
  5
437
330
1F
100
AcDbEntity
  8
1
  6
Continuous
 62
     7
100
AcDbCircle
 10
985.8237524885445
 20
883.7164338817202
 30
0.0
 40
17.0000000000009
100
AcDbArc
 50
-22.4795056094069
 51
-157.5204943905924
  0
ARC
  5
438
330
1F
100
AcDbEntity
  8
1
  6
Continuous
 62
     7
100
AcDbCircle
 10
985.8237524885445
 20
883.7164338817202
 30
0.0
 40
19.99999999999912
100
AcDbArc
 50
-18.96557498885289
 51
-161.0344250111479
  0
ARC
  5
439
330
1F
100
AcDbEntity
  8
1
  6
Continuous
 62
     7
100
AcDbCircle
 10
2232.823752488544
 20
883.7164338817202
 30
0.0
 40
19.99999999999987
100
AcDbArc
 50
-18.96557498885215
 51
-161.0344250111466
  0
ARC
  5
43A
330
1F
100
AcDbEntity
  8
1
  6
Continuous
 62
     7
100
AcDbCircle
 10
2232.823752488544
 20
883.7164338817202
 30
0.0
 40
17.00000000000037
100
AcDbArc
 50
-22.47950560940763
 51
-157.5204943905924
  0
ARC
  5
43B
330
1F
100
AcDbEntity
  8
1
  6
Continuous
 62
     7
100
AcDbCircle
 10
1251.699192815641
 20
708.7164338817537
 30
0.0
 40
17.00000000000018
100
AcDbArc
 50
162.8953648233564
 51
17.10463517664384
  0
ARC
  5
43C
330
1F
100
AcDbEntity
  8
1
  6
Continuous
 62
     7
100
AcDbCircle
 10
1251.699192815641
 20
708.7164338817537
 30
0.0
 40
19.99999999999997
100
AcDbArc
 50
165.5224878140701
 51
14.47751218592929
  0
ARC
  5
43D
330
1F
100
AcDbEntity
  8
1
  6
Continuous
 62
     7
100
AcDbCircle
 10
1764.851043756575
 20
1233.865217690001
 30
0.0
 40
5.5
100
AcDbArc
 50
180.0
 51
0.0
  0
ARC
  5
43E
330
1F
100
AcDbEntity
  8
1
  6
Continuous
 62
     7
100
AcDbCircle
 10
1524.851440395633
 20
1233.865217690001
 30
0.0
 40
5.500000000001137
100
AcDbArc
 50
180.0
 51
0.0
  0
ARC
  5
43F
330
1F
100
AcDbEntity
  8
1
  6
Continuous
 62
     7
100
AcDbCircle
 10
1524.851440395633
 20
1338.86521769
 30
0.0
 40
5.5
100
AcDbArc
 50
0.0
 51
180.0
  0
ARC
  5
440
330
1F
100
AcDbEntity
  8
1
  6
Continuous
 62
     7
100
AcDbCircle
 10
1764.851043756575
 20
1338.86521769
 30
0.0
 40
5.5
100
AcDbArc
 50
0.0
 51
180.0
  0
ARC
  5
441
330
1F
100
AcDbEntity
  8
1
  6
Continuous
 62
     7
100
AcDbCircle
 10
519.5338058086732
 20
1338.86521769
 30
0.0
 40
5.5
100
AcDbArc
 50
0.0
 51
180.0
  0
ARC
  5
442
330
1F
100
AcDbEntity
  8
1
  6
Continuous
 62
     7
100
AcDbCircle
 10
379.5336810028163
 20
1338.86521769
 30
0.0
 40
5.5
100
AcDbArc
 50
0.0
 51
180.0
  0
ARC
  5
443
330
1F
100
AcDbEntity
  8
1
  6
Continuous
 62
     7
100
AcDbCircle
 10
379.5336810028163
 20
1233.865217690001
 30
0.0
 40
5.5
100
AcDbArc
 50
180.0
 51
0.0
  0
ARC
  5
444
330
1F
100
AcDbEntity
  8
1
  6
Continuous
 62
     7
100
AcDbCircle
 10
519.5338058086732
 20
1233.865217690001
 30
0.0
 40
5.5
100
AcDbArc
 50
180.0
 51
0.0
  0
CIRCLE
  5
445
330
1F
100
AcDbEntity
  8
1
  6
Continuous
 62
     3
100
AcDbCircle
 10
379.5336810028163
 20
1324.86521769
 30
0.0
 40
5.0
  0
CIRCLE
  5
446
330
1F
100
AcDbEntity
  8
1
  6
Continuous
 62
     7
100
AcDbCircle
 10
379.5336810028163
 20
1324.86521769
 30
0.0
 40
4.0
  0
CIRCLE
  5
447
330
1F
100
AcDbEntity
  8
1
  6
Continuous
 62
     7
100
AcDbCircle
 10
379.5336810028163
 20
1247.86521769
 30
0.0
 40
4.0
  0
CIRCLE
  5
448
330
1F
100
AcDbEntity
  8
1
  6
Continuous
 62
     3
100
AcDbCircle
 10
379.5336810028163
 20
1247.86521769
 30
0.0
 40
5.0
  0
CIRCLE
  5
449
330
1F
100
AcDbEntity
  8
1
  6
Continuous
 62
     3
100
AcDbCircle
 10
519.5338058086732
 20
1247.86521769
 30
0.0
 40
5.0
  0
CIRCLE
  5
44A
330
1F
100
AcDbEntity
  8
1
  6
Continuous
 62
     7
100
AcDbCircle
 10
519.5338058086732
 20
1247.86521769
 30
0.0
 40
4.0
  0
CIRCLE
  5
44B
330
1F
100
AcDbEntity
  8
1
  6
Continuous
 62
     7
100
AcDbCircle
 10
519.5338058086732
 20
1324.86521769
 30
0.0
 40
4.0
  0
CIRCLE
  5
44C
330
1F
100
AcDbEntity
  8
1
  6
Continuous
 62
     3
100
AcDbCircle
 10
519.5338058086732
 20
1324.86521769
 30
0.0
 40
5.0
  0
CIRCLE
  5
44D
330
1F
100
AcDbEntity
  8
1
  6
Continuous
 62
     7
100
AcDbCircle
 10
1764.851043756575
 20
1247.86521769
 30
0.0
 40
4.0
  0
CIRCLE
  5
44E
330
1F
100
AcDbEntity
  8
1
  6
Continuous
 62
     3
100
AcDbCircle
 10
1764.851043756575
 20
1247.86521769
 30
0.0
 40
5.0
  0
CIRCLE
  5
44F
330
1F
100
AcDbEntity
  8
1
  6
Continuous
 62
     3
100
AcDbCircle
 10
1524.851440395633
 20
1247.86521769
 30
0.0
 40
5.0
  0
CIRCLE
  5
450
330
1F
100
AcDbEntity
  8
1
  6
Continuous
 62
     7
100
AcDbCircle
 10
1524.851440395633
 20
1247.86521769
 30
0.0
 40
4.0
  0
CIRCLE
  5
451
330
1F
100
AcDbEntity
  8
1
  6
Continuous
 62
     7
100
AcDbCircle
 10
1524.851440395633
 20
1324.86521769
 30
0.0
 40
4.0
  0
CIRCLE
  5
452
330
1F
100
AcDbEntity
  8
1
  6
Continuous
 62
     3
100
AcDbCircle
 10
1524.851440395633
 20
1324.86521769
 30
0.0
 40
5.0
  0
CIRCLE
  5
453
330
1F
100
AcDbEntity
  8
1
  6
Continuous
 62
     7
100
AcDbCircle
 10
1764.851043756575
 20
1324.86521769
 30
0.0
 40
4.0
  0
CIRCLE
  5
454
330
1F
100
AcDbEntity
  8
1
  6
Continuous
 62
     3
100
AcDbCircle
 10
1764.851043756575
 20
1324.86521769
 30
0.0
 40
5.0
  0
SPLINE
  5
455
330
1F
100
AcDbEntity
  8
1
  6
DASHED
 62
     4
100
AcDbSpline
210
0.0
220
0.0
230
1.0
 70
     8
 71
     3
 72
     9
 73
     5
 74
     3
 42
0.0000000001
 43
0.0000000001
 44
0.00000001
 40
0.0
 40
0.0
 40
0.0
 40
0.0
 40
150.6062747696765
 40
301.2125495393537
 40
301.2125495393537
 40
301.2125495393537
 40
301.2125495393537
 10
1772.30017095087
 20
857.4173957760474
 30
0.0
 10
1732.373900761646
 20
826.5717243005074
 30
0.0
 10
1652.521360383196
 20
764.8803813494274
 30
0.0
 10
1559.168820004749
 20
726.571724300527
 30
0.0
 10
1512.492549815526
 20
707.4173957760767
 30
0.0
 11
1772.30017095087
 21
857.4173957760474
 31
0.0
 11
1649.146360383197
 21
770.7260528249724
 31
0.0
 11
1512.492549815526
 21
707.4173957760767
 31
0.0
  0
SPLINE
  5
456
330
1F
100
AcDbEntity
  8
1
  6
DASHED
 62
     4
100
AcDbSpline
210
0.0
220
0.0
230
1.0
 70
     8
 71
     3
 72
     9
 73
     5
 74
     3
 42
0.0000000001
 43
0.0000000001
 44
0.00000001
 40
0.0
 40
0.0
 40
0.0
 40
0.0
 40
75.91831850572169
 40
151.0899068103124
 40
151.0899068103124
 40
151.0899068103124
 40
151.0899068103124
 10
1770.800170950871
 20
860.0154719874015
 30
0.0
 10
1751.533673652431
 20
843.5481306581098
 30
0.0
 10
1713.190183719061
 20
810.7754202526654
 30
0.0
 10
1670.423846942766
 20
784.031783694491
 30
0.0
 10
1649.146360383196
 20
770.7260528249722
 30
0.0
 11
1770.800170950871
 21
860.0154719874015
 31
0.0
 11
1711.884010839623
 21
812.1356519952382
 31
0.0
 11
1649.146360383196
 21
770.7260528249722
 31
0.0
  0
SPLINE
  5
457
330
1F
100
AcDbEntity
  8
1
  6
DASHED
 62
     4
100
AcDbSpline
210
0.0
220
0.0
230
1.0
 70
     8
 71
     3
 72
     9
 73
     5
 74
     3
 42
0.0000000001
 43
0.0000000001
 44
0.00000001
 40
0.0
 40
0.0
 40
0.0
 40
0.0
 40
150.6062747696778
 40
301.212549539355
 40
301.212549539355
 40
301.212549539355
 40
301.212549539355
 10
1770.800170950871
 20
860.0154719874015
 30
0.0
 10
1724.123900761647
 20
840.8611434629515
 30
0.0
 10
1630.7713603832
 20
802.5524864140518
 30
0.0
 10
1550.918820004751
 20
740.8611434629706
 30
0.0
 10
1510.992549815526
 20
710.0154719874302
 30
0.0
 11
1770.800170950871
 21
860.0154719874015
 31
0.0
 11
1634.146360383199
 21
796.7068149385063
 31
0.0
 11
1510.992549815526
 21
710.0154719874302
 31
0.0
  0
SPLINE
  5
458
330
1F
100
AcDbEntity
  8
1
  6
DASHED
 62
     4
100
AcDbSpline
210
0.0
220
0.0
230
1.0
 70
     8
 71
     3
 72
     9
 73
     5
 74
     3
 42
0.0000000001
 43
0.0000000001
 44
0.00000001
 40
0.0
 40
0.0
 40
0.0
 40
0.0
 40
75.91831850571946
 40
151.0899068103109
 40
151.0899068103109
 40
151.0899068103109
 40
151.0899068103109
 10
1512.492549815526
 20
707.4173957760767
 30
0.0
 10
1531.759047113966
 20
723.8847371053685
 30
0.0
 10
1570.102537047334
 20
756.6574475108134
 30
0.0
 10
1612.868873823628
 20
783.4010840689873
 30
0.0
 10
1634.146360383199
 20
796.7068149385063
 30
0.0
 11
1512.492549815526
 21
707.4173957760767
 31
0.0
 11
1571.408709926772
 21
755.2972157682401
 31
0.0
 11
1634.146360383199
 21
796.7068149385063
 31
0.0
  0
ARC
  5
459
330
1F
100
AcDbEntity
  8
1
  6
DASHED
 62
     4
100
AcDbCircle
 10
1787.241840701817
 20
805.5376646177035
 30
0.0
 40
2.000000000000187
100
AcDbArc
 50
119.9999999999593
 51
-150.0000000000553
  0
ARC
  5
45A
330
1F
100
AcDbEntity
  8
1
  6
Continuous
 62
     7
100
AcDbCircle
 10
1982.054616613382
 20
872.6479371601843
 30
0.0
 40
2.0
100
AcDbArc
 50
-0.0000000000456
 51
89.99999999994138
  0
ARC
  5
45B
330
1F
100
AcDbEntity
  8
1
  6
DASHED
 62
     4
100
AcDbCircle
 10
1820.241840701774
 20
748.3799879678882
 30
0.0
 40
1.999999999998384
100
AcDbArc
 50
-150.000000000026
 51
-60.00000000003669
  0
ARC
  5
45C
330
1F
100
AcDbEntity
  8
1
  6
Continuous
 62
     7
100
AcDbCircle
 10
1974.054616613344
 20
846.4214398520637
 30
0.0
 40
10.00000000000025
100
AcDbArc
 50
-60.00000000004746
 51
-0.00000000007295
  0
ARC
  5
45D
330
1F
100
AcDbEntity
  8
1
  6
Continuous
 62
     7
100
AcDbCircle
 10
1903.480242455652
 20
872.6479371602952
 30
0.0
 40
2.0
100
AcDbArc
 50
89.99999999994138
 51
119.9999999999368
  0
ARC
  5
45E
330
1F
100
AcDbEntity
  8
1
  6
Continuous
 62
     7
100
AcDbCircle
 10
658.1629626191563
 20
872.6479371602784
 30
0.0
 40
2.0
100
AcDbArc
 50
89.99999999993486
 51
119.9999999999311
  0
ARC
  5
45F
330
1F
100
AcDbEntity
  8
1
  6
Continuous
 62
     7
100
AcDbCircle
 10
728.7373367768483
 20
846.4214398520469
 30
0.0
 40
10.00000000000036
100
AcDbArc
 50
-60.00000000004633
 51
-0.00000000007295
  0
ARC
  5
460
330
1F
100
AcDbEntity
  8
1
  6
DASHED
 62
     4
100
AcDbCircle
 10
574.9245608652783
 20
748.3799879678713
 30
0.0
 40
1.999999999998187
100
AcDbArc
 50
-150.0000000000227
 51
-60.00000000003669
  0
ARC
  5
461
330
1F
100
AcDbEntity
  8
1
  6
Continuous
 62
     7
100
AcDbCircle
 10
736.7373367768865
 20
872.6479371601677
 30
0.0
 40
2.0
100
AcDbArc
 50
-0.00000000005211
 51
89.99999999994789
  0
ARC
  5
462
330
1F
100
AcDbEntity
  8
1
  6
DASHED
 62
     4
100
AcDbCircle
 10
541.9245608653215
 20
805.5376646176868
 30
0.0
 40
2.000000000000202
100
AcDbArc
 50
119.9999999999666
 51
-150.0000000000524
  0
ARC
  5
463
330
1F
100
AcDbEntity
  8
1
  6
PHANTOM
 62
   140
100
AcDbCircle
 10
1565.792549815511
 20
652.8189422089422
 30
0.0
 40
13.5
100
AcDbArc
 50
-89.99999999999132
 51
0.0000000000029
  0
ARC
  5
464
330
1F
100
AcDbEntity
  8
1
  6
PHANTOM
 62
   140
100
AcDbCircle
 10
1565.792549815511
 20
659.8189422089422
 30
0.0
 40
13.5
100
AcDbArc
 50
0.00000000000145
 51
90.0
  0
ARC
  5
465
330
1F
100
AcDbEntity
  8
1
  6
PHANTOM
 62
   140
100
AcDbCircle
 10
407.0778103575386
 20
709.8189422088933
 30
0.0
 40
13.5
100
AcDbArc
 50
0.00000000000145
 51
90.00000000000603
  0
ARC
  5
466
330
1F
100
AcDbEntity
  8
1
  6
PHANTOM
 62
   140
100
AcDbCircle
 10
407.0778103575386
 20
702.8189422088933
 30
0.0
 40
13.5
100
AcDbArc
 50
-89.99999999999253
 51
0.0000000000029
  0
ARC
  5
467
330
1F
100
AcDbEntity
  8
1
  6
PHANTOM
 62
   140
100
AcDbCircle
 10
1834.101441140095
 20
871.5154719874001
 30
0.0
 40
13.5
100
AcDbArc
 50
89.99999999999518
 51
179.9999999999981
  0
ARC
  5
468
330
1F
100
AcDbEntity
  8
1
  6
PHANTOM
 62
   140
100
AcDbCircle
 10
1834.101441140095
 20
864.5154719874001
 30
0.0
 40
13.50000000000091
100
AcDbArc
 50
179.9999999999971
 51
-90.00000000000387
  0
ARC
  5
469
330
1F
100
AcDbEntity
  8
1
  6
PHANTOM
 62
   140
100
AcDbCircle
 10
588.7841613036486
 20
864.5154719873998
 30
0.0
 40
13.50000000000136
100
AcDbArc
 50
179.9999999999967
 51
-90.00000000000578
  0
ARC
  5
46A
330
1F
100
AcDbEntity
  8
1
  6
PHANTOM
 62
   140
100
AcDbCircle
 10
588.7841613036486
 20
871.5154719873998
 30
0.0
 40
13.5
100
AcDbArc
 50
89.99999999999615
 51
179.9999999999986
  0
ARC
  5
46B
330
1F
100
AcDbEntity
  8
1
  6
Continuous
 62
     7
100
AcDbCircle
 10
561.7086440818554
 20
744.2138764704979
 30
0.0
 40
9.999999999999975
100
AcDbArc
 50
-98.29016319230959
 51
-60.00000000000011
  0
ARC
  5
46C
330
1F
100
AcDbEntity
  8
1
  6
Continuous
 62
     7
100
AcDbCircle
 10
1805.627424502679
 20
743.4064524564158
 30
0.0
 40
10.00000000000001
100
AcDbArc
 50
-81.03751102545203
 51
-60.00000000000673
  0
ARC
  5
46D
330
1F
100
AcDbEntity
  8
1
  6
Continuous
 62
     7
100
AcDbCircle
 10
1605.257584372678
 20
706.7436427571997
 30
0.0
 40
4.99999999999982
100
AcDbArc
 50
-149.9999999999988
 51
-81.03751102545076
  0
ARC
  5
46E
330
1F
100
AcDbEntity
  8
1
  6
Continuous
 62
     7
100
AcDbCircle
 10
447.0483378086034
 20
755.8681033823067
 30
0.0
 40
5.000000000000077
100
AcDbArc
 50
-149.9999999999885
 51
-98.29016319231025
  0
ARC
  5
46F
330
1F
100
AcDbEntity
  8
1
  6
Continuous
 62
     7
100
AcDbCircle
 10
593.3431451523444
 20
762.4780641792238
 30
0.0
 40
9.999999999999934
100
AcDbArc
 50
-59.99999999999979
 51
29.99999999996352
  0
ARC
  5
470
330
1F
100
AcDbEntity
  8
1
  6
Continuous
 62
     7
100
AcDbCircle
 10
329.5341613036463
 20
1348.165217689998
 30
0.0
 40
10.0
100
AcDbArc
 50
90.0
 51
180.0
  0
ARC
  5
471
330
1F
100
AcDbEntity
  8
1
  6
Continuous
 62
     7
100
AcDbCircle
 10
329.5341613036454
 20
1224.565217689999
 30
0.0
 40
9.999999999999147
100
AcDbArc
 50
180.0
 51
-90.0
  0
ARC
  5
472
330
1F
100
AcDbEntity
  8
1
  6
Continuous
 62
     7
100
AcDbCircle
 10
1838.660424988822
 20
762.4780641792288
 30
0.0
 40
10.00000000000023
100
AcDbArc
 50
-60.00000000000076
 51
29.99999999999343
  0
ARC
  5
473
330
1F
100
AcDbEntity
  8
1
  6
Continuous
 62
     7
100
AcDbCircle
 10
1474.851441140095
 20
1224.565217690004
 30
0.0
 40
10.0
100
AcDbArc
 50
-179.9999999999948
 51
-90.0
  0
ARC
  5
474
330
1F
100
AcDbEntity
  8
1
  6
Continuous
 62
     7
100
AcDbCircle
 10
1474.851441140095
 20
1348.16521769
 30
0.0
 40
10.0
100
AcDbArc
 50
90.0
 51
180.0
  0
ARC
  5
475
330
1F
100
AcDbEntity
  8
1
  6
Continuous
 62
     7
100
AcDbCircle
 10
2304.623752488545
 20
848.6164338816252
 30
0.0
 40
3.199999999998909
100
AcDbArc
 50
0.0
 51
90.0
  0
ARC
  5
476
330
1F
100
AcDbEntity
  8
1
  6
Continuous
 62
     7
100
AcDbCircle
 10
2161.023752488547
 20
848.6164338816252
 30
0.0
 40
3.199999999998795
100
AcDbArc
 50
90.00000000001629
 51
180.0
  0
ARC
  5
477
330
1F
100
AcDbEntity
  8
1
  6
Continuous
 62
     7
100
AcDbCircle
 10
2303.023752488543
 20
847.0164338816242
 30
0.0
 40
1.600000000002183
100
AcDbArc
 50
0.0
 51
90.0
  0
ARC
  5
478
330
1F
100
AcDbEntity
  8
1
  6
Continuous
 62
     7
100
AcDbCircle
 10
2162.623752488545
 20
847.0164338816242
 30
0.0
 40
1.600000000001046
100
AcDbArc
 50
90.0
 51
180.0
  0
ARC
  5
479
330
1F
100
AcDbEntity
  8
1
  6
Continuous
 62
     7
100
AcDbCircle
 10
915.6237524885443
 20
847.0164338816242
 30
0.0
 40
1.600000000001046
100
AcDbArc
 50
90.0
 51
180.0
  0
ARC
  5
47A
330
1F
100
AcDbEntity
  8
1
  6
Continuous
 62
     7
100
AcDbCircle
 10
1056.023752488545
 20
847.0164338816242
 30
0.0
 40
1.59999999999809
100
AcDbArc
 50
0.0
 51
90.0
  0
ARC
  5
47B
330
1F
100
AcDbEntity
  8
1
  6
Continuous
 62
     7
100
AcDbCircle
 10
914.0237524885434
 20
848.6164338816252
 30
0.0
 40
3.199999999998795
100
AcDbArc
 50
90.0
 51
180.0
  0
ARC
  5
47C
330
1F
100
AcDbEntity
  8
1
  6
Continuous
 62
     7
100
AcDbCircle
 10
1057.623752488543
 20
848.6164338816252
 30
0.0
 40
3.200000000000955
100
AcDbArc
 50
0.0
 51
90.0
  0
LINE
  5
47D
330
1F
100
AcDbEntity
  8
1
 62
     2
100
AcDbLine
 10
1754.785120287704
 20
1037.754353421784
 30
0.0
 11
1765.765882401238
 21
1048.735115535317
 31
0.0
  0
LINE
  5
47E
330
1F
100
AcDbEntity
  8
1
 62
     2
100
AcDbLine
 10
1754.785120287704
 20
1037.754353421784
 30
0.0
 11
1769.785120287704
 21
1041.77359130825
 31
0.0
  0
LEADER
  5
47F
330
1F
100
AcDbEntity
  8
1
  6
Continuous
 62
     2
100
AcDbLeader
  3
Standard
 71
     0
 76
     2
 10
1754.785120287704
 20
1037.754353421784
 30
0.0
 10
1787.297566300866
 20
1056.525422879491
 30
0.0
  0
LINE
  5
480
330
1F
100
AcDbEntity
  8
1
 62
     2
100
AcDbLine
 10
1919.487511679785
 20
752.4814434026125
 30
0.0
 11
1930.46827379332
 21
763.4622055161441
 31
0.0
  0
LINE
  5
481
330
1F
100
AcDbEntity
  8
1
 62
     2
100
AcDbLine
 10
1919.487511679785
 20
752.4814434026125
 30
0.0
 11
1934.487511679786
 21
756.5006812890772
 31
0.0
  0
LEADER
  5
482
330
1F
100
AcDbEntity
  8
1
  6
Continuous
 62
     2
100
AcDbLeader
  3
Standard
 71
     0
 76
     2
 10
1919.487511679785
 20
752.4814434026125
 30
0.0
 10
1951.999957692947
 20
771.2525128603193
 30
0.0
  0
LINE
  5
483
330
1F
100
AcDbEntity
  8
1
 62
     2
100
AcDbLine
 10
388.5386182945624
 20
647.2099103169321
 30
0.0
 11
377.5578561810221
 21
636.2291482034061
 31
0.0
  0
LINE
  5
484
330
1F
100
AcDbEntity
  8
1
 62
     2
100
AcDbLine
 10
388.5386182945624
 20
647.2099103169321
 30
0.0
 11
373.5386182945598
 21
643.1906724304751
 31
0.0
  0
LEADER
  5
485
330
1F
100
AcDbEntity
  8
1
  6
Continuous
 62
     2
100
AcDbLeader
  3
Standard
 71
     0
 76
     2
 10
388.5386182945624
 20
647.2099103169321
 30
0.0
 10
356.0261722813912
 20
628.4388408592413
 30
0.0
  0
LINE
  5
486
330
1F
100
AcDbEntity
  8
1
 62
     2
100
AcDbLine
 10
256.3303528847675
 20
876.2013431872714
 30
0.0
 11
245.3495907712273
 21
865.2205810737453
 31
0.0
  0
LINE
  5
487
330
1F
100
AcDbEntity
  8
1
 62
     2
100
AcDbLine
 10
256.3303528847675
 20
876.2013431872714
 30
0.0
 11
241.3303528847649
 21
872.1821053008141
 31
0.0
  0
LEADER
  5
488
330
1F
100
AcDbEntity
  8
1
  6
Continuous
 62
     2
100
AcDbLeader
  3
Standard
 71
     0
 76
     2
 10
256.3303528847675
 20
876.2013431872714
 30
0.0
 10
223.8179068715964
 20
857.4302737295803
 30
0.0
  0
LINE
  5
489
330
1F
100
AcDbEntity
  8
1
 62
     2
100
AcDbLine
 10
511.8078470011698
 20
1023.701343187285
 30
0.0
 11
522.7886091147043
 21
1034.682105300817
 31
0.0
  0
LINE
  5
48A
330
1F
100
AcDbEntity
  8
1
 62
     2
100
AcDbLine
 10
511.8078470011698
 20
1023.701343187285
 30
0.0
 11
526.8078470011703
 21
1027.72058107375
 31
0.0
  0
LEADER
  5
48B
330
1F
100
AcDbEntity
  8
1
  6
Continuous
 62
     2
100
AcDbLeader
  3
Standard
 71
     0
 76
     2
 10
511.8078470011698
 20
1023.701343187285
 30
0.0
 10
544.3202930143327
 20
1042.472412644993
 30
0.0
  0
LINE
  5
48C
330
1F
100
AcDbEntity
  8
1
 62
     2
100
AcDbLine
 10
672.5561191325975
 20
745.2771686267503
 30
0.0
 11
683.5368812461322
 21
756.2579307402818
 31
0.0
  0
LINE
  5
48D
330
1F
100
AcDbEntity
  8
1
 62
     2
100
AcDbLine
 10
672.5561191325975
 20
745.2771686267503
 30
0.0
 11
687.556119132598
 21
749.296406513215
 31
0.0
  0
LEADER
  5
48E
330
1F
100
AcDbEntity
  8
1
  6
Continuous
 62
     2
100
AcDbLeader
  3
Standard
 71
     0
 76
     2
 10
672.5561191325975
 20
745.2771686267503
 30
0.0
 10
705.0685651457594
 20
764.048238084457
 30
0.0
  0
LINE
  5
48F
330
1F
100
AcDbEntity
  8
1
 62
     2
100
AcDbLine
 10
1547.143522256115
 20
591.4001509772668
 30
0.0
 11
1536.162760142575
 21
580.4193888637408
 31
0.0
  0
LINE
  5
490
330
1F
100
AcDbEntity
  8
1
 62
     2
100
AcDbLine
 10
1547.143522256115
 20
591.4001509772668
 30
0.0
 11
1532.143522256112
 21
587.3809130908097
 31
0.0
  0
LEADER
  5
491
330
1F
100
AcDbEntity
  8
1
  6
Continuous
 62
     2
100
AcDbLeader
  3
Standard
 71
     0
 76
     2
 10
1547.143522256115
 20
591.4001509772668
 30
0.0
 10
1514.631076242943
 20
572.629081519576
 30
0.0
  0
LINE
  5
492
330
1F
100
AcDbEntity
  8
1
 62
     2
100
AcDbLine
 10
1405.776882562557
 20
836.2543534218168
 30
0.0
 11
1394.796120449017
 21
825.2735913082908
 31
0.0
  0
LINE
  5
493
330
1F
100
AcDbEntity
  8
1
 62
     2
100
AcDbLine
 10
1405.776882562557
 20
836.2543534218168
 30
0.0
 11
1390.776882562554
 21
832.2351155353597
 31
0.0
  0
LEADER
  5
494
330
1F
100
AcDbEntity
  8
1
  6
Continuous
 62
     2
100
AcDbLeader
  3
Standard
 71
     0
 76
     2
 10
1405.776882562557
 20
836.2543534218168
 30
0.0
 10
1373.264436549386
 20
817.4832839641252
 30
0.0
  0
LINE
  5
495
330
1F
100
AcDbEntity
  8
1
 62
     2
100
AcDbLine
 10
236.2182983982377
 20
913.0251310475326
 30
0.0
 11
225.2375362847036
 21
924.0058931610648
 31
0.0
  0
LINE
  5
496
330
1F
100
AcDbEntity
  8
1
 62
     2
100
AcDbLine
 10
236.2182983982377
 20
913.0251310475326
 30
0.0
 11
232.1990605117696
 21
928.0251310475322
 31
0.0
  0
LEADER
  5
497
330
1F
100
AcDbEntity
  8
1
  6
Continuous
 62
     2
100
AcDbLeader
  3
Standard
 71
     0
 76
     2
 10
236.2182983982377
 20
913.0251310475326
 30
0.0
 10
215.9960625600594
 20
948.0510709618905
 30
0.0
  0
LINE
  5
498
330
1F
100
AcDbEntity
  8
1
 62
     2
100
AcDbLine
 10
486.7568352584555
 20
1057.673622746255
 30
0.0
 11
475.7760731449211
 21
1068.654384859787
 31
0.0
  0
LINE
  5
499
330
1F
100
AcDbEntity
  8
1
 62
     2
100
AcDbLine
 10
486.7568352584555
 20
1057.673622746255
 30
0.0
 11
482.737597371987
 21
1072.673622746255
 31
0.0
  0
LEADER
  5
49A
330
1F
100
AcDbEntity
  8
1
  6
Continuous
 62
     2
100
AcDbLeader
  3
Standard
 71
     0
 76
     2
 10
486.7568352584555
 20
1057.673622746255
 30
0.0
 10
466.5345994202776
 20
1092.699562660614
 30
0.0
  0
LINE
  5
49B
330
1F
100
AcDbEntity
  8
1
 62
     2
100
AcDbLine
 10
1388.262904287409
 20
874.5781412820909
 30
0.0
 11
1377.282142173876
 21
885.5589033956239
 31
0.0
  0
LINE
  5
49C
330
1F
100
AcDbEntity
  8
1
 62
     2
100
AcDbLine
 10
1388.262904287409
 20
874.5781412820909
 30
0.0
 11
1384.243666400942
 21
889.5781412820909
 31
0.0
  0
LEADER
  5
49D
330
1F
100
AcDbEntity
  8
1
  6
Continuous
 62
     2
100
AcDbLeader
  3
Standard
 71
     0
 76
     2
 10
1388.262904287409
 20
874.5781412820909
 30
0.0
 10
1368.040668449231
 20
909.6040811964489
 30
0.0
  0
LINE
  5
49E
330
1F
100
AcDbEntity
  8
1
 62
     2
100
AcDbLine
 10
1725.403981526094
 20
1069.226632980773
 30
0.0
 11
1714.42321941256
 21
1080.207395094305
 31
0.0
  0
LINE
  5
49F
330
1F
100
AcDbEntity
  8
1
 62
     2
100
AcDbLine
 10
1725.403981526094
 20
1069.226632980773
 30
0.0
 11
1721.384743639626
 21
1084.226632980773
 31
0.0
  0
LEADER
  5
4A0
330
1F
100
AcDbEntity
  8
1
  6
Continuous
 62
     2
100
AcDbLeader
  3
Standard
 71
     0
 76
     2
 10
1725.403981526094
 20
1069.226632980773
 30
0.0
 10
1705.181745687916
 20
1104.252572895131
 30
0.0
  0
MTEXT
  5
4A1
330
1F
100
AcDbEntity
  8
1
 62
     2
100
AcDbMText
 10
2027.686433102531
 20
980.2795221657021
 30
0.0
 40
19.2
 41
0.0
 71
     7
 72
     1
  1
※1
  7
CONVERTER_2
 11
0.0
 21
1.0
 31
0.0
 73
     1
 44
0.60024009603842
  0
MTEXT
  5
4A2
330
1F
100
AcDbEntity
  8
1
 62
     2
100
AcDbMText
 10
781.2201224945582
 20
981.5647373020141
 30
0.0
 40
19.2
 41
0.0
 71
     7
 72
     1
  1
※1
  7
CONVERTER_2
 11
0.0
 21
1.0
 31
0.0
 73
     1
 44
0.60024009603842
  0
TEXT
  5
4A3
330
1F
100
AcDbEntity
  8
1
 62
     2
100
AcDbText
 10
2136.3677927618
 20
20.9893579124614
 30
0.0
 40
19.2
  1
W_MTS_S_010
 41
0.9
  7
CONVERTER_1
100
AcDbText
  0
TEXT
  5
4A4
330
1F
100
AcDbEntity
  8
1
 62
     2
100
AcDbText
 10
1791.53794950734
 20
80.637528601239
 30
0.0
 40
19.2
  1
本体組立図  呼び幅 30 mm  呼び機長 20 cm、30 cm
 41
0.801
  7
CONVERTER_5
100
AcDbText
  0
TEXT
  5
4A5
330
1F
100
AcDbEntity
  8
1
 62
     2
100
AcDbText
 10
1495.94361497179
 20
17.4916886541703
 30
0.0
 40
23.99999999999999
  1
MTS
 41
0.9
  7
CONVERTER_1
100
AcDbText
  0
TEXT
  5
4A6
330
1F
100
AcDbEntity
  8
1
 62
     2
100
AcDbText
 10
1031.49889692495
 20
65.24585808511741
 30
0.0
 40
19.2
  1
2013.3.10
 41
0.9
  7
CONVERTER_1
100
AcDbText
  0
TEXT
  5
4A7
330
1F
100
AcDbEntity
  8
1
 62
     2
100
AcDbText
 10
1454.77624879593
 20
80.77005641942959
 30
0.0
 40
23.99999999999999
  1
ミニシリーズ
 41
0.89
  7
CONVERTER_2
100
AcDbText
  0
MTEXT
  5
4A8
330
1F
100
AcDbEntity
  8
1
 62
     2
100
AcDbMText
 10
1148.863346917397
 20
254.3856344725864
 30
0.0
 40
23.99999999999999
 41
0.0
 71
     7
 72
     1
  1
注1：本図はねじり方向Lタイプ\P注2：排出側装置とのジョイントを取る事\P※1：本図はMMX2型、ベルト幅50mmの場合です
  7
CONVERTER_2
 73
     1
 44
0.90036014405762
  0
MTEXT
  5
4A9
330
1F
100
AcDbEntity
  8
1
 62
     2
100
AcDbMText
 10
1769.603207175759
 20
1051.395240957487
 30
0.0
 40
19.20000000000001
 41
0.0
 71
     7
 72
     1
  1
A
  7
CONVERTER_1
 11
0.8660254037845031
 21
0.4999999999998885
 31
0.0
 73
     1
 44
0.60024009603842
  0
MTEXT
  5
4AA
330
1F
100
AcDbEntity
  8
1
 62
     2
100
AcDbMText
 10
1934.305598567841
 20
766.1223309383158
 30
0.0
 40
19.2
 41
0.0
 71
     7
 72
     1
  1
A
  7
CONVERTER_1
 11
0.8660254037845032
 21
0.4999999999998884
 31
0.0
 73
     1
 44
0.60024009603842
  0
TEXT
  5
4AB
330
1F
100
AcDbEntity
  8
1
 62
     2
100
AcDbText
 10
1204.379157125037
 20
595.0290762292658
 30
0.0
 40
19.2
  1
BB矢視図
 41
0.89
  7
CONVERTER_2
100
AcDbText
  0
TEXT
  5
4AC
330
1F
100
AcDbEntity
  8
1
 62
     2
100
AcDbText
 10
2181.726461017446
 20
692.9442669362441
 30
0.0
 40
19.2
  1
AA矢視図
 41
0.89
  7
CONVERTER_2
100
AcDbText
  0
TEXT
  5
4AD
330
1F
100
AcDbEntity
  8
1
 62
     2
100
AcDbText
 10
73.37915712503866
 20
645.0290762292225
 30
0.0
 40
19.2
  1
BB矢視図
 41
0.89
  7
CONVERTER_2
100
AcDbText
  0
TEXT
  5
4AE
330
1F
100
AcDbEntity
  8
1
 62
     2
100
AcDbText
 10
929.5859344286483
 20
692.9442669362441
 30
0.0
 40
19.2
  1
AA矢視図
 41
0.89
  7
CONVERTER_2
100
AcDbText
  0
MTEXT
  5
4AF
330
1F
100
AcDbEntity
  8
1
 62
     2
100
AcDbMText
 10
356.5913333783607
 20
633.8507978527168
 30
0.0
 40
19.2
 41
0.0
 71
     7
 72
     1
  1
B
  7
CONVERTER_1
 11
0.8660254037845031
 21
0.4999999999998885
 31
0.0
 73
     1
 44
0.60024009603842
  0
MTEXT
  5
4B0
330
1F
100
AcDbEntity
  8
1
 62
     2
100
AcDbMText
 10
203.6327287297652
 20
898.7828725593855
 30
0.0
 40
19.2
 41
0.0
 71
     7
 72
     1
  1
B
  7
CONVERTER_1
 11
0.8660254037845031
 21
0.4999999999998885
 31
0.0
 73
     1
 44
0.60024009603842
  0
MTEXT
  5
4B1
330
1F
100
AcDbEntity
  8
1
 62
     2
100
AcDbMText
 10
526.6259338892256
 20
1037.342230722989
 30
0.0
 40
19.20000000000001
 41
0.0
 71
     7
 72
     1
  1
A
  7
CONVERTER_1
 11
0.8660254037845031
 21
0.4999999999998885
 31
0.0
 73
     1
 44
0.60024009603842
  0
MTEXT
  5
4B2
330
1F
100
AcDbEntity
  8
1
 62
     2
100
AcDbMText
 10
687.3742060206524
 20
758.9180561624537
 30
0.0
 40
19.20000000000001
 41
0.0
 71
     7
 72
     1
  1
A
  7
CONVERTER_1
 11
0.8660254037845031
 21
0.4999999999998885
 31
0.0
 73
     1
 44
0.60024009603842
  0
MTEXT
  5
4B3
330
1F
100
AcDbEntity
  8
1
 62
     2
100
AcDbMText
 10
1515.196237339912
 20
578.0410385130515
 30
0.0
 40
19.2
 41
0.0
 71
     7
 72
     1
  1
B
  7
CONVERTER_1
 11
0.8660254037845031
 21
0.4999999999998885
 31
0.0
 73
     1
 44
0.60024009603842
  0
MTEXT
  5
4B4
330
1F
100
AcDbEntity
  8
1
 62
     2
100
AcDbMText
 10
1373.829597646544
 20
822.8952409577113
 30
0.0
 40
19.2
 41
0.0
 71
     7
 72
     1
  1
B
  7
CONVERTER_1
 11
0.8660254037845031
 21
0.4999999999998885
 31
0.0
 73
     1
 44
0.60024009603842
  0
MTEXT
  5
4B5
330
1F
100
AcDbEntity
  8
1
 62
     2
100
AcDbMText
 10
189.0163621623103
 20
954.4001553583976
 30
0.0
 40
19.2
 41
0.0
 71
     7
 72
     1
  1
C
  7
CONVERTER_1
 11
0.8660254037843457
 21
0.5000000000001613
 31
0.0
 73
     1
 44
0.60024009603842
  0
TEXT
  5
4B6
330
1F
100
AcDbEntity
  8
1
 62
     2
100
AcDbText
 10
384.1883499870083
 20
1176.778309431212
 30
0.0
 40
19.2
  1
CC矢視図
 41
0.89
  7
CONVERTER_2
100
AcDbText
  0
MTEXT
  5
4B7
330
1F
100
AcDbEntity
  8
1
 62
     2
100
AcDbMText
 10
439.2889282076292
 20
1098.83818859534
 30
0.0
 40
19.2
 41
0.0
 71
     7
 72
     1
  1
C
  7
CONVERTER_1
 11
0.8660254037843457
 21
0.5000000000001611
 31
0.0
 73
     1
 44
0.60024009603842
  0
MTEXT
  5
4B8
330
1F
100
AcDbEntity
  8
1
 62
     2
100
AcDbMText
 10
1361.811307290472
 20
880.0125237567369
 30
0.0
 40
19.2
 41
0.0
 71
     7
 72
     1
  1
C
  7
CONVERTER_1
 11
0.8660254037843457
 21
0.5000000000001613
 31
0.0
 73
     1
 44
0.60024009603842
  0
MTEXT
  5
4B9
330
1F
100
AcDbEntity
  8
1
 62
     2
100
AcDbMText
 10
1698.686413714258
 20
1074.450556993638
 30
0.0
 40
19.2
 41
0.0
 71
     7
 72
     1
  1
C
  7
CONVERTER_1
 11
0.8660254037843457
 21
0.5000000000001611
 31
0.0
 73
     1
 44
0.60024009603842
  0
TEXT
  5
4BA
330
1F
100
AcDbEntity
  8
1
 62
     2
100
AcDbText
 10
1585.188349987006
 20
1179.778309431212
 30
0.0
 40
19.2
  1
CC矢視図
 41
0.89
  7
CONVERTER_2
100
AcDbText
  0
LWPOLYLINE
  5
4BB
330
1F
100
AcDbEntity
  8
1
 62
     2
100
AcDbPolyline
 90
        4
 70
     1
 43
0.0
 10
429.677280858676
 20
554.97805166504
 10
429.677280858676
 20
494.97805166504
 10
729.6772808586759
 20
494.97805166504
 10
729.6772808586759
 20
554.97805166504
  0
TEXT
  5
4BC
330
1F
100
AcDbEntity
  8
1
 62
     2
100
AcDbText
 10
444.677280858676
 20
509.97805166504
 30
0.0
 40
29.99999999999999
  1
呼び機長 20 cm
 41
0.89
  7
CONVERTER_2
100
AcDbText
  0
LWPOLYLINE
  5
4BD
330
1F
100
AcDbEntity
  8
1
 62
     2
100
AcDbPolyline
 90
        4
 70
     1
 43
0.0
 10
1588.282184820227
 20
554.97805166504
 10
1588.282184820227
 20
494.97805166504
 10
1888.282184820227
 20
494.97805166504
 10
1888.282184820227
 20
554.97805166504
  0
TEXT
  5
4BE
330
1F
100
AcDbEntity
  8
1
 62
     2
100
AcDbText
 10
1603.282184820227
 20
509.97805166504
 30
0.0
 40
29.99999999999999
  1
呼び機長 30 cm
 41
0.89
  7
CONVERTER_2
100
AcDbText
  0
DIMENSION
  5
4D1
330
1F
100
AcDbEntity
  8
1
100
AcDbDimension
  2
*D02
 10
2107.869390332656
 20
1211.36521769
 30
0.0
 11
2094.069390332656
 21
1283.523886315596
 31
0.0
 70
    32
  1
機幅(150)
 71
     5
 42
-1.0
 53
90.0
  3
ME10_DIM_0
100
AcDbAlignedDimension
 13
1784.851441140149
 23
1361.36521769
 33
0.0
 14
1784.851441140149
 24
1211.36521769
 34
0.0
 50
90.0
100
AcDbRotatedDimension
  0
DIMENSION
  5
4DF
330
1F
100
AcDbEntity
  8
1
100
AcDbDimension
  2
*D14
 10
2059.97754551477
 20
1245.365217689999
 30
0.0
 11
2046.17754551477
 21
1082.98398626587
 31
0.0
 70
    32
  1
投入側コンベヤ機幅(82)
 71
     5
 42
-1.0
 53
90.0
  3
ME10_DIM_1
100
AcDbAlignedDimension
 13
1957.869390332656
 23
1327.36521769
 33
0.0
 14
1957.869390332656
 24
1245.365217689998
 34
0.0
 50
90.0
100
AcDbRotatedDimension
  0
DIMENSION
  5
4EE
330
1F
100
AcDbEntity
  8
1
100
AcDbDimension
  2
*D25
 10
2010.0343470483
 20
1271.365217690001
 30
0.0
 11
1996.2343470483
 21
1144.95944701388
 31
0.0
 70
    32
  1
呼び幅(30)
 71
     5
 42
-1.0
 53
90.0
  3
ME10_DIM_2
100
AcDbAlignedDimension
 13
1814.851441140095
 23
1301.365217690001
 33
0.0
 14
1814.851441140095
 24
1271.365217690001
 34
0.0
 50
90.0
100
AcDbRotatedDimension
  0
DIMENSION
  5
4FC
330
1F
100
AcDbEntity
  8
1
100
AcDbDimension
  2
*D36
 10
813.249181230221
 20
1245.365217689999
 30
0.0
 11
799.449181230221
 21
1086.30957998196
 31
0.0
 70
    32
  1
投入側コンベヤ機幅(82)
 71
     5
 42
-1.0
 53
90.0
  3
ME10_DIM_3
100
AcDbAlignedDimension
 13
711.3021104961564
 23
1327.36521769
 33
0.0
 14
711.3021104961564
 24
1245.365217689998
 34
0.0
 50
90.0
100
AcDbRotatedDimension
  0
DIMENSION
  5
509
330
1F
100
AcDbEntity
  8
1
100
AcDbDimension
  2
*D47
 10
861.3021104961566
 20
1361.365217690001
 30
0.0
 11
847.5021104961567
 21
1284.606903930697
 31
0.0
 70
    32
  1
機幅(150)
 71
     5
 42
-1.0
 53
90.0
  3
ME10_DIM_4
100
AcDbAlignedDimension
 13
539.5341613037004
 23
1211.36521769
 33
0.0
 14
539.5341613037004
 24
1361.36521769
 34
0.0
 50
90.0
100
AcDbRotatedDimension
  0
DIMENSION
  5
518
330
1F
100
AcDbEntity
  8
1
100
AcDbDimension
  2
*D58
 10
756.35313059034
 20
1271.36521769
 30
0.0
 11
742.5531305903401
 21
1142.63350783677
 31
0.0
 70
    32
  1
呼び幅(30)
 71
     5
 42
-1.0
 53
90.0
  3
ME10_DIM_5
100
AcDbAlignedDimension
 13
569.5341613036454
 23
1301.365217690001
 33
0.0
 14
569.5341613036454
 24
1271.365217690001
 34
0.0
 50
90.0
100
AcDbRotatedDimension
  0
DIMENSION
  5
525
330
1F
100
AcDbEntity
  8
1
100
AcDbDimension
  2
*D69
 10
786.7261720049079
 20
862.5808014053101
 30
0.0
 11
776.4585995349886
 21
910.8447585936625
 31
0.0
 70
    32
  1
<>
 71
     5
 42
-1.0
 53
-60.00000000003453
  3
ME10_DIM_6
100
AcDbAlignedDimension
 13
559.5033991902243
 23
841.0902235009451
 33
0.0
 14
598.3431451523444
 24
753.8178101413795
 34
0.0
 50
-60.00000000003453
100
AcDbRotatedDimension
  0
DIMENSION
  5
532
330
1F
100
AcDbEntity
  8
1
100
AcDbDimension
  2
*D710
 10
1983.217125020276
 20
944.0874596177548
 30
0.0
 11
2018.285605969133
 21
913.8270688700616
 31
0.0
 70
    32
  1
<>
 71
     5
 42
-1.0
 53
-60.00000000000679
  3
ME10_DIM_7
100
AcDbAlignedDimension
 13
1843.660424988822
 23
753.8178101413841
 33
0.0
 14
1804.820679026688
 24
841.0902235009125
 34
0.0
 50
-60.00000000000679
100
AcDbRotatedDimension
  0
DIMENSION
  5
53F
330
1F
100
AcDbEntity
  8
1
100
AcDbDimension
  2
*D811
 10
1730.079123436908
 20
1030.546395219044
 30
0.0
 11
1552.334411573987
 21
945.5230741828793
 31
0.0
 70
    32
  1
実機長(356)
 71
     5
 42
-1.0
 53
29.99999999999348
  3
ME10_DIM_8
100
AcDbAlignedDimension
 13
1495.296397392822
 23
725.2020054669054
 33
0.0
 14
1814.101441140094
 24
885.0154719873975
 34
0.0
 50
29.99999999999348
100
AcDbRotatedDimension
  0
DIMENSION
  5
54C
330
1F
100
AcDbEntity
  8
1
100
AcDbDimension
  2
*D912
 10
499.5889000101514
 20
1004.865180190715
 30
0.0
 11
377.5624619103506
 21
952.0108195104378
 31
0.0
 70
    32
  1
実機長(256)
 71
     5
 42
-1.0
 53
30.0000000000023
  3
ME10_DIM_9
100
AcDbAlignedDimension
 13
336.5816579348385
 23
775.2020054668599
 33
0.0
 14
568.7841613036454
 24
885.015471987396
 34
0.0
 50
30.0000000000023
100
AcDbRotatedDimension
  0
DIMENSION
  5
55B
330
1F
100
AcDbEntity
  8
1
100
AcDbDimension
  2
*D1013
 10
1362.859686558647
 20
1266.365217690002
 30
0.0
 11
1349.059686558647
 21
1188.389655356734
 31
0.0
 70
    32
  1
<>
 71
     5
 42
-1.0
 53
90.0
  3
ME10_DIM_10
100
AcDbAlignedDimension
 13
1467.851441140095
 23
1306.365217690001
 33
0.0
 14
1467.851441140095
 24
1266.365217690001
 34
0.0
 50
90.0
100
AcDbRotatedDimension
  0
DIMENSION
  5
56A
330
1F
100
AcDbEntity
  8
1
100
AcDbDimension
  2
*D1114
 10
1411.259816273718
 20
1269.36521769
 30
0.0
 11
1397.459816273718
 21
1189.416697145872
 31
0.0
 70
    32
  1
<>
 71
     5
 42
-1.0
 53
90.0
  3
ME10_DIM_11
100
AcDbAlignedDimension
 13
1467.851441140095
 23
1303.365217690001
 33
0.0
 14
1467.851441140095
 24
1269.365217690001
 34
0.0
 50
90.0
100
AcDbRotatedDimension
  0
DIMENSION
  5
579
330
1F
100
AcDbEntity
  8
1
100
AcDbDimension
  2
*D1215
 10
270.2827251558675
 20
1269.365217690002
 30
0.0
 11
256.4827251558673
 21
1191.017425642544
 31
0.0
 70
    32
  1
<>
 71
     5
 42
-1.0
 53
90.0
  3
ME10_DIM_12
100
AcDbAlignedDimension
 13
322.5341613036454
 23
1303.365217690001
 33
0.0
 14
322.5341613036454
 24
1269.365217690001
 34
0.0
 50
90.0
100
AcDbRotatedDimension
  0
DIMENSION
  5
586
330
1F
100
AcDbEntity
  8
1
100
AcDbDimension
  2
*D1316
 10
1720.766140599473
 20
946.6769546634851
 30
0.0
 11
1582.848601060706
 21
882.9850935144573
 31
0.0
 70
    32
  1
呼び機長(300)
 71
     5
 42
-1.0
 53
29.99999999999463
  3
ME10_DIM_13
100
AcDbAlignedDimension
 13
1510.992549815526
 23
710.0154719874302
 33
0.0
 14
1770.800170950871
 24
860.0154719874015
 34
0.0
 50
29.99999999999463
100
AcDbRotatedDimension
  0
DIMENSION
  5
593
330
1F
100
AcDbEntity
  8
1
100
AcDbDimension
  2
*D1417
 10
481.6541986062867
 20
935.9289942408127
 30
0.0
 11
392.0066335049742
 21
900.1058158270193
 31
0.0
 70
    32
  1
呼び機長(200)
 71
     5
 42
-1.0
 53
29.99999999999463
  3
ME10_DIM_14
100
AcDbAlignedDimension
 13
352.2778103575452
 23
760.0154719873868
 33
0.0
 14
525.4828911144224
 24
860.0154719873918
 34
0.0
 50
29.99999999999463
100
AcDbRotatedDimension
  0
DIMENSION
  5
5A2
330
1F
100
AcDbEntity
  8
1
100
AcDbDimension
  2
*D1518
 10
226.4921316041386
 20
1266.365217690001
 30
0.0
 11
212.6921316041386
 21
1188.299422662243
 31
0.0
 70
    32
  1
<>
 71
     5
 42
-1.0
 53
90.0
  3
ME10_DIM_15
100
AcDbAlignedDimension
 13
322.5341613036454
 23
1306.365217690001
 33
0.0
 14
322.5341613036454
 24
1266.365217690001
 34
0.0
 50
90.0
100
AcDbRotatedDimension
  0
DIMENSION
  5
5B1
330
1F
100
AcDbEntity
  8
1
100
AcDbDimension
  2
*D1619
 10
703.4507025489205
 20
920.2954153842702
 30
0.0
 11
665.1956971835813
 21
1002.521503790017
 31
0.0
 70
    37
  1
<>
 71
     5
 42
-1.0
  3
ME10_DIM_16
100
AcDb3PointAngularDimension
 13
607.2841613036486
 23
885.0154719873992
 33
0.0
 14
590.1867751391368
 24
895.6402260391113
 34
0.0
 15
571.7841613036521
 25
885.0154719874004
 35
0.0
  0
DIMENSION
  5
5C0
330
1F
100
AcDbEntity
  8
1
100
AcDbDimension
  2
*D1720
 10
1957.721952903092
 20
922.6946245535341
 30
0.0
 11
1907.778441418336
 21
1016.087993581955
 31
0.0
 70
    37
  1
<>
 71
     5
 42
-1.0
  3
ME10_DIM_17
100
AcDb3PointAngularDimension
 13
1852.601441140095
 23
885.0154719873995
 33
0.0
 14
1836.596041708435
 24
896.2706848732709
 34
0.0
 15
1817.101441140099
 25
885.0154719874008
 35
0.0
  0
ENDSEC
  0
SECTION
  2
OBJECTS
  0
DICTIONARY
  5
C
330
0
100
AcDbDictionary
281
     1
  3
ACAD_GROUP
350
D
  3
ACAD_LAYOUT
350
1A
  3
ACAD_MLINESTYLE
350
17
  3
ACAD_PLOTSETTINGS
350
19
  3
ACAD_PLOTSTYLENAME
350
E
  0
DICTIONARY
  5
D
102
{ACAD_REACTORS
330
C
102
}
330
C
100
AcDbDictionary
281
     1
  0
DICTIONARY
  5
1A
102
{ACAD_REACTORS
330
C
102
}
330
C
100
AcDbDictionary
281
     1
  3
Layout1
350
1E
  3
Layout2
350
26
  3
Model
350
22
  0
DICTIONARY
  5
17
102
{ACAD_REACTORS
330
C
102
}
330
C
100
AcDbDictionary
281
     1
  3
Standard
350
18
  0
DICTIONARY
  5
19
102
{ACAD_REACTORS
330
C
102
}
330
C
100
AcDbDictionary
281
     1
  0
ACDBDICTIONARYWDFLT
  5
E
102
{ACAD_REACTORS
330
C
102
}
330
C
100
AcDbDictionary
281
     1
  3
Normal
350
F
100
AcDbDictionaryWithDefault
340
F
  0
LAYOUT
  5
1E
102
{ACAD_REACTORS
330
1A
102
}
330
1A
100
AcDbPlotSettings
  1

  2

  4

  6

 40
0.0
 41
0.0
 42
0.0
 43
0.0
 44
0.0
 45
0.0
 46
0.0
 47
0.0
 48
0.0
 49
0.0
140
0.0
141
0.0
142
1.0
143
1.0
 70
   688
 72
     0
 73
     0
 74
     5
  7

 75
    16
147
1.0
148
0.0
149
0.0
100
AcDbLayout
  1
Layout1
 70
     1
 71
     1
 10
0.0
 20
0.0
 11
0.0
 21
0.0
 12
0.0
 22
0.0
 32
0.0
 14
0.0
 24
0.0
 34
0.0
 15
0.0
 25
0.0
 35
0.0
146
0.0
 13
0.0
 23
0.0
 33
0.0
 16
1.0
 26
0.0
 36
0.0
 17
0.0
 27
1.0
 37
0.0
 76
     0
330
1B
  0
LAYOUT
  5
26
102
{ACAD_REACTORS
330
1A
102
}
330
1A
100
AcDbPlotSettings
  1

  2

  4

  6

 40
0.0
 41
0.0
 42
0.0
 43
0.0
 44
0.0
 45
0.0
 46
0.0
 47
0.0
 48
0.0
 49
0.0
140
0.0
141
0.0
142
1.0
143
1.0
 70
   688
 72
     0
 73
     0
 74
     5
  7

 75
    16
147
1.0
148
0.0
149
0.0
100
AcDbLayout
  1
Layout2
 70
     1
 71
     2
 10
0.0
 20
0.0
 11
0.0
 21
0.0
 12
0.0
 22
0.0
 32
0.0
 14
0.0
 24
0.0
 34
0.0
 15
0.0
 25
0.0
 35
0.0
146
0.0
 13
0.0
 23
0.0
 33
0.0
 16
1.0
 26
0.0
 36
0.0
 17
0.0
 27
1.0
 37
0.0
 76
     0
330
23
  0
LAYOUT
  5
22
102
{ACAD_REACTORS
330
1A
102
}
330
1A
100
AcDbPlotSettings
  1

  2

  4

  6

 40
0.0
 41
0.0
 42
0.0
 43
0.0
 44
0.0
 45
0.0
 46
0.0
 47
0.0
 48
0.0
 49
0.0
140
0.0
141
0.0
142
1.0
143
1.0
 70
  1712
 72
     0
 73
     0
 74
     0
  7

 75
     0
147
1.0
148
0.0
149
0.0
100
AcDbLayout
  1
Model
 70
     1
 71
     0
 10
0.0
 20
0.0
 11
0.0
 21
0.0
 12
0.0
 22
0.0
 32
0.0
 14
0.0
 24
-13.53691992573414
 34
0.0
 15
2363.999999999999
 25
1608.0
 35
0.0
146
0.0
 13
0.0
 23
0.0
 33
0.0
 16
1.0
 26
0.0
 36
0.0
 17
0.0
 27
1.0
 37
0.0
 76
     0
330
1F
  0
MLINESTYLE
  5
18
102
{ACAD_REACTORS
330
17
102
}
330
17
100
AcDbMlineStyle
  2
Standard
 70
     0
  3

 62
   256
 51
90.0
 52
90.0
 71
     2
 49
0.5
 62
   256
  6
BYLAYER
 49
-0.5
 62
   256
  6
BYLAYER
  0
ACDBPLACEHOLDER
  5
F
102
{ACAD_REACTORS
330
E
102
}
330
E
  0
ENDSEC
  0
EOF
