  0
SECTION
  2
HEADER
  9
$ACADVER
  1
AC1024
  9
$ACADMAINTVER
 70
     6
  9
$DWGCODEPAGE
  3
ANSI_932
  9
$INSBASE
 10
0.0
 20
0.0
 30
0.0
  9
$EXTMIN
 10
-2955.0
 20
-2026.921149907168
 30
0.0
  9
$EXTMAX
 10
2955.0
 20
2026.921149907168
 30
0.0
  9
$LIMMIN
 10
-1050.0
 20
-742.5
  9
$LIMMAX
 10
1050.0
 20
742.5
  9
$ORTHOMODE
 70
     0
  9
$REGENMODE
 70
     1
  9
$FILLMODE
 70
     1
  9
$QTEXTMODE
 70
     0
  9
$MIRRTEXT
 70
     1
  9
$LTSCALE
 40
1.25
  9
$ATTMODE
 70
     1
  9
$TEXTSIZE
 40
0.2
  9
$TRACEWID
 40
0.05
  9
$TEXTSTYLE
  7
Standard
  9
$CLAYER
  8
0
  9
$CELTYPE
  6
ByLayer
  9
$CECOLOR
 62
   256
  9
$CELTSCALE
 40
1.0
  9
$DISPSILH
 70
     0
  9
$DIMSCALE
 40
1.0
  9
$DIMASZ
 40
15.00000953674316
  9
$DIMEXO
 40
1.0
  9
$DIMDLI
 40
10.0
  9
$DIMRND
 40
0.0
  9
$DIMDLE
 40
0.0
  9
$DIMEXE
 40
1.0
  9
$DIMTP
 40
0.0
  9
$DIMTM
 40
0.0
  9
$DIMTXT
 40
20.0
  9
$DIMCEN
 40
0.0
  9
$DIMTSZ
 40
0.0
  9
$DIMTOL
 70
     0
  9
$DIMLIM
 70
     0
  9
$DIMTIH
 70
     0
  9
$DIMTOH
 70
     0
  9
$DIMSE1
 70
     0
  9
$DIMSE2
 70
     0
  9
$DIMTAD
 70
     1
  9
$DIMZIN
 70
     8
  9
$DIMBLK
  1

  9
$DIMASO
 70
     1
  9
$DIMSHO
 70
     1
  9
$DIMPOST
  1

  9
$DIMAPOST
  1

  9
$DIMALT
 70
     0
  9
$DIMALTD
 70
     2
  9
$DIMALTF
 40
0.0393700787401575
  9
$DIMLFAC
 40
1.0
  9
$DIMTOFL
 70
     0
  9
$DIMTVP
 40
0.0
  9
$DIMTIX
 70
     0
  9
$DIMSOXD
 70
     0
  9
$DIMSAH
 70
     0
  9
$DIMBLK1
  1

  9
$DIMBLK2
  1

  9
$DIMSTYLE
  2
Standard
  9
$DIMCLRD
 70
     0
  9
$DIMCLRE
 70
     0
  9
$DIMCLRT
 70
     0
  9
$DIMTFAC
 40
0.65
  9
$DIMGAP
 40
0.09
  9
$DIMJUST
 70
     0
  9
$DIMSD1
 70
     0
  9
$DIMSD2
 70
     0
  9
$DIMTOLJ
 70
     0
  9
$DIMTZIN
 70
     0
  9
$DIMALTZ
 70
     0
  9
$DIMALTTZ
 70
     0
  9
$DIMUPT
 70
     0
  9
$DIMDEC
 70
     5
  9
$DIMTDEC
 70
     5
  9
$DIMALTU
 70
     2
  9
$DIMALTTD
 70
     5
  9
$DIMTXSTY
  7
Standard
  9
$DIMAUNIT
 70
     0
  9
$DIMADEC
 70
     5
  9
$DIMALTRND
 40
0.0
  9
$DIMAZIN
 70
     2
  9
$DIMDSEP
 70
    46
  9
$DIMATFIT
 70
     3
  9
$DIMFRAC
 70
     0
  9
$DIMLDRBLK
  1

  9
$DIMLUNIT
 70
     2
  9
$DIMLWD
 70
    -2
  9
$DIMLWE
 70
    -2
  9
$DIMTMOVE
 70
     0
  9
$DIMFXL
 40
1.0
  9
$DIMFXLON
 70
     0
  9
$DIMJOGANG
 40
0.7853981633974483
  9
$DIMTFILL
 70
     0
  9
$DIMTFILLCLR
 70
     0
  9
$DIMARCSYM
 70
     1
  9
$DIMLTYPE
  6

  9
$DIMLTEX1
  6

  9
$DIMLTEX2
  6

  9
$DIMTXTDIRECTION
 70
     0
  9
$LUNITS
 70
     2
  9
$LUPREC
 70
     4
  9
$SKETCHINC
 40
0.1
  9
$FILLETRAD
 40
0.5
  9
$AUNITS
 70
     0
  9
$AUPREC
 70
     0
  9
$MENU
  1
.
  9
$ELEVATION
 40
0.0
  9
$PELEVATION
 40
0.0
  9
$THICKNESS
 40
0.0
  9
$LIMCHECK
 70
     0
  9
$CHAMFERA
 40
0.0
  9
$CHAMFERB
 40
0.0
  9
$CHAMFERC
 40
0.0
  9
$CHAMFERD
 40
0.0
  9
$SKPOLY
 70
     0
  9
$TDCREATE
 40
2458758.473955243
  9
$TDUCREATE
 40
2458758.098955243
  9
$TDUPDATE
 40
2458758.473955938
  9
$TDUUPDATE
 40
2458758.098955938
  9
$TDINDWG
 40
0.0000000116
  9
$TDUSRTIMER
 40
0.0000000116
  9
$USRTIMER
 70
     1
  9
$ANGBASE
 50
0.0
  9
$ANGDIR
 70
     0
  9
$PDMODE
 70
     0
  9
$PDSIZE
 40
1.0
  9
$PLINEWID
 40
0.0
  9
$SPLFRAME
 70
     0
  9
$SPLINETYPE
 70
     6
  9
$SPLINESEGS
 70
     8
  9
$HANDSEED
  5
48E
  9
$SURFTAB1
 70
     6
  9
$SURFTAB2
 70
     6
  9
$SURFTYPE
 70
     6
  9
$SURFU
 70
     6
  9
$SURFV
 70
     6
  9
$UCSBASE
  2

  9
$UCSNAME
  2

  9
$UCSORG
 10
0.0
 20
0.0
 30
0.0
  9
$UCSXDIR
 10
1.0
 20
0.0
 30
0.0
  9
$UCSYDIR
 10
0.0
 20
1.0
 30
0.0
  9
$UCSORTHOREF
  2

  9
$UCSORTHOVIEW
 70
     0
  9
$UCSORGTOP
 10
0.0
 20
0.0
 30
0.0
  9
$UCSORGBOTTOM
 10
0.0
 20
0.0
 30
0.0
  9
$UCSORGLEFT
 10
0.0
 20
0.0
 30
0.0
  9
$UCSORGRIGHT
 10
0.0
 20
0.0
 30
0.0
  9
$UCSORGFRONT
 10
0.0
 20
0.0
 30
0.0
  9
$UCSORGBACK
 10
0.0
 20
0.0
 30
0.0
  9
$PUCSBASE
  2

  9
$PUCSNAME
  2

  9
$PUCSORG
 10
0.0
 20
0.0
 30
0.0
  9
$PUCSXDIR
 10
1.0
 20
0.0
 30
0.0
  9
$PUCSYDIR
 10
0.0
 20
1.0
 30
0.0
  9
$PUCSORTHOREF
  2

  9
$PUCSORTHOVIEW
 70
     0
  9
$PUCSORGTOP
 10
0.0
 20
0.0
 30
0.0
  9
$PUCSORGBOTTOM
 10
0.0
 20
0.0
 30
0.0
  9
$PUCSORGLEFT
 10
0.0
 20
0.0
 30
0.0
  9
$PUCSORGRIGHT
 10
0.0
 20
0.0
 30
0.0
  9
$PUCSORGFRONT
 10
0.0
 20
0.0
 30
0.0
  9
$PUCSORGBACK
 10
0.0
 20
0.0
 30
0.0
  9
$USERI1
 70
     0
  9
$USERI2
 70
     0
  9
$USERI3
 70
     0
  9
$USERI4
 70
     0
  9
$USERI5
 70
     0
  9
$USERR1
 40
0.0
  9
$USERR2
 40
0.0
  9
$USERR3
 40
0.0
  9
$USERR4
 40
0.0
  9
$USERR5
 40
0.0
  9
$WORLDVIEW
 70
     1
  9
$SHADEDGE
 70
     3
  9
$SHADEDIF
 70
    70
  9
$TILEMODE
 70
     1
  9
$MAXACTVP
 70
    64
  9
$PINSBASE
 10
0.0
 20
0.0
 30
0.0
  9
$PLIMCHECK
 70
     0
  9
$PEXTMIN
 10
1.000000000000000E+20
 20
1.000000000000000E+20
 30
1.000000000000000E+20
  9
$PEXTMAX
 10
-1.000000000000000E+20
 20
-1.000000000000000E+20
 30
-1.000000000000000E+20
  9
$PLIMMIN
 10
0.0
 20
0.0
  9
$PLIMMAX
 10
12.0
 20
9.0
  9
$UNITMODE
 70
     0
  9
$VISRETAIN
 70
     0
  9
$PLINEGEN
 70
     1
  9
$PSLTSCALE
 70
     0
  9
$TREEDEPTH
 70
  3020
  9
$CMLSTYLE
  2
Standard
  9
$CMLJUST
 70
     0
  9
$CMLSCALE
 40
1.0
  9
$PROXYGRAPHICS
 70
     0
  9
$MEASUREMENT
 70
     1
  9
$CELWEIGHT
370
    -1
  9
$ENDCAPS
280
     0
  9
$JOINSTYLE
280
     0
  9
$LWDISPLAY
290
     1
  9
$INSUNITS
 70
     4
  9
$HYPERLINKBASE
  1

  9
$STYLESHEET
  1

  9
$XEDIT
290
     1
  9
$CEPSNTYPE
380
     0
  9
$PSTYLEMODE
290
     1
  9
$FINGERPRINTGUID
  2
{08BA286B-5748-4425-A22D-07800910D2F3}
  9
$VERSIONGUID
  2
{FAEB1C32-E019-11D5-929B-00C0DF256EC4}
  9
$EXTNAMES
290
     1
  9
$PSVPSCALE
 40
0.0
  9
$OLESTARTUP
290
     0
  9
$SORTENTS
280
   127
  9
$INDEXCTL
280
     0
  9
$HIDETEXT
280
     1
  9
$XCLIPFRAME
280
     2
  9
$HALOGAP
280
     0
  9
$OBSCOLOR
 70
   257
  9
$OBSLTYPE
280
     0
  9
$INTERSECTIONDISPLAY
280
     0
  9
$INTERSECTIONCOLOR
 70
   257
  9
$DIMASSOC
280
     2
  9
$PROJECTNAME
  1

  9
$CAMERADISPLAY
290
     0
  9
$LENSLENGTH
 40
50.0
  9
$CAMERAHEIGHT
 40
0.0
  9
$STEPSPERSEC
 40
2.0
  9
$STEPSIZE
 40
6.0
  9
$3DDWFPREC
 40
2.0
  9
$PSOLWIDTH
 40
0.25
  9
$PSOLHEIGHT
 40
4.0
  9
$LOFTANG1
 40
1.570796326794897
  9
$LOFTANG2
 40
1.570796326794897
  9
$LOFTMAG1
 40
0.0
  9
$LOFTMAG2
 40
0.0
  9
$LOFTPARAM
 70
     7
  9
$LOFTNORMALS
280
     1
  9
$LATITUDE
 40
37.795
  9
$LONGITUDE
 40
-122.394
  9
$NORTHDIRECTION
 40
0.0
  9
$TIMEZONE
 70
 -8000
  9
$LIGHTGLYPHDISPLAY
280
     1
  9
$TILEMODELIGHTSYNCH
280
     1
  9
$CMATERIAL
347
44
  9
$SOLIDHIST
280
     1
  9
$SHOWHIST
280
     1
  9
$DWFFRAME
280
     2
  9
$DGNFRAME
280
     2
  9
$REALWORLDSCALE
290
     1
  9
$INTERFERECOLOR
 62
   256
  9
$CSHADOW
280
     0
  9
$SHADOWPLANELOCATION
 40
0.0
  0
ENDSEC
  0
SECTION
  2
CLASSES
  0
CLASS
  1
ACDBDICTIONARYWDFLT
  2
AcDbDictionaryWithDefault
  3
ObjectDBX Classes
 90
        0
 91
        4
280
     0
281
     0
  0
CLASS
  1
VISUALSTYLE
  2
AcDbVisualStyle
  3
ObjectDBX Classes
 90
     4095
 91
        4
280
     0
281
     0
  0
CLASS
  1
MATERIAL
  2
AcDbMaterial
  3
ObjectDBX Classes
 90
     1153
 91
        4
280
     0
281
     0
  0
CLASS
  1
SCALE
  2
AcDbScale
  3
ObjectDBX Classes
 90
     1153
 91
        4
280
     0
281
     0
  0
CLASS
  1
SUN
  2
AcDbSun
  3
SCENEOE
 90
     1153
 91
        4
280
     0
281
     0
  0
CLASS
  1
DICTIONARYVAR
  2
AcDbDictionaryVar
  3
ObjectDBX Classes
 90
        0
 91
        4
280
     0
281
     0
  0
ENDSEC
  0
SECTION
  2
TABLES
  0
TABLE
  2
VPORT
  5
8
330
0
100
AcDbSymbolTable
 70
     1
  0
VPORT
  5
29
330
8
100
AcDbSymbolTableRecord
100
AcDbViewportTableRecord
  2
*Active
 70
     0
 10
0.0
 20
0.0
 11
1.0
 21
1.0
 12
0.0
 22
0.0
 13
0.0
 23
0.0
 14
0.5
 24
0.5
 15
0.5
 25
0.5
 16
0.0
 26
0.0
 36
1.0
 17
-0.0000000000000036
 27
0.0
 37
0.0
 40
1378.306381936874
 41
1.457876148825689
 42
50.0
 43
0.0
 44
0.0
 50
0.0
 51
0.0
 71
     0
 72
  1000
 73
     1
 74
     1
 75
     0
 76
     0
 77
     0
 78
     0
281
     0
 65
     1
110
0.0
120
0.0
130
0.0
111
1.0
121
0.0
131
0.0
112
0.0
122
1.0
132
0.0
 79
     0
146
0.0
 60
     3
 61
     5
292
     1
282
     1
141
0.0
142
0.0
 63
   250
361
69
  0
ENDTAB
  0
TABLE
  2
LTYPE
  5
5
330
0
100
AcDbSymbolTable
 70
    67
  0
LTYPE
  5
14
330
5
100
AcDbSymbolTableRecord
100
AcDbLinetypeTableRecord
  2
ByBlock
 70
     0
  3

 72
    65
 73
     0
 40
0.0
  0
LTYPE
  5
15
330
5
100
AcDbSymbolTableRecord
100
AcDbLinetypeTableRecord
  2
ByLayer
 70
     0
  3

 72
    65
 73
     0
 40
0.0
  0
LTYPE
  5
16
330
5
100
AcDbSymbolTableRecord
100
AcDbLinetypeTableRecord
  2
Continuous
 70
     0
  3
Solid line
 72
    65
 73
     0
 40
0.0
  0
LTYPE
  5
6B
330
5
100
AcDbSymbolTableRecord
100
AcDbLinetypeTableRecord
  2
HIDDENX2
 70
     0
  3
Hidden (2x) ____ ____ ____ ____ ____ ____ ____ 
 72
    65
 73
     2
 40
19.05
 49
12.7
 74
     0
 49
-6.35
 74
     0
  0
LTYPE
  5
6C
330
5
100
AcDbSymbolTableRecord
100
AcDbLinetypeTableRecord
  2
HIDDEN
 70
     0
  3
Hidden __ __ __ __ __ __ __ __ __ __ __ __ __ __
 72
    65
 73
     2
 40
9.524999999999999
 49
6.35
 74
     0
 49
-3.175
 74
     0
  0
LTYPE
  5
6D
330
5
100
AcDbSymbolTableRecord
100
AcDbLinetypeTableRecord
  2
HIDDEN2
 70
     0
  3
Hidden (.5x) _ _ _ _ _ _ _ _ _ _ _ _ _ _ _ _ _ 
 72
    65
 73
     2
 40
4.762499999999999
 49
3.175
 74
     0
 49
-1.5875
 74
     0
  0
LTYPE
  5
6E
330
5
100
AcDbSymbolTableRecord
100
AcDbLinetypeTableRecord
  2
DASHED
 70
     0
  3
Dashed __ __ __ __ __ __ __ __ __ __ __ __ __ _
 72
    65
 73
     2
 40
19.05
 49
12.7
 74
     0
 49
-6.35
 74
     0
  0
LTYPE
  5
6F
330
5
100
AcDbSymbolTableRecord
100
AcDbLinetypeTableRecord
  2
DASHED2
 70
     0
  3
Dashed (.5x) _ _ _ _ _ _ _ _ _ _ _ _ _ _ _ _ _ 
 72
    65
 73
     2
 40
9.524999999999999
 49
6.35
 74
     0
 49
-3.175
 74
     0
  0
LTYPE
  5
70
330
5
100
AcDbSymbolTableRecord
100
AcDbLinetypeTableRecord
  2
DASHEDX2
 70
     0
  3
Dashed (2x) ____  ____  ____  ____  ____  ___
 72
    65
 73
     2
 40
38.09999999999999
 49
25.4
 74
     0
 49
-12.7
 74
     0
  0
LTYPE
  5
71
330
5
100
AcDbSymbolTableRecord
100
AcDbLinetypeTableRecord
  2
DOTX2
 70
     0
  3
Dot (2x) .  .  .  .  .  .  .  .  .  .  .  .  .  .
 72
    65
 73
     2
 40
12.7
 49
0.0
 74
     0
 49
-12.7
 74
     0
  0
LTYPE
  5
72
330
5
100
AcDbSymbolTableRecord
100
AcDbLinetypeTableRecord
  2
DOT
 70
     0
  3
Dot . . . . . . . . . . . . . . . . . . . . . . . .
 72
    65
 73
     2
 40
6.35
 49
0.0
 74
     0
 49
-6.35
 74
     0
  0
LTYPE
  5
73
330
5
100
AcDbSymbolTableRecord
100
AcDbLinetypeTableRecord
  2
DOT2
 70
     0
  3
Dot (.5x) ........................................
 72
    65
 73
     2
 40
3.175
 49
0.0
 74
     0
 49
-3.175
 74
     0
  0
LTYPE
  5
74
330
5
100
AcDbSymbolTableRecord
100
AcDbLinetypeTableRecord
  2
CENTERX2
 70
     0
  3
Center (2x) ________  __  ________  __  _____
 72
    65
 73
     4
 40
101.6
 49
63.5
 74
     0
 49
-12.7
 74
     0
 49
12.7
 74
     0
 49
-12.7
 74
     0
  0
LTYPE
  5
75
330
5
100
AcDbSymbolTableRecord
100
AcDbLinetypeTableRecord
  2
CENTER
 70
     0
  3
Center ____ _ ____ _ ____ _ ____ _ ____ _ ____
 72
    65
 73
     4
 40
50.8
 49
31.75
 74
     0
 49
-6.35
 74
     0
 49
6.35
 74
     0
 49
-6.35
 74
     0
  0
LTYPE
  5
76
330
5
100
AcDbSymbolTableRecord
100
AcDbLinetypeTableRecord
  2
CENTER2
 70
     0
  3
Center (.5x) ___ _ ___ _ ___ _ ___ _ ___ _ ___
 72
    65
 73
     4
 40
28.575
 49
19.05
 74
     0
 49
-3.175
 74
     0
 49
3.175
 74
     0
 49
-3.175
 74
     0
  0
LTYPE
  5
77
330
5
100
AcDbSymbolTableRecord
100
AcDbLinetypeTableRecord
  2
DASHDOTX2
 70
     0
  3
Dash dot (2x) ____  .  ____  .  ____  .  ___
 72
    65
 73
     4
 40
50.8
 49
25.4
 74
     0
 49
-12.7
 74
     0
 49
0.0
 74
     0
 49
-12.7
 74
     0
  0
LTYPE
  5
78
330
5
100
AcDbSymbolTableRecord
100
AcDbLinetypeTableRecord
  2
DASHDOT
 70
     0
  3
Dash dot __ . __ . __ . __ . __ . __ . __ . __
 72
    65
 73
     4
 40
25.4
 49
12.7
 74
     0
 49
-6.35
 74
     0
 49
0.0
 74
     0
 49
-6.35
 74
     0
  0
LTYPE
  5
79
330
5
100
AcDbSymbolTableRecord
100
AcDbLinetypeTableRecord
  2
DASHDOT2
 70
     0
  3
Dash dot (.5x) _._._._._._._._._._._._._._._.
 72
    65
 73
     4
 40
12.7
 49
6.35
 74
     0
 49
-3.175
 74
     0
 49
0.0
 74
     0
 49
-3.175
 74
     0
  0
LTYPE
  5
7A
330
5
100
AcDbSymbolTableRecord
100
AcDbLinetypeTableRecord
  2
DIVIDEX2
 70
     0
  3
Divide (2x) ________  .  .  ________  .  .  _
 72
    65
 73
     6
 40
63.5
 49
25.4
 74
     0
 49
-12.7
 74
     0
 49
0.0
 74
     0
 49
-12.7
 74
     0
 49
0.0
 74
     0
 49
-12.7
 74
     0
  0
LTYPE
  5
7B
330
5
100
AcDbSymbolTableRecord
100
AcDbLinetypeTableRecord
  2
DIVIDE
 70
     0
  3
Divide ____ . . ____ . . ____ . . ____ . . ____
 72
    65
 73
     6
 40
31.75
 49
12.7
 74
     0
 49
-6.35
 74
     0
 49
0.0
 74
     0
 49
-6.35
 74
     0
 49
0.0
 74
     0
 49
-6.35
 74
     0
  0
LTYPE
  5
7C
330
5
100
AcDbSymbolTableRecord
100
AcDbLinetypeTableRecord
  2
DIVIDE2
 70
     0
  3
Divide (.5x) __..__..__..__..__..__..__..__.._
 72
    65
 73
     6
 40
15.875
 49
6.35
 74
     0
 49
-3.175
 74
     0
 49
0.0
 74
     0
 49
-3.175
 74
     0
 49
0.0
 74
     0
 49
-3.175
 74
     0
  0
LTYPE
  5
7D
330
5
100
AcDbSymbolTableRecord
100
AcDbLinetypeTableRecord
  2
BORDERX2
 70
     0
  3
Border (2x) ____  ____  .  ____  ____  .  ___
 72
    65
 73
     6
 40
88.89999999999999
 49
25.4
 74
     0
 49
-12.7
 74
     0
 49
25.4
 74
     0
 49
-12.7
 74
     0
 49
0.0
 74
     0
 49
-12.7
 74
     0
  0
LTYPE
  5
7E
330
5
100
AcDbSymbolTableRecord
100
AcDbLinetypeTableRecord
  2
BORDER
 70
     0
  3
Border __ __ . __ __ . __ __ . __ __ . __ __ .
 72
    65
 73
     6
 40
44.45
 49
12.7
 74
     0
 49
-6.35
 74
     0
 49
12.7
 74
     0
 49
-6.35
 74
     0
 49
0.0
 74
     0
 49
-6.35
 74
     0
  0
LTYPE
  5
7F
330
5
100
AcDbSymbolTableRecord
100
AcDbLinetypeTableRecord
  2
BORDER2
 70
     0
  3
Border (.5x) __.__.__.__.__.__.__.__.__.__.__.
 72
    65
 73
     6
 40
22.225
 49
6.35
 74
     0
 49
-3.175
 74
     0
 49
6.35
 74
     0
 49
-3.175
 74
     0
 49
0.0
 74
     0
 49
-3.175
 74
     0
  0
LTYPE
  5
80
330
5
100
AcDbSymbolTableRecord
100
AcDbLinetypeTableRecord
  2
PHANTOMX2
 70
     0
  3
Phantom (2x) ____________    ____    ____   _
 72
    65
 73
     6
 40
127.0
 49
63.5
 74
     0
 49
-12.7
 74
     0
 49
12.7
 74
     0
 49
-12.7
 74
     0
 49
12.7
 74
     0
 49
-12.7
 74
     0
  0
LTYPE
  5
81
330
5
100
AcDbSymbolTableRecord
100
AcDbLinetypeTableRecord
  2
PHANTOM
 70
     0
  3
Phantom ______  __  __  ______  __  __  ______ 
 72
    65
 73
     6
 40
63.5
 49
31.75
 74
     0
 49
-6.35
 74
     0
 49
6.35
 74
     0
 49
-6.35
 74
     0
 49
6.35
 74
     0
 49
-6.35
 74
     0
  0
LTYPE
  5
82
330
5
100
AcDbSymbolTableRecord
100
AcDbLinetypeTableRecord
  2
PHANTOM2
 70
     0
  3
Phantom (.5x) ___ _ _ ___ _ _ ___ _ _ ___ _ _
 72
    65
 73
     6
 40
31.75
 49
15.875
 74
     0
 49
-3.175
 74
     0
 49
3.175
 74
     0
 49
-3.175
 74
     0
 49
3.175
 74
     0
 49
-3.175
 74
     0
  0
LTYPE
  5
83
330
5
100
AcDbSymbolTableRecord
100
AcDbLinetypeTableRecord
  2
ACAD_ISO06W100
 70
     0
  3
ISO long-dash triple-dot ____ ... ____ ... ____
 72
    65
 73
     8
 40
36.0
 49
24.0
 74
     0
 49
-3.0
 74
     0
 49
0.0
 74
     0
 49
-3.0
 74
     0
 49
0.0
 74
     0
 49
-3.0
 74
     0
 49
0.0
 74
     0
 49
-3.0
 74
     0
  0
LTYPE
  5
84
330
5
100
AcDbSymbolTableRecord
100
AcDbLinetypeTableRecord
  2
ACAD_ISO13W100
 70
     0
  3
ISO double-dash double-dot __ __ . . __ __ . . _
 72
    65
 73
     8
 40
36.0
 49
12.0
 74
     0
 49
-3.0
 74
     0
 49
12.0
 74
     0
 49
-3.0
 74
     0
 49
0.0
 74
     0
 49
-3.0
 74
     0
 49
0.0
 74
     0
 49
-3.0
 74
     0
  0
LTYPE
  5
85
330
5
100
AcDbSymbolTableRecord
100
AcDbLinetypeTableRecord
  2
ACAD_ISO14W100
 70
     0
  3
ISO dash triple-dot __ . . . __ . . . __ . . . _
 72
    65
 73
     8
 40
24.0
 49
12.0
 74
     0
 49
-3.0
 74
     0
 49
0.0
 74
     0
 49
-3.0
 74
     0
 49
0.0
 74
     0
 49
-3.0
 74
     0
 49
0.0
 74
     0
 49
-3.0
 74
     0
  0
LTYPE
  5
86
330
5
100
AcDbSymbolTableRecord
100
AcDbLinetypeTableRecord
  2
ACAD_ISO02W100
 70
     0
  3
ISO dash __ __ __ __ __ __ __ __ __ __ __ __ __
 72
    65
 73
     2
 40
15.0
 49
12.0
 74
     0
 49
-3.0
 74
     0
  0
LTYPE
  5
87
330
5
100
AcDbSymbolTableRecord
100
AcDbLinetypeTableRecord
  2
ACAD_ISO03W100
 70
     0
  3
ISO dash space __    __    __    __    __    __
 72
    65
 73
     2
 40
30.0
 49
12.0
 74
     0
 49
-18.0
 74
     0
  0
LTYPE
  5
88
330
5
100
AcDbSymbolTableRecord
100
AcDbLinetypeTableRecord
  2
ACAD_ISO04W100
 70
     0
  3
ISO long-dash dot ____ . ____ . ____ . ____ . _
 72
    65
 73
     4
 40
30.0
 49
24.0
 74
     0
 49
-3.0
 74
     0
 49
0.0
 74
     0
 49
-3.0
 74
     0
  0
LTYPE
  5
89
330
5
100
AcDbSymbolTableRecord
100
AcDbLinetypeTableRecord
  2
ACAD_ISO05W100
 70
     0
  3
ISO long-dash double-dot ____ .. ____ .. ____ . 
 72
    65
 73
     6
 40
33.0
 49
24.0
 74
     0
 49
-3.0
 74
     0
 49
0.0
 74
     0
 49
-3.0
 74
     0
 49
0.0
 74
     0
 49
-3.0
 74
     0
  0
LTYPE
  5
8A
330
5
100
AcDbSymbolTableRecord
100
AcDbLinetypeTableRecord
  2
ACAD_ISO07W100
 70
     0
  3
ISO dot . . . . . . . . . . . . . . . . . . . . 
 72
    65
 73
     2
 40
3.0
 49
0.0
 74
     0
 49
-3.0
 74
     0
  0
LTYPE
  5
8B
330
5
100
AcDbSymbolTableRecord
100
AcDbLinetypeTableRecord
  2
ACAD_ISO08W100
 70
     0
  3
ISO long-dash short-dash ____ __ ____ __ ____ _
 72
    65
 73
     4
 40
36.0
 49
24.0
 74
     0
 49
-3.0
 74
     0
 49
6.0
 74
     0
 49
-3.0
 74
     0
  0
LTYPE
  5
8C
330
5
100
AcDbSymbolTableRecord
100
AcDbLinetypeTableRecord
  2
ACAD_ISO09W100
 70
     0
  3
ISO long-dash double-short-dash ____ __ __ ____
 72
    65
 73
     6
 40
45.0
 49
24.0
 74
     0
 49
-3.0
 74
     0
 49
6.0
 74
     0
 49
-3.0
 74
     0
 49
6.0
 74
     0
 49
-3.0
 74
     0
  0
LTYPE
  5
8D
330
5
100
AcDbSymbolTableRecord
100
AcDbLinetypeTableRecord
  2
ACAD_ISO10W100
 70
     0
  3
ISO dash dot __ . __ . __ . __ . __ . __ . __ . 
 72
    65
 73
     4
 40
18.0
 49
12.0
 74
     0
 49
-3.0
 74
     0
 49
0.0
 74
     0
 49
-3.0
 74
     0
  0
LTYPE
  5
8E
330
5
100
AcDbSymbolTableRecord
100
AcDbLinetypeTableRecord
  2
ACAD_ISO11W100
 70
     0
  3
ISO double-dash dot __ __ . __ __ . __ __ . __ _
 72
    65
 73
     6
 40
33.0
 49
12.0
 74
     0
 49
-3.0
 74
     0
 49
12.0
 74
     0
 49
-3.0
 74
     0
 49
0.0
 74
     0
 49
-3.0
 74
     0
  0
LTYPE
  5
8F
330
5
100
AcDbSymbolTableRecord
100
AcDbLinetypeTableRecord
  2
ACAD_ISO12W100
 70
     0
  3
ISO dash double-dot __ . . __ . . __ . . __ . . 
 72
    65
 73
     6
 40
21.0
 49
12.0
 74
     0
 49
-3.0
 74
     0
 49
0.0
 74
     0
 49
-3.0
 74
     0
 49
0.0
 74
     0
 49
-3.0
 74
     0
  0
LTYPE
  5
90
330
5
100
AcDbSymbolTableRecord
100
AcDbLinetypeTableRecord
  2
ACAD_ISO15W100
 70
     0
  3
ISO double-dash triple-dot __ __ . . . __ __ . .
 72
    65
 73
    10
 40
39.0
 49
12.0
 74
     0
 49
-3.0
 74
     0
 49
12.0
 74
     0
 49
-3.0
 74
     0
 49
0.0
 74
     0
 49
-3.0
 74
     0
 49
0.0
 74
     0
 49
-3.0
 74
     0
 49
0.0
 74
     0
 49
-3.0
 74
     0
  0
LTYPE
  5
91
330
5
100
AcDbSymbolTableRecord
100
AcDbLinetypeTableRecord
  2
JIS_02_0.7
 70
     0
  3
HIDDEN0.75 _ _ _ _ _ _ _ _ _ _ _ _ _ _ _ _ _ 
 72
    65
 73
     2
 40
1.35
 49
0.75
 74
     0
 49
-0.6
 74
     0
  0
LTYPE
  5
92
330
5
100
AcDbSymbolTableRecord
100
AcDbLinetypeTableRecord
  2
JIS_02_1.0
 70
     0
  3
HIDDEN01 _ _ _ _ _ _ _ _ _ _ _ _ _ _ _ _ _ 
 72
    65
 73
     2
 40
2.0
 49
1.0
 74
     0
 49
-1.0
 74
     0
  0
LTYPE
  5
93
330
5
100
AcDbSymbolTableRecord
100
AcDbLinetypeTableRecord
  2
JIS_02_1.2
 70
     0
  3
HIDDEN01.25  _ _ _ _ _ _ _ _ _ _ _ _ _ _ _ _ _ 
 72
    65
 73
     2
 40
2.5
 49
1.25
 74
     0
 49
-1.25
 74
     0
  0
LTYPE
  5
94
330
5
100
AcDbSymbolTableRecord
100
AcDbLinetypeTableRecord
  2
JIS_02_2.0
 70
     0
  3
HIDDEN02 __ __ __ __ __ __ __ __ __ __ __ 
 72
    65
 73
     2
 40
3.0
 49
2.0
 74
     0
 49
-1.0
 74
     0
  0
LTYPE
  5
95
330
5
100
AcDbSymbolTableRecord
100
AcDbLinetypeTableRecord
  2
JIS_02_4.0
 70
     0
  3
HIDDEN04 ____ ____ ____ ____ ____ ____ ____ 
 72
    65
 73
     2
 40
5.5
 49
4.0
 74
     0
 49
-1.5
 74
     0
  0
LTYPE
  5
96
330
5
100
AcDbSymbolTableRecord
100
AcDbLinetypeTableRecord
  2
JIS_08_11
 70
     0
  3
1SASEN11 ___ _ ___ _ ___ _ ___ _ ___ _ ___
 72
    65
 73
     4
 40
12.8
 49
11.0
 74
     0
 49
-0.6
 74
     0
 49
0.6
 74
     0
 49
-0.6
 74
     0
  0
LTYPE
  5
97
330
5
100
AcDbSymbolTableRecord
100
AcDbLinetypeTableRecord
  2
JIS_08_15
 70
     0
  3
1SASEN15 ____ _ ____ _ ____ _ ____ _ ____ 
 72
    65
 73
     4
 40
17.25
 49
15.0
 74
     0
 49
-0.75
 74
     0
 49
0.75
 74
     0
 49
-0.75
 74
     0
  0
LTYPE
  5
98
330
5
100
AcDbSymbolTableRecord
100
AcDbLinetypeTableRecord
  2
JIS_08_25
 70
     0
  3
1SASEN25 ________  __  ________  __  _____
 72
    65
 73
     4
 40
28.0
 49
25.0
 74
     0
 49
-1.125
 74
     0
 49
0.75
 74
     0
 49
-1.125
 74
     0
  0
LTYPE
  5
99
330
5
100
AcDbSymbolTableRecord
100
AcDbLinetypeTableRecord
  2
JIS_08_37
 70
     0
  3
1SASEN37 ________  __  ________  __  _____
 72
    65
 73
     4
 40
40.5
 49
37.5
 74
     0
 49
-1.125
 74
     0
 49
0.75
 74
     0
 49
-1.125
 74
     0
  0
LTYPE
  5
9A
330
5
100
AcDbSymbolTableRecord
100
AcDbLinetypeTableRecord
  2
JIS_08_50
 70
     0
  3
1SASEN50 _______________  __  ____________
 72
    65
 73
     4
 40
53.0
 49
50.0
 74
     0
 49
-1.125
 74
     0
 49
0.75
 74
     0
 49
-1.125
 74
     0
  0
LTYPE
  5
9B
330
5
100
AcDbSymbolTableRecord
100
AcDbLinetypeTableRecord
  2
JIS_09_08
 70
     0
  3
2SASEN8 __ _ _ __ _ _ __ _ _ __ _ _ __ _ _ 
 72
    65
 73
     6
 40
10.75
 49
8.0
 74
     0
 49
-0.55
 74
     0
 49
0.55
 74
     0
 49
-0.55
 74
     0
 49
0.55
 74
     0
 49
-0.55
 74
     0
  0
LTYPE
  5
9C
330
5
100
AcDbSymbolTableRecord
100
AcDbLinetypeTableRecord
  2
JIS_09_15
 70
     0
  3
2SASEN15 ___ _ _ ___ _ _ ___ _ _ ___ _ _ ___ 
 72
    65
 73
     6
 40
18.9
 49
15.0
 74
     0
 49
-0.9
 74
     0
 49
0.6
 74
     0
 49
-0.9
 74
     0
 49
0.6
 74
     0
 49
-0.9
 74
     0
  0
LTYPE
  5
9D
330
5
100
AcDbSymbolTableRecord
100
AcDbLinetypeTableRecord
  2
JIS_09_29
 70
     0
  3
2SASEN29 ______　__  __  ______　__  __  ___
 72
    65
 73
     6
 40
34.0
 49
29.0
 74
     0
 49
-1.2
 74
     0
 49
0.7
 74
     0
 49
-1.2
 74
     0
 49
0.7
 74
     0
 49
-1.2
 74
     0
  0
LTYPE
  5
9E
330
5
100
AcDbSymbolTableRecord
100
AcDbLinetypeTableRecord
  2
JIS_09_50
 70
     0
  3
2SASEN50 ____________　__  __  _____________
 72
    65
 73
     6
 40
55.0
 49
50.0
 74
     0
 49
-1.2
 74
     0
 49
0.7
 74
     0
 49
-1.2
 74
     0
 49
0.7
 74
     0
 49
-1.2
 74
     0
  0
LTYPE
  5
9F
330
5
100
AcDbSymbolTableRecord
100
AcDbLinetypeTableRecord
  2
SXF_破線
 70
     0
  3
02 dashed -- -- -- -- -- --
 72
    65
 73
     2
 40
7.5
 49
6.0
 74
     0
 49
-1.5
 74
     0
  0
LTYPE
  5
A0
330
5
100
AcDbSymbolTableRecord
100
AcDbLinetypeTableRecord
  2
SXF_跳び破線
 70
     0
  3
03 dashed_spaced --  --  --  --
 72
    65
 73
     2
 40
12.0
 49
6.0
 74
     0
 49
-6.0
 74
     0
  0
LTYPE
  5
A1
330
5
100
AcDbSymbolTableRecord
100
AcDbLinetypeTableRecord
  2
SXF_一点長鎖線
 70
     0
  3
04 long_dashed_dotted ---- . ---- . ----
 72
    65
 73
     4
 40
15.25
 49
12.0
 74
     0
 49
-1.5
 74
     0
 49
0.25
 74
     0
 49
-1.5
 74
     0
  0
LTYPE
  5
A2
330
5
100
AcDbSymbolTableRecord
100
AcDbLinetypeTableRecord
  2
SXF_二点長鎖線
 70
     0
  3
05 long_dashed_double-dotted ---- . . ---- 
 72
    65
 73
     6
 40
17.0
 49
12.0
 74
     0
 49
-1.5
 74
     0
 49
0.25
 74
     0
 49
-1.5
 74
     0
 49
0.25
 74
     0
 49
-1.5
 74
     0
  0
LTYPE
  5
A3
330
5
100
AcDbSymbolTableRecord
100
AcDbLinetypeTableRecord
  2
SXF_三点長鎖線
 70
     0
  3
06 long_dashed_triplicate-dotted ---- ... ---- 
 72
    65
 73
     8
 40
18.75
 49
12.0
 74
     0
 49
-1.5
 74
     0
 49
0.25
 74
     0
 49
-1.5
 74
     0
 49
0.25
 74
     0
 49
-1.5
 74
     0
 49
0.25
 74
     0
 49
-1.5
 74
     0
  0
LTYPE
  5
A4
330
5
100
AcDbSymbolTableRecord
100
AcDbLinetypeTableRecord
  2
SXF_点線
 70
     0
  3
07 dotted . . . . . . . . . . . . 
 72
    65
 73
     2
 40
1.75
 49
0.25
 74
     0
 49
-1.5
 74
     0
  0
LTYPE
  5
A5
330
5
100
AcDbSymbolTableRecord
100
AcDbLinetypeTableRecord
  2
SXF_一点鎖線
 70
     0
  3
08 chain ---- - --- - --- - ---
 72
    65
 73
     4
 40
18.5
 49
12.0
 74
     0
 49
-1.5
 74
     0
 49
3.5
 74
     0
 49
-1.5
 74
     0
  0
LTYPE
  5
A6
330
5
100
AcDbSymbolTableRecord
100
AcDbLinetypeTableRecord
  2
SXF_二点鎖線
 70
     0
  3
09 chain_double_dash ---- - - ---- - - ----
 72
    65
 73
     6
 40
23.5
 49
12.0
 74
     0
 49
-1.5
 74
     0
 49
3.5
 74
     0
 49
-1.5
 74
     0
 49
3.5
 74
     0
 49
-1.5
 74
     0
  0
LTYPE
  5
A7
330
5
100
AcDbSymbolTableRecord
100
AcDbLinetypeTableRecord
  2
SXF_一点短鎖線
 70
     0
  3
10 dashed_dotted -- . -- . -- . --
 72
    65
 73
     4
 40
9.25
 49
6.0
 74
     0
 49
-1.5
 74
     0
 49
0.25
 74
     0
 49
-1.5
 74
     0
  0
LTYPE
  5
A8
330
5
100
AcDbSymbolTableRecord
100
AcDbLinetypeTableRecord
  2
SXF_一点二短鎖線
 70
     0
  3
11 double-dashed_dotted -- -- . -- --
 72
    65
 73
     6
 40
16.75
 49
6.0
 74
     0
 49
-1.5
 74
     0
 49
6.0
 74
     0
 49
-1.5
 74
     0
 49
0.25
 74
     0
 49
-1.5
 74
     0
  0
LTYPE
  5
A9
330
5
100
AcDbSymbolTableRecord
100
AcDbLinetypeTableRecord
  2
SXF_二点短鎖線
 70
     0
  3
12 dashed_double_dotted -- . . -- . . --
 72
    65
 73
     6
 40
11.0
 49
6.0
 74
     0
 49
-1.5
 74
     0
 49
0.25
 74
     0
 49
-1.5
 74
     0
 49
0.25
 74
     0
 49
-1.5
 74
     0
  0
LTYPE
  5
AA
330
5
100
AcDbSymbolTableRecord
100
AcDbLinetypeTableRecord
  2
SXF_二点二短鎖線
 70
     0
  3
13 double-dashed_double-dotted -- -- . . -- --
 72
    65
 73
     8
 40
18.5
 49
6.0
 74
     0
 49
-1.5
 74
     0
 49
6.0
 74
     0
 49
-1.5
 74
     0
 49
0.25
 74
     0
 49
-1.5
 74
     0
 49
0.25
 74
     0
 49
-1.5
 74
     0
  0
LTYPE
  5
AB
330
5
100
AcDbSymbolTableRecord
100
AcDbLinetypeTableRecord
  2
SXF_三点短鎖線
 70
     0
  3
14 dashed triplicate-dotted -- . . . -- . . . --
 72
    65
 73
     8
 40
12.75
 49
6.0
 74
     0
 49
-1.5
 74
     0
 49
0.25
 74
     0
 49
-1.5
 74
     0
 49
0.25
 74
     0
 49
-1.5
 74
     0
 49
0.25
 74
     0
 49
-1.5
 74
     0
  0
LTYPE
  5
AC
330
5
100
AcDbSymbolTableRecord
100
AcDbLinetypeTableRecord
  2
SXF_三点二短鎖線
 70
     0
  3
15 double-dashed triplicate-dotted -- -- . . . -- -- 
 72
    65
 73
    10
 40
20.25
 49
6.0
 74
     0
 49
-1.5
 74
     0
 49
6.0
 74
     0
 49
-1.5
 74
     0
 49
0.25
 74
     0
 49
-1.5
 74
     0
 49
0.25
 74
     0
 49
-1.5
 74
     0
 49
0.25
 74
     0
 49
-1.5
 74
     0
  0
ENDTAB
  0
TABLE
  2
LAYER
  5
2
330
0
100
AcDbSymbolTable
 70
     3
  0
LAYER
  5
10
330
2
100
AcDbSymbolTableRecord
100
AcDbLayerTableRecord
  2
0
 70
     0
 62
     7
  6
Continuous
370
    -3
390
F
347
46
  0
LAYER
  5
AD
330
2
100
AcDbSymbolTableRecord
100
AcDbLayerTableRecord
  2
2
 70
     0
 62
     7
  6
Continuous
370
    -3
390
F
347
46
  0
LAYER
  5
AE
330
2
100
AcDbSymbolTableRecord
100
AcDbLayerTableRecord
  2
ZUWAKU
 70
     0
 62
     7
  6
Continuous
370
    -3
390
F
347
46
  0
ENDTAB
  0
TABLE
  2
STYLE
  5
3
330
0
100
AcDbSymbolTable
 70
     3
  0
STYLE
  5
11
330
3
100
AcDbSymbolTableRecord
100
AcDbTextStyleTableRecord
  2
Standard
 70
     0
 40
0.0
 41
1.0
 50
0.0
 71
     0
 42
0.2
  3
txt.shx
  4
bigfont.shx
  0
STYLE
  5
187
330
3
100
AcDbSymbolTableRecord
100
AcDbTextStyleTableRecord
  2
dcStyle0
 70
     0
 40
0.0
 41
0.75
 50
0.0
 71
     0
 42
0.2
  3
ＭＳ Ｐゴシック
  4

1001
ACAD
1000
ＭＳ Ｐゴシック
1071
    32802
  0
STYLE
  5
1C3
330
3
100
AcDbSymbolTableRecord
100
AcDbTextStyleTableRecord
  2
dcStyle1
 70
     0
 40
0.0
 41
1.2
 50
0.0
 71
     0
 42
0.2
  3
txt.shx
  4
bigfont
  0
ENDTAB
  0
TABLE
  2
VIEW
  5
6
330
0
100
AcDbSymbolTable
 70
     0
  0
ENDTAB
  0
TABLE
  2
UCS
  5
7
330
0
100
AcDbSymbolTable
 70
     0
  0
ENDTAB
  0
TABLE
  2
APPID
  5
9
330
0
100
AcDbSymbolTable
 70
     2
  0
APPID
  5
12
330
9
100
AcDbSymbolTableRecord
100
AcDbRegAppTableRecord
  2
ACAD
 70
     0
  0
APPID
  5
6A
330
9
100
AcDbSymbolTableRecord
100
AcDbRegAppTableRecord
  2
DaFusionOut
 70
     0
  0
ENDTAB
  0
TABLE
  2
DIMSTYLE
  5
A
330
0
100
AcDbSymbolTable
 70
     3
100
AcDbDimStyleTable
  0
DIMSTYLE
105
27
330
A
100
AcDbSymbolTableRecord
100
AcDbDimStyleTableRecord
  2
Standard
 70
     0
178
     0
340
11
  0
DIMSTYLE
105
3A2
102
{ACAD_REACTORS
330
3A1
330
3A3
330
3A4
330
3A5
330
3A6
330
3A7
330
3A8
330
3A9
330
3AA
330
3AB
330
3AC
330
3AD
330
3AE
330
3B4
330
3B5
330
3B6
330
3B7
330
3B8
330
3B9
330
3BA
330
3BB
330
3BC
330
3BD
330
3BF
330
3C6
330
3C7
102
}
330
A
100
AcDbSymbolTableRecord
100
AcDbDimStyleTableRecord
  2
dc_Rotated
 70
     0
 41
15.00000953674316
 42
5.0
 44
2.5
 90
        1
 73
     0
 74
     0
 77
     3
 78
     8
 79
     2
140
20.0
147
5.0
172
     1
173
     1
176
     2
177
     2
271
     2
178
     2
271
     2
274
     4
283
     0
284
     8
288
     1
340
187
343
17D
344
17D
  0
DIMSTYLE
105
3B0
102
{ACAD_REACTORS
330
3AF
102
}
330
A
100
AcDbSymbolTableRecord
100
AcDbDimStyleTableRecord
  2
dc_Diam06
 70
     0
 41
15.00000953674316
 42
5.0
 44
5.0
 90
        1
 77
     2
 78
     8
 79
     2
140
20.0
147
5.0
173
     1
176
     2
177
     2
271
     2
178
     2
271
     2
274
     4
283
     0
284
     8
288
     1
340
187
343
17D
344
17D
  0
ENDTAB
  0
TABLE
  2
BLOCK_RECORD
  5
1
330
0
100
AcDbSymbolTable
 70
    70
  0
BLOCK_RECORD
  5
1F
330
1
100
AcDbSymbolTableRecord
100
AcDbBlockTableRecord
  2
*Model_Space
340
22
 70
     0
280
     1
281
     0
  0
BLOCK_RECORD
  5
1B
330
1
100
AcDbSymbolTableRecord
100
AcDbBlockTableRecord
  2
*Paper_Space
340
1E
 70
     0
280
     1
281
     0
  0
BLOCK_RECORD
  5
23
330
1
100
AcDbSymbolTableRecord
100
AcDbBlockTableRecord
  2
*Paper_Space0
340
26
 70
     0
280
     1
281
     0
  0
BLOCK_RECORD
  5
B0
330
1
100
AcDbSymbolTableRecord
100
AcDbBlockTableRecord
  2
*D1
340
0
 70
     0
280
     1
281
     0
  0
BLOCK_RECORD
  5
B3
330
1
100
AcDbSymbolTableRecord
100
AcDbBlockTableRecord
  2
*D2
340
0
 70
     0
280
     1
281
     0
  0
BLOCK_RECORD
  5
B6
330
1
100
AcDbSymbolTableRecord
100
AcDbBlockTableRecord
  2
*D3
340
0
 70
     0
280
     1
281
     0
  0
BLOCK_RECORD
  5
B9
330
1
100
AcDbSymbolTableRecord
100
AcDbBlockTableRecord
  2
*D4
340
0
 70
     0
280
     1
281
     0
  0
BLOCK_RECORD
  5
BC
330
1
100
AcDbSymbolTableRecord
100
AcDbBlockTableRecord
  2
*D5
340
0
 70
     0
280
     1
281
     0
  0
BLOCK_RECORD
  5
BF
330
1
100
AcDbSymbolTableRecord
100
AcDbBlockTableRecord
  2
*D6
340
0
 70
     0
280
     1
281
     0
  0
BLOCK_RECORD
  5
C2
330
1
100
AcDbSymbolTableRecord
100
AcDbBlockTableRecord
  2
*D7
340
0
 70
     0
280
     1
281
     0
  0
BLOCK_RECORD
  5
C5
330
1
100
AcDbSymbolTableRecord
100
AcDbBlockTableRecord
  2
*D8
340
0
 70
     0
280
     1
281
     0
  0
BLOCK_RECORD
  5
C8
330
1
100
AcDbSymbolTableRecord
100
AcDbBlockTableRecord
  2
DC_GROUP_W_MR-5016_S_040_1
340
0
102
{BLKREFS
331
3CA
102
}
 70
     0
280
     1
281
     0
  0
BLOCK_RECORD
  5
CB
330
1
100
AcDbSymbolTableRecord
100
AcDbBlockTableRecord
  2
DC_GROUP_W_MR-5016_S_040_2
340
0
102
{BLKREFS
331
3CB
102
}
 70
     0
280
     1
281
     0
  0
BLOCK_RECORD
  5
CE
330
1
100
AcDbSymbolTableRecord
100
AcDbBlockTableRecord
  2
*D11
340
0
 70
     0
280
     1
281
     0
  0
BLOCK_RECORD
  5
D1
330
1
100
AcDbSymbolTableRecord
100
AcDbBlockTableRecord
  2
*D12
340
0
 70
     0
280
     1
281
     0
  0
BLOCK_RECORD
  5
D4
330
1
100
AcDbSymbolTableRecord
100
AcDbBlockTableRecord
  2
*D13
340
0
 70
     0
280
     1
281
     0
  0
BLOCK_RECORD
  5
D7
330
1
100
AcDbSymbolTableRecord
100
AcDbBlockTableRecord
  2
*D14
340
0
 70
     0
280
     1
281
     0
  0
BLOCK_RECORD
  5
DA
330
1
100
AcDbSymbolTableRecord
100
AcDbBlockTableRecord
  2
*D15
340
0
 70
     0
280
     1
281
     0
  0
BLOCK_RECORD
  5
DD
330
1
100
AcDbSymbolTableRecord
100
AcDbBlockTableRecord
  2
*D16
340
0
 70
     0
280
     1
281
     0
  0
BLOCK_RECORD
  5
E0
330
1
100
AcDbSymbolTableRecord
100
AcDbBlockTableRecord
  2
DC_IMAGEDIMGROUP_1
340
0
102
{BLKREFS
331
3B1
102
}
 70
     0
280
     1
281
     0
  0
BLOCK_RECORD
  5
E3
330
1
100
AcDbSymbolTableRecord
100
AcDbBlockTableRecord
  2
DC_GROUP_W_MR-5016_S_040_3
340
0
102
{BLKREFS
331
3B2
102
}
 70
     0
280
     1
281
     0
  0
BLOCK_RECORD
  5
E6
330
1
100
AcDbSymbolTableRecord
100
AcDbBlockTableRecord
  2
DC_IMAGEDIMGROUP_2
340
0
102
{BLKREFS
331
3B3
102
}
 70
     0
280
     1
281
     0
  0
BLOCK_RECORD
  5
E9
330
1
100
AcDbSymbolTableRecord
100
AcDbBlockTableRecord
  2
*D20
340
0
 70
     0
280
     1
281
     0
  0
BLOCK_RECORD
  5
EC
330
1
100
AcDbSymbolTableRecord
100
AcDbBlockTableRecord
  2
*D21
340
0
 70
     0
280
     1
281
     0
  0
BLOCK_RECORD
  5
EF
330
1
100
AcDbSymbolTableRecord
100
AcDbBlockTableRecord
  2
*D22
340
0
 70
     0
280
     1
281
     0
  0
BLOCK_RECORD
  5
F2
330
1
100
AcDbSymbolTableRecord
100
AcDbBlockTableRecord
  2
*D23
340
0
 70
     0
280
     1
281
     0
  0
BLOCK_RECORD
  5
F5
330
1
100
AcDbSymbolTableRecord
100
AcDbBlockTableRecord
  2
*D24
340
0
 70
     0
280
     1
281
     0
  0
BLOCK_RECORD
  5
F8
330
1
100
AcDbSymbolTableRecord
100
AcDbBlockTableRecord
  2
*D25
340
0
 70
     0
280
     1
281
     0
  0
BLOCK_RECORD
  5
FB
330
1
100
AcDbSymbolTableRecord
100
AcDbBlockTableRecord
  2
*D26
340
0
 70
     0
280
     1
281
     0
  0
BLOCK_RECORD
  5
FE
330
1
100
AcDbSymbolTableRecord
100
AcDbBlockTableRecord
  2
*D27
340
0
 70
     0
280
     1
281
     0
  0
BLOCK_RECORD
  5
101
330
1
100
AcDbSymbolTableRecord
100
AcDbBlockTableRecord
  2
DC_GROUP_W_MR-5016_S_040_4
340
0
102
{BLKREFS
331
43D
102
}
 70
     0
280
     1
281
     0
  0
BLOCK_RECORD
  5
104
330
1
100
AcDbSymbolTableRecord
100
AcDbBlockTableRecord
  2
*D29
340
0
 70
     0
280
     1
281
     0
  0
BLOCK_RECORD
  5
107
330
1
100
AcDbSymbolTableRecord
100
AcDbBlockTableRecord
  2
*D30
340
0
 70
     0
280
     1
281
     0
  0
BLOCK_RECORD
  5
10A
330
1
100
AcDbSymbolTableRecord
100
AcDbBlockTableRecord
  2
DC_IMAGEDIMGROUP_3
340
0
102
{BLKREFS
331
3BE
102
}
 70
     0
280
     1
281
     0
  0
BLOCK_RECORD
  5
10D
330
1
100
AcDbSymbolTableRecord
100
AcDbBlockTableRecord
  2
*D32
340
0
 70
     0
280
     1
281
     0
  0
BLOCK_RECORD
  5
110
330
1
100
AcDbSymbolTableRecord
100
AcDbBlockTableRecord
  2
DC_GROUP_W_MR-5016_S_040_5
340
0
102
{BLKREFS
331
3C0
102
}
 70
     0
280
     1
281
     0
  0
BLOCK_RECORD
  5
113
330
1
100
AcDbSymbolTableRecord
100
AcDbBlockTableRecord
  2
DC_GROUP_W_MR-5016_S_040_6
340
0
102
{BLKREFS
331
43E
102
}
 70
     0
280
     1
281
     0
  0
BLOCK_RECORD
  5
116
330
1
100
AcDbSymbolTableRecord
100
AcDbBlockTableRecord
  2
DC_GROUP_W_MR-5016_S_040_7
340
0
102
{BLKREFS
331
43F
102
}
 70
     0
280
     1
281
     0
  0
BLOCK_RECORD
  5
119
330
1
100
AcDbSymbolTableRecord
100
AcDbBlockTableRecord
  2
DC_GROUP_W_MR-5016_S_040_8
340
0
102
{BLKREFS
331
440
102
}
 70
     0
280
     1
281
     0
  0
BLOCK_RECORD
  5
11C
330
1
100
AcDbSymbolTableRecord
100
AcDbBlockTableRecord
  2
DC_GROUP_W_MR-5016_S_040_9
340
0
102
{BLKREFS
331
441
102
}
 70
     0
280
     1
281
     0
  0
BLOCK_RECORD
  5
11F
330
1
100
AcDbSymbolTableRecord
100
AcDbBlockTableRecord
  2
DC_GROUP_W_MR-5016_S_040_10
340
0
102
{BLKREFS
331
442
102
}
 70
     0
280
     1
281
     0
  0
BLOCK_RECORD
  5
122
330
1
100
AcDbSymbolTableRecord
100
AcDbBlockTableRecord
  2
DC_GROUP_W_MR-5016_S_040_11
340
0
102
{BLKREFS
331
3C1
102
}
 70
     0
280
     1
281
     0
  0
BLOCK_RECORD
  5
125
330
1
100
AcDbSymbolTableRecord
100
AcDbBlockTableRecord
  2
DC_GROUP_W_MR-5016_S_040_12
340
0
102
{BLKREFS
331
3C2
102
}
 70
     0
280
     1
281
     0
  0
BLOCK_RECORD
  5
128
330
1
100
AcDbSymbolTableRecord
100
AcDbBlockTableRecord
  2
DC_GROUP_W_MR-5016_S_040_13
340
0
102
{BLKREFS
331
32D
102
}
 70
     0
280
     1
281
     0
  0
BLOCK_RECORD
  5
12B
330
1
100
AcDbSymbolTableRecord
100
AcDbBlockTableRecord
  2
DC_GROUP_W_MR-5016_S_040_14
340
0
102
{BLKREFS
331
3C3
102
}
 70
     0
280
     1
281
     0
  0
BLOCK_RECORD
  5
12E
330
1
100
AcDbSymbolTableRecord
100
AcDbBlockTableRecord
  2
DC_GROUP_W_MR-5016_S_040_15
340
0
102
{BLKREFS
331
3C4
102
}
 70
     0
280
     1
281
     0
  0
BLOCK_RECORD
  5
131
330
1
100
AcDbSymbolTableRecord
100
AcDbBlockTableRecord
  2
DC_GROUP_W_MR-5016_S_040_16
340
0
102
{BLKREFS
331
33A
102
}
 70
     0
280
     1
281
     0
  0
BLOCK_RECORD
  5
134
330
1
100
AcDbSymbolTableRecord
100
AcDbBlockTableRecord
  2
DC_GROUP_W_MR-5016_S_040_17
340
0
102
{BLKREFS
331
3C5
102
}
 70
     0
280
     1
281
     0
  0
BLOCK_RECORD
  5
137
330
1
100
AcDbSymbolTableRecord
100
AcDbBlockTableRecord
  2
DC_GROUP_W_MR-5016_S_040_18
340
0
102
{BLKREFS
331
443
102
}
 70
     0
280
     1
281
     0
  0
BLOCK_RECORD
  5
13A
330
1
100
AcDbSymbolTableRecord
100
AcDbBlockTableRecord
  2
DC_GROUP_W_MR-5016_S_040_19
340
0
102
{BLKREFS
331
444
102
}
 70
     0
280
     1
281
     0
  0
BLOCK_RECORD
  5
13D
330
1
100
AcDbSymbolTableRecord
100
AcDbBlockTableRecord
  2
DC_GROUP_W_MR-5016_S_040_20
340
0
102
{BLKREFS
331
445
102
}
 70
     0
280
     1
281
     0
  0
BLOCK_RECORD
  5
140
330
1
100
AcDbSymbolTableRecord
100
AcDbBlockTableRecord
  2
DC_GROUP_W_MR-5016_S_040_21
340
0
102
{BLKREFS
331
446
102
}
 70
     0
280
     1
281
     0
  0
BLOCK_RECORD
  5
143
330
1
100
AcDbSymbolTableRecord
100
AcDbBlockTableRecord
  2
DC_GROUP_W_MR-5016_S_040_22
340
0
102
{BLKREFS
331
447
102
}
 70
     0
280
     1
281
     0
  0
BLOCK_RECORD
  5
146
330
1
100
AcDbSymbolTableRecord
100
AcDbBlockTableRecord
  2
DC_GROUP_W_MR-5016_S_040_23
340
0
102
{BLKREFS
331
448
102
}
 70
     0
280
     1
281
     0
  0
BLOCK_RECORD
  5
149
330
1
100
AcDbSymbolTableRecord
100
AcDbBlockTableRecord
  2
DC_GROUP_W_MR-5016_S_040_24
340
0
102
{BLKREFS
331
449
102
}
 70
     0
280
     1
281
     0
  0
BLOCK_RECORD
  5
14C
330
1
100
AcDbSymbolTableRecord
100
AcDbBlockTableRecord
  2
DC_GROUP_W_MR-5016_S_040_25
340
0
102
{BLKREFS
331
44A
102
}
 70
     0
280
     1
281
     0
  0
BLOCK_RECORD
  5
14F
330
1
100
AcDbSymbolTableRecord
100
AcDbBlockTableRecord
  2
DC_GROUP_W_MR-5016_S_040_26
340
0
102
{BLKREFS
331
44B
102
}
 70
     0
280
     1
281
     0
  0
BLOCK_RECORD
  5
152
330
1
100
AcDbSymbolTableRecord
100
AcDbBlockTableRecord
  2
DC_GROUP_W_MR-5016_S_040_27
340
0
102
{BLKREFS
331
44C
102
}
 70
     0
280
     1
281
     0
  0
BLOCK_RECORD
  5
155
330
1
100
AcDbSymbolTableRecord
100
AcDbBlockTableRecord
  2
DC_GROUP_W_MR-5016_S_040_28
340
0
102
{BLKREFS
331
44D
102
}
 70
     0
280
     1
281
     0
  0
BLOCK_RECORD
  5
158
330
1
100
AcDbSymbolTableRecord
100
AcDbBlockTableRecord
  2
DC_GROUP_W_MR-5016_S_040_29
340
0
102
{BLKREFS
331
44E
102
}
 70
     0
280
     1
281
     0
  0
BLOCK_RECORD
  5
15B
330
1
100
AcDbSymbolTableRecord
100
AcDbBlockTableRecord
  2
DC_GROUP_W_MR-5016_S_040_30
340
0
102
{BLKREFS
331
44F
102
}
 70
     0
280
     1
281
     0
  0
BLOCK_RECORD
  5
15E
330
1
100
AcDbSymbolTableRecord
100
AcDbBlockTableRecord
  2
DC_GROUP_W_MR-5016_S_040_31
340
0
102
{BLKREFS
331
450
102
}
 70
     0
280
     1
281
     0
  0
BLOCK_RECORD
  5
161
330
1
100
AcDbSymbolTableRecord
100
AcDbBlockTableRecord
  2
DC_GROUP_W_MR-5016_S_040_32
340
0
102
{BLKREFS
331
451
102
}
 70
     0
280
     1
281
     0
  0
BLOCK_RECORD
  5
164
330
1
100
AcDbSymbolTableRecord
100
AcDbBlockTableRecord
  2
DC_GROUP_W_MR-5016_S_040_33
340
0
102
{BLKREFS
331
452
102
}
 70
     0
280
     1
281
     0
  0
BLOCK_RECORD
  5
167
330
1
100
AcDbSymbolTableRecord
100
AcDbBlockTableRecord
  2
DC_GROUP_W_MR-5016_S_040_34
340
0
102
{BLKREFS
331
453
102
}
 70
     0
280
     1
281
     0
  0
BLOCK_RECORD
  5
16A
330
1
100
AcDbSymbolTableRecord
100
AcDbBlockTableRecord
  2
DC_GROUP_W_MR-5016_S_040_35
340
0
102
{BLKREFS
331
454
102
}
 70
     0
280
     1
281
     0
  0
BLOCK_RECORD
  5
16D
330
1
100
AcDbSymbolTableRecord
100
AcDbBlockTableRecord
  2
DC_GROUP_W_MR-5016_S_040_36
340
0
102
{BLKREFS
331
455
102
}
 70
     0
280
     1
281
     0
  0
BLOCK_RECORD
  5
170
330
1
100
AcDbSymbolTableRecord
100
AcDbBlockTableRecord
  2
*D65
340
0
 70
     0
280
     1
281
     0
  0
BLOCK_RECORD
  5
173
330
1
100
AcDbSymbolTableRecord
100
AcDbBlockTableRecord
  2
*D66
340
0
 70
     0
280
     1
281
     0
  0
BLOCK_RECORD
  5
176
330
1
100
AcDbSymbolTableRecord
100
AcDbBlockTableRecord
  2
DC_GROUP_W_MR-5016_S_040_37
340
0
102
{BLKREFS
331
3C8
102
}
 70
     0
280
     1
281
     0
  0
BLOCK_RECORD
  5
179
330
1
100
AcDbSymbolTableRecord
100
AcDbBlockTableRecord
  2
DC_GROUP_W_MR-5016_S_040_38
340
0
102
{BLKREFS
331
3C9
102
}
 70
     0
280
     1
281
     0
  0
BLOCK_RECORD
  5
17D
330
1
100
AcDbSymbolTableRecord
100
AcDbBlockTableRecord
  2
_OPEN30
340
0
102
{BLKREFS
331
183
331
184
331
18A
331
18B
331
190
331
191
331
195
331
196
331
19A
331
19B
331
1A0
331
1A1
331
1A6
331
1A7
331
1AC
331
1AD
331
1D8
331
1D9
331
1DE
331
1DF
331
1E4
331
1E5
331
1EA
331
1EB
331
1F0
331
1F1
331
1F6
331
1FD
331
1FF
331
207
331
209
331
20C
331
20D
331
212
331
213
331
21B
331
21E
331
21F
331
227
331
22A
331
22B
331
233
331
235
331
23B
331
23D
331
266
331
267
331
26C
331
26D
331
275
331
277
331
27A
331
27B
331
388
331
389
331
391
331
393
331
396
331
398
331
39E
102
}
 70
     0
280
     1
281
     0
  0
ENDTAB
  0
ENDSEC
  0
SECTION
  2
BLOCKS
  0
BLOCK
  5
20
330
1F
100
AcDbEntity
  8
0
100
AcDbBlockBegin
  2
*Model_Space
 70
     0
 10
0.0
 20
0.0
 30
0.0
  3
*Model_Space
  1
*Model_Space
  0
ENDBLK
  5
21
330
1F
100
AcDbEntity
  8
0
100
AcDbBlockEnd
  0
BLOCK
  5
1C
330
1B
100
AcDbEntity
 67
     1
  8
0
100
AcDbBlockBegin
  2
*Paper_Space
 70
     0
 10
0.0
 20
0.0
 30
0.0
  3
*Paper_Space
  1
*Paper_Space
  0
ENDBLK
  5
1D
330
1B
100
AcDbEntity
 67
     1
  8
0
100
AcDbBlockEnd
  0
BLOCK
  5
24
330
23
100
AcDbEntity
  8
0
100
AcDbBlockBegin
  2
*Paper_Space0
 70
     0
 10
0.0
 20
0.0
 30
0.0
  3
*Paper_Space0
  1
*Paper_Space0
  0
ENDBLK
  5
25
330
23
100
AcDbEntity
  8
0
100
AcDbBlockEnd
  0
BLOCK
  5
B1
330
B0
100
AcDbEntity
  8
0
100
AcDbBlockBegin
  2
*D1
 70
     1
 10
0.0
 20
0.0
 30
0.0
  3
*D1
  1
*D1
  0
LINE
  5
17C
330
B0
100
AcDbEntity
  8
0
  6
Continuous
 62
     2
370
    13
100
AcDbLine
 10
-785.9587957402838
 20
247.0937471526252
 30
0.0
 11
208.0412042597162
 21
247.0937471526252
 31
0.0
  0
INSERT
  5
183
330
B0
100
AcDbEntity
  8
0
 62
     2
100
AcDbBlockReference
  2
_OPEN30
 10
-785.9587957402838
 20
247.0937471526252
 30
0.0
 41
15.00001403807643
 42
14.99994684111822
 50
180.0
  0
INSERT
  5
184
330
B0
100
AcDbEntity
  8
0
 62
     2
100
AcDbBlockReference
  2
_OPEN30
 10
208.0412042597162
 20
247.0937471526252
 30
0.0
 41
15.00001403807643
 42
14.99994684111822
 50
360.0
  0
LINE
  5
185
330
B0
100
AcDbEntity
  8
0
  6
Continuous
 62
     2
370
    13
100
AcDbLine
 10
-785.9587957402838
 20
85.19374715262555
 30
0.0
 11
-785.9587957402838
 21
249.5937471526252
 31
0.0
  0
LINE
  5
186
330
B0
100
AcDbEntity
  8
0
  6
Continuous
 62
     2
370
    13
100
AcDbLine
 10
208.0412042597162
 20
85.19374715262555
 30
0.0
 11
208.0412042597162
 21
249.5937471526252
 31
0.0
  0
MTEXT
  5
188
330
B0
100
AcDbEntity
  8
0
 62
     2
100
AcDbMText
 10
-288.9587957402838
 20
252.0937471526252
 30
0.0
 40
20.0
 41
75.0
 46
0.0
 71
     8
 72
     1
  1
\T1.00;機長
  7
dcStyle0
 73
     1
 44
1.0
  0
ENDBLK
  5
B2
330
B0
100
AcDbEntity
  8
0
100
AcDbBlockEnd
  0
BLOCK
  5
B4
330
B3
100
AcDbEntity
  8
0
100
AcDbBlockBegin
  2
*D2
 70
     1
 10
0.0
 20
0.0
 30
0.0
  3
*D2
  1
*D2
  0
LINE
  5
189
330
B3
100
AcDbEntity
  8
0
  6
Continuous
 62
     2
370
    13
100
AcDbLine
 10
-785.9587957402838
 20
-97.80625284737445
 30
0.0
 11
-728.9587957402838
 21
-97.80625284737445
 31
0.0
  0
INSERT
  5
18A
330
B3
100
AcDbEntity
  8
0
 62
     2
100
AcDbBlockReference
  2
_OPEN30
 10
-785.9587957402838
 20
-97.80625284737445
 30
0.0
 41
15.00001403807643
 42
14.99994684111822
 50
180.0
  0
INSERT
  5
18B
330
B3
100
AcDbEntity
  8
0
 62
     2
100
AcDbBlockReference
  2
_OPEN30
 10
-728.9587957402838
 20
-97.80625284737445
 30
0.0
 41
15.00001403807643
 42
14.99994684111822
 50
360.0
  0
LINE
  5
18C
330
B3
100
AcDbEntity
  8
0
  6
Continuous
 62
     2
370
    13
100
AcDbLine
 10
-785.9587957402838
 20
-14.80625284737445
 30
0.0
 11
-785.9587957402838
 21
-100.3062528473745
 31
0.0
  0
LINE
  5
18D
330
B3
100
AcDbEntity
  8
0
  6
Continuous
 62
     2
370
    13
100
AcDbLine
 10
-728.9587957402838
 20
-24.80625284737445
 30
0.0
 11
-728.9587957402838
 21
-100.3062528473745
 31
0.0
  0
MTEXT
  5
18E
330
B3
100
AcDbEntity
  8
0
 62
     2
100
AcDbMText
 10
-757.4587957402838
 20
-92.80625284737445
 30
0.0
 40
20.0
 41
37.5
 46
0.0
 71
     8
 72
     1
  1
\T1.00;D
  7
dcStyle0
 73
     1
 44
1.0
  0
ENDBLK
  5
B5
330
B3
100
AcDbEntity
  8
0
100
AcDbBlockEnd
  0
BLOCK
  5
B7
330
B6
100
AcDbEntity
  8
0
100
AcDbBlockBegin
  2
*D3
 70
     1
 10
0.0
 20
0.0
 30
0.0
  3
*D3
  1
*D3
  0
LINE
  5
18F
330
B6
100
AcDbEntity
  8
0
  6
Continuous
 62
     2
370
    13
100
AcDbLine
 10
-728.9587957402838
 20
-97.80625284737445
 30
0.0
 11
-608.9587957402838
 21
-97.80625284737445
 31
0.0
  0
INSERT
  5
190
330
B6
100
AcDbEntity
  8
0
 62
     2
100
AcDbBlockReference
  2
_OPEN30
 10
-728.9587957402838
 20
-97.80625284737445
 30
0.0
 41
15.00001403807643
 42
14.99994684111822
 50
180.0
  0
INSERT
  5
191
330
B6
100
AcDbEntity
  8
0
 62
     2
100
AcDbBlockReference
  2
_OPEN30
 10
-608.9587957402838
 20
-97.80625284737445
 30
0.0
 41
15.00001403807643
 42
14.99994684111822
 50
360.0
  0
LINE
  5
192
330
B6
100
AcDbEntity
  8
0
  6
Continuous
 62
     2
370
    13
100
AcDbLine
 10
-728.9587957402838
 20
-24.80625284737445
 30
0.0
 11
-728.9587957402838
 21
-100.3062528473745
 31
0.0
  0
MTEXT
  5
193
330
B6
100
AcDbEntity
  8
0
 62
     2
100
AcDbMText
 10
-668.9587957402838
 20
-92.80625284737445
 30
0.0
 40
20.0
 41
62.5
 46
0.0
 71
     8
 72
     1
  1
\T1.00;120
  7
dcStyle0
 73
     1
 44
1.0
  0
ENDBLK
  5
B8
330
B6
100
AcDbEntity
  8
0
100
AcDbBlockEnd
  0
BLOCK
  5
BA
330
B9
100
AcDbEntity
  8
0
100
AcDbBlockBegin
  2
*D4
 70
     1
 10
0.0
 20
0.0
 30
0.0
  3
*D4
  1
*D4
  0
LINE
  5
194
330
B9
100
AcDbEntity
  8
0
  6
Continuous
 62
     2
370
    13
100
AcDbLine
 10
31.04120425971615
 20
-97.80625284737445
 30
0.0
 11
151.0412042597162
 21
-97.80625284737445
 31
0.0
  0
INSERT
  5
195
330
B9
100
AcDbEntity
  8
0
 62
     2
100
AcDbBlockReference
  2
_OPEN30
 10
31.04120425971615
 20
-97.80625284737445
 30
0.0
 41
15.00001403807643
 42
14.99994684111822
 50
180.0
  0
INSERT
  5
196
330
B9
100
AcDbEntity
  8
0
 62
     2
100
AcDbBlockReference
  2
_OPEN30
 10
151.0412042597162
 20
-97.80625284737445
 30
0.0
 41
15.00001403807643
 42
14.99994684111822
 50
360.0
  0
LINE
  5
197
330
B9
100
AcDbEntity
  8
0
  6
Continuous
 62
     2
370
    13
100
AcDbLine
 10
151.0412042597162
 20
-24.80625284737445
 30
0.0
 11
151.0412042597162
 21
-100.3062528473745
 31
0.0
  0
MTEXT
  5
198
330
B9
100
AcDbEntity
  8
0
 62
     2
100
AcDbMText
 10
86.8356740860919
 20
-92.80625284737445
 30
0.0
 40
20.0
 41
62.5
 46
0.0
 71
     8
 72
     1
  1
\T1.00;120
  7
dcStyle0
 73
     1
 44
1.0
  0
ENDBLK
  5
BB
330
B9
100
AcDbEntity
  8
0
100
AcDbBlockEnd
  0
BLOCK
  5
BD
330
BC
100
AcDbEntity
  8
0
100
AcDbBlockBegin
  2
*D5
 70
     1
 10
0.0
 20
0.0
 30
0.0
  3
*D5
  1
*D5
  0
LINE
  5
199
330
BC
100
AcDbEntity
  8
0
  6
Continuous
 62
     2
370
    13
100
AcDbLine
 10
151.0412042597162
 20
-97.80625284737445
 30
0.0
 11
208.0412042597162
 21
-97.80625284737445
 31
0.0
  0
INSERT
  5
19A
330
BC
100
AcDbEntity
  8
0
 62
     2
100
AcDbBlockReference
  2
_OPEN30
 10
151.0412042597162
 20
-97.80625284737445
 30
0.0
 41
15.00001403807643
 42
14.99994684111822
 50
180.0
  0
INSERT
  5
19B
330
BC
100
AcDbEntity
  8
0
 62
     2
100
AcDbBlockReference
  2
_OPEN30
 10
208.0412042597162
 20
-97.80625284737445
 30
0.0
 41
15.00001403807643
 42
14.99994684111822
 50
360.0
  0
LINE
  5
19C
330
BC
100
AcDbEntity
  8
0
  6
Continuous
 62
     2
370
    13
100
AcDbLine
 10
151.0412042597162
 20
-24.80625284737445
 30
0.0
 11
151.0412042597162
 21
-100.3062528473745
 31
0.0
  0
LINE
  5
19D
330
BC
100
AcDbEntity
  8
0
  6
Continuous
 62
     2
370
    13
100
AcDbLine
 10
208.0412042597162
 20
-14.80625284737445
 30
0.0
 11
208.0412042597162
 21
-100.3062528473745
 31
0.0
  0
MTEXT
  5
19E
330
BC
100
AcDbEntity
  8
0
 62
     2
100
AcDbMText
 10
179.5412042597162
 20
-92.80625284737445
 30
0.0
 40
20.0
 41
37.5
 46
0.0
 71
     8
 72
     1
  1
\T1.00;D
  7
dcStyle0
 73
     1
 44
1.0
  0
ENDBLK
  5
BE
330
BC
100
AcDbEntity
  8
0
100
AcDbBlockEnd
  0
BLOCK
  5
C0
330
BF
100
AcDbEntity
  8
0
100
AcDbBlockBegin
  2
*D6
 70
     1
 10
0.0
 20
0.0
 30
0.0
  3
*D6
  1
*D6
  0
LINE
  5
19F
330
BF
100
AcDbEntity
  8
0
  6
Continuous
 62
     2
370
    13
100
AcDbLine
 10
-785.9587957402838
 20
197.0937471526252
 30
0.0
 11
-688.9587957402838
 21
197.0937471526252
 31
0.0
  0
INSERT
  5
1A0
330
BF
100
AcDbEntity
  8
0
 62
     2
100
AcDbBlockReference
  2
_OPEN30
 10
-785.9587957402838
 20
197.0937471526252
 30
0.0
 41
15.00001403807643
 42
14.99994684111822
 50
180.0
  0
INSERT
  5
1A1
330
BF
100
AcDbEntity
  8
0
 62
     2
100
AcDbBlockReference
  2
_OPEN30
 10
-688.9587957402838
 20
197.0937471526252
 30
0.0
 41
15.00001403807643
 42
14.99994684111822
 50
360.0
  0
LINE
  5
1A2
330
BF
100
AcDbEntity
  8
0
  6
Continuous
 62
     2
370
    13
100
AcDbLine
 10
-785.9587957402838
 20
85.19374715262555
 30
0.0
 11
-785.9587957402838
 21
199.5937471526252
 31
0.0
  0
LINE
  5
1A3
330
BF
100
AcDbEntity
  8
0
  6
Continuous
 62
     2
370
    13
100
AcDbLine
 10
-688.9587957402838
 20
96.79374715262588
 30
0.0
 11
-688.9587957402838
 21
199.5937471526252
 31
0.0
  0
MTEXT
  5
1A4
330
BF
100
AcDbEntity
  8
0
 62
     2
100
AcDbMText
 10
-737.4587957402838
 20
202.0937471526252
 30
0.0
 40
20.0
 41
37.5
 46
0.0
 71
     8
 72
     1
  1
\T1.00;A
  7
dcStyle0
 73
     1
 44
1.0
  0
ENDBLK
  5
C1
330
BF
100
AcDbEntity
  8
0
100
AcDbBlockEnd
  0
BLOCK
  5
C3
330
C2
100
AcDbEntity
  8
0
100
AcDbBlockBegin
  2
*D7
 70
     1
 10
0.0
 20
0.0
 30
0.0
  3
*D7
  1
*D7
  0
LINE
  5
1A5
330
C2
100
AcDbEntity
  8
0
  6
Continuous
 62
     2
370
    13
100
AcDbLine
 10
-688.9587957402838
 20
197.0937471526252
 30
0.0
 11
111.0412042597162
 21
197.0937471526252
 31
0.0
  0
INSERT
  5
1A6
330
C2
100
AcDbEntity
  8
0
 62
     2
100
AcDbBlockReference
  2
_OPEN30
 10
-688.9587957402838
 20
197.0937471526252
 30
0.0
 41
15.00001403807643
 42
14.99994684111822
 50
180.0
  0
INSERT
  5
1A7
330
C2
100
AcDbEntity
  8
0
 62
     2
100
AcDbBlockReference
  2
_OPEN30
 10
111.0412042597162
 20
197.0937471526252
 30
0.0
 41
15.00001403807643
 42
14.99994684111822
 50
360.0
  0
LINE
  5
1A8
330
C2
100
AcDbEntity
  8
0
  6
Continuous
 62
     2
370
    13
100
AcDbLine
 10
-688.9587957402838
 20
96.79374715262588
 30
0.0
 11
-688.9587957402838
 21
199.5937471526252
 31
0.0
  0
LINE
  5
1A9
330
C2
100
AcDbEntity
  8
0
  6
Continuous
 62
     2
370
    13
100
AcDbLine
 10
111.0412042597162
 20
96.79374715262588
 30
0.0
 11
111.0412042597162
 21
199.5937471526252
 31
0.0
  0
MTEXT
  5
1AA
330
C2
100
AcDbEntity
  8
0
 62
     2
100
AcDbMText
 10
-288.9587957402838
 20
202.0937471526252
 30
0.0
 40
20.0
 41
125.0
 46
0.0
 71
     8
 72
     1
  1
\T1.00;N×200=B
  7
dcStyle0
 73
     1
 44
1.0
  0
ENDBLK
  5
C4
330
C2
100
AcDbEntity
  8
0
100
AcDbBlockEnd
  0
BLOCK
  5
C6
330
C5
100
AcDbEntity
  8
0
100
AcDbBlockBegin
  2
*D8
 70
     1
 10
0.0
 20
0.0
 30
0.0
  3
*D8
  1
*D8
  0
LINE
  5
1AB
330
C5
100
AcDbEntity
  8
0
  6
Continuous
 62
     2
370
    13
100
AcDbLine
 10
111.0412042597162
 20
197.0937471526252
 30
0.0
 11
208.0412042597162
 21
197.0937471526252
 31
0.0
  0
INSERT
  5
1AC
330
C5
100
AcDbEntity
  8
0
 62
     2
100
AcDbBlockReference
  2
_OPEN30
 10
111.0412042597162
 20
197.0937471526252
 30
0.0
 41
15.00001403807643
 42
14.99994684111822
 50
180.0
  0
INSERT
  5
1AD
330
C5
100
AcDbEntity
  8
0
 62
     2
100
AcDbBlockReference
  2
_OPEN30
 10
208.0412042597162
 20
197.0937471526252
 30
0.0
 41
15.00001403807643
 42
14.99994684111822
 50
360.0
  0
LINE
  5
1AE
330
C5
100
AcDbEntity
  8
0
  6
Continuous
 62
     2
370
    13
100
AcDbLine
 10
111.0412042597162
 20
96.79374715262588
 30
0.0
 11
111.0412042597162
 21
199.5937471526252
 31
0.0
  0
LINE
  5
1AF
330
C5
100
AcDbEntity
  8
0
  6
Continuous
 62
     2
370
    13
100
AcDbLine
 10
208.0412042597162
 20
85.19374715262555
 30
0.0
 11
208.0412042597162
 21
199.5937471526252
 31
0.0
  0
MTEXT
  5
1B0
330
C5
100
AcDbEntity
  8
0
 62
     2
100
AcDbMText
 10
159.5412042597162
 20
202.0937471526252
 30
0.0
 40
20.0
 41
37.5
 46
0.0
 71
     8
 72
     1
  1
\T1.00;C
  7
dcStyle0
 73
     1
 44
1.0
  0
ENDBLK
  5
C7
330
C5
100
AcDbEntity
  8
0
100
AcDbBlockEnd
  0
BLOCK
  5
C9
330
C8
100
AcDbEntity
  8
0
100
AcDbBlockBegin
  2
DC_GROUP_W_MR-5016_S_040_1
 70
     0
 10
0.0
 20
0.0
 30
0.0
  3
DC_GROUP_W_MR-5016_S_040_1
  1
DC_GROUP_W_MR-5016_S_040_1
  0
LINE
  5
1B1
330
C8
100
AcDbEntity
  8
ZUWAKU
  6
Continuous
 62
     7
370
    13
100
AcDbLine
 10
-985.0
 20
-664.3596166976107
 30
0.0
 11
985.0
 21
-664.3596166976107
 31
0.0
  0
LINE
  5
1B2
330
C8
100
AcDbEntity
  8
ZUWAKU
  6
Continuous
 62
     7
370
    13
100
AcDbLine
 10
984.999999999998
 20
675.6403833023893
 30
0.0
 11
-985.0
 21
675.6403833023893
 31
0.0
  0
LINE
  5
1B3
330
C8
100
AcDbEntity
  8
ZUWAKU
  6
Continuous
 62
     7
370
    13
100
AcDbLine
 10
985.0
 20
-664.3596166976107
 30
0.0
 11
984.999999999998
 21
675.6403833023893
 31
0.0
  0
LINE
  5
1B4
330
C8
100
AcDbEntity
  8
ZUWAKU
  6
Continuous
 62
     7
370
    13
100
AcDbLine
 10
-985.0
 20
675.6403833023893
 30
0.0
 11
-985.0
 21
-664.3596166976107
 31
0.0
  0
LINE
  5
1B5
330
C8
100
AcDbEntity
  8
ZUWAKU
  6
Continuous
 62
     4
370
    13
100
AcDbLine
 10
-172.4999999999999
 20
-589.3596166976108
 30
0.0
 11
25.00000000000014
 21
-589.3596166976108
 31
0.0
  0
LINE
  5
1B6
330
C8
100
AcDbEntity
  8
ZUWAKU
  6
Continuous
 62
     4
370
    13
100
AcDbLine
 10
-925.0
 20
-564.3596166976108
 30
0.0
 11
-925.0
 21
-664.3596166976107
 31
0.0
  0
LINE
  5
1B7
330
C8
100
AcDbEntity
  8
ZUWAKU
  6
Continuous
 62
     4
370
    13
100
AcDbLine
 10
-985.0
 20
-614.3596166976108
 30
0.0
 11
985.0
 21
-614.3596166976108
 31
0.0
  0
LINE
  5
1B8
330
C8
100
AcDbEntity
  8
ZUWAKU
  6
Continuous
 62
     4
370
    13
100
AcDbLine
 10
25.00000000000014
 20
-664.3596166976107
 30
0.0
 11
25.00000000000014
 21
-564.3596166976108
 31
0.0
  0
LINE
  5
1B9
330
C8
100
AcDbEntity
  8
ZUWAKU
  6
Continuous
 62
     4
370
    13
100
AcDbLine
 10
-172.4999999999999
 20
-664.3596166976107
 30
0.0
 11
-172.4999999999999
 21
-564.3596166976108
 31
0.0
  0
LINE
  5
1BA
330
C8
100
AcDbEntity
  8
ZUWAKU
  6
Continuous
 62
     4
370
    13
100
AcDbLine
 10
430.0
 20
-564.3596166976108
 30
0.0
 11
430.0
 21
-664.3596166976107
 31
0.0
  0
LINE
  5
1BB
330
C8
100
AcDbEntity
  8
ZUWAKU
  6
Continuous
 62
     4
370
    13
100
AcDbLine
 10
150.0000000000001
 20
-564.3596166976108
 30
0.0
 11
150.0000000000001
 21
-664.3596166976107
 31
0.0
  0
LINE
  5
1BC
330
C8
100
AcDbEntity
  8
ZUWAKU
  6
Continuous
 62
     4
370
    13
100
AcDbLine
 10
-132.4999999999999
 20
-614.3596166976108
 30
0.0
 11
-132.4999999999999
 21
-664.3596166976107
 31
0.0
  0
LINE
  5
1BD
330
C8
100
AcDbEntity
  8
ZUWAKU
  6
Continuous
 62
     4
370
    13
100
AcDbLine
 10
-655.0
 20
-564.3596166976108
 30
0.0
 11
-655.0
 21
-664.3596166976107
 31
0.0
  0
LINE
  5
1BE
330
C8
100
AcDbEntity
  8
ZUWAKU
  6
Continuous
 62
     4
370
    13
100
AcDbLine
 10
985.0
 20
-564.3596166976108
 30
0.0
 11
-985.0
 21
-564.3596166976108
 31
0.0
  0
LINE
  5
1BF
330
C8
100
AcDbEntity
  8
ZUWAKU
  6
Continuous
 62
     4
370
    13
100
AcDbLine
 10
490.0
 20
-564.3596166976108
 30
0.0
 11
490.0
 21
-664.3596166976107
 31
0.0
  0
LINE
  5
1C0
330
C8
100
AcDbEntity
  8
ZUWAKU
  6
Continuous
 62
     3
370
    13
100
AcDbLine
 10
-937.5
 20
-601.8596166976108
 30
0.0
 11
-955.0
 21
-569.3596166976108
 31
0.0
  0
LINE
  5
1C1
330
C8
100
AcDbEntity
  8
ZUWAKU
  6
Continuous
 62
     3
370
    13
100
AcDbLine
 10
-972.5
 20
-601.8596166976108
 30
0.0
 11
-937.5
 21
-601.8596166976108
 31
0.0
  0
LINE
  5
1C2
330
C8
100
AcDbEntity
  8
ZUWAKU
  6
Continuous
 62
     3
370
    13
100
AcDbLine
 10
-955.0
 20
-569.3596166976108
 30
0.0
 11
-972.5
 21
-601.8596166976108
 31
0.0
  0
TEXT
  5
1C4
330
C8
100
AcDbEntity
  8
ZUWAKU
 62
     2
100
AcDbText
 10
439.0
 20
-659.3596166976107
 30
0.0
 40
17.49999999999999
  1
番号
 41
1.527272727272728
  7
dcStyle1
 72
     5
 11
481.0
 21
-659.3596166976107
 31
0.0
100
AcDbText
  0
TEXT
  5
1C5
330
C8
100
AcDbEntity
  8
ZUWAKU
 62
     2
100
AcDbText
 10
-162.9999999999999
 20
-659.3596166976107
 30
0.0
 40
17.49999999999999
  1
度
 41
1.680000000000001
  7
dcStyle1
 72
     5
 11
-141.9999999999999
 21
-659.3596166976107
 31
0.0
100
AcDbText
  0
TEXT
  5
1C6
330
C8
100
AcDbEntity
  8
ZUWAKU
 62
     2
100
AcDbText
 10
-974.1096098491414
 20
-659.3596166976107
 30
0.0
 40
17.5
  1
番号
 41
1.272727272727273
  7
dcStyle1
 72
     5
 11
-939.1096098491414
 21
-659.3596166976107
 31
0.0
100
AcDbText
  0
TEXT
  5
1C7
330
C8
100
AcDbEntity
  8
ZUWAKU
 62
     2
100
AcDbText
 10
42.50000000000014
 20
-599.3596166976108
 30
0.0
 40
20.0
  1
シリーズ名
 41
1.086206896551724
  7
dcStyle1
 72
     5
 11
132.5000000000001
 21
-599.3596166976108
 31
0.0
100
AcDbText
  0
TEXT
  5
1C8
330
C8
100
AcDbEntity
  8
ZUWAKU
 62
     2
100
AcDbText
 10
57.50000000000014
 20
-649.3596166976108
 30
0.0
 40
20.0
  1
機　種
 41
1.235294117647059
  7
dcStyle1
 72
     5
 11
117.5000000000001
 21
-649.3596166976108
 31
0.0
100
AcDbText
  0
TEXT
  5
1C9
330
C8
100
AcDbEntity
  8
ZUWAKU
 62
     2
100
AcDbText
 10
-972.5
 20
-636.8596166976108
 30
0.0
 40
17.5
  1
改訂
 41
1.272727272727273
  7
dcStyle1
 72
     5
 11
-937.5
 21
-636.8596166976108
 31
0.0
100
AcDbText
  0
TEXT
  5
1CA
330
C8
100
AcDbEntity
  8
ZUWAKU
 62
     2
100
AcDbText
 10
-872.25
 20
-648.1096166976108
 30
0.0
 40
17.49999999999999
  1
改　 訂　 記　 事
 41
1.061290322580646
  7
dcStyle1
 72
     5
 11
-707.75
 21
-648.1096166976108
 31
0.0
100
AcDbText
  0
TEXT
  5
1CB
330
C8
100
AcDbEntity
  8
ZUWAKU
 62
     2
100
AcDbText
 10
-162.9999999999999
 20
-636.8596166976108
 30
0.0
 40
17.49999999999999
  1
尺
 41
1.680000000000001
  7
dcStyle1
 72
     5
 11
-141.9999999999999
 21
-636.8596166976108
 31
0.0
100
AcDbText
  0
TEXT
  5
1CC
330
C8
100
AcDbEntity
  8
ZUWAKU
 62
     2
100
AcDbText
 10
-134.9999999999998
 20
-585.6096166976108
 30
0.0
 40
17.49999999999999
  1
年　　月　　日
 41
1.195121951219512
  7
dcStyle1
 72
     5
 11
-12.4999999999999
 21
-585.6096166976108
 31
0.0
100
AcDbText
  0
TEXT
  5
1CD
330
C8
100
AcDbEntity
  8
ZUWAKU
 62
     2
100
AcDbText
 10
439.0
 20
-636.8596166976108
 30
0.0
 40
17.49999999999999
  1
図面
 41
1.527272727272728
  7
dcStyle1
 72
     5
 11
481.0
 21
-636.8596166976108
 31
0.0
100
AcDbText
  0
TEXT
  5
1CE
330
C8
100
AcDbEntity
  8
ZUWAKU
 62
     2
100
AcDbText
 10
440.0
 20
-599.3596166976108
 30
0.0
 40
20.0
  1
図名
 41
1.272727272727273
  7
dcStyle1
 72
     5
 11
480.0
 21
-599.3596166976108
 31
0.0
100
AcDbText
  0
TEXT
  5
1CF
330
C8
100
AcDbEntity
  8
ZUWAKU
 62
     7
100
AcDbText
 10
-513.7499999999999
 20
-601.8596166976108
 30
0.0
 40
25.0
  1
技術情報サービス
 41
1.191489361702128
  7
dcStyle1
 72
     5
 11
-313.7499999999999
 21
-601.8596166976108
 31
0.0
100
AcDbText
  0
TEXT
  5
1D0
330
C8
100
AcDbEntity
  8
ZUWAKU
 62
     7
100
AcDbText
 10
-586.705882352941
 20
-649.3596166976108
 30
0.0
 40
20.0
  1
MARUYASU KIKAI CO.,LTD.
 41
0.8990281013395455
  7
dcStyle1
 72
     5
 11
-240.7941176470587
 21
-649.3596166976108
 31
0.0
100
AcDbText
  0
TEXT
  5
1D1
330
C8
100
AcDbEntity
  8
ZUWAKU
 62
     4
100
AcDbText
 10
962.2827719618455
 20
-675.6403833023893
 30
0.0
 40
10.0
  1
A3
 41
1.2
  7
dcStyle1
 72
     5
 11
982.2827719618455
 21
-675.6403833023893
 31
0.0
100
AcDbText
  0
ENDBLK
  5
CA
330
C8
100
AcDbEntity
  8
0
100
AcDbBlockEnd
  0
BLOCK
  5
CC
330
CB
100
AcDbEntity
  8
0
100
AcDbBlockBegin
  2
DC_GROUP_W_MR-5016_S_040_2
 70
     0
 10
0.0
 20
0.0
 30
0.0
  3
DC_GROUP_W_MR-5016_S_040_2
  1
DC_GROUP_W_MR-5016_S_040_2
  0
POINT
  5
1D2
330
CB
100
AcDbEntity
  8
ZUWAKU
  6
Continuous
 62
     2
100
AcDbPoint
 10
290.0000000000001
 20
-589.3596166976108
 30
0.0
  0
POINT
  5
1D3
330
CB
100
AcDbEntity
  8
ZUWAKU
  6
Continuous
 62
     2
100
AcDbPoint
 10
290.0000000000001
 20
-639.3596166976107
 30
0.0
  0
POINT
  5
1D4
330
CB
100
AcDbEntity
  8
ZUWAKU
  6
Continuous
 62
     2
100
AcDbPoint
 10
970.0
 20
-639.3596166976107
 30
0.0
  0
POINT
  5
1D5
330
CB
100
AcDbEntity
  8
ZUWAKU
  6
Continuous
 62
     2
100
AcDbPoint
 10
737.5
 20
-589.3596166976108
 30
0.0
  0
POINT
  5
1D6
330
CB
100
AcDbEntity
  8
ZUWAKU
  6
Continuous
 62
     2
100
AcDbPoint
 10
-53.74999999999986
 20
-639.3596166976107
 30
0.0
  0
ENDBLK
  5
CD
330
CB
100
AcDbEntity
  8
0
100
AcDbBlockEnd
  0
BLOCK
  5
CF
330
CE
100
AcDbEntity
  8
0
100
AcDbBlockBegin
  2
*D11
 70
     1
 10
0.0
 20
0.0
 30
0.0
  3
*D11
  1
*D11
  0
LINE
  5
1D7
330
CE
100
AcDbEntity
  8
0
  6
Continuous
 62
     2
370
    13
100
AcDbLine
 10
256.0412042597162
 20
317.0251688631321
 30
0.0
 11
256.0412042597162
 21
492.0251688631321
 31
0.0
  0
INSERT
  5
1D8
330
CE
100
AcDbEntity
  8
0
 62
     2
100
AcDbBlockReference
  2
_OPEN30
 10
256.0412042597162
 20
317.0251688631321
 30
0.0
 41
15.00001403807643
 42
14.99994684111822
 50
270.0
  0
INSERT
  5
1D9
330
CE
100
AcDbEntity
  8
0
 62
     2
100
AcDbBlockReference
  2
_OPEN30
 10
256.0412042597162
 20
492.0251688631321
 30
0.0
 41
15.00001403807643
 42
14.99994684111822
 50
90.0
  0
LINE
  5
1DA
330
CE
100
AcDbEntity
  8
0
  6
Continuous
 62
     2
370
    13
100
AcDbLine
 10
203.0412042597162
 20
317.0251688631321
 30
0.0
 11
258.5412042597162
 21
317.0251688631321
 31
0.0
  0
LINE
  5
1DB
330
CE
100
AcDbEntity
  8
0
  6
Continuous
 62
     2
370
    13
100
AcDbLine
 10
203.0412042597162
 20
492.0251688631321
 30
0.0
 11
258.5412042597162
 21
492.0251688631321
 31
0.0
  0
MTEXT
  5
1DC
330
CE
100
AcDbEntity
  8
0
 62
     2
100
AcDbMText
 10
251.0412042597162
 20
404.5251688631321
 30
0.0
 40
20.0
 41
162.5
 46
0.0
 71
     8
 72
     1
  1
\T1.00;機 幅 (175)
  7
dcStyle0
 11
6.123233995736766E-17
 21
1.0
 31
0.0
 73
     1
 44
1.0
  0
ENDBLK
  5
D0
330
CE
100
AcDbEntity
  8
0
100
AcDbBlockEnd
  0
BLOCK
  5
D2
330
D1
100
AcDbEntity
  8
0
100
AcDbBlockBegin
  2
*D12
 70
     1
 10
0.0
 20
0.0
 30
0.0
  3
*D12
  1
*D12
  0
LINE
  5
1DD
330
D1
100
AcDbEntity
  8
0
  6
Continuous
 62
     2
370
    13
100
AcDbLine
 10
-608.9587957402838
 20
-97.80625284737445
 30
0.0
 11
-348.9587957402838
 21
-97.80625284737445
 31
0.0
  0
INSERT
  5
1DE
330
D1
100
AcDbEntity
  8
0
 62
     2
100
AcDbBlockReference
  2
_OPEN30
 10
-608.9587957402838
 20
-97.80625284737445
 30
0.0
 41
15.00001403807643
 42
14.99994684111822
 50
180.0
  0
INSERT
  5
1DF
330
D1
100
AcDbEntity
  8
0
 62
     2
100
AcDbBlockReference
  2
_OPEN30
 10
-348.9587957402838
 20
-97.80625284737445
 30
0.0
 41
15.00001403807643
 42
14.99994684111822
 50
360.0
  0
LINE
  5
1E0
330
D1
100
AcDbEntity
  8
0
  6
Continuous
 62
     2
370
    13
100
AcDbLine
 10
-608.9587957402838
 20
-24.80625284737445
 30
0.0
 11
-608.9587957402838
 21
-100.3062528473745
 31
0.0
  0
LINE
  5
1E1
330
D1
100
AcDbEntity
  8
0
  6
Continuous
 62
     2
370
    13
100
AcDbLine
 10
-348.9587957402838
 20
-24.80625284737445
 30
0.0
 11
-348.9587957402838
 21
-100.3062528473745
 31
0.0
  0
MTEXT
  5
1E2
330
D1
100
AcDbEntity
  8
0
 62
     2
100
AcDbMText
 10
-478.9587957402838
 20
-92.80625284737445
 30
0.0
 40
20.0
 41
37.5
 46
0.0
 71
     8
 72
     1
  1
\T1.00;E
  7
dcStyle0
 73
     1
 44
1.0
  0
ENDBLK
  5
D3
330
D1
100
AcDbEntity
  8
0
100
AcDbBlockEnd
  0
BLOCK
  5
D5
330
D4
100
AcDbEntity
  8
0
100
AcDbBlockBegin
  2
*D13
 70
     1
 10
0.0
 20
0.0
 30
0.0
  3
*D13
  1
*D13
  0
LINE
  5
1E3
330
D4
100
AcDbEntity
  8
0
  6
Continuous
 62
     2
370
    13
100
AcDbLine
 10
-348.9587957402838
 20
-97.80625284737445
 30
0.0
 11
-228.9587957402838
 21
-97.80625284737445
 31
0.0
  0
INSERT
  5
1E4
330
D4
100
AcDbEntity
  8
0
 62
     2
100
AcDbBlockReference
  2
_OPEN30
 10
-348.9587957402838
 20
-97.80625284737445
 30
0.0
 41
15.00001403807643
 42
14.99994684111822
 50
180.0
  0
INSERT
  5
1E5
330
D4
100
AcDbEntity
  8
0
 62
     2
100
AcDbBlockReference
  2
_OPEN30
 10
-228.9587957402838
 20
-97.80625284737445
 30
0.0
 41
15.00001403807643
 42
14.99994684111822
 50
360.0
  0
LINE
  5
1E6
330
D4
100
AcDbEntity
  8
0
  6
Continuous
 62
     2
370
    13
100
AcDbLine
 10
-348.9587957402838
 20
-24.80625284737445
 30
0.0
 11
-348.9587957402838
 21
-100.3062528473745
 31
0.0
  0
LINE
  5
1E7
330
D4
100
AcDbEntity
  8
0
  6
Continuous
 62
     2
370
    13
100
AcDbLine
 10
-228.9587957402838
 20
-24.80625284737445
 30
0.0
 11
-228.9587957402838
 21
-100.3062528473745
 31
0.0
  0
MTEXT
  5
1E8
330
D4
100
AcDbEntity
  8
0
 62
     2
100
AcDbMText
 10
-288.9587957402838
 20
-92.80625284737445
 30
0.0
 40
20.0
 41
62.5
 46
0.0
 71
     8
 72
     1
  1
\T1.00;120
  7
dcStyle0
 73
     1
 44
1.0
  0
ENDBLK
  5
D6
330
D4
100
AcDbEntity
  8
0
100
AcDbBlockEnd
  0
BLOCK
  5
D8
330
D7
100
AcDbEntity
  8
0
100
AcDbBlockBegin
  2
*D14
 70
     1
 10
0.0
 20
0.0
 30
0.0
  3
*D14
  1
*D14
  0
LINE
  5
1E9
330
D7
100
AcDbEntity
  8
0
  6
Continuous
 62
     2
370
    13
100
AcDbLine
 10
-228.9587957402838
 20
-97.80625284737445
 30
0.0
 11
31.04120425971615
 21
-97.80625284737445
 31
0.0
  0
INSERT
  5
1EA
330
D7
100
AcDbEntity
  8
0
 62
     2
100
AcDbBlockReference
  2
_OPEN30
 10
-228.9587957402838
 20
-97.80625284737445
 30
0.0
 41
15.00001403807643
 42
14.99994684111822
 50
180.0
  0
INSERT
  5
1EB
330
D7
100
AcDbEntity
  8
0
 62
     2
100
AcDbBlockReference
  2
_OPEN30
 10
31.04120425971615
 20
-97.80625284737445
 30
0.0
 41
15.00001403807643
 42
14.99994684111822
 50
360.0
  0
LINE
  5
1EC
330
D7
100
AcDbEntity
  8
0
  6
Continuous
 62
     2
370
    13
100
AcDbLine
 10
-228.9587957402838
 20
-24.80625284737445
 30
0.0
 11
-228.9587957402838
 21
-100.3062528473745
 31
0.0
  0
LINE
  5
1ED
330
D7
100
AcDbEntity
  8
0
  6
Continuous
 62
     2
370
    13
100
AcDbLine
 10
31.04120425971615
 20
-24.80625284737445
 30
0.0
 11
31.04120425971615
 21
-100.3062528473745
 31
0.0
  0
MTEXT
  5
1EE
330
D7
100
AcDbEntity
  8
0
 62
     2
100
AcDbMText
 10
-98.95879574028382
 20
-92.80625284737445
 30
0.0
 40
20.0
 41
37.5
 46
0.0
 71
     8
 72
     1
  1
\T1.00;E
  7
dcStyle0
 73
     1
 44
1.0
  0
ENDBLK
  5
D9
330
D7
100
AcDbEntity
  8
0
100
AcDbBlockEnd
  0
BLOCK
  5
DB
330
DA
100
AcDbEntity
  8
0
100
AcDbBlockBegin
  2
*D15
 70
     1
 10
0.0
 20
0.0
 30
0.0
  3
*D15
  1
*D15
  0
LINE
  5
1EF
330
DA
100
AcDbEntity
  8
0
  6
Continuous
 62
     2
370
    13
100
AcDbLine
 10
256.0412042597161
 20
-9.806252847374452
 30
0.0
 11
256.0412042597161
 21
30.19374715262555
 31
0.0
  0
INSERT
  5
1F0
330
DA
100
AcDbEntity
  8
0
 62
     2
100
AcDbBlockReference
  2
_OPEN30
 10
256.0412042597161
 20
-9.806252847374452
 30
0.0
 41
15.00001403807643
 42
14.99994684111822
 50
270.0
  0
INSERT
  5
1F1
330
DA
100
AcDbEntity
  8
0
 62
     2
100
AcDbBlockReference
  2
_OPEN30
 10
256.0412042597161
 20
30.19374715262555
 30
0.0
 41
15.00001403807643
 42
14.99994684111822
 50
90.0
  0
LINE
  5
1F2
330
DA
100
AcDbEntity
  8
0
  6
Continuous
 62
     2
370
    13
100
AcDbLine
 10
213.0412042597162
 20
-9.806252847374452
 30
0.0
 11
258.5412042597161
 21
-9.806252847374452
 31
0.0
  0
LINE
  5
1F3
330
DA
100
AcDbEntity
  8
0
  6
Continuous
 62
     2
370
    13
100
AcDbLine
 10
211.0412042597162
 20
30.19374715262555
 30
0.0
 11
258.5412042597161
 21
30.19374715262555
 31
0.0
  0
MTEXT
  5
1F4
330
DA
100
AcDbEntity
  8
0
 62
     2
100
AcDbMText
 10
251.0412042597161
 20
10.19374715262555
 30
0.0
 40
20.0
 41
50.0
 46
0.0
 71
     8
 72
     1
  1
\T1.00;40
  7
dcStyle0
 11
6.123233995736766E-17
 21
1.0
 31
0.0
 73
     1
 44
1.0
  0
ENDBLK
  5
DC
330
DA
100
AcDbEntity
  8
0
100
AcDbBlockEnd
  0
BLOCK
  5
DE
330
DD
100
AcDbEntity
  8
0
100
AcDbBlockBegin
  2
*D16
 70
     1
 10
0.0
 20
0.0
 30
0.0
  3
*D16
  1
*D16
  0
LINE
  5
1F5
330
DD
100
AcDbEntity
  8
0
  6
Continuous
 62
     2
370
    13
100
AcDbLine
 10
256.0412042597161
 20
-60.10625284737461
 30
0.0
 11
198.8083163304548
 21
26.02924348616389
 31
0.0
  0
INSERT
  5
1F6
330
DD
100
AcDbEntity
  8
0
 62
     2
100
AcDbBlockReference
  2
_OPEN30
 10
198.8083163304548
 20
26.02924348616389
 30
0.0
 41
15.00001403807643
 42
14.99994684111822
 50
123.6021231905733
  0
LINE
  5
1F7
330
DD
100
AcDbEntity
  8
0
  6
Continuous
 62
     2
370
    13
100
AcDbLine
 10
316.4162042597161
 20
-60.10625284737461
 30
0.0
 11
256.0412042597161
 21
-60.10625284737461
 31
0.0
  0
MTEXT
  5
1F8
330
DD
100
AcDbEntity
  8
0
 62
     2
100
AcDbMText
 10
256.4162042597161
 20
-55.10625284737461
 30
0.0
 40
20.0
 41
100.0
 46
0.0
 71
     7
 72
     1
  1
\T1.00;4-φ10
  7
dcStyle0
 73
     1
 44
1.0
  0
ENDBLK
  5
DF
330
DD
100
AcDbEntity
  8
0
100
AcDbBlockEnd
  0
BLOCK
  5
E1
330
E0
100
AcDbEntity
  8
0
100
AcDbBlockBegin
  2
DC_IMAGEDIMGROUP_1
 70
     0
 10
0.0
 20
0.0
 30
0.0
  3
DC_IMAGEDIMGROUP_1
  1
DC_IMAGEDIMGROUP_1
  0
LINE
  5
1F9
330
E0
100
AcDbEntity
  8
0
  6
Continuous
 62
     2
370
    13
100
AcDbLine
 10
208.0412042597162
 20
-14.80625284737445
 30
0.0
 11
208.0412042597162
 21
-62.60625284737461
 31
0.0
  0
LINE
  5
1FA
330
E0
100
AcDbEntity
  8
0
  6
Continuous
 62
     2
370
    13
100
AcDbLine
 10
196.0412042597162
 20
15.19374715262555
 30
0.0
 11
196.0412042597162
 21
-62.60625284737461
 31
0.0
  0
LINE
  5
1FB
330
E0
100
AcDbEntity
  8
0
  6
Continuous
 62
     2
370
    13
100
AcDbLine
 10
196.0412042597162
 20
-60.10625284737461
 30
0.0
 11
208.0412042597162
 21
-60.10625284737461
 31
0.0
  0
LINE
  5
1FC
330
E0
100
AcDbEntity
  8
0
  6
Continuous
 62
     2
370
    13
100
AcDbLine
 10
168.8362042597162
 20
-60.10625284737461
 30
0.0
 11
196.0412042597162
 21
-60.10625284737461
 31
0.0
  0
INSERT
  5
1FD
330
E0
100
AcDbEntity
  8
0
 62
     2
100
AcDbBlockReference
  2
_OPEN30
 10
196.0412042597162
 20
-60.10625284737461
 30
0.0
 41
15.00001403807643
 42
14.99994684111822
 50
360.0
  0
LINE
  5
1FE
330
E0
100
AcDbEntity
  8
0
  6
Continuous
 62
     2
370
    13
100
AcDbLine
 10
225.5412042597162
 20
-60.10625284737461
 30
0.0
 11
208.0412042597162
 21
-60.10625284737461
 31
0.0
  0
INSERT
  5
1FF
330
E0
100
AcDbEntity
  8
0
 62
     2
100
AcDbBlockReference
  2
_OPEN30
 10
208.0412042597162
 20
-60.10625284737461
 30
0.0
 41
15.00001403807643
 42
14.99994684111822
 50
180.0
  0
MTEXT
  5
200
330
E0
100
AcDbEntity
  8
0
 62
     2
100
AcDbMText
 10
188.8362042597162
 20
-55.10625284737461
 30
0.0
 40
20.0
 41
50.0
 46
0.0
 71
     9
 72
     1
  1
\T1.00;12
  7
dcStyle0
 73
     1
 44
1.0
  0
ENDBLK
  5
E2
330
E0
100
AcDbEntity
  8
0
100
AcDbBlockEnd
  0
BLOCK
  5
E4
330
E3
100
AcDbEntity
  8
0
100
AcDbBlockBegin
  2
DC_GROUP_W_MR-5016_S_040_3
 70
     0
 10
0.0
 20
0.0
 30
0.0
  3
DC_GROUP_W_MR-5016_S_040_3
  1
DC_GROUP_W_MR-5016_S_040_3
  0
TEXT
  5
201
330
E3
100
AcDbEntity
  8
0
 62
     2
100
AcDbText
 10
658.8949214179211
 20
-140.0172157175962
 30
0.0
 40
20.0
  1
断面図
 41
0.6877579092159559
  7
dcStyle0
 72
     5
 11
718.8949214179211
 21
-140.0172157175962
 31
0.0
100
AcDbText
  0
LINE
  5
202
330
E3
100
AcDbEntity
  8
0
  6
Continuous
 62
     2
370
    13
100
AcDbLine
 10
656.3949214179211
 20
-145.0172157175962
 30
0.0
 11
721.3949214179211
 21
-145.0172157175962
 31
0.0
  0
ENDBLK
  5
E5
330
E3
100
AcDbEntity
  8
0
100
AcDbBlockEnd
  0
BLOCK
  5
E7
330
E6
100
AcDbEntity
  8
0
100
AcDbBlockBegin
  2
DC_IMAGEDIMGROUP_2
 70
     0
 10
0.0
 20
0.0
 30
0.0
  3
DC_IMAGEDIMGROUP_2
  1
DC_IMAGEDIMGROUP_2
  0
LINE
  5
203
330
E6
100
AcDbEntity
  8
0
  6
Continuous
 62
     2
370
    13
100
AcDbLine
 10
627.7376309191867
 20
-0.5062528473742702
 30
0.0
 11
627.7376309191867
 21
17.55051020186735
 31
0.0
  0
LINE
  5
204
330
E6
100
AcDbEntity
  8
0
  6
Continuous
 62
     2
370
    13
100
AcDbLine
 10
630.0376309191869
 20
-0.5062528473742702
 30
0.0
 11
630.0376309191869
 21
17.55051020186735
 31
0.0
  0
LINE
  5
205
330
E6
100
AcDbEntity
  8
0
  6
Continuous
 62
     2
370
    13
100
AcDbLine
 10
627.7376309191867
 20
15.05051020186735
 30
0.0
 11
630.0376309191869
 21
15.05051020186735
 31
0.0
  0
LINE
  5
206
330
E6
100
AcDbEntity
  8
0
  6
Continuous
 62
     2
370
    13
100
AcDbLine
 10
590.5326309191867
 20
15.05051020186736
 30
0.0
 11
627.7376309191867
 21
15.05051020186735
 31
0.0
  0
INSERT
  5
207
330
E6
100
AcDbEntity
  8
0
 62
     2
100
AcDbBlockReference
  2
_OPEN30
 10
627.7376309191867
 20
15.05051020186735
 30
0.0
 41
15.00001403807643
 42
14.99994684111822
 50
360.0
  0
LINE
  5
208
330
E6
100
AcDbEntity
  8
0
  6
Continuous
 62
     2
370
    13
100
AcDbLine
 10
647.5376309191869
 20
15.05051020186735
 30
0.0
 11
630.0376309191869
 21
15.05051020186735
 31
0.0
  0
INSERT
  5
209
330
E6
100
AcDbEntity
  8
0
 62
     2
100
AcDbBlockReference
  2
_OPEN30
 10
630.0376309191869
 20
15.05051020186735
 30
0.0
 41
15.00001403807643
 42
14.99994684111822
 50
180.0
  0
MTEXT
  5
20A
330
E6
100
AcDbEntity
  8
0
 62
     2
100
AcDbMText
 10
620.5326309191867
 20
20.05051020186735
 30
0.0
 40
20.0
 41
62.5
 46
0.0
 71
     9
 72
     1
  1
\T1.00;2.3
  7
dcStyle0
 73
     1
 44
1.0
  0
ENDBLK
  5
E8
330
E6
100
AcDbEntity
  8
0
100
AcDbBlockEnd
  0
BLOCK
  5
EA
330
E9
100
AcDbEntity
  8
0
100
AcDbBlockBegin
  2
*D20
 70
     1
 10
0.0
 20
0.0
 30
0.0
  3
*D20
  1
*D20
  0
LINE
  5
20B
330
E9
100
AcDbEntity
  8
0
  6
Continuous
 62
     2
370
    13
100
AcDbLine
 10
630.0376309191867
 20
217.0937471526252
 30
0.0
 11
745.0376309191871
 21
217.0937471526252
 31
0.0
  0
INSERT
  5
20C
330
E9
100
AcDbEntity
  8
0
 62
     2
100
AcDbBlockReference
  2
_OPEN30
 10
630.0376309191867
 20
217.0937471526252
 30
0.0
 41
15.00001403807643
 42
14.99994684111822
 50
180.0
  0
INSERT
  5
20D
330
E9
100
AcDbEntity
  8
0
 62
     2
100
AcDbBlockReference
  2
_OPEN30
 10
745.0376309191871
 20
217.0937471526252
 30
0.0
 41
15.00001403807643
 42
14.99994684111822
 50
360.0
  0
LINE
  5
20E
330
E9
100
AcDbEntity
  8
0
  6
Continuous
 62
     2
370
    13
100
AcDbLine
 10
630.0376309191867
 20
80.89374715262537
 30
0.0
 11
630.0376309191867
 21
219.5937471526252
 31
0.0
  0
LINE
  5
20F
330
E9
100
AcDbEntity
  8
0
  6
Continuous
 62
     2
370
    13
100
AcDbLine
 10
745.0376309191871
 20
80.89374715262537
 30
0.0
 11
745.0376309191871
 21
219.5937471526252
 31
0.0
  0
MTEXT
  5
210
330
E9
100
AcDbEntity
  8
0
 62
     2
100
AcDbMText
 10
687.5376309191869
 20
222.0937471526252
 30
0.0
 40
20.0
 41
126.25
 46
0.0
 71
     8
 72
     1
  1
\T1.00;呼び幅+15
  7
dcStyle0
 73
     1
 44
1.0
  0
ENDBLK
  5
EB
330
E9
100
AcDbEntity
  8
0
100
AcDbBlockEnd
  0
BLOCK
  5
ED
330
EC
100
AcDbEntity
  8
0
100
AcDbBlockBegin
  2
*D21
 70
     1
 10
0.0
 20
0.0
 30
0.0
  3
*D21
  1
*D21
  0
LINE
  5
211
330
EC
100
AcDbEntity
  8
0
  6
Continuous
 62
     2
370
    13
100
AcDbLine
 10
600.0376309191869
 20
267.0937471526252
 30
0.0
 11
775.0376309191869
 21
267.0937471526252
 31
0.0
  0
INSERT
  5
212
330
EC
100
AcDbEntity
  8
0
 62
     2
100
AcDbBlockReference
  2
_OPEN30
 10
600.0376309191869
 20
267.0937471526252
 30
0.0
 41
15.00001403807643
 42
14.99994684111822
 50
180.0
  0
INSERT
  5
213
330
EC
100
AcDbEntity
  8
0
 62
     2
100
AcDbBlockReference
  2
_OPEN30
 10
775.0376309191869
 20
267.0937471526252
 30
0.0
 41
15.00001403807643
 42
14.99994684111822
 50
360.0
  0
LINE
  5
214
330
EC
100
AcDbEntity
  8
0
  6
Continuous
 62
     2
370
    13
100
AcDbLine
 10
600.0376309191869
 20
85.19374715262555
 30
0.0
 11
600.0376309191869
 21
269.5937471526252
 31
0.0
  0
LINE
  5
215
330
EC
100
AcDbEntity
  8
0
  6
Continuous
 62
     2
370
    13
100
AcDbLine
 10
775.0376309191869
 20
85.19374715262555
 30
0.0
 11
775.0376309191869
 21
269.5937471526252
 31
0.0
  0
MTEXT
  5
216
330
EC
100
AcDbEntity
  8
0
 62
     2
100
AcDbMText
 10
687.5376309191869
 20
272.0937471526252
 30
0.0
 40
20.0
 41
100.0
 46
0.0
 71
     8
 72
     1
  1
\T1.00;機　幅
  7
dcStyle0
 73
     1
 44
1.0
  0
ENDBLK
  5
EE
330
EC
100
AcDbEntity
  8
0
100
AcDbBlockEnd
  0
BLOCK
  5
F0
330
EF
100
AcDbEntity
  8
0
100
AcDbBlockBegin
  2
*D22
 70
     1
 10
0.0
 20
0.0
 30
0.0
  3
*D22
  1
*D22
  0
LINE
  5
217
330
EF
100
AcDbEntity
  8
0
  6
Continuous
 62
     2
370
    13
100
AcDbLine
 10
600.0376309191869
 20
-97.80625284737442
 30
0.0
 11
612.5376319191868
 21
-97.80625284737442
 31
0.0
  0
LINE
  5
218
330
EF
100
AcDbEntity
  8
0
  6
Continuous
 62
     2
370
    13
100
AcDbLine
 10
600.0376309191869
 20
-14.80625284737445
 30
0.0
 11
600.0376309191869
 21
-100.3062528473744
 31
0.0
  0
LINE
  5
219
330
EF
100
AcDbEntity
  8
0
  6
Continuous
 62
     2
370
    13
100
AcDbLine
 10
612.5376319191868
 20
-24.70040884737475
 30
0.0
 11
612.5376319191868
 21
-100.3062528473744
 31
0.0
  0
LINE
  5
21A
330
EF
100
AcDbEntity
  8
0
  6
Continuous
 62
     2
370
    13
100
AcDbLine
 10
552.8326309191868
 20
-97.80625284737442
 30
0.0
 11
600.0376309191869
 21
-97.80625284737442
 31
0.0
  0
INSERT
  5
21B
330
EF
100
AcDbEntity
  8
0
 62
     2
100
AcDbBlockReference
  2
_OPEN30
 10
600.0376309191869
 20
-97.80625284737442
 30
0.0
 41
15.00001403807643
 42
14.99994684111822
 50
360.0
  0
MTEXT
  5
21C
330
EF
100
AcDbEntity
  8
0
 62
     2
100
AcDbMText
 10
592.8326309191868
 20
-92.80625284737442
 30
0.0
 40
20.0
 41
75.0
 46
0.0
 71
     9
 72
     1
  1
\T1.00;12.5
  7
dcStyle0
 73
     1
 44
1.0
  0
ENDBLK
  5
F1
330
EF
100
AcDbEntity
  8
0
100
AcDbBlockEnd
  0
BLOCK
  5
F3
330
F2
100
AcDbEntity
  8
0
100
AcDbBlockBegin
  2
*D23
 70
     1
 10
0.0
 20
0.0
 30
0.0
  3
*D23
  1
*D23
  0
LINE
  5
21D
330
F2
100
AcDbEntity
  8
0
  6
Continuous
 62
     2
370
    13
100
AcDbLine
 10
612.5376319191868
 20
-97.80625284737442
 30
0.0
 11
762.5376319191868
 21
-97.80625284737442
 31
0.0
  0
INSERT
  5
21E
330
F2
100
AcDbEntity
  8
0
 62
     2
100
AcDbBlockReference
  2
_OPEN30
 10
612.5376319191868
 20
-97.80625284737442
 30
0.0
 41
15.00001403807643
 42
14.99994684111822
 50
180.0
  0
INSERT
  5
21F
330
F2
100
AcDbEntity
  8
0
 62
     2
100
AcDbBlockReference
  2
_OPEN30
 10
762.5376319191868
 20
-97.80625284737442
 30
0.0
 41
15.00001403807643
 42
14.99994684111822
 50
360.0
  0
LINE
  5
220
330
F2
100
AcDbEntity
  8
0
  6
Continuous
 62
     2
370
    13
100
AcDbLine
 10
612.5376319191868
 20
-24.70040884737475
 30
0.0
 11
612.5376319191868
 21
-100.3062528473744
 31
0.0
  0
LINE
  5
221
330
F2
100
AcDbEntity
  8
0
  6
Continuous
 62
     2
370
    13
100
AcDbLine
 10
762.5376319191868
 20
-24.80625284737445
 30
0.0
 11
762.5376319191868
 21
-100.3062528473744
 31
0.0
  0
MTEXT
  5
222
330
F2
100
AcDbEntity
  8
0
 62
     2
100
AcDbMText
 10
687.5376319191868
 20
-92.80625284737442
 30
0.0
 40
20.0
 41
137.5
 46
0.0
 71
     8
 72
     1
  1
\T1.00;呼び幅+50
  7
dcStyle0
 73
     1
 44
1.0
  0
ENDBLK
  5
F4
330
F2
100
AcDbEntity
  8
0
100
AcDbBlockEnd
  0
BLOCK
  5
F6
330
F5
100
AcDbEntity
  8
0
100
AcDbBlockBegin
  2
*D24
 70
     1
 10
0.0
 20
0.0
 30
0.0
  3
*D24
  1
*D24
  0
LINE
  5
223
330
F5
100
AcDbEntity
  8
0
  6
Continuous
 62
     2
370
    13
100
AcDbLine
 10
762.5376319191868
 20
-97.80625284737442
 30
0.0
 11
775.0376309191869
 21
-97.80625284737442
 31
0.0
  0
LINE
  5
224
330
F5
100
AcDbEntity
  8
0
  6
Continuous
 62
     2
370
    13
100
AcDbLine
 10
762.5376319191868
 20
-24.80625284737445
 30
0.0
 11
762.5376319191868
 21
-100.3062528473744
 31
0.0
  0
LINE
  5
225
330
F5
100
AcDbEntity
  8
0
  6
Continuous
 62
     2
370
    13
100
AcDbLine
 10
775.0376309191869
 20
-14.80625284737445
 30
0.0
 11
775.0376309191869
 21
-100.3062528473744
 31
0.0
  0
LINE
  5
226
330
F5
100
AcDbEntity
  8
0
  6
Continuous
 62
     2
370
    13
100
AcDbLine
 10
822.2426309191869
 20
-97.80625284737442
 30
0.0
 11
775.0376309191869
 21
-97.80625284737442
 31
0.0
  0
INSERT
  5
227
330
F5
100
AcDbEntity
  8
0
 62
     2
100
AcDbBlockReference
  2
_OPEN30
 10
775.0376309191869
 20
-97.80625284737442
 30
0.0
 41
15.00001403807643
 42
14.99994684111822
 50
180.0
  0
MTEXT
  5
228
330
F5
100
AcDbEntity
  8
0
 62
     2
100
AcDbMText
 10
782.2426309191869
 20
-92.80625284737442
 30
0.0
 40
20.0
 41
75.0
 46
0.0
 71
     7
 72
     1
  1
\T1.00;12.5
  7
dcStyle0
 73
     1
 44
1.0
  0
ENDBLK
  5
F7
330
F5
100
AcDbEntity
  8
0
100
AcDbBlockEnd
  0
BLOCK
  5
F9
330
F8
100
AcDbEntity
  8
0
100
AcDbBlockBegin
  2
*D25
 70
     1
 10
0.0
 20
0.0
 30
0.0
  3
*D25
  1
*D25
  0
LINE
  5
229
330
F8
100
AcDbEntity
  8
0
  6
Continuous
 62
     2
370
    13
100
AcDbLine
 10
532.0376309191869
 20
-9.806252847374452
 30
0.0
 11
532.0376309191869
 21
80.19374715262555
 31
0.0
  0
INSERT
  5
22A
330
F8
100
AcDbEntity
  8
0
 62
     2
100
AcDbBlockReference
  2
_OPEN30
 10
532.0376309191869
 20
-9.806252847374452
 30
0.0
 41
15.00001403807643
 42
14.99994684111822
 50
270.0
  0
INSERT
  5
22B
330
F8
100
AcDbEntity
  8
0
 62
     2
100
AcDbBlockReference
  2
_OPEN30
 10
532.0376309191869
 20
80.19374715262555
 30
0.0
 41
15.00001403807643
 42
14.99994684111822
 50
90.0
  0
LINE
  5
22C
330
F8
100
AcDbEntity
  8
0
  6
Continuous
 62
     2
370
    13
100
AcDbLine
 10
595.0376309191869
 20
-9.806252847374452
 30
0.0
 11
529.5376309191869
 21
-9.806252847374452
 31
0.0
  0
LINE
  5
22D
330
F8
100
AcDbEntity
  8
0
  6
Continuous
 62
     2
370
    13
100
AcDbLine
 10
595.0376309191869
 20
80.19374715262555
 30
0.0
 11
529.5376309191869
 21
80.19374715262555
 31
0.0
  0
MTEXT
  5
22E
330
F8
100
AcDbEntity
  8
0
 62
     2
100
AcDbMText
 10
527.0376309191869
 20
35.19374715262555
 30
0.0
 40
20.0
 41
50.0
 46
0.0
 71
     8
 72
     1
  1
\T1.00;90
  7
dcStyle0
 11
6.123233995736766E-17
 21
1.0
 31
0.0
 73
     1
 44
1.0
  0
ENDBLK
  5
FA
330
F8
100
AcDbEntity
  8
0
100
AcDbBlockEnd
  0
BLOCK
  5
FC
330
FB
100
AcDbEntity
  8
0
100
AcDbBlockBegin
  2
*D26
 70
     1
 10
0.0
 20
0.0
 30
0.0
  3
*D26
  1
*D26
  0
LINE
  5
22F
330
FB
100
AcDbEntity
  8
0
  6
Continuous
 62
     2
370
    13
100
AcDbLine
 10
600.0376309191869
 20
217.0937471526252
 30
0.0
 11
630.0376309191867
 21
217.0937471526252
 31
0.0
  0
LINE
  5
230
330
FB
100
AcDbEntity
  8
0
  6
Continuous
 62
     2
370
    13
100
AcDbLine
 10
600.0376309191869
 20
85.19374715262555
 30
0.0
 11
600.0376309191869
 21
219.5937471526252
 31
0.0
  0
LINE
  5
231
330
FB
100
AcDbEntity
  8
0
  6
Continuous
 62
     2
370
    13
100
AcDbLine
 10
630.0376309191867
 20
80.89374715262537
 30
0.0
 11
630.0376309191867
 21
219.5937471526252
 31
0.0
  0
LINE
  5
232
330
FB
100
AcDbEntity
  8
0
  6
Continuous
 62
     2
370
    13
100
AcDbLine
 10
582.5376309191869
 20
217.0937471526252
 30
0.0
 11
600.0376309191869
 21
217.0937471526252
 31
0.0
  0
INSERT
  5
233
330
FB
100
AcDbEntity
  8
0
 62
     2
100
AcDbBlockReference
  2
_OPEN30
 10
600.0376309191869
 20
217.0937471526252
 30
0.0
 41
15.00001403807643
 42
14.99994684111822
 50
360.0
  0
LINE
  5
234
330
FB
100
AcDbEntity
  8
0
  6
Continuous
 62
     2
370
    13
100
AcDbLine
 10
647.5376309191867
 20
217.0937471526252
 30
0.0
 11
630.0376309191867
 21
217.0937471526252
 31
0.0
  0
INSERT
  5
235
330
FB
100
AcDbEntity
  8
0
 62
     2
100
AcDbBlockReference
  2
_OPEN30
 10
630.0376309191867
 20
217.0937471526252
 30
0.0
 41
15.00001403807643
 42
14.99994684111822
 50
180.0
  0
MTEXT
  5
236
330
FB
100
AcDbEntity
  8
0
 62
     2
100
AcDbMText
 10
615.0376309191868
 20
222.0937471526252
 30
0.0
 40
20.0
 41
50.0
 46
0.0
 71
     8
 72
     1
  1
\T1.00;30
  7
dcStyle0
 73
     1
 44
1.0
  0
ENDBLK
  5
FD
330
FB
100
AcDbEntity
  8
0
100
AcDbBlockEnd
  0
BLOCK
  5
FF
330
FE
100
AcDbEntity
  8
0
100
AcDbBlockBegin
  2
*D27
 70
     1
 10
0.0
 20
0.0
 30
0.0
  3
*D27
  1
*D27
  0
LINE
  5
237
330
FE
100
AcDbEntity
  8
0
  6
Continuous
 62
     2
370
    13
100
AcDbLine
 10
745.0376309191871
 20
217.0937471526252
 30
0.0
 11
775.0376309191869
 21
217.0937471526252
 31
0.0
  0
LINE
  5
238
330
FE
100
AcDbEntity
  8
0
  6
Continuous
 62
     2
370
    13
100
AcDbLine
 10
745.0376309191871
 20
80.89374715262537
 30
0.0
 11
745.0376309191871
 21
219.5937471526252
 31
0.0
  0
LINE
  5
239
330
FE
100
AcDbEntity
  8
0
  6
Continuous
 62
     2
370
    13
100
AcDbLine
 10
775.0376309191869
 20
85.19374715262555
 30
0.0
 11
775.0376309191869
 21
219.5937471526252
 31
0.0
  0
LINE
  5
23A
330
FE
100
AcDbEntity
  8
0
  6
Continuous
 62
     2
370
    13
100
AcDbLine
 10
727.5376309191871
 20
217.0937471526252
 30
0.0
 11
745.0376309191871
 21
217.0937471526252
 31
0.0
  0
INSERT
  5
23B
330
FE
100
AcDbEntity
  8
0
 62
     2
100
AcDbBlockReference
  2
_OPEN30
 10
745.0376309191871
 20
217.0937471526252
 30
0.0
 41
15.00001403807643
 42
14.99994684111822
 50
360.0
  0
LINE
  5
23C
330
FE
100
AcDbEntity
  8
0
  6
Continuous
 62
     2
370
    13
100
AcDbLine
 10
792.5376309191869
 20
217.0937471526252
 30
0.0
 11
775.0376309191869
 21
217.0937471526252
 31
0.0
  0
INSERT
  5
23D
330
FE
100
AcDbEntity
  8
0
 62
     2
100
AcDbBlockReference
  2
_OPEN30
 10
775.0376309191869
 20
217.0937471526252
 30
0.0
 41
15.00001403807643
 42
14.99994684111822
 50
180.0
  0
MTEXT
  5
23E
330
FE
100
AcDbEntity
  8
0
 62
     2
100
AcDbMText
 10
760.037630919187
 20
222.0937471526252
 30
0.0
 40
20.0
 41
50.0
 46
0.0
 71
     8
 72
     1
  1
\T1.00;30
  7
dcStyle0
 73
     1
 44
1.0
  0
ENDBLK
  5
100
330
FE
100
AcDbEntity
  8
0
100
AcDbBlockEnd
  0
BLOCK
  5
102
330
101
100
AcDbEntity
  8
0
100
AcDbBlockBegin
  2
DC_GROUP_W_MR-5016_S_040_4
 70
     0
 10
0.0
 20
0.0
 30
0.0
  3
DC_GROUP_W_MR-5016_S_040_4
  1
DC_GROUP_W_MR-5016_S_040_4
  0
LINE
  5
23F
330
101
100
AcDbEntity
  8
2
  6
Continuous
 62
     7
370
    18
100
AcDbLine
 10
759.7376309191868
 20
55.69374715262555
 30
0.0
 11
759.7376309191868
 21
67.69374715262555
 31
0.0
  0
LINE
  5
240
330
101
100
AcDbEntity
  8
2
  6
Continuous
 62
     7
370
    18
100
AcDbLine
 10
747.3376309191872
 20
67.69374715262555
 30
0.0
 11
759.7376309191868
 21
67.69374715262555
 31
0.0
  0
LINE
  5
241
330
101
100
AcDbEntity
  8
2
  6
Continuous
 62
     7
370
    18
100
AcDbLine
 10
759.7376309191868
 20
55.69374715262555
 30
0.0
 11
747.3376309191872
 21
55.69374715262555
 31
0.0
  0
LINE
  5
242
330
101
100
AcDbEntity
  8
2
  6
Continuous
 62
     7
370
    18
100
AcDbLine
 10
616.7376309191868
 20
55.69374715262555
 30
0.0
 11
616.7376309191868
 21
65.69374715262555
 31
0.0
  0
ARC
  5
243
330
101
100
AcDbEntity
  8
2
  6
Continuous
 62
     7
370
    18
100
AcDbCircle
 10
623.2376309191868
 20
54.69374715262555
 30
0.0
 40
1.0
100
AcDbArc
 50
179.9999980000102
 51
0.0
  0
LINE
  5
244
330
101
100
AcDbEntity
  8
2
  6
Continuous
 62
     7
370
    18
100
AcDbLine
 10
622.2376309191868
 20
61.39374715262537
 30
0.0
 11
622.2376309191868
 21
54.69374715262555
 31
0.0
  0
LINE
  5
245
330
101
100
AcDbEntity
  8
2
  6
Continuous
 62
     7
370
    18
100
AcDbLine
 10
624.2376309191868
 20
61.39374715262537
 30
0.0
 11
624.2376309191868
 21
54.69374715262555
 31
0.0
  0
ARC
  5
246
330
101
100
AcDbEntity
  8
2
  6
Continuous
 62
     7
370
    18
100
AcDbCircle
 10
623.2376309191868
 20
61.39374715262537
 30
0.0
 40
1.0
100
AcDbArc
 50
0.0
 51
180.0000139999806
  0
ARC
  5
247
330
101
100
AcDbEntity
  8
2
  6
Continuous
 62
     7
370
    18
100
AcDbCircle
 10
623.2376309191868
 20
61.69374715262555
 30
0.0
 40
1.3
100
AcDbArc
 50
320.2848630000091
 51
219.7151369999908
  0
LINE
  5
248
330
101
100
AcDbEntity
  8
2
  6
Continuous
 62
     7
370
    18
100
AcDbLine
 10
616.7376309191868
 20
65.69374715262555
 30
0.0
 11
627.7376309191868
 21
65.69374715262555
 31
0.0
  0
LINE
  5
249
330
101
100
AcDbEntity
  8
2
  6
Continuous
 62
     7
370
    18
100
AcDbLine
 10
627.7376309191868
 20
55.69374715262555
 30
0.0
 11
624.2376309191868
 21
55.69374715262555
 31
0.0
  0
LINE
  5
24A
330
101
100
AcDbEntity
  8
2
  6
Continuous
 62
     7
370
    18
100
AcDbLine
 10
622.2376309191868
 20
55.69374715262555
 30
0.0
 11
616.7376309191868
 21
55.69374715262555
 31
0.0
  0
ARC
  5
24B
330
101
100
AcDbEntity
  8
2
  6
Continuous
 62
     7
370
    18
100
AcDbCircle
 10
738.2376309191868
 20
43.99374715262573
 30
0.0
 40
0.8
100
AcDbArc
 50
292.0243130000135
 51
0.0
  0
ARC
  5
24C
330
101
100
AcDbEntity
  8
2
  6
Continuous
 62
     7
370
    18
100
AcDbCircle
 10
734.3876309191869
 20
40.44374715262555
 30
0.0
 40
4.15
100
AcDbArc
 50
270.0
 51
0.0
  0
LINE
  5
24D
330
101
100
AcDbEntity
  8
2
  6
Continuous
 62
     7
370
    18
100
AcDbLine
 10
739.037630919187
 20
69.69374715262555
 30
0.0
 11
744.037630919187
 21
69.69374715262555
 31
0.0
  0
LINE
  5
24E
330
101
100
AcDbEntity
  8
2
  6
Continuous
 62
     7
370
    18
100
AcDbLine
 10
744.037630919187
 20
69.69374715262555
 30
0.0
 11
744.037630919187
 21
53.69374715262555
 31
0.0
  0
LINE
  5
24F
330
101
100
AcDbEntity
  8
2
  6
Continuous
 62
     7
370
    18
100
AcDbLine
 10
739.037630919187
 20
53.69374715262555
 30
0.0
 11
744.037630919187
 21
53.69374715262555
 31
0.0
  0
ARC
  5
250
330
101
100
AcDbEntity
  8
2
  6
Continuous
 62
     7
370
    18
100
AcDbCircle
 10
636.8376309191872
 20
43.99374715262573
 30
0.0
 40
0.8
100
AcDbArc
 50
180.0
 51
247.9756869999865
  0
LINE
  5
251
330
101
100
AcDbEntity
  8
2
  6
Continuous
 62
     7
370
    18
100
AcDbLine
 10
636.037630919187
 20
69.69374715262555
 30
0.0
 11
631.037630919187
 21
69.69374715262555
 31
0.0
  0
LINE
  5
252
330
101
100
AcDbEntity
  8
2
  6
Continuous
 62
     7
370
    18
100
AcDbLine
 10
631.037630919187
 20
69.69374715262555
 30
0.0
 11
631.037630919187
 21
53.69374715262555
 31
0.0
  0
LINE
  5
253
330
101
100
AcDbEntity
  8
2
  6
Continuous
 62
     7
370
    18
100
AcDbLine
 10
636.037630919187
 20
53.69374715262555
 30
0.0
 11
631.037630919187
 21
53.69374715262555
 31
0.0
  0
LINE
  5
254
330
101
100
AcDbEntity
  8
2
  6
Continuous
 62
     7
370
    18
100
AcDbLine
 10
734.3876309191869
 20
36.29374715262591
 30
0.0
 11
640.6876309191871
 21
36.29374715262591
 31
0.0
  0
ARC
  5
255
330
101
100
AcDbEntity
  8
2
  6
Continuous
 62
     7
370
    18
100
AcDbCircle
 10
640.6876309191871
 20
40.44374715262555
 30
0.0
 40
4.15
100
AcDbArc
 50
180.0
 51
270.0
  0
LINE
  5
256
330
101
100
AcDbEntity
  8
2
  6
Continuous
 62
     7
370
    18
100
AcDbLine
 10
744.037630919187
 20
67.69374715262555
 30
0.0
 11
745.037630919187
 21
67.69374715262555
 31
0.0
  0
LINE
  5
257
330
101
100
AcDbEntity
  8
2
  6
Continuous
 62
     7
370
    18
100
AcDbLine
 10
745.037630919187
 20
55.69374715262555
 30
0.0
 11
744.037630919187
 21
55.69374715262555
 31
0.0
  0
LINE
  5
258
330
101
100
AcDbEntity
  8
2
  6
Continuous
 62
     7
370
    18
100
AcDbLine
 10
630.037630919187
 20
65.69374715262555
 30
0.0
 11
631.037630919187
 21
65.69374715262555
 31
0.0
  0
LINE
  5
259
330
101
100
AcDbEntity
  8
2
  6
Continuous
 62
     7
370
    18
100
AcDbLine
 10
631.037630919187
 20
55.69374715262555
 30
0.0
 11
630.037630919187
 21
55.69374715262555
 31
0.0
  0
ARC
  5
25A
330
101
100
AcDbEntity
  8
2
  6
Continuous
 62
     7
370
    18
100
AcDbCircle
 10
734.3876309191869
 20
82.94374715262555
 30
0.0
 40
4.15
100
AcDbArc
 50
0.0
 51
90.0
  0
LINE
  5
25B
330
101
100
AcDbEntity
  8
2
  6
Continuous
 62
     7
370
    18
100
AcDbLine
 10
738.537630919187
 20
82.94374715262555
 30
0.0
 11
738.537630919187
 21
40.44374715262555
 31
0.0
  0
LINE
  5
25C
330
101
100
AcDbEntity
  8
2
  6
Continuous
 62
     7
370
    18
100
AcDbLine
 10
739.037630919187
 20
43.99374715262573
 30
0.0
 11
739.037630919187
 21
79.39374715262537
 31
0.0
  0
ARC
  5
25D
330
101
100
AcDbEntity
  8
2
  6
Continuous
 62
     7
370
    18
100
AcDbCircle
 10
738.2376309191868
 20
79.39374715262537
 30
0.0
 40
0.8
100
AcDbArc
 50
0.0
 51
67.97568699998655
  0
LINE
  5
25E
330
101
100
AcDbEntity
  8
2
  6
Continuous
 62
     7
370
    18
100
AcDbLine
 10
636.537630919187
 20
82.94374715262555
 30
0.0
 11
636.537630919187
 21
40.44374715262555
 31
0.0
  0
LINE
  5
25F
330
101
100
AcDbEntity
  8
2
  6
Continuous
 62
     7
370
    18
100
AcDbLine
 10
636.037630919187
 20
43.99374715262573
 30
0.0
 11
636.037630919187
 21
79.39374715262537
 31
0.0
  0
ARC
  5
260
330
101
100
AcDbEntity
  8
2
  6
Continuous
 62
     7
370
    18
100
AcDbCircle
 10
636.8376309191872
 20
79.39374715262537
 30
0.0
 40
0.8
100
AcDbArc
 50
112.0243130000135
 51
180.0
  0
LINE
  5
261
330
101
100
AcDbEntity
  8
2
  6
Continuous
 62
     7
370
    18
100
AcDbLine
 10
734.3876309191869
 20
87.09374715262518
 30
0.0
 11
640.6876309191871
 21
87.09374715262518
 31
0.0
  0
ARC
  5
262
330
101
100
AcDbEntity
  8
2
  6
Continuous
 62
     7
370
    18
100
AcDbCircle
 10
640.6876309191871
 20
82.94374715262555
 30
0.0
 40
4.15
100
AcDbArc
 50
90.0
 51
180.0
  0
LINE
  5
263
330
101
100
AcDbEntity
  8
2
  6
CENTER
 62
     7
370
    18
100
AcDbLine
 10
623.2376309191868
 20
50.61576215262565
 30
0.0
 11
623.2376309191868
 21
68.44594915262522
 31
0.0
  0
LINE
  5
264
330
101
100
AcDbEntity
  8
2
  6
CENTER
 62
     3
370
    13
100
AcDbLine
 10
611.7376309191868
 20
61.69374715262555
 30
0.0
 11
764.7376309191868
 21
61.69374715262555
 31
0.0
  0
ENDBLK
  5
103
330
101
100
AcDbEntity
  8
0
100
AcDbBlockEnd
  0
BLOCK
  5
105
330
104
100
AcDbEntity
  8
0
100
AcDbBlockBegin
  2
*D29
 70
     1
 10
0.0
 20
0.0
 30
0.0
  3
*D29
  1
*D29
  0
LINE
  5
265
330
104
100
AcDbEntity
  8
0
  6
Continuous
 62
     2
370
    13
100
AcDbLine
 10
572.0376309191869
 20
-9.806252847374452
 30
0.0
 11
572.0376309191869
 21
61.69374715262555
 31
0.0
  0
INSERT
  5
266
330
104
100
AcDbEntity
  8
0
 62
     2
100
AcDbBlockReference
  2
_OPEN30
 10
572.0376309191869
 20
-9.806252847374452
 30
0.0
 41
15.00001403807643
 42
14.99994684111822
 50
270.0
  0
INSERT
  5
267
330
104
100
AcDbEntity
  8
0
 62
     2
100
AcDbBlockReference
  2
_OPEN30
 10
572.0376309191869
 20
61.69374715262555
 30
0.0
 41
15.00001403807643
 42
14.99994684111822
 50
90.0
  0
LINE
  5
268
330
104
100
AcDbEntity
  8
0
  6
Continuous
 62
     2
370
    13
100
AcDbLine
 10
595.0376309191869
 20
-9.806252847374452
 30
0.0
 11
569.5376309191869
 21
-9.806252847374452
 31
0.0
  0
LINE
  5
269
330
104
100
AcDbEntity
  8
0
  6
Continuous
 62
     2
370
    13
100
AcDbLine
 10
606.7376309191868
 20
61.69374715262555
 30
0.0
 11
569.5376309191869
 21
61.69374715262555
 31
0.0
  0
MTEXT
  5
26A
330
104
100
AcDbEntity
  8
0
 62
     2
100
AcDbMText
 10
567.0376309191869
 20
25.94374715262555
 30
0.0
 40
20.0
 41
75.0
 46
0.0
 71
     8
 72
     1
  1
\T1.00;71.5
  7
dcStyle0
 11
6.123233995736766E-17
 21
1.0
 31
0.0
 73
     1
 44
1.0
  0
ENDBLK
  5
106
330
104
100
AcDbEntity
  8
0
100
AcDbBlockEnd
  0
BLOCK
  5
108
330
107
100
AcDbEntity
  8
0
100
AcDbBlockBegin
  2
*D30
 70
     1
 10
0.0
 20
0.0
 30
0.0
  3
*D30
  1
*D30
  0
LINE
  5
26B
330
107
100
AcDbEntity
  8
0
  6
Continuous
 62
     2
370
    13
100
AcDbLine
 10
492.0376309191869
 20
-9.806252847374452
 30
0.0
 11
492.0376309191869
 21
87.09374715262555
 31
0.0
  0
INSERT
  5
26C
330
107
100
AcDbEntity
  8
0
 62
     2
100
AcDbBlockReference
  2
_OPEN30
 10
492.0376309191869
 20
-9.806252847374452
 30
0.0
 41
15.00001403807643
 42
14.99994684111822
 50
270.0
  0
INSERT
  5
26D
330
107
100
AcDbEntity
  8
0
 62
     2
100
AcDbBlockReference
  2
_OPEN30
 10
492.0376309191869
 20
87.09374715262555
 30
0.0
 41
15.00001403807643
 42
14.99994684111822
 50
90.0
  0
LINE
  5
26E
330
107
100
AcDbEntity
  8
0
  6
Continuous
 62
     2
370
    13
100
AcDbLine
 10
595.0376309191869
 20
-9.806252847374452
 30
0.0
 11
489.5376309191869
 21
-9.806252847374452
 31
0.0
  0
LINE
  5
26F
330
107
100
AcDbEntity
  8
0
  6
Continuous
 62
     2
370
    13
100
AcDbLine
 10
635.6876309191871
 20
87.09374715262555
 30
0.0
 11
489.5376309191869
 21
87.09374715262555
 31
0.0
  0
MTEXT
  5
270
330
107
100
AcDbEntity
  8
0
 62
     2
100
AcDbMText
 10
487.0376309191869
 20
38.64374715262554
 30
0.0
 40
20.0
 41
75.0
 46
0.0
 71
     8
 72
     1
  1
\T1.00;96.9
  7
dcStyle0
 11
6.123233995736766E-17
 21
1.0
 31
0.0
 73
     1
 44
1.0
  0
ENDBLK
  5
109
330
107
100
AcDbEntity
  8
0
100
AcDbBlockEnd
  0
BLOCK
  5
10B
330
10A
100
AcDbEntity
  8
0
100
AcDbBlockBegin
  2
DC_IMAGEDIMGROUP_3
 70
     0
 10
0.0
 20
0.0
 30
0.0
  3
DC_IMAGEDIMGROUP_3
  1
DC_IMAGEDIMGROUP_3
  0
LINE
  5
271
330
10A
100
AcDbEntity
  8
0
  6
Continuous
 62
     2
370
    13
100
AcDbLine
 10
729.3876309191869
 20
36.29374715262554
 30
0.0
 11
702.7862843952088
 21
36.29374715262554
 31
0.0
  0
LINE
  5
272
330
10A
100
AcDbEntity
  8
0
  6
Continuous
 62
     2
370
    13
100
AcDbLine
 10
729.3876309191869
 20
87.09374715262518
 30
0.0
 11
702.7862843952088
 21
87.09374715262518
 31
0.0
  0
LINE
  5
273
330
10A
100
AcDbEntity
  8
0
  6
Continuous
 62
     2
370
    13
100
AcDbLine
 10
705.2862843952088
 20
36.29374715262554
 30
0.0
 11
705.2862843952088
 21
87.09374715262518
 31
0.0
  0
LINE
  5
274
330
10A
100
AcDbEntity
  8
0
  6
Continuous
 62
     2
370
    13
100
AcDbLine
 10
705.2862843952088
 20
154.2987471526252
 30
0.0
 11
705.2862843952088
 21
87.09374715262518
 31
0.0
  0
INSERT
  5
275
330
10A
100
AcDbEntity
  8
0
 62
     2
100
AcDbBlockReference
  2
_OPEN30
 10
705.2862843952088
 20
87.09374715262518
 30
0.0
 41
15.00001403807643
 42
14.99994684111822
 50
270.0
  0
LINE
  5
276
330
10A
100
AcDbEntity
  8
0
  6
Continuous
 62
     2
370
    13
100
AcDbLine
 10
705.2862843952088
 20
18.79374715262554
 30
0.0
 11
705.2862843952088
 21
36.29374715262554
 31
0.0
  0
INSERT
  5
277
330
10A
100
AcDbEntity
  8
0
 62
     2
100
AcDbBlockReference
  2
_OPEN30
 10
705.2862843952088
 20
36.29374715262554
 30
0.0
 41
15.00001403807643
 42
14.99994684111822
 50
90.0
  0
MTEXT
  5
278
330
10A
100
AcDbEntity
  8
0
 62
     2
100
AcDbMText
 10
700.2862843952088
 20
94.29874715262517
 30
0.0
 40
20.0
 41
100.0
 46
0.0
 71
     7
 72
     1
  1
\T1.00;φ50.8
  7
dcStyle0
 11
6.123233995736766E-17
 21
1.0
 31
0.0
 73
     1
 44
1.0
  0
ENDBLK
  5
10C
330
10A
100
AcDbEntity
  8
0
100
AcDbBlockEnd
  0
BLOCK
  5
10E
330
10D
100
AcDbEntity
  8
0
100
AcDbBlockBegin
  2
*D32
 70
     1
 10
0.0
 20
0.0
 30
0.0
  3
*D32
  1
*D32
  0
LINE
  5
279
330
10D
100
AcDbEntity
  8
0
  6
Continuous
 62
     2
370
    13
100
AcDbLine
 10
636.5376309191871
 20
167.0937471526252
 30
0.0
 11
738.537630919187
 21
167.0937471526252
 31
0.0
  0
INSERT
  5
27A
330
10D
100
AcDbEntity
  8
0
 62
     2
100
AcDbBlockReference
  2
_OPEN30
 10
636.5376309191871
 20
167.0937471526252
 30
0.0
 41
15.00001403807643
 42
14.99994684111822
 50
180.0
  0
INSERT
  5
27B
330
10D
100
AcDbEntity
  8
0
 62
     2
100
AcDbBlockReference
  2
_OPEN30
 10
738.537630919187
 20
167.0937471526252
 30
0.0
 41
15.00001403807643
 42
14.99994684111822
 50
360.0
  0
LINE
  5
27C
330
10D
100
AcDbEntity
  8
0
  6
Continuous
 62
     2
370
    13
100
AcDbLine
 10
636.5376309191871
 20
87.94374715262555
 30
0.0
 11
636.5376309191871
 21
169.5937471526252
 31
0.0
  0
LINE
  5
27D
330
10D
100
AcDbEntity
  8
0
  6
Continuous
 62
     2
370
    13
100
AcDbLine
 10
738.537630919187
 20
87.94374715262555
 30
0.0
 11
738.537630919187
 21
169.5937471526252
 31
0.0
  0
MTEXT
  5
27E
330
10D
100
AcDbEntity
  8
0
 62
     2
100
AcDbMText
 10
687.537630919187
 20
172.0937471526252
 30
0.0
 40
20.0
 41
115.0
 46
0.0
 71
     8
 72
     1
  1
\T1.00;ローラ幅
  7
dcStyle0
 73
     1
 44
1.0
  0
ENDBLK
  5
10F
330
10D
100
AcDbEntity
  8
0
100
AcDbBlockEnd
  0
BLOCK
  5
111
330
110
100
AcDbEntity
  8
0
100
AcDbBlockBegin
  2
DC_GROUP_W_MR-5016_S_040_5
 70
     0
 10
0.0
 20
0.0
 30
0.0
  3
DC_GROUP_W_MR-5016_S_040_5
  1
DC_GROUP_W_MR-5016_S_040_5
  0
TEXT
  5
27F
330
110
100
AcDbEntity
  8
0
 62
     2
100
AcDbText
 10
117.5101906725306
 20
-267.9653937927474
 30
0.0
 40
19.9999999992
  1
ローラ幅(mm)
 41
0.7225433526011559
  7
dcStyle0
 72
     5
 11
237.5101906677306
 21
-267.9653937927474
 31
0.0
100
AcDbText
  0
TEXT
  5
280
330
110
100
AcDbEntity
  8
0
 62
     2
100
AcDbText
 10
255.0101906653386
 20
-267.9653937927474
 30
0.0
 40
19.9999999992
  1
102
 41
0.6877579092159561
  7
dcStyle0
 72
     5
 11
285.0101906641386
 21
-267.9653937927474
 31
0.0
100
AcDbText
  0
TEXT
  5
281
330
110
100
AcDbEntity
  8
0
 62
     2
100
AcDbText
 10
405.0101906593384
 20
-267.9653937927474
 30
0.0
 40
19.9999999992
  1
252
 41
0.6877579092159567
  7
dcStyle0
 72
     5
 11
435.0101906581385
 21
-267.9653937927474
 31
0.0
100
AcDbText
  0
TEXT
  5
282
330
110
100
AcDbEntity
  8
0
 62
     2
100
AcDbText
 10
305.0101906633386
 20
-267.9653937927474
 30
0.0
 40
19.9999999992
  1
152
 41
0.6877579092159567
  7
dcStyle0
 72
     5
 11
335.0101906621387
 21
-267.9653937927474
 31
0.0
100
AcDbText
  0
TEXT
  5
283
330
110
100
AcDbEntity
  8
0
 62
     2
100
AcDbText
 10
355.0101906613386
 20
-267.9653937927474
 30
0.0
 40
19.9999999992
  1
202
 41
0.6877579092159567
  7
dcStyle0
 72
     5
 11
385.0101906601387
 21
-267.9653937927474
 31
0.0
100
AcDbText
  0
TEXT
  5
284
330
110
100
AcDbEntity
  8
0
 62
     2
100
AcDbText
 10
117.5101906725306
 20
-241.2987271271493
 30
0.0
 40
19.9999999992
  1
呼び幅(mm)
 41
0.6824075337791728
  7
dcStyle0
 72
     5
 11
217.5101906685306
 21
-241.2987271271493
 31
0.0
100
AcDbText
  0
TEXT
  5
285
330
110
100
AcDbEntity
  8
0
 62
     2
100
AcDbText
 10
255.0101906653386
 20
-241.2987271271493
 30
0.0
 40
19.9999999992
  1
100
 41
0.6877579092159561
  7
dcStyle0
 72
     5
 11
285.0101906641386
 21
-241.2987271271493
 31
0.0
100
AcDbText
  0
TEXT
  5
286
330
110
100
AcDbEntity
  8
0
 62
     2
100
AcDbText
 10
405.0101906593384
 20
-241.2987271271493
 30
0.0
 40
19.9999999992
  1
250
 41
0.6877579092159567
  7
dcStyle0
 72
     5
 11
435.0101906581385
 21
-241.2987271271493
 31
0.0
100
AcDbText
  0
TEXT
  5
287
330
110
100
AcDbEntity
  8
0
 62
     2
100
AcDbText
 10
305.0101906633386
 20
-241.2987271271493
 30
0.0
 40
19.9999999992
  1
150
 41
0.6877579092159567
  7
dcStyle0
 72
     5
 11
335.0101906621387
 21
-241.2987271271493
 31
0.0
100
AcDbText
  0
TEXT
  5
288
330
110
100
AcDbEntity
  8
0
 62
     2
100
AcDbText
 10
355.0101906613386
 20
-241.2987271271493
 30
0.0
 40
19.9999999992
  1
200
 41
0.6877579092159567
  7
dcStyle0
 72
     5
 11
385.0101906601387
 21
-241.2987271271493
 31
0.0
100
AcDbText
  0
TEXT
  5
289
330
110
100
AcDbEntity
  8
0
 62
     2
100
AcDbText
 10
455.0101906573387
 20
-267.9653937927474
 30
0.0
 40
19.9999999992
  1
302
 41
0.6877579092159567
  7
dcStyle0
 72
     5
 11
485.0101906561387
 21
-267.9653937927474
 31
0.0
100
AcDbText
  0
TEXT
  5
28A
330
110
100
AcDbEntity
  8
0
 62
     2
100
AcDbText
 10
455.0101906573387
 20
-241.2987271271493
 30
0.0
 40
19.9999999992
  1
300
 41
0.6877579092159567
  7
dcStyle0
 72
     5
 11
485.0101906561387
 21
-241.2987271271493
 31
0.0
100
AcDbText
  0
TEXT
  5
28B
330
110
100
AcDbEntity
  8
0
 62
     2
100
AcDbText
 10
505.0101906553385
 20
-267.9653937927474
 30
0.0
 40
19.9999999992
  1
352
 41
0.6877579092159555
  7
dcStyle0
 72
     5
 11
535.0101906541385
 21
-267.9653937927474
 31
0.0
100
AcDbText
  0
TEXT
  5
28C
330
110
100
AcDbEntity
  8
0
 62
     2
100
AcDbText
 10
505.0101906553385
 20
-241.2987271271493
 30
0.0
 40
19.9999999992
  1
350
 41
0.6877579092159555
  7
dcStyle0
 72
     5
 11
535.0101906541385
 21
-241.2987271271493
 31
0.0
100
AcDbText
  0
TEXT
  5
28D
330
110
100
AcDbEntity
  8
0
 62
     2
100
AcDbText
 10
555.0101906533386
 20
-267.9653937927474
 30
0.0
 40
19.9999999992
  1
402
 41
0.6877579092159541
  7
dcStyle0
 72
     5
 11
585.0101906521385
 21
-267.9653937927474
 31
0.0
100
AcDbText
  0
TEXT
  5
28E
330
110
100
AcDbEntity
  8
0
 62
     2
100
AcDbText
 10
555.0101906533386
 20
-241.2987271271493
 30
0.0
 40
19.9999999992
  1
400
 41
0.6877579092159541
  7
dcStyle0
 72
     5
 11
585.0101906521385
 21
-241.2987271271493
 31
0.0
100
AcDbText
  0
TEXT
  5
28F
330
110
100
AcDbEntity
  8
0
 62
     2
100
AcDbText
 10
605.0101906513386
 20
-267.9653937927474
 30
0.0
 40
19.9999999992
  1
452
 41
0.6877579092159541
  7
dcStyle0
 72
     5
 11
635.0101906501385
 21
-267.9653937927474
 31
0.0
100
AcDbText
  0
TEXT
  5
290
330
110
100
AcDbEntity
  8
0
 62
     2
100
AcDbText
 10
605.0101906513386
 20
-241.2987271271493
 30
0.0
 40
19.9999999992
  1
450
 41
0.6877579092159541
  7
dcStyle0
 72
     5
 11
635.0101906501385
 21
-241.2987271271493
 31
0.0
100
AcDbText
  0
TEXT
  5
291
330
110
100
AcDbEntity
  8
0
 62
     2
100
AcDbText
 10
655.0101906493386
 20
-267.9653937927474
 30
0.0
 40
19.9999999992
  1
502
 41
0.6877579092159541
  7
dcStyle0
 72
     5
 11
685.0101906481385
 21
-267.9653937927474
 31
0.0
100
AcDbText
  0
TEXT
  5
292
330
110
100
AcDbEntity
  8
0
 62
     2
100
AcDbText
 10
655.0101906493386
 20
-241.2987271271493
 30
0.0
 40
19.9999999992
  1
500
 41
0.6877579092159541
  7
dcStyle0
 72
     5
 11
685.0101906481385
 21
-241.2987271271493
 31
0.0
100
AcDbText
  0
TEXT
  5
293
330
110
100
AcDbEntity
  8
0
 62
     2
100
AcDbText
 10
117.5101906726528
 20
-294.6320604583493
 30
0.0
 40
19.9999999992
  1
機　幅(mm)
 41
0.7250580046403712
  7
dcStyle0
 72
     5
 11
217.5101906686528
 21
-294.6320604583493
 31
0.0
100
AcDbText
  0
TEXT
  5
294
330
110
100
AcDbEntity
  8
0
 62
     2
100
AcDbText
 10
255.0101906653393
 20
-294.6320604583493
 30
0.0
 40
19.9999999992
  1
175
 41
0.6877579092159561
  7
dcStyle0
 72
     5
 11
285.0101906641393
 21
-294.6320604583493
 31
0.0
100
AcDbText
  0
TEXT
  5
295
330
110
100
AcDbEntity
  8
0
 62
     2
100
AcDbText
 10
405.0101906593391
 20
-294.6320604583493
 30
0.0
 40
19.9999999992
  1
325
 41
0.6877579092159567
  7
dcStyle0
 72
     5
 11
435.0101906581392
 21
-294.6320604583493
 31
0.0
100
AcDbText
  0
TEXT
  5
296
330
110
100
AcDbEntity
  8
0
 62
     2
100
AcDbText
 10
305.0101906633391
 20
-294.6320604583493
 30
0.0
 40
19.9999999992
  1
225
 41
0.6877579092159567
  7
dcStyle0
 72
     5
 11
335.0101906621391
 21
-294.6320604583493
 31
0.0
100
AcDbText
  0
TEXT
  5
297
330
110
100
AcDbEntity
  8
0
 62
     2
100
AcDbText
 10
355.0101906613391
 20
-294.6320604583493
 30
0.0
 40
19.9999999992
  1
275
 41
0.6877579092159567
  7
dcStyle0
 72
     5
 11
385.0101906601391
 21
-294.6320604583493
 31
0.0
100
AcDbText
  0
TEXT
  5
298
330
110
100
AcDbEntity
  8
0
 62
     2
100
AcDbText
 10
455.0101906573391
 20
-294.6320604583493
 30
0.0
 40
19.9999999992
  1
375
 41
0.6877579092159567
  7
dcStyle0
 72
     5
 11
485.0101906561392
 21
-294.6320604583493
 31
0.0
100
AcDbText
  0
TEXT
  5
299
330
110
100
AcDbEntity
  8
0
 62
     2
100
AcDbText
 10
505.0101906553394
 20
-294.6320604583493
 30
0.0
 40
19.9999999992
  1
425
 41
0.6877579092159555
  7
dcStyle0
 72
     5
 11
535.0101906541394
 21
-294.6320604583493
 31
0.0
100
AcDbText
  0
TEXT
  5
29A
330
110
100
AcDbEntity
  8
0
 62
     2
100
AcDbText
 10
555.0101906533395
 20
-294.6320604583493
 30
0.0
 40
19.9999999992
  1
475
 41
0.6877579092159541
  7
dcStyle0
 72
     5
 11
585.0101906521394
 21
-294.6320604583493
 31
0.0
100
AcDbText
  0
TEXT
  5
29B
330
110
100
AcDbEntity
  8
0
 62
     2
100
AcDbText
 10
605.0101906513395
 20
-294.6320604583493
 30
0.0
 40
19.9999999992
  1
525
 41
0.6877579092159541
  7
dcStyle0
 72
     5
 11
635.0101906501394
 21
-294.6320604583493
 31
0.0
100
AcDbText
  0
TEXT
  5
29C
330
110
100
AcDbEntity
  8
0
 62
     2
100
AcDbText
 10
655.0101906493393
 20
-294.6320604583493
 30
0.0
 40
19.9999999992
  1
575
 41
0.6877579092159541
  7
dcStyle0
 72
     5
 11
685.0101906481392
 21
-294.6320604583493
 31
0.0
100
AcDbText
  0
TEXT
  5
29D
330
110
100
AcDbEntity
  8
0
 62
     2
100
AcDbText
 10
705.0101906473386
 20
-241.2987271271493
 30
0.0
 40
19.9999999992
  1
600
 41
0.6877579092159541
  7
dcStyle0
 72
     5
 11
735.0101906461385
 21
-241.2987271271493
 31
0.0
100
AcDbText
  0
TEXT
  5
29E
330
110
100
AcDbEntity
  8
0
 62
     2
100
AcDbText
 10
705.0101906473386
 20
-267.9653937927474
 30
0.0
 40
19.9999999992
  1
602
 41
0.6877579092159541
  7
dcStyle0
 72
     5
 11
735.0101906461385
 21
-267.9653937927474
 31
0.0
100
AcDbText
  0
TEXT
  5
29F
330
110
100
AcDbEntity
  8
0
 62
     2
100
AcDbText
 10
705.0101906473393
 20
-294.6320604583493
 30
0.0
 40
19.9999999992
  1
675
 41
0.6877579092159541
  7
dcStyle0
 72
     5
 11
735.0101906461392
 21
-294.6320604583493
 31
0.0
100
AcDbText
  0
TEXT
  5
2A0
330
110
100
AcDbEntity
  8
0
 62
     2
100
AcDbText
 10
755.0101906453386
 20
-241.2987271271493
 30
0.0
 40
19.9999999992
  1
700
 41
0.6877579092159541
  7
dcStyle0
 72
     5
 11
785.0101906441386
 21
-241.2987271271493
 31
0.0
100
AcDbText
  0
TEXT
  5
2A1
330
110
100
AcDbEntity
  8
0
 62
     2
100
AcDbText
 10
755.0101906453386
 20
-267.9653937927474
 30
0.0
 40
19.9999999992
  1
702
 41
0.6877579092159541
  7
dcStyle0
 72
     5
 11
785.0101906441386
 21
-267.9653937927474
 31
0.0
100
AcDbText
  0
TEXT
  5
2A2
330
110
100
AcDbEntity
  8
0
 62
     2
100
AcDbText
 10
755.0101906453393
 20
-294.6320604583493
 30
0.0
 40
19.9999999992
  1
775
 41
0.6877579092159541
  7
dcStyle0
 72
     5
 11
785.0101906441392
 21
-294.6320604583493
 31
0.0
100
AcDbText
  0
TEXT
  5
2A3
330
110
100
AcDbEntity
  8
0
 62
     2
100
AcDbText
 10
805.0101906433387
 20
-241.2987271271493
 30
0.0
 40
19.9999999992
  1
800
 41
0.6877579092159541
  7
dcStyle0
 72
     5
 11
835.0101906421386
 21
-241.2987271271493
 31
0.0
100
AcDbText
  0
TEXT
  5
2A4
330
110
100
AcDbEntity
  8
0
 62
     2
100
AcDbText
 10
805.0101906433387
 20
-267.9653937927474
 30
0.0
 40
19.9999999992
  1
802
 41
0.6877579092159541
  7
dcStyle0
 72
     5
 11
835.0101906421386
 21
-267.9653937927474
 31
0.0
100
AcDbText
  0
TEXT
  5
2A5
330
110
100
AcDbEntity
  8
0
 62
     2
100
AcDbText
 10
805.0101906433393
 20
-294.6320604583493
 30
0.0
 40
19.9999999992
  1
875
 41
0.6877579092159541
  7
dcStyle0
 72
     5
 11
835.0101906421393
 21
-294.6320604583493
 31
0.0
100
AcDbText
  0
TEXT
  5
2A6
330
110
100
AcDbEntity
  8
0
 62
     2
100
AcDbText
 10
855.0101906413387
 20
-241.2987271271493
 30
0.0
 40
19.9999999992
  1
900
 41
0.6877579092159541
  7
dcStyle0
 72
     5
 11
885.0101906401386
 21
-241.2987271271493
 31
0.0
100
AcDbText
  0
TEXT
  5
2A7
330
110
100
AcDbEntity
  8
0
 62
     2
100
AcDbText
 10
855.0101906413387
 20
-267.9653937927474
 30
0.0
 40
19.9999999992
  1
902
 41
0.6877579092159541
  7
dcStyle0
 72
     5
 11
885.0101906401386
 21
-267.9653937927474
 31
0.0
100
AcDbText
  0
TEXT
  5
2A8
330
110
100
AcDbEntity
  8
0
 62
     2
100
AcDbText
 10
855.0101906413394
 20
-294.6320604583493
 30
0.0
 40
19.9999999992
  1
975
 41
0.6877579092159541
  7
dcStyle0
 72
     5
 11
885.0101906401393
 21
-294.6320604583493
 31
0.0
100
AcDbText
  0
TEXT
  5
2A9
330
110
100
AcDbEntity
  8
0
 62
     2
100
AcDbText
 10
900.0101906395483
 20
-241.2987271271493
 30
0.0
 40
19.9999999992
  1
1000
 41
0.6877579092159555
  7
dcStyle0
 72
     5
 11
940.0101906379483
 21
-241.2987271271493
 31
0.0
100
AcDbText
  0
TEXT
  5
2AA
330
110
100
AcDbEntity
  8
0
 62
     2
100
AcDbText
 10
900.0101906395483
 20
-267.9653937927474
 30
0.0
 40
19.9999999992
  1
1002
 41
0.6877579092159555
  7
dcStyle0
 72
     5
 11
940.0101906379483
 21
-267.9653937927474
 31
0.0
100
AcDbText
  0
TEXT
  5
2AB
330
110
100
AcDbEntity
  8
0
 62
     2
100
AcDbText
 10
900.0101906395483
 20
-294.6320604583493
 30
0.0
 40
19.9999999992
  1
1075
 41
0.6877579092159555
  7
dcStyle0
 72
     5
 11
940.0101906379483
 21
-294.6320604583493
 31
0.0
100
AcDbText
  0
LINE
  5
2AC
330
110
100
AcDbEntity
  8
0
  6
Continuous
 62
     3
370
    13
100
AcDbLine
 10
110.0101906728305
 20
-244.6320604603493
 30
0.0
 11
945.0101906377156
 21
-244.6320604603493
 31
0.0
  0
LINE
  5
2AD
330
110
100
AcDbEntity
  8
0
  6
Continuous
 62
     3
370
    13
100
AcDbLine
 10
110.0101906727941
 20
-217.9653937947493
 30
0.0
 11
110.0101906728272
 21
-297.9653937915498
 31
0.0
  0
LINE
  5
2AE
330
110
100
AcDbEntity
  8
0
  6
Continuous
 62
     3
370
    13
100
AcDbLine
 10
110.0101906728305
 20
-271.2987271259493
 30
0.0
 11
945.0101906377156
 21
-271.2987271259352
 31
0.0
  0
LINE
  5
2AF
330
110
100
AcDbEntity
  8
0
  6
Continuous
 62
     3
370
    13
100
AcDbLine
 10
245.0101906657383
 20
-217.9653937947493
 30
0.0
 11
245.0101906657383
 21
-297.9653937915466
 31
0.0
  0
LINE
  5
2B0
330
110
100
AcDbEntity
  8
0
  6
Continuous
 62
     3
370
    13
100
AcDbLine
 10
295.0101906637386
 20
-217.9653937947493
 30
0.0
 11
295.0101906637386
 21
-297.9653937915385
 31
0.0
  0
LINE
  5
2B1
330
110
100
AcDbEntity
  8
0
  6
Continuous
 62
     3
370
    13
100
AcDbLine
 10
345.0101906617386
 20
-217.9653937947493
 30
0.0
 11
345.0101906617386
 21
-297.9653937915369
 31
0.0
  0
LINE
  5
2B2
330
110
100
AcDbEntity
  8
0
  6
Continuous
 62
     3
370
    13
100
AcDbLine
 10
395.0101906597387
 20
-217.9653937947493
 30
0.0
 11
395.0101906597387
 21
-297.9653937915363
 31
0.0
  0
LINE
  5
2B3
330
110
100
AcDbEntity
  8
0
  6
Continuous
 62
     3
370
    13
100
AcDbLine
 10
445.0101906577387
 20
-217.9653937947493
 30
0.0
 11
445.0101906577387
 21
-297.9653937915363
 31
0.0
  0
LINE
  5
2B4
330
110
100
AcDbEntity
  8
0
  6
Continuous
 62
     3
370
    13
100
AcDbLine
 10
495.0101906557387
 20
-217.9653937947493
 30
0.0
 11
495.0101906557387
 21
-297.9653937915363
 31
0.0
  0
LINE
  5
2B5
330
110
100
AcDbEntity
  8
0
  6
Continuous
 62
     3
370
    13
100
AcDbLine
 10
545.0101906537385
 20
-217.9653937947493
 30
0.0
 11
545.0101906537385
 21
-297.9653937915363
 31
0.0
  0
LINE
  5
2B6
330
110
100
AcDbEntity
  8
0
  6
Continuous
 62
     3
370
    13
100
AcDbLine
 10
595.0101906517385
 20
-217.9653937947493
 30
0.0
 11
595.0101906517385
 21
-297.9653937915363
 31
0.0
  0
LINE
  5
2B7
330
110
100
AcDbEntity
  8
0
  6
Continuous
 62
     3
370
    13
100
AcDbLine
 10
645.0101906497385
 20
-217.9653937947493
 30
0.0
 11
645.0101906497385
 21
-297.9653937915363
 31
0.0
  0
LINE
  5
2B8
330
110
100
AcDbEntity
  8
0
  6
Continuous
 62
     3
370
    13
100
AcDbLine
 10
945.0101906376792
 20
-217.9653937947493
 30
0.0
 11
945.010190637716
 21
-297.9653937915352
 31
0.0
  0
LINE
  5
2B9
330
110
100
AcDbEntity
  8
0
  6
Continuous
 62
     3
370
    13
100
AcDbLine
 10
110.0101906728312
 20
-297.9653937915493
 30
0.0
 11
945.0101906377156
 21
-297.9653937915347
 31
0.0
  0
LINE
  5
2BA
330
110
100
AcDbEntity
  8
0
  6
Continuous
 62
     3
370
    13
100
AcDbLine
 10
110.0101906728123
 20
-217.9653937947493
 30
0.0
 11
945.0101906376974
 21
-217.9653937947493
 31
0.0
  0
LINE
  5
2BB
330
110
100
AcDbEntity
  8
0
  6
Continuous
 62
     3
370
    13
100
AcDbLine
 10
695.0101906477386
 20
-217.9653937947493
 30
0.0
 11
695.0101906477386
 21
-297.9653937915363
 31
0.0
  0
LINE
  5
2BC
330
110
100
AcDbEntity
  8
0
  6
Continuous
 62
     3
370
    13
100
AcDbLine
 10
745.0101906457386
 20
-217.9653937947493
 30
0.0
 11
745.0101906457386
 21
-297.9653937915363
 31
0.0
  0
LINE
  5
2BD
330
110
100
AcDbEntity
  8
0
  6
Continuous
 62
     3
370
    13
100
AcDbLine
 10
795.0101906437386
 20
-217.9653937947493
 30
0.0
 11
795.0101906437386
 21
-297.9653937915363
 31
0.0
  0
LINE
  5
2BE
330
110
100
AcDbEntity
  8
0
  6
Continuous
 62
     3
370
    13
100
AcDbLine
 10
845.0101906417386
 20
-217.9653937947493
 30
0.0
 11
845.0101906417386
 21
-297.9653937915363
 31
0.0
  0
LINE
  5
2BF
330
110
100
AcDbEntity
  8
0
  6
Continuous
 62
     3
370
    13
100
AcDbLine
 10
895.0101906397388
 20
-217.9653937947493
 30
0.0
 11
895.0101906397388
 21
-297.9653937915363
 31
0.0
  0
ENDBLK
  5
112
330
110
100
AcDbEntity
  8
0
100
AcDbBlockEnd
  0
BLOCK
  5
114
330
113
100
AcDbEntity
  8
0
100
AcDbBlockBegin
  2
DC_GROUP_W_MR-5016_S_040_6
 70
     0
 10
0.0
 20
0.0
 30
0.0
  3
DC_GROUP_W_MR-5016_S_040_6
  1
DC_GROUP_W_MR-5016_S_040_6
  0
ARC
  5
2C0
330
113
100
AcDbEntity
  8
2
  6
Continuous
 62
     7
370
    18
100
AcDbCircle
 10
-667.7087957402838
 20
451.3751688631324
 30
0.0
 40
4.15
100
AcDbArc
 50
0.0
 51
90.0
  0
ARC
  5
2C1
330
113
100
AcDbEntity
  8
2
  6
Continuous
 62
     7
370
    18
100
AcDbCircle
 10
-706.6587957402836
 20
455.2251688631319
 30
0.0
 40
0.8
100
AcDbArc
 50
90.0
 51
157.9756869999987
  0
LINE
  5
2C2
330
113
100
AcDbEntity
  8
2
  6
Continuous
 62
     7
370
    18
100
AcDbLine
 10
-667.7087957402838
 20
455.5251688631321
 30
0.0
 11
-710.2087957402838
 21
455.5251688631321
 31
0.0
  0
ARC
  5
2C3
330
113
100
AcDbEntity
  8
2
  6
Continuous
 62
     7
370
    18
100
AcDbCircle
 10
-710.2087957402838
 20
451.3751688631324
 30
0.0
 40
4.15
100
AcDbArc
 50
90.0
 51
180.0
  0
LINE
  5
2C4
330
113
100
AcDbEntity
  8
2
  6
Continuous
 62
     7
370
    18
100
AcDbLine
 10
-680.9587957402838
 20
456.0251688631321
 30
0.0
 11
-680.9587957402838
 21
461.0251688631321
 31
0.0
  0
LINE
  5
2C5
330
113
100
AcDbEntity
  8
2
  6
Continuous
 62
     7
370
    18
100
AcDbLine
 10
-706.6587957402836
 20
456.0251688631321
 30
0.0
 11
-671.258795740284
 21
456.0251688631321
 31
0.0
  0
ARC
  5
2C6
330
113
100
AcDbEntity
  8
2
  6
Continuous
 62
     7
370
    18
100
AcDbCircle
 10
-671.258795740284
 20
455.2251688631319
 30
0.0
 40
0.8
100
AcDbArc
 50
22.02431300000125
 51
90.0
  0
LINE
  5
2C7
330
113
100
AcDbEntity
  8
2
  6
Continuous
 62
     7
370
    18
100
AcDbLine
 10
-680.9587957402838
 20
461.0251688631321
 30
0.0
 11
-696.9587957402838
 21
461.0251688631321
 31
0.0
  0
LINE
  5
2C8
330
113
100
AcDbEntity
  8
2
  6
Continuous
 62
     7
370
    18
100
AcDbLine
 10
-696.9587957402838
 20
456.0251688631321
 30
0.0
 11
-696.9587957402838
 21
461.0251688631321
 31
0.0
  0
ARC
  5
2C9
330
113
100
AcDbEntity
  8
2
  6
Continuous
 62
     7
370
    18
100
AcDbCircle
 10
-706.6587957402836
 20
353.8251688631323
 30
0.0
 40
0.8
100
AcDbArc
 50
202.0243130000013
 51
270.0
  0
LINE
  5
2CA
330
113
100
AcDbEntity
  8
2
  6
Continuous
 62
     7
370
    18
100
AcDbLine
 10
-667.7087957402838
 20
353.5251688631321
 30
0.0
 11
-710.2087957402838
 21
353.5251688631321
 31
0.0
  0
LINE
  5
2CB
330
113
100
AcDbEntity
  8
2
  6
Continuous
 62
     7
370
    18
100
AcDbLine
 10
-680.9587957402838
 20
353.0251688631321
 30
0.0
 11
-680.9587957402838
 21
348.0251688631321
 31
0.0
  0
LINE
  5
2CC
330
113
100
AcDbEntity
  8
2
  6
Continuous
 62
     7
370
    18
100
AcDbLine
 10
-706.6587957402836
 20
353.0251688631321
 30
0.0
 11
-671.258795740284
 21
353.0251688631321
 31
0.0
  0
ARC
  5
2CD
330
113
100
AcDbEntity
  8
2
  6
Continuous
 62
     7
370
    18
100
AcDbCircle
 10
-671.258795740284
 20
353.8251688631323
 30
0.0
 40
0.8
100
AcDbArc
 50
270.0
 51
337.9756869999987
  0
LINE
  5
2CE
330
113
100
AcDbEntity
  8
2
  6
Continuous
 62
     7
370
    18
100
AcDbLine
 10
-680.9587957402838
 20
348.0251688631321
 30
0.0
 11
-696.9587957402838
 21
348.0251688631321
 31
0.0
  0
LINE
  5
2CF
330
113
100
AcDbEntity
  8
2
  6
Continuous
 62
     7
370
    18
100
AcDbLine
 10
-696.9587957402838
 20
353.0251688631321
 30
0.0
 11
-696.9587957402838
 21
348.0251688631321
 31
0.0
  0
LINE
  5
2D0
330
113
100
AcDbEntity
  8
2
  6
Continuous
 62
     7
370
    18
100
AcDbLine
 10
-663.5587957402837
 20
451.3751688631324
 30
0.0
 11
-663.5587957402837
 21
357.6751688631317
 31
0.0
  0
ARC
  5
2D1
330
113
100
AcDbEntity
  8
2
  6
Continuous
 62
     7
370
    18
100
AcDbCircle
 10
-667.7087957402838
 20
357.6751688631317
 30
0.0
 40
4.15
100
AcDbArc
 50
270.0
 51
0.0
  0
LINE
  5
2D2
330
113
100
AcDbEntity
  8
2
  6
Continuous
 62
     7
370
    18
100
AcDbLine
 10
-714.3587957402839
 20
451.3751688631324
 30
0.0
 11
-714.3587957402839
 21
357.6751688631317
 31
0.0
  0
ARC
  5
2D3
330
113
100
AcDbEntity
  8
2
  6
Continuous
 62
     7
370
    18
100
AcDbCircle
 10
-710.2087957402838
 20
357.6751688631317
 30
0.0
 40
4.15
100
AcDbArc
 50
180.0
 51
270.0
  0
LINE
  5
2D4
330
113
100
AcDbEntity
  8
2
  6
CENTER
 62
     3
370
    13
100
AcDbLine
 10
-688.9587957402838
 20
344.5251688631321
 30
0.0
 11
-688.9587957402838
 21
464.5251688631321
 31
0.0
  0
ENDBLK
  5
115
330
113
100
AcDbEntity
  8
0
100
AcDbBlockEnd
  0
BLOCK
  5
117
330
116
100
AcDbEntity
  8
0
100
AcDbBlockBegin
  2
DC_GROUP_W_MR-5016_S_040_7
 70
     0
 10
0.0
 20
0.0
 30
0.0
  3
DC_GROUP_W_MR-5016_S_040_7
  1
DC_GROUP_W_MR-5016_S_040_7
  0
ARC
  5
2D5
330
116
100
AcDbEntity
  8
2
  6
Continuous
 62
     7
370
    18
100
AcDbCircle
 10
-467.7087957402838
 20
451.3751688631324
 30
0.0
 40
4.15
100
AcDbArc
 50
0.0
 51
90.0
  0
ARC
  5
2D6
330
116
100
AcDbEntity
  8
2
  6
Continuous
 62
     7
370
    18
100
AcDbCircle
 10
-506.6587957402836
 20
455.2251688631319
 30
0.0
 40
0.8
100
AcDbArc
 50
90.0
 51
157.9756869999987
  0
LINE
  5
2D7
330
116
100
AcDbEntity
  8
2
  6
Continuous
 62
     7
370
    18
100
AcDbLine
 10
-467.7087957402838
 20
455.5251688631321
 30
0.0
 11
-510.2087957402838
 21
455.5251688631321
 31
0.0
  0
ARC
  5
2D8
330
116
100
AcDbEntity
  8
2
  6
Continuous
 62
     7
370
    18
100
AcDbCircle
 10
-510.2087957402838
 20
451.3751688631324
 30
0.0
 40
4.15
100
AcDbArc
 50
90.0
 51
180.0
  0
LINE
  5
2D9
330
116
100
AcDbEntity
  8
2
  6
Continuous
 62
     7
370
    18
100
AcDbLine
 10
-480.9587957402838
 20
456.0251688631321
 30
0.0
 11
-480.9587957402838
 21
461.0251688631321
 31
0.0
  0
LINE
  5
2DA
330
116
100
AcDbEntity
  8
2
  6
Continuous
 62
     7
370
    18
100
AcDbLine
 10
-506.6587957402836
 20
456.0251688631321
 30
0.0
 11
-471.258795740284
 21
456.0251688631321
 31
0.0
  0
ARC
  5
2DB
330
116
100
AcDbEntity
  8
2
  6
Continuous
 62
     7
370
    18
100
AcDbCircle
 10
-471.258795740284
 20
455.2251688631319
 30
0.0
 40
0.8
100
AcDbArc
 50
22.02431300000125
 51
90.0
  0
LINE
  5
2DC
330
116
100
AcDbEntity
  8
2
  6
Continuous
 62
     7
370
    18
100
AcDbLine
 10
-480.9587957402838
 20
461.0251688631321
 30
0.0
 11
-496.9587957402838
 21
461.0251688631321
 31
0.0
  0
LINE
  5
2DD
330
116
100
AcDbEntity
  8
2
  6
Continuous
 62
     7
370
    18
100
AcDbLine
 10
-496.9587957402838
 20
456.0251688631321
 30
0.0
 11
-496.9587957402838
 21
461.0251688631321
 31
0.0
  0
ARC
  5
2DE
330
116
100
AcDbEntity
  8
2
  6
Continuous
 62
     7
370
    18
100
AcDbCircle
 10
-506.6587957402836
 20
353.8251688631323
 30
0.0
 40
0.8
100
AcDbArc
 50
202.0243130000013
 51
270.0
  0
LINE
  5
2DF
330
116
100
AcDbEntity
  8
2
  6
Continuous
 62
     7
370
    18
100
AcDbLine
 10
-467.7087957402838
 20
353.5251688631321
 30
0.0
 11
-510.2087957402838
 21
353.5251688631321
 31
0.0
  0
LINE
  5
2E0
330
116
100
AcDbEntity
  8
2
  6
Continuous
 62
     7
370
    18
100
AcDbLine
 10
-480.9587957402838
 20
353.0251688631321
 30
0.0
 11
-480.9587957402838
 21
348.0251688631321
 31
0.0
  0
LINE
  5
2E1
330
116
100
AcDbEntity
  8
2
  6
Continuous
 62
     7
370
    18
100
AcDbLine
 10
-506.6587957402836
 20
353.0251688631321
 30
0.0
 11
-471.258795740284
 21
353.0251688631321
 31
0.0
  0
ARC
  5
2E2
330
116
100
AcDbEntity
  8
2
  6
Continuous
 62
     7
370
    18
100
AcDbCircle
 10
-471.258795740284
 20
353.8251688631323
 30
0.0
 40
0.8
100
AcDbArc
 50
270.0
 51
337.9756869999987
  0
LINE
  5
2E3
330
116
100
AcDbEntity
  8
2
  6
Continuous
 62
     7
370
    18
100
AcDbLine
 10
-480.9587957402838
 20
348.0251688631321
 30
0.0
 11
-496.9587957402838
 21
348.0251688631321
 31
0.0
  0
LINE
  5
2E4
330
116
100
AcDbEntity
  8
2
  6
Continuous
 62
     7
370
    18
100
AcDbLine
 10
-496.9587957402838
 20
353.0251688631321
 30
0.0
 11
-496.9587957402838
 21
348.0251688631321
 31
0.0
  0
LINE
  5
2E5
330
116
100
AcDbEntity
  8
2
  6
Continuous
 62
     7
370
    18
100
AcDbLine
 10
-463.5587957402837
 20
451.3751688631324
 30
0.0
 11
-463.5587957402837
 21
357.6751688631317
 31
0.0
  0
ARC
  5
2E6
330
116
100
AcDbEntity
  8
2
  6
Continuous
 62
     7
370
    18
100
AcDbCircle
 10
-467.7087957402838
 20
357.6751688631317
 30
0.0
 40
4.15
100
AcDbArc
 50
270.0
 51
0.0
  0
LINE
  5
2E7
330
116
100
AcDbEntity
  8
2
  6
Continuous
 62
     7
370
    18
100
AcDbLine
 10
-514.3587957402839
 20
451.3751688631324
 30
0.0
 11
-514.3587957402839
 21
357.6751688631317
 31
0.0
  0
ARC
  5
2E8
330
116
100
AcDbEntity
  8
2
  6
Continuous
 62
     7
370
    18
100
AcDbCircle
 10
-510.2087957402838
 20
357.6751688631317
 30
0.0
 40
4.15
100
AcDbArc
 50
180.0
 51
270.0
  0
LINE
  5
2E9
330
116
100
AcDbEntity
  8
2
  6
CENTER
 62
     3
370
    13
100
AcDbLine
 10
-488.9587957402838
 20
344.5251688631321
 30
0.0
 11
-488.9587957402838
 21
464.5251688631321
 31
0.0
  0
ENDBLK
  5
118
330
116
100
AcDbEntity
  8
0
100
AcDbBlockEnd
  0
BLOCK
  5
11A
330
119
100
AcDbEntity
  8
0
100
AcDbBlockBegin
  2
DC_GROUP_W_MR-5016_S_040_8
 70
     0
 10
0.0
 20
0.0
 30
0.0
  3
DC_GROUP_W_MR-5016_S_040_8
  1
DC_GROUP_W_MR-5016_S_040_8
  0
ARC
  5
2EA
330
119
100
AcDbEntity
  8
2
  6
Continuous
 62
     7
370
    18
100
AcDbCircle
 10
-267.7087957402838
 20
451.3751688631324
 30
0.0
 40
4.15
100
AcDbArc
 50
0.0
 51
90.0
  0
ARC
  5
2EB
330
119
100
AcDbEntity
  8
2
  6
Continuous
 62
     7
370
    18
100
AcDbCircle
 10
-306.6587957402836
 20
455.2251688631319
 30
0.0
 40
0.8
100
AcDbArc
 50
90.0
 51
157.9756869999987
  0
LINE
  5
2EC
330
119
100
AcDbEntity
  8
2
  6
Continuous
 62
     7
370
    18
100
AcDbLine
 10
-267.7087957402838
 20
455.5251688631321
 30
0.0
 11
-310.2087957402838
 21
455.5251688631321
 31
0.0
  0
ARC
  5
2ED
330
119
100
AcDbEntity
  8
2
  6
Continuous
 62
     7
370
    18
100
AcDbCircle
 10
-310.2087957402838
 20
451.3751688631324
 30
0.0
 40
4.15
100
AcDbArc
 50
90.0
 51
180.0
  0
LINE
  5
2EE
330
119
100
AcDbEntity
  8
2
  6
Continuous
 62
     7
370
    18
100
AcDbLine
 10
-280.9587957402838
 20
456.0251688631321
 30
0.0
 11
-280.9587957402838
 21
461.0251688631321
 31
0.0
  0
LINE
  5
2EF
330
119
100
AcDbEntity
  8
2
  6
Continuous
 62
     7
370
    18
100
AcDbLine
 10
-306.6587957402836
 20
456.0251688631321
 30
0.0
 11
-271.258795740284
 21
456.0251688631321
 31
0.0
  0
ARC
  5
2F0
330
119
100
AcDbEntity
  8
2
  6
Continuous
 62
     7
370
    18
100
AcDbCircle
 10
-271.258795740284
 20
455.2251688631319
 30
0.0
 40
0.8
100
AcDbArc
 50
22.02431300000125
 51
90.0
  0
LINE
  5
2F1
330
119
100
AcDbEntity
  8
2
  6
Continuous
 62
     7
370
    18
100
AcDbLine
 10
-280.9587957402838
 20
461.0251688631321
 30
0.0
 11
-296.9587957402838
 21
461.0251688631321
 31
0.0
  0
LINE
  5
2F2
330
119
100
AcDbEntity
  8
2
  6
Continuous
 62
     7
370
    18
100
AcDbLine
 10
-296.9587957402838
 20
456.0251688631321
 30
0.0
 11
-296.9587957402838
 21
461.0251688631321
 31
0.0
  0
ARC
  5
2F3
330
119
100
AcDbEntity
  8
2
  6
Continuous
 62
     7
370
    18
100
AcDbCircle
 10
-306.6587957402836
 20
353.8251688631323
 30
0.0
 40
0.8
100
AcDbArc
 50
202.0243130000013
 51
270.0
  0
LINE
  5
2F4
330
119
100
AcDbEntity
  8
2
  6
Continuous
 62
     7
370
    18
100
AcDbLine
 10
-267.7087957402838
 20
353.5251688631321
 30
0.0
 11
-310.2087957402838
 21
353.5251688631321
 31
0.0
  0
LINE
  5
2F5
330
119
100
AcDbEntity
  8
2
  6
Continuous
 62
     7
370
    18
100
AcDbLine
 10
-280.9587957402838
 20
353.0251688631321
 30
0.0
 11
-280.9587957402838
 21
348.0251688631321
 31
0.0
  0
LINE
  5
2F6
330
119
100
AcDbEntity
  8
2
  6
Continuous
 62
     7
370
    18
100
AcDbLine
 10
-306.6587957402836
 20
353.0251688631321
 30
0.0
 11
-271.258795740284
 21
353.0251688631321
 31
0.0
  0
ARC
  5
2F7
330
119
100
AcDbEntity
  8
2
  6
Continuous
 62
     7
370
    18
100
AcDbCircle
 10
-271.258795740284
 20
353.8251688631323
 30
0.0
 40
0.8
100
AcDbArc
 50
270.0
 51
337.9756869999987
  0
LINE
  5
2F8
330
119
100
AcDbEntity
  8
2
  6
Continuous
 62
     7
370
    18
100
AcDbLine
 10
-280.9587957402838
 20
348.0251688631321
 30
0.0
 11
-296.9587957402838
 21
348.0251688631321
 31
0.0
  0
LINE
  5
2F9
330
119
100
AcDbEntity
  8
2
  6
Continuous
 62
     7
370
    18
100
AcDbLine
 10
-296.9587957402838
 20
353.0251688631321
 30
0.0
 11
-296.9587957402838
 21
348.0251688631321
 31
0.0
  0
LINE
  5
2FA
330
119
100
AcDbEntity
  8
2
  6
Continuous
 62
     7
370
    18
100
AcDbLine
 10
-263.5587957402837
 20
451.3751688631324
 30
0.0
 11
-263.5587957402837
 21
357.6751688631317
 31
0.0
  0
ARC
  5
2FB
330
119
100
AcDbEntity
  8
2
  6
Continuous
 62
     7
370
    18
100
AcDbCircle
 10
-267.7087957402838
 20
357.6751688631317
 30
0.0
 40
4.15
100
AcDbArc
 50
270.0
 51
0.0
  0
LINE
  5
2FC
330
119
100
AcDbEntity
  8
2
  6
Continuous
 62
     7
370
    18
100
AcDbLine
 10
-314.3587957402839
 20
451.3751688631324
 30
0.0
 11
-314.3587957402839
 21
357.6751688631317
 31
0.0
  0
ARC
  5
2FD
330
119
100
AcDbEntity
  8
2
  6
Continuous
 62
     7
370
    18
100
AcDbCircle
 10
-310.2087957402838
 20
357.6751688631317
 30
0.0
 40
4.15
100
AcDbArc
 50
180.0
 51
270.0
  0
LINE
  5
2FE
330
119
100
AcDbEntity
  8
2
  6
CENTER
 62
     3
370
    13
100
AcDbLine
 10
-288.9587957402838
 20
344.5251688631321
 30
0.0
 11
-288.9587957402838
 21
464.5251688631321
 31
0.0
  0
ENDBLK
  5
11B
330
119
100
AcDbEntity
  8
0
100
AcDbBlockEnd
  0
BLOCK
  5
11D
330
11C
100
AcDbEntity
  8
0
100
AcDbBlockBegin
  2
DC_GROUP_W_MR-5016_S_040_9
 70
     0
 10
0.0
 20
0.0
 30
0.0
  3
DC_GROUP_W_MR-5016_S_040_9
  1
DC_GROUP_W_MR-5016_S_040_9
  0
ARC
  5
2FF
330
11C
100
AcDbEntity
  8
2
  6
Continuous
 62
     7
370
    18
100
AcDbCircle
 10
-67.70879574028379
 20
451.3751688631324
 30
0.0
 40
4.15
100
AcDbArc
 50
0.0
 51
90.0
  0
ARC
  5
300
330
11C
100
AcDbEntity
  8
2
  6
Continuous
 62
     7
370
    18
100
AcDbCircle
 10
-106.6587957402836
 20
455.2251688631319
 30
0.0
 40
0.8
100
AcDbArc
 50
90.0
 51
157.9756869999987
  0
LINE
  5
301
330
11C
100
AcDbEntity
  8
2
  6
Continuous
 62
     7
370
    18
100
AcDbLine
 10
-67.70879574028379
 20
455.5251688631321
 30
0.0
 11
-110.2087957402838
 21
455.5251688631321
 31
0.0
  0
ARC
  5
302
330
11C
100
AcDbEntity
  8
2
  6
Continuous
 62
     7
370
    18
100
AcDbCircle
 10
-110.2087957402838
 20
451.3751688631324
 30
0.0
 40
4.15
100
AcDbArc
 50
90.0
 51
180.0
  0
LINE
  5
303
330
11C
100
AcDbEntity
  8
2
  6
Continuous
 62
     7
370
    18
100
AcDbLine
 10
-80.95879574028379
 20
456.0251688631321
 30
0.0
 11
-80.95879574028379
 21
461.0251688631321
 31
0.0
  0
LINE
  5
304
330
11C
100
AcDbEntity
  8
2
  6
Continuous
 62
     7
370
    18
100
AcDbLine
 10
-106.6587957402836
 20
456.0251688631321
 30
0.0
 11
-71.25879574028397
 21
456.0251688631321
 31
0.0
  0
ARC
  5
305
330
11C
100
AcDbEntity
  8
2
  6
Continuous
 62
     7
370
    18
100
AcDbCircle
 10
-71.25879574028397
 20
455.2251688631319
 30
0.0
 40
0.8
100
AcDbArc
 50
22.02431300000125
 51
90.0
  0
LINE
  5
306
330
11C
100
AcDbEntity
  8
2
  6
Continuous
 62
     7
370
    18
100
AcDbLine
 10
-80.95879574028379
 20
461.0251688631321
 30
0.0
 11
-96.95879574028379
 21
461.0251688631321
 31
0.0
  0
LINE
  5
307
330
11C
100
AcDbEntity
  8
2
  6
Continuous
 62
     7
370
    18
100
AcDbLine
 10
-96.95879574028379
 20
456.0251688631321
 30
0.0
 11
-96.95879574028379
 21
461.0251688631321
 31
0.0
  0
ARC
  5
308
330
11C
100
AcDbEntity
  8
2
  6
Continuous
 62
     7
370
    18
100
AcDbCircle
 10
-106.6587957402836
 20
353.8251688631323
 30
0.0
 40
0.8
100
AcDbArc
 50
202.0243130000013
 51
270.0
  0
LINE
  5
309
330
11C
100
AcDbEntity
  8
2
  6
Continuous
 62
     7
370
    18
100
AcDbLine
 10
-67.70879574028379
 20
353.5251688631321
 30
0.0
 11
-110.2087957402838
 21
353.5251688631321
 31
0.0
  0
LINE
  5
30A
330
11C
100
AcDbEntity
  8
2
  6
Continuous
 62
     7
370
    18
100
AcDbLine
 10
-80.95879574028379
 20
353.0251688631321
 30
0.0
 11
-80.95879574028379
 21
348.0251688631321
 31
0.0
  0
LINE
  5
30B
330
11C
100
AcDbEntity
  8
2
  6
Continuous
 62
     7
370
    18
100
AcDbLine
 10
-106.6587957402836
 20
353.0251688631321
 30
0.0
 11
-71.25879574028397
 21
353.0251688631321
 31
0.0
  0
ARC
  5
30C
330
11C
100
AcDbEntity
  8
2
  6
Continuous
 62
     7
370
    18
100
AcDbCircle
 10
-71.25879574028397
 20
353.8251688631323
 30
0.0
 40
0.8
100
AcDbArc
 50
270.0
 51
337.9756869999987
  0
LINE
  5
30D
330
11C
100
AcDbEntity
  8
2
  6
Continuous
 62
     7
370
    18
100
AcDbLine
 10
-80.95879574028379
 20
348.0251688631321
 30
0.0
 11
-96.95879574028379
 21
348.0251688631321
 31
0.0
  0
LINE
  5
30E
330
11C
100
AcDbEntity
  8
2
  6
Continuous
 62
     7
370
    18
100
AcDbLine
 10
-96.95879574028379
 20
353.0251688631321
 30
0.0
 11
-96.95879574028379
 21
348.0251688631321
 31
0.0
  0
LINE
  5
30F
330
11C
100
AcDbEntity
  8
2
  6
Continuous
 62
     7
370
    18
100
AcDbLine
 10
-63.5587957402837
 20
451.3751688631324
 30
0.0
 11
-63.5587957402837
 21
357.6751688631317
 31
0.0
  0
ARC
  5
310
330
11C
100
AcDbEntity
  8
2
  6
Continuous
 62
     7
370
    18
100
AcDbCircle
 10
-67.70879574028379
 20
357.6751688631317
 30
0.0
 40
4.15
100
AcDbArc
 50
270.0
 51
0.0
  0
LINE
  5
311
330
11C
100
AcDbEntity
  8
2
  6
Continuous
 62
     7
370
    18
100
AcDbLine
 10
-114.3587957402839
 20
451.3751688631324
 30
0.0
 11
-114.3587957402839
 21
357.6751688631317
 31
0.0
  0
ARC
  5
312
330
11C
100
AcDbEntity
  8
2
  6
Continuous
 62
     7
370
    18
100
AcDbCircle
 10
-110.2087957402838
 20
357.6751688631317
 30
0.0
 40
4.15
100
AcDbArc
 50
180.0
 51
270.0
  0
LINE
  5
313
330
11C
100
AcDbEntity
  8
2
  6
CENTER
 62
     3
370
    13
100
AcDbLine
 10
-88.95879574028379
 20
344.5251688631321
 30
0.0
 11
-88.95879574028379
 21
464.5251688631321
 31
0.0
  0
ENDBLK
  5
11E
330
11C
100
AcDbEntity
  8
0
100
AcDbBlockEnd
  0
BLOCK
  5
120
330
11F
100
AcDbEntity
  8
0
100
AcDbBlockBegin
  2
DC_GROUP_W_MR-5016_S_040_10
 70
     0
 10
0.0
 20
0.0
 30
0.0
  3
DC_GROUP_W_MR-5016_S_040_10
  1
DC_GROUP_W_MR-5016_S_040_10
  0
ARC
  5
314
330
11F
100
AcDbEntity
  8
2
  6
Continuous
 62
     7
370
    18
100
AcDbCircle
 10
132.2912042597162
 20
451.3751688631324
 30
0.0
 40
4.15
100
AcDbArc
 50
0.0
 51
90.0
  0
ARC
  5
315
330
11F
100
AcDbEntity
  8
2
  6
Continuous
 62
     7
370
    18
100
AcDbCircle
 10
93.34120425971639
 20
455.2251688631319
 30
0.0
 40
0.8
100
AcDbArc
 50
90.0
 51
157.9756869999987
  0
LINE
  5
316
330
11F
100
AcDbEntity
  8
2
  6
Continuous
 62
     7
370
    18
100
AcDbLine
 10
132.2912042597162
 20
455.5251688631321
 30
0.0
 11
89.79120425971621
 21
455.5251688631321
 31
0.0
  0
ARC
  5
317
330
11F
100
AcDbEntity
  8
2
  6
Continuous
 62
     7
370
    18
100
AcDbCircle
 10
89.79120425971621
 20
451.3751688631324
 30
0.0
 40
4.15
100
AcDbArc
 50
90.0
 51
180.0
  0
LINE
  5
318
330
11F
100
AcDbEntity
  8
2
  6
Continuous
 62
     7
370
    18
100
AcDbLine
 10
119.0412042597162
 20
456.0251688631321
 30
0.0
 11
119.0412042597162
 21
461.0251688631321
 31
0.0
  0
LINE
  5
319
330
11F
100
AcDbEntity
  8
2
  6
Continuous
 62
     7
370
    18
100
AcDbLine
 10
93.34120425971639
 20
456.0251688631321
 30
0.0
 11
128.741204259716
 21
456.0251688631321
 31
0.0
  0
ARC
  5
31A
330
11F
100
AcDbEntity
  8
2
  6
Continuous
 62
     7
370
    18
100
AcDbCircle
 10
128.741204259716
 20
455.2251688631319
 30
0.0
 40
0.8
100
AcDbArc
 50
22.02431300000125
 51
90.0
  0
LINE
  5
31B
330
11F
100
AcDbEntity
  8
2
  6
Continuous
 62
     7
370
    18
100
AcDbLine
 10
119.0412042597162
 20
461.0251688631321
 30
0.0
 11
103.0412042597162
 21
461.0251688631321
 31
0.0
  0
LINE
  5
31C
330
11F
100
AcDbEntity
  8
2
  6
Continuous
 62
     7
370
    18
100
AcDbLine
 10
103.0412042597162
 20
456.0251688631321
 30
0.0
 11
103.0412042597162
 21
461.0251688631321
 31
0.0
  0
ARC
  5
31D
330
11F
100
AcDbEntity
  8
2
  6
Continuous
 62
     7
370
    18
100
AcDbCircle
 10
93.34120425971639
 20
353.8251688631323
 30
0.0
 40
0.8
100
AcDbArc
 50
202.0243130000013
 51
270.0
  0
LINE
  5
31E
330
11F
100
AcDbEntity
  8
2
  6
Continuous
 62
     7
370
    18
100
AcDbLine
 10
132.2912042597162
 20
353.5251688631321
 30
0.0
 11
89.79120425971621
 21
353.5251688631321
 31
0.0
  0
LINE
  5
31F
330
11F
100
AcDbEntity
  8
2
  6
Continuous
 62
     7
370
    18
100
AcDbLine
 10
119.0412042597162
 20
353.0251688631321
 30
0.0
 11
119.0412042597162
 21
348.0251688631321
 31
0.0
  0
LINE
  5
320
330
11F
100
AcDbEntity
  8
2
  6
Continuous
 62
     7
370
    18
100
AcDbLine
 10
93.34120425971639
 20
353.0251688631321
 30
0.0
 11
128.741204259716
 21
353.0251688631321
 31
0.0
  0
ARC
  5
321
330
11F
100
AcDbEntity
  8
2
  6
Continuous
 62
     7
370
    18
100
AcDbCircle
 10
128.741204259716
 20
353.8251688631323
 30
0.0
 40
0.8
100
AcDbArc
 50
270.0
 51
337.9756869999987
  0
LINE
  5
322
330
11F
100
AcDbEntity
  8
2
  6
Continuous
 62
     7
370
    18
100
AcDbLine
 10
119.0412042597162
 20
348.0251688631321
 30
0.0
 11
103.0412042597162
 21
348.0251688631321
 31
0.0
  0
LINE
  5
323
330
11F
100
AcDbEntity
  8
2
  6
Continuous
 62
     7
370
    18
100
AcDbLine
 10
103.0412042597162
 20
353.0251688631321
 30
0.0
 11
103.0412042597162
 21
348.0251688631321
 31
0.0
  0
LINE
  5
324
330
11F
100
AcDbEntity
  8
2
  6
Continuous
 62
     7
370
    18
100
AcDbLine
 10
136.4412042597163
 20
451.3751688631324
 30
0.0
 11
136.4412042597163
 21
357.6751688631317
 31
0.0
  0
ARC
  5
325
330
11F
100
AcDbEntity
  8
2
  6
Continuous
 62
     7
370
    18
100
AcDbCircle
 10
132.2912042597162
 20
357.6751688631317
 30
0.0
 40
4.15
100
AcDbArc
 50
270.0
 51
0.0
  0
LINE
  5
326
330
11F
100
AcDbEntity
  8
2
  6
Continuous
 62
     7
370
    18
100
AcDbLine
 10
85.64120425971612
 20
451.3751688631324
 30
0.0
 11
85.64120425971612
 21
357.6751688631317
 31
0.0
  0
ARC
  5
327
330
11F
100
AcDbEntity
  8
2
  6
Continuous
 62
     7
370
    18
100
AcDbCircle
 10
89.79120425971621
 20
357.6751688631317
 30
0.0
 40
4.15
100
AcDbArc
 50
180.0
 51
270.0
  0
LINE
  5
328
330
11F
100
AcDbEntity
  8
2
  6
CENTER
 62
     3
370
    13
100
AcDbLine
 10
111.0412042597162
 20
344.5251688631321
 30
0.0
 11
111.0412042597162
 21
464.5251688631321
 31
0.0
  0
ENDBLK
  5
121
330
11F
100
AcDbEntity
  8
0
100
AcDbBlockEnd
  0
BLOCK
  5
123
330
122
100
AcDbEntity
  8
0
100
AcDbBlockBegin
  2
DC_GROUP_W_MR-5016_S_040_11
 70
     0
 10
0.0
 20
0.0
 30
0.0
  3
DC_GROUP_W_MR-5016_S_040_11
  1
DC_GROUP_W_MR-5016_S_040_11
  0
LINE
  5
329
330
122
100
AcDbEntity
  8
0
  6
Continuous
 62
     7
370
    18
100
AcDbLine
 10
6.54120425971621
 20
-9.806252847374452
 30
0.0
 11
56.54120425971621
 21
-9.806252847374452
 31
0.0
  0
ENDBLK
  5
124
330
122
100
AcDbEntity
  8
0
100
AcDbBlockEnd
  0
BLOCK
  5
126
330
125
100
AcDbEntity
  8
0
100
AcDbBlockBegin
  2
DC_GROUP_W_MR-5016_S_040_12
 70
     0
 10
0.0
 20
0.0
 30
0.0
  3
DC_GROUP_W_MR-5016_S_040_12
  1
DC_GROUP_W_MR-5016_S_040_12
  0
CIRCLE
  5
32A
330
125
100
AcDbEntity
  8
0
  6
Continuous
 62
     7
370
    18
100
AcDbCircle
 10
-588.9587957402838
 20
40.19374715262555
 30
0.0
 40
10.5
  0
LINE
  5
32B
330
125
100
AcDbEntity
  8
0
  6
CENTER
 62
     3
370
    13
100
AcDbLine
 10
-588.9587957402838
 20
57.89374715262537
 30
0.0
 11
-588.9587957402838
 21
22.49374715262573
 31
0.0
  0
LINE
  5
32C
330
125
100
AcDbEntity
  8
0
  6
CENTER
 62
     3
370
    13
100
AcDbLine
 10
-604.957318740284
 20
40.19374715262555
 30
0.0
 11
-572.9602727402836
 21
40.19374715262555
 31
0.0
  0
INSERT
  5
32D
330
125
100
AcDbEntity
  8
0
  6
Continuous
100
AcDbBlockReference
  2
DC_GROUP_W_MR-5016_S_040_13
 10
0.0
 20
0.0
 30
0.0
  0
ENDBLK
  5
127
330
125
100
AcDbEntity
  8
0
100
AcDbBlockEnd
  0
BLOCK
  5
129
330
128
100
AcDbEntity
  8
0
100
AcDbBlockBegin
  2
DC_GROUP_W_MR-5016_S_040_13
 70
     0
 10
0.0
 20
0.0
 30
0.0
  3
DC_GROUP_W_MR-5016_S_040_13
  1
DC_GROUP_W_MR-5016_S_040_13
  0
LINE
  5
32E
330
128
100
AcDbEntity
  8
0
  6
Continuous
 62
     7
370
    18
100
AcDbLine
 10
-588.9587957402838
 20
52.89374715262537
 30
0.0
 11
-599.957318740284
 21
46.54374715262591
 31
0.0
  0
LINE
  5
32F
330
128
100
AcDbEntity
  8
0
  6
Continuous
 62
     7
370
    18
100
AcDbLine
 10
-599.957318740284
 20
46.54374715262591
 30
0.0
 11
-599.957318740284
 21
33.84374715262518
 31
0.0
  0
LINE
  5
330
330
128
100
AcDbEntity
  8
0
  6
Continuous
 62
     7
370
    18
100
AcDbLine
 10
-599.957318740284
 20
33.84374715262518
 30
0.0
 11
-588.9587957402838
 21
27.49374715262573
 31
0.0
  0
LINE
  5
331
330
128
100
AcDbEntity
  8
0
  6
Continuous
 62
     7
370
    18
100
AcDbLine
 10
-588.9587957402838
 20
27.49374715262573
 30
0.0
 11
-577.9602727402836
 21
33.84374715262518
 31
0.0
  0
LINE
  5
332
330
128
100
AcDbEntity
  8
0
  6
Continuous
 62
     7
370
    18
100
AcDbLine
 10
-577.9602727402836
 20
33.84374715262518
 30
0.0
 11
-577.9602727402836
 21
46.54374715262591
 31
0.0
  0
LINE
  5
333
330
128
100
AcDbEntity
  8
0
  6
Continuous
 62
     7
370
    18
100
AcDbLine
 10
-577.9602727402836
 20
46.54374715262591
 30
0.0
 11
-588.9587957402838
 21
52.89374715262537
 31
0.0
  0
ENDBLK
  5
12A
330
128
100
AcDbEntity
  8
0
100
AcDbBlockEnd
  0
BLOCK
  5
12C
330
12B
100
AcDbEntity
  8
0
100
AcDbBlockBegin
  2
DC_GROUP_W_MR-5016_S_040_14
 70
     0
 10
0.0
 20
0.0
 30
0.0
  3
DC_GROUP_W_MR-5016_S_040_14
  1
DC_GROUP_W_MR-5016_S_040_14
  0
CIRCLE
  5
334
330
12B
100
AcDbEntity
  8
0
  6
Continuous
 62
     7
370
    18
100
AcDbCircle
 10
-773.9587957402838
 20
30.19374715262555
 30
0.0
 40
5.0
  0
LINE
  5
335
330
12B
100
AcDbEntity
  8
0
  6
CENTER
 62
     3
370
    13
100
AcDbLine
 10
-773.9587957402838
 20
20.19374715262555
 30
0.0
 11
-773.9587957402838
 21
40.19374715262555
 31
0.0
  0
LINE
  5
336
330
12B
100
AcDbEntity
  8
0
  6
CENTER
 62
     3
370
    13
100
AcDbLine
 10
-783.9587957402838
 20
30.19374715262555
 30
0.0
 11
-763.9587957402838
 21
30.19374715262555
 31
0.0
  0
ENDBLK
  5
12D
330
12B
100
AcDbEntity
  8
0
100
AcDbBlockEnd
  0
BLOCK
  5
12F
330
12E
100
AcDbEntity
  8
0
100
AcDbBlockBegin
  2
DC_GROUP_W_MR-5016_S_040_15
 70
     0
 10
0.0
 20
0.0
 30
0.0
  3
DC_GROUP_W_MR-5016_S_040_15
  1
DC_GROUP_W_MR-5016_S_040_15
  0
CIRCLE
  5
337
330
12E
100
AcDbEntity
  8
0
  6
Continuous
 62
     7
370
    18
100
AcDbCircle
 10
11.04120425971621
 20
40.19374715262555
 30
0.0
 40
10.5
  0
LINE
  5
338
330
12E
100
AcDbEntity
  8
0
  6
CENTER
 62
     3
370
    13
100
AcDbLine
 10
11.04120425971621
 20
57.89374715262537
 30
0.0
 11
11.04120425971621
 21
22.49374715262573
 31
0.0
  0
LINE
  5
339
330
12E
100
AcDbEntity
  8
0
  6
CENTER
 62
     3
370
    13
100
AcDbLine
 10
-4.957318740283995
 20
40.19374715262555
 30
0.0
 11
27.03972725971641
 21
40.19374715262555
 31
0.0
  0
INSERT
  5
33A
330
12E
100
AcDbEntity
  8
0
  6
Continuous
100
AcDbBlockReference
  2
DC_GROUP_W_MR-5016_S_040_16
 10
0.0
 20
0.0
 30
0.0
  0
ENDBLK
  5
130
330
12E
100
AcDbEntity
  8
0
100
AcDbBlockEnd
  0
BLOCK
  5
132
330
131
100
AcDbEntity
  8
0
100
AcDbBlockBegin
  2
DC_GROUP_W_MR-5016_S_040_16
 70
     0
 10
0.0
 20
0.0
 30
0.0
  3
DC_GROUP_W_MR-5016_S_040_16
  1
DC_GROUP_W_MR-5016_S_040_16
  0
LINE
  5
33B
330
131
100
AcDbEntity
  8
0
  6
Continuous
 62
     7
370
    18
100
AcDbLine
 10
11.04120425971621
 20
52.89374715262537
 30
0.0
 11
0.0426812597160051
 21
46.54374715262591
 31
0.0
  0
LINE
  5
33C
330
131
100
AcDbEntity
  8
0
  6
Continuous
 62
     7
370
    18
100
AcDbLine
 10
0.0426812597160051
 20
46.54374715262591
 30
0.0
 11
0.0426812597160051
 21
33.84374715262518
 31
0.0
  0
LINE
  5
33D
330
131
100
AcDbEntity
  8
0
  6
Continuous
 62
     7
370
    18
100
AcDbLine
 10
0.0426812597160051
 20
33.84374715262518
 30
0.0
 11
11.04120425971621
 21
27.49374715262573
 31
0.0
  0
LINE
  5
33E
330
131
100
AcDbEntity
  8
0
  6
Continuous
 62
     7
370
    18
100
AcDbLine
 10
11.04120425971621
 20
27.49374715262573
 30
0.0
 11
22.03972725971641
 21
33.84374715262518
 31
0.0
  0
LINE
  5
33F
330
131
100
AcDbEntity
  8
0
  6
Continuous
 62
     7
370
    18
100
AcDbLine
 10
22.03972725971641
 20
33.84374715262518
 30
0.0
 11
22.03972725971641
 21
46.54374715262591
 31
0.0
  0
LINE
  5
340
330
131
100
AcDbEntity
  8
0
  6
Continuous
 62
     7
370
    18
100
AcDbLine
 10
22.03972725971641
 20
46.54374715262591
 30
0.0
 11
11.04120425971621
 21
52.89374715262537
 31
0.0
  0
ENDBLK
  5
133
330
131
100
AcDbEntity
  8
0
100
AcDbBlockEnd
  0
BLOCK
  5
135
330
134
100
AcDbEntity
  8
0
100
AcDbBlockBegin
  2
DC_GROUP_W_MR-5016_S_040_17
 70
     0
 10
0.0
 20
0.0
 30
0.0
  3
DC_GROUP_W_MR-5016_S_040_17
  1
DC_GROUP_W_MR-5016_S_040_17
  0
CIRCLE
  5
341
330
134
100
AcDbEntity
  8
0
  6
Continuous
 62
     7
370
    18
100
AcDbCircle
 10
196.0412042597162
 20
30.19374715262555
 30
0.0
 40
5.0
  0
LINE
  5
342
330
134
100
AcDbEntity
  8
0
  6
CENTER
 62
     3
370
    13
100
AcDbLine
 10
196.0412042597162
 20
20.19374715262555
 30
0.0
 11
196.0412042597162
 21
40.19374715262555
 31
0.0
  0
LINE
  5
343
330
134
100
AcDbEntity
  8
0
  6
CENTER
 62
     3
370
    13
100
AcDbLine
 10
206.0412042597162
 20
30.19374715262555
 30
0.0
 11
186.0412042597162
 21
30.19374715262555
 31
0.0
  0
ENDBLK
  5
136
330
134
100
AcDbEntity
  8
0
100
AcDbBlockEnd
  0
BLOCK
  5
138
330
137
100
AcDbEntity
  8
0
100
AcDbBlockBegin
  2
DC_GROUP_W_MR-5016_S_040_18
 70
     0
 10
0.0
 20
0.0
 30
0.0
  3
DC_GROUP_W_MR-5016_S_040_18
  1
DC_GROUP_W_MR-5016_S_040_18
  0
LINE
  5
344
330
137
100
AcDbEntity
  8
2
  6
CENTER
 62
     3
370
    13
100
AcDbLine
 10
-688.9587957402838
 20
97.84374715262518
 30
0.0
 11
-688.9587957402838
 21
25.54374715262591
 31
0.0
  0
LINE
  5
345
330
137
100
AcDbEntity
  8
2
  6
Continuous
 62
     7
370
    18
100
AcDbLine
 10
-684.2873397402838
 20
65.69374715262555
 30
0.0
 11
-693.6302517402838
 21
65.69374715262555
 31
0.0
  0
ARC
  5
346
330
137
100
AcDbEntity
  8
2
  6
Continuous
 62
     7
370
    18
100
AcDbCircle
 10
-688.9587957402838
 20
61.69374715262555
 30
0.0
 40
6.15
100
AcDbArc
 50
139.4277419999989
 51
40.57225800000106
  0
ARC
  5
347
330
137
100
AcDbEntity
  8
2
  6
Continuous
 62
     7
370
    18
100
AcDbCircle
 10
-688.9587957402838
 20
61.69374715262555
 30
0.0
 40
25.4
100
AcDbArc
 50
46.74795021824281
 51
133.2520497817572
  0
ARC
  5
348
330
137
100
AcDbEntity
  8
2
  6
DASHED2
 62
     4
370
    13
100
AcDbCircle
 10
-688.9587957402838
 20
61.69374715262555
 30
0.0
 40
25.4
100
AcDbArc
 50
133.2520497817572
 51
46.74795021824282
  0
ENDBLK
  5
139
330
137
100
AcDbEntity
  8
0
100
AcDbBlockEnd
  0
BLOCK
  5
13B
330
13A
100
AcDbEntity
  8
0
100
AcDbBlockBegin
  2
DC_GROUP_W_MR-5016_S_040_19
 70
     0
 10
0.0
 20
0.0
 30
0.0
  3
DC_GROUP_W_MR-5016_S_040_19
  1
DC_GROUP_W_MR-5016_S_040_19
  0
LINE
  5
349
330
13A
100
AcDbEntity
  8
2
  6
CENTER
 62
     3
370
    13
100
AcDbLine
 10
-638.9587957402838
 20
70.84374715262518
 30
0.0
 11
-638.9587957402838
 21
52.54374715262591
 31
0.0
  0
LINE
  5
34A
330
13A
100
AcDbEntity
  8
2
  6
Continuous
 62
     7
370
    18
100
AcDbLine
 10
-634.2873397402838
 20
65.69374715262555
 30
0.0
 11
-643.6302517402838
 21
65.69374715262555
 31
0.0
  0
ARC
  5
34B
330
13A
100
AcDbEntity
  8
2
  6
Continuous
 62
     7
370
    18
100
AcDbCircle
 10
-638.9587957402838
 20
61.69374715262555
 30
0.0
 40
6.15
100
AcDbArc
 50
139.4277419999989
 51
40.57225800000106
  0
ENDBLK
  5
13C
330
13A
100
AcDbEntity
  8
0
100
AcDbBlockEnd
  0
BLOCK
  5
13E
330
13D
100
AcDbEntity
  8
0
100
AcDbBlockBegin
  2
DC_GROUP_W_MR-5016_S_040_20
 70
     0
 10
0.0
 20
0.0
 30
0.0
  3
DC_GROUP_W_MR-5016_S_040_20
  1
DC_GROUP_W_MR-5016_S_040_20
  0
LINE
  5
34C
330
13D
100
AcDbEntity
  8
2
  6
CENTER
 62
     3
370
    13
100
AcDbLine
 10
-588.9587957402838
 20
70.84374715262518
 30
0.0
 11
-588.9587957402838
 21
52.54374715262591
 31
0.0
  0
LINE
  5
34D
330
13D
100
AcDbEntity
  8
2
  6
Continuous
 62
     7
370
    18
100
AcDbLine
 10
-584.2873397402838
 20
65.69374715262555
 30
0.0
 11
-593.6302517402838
 21
65.69374715262555
 31
0.0
  0
ARC
  5
34E
330
13D
100
AcDbEntity
  8
2
  6
Continuous
 62
     7
370
    18
100
AcDbCircle
 10
-588.9587957402838
 20
61.69374715262555
 30
0.0
 40
6.15
100
AcDbArc
 50
139.4277419999989
 51
40.57225800000106
  0
ENDBLK
  5
13F
330
13D
100
AcDbEntity
  8
0
100
AcDbBlockEnd
  0
BLOCK
  5
141
330
140
100
AcDbEntity
  8
0
100
AcDbBlockBegin
  2
DC_GROUP_W_MR-5016_S_040_21
 70
     0
 10
0.0
 20
0.0
 30
0.0
  3
DC_GROUP_W_MR-5016_S_040_21
  1
DC_GROUP_W_MR-5016_S_040_21
  0
LINE
  5
34F
330
140
100
AcDbEntity
  8
2
  6
CENTER
 62
     3
370
    13
100
AcDbLine
 10
-538.9587957402838
 20
70.84374715262518
 30
0.0
 11
-538.9587957402838
 21
52.54374715262591
 31
0.0
  0
LINE
  5
350
330
140
100
AcDbEntity
  8
2
  6
Continuous
 62
     7
370
    18
100
AcDbLine
 10
-534.2873397402838
 20
65.69374715262555
 30
0.0
 11
-543.6302517402838
 21
65.69374715262555
 31
0.0
  0
ARC
  5
351
330
140
100
AcDbEntity
  8
2
  6
Continuous
 62
     7
370
    18
100
AcDbCircle
 10
-538.9587957402838
 20
61.69374715262555
 30
0.0
 40
6.15
100
AcDbArc
 50
139.4277419999989
 51
40.57225800000106
  0
ENDBLK
  5
142
330
140
100
AcDbEntity
  8
0
100
AcDbBlockEnd
  0
BLOCK
  5
144
330
143
100
AcDbEntity
  8
0
100
AcDbBlockBegin
  2
DC_GROUP_W_MR-5016_S_040_22
 70
     0
 10
0.0
 20
0.0
 30
0.0
  3
DC_GROUP_W_MR-5016_S_040_22
  1
DC_GROUP_W_MR-5016_S_040_22
  0
LINE
  5
352
330
143
100
AcDbEntity
  8
2
  6
CENTER
 62
     3
370
    13
100
AcDbLine
 10
-488.9587957402838
 20
97.84374715262518
 30
0.0
 11
-488.9587957402838
 21
25.54374715262591
 31
0.0
  0
LINE
  5
353
330
143
100
AcDbEntity
  8
2
  6
Continuous
 62
     7
370
    18
100
AcDbLine
 10
-484.2873397402838
 20
65.69374715262555
 30
0.0
 11
-493.6302517402838
 21
65.69374715262555
 31
0.0
  0
ARC
  5
354
330
143
100
AcDbEntity
  8
2
  6
Continuous
 62
     7
370
    18
100
AcDbCircle
 10
-488.9587957402838
 20
61.69374715262555
 30
0.0
 40
6.15
100
AcDbArc
 50
139.4277419999989
 51
40.57225800000106
  0
ARC
  5
355
330
143
100
AcDbEntity
  8
2
  6
Continuous
 62
     7
370
    18
100
AcDbCircle
 10
-488.9587957402838
 20
61.69374715262555
 30
0.0
 40
25.4
100
AcDbArc
 50
46.74795021824281
 51
133.2520497817572
  0
ARC
  5
356
330
143
100
AcDbEntity
  8
2
  6
DASHED2
 62
     4
370
    13
100
AcDbCircle
 10
-488.9587957402838
 20
61.69374715262555
 30
0.0
 40
25.4
100
AcDbArc
 50
133.2520497817572
 51
46.74795021824282
  0
ENDBLK
  5
145
330
143
100
AcDbEntity
  8
0
100
AcDbBlockEnd
  0
BLOCK
  5
147
330
146
100
AcDbEntity
  8
0
100
AcDbBlockBegin
  2
DC_GROUP_W_MR-5016_S_040_23
 70
     0
 10
0.0
 20
0.0
 30
0.0
  3
DC_GROUP_W_MR-5016_S_040_23
  1
DC_GROUP_W_MR-5016_S_040_23
  0
LINE
  5
357
330
146
100
AcDbEntity
  8
2
  6
CENTER
 62
     3
370
    13
100
AcDbLine
 10
-738.9587957402838
 20
70.84374715262518
 30
0.0
 11
-738.9587957402838
 21
52.54374715262591
 31
0.0
  0
LINE
  5
358
330
146
100
AcDbEntity
  8
2
  6
Continuous
 62
     7
370
    18
100
AcDbLine
 10
-734.2873397402838
 20
65.69374715262555
 30
0.0
 11
-743.6302517402838
 21
65.69374715262555
 31
0.0
  0
ARC
  5
359
330
146
100
AcDbEntity
  8
2
  6
Continuous
 62
     7
370
    18
100
AcDbCircle
 10
-738.9587957402838
 20
61.69374715262555
 30
0.0
 40
6.15
100
AcDbArc
 50
139.4277419999989
 51
40.57225800000106
  0
ENDBLK
  5
148
330
146
100
AcDbEntity
  8
0
100
AcDbBlockEnd
  0
BLOCK
  5
14A
330
149
100
AcDbEntity
  8
0
100
AcDbBlockBegin
  2
DC_GROUP_W_MR-5016_S_040_24
 70
     0
 10
0.0
 20
0.0
 30
0.0
  3
DC_GROUP_W_MR-5016_S_040_24
  1
DC_GROUP_W_MR-5016_S_040_24
  0
LINE
  5
35A
330
149
100
AcDbEntity
  8
2
  6
CENTER
 62
     3
370
    13
100
AcDbLine
 10
-438.9587957402838
 20
70.84374715262518
 30
0.0
 11
-438.9587957402838
 21
52.54374715262591
 31
0.0
  0
LINE
  5
35B
330
149
100
AcDbEntity
  8
2
  6
Continuous
 62
     7
370
    18
100
AcDbLine
 10
-434.2873397402838
 20
65.69374715262555
 30
0.0
 11
-443.6302517402838
 21
65.69374715262555
 31
0.0
  0
ARC
  5
35C
330
149
100
AcDbEntity
  8
2
  6
Continuous
 62
     7
370
    18
100
AcDbCircle
 10
-438.9587957402838
 20
61.69374715262555
 30
0.0
 40
6.15
100
AcDbArc
 50
139.4277419999989
 51
40.57225800000106
  0
ENDBLK
  5
14B
330
149
100
AcDbEntity
  8
0
100
AcDbBlockEnd
  0
BLOCK
  5
14D
330
14C
100
AcDbEntity
  8
0
100
AcDbBlockBegin
  2
DC_GROUP_W_MR-5016_S_040_25
 70
     0
 10
0.0
 20
0.0
 30
0.0
  3
DC_GROUP_W_MR-5016_S_040_25
  1
DC_GROUP_W_MR-5016_S_040_25
  0
LINE
  5
35D
330
14C
100
AcDbEntity
  8
2
  6
CENTER
 62
     3
370
    13
100
AcDbLine
 10
-388.9587957402838
 20
70.84374715262518
 30
0.0
 11
-388.9587957402838
 21
52.54374715262591
 31
0.0
  0
LINE
  5
35E
330
14C
100
AcDbEntity
  8
2
  6
Continuous
 62
     7
370
    18
100
AcDbLine
 10
-384.2873397402838
 20
65.69374715262555
 30
0.0
 11
-393.6302517402838
 21
65.69374715262555
 31
0.0
  0
ARC
  5
35F
330
14C
100
AcDbEntity
  8
2
  6
Continuous
 62
     7
370
    18
100
AcDbCircle
 10
-388.9587957402838
 20
61.69374715262555
 30
0.0
 40
6.15
100
AcDbArc
 50
139.4277419999989
 51
40.57225800000106
  0
ENDBLK
  5
14E
330
14C
100
AcDbEntity
  8
0
100
AcDbBlockEnd
  0
BLOCK
  5
150
330
14F
100
AcDbEntity
  8
0
100
AcDbBlockBegin
  2
DC_GROUP_W_MR-5016_S_040_26
 70
     0
 10
0.0
 20
0.0
 30
0.0
  3
DC_GROUP_W_MR-5016_S_040_26
  1
DC_GROUP_W_MR-5016_S_040_26
  0
LINE
  5
360
330
14F
100
AcDbEntity
  8
2
  6
CENTER
 62
     3
370
    13
100
AcDbLine
 10
-338.9587957402838
 20
70.84374715262518
 30
0.0
 11
-338.9587957402838
 21
52.54374715262591
 31
0.0
  0
LINE
  5
361
330
14F
100
AcDbEntity
  8
2
  6
Continuous
 62
     7
370
    18
100
AcDbLine
 10
-334.2873397402838
 20
65.69374715262555
 30
0.0
 11
-343.6302517402838
 21
65.69374715262555
 31
0.0
  0
ARC
  5
362
330
14F
100
AcDbEntity
  8
2
  6
Continuous
 62
     7
370
    18
100
AcDbCircle
 10
-338.9587957402838
 20
61.69374715262555
 30
0.0
 40
6.15
100
AcDbArc
 50
139.4277419999989
 51
40.57225800000106
  0
ENDBLK
  5
151
330
14F
100
AcDbEntity
  8
0
100
AcDbBlockEnd
  0
BLOCK
  5
153
330
152
100
AcDbEntity
  8
0
100
AcDbBlockBegin
  2
DC_GROUP_W_MR-5016_S_040_27
 70
     0
 10
0.0
 20
0.0
 30
0.0
  3
DC_GROUP_W_MR-5016_S_040_27
  1
DC_GROUP_W_MR-5016_S_040_27
  0
LINE
  5
363
330
152
100
AcDbEntity
  8
2
  6
CENTER
 62
     3
370
    13
100
AcDbLine
 10
-288.9587957402838
 20
97.84374715262518
 30
0.0
 11
-288.9587957402838
 21
25.54374715262591
 31
0.0
  0
LINE
  5
364
330
152
100
AcDbEntity
  8
2
  6
Continuous
 62
     7
370
    18
100
AcDbLine
 10
-284.2873397402838
 20
65.69374715262555
 30
0.0
 11
-293.6302517402838
 21
65.69374715262555
 31
0.0
  0
ARC
  5
365
330
152
100
AcDbEntity
  8
2
  6
Continuous
 62
     7
370
    18
100
AcDbCircle
 10
-288.9587957402838
 20
61.69374715262555
 30
0.0
 40
6.15
100
AcDbArc
 50
139.4277419999989
 51
40.57225800000106
  0
ARC
  5
366
330
152
100
AcDbEntity
  8
2
  6
Continuous
 62
     7
370
    18
100
AcDbCircle
 10
-288.9587957402838
 20
61.69374715262555
 30
0.0
 40
25.4
100
AcDbArc
 50
46.74795021824281
 51
133.2520497817572
  0
ARC
  5
367
330
152
100
AcDbEntity
  8
2
  6
DASHED2
 62
     4
370
    13
100
AcDbCircle
 10
-288.9587957402838
 20
61.69374715262555
 30
0.0
 40
25.4
100
AcDbArc
 50
133.2520497817572
 51
46.74795021824282
  0
ENDBLK
  5
154
330
152
100
AcDbEntity
  8
0
100
AcDbBlockEnd
  0
BLOCK
  5
156
330
155
100
AcDbEntity
  8
0
100
AcDbBlockBegin
  2
DC_GROUP_W_MR-5016_S_040_28
 70
     0
 10
0.0
 20
0.0
 30
0.0
  3
DC_GROUP_W_MR-5016_S_040_28
  1
DC_GROUP_W_MR-5016_S_040_28
  0
LINE
  5
368
330
155
100
AcDbEntity
  8
2
  6
CENTER
 62
     3
370
    13
100
AcDbLine
 10
-238.9587957402838
 20
70.84374715262518
 30
0.0
 11
-238.9587957402838
 21
52.54374715262591
 31
0.0
  0
LINE
  5
369
330
155
100
AcDbEntity
  8
2
  6
Continuous
 62
     7
370
    18
100
AcDbLine
 10
-234.2873397402838
 20
65.69374715262555
 30
0.0
 11
-243.6302517402838
 21
65.69374715262555
 31
0.0
  0
ARC
  5
36A
330
155
100
AcDbEntity
  8
2
  6
Continuous
 62
     7
370
    18
100
AcDbCircle
 10
-238.9587957402838
 20
61.69374715262555
 30
0.0
 40
6.15
100
AcDbArc
 50
139.4277419999989
 51
40.57225800000106
  0
ENDBLK
  5
157
330
155
100
AcDbEntity
  8
0
100
AcDbBlockEnd
  0
BLOCK
  5
159
330
158
100
AcDbEntity
  8
0
100
AcDbBlockBegin
  2
DC_GROUP_W_MR-5016_S_040_29
 70
     0
 10
0.0
 20
0.0
 30
0.0
  3
DC_GROUP_W_MR-5016_S_040_29
  1
DC_GROUP_W_MR-5016_S_040_29
  0
LINE
  5
36B
330
158
100
AcDbEntity
  8
2
  6
CENTER
 62
     3
370
    13
100
AcDbLine
 10
-188.9587957402838
 20
70.84374715262518
 30
0.0
 11
-188.9587957402838
 21
52.54374715262591
 31
0.0
  0
LINE
  5
36C
330
158
100
AcDbEntity
  8
2
  6
Continuous
 62
     7
370
    18
100
AcDbLine
 10
-184.2873397402838
 20
65.69374715262555
 30
0.0
 11
-193.6302517402838
 21
65.69374715262555
 31
0.0
  0
ARC
  5
36D
330
158
100
AcDbEntity
  8
2
  6
Continuous
 62
     7
370
    18
100
AcDbCircle
 10
-188.9587957402838
 20
61.69374715262555
 30
0.0
 40
6.15
100
AcDbArc
 50
139.4277419999989
 51
40.57225800000106
  0
ENDBLK
  5
15A
330
158
100
AcDbEntity
  8
0
100
AcDbBlockEnd
  0
BLOCK
  5
15C
330
15B
100
AcDbEntity
  8
0
100
AcDbBlockBegin
  2
DC_GROUP_W_MR-5016_S_040_30
 70
     0
 10
0.0
 20
0.0
 30
0.0
  3
DC_GROUP_W_MR-5016_S_040_30
  1
DC_GROUP_W_MR-5016_S_040_30
  0
LINE
  5
36E
330
15B
100
AcDbEntity
  8
2
  6
CENTER
 62
     3
370
    13
100
AcDbLine
 10
-138.9587957402838
 20
70.84374715262518
 30
0.0
 11
-138.9587957402838
 21
52.54374715262591
 31
0.0
  0
LINE
  5
36F
330
15B
100
AcDbEntity
  8
2
  6
Continuous
 62
     7
370
    18
100
AcDbLine
 10
-134.2873397402838
 20
65.69374715262555
 30
0.0
 11
-143.6302517402838
 21
65.69374715262555
 31
0.0
  0
ARC
  5
370
330
15B
100
AcDbEntity
  8
2
  6
Continuous
 62
     7
370
    18
100
AcDbCircle
 10
-138.9587957402838
 20
61.69374715262555
 30
0.0
 40
6.15
100
AcDbArc
 50
139.4277419999989
 51
40.57225800000106
  0
ENDBLK
  5
15D
330
15B
100
AcDbEntity
  8
0
100
AcDbBlockEnd
  0
BLOCK
  5
15F
330
15E
100
AcDbEntity
  8
0
100
AcDbBlockBegin
  2
DC_GROUP_W_MR-5016_S_040_31
 70
     0
 10
0.0
 20
0.0
 30
0.0
  3
DC_GROUP_W_MR-5016_S_040_31
  1
DC_GROUP_W_MR-5016_S_040_31
  0
LINE
  5
371
330
15E
100
AcDbEntity
  8
2
  6
CENTER
 62
     3
370
    13
100
AcDbLine
 10
-88.95879574028379
 20
97.84374715262518
 30
0.0
 11
-88.95879574028379
 21
25.54374715262591
 31
0.0
  0
LINE
  5
372
330
15E
100
AcDbEntity
  8
2
  6
Continuous
 62
     7
370
    18
100
AcDbLine
 10
-84.28733974028376
 20
65.69374715262555
 30
0.0
 11
-93.63025174028382
 21
65.69374715262555
 31
0.0
  0
ARC
  5
373
330
15E
100
AcDbEntity
  8
2
  6
Continuous
 62
     7
370
    18
100
AcDbCircle
 10
-88.95879574028379
 20
61.69374715262555
 30
0.0
 40
6.15
100
AcDbArc
 50
139.4277419999989
 51
40.57225800000106
  0
ARC
  5
374
330
15E
100
AcDbEntity
  8
2
  6
Continuous
 62
     7
370
    18
100
AcDbCircle
 10
-88.95879574028379
 20
61.69374715262555
 30
0.0
 40
25.4
100
AcDbArc
 50
46.74795021824281
 51
133.2520497817572
  0
ARC
  5
375
330
15E
100
AcDbEntity
  8
2
  6
DASHED2
 62
     4
370
    13
100
AcDbCircle
 10
-88.95879574028379
 20
61.69374715262555
 30
0.0
 40
25.4
100
AcDbArc
 50
133.2520497817572
 51
46.74795021824282
  0
ENDBLK
  5
160
330
15E
100
AcDbEntity
  8
0
100
AcDbBlockEnd
  0
BLOCK
  5
162
330
161
100
AcDbEntity
  8
0
100
AcDbBlockBegin
  2
DC_GROUP_W_MR-5016_S_040_32
 70
     0
 10
0.0
 20
0.0
 30
0.0
  3
DC_GROUP_W_MR-5016_S_040_32
  1
DC_GROUP_W_MR-5016_S_040_32
  0
LINE
  5
376
330
161
100
AcDbEntity
  8
2
  6
CENTER
 62
     3
370
    13
100
AcDbLine
 10
-38.95879574028379
 20
70.84374715262518
 30
0.0
 11
-38.95879574028379
 21
52.54374715262591
 31
0.0
  0
LINE
  5
377
330
161
100
AcDbEntity
  8
2
  6
Continuous
 62
     7
370
    18
100
AcDbLine
 10
-34.28733974028376
 20
65.69374715262555
 30
0.0
 11
-43.63025174028382
 21
65.69374715262555
 31
0.0
  0
ARC
  5
378
330
161
100
AcDbEntity
  8
2
  6
Continuous
 62
     7
370
    18
100
AcDbCircle
 10
-38.95879574028379
 20
61.69374715262555
 30
0.0
 40
6.15
100
AcDbArc
 50
139.4277419999989
 51
40.57225800000106
  0
ENDBLK
  5
163
330
161
100
AcDbEntity
  8
0
100
AcDbBlockEnd
  0
BLOCK
  5
165
330
164
100
AcDbEntity
  8
0
100
AcDbBlockBegin
  2
DC_GROUP_W_MR-5016_S_040_33
 70
     0
 10
0.0
 20
0.0
 30
0.0
  3
DC_GROUP_W_MR-5016_S_040_33
  1
DC_GROUP_W_MR-5016_S_040_33
  0
LINE
  5
379
330
164
100
AcDbEntity
  8
2
  6
CENTER
 62
     3
370
    13
100
AcDbLine
 10
11.04120425971621
 20
70.84374715262518
 30
0.0
 11
11.04120425971621
 21
52.54374715262591
 31
0.0
  0
LINE
  5
37A
330
164
100
AcDbEntity
  8
2
  6
Continuous
 62
     7
370
    18
100
AcDbLine
 10
15.71266025971624
 20
65.69374715262555
 30
0.0
 11
6.369748259716175
 21
65.69374715262555
 31
0.0
  0
ARC
  5
37B
330
164
100
AcDbEntity
  8
2
  6
Continuous
 62
     7
370
    18
100
AcDbCircle
 10
11.04120425971621
 20
61.69374715262555
 30
0.0
 40
6.15
100
AcDbArc
 50
139.4277419999989
 51
40.57225800000106
  0
ENDBLK
  5
166
330
164
100
AcDbEntity
  8
0
100
AcDbBlockEnd
  0
BLOCK
  5
168
330
167
100
AcDbEntity
  8
0
100
AcDbBlockBegin
  2
DC_GROUP_W_MR-5016_S_040_34
 70
     0
 10
0.0
 20
0.0
 30
0.0
  3
DC_GROUP_W_MR-5016_S_040_34
  1
DC_GROUP_W_MR-5016_S_040_34
  0
LINE
  5
37C
330
167
100
AcDbEntity
  8
2
  6
CENTER
 62
     3
370
    13
100
AcDbLine
 10
61.04120425971621
 20
70.84374715262518
 30
0.0
 11
61.04120425971621
 21
52.54374715262591
 31
0.0
  0
LINE
  5
37D
330
167
100
AcDbEntity
  8
2
  6
Continuous
 62
     7
370
    18
100
AcDbLine
 10
65.71266025971624
 20
65.69374715262555
 30
0.0
 11
56.36974825971618
 21
65.69374715262555
 31
0.0
  0
ARC
  5
37E
330
167
100
AcDbEntity
  8
2
  6
Continuous
 62
     7
370
    18
100
AcDbCircle
 10
61.04120425971621
 20
61.69374715262555
 30
0.0
 40
6.15
100
AcDbArc
 50
139.4277419999989
 51
40.57225800000106
  0
ENDBLK
  5
169
330
167
100
AcDbEntity
  8
0
100
AcDbBlockEnd
  0
BLOCK
  5
16B
330
16A
100
AcDbEntity
  8
0
100
AcDbBlockBegin
  2
DC_GROUP_W_MR-5016_S_040_35
 70
     0
 10
0.0
 20
0.0
 30
0.0
  3
DC_GROUP_W_MR-5016_S_040_35
  1
DC_GROUP_W_MR-5016_S_040_35
  0
LINE
  5
37F
330
16A
100
AcDbEntity
  8
2
  6
CENTER
 62
     3
370
    13
100
AcDbLine
 10
111.0412042597162
 20
97.84374715262518
 30
0.0
 11
111.0412042597162
 21
25.54374715262591
 31
0.0
  0
LINE
  5
380
330
16A
100
AcDbEntity
  8
2
  6
Continuous
 62
     7
370
    18
100
AcDbLine
 10
115.7126602597162
 20
65.69374715262555
 30
0.0
 11
106.3697482597162
 21
65.69374715262555
 31
0.0
  0
ARC
  5
381
330
16A
100
AcDbEntity
  8
2
  6
Continuous
 62
     7
370
    18
100
AcDbCircle
 10
111.0412042597162
 20
61.69374715262555
 30
0.0
 40
6.15
100
AcDbArc
 50
139.4277419999989
 51
40.57225800000106
  0
ARC
  5
382
330
16A
100
AcDbEntity
  8
2
  6
Continuous
 62
     7
370
    18
100
AcDbCircle
 10
111.0412042597162
 20
61.69374715262555
 30
0.0
 40
25.4
100
AcDbArc
 50
46.74795021824281
 51
133.2520497817572
  0
ARC
  5
383
330
16A
100
AcDbEntity
  8
2
  6
DASHED2
 62
     4
370
    13
100
AcDbCircle
 10
111.0412042597162
 20
61.69374715262555
 30
0.0
 40
25.4
100
AcDbArc
 50
133.2520497817572
 51
46.74795021824282
  0
ENDBLK
  5
16C
330
16A
100
AcDbEntity
  8
0
100
AcDbBlockEnd
  0
BLOCK
  5
16E
330
16D
100
AcDbEntity
  8
0
100
AcDbBlockBegin
  2
DC_GROUP_W_MR-5016_S_040_36
 70
     0
 10
0.0
 20
0.0
 30
0.0
  3
DC_GROUP_W_MR-5016_S_040_36
  1
DC_GROUP_W_MR-5016_S_040_36
  0
LINE
  5
384
330
16D
100
AcDbEntity
  8
2
  6
CENTER
 62
     3
370
    13
100
AcDbLine
 10
161.0412042597162
 20
70.84374715262518
 30
0.0
 11
161.0412042597162
 21
52.54374715262591
 31
0.0
  0
LINE
  5
385
330
16D
100
AcDbEntity
  8
2
  6
Continuous
 62
     7
370
    18
100
AcDbLine
 10
165.7126602597162
 20
65.69374715262555
 30
0.0
 11
156.3697482597162
 21
65.69374715262555
 31
0.0
  0
ARC
  5
386
330
16D
100
AcDbEntity
  8
2
  6
Continuous
 62
     7
370
    18
100
AcDbCircle
 10
161.0412042597162
 20
61.69374715262555
 30
0.0
 40
6.15
100
AcDbArc
 50
139.4277419999989
 51
40.57225800000106
  0
ENDBLK
  5
16F
330
16D
100
AcDbEntity
  8
0
100
AcDbBlockEnd
  0
BLOCK
  5
171
330
170
100
AcDbEntity
  8
0
100
AcDbBlockBegin
  2
*D65
 70
     1
 10
0.0
 20
0.0
 30
0.0
  3
*D65
  1
*D65
  0
LINE
  5
387
330
170
100
AcDbEntity
  8
0
  6
Continuous
 62
     2
370
    13
100
AcDbLine
 10
-688.9587957402838
 20
147.0937471526252
 30
0.0
 11
-488.9587957402838
 21
147.0937471526252
 31
0.0
  0
INSERT
  5
388
330
170
100
AcDbEntity
  8
0
 62
     2
100
AcDbBlockReference
  2
_OPEN30
 10
-688.9587957402838
 20
147.0937471526252
 30
0.0
 41
15.00001403807643
 42
14.99994684111822
 50
180.0
  0
INSERT
  5
389
330
170
100
AcDbEntity
  8
0
 62
     2
100
AcDbBlockReference
  2
_OPEN30
 10
-488.9587957402838
 20
147.0937471526252
 30
0.0
 41
15.00001403807643
 42
14.99994684111822
 50
360.0
  0
LINE
  5
38A
330
170
100
AcDbEntity
  8
0
  6
Continuous
 62
     2
370
    13
100
AcDbLine
 10
-688.9587957402838
 20
103.7937471526259
 30
0.0
 11
-688.9587957402838
 21
149.5937471526252
 31
0.0
  0
LINE
  5
38B
330
170
100
AcDbEntity
  8
0
  6
Continuous
 62
     2
370
    13
100
AcDbLine
 10
-488.9587957402838
 20
103.7937471526259
 30
0.0
 11
-488.9587957402838
 21
149.5937471526252
 31
0.0
  0
MTEXT
  5
38C
330
170
100
AcDbEntity
  8
0
 62
     2
100
AcDbMText
 10
-588.9587957402838
 20
152.0937471526252
 30
0.0
 40
20.0
 41
62.5
 46
0.0
 71
     8
 72
     1
  1
\T1.00;200
  7
dcStyle0
 73
     1
 44
1.0
  0
ENDBLK
  5
172
330
170
100
AcDbEntity
  8
0
100
AcDbBlockEnd
  0
BLOCK
  5
174
330
173
100
AcDbEntity
  8
0
100
AcDbBlockBegin
  2
*D66
 70
     1
 10
0.0
 20
0.0
 30
0.0
  3
*D66
  1
*D66
  0
LINE
  5
38D
330
173
100
AcDbEntity
  8
0
  6
Continuous
 62
     2
370
    13
100
AcDbLine
 10
-24.9546100562296
 20
-9.806252847374452
 30
0.0
 11
-24.9546100562296
 21
40.19374715262555
 31
0.0
  0
LINE
  5
38E
330
173
100
AcDbEntity
  8
0
  6
Continuous
 62
     2
370
    13
100
AcDbLine
 10
26.54120425971621
 20
-9.806252847374452
 30
0.0
 11
-27.4546100562296
 21
-9.806252847374452
 31
0.0
  0
LINE
  5
38F
330
173
100
AcDbEntity
  8
0
  6
Continuous
 62
     2
370
    13
100
AcDbLine
 10
-9.957318740283995
 20
40.19374715262555
 30
0.0
 11
-27.4546100562296
 21
40.19374715262555
 31
0.0
  0
LINE
  5
390
330
173
100
AcDbEntity
  8
0
  6
Continuous
 62
     2
370
    13
100
AcDbLine
 10
-24.9546100562296
 20
-37.01125284737445
 30
0.0
 11
-24.9546100562296
 21
-9.806252847374452
 31
0.0
  0
INSERT
  5
391
330
173
100
AcDbEntity
  8
0
 62
     2
100
AcDbBlockReference
  2
_OPEN30
 10
-24.9546100562296
 20
-9.806252847374452
 30
0.0
 41
15.00001403807643
 42
14.99994684111822
 50
90.0
  0
LINE
  5
392
330
173
100
AcDbEntity
  8
0
  6
Continuous
 62
     2
370
    13
100
AcDbLine
 10
-24.9546100562296
 20
57.69374715262555
 30
0.0
 11
-24.9546100562296
 21
40.19374715262555
 31
0.0
  0
INSERT
  5
393
330
173
100
AcDbEntity
  8
0
 62
     2
100
AcDbBlockReference
  2
_OPEN30
 10
-24.9546100562296
 20
40.19374715262555
 30
0.0
 41
15.00001403807643
 42
14.99994684111822
 50
270.0
  0
MTEXT
  5
394
330
173
100
AcDbEntity
  8
0
 62
     2
100
AcDbMText
 10
-29.9546100562296
 20
-17.01125284737445
 30
0.0
 40
20.0
 41
50.0
 46
0.0
 71
     9
 72
     1
  1
\T1.00;50
  7
dcStyle0
 11
6.123233995736766E-17
 21
1.0
 31
0.0
 73
     1
 44
1.0
  0
ENDBLK
  5
175
330
173
100
AcDbEntity
  8
0
100
AcDbBlockEnd
  0
BLOCK
  5
177
330
176
100
AcDbEntity
  8
0
100
AcDbBlockBegin
  2
DC_GROUP_W_MR-5016_S_040_37
 70
     0
 10
0.0
 20
0.0
 30
0.0
  3
DC_GROUP_W_MR-5016_S_040_37
  1
DC_GROUP_W_MR-5016_S_040_37
  0
LINE
  5
395
330
176
100
AcDbEntity
  8
0
  6
Continuous
 62
     2
370
    13
100
AcDbLine
 10
-348.9587957402838
 20
-9.806252847374452
 30
0.0
 11
-472.391193855203
 21
-147.8062528473745
 31
0.0
  0
INSERT
  5
396
330
176
100
AcDbEntity
  8
0
 62
     2
100
AcDbBlockReference
  2
_OPEN30
 10
-348.9587957402838
 20
-9.806252847374452
 30
0.0
 41
15.00001403807643
 42
14.99994684111822
 50
48.1893516286211
  0
LINE
  5
397
330
176
100
AcDbEntity
  8
0
  6
Continuous
 62
     2
370
    13
100
AcDbLine
 10
-228.9587957402838
 20
-9.806252847374452
 30
0.0
 11
-472.391193855203
 21
-147.8062528473745
 31
0.0
  0
INSERT
  5
398
330
176
100
AcDbEntity
  8
0
 62
     2
100
AcDbBlockReference
  2
_OPEN30
 10
-228.9587957402838
 20
-9.806252847374452
 30
0.0
 41
15.00001403807643
 42
14.99994684111822
 50
29.54857543082324
  0
LINE
  5
399
330
176
100
AcDbEntity
  8
0
  6
Continuous
 62
     2
370
    13
100
AcDbLine
 10
-472.391193855203
 20
-147.8062528473745
 30
0.0
 11
-712.391193855203
 21
-147.8062528473745
 31
0.0
  0
LINE
  5
39A
330
176
100
AcDbEntity
  8
0
  6
Continuous
 62
     2
370
    13
100
AcDbLine
 10
-492.391193855203
 20
-179.8062528473745
 30
0.0
 11
-712.391193855203
 21
-179.8062528473745
 31
0.0
  0
TEXT
  5
39B
330
176
100
AcDbEntity
  8
0
 62
     2
100
AcDbText
 10
-712.391193855203
 20
-141.8062528473745
 30
0.0
 40
20.0
  1
呼び機長100 cmと150 cmの
 41
0.6991377301328362
  7
dcStyle0
 72
     5
 11
-472.391193855203
 21
-141.8062528473745
 31
0.0
100
AcDbText
  0
TEXT
  5
39C
330
176
100
AcDbEntity
  8
0
 62
     2
100
AcDbText
 10
-712.391193855203
 20
-173.8062528473745
 30
0.0
 40
20.0
  1
中央に脚穴はありません
 41
0.7218321412166152
  7
dcStyle0
 72
     5
 11
-492.391193855203
 21
-173.8062528473745
 31
0.0
100
AcDbText
  0
ENDBLK
  5
178
330
176
100
AcDbEntity
  8
0
100
AcDbBlockEnd
  0
BLOCK
  5
17A
330
179
100
AcDbEntity
  8
0
100
AcDbBlockBegin
  2
DC_GROUP_W_MR-5016_S_040_38
 70
     0
 10
0.0
 20
0.0
 30
0.0
  3
DC_GROUP_W_MR-5016_S_040_38
  1
DC_GROUP_W_MR-5016_S_040_38
  0
LINE
  5
39D
330
179
100
AcDbEntity
  8
0
  6
Continuous
 62
     2
370
    13
100
AcDbLine
 10
612.5376319191868
 20
-9.806252847374452
 30
0.0
 11
573.5796355496856
 21
-57.5731574800279
 31
0.0
  0
INSERT
  5
39E
330
179
100
AcDbEntity
  8
0
 62
     2
100
AcDbBlockReference
  2
_OPEN30
 10
612.5376319191868
 20
-9.806252847374452
 30
0.0
 41
15.00001403807643
 42
14.99994684111822
 50
50.79981302244646
  0
LINE
  5
39F
330
179
100
AcDbEntity
  8
0
  6
Continuous
 62
     2
370
    13
100
AcDbLine
 10
573.5796355496856
 20
-57.5731574800279
 30
0.0
 11
473.5796355496856
 21
-57.5731574800279
 31
0.0
  0
TEXT
  5
3A0
330
179
100
AcDbEntity
  8
0
 62
     2
100
AcDbText
 10
473.5796355496856
 20
-51.5731574800279
 30
0.0
 40
20.0
  1
10×14長穴
 41
0.6877579092159559
  7
dcStyle0
 72
     5
 11
573.5796355496856
 21
-51.5731574800279
 31
0.0
100
AcDbText
  0
ENDBLK
  5
17B
330
179
100
AcDbEntity
  8
0
100
AcDbBlockEnd
  0
BLOCK
  5
17E
330
17D
100
AcDbEntity
  8
0
100
AcDbBlockBegin
  2
_OPEN30
 70
     0
 10
0.0
 20
0.0
 30
0.0
  3
_OPEN30
  1
_OPEN30
  0
LINE
  5
180
330
17D
100
AcDbEntity
  8
0
  6
ByBlock
 62
     0
370
    -2
100
AcDbLine
 10
-1.0
 20
0.267949
 30
0.0
 11
0.0
 21
0.0
 31
0.0
  0
LINE
  5
181
330
17D
100
AcDbEntity
  8
0
  6
ByBlock
 62
     0
370
    -2
100
AcDbLine
 10
0.0
 20
0.0
 30
0.0
 11
-1.0
 21
-0.267949
 31
0.0
  0
LINE
  5
182
330
17D
100
AcDbEntity
  8
0
  6
ByBlock
 62
     0
370
    -2
100
AcDbLine
 10
0.0
 20
0.0
 30
0.0
 11
-1.0
 21
0.0
 31
0.0
  0
ENDBLK
  5
17F
330
17D
100
AcDbEntity
  8
0
100
AcDbBlockEnd
  0
ENDSEC
  0
SECTION
  2
ENTITIES
  0
DIMENSION
  5
3A1
330
1F
100
AcDbEntity
  8
0
  6
Continuous
370
    13
100
AcDbDimension
280
     0
  2
*D1
 10
208.0412042597162
 20
247.0937471526252
 30
0.0
 11
-288.9587957402838
 21
247.0937471526252
 31
0.0
 70
   160
  1
機長
 71
     8
 42
-1.0
 73
     0
 74
     0
 75
     0
  3
dc_Rotated
100
AcDbAlignedDimension
 13
-785.9587957402838
 23
80.19374715262555
 33
0.0
 14
208.0412042597162
 24
80.19374715262555
 34
0.0
100
AcDbRotatedDimension
1001
ACAD
1000
DSTYLE
1002
{
1070
   144
1040
1.0
1070
   274
1070
     4
1070
    41
1040
15.00000953674316
1070
    79
1070
     2
1070
   343
1005
17D
1070
   344
1005
17D
1070
   176
1070
     2
1070
   177
1070
     2
1070
   178
1070
     2
1070
   271
1070
     2
1070
    44
1040
2.5
1070
    42
1040
5.0
1070
   147
1040
5.0
1070
   173
1070
     1
1070
    77
1070
     3
1070
    73
1070
     0
1070
   172
1070
     1
1070
    74
1070
     0
1070
   283
1070
     0
1070
   340
1005
187
1070
   140
1040
20.0
1070
   284
1070
     8
1070
   288
1070
     1
1070
    78
1070
     8
1070
    90
1070
     1
1002
}
  0
DIMENSION
  5
3A3
330
1F
100
AcDbEntity
  8
0
  6
Continuous
370
    13
100
AcDbDimension
280
     0
  2
*D2
 10
-728.9587957402838
 20
-97.80625284737445
 30
0.0
 11
-757.4587957402838
 21
-97.80625284737445
 31
0.0
 70
   160
  1
D
 71
     8
 42
-1.0
 73
     0
 74
     0
 75
     0
  3
dc_Rotated
100
AcDbAlignedDimension
 13
-785.9587957402838
 23
-9.806252847374452
 33
0.0
 14
-728.9587957402838
 24
-19.80625284737445
 34
0.0
100
AcDbRotatedDimension
1001
ACAD
1000
DSTYLE
1002
{
1070
   144
1040
1.0
1070
   274
1070
     4
1070
    41
1040
15.00000953674316
1070
    79
1070
     2
1070
   343
1005
17D
1070
   344
1005
17D
1070
   176
1070
     2
1070
   177
1070
     2
1070
   178
1070
     2
1070
   271
1070
     2
1070
    44
1040
2.5
1070
    42
1040
5.0
1070
   147
1040
5.0
1070
   173
1070
     1
1070
    77
1070
     3
1070
    73
1070
     0
1070
   172
1070
     1
1070
    74
1070
     0
1070
   283
1070
     0
1070
   340
1005
187
1070
   140
1040
20.0
1070
   284
1070
     8
1070
   288
1070
     1
1070
    78
1070
     8
1070
    90
1070
     1
1002
}
  0
DIMENSION
  5
3A4
330
1F
100
AcDbEntity
  8
0
  6
Continuous
370
    13
100
AcDbDimension
280
     0
  2
*D3
 10
-608.9587957402838
 20
-97.80625284737445
 30
0.0
 11
-668.9587957402838
 21
-97.80625284737445
 31
0.0
 70
   160
 71
     8
 42
-1.0
 73
     0
 74
     0
 75
     0
  3
dc_Rotated
100
AcDbAlignedDimension
 13
-728.9587957402838
 23
-19.80625284737445
 33
0.0
 14
-608.9587957402838
 24
-97.80625284737445
 34
0.0
100
AcDbRotatedDimension
1001
ACAD
1000
DSTYLE
1002
{
1070
   144
1040
1.0
1070
   274
1070
     4
1070
    41
1040
15.00000953674316
1070
    79
1070
     2
1070
   343
1005
17D
1070
   344
1005
17D
1070
   176
1070
     2
1070
   177
1070
     2
1070
   178
1070
     2
1070
   271
1070
     2
1070
    44
1040
2.5
1070
    42
1040
5.0
1070
   147
1040
5.0
1070
   173
1070
     1
1070
    76
1070
     1
1070
    77
1070
     3
1070
    73
1070
     0
1070
   172
1070
     1
1070
    74
1070
     0
1070
   283
1070
     0
1070
   340
1005
187
1070
   140
1040
20.0
1070
   284
1070
     8
1070
   288
1070
     1
1070
    78
1070
     8
1070
    90
1070
     1
1002
}
  0
DIMENSION
  5
3A5
330
1F
100
AcDbEntity
  8
0
  6
Continuous
370
    13
100
AcDbDimension
280
     0
  2
*D4
 10
151.0412042597162
 20
-97.80625284737445
 30
0.0
 11
86.8356740860919
 21
-97.80625284737445
 31
0.0
 70
   160
 71
     8
 42
-1.0
 73
     0
 74
     0
 75
     0
  3
dc_Rotated
100
AcDbAlignedDimension
 13
31.04120425971615
 23
-97.80625284737445
 33
0.0
 14
151.0412042597162
 24
-19.80625284737445
 34
0.0
100
AcDbRotatedDimension
1001
ACAD
1000
DSTYLE
1002
{
1070
   144
1040
1.0
1070
   274
1070
     4
1070
    41
1040
15.00000953674316
1070
    79
1070
     2
1070
   343
1005
17D
1070
   344
1005
17D
1070
   176
1070
     2
1070
   177
1070
     2
1070
   178
1070
     2
1070
   271
1070
     2
1070
    44
1040
2.5
1070
    42
1040
5.0
1070
   147
1040
5.0
1070
   173
1070
     1
1070
    75
1070
     1
1070
    77
1070
     3
1070
    73
1070
     0
1070
   172
1070
     1
1070
    74
1070
     0
1070
   283
1070
     0
1070
   340
1005
187
1070
   140
1040
20.0
1070
   284
1070
     8
1070
   288
1070
     1
1070
    78
1070
     8
1070
    90
1070
     1
1002
}
  0
DIMENSION
  5
3A6
330
1F
100
AcDbEntity
  8
0
  6
Continuous
370
    13
100
AcDbDimension
280
     0
  2
*D5
 10
208.0412042597162
 20
-97.80625284737445
 30
0.0
 11
179.5412042597162
 21
-97.80625284737445
 31
0.0
 70
   160
  1
D
 71
     8
 42
-1.0
 73
     0
 74
     0
 75
     0
  3
dc_Rotated
100
AcDbAlignedDimension
 13
151.0412042597162
 23
-19.80625284737445
 33
0.0
 14
208.0412042597162
 24
-9.806252847374452
 34
0.0
100
AcDbRotatedDimension
1001
ACAD
1000
DSTYLE
1002
{
1070
   144
1040
1.0
1070
   274
1070
     4
1070
    41
1040
15.00000953674316
1070
    79
1070
     2
1070
   343
1005
17D
1070
   344
1005
17D
1070
   176
1070
     2
1070
   177
1070
     2
1070
   178
1070
     2
1070
   271
1070
     2
1070
    44
1040
2.5
1070
    42
1040
5.0
1070
   147
1040
5.0
1070
   173
1070
     1
1070
    77
1070
     3
1070
    73
1070
     0
1070
   172
1070
     1
1070
    74
1070
     0
1070
   283
1070
     0
1070
   340
1005
187
1070
   140
1040
20.0
1070
   284
1070
     8
1070
   288
1070
     1
1070
    78
1070
     8
1070
    90
1070
     1
1002
}
  0
DIMENSION
  5
3A7
330
1F
100
AcDbEntity
  8
0
  6
Continuous
370
    13
100
AcDbDimension
280
     0
  2
*D6
 10
-688.9587957402838
 20
197.0937471526252
 30
0.0
 11
-737.4587957402838
 21
197.0937471526252
 31
0.0
 70
   160
  1
A
 71
     8
 42
-1.0
 73
     0
 74
     0
 75
     0
  3
dc_Rotated
100
AcDbAlignedDimension
 13
-785.9587957402838
 23
80.19374715262555
 33
0.0
 14
-688.9587957402838
 24
91.79374715262588
 34
0.0
100
AcDbRotatedDimension
1001
ACAD
1000
DSTYLE
1002
{
1070
   144
1040
1.0
1070
   274
1070
     4
1070
    41
1040
15.00000953674316
1070
    79
1070
     2
1070
   343
1005
17D
1070
   344
1005
17D
1070
   176
1070
     2
1070
   177
1070
     2
1070
   178
1070
     2
1070
   271
1070
     2
1070
    44
1040
2.5
1070
    42
1040
5.0
1070
   147
1040
5.0
1070
   173
1070
     1
1070
    77
1070
     3
1070
    73
1070
     0
1070
   172
1070
     1
1070
    74
1070
     0
1070
   283
1070
     0
1070
   340
1005
187
1070
   140
1040
20.0
1070
   284
1070
     8
1070
   288
1070
     1
1070
    78
1070
     8
1070
    90
1070
     1
1002
}
  0
DIMENSION
  5
3A8
330
1F
100
AcDbEntity
  8
0
  6
Continuous
370
    13
100
AcDbDimension
280
     0
  2
*D7
 10
111.0412042597162
 20
197.0937471526252
 30
0.0
 11
-288.9587957402838
 21
197.0937471526252
 31
0.0
 70
   160
  1
N×200=B
 71
     8
 42
-1.0
 73
     0
 74
     0
 75
     0
  3
dc_Rotated
100
AcDbAlignedDimension
 13
-688.9587957402838
 23
91.79374715262588
 33
0.0
 14
111.0412042597162
 24
91.79374715262588
 34
0.0
100
AcDbRotatedDimension
1001
ACAD
1000
DSTYLE
1002
{
1070
   144
1040
1.0
1070
   274
1070
     4
1070
    41
1040
15.00000953674316
1070
    79
1070
     2
1070
   343
1005
17D
1070
   344
1005
17D
1070
   176
1070
     2
1070
   177
1070
     2
1070
   178
1070
     2
1070
   271
1070
     2
1070
    44
1040
2.5
1070
    42
1040
5.0
1070
   147
1040
5.0
1070
   173
1070
     1
1070
    77
1070
     3
1070
    73
1070
     0
1070
   172
1070
     1
1070
    74
1070
     0
1070
   283
1070
     0
1070
   340
1005
187
1070
   140
1040
20.0
1070
   284
1070
     8
1070
   288
1070
     1
1070
    78
1070
     8
1070
    90
1070
     1
1002
}
  0
DIMENSION
  5
3A9
330
1F
100
AcDbEntity
  8
0
  6
Continuous
370
    13
100
AcDbDimension
280
     0
  2
*D8
 10
208.0412042597162
 20
197.0937471526252
 30
0.0
 11
159.5412042597162
 21
197.0937471526252
 31
0.0
 70
   160
  1
C
 71
     8
 42
-1.0
 73
     0
 74
     0
 75
     0
  3
dc_Rotated
100
AcDbAlignedDimension
 13
111.0412042597162
 23
91.79374715262588
 33
0.0
 14
208.0412042597162
 24
80.19374715262555
 34
0.0
100
AcDbRotatedDimension
1001
ACAD
1000
DSTYLE
1002
{
1070
   144
1040
1.0
1070
   274
1070
     4
1070
    41
1040
15.00000953674316
1070
    79
1070
     2
1070
   343
1005
17D
1070
   344
1005
17D
1070
   176
1070
     2
1070
   177
1070
     2
1070
   178
1070
     2
1070
   271
1070
     2
1070
    44
1040
2.5
1070
    42
1040
5.0
1070
   147
1040
5.0
1070
   173
1070
     1
1070
    77
1070
     3
1070
    73
1070
     0
1070
   172
1070
     1
1070
    74
1070
     0
1070
   283
1070
     0
1070
   340
1005
187
1070
   140
1040
20.0
1070
   284
1070
     8
1070
   288
1070
     1
1070
    78
1070
     8
1070
    90
1070
     1
1002
}
  0
DIMENSION
  5
3AA
330
1F
100
AcDbEntity
  8
0
  6
Continuous
370
    13
100
AcDbDimension
280
     0
  2
*D11
 10
256.0412042597162
 20
492.0251688631321
 30
0.0
 11
256.0412042597162
 21
404.5251688631321
 31
0.0
 70
   160
  1
機 幅 (<>)
 71
     8
 42
-1.0
 73
     0
 74
     0
 75
     0
  3
dc_Rotated
100
AcDbAlignedDimension
 13
198.0412042597162
 23
317.0251688631321
 33
0.0
 14
198.0412042597162
 24
492.0251688631321
 34
0.0
 50
90.0
100
AcDbRotatedDimension
1001
ACAD
1000
DSTYLE
1002
{
1070
   144
1040
1.0
1070
   274
1070
     4
1070
    41
1040
15.00000953674316
1070
    79
1070
     2
1070
   343
1005
17D
1070
   344
1005
17D
1070
   176
1070
     2
1070
   177
1070
     2
1070
   178
1070
     2
1070
   271
1070
     2
1070
    44
1040
2.5
1070
    42
1040
5.0
1070
   147
1040
5.0
1070
   173
1070
     1
1070
    77
1070
     3
1070
    73
1070
     0
1070
   172
1070
     1
1070
    74
1070
     0
1070
   283
1070
     0
1070
   340
1005
187
1070
   140
1040
20.0
1070
   284
1070
     8
1070
   288
1070
     1
1070
    78
1070
     8
1070
    90
1070
     1
1002
}
  0
DIMENSION
  5
3AB
330
1F
100
AcDbEntity
  8
0
  6
Continuous
370
    13
100
AcDbDimension
280
     0
  2
*D12
 10
-348.9587957402838
 20
-97.80625284737445
 30
0.0
 11
-478.9587957402838
 21
-97.80625284737445
 31
0.0
 70
   160
  1
E
 71
     8
 42
-1.0
 73
     0
 74
     0
 75
     0
  3
dc_Rotated
100
AcDbAlignedDimension
 13
-608.9587957402838
 23
-19.80625284737445
 33
0.0
 14
-348.9587957402838
 24
-19.80625284737445
 34
0.0
100
AcDbRotatedDimension
1001
ACAD
1000
DSTYLE
1002
{
1070
   144
1040
1.0
1070
   274
1070
     4
1070
    41
1040
15.00000953674316
1070
    79
1070
     2
1070
   343
1005
17D
1070
   344
1005
17D
1070
   176
1070
     2
1070
   177
1070
     2
1070
   178
1070
     2
1070
   271
1070
     2
1070
    44
1040
2.5
1070
    42
1040
5.0
1070
   147
1040
5.0
1070
   173
1070
     1
1070
    77
1070
     3
1070
    73
1070
     0
1070
   172
1070
     1
1070
    74
1070
     0
1070
   283
1070
     0
1070
   340
1005
187
1070
   140
1040
20.0
1070
   284
1070
     8
1070
   288
1070
     1
1070
    78
1070
     8
1070
    90
1070
     1
1002
}
  0
DIMENSION
  5
3AC
330
1F
100
AcDbEntity
  8
0
  6
Continuous
370
    13
100
AcDbDimension
280
     0
  2
*D13
 10
-228.9587957402838
 20
-97.80625284737445
 30
0.0
 11
-288.9587957402838
 21
-97.80625284737445
 31
0.0
 70
   160
 71
     8
 42
-1.0
 73
     0
 74
     0
 75
     0
  3
dc_Rotated
100
AcDbAlignedDimension
 13
-348.9587957402838
 23
-19.80625284737445
 33
0.0
 14
-228.9587957402838
 24
-19.80625284737445
 34
0.0
100
AcDbRotatedDimension
1001
ACAD
1000
DSTYLE
1002
{
1070
   144
1040
1.0
1070
   274
1070
     4
1070
    41
1040
15.00000953674316
1070
    79
1070
     2
1070
   343
1005
17D
1070
   344
1005
17D
1070
   176
1070
     2
1070
   177
1070
     2
1070
   178
1070
     2
1070
   271
1070
     2
1070
    44
1040
2.5
1070
    42
1040
5.0
1070
   147
1040
5.0
1070
   173
1070
     1
1070
    77
1070
     3
1070
    73
1070
     0
1070
   172
1070
     1
1070
    74
1070
     0
1070
   283
1070
     0
1070
   340
1005
187
1070
   140
1040
20.0
1070
   284
1070
     8
1070
   288
1070
     1
1070
    78
1070
     8
1070
    90
1070
     1
1002
}
  0
DIMENSION
  5
3AD
330
1F
100
AcDbEntity
  8
0
  6
Continuous
370
    13
100
AcDbDimension
280
     0
  2
*D14
 10
31.04120425971615
 20
-97.80625284737445
 30
0.0
 11
-98.95879574028382
 21
-97.80625284737445
 31
0.0
 70
   160
  1
E
 71
     8
 42
-1.0
 73
     0
 74
     0
 75
     0
  3
dc_Rotated
100
AcDbAlignedDimension
 13
-228.9587957402838
 23
-19.80625284737445
 33
0.0
 14
31.04120425971615
 24
-19.80625284737445
 34
0.0
100
AcDbRotatedDimension
1001
ACAD
1000
DSTYLE
1002
{
1070
   144
1040
1.0
1070
   274
1070
     4
1070
    41
1040
15.00000953674316
1070
    79
1070
     2
1070
   343
1005
17D
1070
   344
1005
17D
1070
   176
1070
     2
1070
   177
1070
     2
1070
   178
1070
     2
1070
   271
1070
     2
1070
    44
1040
2.5
1070
    42
1040
5.0
1070
   147
1040
5.0
1070
   173
1070
     1
1070
    77
1070
     3
1070
    73
1070
     0
1070
   172
1070
     1
1070
    74
1070
     0
1070
   283
1070
     0
1070
   340
1005
187
1070
   140
1040
20.0
1070
   284
1070
     8
1070
   288
1070
     1
1070
    78
1070
     8
1070
    90
1070
     1
1002
}
  0
DIMENSION
  5
3AE
330
1F
100
AcDbEntity
  8
0
  6
Continuous
370
    13
100
AcDbDimension
280
     0
  2
*D15
 10
256.0412042597161
 20
30.19374715262555
 30
0.0
 11
256.0412042597161
 21
10.19374715262555
 31
0.0
 70
   160
 71
     8
 42
-1.0
 73
     0
 74
     0
 75
     0
  3
dc_Rotated
100
AcDbAlignedDimension
 13
208.0412042597162
 23
-9.806252847374452
 33
0.0
 14
206.0412042597162
 24
30.19374715262555
 34
0.0
 50
90.0
100
AcDbRotatedDimension
1001
ACAD
1000
DSTYLE
1002
{
1070
   144
1040
1.0
1070
   274
1070
     4
1070
    41
1040
15.00000953674316
1070
    79
1070
     2
1070
   343
1005
17D
1070
   344
1005
17D
1070
   176
1070
     2
1070
   177
1070
     2
1070
   178
1070
     2
1070
   271
1070
     2
1070
    44
1040
2.5
1070
    42
1040
5.0
1070
   147
1040
5.0
1070
   173
1070
     1
1070
    77
1070
     3
1070
    73
1070
     0
1070
   172
1070
     1
1070
    74
1070
     0
1070
   283
1070
     0
1070
   340
1005
187
1070
   140
1040
20.0
1070
   284
1070
     8
1070
   288
1070
     1
1070
    78
1070
     8
1070
    90
1070
     1
1002
}
  0
DIMENSION
  5
3AF
330
1F
100
AcDbEntity
  8
0
  6
Continuous
370
    13
100
AcDbDimension
280
     0
  2
*D16
 10
193.2740921889776
 20
34.3582508190872
 30
0.0
 11
286.4162042597161
 21
-60.10625284737461
 31
0.0
 70
   163
  1
4-φ10
 71
     8
 42
-1.0
 73
     0
 74
     0
 75
     0
  3
dc_Diam06
100
AcDbDiametricDimension
 15
198.8083163304548
 25
26.02924348616389
 35
0.0
 40
0.0
1001
ACAD
1000
DSTYLE
1002
{
1070
   144
1040
1.0
1070
   274
1070
     4
1070
    41
1040
15.00000953674316
1070
    79
1070
     2
1070
   343
1005
17D
1070
   344
1005
17D
1070
   176
1070
     2
1070
   177
1070
     2
1070
   178
1070
     2
1070
   271
1070
     2
1070
    44
1040
5.0
1070
    42
1040
5.0
1070
   147
1040
5.0
1070
   173
1070
     1
1070
    77
1070
     2
1070
   283
1070
     0
1070
   340
1005
187
1070
   140
1040
20.0
1070
   284
1070
     8
1070
   288
1070
     1
1070
    78
1070
     8
1070
    90
1070
     1
1002
}
  0
INSERT
  5
3B1
330
1F
100
AcDbEntity
  8
0
  6
Continuous
100
AcDbBlockReference
  2
DC_IMAGEDIMGROUP_1
 10
0.0
 20
0.0
 30
0.0
  0
INSERT
  5
3B2
330
1F
100
AcDbEntity
  8
0
  6
Continuous
100
AcDbBlockReference
  2
DC_GROUP_W_MR-5016_S_040_3
 10
0.0
 20
0.0
 30
0.0
  0
INSERT
  5
3B3
330
1F
100
AcDbEntity
  8
0
  6
Continuous
100
AcDbBlockReference
  2
DC_IMAGEDIMGROUP_2
 10
0.0
 20
0.0
 30
0.0
  0
DIMENSION
  5
3B4
330
1F
100
AcDbEntity
  8
0
  6
Continuous
370
    13
100
AcDbDimension
280
     0
  2
*D20
 10
745.0376309191871
 20
217.0937471526252
 30
0.0
 11
687.5376309191869
 21
217.0937471526252
 31
0.0
 70
   160
  1
呼び幅+15
 71
     8
 42
-1.0
 73
     0
 74
     0
 75
     0
  3
dc_Rotated
100
AcDbAlignedDimension
 13
630.0376309191867
 23
75.89374715262537
 33
0.0
 14
745.0376309191871
 24
75.89374715262537
 34
0.0
100
AcDbRotatedDimension
1001
ACAD
1000
DSTYLE
1002
{
1070
   144
1040
1.0
1070
   274
1070
     4
1070
    41
1040
15.00000953674316
1070
    79
1070
     2
1070
   343
1005
17D
1070
   344
1005
17D
1070
   176
1070
     2
1070
   177
1070
     2
1070
   178
1070
     2
1070
   271
1070
     2
1070
    44
1040
2.5
1070
    42
1040
5.0
1070
   147
1040
5.0
1070
   173
1070
     1
1070
    77
1070
     3
1070
    73
1070
     0
1070
   172
1070
     1
1070
    74
1070
     0
1070
   283
1070
     0
1070
   340
1005
187
1070
   140
1040
20.0
1070
   284
1070
     8
1070
   288
1070
     1
1070
    78
1070
     8
1070
    90
1070
     1
1002
}
  0
DIMENSION
  5
3B5
330
1F
100
AcDbEntity
  8
0
  6
Continuous
370
    13
100
AcDbDimension
280
     0
  2
*D21
 10
775.0376309191869
 20
267.0937471526252
 30
0.0
 11
687.5376309191869
 21
267.0937471526252
 31
0.0
 70
   160
  1
機　幅
 71
     8
 42
-1.0
 73
     0
 74
     0
 75
     0
  3
dc_Rotated
100
AcDbAlignedDimension
 13
600.0376309191869
 23
80.19374715262555
 33
0.0
 14
775.0376309191869
 24
80.19374715262555
 34
0.0
100
AcDbRotatedDimension
1001
ACAD
1000
DSTYLE
1002
{
1070
   144
1040
1.0
1070
   274
1070
     4
1070
    41
1040
15.00000953674316
1070
    79
1070
     2
1070
   343
1005
17D
1070
   344
1005
17D
1070
   176
1070
     2
1070
   177
1070
     2
1070
   178
1070
     2
1070
   271
1070
     2
1070
    44
1040
2.5
1070
    42
1040
5.0
1070
   147
1040
5.0
1070
   173
1070
     1
1070
    77
1070
     3
1070
    73
1070
     0
1070
   172
1070
     1
1070
    74
1070
     0
1070
   283
1070
     0
1070
   340
1005
187
1070
   140
1040
20.0
1070
   284
1070
     8
1070
   288
1070
     1
1070
    78
1070
     8
1070
    90
1070
     1
1002
}
  0
DIMENSION
  5
3B6
330
1F
100
AcDbEntity
  8
0
  6
Continuous
370
    13
100
AcDbDimension
280
     0
  2
*D22
 10
612.5376319191868
 20
-97.80625284737442
 30
0.0
 11
572.8326309191868
 21
-97.80625284737442
 31
0.0
 70
   160
 71
     8
 42
-1.0
 73
     0
 74
     0
 75
     0
  3
dc_Rotated
100
AcDbAlignedDimension
 13
600.0376309191869
 23
-9.806252847374452
 33
0.0
 14
612.5376319191868
 24
-19.70040884737475
 34
0.0
100
AcDbRotatedDimension
1001
ACAD
1000
DSTYLE
1002
{
1070
   144
1040
1.0
1070
   274
1070
     4
1070
    41
1040
15.00000953674316
1070
    79
1070
     2
1070
   343
1005
17D
1070
   344
1005
17D
1070
   176
1070
     2
1070
   177
1070
     2
1070
   178
1070
     2
1070
   271
1070
     2
1070
    44
1040
2.5
1070
    42
1040
5.0
1070
   147
1040
5.0
1070
   173
1070
     1
1070
    77
1070
     3
1070
    73
1070
     0
1070
   172
1070
     1
1070
    74
1070
     0
1070
   283
1070
     0
1070
   340
1005
187
1070
   140
1040
20.0
1070
   284
1070
     8
1070
   288
1070
     1
1070
    78
1070
     8
1070
    90
1070
     1
1002
}
  0
DIMENSION
  5
3B7
330
1F
100
AcDbEntity
  8
0
  6
Continuous
370
    13
100
AcDbDimension
280
     0
  2
*D23
 10
762.5376319191868
 20
-97.80625284737442
 30
0.0
 11
687.5376319191868
 21
-97.80625284737442
 31
0.0
 70
   160
  1
呼び幅+50
 71
     8
 42
-1.0
 73
     0
 74
     0
 75
     0
  3
dc_Rotated
100
AcDbAlignedDimension
 13
612.5376319191868
 23
-19.70040884737475
 33
0.0
 14
762.5376319191868
 24
-19.80625284737445
 34
0.0
100
AcDbRotatedDimension
1001
ACAD
1000
DSTYLE
1002
{
1070
   144
1040
1.0
1070
   274
1070
     4
1070
    41
1040
15.00000953674316
1070
    79
1070
     2
1070
   343
1005
17D
1070
   344
1005
17D
1070
   176
1070
     2
1070
   177
1070
     2
1070
   178
1070
     2
1070
   271
1070
     2
1070
    44
1040
2.5
1070
    42
1040
5.0
1070
   147
1040
5.0
1070
   173
1070
     1
1070
    77
1070
     3
1070
    73
1070
     0
1070
   172
1070
     1
1070
    74
1070
     0
1070
   283
1070
     0
1070
   340
1005
187
1070
   140
1040
20.0
1070
   284
1070
     8
1070
   288
1070
     1
1070
    78
1070
     8
1070
    90
1070
     1
1002
}
  0
DIMENSION
  5
3B8
330
1F
100
AcDbEntity
  8
0
  6
Continuous
370
    13
100
AcDbDimension
280
     0
  2
*D24
 10
775.0376309191869
 20
-97.80625284737442
 30
0.0
 11
802.2426309191869
 21
-97.80625284737442
 31
0.0
 70
   160
 71
     8
 42
-1.0
 73
     0
 74
     0
 75
     0
  3
dc_Rotated
100
AcDbAlignedDimension
 13
762.5376319191868
 23
-19.80625284737445
 33
0.0
 14
775.0376309191869
 24
-9.806252847374452
 34
0.0
100
AcDbRotatedDimension
1001
ACAD
1000
DSTYLE
1002
{
1070
   144
1040
1.0
1070
   274
1070
     4
1070
    41
1040
15.00000953674316
1070
    79
1070
     2
1070
   343
1005
17D
1070
   344
1005
17D
1070
   176
1070
     2
1070
   177
1070
     2
1070
   178
1070
     2
1070
   271
1070
     2
1070
    44
1040
2.5
1070
    42
1040
5.0
1070
   147
1040
5.0
1070
   173
1070
     1
1070
    77
1070
     3
1070
    73
1070
     0
1070
   172
1070
     1
1070
    74
1070
     0
1070
   283
1070
     0
1070
   340
1005
187
1070
   140
1040
20.0
1070
   284
1070
     8
1070
   288
1070
     1
1070
    78
1070
     8
1070
    90
1070
     1
1002
}
  0
DIMENSION
  5
3B9
330
1F
100
AcDbEntity
  8
0
  6
Continuous
370
    13
100
AcDbDimension
280
     0
  2
*D25
 10
532.0376309191869
 20
80.19374715262555
 30
0.0
 11
532.0376309191869
 21
35.19374715262555
 31
0.0
 70
   160
 71
     8
 42
-1.0
 73
     0
 74
     0
 75
     0
  3
dc_Rotated
100
AcDbAlignedDimension
 13
600.0376309191869
 23
-9.806252847374452
 33
0.0
 14
600.0376309191869
 24
80.19374715262555
 34
0.0
 50
90.0
100
AcDbRotatedDimension
1001
ACAD
1000
DSTYLE
1002
{
1070
   144
1040
1.0
1070
   274
1070
     4
1070
    41
1040
15.00000953674316
1070
    79
1070
     2
1070
   343
1005
17D
1070
   344
1005
17D
1070
   176
1070
     2
1070
   177
1070
     2
1070
   178
1070
     2
1070
   271
1070
     2
1070
    44
1040
2.5
1070
    42
1040
5.0
1070
   147
1040
5.0
1070
   173
1070
     1
1070
    77
1070
     3
1070
    73
1070
     0
1070
   172
1070
     1
1070
    74
1070
     0
1070
   283
1070
     0
1070
   340
1005
187
1070
   140
1040
20.0
1070
   284
1070
     8
1070
   288
1070
     1
1070
    78
1070
     8
1070
    90
1070
     1
1002
}
  0
DIMENSION
  5
3BA
330
1F
100
AcDbEntity
  8
0
  6
Continuous
370
    13
100
AcDbDimension
280
     0
  2
*D26
 10
630.0376309191867
 20
217.0937471526252
 30
0.0
 11
615.0376309191868
 21
217.0937471526252
 31
0.0
 70
   160
 71
     8
 42
-1.0
 73
     0
 74
     0
 75
     0
  3
dc_Rotated
100
AcDbAlignedDimension
 13
600.0376309191869
 23
80.19374715262555
 33
0.0
 14
630.0376309191867
 24
75.89374715262537
 34
0.0
100
AcDbRotatedDimension
1001
ACAD
1000
DSTYLE
1002
{
1070
   144
1040
1.0
1070
   274
1070
     4
1070
    41
1040
15.00000953674316
1070
    79
1070
     2
1070
   343
1005
17D
1070
   344
1005
17D
1070
   176
1070
     2
1070
   177
1070
     2
1070
   178
1070
     2
1070
   271
1070
     2
1070
    44
1040
2.5
1070
    42
1040
5.0
1070
   147
1040
5.0
1070
   173
1070
     1
1070
    77
1070
     3
1070
    73
1070
     0
1070
   172
1070
     1
1070
    74
1070
     0
1070
   283
1070
     0
1070
   340
1005
187
1070
   140
1040
20.0
1070
   284
1070
     8
1070
   288
1070
     1
1070
    78
1070
     8
1070
    90
1070
     1
1002
}
  0
DIMENSION
  5
3BB
330
1F
100
AcDbEntity
  8
0
  6
Continuous
370
    13
100
AcDbDimension
280
     0
  2
*D27
 10
775.0376309191869
 20
217.0937471526252
 30
0.0
 11
760.037630919187
 21
217.0937471526252
 31
0.0
 70
   160
 71
     8
 42
-1.0
 73
     0
 74
     0
 75
     0
  3
dc_Rotated
100
AcDbAlignedDimension
 13
745.0376309191871
 23
75.89374715262537
 33
0.0
 14
775.0376309191869
 24
80.19374715262555
 34
0.0
100
AcDbRotatedDimension
1001
ACAD
1000
DSTYLE
1002
{
1070
   144
1040
1.0
1070
   274
1070
     4
1070
    41
1040
15.00000953674316
1070
    79
1070
     2
1070
   343
1005
17D
1070
   344
1005
17D
1070
   176
1070
     2
1070
   177
1070
     2
1070
   178
1070
     2
1070
   271
1070
     2
1070
    44
1040
2.5
1070
    42
1040
5.0
1070
   147
1040
5.0
1070
   173
1070
     1
1070
    77
1070
     3
1070
    73
1070
     0
1070
   172
1070
     1
1070
    74
1070
     0
1070
   283
1070
     0
1070
   340
1005
187
1070
   140
1040
20.0
1070
   284
1070
     8
1070
   288
1070
     1
1070
    78
1070
     8
1070
    90
1070
     1
1002
}
  0
DIMENSION
  5
3BC
330
1F
100
AcDbEntity
  8
0
  6
Continuous
370
    13
100
AcDbDimension
280
     0
  2
*D29
 10
572.0376309191869
 20
61.69374715262555
 30
0.0
 11
572.0376309191869
 21
25.94374715262555
 31
0.0
 70
   160
 71
     8
 42
-1.0
 73
     0
 74
     0
 75
     0
  3
dc_Rotated
100
AcDbAlignedDimension
 13
600.0376309191869
 23
-9.806252847374452
 33
0.0
 14
611.7376309191868
 24
61.69374715262555
 34
0.0
 50
90.0
100
AcDbRotatedDimension
1001
ACAD
1000
DSTYLE
1002
{
1070
   144
1040
1.0
1070
   274
1070
     4
1070
    41
1040
15.00000953674316
1070
    79
1070
     2
1070
   343
1005
17D
1070
   344
1005
17D
1070
   176
1070
     2
1070
   177
1070
     2
1070
   178
1070
     2
1070
   271
1070
     2
1070
    44
1040
2.5
1070
    42
1040
5.0
1070
   147
1040
5.0
1070
   173
1070
     1
1070
    77
1070
     3
1070
    73
1070
     0
1070
   172
1070
     1
1070
    74
1070
     0
1070
   283
1070
     0
1070
   340
1005
187
1070
   140
1040
20.0
1070
   284
1070
     8
1070
   288
1070
     1
1070
    78
1070
     8
1070
    90
1070
     1
1002
}
  0
DIMENSION
  5
3BD
330
1F
100
AcDbEntity
  8
0
  6
Continuous
370
    13
100
AcDbDimension
280
     0
  2
*D30
 10
492.0376309191869
 20
87.09374715262555
 30
0.0
 11
492.0376309191869
 21
38.64374715262554
 31
0.0
 70
   160
 71
     8
 42
-1.0
 73
     0
 74
     0
 75
     0
  3
dc_Rotated
100
AcDbAlignedDimension
 13
600.0376309191869
 23
-9.806252847374452
 33
0.0
 14
640.6876309191871
 24
87.09374715262555
 34
0.0
 50
90.0
100
AcDbRotatedDimension
1001
ACAD
1000
DSTYLE
1002
{
1070
   144
1040
1.0
1070
   274
1070
     4
1070
    41
1040
15.00000953674316
1070
    79
1070
     2
1070
   343
1005
17D
1070
   344
1005
17D
1070
   176
1070
     2
1070
   177
1070
     2
1070
   178
1070
     2
1070
   271
1070
     2
1070
    44
1040
2.5
1070
    42
1040
5.0
1070
   147
1040
5.0
1070
   173
1070
     1
1070
    77
1070
     3
1070
    73
1070
     0
1070
   172
1070
     1
1070
    74
1070
     0
1070
   283
1070
     0
1070
   340
1005
187
1070
   140
1040
20.0
1070
   284
1070
     8
1070
   288
1070
     1
1070
    78
1070
     8
1070
    90
1070
     1
1002
}
  0
INSERT
  5
3BE
330
1F
100
AcDbEntity
  8
0
  6
Continuous
100
AcDbBlockReference
  2
DC_IMAGEDIMGROUP_3
 10
0.0
 20
0.0
 30
0.0
  0
DIMENSION
  5
3BF
330
1F
100
AcDbEntity
  8
0
  6
Continuous
370
    13
100
AcDbDimension
280
     0
  2
*D32
 10
738.537630919187
 20
167.0937471526252
 30
0.0
 11
687.537630919187
 21
167.0937471526252
 31
0.0
 70
   160
  1
ローラ幅
 71
     8
 42
-1.0
 73
     0
 74
     0
 75
     0
  3
dc_Rotated
100
AcDbAlignedDimension
 13
636.5376309191871
 23
82.94374715262555
 33
0.0
 14
738.537630919187
 24
82.94374715262555
 34
0.0
100
AcDbRotatedDimension
1001
ACAD
1000
DSTYLE
1002
{
1070
   144
1040
1.0
1070
   274
1070
     4
1070
    41
1040
15.00000953674316
1070
    79
1070
     2
1070
   343
1005
17D
1070
   344
1005
17D
1070
   176
1070
     2
1070
   177
1070
     2
1070
   178
1070
     2
1070
   271
1070
     1
1070
    44
1040
2.5
1070
    42
1040
5.0
1070
   147
1040
5.0
1070
   173
1070
     1
1070
    77
1070
     3
1070
    73
1070
     0
1070
   172
1070
     1
1070
    74
1070
     0
1070
   283
1070
     0
1070
   340
1005
187
1070
   140
1040
20.0
1070
   284
1070
     8
1070
   288
1070
     1
1070
    78
1070
     8
1070
    90
1070
     1
1002
}
  0
INSERT
  5
3C0
330
1F
100
AcDbEntity
  8
0
  6
Continuous
100
AcDbBlockReference
  2
DC_GROUP_W_MR-5016_S_040_5
 10
0.0
 20
0.0
 30
0.0
  0
INSERT
  5
3C1
330
1F
100
AcDbEntity
  8
0
  6
Continuous
100
AcDbBlockReference
  2
DC_GROUP_W_MR-5016_S_040_11
 10
0.0
 20
0.0
 30
0.0
  0
INSERT
  5
3C2
330
1F
100
AcDbEntity
  8
0
  6
Continuous
100
AcDbBlockReference
  2
DC_GROUP_W_MR-5016_S_040_12
 10
0.0
 20
0.0
 30
0.0
  0
INSERT
  5
3C3
330
1F
100
AcDbEntity
  8
0
  6
Continuous
100
AcDbBlockReference
  2
DC_GROUP_W_MR-5016_S_040_14
 10
0.0
 20
0.0
 30
0.0
  0
INSERT
  5
3C4
330
1F
100
AcDbEntity
  8
0
  6
Continuous
100
AcDbBlockReference
  2
DC_GROUP_W_MR-5016_S_040_15
 10
0.0
 20
0.0
 30
0.0
  0
INSERT
  5
3C5
330
1F
100
AcDbEntity
  8
0
  6
Continuous
100
AcDbBlockReference
  2
DC_GROUP_W_MR-5016_S_040_17
 10
0.0
 20
0.0
 30
0.0
  0
DIMENSION
  5
3C6
330
1F
100
AcDbEntity
  8
0
  6
Continuous
370
    13
100
AcDbDimension
280
     0
  2
*D65
 10
-488.9587957402838
 20
147.0937471526252
 30
0.0
 11
-588.9587957402838
 21
147.0937471526252
 31
0.0
 70
   160
 71
     8
 42
-1.0
 73
     0
 74
     0
 75
     0
  3
dc_Rotated
100
AcDbAlignedDimension
 13
-688.9587957402838
 23
98.79374715262591
 33
0.0
 14
-488.9587957402838
 24
98.79374715262591
 34
0.0
100
AcDbRotatedDimension
1001
ACAD
1000
DSTYLE
1002
{
1070
   144
1040
1.0
1070
   274
1070
     4
1070
    41
1040
15.00000953674316
1070
    79
1070
     2
1070
   343
1005
17D
1070
   344
1005
17D
1070
   176
1070
     2
1070
   177
1070
     2
1070
   178
1070
     2
1070
   271
1070
     2
1070
    44
1040
2.5
1070
    42
1040
5.0
1070
   147
1040
5.0
1070
   173
1070
     1
1070
    77
1070
     3
1070
    73
1070
     0
1070
   172
1070
     1
1070
    74
1070
     0
1070
   283
1070
     0
1070
   340
1005
187
1070
   140
1040
20.0
1070
   284
1070
     8
1070
   288
1070
     1
1070
    78
1070
     8
1070
    90
1070
     1
1002
}
  0
DIMENSION
  5
3C7
330
1F
100
AcDbEntity
  8
0
  6
Continuous
370
    13
100
AcDbDimension
280
     0
  2
*D66
 10
-24.9546100562296
 20
40.19374715262555
 30
0.0
 11
-24.9546100562296
 21
-27.01125284737445
 31
0.0
 70
   160
 71
     8
 42
-1.0
 73
     0
 74
     0
 75
     0
  3
dc_Rotated
100
AcDbAlignedDimension
 13
31.54120425971621
 23
-9.806252847374452
 33
0.0
 14
-4.957318740283995
 24
40.19374715262555
 34
0.0
 50
90.0
100
AcDbRotatedDimension
1001
ACAD
1000
DSTYLE
1002
{
1070
   144
1040
1.0
1070
   274
1070
     4
1070
    41
1040
15.00000953674316
1070
    79
1070
     2
1070
   343
1005
17D
1070
   344
1005
17D
1070
   176
1070
     2
1070
   177
1070
     2
1070
   178
1070
     2
1070
   271
1070
     2
1070
    44
1040
2.5
1070
    42
1040
5.0
1070
   147
1040
5.0
1070
   173
1070
     1
1070
    77
1070
     3
1070
    73
1070
     0
1070
   172
1070
     1
1070
    74
1070
     0
1070
   283
1070
     0
1070
   340
1005
187
1070
   140
1040
20.0
1070
   284
1070
     8
1070
   288
1070
     1
1070
    78
1070
     8
1070
    90
1070
     1
1002
}
  0
INSERT
  5
3C8
330
1F
100
AcDbEntity
  8
0
  6
Continuous
100
AcDbBlockReference
  2
DC_GROUP_W_MR-5016_S_040_37
 10
0.0
 20
0.0
 30
0.0
  0
INSERT
  5
3C9
330
1F
100
AcDbEntity
  8
0
  6
Continuous
100
AcDbBlockReference
  2
DC_GROUP_W_MR-5016_S_040_38
 10
0.0
 20
0.0
 30
0.0
  0
INSERT
  5
3CA
330
1F
100
AcDbEntity
  8
ZUWAKU
  6
Continuous
100
AcDbBlockReference
  2
DC_GROUP_W_MR-5016_S_040_1
 10
0.0
 20
0.0
 30
0.0
  0
INSERT
  5
3CB
330
1F
100
AcDbEntity
  8
ZUWAKU
  6
Continuous
100
AcDbBlockReference
  2
DC_GROUP_W_MR-5016_S_040_2
 10
0.0
 20
0.0
 30
0.0
  0
TEXT
  5
3CC
330
1F
100
AcDbEntity
  8
0
 62
     2
100
AcDbText
 10
190.0000000000001
 20
-649.3596166976107
 30
0.0
 40
20.0
  1
フリーローラコンベヤ
 41
1.186440677966102
  7
dcStyle1
 72
     5
 11
390.0000000000001
 21
-649.3596166976107
 31
0.0
100
AcDbText
  0
TEXT
  5
3CD
330
1F
100
AcDbEntity
  8
0
 62
     2
100
AcDbText
 10
820.0
 20
-649.3596166976107
 30
0.0
 40
20.0
  1
W_MR-5016_S_040
 41
0.5250000000000001
  7
dcStyle1
 72
     5
 11
970.0
 21
-649.3596166976107
 31
0.0
100
AcDbText
  0
TEXT
  5
3CE
330
1F
100
AcDbEntity
  8
0
 62
     2
100
AcDbText
 10
567.5
 20
-599.3596166976107
 30
0.0
 40
20.0
  1
本体組立図 MR-5016 ローラピッチ200
 41
0.7968749999999999
  7
dcStyle1
 72
     5
 11
907.5
 21
-599.3596166976107
 31
0.0
100
AcDbText
  0
TEXT
  5
3CF
330
1F
100
AcDbEntity
  8
0
 62
     2
100
AcDbText
 10
-68.74999999999986
 20
-649.3596166976107
 30
0.0
 40
20.0
  1
1/5
 41
0.5338983050847458
  7
dcStyle1
 72
     5
 11
-38.74999999999986
 21
-649.3596166976107
 31
0.0
100
AcDbText
  0
TEXT
  5
3D0
330
1F
100
AcDbEntity
  8
0
 62
     2
100
AcDbText
 10
200.0000000000001
 20
-599.3596166976107
 30
0.0
 40
20.0
  1
マルチベヤシリーズ
 41
1.188679245283019
  7
dcStyle1
 72
     5
 11
380.0000000000001
 21
-599.3596166976107
 31
0.0
100
AcDbText
  0
TEXT
  5
3D1
330
1F
100
AcDbEntity
  8
0
 62
     2
100
AcDbText
 10
-116.553289867142
 20
-612.3005385298998
 30
0.0
 40
20.0
  1
2019.10.1
 41
0.6258278145695364
  7
dcStyle1
 72
     5
 11
-26.55328986714204
 21
-612.3005385298998
 31
0.0
100
AcDbText
  0
TEXT
  5
3D2
330
1F
100
AcDbEntity
  8
0
 62
     2
100
AcDbText
 10
-424.5221869900411
 20
-241.4653937975794
 30
0.0
 40
20.0
  1
呼び機長(cm)
 41
0.7109004739336492
  7
dcStyle0
 72
     5
 11
-304.5221869900411
 21
-241.4653937975794
 31
0.0
100
AcDbText
  0
TEXT
  5
3D3
330
1F
100
AcDbEntity
  8
0
 62
     2
100
AcDbText
 10
-424.5221869900411
 20
-268.4653938032477
 30
0.0
 40
20.0
  1
機　長(cm)
 41
0.7627765064836002
  7
dcStyle0
 72
     5
 11
-324.5221869900411
 21
-268.4653938032477
 31
0.0
100
AcDbText
  0
TEXT
  5
3D4
330
1F
100
AcDbEntity
  8
0
 62
     2
100
AcDbText
 10
-424.5221869900411
 20
-295.4653938032478
 30
0.0
 40
20.0
  1
A(mm)
 41
0.6341958396752917
  7
dcStyle0
 72
     5
 11
-374.5221869900411
 21
-295.4653938032478
 31
0.0
100
AcDbText
  0
TEXT
  5
3D5
330
1F
100
AcDbEntity
  8
0
 62
     2
100
AcDbText
 10
-424.5221869900411
 20
-322.4653938089161
 30
0.0
 40
20.0
  1
N
 41
0.5370569280343717
  7
dcStyle0
 72
     5
 11
-414.5221869900411
 21
-322.4653938089161
 31
0.0
100
AcDbText
  0
TEXT
  5
3D6
330
1F
100
AcDbEntity
  8
0
 62
     2
100
AcDbText
 10
-282.0221869989913
 20
-268.4653937975778
 30
0.0
 40
20.0
  1
99.4
 41
0.8077544426494345
  7
dcStyle0
 72
     5
 11
-242.0221869989913
 21
-268.4653937975778
 31
0.0
100
AcDbText
  0
TEXT
  5
3D7
330
1F
100
AcDbEntity
  8
0
 62
     2
100
AcDbText
 10
-217.0221870034912
 20
-268.4653937975778
 30
0.0
 40
20.0
  1
149.4
 41
0.7805182641273806
  7
dcStyle0
 72
     5
 11
-167.0221870034912
 21
-268.4653937975778
 31
0.0
100
AcDbText
  0
TEXT
  5
3D8
330
1F
100
AcDbEntity
  8
0
 62
     2
100
AcDbText
 10
-147.0221870079912
 20
-268.4653937975778
 30
0.0
 40
20.0
  1
199.4
 41
0.7805182641273806
  7
dcStyle0
 72
     5
 11
-97.02218700799119
 21
-268.4653937975778
 31
0.0
100
AcDbText
  0
TEXT
  5
3D9
330
1F
100
AcDbEntity
  8
0
 62
     2
100
AcDbText
 10
-77.02218701249114
 20
-268.4653937975778
 30
0.0
 40
20.0
  1
299.4
 41
0.7805182641273806
  7
dcStyle0
 72
     5
 11
-27.02218701249114
 21
-268.4653937975778
 31
0.0
100
AcDbText
  0
TEXT
  5
3DA
330
1F
100
AcDbEntity
  8
0
 62
     2
100
AcDbText
 10
-272.0221869989913
 20
-295.4653937975778
 30
0.0
 40
20.0
  1
97
 41
0.6877579092159559
  7
dcStyle0
 72
     5
 11
-252.0221869989913
 21
-295.4653937975778
 31
0.0
100
AcDbText
  0
TEXT
  5
3DB
330
1F
100
AcDbEntity
  8
0
 62
     2
100
AcDbText
 10
-424.5221869900411
 20
-349.4653938089161
 30
0.0
 40
20.0
  1
B(mm)
 41
0.6332320162107397
  7
dcStyle0
 72
     5
 11
-374.5221869900411
 21
-349.4653938089161
 31
0.0
100
AcDbText
  0
TEXT
  5
3DC
330
1F
100
AcDbEntity
  8
0
 62
     2
100
AcDbText
 10
-277.0221869989913
 20
-241.4653937975821
 30
0.0
 40
20.0
  1
100
 41
0.6877579092159559
  7
dcStyle0
 72
     5
 11
-247.0221869989913
 21
-241.4653937975821
 31
0.0
100
AcDbText
  0
TEXT
  5
3DD
330
1F
100
AcDbEntity
  8
0
 62
     2
100
AcDbText
 10
-207.0221870034912
 20
-241.4653937975821
 30
0.0
 40
20.0
  1
150
 41
0.6877579092159559
  7
dcStyle0
 72
     5
 11
-177.0221870034912
 21
-241.4653937975821
 31
0.0
100
AcDbText
  0
TEXT
  5
3DE
330
1F
100
AcDbEntity
  8
0
 62
     2
100
AcDbText
 10
-137.0221870079912
 20
-241.4653937975821
 30
0.0
 40
20.0
  1
200
 41
0.6877579092159559
  7
dcStyle0
 72
     5
 11
-107.0221870079912
 21
-241.4653937975821
 31
0.0
100
AcDbText
  0
TEXT
  5
3DF
330
1F
100
AcDbEntity
  8
0
 62
     2
100
AcDbText
 10
-67.02218701249114
 20
-241.4653937975821
 30
0.0
 40
20.0
  1
300
 41
0.6877579092159559
  7
dcStyle0
 72
     5
 11
-37.02218701249114
 21
-241.4653937975821
 31
0.0
100
AcDbText
  0
TEXT
  5
3E0
330
1F
100
AcDbEntity
  8
0
 62
     2
100
AcDbText
 10
-267.0221869989913
 20
-322.4653938032461
 30
0.0
 40
20.0
  1
4
 41
0.6877579092159559
  7
dcStyle0
 72
     5
 11
-257.0221869989913
 21
-322.4653938032461
 31
0.0
100
AcDbText
  0
TEXT
  5
3E1
330
1F
100
AcDbEntity
  8
0
 62
     2
100
AcDbText
 10
-277.0221869989913
 20
-349.4653938032461
 30
0.0
 40
20.0
  1
800
 41
0.6877579092159559
  7
dcStyle0
 72
     5
 11
-247.0221869989913
 21
-349.4653938032461
 31
0.0
100
AcDbText
  0
TEXT
  5
3E2
330
1F
100
AcDbEntity
  8
0
 62
     2
100
AcDbText
 10
-424.5221869900411
 20
-403.4653938032478
 30
0.0
 40
20.0
  1
D(mm)
 41
0.6305170239596469
  7
dcStyle0
 72
     5
 11
-374.5221869900411
 21
-403.4653938032478
 31
0.0
100
AcDbText
  0
TEXT
  5
3E3
330
1F
100
AcDbEntity
  8
0
 62
     2
100
AcDbText
 10
-424.5221869900411
 20
-430.4653938032478
 30
0.0
 40
20.0
  1
E(mm)
 41
0.6500260010400416
  7
dcStyle0
 72
     5
 11
-374.5221869900411
 21
-430.4653938032478
 31
0.0
100
AcDbText
  0
TEXT
  5
3E4
330
1F
100
AcDbEntity
  8
0
 62
     2
100
AcDbText
 10
-272.0221869989913
 20
-403.4653937975713
 30
0.0
 40
20.0
  1
57
 41
0.6877579092159559
  7
dcStyle0
 72
     5
 11
-252.0221869989913
 21
-403.4653937975713
 31
0.0
100
AcDbText
  0
TEXT
  5
3E5
330
1F
100
AcDbEntity
  8
0
 62
     2
100
AcDbText
 10
-277.0221869989913
 20
-430.4653937975713
 30
0.0
 40
20.0
  1
---
 41
0.6877579092159559
  7
dcStyle0
 72
     5
 11
-247.0221869989913
 21
-430.4653937975713
 31
0.0
100
AcDbText
  0
TEXT
  5
3E6
330
1F
100
AcDbEntity
  8
0
 62
     2
100
AcDbText
 10
-202.0221870034912
 20
-403.4653937975713
 30
0.0
 40
20.0
  1
57
 41
0.6877579092159559
  7
dcStyle0
 72
     5
 11
-182.0221870034912
 21
-403.4653937975713
 31
0.0
100
AcDbText
  0
TEXT
  5
3E7
330
1F
100
AcDbEntity
  8
0
 62
     2
100
AcDbText
 10
-207.0221870034912
 20
-430.4653937975713
 30
0.0
 40
20.0
  1
---
 41
0.6877579092159559
  7
dcStyle0
 72
     5
 11
-177.0221870034912
 21
-430.4653937975713
 31
0.0
100
AcDbText
  0
TEXT
  5
3E8
330
1F
100
AcDbEntity
  8
0
 62
     2
100
AcDbText
 10
-132.0221870079912
 20
-403.4653937975713
 30
0.0
 40
20.0
  1
57
 41
0.6877579092159559
  7
dcStyle0
 72
     5
 11
-112.0221870079912
 21
-403.4653937975713
 31
0.0
100
AcDbText
  0
TEXT
  5
3E9
330
1F
100
AcDbEntity
  8
0
 62
     2
100
AcDbText
 10
-62.02218701249114
 20
-403.4653937975713
 30
0.0
 40
20.0
  1
57
 41
0.6877579092159559
  7
dcStyle0
 72
     5
 11
-42.02218701249114
 21
-403.4653937975713
 31
0.0
100
AcDbText
  0
TEXT
  5
3EA
330
1F
100
AcDbEntity
  8
0
 62
     2
100
AcDbText
 10
-137.0221870079912
 20
-430.4653937975778
 30
0.0
 40
20.0
  1
760
 41
0.6877579092159559
  7
dcStyle0
 72
     5
 11
-107.0221870079912
 21
-430.4653937975778
 31
0.0
100
AcDbText
  0
TEXT
  5
3EB
330
1F
100
AcDbEntity
  8
0
 62
     2
100
AcDbText
 10
-72.02218701249114
 20
-430.4653937975778
 30
0.0
 40
20.0
  1
1260
 41
0.6877579092159559
  7
dcStyle0
 72
     5
 11
-32.02218701249114
 21
-430.4653937975778
 31
0.0
100
AcDbText
  0
TEXT
  5
3EC
330
1F
100
AcDbEntity
  8
0
 62
     2
100
AcDbText
 10
-202.0221870034912
 20
-295.4653937975778
 30
0.0
 40
20.0
  1
47
 41
0.6877579092159559
  7
dcStyle0
 72
     5
 11
-182.0221870034912
 21
-295.4653937975778
 31
0.0
100
AcDbText
  0
TEXT
  5
3ED
330
1F
100
AcDbEntity
  8
0
 62
     2
100
AcDbText
 10
-197.0221870034912
 20
-322.4653938032461
 30
0.0
 40
20.0
  1
7
 41
0.6877579092159559
  7
dcStyle0
 72
     5
 11
-187.0221870034912
 21
-322.4653938032461
 31
0.0
100
AcDbText
  0
TEXT
  5
3EE
330
1F
100
AcDbEntity
  8
0
 62
     2
100
AcDbText
 10
-212.0221870034912
 20
-349.4653938032461
 30
0.0
 40
20.0
  1
1400
 41
0.6877579092159559
  7
dcStyle0
 72
     5
 11
-172.0221870034912
 21
-349.4653938032461
 31
0.0
100
AcDbText
  0
TEXT
  5
3EF
330
1F
100
AcDbEntity
  8
0
 62
     2
100
AcDbText
 10
-132.0221870079912
 20
-295.4653937975778
 30
0.0
 40
20.0
  1
97
 41
0.6877579092159559
  7
dcStyle0
 72
     5
 11
-112.0221870079912
 21
-295.4653937975778
 31
0.0
100
AcDbText
  0
TEXT
  5
3F0
330
1F
100
AcDbEntity
  8
0
 62
     2
100
AcDbText
 10
-127.0221870079912
 20
-322.4653938032461
 30
0.0
 40
20.0
  1
9
 41
0.6877579092159559
  7
dcStyle0
 72
     5
 11
-117.0221870079912
 21
-322.4653938032461
 31
0.0
100
AcDbText
  0
TEXT
  5
3F1
330
1F
100
AcDbEntity
  8
0
 62
     2
100
AcDbText
 10
-142.0221870079912
 20
-349.4653938032461
 30
0.0
 40
20.0
  1
1800
 41
0.6877579092159559
  7
dcStyle0
 72
     5
 11
-102.0221870079912
 21
-349.4653938032461
 31
0.0
100
AcDbText
  0
TEXT
  5
3F2
330
1F
100
AcDbEntity
  8
0
 62
     2
100
AcDbText
 10
-62.02218701249114
 20
-295.4653937975778
 30
0.0
 40
20.0
  1
97
 41
0.6877579092159559
  7
dcStyle0
 72
     5
 11
-42.02218701249114
 21
-295.4653937975778
 31
0.0
100
AcDbText
  0
TEXT
  5
3F3
330
1F
100
AcDbEntity
  8
0
 62
     2
100
AcDbText
 10
-62.02218701249114
 20
-322.4653938032461
 30
0.0
 40
20.0
  1
14
 41
0.6877579092159559
  7
dcStyle0
 72
     5
 11
-42.02218701249114
 21
-322.4653938032461
 31
0.0
100
AcDbText
  0
TEXT
  5
3F4
330
1F
100
AcDbEntity
  8
0
 62
     2
100
AcDbText
 10
-72.02218701249114
 20
-349.4653938032461
 30
0.0
 40
20.0
  1
2800
 41
0.6877579092159559
  7
dcStyle0
 72
     5
 11
-32.02218701249114
 21
-349.4653938032461
 31
0.0
100
AcDbText
  0
TEXT
  5
3F5
330
1F
100
AcDbEntity
  8
0
 62
     2
100
AcDbText
 10
-424.5221869900411
 20
-376.4653938032477
 30
0.0
 40
20.0
  1
C(mm)
 41
0.6268806419257773
  7
dcStyle0
 72
     5
 11
-374.5221869900411
 21
-376.4653938032477
 31
0.0
100
AcDbText
  0
TEXT
  5
3F6
330
1F
100
AcDbEntity
  8
0
 62
     2
100
AcDbText
 10
-272.0221869989913
 20
-376.4653937975777
 30
0.0
 40
20.0
  1
97
 41
0.6877579092159559
  7
dcStyle0
 72
     5
 11
-252.0221869989913
 21
-376.4653937975777
 31
0.0
100
AcDbText
  0
TEXT
  5
3F7
330
1F
100
AcDbEntity
  8
0
 62
     2
100
AcDbText
 10
-202.0221870034912
 20
-376.4653937975777
 30
0.0
 40
20.0
  1
47
 41
0.6877579092159559
  7
dcStyle0
 72
     5
 11
-182.0221870034912
 21
-376.4653937975777
 31
0.0
100
AcDbText
  0
TEXT
  5
3F8
330
1F
100
AcDbEntity
  8
0
 62
     2
100
AcDbText
 10
-132.0221870079912
 20
-376.4653937975777
 30
0.0
 40
20.0
  1
97
 41
0.6877579092159559
  7
dcStyle0
 72
     5
 11
-112.0221870079912
 21
-376.4653937975777
 31
0.0
100
AcDbText
  0
TEXT
  5
3F9
330
1F
100
AcDbEntity
  8
0
 62
     2
100
AcDbText
 10
-62.02218701249114
 20
-376.4653937975777
 30
0.0
 40
20.0
  1
97
 41
0.6877579092159559
  7
dcStyle0
 72
     5
 11
-42.02218701249114
 21
-376.4653937975777
 31
0.0
100
AcDbText
  0
LINE
  5
3FA
330
1F
100
AcDbEntity
  8
0
  6
CENTER
 62
     3
370
    13
100
AcDbLine
 10
-228.9587957402838
 20
-19.80625284737445
 30
0.0
 11
-228.9587957402838
 21
0.1937471526255479
 31
0.0
  0
LINE
  5
3FB
330
1F
100
AcDbEntity
  8
0
  6
CENTER
 62
     3
370
    13
100
AcDbLine
 10
-348.9587957402838
 20
-19.80625284737445
 30
0.0
 11
-348.9587957402838
 21
0.1937471526255479
 31
0.0
  0
LINE
  5
3FC
330
1F
100
AcDbEntity
  8
0
  6
CENTER
 62
     3
370
    13
100
AcDbLine
 10
612.5376319191868
 20
0.1937471526255479
 30
0.0
 11
612.5376319191868
 21
-19.70040884737475
 31
0.0
  0
LINE
  5
3FD
330
1F
100
AcDbEntity
  8
0
  6
CENTER
 62
     3
370
    13
100
AcDbLine
 10
762.5376319191868
 20
0.1937471526255479
 30
0.0
 11
762.5376319191868
 21
-19.80625284737445
 31
0.0
  0
LINE
  5
3FE
330
1F
100
AcDbEntity
  8
0
  6
CENTER
 62
     3
370
    13
100
AcDbLine
 10
221.0412042597161
 20
404.5251688631321
 30
0.0
 11
-798.9587957402839
 21
404.5251688631321
 31
0.0
  0
LINE
  5
3FF
330
1F
100
AcDbEntity
  8
0
  6
CENTER
 62
     3
370
    13
100
AcDbLine
 10
151.0412042597162
 20
0.1937471526255479
 30
0.0
 11
151.0412042597162
 21
-19.80625284737445
 31
0.0
  0
LINE
  5
400
330
1F
100
AcDbEntity
  8
0
  6
CENTER
 62
     3
370
    13
100
AcDbLine
 10
31.04120425971621
 20
0.1937471526255479
 30
0.0
 11
31.04120425971621
 21
-19.80625284737445
 31
0.0
  0
LINE
  5
401
330
1F
100
AcDbEntity
  8
0
  6
CENTER
 62
     3
370
    13
100
AcDbLine
 10
-728.9587957402838
 20
0.1937471526255479
 30
0.0
 11
-728.9587957402838
 21
-19.80625284737445
 31
0.0
  0
LINE
  5
402
330
1F
100
AcDbEntity
  8
0
  6
CENTER
 62
     3
370
    13
100
AcDbLine
 10
-608.9587957402838
 20
0.1937471526255479
 30
0.0
 11
-608.9587957402838
 21
-19.80625284737445
 31
0.0
  0
LINE
  5
403
330
1F
100
AcDbEntity
  8
0
  6
CENTER
 62
     3
370
    13
100
AcDbLine
 10
-798.9587957402838
 20
61.69374715262555
 30
0.0
 11
221.0412042597162
 21
61.69374715262555
 31
0.0
  0
LINE
  5
404
330
1F
100
AcDbEntity
  8
0
  6
Continuous
 62
     3
370
    13
100
AcDbLine
 10
-432.0221869897412
 20
-433.9653938004296
 30
0.0
 11
-17.02218701474112
 21
-433.965393800415
 31
0.0
  0
LINE
  5
405
330
1F
100
AcDbEntity
  8
0
  6
Continuous
 62
     3
370
    13
100
AcDbLine
 10
-432.0221869897412
 20
-217.9653937947445
 30
0.0
 11
-17.02218701474112
 21
-217.9653937947298
 31
0.0
  0
LINE
  5
406
330
1F
100
AcDbEntity
  8
0
  6
Continuous
 62
     3
370
    13
100
AcDbLine
 10
-432.0221869897458
 20
-217.9653937947445
 30
0.0
 11
-432.0221869897412
 21
-433.965393800432
 31
0.0
  0
LINE
  5
407
330
1F
100
AcDbEntity
  8
0
  6
Continuous
 62
     3
370
    13
100
AcDbLine
 10
-297.0221869967413
 20
-217.9653937947402
 30
0.0
 11
-297.0221869967413
 21
-433.9653938004299
 31
0.0
  0
LINE
  5
408
330
1F
100
AcDbEntity
  8
0
  6
Continuous
 62
     3
370
    13
100
AcDbLine
 10
-17.02218701474476
 20
-217.9653937947298
 30
0.0
 11
-17.02218701474112
 21
-433.9653938004172
 31
0.0
  0
LINE
  5
409
330
1F
100
AcDbEntity
  8
0
  6
Continuous
 62
     3
370
    13
100
AcDbLine
 10
-432.0221869897412
 20
-244.9653938004128
 30
0.0
 11
-17.02218701474112
 21
-244.9653938003981
 31
0.0
  0
LINE
  5
40A
330
1F
100
AcDbEntity
  8
0
  6
Continuous
 62
     3
370
    13
100
AcDbLine
 10
-432.0221869897412
 20
-271.9653938004128
 30
0.0
 11
-17.02218701474112
 21
-271.9653938003981
 31
0.0
  0
LINE
  5
40B
330
1F
100
AcDbEntity
  8
0
  6
Continuous
 62
     3
370
    13
100
AcDbLine
 10
-432.0221869897412
 20
-325.9653938004128
 30
0.0
 11
-17.02218701474112
 21
-325.9653938003981
 31
0.0
  0
LINE
  5
40C
330
1F
100
AcDbEntity
  8
0
  6
Continuous
 62
     3
370
    13
100
AcDbLine
 10
-432.0221869897412
 20
-352.9653938004128
 30
0.0
 11
-17.02218701474112
 21
-352.9653938003981
 31
0.0
  0
LINE
  5
40D
330
1F
100
AcDbEntity
  8
0
  6
Continuous
 62
     3
370
    13
100
AcDbLine
 10
-227.0221870012413
 20
-217.9653937947402
 30
0.0
 11
-227.0221870012413
 21
-433.9653938004299
 31
0.0
  0
LINE
  5
40E
330
1F
100
AcDbEntity
  8
0
  6
Continuous
 62
     3
370
    13
100
AcDbLine
 10
-157.0221870057412
 20
-217.9653937947402
 30
0.0
 11
-157.0221870057412
 21
-433.9653938004299
 31
0.0
  0
LINE
  5
40F
330
1F
100
AcDbEntity
  8
0
  6
Continuous
 62
     3
370
    13
100
AcDbLine
 10
-87.02218701024117
 20
-217.9653937947402
 30
0.0
 11
-87.02218701024117
 21
-433.9653938004299
 31
0.0
  0
LINE
  5
410
330
1F
100
AcDbEntity
  8
0
  6
Continuous
 62
     3
370
    13
100
AcDbLine
 10
-432.0221869897412
 20
-379.9653938004128
 30
0.0
 11
-17.02218701474112
 21
-379.9653938003981
 31
0.0
  0
LINE
  5
411
330
1F
100
AcDbEntity
  8
0
  6
Continuous
 62
     3
370
    13
100
AcDbLine
 10
-432.0221869897412
 20
-406.9653938004128
 30
0.0
 11
-17.02218701474112
 21
-406.9653938003981
 31
0.0
  0
LINE
  5
412
330
1F
100
AcDbEntity
  8
0
  6
Continuous
 62
     3
370
    13
100
AcDbLine
 10
-432.0221869897412
 20
-298.9653938060811
 30
0.0
 11
-17.02218701474112
 21
-298.9653938060665
 31
0.0
  0
LINE
  5
413
330
1F
100
AcDbEntity
  8
0
  6
Continuous
 62
     7
370
    18
100
AcDbLine
 10
600.0376309191869
 20
80.19374715262555
 30
0.0
 11
600.0376309191869
 21
77.89374715262537
 31
0.0
  0
LINE
  5
414
330
1F
100
AcDbEntity
  8
0
  6
Continuous
 62
     7
370
    18
100
AcDbLine
 10
625.7376309191867
 20
77.89374715262537
 30
0.0
 11
600.0376309191869
 21
77.89374715262537
 31
0.0
  0
LINE
  5
415
330
1F
100
AcDbEntity
  8
0
  6
Continuous
 62
     7
370
    18
100
AcDbLine
 10
600.0376309191869
 20
80.19374715262555
 30
0.0
 11
625.7376309191867
 21
80.19374715262555
 31
0.0
  0
ARC
  5
416
330
1F
100
AcDbEntity
  8
0
  6
Continuous
 62
     7
370
    18
100
AcDbCircle
 10
625.7376309191867
 20
75.89374715262537
 30
0.0
 40
2.0
100
AcDbArc
 50
0.0
 51
90.0
  0
ARC
  5
417
330
1F
100
AcDbEntity
  8
0
  6
Continuous
 62
     7
370
    18
100
AcDbCircle
 10
625.7376309191867
 20
75.89374715262537
 30
0.0
 40
4.3
100
AcDbArc
 50
0.0
 51
90.0
  0
LINE
  5
418
330
1F
100
AcDbEntity
  8
0
  6
Continuous
 62
     7
370
    18
100
AcDbLine
 10
600.0376309191869
 20
-7.50625284737427
 30
0.0
 11
600.0376309191869
 21
-9.806252847374452
 31
0.0
  0
LINE
  5
419
330
1F
100
AcDbEntity
  8
0
  6
Continuous
 62
     7
370
    18
100
AcDbLine
 10
625.7376309191867
 20
-7.50625284737427
 30
0.0
 11
600.0376309191869
 21
-7.50625284737427
 31
0.0
  0
LINE
  5
41A
330
1F
100
AcDbEntity
  8
0
  6
Continuous
 62
     7
370
    18
100
AcDbLine
 10
625.7376309191867
 20
-9.806252847374452
 30
0.0
 11
600.0376309191869
 21
-9.806252847374452
 31
0.0
  0
LINE
  5
41B
330
1F
100
AcDbEntity
  8
0
  6
Continuous
 62
     7
370
    18
100
AcDbLine
 10
775.0376309191869
 20
80.19374715262555
 30
0.0
 11
775.0376309191869
 21
77.89374715262537
 31
0.0
  0
LINE
  5
41C
330
1F
100
AcDbEntity
  8
0
  6
Continuous
 62
     7
370
    18
100
AcDbLine
 10
749.3376309191871
 20
77.89374715262537
 30
0.0
 11
775.0376309191869
 21
77.89374715262537
 31
0.0
  0
LINE
  5
41D
330
1F
100
AcDbEntity
  8
0
  6
Continuous
 62
     7
370
    18
100
AcDbLine
 10
775.0376309191869
 20
80.19374715262555
 30
0.0
 11
749.3376309191871
 21
80.19374715262555
 31
0.0
  0
LINE
  5
41E
330
1F
100
AcDbEntity
  8
0
  6
Continuous
 62
     7
370
    18
100
AcDbLine
 10
775.0376309191869
 20
-7.50625284737427
 30
0.0
 11
775.0376309191869
 21
-9.806252847374452
 31
0.0
  0
LINE
  5
41F
330
1F
100
AcDbEntity
  8
0
  6
Continuous
 62
     7
370
    18
100
AcDbLine
 10
749.3376309191871
 20
-7.50625284737427
 30
0.0
 11
775.0376309191869
 21
-7.50625284737427
 31
0.0
  0
LINE
  5
420
330
1F
100
AcDbEntity
  8
0
  6
Continuous
 62
     7
370
    18
100
AcDbLine
 10
749.3376309191871
 20
-9.806252847374452
 30
0.0
 11
775.0376309191869
 21
-9.806252847374452
 31
0.0
  0
ARC
  5
421
330
1F
100
AcDbEntity
  8
0
  6
Continuous
 62
     7
370
    18
100
AcDbCircle
 10
749.3376309191871
 20
75.89374715262537
 30
0.0
 40
2.0
100
AcDbArc
 50
90.0
 51
180.0
  0
LINE
  5
422
330
1F
100
AcDbEntity
  8
0
  6
Continuous
 62
     7
370
    18
100
AcDbLine
 10
747.3376309191871
 20
-5.506251847374841
 30
0.0
 11
747.3376309191871
 21
75.89374715262537
 31
0.0
  0
ARC
  5
423
330
1F
100
AcDbEntity
  8
0
  6
Continuous
 62
     7
370
    18
100
AcDbCircle
 10
749.3376309191871
 20
-5.50625284737427
 30
0.0
 40
2.0
100
AcDbArc
 50
179.9999730000077
 51
270.0
  0
ARC
  5
424
330
1F
100
AcDbEntity
  8
0
  6
Continuous
 62
     7
370
    18
100
AcDbCircle
 10
749.3376309191871
 20
-5.50625284737427
 30
0.0
 40
4.3
100
AcDbArc
 50
180.0
 51
270.0
  0
LINE
  5
425
330
1F
100
AcDbEntity
  8
0
  6
Continuous
 62
     7
370
    18
100
AcDbLine
 10
745.0376309191869
 20
75.89374715262537
 30
0.0
 11
745.0376309191869
 21
-5.50625284737427
 31
0.0
  0
ARC
  5
426
330
1F
100
AcDbEntity
  8
0
  6
Continuous
 62
     7
370
    18
100
AcDbCircle
 10
749.3376309191871
 20
75.89374715262537
 30
0.0
 40
4.3
100
AcDbArc
 50
90.0
 51
180.0
  0
LINE
  5
427
330
1F
100
AcDbEntity
  8
0
  6
Continuous
 62
     7
370
    18
100
AcDbLine
 10
627.7376309191867
 20
-5.50625284737427
 30
0.0
 11
627.7376309191867
 21
75.89374715262537
 31
0.0
  0
ARC
  5
428
330
1F
100
AcDbEntity
  8
0
  6
Continuous
 62
     7
370
    18
100
AcDbCircle
 10
625.7376309191867
 20
-5.50625284737427
 30
0.0
 40
2.0
100
AcDbArc
 50
270.0
 51
0.0
  0
LINE
  5
429
330
1F
100
AcDbEntity
  8
0
  6
Continuous
 62
     7
370
    18
100
AcDbLine
 10
630.0376309191869
 20
75.89374715262537
 30
0.0
 11
630.0376309191869
 21
-5.50625284737427
 31
0.0
  0
ARC
  5
42A
330
1F
100
AcDbEntity
  8
0
  6
Continuous
 62
     7
370
    18
100
AcDbCircle
 10
625.7376309191867
 20
-5.50625284737427
 30
0.0
 40
4.3
100
AcDbArc
 50
270.0
 51
0.0
  0
LINE
  5
42B
330
1F
100
AcDbEntity
  8
0
  6
Continuous
 62
     7
370
    18
100
AcDbLine
 10
-785.9587957402839
 20
462.0251688631321
 30
0.0
 11
208.0412042597161
 21
462.0251688631321
 31
0.0
  0
LINE
  5
42C
330
1F
100
AcDbEntity
  8
0
  6
Continuous
 62
     7
370
    18
100
AcDbLine
 10
-785.9587957402839
 20
347.0251688631321
 30
0.0
 11
208.0412042597161
 21
347.0251688631321
 31
0.0
  0
LINE
  5
42D
330
1F
100
AcDbEntity
  8
0
  6
Continuous
 62
     7
370
    18
100
AcDbLine
 10
-785.9587957402839
 20
462.0251688631321
 30
0.0
 11
-785.9587957402839
 21
482.0251688631321
 31
0.0
  0
ARC
  5
42E
330
1F
100
AcDbEntity
  8
0
  6
Continuous
 62
     7
370
    18
100
AcDbCircle
 10
-775.9587957402839
 20
482.0251688631321
 30
0.0
 40
10.0
100
AcDbArc
 50
90.0
 51
180.0
  0
LINE
  5
42F
330
1F
100
AcDbEntity
  8
0
  6
Continuous
 62
     7
370
    18
100
AcDbLine
 10
-785.9587957402839
 20
327.0251688631321
 30
0.0
 11
-785.9587957402839
 21
347.0251688631321
 31
0.0
  0
ARC
  5
430
330
1F
100
AcDbEntity
  8
0
  6
Continuous
 62
     7
370
    18
100
AcDbCircle
 10
-775.9587957402839
 20
327.0251688631321
 30
0.0
 40
10.0
100
AcDbArc
 50
180.0
 51
270.0
  0
LINE
  5
431
330
1F
100
AcDbEntity
  8
0
  6
Continuous
 62
     7
370
    18
100
AcDbLine
 10
-775.9587957402839
 20
492.0251688631321
 30
0.0
 11
198.0412042597161
 21
492.0251688631321
 31
0.0
  0
LINE
  5
432
330
1F
100
AcDbEntity
  8
0
  6
Continuous
 62
     7
370
    18
100
AcDbLine
 10
208.0412042597161
 20
462.0251688631321
 30
0.0
 11
208.0412042597161
 21
482.0251688631321
 31
0.0
  0
ARC
  5
433
330
1F
100
AcDbEntity
  8
0
  6
Continuous
 62
     7
370
    18
100
AcDbCircle
 10
198.0412042597161
 20
482.0251688631321
 30
0.0
 40
10.0
100
AcDbArc
 50
0.0
 51
90.0
  0
LINE
  5
434
330
1F
100
AcDbEntity
  8
0
  6
Continuous
 62
     7
370
    18
100
AcDbLine
 10
208.0412042597161
 20
327.0251688631321
 30
0.0
 11
208.0412042597161
 21
347.0251688631321
 31
0.0
  0
LINE
  5
435
330
1F
100
AcDbEntity
  8
0
  6
Continuous
 62
     7
370
    18
100
AcDbLine
 10
-775.9587957402839
 20
317.0251688631321
 30
0.0
 11
198.0412042597161
 21
317.0251688631321
 31
0.0
  0
ARC
  5
436
330
1F
100
AcDbEntity
  8
0
  6
Continuous
 62
     7
370
    18
100
AcDbCircle
 10
198.0412042597161
 20
327.0251688631321
 30
0.0
 40
10.0
100
AcDbArc
 50
270.0
 51
0.0
  0
LINE
  5
437
330
1F
100
AcDbEntity
  8
0
  6
Continuous
 62
     7
370
    18
100
AcDbLine
 10
208.0412042597162
 20
80.19374715262555
 30
0.0
 11
208.0412042597162
 21
-9.806252847374452
 31
0.0
  0
LINE
  5
438
330
1F
100
AcDbEntity
  8
0
  6
Continuous
 62
     7
370
    18
100
AcDbLine
 10
208.0412042597162
 20
77.89374715262537
 30
0.0
 11
-785.9587957402838
 21
77.89374715262537
 31
0.0
  0
LINE
  5
439
330
1F
100
AcDbEntity
  8
0
  6
Continuous
 62
     7
370
    18
100
AcDbLine
 10
208.0412042597162
 20
80.19374715262555
 30
0.0
 11
-785.9587957402838
 21
80.19374715262555
 31
0.0
  0
LINE
  5
43A
330
1F
100
AcDbEntity
  8
0
  6
Continuous
 62
     7
370
    18
100
AcDbLine
 10
208.0412042597162
 20
-7.50625284737427
 30
0.0
 11
-785.9587957402838
 21
-7.50625284737427
 31
0.0
  0
LINE
  5
43B
330
1F
100
AcDbEntity
  8
0
  6
Continuous
 62
     7
370
    18
100
AcDbLine
 10
-785.9587957402838
 20
80.19374715262555
 30
0.0
 11
-785.9587957402838
 21
-9.806252847374452
 31
0.0
  0
LINE
  5
43C
330
1F
100
AcDbEntity
  8
0
  6
Continuous
 62
     7
370
    18
100
AcDbLine
 10
208.0412042597162
 20
-9.806252847374452
 30
0.0
 11
-785.9587957402838
 21
-9.806252847374452
 31
0.0
  0
INSERT
  5
43D
330
1F
100
AcDbEntity
  8
2
  6
Continuous
100
AcDbBlockReference
  2
DC_GROUP_W_MR-5016_S_040_4
 10
0.0
 20
0.0
 30
0.0
  0
INSERT
  5
43E
330
1F
100
AcDbEntity
  8
2
  6
Continuous
100
AcDbBlockReference
  2
DC_GROUP_W_MR-5016_S_040_6
 10
0.0
 20
0.0
 30
0.0
  0
INSERT
  5
43F
330
1F
100
AcDbEntity
  8
2
  6
Continuous
100
AcDbBlockReference
  2
DC_GROUP_W_MR-5016_S_040_7
 10
0.0
 20
0.0
 30
0.0
  0
INSERT
  5
440
330
1F
100
AcDbEntity
  8
2
  6
Continuous
100
AcDbBlockReference
  2
DC_GROUP_W_MR-5016_S_040_8
 10
0.0
 20
0.0
 30
0.0
  0
INSERT
  5
441
330
1F
100
AcDbEntity
  8
2
  6
Continuous
100
AcDbBlockReference
  2
DC_GROUP_W_MR-5016_S_040_9
 10
0.0
 20
0.0
 30
0.0
  0
INSERT
  5
442
330
1F
100
AcDbEntity
  8
2
  6
Continuous
100
AcDbBlockReference
  2
DC_GROUP_W_MR-5016_S_040_10
 10
0.0
 20
0.0
 30
0.0
  0
INSERT
  5
443
330
1F
100
AcDbEntity
  8
2
  6
Continuous
100
AcDbBlockReference
  2
DC_GROUP_W_MR-5016_S_040_18
 10
0.0
 20
0.0
 30
0.0
  0
INSERT
  5
444
330
1F
100
AcDbEntity
  8
2
  6
Continuous
100
AcDbBlockReference
  2
DC_GROUP_W_MR-5016_S_040_19
 10
0.0
 20
0.0
 30
0.0
  0
INSERT
  5
445
330
1F
100
AcDbEntity
  8
2
  6
Continuous
100
AcDbBlockReference
  2
DC_GROUP_W_MR-5016_S_040_20
 10
0.0
 20
0.0
 30
0.0
  0
INSERT
  5
446
330
1F
100
AcDbEntity
  8
2
  6
Continuous
100
AcDbBlockReference
  2
DC_GROUP_W_MR-5016_S_040_21
 10
0.0
 20
0.0
 30
0.0
  0
INSERT
  5
447
330
1F
100
AcDbEntity
  8
2
  6
Continuous
100
AcDbBlockReference
  2
DC_GROUP_W_MR-5016_S_040_22
 10
0.0
 20
0.0
 30
0.0
  0
INSERT
  5
448
330
1F
100
AcDbEntity
  8
2
  6
Continuous
100
AcDbBlockReference
  2
DC_GROUP_W_MR-5016_S_040_23
 10
0.0
 20
0.0
 30
0.0
  0
INSERT
  5
449
330
1F
100
AcDbEntity
  8
2
  6
Continuous
100
AcDbBlockReference
  2
DC_GROUP_W_MR-5016_S_040_24
 10
0.0
 20
0.0
 30
0.0
  0
INSERT
  5
44A
330
1F
100
AcDbEntity
  8
2
  6
Continuous
100
AcDbBlockReference
  2
DC_GROUP_W_MR-5016_S_040_25
 10
0.0
 20
0.0
 30
0.0
  0
INSERT
  5
44B
330
1F
100
AcDbEntity
  8
2
  6
Continuous
100
AcDbBlockReference
  2
DC_GROUP_W_MR-5016_S_040_26
 10
0.0
 20
0.0
 30
0.0
  0
INSERT
  5
44C
330
1F
100
AcDbEntity
  8
2
  6
Continuous
100
AcDbBlockReference
  2
DC_GROUP_W_MR-5016_S_040_27
 10
0.0
 20
0.0
 30
0.0
  0
INSERT
  5
44D
330
1F
100
AcDbEntity
  8
2
  6
Continuous
100
AcDbBlockReference
  2
DC_GROUP_W_MR-5016_S_040_28
 10
0.0
 20
0.0
 30
0.0
  0
INSERT
  5
44E
330
1F
100
AcDbEntity
  8
2
  6
Continuous
100
AcDbBlockReference
  2
DC_GROUP_W_MR-5016_S_040_29
 10
0.0
 20
0.0
 30
0.0
  0
INSERT
  5
44F
330
1F
100
AcDbEntity
  8
2
  6
Continuous
100
AcDbBlockReference
  2
DC_GROUP_W_MR-5016_S_040_30
 10
0.0
 20
0.0
 30
0.0
  0
INSERT
  5
450
330
1F
100
AcDbEntity
  8
2
  6
Continuous
100
AcDbBlockReference
  2
DC_GROUP_W_MR-5016_S_040_31
 10
0.0
 20
0.0
 30
0.0
  0
INSERT
  5
451
330
1F
100
AcDbEntity
  8
2
  6
Continuous
100
AcDbBlockReference
  2
DC_GROUP_W_MR-5016_S_040_32
 10
0.0
 20
0.0
 30
0.0
  0
INSERT
  5
452
330
1F
100
AcDbEntity
  8
2
  6
Continuous
100
AcDbBlockReference
  2
DC_GROUP_W_MR-5016_S_040_33
 10
0.0
 20
0.0
 30
0.0
  0
INSERT
  5
453
330
1F
100
AcDbEntity
  8
2
  6
Continuous
100
AcDbBlockReference
  2
DC_GROUP_W_MR-5016_S_040_34
 10
0.0
 20
0.0
 30
0.0
  0
INSERT
  5
454
330
1F
100
AcDbEntity
  8
2
  6
Continuous
100
AcDbBlockReference
  2
DC_GROUP_W_MR-5016_S_040_35
 10
0.0
 20
0.0
 30
0.0
  0
INSERT
  5
455
330
1F
100
AcDbEntity
  8
2
  6
Continuous
100
AcDbBlockReference
  2
DC_GROUP_W_MR-5016_S_040_36
 10
0.0
 20
0.0
 30
0.0
  0
LINE
  5
456
330
1F
100
AcDbEntity
  8
0
  6
DASHED2
 62
     4
370
    13
100
AcDbLine
 10
-785.9587957402839
 20
464.3251688631321
 30
0.0
 11
208.0412042597161
 21
464.3251688631321
 31
0.0
  0
LINE
  5
457
330
1F
100
AcDbEntity
  8
0
  6
DASHED2
 62
     4
370
    13
100
AcDbLine
 10
-785.9587957402839
 20
344.7251688631321
 30
0.0
 11
208.0412042597161
 21
344.7251688631321
 31
0.0
  0
VIEWPORT
  5
AF
330
1B
100
AcDbEntity
 67
     1
  8
0
100
AcDbViewport
 10
0.0
 20
0.0
 30
0.0
 40
5910.0
 41
4053.842299814336
 68
     1
 69
     1
 12
0.0
 22
0.0
 13
0.0
 23
0.0
 14
0.5
 24
0.5
 15
0.0
 25
0.0
 16
0.0
 26
0.0
 36
1.0
 17
0.0
 27
0.0
 37
0.0
 42
50.0
 43
0.0
 44
0.0
 45
4053.842299814336
 50
0.0
 51
0.0
 72
   100
 90
   557152
  1

281
     0
 71
     1
 74
     0
110
0.0
120
0.0
130
0.0
111
1.0
121
0.0
131
0.0
112
0.0
122
1.0
132
0.0
 79
     0
146
0.0
170
     0
 61
     5
292
     1
282
     1
141
0.0
142
0.0
 63
   256
  0
ENDSEC
  0
SECTION
  2
OBJECTS
  0
DICTIONARY
  5
C
330
0
100
AcDbDictionary
281
     1
  3
ACAD_DETAILVIEWSTYLE
350
48C
  3
ACAD_GROUP
350
D
  3
ACAD_LAYOUT
350
1A
  3
ACAD_MATERIAL
350
43
  3
ACAD_MLEADERSTYLE
350
48B
  3
ACAD_MLINESTYLE
350
17
  3
ACAD_PLOTSETTINGS
350
19
  3
ACAD_PLOTSTYLENAME
350
E
  3
ACAD_SCALELIST
350
47
  3
ACAD_SECTIONVIEWSTYLE
350
48D
  3
ACAD_TABLESTYLE
350
48A
  3
ACAD_VISUALSTYLE
350
2A
  3
AcDbVariableDictionary
350
458
  0
SUN
  5
69
330
29
100
AcDbSun
 90
        1
290
     0
 63
     7
421
 16777215
 40
1.0
291
     1
 91
  2455826
 92
 54000000
292
     0
 70
     2
 71
   256
280
     1
  0
DICTIONARY
  5
48C
102
{ACAD_REACTORS
330
C
102
}
330
C
100
AcDbDictionary
281
     1
  0
DICTIONARY
  5
D
102
{ACAD_REACTORS
330
C
102
}
330
C
100
AcDbDictionary
281
     1
  0
DICTIONARY
  5
1A
102
{ACAD_REACTORS
330
C
102
}
330
C
100
AcDbDictionary
281
     1
  3
Layout1
350
1E
  3
Layout2
350
26
  3
Model
350
22
  0
DICTIONARY
  5
43
102
{ACAD_REACTORS
330
C
102
}
330
C
100
AcDbDictionary
281
     1
  3
ByBlock
350
45
  3
ByLayer
350
44
  3
Global
350
46
  0
DICTIONARY
  5
48B
102
{ACAD_REACTORS
330
C
102
}
330
C
100
AcDbDictionary
281
     1
  0
DICTIONARY
  5
17
102
{ACAD_REACTORS
330
C
102
}
330
C
100
AcDbDictionary
281
     1
  3
Standard
350
18
  0
DICTIONARY
  5
19
102
{ACAD_REACTORS
330
C
102
}
330
C
100
AcDbDictionary
281
     1
  0
ACDBDICTIONARYWDFLT
  5
E
102
{ACAD_REACTORS
330
C
102
}
330
C
100
AcDbDictionary
281
     1
  3
Normal
350
F
100
AcDbDictionaryWithDefault
340
F
  0
DICTIONARY
  5
47
102
{ACAD_REACTORS
330
C
102
}
330
C
100
AcDbDictionary
281
     1
  3
A0
350
48
  3
A1
350
49
  3
A2
350
4A
  3
A3
350
4B
  3
A4
350
4C
  3
A5
350
4D
  3
A6
350
4E
  3
A7
350
4F
  3
A8
350
50
  3
A9
350
51
  3
B0
350
52
  3
B1
350
53
  3
B2
350
54
  3
B3
350
55
  3
B4
350
56
  3
B5
350
57
  3
B6
350
58
  3
B7
350
59
  3
B8
350
5A
  3
B9
350
5B
  3
C0
350
5C
  3
C1
350
5D
  3
C2
350
5E
  3
C3
350
5F
  3
C4
350
60
  3
C5
350
61
  3
C6
350
62
  3
C7
350
63
  3
C8
350
64
  3
C9
350
65
  3
D0
350
66
  3
D1
350
67
  3
D2
350
68
  0
DICTIONARY
  5
48D
102
{ACAD_REACTORS
330
C
102
}
330
C
100
AcDbDictionary
281
     1
  0
DICTIONARY
  5
48A
102
{ACAD_REACTORS
330
C
102
}
330
C
100
AcDbDictionary
281
     1
  0
DICTIONARY
  5
2A
102
{ACAD_REACTORS
330
C
102
}
330
C
100
AcDbDictionary
281
     1
  3
2dWireframe
350
2F
  3
Basic
350
32
  3
Brighten
350
36
  3
ColorChange
350
3A
  3
Conceptual
350
34
  3
Dim
350
35
  3
EdgeColorOff
350
3D
  3
Facepattern
350
39
  3
Flat
350
2B
  3
FlatWithEdges
350
2C
  3
Gouraud
350
2D
  3
GouraudWithEdges
350
2E
  3
Hidden
350
31
  3
JitterOff
350
3B
  3
Linepattern
350
38
  3
OverhangOff
350
3C
  3
Realistic
350
33
  3
Shaded
350
42
  3
Shaded with edges
350
41
  3
Shades of Gray
350
3E
  3
Sketchy
350
3F
  3
Thicken
350
37
  3
Wireframe
350
30
  3
X-Ray
350
40
  0
DICTIONARY
  5
458
102
{ACAD_REACTORS
330
C
102
}
330
C
100
AcDbDictionary
281
     1
  3
CANNOSCALE
350
459
  0
LAYOUT
  5
1E
102
{ACAD_REACTORS
330
1A
102
}
330
1A
100
AcDbPlotSettings
  1

  2
none_device
  4

  6

 40
0.0
 41
0.0
 42
0.0
 43
0.0
 44
0.0
 45
0.0
 46
0.0
 47
0.0
 48
0.0
 49
0.0
140
0.0
141
0.0
142
1.0
143
1.0
 70
   688
 72
     0
 73
     0
 74
     5
  7

 75
    16
 76
     0
 77
     2
 78
   300
147
1.0
148
0.0
149
0.0
100
AcDbLayout
  1
Layout1
 70
     0
 71
     1
 10
0.0
 20
0.0
 11
12.0
 21
9.0
 12
0.0
 22
0.0
 32
0.0
 14
1.000000000000000E+20
 24
1.000000000000000E+20
 34
1.000000000000000E+20
 15
-1.000000000000000E+20
 25
-1.000000000000000E+20
 35
-1.000000000000000E+20
146
0.0
 13
0.0
 23
0.0
 33
0.0
 16
1.0
 26
0.0
 36
0.0
 17
0.0
 27
1.0
 37
0.0
 76
     0
330
1B
331
AF
  0
LAYOUT
  5
26
102
{ACAD_REACTORS
330
1A
102
}
330
1A
100
AcDbPlotSettings
  1

  2
none_device
  4

  6

 40
0.0
 41
0.0
 42
0.0
 43
0.0
 44
0.0
 45
0.0
 46
0.0
 47
0.0
 48
0.0
 49
0.0
140
0.0
141
0.0
142
1.0
143
1.0
 70
   688
 72
     0
 73
     0
 74
     5
  7

 75
    16
 76
     0
 77
     2
 78
   300
147
1.0
148
0.0
149
0.0
100
AcDbLayout
  1
Layout2
 70
     1
 71
     2
 10
0.0
 20
0.0
 11
0.0
 21
0.0
 12
0.0
 22
0.0
 32
0.0
 14
0.0
 24
0.0
 34
0.0
 15
0.0
 25
0.0
 35
0.0
146
0.0
 13
0.0
 23
0.0
 33
0.0
 16
1.0
 26
0.0
 36
0.0
 17
0.0
 27
1.0
 37
0.0
 76
     0
330
23
  0
LAYOUT
  5
22
102
{ACAD_REACTORS
330
1A
102
}
330
1A
100
AcDbPlotSettings
  1

  2
none_device
  4
Letter_(8.50_x_11.00_Inches)
  6

 40
6.35
 41
6.35
 42
6.35000508
 43
6.35000508
 44
215.9
 45
279.4
 46
0.0
 47
0.0
 48
0.0
 49
0.0
140
0.0
141
0.0
142
1.0
143
1.0
 70
  1712
 72
     0
 73
     0
 74
     0
  7

 75
     0
 76
     0
 77
     2
 78
   300
147
1.0
148
0.0
149
0.0
100
AcDbLayout
  1
Model
 70
     1
 71
     0
 10
-1050.0
 20
-742.5
 11
1050.0
 21
742.5
 12
0.0
 22
0.0
 32
0.0
 14
-2955.0
 24
-2026.921149907168
 34
0.0
 15
2955.0
 25
2026.921149907168
 35
0.0
146
0.0
 13
0.0
 23
0.0
 33
0.0
 16
1.0
 26
0.0
 36
0.0
 17
0.0
 27
1.0
 37
0.0
 76
     0
330
1F
331
29
  0
MATERIAL
  5
45
102
{ACAD_REACTORS
330
43
102
}
330
43
100
AcDbMaterial
  1
ByBlock
 72
     1
 94
      127
  0
MATERIAL
  5
44
102
{ACAD_REACTORS
330
43
102
}
330
43
100
AcDbMaterial
  1
ByLayer
 72
     1
 94
      127
  0
MATERIAL
  5
46
102
{ACAD_REACTORS
330
43
102
}
330
43
100
AcDbMaterial
  1
Global
 72
     1
 94
      127
  0
MLINESTYLE
  5
18
102
{ACAD_REACTORS
330
17
102
}
330
17
100
AcDbMlineStyle
  2
Standard
 70
     0
  3

 62
   256
 51
90.0
 52
90.0
 71
     2
 49
0.5
 62
   256
  6
BYLAYER
 49
-0.5
 62
   256
  6
BYLAYER
  0
ACDBPLACEHOLDER
  5
F
102
{ACAD_REACTORS
330
E
102
}
330
E
  0
SCALE
  5
48
102
{ACAD_REACTORS
330
47
102
}
330
47
100
AcDbScale
 70
     0
300
1:1
140
1.0
141
1.0
290
     1
  0
SCALE
  5
49
102
{ACAD_REACTORS
330
47
102
}
330
47
100
AcDbScale
 70
     0
300
1:2
140
1.0
141
2.0
290
     0
  0
SCALE
  5
4A
102
{ACAD_REACTORS
330
47
102
}
330
47
100
AcDbScale
 70
     0
300
1:4
140
1.0
141
4.0
290
     0
  0
SCALE
  5
4B
102
{ACAD_REACTORS
330
47
102
}
330
47
100
AcDbScale
 70
     0
300
1:5
140
1.0
141
5.0
290
     0
  0
SCALE
  5
4C
102
{ACAD_REACTORS
330
47
102
}
330
47
100
AcDbScale
 70
     0
300
1:8
140
1.0
141
8.0
290
     0
  0
SCALE
  5
4D
102
{ACAD_REACTORS
330
47
102
}
330
47
100
AcDbScale
 70
     0
300
1:10
140
1.0
141
10.0
290
     0
  0
SCALE
  5
4E
102
{ACAD_REACTORS
330
47
102
}
330
47
100
AcDbScale
 70
     0
300
1:16
140
1.0
141
16.0
290
     0
  0
SCALE
  5
4F
102
{ACAD_REACTORS
330
47
102
}
330
47
100
AcDbScale
 70
     0
300
1:20
140
1.0
141
20.0
290
     0
  0
SCALE
  5
50
102
{ACAD_REACTORS
330
47
102
}
330
47
100
AcDbScale
 70
     0
300
1:30
140
1.0
141
30.0
290
     0
  0
SCALE
  5
51
102
{ACAD_REACTORS
330
47
102
}
330
47
100
AcDbScale
 70
     0
300
1:40
140
1.0
141
40.0
290
     0
  0
SCALE
  5
52
102
{ACAD_REACTORS
330
47
102
}
330
47
100
AcDbScale
 70
     0
300
1:50
140
1.0
141
50.0
290
     0
  0
SCALE
  5
53
102
{ACAD_REACTORS
330
47
102
}
330
47
100
AcDbScale
 70
     0
300
1:100
140
1.0
141
100.0
290
     0
  0
SCALE
  5
54
102
{ACAD_REACTORS
330
47
102
}
330
47
100
AcDbScale
 70
     0
300
2:1
140
2.0
141
1.0
290
     0
  0
SCALE
  5
55
102
{ACAD_REACTORS
330
47
102
}
330
47
100
AcDbScale
 70
     0
300
4:1
140
4.0
141
1.0
290
     0
  0
SCALE
  5
56
102
{ACAD_REACTORS
330
47
102
}
330
47
100
AcDbScale
 70
     0
300
8:1
140
8.0
141
1.0
290
     0
  0
SCALE
  5
57
102
{ACAD_REACTORS
330
47
102
}
330
47
100
AcDbScale
 70
     0
300
10:1
140
10.0
141
1.0
290
     0
  0
SCALE
  5
58
102
{ACAD_REACTORS
330
47
102
}
330
47
100
AcDbScale
 70
     0
300
100:1
140
100.0
141
1.0
290
     0
  0
SCALE
  5
59
102
{ACAD_REACTORS
330
47
102
}
330
47
100
AcDbScale
 70
     0
300
1/128" = 1'-0"
140
0.0078125
141
12.0
290
     0
  0
SCALE
  5
5A
102
{ACAD_REACTORS
330
47
102
}
330
47
100
AcDbScale
 70
     0
300
1/64" = 1'-0"
140
0.015625
141
12.0
290
     0
  0
SCALE
  5
5B
102
{ACAD_REACTORS
330
47
102
}
330
47
100
AcDbScale
 70
     0
300
1/32" = 1'-0"
140
0.03125
141
12.0
290
     0
  0
SCALE
  5
5C
102
{ACAD_REACTORS
330
47
102
}
330
47
100
AcDbScale
 70
     0
300
1/16" = 1'-0"
140
0.0625
141
12.0
290
     0
  0
SCALE
  5
5D
102
{ACAD_REACTORS
330
47
102
}
330
47
100
AcDbScale
 70
     0
300
3/32" = 1'-0"
140
0.09375
141
12.0
290
     0
  0
SCALE
  5
5E
102
{ACAD_REACTORS
330
47
102
}
330
47
100
AcDbScale
 70
     0
300
1/8" = 1'-0"
140
0.125
141
12.0
290
     0
  0
SCALE
  5
5F
102
{ACAD_REACTORS
330
47
102
}
330
47
100
AcDbScale
 70
     0
300
3/16" = 1'-0"
140
0.1875
141
12.0
290
     0
  0
SCALE
  5
60
102
{ACAD_REACTORS
330
47
102
}
330
47
100
AcDbScale
 70
     0
300
1/4" = 1'-0"
140
0.25
141
12.0
290
     0
  0
SCALE
  5
61
102
{ACAD_REACTORS
330
47
102
}
330
47
100
AcDbScale
 70
     0
300
3/8" = 1'-0"
140
0.375
141
12.0
290
     0
  0
SCALE
  5
62
102
{ACAD_REACTORS
330
47
102
}
330
47
100
AcDbScale
 70
     0
300
1/2" = 1'-0"
140
0.5
141
12.0
290
     0
  0
SCALE
  5
63
102
{ACAD_REACTORS
330
47
102
}
330
47
100
AcDbScale
 70
     0
300
3/4" = 1'-0"
140
0.75
141
12.0
290
     0
  0
SCALE
  5
64
102
{ACAD_REACTORS
330
47
102
}
330
47
100
AcDbScale
 70
     0
300
1" = 1'-0"
140
1.0
141
12.0
290
     0
  0
SCALE
  5
65
102
{ACAD_REACTORS
330
47
102
}
330
47
100
AcDbScale
 70
     0
300
1-1/2" = 1'-0"
140
1.5
141
12.0
290
     0
  0
SCALE
  5
66
102
{ACAD_REACTORS
330
47
102
}
330
47
100
AcDbScale
 70
     0
300
3" = 1'-0"
140
3.0
141
12.0
290
     0
  0
SCALE
  5
67
102
{ACAD_REACTORS
330
47
102
}
330
47
100
AcDbScale
 70
     0
300
6" = 1'-0"
140
6.0
141
12.0
290
     0
  0
SCALE
  5
68
102
{ACAD_REACTORS
330
47
102
}
330
47
100
AcDbScale
 70
     0
300
1'-0" = 1'-0"
140
12.0
141
12.0
290
     0
  0
VISUALSTYLE
  5
2F
102
{ACAD_REACTORS
330
2A
102
}
102
{ACAD_XDICTIONARY
360
462
102
}
330
2A
100
AcDbVisualStyle
  2
2dWireframe
 70
     4
177
     2
291
     0
 71
     0
176
     1
 72
     2
176
     1
 73
     0
176
     1
 90
        0
176
     1
 40
0.6
176
     1
 41
30.0
176
     1
 62
     5
 63
     7
421
 16777215
176
     1
 74
     1
176
     1
 91
        4
176
     1
 64
     7
176
     1
 65
   257
176
     1
 75
     1
176
     1
175
     1
176
     1
 42
1.0
176
     1
 92
        0
176
     1
 66
   257
176
     1
 43
1.0
176
     1
 76
     1
176
     1
 77
     6
176
     1
 78
     2
176
     1
 67
     7
176
     1
 79
     5
176
     1
170
     0
176
     1
171
     0
176
     1
290
     0
176
     1
 93
        1
176
     1
 44
0.0
176
     1
173
     0
176
     1
  0
VISUALSTYLE
  5
32
102
{ACAD_REACTORS
330
2A
102
}
102
{ACAD_XDICTIONARY
360
468
102
}
330
2A
100
AcDbVisualStyle
  2
Basic
 70
     7
177
     2
291
     1
 71
     1
176
     1
 72
     0
176
     1
 73
     1
176
     1
 90
        0
176
     1
 40
0.6
176
     1
 41
30.0
176
     1
 62
     5
 63
     7
421
 16777215
176
     1
 74
     0
176
     1
 91
        4
176
     1
 64
     7
176
     1
 65
   257
176
     1
 75
     1
176
     1
175
     1
176
     1
 42
1.0
176
     1
 92
        8
176
     1
 66
     7
176
     1
 43
1.0
176
     1
 76
     1
176
     1
 77
     6
176
     1
 78
     2
176
     1
 67
     7
176
     1
 79
     5
176
     1
170
     0
176
     1
171
     0
176
     1
290
     0
176
     1
 93
        1
176
     1
 44
0.0
176
     1
173
     0
176
     1
  0
VISUALSTYLE
  5
36
102
{ACAD_REACTORS
330
2A
102
}
102
{ACAD_XDICTIONARY
360
470
102
}
330
2A
100
AcDbVisualStyle
  2
Brighten
 70
    12
177
     2
291
     1
 71
     2
176
     1
 72
     2
176
     1
 73
     0
176
     1
 90
        0
176
     1
 40
0.6
176
     1
 41
30.0
176
     1
 62
     5
 63
     7
421
 16777215
176
     1
 74
     1
176
     1
 91
        4
176
     1
 64
     7
176
     1
 65
   257
176
     1
 75
     1
176
     1
175
     1
176
     1
 42
1.0
176
     1
 92
        8
176
     1
 66
     7
176
     1
 43
1.0
176
     1
 76
     1
176
     1
 77
     6
176
     1
 78
     2
176
     1
 67
     7
176
     1
 79
     5
176
     1
170
     0
176
     1
171
     0
176
     1
290
     0
176
     1
 93
        1
176
     1
 44
50.0
176
     1
173
     0
176
     1
  0
VISUALSTYLE
  5
3A
102
{ACAD_REACTORS
330
2A
102
}
102
{ACAD_XDICTIONARY
360
478
102
}
330
2A
100
AcDbVisualStyle
  2
ColorChange
 70
    16
177
     2
291
     1
 71
     2
176
     1
 72
     2
176
     1
 73
     3
176
     1
 90
        0
176
     1
 40
0.6
176
     1
 41
30.0
176
     1
 62
     5
 63
     8
421
  8421504
176
     1
 74
     1
176
     1
 91
        4
176
     1
 64
     7
176
     1
 65
   257
176
     1
 75
     1
176
     1
175
     1
176
     1
 42
1.0
176
     1
 92
        8
176
     1
 66
     8
424
  8421504
176
     1
 43
1.0
176
     1
 76
     1
176
     1
 77
     6
176
     1
 78
     2
176
     1
 67
     7
176
     1
 79
     5
176
     1
170
     0
176
     1
171
     0
176
     1
290
     0
176
     1
 93
        1
176
     1
 44
0.0
176
     1
173
     0
176
     1
  0
VISUALSTYLE
  5
34
102
{ACAD_REACTORS
330
2A
102
}
102
{ACAD_XDICTIONARY
360
46C
102
}
330
2A
100
AcDbVisualStyle
  2
Conceptual
 70
     9
177
     2
291
     0
 71
     3
176
     1
 72
     2
176
     1
 73
     0
176
     1
 90
        0
176
     1
 40
0.6
176
     1
 41
30.0
176
     1
 62
     5
 63
     7
421
 16777215
176
     1
 74
     2
176
     1
 91
        2
176
     1
 64
     7
176
     1
 65
   257
176
     1
 75
     1
176
     1
175
     1
176
     1
 42
179.0
176
     1
 92
        8
176
     1
 66
     7
176
     1
 43
1.0
176
     1
 76
     1
176
     1
 77
     6
176
     1
 78
     2
176
     1
 67
     7
176
     1
 79
     3
176
     1
170
     0
176
     1
171
     0
176
     1
290
     0
176
     1
 93
        1
176
     1
 44
0.0
176
     1
173
     0
176
     1
  0
VISUALSTYLE
  5
35
102
{ACAD_REACTORS
330
2A
102
}
102
{ACAD_XDICTIONARY
360
46E
102
}
330
2A
100
AcDbVisualStyle
  2
Dim
 70
    11
177
     2
291
     1
 71
     2
176
     1
 72
     2
176
     1
 73
     0
176
     1
 90
        0
176
     1
 40
0.6
176
     1
 41
30.0
176
     1
 62
     5
 63
     7
421
 16777215
176
     1
 74
     1
176
     1
 91
        4
176
     1
 64
     7
176
     1
 65
   257
176
     1
 75
     1
176
     1
175
     1
176
     1
 42
1.0
176
     1
 92
        8
176
     1
 66
     7
176
     1
 43
1.0
176
     1
 76
     1
176
     1
 77
     6
176
     1
 78
     2
176
     1
 67
     7
176
     1
 79
     5
176
     1
170
     0
176
     1
171
     0
176
     1
290
     0
176
     1
 93
        1
176
     1
 44
-50.0
176
     1
173
     0
176
     1
  0
VISUALSTYLE
  5
3D
102
{ACAD_REACTORS
330
2A
102
}
102
{ACAD_XDICTIONARY
360
47E
102
}
330
2A
100
AcDbVisualStyle
  2
EdgeColorOff
 70
    22
177
     2
291
     1
 71
     2
176
     0
 72
     2
176
     0
 73
     0
176
     0
 90
        0
176
     0
 40
0.6
176
     0
 41
30.0
176
     0
 62
     5
 63
     7
421
 16777215
176
     0
 74
     1
176
     0
 91
        4
176
     0
 64
     7
176
     0
 65
   257
176
     0
 75
     1
176
     0
175
     1
176
     0
 42
1.0
176
     0
 92
        8
176
     2
 66
     7
176
     0
 43
1.0
176
     0
 76
     1
176
     0
 77
     6
176
     0
 78
     2
176
     0
 67
     7
176
     0
 79
     5
176
     0
170
     0
176
     0
171
     0
176
     0
290
     0
176
     0
 93
        1
176
     0
 44
0.0
176
     0
173
     0
176
     0
  0
VISUALSTYLE
  5
39
102
{ACAD_REACTORS
330
2A
102
}
102
{ACAD_XDICTIONARY
360
476
102
}
330
2A
100
AcDbVisualStyle
  2
Facepattern
 70
    15
177
     2
291
     1
 71
     2
176
     1
 72
     2
176
     1
 73
     0
176
     1
 90
        0
176
     1
 40
0.6
176
     1
 41
30.0
176
     1
 62
     5
 63
     7
421
 16777215
176
     1
 74
     1
176
     1
 91
        4
176
     1
 64
     7
176
     1
 65
   257
176
     1
 75
     1
176
     1
175
     1
176
     1
 42
1.0
176
     1
 92
        8
176
     1
 66
     7
176
     1
 43
1.0
176
     1
 76
     1
176
     1
 77
     6
176
     1
 78
     2
176
     1
 67
     7
176
     1
 79
     5
176
     1
170
     0
176
     1
171
     0
176
     1
290
     0
176
     1
 93
        1
176
     1
 44
0.0
176
     1
173
     0
176
     1
  0
VISUALSTYLE
  5
2B
102
{ACAD_REACTORS
330
2A
102
}
102
{ACAD_XDICTIONARY
360
45A
102
}
330
2A
100
AcDbVisualStyle
  2
Flat
 70
     0
177
     2
291
     1
 71
     2
176
     1
 72
     1
176
     1
 73
     1
176
     1
 90
        2
176
     1
 40
0.6
176
     1
 41
30.0
176
     1
 62
     5
 63
     7
421
 16777215
176
     1
 74
     0
176
     1
 91
        0
176
     1
 64
     7
176
     1
 65
   257
176
     1
 75
     1
176
     1
175
     1
176
     1
 42
1.0
176
     1
 92
        8
176
     1
 66
     7
176
     1
 43
1.0
176
     1
 76
     1
176
     1
 77
     6
176
     1
 78
     2
176
     1
 67
     7
176
     1
 79
     5
176
     1
170
     0
176
     1
171
     0
176
     1
290
     0
176
     1
 93
       13
176
     1
 44
0.0
176
     1
173
     0
176
     1
  0
VISUALSTYLE
  5
2C
102
{ACAD_REACTORS
330
2A
102
}
102
{ACAD_XDICTIONARY
360
45C
102
}
330
2A
100
AcDbVisualStyle
  2
FlatWithEdges
 70
     1
177
     2
291
     1
 71
     2
176
     1
 72
     1
176
     1
 73
     1
176
     1
 90
        2
176
     1
 40
0.6
176
     1
 41
30.0
176
     1
 62
     5
 63
     7
421
 16777215
176
     1
 74
     1
176
     1
 91
        0
176
     1
 64
     7
176
     1
 65
   257
176
     1
 75
     1
176
     1
175
     1
176
     1
 42
1.0
176
     1
 92
        0
176
     1
 66
   257
176
     1
 43
1.0
176
     1
 76
     1
176
     1
 77
     6
176
     1
 78
     2
176
     1
 67
     7
176
     1
 79
     5
176
     1
170
     0
176
     1
171
     0
176
     1
290
     0
176
     1
 93
       13
176
     1
 44
0.0
176
     1
173
     0
176
     1
  0
VISUALSTYLE
  5
2D
102
{ACAD_REACTORS
330
2A
102
}
102
{ACAD_XDICTIONARY
360
45E
102
}
330
2A
100
AcDbVisualStyle
  2
Gouraud
 70
     2
177
     2
291
     1
 71
     2
176
     1
 72
     2
176
     1
 73
     1
176
     1
 90
        2
176
     1
 40
0.6
176
     1
 41
30.0
176
     1
 62
     5
 63
     7
421
 16777215
176
     1
 74
     0
176
     1
 91
        0
176
     1
 64
     7
176
     1
 65
   257
176
     1
 75
     1
176
     1
175
     1
176
     1
 42
1.0
176
     1
 92
        0
176
     1
 66
     7
176
     1
 43
1.0
176
     1
 76
     1
176
     1
 77
     6
176
     1
 78
     2
176
     1
 67
     7
176
     1
 79
     5
176
     1
170
     0
176
     1
171
     0
176
     1
290
     0
176
     1
 93
       13
176
     1
 44
0.0
176
     1
173
     0
176
     1
  0
VISUALSTYLE
  5
2E
102
{ACAD_REACTORS
330
2A
102
}
102
{ACAD_XDICTIONARY
360
460
102
}
330
2A
100
AcDbVisualStyle
  2
GouraudWithEdges
 70
     3
177
     2
291
     1
 71
     2
176
     1
 72
     2
176
     1
 73
     1
176
     1
 90
        2
176
     1
 40
0.6
176
     1
 41
30.0
176
     1
 62
     5
 63
     7
421
 16777215
176
     1
 74
     1
176
     1
 91
        0
176
     1
 64
     7
176
     1
 65
   257
176
     1
 75
     1
176
     1
175
     1
176
     1
 42
1.0
176
     1
 92
        0
176
     1
 66
   257
176
     1
 43
1.0
176
     1
 76
     1
176
     1
 77
     6
176
     1
 78
     2
176
     1
 67
     7
176
     1
 79
     5
176
     1
170
     0
176
     1
171
     0
176
     1
290
     0
176
     1
 93
       13
176
     1
 44
0.0
176
     1
173
     0
176
     1
  0
VISUALSTYLE
  5
31
102
{ACAD_REACTORS
330
2A
102
}
102
{ACAD_XDICTIONARY
360
466
102
}
330
2A
100
AcDbVisualStyle
  2
Hidden
 70
     6
177
     2
291
     0
 71
     1
176
     1
 72
     2
176
     1
 73
     2
176
     1
 90
        0
176
     1
 40
0.6
176
     1
 41
30.0
176
     1
 62
     5
 63
     7
421
 16777215
176
     1
 74
     2
176
     1
 91
        2
176
     1
 64
     7
176
     1
 65
   257
176
     1
 75
     2
176
     1
175
     1
176
     1
 42
40.0
176
     1
 92
        0
176
     1
 66
   257
176
     1
 43
1.0
176
     1
 76
     1
176
     1
 77
     6
176
     1
 78
     2
176
     1
 67
     7
176
     1
 79
     3
176
     1
170
     0
176
     1
171
     0
176
     1
290
     0
176
     1
 93
        1
176
     1
 44
0.0
176
     1
173
     0
176
     1
  0
VISUALSTYLE
  5
3B
102
{ACAD_REACTORS
330
2A
102
}
102
{ACAD_XDICTIONARY
360
47A
102
}
330
2A
100
AcDbVisualStyle
  2
JitterOff
 70
    20
177
     2
291
     1
 71
     2
176
     0
 72
     2
176
     0
 73
     0
176
     0
 90
        0
176
     0
 40
0.6
176
     0
 41
30.0
176
     0
 62
     5
 63
     7
421
 16777215
176
     0
 74
     1
176
     0
 91
        4
176
     0
 64
     7
176
     0
 65
   257
176
     0
 75
     1
176
     0
175
     1
176
     0
 42
1.0
176
     0
 92
       10
176
     2
 66
     7
176
     0
 43
1.0
176
     0
 76
     1
176
     0
 77
     6
176
     0
 78
     2
176
     0
 67
     7
176
     0
 79
     5
176
     0
170
     0
176
     0
171
     0
176
     0
290
     0
176
     0
 93
        1
176
     0
 44
0.0
176
     0
173
     0
176
     0
  0
VISUALSTYLE
  5
38
102
{ACAD_REACTORS
330
2A
102
}
102
{ACAD_XDICTIONARY
360
474
102
}
330
2A
100
AcDbVisualStyle
  2
Linepattern
 70
    14
177
     2
291
     1
 71
     2
176
     1
 72
     2
176
     1
 73
     0
176
     1
 90
        0
176
     1
 40
0.6
176
     1
 41
30.0
176
     1
 62
     5
 63
     7
421
 16777215
176
     1
 74
     1
176
     1
 91
        4
176
     1
 64
     7
176
     1
 65
   257
176
     1
 75
     7
176
     1
175
     7
176
     1
 42
1.0
176
     1
 92
        8
176
     1
 66
     7
176
     1
 43
1.0
176
     1
 76
     1
176
     1
 77
     6
176
     1
 78
     2
176
     1
 67
     7
176
     1
 79
     5
176
     1
170
     0
176
     1
171
     0
176
     1
290
     0
176
     1
 93
        1
176
     1
 44
0.0
176
     1
173
     0
176
     1
  0
VISUALSTYLE
  5
3C
102
{ACAD_REACTORS
330
2A
102
}
102
{ACAD_XDICTIONARY
360
47C
102
}
330
2A
100
AcDbVisualStyle
  2
OverhangOff
 70
    21
177
     2
291
     1
 71
     2
176
     0
 72
     2
176
     0
 73
     0
176
     0
 90
        0
176
     0
 40
0.6
176
     0
 41
30.0
176
     0
 62
     5
 63
     7
421
 16777215
176
     0
 74
     1
176
     0
 91
        4
176
     0
 64
     7
176
     0
 65
   257
176
     0
 75
     1
176
     0
175
     1
176
     0
 42
1.0
176
     0
 92
        9
176
     2
 66
     7
176
     0
 43
1.0
176
     0
 76
     1
176
     0
 77
     6
176
     0
 78
     2
176
     0
 67
     7
176
     0
 79
     5
176
     0
170
     0
176
     0
171
     0
176
     0
290
     0
176
     0
 93
        1
176
     0
 44
0.0
176
     0
173
     0
176
     0
  0
VISUALSTYLE
  5
33
102
{ACAD_REACTORS
330
2A
102
}
102
{ACAD_XDICTIONARY
360
46A
102
}
330
2A
100
AcDbVisualStyle
  2
Realistic
 70
     8
177
     2
291
     0
 71
     2
176
     1
 72
     3
176
     1
 73
     0
176
     1
 90
        2
176
     1
 40
0.6
176
     1
 41
30.0
176
     1
 62
     5
 63
     7
421
 16777215
176
     1
 74
     0
176
     1
 91
        0
176
     1
 64
     7
176
     1
 65
   257
176
     1
 75
     1
176
     1
175
     1
176
     1
 42
1.0
176
     1
 92
        8
176
     1
 66
   257
176
     1
 43
1.0
176
     1
 76
     1
176
     1
 77
     6
176
     1
 78
     2
176
     1
 67
     7
176
     1
 79
     3
176
     1
170
     0
176
     1
171
     0
176
     1
290
     0
176
     1
 93
       13
176
     1
 44
0.0
176
     1
173
     0
176
     1
  0
VISUALSTYLE
  5
42
102
{ACAD_REACTORS
330
2A
102
}
102
{ACAD_XDICTIONARY
360
488
102
}
330
2A
100
AcDbVisualStyle
  2
Shaded
 70
    27
177
     2
291
     0
 71
     2
176
     1
 72
     2
176
     1
 73
     1
176
     1
 90
        2
176
     1
 40
0.6
176
     1
 41
30.0
176
     1
 62
     5
 63
     7
421
 16777215
176
     1
 74
     0
176
     1
 91
        4
176
     1
 64
     7
176
     1
 65
   257
176
     1
 75
     1
176
     1
175
     1
176
     1
 42
1.0
176
     1
 92
        8
176
     1
 66
   257
176
     1
 43
1.0
176
     1
 76
     1
176
     1
 77
     6
176
     1
 78
     2
176
     1
 67
     8
425
  7895160
176
     1
 79
     3
176
     1
170
     0
176
     1
171
     0
176
     1
290
     0
176
     1
 93
        5
176
     1
 44
0.0
176
     1
173
     0
176
     1
  0
VISUALSTYLE
  5
41
102
{ACAD_REACTORS
330
2A
102
}
102
{ACAD_XDICTIONARY
360
486
102
}
330
2A
100
AcDbVisualStyle
  2
Shaded with edges
 70
    26
177
     2
291
     0
 71
     2
176
     1
 72
     2
176
     1
 73
     1
176
     1
 90
        2
176
     1
 40
0.6
176
     1
 41
30.0
176
     1
 62
     5
 63
     7
421
 16777215
176
     1
 74
     1
176
     1
 91
       10
176
     1
 64
     7
176
     1
 65
   257
176
     1
 75
     2
176
     1
175
     1
176
     1
 42
1.0
176
     1
 92
        8
176
     1
 66
   257
176
     1
 43
1.0
176
     1
 76
     1
176
     1
 77
     6
176
     1
 78
     2
176
     1
 67
     7
176
     1
 79
     3
176
     1
170
     0
176
     1
171
     0
176
     1
290
     0
176
     1
 93
        5
176
     1
 44
0.0
176
     1
173
     0
176
     1
  0
VISUALSTYLE
  5
3E
102
{ACAD_REACTORS
330
2A
102
}
102
{ACAD_XDICTIONARY
360
480
102
}
330
2A
100
AcDbVisualStyle
  2
Shades of Gray
 70
    23
177
     2
291
     0
 71
     2
176
     1
 72
     2
176
     1
 73
     3
176
     1
 90
        0
176
     1
 40
0.6
176
     1
 41
30.0
176
     1
 62
     5
 63
     7
421
 16777215
176
     1
 74
     2
176
     1
 91
        2
176
     1
 64
     7
176
     1
 65
     7
176
     1
 75
     1
176
     1
175
     1
176
     1
 42
40.0
176
     1
 92
        8
176
     1
 66
     7
176
     1
 43
1.0
176
     1
 76
     1
176
     1
 77
     6
176
     1
 78
     2
176
     1
 67
     7
176
     1
 79
     3
176
     1
170
     0
176
     1
171
     0
176
     1
290
     0
176
     1
 93
        1
176
     1
 44
0.0
176
     1
173
     0
176
     1
  0
VISUALSTYLE
  5
3F
102
{ACAD_REACTORS
330
2A
102
}
102
{ACAD_XDICTIONARY
360
482
102
}
330
2A
100
AcDbVisualStyle
  2
Sketchy
 70
    24
177
     2
291
     0
 71
     1
176
     1
 72
     2
176
     1
 73
     2
176
     1
 90
        0
176
     1
 40
0.6
176
     1
 41
30.0
176
     1
 62
     5
 63
     7
421
 16777215
176
     1
 74
     2
176
     1
 91
        2
176
     1
 64
     7
176
     1
 65
     7
176
     1
 75
     1
176
     1
175
     1
176
     1
 42
40.0
176
     1
 92
       11
176
     1
 66
     7
176
     1
 43
1.0
176
     1
 76
     1
176
     1
 77
     6
176
     1
 78
     2
176
     1
 67
     7
176
     1
 79
     6
176
     1
170
     0
176
     1
171
     0
176
     1
290
     0
176
     1
 93
        1
176
     1
 44
0.0
176
     1
173
     0
176
     1
  0
VISUALSTYLE
  5
37
102
{ACAD_REACTORS
330
2A
102
}
102
{ACAD_XDICTIONARY
360
472
102
}
330
2A
100
AcDbVisualStyle
  2
Thicken
 70
    13
177
     2
291
     1
 71
     2
176
     1
 72
     2
176
     1
 73
     0
176
     1
 90
        0
176
     1
 40
0.6
176
     1
 41
30.0
176
     1
 62
     5
 63
     7
421
 16777215
176
     1
 74
     1
176
     1
 91
        4
176
     1
 64
     7
176
     1
 65
   257
176
     1
 75
     1
176
     1
175
     1
176
     1
 42
1.0
176
     1
 92
       12
176
     1
 66
     7
176
     1
 43
1.0
176
     1
 76
     1
176
     1
 77
     6
176
     1
 78
     2
176
     1
 67
     7
176
     1
 79
     5
176
     1
170
     0
176
     1
171
     0
176
     1
290
     0
176
     1
 93
        1
176
     1
 44
0.0
176
     1
173
     0
176
     1
  0
VISUALSTYLE
  5
30
102
{ACAD_REACTORS
330
2A
102
}
102
{ACAD_XDICTIONARY
360
464
102
}
330
2A
100
AcDbVisualStyle
  2
Wireframe
 70
     5
177
     2
291
     0
 71
     0
176
     1
 72
     2
176
     1
 73
     0
176
     1
 90
        0
176
     1
 40
0.6
176
     1
 41
30.0
176
     1
 62
     5
 63
     7
421
 16777215
176
     1
 74
     1
176
     1
 91
        4
176
     1
 64
     7
176
     1
 65
   257
176
     1
 75
     1
176
     1
175
     1
176
     1
 42
1.0
176
     1
 92
        0
176
     1
 66
   257
176
     1
 43
1.0
176
     1
 76
     1
176
     1
 77
     6
176
     1
 78
     2
176
     1
 67
     7
176
     1
 79
     3
176
     1
170
     0
176
     1
171
     0
176
     1
290
     0
176
     1
 93
        1
176
     1
 44
0.0
176
     1
173
     0
176
     1
  0
VISUALSTYLE
  5
40
102
{ACAD_REACTORS
330
2A
102
}
102
{ACAD_XDICTIONARY
360
484
102
}
330
2A
100
AcDbVisualStyle
  2
X-Ray
 70
    25
177
     2
291
     0
 71
     2
176
     1
 72
     2
176
     1
 73
     1
176
     1
 90
        1
176
     1
 40
0.5
176
     1
 41
30.0
176
     1
 62
     5
 63
     7
421
 16777215
176
     1
 74
     1
176
     1
 91
        0
176
     1
 64
     7
176
     1
 65
   257
176
     1
 75
     1
176
     1
175
     1
176
     1
 42
1.0
176
     1
 92
        8
176
     1
 66
     7
176
     1
 43
1.0
176
     1
 76
     1
176
     1
 77
     6
176
     1
 78
     2
176
     1
 67
     7
176
     1
 79
     3
176
     1
170
     0
176
     1
171
     0
176
     1
290
     0
176
     1
 93
       13
176
     1
 44
0.0
176
     1
173
     0
176
     1
  0
DICTIONARYVAR
  5
459
102
{ACAD_REACTORS
330
458
102
}
330
458
100
DictionaryVariables
280
     0
  1
1:1
  0
DICTIONARY
  5
462
330
2F
100
AcDbDictionary
280
     1
281
     1
  3
ACAD_XREC_ROUNDTRIP
360
463
  0
DICTIONARY
  5
468
330
32
100
AcDbDictionary
280
     1
281
     1
  3
ACAD_XREC_ROUNDTRIP
360
469
  0
DICTIONARY
  5
470
330
36
100
AcDbDictionary
280
     1
281
     1
  3
ACAD_XREC_ROUNDTRIP
360
471
  0
DICTIONARY
  5
478
330
3A
100
AcDbDictionary
280
     1
281
     1
  3
ACAD_XREC_ROUNDTRIP
360
479
  0
DICTIONARY
  5
46C
330
34
100
AcDbDictionary
280
     1
281
     1
  3
ACAD_XREC_ROUNDTRIP
360
46D
  0
DICTIONARY
  5
46E
330
35
100
AcDbDictionary
280
     1
281
     1
  3
ACAD_XREC_ROUNDTRIP
360
46F
  0
DICTIONARY
  5
47E
330
3D
100
AcDbDictionary
280
     1
281
     1
  3
ACAD_XREC_ROUNDTRIP
360
47F
  0
DICTIONARY
  5
476
330
39
100
AcDbDictionary
280
     1
281
     1
  3
ACAD_XREC_ROUNDTRIP
360
477
  0
DICTIONARY
  5
45A
330
2B
100
AcDbDictionary
280
     1
281
     1
  3
ACAD_XREC_ROUNDTRIP
360
45B
  0
DICTIONARY
  5
45C
330
2C
100
AcDbDictionary
280
     1
281
     1
  3
ACAD_XREC_ROUNDTRIP
360
45D
  0
DICTIONARY
  5
45E
330
2D
100
AcDbDictionary
280
     1
281
     1
  3
ACAD_XREC_ROUNDTRIP
360
45F
  0
DICTIONARY
  5
460
330
2E
100
AcDbDictionary
280
     1
281
     1
  3
ACAD_XREC_ROUNDTRIP
360
461
  0
DICTIONARY
  5
466
330
31
100
AcDbDictionary
280
     1
281
     1
  3
ACAD_XREC_ROUNDTRIP
360
467
  0
DICTIONARY
  5
47A
330
3B
100
AcDbDictionary
280
     1
281
     1
  3
ACAD_XREC_ROUNDTRIP
360
47B
  0
DICTIONARY
  5
474
330
38
100
AcDbDictionary
280
     1
281
     1
  3
ACAD_XREC_ROUNDTRIP
360
475
  0
DICTIONARY
  5
47C
330
3C
100
AcDbDictionary
280
     1
281
     1
  3
ACAD_XREC_ROUNDTRIP
360
47D
  0
DICTIONARY
  5
46A
330
33
100
AcDbDictionary
280
     1
281
     1
  3
ACAD_XREC_ROUNDTRIP
360
46B
  0
DICTIONARY
  5
488
330
42
100
AcDbDictionary
280
     1
281
     1
  3
ACAD_XREC_ROUNDTRIP
360
489
  0
DICTIONARY
  5
486
330
41
100
AcDbDictionary
280
     1
281
     1
  3
ACAD_XREC_ROUNDTRIP
360
487
  0
DICTIONARY
  5
480
330
3E
100
AcDbDictionary
280
     1
281
     1
  3
ACAD_XREC_ROUNDTRIP
360
481
  0
DICTIONARY
  5
482
330
3F
100
AcDbDictionary
280
     1
281
     1
  3
ACAD_XREC_ROUNDTRIP
360
483
  0
DICTIONARY
  5
472
330
37
100
AcDbDictionary
280
     1
281
     1
  3
ACAD_XREC_ROUNDTRIP
360
473
  0
DICTIONARY
  5
464
330
30
100
AcDbDictionary
280
     1
281
     1
  3
ACAD_XREC_ROUNDTRIP
360
465
  0
DICTIONARY
  5
484
330
40
100
AcDbDictionary
280
     1
281
     1
  3
ACAD_XREC_ROUNDTRIP
360
485
  0
XRECORD
  5
463
102
{ACAD_REACTORS
330
462
102
}
330
462
100
AcDbXrecord
280
     1
102
RTVSPost2010Prop28
280
     1
102
RTVSPost2010PropOp28
 70
     1
102
RTVSPost2010Prop29
280
     1
102
RTVSPost2010PropOp29
 70
     1
102
RTVSPost2010Prop30
280
     0
102
RTVSPost2010PropOp30
 70
     1
102
RTVSPost2010Prop31
280
     0
102
RTVSPost2010PropOp31
 70
     1
102
RTVSPost2010Prop32
280
     0
102
RTVSPost2010PropOp32
 70
     1
102
RTVSPost2010Prop33
280
     0
102
RTVSPost2010PropOp33
 70
     1
102
RTVSPost2010Prop34
280
     0
102
RTVSPost2010PropOp34
 70
     1
102
RTVSPost2010Prop35
280
     0
102
RTVSPost2010PropOp35
 70
     1
102
RTVSPost2010Prop36
280
     0
102
RTVSPost2010PropOp36
 70
     1
102
RTVSPost2010Prop37
 90
       50
102
RTVSPost2010PropOp37
 70
     1
102
RTVSPost2010Prop38
140
0.0
102
RTVSPost2010PropOp38
 70
     1
102
RTVSPost2010Prop39
140
1.0
102
RTVSPost2010PropOp39
 70
     1
102
RTVSPost2010Prop40
 90
        0
102
RTVSPost2010PropOp40
 70
     1
102
RTVSPost2010Prop41ColorIndex
 90
       18
102
RTVSPost2010Prop41ColorRGB
 90
        0
102
RTVSPost2010PropOp41
 70
     1
102
RTVSPost2010Prop42
 90
       50
102
RTVSPost2010PropOp42
 70
     1
102
RTVSPost2010Prop43
 90
        3
102
RTVSPost2010PropOp43
 70
     1
102
RTVSPost2010Prop44ColorIndex
 90
        5
102
RTVSPost2010Prop44ColorRGB
 90
      255
102
RTVSPost2010PropOp44
 70
     1
102
RTVSPost2010Prop45
280
     0
102
RTVSPost2010PropOp45
 70
     1
102
RTVSPost2010Prop46
 90
       50
102
RTVSPost2010PropOp46
 70
     1
102
RTVSPost2010Prop47
 90
       50
102
RTVSPost2010PropOp47
 70
     1
102
RTVSPost2010Prop48
 90
       50
102
RTVSPost2010PropOp48
 70
     1
102
RTVSPost2010Prop49
280
     0
102
RTVSPost2010PropOp49
 70
     1
102
RTVSPost2010Prop50
 90
       50
102
RTVSPost2010PropOp50
 70
     1
102
RTVSPost2010Prop51ColorIndex
 90
      256
102
RTVSPost2010Prop51ColorRGB
 90
-16777216
102
RTVSPost2010PropOp51
 70
     0
102
RTVSPost2010Prop52
140
1.0
102
RTVSPost2010PropOp52
 70
     0
102
RTVSPost2010Prop53
 90
        2
102
RTVSPost2010PropOp53
 70
     1
102
RTVSPost2010Prop54
  1
strokes_ogs.tif
102
RTVSPost2010PropOp54
 70
     1
102
RTVSPost2010Prop55
280
     0
102
RTVSPost2010PropOp55
 70
     1
102
RTVSPost2010Prop56
140
1.0
102
RTVSPost2010PropOp56
 70
     1
102
RTVSPost2010Prop57
140
1.0
102
RTVSPost2010PropOp57
 70
     1
  0
XRECORD
  5
469
102
{ACAD_REACTORS
330
468
102
}
330
468
100
AcDbXrecord
280
     1
102
RTVSPost2010Prop28
280
     0
102
RTVSPost2010PropOp28
 70
     1
102
RTVSPost2010Prop29
280
     1
102
RTVSPost2010PropOp29
 70
     1
102
RTVSPost2010Prop30
280
     1
102
RTVSPost2010PropOp30
 70
     1
102
RTVSPost2010Prop31
280
     0
102
RTVSPost2010PropOp31
 70
     1
102
RTVSPost2010Prop32
280
     0
102
RTVSPost2010PropOp32
 70
     1
102
RTVSPost2010Prop33
280
     0
102
RTVSPost2010PropOp33
 70
     1
102
RTVSPost2010Prop34
280
     0
102
RTVSPost2010PropOp34
 70
     1
102
RTVSPost2010Prop35
280
     0
102
RTVSPost2010PropOp35
 70
     1
102
RTVSPost2010Prop36
280
     0
102
RTVSPost2010PropOp36
 70
     1
102
RTVSPost2010Prop37
 90
       50
102
RTVSPost2010PropOp37
 70
     1
102
RTVSPost2010Prop38
140
0.0
102
RTVSPost2010PropOp38
 70
     1
102
RTVSPost2010Prop39
140
1.0
102
RTVSPost2010PropOp39
 70
     1
102
RTVSPost2010Prop40
 90
        0
102
RTVSPost2010PropOp40
 70
     1
102
RTVSPost2010Prop41ColorIndex
 90
       18
102
RTVSPost2010Prop41ColorRGB
 90
        0
102
RTVSPost2010PropOp41
 70
     1
102
RTVSPost2010Prop42
 90
       50
102
RTVSPost2010PropOp42
 70
     1
102
RTVSPost2010Prop43
 90
        3
102
RTVSPost2010PropOp43
 70
     1
102
RTVSPost2010Prop44ColorIndex
 90
        5
102
RTVSPost2010Prop44ColorRGB
 90
      255
102
RTVSPost2010PropOp44
 70
     1
102
RTVSPost2010Prop45
280
     0
102
RTVSPost2010PropOp45
 70
     1
102
RTVSPost2010Prop46
 90
       50
102
RTVSPost2010PropOp46
 70
     1
102
RTVSPost2010Prop47
 90
       50
102
RTVSPost2010PropOp47
 70
     1
102
RTVSPost2010Prop48
 90
       50
102
RTVSPost2010PropOp48
 70
     1
102
RTVSPost2010Prop49
280
     0
102
RTVSPost2010PropOp49
 70
     1
102
RTVSPost2010Prop50
 90
       50
102
RTVSPost2010PropOp50
 70
     1
102
RTVSPost2010Prop51ColorIndex
 90
      256
102
RTVSPost2010Prop51ColorRGB
 90
-16777216
102
RTVSPost2010PropOp51
 70
     0
102
RTVSPost2010Prop52
140
1.0
102
RTVSPost2010PropOp52
 70
     0
102
RTVSPost2010Prop53
 90
        2
102
RTVSPost2010PropOp53
 70
     1
102
RTVSPost2010Prop54
  1
strokes_ogs.tif
102
RTVSPost2010PropOp54
 70
     1
102
RTVSPost2010Prop55
280
     0
102
RTVSPost2010PropOp55
 70
     1
102
RTVSPost2010Prop56
140
1.0
102
RTVSPost2010PropOp56
 70
     1
102
RTVSPost2010Prop57
140
1.0
102
RTVSPost2010PropOp57
 70
     1
  0
XRECORD
  5
471
102
{ACAD_REACTORS
330
470
102
}
330
470
100
AcDbXrecord
280
     1
102
RTVSPost2010Prop28
280
     0
102
RTVSPost2010PropOp28
 70
     1
102
RTVSPost2010Prop29
280
     1
102
RTVSPost2010PropOp29
 70
     1
102
RTVSPost2010Prop30
280
     1
102
RTVSPost2010PropOp30
 70
     1
102
RTVSPost2010Prop31
280
     0
102
RTVSPost2010PropOp31
 70
     1
102
RTVSPost2010Prop32
280
     0
102
RTVSPost2010PropOp32
 70
     1
102
RTVSPost2010Prop33
280
     0
102
RTVSPost2010PropOp33
 70
     1
102
RTVSPost2010Prop34
280
     0
102
RTVSPost2010PropOp34
 70
     1
102
RTVSPost2010Prop35
280
     0
102
RTVSPost2010PropOp35
 70
     1
102
RTVSPost2010Prop36
280
     0
102
RTVSPost2010PropOp36
 70
     1
102
RTVSPost2010Prop37
 90
       50
102
RTVSPost2010PropOp37
 70
     1
102
RTVSPost2010Prop38
140
0.0
102
RTVSPost2010PropOp38
 70
     1
102
RTVSPost2010Prop39
140
1.0
102
RTVSPost2010PropOp39
 70
     1
102
RTVSPost2010Prop40
 90
        0
102
RTVSPost2010PropOp40
 70
     1
102
RTVSPost2010Prop41ColorIndex
 90
       18
102
RTVSPost2010Prop41ColorRGB
 90
        0
102
RTVSPost2010PropOp41
 70
     1
102
RTVSPost2010Prop42
 90
       50
102
RTVSPost2010PropOp42
 70
     1
102
RTVSPost2010Prop43
 90
        3
102
RTVSPost2010PropOp43
 70
     1
102
RTVSPost2010Prop44ColorIndex
 90
        5
102
RTVSPost2010Prop44ColorRGB
 90
      255
102
RTVSPost2010PropOp44
 70
     1
102
RTVSPost2010Prop45
280
     0
102
RTVSPost2010PropOp45
 70
     1
102
RTVSPost2010Prop46
 90
       50
102
RTVSPost2010PropOp46
 70
     1
102
RTVSPost2010Prop47
 90
       50
102
RTVSPost2010PropOp47
 70
     1
102
RTVSPost2010Prop48
 90
       50
102
RTVSPost2010PropOp48
 70
     1
102
RTVSPost2010Prop49
280
     0
102
RTVSPost2010PropOp49
 70
     1
102
RTVSPost2010Prop50
 90
       50
102
RTVSPost2010PropOp50
 70
     1
102
RTVSPost2010Prop51ColorIndex
 90
      256
102
RTVSPost2010Prop51ColorRGB
 90
-16777216
102
RTVSPost2010PropOp51
 70
     0
102
RTVSPost2010Prop52
140
1.0
102
RTVSPost2010PropOp52
 70
     0
102
RTVSPost2010Prop53
 90
        2
102
RTVSPost2010PropOp53
 70
     1
102
RTVSPost2010Prop54
  1
strokes_ogs.tif
102
RTVSPost2010PropOp54
 70
     1
102
RTVSPost2010Prop55
280
     0
102
RTVSPost2010PropOp55
 70
     1
102
RTVSPost2010Prop56
140
1.0
102
RTVSPost2010PropOp56
 70
     1
102
RTVSPost2010Prop57
140
1.0
102
RTVSPost2010PropOp57
 70
     1
  0
XRECORD
  5
479
102
{ACAD_REACTORS
330
478
102
}
330
478
100
AcDbXrecord
280
     1
102
RTVSPost2010Prop28
280
     0
102
RTVSPost2010PropOp28
 70
     1
102
RTVSPost2010Prop29
280
     1
102
RTVSPost2010PropOp29
 70
     1
102
RTVSPost2010Prop30
280
     1
102
RTVSPost2010PropOp30
 70
     1
102
RTVSPost2010Prop31
280
     0
102
RTVSPost2010PropOp31
 70
     1
102
RTVSPost2010Prop32
280
     0
102
RTVSPost2010PropOp32
 70
     1
102
RTVSPost2010Prop33
280
     0
102
RTVSPost2010PropOp33
 70
     1
102
RTVSPost2010Prop34
280
     0
102
RTVSPost2010PropOp34
 70
     1
102
RTVSPost2010Prop35
280
     0
102
RTVSPost2010PropOp35
 70
     1
102
RTVSPost2010Prop36
280
     0
102
RTVSPost2010PropOp36
 70
     1
102
RTVSPost2010Prop37
 90
       50
102
RTVSPost2010PropOp37
 70
     1
102
RTVSPost2010Prop38
140
0.0
102
RTVSPost2010PropOp38
 70
     1
102
RTVSPost2010Prop39
140
1.0
102
RTVSPost2010PropOp39
 70
     1
102
RTVSPost2010Prop40
 90
        0
102
RTVSPost2010PropOp40
 70
     1
102
RTVSPost2010Prop41ColorIndex
 90
       18
102
RTVSPost2010Prop41ColorRGB
 90
        0
102
RTVSPost2010PropOp41
 70
     1
102
RTVSPost2010Prop42
 90
       50
102
RTVSPost2010PropOp42
 70
     1
102
RTVSPost2010Prop43
 90
        3
102
RTVSPost2010PropOp43
 70
     1
102
RTVSPost2010Prop44ColorIndex
 90
        5
102
RTVSPost2010Prop44ColorRGB
 90
      255
102
RTVSPost2010PropOp44
 70
     1
102
RTVSPost2010Prop45
280
     0
102
RTVSPost2010PropOp45
 70
     1
102
RTVSPost2010Prop46
 90
       50
102
RTVSPost2010PropOp46
 70
     1
102
RTVSPost2010Prop47
 90
       50
102
RTVSPost2010PropOp47
 70
     1
102
RTVSPost2010Prop48
 90
       50
102
RTVSPost2010PropOp48
 70
     1
102
RTVSPost2010Prop49
280
     0
102
RTVSPost2010PropOp49
 70
     1
102
RTVSPost2010Prop50
 90
       50
102
RTVSPost2010PropOp50
 70
     1
102
RTVSPost2010Prop51ColorIndex
 90
      256
102
RTVSPost2010Prop51ColorRGB
 90
-16777216
102
RTVSPost2010PropOp51
 70
     0
102
RTVSPost2010Prop52
140
1.0
102
RTVSPost2010PropOp52
 70
     0
102
RTVSPost2010Prop53
 90
        2
102
RTVSPost2010PropOp53
 70
     1
102
RTVSPost2010Prop54
  1
strokes_ogs.tif
102
RTVSPost2010PropOp54
 70
     1
102
RTVSPost2010Prop55
280
     0
102
RTVSPost2010PropOp55
 70
     1
102
RTVSPost2010Prop56
140
1.0
102
RTVSPost2010PropOp56
 70
     1
102
RTVSPost2010Prop57
140
1.0
102
RTVSPost2010PropOp57
 70
     1
  0
XRECORD
  5
46D
102
{ACAD_REACTORS
330
46C
102
}
330
46C
100
AcDbXrecord
280
     1
102
RTVSPost2010Prop28
280
     0
102
RTVSPost2010PropOp28
 70
     1
102
RTVSPost2010Prop29
280
     1
102
RTVSPost2010PropOp29
 70
     1
102
RTVSPost2010Prop30
280
     1
102
RTVSPost2010PropOp30
 70
     1
102
RTVSPost2010Prop31
280
     0
102
RTVSPost2010PropOp31
 70
     1
102
RTVSPost2010Prop32
280
     0
102
RTVSPost2010PropOp32
 70
     1
102
RTVSPost2010Prop33
280
     0
102
RTVSPost2010PropOp33
 70
     1
102
RTVSPost2010Prop34
280
     0
102
RTVSPost2010PropOp34
 70
     1
102
RTVSPost2010Prop35
280
     0
102
RTVSPost2010PropOp35
 70
     1
102
RTVSPost2010Prop36
280
     0
102
RTVSPost2010PropOp36
 70
     1
102
RTVSPost2010Prop37
 90
       50
102
RTVSPost2010PropOp37
 70
     1
102
RTVSPost2010Prop38
140
0.0
102
RTVSPost2010PropOp38
 70
     1
102
RTVSPost2010Prop39
140
1.0
102
RTVSPost2010PropOp39
 70
     1
102
RTVSPost2010Prop40
 90
        0
102
RTVSPost2010PropOp40
 70
     1
102
RTVSPost2010Prop41ColorIndex
 90
       18
102
RTVSPost2010Prop41ColorRGB
 90
        0
102
RTVSPost2010PropOp41
 70
     1
102
RTVSPost2010Prop42
 90
       50
102
RTVSPost2010PropOp42
 70
     1
102
RTVSPost2010Prop43
 90
        3
102
RTVSPost2010PropOp43
 70
     1
102
RTVSPost2010Prop44ColorIndex
 90
        5
102
RTVSPost2010Prop44ColorRGB
 90
      255
102
RTVSPost2010PropOp44
 70
     1
102
RTVSPost2010Prop45
280
     0
102
RTVSPost2010PropOp45
 70
     1
102
RTVSPost2010Prop46
 90
       50
102
RTVSPost2010PropOp46
 70
     1
102
RTVSPost2010Prop47
 90
       50
102
RTVSPost2010PropOp47
 70
     1
102
RTVSPost2010Prop48
 90
       50
102
RTVSPost2010PropOp48
 70
     1
102
RTVSPost2010Prop49
280
     0
102
RTVSPost2010PropOp49
 70
     1
102
RTVSPost2010Prop50
 90
       50
102
RTVSPost2010PropOp50
 70
     1
102
RTVSPost2010Prop51ColorIndex
 90
      256
102
RTVSPost2010Prop51ColorRGB
 90
-16777216
102
RTVSPost2010PropOp51
 70
     0
102
RTVSPost2010Prop52
140
1.0
102
RTVSPost2010PropOp52
 70
     0
102
RTVSPost2010Prop53
 90
        2
102
RTVSPost2010PropOp53
 70
     1
102
RTVSPost2010Prop54
  1
strokes_ogs.tif
102
RTVSPost2010PropOp54
 70
     1
102
RTVSPost2010Prop55
280
     0
102
RTVSPost2010PropOp55
 70
     1
102
RTVSPost2010Prop56
140
1.0
102
RTVSPost2010PropOp56
 70
     1
102
RTVSPost2010Prop57
140
1.0
102
RTVSPost2010PropOp57
 70
     1
  0
XRECORD
  5
46F
102
{ACAD_REACTORS
330
46E
102
}
330
46E
100
AcDbXrecord
280
     1
102
RTVSPost2010Prop28
280
     0
102
RTVSPost2010PropOp28
 70
     1
102
RTVSPost2010Prop29
280
     1
102
RTVSPost2010PropOp29
 70
     1
102
RTVSPost2010Prop30
280
     1
102
RTVSPost2010PropOp30
 70
     1
102
RTVSPost2010Prop31
280
     0
102
RTVSPost2010PropOp31
 70
     1
102
RTVSPost2010Prop32
280
     0
102
RTVSPost2010PropOp32
 70
     1
102
RTVSPost2010Prop33
280
     0
102
RTVSPost2010PropOp33
 70
     1
102
RTVSPost2010Prop34
280
     0
102
RTVSPost2010PropOp34
 70
     1
102
RTVSPost2010Prop35
280
     0
102
RTVSPost2010PropOp35
 70
     1
102
RTVSPost2010Prop36
280
     0
102
RTVSPost2010PropOp36
 70
     1
102
RTVSPost2010Prop37
 90
       50
102
RTVSPost2010PropOp37
 70
     1
102
RTVSPost2010Prop38
140
0.0
102
RTVSPost2010PropOp38
 70
     1
102
RTVSPost2010Prop39
140
1.0
102
RTVSPost2010PropOp39
 70
     1
102
RTVSPost2010Prop40
 90
        0
102
RTVSPost2010PropOp40
 70
     1
102
RTVSPost2010Prop41ColorIndex
 90
       18
102
RTVSPost2010Prop41ColorRGB
 90
        0
102
RTVSPost2010PropOp41
 70
     1
102
RTVSPost2010Prop42
 90
       50
102
RTVSPost2010PropOp42
 70
     1
102
RTVSPost2010Prop43
 90
        3
102
RTVSPost2010PropOp43
 70
     1
102
RTVSPost2010Prop44ColorIndex
 90
        5
102
RTVSPost2010Prop44ColorRGB
 90
      255
102
RTVSPost2010PropOp44
 70
     1
102
RTVSPost2010Prop45
280
     0
102
RTVSPost2010PropOp45
 70
     1
102
RTVSPost2010Prop46
 90
       50
102
RTVSPost2010PropOp46
 70
     1
102
RTVSPost2010Prop47
 90
       50
102
RTVSPost2010PropOp47
 70
     1
102
RTVSPost2010Prop48
 90
       50
102
RTVSPost2010PropOp48
 70
     1
102
RTVSPost2010Prop49
280
     0
102
RTVSPost2010PropOp49
 70
     1
102
RTVSPost2010Prop50
 90
       50
102
RTVSPost2010PropOp50
 70
     1
102
RTVSPost2010Prop51ColorIndex
 90
      256
102
RTVSPost2010Prop51ColorRGB
 90
-16777216
102
RTVSPost2010PropOp51
 70
     0
102
RTVSPost2010Prop52
140
1.0
102
RTVSPost2010PropOp52
 70
     0
102
RTVSPost2010Prop53
 90
        2
102
RTVSPost2010PropOp53
 70
     1
102
RTVSPost2010Prop54
  1
strokes_ogs.tif
102
RTVSPost2010PropOp54
 70
     1
102
RTVSPost2010Prop55
280
     0
102
RTVSPost2010PropOp55
 70
     1
102
RTVSPost2010Prop56
140
1.0
102
RTVSPost2010PropOp56
 70
     1
102
RTVSPost2010Prop57
140
1.0
102
RTVSPost2010PropOp57
 70
     1
  0
XRECORD
  5
47F
102
{ACAD_REACTORS
330
47E
102
}
330
47E
100
AcDbXrecord
280
     1
102
RTVSPost2010Prop28
280
     0
102
RTVSPost2010PropOp28
 70
     0
102
RTVSPost2010Prop29
280
     1
102
RTVSPost2010PropOp29
 70
     0
102
RTVSPost2010Prop30
280
     1
102
RTVSPost2010PropOp30
 70
     0
102
RTVSPost2010Prop31
280
     0
102
RTVSPost2010PropOp31
 70
     0
102
RTVSPost2010Prop32
280
     0
102
RTVSPost2010PropOp32
 70
     0
102
RTVSPost2010Prop33
280
     0
102
RTVSPost2010PropOp33
 70
     0
102
RTVSPost2010Prop34
280
     0
102
RTVSPost2010PropOp34
 70
     0
102
RTVSPost2010Prop35
280
     0
102
RTVSPost2010PropOp35
 70
     0
102
RTVSPost2010Prop36
280
     0
102
RTVSPost2010PropOp36
 70
     0
102
RTVSPost2010Prop37
 90
       50
102
RTVSPost2010PropOp37
 70
     0
102
RTVSPost2010Prop38
140
0.0
102
RTVSPost2010PropOp38
 70
     0
102
RTVSPost2010Prop39
140
1.0
102
RTVSPost2010PropOp39
 70
     0
102
RTVSPost2010Prop40
 90
        0
102
RTVSPost2010PropOp40
 70
     0
102
RTVSPost2010Prop41ColorIndex
 90
       18
102
RTVSPost2010Prop41ColorRGB
 90
        0
102
RTVSPost2010PropOp41
 70
     0
102
RTVSPost2010Prop42
 90
       50
102
RTVSPost2010PropOp42
 70
     0
102
RTVSPost2010Prop43
 90
        3
102
RTVSPost2010PropOp43
 70
     0
102
RTVSPost2010Prop44ColorIndex
 90
        5
102
RTVSPost2010Prop44ColorRGB
 90
      255
102
RTVSPost2010PropOp44
 70
     0
102
RTVSPost2010Prop45
280
     0
102
RTVSPost2010PropOp45
 70
     0
102
RTVSPost2010Prop46
 90
       50
102
RTVSPost2010PropOp46
 70
     0
102
RTVSPost2010Prop47
 90
       50
102
RTVSPost2010PropOp47
 70
     0
102
RTVSPost2010Prop48
 90
       50
102
RTVSPost2010PropOp48
 70
     0
102
RTVSPost2010Prop49
280
     0
102
RTVSPost2010PropOp49
 70
     0
102
RTVSPost2010Prop50
 90
       50
102
RTVSPost2010PropOp50
 70
     0
102
RTVSPost2010Prop51ColorIndex
 90
      256
102
RTVSPost2010Prop51ColorRGB
 90
-16777216
102
RTVSPost2010PropOp51
 70
     0
102
RTVSPost2010Prop52
140
1.0
102
RTVSPost2010PropOp52
 70
     0
102
RTVSPost2010Prop53
 90
        2
102
RTVSPost2010PropOp53
 70
     0
102
RTVSPost2010Prop54
  1
strokes_ogs.tif
102
RTVSPost2010PropOp54
 70
     0
102
RTVSPost2010Prop55
280
     0
102
RTVSPost2010PropOp55
 70
     0
102
RTVSPost2010Prop56
140
1.0
102
RTVSPost2010PropOp56
 70
     0
102
RTVSPost2010Prop57
140
1.0
102
RTVSPost2010PropOp57
 70
     0
  0
XRECORD
  5
477
102
{ACAD_REACTORS
330
476
102
}
330
476
100
AcDbXrecord
280
     1
102
RTVSPost2010Prop28
280
     0
102
RTVSPost2010PropOp28
 70
     1
102
RTVSPost2010Prop29
280
     1
102
RTVSPost2010PropOp29
 70
     1
102
RTVSPost2010Prop30
280
     1
102
RTVSPost2010PropOp30
 70
     1
102
RTVSPost2010Prop31
280
     0
102
RTVSPost2010PropOp31
 70
     1
102
RTVSPost2010Prop32
280
     0
102
RTVSPost2010PropOp32
 70
     1
102
RTVSPost2010Prop33
280
     0
102
RTVSPost2010PropOp33
 70
     1
102
RTVSPost2010Prop34
280
     0
102
RTVSPost2010PropOp34
 70
     1
102
RTVSPost2010Prop35
280
     0
102
RTVSPost2010PropOp35
 70
     1
102
RTVSPost2010Prop36
280
     0
102
RTVSPost2010PropOp36
 70
     1
102
RTVSPost2010Prop37
 90
       50
102
RTVSPost2010PropOp37
 70
     1
102
RTVSPost2010Prop38
140
0.0
102
RTVSPost2010PropOp38
 70
     1
102
RTVSPost2010Prop39
140
1.0
102
RTVSPost2010PropOp39
 70
     1
102
RTVSPost2010Prop40
 90
        0
102
RTVSPost2010PropOp40
 70
     1
102
RTVSPost2010Prop41ColorIndex
 90
       18
102
RTVSPost2010Prop41ColorRGB
 90
        0
102
RTVSPost2010PropOp41
 70
     1
102
RTVSPost2010Prop42
 90
       50
102
RTVSPost2010PropOp42
 70
     1
102
RTVSPost2010Prop43
 90
        3
102
RTVSPost2010PropOp43
 70
     1
102
RTVSPost2010Prop44ColorIndex
 90
        5
102
RTVSPost2010Prop44ColorRGB
 90
      255
102
RTVSPost2010PropOp44
 70
     1
102
RTVSPost2010Prop45
280
     0
102
RTVSPost2010PropOp45
 70
     1
102
RTVSPost2010Prop46
 90
       50
102
RTVSPost2010PropOp46
 70
     1
102
RTVSPost2010Prop47
 90
       50
102
RTVSPost2010PropOp47
 70
     1
102
RTVSPost2010Prop48
 90
       50
102
RTVSPost2010PropOp48
 70
     1
102
RTVSPost2010Prop49
280
     0
102
RTVSPost2010PropOp49
 70
     1
102
RTVSPost2010Prop50
 90
       50
102
RTVSPost2010PropOp50
 70
     1
102
RTVSPost2010Prop51ColorIndex
 90
      256
102
RTVSPost2010Prop51ColorRGB
 90
-16777216
102
RTVSPost2010PropOp51
 70
     0
102
RTVSPost2010Prop52
140
1.0
102
RTVSPost2010PropOp52
 70
     0
102
RTVSPost2010Prop53
 90
        2
102
RTVSPost2010PropOp53
 70
     1
102
RTVSPost2010Prop54
  1
strokes_ogs.tif
102
RTVSPost2010PropOp54
 70
     1
102
RTVSPost2010Prop55
280
     0
102
RTVSPost2010PropOp55
 70
     1
102
RTVSPost2010Prop56
140
1.0
102
RTVSPost2010PropOp56
 70
     1
102
RTVSPost2010Prop57
140
1.0
102
RTVSPost2010PropOp57
 70
     1
  0
XRECORD
  5
45B
102
{ACAD_REACTORS
330
45A
102
}
330
45A
100
AcDbXrecord
280
     1
102
RTVSPost2010Prop28
280
     0
102
RTVSPost2010PropOp28
 70
     1
102
RTVSPost2010Prop29
280
     1
102
RTVSPost2010PropOp29
 70
     1
102
RTVSPost2010Prop30
280
     1
102
RTVSPost2010PropOp30
 70
     1
102
RTVSPost2010Prop31
280
     0
102
RTVSPost2010PropOp31
 70
     1
102
RTVSPost2010Prop32
280
     0
102
RTVSPost2010PropOp32
 70
     1
102
RTVSPost2010Prop33
280
     0
102
RTVSPost2010PropOp33
 70
     1
102
RTVSPost2010Prop34
280
     0
102
RTVSPost2010PropOp34
 70
     1
102
RTVSPost2010Prop35
280
     0
102
RTVSPost2010PropOp35
 70
     1
102
RTVSPost2010Prop36
280
     0
102
RTVSPost2010PropOp36
 70
     1
102
RTVSPost2010Prop37
 90
       50
102
RTVSPost2010PropOp37
 70
     1
102
RTVSPost2010Prop38
140
0.0
102
RTVSPost2010PropOp38
 70
     1
102
RTVSPost2010Prop39
140
1.0
102
RTVSPost2010PropOp39
 70
     1
102
RTVSPost2010Prop40
 90
        0
102
RTVSPost2010PropOp40
 70
     1
102
RTVSPost2010Prop41ColorIndex
 90
       18
102
RTVSPost2010Prop41ColorRGB
 90
        0
102
RTVSPost2010PropOp41
 70
     1
102
RTVSPost2010Prop42
 90
       50
102
RTVSPost2010PropOp42
 70
     1
102
RTVSPost2010Prop43
 90
        3
102
RTVSPost2010PropOp43
 70
     1
102
RTVSPost2010Prop44ColorIndex
 90
        5
102
RTVSPost2010Prop44ColorRGB
 90
      255
102
RTVSPost2010PropOp44
 70
     1
102
RTVSPost2010Prop45
280
     0
102
RTVSPost2010PropOp45
 70
     1
102
RTVSPost2010Prop46
 90
       50
102
RTVSPost2010PropOp46
 70
     1
102
RTVSPost2010Prop47
 90
       50
102
RTVSPost2010PropOp47
 70
     1
102
RTVSPost2010Prop48
 90
       50
102
RTVSPost2010PropOp48
 70
     1
102
RTVSPost2010Prop49
280
     0
102
RTVSPost2010PropOp49
 70
     1
102
RTVSPost2010Prop50
 90
       50
102
RTVSPost2010PropOp50
 70
     1
102
RTVSPost2010Prop51ColorIndex
 90
      256
102
RTVSPost2010Prop51ColorRGB
 90
-16777216
102
RTVSPost2010PropOp51
 70
     0
102
RTVSPost2010Prop52
140
1.0
102
RTVSPost2010PropOp52
 70
     0
102
RTVSPost2010Prop53
 90
        2
102
RTVSPost2010PropOp53
 70
     1
102
RTVSPost2010Prop54
  1
strokes_ogs.tif
102
RTVSPost2010PropOp54
 70
     1
102
RTVSPost2010Prop55
280
     0
102
RTVSPost2010PropOp55
 70
     1
102
RTVSPost2010Prop56
140
1.0
102
RTVSPost2010PropOp56
 70
     1
102
RTVSPost2010Prop57
140
1.0
102
RTVSPost2010PropOp57
 70
     1
  0
XRECORD
  5
45D
102
{ACAD_REACTORS
330
45C
102
}
330
45C
100
AcDbXrecord
280
     1
102
RTVSPost2010Prop28
280
     0
102
RTVSPost2010PropOp28
 70
     1
102
RTVSPost2010Prop29
280
     1
102
RTVSPost2010PropOp29
 70
     1
102
RTVSPost2010Prop30
280
     1
102
RTVSPost2010PropOp30
 70
     1
102
RTVSPost2010Prop31
280
     0
102
RTVSPost2010PropOp31
 70
     1
102
RTVSPost2010Prop32
280
     0
102
RTVSPost2010PropOp32
 70
     1
102
RTVSPost2010Prop33
280
     0
102
RTVSPost2010PropOp33
 70
     1
102
RTVSPost2010Prop34
280
     0
102
RTVSPost2010PropOp34
 70
     1
102
RTVSPost2010Prop35
280
     0
102
RTVSPost2010PropOp35
 70
     1
102
RTVSPost2010Prop36
280
     0
102
RTVSPost2010PropOp36
 70
     1
102
RTVSPost2010Prop37
 90
       50
102
RTVSPost2010PropOp37
 70
     1
102
RTVSPost2010Prop38
140
0.0
102
RTVSPost2010PropOp38
 70
     1
102
RTVSPost2010Prop39
140
1.0
102
RTVSPost2010PropOp39
 70
     1
102
RTVSPost2010Prop40
 90
        0
102
RTVSPost2010PropOp40
 70
     1
102
RTVSPost2010Prop41ColorIndex
 90
       18
102
RTVSPost2010Prop41ColorRGB
 90
        0
102
RTVSPost2010PropOp41
 70
     1
102
RTVSPost2010Prop42
 90
       50
102
RTVSPost2010PropOp42
 70
     1
102
RTVSPost2010Prop43
 90
        3
102
RTVSPost2010PropOp43
 70
     1
102
RTVSPost2010Prop44ColorIndex
 90
        5
102
RTVSPost2010Prop44ColorRGB
 90
      255
102
RTVSPost2010PropOp44
 70
     1
102
RTVSPost2010Prop45
280
     0
102
RTVSPost2010PropOp45
 70
     1
102
RTVSPost2010Prop46
 90
       50
102
RTVSPost2010PropOp46
 70
     1
102
RTVSPost2010Prop47
 90
       50
102
RTVSPost2010PropOp47
 70
     1
102
RTVSPost2010Prop48
 90
       50
102
RTVSPost2010PropOp48
 70
     1
102
RTVSPost2010Prop49
280
     0
102
RTVSPost2010PropOp49
 70
     1
102
RTVSPost2010Prop50
 90
       50
102
RTVSPost2010PropOp50
 70
     1
102
RTVSPost2010Prop51ColorIndex
 90
      256
102
RTVSPost2010Prop51ColorRGB
 90
-16777216
102
RTVSPost2010PropOp51
 70
     0
102
RTVSPost2010Prop52
140
1.0
102
RTVSPost2010PropOp52
 70
     0
102
RTVSPost2010Prop53
 90
        2
102
RTVSPost2010PropOp53
 70
     1
102
RTVSPost2010Prop54
  1
strokes_ogs.tif
102
RTVSPost2010PropOp54
 70
     1
102
RTVSPost2010Prop55
280
     0
102
RTVSPost2010PropOp55
 70
     1
102
RTVSPost2010Prop56
140
1.0
102
RTVSPost2010PropOp56
 70
     1
102
RTVSPost2010Prop57
140
1.0
102
RTVSPost2010PropOp57
 70
     1
  0
XRECORD
  5
45F
102
{ACAD_REACTORS
330
45E
102
}
330
45E
100
AcDbXrecord
280
     1
102
RTVSPost2010Prop28
280
     0
102
RTVSPost2010PropOp28
 70
     1
102
RTVSPost2010Prop29
280
     1
102
RTVSPost2010PropOp29
 70
     1
102
RTVSPost2010Prop30
280
     1
102
RTVSPost2010PropOp30
 70
     1
102
RTVSPost2010Prop31
280
     0
102
RTVSPost2010PropOp31
 70
     1
102
RTVSPost2010Prop32
280
     0
102
RTVSPost2010PropOp32
 70
     1
102
RTVSPost2010Prop33
280
     0
102
RTVSPost2010PropOp33
 70
     1
102
RTVSPost2010Prop34
280
     0
102
RTVSPost2010PropOp34
 70
     1
102
RTVSPost2010Prop35
280
     0
102
RTVSPost2010PropOp35
 70
     1
102
RTVSPost2010Prop36
280
     0
102
RTVSPost2010PropOp36
 70
     1
102
RTVSPost2010Prop37
 90
       50
102
RTVSPost2010PropOp37
 70
     1
102
RTVSPost2010Prop38
140
0.0
102
RTVSPost2010PropOp38
 70
     1
102
RTVSPost2010Prop39
140
1.0
102
RTVSPost2010PropOp39
 70
     1
102
RTVSPost2010Prop40
 90
        0
102
RTVSPost2010PropOp40
 70
     1
102
RTVSPost2010Prop41ColorIndex
 90
       18
102
RTVSPost2010Prop41ColorRGB
 90
        0
102
RTVSPost2010PropOp41
 70
     1
102
RTVSPost2010Prop42
 90
       50
102
RTVSPost2010PropOp42
 70
     1
102
RTVSPost2010Prop43
 90
        3
102
RTVSPost2010PropOp43
 70
     1
102
RTVSPost2010Prop44ColorIndex
 90
        5
102
RTVSPost2010Prop44ColorRGB
 90
      255
102
RTVSPost2010PropOp44
 70
     1
102
RTVSPost2010Prop45
280
     0
102
RTVSPost2010PropOp45
 70
     1
102
RTVSPost2010Prop46
 90
       50
102
RTVSPost2010PropOp46
 70
     1
102
RTVSPost2010Prop47
 90
       50
102
RTVSPost2010PropOp47
 70
     1
102
RTVSPost2010Prop48
 90
       50
102
RTVSPost2010PropOp48
 70
     1
102
RTVSPost2010Prop49
280
     0
102
RTVSPost2010PropOp49
 70
     1
102
RTVSPost2010Prop50
 90
       50
102
RTVSPost2010PropOp50
 70
     1
102
RTVSPost2010Prop51ColorIndex
 90
      256
102
RTVSPost2010Prop51ColorRGB
 90
-16777216
102
RTVSPost2010PropOp51
 70
     0
102
RTVSPost2010Prop52
140
1.0
102
RTVSPost2010PropOp52
 70
     0
102
RTVSPost2010Prop53
 90
        2
102
RTVSPost2010PropOp53
 70
     1
102
RTVSPost2010Prop54
  1
strokes_ogs.tif
102
RTVSPost2010PropOp54
 70
     1
102
RTVSPost2010Prop55
280
     0
102
RTVSPost2010PropOp55
 70
     1
102
RTVSPost2010Prop56
140
1.0
102
RTVSPost2010PropOp56
 70
     1
102
RTVSPost2010Prop57
140
1.0
102
RTVSPost2010PropOp57
 70
     1
  0
XRECORD
  5
461
102
{ACAD_REACTORS
330
460
102
}
330
460
100
AcDbXrecord
280
     1
102
RTVSPost2010Prop28
280
     0
102
RTVSPost2010PropOp28
 70
     1
102
RTVSPost2010Prop29
280
     1
102
RTVSPost2010PropOp29
 70
     1
102
RTVSPost2010Prop30
280
     1
102
RTVSPost2010PropOp30
 70
     1
102
RTVSPost2010Prop31
280
     0
102
RTVSPost2010PropOp31
 70
     1
102
RTVSPost2010Prop32
280
     0
102
RTVSPost2010PropOp32
 70
     1
102
RTVSPost2010Prop33
280
     0
102
RTVSPost2010PropOp33
 70
     1
102
RTVSPost2010Prop34
280
     0
102
RTVSPost2010PropOp34
 70
     1
102
RTVSPost2010Prop35
280
     0
102
RTVSPost2010PropOp35
 70
     1
102
RTVSPost2010Prop36
280
     0
102
RTVSPost2010PropOp36
 70
     1
102
RTVSPost2010Prop37
 90
       50
102
RTVSPost2010PropOp37
 70
     1
102
RTVSPost2010Prop38
140
0.0
102
RTVSPost2010PropOp38
 70
     1
102
RTVSPost2010Prop39
140
1.0
102
RTVSPost2010PropOp39
 70
     1
102
RTVSPost2010Prop40
 90
        0
102
RTVSPost2010PropOp40
 70
     1
102
RTVSPost2010Prop41ColorIndex
 90
       18
102
RTVSPost2010Prop41ColorRGB
 90
        0
102
RTVSPost2010PropOp41
 70
     1
102
RTVSPost2010Prop42
 90
       50
102
RTVSPost2010PropOp42
 70
     1
102
RTVSPost2010Prop43
 90
        3
102
RTVSPost2010PropOp43
 70
     1
102
RTVSPost2010Prop44ColorIndex
 90
        5
102
RTVSPost2010Prop44ColorRGB
 90
      255
102
RTVSPost2010PropOp44
 70
     1
102
RTVSPost2010Prop45
280
     0
102
RTVSPost2010PropOp45
 70
     1
102
RTVSPost2010Prop46
 90
       50
102
RTVSPost2010PropOp46
 70
     1
102
RTVSPost2010Prop47
 90
       50
102
RTVSPost2010PropOp47
 70
     1
102
RTVSPost2010Prop48
 90
       50
102
RTVSPost2010PropOp48
 70
     1
102
RTVSPost2010Prop49
280
     0
102
RTVSPost2010PropOp49
 70
     1
102
RTVSPost2010Prop50
 90
       50
102
RTVSPost2010PropOp50
 70
     1
102
RTVSPost2010Prop51ColorIndex
 90
      256
102
RTVSPost2010Prop51ColorRGB
 90
-16777216
102
RTVSPost2010PropOp51
 70
     0
102
RTVSPost2010Prop52
140
1.0
102
RTVSPost2010PropOp52
 70
     0
102
RTVSPost2010Prop53
 90
        2
102
RTVSPost2010PropOp53
 70
     1
102
RTVSPost2010Prop54
  1
strokes_ogs.tif
102
RTVSPost2010PropOp54
 70
     1
102
RTVSPost2010Prop55
280
     0
102
RTVSPost2010PropOp55
 70
     1
102
RTVSPost2010Prop56
140
1.0
102
RTVSPost2010PropOp56
 70
     1
102
RTVSPost2010Prop57
140
1.0
102
RTVSPost2010PropOp57
 70
     1
  0
XRECORD
  5
467
102
{ACAD_REACTORS
330
466
102
}
330
466
100
AcDbXrecord
280
     1
102
RTVSPost2010Prop28
280
     0
102
RTVSPost2010PropOp28
 70
     1
102
RTVSPost2010Prop29
280
     1
102
RTVSPost2010PropOp29
 70
     1
102
RTVSPost2010Prop30
280
     1
102
RTVSPost2010PropOp30
 70
     1
102
RTVSPost2010Prop31
280
     0
102
RTVSPost2010PropOp31
 70
     1
102
RTVSPost2010Prop32
280
     0
102
RTVSPost2010PropOp32
 70
     1
102
RTVSPost2010Prop33
280
     0
102
RTVSPost2010PropOp33
 70
     1
102
RTVSPost2010Prop34
280
     0
102
RTVSPost2010PropOp34
 70
     1
102
RTVSPost2010Prop35
280
     0
102
RTVSPost2010PropOp35
 70
     1
102
RTVSPost2010Prop36
280
     0
102
RTVSPost2010PropOp36
 70
     1
102
RTVSPost2010Prop37
 90
       50
102
RTVSPost2010PropOp37
 70
     1
102
RTVSPost2010Prop38
140
0.0
102
RTVSPost2010PropOp38
 70
     1
102
RTVSPost2010Prop39
140
1.0
102
RTVSPost2010PropOp39
 70
     1
102
RTVSPost2010Prop40
 90
        0
102
RTVSPost2010PropOp40
 70
     1
102
RTVSPost2010Prop41ColorIndex
 90
       18
102
RTVSPost2010Prop41ColorRGB
 90
        0
102
RTVSPost2010PropOp41
 70
     1
102
RTVSPost2010Prop42
 90
       50
102
RTVSPost2010PropOp42
 70
     1
102
RTVSPost2010Prop43
 90
        3
102
RTVSPost2010PropOp43
 70
     1
102
RTVSPost2010Prop44ColorIndex
 90
        5
102
RTVSPost2010Prop44ColorRGB
 90
      255
102
RTVSPost2010PropOp44
 70
     1
102
RTVSPost2010Prop45
280
     0
102
RTVSPost2010PropOp45
 70
     1
102
RTVSPost2010Prop46
 90
       50
102
RTVSPost2010PropOp46
 70
     1
102
RTVSPost2010Prop47
 90
       50
102
RTVSPost2010PropOp47
 70
     1
102
RTVSPost2010Prop48
 90
       50
102
RTVSPost2010PropOp48
 70
     1
102
RTVSPost2010Prop49
280
     0
102
RTVSPost2010PropOp49
 70
     1
102
RTVSPost2010Prop50
 90
       50
102
RTVSPost2010PropOp50
 70
     1
102
RTVSPost2010Prop51ColorIndex
 90
      256
102
RTVSPost2010Prop51ColorRGB
 90
-16777216
102
RTVSPost2010PropOp51
 70
     0
102
RTVSPost2010Prop52
140
1.0
102
RTVSPost2010PropOp52
 70
     0
102
RTVSPost2010Prop53
 90
        2
102
RTVSPost2010PropOp53
 70
     1
102
RTVSPost2010Prop54
  1
strokes_ogs.tif
102
RTVSPost2010PropOp54
 70
     1
102
RTVSPost2010Prop55
280
     0
102
RTVSPost2010PropOp55
 70
     1
102
RTVSPost2010Prop56
140
1.0
102
RTVSPost2010PropOp56
 70
     1
102
RTVSPost2010Prop57
140
1.0
102
RTVSPost2010PropOp57
 70
     1
  0
XRECORD
  5
47B
102
{ACAD_REACTORS
330
47A
102
}
330
47A
100
AcDbXrecord
280
     1
102
RTVSPost2010Prop28
280
     0
102
RTVSPost2010PropOp28
 70
     0
102
RTVSPost2010Prop29
280
     1
102
RTVSPost2010PropOp29
 70
     0
102
RTVSPost2010Prop30
280
     1
102
RTVSPost2010PropOp30
 70
     0
102
RTVSPost2010Prop31
280
     0
102
RTVSPost2010PropOp31
 70
     0
102
RTVSPost2010Prop32
280
     0
102
RTVSPost2010PropOp32
 70
     0
102
RTVSPost2010Prop33
280
     0
102
RTVSPost2010PropOp33
 70
     0
102
RTVSPost2010Prop34
280
     0
102
RTVSPost2010PropOp34
 70
     0
102
RTVSPost2010Prop35
280
     0
102
RTVSPost2010PropOp35
 70
     0
102
RTVSPost2010Prop36
280
     0
102
RTVSPost2010PropOp36
 70
     0
102
RTVSPost2010Prop37
 90
       50
102
RTVSPost2010PropOp37
 70
     0
102
RTVSPost2010Prop38
140
0.0
102
RTVSPost2010PropOp38
 70
     0
102
RTVSPost2010Prop39
140
1.0
102
RTVSPost2010PropOp39
 70
     0
102
RTVSPost2010Prop40
 90
        0
102
RTVSPost2010PropOp40
 70
     0
102
RTVSPost2010Prop41ColorIndex
 90
       18
102
RTVSPost2010Prop41ColorRGB
 90
        0
102
RTVSPost2010PropOp41
 70
     0
102
RTVSPost2010Prop42
 90
       50
102
RTVSPost2010PropOp42
 70
     0
102
RTVSPost2010Prop43
 90
        3
102
RTVSPost2010PropOp43
 70
     0
102
RTVSPost2010Prop44ColorIndex
 90
        5
102
RTVSPost2010Prop44ColorRGB
 90
      255
102
RTVSPost2010PropOp44
 70
     0
102
RTVSPost2010Prop45
280
     0
102
RTVSPost2010PropOp45
 70
     0
102
RTVSPost2010Prop46
 90
       50
102
RTVSPost2010PropOp46
 70
     0
102
RTVSPost2010Prop47
 90
       50
102
RTVSPost2010PropOp47
 70
     0
102
RTVSPost2010Prop48
 90
       50
102
RTVSPost2010PropOp48
 70
     0
102
RTVSPost2010Prop49
280
     0
102
RTVSPost2010PropOp49
 70
     0
102
RTVSPost2010Prop50
 90
       50
102
RTVSPost2010PropOp50
 70
     0
102
RTVSPost2010Prop51ColorIndex
 90
      256
102
RTVSPost2010Prop51ColorRGB
 90
-16777216
102
RTVSPost2010PropOp51
 70
     0
102
RTVSPost2010Prop52
140
1.0
102
RTVSPost2010PropOp52
 70
     0
102
RTVSPost2010Prop53
 90
        2
102
RTVSPost2010PropOp53
 70
     0
102
RTVSPost2010Prop54
  1
strokes_ogs.tif
102
RTVSPost2010PropOp54
 70
     0
102
RTVSPost2010Prop55
280
     0
102
RTVSPost2010PropOp55
 70
     0
102
RTVSPost2010Prop56
140
1.0
102
RTVSPost2010PropOp56
 70
     0
102
RTVSPost2010Prop57
140
1.0
102
RTVSPost2010PropOp57
 70
     0
  0
XRECORD
  5
475
102
{ACAD_REACTORS
330
474
102
}
330
474
100
AcDbXrecord
280
     1
102
RTVSPost2010Prop28
280
     0
102
RTVSPost2010PropOp28
 70
     1
102
RTVSPost2010Prop29
280
     1
102
RTVSPost2010PropOp29
 70
     1
102
RTVSPost2010Prop30
280
     1
102
RTVSPost2010PropOp30
 70
     1
102
RTVSPost2010Prop31
280
     0
102
RTVSPost2010PropOp31
 70
     1
102
RTVSPost2010Prop32
280
     0
102
RTVSPost2010PropOp32
 70
     1
102
RTVSPost2010Prop33
280
     0
102
RTVSPost2010PropOp33
 70
     1
102
RTVSPost2010Prop34
280
     0
102
RTVSPost2010PropOp34
 70
     1
102
RTVSPost2010Prop35
280
     0
102
RTVSPost2010PropOp35
 70
     1
102
RTVSPost2010Prop36
280
     0
102
RTVSPost2010PropOp36
 70
     1
102
RTVSPost2010Prop37
 90
       50
102
RTVSPost2010PropOp37
 70
     1
102
RTVSPost2010Prop38
140
0.0
102
RTVSPost2010PropOp38
 70
     1
102
RTVSPost2010Prop39
140
1.0
102
RTVSPost2010PropOp39
 70
     1
102
RTVSPost2010Prop40
 90
        0
102
RTVSPost2010PropOp40
 70
     1
102
RTVSPost2010Prop41ColorIndex
 90
       18
102
RTVSPost2010Prop41ColorRGB
 90
        0
102
RTVSPost2010PropOp41
 70
     1
102
RTVSPost2010Prop42
 90
       50
102
RTVSPost2010PropOp42
 70
     1
102
RTVSPost2010Prop43
 90
        3
102
RTVSPost2010PropOp43
 70
     1
102
RTVSPost2010Prop44ColorIndex
 90
        5
102
RTVSPost2010Prop44ColorRGB
 90
      255
102
RTVSPost2010PropOp44
 70
     1
102
RTVSPost2010Prop45
280
     0
102
RTVSPost2010PropOp45
 70
     1
102
RTVSPost2010Prop46
 90
       50
102
RTVSPost2010PropOp46
 70
     1
102
RTVSPost2010Prop47
 90
       50
102
RTVSPost2010PropOp47
 70
     1
102
RTVSPost2010Prop48
 90
       50
102
RTVSPost2010PropOp48
 70
     1
102
RTVSPost2010Prop49
280
     0
102
RTVSPost2010PropOp49
 70
     1
102
RTVSPost2010Prop50
 90
       50
102
RTVSPost2010PropOp50
 70
     1
102
RTVSPost2010Prop51ColorIndex
 90
      256
102
RTVSPost2010Prop51ColorRGB
 90
-16777216
102
RTVSPost2010PropOp51
 70
     0
102
RTVSPost2010Prop52
140
1.0
102
RTVSPost2010PropOp52
 70
     0
102
RTVSPost2010Prop53
 90
        2
102
RTVSPost2010PropOp53
 70
     1
102
RTVSPost2010Prop54
  1
strokes_ogs.tif
102
RTVSPost2010PropOp54
 70
     1
102
RTVSPost2010Prop55
280
     0
102
RTVSPost2010PropOp55
 70
     1
102
RTVSPost2010Prop56
140
1.0
102
RTVSPost2010PropOp56
 70
     1
102
RTVSPost2010Prop57
140
1.0
102
RTVSPost2010PropOp57
 70
     1
  0
XRECORD
  5
47D
102
{ACAD_REACTORS
330
47C
102
}
330
47C
100
AcDbXrecord
280
     1
102
RTVSPost2010Prop28
280
     0
102
RTVSPost2010PropOp28
 70
     0
102
RTVSPost2010Prop29
280
     1
102
RTVSPost2010PropOp29
 70
     0
102
RTVSPost2010Prop30
280
     1
102
RTVSPost2010PropOp30
 70
     0
102
RTVSPost2010Prop31
280
     0
102
RTVSPost2010PropOp31
 70
     0
102
RTVSPost2010Prop32
280
     0
102
RTVSPost2010PropOp32
 70
     0
102
RTVSPost2010Prop33
280
     0
102
RTVSPost2010PropOp33
 70
     0
102
RTVSPost2010Prop34
280
     0
102
RTVSPost2010PropOp34
 70
     0
102
RTVSPost2010Prop35
280
     0
102
RTVSPost2010PropOp35
 70
     0
102
RTVSPost2010Prop36
280
     0
102
RTVSPost2010PropOp36
 70
     0
102
RTVSPost2010Prop37
 90
       50
102
RTVSPost2010PropOp37
 70
     0
102
RTVSPost2010Prop38
140
0.0
102
RTVSPost2010PropOp38
 70
     0
102
RTVSPost2010Prop39
140
1.0
102
RTVSPost2010PropOp39
 70
     0
102
RTVSPost2010Prop40
 90
        0
102
RTVSPost2010PropOp40
 70
     0
102
RTVSPost2010Prop41ColorIndex
 90
       18
102
RTVSPost2010Prop41ColorRGB
 90
        0
102
RTVSPost2010PropOp41
 70
     0
102
RTVSPost2010Prop42
 90
       50
102
RTVSPost2010PropOp42
 70
     0
102
RTVSPost2010Prop43
 90
        3
102
RTVSPost2010PropOp43
 70
     0
102
RTVSPost2010Prop44ColorIndex
 90
        5
102
RTVSPost2010Prop44ColorRGB
 90
      255
102
RTVSPost2010PropOp44
 70
     0
102
RTVSPost2010Prop45
280
     0
102
RTVSPost2010PropOp45
 70
     0
102
RTVSPost2010Prop46
 90
       50
102
RTVSPost2010PropOp46
 70
     0
102
RTVSPost2010Prop47
 90
       50
102
RTVSPost2010PropOp47
 70
     0
102
RTVSPost2010Prop48
 90
       50
102
RTVSPost2010PropOp48
 70
     0
102
RTVSPost2010Prop49
280
     0
102
RTVSPost2010PropOp49
 70
     0
102
RTVSPost2010Prop50
 90
       50
102
RTVSPost2010PropOp50
 70
     0
102
RTVSPost2010Prop51ColorIndex
 90
      256
102
RTVSPost2010Prop51ColorRGB
 90
-16777216
102
RTVSPost2010PropOp51
 70
     0
102
RTVSPost2010Prop52
140
1.0
102
RTVSPost2010PropOp52
 70
     0
102
RTVSPost2010Prop53
 90
        2
102
RTVSPost2010PropOp53
 70
     0
102
RTVSPost2010Prop54
  1
strokes_ogs.tif
102
RTVSPost2010PropOp54
 70
     0
102
RTVSPost2010Prop55
280
     0
102
RTVSPost2010PropOp55
 70
     0
102
RTVSPost2010Prop56
140
1.0
102
RTVSPost2010PropOp56
 70
     0
102
RTVSPost2010Prop57
140
1.0
102
RTVSPost2010PropOp57
 70
     0
  0
XRECORD
  5
46B
102
{ACAD_REACTORS
330
46A
102
}
330
46A
100
AcDbXrecord
280
     1
102
RTVSPost2010Prop28
280
     0
102
RTVSPost2010PropOp28
 70
     1
102
RTVSPost2010Prop29
280
     1
102
RTVSPost2010PropOp29
 70
     1
102
RTVSPost2010Prop30
280
     1
102
RTVSPost2010PropOp30
 70
     1
102
RTVSPost2010Prop31
280
     0
102
RTVSPost2010PropOp31
 70
     1
102
RTVSPost2010Prop32
280
     0
102
RTVSPost2010PropOp32
 70
     1
102
RTVSPost2010Prop33
280
     0
102
RTVSPost2010PropOp33
 70
     1
102
RTVSPost2010Prop34
280
     0
102
RTVSPost2010PropOp34
 70
     1
102
RTVSPost2010Prop35
280
     0
102
RTVSPost2010PropOp35
 70
     1
102
RTVSPost2010Prop36
280
     0
102
RTVSPost2010PropOp36
 70
     1
102
RTVSPost2010Prop37
 90
       50
102
RTVSPost2010PropOp37
 70
     1
102
RTVSPost2010Prop38
140
0.0
102
RTVSPost2010PropOp38
 70
     1
102
RTVSPost2010Prop39
140
1.0
102
RTVSPost2010PropOp39
 70
     1
102
RTVSPost2010Prop40
 90
        0
102
RTVSPost2010PropOp40
 70
     1
102
RTVSPost2010Prop41ColorIndex
 90
       18
102
RTVSPost2010Prop41ColorRGB
 90
        0
102
RTVSPost2010PropOp41
 70
     1
102
RTVSPost2010Prop42
 90
       50
102
RTVSPost2010PropOp42
 70
     1
102
RTVSPost2010Prop43
 90
        3
102
RTVSPost2010PropOp43
 70
     1
102
RTVSPost2010Prop44ColorIndex
 90
        5
102
RTVSPost2010Prop44ColorRGB
 90
      255
102
RTVSPost2010PropOp44
 70
     1
102
RTVSPost2010Prop45
280
     0
102
RTVSPost2010PropOp45
 70
     1
102
RTVSPost2010Prop46
 90
       50
102
RTVSPost2010PropOp46
 70
     1
102
RTVSPost2010Prop47
 90
       50
102
RTVSPost2010PropOp47
 70
     1
102
RTVSPost2010Prop48
 90
       50
102
RTVSPost2010PropOp48
 70
     1
102
RTVSPost2010Prop49
280
     0
102
RTVSPost2010PropOp49
 70
     1
102
RTVSPost2010Prop50
 90
       50
102
RTVSPost2010PropOp50
 70
     1
102
RTVSPost2010Prop51ColorIndex
 90
      256
102
RTVSPost2010Prop51ColorRGB
 90
-16777216
102
RTVSPost2010PropOp51
 70
     0
102
RTVSPost2010Prop52
140
1.0
102
RTVSPost2010PropOp52
 70
     0
102
RTVSPost2010Prop53
 90
        2
102
RTVSPost2010PropOp53
 70
     1
102
RTVSPost2010Prop54
  1
strokes_ogs.tif
102
RTVSPost2010PropOp54
 70
     1
102
RTVSPost2010Prop55
280
     0
102
RTVSPost2010PropOp55
 70
     1
102
RTVSPost2010Prop56
140
1.0
102
RTVSPost2010PropOp56
 70
     1
102
RTVSPost2010Prop57
140
1.0
102
RTVSPost2010PropOp57
 70
     1
  0
XRECORD
  5
489
102
{ACAD_REACTORS
330
488
102
}
330
488
100
AcDbXrecord
280
     1
102
RTVSPost2010Prop28
280
     0
102
RTVSPost2010PropOp28
 70
     1
102
RTVSPost2010Prop29
280
     1
102
RTVSPost2010PropOp29
 70
     1
102
RTVSPost2010Prop30
280
     1
102
RTVSPost2010PropOp30
 70
     1
102
RTVSPost2010Prop31
280
     0
102
RTVSPost2010PropOp31
 70
     1
102
RTVSPost2010Prop32
280
     0
102
RTVSPost2010PropOp32
 70
     1
102
RTVSPost2010Prop33
280
     0
102
RTVSPost2010PropOp33
 70
     1
102
RTVSPost2010Prop34
280
     0
102
RTVSPost2010PropOp34
 70
     1
102
RTVSPost2010Prop35
280
     0
102
RTVSPost2010PropOp35
 70
     1
102
RTVSPost2010Prop36
280
     0
102
RTVSPost2010PropOp36
 70
     1
102
RTVSPost2010Prop37
 90
       50
102
RTVSPost2010PropOp37
 70
     1
102
RTVSPost2010Prop38
140
0.0
102
RTVSPost2010PropOp38
 70
     1
102
RTVSPost2010Prop39
140
1.0
102
RTVSPost2010PropOp39
 70
     1
102
RTVSPost2010Prop40
 90
        0
102
RTVSPost2010PropOp40
 70
     1
102
RTVSPost2010Prop41ColorIndex
 90
       18
102
RTVSPost2010Prop41ColorRGB
 90
        0
102
RTVSPost2010PropOp41
 70
     1
102
RTVSPost2010Prop42
 90
       50
102
RTVSPost2010PropOp42
 70
     1
102
RTVSPost2010Prop43
 90
        3
102
RTVSPost2010PropOp43
 70
     1
102
RTVSPost2010Prop44ColorIndex
 90
        5
102
RTVSPost2010Prop44ColorRGB
 90
      255
102
RTVSPost2010PropOp44
 70
     1
102
RTVSPost2010Prop45
280
     0
102
RTVSPost2010PropOp45
 70
     1
102
RTVSPost2010Prop46
 90
       50
102
RTVSPost2010PropOp46
 70
     1
102
RTVSPost2010Prop47
 90
       50
102
RTVSPost2010PropOp47
 70
     1
102
RTVSPost2010Prop48
 90
       50
102
RTVSPost2010PropOp48
 70
     1
102
RTVSPost2010Prop49
280
     0
102
RTVSPost2010PropOp49
 70
     1
102
RTVSPost2010Prop50
 90
       50
102
RTVSPost2010PropOp50
 70
     1
102
RTVSPost2010Prop51ColorIndex
 90
      256
102
RTVSPost2010Prop51ColorRGB
 90
-16777216
102
RTVSPost2010PropOp51
 70
     0
102
RTVSPost2010Prop52
140
1.0
102
RTVSPost2010PropOp52
 70
     0
102
RTVSPost2010Prop53
 90
        2
102
RTVSPost2010PropOp53
 70
     1
102
RTVSPost2010Prop54
  1
strokes_ogs.tif
102
RTVSPost2010PropOp54
 70
     1
102
RTVSPost2010Prop55
280
     0
102
RTVSPost2010PropOp55
 70
     1
102
RTVSPost2010Prop56
140
1.0
102
RTVSPost2010PropOp56
 70
     1
102
RTVSPost2010Prop57
140
1.0
102
RTVSPost2010PropOp57
 70
     1
  0
XRECORD
  5
487
102
{ACAD_REACTORS
330
486
102
}
330
486
100
AcDbXrecord
280
     1
102
RTVSPost2010Prop28
280
     0
102
RTVSPost2010PropOp28
 70
     1
102
RTVSPost2010Prop29
280
     1
102
RTVSPost2010PropOp29
 70
     1
102
RTVSPost2010Prop30
280
     1
102
RTVSPost2010PropOp30
 70
     1
102
RTVSPost2010Prop31
280
     0
102
RTVSPost2010PropOp31
 70
     1
102
RTVSPost2010Prop32
280
     0
102
RTVSPost2010PropOp32
 70
     1
102
RTVSPost2010Prop33
280
     0
102
RTVSPost2010PropOp33
 70
     1
102
RTVSPost2010Prop34
280
     0
102
RTVSPost2010PropOp34
 70
     1
102
RTVSPost2010Prop35
280
     0
102
RTVSPost2010PropOp35
 70
     1
102
RTVSPost2010Prop36
280
     0
102
RTVSPost2010PropOp36
 70
     1
102
RTVSPost2010Prop37
 90
       50
102
RTVSPost2010PropOp37
 70
     1
102
RTVSPost2010Prop38
140
0.0
102
RTVSPost2010PropOp38
 70
     1
102
RTVSPost2010Prop39
140
1.0
102
RTVSPost2010PropOp39
 70
     1
102
RTVSPost2010Prop40
 90
        0
102
RTVSPost2010PropOp40
 70
     1
102
RTVSPost2010Prop41ColorIndex
 90
       18
102
RTVSPost2010Prop41ColorRGB
 90
        0
102
RTVSPost2010PropOp41
 70
     1
102
RTVSPost2010Prop42
 90
       50
102
RTVSPost2010PropOp42
 70
     1
102
RTVSPost2010Prop43
 90
        3
102
RTVSPost2010PropOp43
 70
     1
102
RTVSPost2010Prop44ColorIndex
 90
        5
102
RTVSPost2010Prop44ColorRGB
 90
      255
102
RTVSPost2010PropOp44
 70
     1
102
RTVSPost2010Prop45
280
     0
102
RTVSPost2010PropOp45
 70
     1
102
RTVSPost2010Prop46
 90
       50
102
RTVSPost2010PropOp46
 70
     1
102
RTVSPost2010Prop47
 90
       50
102
RTVSPost2010PropOp47
 70
     1
102
RTVSPost2010Prop48
 90
       50
102
RTVSPost2010PropOp48
 70
     1
102
RTVSPost2010Prop49
280
     0
102
RTVSPost2010PropOp49
 70
     1
102
RTVSPost2010Prop50
 90
       50
102
RTVSPost2010PropOp50
 70
     1
102
RTVSPost2010Prop51ColorIndex
 90
      256
102
RTVSPost2010Prop51ColorRGB
 90
-16777216
102
RTVSPost2010PropOp51
 70
     0
102
RTVSPost2010Prop52
140
1.0
102
RTVSPost2010PropOp52
 70
     0
102
RTVSPost2010Prop53
 90
        2
102
RTVSPost2010PropOp53
 70
     1
102
RTVSPost2010Prop54
  1
strokes_ogs.tif
102
RTVSPost2010PropOp54
 70
     1
102
RTVSPost2010Prop55
280
     0
102
RTVSPost2010PropOp55
 70
     1
102
RTVSPost2010Prop56
140
1.0
102
RTVSPost2010PropOp56
 70
     1
102
RTVSPost2010Prop57
140
1.0
102
RTVSPost2010PropOp57
 70
     1
  0
XRECORD
  5
481
102
{ACAD_REACTORS
330
480
102
}
330
480
100
AcDbXrecord
280
     1
102
RTVSPost2010Prop28
280
     0
102
RTVSPost2010PropOp28
 70
     1
102
RTVSPost2010Prop29
280
     1
102
RTVSPost2010PropOp29
 70
     1
102
RTVSPost2010Prop30
280
     1
102
RTVSPost2010PropOp30
 70
     1
102
RTVSPost2010Prop31
280
     0
102
RTVSPost2010PropOp31
 70
     1
102
RTVSPost2010Prop32
280
     0
102
RTVSPost2010PropOp32
 70
     1
102
RTVSPost2010Prop33
280
     0
102
RTVSPost2010PropOp33
 70
     1
102
RTVSPost2010Prop34
280
     0
102
RTVSPost2010PropOp34
 70
     1
102
RTVSPost2010Prop35
280
     0
102
RTVSPost2010PropOp35
 70
     1
102
RTVSPost2010Prop36
280
     0
102
RTVSPost2010PropOp36
 70
     1
102
RTVSPost2010Prop37
 90
       50
102
RTVSPost2010PropOp37
 70
     1
102
RTVSPost2010Prop38
140
0.0
102
RTVSPost2010PropOp38
 70
     1
102
RTVSPost2010Prop39
140
1.0
102
RTVSPost2010PropOp39
 70
     1
102
RTVSPost2010Prop40
 90
        0
102
RTVSPost2010PropOp40
 70
     1
102
RTVSPost2010Prop41ColorIndex
 90
       18
102
RTVSPost2010Prop41ColorRGB
 90
        0
102
RTVSPost2010PropOp41
 70
     1
102
RTVSPost2010Prop42
 90
       50
102
RTVSPost2010PropOp42
 70
     1
102
RTVSPost2010Prop43
 90
        3
102
RTVSPost2010PropOp43
 70
     1
102
RTVSPost2010Prop44ColorIndex
 90
        5
102
RTVSPost2010Prop44ColorRGB
 90
      255
102
RTVSPost2010PropOp44
 70
     1
102
RTVSPost2010Prop45
280
     0
102
RTVSPost2010PropOp45
 70
     1
102
RTVSPost2010Prop46
 90
       50
102
RTVSPost2010PropOp46
 70
     1
102
RTVSPost2010Prop47
 90
       50
102
RTVSPost2010PropOp47
 70
     1
102
RTVSPost2010Prop48
 90
       50
102
RTVSPost2010PropOp48
 70
     1
102
RTVSPost2010Prop49
280
     0
102
RTVSPost2010PropOp49
 70
     1
102
RTVSPost2010Prop50
 90
       50
102
RTVSPost2010PropOp50
 70
     1
102
RTVSPost2010Prop51ColorIndex
 90
      256
102
RTVSPost2010Prop51ColorRGB
 90
-16777216
102
RTVSPost2010PropOp51
 70
     0
102
RTVSPost2010Prop52
140
1.0
102
RTVSPost2010PropOp52
 70
     0
102
RTVSPost2010Prop53
 90
        2
102
RTVSPost2010PropOp53
 70
     1
102
RTVSPost2010Prop54
  1
strokes_ogs.tif
102
RTVSPost2010PropOp54
 70
     1
102
RTVSPost2010Prop55
280
     0
102
RTVSPost2010PropOp55
 70
     1
102
RTVSPost2010Prop56
140
1.0
102
RTVSPost2010PropOp56
 70
     1
102
RTVSPost2010Prop57
140
1.0
102
RTVSPost2010PropOp57
 70
     1
  0
XRECORD
  5
483
102
{ACAD_REACTORS
330
482
102
}
330
482
100
AcDbXrecord
280
     1
102
RTVSPost2010Prop28
280
     0
102
RTVSPost2010PropOp28
 70
     1
102
RTVSPost2010Prop29
280
     1
102
RTVSPost2010PropOp29
 70
     1
102
RTVSPost2010Prop30
280
     1
102
RTVSPost2010PropOp30
 70
     1
102
RTVSPost2010Prop31
280
     0
102
RTVSPost2010PropOp31
 70
     1
102
RTVSPost2010Prop32
280
     0
102
RTVSPost2010PropOp32
 70
     1
102
RTVSPost2010Prop33
280
     0
102
RTVSPost2010PropOp33
 70
     1
102
RTVSPost2010Prop34
280
     0
102
RTVSPost2010PropOp34
 70
     1
102
RTVSPost2010Prop35
280
     0
102
RTVSPost2010PropOp35
 70
     1
102
RTVSPost2010Prop36
280
     0
102
RTVSPost2010PropOp36
 70
     1
102
RTVSPost2010Prop37
 90
       50
102
RTVSPost2010PropOp37
 70
     1
102
RTVSPost2010Prop38
140
0.0
102
RTVSPost2010PropOp38
 70
     1
102
RTVSPost2010Prop39
140
1.0
102
RTVSPost2010PropOp39
 70
     1
102
RTVSPost2010Prop40
 90
        0
102
RTVSPost2010PropOp40
 70
     1
102
RTVSPost2010Prop41ColorIndex
 90
       18
102
RTVSPost2010Prop41ColorRGB
 90
        0
102
RTVSPost2010PropOp41
 70
     1
102
RTVSPost2010Prop42
 90
       50
102
RTVSPost2010PropOp42
 70
     1
102
RTVSPost2010Prop43
 90
        3
102
RTVSPost2010PropOp43
 70
     1
102
RTVSPost2010Prop44ColorIndex
 90
        5
102
RTVSPost2010Prop44ColorRGB
 90
      255
102
RTVSPost2010PropOp44
 70
     1
102
RTVSPost2010Prop45
280
     0
102
RTVSPost2010PropOp45
 70
     1
102
RTVSPost2010Prop46
 90
       50
102
RTVSPost2010PropOp46
 70
     1
102
RTVSPost2010Prop47
 90
       50
102
RTVSPost2010PropOp47
 70
     1
102
RTVSPost2010Prop48
 90
       50
102
RTVSPost2010PropOp48
 70
     1
102
RTVSPost2010Prop49
280
     0
102
RTVSPost2010PropOp49
 70
     1
102
RTVSPost2010Prop50
 90
       50
102
RTVSPost2010PropOp50
 70
     1
102
RTVSPost2010Prop51ColorIndex
 90
      256
102
RTVSPost2010Prop51ColorRGB
 90
-16777216
102
RTVSPost2010PropOp51
 70
     0
102
RTVSPost2010Prop52
140
1.0
102
RTVSPost2010PropOp52
 70
     0
102
RTVSPost2010Prop53
 90
        2
102
RTVSPost2010PropOp53
 70
     1
102
RTVSPost2010Prop54
  1
strokes_ogs.tif
102
RTVSPost2010PropOp54
 70
     1
102
RTVSPost2010Prop55
280
     0
102
RTVSPost2010PropOp55
 70
     1
102
RTVSPost2010Prop56
140
1.0
102
RTVSPost2010PropOp56
 70
     1
102
RTVSPost2010Prop57
140
1.0
102
RTVSPost2010PropOp57
 70
     1
  0
XRECORD
  5
473
102
{ACAD_REACTORS
330
472
102
}
330
472
100
AcDbXrecord
280
     1
102
RTVSPost2010Prop28
280
     0
102
RTVSPost2010PropOp28
 70
     1
102
RTVSPost2010Prop29
280
     1
102
RTVSPost2010PropOp29
 70
     1
102
RTVSPost2010Prop30
280
     1
102
RTVSPost2010PropOp30
 70
     1
102
RTVSPost2010Prop31
280
     0
102
RTVSPost2010PropOp31
 70
     1
102
RTVSPost2010Prop32
280
     0
102
RTVSPost2010PropOp32
 70
     1
102
RTVSPost2010Prop33
280
     0
102
RTVSPost2010PropOp33
 70
     1
102
RTVSPost2010Prop34
280
     0
102
RTVSPost2010PropOp34
 70
     1
102
RTVSPost2010Prop35
280
     0
102
RTVSPost2010PropOp35
 70
     1
102
RTVSPost2010Prop36
280
     0
102
RTVSPost2010PropOp36
 70
     1
102
RTVSPost2010Prop37
 90
       50
102
RTVSPost2010PropOp37
 70
     1
102
RTVSPost2010Prop38
140
0.0
102
RTVSPost2010PropOp38
 70
     1
102
RTVSPost2010Prop39
140
1.0
102
RTVSPost2010PropOp39
 70
     1
102
RTVSPost2010Prop40
 90
        0
102
RTVSPost2010PropOp40
 70
     1
102
RTVSPost2010Prop41ColorIndex
 90
       18
102
RTVSPost2010Prop41ColorRGB
 90
        0
102
RTVSPost2010PropOp41
 70
     1
102
RTVSPost2010Prop42
 90
       50
102
RTVSPost2010PropOp42
 70
     1
102
RTVSPost2010Prop43
 90
        3
102
RTVSPost2010PropOp43
 70
     1
102
RTVSPost2010Prop44ColorIndex
 90
        5
102
RTVSPost2010Prop44ColorRGB
 90
      255
102
RTVSPost2010PropOp44
 70
     1
102
RTVSPost2010Prop45
280
     0
102
RTVSPost2010PropOp45
 70
     1
102
RTVSPost2010Prop46
 90
       50
102
RTVSPost2010PropOp46
 70
     1
102
RTVSPost2010Prop47
 90
       50
102
RTVSPost2010PropOp47
 70
     1
102
RTVSPost2010Prop48
 90
       50
102
RTVSPost2010PropOp48
 70
     1
102
RTVSPost2010Prop49
280
     0
102
RTVSPost2010PropOp49
 70
     1
102
RTVSPost2010Prop50
 90
       50
102
RTVSPost2010PropOp50
 70
     1
102
RTVSPost2010Prop51ColorIndex
 90
      256
102
RTVSPost2010Prop51ColorRGB
 90
-16777216
102
RTVSPost2010PropOp51
 70
     0
102
RTVSPost2010Prop52
140
1.0
102
RTVSPost2010PropOp52
 70
     0
102
RTVSPost2010Prop53
 90
        2
102
RTVSPost2010PropOp53
 70
     1
102
RTVSPost2010Prop54
  1
strokes_ogs.tif
102
RTVSPost2010PropOp54
 70
     1
102
RTVSPost2010Prop55
280
     0
102
RTVSPost2010PropOp55
 70
     1
102
RTVSPost2010Prop56
140
1.0
102
RTVSPost2010PropOp56
 70
     1
102
RTVSPost2010Prop57
140
1.0
102
RTVSPost2010PropOp57
 70
     1
  0
XRECORD
  5
465
102
{ACAD_REACTORS
330
464
102
}
330
464
100
AcDbXrecord
280
     1
102
RTVSPost2010Prop28
280
     0
102
RTVSPost2010PropOp28
 70
     1
102
RTVSPost2010Prop29
280
     1
102
RTVSPost2010PropOp29
 70
     1
102
RTVSPost2010Prop30
280
     1
102
RTVSPost2010PropOp30
 70
     1
102
RTVSPost2010Prop31
280
     0
102
RTVSPost2010PropOp31
 70
     1
102
RTVSPost2010Prop32
280
     0
102
RTVSPost2010PropOp32
 70
     1
102
RTVSPost2010Prop33
280
     0
102
RTVSPost2010PropOp33
 70
     1
102
RTVSPost2010Prop34
280
     0
102
RTVSPost2010PropOp34
 70
     1
102
RTVSPost2010Prop35
280
     0
102
RTVSPost2010PropOp35
 70
     1
102
RTVSPost2010Prop36
280
     0
102
RTVSPost2010PropOp36
 70
     1
102
RTVSPost2010Prop37
 90
       50
102
RTVSPost2010PropOp37
 70
     1
102
RTVSPost2010Prop38
140
0.0
102
RTVSPost2010PropOp38
 70
     1
102
RTVSPost2010Prop39
140
1.0
102
RTVSPost2010PropOp39
 70
     1
102
RTVSPost2010Prop40
 90
        0
102
RTVSPost2010PropOp40
 70
     1
102
RTVSPost2010Prop41ColorIndex
 90
       18
102
RTVSPost2010Prop41ColorRGB
 90
        0
102
RTVSPost2010PropOp41
 70
     1
102
RTVSPost2010Prop42
 90
       50
102
RTVSPost2010PropOp42
 70
     1
102
RTVSPost2010Prop43
 90
        3
102
RTVSPost2010PropOp43
 70
     1
102
RTVSPost2010Prop44ColorIndex
 90
        5
102
RTVSPost2010Prop44ColorRGB
 90
      255
102
RTVSPost2010PropOp44
 70
     1
102
RTVSPost2010Prop45
280
     0
102
RTVSPost2010PropOp45
 70
     1
102
RTVSPost2010Prop46
 90
       50
102
RTVSPost2010PropOp46
 70
     1
102
RTVSPost2010Prop47
 90
       50
102
RTVSPost2010PropOp47
 70
     1
102
RTVSPost2010Prop48
 90
       50
102
RTVSPost2010PropOp48
 70
     1
102
RTVSPost2010Prop49
280
     0
102
RTVSPost2010PropOp49
 70
     1
102
RTVSPost2010Prop50
 90
       50
102
RTVSPost2010PropOp50
 70
     1
102
RTVSPost2010Prop51ColorIndex
 90
      256
102
RTVSPost2010Prop51ColorRGB
 90
-16777216
102
RTVSPost2010PropOp51
 70
     0
102
RTVSPost2010Prop52
140
1.0
102
RTVSPost2010PropOp52
 70
     0
102
RTVSPost2010Prop53
 90
        2
102
RTVSPost2010PropOp53
 70
     1
102
RTVSPost2010Prop54
  1
strokes_ogs.tif
102
RTVSPost2010PropOp54
 70
     1
102
RTVSPost2010Prop55
280
     0
102
RTVSPost2010PropOp55
 70
     1
102
RTVSPost2010Prop56
140
1.0
102
RTVSPost2010PropOp56
 70
     1
102
RTVSPost2010Prop57
140
1.0
102
RTVSPost2010PropOp57
 70
     1
  0
XRECORD
  5
485
102
{ACAD_REACTORS
330
484
102
}
330
484
100
AcDbXrecord
280
     1
102
RTVSPost2010Prop28
280
     0
102
RTVSPost2010PropOp28
 70
     1
102
RTVSPost2010Prop29
280
     1
102
RTVSPost2010PropOp29
 70
     1
102
RTVSPost2010Prop30
280
     1
102
RTVSPost2010PropOp30
 70
     1
102
RTVSPost2010Prop31
280
     0
102
RTVSPost2010PropOp31
 70
     1
102
RTVSPost2010Prop32
280
     0
102
RTVSPost2010PropOp32
 70
     1
102
RTVSPost2010Prop33
280
     0
102
RTVSPost2010PropOp33
 70
     1
102
RTVSPost2010Prop34
280
     0
102
RTVSPost2010PropOp34
 70
     1
102
RTVSPost2010Prop35
280
     0
102
RTVSPost2010PropOp35
 70
     1
102
RTVSPost2010Prop36
280
     0
102
RTVSPost2010PropOp36
 70
     1
102
RTVSPost2010Prop37
 90
       50
102
RTVSPost2010PropOp37
 70
     1
102
RTVSPost2010Prop38
140
0.0
102
RTVSPost2010PropOp38
 70
     1
102
RTVSPost2010Prop39
140
1.0
102
RTVSPost2010PropOp39
 70
     1
102
RTVSPost2010Prop40
 90
        0
102
RTVSPost2010PropOp40
 70
     1
102
RTVSPost2010Prop41ColorIndex
 90
       18
102
RTVSPost2010Prop41ColorRGB
 90
        0
102
RTVSPost2010PropOp41
 70
     1
102
RTVSPost2010Prop42
 90
       50
102
RTVSPost2010PropOp42
 70
     1
102
RTVSPost2010Prop43
 90
        3
102
RTVSPost2010PropOp43
 70
     1
102
RTVSPost2010Prop44ColorIndex
 90
        5
102
RTVSPost2010Prop44ColorRGB
 90
      255
102
RTVSPost2010PropOp44
 70
     1
102
RTVSPost2010Prop45
280
     0
102
RTVSPost2010PropOp45
 70
     1
102
RTVSPost2010Prop46
 90
       50
102
RTVSPost2010PropOp46
 70
     1
102
RTVSPost2010Prop47
 90
       50
102
RTVSPost2010PropOp47
 70
     1
102
RTVSPost2010Prop48
 90
       50
102
RTVSPost2010PropOp48
 70
     1
102
RTVSPost2010Prop49
280
     0
102
RTVSPost2010PropOp49
 70
     1
102
RTVSPost2010Prop50
 90
       50
102
RTVSPost2010PropOp50
 70
     1
102
RTVSPost2010Prop51ColorIndex
 90
      256
102
RTVSPost2010Prop51ColorRGB
 90
-16777216
102
RTVSPost2010PropOp51
 70
     0
102
RTVSPost2010Prop52
140
1.0
102
RTVSPost2010PropOp52
 70
     0
102
RTVSPost2010Prop53
 90
        2
102
RTVSPost2010PropOp53
 70
     1
102
RTVSPost2010Prop54
  1
strokes_ogs.tif
102
RTVSPost2010PropOp54
 70
     1
102
RTVSPost2010Prop55
280
     0
102
RTVSPost2010PropOp55
 70
     1
102
RTVSPost2010Prop56
140
1.0
102
RTVSPost2010PropOp56
 70
     1
102
RTVSPost2010Prop57
140
1.0
102
RTVSPost2010PropOp57
 70
     1
  0
ENDSEC
  0
EOF
