  0
SECTION
  2
HEADER
  9
$ACADVER
  1
AC1024
  9
$ACADMAINTVER
 70
     6
  9
$DWGCODEPAGE
  3
ANSI_932
  9
$INSBASE
 10
0.0
 20
0.0
 30
0.0
  9
$EXTMIN
 10
-2955.0
 20
-2026.921149907168
 30
0.0
  9
$EXTMAX
 10
2955.0
 20
2026.921149907168
 30
0.0
  9
$LIMMIN
 10
-1050.0
 20
-742.5
  9
$LIMMAX
 10
1050.0
 20
742.5
  9
$ORTHOMODE
 70
     0
  9
$REGENMODE
 70
     1
  9
$FILLMODE
 70
     1
  9
$QTEXTMODE
 70
     0
  9
$MIRRTEXT
 70
     1
  9
$LTSCALE
 40
1.25
  9
$ATTMODE
 70
     1
  9
$TEXTSIZE
 40
0.2
  9
$TRACEWID
 40
0.05
  9
$TEXTSTYLE
  7
Standard
  9
$CLAYER
  8
0
  9
$CELTYPE
  6
ByLayer
  9
$CECOLOR
 62
   256
  9
$CELTSCALE
 40
1.0
  9
$DISPSILH
 70
     0
  9
$DIMSCALE
 40
1.0
  9
$DIMASZ
 40
15.00000953674316
  9
$DIMEXO
 40
1.0
  9
$DIMDLI
 40
10.0
  9
$DIMRND
 40
0.0
  9
$DIMDLE
 40
0.0
  9
$DIMEXE
 40
1.0
  9
$DIMTP
 40
0.0
  9
$DIMTM
 40
0.0
  9
$DIMTXT
 40
20.0
  9
$DIMCEN
 40
0.0
  9
$DIMTSZ
 40
0.0
  9
$DIMTOL
 70
     0
  9
$DIMLIM
 70
     0
  9
$DIMTIH
 70
     0
  9
$DIMTOH
 70
     0
  9
$DIMSE1
 70
     0
  9
$DIMSE2
 70
     0
  9
$DIMTAD
 70
     1
  9
$DIMZIN
 70
     8
  9
$DIMBLK
  1

  9
$DIMASO
 70
     1
  9
$DIMSHO
 70
     1
  9
$DIMPOST
  1

  9
$DIMAPOST
  1

  9
$DIMALT
 70
     0
  9
$DIMALTD
 70
     2
  9
$DIMALTF
 40
0.0393700787401575
  9
$DIMLFAC
 40
1.0
  9
$DIMTOFL
 70
     0
  9
$DIMTVP
 40
0.0
  9
$DIMTIX
 70
     0
  9
$DIMSOXD
 70
     0
  9
$DIMSAH
 70
     0
  9
$DIMBLK1
  1

  9
$DIMBLK2
  1

  9
$DIMSTYLE
  2
Standard
  9
$DIMCLRD
 70
     0
  9
$DIMCLRE
 70
     0
  9
$DIMCLRT
 70
     0
  9
$DIMTFAC
 40
0.65
  9
$DIMGAP
 40
0.09
  9
$DIMJUST
 70
     0
  9
$DIMSD1
 70
     0
  9
$DIMSD2
 70
     0
  9
$DIMTOLJ
 70
     0
  9
$DIMTZIN
 70
     0
  9
$DIMALTZ
 70
     0
  9
$DIMALTTZ
 70
     0
  9
$DIMUPT
 70
     0
  9
$DIMDEC
 70
     5
  9
$DIMTDEC
 70
     5
  9
$DIMALTU
 70
     2
  9
$DIMALTTD
 70
     5
  9
$DIMTXSTY
  7
Standard
  9
$DIMAUNIT
 70
     0
  9
$DIMADEC
 70
     5
  9
$DIMALTRND
 40
0.0
  9
$DIMAZIN
 70
     2
  9
$DIMDSEP
 70
    46
  9
$DIMATFIT
 70
     3
  9
$DIMFRAC
 70
     0
  9
$DIMLDRBLK
  1

  9
$DIMLUNIT
 70
     2
  9
$DIMLWD
 70
    -2
  9
$DIMLWE
 70
    -2
  9
$DIMTMOVE
 70
     0
  9
$DIMFXL
 40
1.0
  9
$DIMFXLON
 70
     0
  9
$DIMJOGANG
 40
0.7853981633974483
  9
$DIMTFILL
 70
     0
  9
$DIMTFILLCLR
 70
     0
  9
$DIMARCSYM
 70
     1
  9
$DIMLTYPE
  6

  9
$DIMLTEX1
  6

  9
$DIMLTEX2
  6

  9
$DIMTXTDIRECTION
 70
     0
  9
$LUNITS
 70
     2
  9
$LUPREC
 70
     4
  9
$SKETCHINC
 40
0.1
  9
$FILLETRAD
 40
0.5
  9
$AUNITS
 70
     0
  9
$AUPREC
 70
     0
  9
$MENU
  1
.
  9
$ELEVATION
 40
0.0
  9
$PELEVATION
 40
0.0
  9
$THICKNESS
 40
0.0
  9
$LIMCHECK
 70
     0
  9
$CHAMFERA
 40
0.0
  9
$CHAMFERB
 40
0.0
  9
$CHAMFERC
 40
0.0
  9
$CHAMFERD
 40
0.0
  9
$SKPOLY
 70
     0
  9
$TDCREATE
 40
2458758.473697315
  9
$TDUCREATE
 40
2458758.098697315
  9
$TDUPDATE
 40
2458758.47369809
  9
$TDUUPDATE
 40
2458758.09869809
  9
$TDINDWG
 40
0.0000000116
  9
$TDUSRTIMER
 40
0.0000000116
  9
$USRTIMER
 70
     1
  9
$ANGBASE
 50
0.0
  9
$ANGDIR
 70
     0
  9
$PDMODE
 70
     0
  9
$PDSIZE
 40
1.0
  9
$PLINEWID
 40
0.0
  9
$SPLFRAME
 70
     0
  9
$SPLINETYPE
 70
     6
  9
$SPLINESEGS
 70
     8
  9
$HANDSEED
  5
501
  9
$SURFTAB1
 70
     6
  9
$SURFTAB2
 70
     6
  9
$SURFTYPE
 70
     6
  9
$SURFU
 70
     6
  9
$SURFV
 70
     6
  9
$UCSBASE
  2

  9
$UCSNAME
  2

  9
$UCSORG
 10
0.0
 20
0.0
 30
0.0
  9
$UCSXDIR
 10
1.0
 20
0.0
 30
0.0
  9
$UCSYDIR
 10
0.0
 20
1.0
 30
0.0
  9
$UCSORTHOREF
  2

  9
$UCSORTHOVIEW
 70
     0
  9
$UCSORGTOP
 10
0.0
 20
0.0
 30
0.0
  9
$UCSORGBOTTOM
 10
0.0
 20
0.0
 30
0.0
  9
$UCSORGLEFT
 10
0.0
 20
0.0
 30
0.0
  9
$UCSORGRIGHT
 10
0.0
 20
0.0
 30
0.0
  9
$UCSORGFRONT
 10
0.0
 20
0.0
 30
0.0
  9
$UCSORGBACK
 10
0.0
 20
0.0
 30
0.0
  9
$PUCSBASE
  2

  9
$PUCSNAME
  2

  9
$PUCSORG
 10
0.0
 20
0.0
 30
0.0
  9
$PUCSXDIR
 10
1.0
 20
0.0
 30
0.0
  9
$PUCSYDIR
 10
0.0
 20
1.0
 30
0.0
  9
$PUCSORTHOREF
  2

  9
$PUCSORTHOVIEW
 70
     0
  9
$PUCSORGTOP
 10
0.0
 20
0.0
 30
0.0
  9
$PUCSORGBOTTOM
 10
0.0
 20
0.0
 30
0.0
  9
$PUCSORGLEFT
 10
0.0
 20
0.0
 30
0.0
  9
$PUCSORGRIGHT
 10
0.0
 20
0.0
 30
0.0
  9
$PUCSORGFRONT
 10
0.0
 20
0.0
 30
0.0
  9
$PUCSORGBACK
 10
0.0
 20
0.0
 30
0.0
  9
$USERI1
 70
     0
  9
$USERI2
 70
     0
  9
$USERI3
 70
     0
  9
$USERI4
 70
     0
  9
$USERI5
 70
     0
  9
$USERR1
 40
0.0
  9
$USERR2
 40
0.0
  9
$USERR3
 40
0.0
  9
$USERR4
 40
0.0
  9
$USERR5
 40
0.0
  9
$WORLDVIEW
 70
     1
  9
$SHADEDGE
 70
     3
  9
$SHADEDIF
 70
    70
  9
$TILEMODE
 70
     1
  9
$MAXACTVP
 70
    64
  9
$PINSBASE
 10
0.0
 20
0.0
 30
0.0
  9
$PLIMCHECK
 70
     0
  9
$PEXTMIN
 10
1.000000000000000E+20
 20
1.000000000000000E+20
 30
1.000000000000000E+20
  9
$PEXTMAX
 10
-1.000000000000000E+20
 20
-1.000000000000000E+20
 30
-1.000000000000000E+20
  9
$PLIMMIN
 10
0.0
 20
0.0
  9
$PLIMMAX
 10
12.0
 20
9.0
  9
$UNITMODE
 70
     0
  9
$VISRETAIN
 70
     0
  9
$PLINEGEN
 70
     1
  9
$PSLTSCALE
 70
     0
  9
$TREEDEPTH
 70
  3020
  9
$CMLSTYLE
  2
Standard
  9
$CMLJUST
 70
     0
  9
$CMLSCALE
 40
1.0
  9
$PROXYGRAPHICS
 70
     0
  9
$MEASUREMENT
 70
     1
  9
$CELWEIGHT
370
    -1
  9
$ENDCAPS
280
     0
  9
$JOINSTYLE
280
     0
  9
$LWDISPLAY
290
     1
  9
$INSUNITS
 70
     4
  9
$HYPERLINKBASE
  1

  9
$STYLESHEET
  1

  9
$XEDIT
290
     1
  9
$CEPSNTYPE
380
     0
  9
$PSTYLEMODE
290
     1
  9
$FINGERPRINTGUID
  2
{0B31C74B-11E3-471A-8D2F-21392153272F}
  9
$VERSIONGUID
  2
{FAEB1C32-E019-11D5-929B-00C0DF256EC4}
  9
$EXTNAMES
290
     1
  9
$PSVPSCALE
 40
0.0
  9
$OLESTARTUP
290
     0
  9
$SORTENTS
280
   127
  9
$INDEXCTL
280
     0
  9
$HIDETEXT
280
     1
  9
$XCLIPFRAME
280
     2
  9
$HALOGAP
280
     0
  9
$OBSCOLOR
 70
   257
  9
$OBSLTYPE
280
     0
  9
$INTERSECTIONDISPLAY
280
     0
  9
$INTERSECTIONCOLOR
 70
   257
  9
$DIMASSOC
280
     2
  9
$PROJECTNAME
  1

  9
$CAMERADISPLAY
290
     0
  9
$LENSLENGTH
 40
50.0
  9
$CAMERAHEIGHT
 40
0.0
  9
$STEPSPERSEC
 40
2.0
  9
$STEPSIZE
 40
6.0
  9
$3DDWFPREC
 40
2.0
  9
$PSOLWIDTH
 40
0.25
  9
$PSOLHEIGHT
 40
4.0
  9
$LOFTANG1
 40
1.570796326794897
  9
$LOFTANG2
 40
1.570796326794897
  9
$LOFTMAG1
 40
0.0
  9
$LOFTMAG2
 40
0.0
  9
$LOFTPARAM
 70
     7
  9
$LOFTNORMALS
280
     1
  9
$LATITUDE
 40
37.795
  9
$LONGITUDE
 40
-122.394
  9
$NORTHDIRECTION
 40
0.0
  9
$TIMEZONE
 70
 -8000
  9
$LIGHTGLYPHDISPLAY
280
     1
  9
$TILEMODELIGHTSYNCH
280
     1
  9
$CMATERIAL
347
44
  9
$SOLIDHIST
280
     1
  9
$SHOWHIST
280
     1
  9
$DWFFRAME
280
     2
  9
$DGNFRAME
280
     2
  9
$REALWORLDSCALE
290
     1
  9
$INTERFERECOLOR
 62
   256
  9
$CSHADOW
280
     0
  9
$SHADOWPLANELOCATION
 40
0.0
  0
ENDSEC
  0
SECTION
  2
CLASSES
  0
CLASS
  1
ACDBDICTIONARYWDFLT
  2
AcDbDictionaryWithDefault
  3
ObjectDBX Classes
 90
        0
 91
        4
280
     0
281
     0
  0
CLASS
  1
VISUALSTYLE
  2
AcDbVisualStyle
  3
ObjectDBX Classes
 90
     4095
 91
        4
280
     0
281
     0
  0
CLASS
  1
MATERIAL
  2
AcDbMaterial
  3
ObjectDBX Classes
 90
     1153
 91
        4
280
     0
281
     0
  0
CLASS
  1
SCALE
  2
AcDbScale
  3
ObjectDBX Classes
 90
     1153
 91
        4
280
     0
281
     0
  0
CLASS
  1
SUN
  2
AcDbSun
  3
SCENEOE
 90
     1153
 91
        4
280
     0
281
     0
  0
CLASS
  1
DICTIONARYVAR
  2
AcDbDictionaryVar
  3
ObjectDBX Classes
 90
        0
 91
        4
280
     0
281
     0
  0
ENDSEC
  0
SECTION
  2
TABLES
  0
TABLE
  2
VPORT
  5
8
330
0
100
AcDbSymbolTable
 70
     1
  0
VPORT
  5
29
330
8
100
AcDbSymbolTableRecord
100
AcDbViewportTableRecord
  2
*Active
 70
     0
 10
0.0
 20
0.0
 11
1.0
 21
1.0
 12
0.0
 22
0.0
 13
0.0
 23
0.0
 14
0.5
 24
0.5
 15
0.5
 25
0.5
 16
0.0
 26
0.0
 36
1.0
 17
-0.0000000000000036
 27
0.0
 37
0.0
 40
1378.306381936874
 41
1.457876148825689
 42
50.0
 43
0.0
 44
0.0
 50
0.0
 51
0.0
 71
     0
 72
  1000
 73
     1
 74
     1
 75
     0
 76
     0
 77
     0
 78
     0
281
     0
 65
     1
110
0.0
120
0.0
130
0.0
111
1.0
121
0.0
131
0.0
112
0.0
122
1.0
132
0.0
 79
     0
146
0.0
 60
     3
 61
     5
292
     1
282
     1
141
0.0
142
0.0
 63
   250
361
69
  0
ENDTAB
  0
TABLE
  2
LTYPE
  5
5
330
0
100
AcDbSymbolTable
 70
    67
  0
LTYPE
  5
14
330
5
100
AcDbSymbolTableRecord
100
AcDbLinetypeTableRecord
  2
ByBlock
 70
     0
  3

 72
    65
 73
     0
 40
0.0
  0
LTYPE
  5
15
330
5
100
AcDbSymbolTableRecord
100
AcDbLinetypeTableRecord
  2
ByLayer
 70
     0
  3

 72
    65
 73
     0
 40
0.0
  0
LTYPE
  5
16
330
5
100
AcDbSymbolTableRecord
100
AcDbLinetypeTableRecord
  2
Continuous
 70
     0
  3
Solid line
 72
    65
 73
     0
 40
0.0
  0
LTYPE
  5
6B
330
5
100
AcDbSymbolTableRecord
100
AcDbLinetypeTableRecord
  2
HIDDENX2
 70
     0
  3
Hidden (2x) ____ ____ ____ ____ ____ ____ ____ 
 72
    65
 73
     2
 40
19.05
 49
12.7
 74
     0
 49
-6.35
 74
     0
  0
LTYPE
  5
6C
330
5
100
AcDbSymbolTableRecord
100
AcDbLinetypeTableRecord
  2
HIDDEN
 70
     0
  3
Hidden __ __ __ __ __ __ __ __ __ __ __ __ __ __
 72
    65
 73
     2
 40
9.524999999999999
 49
6.35
 74
     0
 49
-3.175
 74
     0
  0
LTYPE
  5
6D
330
5
100
AcDbSymbolTableRecord
100
AcDbLinetypeTableRecord
  2
HIDDEN2
 70
     0
  3
Hidden (.5x) _ _ _ _ _ _ _ _ _ _ _ _ _ _ _ _ _ 
 72
    65
 73
     2
 40
4.762499999999999
 49
3.175
 74
     0
 49
-1.5875
 74
     0
  0
LTYPE
  5
6E
330
5
100
AcDbSymbolTableRecord
100
AcDbLinetypeTableRecord
  2
DASHED
 70
     0
  3
Dashed __ __ __ __ __ __ __ __ __ __ __ __ __ _
 72
    65
 73
     2
 40
19.05
 49
12.7
 74
     0
 49
-6.35
 74
     0
  0
LTYPE
  5
6F
330
5
100
AcDbSymbolTableRecord
100
AcDbLinetypeTableRecord
  2
DASHED2
 70
     0
  3
Dashed (.5x) _ _ _ _ _ _ _ _ _ _ _ _ _ _ _ _ _ 
 72
    65
 73
     2
 40
9.524999999999999
 49
6.35
 74
     0
 49
-3.175
 74
     0
  0
LTYPE
  5
70
330
5
100
AcDbSymbolTableRecord
100
AcDbLinetypeTableRecord
  2
DASHEDX2
 70
     0
  3
Dashed (2x) ____  ____  ____  ____  ____  ___
 72
    65
 73
     2
 40
38.09999999999999
 49
25.4
 74
     0
 49
-12.7
 74
     0
  0
LTYPE
  5
71
330
5
100
AcDbSymbolTableRecord
100
AcDbLinetypeTableRecord
  2
DOTX2
 70
     0
  3
Dot (2x) .  .  .  .  .  .  .  .  .  .  .  .  .  .
 72
    65
 73
     2
 40
12.7
 49
0.0
 74
     0
 49
-12.7
 74
     0
  0
LTYPE
  5
72
330
5
100
AcDbSymbolTableRecord
100
AcDbLinetypeTableRecord
  2
DOT
 70
     0
  3
Dot . . . . . . . . . . . . . . . . . . . . . . . .
 72
    65
 73
     2
 40
6.35
 49
0.0
 74
     0
 49
-6.35
 74
     0
  0
LTYPE
  5
73
330
5
100
AcDbSymbolTableRecord
100
AcDbLinetypeTableRecord
  2
DOT2
 70
     0
  3
Dot (.5x) ........................................
 72
    65
 73
     2
 40
3.175
 49
0.0
 74
     0
 49
-3.175
 74
     0
  0
LTYPE
  5
74
330
5
100
AcDbSymbolTableRecord
100
AcDbLinetypeTableRecord
  2
CENTERX2
 70
     0
  3
Center (2x) ________  __  ________  __  _____
 72
    65
 73
     4
 40
101.6
 49
63.5
 74
     0
 49
-12.7
 74
     0
 49
12.7
 74
     0
 49
-12.7
 74
     0
  0
LTYPE
  5
75
330
5
100
AcDbSymbolTableRecord
100
AcDbLinetypeTableRecord
  2
CENTER
 70
     0
  3
Center ____ _ ____ _ ____ _ ____ _ ____ _ ____
 72
    65
 73
     4
 40
50.8
 49
31.75
 74
     0
 49
-6.35
 74
     0
 49
6.35
 74
     0
 49
-6.35
 74
     0
  0
LTYPE
  5
76
330
5
100
AcDbSymbolTableRecord
100
AcDbLinetypeTableRecord
  2
CENTER2
 70
     0
  3
Center (.5x) ___ _ ___ _ ___ _ ___ _ ___ _ ___
 72
    65
 73
     4
 40
28.575
 49
19.05
 74
     0
 49
-3.175
 74
     0
 49
3.175
 74
     0
 49
-3.175
 74
     0
  0
LTYPE
  5
77
330
5
100
AcDbSymbolTableRecord
100
AcDbLinetypeTableRecord
  2
DASHDOTX2
 70
     0
  3
Dash dot (2x) ____  .  ____  .  ____  .  ___
 72
    65
 73
     4
 40
50.8
 49
25.4
 74
     0
 49
-12.7
 74
     0
 49
0.0
 74
     0
 49
-12.7
 74
     0
  0
LTYPE
  5
78
330
5
100
AcDbSymbolTableRecord
100
AcDbLinetypeTableRecord
  2
DASHDOT
 70
     0
  3
Dash dot __ . __ . __ . __ . __ . __ . __ . __
 72
    65
 73
     4
 40
25.4
 49
12.7
 74
     0
 49
-6.35
 74
     0
 49
0.0
 74
     0
 49
-6.35
 74
     0
  0
LTYPE
  5
79
330
5
100
AcDbSymbolTableRecord
100
AcDbLinetypeTableRecord
  2
DASHDOT2
 70
     0
  3
Dash dot (.5x) _._._._._._._._._._._._._._._.
 72
    65
 73
     4
 40
12.7
 49
6.35
 74
     0
 49
-3.175
 74
     0
 49
0.0
 74
     0
 49
-3.175
 74
     0
  0
LTYPE
  5
7A
330
5
100
AcDbSymbolTableRecord
100
AcDbLinetypeTableRecord
  2
DIVIDEX2
 70
     0
  3
Divide (2x) ________  .  .  ________  .  .  _
 72
    65
 73
     6
 40
63.5
 49
25.4
 74
     0
 49
-12.7
 74
     0
 49
0.0
 74
     0
 49
-12.7
 74
     0
 49
0.0
 74
     0
 49
-12.7
 74
     0
  0
LTYPE
  5
7B
330
5
100
AcDbSymbolTableRecord
100
AcDbLinetypeTableRecord
  2
DIVIDE
 70
     0
  3
Divide ____ . . ____ . . ____ . . ____ . . ____
 72
    65
 73
     6
 40
31.75
 49
12.7
 74
     0
 49
-6.35
 74
     0
 49
0.0
 74
     0
 49
-6.35
 74
     0
 49
0.0
 74
     0
 49
-6.35
 74
     0
  0
LTYPE
  5
7C
330
5
100
AcDbSymbolTableRecord
100
AcDbLinetypeTableRecord
  2
DIVIDE2
 70
     0
  3
Divide (.5x) __..__..__..__..__..__..__..__.._
 72
    65
 73
     6
 40
15.875
 49
6.35
 74
     0
 49
-3.175
 74
     0
 49
0.0
 74
     0
 49
-3.175
 74
     0
 49
0.0
 74
     0
 49
-3.175
 74
     0
  0
LTYPE
  5
7D
330
5
100
AcDbSymbolTableRecord
100
AcDbLinetypeTableRecord
  2
BORDERX2
 70
     0
  3
Border (2x) ____  ____  .  ____  ____  .  ___
 72
    65
 73
     6
 40
88.89999999999999
 49
25.4
 74
     0
 49
-12.7
 74
     0
 49
25.4
 74
     0
 49
-12.7
 74
     0
 49
0.0
 74
     0
 49
-12.7
 74
     0
  0
LTYPE
  5
7E
330
5
100
AcDbSymbolTableRecord
100
AcDbLinetypeTableRecord
  2
BORDER
 70
     0
  3
Border __ __ . __ __ . __ __ . __ __ . __ __ .
 72
    65
 73
     6
 40
44.45
 49
12.7
 74
     0
 49
-6.35
 74
     0
 49
12.7
 74
     0
 49
-6.35
 74
     0
 49
0.0
 74
     0
 49
-6.35
 74
     0
  0
LTYPE
  5
7F
330
5
100
AcDbSymbolTableRecord
100
AcDbLinetypeTableRecord
  2
BORDER2
 70
     0
  3
Border (.5x) __.__.__.__.__.__.__.__.__.__.__.
 72
    65
 73
     6
 40
22.225
 49
6.35
 74
     0
 49
-3.175
 74
     0
 49
6.35
 74
     0
 49
-3.175
 74
     0
 49
0.0
 74
     0
 49
-3.175
 74
     0
  0
LTYPE
  5
80
330
5
100
AcDbSymbolTableRecord
100
AcDbLinetypeTableRecord
  2
PHANTOMX2
 70
     0
  3
Phantom (2x) ____________    ____    ____   _
 72
    65
 73
     6
 40
127.0
 49
63.5
 74
     0
 49
-12.7
 74
     0
 49
12.7
 74
     0
 49
-12.7
 74
     0
 49
12.7
 74
     0
 49
-12.7
 74
     0
  0
LTYPE
  5
81
330
5
100
AcDbSymbolTableRecord
100
AcDbLinetypeTableRecord
  2
PHANTOM
 70
     0
  3
Phantom ______  __  __  ______  __  __  ______ 
 72
    65
 73
     6
 40
63.5
 49
31.75
 74
     0
 49
-6.35
 74
     0
 49
6.35
 74
     0
 49
-6.35
 74
     0
 49
6.35
 74
     0
 49
-6.35
 74
     0
  0
LTYPE
  5
82
330
5
100
AcDbSymbolTableRecord
100
AcDbLinetypeTableRecord
  2
PHANTOM2
 70
     0
  3
Phantom (.5x) ___ _ _ ___ _ _ ___ _ _ ___ _ _
 72
    65
 73
     6
 40
31.75
 49
15.875
 74
     0
 49
-3.175
 74
     0
 49
3.175
 74
     0
 49
-3.175
 74
     0
 49
3.175
 74
     0
 49
-3.175
 74
     0
  0
LTYPE
  5
83
330
5
100
AcDbSymbolTableRecord
100
AcDbLinetypeTableRecord
  2
ACAD_ISO06W100
 70
     0
  3
ISO long-dash triple-dot ____ ... ____ ... ____
 72
    65
 73
     8
 40
36.0
 49
24.0
 74
     0
 49
-3.0
 74
     0
 49
0.0
 74
     0
 49
-3.0
 74
     0
 49
0.0
 74
     0
 49
-3.0
 74
     0
 49
0.0
 74
     0
 49
-3.0
 74
     0
  0
LTYPE
  5
84
330
5
100
AcDbSymbolTableRecord
100
AcDbLinetypeTableRecord
  2
ACAD_ISO13W100
 70
     0
  3
ISO double-dash double-dot __ __ . . __ __ . . _
 72
    65
 73
     8
 40
36.0
 49
12.0
 74
     0
 49
-3.0
 74
     0
 49
12.0
 74
     0
 49
-3.0
 74
     0
 49
0.0
 74
     0
 49
-3.0
 74
     0
 49
0.0
 74
     0
 49
-3.0
 74
     0
  0
LTYPE
  5
85
330
5
100
AcDbSymbolTableRecord
100
AcDbLinetypeTableRecord
  2
ACAD_ISO14W100
 70
     0
  3
ISO dash triple-dot __ . . . __ . . . __ . . . _
 72
    65
 73
     8
 40
24.0
 49
12.0
 74
     0
 49
-3.0
 74
     0
 49
0.0
 74
     0
 49
-3.0
 74
     0
 49
0.0
 74
     0
 49
-3.0
 74
     0
 49
0.0
 74
     0
 49
-3.0
 74
     0
  0
LTYPE
  5
86
330
5
100
AcDbSymbolTableRecord
100
AcDbLinetypeTableRecord
  2
ACAD_ISO02W100
 70
     0
  3
ISO dash __ __ __ __ __ __ __ __ __ __ __ __ __
 72
    65
 73
     2
 40
15.0
 49
12.0
 74
     0
 49
-3.0
 74
     0
  0
LTYPE
  5
87
330
5
100
AcDbSymbolTableRecord
100
AcDbLinetypeTableRecord
  2
ACAD_ISO03W100
 70
     0
  3
ISO dash space __    __    __    __    __    __
 72
    65
 73
     2
 40
30.0
 49
12.0
 74
     0
 49
-18.0
 74
     0
  0
LTYPE
  5
88
330
5
100
AcDbSymbolTableRecord
100
AcDbLinetypeTableRecord
  2
ACAD_ISO04W100
 70
     0
  3
ISO long-dash dot ____ . ____ . ____ . ____ . _
 72
    65
 73
     4
 40
30.0
 49
24.0
 74
     0
 49
-3.0
 74
     0
 49
0.0
 74
     0
 49
-3.0
 74
     0
  0
LTYPE
  5
89
330
5
100
AcDbSymbolTableRecord
100
AcDbLinetypeTableRecord
  2
ACAD_ISO05W100
 70
     0
  3
ISO long-dash double-dot ____ .. ____ .. ____ . 
 72
    65
 73
     6
 40
33.0
 49
24.0
 74
     0
 49
-3.0
 74
     0
 49
0.0
 74
     0
 49
-3.0
 74
     0
 49
0.0
 74
     0
 49
-3.0
 74
     0
  0
LTYPE
  5
8A
330
5
100
AcDbSymbolTableRecord
100
AcDbLinetypeTableRecord
  2
ACAD_ISO07W100
 70
     0
  3
ISO dot . . . . . . . . . . . . . . . . . . . . 
 72
    65
 73
     2
 40
3.0
 49
0.0
 74
     0
 49
-3.0
 74
     0
  0
LTYPE
  5
8B
330
5
100
AcDbSymbolTableRecord
100
AcDbLinetypeTableRecord
  2
ACAD_ISO08W100
 70
     0
  3
ISO long-dash short-dash ____ __ ____ __ ____ _
 72
    65
 73
     4
 40
36.0
 49
24.0
 74
     0
 49
-3.0
 74
     0
 49
6.0
 74
     0
 49
-3.0
 74
     0
  0
LTYPE
  5
8C
330
5
100
AcDbSymbolTableRecord
100
AcDbLinetypeTableRecord
  2
ACAD_ISO09W100
 70
     0
  3
ISO long-dash double-short-dash ____ __ __ ____
 72
    65
 73
     6
 40
45.0
 49
24.0
 74
     0
 49
-3.0
 74
     0
 49
6.0
 74
     0
 49
-3.0
 74
     0
 49
6.0
 74
     0
 49
-3.0
 74
     0
  0
LTYPE
  5
8D
330
5
100
AcDbSymbolTableRecord
100
AcDbLinetypeTableRecord
  2
ACAD_ISO10W100
 70
     0
  3
ISO dash dot __ . __ . __ . __ . __ . __ . __ . 
 72
    65
 73
     4
 40
18.0
 49
12.0
 74
     0
 49
-3.0
 74
     0
 49
0.0
 74
     0
 49
-3.0
 74
     0
  0
LTYPE
  5
8E
330
5
100
AcDbSymbolTableRecord
100
AcDbLinetypeTableRecord
  2
ACAD_ISO11W100
 70
     0
  3
ISO double-dash dot __ __ . __ __ . __ __ . __ _
 72
    65
 73
     6
 40
33.0
 49
12.0
 74
     0
 49
-3.0
 74
     0
 49
12.0
 74
     0
 49
-3.0
 74
     0
 49
0.0
 74
     0
 49
-3.0
 74
     0
  0
LTYPE
  5
8F
330
5
100
AcDbSymbolTableRecord
100
AcDbLinetypeTableRecord
  2
ACAD_ISO12W100
 70
     0
  3
ISO dash double-dot __ . . __ . . __ . . __ . . 
 72
    65
 73
     6
 40
21.0
 49
12.0
 74
     0
 49
-3.0
 74
     0
 49
0.0
 74
     0
 49
-3.0
 74
     0
 49
0.0
 74
     0
 49
-3.0
 74
     0
  0
LTYPE
  5
90
330
5
100
AcDbSymbolTableRecord
100
AcDbLinetypeTableRecord
  2
ACAD_ISO15W100
 70
     0
  3
ISO double-dash triple-dot __ __ . . . __ __ . .
 72
    65
 73
    10
 40
39.0
 49
12.0
 74
     0
 49
-3.0
 74
     0
 49
12.0
 74
     0
 49
-3.0
 74
     0
 49
0.0
 74
     0
 49
-3.0
 74
     0
 49
0.0
 74
     0
 49
-3.0
 74
     0
 49
0.0
 74
     0
 49
-3.0
 74
     0
  0
LTYPE
  5
91
330
5
100
AcDbSymbolTableRecord
100
AcDbLinetypeTableRecord
  2
JIS_02_0.7
 70
     0
  3
HIDDEN0.75 _ _ _ _ _ _ _ _ _ _ _ _ _ _ _ _ _ 
 72
    65
 73
     2
 40
1.35
 49
0.75
 74
     0
 49
-0.6
 74
     0
  0
LTYPE
  5
92
330
5
100
AcDbSymbolTableRecord
100
AcDbLinetypeTableRecord
  2
JIS_02_1.0
 70
     0
  3
HIDDEN01 _ _ _ _ _ _ _ _ _ _ _ _ _ _ _ _ _ 
 72
    65
 73
     2
 40
2.0
 49
1.0
 74
     0
 49
-1.0
 74
     0
  0
LTYPE
  5
93
330
5
100
AcDbSymbolTableRecord
100
AcDbLinetypeTableRecord
  2
JIS_02_1.2
 70
     0
  3
HIDDEN01.25  _ _ _ _ _ _ _ _ _ _ _ _ _ _ _ _ _ 
 72
    65
 73
     2
 40
2.5
 49
1.25
 74
     0
 49
-1.25
 74
     0
  0
LTYPE
  5
94
330
5
100
AcDbSymbolTableRecord
100
AcDbLinetypeTableRecord
  2
JIS_02_2.0
 70
     0
  3
HIDDEN02 __ __ __ __ __ __ __ __ __ __ __ 
 72
    65
 73
     2
 40
3.0
 49
2.0
 74
     0
 49
-1.0
 74
     0
  0
LTYPE
  5
95
330
5
100
AcDbSymbolTableRecord
100
AcDbLinetypeTableRecord
  2
JIS_02_4.0
 70
     0
  3
HIDDEN04 ____ ____ ____ ____ ____ ____ ____ 
 72
    65
 73
     2
 40
5.5
 49
4.0
 74
     0
 49
-1.5
 74
     0
  0
LTYPE
  5
96
330
5
100
AcDbSymbolTableRecord
100
AcDbLinetypeTableRecord
  2
JIS_08_11
 70
     0
  3
1SASEN11 ___ _ ___ _ ___ _ ___ _ ___ _ ___
 72
    65
 73
     4
 40
12.8
 49
11.0
 74
     0
 49
-0.6
 74
     0
 49
0.6
 74
     0
 49
-0.6
 74
     0
  0
LTYPE
  5
97
330
5
100
AcDbSymbolTableRecord
100
AcDbLinetypeTableRecord
  2
JIS_08_15
 70
     0
  3
1SASEN15 ____ _ ____ _ ____ _ ____ _ ____ 
 72
    65
 73
     4
 40
17.25
 49
15.0
 74
     0
 49
-0.75
 74
     0
 49
0.75
 74
     0
 49
-0.75
 74
     0
  0
LTYPE
  5
98
330
5
100
AcDbSymbolTableRecord
100
AcDbLinetypeTableRecord
  2
JIS_08_25
 70
     0
  3
1SASEN25 ________  __  ________  __  _____
 72
    65
 73
     4
 40
28.0
 49
25.0
 74
     0
 49
-1.125
 74
     0
 49
0.75
 74
     0
 49
-1.125
 74
     0
  0
LTYPE
  5
99
330
5
100
AcDbSymbolTableRecord
100
AcDbLinetypeTableRecord
  2
JIS_08_37
 70
     0
  3
1SASEN37 ________  __  ________  __  _____
 72
    65
 73
     4
 40
40.5
 49
37.5
 74
     0
 49
-1.125
 74
     0
 49
0.75
 74
     0
 49
-1.125
 74
     0
  0
LTYPE
  5
9A
330
5
100
AcDbSymbolTableRecord
100
AcDbLinetypeTableRecord
  2
JIS_08_50
 70
     0
  3
1SASEN50 _______________  __  ____________
 72
    65
 73
     4
 40
53.0
 49
50.0
 74
     0
 49
-1.125
 74
     0
 49
0.75
 74
     0
 49
-1.125
 74
     0
  0
LTYPE
  5
9B
330
5
100
AcDbSymbolTableRecord
100
AcDbLinetypeTableRecord
  2
JIS_09_08
 70
     0
  3
2SASEN8 __ _ _ __ _ _ __ _ _ __ _ _ __ _ _ 
 72
    65
 73
     6
 40
10.75
 49
8.0
 74
     0
 49
-0.55
 74
     0
 49
0.55
 74
     0
 49
-0.55
 74
     0
 49
0.55
 74
     0
 49
-0.55
 74
     0
  0
LTYPE
  5
9C
330
5
100
AcDbSymbolTableRecord
100
AcDbLinetypeTableRecord
  2
JIS_09_15
 70
     0
  3
2SASEN15 ___ _ _ ___ _ _ ___ _ _ ___ _ _ ___ 
 72
    65
 73
     6
 40
18.9
 49
15.0
 74
     0
 49
-0.9
 74
     0
 49
0.6
 74
     0
 49
-0.9
 74
     0
 49
0.6
 74
     0
 49
-0.9
 74
     0
  0
LTYPE
  5
9D
330
5
100
AcDbSymbolTableRecord
100
AcDbLinetypeTableRecord
  2
JIS_09_29
 70
     0
  3
2SASEN29 ______　__  __  ______　__  __  ___
 72
    65
 73
     6
 40
34.0
 49
29.0
 74
     0
 49
-1.2
 74
     0
 49
0.7
 74
     0
 49
-1.2
 74
     0
 49
0.7
 74
     0
 49
-1.2
 74
     0
  0
LTYPE
  5
9E
330
5
100
AcDbSymbolTableRecord
100
AcDbLinetypeTableRecord
  2
JIS_09_50
 70
     0
  3
2SASEN50 ____________　__  __  _____________
 72
    65
 73
     6
 40
55.0
 49
50.0
 74
     0
 49
-1.2
 74
     0
 49
0.7
 74
     0
 49
-1.2
 74
     0
 49
0.7
 74
     0
 49
-1.2
 74
     0
  0
LTYPE
  5
9F
330
5
100
AcDbSymbolTableRecord
100
AcDbLinetypeTableRecord
  2
SXF_破線
 70
     0
  3
02 dashed -- -- -- -- -- --
 72
    65
 73
     2
 40
7.5
 49
6.0
 74
     0
 49
-1.5
 74
     0
  0
LTYPE
  5
A0
330
5
100
AcDbSymbolTableRecord
100
AcDbLinetypeTableRecord
  2
SXF_跳び破線
 70
     0
  3
03 dashed_spaced --  --  --  --
 72
    65
 73
     2
 40
12.0
 49
6.0
 74
     0
 49
-6.0
 74
     0
  0
LTYPE
  5
A1
330
5
100
AcDbSymbolTableRecord
100
AcDbLinetypeTableRecord
  2
SXF_一点長鎖線
 70
     0
  3
04 long_dashed_dotted ---- . ---- . ----
 72
    65
 73
     4
 40
15.25
 49
12.0
 74
     0
 49
-1.5
 74
     0
 49
0.25
 74
     0
 49
-1.5
 74
     0
  0
LTYPE
  5
A2
330
5
100
AcDbSymbolTableRecord
100
AcDbLinetypeTableRecord
  2
SXF_二点長鎖線
 70
     0
  3
05 long_dashed_double-dotted ---- . . ---- 
 72
    65
 73
     6
 40
17.0
 49
12.0
 74
     0
 49
-1.5
 74
     0
 49
0.25
 74
     0
 49
-1.5
 74
     0
 49
0.25
 74
     0
 49
-1.5
 74
     0
  0
LTYPE
  5
A3
330
5
100
AcDbSymbolTableRecord
100
AcDbLinetypeTableRecord
  2
SXF_三点長鎖線
 70
     0
  3
06 long_dashed_triplicate-dotted ---- ... ---- 
 72
    65
 73
     8
 40
18.75
 49
12.0
 74
     0
 49
-1.5
 74
     0
 49
0.25
 74
     0
 49
-1.5
 74
     0
 49
0.25
 74
     0
 49
-1.5
 74
     0
 49
0.25
 74
     0
 49
-1.5
 74
     0
  0
LTYPE
  5
A4
330
5
100
AcDbSymbolTableRecord
100
AcDbLinetypeTableRecord
  2
SXF_点線
 70
     0
  3
07 dotted . . . . . . . . . . . . 
 72
    65
 73
     2
 40
1.75
 49
0.25
 74
     0
 49
-1.5
 74
     0
  0
LTYPE
  5
A5
330
5
100
AcDbSymbolTableRecord
100
AcDbLinetypeTableRecord
  2
SXF_一点鎖線
 70
     0
  3
08 chain ---- - --- - --- - ---
 72
    65
 73
     4
 40
18.5
 49
12.0
 74
     0
 49
-1.5
 74
     0
 49
3.5
 74
     0
 49
-1.5
 74
     0
  0
LTYPE
  5
A6
330
5
100
AcDbSymbolTableRecord
100
AcDbLinetypeTableRecord
  2
SXF_二点鎖線
 70
     0
  3
09 chain_double_dash ---- - - ---- - - ----
 72
    65
 73
     6
 40
23.5
 49
12.0
 74
     0
 49
-1.5
 74
     0
 49
3.5
 74
     0
 49
-1.5
 74
     0
 49
3.5
 74
     0
 49
-1.5
 74
     0
  0
LTYPE
  5
A7
330
5
100
AcDbSymbolTableRecord
100
AcDbLinetypeTableRecord
  2
SXF_一点短鎖線
 70
     0
  3
10 dashed_dotted -- . -- . -- . --
 72
    65
 73
     4
 40
9.25
 49
6.0
 74
     0
 49
-1.5
 74
     0
 49
0.25
 74
     0
 49
-1.5
 74
     0
  0
LTYPE
  5
A8
330
5
100
AcDbSymbolTableRecord
100
AcDbLinetypeTableRecord
  2
SXF_一点二短鎖線
 70
     0
  3
11 double-dashed_dotted -- -- . -- --
 72
    65
 73
     6
 40
16.75
 49
6.0
 74
     0
 49
-1.5
 74
     0
 49
6.0
 74
     0
 49
-1.5
 74
     0
 49
0.25
 74
     0
 49
-1.5
 74
     0
  0
LTYPE
  5
A9
330
5
100
AcDbSymbolTableRecord
100
AcDbLinetypeTableRecord
  2
SXF_二点短鎖線
 70
     0
  3
12 dashed_double_dotted -- . . -- . . --
 72
    65
 73
     6
 40
11.0
 49
6.0
 74
     0
 49
-1.5
 74
     0
 49
0.25
 74
     0
 49
-1.5
 74
     0
 49
0.25
 74
     0
 49
-1.5
 74
     0
  0
LTYPE
  5
AA
330
5
100
AcDbSymbolTableRecord
100
AcDbLinetypeTableRecord
  2
SXF_二点二短鎖線
 70
     0
  3
13 double-dashed_double-dotted -- -- . . -- --
 72
    65
 73
     8
 40
18.5
 49
6.0
 74
     0
 49
-1.5
 74
     0
 49
6.0
 74
     0
 49
-1.5
 74
     0
 49
0.25
 74
     0
 49
-1.5
 74
     0
 49
0.25
 74
     0
 49
-1.5
 74
     0
  0
LTYPE
  5
AB
330
5
100
AcDbSymbolTableRecord
100
AcDbLinetypeTableRecord
  2
SXF_三点短鎖線
 70
     0
  3
14 dashed triplicate-dotted -- . . . -- . . . --
 72
    65
 73
     8
 40
12.75
 49
6.0
 74
     0
 49
-1.5
 74
     0
 49
0.25
 74
     0
 49
-1.5
 74
     0
 49
0.25
 74
     0
 49
-1.5
 74
     0
 49
0.25
 74
     0
 49
-1.5
 74
     0
  0
LTYPE
  5
AC
330
5
100
AcDbSymbolTableRecord
100
AcDbLinetypeTableRecord
  2
SXF_三点二短鎖線
 70
     0
  3
15 double-dashed triplicate-dotted -- -- . . . -- -- 
 72
    65
 73
    10
 40
20.25
 49
6.0
 74
     0
 49
-1.5
 74
     0
 49
6.0
 74
     0
 49
-1.5
 74
     0
 49
0.25
 74
     0
 49
-1.5
 74
     0
 49
0.25
 74
     0
 49
-1.5
 74
     0
 49
0.25
 74
     0
 49
-1.5
 74
     0
  0
ENDTAB
  0
TABLE
  2
LAYER
  5
2
330
0
100
AcDbSymbolTable
 70
     3
  0
LAYER
  5
10
330
2
100
AcDbSymbolTableRecord
100
AcDbLayerTableRecord
  2
0
 70
     0
 62
     7
  6
Continuous
370
    -3
390
F
347
46
  0
LAYER
  5
AD
330
2
100
AcDbSymbolTableRecord
100
AcDbLayerTableRecord
  2
2
 70
     0
 62
     7
  6
Continuous
370
    -3
390
F
347
46
  0
LAYER
  5
AE
330
2
100
AcDbSymbolTableRecord
100
AcDbLayerTableRecord
  2
ZUWAKU
 70
     0
 62
     7
  6
Continuous
370
    -3
390
F
347
46
  0
ENDTAB
  0
TABLE
  2
STYLE
  5
3
330
0
100
AcDbSymbolTable
 70
     3
  0
STYLE
  5
11
330
3
100
AcDbSymbolTableRecord
100
AcDbTextStyleTableRecord
  2
Standard
 70
     0
 40
0.0
 41
1.0
 50
0.0
 71
     0
 42
0.2
  3
txt.shx
  4
bigfont.shx
  0
STYLE
  5
1B1
330
3
100
AcDbSymbolTableRecord
100
AcDbTextStyleTableRecord
  2
dcStyle0
 70
     0
 40
0.0
 41
0.75
 50
0.0
 71
     0
 42
0.2
  3
ＭＳ Ｐゴシック
  4

1001
ACAD
1000
ＭＳ Ｐゴシック
1071
    32802
  0
STYLE
  5
1ED
330
3
100
AcDbSymbolTableRecord
100
AcDbTextStyleTableRecord
  2
dcStyle1
 70
     0
 40
0.0
 41
1.2
 50
0.0
 71
     0
 42
0.2
  3
txt.shx
  4
bigfont
  0
ENDTAB
  0
TABLE
  2
VIEW
  5
6
330
0
100
AcDbSymbolTable
 70
     0
  0
ENDTAB
  0
TABLE
  2
UCS
  5
7
330
0
100
AcDbSymbolTable
 70
     0
  0
ENDTAB
  0
TABLE
  2
APPID
  5
9
330
0
100
AcDbSymbolTable
 70
     2
  0
APPID
  5
12
330
9
100
AcDbSymbolTableRecord
100
AcDbRegAppTableRecord
  2
ACAD
 70
     0
  0
APPID
  5
6A
330
9
100
AcDbSymbolTableRecord
100
AcDbRegAppTableRecord
  2
DaFusionOut
 70
     0
  0
ENDTAB
  0
TABLE
  2
DIMSTYLE
  5
A
330
0
100
AcDbSymbolTable
 70
     3
100
AcDbDimStyleTable
  0
DIMSTYLE
105
27
330
A
100
AcDbSymbolTableRecord
100
AcDbDimStyleTableRecord
  2
Standard
 70
     0
178
     0
340
11
  0
DIMSTYLE
105
408
102
{ACAD_REACTORS
330
407
330
409
330
40A
330
40B
330
40C
330
40D
330
40E
330
40F
330
410
330
411
330
412
330
413
330
418
330
419
330
41A
330
41B
330
41C
330
41D
330
41E
330
41F
330
421
330
422
330
424
330
427
330
433
102
}
330
A
100
AcDbSymbolTableRecord
100
AcDbDimStyleTableRecord
  2
dc_Rotated
 70
     0
 41
15.00000953674316
 42
5.0
 44
2.5
 90
        1
 73
     0
 74
     0
 77
     3
 78
     8
 79
     2
140
20.0
147
5.0
172
     1
173
     1
176
     2
177
     2
271
     2
178
     2
271
     2
274
     4
283
     0
284
     8
288
     1
340
1B1
343
1A7
344
1A7
  0
DIMSTYLE
105
416
102
{ACAD_REACTORS
330
415
102
}
330
A
100
AcDbSymbolTableRecord
100
AcDbDimStyleTableRecord
  2
dc_Diam06
 70
     0
 41
15.00000953674316
 42
5.0
 44
5.0
 90
        1
 77
     2
 78
     8
 79
     2
140
20.0
147
5.0
173
     1
176
     2
177
     2
271
     2
178
     2
271
     2
274
     4
283
     0
284
     8
288
     1
340
1B1
343
1A7
344
1A7
  0
ENDTAB
  0
TABLE
  2
BLOCK_RECORD
  5
1
330
0
100
AcDbSymbolTable
 70
    84
  0
BLOCK_RECORD
  5
1F
330
1
100
AcDbSymbolTableRecord
100
AcDbBlockTableRecord
  2
*Model_Space
340
22
 70
     0
280
     1
281
     0
  0
BLOCK_RECORD
  5
1B
330
1
100
AcDbSymbolTableRecord
100
AcDbBlockTableRecord
  2
*Paper_Space
340
1E
 70
     0
280
     1
281
     0
  0
BLOCK_RECORD
  5
23
330
1
100
AcDbSymbolTableRecord
100
AcDbBlockTableRecord
  2
*Paper_Space0
340
26
 70
     0
280
     1
281
     0
  0
BLOCK_RECORD
  5
B0
330
1
100
AcDbSymbolTableRecord
100
AcDbBlockTableRecord
  2
*D1
340
0
 70
     0
280
     1
281
     0
  0
BLOCK_RECORD
  5
B3
330
1
100
AcDbSymbolTableRecord
100
AcDbBlockTableRecord
  2
*D2
340
0
 70
     0
280
     1
281
     0
  0
BLOCK_RECORD
  5
B6
330
1
100
AcDbSymbolTableRecord
100
AcDbBlockTableRecord
  2
*D3
340
0
 70
     0
280
     1
281
     0
  0
BLOCK_RECORD
  5
B9
330
1
100
AcDbSymbolTableRecord
100
AcDbBlockTableRecord
  2
*D4
340
0
 70
     0
280
     1
281
     0
  0
BLOCK_RECORD
  5
BC
330
1
100
AcDbSymbolTableRecord
100
AcDbBlockTableRecord
  2
*D5
340
0
 70
     0
280
     1
281
     0
  0
BLOCK_RECORD
  5
BF
330
1
100
AcDbSymbolTableRecord
100
AcDbBlockTableRecord
  2
*D6
340
0
 70
     0
280
     1
281
     0
  0
BLOCK_RECORD
  5
C2
330
1
100
AcDbSymbolTableRecord
100
AcDbBlockTableRecord
  2
*D7
340
0
 70
     0
280
     1
281
     0
  0
BLOCK_RECORD
  5
C5
330
1
100
AcDbSymbolTableRecord
100
AcDbBlockTableRecord
  2
*D8
340
0
 70
     0
280
     1
281
     0
  0
BLOCK_RECORD
  5
C8
330
1
100
AcDbSymbolTableRecord
100
AcDbBlockTableRecord
  2
DC_GROUP_W_MR-3812_S_040_1
340
0
102
{BLKREFS
331
436
102
}
 70
     0
280
     1
281
     0
  0
BLOCK_RECORD
  5
CB
330
1
100
AcDbSymbolTableRecord
100
AcDbBlockTableRecord
  2
DC_GROUP_W_MR-3812_S_040_2
340
0
102
{BLKREFS
331
437
102
}
 70
     0
280
     1
281
     0
  0
BLOCK_RECORD
  5
CE
330
1
100
AcDbSymbolTableRecord
100
AcDbBlockTableRecord
  2
*D11
340
0
 70
     0
280
     1
281
     0
  0
BLOCK_RECORD
  5
D1
330
1
100
AcDbSymbolTableRecord
100
AcDbBlockTableRecord
  2
*D12
340
0
 70
     0
280
     1
281
     0
  0
BLOCK_RECORD
  5
D4
330
1
100
AcDbSymbolTableRecord
100
AcDbBlockTableRecord
  2
*D13
340
0
 70
     0
280
     1
281
     0
  0
BLOCK_RECORD
  5
D7
330
1
100
AcDbSymbolTableRecord
100
AcDbBlockTableRecord
  2
*D14
340
0
 70
     0
280
     1
281
     0
  0
BLOCK_RECORD
  5
DA
330
1
100
AcDbSymbolTableRecord
100
AcDbBlockTableRecord
  2
DC_IMAGEDIMGROUP_1
340
0
102
{BLKREFS
331
414
102
}
 70
     0
280
     1
281
     0
  0
BLOCK_RECORD
  5
DD
330
1
100
AcDbSymbolTableRecord
100
AcDbBlockTableRecord
  2
*D16
340
0
 70
     0
280
     1
281
     0
  0
BLOCK_RECORD
  5
E0
330
1
100
AcDbSymbolTableRecord
100
AcDbBlockTableRecord
  2
DC_IMAGEDIMGROUP_2
340
0
102
{BLKREFS
331
417
102
}
 70
     0
280
     1
281
     0
  0
BLOCK_RECORD
  5
E3
330
1
100
AcDbSymbolTableRecord
100
AcDbBlockTableRecord
  2
*D18
340
0
 70
     0
280
     1
281
     0
  0
BLOCK_RECORD
  5
E6
330
1
100
AcDbSymbolTableRecord
100
AcDbBlockTableRecord
  2
*D19
340
0
 70
     0
280
     1
281
     0
  0
BLOCK_RECORD
  5
E9
330
1
100
AcDbSymbolTableRecord
100
AcDbBlockTableRecord
  2
*D20
340
0
 70
     0
280
     1
281
     0
  0
BLOCK_RECORD
  5
EC
330
1
100
AcDbSymbolTableRecord
100
AcDbBlockTableRecord
  2
*D21
340
0
 70
     0
280
     1
281
     0
  0
BLOCK_RECORD
  5
EF
330
1
100
AcDbSymbolTableRecord
100
AcDbBlockTableRecord
  2
*D22
340
0
 70
     0
280
     1
281
     0
  0
BLOCK_RECORD
  5
F2
330
1
100
AcDbSymbolTableRecord
100
AcDbBlockTableRecord
  2
*D23
340
0
 70
     0
280
     1
281
     0
  0
BLOCK_RECORD
  5
F5
330
1
100
AcDbSymbolTableRecord
100
AcDbBlockTableRecord
  2
*D24
340
0
 70
     0
280
     1
281
     0
  0
BLOCK_RECORD
  5
F8
330
1
100
AcDbSymbolTableRecord
100
AcDbBlockTableRecord
  2
*D25
340
0
 70
     0
280
     1
281
     0
  0
BLOCK_RECORD
  5
FB
330
1
100
AcDbSymbolTableRecord
100
AcDbBlockTableRecord
  2
DC_GROUP_W_MR-3812_S_040_3
340
0
102
{BLKREFS
331
420
102
}
 70
     0
280
     1
281
     0
  0
BLOCK_RECORD
  5
FE
330
1
100
AcDbSymbolTableRecord
100
AcDbBlockTableRecord
  2
DC_GROUP_W_MR-3812_S_040_4
340
0
102
{BLKREFS
331
4AF
102
}
 70
     0
280
     1
281
     0
  0
BLOCK_RECORD
  5
101
330
1
100
AcDbSymbolTableRecord
100
AcDbBlockTableRecord
  2
*D28
340
0
 70
     0
280
     1
281
     0
  0
BLOCK_RECORD
  5
104
330
1
100
AcDbSymbolTableRecord
100
AcDbBlockTableRecord
  2
*D29
340
0
 70
     0
280
     1
281
     0
  0
BLOCK_RECORD
  5
107
330
1
100
AcDbSymbolTableRecord
100
AcDbBlockTableRecord
  2
DC_IMAGEDIMGROUP_3
340
0
102
{BLKREFS
331
423
102
}
 70
     0
280
     1
281
     0
  0
BLOCK_RECORD
  5
10A
330
1
100
AcDbSymbolTableRecord
100
AcDbBlockTableRecord
  2
*D31
340
0
 70
     0
280
     1
281
     0
  0
BLOCK_RECORD
  5
10D
330
1
100
AcDbSymbolTableRecord
100
AcDbBlockTableRecord
  2
DC_GROUP_W_MR-3812_S_040_5
340
0
102
{BLKREFS
331
425
102
}
 70
     0
280
     1
281
     0
  0
BLOCK_RECORD
  5
110
330
1
100
AcDbSymbolTableRecord
100
AcDbBlockTableRecord
  2
DC_IMAGEDIMGROUP_4
340
0
102
{BLKREFS
331
426
102
}
 70
     0
280
     1
281
     0
  0
BLOCK_RECORD
  5
113
330
1
100
AcDbSymbolTableRecord
100
AcDbBlockTableRecord
  2
*D34
340
0
 70
     0
280
     1
281
     0
  0
BLOCK_RECORD
  5
116
330
1
100
AcDbSymbolTableRecord
100
AcDbBlockTableRecord
  2
DC_GROUP_W_MR-3812_S_040_6
340
0
102
{BLKREFS
331
428
102
}
 70
     0
280
     1
281
     0
  0
BLOCK_RECORD
  5
119
330
1
100
AcDbSymbolTableRecord
100
AcDbBlockTableRecord
  2
DC_GROUP_W_MR-3812_S_040_7
340
0
102
{BLKREFS
331
2E6
102
}
 70
     0
280
     1
281
     0
  0
BLOCK_RECORD
  5
11C
330
1
100
AcDbSymbolTableRecord
100
AcDbBlockTableRecord
  2
DC_GROUP_W_MR-3812_S_040_8
340
0
102
{BLKREFS
331
429
102
}
 70
     0
280
     1
281
     0
  0
BLOCK_RECORD
  5
11F
330
1
100
AcDbSymbolTableRecord
100
AcDbBlockTableRecord
  2
DC_GROUP_W_MR-3812_S_040_9
340
0
102
{BLKREFS
331
2FC
102
}
 70
     0
280
     1
281
     0
  0
BLOCK_RECORD
  5
122
330
1
100
AcDbSymbolTableRecord
100
AcDbBlockTableRecord
  2
DC_GROUP_W_MR-3812_S_040_10
340
0
102
{BLKREFS
331
42A
102
}
 70
     0
280
     1
281
     0
  0
BLOCK_RECORD
  5
125
330
1
100
AcDbSymbolTableRecord
100
AcDbBlockTableRecord
  2
DC_GROUP_W_MR-3812_S_040_11
340
0
102
{BLKREFS
331
312
102
}
 70
     0
280
     1
281
     0
  0
BLOCK_RECORD
  5
128
330
1
100
AcDbSymbolTableRecord
100
AcDbBlockTableRecord
  2
DC_GROUP_W_MR-3812_S_040_12
340
0
102
{BLKREFS
331
42B
102
}
 70
     0
280
     1
281
     0
  0
BLOCK_RECORD
  5
12B
330
1
100
AcDbSymbolTableRecord
100
AcDbBlockTableRecord
  2
DC_GROUP_W_MR-3812_S_040_13
340
0
102
{BLKREFS
331
328
102
}
 70
     0
280
     1
281
     0
  0
BLOCK_RECORD
  5
12E
330
1
100
AcDbSymbolTableRecord
100
AcDbBlockTableRecord
  2
DC_GROUP_W_MR-3812_S_040_14
340
0
102
{BLKREFS
331
42C
102
}
 70
     0
280
     1
281
     0
  0
BLOCK_RECORD
  5
131
330
1
100
AcDbSymbolTableRecord
100
AcDbBlockTableRecord
  2
DC_GROUP_W_MR-3812_S_040_15
340
0
102
{BLKREFS
331
33E
102
}
 70
     0
280
     1
281
     0
  0
BLOCK_RECORD
  5
134
330
1
100
AcDbSymbolTableRecord
100
AcDbBlockTableRecord
  2
DC_GROUP_W_MR-3812_S_040_16
340
0
102
{BLKREFS
331
42D
102
}
 70
     0
280
     1
281
     0
  0
BLOCK_RECORD
  5
137
330
1
100
AcDbSymbolTableRecord
100
AcDbBlockTableRecord
  2
DC_GROUP_W_MR-3812_S_040_17
340
0
102
{BLKREFS
331
354
102
}
 70
     0
280
     1
281
     0
  0
BLOCK_RECORD
  5
13A
330
1
100
AcDbSymbolTableRecord
100
AcDbBlockTableRecord
  2
DC_GROUP_W_MR-3812_S_040_18
340
0
102
{BLKREFS
331
42E
102
}
 70
     0
280
     1
281
     0
  0
BLOCK_RECORD
  5
13D
330
1
100
AcDbSymbolTableRecord
100
AcDbBlockTableRecord
  2
DC_GROUP_W_MR-3812_S_040_19
340
0
102
{BLKREFS
331
36A
102
}
 70
     0
280
     1
281
     0
  0
BLOCK_RECORD
  5
140
330
1
100
AcDbSymbolTableRecord
100
AcDbBlockTableRecord
  2
DC_GROUP_W_MR-3812_S_040_20
340
0
102
{BLKREFS
331
42F
102
}
 70
     0
280
     1
281
     0
  0
BLOCK_RECORD
  5
143
330
1
100
AcDbSymbolTableRecord
100
AcDbBlockTableRecord
  2
DC_GROUP_W_MR-3812_S_040_21
340
0
102
{BLKREFS
331
430
102
}
 70
     0
280
     1
281
     0
  0
BLOCK_RECORD
  5
146
330
1
100
AcDbSymbolTableRecord
100
AcDbBlockTableRecord
  2
DC_GROUP_W_MR-3812_S_040_22
340
0
102
{BLKREFS
331
386
102
}
 70
     0
280
     1
281
     0
  0
BLOCK_RECORD
  5
149
330
1
100
AcDbSymbolTableRecord
100
AcDbBlockTableRecord
  2
DC_GROUP_W_MR-3812_S_040_23
340
0
102
{BLKREFS
331
431
102
}
 70
     0
280
     1
281
     0
  0
BLOCK_RECORD
  5
14C
330
1
100
AcDbSymbolTableRecord
100
AcDbBlockTableRecord
  2
DC_GROUP_W_MR-3812_S_040_24
340
0
102
{BLKREFS
331
432
102
}
 70
     0
280
     1
281
     0
  0
BLOCK_RECORD
  5
14F
330
1
100
AcDbSymbolTableRecord
100
AcDbBlockTableRecord
  2
DC_GROUP_W_MR-3812_S_040_25
340
0
102
{BLKREFS
331
393
102
}
 70
     0
280
     1
281
     0
  0
BLOCK_RECORD
  5
152
330
1
100
AcDbSymbolTableRecord
100
AcDbBlockTableRecord
  2
DC_GROUP_W_MR-3812_S_040_26
340
0
102
{BLKREFS
331
4B0
102
}
 70
     0
280
     1
281
     0
  0
BLOCK_RECORD
  5
155
330
1
100
AcDbSymbolTableRecord
100
AcDbBlockTableRecord
  2
DC_GROUP_W_MR-3812_S_040_27
340
0
102
{BLKREFS
331
4B1
102
}
 70
     0
280
     1
281
     0
  0
BLOCK_RECORD
  5
158
330
1
100
AcDbSymbolTableRecord
100
AcDbBlockTableRecord
  2
DC_GROUP_W_MR-3812_S_040_28
340
0
102
{BLKREFS
331
4B2
102
}
 70
     0
280
     1
281
     0
  0
BLOCK_RECORD
  5
15B
330
1
100
AcDbSymbolTableRecord
100
AcDbBlockTableRecord
  2
DC_GROUP_W_MR-3812_S_040_29
340
0
102
{BLKREFS
331
4B3
102
}
 70
     0
280
     1
281
     0
  0
BLOCK_RECORD
  5
15E
330
1
100
AcDbSymbolTableRecord
100
AcDbBlockTableRecord
  2
DC_GROUP_W_MR-3812_S_040_30
340
0
102
{BLKREFS
331
4B4
102
}
 70
     0
280
     1
281
     0
  0
BLOCK_RECORD
  5
161
330
1
100
AcDbSymbolTableRecord
100
AcDbBlockTableRecord
  2
DC_GROUP_W_MR-3812_S_040_31
340
0
102
{BLKREFS
331
4B5
102
}
 70
     0
280
     1
281
     0
  0
BLOCK_RECORD
  5
164
330
1
100
AcDbSymbolTableRecord
100
AcDbBlockTableRecord
  2
DC_GROUP_W_MR-3812_S_040_32
340
0
102
{BLKREFS
331
4B6
102
}
 70
     0
280
     1
281
     0
  0
BLOCK_RECORD
  5
167
330
1
100
AcDbSymbolTableRecord
100
AcDbBlockTableRecord
  2
DC_GROUP_W_MR-3812_S_040_33
340
0
102
{BLKREFS
331
4B7
102
}
 70
     0
280
     1
281
     0
  0
BLOCK_RECORD
  5
16A
330
1
100
AcDbSymbolTableRecord
100
AcDbBlockTableRecord
  2
DC_GROUP_W_MR-3812_S_040_34
340
0
102
{BLKREFS
331
4B8
102
}
 70
     0
280
     1
281
     0
  0
BLOCK_RECORD
  5
16D
330
1
100
AcDbSymbolTableRecord
100
AcDbBlockTableRecord
  2
DC_GROUP_W_MR-3812_S_040_35
340
0
102
{BLKREFS
331
4B9
102
}
 70
     0
280
     1
281
     0
  0
BLOCK_RECORD
  5
170
330
1
100
AcDbSymbolTableRecord
100
AcDbBlockTableRecord
  2
DC_GROUP_W_MR-3812_S_040_36
340
0
102
{BLKREFS
331
4BA
102
}
 70
     0
280
     1
281
     0
  0
BLOCK_RECORD
  5
173
330
1
100
AcDbSymbolTableRecord
100
AcDbBlockTableRecord
  2
DC_GROUP_W_MR-3812_S_040_37
340
0
102
{BLKREFS
331
4BB
102
}
 70
     0
280
     1
281
     0
  0
BLOCK_RECORD
  5
176
330
1
100
AcDbSymbolTableRecord
100
AcDbBlockTableRecord
  2
DC_GROUP_W_MR-3812_S_040_38
340
0
102
{BLKREFS
331
4BC
102
}
 70
     0
280
     1
281
     0
  0
BLOCK_RECORD
  5
179
330
1
100
AcDbSymbolTableRecord
100
AcDbBlockTableRecord
  2
DC_GROUP_W_MR-3812_S_040_39
340
0
102
{BLKREFS
331
4BD
102
}
 70
     0
280
     1
281
     0
  0
BLOCK_RECORD
  5
17C
330
1
100
AcDbSymbolTableRecord
100
AcDbBlockTableRecord
  2
DC_GROUP_W_MR-3812_S_040_40
340
0
102
{BLKREFS
331
4BE
102
}
 70
     0
280
     1
281
     0
  0
BLOCK_RECORD
  5
17F
330
1
100
AcDbSymbolTableRecord
100
AcDbBlockTableRecord
  2
DC_GROUP_W_MR-3812_S_040_41
340
0
102
{BLKREFS
331
4BF
102
}
 70
     0
280
     1
281
     0
  0
BLOCK_RECORD
  5
182
330
1
100
AcDbSymbolTableRecord
100
AcDbBlockTableRecord
  2
DC_GROUP_W_MR-3812_S_040_42
340
0
102
{BLKREFS
331
4C0
102
}
 70
     0
280
     1
281
     0
  0
BLOCK_RECORD
  5
185
330
1
100
AcDbSymbolTableRecord
100
AcDbBlockTableRecord
  2
DC_GROUP_W_MR-3812_S_040_43
340
0
102
{BLKREFS
331
4C1
102
}
 70
     0
280
     1
281
     0
  0
BLOCK_RECORD
  5
188
330
1
100
AcDbSymbolTableRecord
100
AcDbBlockTableRecord
  2
DC_GROUP_W_MR-3812_S_040_44
340
0
102
{BLKREFS
331
4C2
102
}
 70
     0
280
     1
281
     0
  0
BLOCK_RECORD
  5
18B
330
1
100
AcDbSymbolTableRecord
100
AcDbBlockTableRecord
  2
DC_GROUP_W_MR-3812_S_040_45
340
0
102
{BLKREFS
331
4C3
102
}
 70
     0
280
     1
281
     0
  0
BLOCK_RECORD
  5
18E
330
1
100
AcDbSymbolTableRecord
100
AcDbBlockTableRecord
  2
DC_GROUP_W_MR-3812_S_040_46
340
0
102
{BLKREFS
331
4C4
102
}
 70
     0
280
     1
281
     0
  0
BLOCK_RECORD
  5
191
330
1
100
AcDbSymbolTableRecord
100
AcDbBlockTableRecord
  2
DC_GROUP_W_MR-3812_S_040_47
340
0
102
{BLKREFS
331
4C5
102
}
 70
     0
280
     1
281
     0
  0
BLOCK_RECORD
  5
194
330
1
100
AcDbSymbolTableRecord
100
AcDbBlockTableRecord
  2
DC_GROUP_W_MR-3812_S_040_48
340
0
102
{BLKREFS
331
4C6
102
}
 70
     0
280
     1
281
     0
  0
BLOCK_RECORD
  5
197
330
1
100
AcDbSymbolTableRecord
100
AcDbBlockTableRecord
  2
DC_GROUP_W_MR-3812_S_040_49
340
0
102
{BLKREFS
331
4C7
102
}
 70
     0
280
     1
281
     0
  0
BLOCK_RECORD
  5
19A
330
1
100
AcDbSymbolTableRecord
100
AcDbBlockTableRecord
  2
DC_GROUP_W_MR-3812_S_040_50
340
0
102
{BLKREFS
331
4C8
102
}
 70
     0
280
     1
281
     0
  0
BLOCK_RECORD
  5
19D
330
1
100
AcDbSymbolTableRecord
100
AcDbBlockTableRecord
  2
*D80
340
0
 70
     0
280
     1
281
     0
  0
BLOCK_RECORD
  5
1A0
330
1
100
AcDbSymbolTableRecord
100
AcDbBlockTableRecord
  2
DC_GROUP_W_MR-3812_S_040_51
340
0
102
{BLKREFS
331
434
102
}
 70
     0
280
     1
281
     0
  0
BLOCK_RECORD
  5
1A3
330
1
100
AcDbSymbolTableRecord
100
AcDbBlockTableRecord
  2
DC_GROUP_W_MR-3812_S_040_52
340
0
102
{BLKREFS
331
435
102
}
 70
     0
280
     1
281
     0
  0
BLOCK_RECORD
  5
1A7
330
1
100
AcDbSymbolTableRecord
100
AcDbBlockTableRecord
  2
_OPEN30
340
0
102
{BLKREFS
331
1AD
331
1AE
331
1B4
331
1B5
331
1BA
331
1BB
331
1BF
331
1C0
331
1C4
331
1C5
331
1CD
331
1D0
331
1D1
331
1D9
331
202
331
203
331
208
331
209
331
20E
331
20F
331
214
331
215
331
21D
331
21F
331
222
331
229
331
22B
331
22E
331
22F
331
234
331
235
331
23A
331
23B
331
243
331
246
331
247
331
24F
331
255
331
257
331
25D
331
25F
331
28A
331
28B
331
290
331
291
331
299
331
29B
331
29E
331
29F
331
2DC
331
2DE
331
2E1
331
2E2
331
3F7
331
3F9
331
3FC
331
3FE
331
404
102
}
 70
     0
280
     1
281
     0
  0
ENDTAB
  0
ENDSEC
  0
SECTION
  2
BLOCKS
  0
BLOCK
  5
20
330
1F
100
AcDbEntity
  8
0
100
AcDbBlockBegin
  2
*Model_Space
 70
     0
 10
0.0
 20
0.0
 30
0.0
  3
*Model_Space
  1
*Model_Space
  0
ENDBLK
  5
21
330
1F
100
AcDbEntity
  8
0
100
AcDbBlockEnd
  0
BLOCK
  5
1C
330
1B
100
AcDbEntity
 67
     1
  8
0
100
AcDbBlockBegin
  2
*Paper_Space
 70
     0
 10
0.0
 20
0.0
 30
0.0
  3
*Paper_Space
  1
*Paper_Space
  0
ENDBLK
  5
1D
330
1B
100
AcDbEntity
 67
     1
  8
0
100
AcDbBlockEnd
  0
BLOCK
  5
24
330
23
100
AcDbEntity
  8
0
100
AcDbBlockBegin
  2
*Paper_Space0
 70
     0
 10
0.0
 20
0.0
 30
0.0
  3
*Paper_Space0
  1
*Paper_Space0
  0
ENDBLK
  5
25
330
23
100
AcDbEntity
  8
0
100
AcDbBlockEnd
  0
BLOCK
  5
B1
330
B0
100
AcDbEntity
  8
0
100
AcDbBlockBegin
  2
*D1
 70
     1
 10
0.0
 20
0.0
 30
0.0
  3
*D1
  1
*D1
  0
LINE
  5
1A6
330
B0
100
AcDbEntity
  8
0
  6
Continuous
 62
     2
370
    13
100
AcDbLine
 10
-785.9587957402838
 20
163.7437471526257
 30
0.0
 11
208.0412042597162
 21
163.7437471526257
 31
0.0
  0
INSERT
  5
1AD
330
B0
100
AcDbEntity
  8
0
 62
     2
100
AcDbBlockReference
  2
_OPEN30
 10
-785.9587957402838
 20
163.7437471526257
 30
0.0
 41
15.00001403807643
 42
14.99994684111822
 50
180.0
  0
INSERT
  5
1AE
330
B0
100
AcDbEntity
  8
0
 62
     2
100
AcDbBlockReference
  2
_OPEN30
 10
208.0412042597162
 20
163.7437471526257
 30
0.0
 41
15.00001403807643
 42
14.99994684111822
 50
360.0
  0
LINE
  5
1AF
330
B0
100
AcDbEntity
  8
0
  6
Continuous
 62
     2
370
    13
100
AcDbLine
 10
-785.9587957402838
 20
55.19374715262555
 30
0.0
 11
-785.9587957402838
 21
166.2437471526257
 31
0.0
  0
LINE
  5
1B0
330
B0
100
AcDbEntity
  8
0
  6
Continuous
 62
     2
370
    13
100
AcDbLine
 10
208.0412042597162
 20
55.19374715262555
 30
0.0
 11
208.0412042597162
 21
166.2437471526257
 31
0.0
  0
MTEXT
  5
1B2
330
B0
100
AcDbEntity
  8
0
 62
     2
100
AcDbMText
 10
-288.9587957402838
 20
168.7437471526257
 30
0.0
 40
20.0
 41
75.0
 46
0.0
 71
     8
 72
     1
  1
\T1.00;機長
  7
dcStyle0
 73
     1
 44
1.0
  0
ENDBLK
  5
B2
330
B0
100
AcDbEntity
  8
0
100
AcDbBlockEnd
  0
BLOCK
  5
B4
330
B3
100
AcDbEntity
  8
0
100
AcDbBlockBegin
  2
*D2
 70
     1
 10
0.0
 20
0.0
 30
0.0
  3
*D2
  1
*D2
  0
LINE
  5
1B3
330
B3
100
AcDbEntity
  8
0
  6
Continuous
 62
     2
370
    13
100
AcDbLine
 10
-785.9587957402838
 20
-97.80625284737445
 30
0.0
 11
-728.9587957402838
 21
-97.80625284737445
 31
0.0
  0
INSERT
  5
1B4
330
B3
100
AcDbEntity
  8
0
 62
     2
100
AcDbBlockReference
  2
_OPEN30
 10
-785.9587957402838
 20
-97.80625284737445
 30
0.0
 41
15.00001403807643
 42
14.99994684111822
 50
180.0
  0
INSERT
  5
1B5
330
B3
100
AcDbEntity
  8
0
 62
     2
100
AcDbBlockReference
  2
_OPEN30
 10
-728.9587957402838
 20
-97.80625284737445
 30
0.0
 41
15.00001403807643
 42
14.99994684111822
 50
360.0
  0
LINE
  5
1B6
330
B3
100
AcDbEntity
  8
0
  6
Continuous
 62
     2
370
    13
100
AcDbLine
 10
-785.9587957402838
 20
-14.80625284737445
 30
0.0
 11
-785.9587957402838
 21
-100.3062528473745
 31
0.0
  0
LINE
  5
1B7
330
B3
100
AcDbEntity
  8
0
  6
Continuous
 62
     2
370
    13
100
AcDbLine
 10
-728.9587957402838
 20
-24.80625284737445
 30
0.0
 11
-728.9587957402838
 21
-100.3062528473745
 31
0.0
  0
MTEXT
  5
1B8
330
B3
100
AcDbEntity
  8
0
 62
     2
100
AcDbMText
 10
-757.4587957402838
 20
-92.80625284737445
 30
0.0
 40
20.0
 41
37.5
 46
0.0
 71
     8
 72
     1
  1
\T1.00;D
  7
dcStyle0
 73
     1
 44
1.0
  0
ENDBLK
  5
B5
330
B3
100
AcDbEntity
  8
0
100
AcDbBlockEnd
  0
BLOCK
  5
B7
330
B6
100
AcDbEntity
  8
0
100
AcDbBlockBegin
  2
*D3
 70
     1
 10
0.0
 20
0.0
 30
0.0
  3
*D3
  1
*D3
  0
LINE
  5
1B9
330
B6
100
AcDbEntity
  8
0
  6
Continuous
 62
     2
370
    13
100
AcDbLine
 10
-728.9587957402838
 20
-97.80625284737445
 30
0.0
 11
-608.9587957402838
 21
-97.80625284737445
 31
0.0
  0
INSERT
  5
1BA
330
B6
100
AcDbEntity
  8
0
 62
     2
100
AcDbBlockReference
  2
_OPEN30
 10
-728.9587957402838
 20
-97.80625284737445
 30
0.0
 41
15.00001403807643
 42
14.99994684111822
 50
180.0
  0
INSERT
  5
1BB
330
B6
100
AcDbEntity
  8
0
 62
     2
100
AcDbBlockReference
  2
_OPEN30
 10
-608.9587957402838
 20
-97.80625284737445
 30
0.0
 41
15.00001403807643
 42
14.99994684111822
 50
360.0
  0
LINE
  5
1BC
330
B6
100
AcDbEntity
  8
0
  6
Continuous
 62
     2
370
    13
100
AcDbLine
 10
-728.9587957402838
 20
-24.80625284737445
 30
0.0
 11
-728.9587957402838
 21
-100.3062528473745
 31
0.0
  0
MTEXT
  5
1BD
330
B6
100
AcDbEntity
  8
0
 62
     2
100
AcDbMText
 10
-668.9587957402838
 20
-92.80625284737445
 30
0.0
 40
20.0
 41
62.5
 46
0.0
 71
     8
 72
     1
  1
\T1.00;120
  7
dcStyle0
 73
     1
 44
1.0
  0
ENDBLK
  5
B8
330
B6
100
AcDbEntity
  8
0
100
AcDbBlockEnd
  0
BLOCK
  5
BA
330
B9
100
AcDbEntity
  8
0
100
AcDbBlockBegin
  2
*D4
 70
     1
 10
0.0
 20
0.0
 30
0.0
  3
*D4
  1
*D4
  0
LINE
  5
1BE
330
B9
100
AcDbEntity
  8
0
  6
Continuous
 62
     2
370
    13
100
AcDbLine
 10
31.04120425971615
 20
-97.80625284737445
 30
0.0
 11
151.0412042597162
 21
-97.80625284737445
 31
0.0
  0
INSERT
  5
1BF
330
B9
100
AcDbEntity
  8
0
 62
     2
100
AcDbBlockReference
  2
_OPEN30
 10
31.04120425971615
 20
-97.80625284737445
 30
0.0
 41
15.00001403807643
 42
14.99994684111822
 50
180.0
  0
INSERT
  5
1C0
330
B9
100
AcDbEntity
  8
0
 62
     2
100
AcDbBlockReference
  2
_OPEN30
 10
151.0412042597162
 20
-97.80625284737445
 30
0.0
 41
15.00001403807643
 42
14.99994684111822
 50
360.0
  0
LINE
  5
1C1
330
B9
100
AcDbEntity
  8
0
  6
Continuous
 62
     2
370
    13
100
AcDbLine
 10
151.0412042597162
 20
-24.80625284737445
 30
0.0
 11
151.0412042597162
 21
-100.3062528473745
 31
0.0
  0
MTEXT
  5
1C2
330
B9
100
AcDbEntity
  8
0
 62
     2
100
AcDbMText
 10
86.8356740860919
 20
-92.80625284737445
 30
0.0
 40
20.0
 41
62.5
 46
0.0
 71
     8
 72
     1
  1
\T1.00;120
  7
dcStyle0
 73
     1
 44
1.0
  0
ENDBLK
  5
BB
330
B9
100
AcDbEntity
  8
0
100
AcDbBlockEnd
  0
BLOCK
  5
BD
330
BC
100
AcDbEntity
  8
0
100
AcDbBlockBegin
  2
*D5
 70
     1
 10
0.0
 20
0.0
 30
0.0
  3
*D5
  1
*D5
  0
LINE
  5
1C3
330
BC
100
AcDbEntity
  8
0
  6
Continuous
 62
     2
370
    13
100
AcDbLine
 10
151.0412042597162
 20
-97.80625284737445
 30
0.0
 11
208.0412042597162
 21
-97.80625284737445
 31
0.0
  0
INSERT
  5
1C4
330
BC
100
AcDbEntity
  8
0
 62
     2
100
AcDbBlockReference
  2
_OPEN30
 10
151.0412042597162
 20
-97.80625284737445
 30
0.0
 41
15.00001403807643
 42
14.99994684111822
 50
180.0
  0
INSERT
  5
1C5
330
BC
100
AcDbEntity
  8
0
 62
     2
100
AcDbBlockReference
  2
_OPEN30
 10
208.0412042597162
 20
-97.80625284737445
 30
0.0
 41
15.00001403807643
 42
14.99994684111822
 50
360.0
  0
LINE
  5
1C6
330
BC
100
AcDbEntity
  8
0
  6
Continuous
 62
     2
370
    13
100
AcDbLine
 10
151.0412042597162
 20
-24.80625284737445
 30
0.0
 11
151.0412042597162
 21
-100.3062528473745
 31
0.0
  0
LINE
  5
1C7
330
BC
100
AcDbEntity
  8
0
  6
Continuous
 62
     2
370
    13
100
AcDbLine
 10
208.0412042597162
 20
-14.80625284737445
 30
0.0
 11
208.0412042597162
 21
-100.3062528473745
 31
0.0
  0
MTEXT
  5
1C8
330
BC
100
AcDbEntity
  8
0
 62
     2
100
AcDbMText
 10
179.5412042597162
 20
-92.80625284737445
 30
0.0
 40
20.0
 41
37.5
 46
0.0
 71
     8
 72
     1
  1
\T1.00;D
  7
dcStyle0
 73
     1
 44
1.0
  0
ENDBLK
  5
BE
330
BC
100
AcDbEntity
  8
0
100
AcDbBlockEnd
  0
BLOCK
  5
C0
330
BF
100
AcDbEntity
  8
0
100
AcDbBlockBegin
  2
*D6
 70
     1
 10
0.0
 20
0.0
 30
0.0
  3
*D6
  1
*D6
  0
LINE
  5
1C9
330
BF
100
AcDbEntity
  8
0
  6
Continuous
 62
     2
370
    13
100
AcDbLine
 10
-785.9587957402838
 20
123.7437471526257
 30
0.0
 11
-750.9587957402837
 21
123.7437471526257
 31
0.0
  0
LINE
  5
1CA
330
BF
100
AcDbEntity
  8
0
  6
Continuous
 62
     2
370
    13
100
AcDbLine
 10
-785.9587957402838
 20
55.19374715262555
 30
0.0
 11
-785.9587957402838
 21
126.2437471526257
 31
0.0
  0
LINE
  5
1CB
330
BF
100
AcDbEntity
  8
0
  6
Continuous
 62
     2
370
    13
100
AcDbLine
 10
-750.9587957402837
 20
66.79374715262588
 30
0.0
 11
-750.9587957402837
 21
126.2437471526257
 31
0.0
  0
LINE
  5
1CC
330
BF
100
AcDbEntity
  8
0
  6
Continuous
 62
     2
370
    13
100
AcDbLine
 10
-803.1637957402838
 20
123.7437471526257
 30
0.0
 11
-785.9587957402838
 21
123.7437471526257
 31
0.0
  0
INSERT
  5
1CD
330
BF
100
AcDbEntity
  8
0
 62
     2
100
AcDbBlockReference
  2
_OPEN30
 10
-785.9587957402838
 20
123.7437471526257
 30
0.0
 41
15.00001403807643
 42
14.99994684111822
 50
360.0
  0
MTEXT
  5
1CE
330
BF
100
AcDbEntity
  8
0
 62
     2
100
AcDbMText
 10
-793.1637957402838
 20
128.7437471526257
 30
0.0
 40
20.0
 41
37.5
 46
0.0
 71
     9
 72
     1
  1
\T1.00;A
  7
dcStyle0
 73
     1
 44
1.0
  0
ENDBLK
  5
C1
330
BF
100
AcDbEntity
  8
0
100
AcDbBlockEnd
  0
BLOCK
  5
C3
330
C2
100
AcDbEntity
  8
0
100
AcDbBlockBegin
  2
*D7
 70
     1
 10
0.0
 20
0.0
 30
0.0
  3
*D7
  1
*D7
  0
LINE
  5
1CF
330
C2
100
AcDbEntity
  8
0
  6
Continuous
 62
     2
370
    13
100
AcDbLine
 10
-750.9587957402837
 20
123.7437471526257
 30
0.0
 11
173.0412042597163
 21
123.7437471526257
 31
0.0
  0
INSERT
  5
1D0
330
C2
100
AcDbEntity
  8
0
 62
     2
100
AcDbBlockReference
  2
_OPEN30
 10
-750.9587957402837
 20
123.7437471526257
 30
0.0
 41
15.00001403807643
 42
14.99994684111822
 50
180.0
  0
INSERT
  5
1D1
330
C2
100
AcDbEntity
  8
0
 62
     2
100
AcDbBlockReference
  2
_OPEN30
 10
173.0412042597163
 20
123.7437471526257
 30
0.0
 41
15.00001403807643
 42
14.99994684111822
 50
360.0
  0
LINE
  5
1D2
330
C2
100
AcDbEntity
  8
0
  6
Continuous
 62
     2
370
    13
100
AcDbLine
 10
-750.9587957402837
 20
66.79374715262588
 30
0.0
 11
-750.9587957402837
 21
126.2437471526257
 31
0.0
  0
LINE
  5
1D3
330
C2
100
AcDbEntity
  8
0
  6
Continuous
 62
     2
370
    13
100
AcDbLine
 10
173.0412042597163
 20
66.79374715262588
 30
0.0
 11
173.0412042597163
 21
126.2437471526257
 31
0.0
  0
MTEXT
  5
1D4
330
C2
100
AcDbEntity
  8
0
 62
     2
100
AcDbMText
 10
-288.9587957402836
 20
128.7437471526257
 30
0.0
 40
20.0
 41
100.0
 46
0.0
 71
     8
 72
     1
  1
\T1.00;N×P=B
  7
dcStyle0
 73
     1
 44
1.0
  0
ENDBLK
  5
C4
330
C2
100
AcDbEntity
  8
0
100
AcDbBlockEnd
  0
BLOCK
  5
C6
330
C5
100
AcDbEntity
  8
0
100
AcDbBlockBegin
  2
*D8
 70
     1
 10
0.0
 20
0.0
 30
0.0
  3
*D8
  1
*D8
  0
LINE
  5
1D5
330
C5
100
AcDbEntity
  8
0
  6
Continuous
 62
     2
370
    13
100
AcDbLine
 10
173.0412042597163
 20
123.7437471526257
 30
0.0
 11
208.0412042597162
 21
123.7437471526257
 31
0.0
  0
LINE
  5
1D6
330
C5
100
AcDbEntity
  8
0
  6
Continuous
 62
     2
370
    13
100
AcDbLine
 10
173.0412042597163
 20
66.79374715262588
 30
0.0
 11
173.0412042597163
 21
126.2437471526257
 31
0.0
  0
LINE
  5
1D7
330
C5
100
AcDbEntity
  8
0
  6
Continuous
 62
     2
370
    13
100
AcDbLine
 10
208.0412042597162
 20
55.19374715262555
 30
0.0
 11
208.0412042597162
 21
126.2437471526257
 31
0.0
  0
LINE
  5
1D8
330
C5
100
AcDbEntity
  8
0
  6
Continuous
 62
     2
370
    13
100
AcDbLine
 10
225.2462042597162
 20
123.7437471526257
 30
0.0
 11
208.0412042597162
 21
123.7437471526257
 31
0.0
  0
INSERT
  5
1D9
330
C5
100
AcDbEntity
  8
0
 62
     2
100
AcDbBlockReference
  2
_OPEN30
 10
208.0412042597162
 20
123.7437471526257
 30
0.0
 41
15.00001403807643
 42
14.99994684111822
 50
180.0
  0
MTEXT
  5
1DA
330
C5
100
AcDbEntity
  8
0
 62
     2
100
AcDbMText
 10
215.2462042597162
 20
128.7437471526257
 30
0.0
 40
20.0
 41
37.5
 46
0.0
 71
     7
 72
     1
  1
\T1.00;C
  7
dcStyle0
 73
     1
 44
1.0
  0
ENDBLK
  5
C7
330
C5
100
AcDbEntity
  8
0
100
AcDbBlockEnd
  0
BLOCK
  5
C9
330
C8
100
AcDbEntity
  8
0
100
AcDbBlockBegin
  2
DC_GROUP_W_MR-3812_S_040_1
 70
     0
 10
0.0
 20
0.0
 30
0.0
  3
DC_GROUP_W_MR-3812_S_040_1
  1
DC_GROUP_W_MR-3812_S_040_1
  0
LINE
  5
1DB
330
C8
100
AcDbEntity
  8
ZUWAKU
  6
Continuous
 62
     7
370
    13
100
AcDbLine
 10
-985.0
 20
-664.3596166976107
 30
0.0
 11
985.0
 21
-664.3596166976107
 31
0.0
  0
LINE
  5
1DC
330
C8
100
AcDbEntity
  8
ZUWAKU
  6
Continuous
 62
     7
370
    13
100
AcDbLine
 10
984.999999999998
 20
675.6403833023893
 30
0.0
 11
-985.0
 21
675.6403833023893
 31
0.0
  0
LINE
  5
1DD
330
C8
100
AcDbEntity
  8
ZUWAKU
  6
Continuous
 62
     7
370
    13
100
AcDbLine
 10
985.0
 20
-664.3596166976107
 30
0.0
 11
984.999999999998
 21
675.6403833023893
 31
0.0
  0
LINE
  5
1DE
330
C8
100
AcDbEntity
  8
ZUWAKU
  6
Continuous
 62
     7
370
    13
100
AcDbLine
 10
-985.0
 20
675.6403833023893
 30
0.0
 11
-985.0
 21
-664.3596166976107
 31
0.0
  0
LINE
  5
1DF
330
C8
100
AcDbEntity
  8
ZUWAKU
  6
Continuous
 62
     4
370
    13
100
AcDbLine
 10
-172.4999999999999
 20
-589.3596166976108
 30
0.0
 11
25.00000000000014
 21
-589.3596166976108
 31
0.0
  0
LINE
  5
1E0
330
C8
100
AcDbEntity
  8
ZUWAKU
  6
Continuous
 62
     4
370
    13
100
AcDbLine
 10
-925.0
 20
-564.3596166976108
 30
0.0
 11
-925.0
 21
-664.3596166976107
 31
0.0
  0
LINE
  5
1E1
330
C8
100
AcDbEntity
  8
ZUWAKU
  6
Continuous
 62
     4
370
    13
100
AcDbLine
 10
-985.0
 20
-614.3596166976108
 30
0.0
 11
985.0
 21
-614.3596166976108
 31
0.0
  0
LINE
  5
1E2
330
C8
100
AcDbEntity
  8
ZUWAKU
  6
Continuous
 62
     4
370
    13
100
AcDbLine
 10
25.00000000000014
 20
-664.3596166976107
 30
0.0
 11
25.00000000000014
 21
-564.3596166976108
 31
0.0
  0
LINE
  5
1E3
330
C8
100
AcDbEntity
  8
ZUWAKU
  6
Continuous
 62
     4
370
    13
100
AcDbLine
 10
-172.4999999999999
 20
-664.3596166976107
 30
0.0
 11
-172.4999999999999
 21
-564.3596166976108
 31
0.0
  0
LINE
  5
1E4
330
C8
100
AcDbEntity
  8
ZUWAKU
  6
Continuous
 62
     4
370
    13
100
AcDbLine
 10
430.0
 20
-564.3596166976108
 30
0.0
 11
430.0
 21
-664.3596166976107
 31
0.0
  0
LINE
  5
1E5
330
C8
100
AcDbEntity
  8
ZUWAKU
  6
Continuous
 62
     4
370
    13
100
AcDbLine
 10
150.0000000000001
 20
-564.3596166976108
 30
0.0
 11
150.0000000000001
 21
-664.3596166976107
 31
0.0
  0
LINE
  5
1E6
330
C8
100
AcDbEntity
  8
ZUWAKU
  6
Continuous
 62
     4
370
    13
100
AcDbLine
 10
-132.4999999999999
 20
-614.3596166976108
 30
0.0
 11
-132.4999999999999
 21
-664.3596166976107
 31
0.0
  0
LINE
  5
1E7
330
C8
100
AcDbEntity
  8
ZUWAKU
  6
Continuous
 62
     4
370
    13
100
AcDbLine
 10
-655.0
 20
-564.3596166976108
 30
0.0
 11
-655.0
 21
-664.3596166976107
 31
0.0
  0
LINE
  5
1E8
330
C8
100
AcDbEntity
  8
ZUWAKU
  6
Continuous
 62
     4
370
    13
100
AcDbLine
 10
985.0
 20
-564.3596166976108
 30
0.0
 11
-985.0
 21
-564.3596166976108
 31
0.0
  0
LINE
  5
1E9
330
C8
100
AcDbEntity
  8
ZUWAKU
  6
Continuous
 62
     4
370
    13
100
AcDbLine
 10
490.0
 20
-564.3596166976108
 30
0.0
 11
490.0
 21
-664.3596166976107
 31
0.0
  0
LINE
  5
1EA
330
C8
100
AcDbEntity
  8
ZUWAKU
  6
Continuous
 62
     3
370
    13
100
AcDbLine
 10
-937.5
 20
-601.8596166976108
 30
0.0
 11
-955.0
 21
-569.3596166976108
 31
0.0
  0
LINE
  5
1EB
330
C8
100
AcDbEntity
  8
ZUWAKU
  6
Continuous
 62
     3
370
    13
100
AcDbLine
 10
-972.5
 20
-601.8596166976108
 30
0.0
 11
-937.5
 21
-601.8596166976108
 31
0.0
  0
LINE
  5
1EC
330
C8
100
AcDbEntity
  8
ZUWAKU
  6
Continuous
 62
     3
370
    13
100
AcDbLine
 10
-955.0
 20
-569.3596166976108
 30
0.0
 11
-972.5
 21
-601.8596166976108
 31
0.0
  0
TEXT
  5
1EE
330
C8
100
AcDbEntity
  8
ZUWAKU
 62
     2
100
AcDbText
 10
439.0
 20
-659.3596166976107
 30
0.0
 40
17.49999999999999
  1
番号
 41
1.527272727272728
  7
dcStyle1
 72
     5
 11
481.0
 21
-659.3596166976107
 31
0.0
100
AcDbText
  0
TEXT
  5
1EF
330
C8
100
AcDbEntity
  8
ZUWAKU
 62
     2
100
AcDbText
 10
-162.9999999999999
 20
-659.3596166976107
 30
0.0
 40
17.49999999999999
  1
度
 41
1.680000000000001
  7
dcStyle1
 72
     5
 11
-141.9999999999999
 21
-659.3596166976107
 31
0.0
100
AcDbText
  0
TEXT
  5
1F0
330
C8
100
AcDbEntity
  8
ZUWAKU
 62
     2
100
AcDbText
 10
-974.1096098491414
 20
-659.3596166976107
 30
0.0
 40
17.5
  1
番号
 41
1.272727272727273
  7
dcStyle1
 72
     5
 11
-939.1096098491414
 21
-659.3596166976107
 31
0.0
100
AcDbText
  0
TEXT
  5
1F1
330
C8
100
AcDbEntity
  8
ZUWAKU
 62
     2
100
AcDbText
 10
42.50000000000014
 20
-599.3596166976108
 30
0.0
 40
20.0
  1
シリーズ名
 41
1.086206896551724
  7
dcStyle1
 72
     5
 11
132.5000000000001
 21
-599.3596166976108
 31
0.0
100
AcDbText
  0
TEXT
  5
1F2
330
C8
100
AcDbEntity
  8
ZUWAKU
 62
     2
100
AcDbText
 10
57.50000000000014
 20
-649.3596166976108
 30
0.0
 40
20.0
  1
機　種
 41
1.235294117647059
  7
dcStyle1
 72
     5
 11
117.5000000000001
 21
-649.3596166976108
 31
0.0
100
AcDbText
  0
TEXT
  5
1F3
330
C8
100
AcDbEntity
  8
ZUWAKU
 62
     2
100
AcDbText
 10
-972.5
 20
-636.8596166976108
 30
0.0
 40
17.5
  1
改訂
 41
1.272727272727273
  7
dcStyle1
 72
     5
 11
-937.5
 21
-636.8596166976108
 31
0.0
100
AcDbText
  0
TEXT
  5
1F4
330
C8
100
AcDbEntity
  8
ZUWAKU
 62
     2
100
AcDbText
 10
-872.25
 20
-648.1096166976108
 30
0.0
 40
17.49999999999999
  1
改　 訂　 記　 事
 41
1.061290322580646
  7
dcStyle1
 72
     5
 11
-707.75
 21
-648.1096166976108
 31
0.0
100
AcDbText
  0
TEXT
  5
1F5
330
C8
100
AcDbEntity
  8
ZUWAKU
 62
     2
100
AcDbText
 10
-162.9999999999999
 20
-636.8596166976108
 30
0.0
 40
17.49999999999999
  1
尺
 41
1.680000000000001
  7
dcStyle1
 72
     5
 11
-141.9999999999999
 21
-636.8596166976108
 31
0.0
100
AcDbText
  0
TEXT
  5
1F6
330
C8
100
AcDbEntity
  8
ZUWAKU
 62
     2
100
AcDbText
 10
-134.9999999999998
 20
-585.6096166976108
 30
0.0
 40
17.49999999999999
  1
年　　月　　日
 41
1.195121951219512
  7
dcStyle1
 72
     5
 11
-12.4999999999999
 21
-585.6096166976108
 31
0.0
100
AcDbText
  0
TEXT
  5
1F7
330
C8
100
AcDbEntity
  8
ZUWAKU
 62
     2
100
AcDbText
 10
439.0
 20
-636.8596166976108
 30
0.0
 40
17.49999999999999
  1
図面
 41
1.527272727272728
  7
dcStyle1
 72
     5
 11
481.0
 21
-636.8596166976108
 31
0.0
100
AcDbText
  0
TEXT
  5
1F8
330
C8
100
AcDbEntity
  8
ZUWAKU
 62
     2
100
AcDbText
 10
440.0
 20
-599.3596166976108
 30
0.0
 40
20.0
  1
図名
 41
1.272727272727273
  7
dcStyle1
 72
     5
 11
480.0
 21
-599.3596166976108
 31
0.0
100
AcDbText
  0
TEXT
  5
1F9
330
C8
100
AcDbEntity
  8
ZUWAKU
 62
     7
100
AcDbText
 10
-513.7499999999999
 20
-601.8596166976108
 30
0.0
 40
25.0
  1
技術情報サービス
 41
1.191489361702128
  7
dcStyle1
 72
     5
 11
-313.7499999999999
 21
-601.8596166976108
 31
0.0
100
AcDbText
  0
TEXT
  5
1FA
330
C8
100
AcDbEntity
  8
ZUWAKU
 62
     7
100
AcDbText
 10
-586.705882352941
 20
-649.3596166976108
 30
0.0
 40
20.0
  1
MARUYASU KIKAI CO.,LTD.
 41
0.8990281013395455
  7
dcStyle1
 72
     5
 11
-240.7941176470587
 21
-649.3596166976108
 31
0.0
100
AcDbText
  0
TEXT
  5
1FB
330
C8
100
AcDbEntity
  8
ZUWAKU
 62
     4
100
AcDbText
 10
962.2827719618455
 20
-675.6403833023893
 30
0.0
 40
10.0
  1
A3
 41
1.2
  7
dcStyle1
 72
     5
 11
982.2827719618455
 21
-675.6403833023893
 31
0.0
100
AcDbText
  0
ENDBLK
  5
CA
330
C8
100
AcDbEntity
  8
0
100
AcDbBlockEnd
  0
BLOCK
  5
CC
330
CB
100
AcDbEntity
  8
0
100
AcDbBlockBegin
  2
DC_GROUP_W_MR-3812_S_040_2
 70
     0
 10
0.0
 20
0.0
 30
0.0
  3
DC_GROUP_W_MR-3812_S_040_2
  1
DC_GROUP_W_MR-3812_S_040_2
  0
POINT
  5
1FC
330
CB
100
AcDbEntity
  8
ZUWAKU
  6
Continuous
 62
     2
100
AcDbPoint
 10
290.0000000000001
 20
-589.3596166976108
 30
0.0
  0
POINT
  5
1FD
330
CB
100
AcDbEntity
  8
ZUWAKU
  6
Continuous
 62
     2
100
AcDbPoint
 10
290.0000000000001
 20
-639.3596166976107
 30
0.0
  0
POINT
  5
1FE
330
CB
100
AcDbEntity
  8
ZUWAKU
  6
Continuous
 62
     2
100
AcDbPoint
 10
970.0
 20
-639.3596166976107
 30
0.0
  0
POINT
  5
1FF
330
CB
100
AcDbEntity
  8
ZUWAKU
  6
Continuous
 62
     2
100
AcDbPoint
 10
737.5
 20
-589.3596166976108
 30
0.0
  0
POINT
  5
200
330
CB
100
AcDbEntity
  8
ZUWAKU
  6
Continuous
 62
     2
100
AcDbPoint
 10
-53.74999999999986
 20
-639.3596166976107
 30
0.0
  0
ENDBLK
  5
CD
330
CB
100
AcDbEntity
  8
0
100
AcDbBlockEnd
  0
BLOCK
  5
CF
330
CE
100
AcDbEntity
  8
0
100
AcDbBlockBegin
  2
*D11
 70
     1
 10
0.0
 20
0.0
 30
0.0
  3
*D11
  1
*D11
  0
LINE
  5
201
330
CE
100
AcDbEntity
  8
0
  6
Continuous
 62
     2
370
    13
100
AcDbLine
 10
256.0412042597162
 20
289.3251688631323
 30
0.0
 11
256.0412042597162
 21
464.3251688631323
 31
0.0
  0
INSERT
  5
202
330
CE
100
AcDbEntity
  8
0
 62
     2
100
AcDbBlockReference
  2
_OPEN30
 10
256.0412042597162
 20
289.3251688631323
 30
0.0
 41
15.00001403807643
 42
14.99994684111822
 50
270.0
  0
INSERT
  5
203
330
CE
100
AcDbEntity
  8
0
 62
     2
100
AcDbBlockReference
  2
_OPEN30
 10
256.0412042597162
 20
464.3251688631323
 30
0.0
 41
15.00001403807643
 42
14.99994684111822
 50
90.0
  0
LINE
  5
204
330
CE
100
AcDbEntity
  8
0
  6
Continuous
 62
     2
370
    13
100
AcDbLine
 10
203.0412042597162
 20
289.3251688631323
 30
0.0
 11
258.5412042597162
 21
289.3251688631323
 31
0.0
  0
LINE
  5
205
330
CE
100
AcDbEntity
  8
0
  6
Continuous
 62
     2
370
    13
100
AcDbLine
 10
203.0412042597162
 20
464.3251688631323
 30
0.0
 11
258.5412042597162
 21
464.3251688631323
 31
0.0
  0
MTEXT
  5
206
330
CE
100
AcDbEntity
  8
0
 62
     2
100
AcDbMText
 10
251.0412042597162
 20
376.8251688631323
 30
0.0
 40
20.0
 41
162.5
 46
0.0
 71
     8
 72
     1
  1
\T1.00;機 幅 (175)
  7
dcStyle0
 11
6.123233995736766E-17
 21
1.0
 31
0.0
 73
     1
 44
1.0
  0
ENDBLK
  5
D0
330
CE
100
AcDbEntity
  8
0
100
AcDbBlockEnd
  0
BLOCK
  5
D2
330
D1
100
AcDbEntity
  8
0
100
AcDbBlockBegin
  2
*D12
 70
     1
 10
0.0
 20
0.0
 30
0.0
  3
*D12
  1
*D12
  0
LINE
  5
207
330
D1
100
AcDbEntity
  8
0
  6
Continuous
 62
     2
370
    13
100
AcDbLine
 10
-608.9587957402838
 20
-97.80625284737445
 30
0.0
 11
-348.9587957402838
 21
-97.80625284737445
 31
0.0
  0
INSERT
  5
208
330
D1
100
AcDbEntity
  8
0
 62
     2
100
AcDbBlockReference
  2
_OPEN30
 10
-608.9587957402838
 20
-97.80625284737445
 30
0.0
 41
15.00001403807643
 42
14.99994684111822
 50
180.0
  0
INSERT
  5
209
330
D1
100
AcDbEntity
  8
0
 62
     2
100
AcDbBlockReference
  2
_OPEN30
 10
-348.9587957402838
 20
-97.80625284737445
 30
0.0
 41
15.00001403807643
 42
14.99994684111822
 50
360.0
  0
LINE
  5
20A
330
D1
100
AcDbEntity
  8
0
  6
Continuous
 62
     2
370
    13
100
AcDbLine
 10
-608.9587957402838
 20
-24.80625284737445
 30
0.0
 11
-608.9587957402838
 21
-100.3062528473745
 31
0.0
  0
LINE
  5
20B
330
D1
100
AcDbEntity
  8
0
  6
Continuous
 62
     2
370
    13
100
AcDbLine
 10
-348.9587957402838
 20
-24.80625284737445
 30
0.0
 11
-348.9587957402838
 21
-100.3062528473745
 31
0.0
  0
MTEXT
  5
20C
330
D1
100
AcDbEntity
  8
0
 62
     2
100
AcDbMText
 10
-478.9587957402838
 20
-92.80625284737445
 30
0.0
 40
20.0
 41
37.5
 46
0.0
 71
     8
 72
     1
  1
\T1.00;E
  7
dcStyle0
 73
     1
 44
1.0
  0
ENDBLK
  5
D3
330
D1
100
AcDbEntity
  8
0
100
AcDbBlockEnd
  0
BLOCK
  5
D5
330
D4
100
AcDbEntity
  8
0
100
AcDbBlockBegin
  2
*D13
 70
     1
 10
0.0
 20
0.0
 30
0.0
  3
*D13
  1
*D13
  0
LINE
  5
20D
330
D4
100
AcDbEntity
  8
0
  6
Continuous
 62
     2
370
    13
100
AcDbLine
 10
-348.9587957402838
 20
-97.80625284737445
 30
0.0
 11
-228.9587957402838
 21
-97.80625284737445
 31
0.0
  0
INSERT
  5
20E
330
D4
100
AcDbEntity
  8
0
 62
     2
100
AcDbBlockReference
  2
_OPEN30
 10
-348.9587957402838
 20
-97.80625284737445
 30
0.0
 41
15.00001403807643
 42
14.99994684111822
 50
180.0
  0
INSERT
  5
20F
330
D4
100
AcDbEntity
  8
0
 62
     2
100
AcDbBlockReference
  2
_OPEN30
 10
-228.9587957402838
 20
-97.80625284737445
 30
0.0
 41
15.00001403807643
 42
14.99994684111822
 50
360.0
  0
LINE
  5
210
330
D4
100
AcDbEntity
  8
0
  6
Continuous
 62
     2
370
    13
100
AcDbLine
 10
-348.9587957402838
 20
-24.80625284737445
 30
0.0
 11
-348.9587957402838
 21
-100.3062528473745
 31
0.0
  0
LINE
  5
211
330
D4
100
AcDbEntity
  8
0
  6
Continuous
 62
     2
370
    13
100
AcDbLine
 10
-228.9587957402838
 20
-24.80625284737445
 30
0.0
 11
-228.9587957402838
 21
-100.3062528473745
 31
0.0
  0
MTEXT
  5
212
330
D4
100
AcDbEntity
  8
0
 62
     2
100
AcDbMText
 10
-288.9587957402838
 20
-92.80625284737445
 30
0.0
 40
20.0
 41
62.5
 46
0.0
 71
     8
 72
     1
  1
\T1.00;120
  7
dcStyle0
 73
     1
 44
1.0
  0
ENDBLK
  5
D6
330
D4
100
AcDbEntity
  8
0
100
AcDbBlockEnd
  0
BLOCK
  5
D8
330
D7
100
AcDbEntity
  8
0
100
AcDbBlockBegin
  2
*D14
 70
     1
 10
0.0
 20
0.0
 30
0.0
  3
*D14
  1
*D14
  0
LINE
  5
213
330
D7
100
AcDbEntity
  8
0
  6
Continuous
 62
     2
370
    13
100
AcDbLine
 10
-228.9587957402838
 20
-97.80625284737445
 30
0.0
 11
31.04120425971615
 21
-97.80625284737445
 31
0.0
  0
INSERT
  5
214
330
D7
100
AcDbEntity
  8
0
 62
     2
100
AcDbBlockReference
  2
_OPEN30
 10
-228.9587957402838
 20
-97.80625284737445
 30
0.0
 41
15.00001403807643
 42
14.99994684111822
 50
180.0
  0
INSERT
  5
215
330
D7
100
AcDbEntity
  8
0
 62
     2
100
AcDbBlockReference
  2
_OPEN30
 10
31.04120425971615
 20
-97.80625284737445
 30
0.0
 41
15.00001403807643
 42
14.99994684111822
 50
360.0
  0
LINE
  5
216
330
D7
100
AcDbEntity
  8
0
  6
Continuous
 62
     2
370
    13
100
AcDbLine
 10
-228.9587957402838
 20
-24.80625284737445
 30
0.0
 11
-228.9587957402838
 21
-100.3062528473745
 31
0.0
  0
LINE
  5
217
330
D7
100
AcDbEntity
  8
0
  6
Continuous
 62
     2
370
    13
100
AcDbLine
 10
31.04120425971615
 20
-24.80625284737445
 30
0.0
 11
31.04120425971615
 21
-100.3062528473745
 31
0.0
  0
MTEXT
  5
218
330
D7
100
AcDbEntity
  8
0
 62
     2
100
AcDbMText
 10
-98.95879574028382
 20
-92.80625284737445
 30
0.0
 40
20.0
 41
37.5
 46
0.0
 71
     8
 72
     1
  1
\T1.00;E
  7
dcStyle0
 73
     1
 44
1.0
  0
ENDBLK
  5
D9
330
D7
100
AcDbEntity
  8
0
100
AcDbBlockEnd
  0
BLOCK
  5
DB
330
DA
100
AcDbEntity
  8
0
100
AcDbBlockBegin
  2
DC_IMAGEDIMGROUP_1
 70
     0
 10
0.0
 20
0.0
 30
0.0
  3
DC_IMAGEDIMGROUP_1
  1
DC_IMAGEDIMGROUP_1
  0
LINE
  5
219
330
DA
100
AcDbEntity
  8
0
  6
Continuous
 62
     2
370
    13
100
AcDbLine
 10
196.0412042597162
 20
-57.80625284737445
 30
0.0
 11
208.0412042597162
 21
-57.80625284737445
 31
0.0
  0
LINE
  5
21A
330
DA
100
AcDbEntity
  8
0
  6
Continuous
 62
     2
370
    13
100
AcDbLine
 10
196.0412042597162
 20
-4.806252847374452
 30
0.0
 11
196.0412042597162
 21
-60.30625284737445
 31
0.0
  0
LINE
  5
21B
330
DA
100
AcDbEntity
  8
0
  6
Continuous
 62
     2
370
    13
100
AcDbLine
 10
208.0412042597162
 20
-19.80625284737445
 30
0.0
 11
208.0412042597162
 21
-60.30625284737445
 31
0.0
  0
LINE
  5
21C
330
DA
100
AcDbEntity
  8
0
  6
Continuous
 62
     2
370
    13
100
AcDbLine
 10
169.3589648122586
 20
-57.80625284737445
 30
0.0
 11
196.0412042597162
 21
-57.80625284737445
 31
0.0
  0
INSERT
  5
21D
330
DA
100
AcDbEntity
  8
0
 62
     2
100
AcDbBlockReference
  2
_OPEN30
 10
196.0412042597162
 20
-57.80625284737445
 30
0.0
 41
15.00001403807643
 42
14.99994684111822
 50
360.0
  0
LINE
  5
21E
330
DA
100
AcDbEntity
  8
0
  6
Continuous
 62
     2
370
    13
100
AcDbLine
 10
225.5412042597162
 20
-57.80625284737445
 30
0.0
 11
208.0412042597162
 21
-57.80625284737445
 31
0.0
  0
INSERT
  5
21F
330
DA
100
AcDbEntity
  8
0
 62
     2
100
AcDbBlockReference
  2
_OPEN30
 10
208.0412042597162
 20
-57.80625284737445
 30
0.0
 41
15.00001403807643
 42
14.99994684111822
 50
180.0
  0
MTEXT
  5
220
330
DA
100
AcDbEntity
  8
0
 62
     2
100
AcDbMText
 10
189.3589648122586
 20
-52.80625284737445
 30
0.0
 40
20.0
 41
50.0
 46
0.0
 71
     9
 72
     1
  1
\T1.00;12
  7
dcStyle0
 73
     1
 44
1.0
  0
ENDBLK
  5
DC
330
DA
100
AcDbEntity
  8
0
100
AcDbBlockEnd
  0
BLOCK
  5
DE
330
DD
100
AcDbEntity
  8
0
100
AcDbBlockBegin
  2
*D16
 70
     1
 10
0.0
 20
0.0
 30
0.0
  3
*D16
  1
*D16
  0
LINE
  5
221
330
DD
100
AcDbEntity
  8
0
  6
Continuous
 62
     2
370
    13
100
AcDbLine
 10
242.3514736637041
 20
-57.80625284737445
 30
0.0
 11
198.7196397692387
 21
0.9716643465535171
 31
0.0
  0
INSERT
  5
222
330
DD
100
AcDbEntity
  8
0
 62
     2
100
AcDbBlockReference
  2
_OPEN30
 10
198.7196397692387
 20
0.9716643465535171
 30
0.0
 41
15.00001403807643
 42
14.99994684111822
 50
126.5871185610176
  0
LINE
  5
223
330
DD
100
AcDbEntity
  8
0
  6
Continuous
 62
     2
370
    13
100
AcDbLine
 10
302.7264736637041
 20
-57.80625284737445
 30
0.0
 11
242.3514736637041
 21
-57.80625284737445
 31
0.0
  0
MTEXT
  5
224
330
DD
100
AcDbEntity
  8
0
 62
     2
100
AcDbMText
 10
242.7264736637041
 20
-52.80625284737445
 30
0.0
 40
20.0
 41
100.0
 46
0.0
 71
     7
 72
     1
  1
\T1.00;4-φ10
  7
dcStyle0
 73
     1
 44
1.0
  0
ENDBLK
  5
DF
330
DD
100
AcDbEntity
  8
0
100
AcDbBlockEnd
  0
BLOCK
  5
E1
330
E0
100
AcDbEntity
  8
0
100
AcDbBlockBegin
  2
DC_IMAGEDIMGROUP_2
 70
     0
 10
0.0
 20
0.0
 30
0.0
  3
DC_IMAGEDIMGROUP_2
  1
DC_IMAGEDIMGROUP_2
  0
LINE
  5
225
330
E0
100
AcDbEntity
  8
0
  6
Continuous
 62
     2
370
    13
100
AcDbLine
 10
630.0376309191869
 20
4.49374715262573
 30
0.0
 11
630.0376309191869
 21
12.81807512304587
 31
0.0
  0
LINE
  5
226
330
E0
100
AcDbEntity
  8
0
  6
Continuous
 62
     2
370
    13
100
AcDbLine
 10
627.7376309191867
 20
4.49374715262573
 30
0.0
 11
627.7376309191867
 21
12.81807512304587
 31
0.0
  0
LINE
  5
227
330
E0
100
AcDbEntity
  8
0
  6
Continuous
 62
     2
370
    13
100
AcDbLine
 10
630.0376309191869
 20
7.818075123045872
 30
0.0
 11
627.7376309191867
 21
7.818075123045872
 31
0.0
  0
LINE
  5
228
330
E0
100
AcDbEntity
  8
0
  6
Continuous
 62
     2
370
    13
100
AcDbLine
 10
586.2597233610998
 20
7.818075123045878
 30
0.0
 11
627.7376309191867
 21
7.818075123045872
 31
0.0
  0
INSERT
  5
229
330
E0
100
AcDbEntity
  8
0
 62
     2
100
AcDbBlockReference
  2
_OPEN30
 10
627.7376309191867
 20
7.818075123045872
 30
0.0
 41
15.00001403807643
 42
14.99994684111822
 50
360.0
  0
LINE
  5
22A
330
E0
100
AcDbEntity
  8
0
  6
Continuous
 62
     2
370
    13
100
AcDbLine
 10
647.5376309191869
 20
7.818075123045872
 30
0.0
 11
630.0376309191869
 21
7.818075123045872
 31
0.0
  0
INSERT
  5
22B
330
E0
100
AcDbEntity
  8
0
 62
     2
100
AcDbBlockReference
  2
_OPEN30
 10
630.0376309191869
 20
7.818075123045872
 30
0.0
 41
15.00001403807643
 42
14.99994684111822
 50
180.0
  0
MTEXT
  5
22C
330
E0
100
AcDbEntity
  8
0
 62
     2
100
AcDbMText
 10
616.2597233610998
 20
12.81807512304587
 30
0.0
 40
20.0
 41
62.5
 46
0.0
 71
     9
 72
     1
  1
\T1.00;2.3
  7
dcStyle0
 73
     1
 44
1.0
  0
ENDBLK
  5
E2
330
E0
100
AcDbEntity
  8
0
100
AcDbBlockEnd
  0
BLOCK
  5
E4
330
E3
100
AcDbEntity
  8
0
100
AcDbBlockBegin
  2
*D18
 70
     1
 10
0.0
 20
0.0
 30
0.0
  3
*D18
  1
*D18
  0
LINE
  5
22D
330
E3
100
AcDbEntity
  8
0
  6
Continuous
 62
     2
370
    13
100
AcDbLine
 10
532.0376309191869
 20
-9.806252847374452
 30
0.0
 11
532.0376309191869
 21
50.19374715262554
 31
0.0
  0
INSERT
  5
22E
330
E3
100
AcDbEntity
  8
0
 62
     2
100
AcDbBlockReference
  2
_OPEN30
 10
532.0376309191869
 20
-9.806252847374452
 30
0.0
 41
15.00001403807643
 42
14.99994684111822
 50
270.0
  0
INSERT
  5
22F
330
E3
100
AcDbEntity
  8
0
 62
     2
100
AcDbBlockReference
  2
_OPEN30
 10
532.0376309191869
 20
50.19374715262554
 30
0.0
 41
15.00001403807643
 42
14.99994684111822
 50
90.0
  0
LINE
  5
230
330
E3
100
AcDbEntity
  8
0
  6
Continuous
 62
     2
370
    13
100
AcDbLine
 10
595.0376309191869
 20
-9.806252847374452
 30
0.0
 11
529.5376309191869
 21
-9.806252847374452
 31
0.0
  0
LINE
  5
231
330
E3
100
AcDbEntity
  8
0
  6
Continuous
 62
     2
370
    13
100
AcDbLine
 10
595.0376309191869
 20
50.19374715262555
 30
0.0
 11
529.5376309191869
 21
50.19374715262554
 31
0.0
  0
MTEXT
  5
232
330
E3
100
AcDbEntity
  8
0
 62
     2
100
AcDbMText
 10
527.0376309191869
 20
20.19374715262554
 30
0.0
 40
20.0
 41
50.0
 46
0.0
 71
     8
 72
     1
  1
\T1.00;60
  7
dcStyle0
 11
6.123233995736766E-17
 21
1.0
 31
0.0
 73
     1
 44
1.0
  0
ENDBLK
  5
E5
330
E3
100
AcDbEntity
  8
0
100
AcDbBlockEnd
  0
BLOCK
  5
E7
330
E6
100
AcDbEntity
  8
0
100
AcDbBlockBegin
  2
*D19
 70
     1
 10
0.0
 20
0.0
 30
0.0
  3
*D19
  1
*D19
  0
LINE
  5
233
330
E6
100
AcDbEntity
  8
0
  6
Continuous
 62
     2
370
    13
100
AcDbLine
 10
600.0376309191869
 20
223.7437471526257
 30
0.0
 11
775.0376309191869
 21
223.7437471526257
 31
0.0
  0
INSERT
  5
234
330
E6
100
AcDbEntity
  8
0
 62
     2
100
AcDbBlockReference
  2
_OPEN30
 10
600.0376309191869
 20
223.7437471526257
 30
0.0
 41
15.00001403807643
 42
14.99994684111822
 50
180.0
  0
INSERT
  5
235
330
E6
100
AcDbEntity
  8
0
 62
     2
100
AcDbBlockReference
  2
_OPEN30
 10
775.0376309191869
 20
223.7437471526257
 30
0.0
 41
15.00001403807643
 42
14.99994684111822
 50
360.0
  0
LINE
  5
236
330
E6
100
AcDbEntity
  8
0
  6
Continuous
 62
     2
370
    13
100
AcDbLine
 10
600.0376309191869
 20
55.19374715262555
 30
0.0
 11
600.0376309191869
 21
226.2437471526257
 31
0.0
  0
LINE
  5
237
330
E6
100
AcDbEntity
  8
0
  6
Continuous
 62
     2
370
    13
100
AcDbLine
 10
775.0376309191869
 20
55.19374715262555
 30
0.0
 11
775.0376309191869
 21
226.2437471526257
 31
0.0
  0
MTEXT
  5
238
330
E6
100
AcDbEntity
  8
0
 62
     2
100
AcDbMText
 10
687.5376309191869
 20
228.7437471526257
 30
0.0
 40
20.0
 41
100.0
 46
0.0
 71
     8
 72
     1
  1
\T1.00;機　幅
  7
dcStyle0
 73
     1
 44
1.0
  0
ENDBLK
  5
E8
330
E6
100
AcDbEntity
  8
0
100
AcDbBlockEnd
  0
BLOCK
  5
EA
330
E9
100
AcDbEntity
  8
0
100
AcDbBlockBegin
  2
*D20
 70
     1
 10
0.0
 20
0.0
 30
0.0
  3
*D20
  1
*D20
  0
LINE
  5
239
330
E9
100
AcDbEntity
  8
0
  6
Continuous
 62
     2
370
    13
100
AcDbLine
 10
630.0376309191867
 20
173.7437471526257
 30
0.0
 11
745.0376309191871
 21
173.7437471526257
 31
0.0
  0
INSERT
  5
23A
330
E9
100
AcDbEntity
  8
0
 62
     2
100
AcDbBlockReference
  2
_OPEN30
 10
630.0376309191867
 20
173.7437471526257
 30
0.0
 41
15.00001403807643
 42
14.99994684111822
 50
180.0
  0
INSERT
  5
23B
330
E9
100
AcDbEntity
  8
0
 62
     2
100
AcDbBlockReference
  2
_OPEN30
 10
745.0376309191871
 20
173.7437471526257
 30
0.0
 41
15.00001403807643
 42
14.99994684111822
 50
360.0
  0
LINE
  5
23C
330
E9
100
AcDbEntity
  8
0
  6
Continuous
 62
     2
370
    13
100
AcDbLine
 10
630.0376309191867
 20
50.89374715262537
 30
0.0
 11
630.0376309191867
 21
176.2437471526257
 31
0.0
  0
LINE
  5
23D
330
E9
100
AcDbEntity
  8
0
  6
Continuous
 62
     2
370
    13
100
AcDbLine
 10
745.0376309191871
 20
50.89374715262537
 30
0.0
 11
745.0376309191871
 21
176.2437471526257
 31
0.0
  0
MTEXT
  5
23E
330
E9
100
AcDbEntity
  8
0
 62
     2
100
AcDbMText
 10
687.5376309191869
 20
178.7437471526257
 30
0.0
 40
20.0
 41
126.25
 46
0.0
 71
     8
 72
     1
  1
\T1.00;呼び幅+15
  7
dcStyle0
 73
     1
 44
1.0
  0
ENDBLK
  5
EB
330
E9
100
AcDbEntity
  8
0
100
AcDbBlockEnd
  0
BLOCK
  5
ED
330
EC
100
AcDbEntity
  8
0
100
AcDbBlockBegin
  2
*D21
 70
     1
 10
0.0
 20
0.0
 30
0.0
  3
*D21
  1
*D21
  0
LINE
  5
23F
330
EC
100
AcDbEntity
  8
0
  6
Continuous
 62
     2
370
    13
100
AcDbLine
 10
600.0376309191869
 20
-97.80625284737445
 30
0.0
 11
612.5376319191868
 21
-97.80625284737445
 31
0.0
  0
LINE
  5
240
330
EC
100
AcDbEntity
  8
0
  6
Continuous
 62
     2
370
    13
100
AcDbLine
 10
600.0376309191869
 20
-14.80625284737445
 30
0.0
 11
600.0376309191869
 21
-100.3062528473745
 31
0.0
  0
LINE
  5
241
330
EC
100
AcDbEntity
  8
0
  6
Continuous
 62
     2
370
    13
100
AcDbLine
 10
612.5376319191868
 20
-24.70040884737475
 30
0.0
 11
612.5376319191868
 21
-100.3062528473745
 31
0.0
  0
LINE
  5
242
330
EC
100
AcDbEntity
  8
0
  6
Continuous
 62
     2
370
    13
100
AcDbLine
 10
552.8326309191868
 20
-97.80625284737445
 30
0.0
 11
600.0376309191869
 21
-97.80625284737445
 31
0.0
  0
INSERT
  5
243
330
EC
100
AcDbEntity
  8
0
 62
     2
100
AcDbBlockReference
  2
_OPEN30
 10
600.0376309191869
 20
-97.80625284737445
 30
0.0
 41
15.00001403807643
 42
14.99994684111822
 50
360.0
  0
MTEXT
  5
244
330
EC
100
AcDbEntity
  8
0
 62
     2
100
AcDbMText
 10
592.8326309191868
 20
-92.80625284737445
 30
0.0
 40
20.0
 41
75.0
 46
0.0
 71
     9
 72
     1
  1
\T1.00;12.5
  7
dcStyle0
 73
     1
 44
1.0
  0
ENDBLK
  5
EE
330
EC
100
AcDbEntity
  8
0
100
AcDbBlockEnd
  0
BLOCK
  5
F0
330
EF
100
AcDbEntity
  8
0
100
AcDbBlockBegin
  2
*D22
 70
     1
 10
0.0
 20
0.0
 30
0.0
  3
*D22
  1
*D22
  0
LINE
  5
245
330
EF
100
AcDbEntity
  8
0
  6
Continuous
 62
     2
370
    13
100
AcDbLine
 10
612.5376319191868
 20
-97.80625284737445
 30
0.0
 11
762.5376319191868
 21
-97.80625284737445
 31
0.0
  0
INSERT
  5
246
330
EF
100
AcDbEntity
  8
0
 62
     2
100
AcDbBlockReference
  2
_OPEN30
 10
612.5376319191868
 20
-97.80625284737445
 30
0.0
 41
15.00001403807643
 42
14.99994684111822
 50
180.0
  0
INSERT
  5
247
330
EF
100
AcDbEntity
  8
0
 62
     2
100
AcDbBlockReference
  2
_OPEN30
 10
762.5376319191868
 20
-97.80625284737445
 30
0.0
 41
15.00001403807643
 42
14.99994684111822
 50
360.0
  0
LINE
  5
248
330
EF
100
AcDbEntity
  8
0
  6
Continuous
 62
     2
370
    13
100
AcDbLine
 10
612.5376319191868
 20
-24.70040884737475
 30
0.0
 11
612.5376319191868
 21
-100.3062528473745
 31
0.0
  0
LINE
  5
249
330
EF
100
AcDbEntity
  8
0
  6
Continuous
 62
     2
370
    13
100
AcDbLine
 10
762.5376319191868
 20
-24.80625284737445
 30
0.0
 11
762.5376319191868
 21
-100.3062528473745
 31
0.0
  0
MTEXT
  5
24A
330
EF
100
AcDbEntity
  8
0
 62
     2
100
AcDbMText
 10
687.5376319191868
 20
-92.80625284737445
 30
0.0
 40
20.0
 41
137.5
 46
0.0
 71
     8
 72
     1
  1
\T1.00;呼び幅+50
  7
dcStyle0
 73
     1
 44
1.0
  0
ENDBLK
  5
F1
330
EF
100
AcDbEntity
  8
0
100
AcDbBlockEnd
  0
BLOCK
  5
F3
330
F2
100
AcDbEntity
  8
0
100
AcDbBlockBegin
  2
*D23
 70
     1
 10
0.0
 20
0.0
 30
0.0
  3
*D23
  1
*D23
  0
LINE
  5
24B
330
F2
100
AcDbEntity
  8
0
  6
Continuous
 62
     2
370
    13
100
AcDbLine
 10
762.5376319191868
 20
-97.80625284737445
 30
0.0
 11
775.0376309191869
 21
-97.80625284737445
 31
0.0
  0
LINE
  5
24C
330
F2
100
AcDbEntity
  8
0
  6
Continuous
 62
     2
370
    13
100
AcDbLine
 10
762.5376319191868
 20
-24.80625284737445
 30
0.0
 11
762.5376319191868
 21
-100.3062528473745
 31
0.0
  0
LINE
  5
24D
330
F2
100
AcDbEntity
  8
0
  6
Continuous
 62
     2
370
    13
100
AcDbLine
 10
775.0376309191869
 20
-14.80625284737445
 30
0.0
 11
775.0376309191869
 21
-100.3062528473745
 31
0.0
  0
LINE
  5
24E
330
F2
100
AcDbEntity
  8
0
  6
Continuous
 62
     2
370
    13
100
AcDbLine
 10
822.2426309191869
 20
-97.80625284737445
 30
0.0
 11
775.0376309191869
 21
-97.80625284737445
 31
0.0
  0
INSERT
  5
24F
330
F2
100
AcDbEntity
  8
0
 62
     2
100
AcDbBlockReference
  2
_OPEN30
 10
775.0376309191869
 20
-97.80625284737445
 30
0.0
 41
15.00001403807643
 42
14.99994684111822
 50
180.0
  0
MTEXT
  5
250
330
F2
100
AcDbEntity
  8
0
 62
     2
100
AcDbMText
 10
782.2426309191869
 20
-92.80625284737445
 30
0.0
 40
20.0
 41
75.0
 46
0.0
 71
     7
 72
     1
  1
\T1.00;12.5
  7
dcStyle0
 73
     1
 44
1.0
  0
ENDBLK
  5
F4
330
F2
100
AcDbEntity
  8
0
100
AcDbBlockEnd
  0
BLOCK
  5
F6
330
F5
100
AcDbEntity
  8
0
100
AcDbBlockBegin
  2
*D24
 70
     1
 10
0.0
 20
0.0
 30
0.0
  3
*D24
  1
*D24
  0
LINE
  5
251
330
F5
100
AcDbEntity
  8
0
  6
Continuous
 62
     2
370
    13
100
AcDbLine
 10
600.0376309191869
 20
173.7437471526257
 30
0.0
 11
630.0376309191867
 21
173.7437471526257
 31
0.0
  0
LINE
  5
252
330
F5
100
AcDbEntity
  8
0
  6
Continuous
 62
     2
370
    13
100
AcDbLine
 10
600.0376309191869
 20
55.19374715262555
 30
0.0
 11
600.0376309191869
 21
176.2437471526257
 31
0.0
  0
LINE
  5
253
330
F5
100
AcDbEntity
  8
0
  6
Continuous
 62
     2
370
    13
100
AcDbLine
 10
630.0376309191867
 20
50.89374715262537
 30
0.0
 11
630.0376309191867
 21
176.2437471526257
 31
0.0
  0
LINE
  5
254
330
F5
100
AcDbEntity
  8
0
  6
Continuous
 62
     2
370
    13
100
AcDbLine
 10
582.5376309191869
 20
173.7437471526257
 30
0.0
 11
600.0376309191869
 21
173.7437471526257
 31
0.0
  0
INSERT
  5
255
330
F5
100
AcDbEntity
  8
0
 62
     2
100
AcDbBlockReference
  2
_OPEN30
 10
600.0376309191869
 20
173.7437471526257
 30
0.0
 41
15.00001403807643
 42
14.99994684111822
 50
360.0
  0
LINE
  5
256
330
F5
100
AcDbEntity
  8
0
  6
Continuous
 62
     2
370
    13
100
AcDbLine
 10
647.5376309191867
 20
173.7437471526257
 30
0.0
 11
630.0376309191867
 21
173.7437471526257
 31
0.0
  0
INSERT
  5
257
330
F5
100
AcDbEntity
  8
0
 62
     2
100
AcDbBlockReference
  2
_OPEN30
 10
630.0376309191867
 20
173.7437471526257
 30
0.0
 41
15.00001403807643
 42
14.99994684111822
 50
180.0
  0
MTEXT
  5
258
330
F5
100
AcDbEntity
  8
0
 62
     2
100
AcDbMText
 10
615.0376309191868
 20
178.7437471526257
 30
0.0
 40
20.0
 41
50.0
 46
0.0
 71
     8
 72
     1
  1
\T1.00;30
  7
dcStyle0
 73
     1
 44
1.0
  0
ENDBLK
  5
F7
330
F5
100
AcDbEntity
  8
0
100
AcDbBlockEnd
  0
BLOCK
  5
F9
330
F8
100
AcDbEntity
  8
0
100
AcDbBlockBegin
  2
*D25
 70
     1
 10
0.0
 20
0.0
 30
0.0
  3
*D25
  1
*D25
  0
LINE
  5
259
330
F8
100
AcDbEntity
  8
0
  6
Continuous
 62
     2
370
    13
100
AcDbLine
 10
745.0376309191871
 20
173.7437471526257
 30
0.0
 11
775.0376309191869
 21
173.7437471526257
 31
0.0
  0
LINE
  5
25A
330
F8
100
AcDbEntity
  8
0
  6
Continuous
 62
     2
370
    13
100
AcDbLine
 10
745.0376309191871
 20
50.89374715262537
 30
0.0
 11
745.0376309191871
 21
176.2437471526257
 31
0.0
  0
LINE
  5
25B
330
F8
100
AcDbEntity
  8
0
  6
Continuous
 62
     2
370
    13
100
AcDbLine
 10
775.0376309191869
 20
55.19374715262555
 30
0.0
 11
775.0376309191869
 21
176.2437471526257
 31
0.0
  0
LINE
  5
25C
330
F8
100
AcDbEntity
  8
0
  6
Continuous
 62
     2
370
    13
100
AcDbLine
 10
727.5376309191871
 20
173.7437471526257
 30
0.0
 11
745.0376309191871
 21
173.7437471526257
 31
0.0
  0
INSERT
  5
25D
330
F8
100
AcDbEntity
  8
0
 62
     2
100
AcDbBlockReference
  2
_OPEN30
 10
745.0376309191871
 20
173.7437471526257
 30
0.0
 41
15.00001403807643
 42
14.99994684111822
 50
360.0
  0
LINE
  5
25E
330
F8
100
AcDbEntity
  8
0
  6
Continuous
 62
     2
370
    13
100
AcDbLine
 10
792.5376309191869
 20
173.7437471526257
 30
0.0
 11
775.0376309191869
 21
173.7437471526257
 31
0.0
  0
INSERT
  5
25F
330
F8
100
AcDbEntity
  8
0
 62
     2
100
AcDbBlockReference
  2
_OPEN30
 10
775.0376309191869
 20
173.7437471526257
 30
0.0
 41
15.00001403807643
 42
14.99994684111822
 50
180.0
  0
MTEXT
  5
260
330
F8
100
AcDbEntity
  8
0
 62
     2
100
AcDbMText
 10
760.037630919187
 20
178.7437471526257
 30
0.0
 40
20.0
 41
50.0
 46
0.0
 71
     8
 72
     1
  1
\T1.00;30
  7
dcStyle0
 73
     1
 44
1.0
  0
ENDBLK
  5
FA
330
F8
100
AcDbEntity
  8
0
100
AcDbBlockEnd
  0
BLOCK
  5
FC
330
FB
100
AcDbEntity
  8
0
100
AcDbBlockBegin
  2
DC_GROUP_W_MR-3812_S_040_3
 70
     0
 10
0.0
 20
0.0
 30
0.0
  3
DC_GROUP_W_MR-3812_S_040_3
  1
DC_GROUP_W_MR-3812_S_040_3
  0
TEXT
  5
261
330
FB
100
AcDbEntity
  8
0
 62
     2
100
AcDbText
 10
658.8949214179211
 20
-140.0172157175962
 30
0.0
 40
20.0
  1
断面図
 41
0.6877579092159559
  7
dcStyle0
 72
     5
 11
718.8949214179211
 21
-140.0172157175962
 31
0.0
100
AcDbText
  0
LINE
  5
262
330
FB
100
AcDbEntity
  8
0
  6
Continuous
 62
     2
370
    13
100
AcDbLine
 10
656.3949214179211
 20
-145.0172157175962
 30
0.0
 11
721.3949214179211
 21
-145.0172157175962
 31
0.0
  0
ENDBLK
  5
FD
330
FB
100
AcDbEntity
  8
0
100
AcDbBlockEnd
  0
BLOCK
  5
FF
330
FE
100
AcDbEntity
  8
0
100
AcDbBlockBegin
  2
DC_GROUP_W_MR-3812_S_040_4
 70
     0
 10
0.0
 20
0.0
 30
0.0
  3
DC_GROUP_W_MR-3812_S_040_4
  1
DC_GROUP_W_MR-3812_S_040_4
  0
LINE
  5
263
330
FE
100
AcDbEntity
  8
2
  6
Continuous
 62
     7
370
    18
100
AcDbLine
 10
759.7376309191868
 20
32.19374715262575
 30
0.0
 11
759.7376309191868
 21
44.19374715262575
 31
0.0
  0
LINE
  5
264
330
FE
100
AcDbEntity
  8
2
  6
Continuous
 62
     7
370
    18
100
AcDbLine
 10
747.3376309191872
 20
44.19374715262575
 30
0.0
 11
759.7376309191868
 21
44.19374715262575
 31
0.0
  0
LINE
  5
265
330
FE
100
AcDbEntity
  8
2
  6
Continuous
 62
     7
370
    18
100
AcDbLine
 10
759.7376309191868
 20
32.19374715262575
 30
0.0
 11
747.3376309191872
 21
32.19374715262575
 31
0.0
  0
LINE
  5
266
330
FE
100
AcDbEntity
  8
2
  6
Continuous
 62
     7
370
    18
100
AcDbLine
 10
616.7376309191868
 20
32.19374715262575
 30
0.0
 11
616.7376309191868
 21
42.19374715262575
 31
0.0
  0
ARC
  5
267
330
FE
100
AcDbEntity
  8
2
  6
Continuous
 62
     7
370
    18
100
AcDbCircle
 10
623.2376309191868
 20
31.19374715262575
 30
0.0
 40
1.0
100
AcDbArc
 50
179.9999980000102
 51
0.0
  0
LINE
  5
268
330
FE
100
AcDbEntity
  8
2
  6
Continuous
 62
     7
370
    18
100
AcDbLine
 10
622.2376309191868
 20
37.89374715262556
 30
0.0
 11
622.2376309191868
 21
31.19374715262575
 31
0.0
  0
LINE
  5
269
330
FE
100
AcDbEntity
  8
2
  6
Continuous
 62
     7
370
    18
100
AcDbLine
 10
624.2376309191868
 20
37.89374715262556
 30
0.0
 11
624.2376309191868
 21
31.19374715262575
 31
0.0
  0
ARC
  5
26A
330
FE
100
AcDbEntity
  8
2
  6
Continuous
 62
     7
370
    18
100
AcDbCircle
 10
623.2376309191868
 20
37.89374715262556
 30
0.0
 40
1.0
100
AcDbArc
 50
0.0
 51
180.0000139999806
  0
ARC
  5
26B
330
FE
100
AcDbEntity
  8
2
  6
Continuous
 62
     7
370
    18
100
AcDbCircle
 10
623.2376309191868
 20
38.19374715262575
 30
0.0
 40
1.3
100
AcDbArc
 50
320.2848630000091
 51
219.7151369999908
  0
LINE
  5
26C
330
FE
100
AcDbEntity
  8
2
  6
Continuous
 62
     7
370
    18
100
AcDbLine
 10
616.7376309191868
 20
42.19374715262575
 30
0.0
 11
627.7376309191868
 21
42.19374715262575
 31
0.0
  0
LINE
  5
26D
330
FE
100
AcDbEntity
  8
2
  6
Continuous
 62
     7
370
    18
100
AcDbLine
 10
627.7376309191868
 20
32.19374715262575
 30
0.0
 11
624.2376309191868
 21
32.19374715262575
 31
0.0
  0
LINE
  5
26E
330
FE
100
AcDbEntity
  8
2
  6
Continuous
 62
     7
370
    18
100
AcDbLine
 10
622.2376309191868
 20
32.19374715262575
 30
0.0
 11
616.7376309191868
 21
32.19374715262575
 31
0.0
  0
LINE
  5
26F
330
FE
100
AcDbEntity
  8
2
  6
Continuous
 62
     7
370
    18
100
AcDbLine
 10
744.037630919187
 20
32.19374715262575
 30
0.0
 11
745.037630919187
 21
32.19374715262575
 31
0.0
  0
LINE
  5
270
330
FE
100
AcDbEntity
  8
2
  6
Continuous
 62
     7
370
    18
100
AcDbLine
 10
744.037630919187
 20
46.19374715262575
 30
0.0
 11
744.037630919187
 21
30.19374715262575
 31
0.0
  0
LINE
  5
271
330
FE
100
AcDbEntity
  8
2
  6
Continuous
 62
     7
370
    18
100
AcDbLine
 10
739.537630919187
 20
46.19374715262575
 30
0.0
 11
744.037630919187
 21
46.19374715262575
 31
0.0
  0
LINE
  5
272
330
FE
100
AcDbEntity
  8
2
  6
Continuous
 62
     7
370
    18
100
AcDbLine
 10
739.537630919187
 20
30.19374715262575
 30
0.0
 11
744.037630919187
 21
30.19374715262575
 31
0.0
  0
LINE
  5
273
330
FE
100
AcDbEntity
  8
2
  6
Continuous
 62
     7
370
    18
100
AcDbLine
 10
739.537630919187
 20
23.79374715262611
 30
0.0
 11
739.537630919187
 21
52.59374715262538
 31
0.0
  0
ARC
  5
274
330
FE
100
AcDbEntity
  8
2
  6
Continuous
 62
     7
370
    18
100
AcDbCircle
 10
738.9376309191871
 20
52.59374715262538
 30
0.0
 40
0.6
100
AcDbArc
 50
0.0
 51
80.40593200000134
  0
ARC
  5
275
330
FE
100
AcDbEntity
  8
2
  6
Continuous
 62
     7
370
    18
100
AcDbCircle
 10
738.9376309191871
 20
23.79374715262611
 30
0.0
 40
0.6
100
AcDbArc
 50
279.5940679999986
 51
0.0
  0
LINE
  5
276
330
FE
100
AcDbEntity
  8
2
  6
Continuous
 62
     7
370
    18
100
AcDbLine
 10
635.537630919187
 20
30.19374715262575
 30
0.0
 11
631.037630919187
 21
30.19374715262575
 31
0.0
  0
LINE
  5
277
330
FE
100
AcDbEntity
  8
2
  6
Continuous
 62
     7
370
    18
100
AcDbLine
 10
635.537630919187
 20
23.79374715262611
 30
0.0
 11
635.537630919187
 21
52.59374715262538
 31
0.0
  0
ARC
  5
278
330
FE
100
AcDbEntity
  8
2
  6
Continuous
 62
     7
370
    18
100
AcDbCircle
 10
636.1376309191869
 20
52.59374715262538
 30
0.0
 40
0.6
100
AcDbArc
 50
99.59406799999867
 51
180.0
  0
ARC
  5
279
330
FE
100
AcDbEntity
  8
2
  6
Continuous
 62
     7
370
    18
100
AcDbCircle
 10
636.1376309191869
 20
23.79374715262611
 30
0.0
 40
0.6
100
AcDbArc
 50
180.0
 51
260.4059320000014
  0
LINE
  5
27A
330
FE
100
AcDbEntity
  8
2
  6
Continuous
 62
     7
370
    18
100
AcDbLine
 10
630.037630919187
 20
32.19374715262575
 30
0.0
 11
631.037630919187
 21
32.19374715262575
 31
0.0
  0
LINE
  5
27B
330
FE
100
AcDbEntity
  8
2
  6
Continuous
 62
     7
370
    18
100
AcDbLine
 10
631.037630919187
 20
46.19374715262575
 30
0.0
 11
631.037630919187
 21
30.19374715262575
 31
0.0
  0
LINE
  5
27C
330
FE
100
AcDbEntity
  8
2
  6
Continuous
 62
     7
370
    18
100
AcDbLine
 10
635.537630919187
 20
46.19374715262575
 30
0.0
 11
631.037630919187
 21
46.19374715262575
 31
0.0
  0
LINE
  5
27D
330
FE
100
AcDbEntity
  8
2
  6
Continuous
 62
     7
370
    18
100
AcDbLine
 10
636.037630919187
 20
22.04374715262611
 30
0.0
 11
636.037630919187
 21
54.34374715262538
 31
0.0
  0
LINE
  5
27E
330
FE
100
AcDbEntity
  8
2
  6
Continuous
 62
     7
370
    18
100
AcDbLine
 10
739.037630919187
 20
22.04374715262611
 30
0.0
 11
739.037630919187
 21
54.34374715262538
 31
0.0
  0
LINE
  5
27F
330
FE
100
AcDbEntity
  8
2
  6
Continuous
 62
     7
370
    18
100
AcDbLine
 10
630.037630919187
 20
42.19374715262575
 30
0.0
 11
631.037630919187
 21
42.19374715262575
 31
0.0
  0
LINE
  5
280
330
FE
100
AcDbEntity
  8
2
  6
Continuous
 62
     7
370
    18
100
AcDbLine
 10
744.037630919187
 20
44.19374715262575
 30
0.0
 11
745.037630919187
 21
44.19374715262575
 31
0.0
  0
ARC
  5
281
330
FE
100
AcDbEntity
  8
2
  6
Continuous
 62
     7
370
    18
100
AcDbCircle
 10
736.1376309191869
 20
54.34374715262538
 30
0.0
 40
2.9
100
AcDbArc
 50
0.0
 51
90.0
  0
LINE
  5
282
330
FE
100
AcDbEntity
  8
2
  6
Continuous
 62
     7
370
    18
100
AcDbLine
 10
638.9376309191871
 20
57.24374715262593
 30
0.0
 11
736.1376309191869
 21
57.24374715262593
 31
0.0
  0
ARC
  5
283
330
FE
100
AcDbEntity
  8
2
  6
Continuous
 62
     7
370
    18
100
AcDbCircle
 10
638.9376309191871
 20
54.34374715262538
 30
0.0
 40
2.9
100
AcDbArc
 50
90.0
 51
180.0
  0
LINE
  5
284
330
FE
100
AcDbEntity
  8
2
  6
Continuous
 62
     7
370
    18
100
AcDbLine
 10
638.9376309191871
 20
19.14374715262556
 30
0.0
 11
736.1376309191869
 21
19.14374715262556
 31
0.0
  0
ARC
  5
285
330
FE
100
AcDbEntity
  8
2
  6
Continuous
 62
     7
370
    18
100
AcDbCircle
 10
638.9376309191871
 20
22.04374715262611
 30
0.0
 40
2.9
100
AcDbArc
 50
180.0
 51
270.0
  0
ARC
  5
286
330
FE
100
AcDbEntity
  8
2
  6
Continuous
 62
     7
370
    18
100
AcDbCircle
 10
736.1376309191869
 20
22.04374715262611
 30
0.0
 40
2.9
100
AcDbArc
 50
270.0
 51
0.0
  0
LINE
  5
287
330
FE
100
AcDbEntity
  8
2
  6
CENTER
 62
     3
370
    13
100
AcDbLine
 10
623.2376309191868
 20
27.935003152626
 30
0.0
 11
623.2376309191868
 21
43.98119415262545
 31
0.0
  0
LINE
  5
288
330
FE
100
AcDbEntity
  8
2
  6
CENTER
 62
     3
370
    13
100
AcDbLine
 10
765.037630919187
 20
38.19374715262575
 30
0.0
 11
611.6086113738585
 21
38.19374715262575
 31
0.0
  0
ENDBLK
  5
100
330
FE
100
AcDbEntity
  8
0
100
AcDbBlockEnd
  0
BLOCK
  5
102
330
101
100
AcDbEntity
  8
0
100
AcDbBlockBegin
  2
*D28
 70
     1
 10
0.0
 20
0.0
 30
0.0
  3
*D28
  1
*D28
  0
LINE
  5
289
330
101
100
AcDbEntity
  8
0
  6
Continuous
 62
     2
370
    13
100
AcDbLine
 10
572.0376309191869
 20
-9.806252847374452
 30
0.0
 11
572.0376309191869
 21
38.19374715262575
 31
0.0
  0
INSERT
  5
28A
330
101
100
AcDbEntity
  8
0
 62
     2
100
AcDbBlockReference
  2
_OPEN30
 10
572.0376309191869
 20
-9.806252847374452
 30
0.0
 41
15.00001403807643
 42
14.99994684111822
 50
270.0
  0
INSERT
  5
28B
330
101
100
AcDbEntity
  8
0
 62
     2
100
AcDbBlockReference
  2
_OPEN30
 10
572.0376309191869
 20
38.19374715262575
 30
0.0
 41
15.00001403807643
 42
14.99994684111822
 50
90.0
  0
LINE
  5
28C
330
101
100
AcDbEntity
  8
0
  6
Continuous
 62
     2
370
    13
100
AcDbLine
 10
595.0376309191869
 20
-9.806252847374452
 30
0.0
 11
569.5376309191869
 21
-9.806252847374452
 31
0.0
  0
LINE
  5
28D
330
101
100
AcDbEntity
  8
0
  6
Continuous
 62
     2
370
    13
100
AcDbLine
 10
606.6086113738585
 20
38.19374715262575
 30
0.0
 11
569.5376309191869
 21
38.19374715262575
 31
0.0
  0
MTEXT
  5
28E
330
101
100
AcDbEntity
  8
0
 62
     2
100
AcDbMText
 10
567.0376309191869
 20
14.19374715262565
 30
0.0
 40
20.0
 41
50.0
 46
0.0
 71
     8
 72
     1
  1
\T1.00;48
  7
dcStyle0
 11
6.123233995736766E-17
 21
1.0
 31
0.0
 73
     1
 44
1.0
  0
ENDBLK
  5
103
330
101
100
AcDbEntity
  8
0
100
AcDbBlockEnd
  0
BLOCK
  5
105
330
104
100
AcDbEntity
  8
0
100
AcDbBlockBegin
  2
*D29
 70
     1
 10
0.0
 20
0.0
 30
0.0
  3
*D29
  1
*D29
  0
LINE
  5
28F
330
104
100
AcDbEntity
  8
0
  6
Continuous
 62
     2
370
    13
100
AcDbLine
 10
492.0376309191869
 20
-9.806252847374452
 30
0.0
 11
492.0376309191869
 21
57.24374715262593
 31
0.0
  0
INSERT
  5
290
330
104
100
AcDbEntity
  8
0
 62
     2
100
AcDbBlockReference
  2
_OPEN30
 10
492.0376309191869
 20
-9.806252847374452
 30
0.0
 41
15.00001403807643
 42
14.99994684111822
 50
270.0
  0
INSERT
  5
291
330
104
100
AcDbEntity
  8
0
 62
     2
100
AcDbBlockReference
  2
_OPEN30
 10
492.0376309191869
 20
57.24374715262593
 30
0.0
 41
15.00001403807643
 42
14.99994684111822
 50
90.0
  0
LINE
  5
292
330
104
100
AcDbEntity
  8
0
  6
Continuous
 62
     2
370
    13
100
AcDbLine
 10
595.0376309191869
 20
-9.806252847374452
 30
0.0
 11
489.5376309191869
 21
-9.806252847374452
 31
0.0
  0
LINE
  5
293
330
104
100
AcDbEntity
  8
0
  6
Continuous
 62
     2
370
    13
100
AcDbLine
 10
633.9376309191871
 20
57.24374715262593
 30
0.0
 11
489.5376309191869
 21
57.24374715262593
 31
0.0
  0
MTEXT
  5
294
330
104
100
AcDbEntity
  8
0
 62
     2
100
AcDbMText
 10
487.0376309191869
 20
23.71874715262574
 30
0.0
 40
20.0
 41
50.0
 46
0.0
 71
     8
 72
     1
  1
\T1.00;67
  7
dcStyle0
 11
6.123233995736766E-17
 21
1.0
 31
0.0
 73
     1
 44
1.0
  0
ENDBLK
  5
106
330
104
100
AcDbEntity
  8
0
100
AcDbBlockEnd
  0
BLOCK
  5
108
330
107
100
AcDbEntity
  8
0
100
AcDbBlockBegin
  2
DC_IMAGEDIMGROUP_3
 70
     0
 10
0.0
 20
0.0
 30
0.0
  3
DC_IMAGEDIMGROUP_3
  1
DC_IMAGEDIMGROUP_3
  0
LINE
  5
295
330
107
100
AcDbEntity
  8
0
  6
Continuous
 62
     2
370
    13
100
AcDbLine
 10
731.1376309191869
 20
19.14374715262556
 30
0.0
 11
696.6838210490347
 21
19.14374715262556
 31
0.0
  0
LINE
  5
296
330
107
100
AcDbEntity
  8
0
  6
Continuous
 62
     2
370
    13
100
AcDbLine
 10
731.1376309191869
 20
57.24374715262538
 30
0.0
 11
696.6838210490347
 21
57.24374715262538
 31
0.0
  0
LINE
  5
297
330
107
100
AcDbEntity
  8
0
  6
Continuous
 62
     2
370
    13
100
AcDbLine
 10
699.1838210490347
 20
19.14374715262556
 30
0.0
 11
699.1838210490347
 21
57.24374715262538
 31
0.0
  0
LINE
  5
298
330
107
100
AcDbEntity
  8
0
  6
Continuous
 62
     2
370
    13
100
AcDbLine
 10
699.1838210490347
 20
112.4487471526254
 30
0.0
 11
699.1838210490347
 21
57.24374715262538
 31
0.0
  0
INSERT
  5
299
330
107
100
AcDbEntity
  8
0
 62
     2
100
AcDbBlockReference
  2
_OPEN30
 10
699.1838210490347
 20
57.24374715262538
 30
0.0
 41
15.00001403807643
 42
14.99994684111822
 50
270.0
  0
LINE
  5
29A
330
107
100
AcDbEntity
  8
0
  6
Continuous
 62
     2
370
    13
100
AcDbLine
 10
699.1838210490347
 20
1.643747152625565
 30
0.0
 11
699.1838210490347
 21
19.14374715262556
 31
0.0
  0
INSERT
  5
29B
330
107
100
AcDbEntity
  8
0
 62
     2
100
AcDbBlockReference
  2
_OPEN30
 10
699.1838210490347
 20
19.14374715262556
 30
0.0
 41
15.00001403807643
 42
14.99994684111822
 50
90.0
  0
MTEXT
  5
29C
330
107
100
AcDbEntity
  8
0
 62
     2
100
AcDbMText
 10
694.1838210490347
 20
64.44874715262537
 30
0.0
 40
20.0
 41
85.0
 46
0.0
 71
     7
 72
     1
  1
\T1.00;φ38.1
  7
dcStyle0
 11
6.123233995736766E-17
 21
1.0
 31
0.0
 73
     1
 44
1.0
  0
ENDBLK
  5
109
330
107
100
AcDbEntity
  8
0
100
AcDbBlockEnd
  0
BLOCK
  5
10B
330
10A
100
AcDbEntity
  8
0
100
AcDbBlockBegin
  2
*D31
 70
     1
 10
0.0
 20
0.0
 30
0.0
  3
*D31
  1
*D31
  0
LINE
  5
29D
330
10A
100
AcDbEntity
  8
0
  6
Continuous
 62
     2
370
    13
100
AcDbLine
 10
636.037630919187
 20
123.7437471526257
 30
0.0
 11
739.037630919187
 21
123.7437471526257
 31
0.0
  0
INSERT
  5
29E
330
10A
100
AcDbEntity
  8
0
 62
     2
100
AcDbBlockReference
  2
_OPEN30
 10
636.037630919187
 20
123.7437471526257
 30
0.0
 41
15.00001403807643
 42
14.99994684111822
 50
180.0
  0
INSERT
  5
29F
330
10A
100
AcDbEntity
  8
0
 62
     2
100
AcDbBlockReference
  2
_OPEN30
 10
739.037630919187
 20
123.7437471526257
 30
0.0
 41
15.00001403807643
 42
14.99994684111822
 50
360.0
  0
LINE
  5
2A0
330
10A
100
AcDbEntity
  8
0
  6
Continuous
 62
     2
370
    13
100
AcDbLine
 10
636.037630919187
 20
59.34374715262538
 30
0.0
 11
636.037630919187
 21
126.2437471526257
 31
0.0
  0
LINE
  5
2A1
330
10A
100
AcDbEntity
  8
0
  6
Continuous
 62
     2
370
    13
100
AcDbLine
 10
739.037630919187
 20
59.34374715262538
 30
0.0
 11
739.037630919187
 21
126.2437471526257
 31
0.0
  0
MTEXT
  5
2A2
330
10A
100
AcDbEntity
  8
0
 62
     2
100
AcDbMText
 10
687.537630919187
 20
128.7437471526257
 30
0.0
 40
20.0
 41
125.0
 46
0.0
 71
     8
 72
     1
  1
\T1.00;ローラ幅
  7
dcStyle0
 73
     1
 44
1.0
  0
ENDBLK
  5
10C
330
10A
100
AcDbEntity
  8
0
100
AcDbBlockEnd
  0
BLOCK
  5
10E
330
10D
100
AcDbEntity
  8
0
100
AcDbBlockBegin
  2
DC_GROUP_W_MR-3812_S_040_5
 70
     0
 10
0.0
 20
0.0
 30
0.0
  3
DC_GROUP_W_MR-3812_S_040_5
  1
DC_GROUP_W_MR-3812_S_040_5
  0
TEXT
  5
2A3
330
10D
100
AcDbEntity
  8
0
 62
     2
100
AcDbText
 10
249.6900826443975
 20
-267.9653937927573
 30
0.0
 40
19.9999999992
  1
ローラ幅(mm)
 41
0.7225433526011557
  7
dcStyle0
 72
     5
 11
369.6900826395974
 21
-267.9653937927573
 31
0.0
100
AcDbText
  0
TEXT
  5
2A4
330
10D
100
AcDbEntity
  8
0
 62
     2
100
AcDbText
 10
387.1900826372642
 20
-267.9653937927573
 30
0.0
 40
19.9999999992
  1
103
 41
0.6877579092159567
  7
dcStyle0
 72
     5
 11
417.1900826360642
 21
-267.9653937927573
 31
0.0
100
AcDbText
  0
TEXT
  5
2A5
330
10D
100
AcDbEntity
  8
0
 62
     2
100
AcDbText
 10
537.1900826312641
 20
-267.9653937927573
 30
0.0
 40
19.9999999992
  1
253
 41
0.6877579092159541
  7
dcStyle0
 72
     5
 11
567.190082630064
 21
-267.9653937927573
 31
0.0
100
AcDbText
  0
TEXT
  5
2A6
330
10D
100
AcDbEntity
  8
0
 62
     2
100
AcDbText
 10
437.1900826352642
 20
-267.9653937927573
 30
0.0
 40
19.9999999992
  1
153
 41
0.6877579092159567
  7
dcStyle0
 72
     5
 11
467.1900826340643
 21
-267.9653937927573
 31
0.0
100
AcDbText
  0
TEXT
  5
2A7
330
10D
100
AcDbEntity
  8
0
 62
     2
100
AcDbText
 10
487.1900826332642
 20
-267.9653937927573
 30
0.0
 40
19.9999999992
  1
203
 41
0.6877579092159555
  7
dcStyle0
 72
     5
 11
517.1900826320642
 21
-267.9653937927573
 31
0.0
100
AcDbText
  0
TEXT
  5
2A8
330
10D
100
AcDbEntity
  8
0
 62
     2
100
AcDbText
 10
249.6900826444066
 20
-241.2987271271592
 30
0.0
 40
19.9999999992
  1
呼び幅(mm)
 41
0.6824075337791727
  7
dcStyle0
 72
     5
 11
349.6900826404066
 21
-241.2987271271592
 31
0.0
100
AcDbText
  0
TEXT
  5
2A9
330
10D
100
AcDbEntity
  8
0
 62
     2
100
AcDbText
 10
387.1900826372642
 20
-241.2987271271592
 30
0.0
 40
19.9999999992
  1
100
 41
0.6877579092159567
  7
dcStyle0
 72
     5
 11
417.1900826360642
 21
-241.2987271271592
 31
0.0
100
AcDbText
  0
TEXT
  5
2AA
330
10D
100
AcDbEntity
  8
0
 62
     2
100
AcDbText
 10
537.1900826312641
 20
-241.2987271271592
 30
0.0
 40
19.9999999992
  1
250
 41
0.6877579092159541
  7
dcStyle0
 72
     5
 11
567.190082630064
 21
-241.2987271271592
 31
0.0
100
AcDbText
  0
TEXT
  5
2AB
330
10D
100
AcDbEntity
  8
0
 62
     2
100
AcDbText
 10
437.1900826352642
 20
-241.2987271271592
 30
0.0
 40
19.9999999992
  1
150
 41
0.6877579092159567
  7
dcStyle0
 72
     5
 11
467.1900826340643
 21
-241.2987271271592
 31
0.0
100
AcDbText
  0
TEXT
  5
2AC
330
10D
100
AcDbEntity
  8
0
 62
     2
100
AcDbText
 10
487.1900826332642
 20
-241.2987271271592
 30
0.0
 40
19.9999999992
  1
200
 41
0.6877579092159555
  7
dcStyle0
 72
     5
 11
517.1900826320642
 21
-241.2987271271592
 31
0.0
100
AcDbText
  0
TEXT
  5
2AD
330
10D
100
AcDbEntity
  8
0
 62
     2
100
AcDbText
 10
587.1900826292643
 20
-267.9653937927573
 30
0.0
 40
19.9999999992
  1
303
 41
0.6877579092159541
  7
dcStyle0
 72
     5
 11
617.1900826280643
 21
-267.9653937927573
 31
0.0
100
AcDbText
  0
TEXT
  5
2AE
330
10D
100
AcDbEntity
  8
0
 62
     2
100
AcDbText
 10
587.1900826292643
 20
-241.2987271271592
 30
0.0
 40
19.9999999992
  1
300
 41
0.6877579092159541
  7
dcStyle0
 72
     5
 11
617.1900826280643
 21
-241.2987271271592
 31
0.0
100
AcDbText
  0
TEXT
  5
2AF
330
10D
100
AcDbEntity
  8
0
 62
     2
100
AcDbText
 10
637.1900826272641
 20
-267.9653937927573
 30
0.0
 40
19.9999999992
  1
353
 41
0.6877579092159541
  7
dcStyle0
 72
     5
 11
667.190082626064
 21
-267.9653937927573
 31
0.0
100
AcDbText
  0
TEXT
  5
2B0
330
10D
100
AcDbEntity
  8
0
 62
     2
100
AcDbText
 10
637.1900826272641
 20
-241.2987271271592
 30
0.0
 40
19.9999999992
  1
350
 41
0.6877579092159541
  7
dcStyle0
 72
     5
 11
667.190082626064
 21
-241.2987271271592
 31
0.0
100
AcDbText
  0
TEXT
  5
2B1
330
10D
100
AcDbEntity
  8
0
 62
     2
100
AcDbText
 10
687.1900826252642
 20
-267.9653937927573
 30
0.0
 40
19.9999999992
  1
403
 41
0.6877579092159541
  7
dcStyle0
 72
     5
 11
717.1900826240641
 21
-267.9653937927573
 31
0.0
100
AcDbText
  0
TEXT
  5
2B2
330
10D
100
AcDbEntity
  8
0
 62
     2
100
AcDbText
 10
687.1900826252642
 20
-241.2987271271592
 30
0.0
 40
19.9999999992
  1
400
 41
0.6877579092159541
  7
dcStyle0
 72
     5
 11
717.1900826240641
 21
-241.2987271271592
 31
0.0
100
AcDbText
  0
TEXT
  5
2B3
330
10D
100
AcDbEntity
  8
0
 62
     2
100
AcDbText
 10
737.1900826232642
 20
-267.9653937927573
 30
0.0
 40
19.9999999992
  1
453
 41
0.6877579092159541
  7
dcStyle0
 72
     5
 11
767.1900826220641
 21
-267.9653937927573
 31
0.0
100
AcDbText
  0
TEXT
  5
2B4
330
10D
100
AcDbEntity
  8
0
 62
     2
100
AcDbText
 10
737.1900826232642
 20
-241.2987271271592
 30
0.0
 40
19.9999999992
  1
450
 41
0.6877579092159541
  7
dcStyle0
 72
     5
 11
767.1900826220641
 21
-241.2987271271592
 31
0.0
100
AcDbText
  0
TEXT
  5
2B5
330
10D
100
AcDbEntity
  8
0
 62
     2
100
AcDbText
 10
787.1900826212642
 20
-267.9653937927573
 30
0.0
 40
19.9999999992
  1
503
 41
0.6877579092159541
  7
dcStyle0
 72
     5
 11
817.1900826200641
 21
-267.9653937927573
 31
0.0
100
AcDbText
  0
TEXT
  5
2B6
330
10D
100
AcDbEntity
  8
0
 62
     2
100
AcDbText
 10
787.1900826212642
 20
-241.2987271271592
 30
0.0
 40
19.9999999992
  1
500
 41
0.6877579092159541
  7
dcStyle0
 72
     5
 11
817.1900826200641
 21
-241.2987271271592
 31
0.0
100
AcDbText
  0
TEXT
  5
2B7
330
10D
100
AcDbEntity
  8
0
 62
     2
100
AcDbText
 10
249.6900826445288
 20
-294.6320604583591
 30
0.0
 40
19.9999999992
  1
機　幅(mm)
 41
0.7250580046403712
  7
dcStyle0
 72
     5
 11
349.6900826405288
 21
-294.6320604583591
 31
0.0
100
AcDbText
  0
TEXT
  5
2B8
330
10D
100
AcDbEntity
  8
0
 62
     2
100
AcDbText
 10
387.1900826372649
 20
-294.6320604583591
 30
0.0
 40
19.9999999992
  1
175
 41
0.6877579092159567
  7
dcStyle0
 72
     5
 11
417.1900826360649
 21
-294.6320604583591
 31
0.0
100
AcDbText
  0
TEXT
  5
2B9
330
10D
100
AcDbEntity
  8
0
 62
     2
100
AcDbText
 10
537.1900826312648
 20
-294.6320604583591
 30
0.0
 40
19.9999999992
  1
325
 41
0.6877579092159541
  7
dcStyle0
 72
     5
 11
567.1900826300647
 21
-294.6320604583591
 31
0.0
100
AcDbText
  0
TEXT
  5
2BA
330
10D
100
AcDbEntity
  8
0
 62
     2
100
AcDbText
 10
437.1900826352647
 20
-294.6320604583591
 30
0.0
 40
19.9999999992
  1
225
 41
0.6877579092159567
  7
dcStyle0
 72
     5
 11
467.1900826340647
 21
-294.6320604583591
 31
0.0
100
AcDbText
  0
TEXT
  5
2BB
330
10D
100
AcDbEntity
  8
0
 62
     2
100
AcDbText
 10
487.1900826332647
 20
-294.6320604583591
 30
0.0
 40
19.9999999992
  1
275
 41
0.6877579092159555
  7
dcStyle0
 72
     5
 11
517.1900826320647
 21
-294.6320604583591
 31
0.0
100
AcDbText
  0
TEXT
  5
2BC
330
10D
100
AcDbEntity
  8
0
 62
     2
100
AcDbText
 10
587.1900826292648
 20
-294.6320604583591
 30
0.0
 40
19.9999999992
  1
375
 41
0.6877579092159541
  7
dcStyle0
 72
     5
 11
617.1900826280647
 21
-294.6320604583591
 31
0.0
100
AcDbText
  0
TEXT
  5
2BD
330
10D
100
AcDbEntity
  8
0
 62
     2
100
AcDbText
 10
637.190082627265
 20
-294.6320604583591
 30
0.0
 40
19.9999999992
  1
425
 41
0.6877579092159541
  7
dcStyle0
 72
     5
 11
667.190082626065
 21
-294.6320604583591
 31
0.0
100
AcDbText
  0
TEXT
  5
2BE
330
10D
100
AcDbEntity
  8
0
 62
     2
100
AcDbText
 10
687.1900826252651
 20
-294.6320604583591
 30
0.0
 40
19.9999999992
  1
475
 41
0.6877579092159541
  7
dcStyle0
 72
     5
 11
717.190082624065
 21
-294.6320604583591
 31
0.0
100
AcDbText
  0
TEXT
  5
2BF
330
10D
100
AcDbEntity
  8
0
 62
     2
100
AcDbText
 10
737.1900826232651
 20
-294.6320604583591
 30
0.0
 40
19.9999999992
  1
525
 41
0.6877579092159541
  7
dcStyle0
 72
     5
 11
767.190082622065
 21
-294.6320604583591
 31
0.0
100
AcDbText
  0
TEXT
  5
2C0
330
10D
100
AcDbEntity
  8
0
 62
     2
100
AcDbText
 10
787.1900826212649
 20
-294.6320604583591
 30
0.0
 40
19.9999999992
  1
575
 41
0.6877579092159541
  7
dcStyle0
 72
     5
 11
817.1900826200648
 21
-294.6320604583591
 31
0.0
100
AcDbText
  0
TEXT
  5
2C1
330
10D
100
AcDbEntity
  8
0
 62
     2
100
AcDbText
 10
837.1900826192642
 20
-241.2987271271592
 30
0.0
 40
19.9999999992
  1
600
 41
0.6877579092159541
  7
dcStyle0
 72
     5
 11
867.1900826180641
 21
-241.2987271271592
 31
0.0
100
AcDbText
  0
TEXT
  5
2C2
330
10D
100
AcDbEntity
  8
0
 62
     2
100
AcDbText
 10
837.1900826192642
 20
-267.9653937927573
 30
0.0
 40
19.9999999992
  1
603
 41
0.6877579092159541
  7
dcStyle0
 72
     5
 11
867.1900826180641
 21
-267.9653937927573
 31
0.0
100
AcDbText
  0
TEXT
  5
2C3
330
10D
100
AcDbEntity
  8
0
 62
     2
100
AcDbText
 10
837.1900826192649
 20
-294.6320604583591
 30
0.0
 40
19.9999999992
  1
675
 41
0.6877579092159541
  7
dcStyle0
 72
     5
 11
867.1900826180648
 21
-294.6320604583591
 31
0.0
100
AcDbText
  0
TEXT
  5
2C4
330
10D
100
AcDbEntity
  8
0
 62
     2
100
AcDbText
 10
887.1900826172642
 20
-241.2987271271592
 30
0.0
 40
19.9999999992
  1
700
 41
0.6877579092159541
  7
dcStyle0
 72
     5
 11
917.1900826160642
 21
-241.2987271271592
 31
0.0
100
AcDbText
  0
TEXT
  5
2C5
330
10D
100
AcDbEntity
  8
0
 62
     2
100
AcDbText
 10
887.1900826172642
 20
-267.9653937927573
 30
0.0
 40
19.9999999992
  1
703
 41
0.6877579092159541
  7
dcStyle0
 72
     5
 11
917.1900826160642
 21
-267.9653937927573
 31
0.0
100
AcDbText
  0
TEXT
  5
2C6
330
10D
100
AcDbEntity
  8
0
 62
     2
100
AcDbText
 10
887.1900826172649
 20
-294.6320604583591
 30
0.0
 40
19.9999999992
  1
775
 41
0.6877579092159541
  7
dcStyle0
 72
     5
 11
917.1900826160648
 21
-294.6320604583591
 31
0.0
100
AcDbText
  0
LINE
  5
2C7
330
10D
100
AcDbEntity
  8
0
  6
Continuous
 62
     3
370
    13
100
AcDbLine
 10
242.1900826447065
 20
-244.6320604603592
 30
0.0
 11
927.1900826156642
 21
-244.6320604603592
 31
0.0
  0
LINE
  5
2C8
330
10D
100
AcDbEntity
  8
0
  6
Continuous
 62
     3
370
    13
100
AcDbLine
 10
242.1900826447065
 20
-271.2987271259592
 30
0.0
 11
927.1900826156642
 21
-271.2987271259451
 31
0.0
  0
LINE
  5
2C9
330
10D
100
AcDbEntity
  8
0
  6
Continuous
 62
     3
370
    13
100
AcDbLine
 10
427.1900826356642
 20
-217.9653937947592
 30
0.0
 11
427.1900826356642
 21
-297.9653937915556
 31
0.0
  0
LINE
  5
2CA
330
10D
100
AcDbEntity
  8
0
  6
Continuous
 62
     3
370
    13
100
AcDbLine
 10
477.1900826336642
 20
-217.9653937947592
 30
0.0
 11
477.1900826336642
 21
-297.965393791554
 31
0.0
  0
LINE
  5
2CB
330
10D
100
AcDbEntity
  8
0
  6
Continuous
 62
     3
370
    13
100
AcDbLine
 10
527.1900826316643
 20
-217.9653937947592
 30
0.0
 11
527.1900826316643
 21
-297.9653937915533
 31
0.0
  0
LINE
  5
2CC
330
10D
100
AcDbEntity
  8
0
  6
Continuous
 62
     3
370
    13
100
AcDbLine
 10
577.1900826296643
 20
-217.9653937947592
 30
0.0
 11
577.1900826296643
 21
-297.9653937915533
 31
0.0
  0
LINE
  5
2CD
330
10D
100
AcDbEntity
  8
0
  6
Continuous
 62
     3
370
    13
100
AcDbLine
 10
627.1900826276643
 20
-217.9653937947592
 30
0.0
 11
627.1900826276643
 21
-297.9653937915533
 31
0.0
  0
LINE
  5
2CE
330
10D
100
AcDbEntity
  8
0
  6
Continuous
 62
     3
370
    13
100
AcDbLine
 10
677.1900826256641
 20
-217.9653937947592
 30
0.0
 11
677.1900826256641
 21
-297.9653937915533
 31
0.0
  0
LINE
  5
2CF
330
10D
100
AcDbEntity
  8
0
  6
Continuous
 62
     3
370
    13
100
AcDbLine
 10
727.1900826236641
 20
-217.9653937947592
 30
0.0
 11
727.1900826236641
 21
-297.9653937915533
 31
0.0
  0
LINE
  5
2D0
330
10D
100
AcDbEntity
  8
0
  6
Continuous
 62
     3
370
    13
100
AcDbLine
 10
777.1900826216641
 20
-217.9653937947592
 30
0.0
 11
777.1900826216641
 21
-297.9653937915533
 31
0.0
  0
LINE
  5
2D1
330
10D
100
AcDbEntity
  8
0
  6
Continuous
 62
     3
370
    13
100
AcDbLine
 10
242.1900826447072
 20
-297.9653937915592
 30
0.0
 11
927.1900826156642
 21
-297.9653937915446
 31
0.0
  0
LINE
  5
2D2
330
10D
100
AcDbEntity
  8
0
  6
Continuous
 62
     3
370
    13
100
AcDbLine
 10
242.1900826446883
 20
-217.9653937947592
 30
0.0
 11
927.190082615646
 21
-217.9653937947592
 31
0.0
  0
LINE
  5
2D3
330
10D
100
AcDbEntity
  8
0
  6
Continuous
 62
     3
370
    13
100
AcDbLine
 10
827.1900826196642
 20
-217.9653937947592
 30
0.0
 11
827.1900826196642
 21
-297.9653937915533
 31
0.0
  0
LINE
  5
2D4
330
10D
100
AcDbEntity
  8
0
  6
Continuous
 62
     3
370
    13
100
AcDbLine
 10
877.1900826176642
 20
-217.9653937947592
 30
0.0
 11
877.1900826176642
 21
-297.9653937915533
 31
0.0
  0
LINE
  5
2D5
330
10D
100
AcDbEntity
  8
0
  6
Continuous
 62
     3
370
    13
100
AcDbLine
 10
242.1900826446701
 20
-217.9653937947592
 30
0.0
 11
242.1900826447032
 21
-297.9653937915592
 31
0.0
  0
LINE
  5
2D6
330
10D
100
AcDbEntity
  8
0
  6
Continuous
 62
     3
370
    13
100
AcDbLine
 10
377.190082637664
 20
-217.9653937947592
 30
0.0
 11
377.190082637664
 21
-297.9653937915556
 31
0.0
  0
LINE
  5
2D7
330
10D
100
AcDbEntity
  8
0
  6
Continuous
 62
     3
370
    13
100
AcDbLine
 10
927.1900826156278
 20
-217.9653937947592
 30
0.0
 11
927.1900826156609
 21
-297.9653937915447
 31
0.0
  0
ENDBLK
  5
10F
330
10D
100
AcDbEntity
  8
0
100
AcDbBlockEnd
  0
BLOCK
  5
111
330
110
100
AcDbEntity
  8
0
100
AcDbBlockBegin
  2
DC_IMAGEDIMGROUP_4
 70
     0
 10
0.0
 20
0.0
 30
0.0
  3
DC_IMAGEDIMGROUP_4
  1
DC_IMAGEDIMGROUP_4
  0
LINE
  5
2D8
330
110
100
AcDbEntity
  8
0
  6
Continuous
 62
     2
370
    13
100
AcDbLine
 10
256.0412042597162
 20
-9.806252847374445
 30
0.0
 11
256.0412042597162
 21
5.193747152625555
 31
0.0
  0
LINE
  5
2D9
330
110
100
AcDbEntity
  8
0
  6
Continuous
 62
     2
370
    13
100
AcDbLine
 10
218.0412042597162
 20
-9.806252847374452
 30
0.0
 11
258.5412042597162
 21
-9.806252847374445
 31
0.0
  0
LINE
  5
2DA
330
110
100
AcDbEntity
  8
0
  6
Continuous
 62
     2
370
    13
100
AcDbLine
 10
217.0305102597162
 20
5.193747152625548
 30
0.0
 11
258.5412042597162
 21
5.193747152625555
 31
0.0
  0
LINE
  5
2DB
330
110
100
AcDbEntity
  8
0
  6
Continuous
 62
     2
370
    13
100
AcDbLine
 10
256.0412042597162
 20
32.39874715262555
 30
0.0
 11
256.0412042597162
 21
5.193747152625555
 31
0.0
  0
INSERT
  5
2DC
330
110
100
AcDbEntity
  8
0
 62
     2
100
AcDbBlockReference
  2
_OPEN30
 10
256.0412042597162
 20
5.193747152625555
 30
0.0
 41
15.00001403807643
 42
14.99994684111822
 50
270.0
  0
LINE
  5
2DD
330
110
100
AcDbEntity
  8
0
  6
Continuous
 62
     2
370
    13
100
AcDbLine
 10
256.0412042597162
 20
-27.30625284737445
 30
0.0
 11
256.0412042597162
 21
-9.806252847374445
 31
0.0
  0
INSERT
  5
2DE
330
110
100
AcDbEntity
  8
0
 62
     2
100
AcDbBlockReference
  2
_OPEN30
 10
256.0412042597162
 20
-9.806252847374445
 30
0.0
 41
15.00001403807643
 42
14.99994684111822
 50
90.0
  0
MTEXT
  5
2DF
330
110
100
AcDbEntity
  8
0
 62
     2
100
AcDbMText
 10
251.0412042597162
 20
12.39874715262555
 30
0.0
 40
20.0
 41
50.0
 46
0.0
 71
     7
 72
     1
  1
\T1.00;15
  7
dcStyle0
 11
6.123233995736766E-17
 21
1.0
 31
0.0
 73
     1
 44
1.0
  0
ENDBLK
  5
112
330
110
100
AcDbEntity
  8
0
100
AcDbBlockEnd
  0
BLOCK
  5
114
330
113
100
AcDbEntity
  8
0
100
AcDbBlockBegin
  2
*D34
 70
     1
 10
0.0
 20
0.0
 30
0.0
  3
*D34
  1
*D34
  0
LINE
  5
2E0
330
113
100
AcDbEntity
  8
0
  6
Continuous
 62
     2
370
    13
100
AcDbLine
 10
-750.9587957402837
 20
83.74374715262573
 30
0.0
 11
-596.9587957402837
 21
83.74374715262573
 31
0.0
  0
INSERT
  5
2E1
330
113
100
AcDbEntity
  8
0
 62
     2
100
AcDbBlockReference
  2
_OPEN30
 10
-750.9587957402837
 20
83.74374715262573
 30
0.0
 41
15.00001403807643
 42
14.99994684111822
 50
180.0
  0
INSERT
  5
2E2
330
113
100
AcDbEntity
  8
0
 62
     2
100
AcDbBlockReference
  2
_OPEN30
 10
-596.9587957402837
 20
83.74374715262573
 30
0.0
 41
15.00001403807643
 42
14.99994684111822
 50
360.0
  0
LINE
  5
2E3
330
113
100
AcDbEntity
  8
0
  6
Continuous
 62
     2
370
    13
100
AcDbLine
 10
-750.9587957402837
 20
66.79374715262588
 30
0.0
 11
-750.9587957402837
 21
86.24374715262573
 31
0.0
  0
LINE
  5
2E4
330
113
100
AcDbEntity
  8
0
  6
Continuous
 62
     2
370
    13
100
AcDbLine
 10
-596.9587957402837
 20
66.79374715262588
 30
0.0
 11
-596.9587957402837
 21
86.24374715262573
 31
0.0
  0
MTEXT
  5
2E5
330
113
100
AcDbEntity
  8
0
 62
     2
100
AcDbMText
 10
-673.9587957402837
 20
88.74374715262573
 30
0.0
 40
20.0
 41
37.5
 46
0.0
 71
     8
 72
     1
  1
\T1.00;P
  7
dcStyle0
 73
     1
 44
1.0
  0
ENDBLK
  5
115
330
113
100
AcDbEntity
  8
0
100
AcDbBlockEnd
  0
BLOCK
  5
117
330
116
100
AcDbEntity
  8
0
100
AcDbBlockBegin
  2
DC_GROUP_W_MR-3812_S_040_6
 70
     0
 10
0.0
 20
0.0
 30
0.0
  3
DC_GROUP_W_MR-3812_S_040_6
  1
DC_GROUP_W_MR-3812_S_040_6
  0
INSERT
  5
2E6
330
116
100
AcDbEntity
  8
2
  6
Continuous
100
AcDbBlockReference
  2
DC_GROUP_W_MR-3812_S_040_7
 10
0.0
 20
0.0
 30
0.0
  0
ENDBLK
  5
118
330
116
100
AcDbEntity
  8
0
100
AcDbBlockEnd
  0
BLOCK
  5
11A
330
119
100
AcDbEntity
  8
0
100
AcDbBlockBegin
  2
DC_GROUP_W_MR-3812_S_040_7
 70
     0
 10
0.0
 20
0.0
 30
0.0
  3
DC_GROUP_W_MR-3812_S_040_7
  1
DC_GROUP_W_MR-3812_S_040_7
  0
LINE
  5
2E7
330
119
100
AcDbEntity
  8
2
  6
Continuous
 62
     7
370
    18
100
AcDbLine
 10
-742.9587957402837
 20
433.3251688631321
 30
0.0
 11
-758.9587957402837
 21
433.3251688631321
 31
0.0
  0
LINE
  5
2E8
330
119
100
AcDbEntity
  8
2
  6
Continuous
 62
     7
370
    18
100
AcDbLine
 10
-742.9587957402837
 20
428.8251688631321
 30
0.0
 11
-742.9587957402837
 21
433.3251688631321
 31
0.0
  0
LINE
  5
2E9
330
119
100
AcDbEntity
  8
2
  6
Continuous
 62
     7
370
    18
100
AcDbLine
 10
-758.9587957402837
 20
428.8251688631321
 30
0.0
 11
-758.9587957402837
 21
433.3251688631321
 31
0.0
  0
LINE
  5
2EA
330
119
100
AcDbEntity
  8
2
  6
Continuous
 62
     7
370
    18
100
AcDbLine
 10
-765.3587957402838
 20
428.8251688631321
 30
0.0
 11
-736.5587957402836
 21
428.8251688631321
 31
0.0
  0
ARC
  5
2EB
330
119
100
AcDbEntity
  8
2
  6
Continuous
 62
     7
370
    18
100
AcDbCircle
 10
-736.5587957402836
 20
428.2251688631318
 30
0.0
 40
0.6
100
AcDbArc
 50
9.594067999998662
 51
90.0
  0
ARC
  5
2EC
330
119
100
AcDbEntity
  8
2
  6
Continuous
 62
     7
370
    18
100
AcDbCircle
 10
-765.3587957402838
 20
428.2251688631318
 30
0.0
 40
0.6
100
AcDbArc
 50
90.0
 51
170.4059320000014
  0
LINE
  5
2ED
330
119
100
AcDbEntity
  8
2
  6
Continuous
 62
     7
370
    18
100
AcDbLine
 10
-758.9587957402837
 20
324.8251688631321
 30
0.0
 11
-758.9587957402837
 21
320.3251688631321
 31
0.0
  0
LINE
  5
2EE
330
119
100
AcDbEntity
  8
2
  6
Continuous
 62
     7
370
    18
100
AcDbLine
 10
-765.3587957402838
 20
324.8251688631321
 30
0.0
 11
-736.5587957402836
 21
324.8251688631321
 31
0.0
  0
ARC
  5
2EF
330
119
100
AcDbEntity
  8
2
  6
Continuous
 62
     7
370
    18
100
AcDbCircle
 10
-736.5587957402836
 20
325.4251688631325
 30
0.0
 40
0.6
100
AcDbArc
 50
270.0
 51
350.4059320000014
  0
ARC
  5
2F0
330
119
100
AcDbEntity
  8
2
  6
Continuous
 62
     7
370
    18
100
AcDbCircle
 10
-765.3587957402838
 20
325.4251688631325
 30
0.0
 40
0.6
100
AcDbArc
 50
189.5940679999987
 51
270.0
  0
ARC
  5
2F1
330
119
100
AcDbEntity
  8
2
  6
Continuous
 62
     7
370
    18
100
AcDbCircle
 10
-767.1087957402838
 20
328.2251688631318
 30
0.0
 40
2.9
100
AcDbArc
 50
180.0
 51
270.0
  0
LINE
  5
2F2
330
119
100
AcDbEntity
  8
2
  6
Continuous
 62
     7
370
    18
100
AcDbLine
 10
-742.9587957402837
 20
320.3251688631321
 30
0.0
 11
-758.9587957402837
 21
320.3251688631321
 31
0.0
  0
LINE
  5
2F3
330
119
100
AcDbEntity
  8
2
  6
Continuous
 62
     7
370
    18
100
AcDbLine
 10
-742.9587957402837
 20
324.8251688631321
 30
0.0
 11
-742.9587957402837
 21
320.3251688631321
 31
0.0
  0
LINE
  5
2F4
330
119
100
AcDbEntity
  8
2
  6
Continuous
 62
     7
370
    18
100
AcDbLine
 10
-767.1087957402838
 20
325.3251688631321
 30
0.0
 11
-734.8087957402836
 21
325.3251688631321
 31
0.0
  0
ARC
  5
2F5
330
119
100
AcDbEntity
  8
2
  6
Continuous
 62
     7
370
    18
100
AcDbCircle
 10
-734.8087957402836
 20
328.2251688631318
 30
0.0
 40
2.9
100
AcDbArc
 50
270.0
 51
0.0
  0
LINE
  5
2F6
330
119
100
AcDbEntity
  8
2
  6
Continuous
 62
     7
370
    18
100
AcDbLine
 10
-767.1087957402838
 20
428.3251688631321
 30
0.0
 11
-734.8087957402836
 21
428.3251688631321
 31
0.0
  0
LINE
  5
2F7
330
119
100
AcDbEntity
  8
2
  6
Continuous
 62
     7
370
    18
100
AcDbLine
 10
-731.9087957402835
 20
425.4251688631325
 30
0.0
 11
-731.9087957402835
 21
328.2251688631318
 31
0.0
  0
ARC
  5
2F8
330
119
100
AcDbEntity
  8
2
  6
Continuous
 62
     7
370
    18
100
AcDbCircle
 10
-734.8087957402836
 20
425.4251688631325
 30
0.0
 40
2.9
100
AcDbArc
 50
0.0
 51
90.0
  0
LINE
  5
2F9
330
119
100
AcDbEntity
  8
2
  6
Continuous
 62
     7
370
    18
100
AcDbLine
 10
-770.0087957402839
 20
425.4251688631325
 30
0.0
 11
-770.0087957402839
 21
328.2251688631318
 31
0.0
  0
ARC
  5
2FA
330
119
100
AcDbEntity
  8
2
  6
Continuous
 62
     7
370
    18
100
AcDbCircle
 10
-767.1087957402838
 20
425.4251688631325
 30
0.0
 40
2.9
100
AcDbArc
 50
90.0
 51
180.0
  0
LINE
  5
2FB
330
119
100
AcDbEntity
  8
2
  6
CENTER
 62
     3
370
    13
100
AcDbLine
 10
-750.9587957402837
 20
436.8251688631321
 30
0.0
 11
-750.9587957402837
 21
316.8251688631321
 31
0.0
  0
ENDBLK
  5
11B
330
119
100
AcDbEntity
  8
0
100
AcDbBlockEnd
  0
BLOCK
  5
11D
330
11C
100
AcDbEntity
  8
0
100
AcDbBlockBegin
  2
DC_GROUP_W_MR-3812_S_040_8
 70
     0
 10
0.0
 20
0.0
 30
0.0
  3
DC_GROUP_W_MR-3812_S_040_8
  1
DC_GROUP_W_MR-3812_S_040_8
  0
INSERT
  5
2FC
330
11C
100
AcDbEntity
  8
2
  6
Continuous
100
AcDbBlockReference
  2
DC_GROUP_W_MR-3812_S_040_9
 10
0.0
 20
0.0
 30
0.0
  0
ENDBLK
  5
11E
330
11C
100
AcDbEntity
  8
0
100
AcDbBlockEnd
  0
BLOCK
  5
120
330
11F
100
AcDbEntity
  8
0
100
AcDbBlockBegin
  2
DC_GROUP_W_MR-3812_S_040_9
 70
     0
 10
0.0
 20
0.0
 30
0.0
  3
DC_GROUP_W_MR-3812_S_040_9
  1
DC_GROUP_W_MR-3812_S_040_9
  0
LINE
  5
2FD
330
11F
100
AcDbEntity
  8
2
  6
Continuous
 62
     7
370
    18
100
AcDbLine
 10
-588.9587957402837
 20
433.3251688631321
 30
0.0
 11
-604.9587957402837
 21
433.3251688631321
 31
0.0
  0
LINE
  5
2FE
330
11F
100
AcDbEntity
  8
2
  6
Continuous
 62
     7
370
    18
100
AcDbLine
 10
-588.9587957402837
 20
428.8251688631321
 30
0.0
 11
-588.9587957402837
 21
433.3251688631321
 31
0.0
  0
LINE
  5
2FF
330
11F
100
AcDbEntity
  8
2
  6
Continuous
 62
     7
370
    18
100
AcDbLine
 10
-604.9587957402837
 20
428.8251688631321
 30
0.0
 11
-604.9587957402837
 21
433.3251688631321
 31
0.0
  0
LINE
  5
300
330
11F
100
AcDbEntity
  8
2
  6
Continuous
 62
     7
370
    18
100
AcDbLine
 10
-611.3587957402838
 20
428.8251688631321
 30
0.0
 11
-582.5587957402836
 21
428.8251688631321
 31
0.0
  0
ARC
  5
301
330
11F
100
AcDbEntity
  8
2
  6
Continuous
 62
     7
370
    18
100
AcDbCircle
 10
-582.5587957402836
 20
428.2251688631318
 30
0.0
 40
0.6
100
AcDbArc
 50
9.594067999998662
 51
90.0
  0
ARC
  5
302
330
11F
100
AcDbEntity
  8
2
  6
Continuous
 62
     7
370
    18
100
AcDbCircle
 10
-611.3587957402838
 20
428.2251688631318
 30
0.0
 40
0.6
100
AcDbArc
 50
90.0
 51
170.4059320000014
  0
LINE
  5
303
330
11F
100
AcDbEntity
  8
2
  6
Continuous
 62
     7
370
    18
100
AcDbLine
 10
-604.9587957402837
 20
324.8251688631321
 30
0.0
 11
-604.9587957402837
 21
320.3251688631321
 31
0.0
  0
LINE
  5
304
330
11F
100
AcDbEntity
  8
2
  6
Continuous
 62
     7
370
    18
100
AcDbLine
 10
-611.3587957402838
 20
324.8251688631321
 30
0.0
 11
-582.5587957402836
 21
324.8251688631321
 31
0.0
  0
ARC
  5
305
330
11F
100
AcDbEntity
  8
2
  6
Continuous
 62
     7
370
    18
100
AcDbCircle
 10
-582.5587957402836
 20
325.4251688631325
 30
0.0
 40
0.6
100
AcDbArc
 50
270.0
 51
350.4059320000014
  0
ARC
  5
306
330
11F
100
AcDbEntity
  8
2
  6
Continuous
 62
     7
370
    18
100
AcDbCircle
 10
-611.3587957402838
 20
325.4251688631325
 30
0.0
 40
0.6
100
AcDbArc
 50
189.5940679999987
 51
270.0
  0
ARC
  5
307
330
11F
100
AcDbEntity
  8
2
  6
Continuous
 62
     7
370
    18
100
AcDbCircle
 10
-613.1087957402838
 20
328.2251688631318
 30
0.0
 40
2.9
100
AcDbArc
 50
180.0
 51
270.0
  0
LINE
  5
308
330
11F
100
AcDbEntity
  8
2
  6
Continuous
 62
     7
370
    18
100
AcDbLine
 10
-588.9587957402837
 20
320.3251688631321
 30
0.0
 11
-604.9587957402837
 21
320.3251688631321
 31
0.0
  0
LINE
  5
309
330
11F
100
AcDbEntity
  8
2
  6
Continuous
 62
     7
370
    18
100
AcDbLine
 10
-588.9587957402837
 20
324.8251688631321
 30
0.0
 11
-588.9587957402837
 21
320.3251688631321
 31
0.0
  0
LINE
  5
30A
330
11F
100
AcDbEntity
  8
2
  6
Continuous
 62
     7
370
    18
100
AcDbLine
 10
-613.1087957402838
 20
325.3251688631321
 30
0.0
 11
-580.8087957402836
 21
325.3251688631321
 31
0.0
  0
ARC
  5
30B
330
11F
100
AcDbEntity
  8
2
  6
Continuous
 62
     7
370
    18
100
AcDbCircle
 10
-580.8087957402836
 20
328.2251688631318
 30
0.0
 40
2.9
100
AcDbArc
 50
270.0
 51
0.0
  0
LINE
  5
30C
330
11F
100
AcDbEntity
  8
2
  6
Continuous
 62
     7
370
    18
100
AcDbLine
 10
-613.1087957402838
 20
428.3251688631321
 30
0.0
 11
-580.8087957402836
 21
428.3251688631321
 31
0.0
  0
LINE
  5
30D
330
11F
100
AcDbEntity
  8
2
  6
Continuous
 62
     7
370
    18
100
AcDbLine
 10
-577.9087957402835
 20
425.4251688631325
 30
0.0
 11
-577.9087957402835
 21
328.2251688631318
 31
0.0
  0
ARC
  5
30E
330
11F
100
AcDbEntity
  8
2
  6
Continuous
 62
     7
370
    18
100
AcDbCircle
 10
-580.8087957402836
 20
425.4251688631325
 30
0.0
 40
2.9
100
AcDbArc
 50
0.0
 51
90.0
  0
LINE
  5
30F
330
11F
100
AcDbEntity
  8
2
  6
Continuous
 62
     7
370
    18
100
AcDbLine
 10
-616.0087957402839
 20
425.4251688631325
 30
0.0
 11
-616.0087957402839
 21
328.2251688631318
 31
0.0
  0
ARC
  5
310
330
11F
100
AcDbEntity
  8
2
  6
Continuous
 62
     7
370
    18
100
AcDbCircle
 10
-613.1087957402838
 20
425.4251688631325
 30
0.0
 40
2.9
100
AcDbArc
 50
90.0
 51
180.0
  0
LINE
  5
311
330
11F
100
AcDbEntity
  8
2
  6
CENTER
 62
     3
370
    13
100
AcDbLine
 10
-596.9587957402837
 20
436.8251688631321
 30
0.0
 11
-596.9587957402837
 21
316.8251688631321
 31
0.0
  0
ENDBLK
  5
121
330
11F
100
AcDbEntity
  8
0
100
AcDbBlockEnd
  0
BLOCK
  5
123
330
122
100
AcDbEntity
  8
0
100
AcDbBlockBegin
  2
DC_GROUP_W_MR-3812_S_040_10
 70
     0
 10
0.0
 20
0.0
 30
0.0
  3
DC_GROUP_W_MR-3812_S_040_10
  1
DC_GROUP_W_MR-3812_S_040_10
  0
INSERT
  5
312
330
122
100
AcDbEntity
  8
2
  6
Continuous
100
AcDbBlockReference
  2
DC_GROUP_W_MR-3812_S_040_11
 10
0.0
 20
0.0
 30
0.0
  0
ENDBLK
  5
124
330
122
100
AcDbEntity
  8
0
100
AcDbBlockEnd
  0
BLOCK
  5
126
330
125
100
AcDbEntity
  8
0
100
AcDbBlockBegin
  2
DC_GROUP_W_MR-3812_S_040_11
 70
     0
 10
0.0
 20
0.0
 30
0.0
  3
DC_GROUP_W_MR-3812_S_040_11
  1
DC_GROUP_W_MR-3812_S_040_11
  0
LINE
  5
313
330
125
100
AcDbEntity
  8
2
  6
Continuous
 62
     7
370
    18
100
AcDbLine
 10
-434.9587957402837
 20
433.3251688631321
 30
0.0
 11
-450.9587957402837
 21
433.3251688631321
 31
0.0
  0
LINE
  5
314
330
125
100
AcDbEntity
  8
2
  6
Continuous
 62
     7
370
    18
100
AcDbLine
 10
-434.9587957402837
 20
428.8251688631321
 30
0.0
 11
-434.9587957402837
 21
433.3251688631321
 31
0.0
  0
LINE
  5
315
330
125
100
AcDbEntity
  8
2
  6
Continuous
 62
     7
370
    18
100
AcDbLine
 10
-450.9587957402837
 20
428.8251688631321
 30
0.0
 11
-450.9587957402837
 21
433.3251688631321
 31
0.0
  0
LINE
  5
316
330
125
100
AcDbEntity
  8
2
  6
Continuous
 62
     7
370
    18
100
AcDbLine
 10
-457.3587957402838
 20
428.8251688631321
 30
0.0
 11
-428.5587957402836
 21
428.8251688631321
 31
0.0
  0
ARC
  5
317
330
125
100
AcDbEntity
  8
2
  6
Continuous
 62
     7
370
    18
100
AcDbCircle
 10
-428.5587957402836
 20
428.2251688631318
 30
0.0
 40
0.6
100
AcDbArc
 50
9.594067999998662
 51
90.0
  0
ARC
  5
318
330
125
100
AcDbEntity
  8
2
  6
Continuous
 62
     7
370
    18
100
AcDbCircle
 10
-457.3587957402838
 20
428.2251688631318
 30
0.0
 40
0.6
100
AcDbArc
 50
90.0
 51
170.4059320000014
  0
LINE
  5
319
330
125
100
AcDbEntity
  8
2
  6
Continuous
 62
     7
370
    18
100
AcDbLine
 10
-450.9587957402837
 20
324.8251688631321
 30
0.0
 11
-450.9587957402837
 21
320.3251688631321
 31
0.0
  0
LINE
  5
31A
330
125
100
AcDbEntity
  8
2
  6
Continuous
 62
     7
370
    18
100
AcDbLine
 10
-457.3587957402838
 20
324.8251688631321
 30
0.0
 11
-428.5587957402836
 21
324.8251688631321
 31
0.0
  0
ARC
  5
31B
330
125
100
AcDbEntity
  8
2
  6
Continuous
 62
     7
370
    18
100
AcDbCircle
 10
-428.5587957402836
 20
325.4251688631325
 30
0.0
 40
0.6
100
AcDbArc
 50
270.0
 51
350.4059320000014
  0
ARC
  5
31C
330
125
100
AcDbEntity
  8
2
  6
Continuous
 62
     7
370
    18
100
AcDbCircle
 10
-457.3587957402838
 20
325.4251688631325
 30
0.0
 40
0.6
100
AcDbArc
 50
189.5940679999987
 51
270.0
  0
ARC
  5
31D
330
125
100
AcDbEntity
  8
2
  6
Continuous
 62
     7
370
    18
100
AcDbCircle
 10
-459.1087957402838
 20
328.2251688631318
 30
0.0
 40
2.9
100
AcDbArc
 50
180.0
 51
270.0
  0
LINE
  5
31E
330
125
100
AcDbEntity
  8
2
  6
Continuous
 62
     7
370
    18
100
AcDbLine
 10
-434.9587957402837
 20
320.3251688631321
 30
0.0
 11
-450.9587957402837
 21
320.3251688631321
 31
0.0
  0
LINE
  5
31F
330
125
100
AcDbEntity
  8
2
  6
Continuous
 62
     7
370
    18
100
AcDbLine
 10
-434.9587957402837
 20
324.8251688631321
 30
0.0
 11
-434.9587957402837
 21
320.3251688631321
 31
0.0
  0
LINE
  5
320
330
125
100
AcDbEntity
  8
2
  6
Continuous
 62
     7
370
    18
100
AcDbLine
 10
-459.1087957402838
 20
325.3251688631321
 30
0.0
 11
-426.8087957402836
 21
325.3251688631321
 31
0.0
  0
ARC
  5
321
330
125
100
AcDbEntity
  8
2
  6
Continuous
 62
     7
370
    18
100
AcDbCircle
 10
-426.8087957402836
 20
328.2251688631318
 30
0.0
 40
2.9
100
AcDbArc
 50
270.0
 51
0.0
  0
LINE
  5
322
330
125
100
AcDbEntity
  8
2
  6
Continuous
 62
     7
370
    18
100
AcDbLine
 10
-459.1087957402838
 20
428.3251688631321
 30
0.0
 11
-426.8087957402836
 21
428.3251688631321
 31
0.0
  0
LINE
  5
323
330
125
100
AcDbEntity
  8
2
  6
Continuous
 62
     7
370
    18
100
AcDbLine
 10
-423.9087957402835
 20
425.4251688631325
 30
0.0
 11
-423.9087957402835
 21
328.2251688631318
 31
0.0
  0
ARC
  5
324
330
125
100
AcDbEntity
  8
2
  6
Continuous
 62
     7
370
    18
100
AcDbCircle
 10
-426.8087957402836
 20
425.4251688631325
 30
0.0
 40
2.9
100
AcDbArc
 50
0.0
 51
90.0
  0
LINE
  5
325
330
125
100
AcDbEntity
  8
2
  6
Continuous
 62
     7
370
    18
100
AcDbLine
 10
-462.0087957402839
 20
425.4251688631325
 30
0.0
 11
-462.0087957402839
 21
328.2251688631318
 31
0.0
  0
ARC
  5
326
330
125
100
AcDbEntity
  8
2
  6
Continuous
 62
     7
370
    18
100
AcDbCircle
 10
-459.1087957402838
 20
425.4251688631325
 30
0.0
 40
2.9
100
AcDbArc
 50
90.0
 51
180.0
  0
LINE
  5
327
330
125
100
AcDbEntity
  8
2
  6
CENTER
 62
     3
370
    13
100
AcDbLine
 10
-442.9587957402837
 20
436.8251688631321
 30
0.0
 11
-442.9587957402837
 21
316.8251688631321
 31
0.0
  0
ENDBLK
  5
127
330
125
100
AcDbEntity
  8
0
100
AcDbBlockEnd
  0
BLOCK
  5
129
330
128
100
AcDbEntity
  8
0
100
AcDbBlockBegin
  2
DC_GROUP_W_MR-3812_S_040_12
 70
     0
 10
0.0
 20
0.0
 30
0.0
  3
DC_GROUP_W_MR-3812_S_040_12
  1
DC_GROUP_W_MR-3812_S_040_12
  0
INSERT
  5
328
330
128
100
AcDbEntity
  8
2
  6
Continuous
100
AcDbBlockReference
  2
DC_GROUP_W_MR-3812_S_040_13
 10
0.0
 20
0.0
 30
0.0
  0
ENDBLK
  5
12A
330
128
100
AcDbEntity
  8
0
100
AcDbBlockEnd
  0
BLOCK
  5
12C
330
12B
100
AcDbEntity
  8
0
100
AcDbBlockBegin
  2
DC_GROUP_W_MR-3812_S_040_13
 70
     0
 10
0.0
 20
0.0
 30
0.0
  3
DC_GROUP_W_MR-3812_S_040_13
  1
DC_GROUP_W_MR-3812_S_040_13
  0
LINE
  5
329
330
12B
100
AcDbEntity
  8
2
  6
Continuous
 62
     7
370
    18
100
AcDbLine
 10
-280.9587957402837
 20
433.3251688631321
 30
0.0
 11
-296.9587957402837
 21
433.3251688631321
 31
0.0
  0
LINE
  5
32A
330
12B
100
AcDbEntity
  8
2
  6
Continuous
 62
     7
370
    18
100
AcDbLine
 10
-280.9587957402837
 20
428.8251688631321
 30
0.0
 11
-280.9587957402837
 21
433.3251688631321
 31
0.0
  0
LINE
  5
32B
330
12B
100
AcDbEntity
  8
2
  6
Continuous
 62
     7
370
    18
100
AcDbLine
 10
-296.9587957402837
 20
428.8251688631321
 30
0.0
 11
-296.9587957402837
 21
433.3251688631321
 31
0.0
  0
LINE
  5
32C
330
12B
100
AcDbEntity
  8
2
  6
Continuous
 62
     7
370
    18
100
AcDbLine
 10
-303.3587957402838
 20
428.8251688631321
 30
0.0
 11
-274.5587957402836
 21
428.8251688631321
 31
0.0
  0
ARC
  5
32D
330
12B
100
AcDbEntity
  8
2
  6
Continuous
 62
     7
370
    18
100
AcDbCircle
 10
-274.5587957402836
 20
428.2251688631318
 30
0.0
 40
0.6
100
AcDbArc
 50
9.594067999998662
 51
90.0
  0
ARC
  5
32E
330
12B
100
AcDbEntity
  8
2
  6
Continuous
 62
     7
370
    18
100
AcDbCircle
 10
-303.3587957402838
 20
428.2251688631318
 30
0.0
 40
0.6
100
AcDbArc
 50
90.0
 51
170.4059320000014
  0
LINE
  5
32F
330
12B
100
AcDbEntity
  8
2
  6
Continuous
 62
     7
370
    18
100
AcDbLine
 10
-296.9587957402837
 20
324.8251688631321
 30
0.0
 11
-296.9587957402837
 21
320.3251688631321
 31
0.0
  0
LINE
  5
330
330
12B
100
AcDbEntity
  8
2
  6
Continuous
 62
     7
370
    18
100
AcDbLine
 10
-303.3587957402838
 20
324.8251688631321
 30
0.0
 11
-274.5587957402836
 21
324.8251688631321
 31
0.0
  0
ARC
  5
331
330
12B
100
AcDbEntity
  8
2
  6
Continuous
 62
     7
370
    18
100
AcDbCircle
 10
-274.5587957402836
 20
325.4251688631325
 30
0.0
 40
0.6
100
AcDbArc
 50
270.0
 51
350.4059320000014
  0
ARC
  5
332
330
12B
100
AcDbEntity
  8
2
  6
Continuous
 62
     7
370
    18
100
AcDbCircle
 10
-303.3587957402838
 20
325.4251688631325
 30
0.0
 40
0.6
100
AcDbArc
 50
189.5940679999987
 51
270.0
  0
ARC
  5
333
330
12B
100
AcDbEntity
  8
2
  6
Continuous
 62
     7
370
    18
100
AcDbCircle
 10
-305.1087957402838
 20
328.2251688631318
 30
0.0
 40
2.9
100
AcDbArc
 50
180.0
 51
270.0
  0
LINE
  5
334
330
12B
100
AcDbEntity
  8
2
  6
Continuous
 62
     7
370
    18
100
AcDbLine
 10
-280.9587957402837
 20
320.3251688631321
 30
0.0
 11
-296.9587957402837
 21
320.3251688631321
 31
0.0
  0
LINE
  5
335
330
12B
100
AcDbEntity
  8
2
  6
Continuous
 62
     7
370
    18
100
AcDbLine
 10
-280.9587957402837
 20
324.8251688631321
 30
0.0
 11
-280.9587957402837
 21
320.3251688631321
 31
0.0
  0
LINE
  5
336
330
12B
100
AcDbEntity
  8
2
  6
Continuous
 62
     7
370
    18
100
AcDbLine
 10
-305.1087957402838
 20
325.3251688631321
 30
0.0
 11
-272.8087957402836
 21
325.3251688631321
 31
0.0
  0
ARC
  5
337
330
12B
100
AcDbEntity
  8
2
  6
Continuous
 62
     7
370
    18
100
AcDbCircle
 10
-272.8087957402836
 20
328.2251688631318
 30
0.0
 40
2.9
100
AcDbArc
 50
270.0
 51
0.0
  0
LINE
  5
338
330
12B
100
AcDbEntity
  8
2
  6
Continuous
 62
     7
370
    18
100
AcDbLine
 10
-305.1087957402838
 20
428.3251688631321
 30
0.0
 11
-272.8087957402836
 21
428.3251688631321
 31
0.0
  0
LINE
  5
339
330
12B
100
AcDbEntity
  8
2
  6
Continuous
 62
     7
370
    18
100
AcDbLine
 10
-269.9087957402835
 20
425.4251688631325
 30
0.0
 11
-269.9087957402835
 21
328.2251688631318
 31
0.0
  0
ARC
  5
33A
330
12B
100
AcDbEntity
  8
2
  6
Continuous
 62
     7
370
    18
100
AcDbCircle
 10
-272.8087957402836
 20
425.4251688631325
 30
0.0
 40
2.9
100
AcDbArc
 50
0.0
 51
90.0
  0
LINE
  5
33B
330
12B
100
AcDbEntity
  8
2
  6
Continuous
 62
     7
370
    18
100
AcDbLine
 10
-308.0087957402839
 20
425.4251688631325
 30
0.0
 11
-308.0087957402839
 21
328.2251688631318
 31
0.0
  0
ARC
  5
33C
330
12B
100
AcDbEntity
  8
2
  6
Continuous
 62
     7
370
    18
100
AcDbCircle
 10
-305.1087957402838
 20
425.4251688631325
 30
0.0
 40
2.9
100
AcDbArc
 50
90.0
 51
180.0
  0
LINE
  5
33D
330
12B
100
AcDbEntity
  8
2
  6
CENTER
 62
     3
370
    13
100
AcDbLine
 10
-288.9587957402837
 20
436.8251688631321
 30
0.0
 11
-288.9587957402837
 21
316.8251688631321
 31
0.0
  0
ENDBLK
  5
12D
330
12B
100
AcDbEntity
  8
0
100
AcDbBlockEnd
  0
BLOCK
  5
12F
330
12E
100
AcDbEntity
  8
0
100
AcDbBlockBegin
  2
DC_GROUP_W_MR-3812_S_040_14
 70
     0
 10
0.0
 20
0.0
 30
0.0
  3
DC_GROUP_W_MR-3812_S_040_14
  1
DC_GROUP_W_MR-3812_S_040_14
  0
INSERT
  5
33E
330
12E
100
AcDbEntity
  8
2
  6
Continuous
100
AcDbBlockReference
  2
DC_GROUP_W_MR-3812_S_040_15
 10
0.0
 20
0.0
 30
0.0
  0
ENDBLK
  5
130
330
12E
100
AcDbEntity
  8
0
100
AcDbBlockEnd
  0
BLOCK
  5
132
330
131
100
AcDbEntity
  8
0
100
AcDbBlockBegin
  2
DC_GROUP_W_MR-3812_S_040_15
 70
     0
 10
0.0
 20
0.0
 30
0.0
  3
DC_GROUP_W_MR-3812_S_040_15
  1
DC_GROUP_W_MR-3812_S_040_15
  0
LINE
  5
33F
330
131
100
AcDbEntity
  8
2
  6
Continuous
 62
     7
370
    18
100
AcDbLine
 10
-126.9587957402837
 20
433.3251688631321
 30
0.0
 11
-142.9587957402837
 21
433.3251688631321
 31
0.0
  0
LINE
  5
340
330
131
100
AcDbEntity
  8
2
  6
Continuous
 62
     7
370
    18
100
AcDbLine
 10
-126.9587957402837
 20
428.8251688631321
 30
0.0
 11
-126.9587957402837
 21
433.3251688631321
 31
0.0
  0
LINE
  5
341
330
131
100
AcDbEntity
  8
2
  6
Continuous
 62
     7
370
    18
100
AcDbLine
 10
-142.9587957402837
 20
428.8251688631321
 30
0.0
 11
-142.9587957402837
 21
433.3251688631321
 31
0.0
  0
LINE
  5
342
330
131
100
AcDbEntity
  8
2
  6
Continuous
 62
     7
370
    18
100
AcDbLine
 10
-149.3587957402838
 20
428.8251688631321
 30
0.0
 11
-120.5587957402836
 21
428.8251688631321
 31
0.0
  0
ARC
  5
343
330
131
100
AcDbEntity
  8
2
  6
Continuous
 62
     7
370
    18
100
AcDbCircle
 10
-120.5587957402836
 20
428.2251688631318
 30
0.0
 40
0.6
100
AcDbArc
 50
9.594067999998662
 51
90.0
  0
ARC
  5
344
330
131
100
AcDbEntity
  8
2
  6
Continuous
 62
     7
370
    18
100
AcDbCircle
 10
-149.3587957402838
 20
428.2251688631318
 30
0.0
 40
0.6
100
AcDbArc
 50
90.0
 51
170.4059320000014
  0
LINE
  5
345
330
131
100
AcDbEntity
  8
2
  6
Continuous
 62
     7
370
    18
100
AcDbLine
 10
-142.9587957402837
 20
324.8251688631321
 30
0.0
 11
-142.9587957402837
 21
320.3251688631321
 31
0.0
  0
LINE
  5
346
330
131
100
AcDbEntity
  8
2
  6
Continuous
 62
     7
370
    18
100
AcDbLine
 10
-149.3587957402838
 20
324.8251688631321
 30
0.0
 11
-120.5587957402836
 21
324.8251688631321
 31
0.0
  0
ARC
  5
347
330
131
100
AcDbEntity
  8
2
  6
Continuous
 62
     7
370
    18
100
AcDbCircle
 10
-120.5587957402836
 20
325.4251688631325
 30
0.0
 40
0.6
100
AcDbArc
 50
270.0
 51
350.4059320000014
  0
ARC
  5
348
330
131
100
AcDbEntity
  8
2
  6
Continuous
 62
     7
370
    18
100
AcDbCircle
 10
-149.3587957402838
 20
325.4251688631325
 30
0.0
 40
0.6
100
AcDbArc
 50
189.5940679999987
 51
270.0
  0
ARC
  5
349
330
131
100
AcDbEntity
  8
2
  6
Continuous
 62
     7
370
    18
100
AcDbCircle
 10
-151.1087957402838
 20
328.2251688631318
 30
0.0
 40
2.9
100
AcDbArc
 50
180.0
 51
270.0
  0
LINE
  5
34A
330
131
100
AcDbEntity
  8
2
  6
Continuous
 62
     7
370
    18
100
AcDbLine
 10
-126.9587957402837
 20
320.3251688631321
 30
0.0
 11
-142.9587957402837
 21
320.3251688631321
 31
0.0
  0
LINE
  5
34B
330
131
100
AcDbEntity
  8
2
  6
Continuous
 62
     7
370
    18
100
AcDbLine
 10
-126.9587957402837
 20
324.8251688631321
 30
0.0
 11
-126.9587957402837
 21
320.3251688631321
 31
0.0
  0
LINE
  5
34C
330
131
100
AcDbEntity
  8
2
  6
Continuous
 62
     7
370
    18
100
AcDbLine
 10
-151.1087957402838
 20
325.3251688631321
 30
0.0
 11
-118.8087957402836
 21
325.3251688631321
 31
0.0
  0
ARC
  5
34D
330
131
100
AcDbEntity
  8
2
  6
Continuous
 62
     7
370
    18
100
AcDbCircle
 10
-118.8087957402836
 20
328.2251688631318
 30
0.0
 40
2.9
100
AcDbArc
 50
270.0
 51
0.0
  0
LINE
  5
34E
330
131
100
AcDbEntity
  8
2
  6
Continuous
 62
     7
370
    18
100
AcDbLine
 10
-151.1087957402838
 20
428.3251688631321
 30
0.0
 11
-118.8087957402836
 21
428.3251688631321
 31
0.0
  0
LINE
  5
34F
330
131
100
AcDbEntity
  8
2
  6
Continuous
 62
     7
370
    18
100
AcDbLine
 10
-115.9087957402835
 20
425.4251688631325
 30
0.0
 11
-115.9087957402835
 21
328.2251688631318
 31
0.0
  0
ARC
  5
350
330
131
100
AcDbEntity
  8
2
  6
Continuous
 62
     7
370
    18
100
AcDbCircle
 10
-118.8087957402836
 20
425.4251688631325
 30
0.0
 40
2.9
100
AcDbArc
 50
0.0
 51
90.0
  0
LINE
  5
351
330
131
100
AcDbEntity
  8
2
  6
Continuous
 62
     7
370
    18
100
AcDbLine
 10
-154.0087957402839
 20
425.4251688631325
 30
0.0
 11
-154.0087957402839
 21
328.2251688631318
 31
0.0
  0
ARC
  5
352
330
131
100
AcDbEntity
  8
2
  6
Continuous
 62
     7
370
    18
100
AcDbCircle
 10
-151.1087957402838
 20
425.4251688631325
 30
0.0
 40
2.9
100
AcDbArc
 50
90.0
 51
180.0
  0
LINE
  5
353
330
131
100
AcDbEntity
  8
2
  6
CENTER
 62
     3
370
    13
100
AcDbLine
 10
-134.9587957402837
 20
436.8251688631321
 30
0.0
 11
-134.9587957402837
 21
316.8251688631321
 31
0.0
  0
ENDBLK
  5
133
330
131
100
AcDbEntity
  8
0
100
AcDbBlockEnd
  0
BLOCK
  5
135
330
134
100
AcDbEntity
  8
0
100
AcDbBlockBegin
  2
DC_GROUP_W_MR-3812_S_040_16
 70
     0
 10
0.0
 20
0.0
 30
0.0
  3
DC_GROUP_W_MR-3812_S_040_16
  1
DC_GROUP_W_MR-3812_S_040_16
  0
INSERT
  5
354
330
134
100
AcDbEntity
  8
2
  6
Continuous
100
AcDbBlockReference
  2
DC_GROUP_W_MR-3812_S_040_17
 10
0.0
 20
0.0
 30
0.0
  0
ENDBLK
  5
136
330
134
100
AcDbEntity
  8
0
100
AcDbBlockEnd
  0
BLOCK
  5
138
330
137
100
AcDbEntity
  8
0
100
AcDbBlockBegin
  2
DC_GROUP_W_MR-3812_S_040_17
 70
     0
 10
0.0
 20
0.0
 30
0.0
  3
DC_GROUP_W_MR-3812_S_040_17
  1
DC_GROUP_W_MR-3812_S_040_17
  0
LINE
  5
355
330
137
100
AcDbEntity
  8
2
  6
Continuous
 62
     7
370
    18
100
AcDbLine
 10
27.04120425971632
 20
433.3251688631321
 30
0.0
 11
11.04120425971632
 21
433.3251688631321
 31
0.0
  0
LINE
  5
356
330
137
100
AcDbEntity
  8
2
  6
Continuous
 62
     7
370
    18
100
AcDbLine
 10
27.04120425971632
 20
428.8251688631321
 30
0.0
 11
27.04120425971632
 21
433.3251688631321
 31
0.0
  0
LINE
  5
357
330
137
100
AcDbEntity
  8
2
  6
Continuous
 62
     7
370
    18
100
AcDbLine
 10
11.04120425971632
 20
428.8251688631321
 30
0.0
 11
11.04120425971632
 21
433.3251688631321
 31
0.0
  0
LINE
  5
358
330
137
100
AcDbEntity
  8
2
  6
Continuous
 62
     7
370
    18
100
AcDbLine
 10
4.641204259716233
 20
428.8251688631321
 30
0.0
 11
33.44120425971641
 21
428.8251688631321
 31
0.0
  0
ARC
  5
359
330
137
100
AcDbEntity
  8
2
  6
Continuous
 62
     7
370
    18
100
AcDbCircle
 10
33.44120425971641
 20
428.2251688631318
 30
0.0
 40
0.6
100
AcDbArc
 50
9.594067999998662
 51
90.0
  0
ARC
  5
35A
330
137
100
AcDbEntity
  8
2
  6
Continuous
 62
     7
370
    18
100
AcDbCircle
 10
4.641204259716233
 20
428.2251688631318
 30
0.0
 40
0.6
100
AcDbArc
 50
90.0
 51
170.4059320000014
  0
LINE
  5
35B
330
137
100
AcDbEntity
  8
2
  6
Continuous
 62
     7
370
    18
100
AcDbLine
 10
11.04120425971632
 20
324.8251688631321
 30
0.0
 11
11.04120425971632
 21
320.3251688631321
 31
0.0
  0
LINE
  5
35C
330
137
100
AcDbEntity
  8
2
  6
Continuous
 62
     7
370
    18
100
AcDbLine
 10
4.641204259716233
 20
324.8251688631321
 30
0.0
 11
33.44120425971641
 21
324.8251688631321
 31
0.0
  0
ARC
  5
35D
330
137
100
AcDbEntity
  8
2
  6
Continuous
 62
     7
370
    18
100
AcDbCircle
 10
33.44120425971641
 20
325.4251688631325
 30
0.0
 40
0.6
100
AcDbArc
 50
270.0
 51
350.4059320000014
  0
ARC
  5
35E
330
137
100
AcDbEntity
  8
2
  6
Continuous
 62
     7
370
    18
100
AcDbCircle
 10
4.641204259716233
 20
325.4251688631325
 30
0.0
 40
0.6
100
AcDbArc
 50
189.5940679999987
 51
270.0
  0
ARC
  5
35F
330
137
100
AcDbEntity
  8
2
  6
Continuous
 62
     7
370
    18
100
AcDbCircle
 10
2.891204259716233
 20
328.2251688631318
 30
0.0
 40
2.9
100
AcDbArc
 50
180.0
 51
270.0
  0
LINE
  5
360
330
137
100
AcDbEntity
  8
2
  6
Continuous
 62
     7
370
    18
100
AcDbLine
 10
27.04120425971632
 20
320.3251688631321
 30
0.0
 11
11.04120425971632
 21
320.3251688631321
 31
0.0
  0
LINE
  5
361
330
137
100
AcDbEntity
  8
2
  6
Continuous
 62
     7
370
    18
100
AcDbLine
 10
27.04120425971632
 20
324.8251688631321
 30
0.0
 11
27.04120425971632
 21
320.3251688631321
 31
0.0
  0
LINE
  5
362
330
137
100
AcDbEntity
  8
2
  6
Continuous
 62
     7
370
    18
100
AcDbLine
 10
2.891204259716233
 20
325.3251688631321
 30
0.0
 11
35.19120425971641
 21
325.3251688631321
 31
0.0
  0
ARC
  5
363
330
137
100
AcDbEntity
  8
2
  6
Continuous
 62
     7
370
    18
100
AcDbCircle
 10
35.19120425971641
 20
328.2251688631318
 30
0.0
 40
2.9
100
AcDbArc
 50
270.0
 51
0.0
  0
LINE
  5
364
330
137
100
AcDbEntity
  8
2
  6
Continuous
 62
     7
370
    18
100
AcDbLine
 10
2.891204259716233
 20
428.3251688631321
 30
0.0
 11
35.19120425971641
 21
428.3251688631321
 31
0.0
  0
LINE
  5
365
330
137
100
AcDbEntity
  8
2
  6
Continuous
 62
     7
370
    18
100
AcDbLine
 10
38.09120425971651
 20
425.4251688631325
 30
0.0
 11
38.09120425971651
 21
328.2251688631318
 31
0.0
  0
ARC
  5
366
330
137
100
AcDbEntity
  8
2
  6
Continuous
 62
     7
370
    18
100
AcDbCircle
 10
35.19120425971641
 20
425.4251688631325
 30
0.0
 40
2.9
100
AcDbArc
 50
0.0
 51
90.0
  0
LINE
  5
367
330
137
100
AcDbEntity
  8
2
  6
Continuous
 62
     7
370
    18
100
AcDbLine
 10
-0.0087957402838583
 20
425.4251688631325
 30
0.0
 11
-0.0087957402838583
 21
328.2251688631318
 31
0.0
  0
ARC
  5
368
330
137
100
AcDbEntity
  8
2
  6
Continuous
 62
     7
370
    18
100
AcDbCircle
 10
2.891204259716233
 20
425.4251688631325
 30
0.0
 40
2.9
100
AcDbArc
 50
90.0
 51
180.0
  0
LINE
  5
369
330
137
100
AcDbEntity
  8
2
  6
CENTER
 62
     3
370
    13
100
AcDbLine
 10
19.04120425971632
 20
436.8251688631321
 30
0.0
 11
19.04120425971632
 21
316.8251688631321
 31
0.0
  0
ENDBLK
  5
139
330
137
100
AcDbEntity
  8
0
100
AcDbBlockEnd
  0
BLOCK
  5
13B
330
13A
100
AcDbEntity
  8
0
100
AcDbBlockBegin
  2
DC_GROUP_W_MR-3812_S_040_18
 70
     0
 10
0.0
 20
0.0
 30
0.0
  3
DC_GROUP_W_MR-3812_S_040_18
  1
DC_GROUP_W_MR-3812_S_040_18
  0
INSERT
  5
36A
330
13A
100
AcDbEntity
  8
2
  6
Continuous
100
AcDbBlockReference
  2
DC_GROUP_W_MR-3812_S_040_19
 10
0.0
 20
0.0
 30
0.0
  0
ENDBLK
  5
13C
330
13A
100
AcDbEntity
  8
0
100
AcDbBlockEnd
  0
BLOCK
  5
13E
330
13D
100
AcDbEntity
  8
0
100
AcDbBlockBegin
  2
DC_GROUP_W_MR-3812_S_040_19
 70
     0
 10
0.0
 20
0.0
 30
0.0
  3
DC_GROUP_W_MR-3812_S_040_19
  1
DC_GROUP_W_MR-3812_S_040_19
  0
LINE
  5
36B
330
13D
100
AcDbEntity
  8
2
  6
Continuous
 62
     7
370
    18
100
AcDbLine
 10
181.0412042597163
 20
433.3251688631321
 30
0.0
 11
165.0412042597163
 21
433.3251688631321
 31
0.0
  0
LINE
  5
36C
330
13D
100
AcDbEntity
  8
2
  6
Continuous
 62
     7
370
    18
100
AcDbLine
 10
181.0412042597163
 20
428.8251688631321
 30
0.0
 11
181.0412042597163
 21
433.3251688631321
 31
0.0
  0
LINE
  5
36D
330
13D
100
AcDbEntity
  8
2
  6
Continuous
 62
     7
370
    18
100
AcDbLine
 10
165.0412042597163
 20
428.8251688631321
 30
0.0
 11
165.0412042597163
 21
433.3251688631321
 31
0.0
  0
LINE
  5
36E
330
13D
100
AcDbEntity
  8
2
  6
Continuous
 62
     7
370
    18
100
AcDbLine
 10
158.6412042597162
 20
428.8251688631321
 30
0.0
 11
187.4412042597164
 21
428.8251688631321
 31
0.0
  0
ARC
  5
36F
330
13D
100
AcDbEntity
  8
2
  6
Continuous
 62
     7
370
    18
100
AcDbCircle
 10
187.4412042597164
 20
428.2251688631318
 30
0.0
 40
0.6
100
AcDbArc
 50
9.594067999998662
 51
90.0
  0
ARC
  5
370
330
13D
100
AcDbEntity
  8
2
  6
Continuous
 62
     7
370
    18
100
AcDbCircle
 10
158.6412042597162
 20
428.2251688631318
 30
0.0
 40
0.6
100
AcDbArc
 50
90.0
 51
170.4059320000014
  0
LINE
  5
371
330
13D
100
AcDbEntity
  8
2
  6
Continuous
 62
     7
370
    18
100
AcDbLine
 10
165.0412042597163
 20
324.8251688631321
 30
0.0
 11
165.0412042597163
 21
320.3251688631321
 31
0.0
  0
LINE
  5
372
330
13D
100
AcDbEntity
  8
2
  6
Continuous
 62
     7
370
    18
100
AcDbLine
 10
158.6412042597162
 20
324.8251688631321
 30
0.0
 11
187.4412042597164
 21
324.8251688631321
 31
0.0
  0
ARC
  5
373
330
13D
100
AcDbEntity
  8
2
  6
Continuous
 62
     7
370
    18
100
AcDbCircle
 10
187.4412042597164
 20
325.4251688631325
 30
0.0
 40
0.6
100
AcDbArc
 50
270.0
 51
350.4059320000014
  0
ARC
  5
374
330
13D
100
AcDbEntity
  8
2
  6
Continuous
 62
     7
370
    18
100
AcDbCircle
 10
158.6412042597162
 20
325.4251688631325
 30
0.0
 40
0.6
100
AcDbArc
 50
189.5940679999987
 51
270.0
  0
ARC
  5
375
330
13D
100
AcDbEntity
  8
2
  6
Continuous
 62
     7
370
    18
100
AcDbCircle
 10
156.8912042597162
 20
328.2251688631318
 30
0.0
 40
2.9
100
AcDbArc
 50
180.0
 51
270.0
  0
LINE
  5
376
330
13D
100
AcDbEntity
  8
2
  6
Continuous
 62
     7
370
    18
100
AcDbLine
 10
181.0412042597163
 20
320.3251688631321
 30
0.0
 11
165.0412042597163
 21
320.3251688631321
 31
0.0
  0
LINE
  5
377
330
13D
100
AcDbEntity
  8
2
  6
Continuous
 62
     7
370
    18
100
AcDbLine
 10
181.0412042597163
 20
324.8251688631321
 30
0.0
 11
181.0412042597163
 21
320.3251688631321
 31
0.0
  0
LINE
  5
378
330
13D
100
AcDbEntity
  8
2
  6
Continuous
 62
     7
370
    18
100
AcDbLine
 10
156.8912042597162
 20
325.3251688631321
 30
0.0
 11
189.1912042597164
 21
325.3251688631321
 31
0.0
  0
ARC
  5
379
330
13D
100
AcDbEntity
  8
2
  6
Continuous
 62
     7
370
    18
100
AcDbCircle
 10
189.1912042597164
 20
328.2251688631318
 30
0.0
 40
2.9
100
AcDbArc
 50
270.0
 51
0.0
  0
LINE
  5
37A
330
13D
100
AcDbEntity
  8
2
  6
Continuous
 62
     7
370
    18
100
AcDbLine
 10
156.8912042597162
 20
428.3251688631321
 30
0.0
 11
189.1912042597164
 21
428.3251688631321
 31
0.0
  0
LINE
  5
37B
330
13D
100
AcDbEntity
  8
2
  6
Continuous
 62
     7
370
    18
100
AcDbLine
 10
192.0912042597165
 20
425.4251688631325
 30
0.0
 11
192.0912042597165
 21
328.2251688631318
 31
0.0
  0
ARC
  5
37C
330
13D
100
AcDbEntity
  8
2
  6
Continuous
 62
     7
370
    18
100
AcDbCircle
 10
189.1912042597164
 20
425.4251688631325
 30
0.0
 40
2.9
100
AcDbArc
 50
0.0
 51
90.0
  0
LINE
  5
37D
330
13D
100
AcDbEntity
  8
2
  6
Continuous
 62
     7
370
    18
100
AcDbLine
 10
153.9912042597161
 20
425.4251688631325
 30
0.0
 11
153.9912042597161
 21
328.2251688631318
 31
0.0
  0
ARC
  5
37E
330
13D
100
AcDbEntity
  8
2
  6
Continuous
 62
     7
370
    18
100
AcDbCircle
 10
156.8912042597162
 20
425.4251688631325
 30
0.0
 40
2.9
100
AcDbArc
 50
90.0
 51
180.0
  0
LINE
  5
37F
330
13D
100
AcDbEntity
  8
2
  6
CENTER
 62
     3
370
    13
100
AcDbLine
 10
173.0412042597163
 20
436.8251688631321
 30
0.0
 11
173.0412042597163
 21
316.8251688631321
 31
0.0
  0
ENDBLK
  5
13F
330
13D
100
AcDbEntity
  8
0
100
AcDbBlockEnd
  0
BLOCK
  5
141
330
140
100
AcDbEntity
  8
0
100
AcDbBlockBegin
  2
DC_GROUP_W_MR-3812_S_040_20
 70
     0
 10
0.0
 20
0.0
 30
0.0
  3
DC_GROUP_W_MR-3812_S_040_20
  1
DC_GROUP_W_MR-3812_S_040_20
  0
CIRCLE
  5
380
330
140
100
AcDbEntity
  8
0
  6
Continuous
 62
     7
370
    18
100
AcDbCircle
 10
-773.9587957402838
 20
5.193747152625548
 30
0.0
 40
5.0
  0
LINE
  5
381
330
140
100
AcDbEntity
  8
0
  6
CENTER
 62
     3
370
    13
100
AcDbLine
 10
-773.9587957402838
 20
-4.806252847374452
 30
0.0
 11
-773.9587957402838
 21
15.19374715262555
 31
0.0
  0
LINE
  5
382
330
140
100
AcDbEntity
  8
0
  6
CENTER
 62
     3
370
    13
100
AcDbLine
 10
-763.9587957402838
 20
5.193747152625548
 30
0.0
 11
-783.9481017402837
 21
5.193747152625548
 31
0.0
  0
ENDBLK
  5
142
330
140
100
AcDbEntity
  8
0
100
AcDbBlockEnd
  0
BLOCK
  5
144
330
143
100
AcDbEntity
  8
0
100
AcDbBlockBegin
  2
DC_GROUP_W_MR-3812_S_040_21
 70
     0
 10
0.0
 20
0.0
 30
0.0
  3
DC_GROUP_W_MR-3812_S_040_21
  1
DC_GROUP_W_MR-3812_S_040_21
  0
CIRCLE
  5
383
330
143
100
AcDbEntity
  8
0
  6
Continuous
 62
     7
370
    18
100
AcDbCircle
 10
57.54120425971632
 20
20.19374715262555
 30
0.0
 40
10.5
  0
LINE
  5
384
330
143
100
AcDbEntity
  8
0
  6
CENTER
 62
     3
370
    13
100
AcDbLine
 10
57.54120425971632
 20
37.89374715262537
 30
0.0
 11
57.54120425971632
 21
2.49374715262573
 31
0.0
  0
LINE
  5
385
330
143
100
AcDbEntity
  8
0
  6
CENTER
 62
     3
370
    13
100
AcDbLine
 10
41.54268125971612
 20
20.19374715262555
 30
0.0
 11
73.53972725971653
 21
20.19374715262555
 31
0.0
  0
INSERT
  5
386
330
143
100
AcDbEntity
  8
0
  6
Continuous
100
AcDbBlockReference
  2
DC_GROUP_W_MR-3812_S_040_22
 10
0.0
 20
0.0
 30
0.0
  0
ENDBLK
  5
145
330
143
100
AcDbEntity
  8
0
100
AcDbBlockEnd
  0
BLOCK
  5
147
330
146
100
AcDbEntity
  8
0
100
AcDbBlockBegin
  2
DC_GROUP_W_MR-3812_S_040_22
 70
     0
 10
0.0
 20
0.0
 30
0.0
  3
DC_GROUP_W_MR-3812_S_040_22
  1
DC_GROUP_W_MR-3812_S_040_22
  0
LINE
  5
387
330
146
100
AcDbEntity
  8
0
  6
Continuous
 62
     7
370
    18
100
AcDbLine
 10
57.54120425971632
 20
32.89374715262537
 30
0.0
 11
46.54268125971612
 21
26.54374715262591
 31
0.0
  0
LINE
  5
388
330
146
100
AcDbEntity
  8
0
  6
Continuous
 62
     7
370
    18
100
AcDbLine
 10
46.54268125971612
 20
26.54374715262591
 30
0.0
 11
46.54268125971612
 21
13.84374715262518
 31
0.0
  0
LINE
  5
389
330
146
100
AcDbEntity
  8
0
  6
Continuous
 62
     7
370
    18
100
AcDbLine
 10
46.54268125971612
 20
13.84374715262518
 30
0.0
 11
57.54120425971632
 21
7.49374715262573
 31
0.0
  0
LINE
  5
38A
330
146
100
AcDbEntity
  8
0
  6
Continuous
 62
     7
370
    18
100
AcDbLine
 10
57.54120425971632
 20
7.49374715262573
 30
0.0
 11
68.53972725971653
 21
13.84374715262518
 31
0.0
  0
LINE
  5
38B
330
146
100
AcDbEntity
  8
0
  6
Continuous
 62
     7
370
    18
100
AcDbLine
 10
68.53972725971653
 20
13.84374715262518
 30
0.0
 11
68.53972725971653
 21
26.54374715262591
 31
0.0
  0
LINE
  5
38C
330
146
100
AcDbEntity
  8
0
  6
Continuous
 62
     7
370
    18
100
AcDbLine
 10
68.53972725971653
 20
26.54374715262591
 30
0.0
 11
57.54120425971632
 21
32.89374715262537
 31
0.0
  0
ENDBLK
  5
148
330
146
100
AcDbEntity
  8
0
100
AcDbBlockEnd
  0
BLOCK
  5
14A
330
149
100
AcDbEntity
  8
0
100
AcDbBlockBegin
  2
DC_GROUP_W_MR-3812_S_040_23
 70
     0
 10
0.0
 20
0.0
 30
0.0
  3
DC_GROUP_W_MR-3812_S_040_23
  1
DC_GROUP_W_MR-3812_S_040_23
  0
CIRCLE
  5
38D
330
149
100
AcDbEntity
  8
0
  6
Continuous
 62
     7
370
    18
100
AcDbCircle
 10
196.0412042597162
 20
5.193747152625548
 30
0.0
 40
5.0
  0
LINE
  5
38E
330
149
100
AcDbEntity
  8
0
  6
CENTER
 62
     3
370
    13
100
AcDbLine
 10
196.0412042597162
 20
-4.806252847374452
 30
0.0
 11
196.0412042597162
 21
15.19374715262555
 31
0.0
  0
LINE
  5
38F
330
149
100
AcDbEntity
  8
0
  6
CENTER
 62
     3
370
    13
100
AcDbLine
 10
186.0412042597162
 20
5.193747152625548
 30
0.0
 11
206.0305102597162
 21
5.193747152625548
 31
0.0
  0
ENDBLK
  5
14B
330
149
100
AcDbEntity
  8
0
100
AcDbBlockEnd
  0
BLOCK
  5
14D
330
14C
100
AcDbEntity
  8
0
100
AcDbBlockBegin
  2
DC_GROUP_W_MR-3812_S_040_24
 70
     0
 10
0.0
 20
0.0
 30
0.0
  3
DC_GROUP_W_MR-3812_S_040_24
  1
DC_GROUP_W_MR-3812_S_040_24
  0
CIRCLE
  5
390
330
14C
100
AcDbEntity
  8
0
  6
Continuous
 62
     7
370
    18
100
AcDbCircle
 10
-635.4587957402837
 20
20.19374715262552
 30
0.0
 40
10.5
  0
LINE
  5
391
330
14C
100
AcDbEntity
  8
0
  6
CENTER
 62
     3
370
    13
100
AcDbLine
 10
-635.4587957402837
 20
37.89374715262534
 30
0.0
 11
-635.4587957402837
 21
2.493747152625701
 31
0.0
  0
LINE
  5
392
330
14C
100
AcDbEntity
  8
0
  6
CENTER
 62
     3
370
    13
100
AcDbLine
 10
-651.4573187402839
 20
20.19374715262552
 30
0.0
 11
-619.4602727402835
 21
20.19374715262552
 31
0.0
  0
INSERT
  5
393
330
14C
100
AcDbEntity
  8
0
  6
Continuous
100
AcDbBlockReference
  2
DC_GROUP_W_MR-3812_S_040_25
 10
0.0
 20
0.0
 30
0.0
  0
ENDBLK
  5
14E
330
14C
100
AcDbEntity
  8
0
100
AcDbBlockEnd
  0
BLOCK
  5
150
330
14F
100
AcDbEntity
  8
0
100
AcDbBlockBegin
  2
DC_GROUP_W_MR-3812_S_040_25
 70
     0
 10
0.0
 20
0.0
 30
0.0
  3
DC_GROUP_W_MR-3812_S_040_25
  1
DC_GROUP_W_MR-3812_S_040_25
  0
LINE
  5
394
330
14F
100
AcDbEntity
  8
0
  6
Continuous
 62
     7
370
    18
100
AcDbLine
 10
-635.4587957402837
 20
32.89374715262534
 30
0.0
 11
-646.4573187402839
 21
26.54374715262588
 31
0.0
  0
LINE
  5
395
330
14F
100
AcDbEntity
  8
0
  6
Continuous
 62
     7
370
    18
100
AcDbLine
 10
-646.4573187402839
 20
26.54374715262588
 30
0.0
 11
-646.4573187402839
 21
13.84374715262516
 31
0.0
  0
LINE
  5
396
330
14F
100
AcDbEntity
  8
0
  6
Continuous
 62
     7
370
    18
100
AcDbLine
 10
-646.4573187402839
 20
13.84374715262516
 30
0.0
 11
-635.4587957402837
 21
7.493747152625701
 31
0.0
  0
LINE
  5
397
330
14F
100
AcDbEntity
  8
0
  6
Continuous
 62
     7
370
    18
100
AcDbLine
 10
-635.4587957402837
 20
7.493747152625701
 30
0.0
 11
-624.4602727402835
 21
13.84374715262516
 31
0.0
  0
LINE
  5
398
330
14F
100
AcDbEntity
  8
0
  6
Continuous
 62
     7
370
    18
100
AcDbLine
 10
-624.4602727402835
 20
13.84374715262516
 30
0.0
 11
-624.4602727402835
 21
26.54374715262588
 31
0.0
  0
LINE
  5
399
330
14F
100
AcDbEntity
  8
0
  6
Continuous
 62
     7
370
    18
100
AcDbLine
 10
-624.4602727402835
 20
26.54374715262588
 30
0.0
 11
-635.4587957402837
 21
32.89374715262534
 31
0.0
  0
ENDBLK
  5
151
330
14F
100
AcDbEntity
  8
0
100
AcDbBlockEnd
  0
BLOCK
  5
153
330
152
100
AcDbEntity
  8
0
100
AcDbBlockBegin
  2
DC_GROUP_W_MR-3812_S_040_26
 70
     0
 10
0.0
 20
0.0
 30
0.0
  3
DC_GROUP_W_MR-3812_S_040_26
  1
DC_GROUP_W_MR-3812_S_040_26
  0
LINE
  5
39A
330
152
100
AcDbEntity
  8
2
  6
CENTER
 62
     3
370
    13
100
AcDbLine
 10
-750.9587957402837
 20
13.19374715262575
 30
0.0
 11
-750.9587957402837
 21
63.19374715262575
 31
0.0
  0
LINE
  5
39B
330
152
100
AcDbEntity
  8
2
  6
Continuous
 62
     7
370
    18
100
AcDbLine
 10
-746.4866597402838
 20
42.19374715262575
 30
0.0
 11
-755.4309317402835
 21
42.19374715262575
 31
0.0
  0
ARC
  5
39C
330
152
100
AcDbEntity
  8
2
  6
Continuous
 62
     7
370
    18
100
AcDbCircle
 10
-750.9587957402837
 20
38.19374715262575
 30
0.0
 40
6.0
100
AcDbArc
 50
138.1896850000018
 51
41.81031499999821
  0
ARC
  5
39D
330
152
100
AcDbEntity
  8
2
  6
Continuous
 62
     7
370
    18
100
AcDbCircle
 10
-750.9587957402837
 20
38.19374715262575
 30
0.0
 40
19.05
100
AcDbArc
 50
39.04431346911645
 51
140.9556865308836
  0
ARC
  5
39E
330
152
100
AcDbEntity
  8
2
  6
DASHED2
 62
     4
370
    13
100
AcDbCircle
 10
-750.9587957402837
 20
38.19374715262575
 30
0.0
 40
19.05
100
AcDbArc
 50
140.9556865308835
 51
39.0443134691165
  0
ENDBLK
  5
154
330
152
100
AcDbEntity
  8
0
100
AcDbBlockEnd
  0
BLOCK
  5
156
330
155
100
AcDbEntity
  8
0
100
AcDbBlockBegin
  2
DC_GROUP_W_MR-3812_S_040_27
 70
     0
 10
0.0
 20
0.0
 30
0.0
  3
DC_GROUP_W_MR-3812_S_040_27
  1
DC_GROUP_W_MR-3812_S_040_27
  0
LINE
  5
39F
330
155
100
AcDbEntity
  8
2
  6
CENTER
 62
     3
370
    13
100
AcDbLine
 10
-712.4587957402837
 20
30.39374715262575
 30
0.0
 11
-712.4587957402837
 21
45.99374715262574
 31
0.0
  0
LINE
  5
3A0
330
155
100
AcDbEntity
  8
2
  6
Continuous
 62
     7
370
    18
100
AcDbLine
 10
-707.9866597402838
 20
42.19374715262575
 30
0.0
 11
-716.9309317402835
 21
42.19374715262575
 31
0.0
  0
ARC
  5
3A1
330
155
100
AcDbEntity
  8
2
  6
Continuous
 62
     7
370
    18
100
AcDbCircle
 10
-712.4587957402837
 20
38.19374715262575
 30
0.0
 40
6.0
100
AcDbArc
 50
138.1896850000018
 51
41.81031499999821
  0
ENDBLK
  5
157
330
155
100
AcDbEntity
  8
0
100
AcDbBlockEnd
  0
BLOCK
  5
159
330
158
100
AcDbEntity
  8
0
100
AcDbBlockBegin
  2
DC_GROUP_W_MR-3812_S_040_28
 70
     0
 10
0.0
 20
0.0
 30
0.0
  3
DC_GROUP_W_MR-3812_S_040_28
  1
DC_GROUP_W_MR-3812_S_040_28
  0
LINE
  5
3A2
330
158
100
AcDbEntity
  8
2
  6
CENTER
 62
     3
370
    13
100
AcDbLine
 10
-596.9587957402837
 20
13.19374715262575
 30
0.0
 11
-596.9587957402837
 21
63.19374715262575
 31
0.0
  0
LINE
  5
3A3
330
158
100
AcDbEntity
  8
2
  6
Continuous
 62
     7
370
    18
100
AcDbLine
 10
-592.4866597402838
 20
42.19374715262575
 30
0.0
 11
-601.4309317402835
 21
42.19374715262575
 31
0.0
  0
ARC
  5
3A4
330
158
100
AcDbEntity
  8
2
  6
Continuous
 62
     7
370
    18
100
AcDbCircle
 10
-596.9587957402837
 20
38.19374715262575
 30
0.0
 40
6.0
100
AcDbArc
 50
138.1896850000018
 51
41.81031499999821
  0
ARC
  5
3A5
330
158
100
AcDbEntity
  8
2
  6
Continuous
 62
     7
370
    18
100
AcDbCircle
 10
-596.9587957402837
 20
38.19374715262575
 30
0.0
 40
19.05
100
AcDbArc
 50
39.04431346911645
 51
140.9556865308836
  0
ARC
  5
3A6
330
158
100
AcDbEntity
  8
2
  6
DASHED2
 62
     4
370
    13
100
AcDbCircle
 10
-596.9587957402837
 20
38.19374715262575
 30
0.0
 40
19.05
100
AcDbArc
 50
140.9556865308835
 51
39.0443134691165
  0
ENDBLK
  5
15A
330
158
100
AcDbEntity
  8
0
100
AcDbBlockEnd
  0
BLOCK
  5
15C
330
15B
100
AcDbEntity
  8
0
100
AcDbBlockBegin
  2
DC_GROUP_W_MR-3812_S_040_29
 70
     0
 10
0.0
 20
0.0
 30
0.0
  3
DC_GROUP_W_MR-3812_S_040_29
  1
DC_GROUP_W_MR-3812_S_040_29
  0
LINE
  5
3A7
330
15B
100
AcDbEntity
  8
2
  6
CENTER
 62
     3
370
    13
100
AcDbLine
 10
-635.4587957402837
 20
30.39374715262575
 30
0.0
 11
-635.4587957402837
 21
45.99374715262574
 31
0.0
  0
LINE
  5
3A8
330
15B
100
AcDbEntity
  8
2
  6
Continuous
 62
     7
370
    18
100
AcDbLine
 10
-630.9866597402838
 20
42.19374715262575
 30
0.0
 11
-639.9309317402835
 21
42.19374715262575
 31
0.0
  0
ARC
  5
3A9
330
15B
100
AcDbEntity
  8
2
  6
Continuous
 62
     7
370
    18
100
AcDbCircle
 10
-635.4587957402837
 20
38.19374715262575
 30
0.0
 40
6.0
100
AcDbArc
 50
138.1896850000018
 51
41.81031499999821
  0
ENDBLK
  5
15D
330
15B
100
AcDbEntity
  8
0
100
AcDbBlockEnd
  0
BLOCK
  5
15F
330
15E
100
AcDbEntity
  8
0
100
AcDbBlockBegin
  2
DC_GROUP_W_MR-3812_S_040_30
 70
     0
 10
0.0
 20
0.0
 30
0.0
  3
DC_GROUP_W_MR-3812_S_040_30
  1
DC_GROUP_W_MR-3812_S_040_30
  0
LINE
  5
3AA
330
15E
100
AcDbEntity
  8
2
  6
CENTER
 62
     3
370
    13
100
AcDbLine
 10
-558.4587957402837
 20
30.39374715262575
 30
0.0
 11
-558.4587957402837
 21
45.99374715262574
 31
0.0
  0
LINE
  5
3AB
330
15E
100
AcDbEntity
  8
2
  6
Continuous
 62
     7
370
    18
100
AcDbLine
 10
-553.9866597402838
 20
42.19374715262575
 30
0.0
 11
-562.9309317402835
 21
42.19374715262575
 31
0.0
  0
ARC
  5
3AC
330
15E
100
AcDbEntity
  8
2
  6
Continuous
 62
     7
370
    18
100
AcDbCircle
 10
-558.4587957402837
 20
38.19374715262575
 30
0.0
 40
6.0
100
AcDbArc
 50
138.1896850000018
 51
41.81031499999821
  0
ENDBLK
  5
160
330
15E
100
AcDbEntity
  8
0
100
AcDbBlockEnd
  0
BLOCK
  5
162
330
161
100
AcDbEntity
  8
0
100
AcDbBlockBegin
  2
DC_GROUP_W_MR-3812_S_040_31
 70
     0
 10
0.0
 20
0.0
 30
0.0
  3
DC_GROUP_W_MR-3812_S_040_31
  1
DC_GROUP_W_MR-3812_S_040_31
  0
LINE
  5
3AD
330
161
100
AcDbEntity
  8
2
  6
CENTER
 62
     3
370
    13
100
AcDbLine
 10
-442.9587957402837
 20
13.19374715262575
 30
0.0
 11
-442.9587957402837
 21
63.19374715262575
 31
0.0
  0
LINE
  5
3AE
330
161
100
AcDbEntity
  8
2
  6
Continuous
 62
     7
370
    18
100
AcDbLine
 10
-438.4866597402838
 20
42.19374715262575
 30
0.0
 11
-447.4309317402835
 21
42.19374715262575
 31
0.0
  0
ARC
  5
3AF
330
161
100
AcDbEntity
  8
2
  6
Continuous
 62
     7
370
    18
100
AcDbCircle
 10
-442.9587957402837
 20
38.19374715262575
 30
0.0
 40
6.0
100
AcDbArc
 50
138.1896850000018
 51
41.81031499999821
  0
ARC
  5
3B0
330
161
100
AcDbEntity
  8
2
  6
Continuous
 62
     7
370
    18
100
AcDbCircle
 10
-442.9587957402837
 20
38.19374715262575
 30
0.0
 40
19.05
100
AcDbArc
 50
39.04431346911645
 51
140.9556865308836
  0
ARC
  5
3B1
330
161
100
AcDbEntity
  8
2
  6
DASHED2
 62
     4
370
    13
100
AcDbCircle
 10
-442.9587957402837
 20
38.19374715262575
 30
0.0
 40
19.05
100
AcDbArc
 50
140.9556865308835
 51
39.0443134691165
  0
ENDBLK
  5
163
330
161
100
AcDbEntity
  8
0
100
AcDbBlockEnd
  0
BLOCK
  5
165
330
164
100
AcDbEntity
  8
0
100
AcDbBlockBegin
  2
DC_GROUP_W_MR-3812_S_040_32
 70
     0
 10
0.0
 20
0.0
 30
0.0
  3
DC_GROUP_W_MR-3812_S_040_32
  1
DC_GROUP_W_MR-3812_S_040_32
  0
LINE
  5
3B2
330
164
100
AcDbEntity
  8
2
  6
CENTER
 62
     3
370
    13
100
AcDbLine
 10
-481.4587957402837
 20
30.39374715262575
 30
0.0
 11
-481.4587957402837
 21
45.99374715262574
 31
0.0
  0
LINE
  5
3B3
330
164
100
AcDbEntity
  8
2
  6
Continuous
 62
     7
370
    18
100
AcDbLine
 10
-476.9866597402838
 20
42.19374715262575
 30
0.0
 11
-485.9309317402835
 21
42.19374715262575
 31
0.0
  0
ARC
  5
3B4
330
164
100
AcDbEntity
  8
2
  6
Continuous
 62
     7
370
    18
100
AcDbCircle
 10
-481.4587957402837
 20
38.19374715262575
 30
0.0
 40
6.0
100
AcDbArc
 50
138.1896850000018
 51
41.81031499999821
  0
ENDBLK
  5
166
330
164
100
AcDbEntity
  8
0
100
AcDbBlockEnd
  0
BLOCK
  5
168
330
167
100
AcDbEntity
  8
0
100
AcDbBlockBegin
  2
DC_GROUP_W_MR-3812_S_040_33
 70
     0
 10
0.0
 20
0.0
 30
0.0
  3
DC_GROUP_W_MR-3812_S_040_33
  1
DC_GROUP_W_MR-3812_S_040_33
  0
LINE
  5
3B5
330
167
100
AcDbEntity
  8
2
  6
CENTER
 62
     3
370
    13
100
AcDbLine
 10
-404.4587957402837
 20
30.39374715262575
 30
0.0
 11
-404.4587957402837
 21
45.99374715262574
 31
0.0
  0
LINE
  5
3B6
330
167
100
AcDbEntity
  8
2
  6
Continuous
 62
     7
370
    18
100
AcDbLine
 10
-399.9866597402838
 20
42.19374715262575
 30
0.0
 11
-408.9309317402835
 21
42.19374715262575
 31
0.0
  0
ARC
  5
3B7
330
167
100
AcDbEntity
  8
2
  6
Continuous
 62
     7
370
    18
100
AcDbCircle
 10
-404.4587957402837
 20
38.19374715262575
 30
0.0
 40
6.0
100
AcDbArc
 50
138.1896850000018
 51
41.81031499999821
  0
ENDBLK
  5
169
330
167
100
AcDbEntity
  8
0
100
AcDbBlockEnd
  0
BLOCK
  5
16B
330
16A
100
AcDbEntity
  8
0
100
AcDbBlockBegin
  2
DC_GROUP_W_MR-3812_S_040_34
 70
     0
 10
0.0
 20
0.0
 30
0.0
  3
DC_GROUP_W_MR-3812_S_040_34
  1
DC_GROUP_W_MR-3812_S_040_34
  0
LINE
  5
3B8
330
16A
100
AcDbEntity
  8
2
  6
CENTER
 62
     3
370
    13
100
AcDbLine
 10
-288.9587957402837
 20
13.19374715262575
 30
0.0
 11
-288.9587957402837
 21
63.19374715262575
 31
0.0
  0
LINE
  5
3B9
330
16A
100
AcDbEntity
  8
2
  6
Continuous
 62
     7
370
    18
100
AcDbLine
 10
-284.4866597402838
 20
42.19374715262575
 30
0.0
 11
-293.4309317402835
 21
42.19374715262575
 31
0.0
  0
ARC
  5
3BA
330
16A
100
AcDbEntity
  8
2
  6
Continuous
 62
     7
370
    18
100
AcDbCircle
 10
-288.9587957402837
 20
38.19374715262575
 30
0.0
 40
6.0
100
AcDbArc
 50
138.1896850000018
 51
41.81031499999821
  0
ARC
  5
3BB
330
16A
100
AcDbEntity
  8
2
  6
Continuous
 62
     7
370
    18
100
AcDbCircle
 10
-288.9587957402837
 20
38.19374715262575
 30
0.0
 40
19.05
100
AcDbArc
 50
39.04431346911645
 51
140.9556865308836
  0
ARC
  5
3BC
330
16A
100
AcDbEntity
  8
2
  6
DASHED2
 62
     4
370
    13
100
AcDbCircle
 10
-288.9587957402837
 20
38.19374715262575
 30
0.0
 40
19.05
100
AcDbArc
 50
140.9556865308835
 51
39.0443134691165
  0
ENDBLK
  5
16C
330
16A
100
AcDbEntity
  8
0
100
AcDbBlockEnd
  0
BLOCK
  5
16E
330
16D
100
AcDbEntity
  8
0
100
AcDbBlockBegin
  2
DC_GROUP_W_MR-3812_S_040_35
 70
     0
 10
0.0
 20
0.0
 30
0.0
  3
DC_GROUP_W_MR-3812_S_040_35
  1
DC_GROUP_W_MR-3812_S_040_35
  0
LINE
  5
3BD
330
16D
100
AcDbEntity
  8
2
  6
CENTER
 62
     3
370
    13
100
AcDbLine
 10
-327.4587957402837
 20
30.39374715262575
 30
0.0
 11
-327.4587957402837
 21
45.99374715262574
 31
0.0
  0
LINE
  5
3BE
330
16D
100
AcDbEntity
  8
2
  6
Continuous
 62
     7
370
    18
100
AcDbLine
 10
-322.9866597402838
 20
42.19374715262575
 30
0.0
 11
-331.9309317402835
 21
42.19374715262575
 31
0.0
  0
ARC
  5
3BF
330
16D
100
AcDbEntity
  8
2
  6
Continuous
 62
     7
370
    18
100
AcDbCircle
 10
-327.4587957402837
 20
38.19374715262575
 30
0.0
 40
6.0
100
AcDbArc
 50
138.1896850000018
 51
41.81031499999821
  0
ENDBLK
  5
16F
330
16D
100
AcDbEntity
  8
0
100
AcDbBlockEnd
  0
BLOCK
  5
171
330
170
100
AcDbEntity
  8
0
100
AcDbBlockBegin
  2
DC_GROUP_W_MR-3812_S_040_36
 70
     0
 10
0.0
 20
0.0
 30
0.0
  3
DC_GROUP_W_MR-3812_S_040_36
  1
DC_GROUP_W_MR-3812_S_040_36
  0
LINE
  5
3C0
330
170
100
AcDbEntity
  8
2
  6
CENTER
 62
     3
370
    13
100
AcDbLine
 10
-250.4587957402837
 20
30.39374715262575
 30
0.0
 11
-250.4587957402837
 21
45.99374715262574
 31
0.0
  0
LINE
  5
3C1
330
170
100
AcDbEntity
  8
2
  6
Continuous
 62
     7
370
    18
100
AcDbLine
 10
-245.9866597402838
 20
42.19374715262575
 30
0.0
 11
-254.9309317402835
 21
42.19374715262575
 31
0.0
  0
ARC
  5
3C2
330
170
100
AcDbEntity
  8
2
  6
Continuous
 62
     7
370
    18
100
AcDbCircle
 10
-250.4587957402837
 20
38.19374715262575
 30
0.0
 40
6.0
100
AcDbArc
 50
138.1896850000018
 51
41.81031499999821
  0
ENDBLK
  5
172
330
170
100
AcDbEntity
  8
0
100
AcDbBlockEnd
  0
BLOCK
  5
174
330
173
100
AcDbEntity
  8
0
100
AcDbBlockBegin
  2
DC_GROUP_W_MR-3812_S_040_37
 70
     0
 10
0.0
 20
0.0
 30
0.0
  3
DC_GROUP_W_MR-3812_S_040_37
  1
DC_GROUP_W_MR-3812_S_040_37
  0
LINE
  5
3C3
330
173
100
AcDbEntity
  8
2
  6
CENTER
 62
     3
370
    13
100
AcDbLine
 10
-134.9587957402837
 20
13.19374715262575
 30
0.0
 11
-134.9587957402837
 21
63.19374715262575
 31
0.0
  0
LINE
  5
3C4
330
173
100
AcDbEntity
  8
2
  6
Continuous
 62
     7
370
    18
100
AcDbLine
 10
-130.4866597402838
 20
42.19374715262575
 30
0.0
 11
-139.4309317402835
 21
42.19374715262575
 31
0.0
  0
ARC
  5
3C5
330
173
100
AcDbEntity
  8
2
  6
Continuous
 62
     7
370
    18
100
AcDbCircle
 10
-134.9587957402837
 20
38.19374715262575
 30
0.0
 40
6.0
100
AcDbArc
 50
138.1896850000018
 51
41.81031499999821
  0
ARC
  5
3C6
330
173
100
AcDbEntity
  8
2
  6
Continuous
 62
     7
370
    18
100
AcDbCircle
 10
-134.9587957402837
 20
38.19374715262575
 30
0.0
 40
19.05
100
AcDbArc
 50
39.04431346911645
 51
140.9556865308836
  0
ARC
  5
3C7
330
173
100
AcDbEntity
  8
2
  6
DASHED2
 62
     4
370
    13
100
AcDbCircle
 10
-134.9587957402837
 20
38.19374715262575
 30
0.0
 40
19.05
100
AcDbArc
 50
140.9556865308835
 51
39.0443134691165
  0
ENDBLK
  5
175
330
173
100
AcDbEntity
  8
0
100
AcDbBlockEnd
  0
BLOCK
  5
177
330
176
100
AcDbEntity
  8
0
100
AcDbBlockBegin
  2
DC_GROUP_W_MR-3812_S_040_38
 70
     0
 10
0.0
 20
0.0
 30
0.0
  3
DC_GROUP_W_MR-3812_S_040_38
  1
DC_GROUP_W_MR-3812_S_040_38
  0
LINE
  5
3C8
330
176
100
AcDbEntity
  8
2
  6
CENTER
 62
     3
370
    13
100
AcDbLine
 10
-173.4587957402837
 20
30.39374715262575
 30
0.0
 11
-173.4587957402837
 21
45.99374715262574
 31
0.0
  0
LINE
  5
3C9
330
176
100
AcDbEntity
  8
2
  6
Continuous
 62
     7
370
    18
100
AcDbLine
 10
-168.9866597402838
 20
42.19374715262575
 30
0.0
 11
-177.9309317402835
 21
42.19374715262575
 31
0.0
  0
ARC
  5
3CA
330
176
100
AcDbEntity
  8
2
  6
Continuous
 62
     7
370
    18
100
AcDbCircle
 10
-173.4587957402837
 20
38.19374715262575
 30
0.0
 40
6.0
100
AcDbArc
 50
138.1896850000018
 51
41.81031499999821
  0
ENDBLK
  5
178
330
176
100
AcDbEntity
  8
0
100
AcDbBlockEnd
  0
BLOCK
  5
17A
330
179
100
AcDbEntity
  8
0
100
AcDbBlockBegin
  2
DC_GROUP_W_MR-3812_S_040_39
 70
     0
 10
0.0
 20
0.0
 30
0.0
  3
DC_GROUP_W_MR-3812_S_040_39
  1
DC_GROUP_W_MR-3812_S_040_39
  0
LINE
  5
3CB
330
179
100
AcDbEntity
  8
2
  6
CENTER
 62
     3
370
    13
100
AcDbLine
 10
-96.45879574028368
 20
30.39374715262575
 30
0.0
 11
-96.45879574028368
 21
45.99374715262574
 31
0.0
  0
LINE
  5
3CC
330
179
100
AcDbEntity
  8
2
  6
Continuous
 62
     7
370
    18
100
AcDbLine
 10
-91.98665974028381
 20
42.19374715262575
 30
0.0
 11
-100.9309317402835
 21
42.19374715262575
 31
0.0
  0
ARC
  5
3CD
330
179
100
AcDbEntity
  8
2
  6
Continuous
 62
     7
370
    18
100
AcDbCircle
 10
-96.45879574028368
 20
38.19374715262575
 30
0.0
 40
6.0
100
AcDbArc
 50
138.1896850000018
 51
41.81031499999821
  0
ENDBLK
  5
17B
330
179
100
AcDbEntity
  8
0
100
AcDbBlockEnd
  0
BLOCK
  5
17D
330
17C
100
AcDbEntity
  8
0
100
AcDbBlockBegin
  2
DC_GROUP_W_MR-3812_S_040_40
 70
     0
 10
0.0
 20
0.0
 30
0.0
  3
DC_GROUP_W_MR-3812_S_040_40
  1
DC_GROUP_W_MR-3812_S_040_40
  0
LINE
  5
3CE
330
17C
100
AcDbEntity
  8
2
  6
CENTER
 62
     3
370
    13
100
AcDbLine
 10
19.04120425971632
 20
13.19374715262575
 30
0.0
 11
19.04120425971632
 21
63.19374715262575
 31
0.0
  0
LINE
  5
3CF
330
17C
100
AcDbEntity
  8
2
  6
Continuous
 62
     7
370
    18
100
AcDbLine
 10
23.51334025971619
 20
42.19374715262575
 30
0.0
 11
14.56906825971646
 21
42.19374715262575
 31
0.0
  0
ARC
  5
3D0
330
17C
100
AcDbEntity
  8
2
  6
Continuous
 62
     7
370
    18
100
AcDbCircle
 10
19.04120425971632
 20
38.19374715262575
 30
0.0
 40
6.0
100
AcDbArc
 50
138.1896850000018
 51
41.81031499999821
  0
ARC
  5
3D1
330
17C
100
AcDbEntity
  8
2
  6
Continuous
 62
     7
370
    18
100
AcDbCircle
 10
19.04120425971632
 20
38.19374715262575
 30
0.0
 40
19.05
100
AcDbArc
 50
39.04431346911645
 51
140.9556865308836
  0
ARC
  5
3D2
330
17C
100
AcDbEntity
  8
2
  6
DASHED2
 62
     4
370
    13
100
AcDbCircle
 10
19.04120425971632
 20
38.19374715262575
 30
0.0
 40
19.05
100
AcDbArc
 50
140.9556865308835
 51
39.0443134691165
  0
ENDBLK
  5
17E
330
17C
100
AcDbEntity
  8
0
100
AcDbBlockEnd
  0
BLOCK
  5
180
330
17F
100
AcDbEntity
  8
0
100
AcDbBlockBegin
  2
DC_GROUP_W_MR-3812_S_040_41
 70
     0
 10
0.0
 20
0.0
 30
0.0
  3
DC_GROUP_W_MR-3812_S_040_41
  1
DC_GROUP_W_MR-3812_S_040_41
  0
LINE
  5
3D3
330
17F
100
AcDbEntity
  8
2
  6
CENTER
 62
     3
370
    13
100
AcDbLine
 10
-19.45879574028368
 20
30.39374715262575
 30
0.0
 11
-19.45879574028368
 21
45.99374715262574
 31
0.0
  0
LINE
  5
3D4
330
17F
100
AcDbEntity
  8
2
  6
Continuous
 62
     7
370
    18
100
AcDbLine
 10
-14.98665974028381
 20
42.19374715262575
 30
0.0
 11
-23.93093174028354
 21
42.19374715262575
 31
0.0
  0
ARC
  5
3D5
330
17F
100
AcDbEntity
  8
2
  6
Continuous
 62
     7
370
    18
100
AcDbCircle
 10
-19.45879574028368
 20
38.19374715262575
 30
0.0
 40
6.0
100
AcDbArc
 50
138.1896850000018
 51
41.81031499999821
  0
ENDBLK
  5
181
330
17F
100
AcDbEntity
  8
0
100
AcDbBlockEnd
  0
BLOCK
  5
183
330
182
100
AcDbEntity
  8
0
100
AcDbBlockBegin
  2
DC_GROUP_W_MR-3812_S_040_42
 70
     0
 10
0.0
 20
0.0
 30
0.0
  3
DC_GROUP_W_MR-3812_S_040_42
  1
DC_GROUP_W_MR-3812_S_040_42
  0
LINE
  5
3D6
330
182
100
AcDbEntity
  8
2
  6
CENTER
 62
     3
370
    13
100
AcDbLine
 10
57.54120425971632
 20
30.39374715262575
 30
0.0
 11
57.54120425971632
 21
45.99374715262574
 31
0.0
  0
LINE
  5
3D7
330
182
100
AcDbEntity
  8
2
  6
Continuous
 62
     7
370
    18
100
AcDbLine
 10
62.01334025971619
 20
42.19374715262575
 30
0.0
 11
53.06906825971646
 21
42.19374715262575
 31
0.0
  0
ARC
  5
3D8
330
182
100
AcDbEntity
  8
2
  6
Continuous
 62
     7
370
    18
100
AcDbCircle
 10
57.54120425971632
 20
38.19374715262575
 30
0.0
 40
6.0
100
AcDbArc
 50
138.1896850000018
 51
41.81031499999821
  0
ENDBLK
  5
184
330
182
100
AcDbEntity
  8
0
100
AcDbBlockEnd
  0
BLOCK
  5
186
330
185
100
AcDbEntity
  8
0
100
AcDbBlockBegin
  2
DC_GROUP_W_MR-3812_S_040_43
 70
     0
 10
0.0
 20
0.0
 30
0.0
  3
DC_GROUP_W_MR-3812_S_040_43
  1
DC_GROUP_W_MR-3812_S_040_43
  0
LINE
  5
3D9
330
185
100
AcDbEntity
  8
2
  6
CENTER
 62
     3
370
    13
100
AcDbLine
 10
173.0412042597163
 20
13.19374715262575
 30
0.0
 11
173.0412042597163
 21
63.19374715262575
 31
0.0
  0
LINE
  5
3DA
330
185
100
AcDbEntity
  8
2
  6
Continuous
 62
     7
370
    18
100
AcDbLine
 10
177.5133402597162
 20
42.19374715262575
 30
0.0
 11
168.5690682597165
 21
42.19374715262575
 31
0.0
  0
ARC
  5
3DB
330
185
100
AcDbEntity
  8
2
  6
Continuous
 62
     7
370
    18
100
AcDbCircle
 10
173.0412042597163
 20
38.19374715262575
 30
0.0
 40
6.0
100
AcDbArc
 50
138.1896850000018
 51
41.81031499999821
  0
ARC
  5
3DC
330
185
100
AcDbEntity
  8
2
  6
Continuous
 62
     7
370
    18
100
AcDbCircle
 10
173.0412042597163
 20
38.19374715262575
 30
0.0
 40
19.05
100
AcDbArc
 50
39.04431346911645
 51
140.9556865308836
  0
ARC
  5
3DD
330
185
100
AcDbEntity
  8
2
  6
DASHED2
 62
     4
370
    13
100
AcDbCircle
 10
173.0412042597163
 20
38.19374715262575
 30
0.0
 40
19.05
100
AcDbArc
 50
140.9556865308835
 51
39.0443134691165
  0
ENDBLK
  5
187
330
185
100
AcDbEntity
  8
0
100
AcDbBlockEnd
  0
BLOCK
  5
189
330
188
100
AcDbEntity
  8
0
100
AcDbBlockBegin
  2
DC_GROUP_W_MR-3812_S_040_44
 70
     0
 10
0.0
 20
0.0
 30
0.0
  3
DC_GROUP_W_MR-3812_S_040_44
  1
DC_GROUP_W_MR-3812_S_040_44
  0
LINE
  5
3DE
330
188
100
AcDbEntity
  8
2
  6
CENTER
 62
     3
370
    13
100
AcDbLine
 10
134.5412042597163
 20
30.39374715262575
 30
0.0
 11
134.5412042597163
 21
45.99374715262574
 31
0.0
  0
LINE
  5
3DF
330
188
100
AcDbEntity
  8
2
  6
Continuous
 62
     7
370
    18
100
AcDbLine
 10
139.0133402597162
 20
42.19374715262575
 30
0.0
 11
130.0690682597165
 21
42.19374715262575
 31
0.0
  0
ARC
  5
3E0
330
188
100
AcDbEntity
  8
2
  6
Continuous
 62
     7
370
    18
100
AcDbCircle
 10
134.5412042597163
 20
38.19374715262575
 30
0.0
 40
6.0
100
AcDbArc
 50
138.1896850000018
 51
41.81031499999821
  0
ENDBLK
  5
18A
330
188
100
AcDbEntity
  8
0
100
AcDbBlockEnd
  0
BLOCK
  5
18C
330
18B
100
AcDbEntity
  8
0
100
AcDbBlockBegin
  2
DC_GROUP_W_MR-3812_S_040_45
 70
     0
 10
0.0
 20
0.0
 30
0.0
  3
DC_GROUP_W_MR-3812_S_040_45
  1
DC_GROUP_W_MR-3812_S_040_45
  0
LINE
  5
3E1
330
18B
100
AcDbEntity
  8
2
  6
CENTER
 62
     3
370
    13
100
AcDbLine
 10
-673.9587957402837
 20
30.39374715262575
 30
0.0
 11
-673.9587957402837
 21
45.99374715262574
 31
0.0
  0
LINE
  5
3E2
330
18B
100
AcDbEntity
  8
2
  6
Continuous
 62
     7
370
    18
100
AcDbLine
 10
-669.4866597402838
 20
42.19374715262575
 30
0.0
 11
-678.4309317402835
 21
42.19374715262575
 31
0.0
  0
ARC
  5
3E3
330
18B
100
AcDbEntity
  8
2
  6
Continuous
 62
     7
370
    18
100
AcDbCircle
 10
-673.9587957402837
 20
38.19374715262575
 30
0.0
 40
6.0
100
AcDbArc
 50
138.1896850000018
 51
41.81031499999821
  0
ENDBLK
  5
18D
330
18B
100
AcDbEntity
  8
0
100
AcDbBlockEnd
  0
BLOCK
  5
18F
330
18E
100
AcDbEntity
  8
0
100
AcDbBlockBegin
  2
DC_GROUP_W_MR-3812_S_040_46
 70
     0
 10
0.0
 20
0.0
 30
0.0
  3
DC_GROUP_W_MR-3812_S_040_46
  1
DC_GROUP_W_MR-3812_S_040_46
  0
LINE
  5
3E4
330
18E
100
AcDbEntity
  8
2
  6
CENTER
 62
     3
370
    13
100
AcDbLine
 10
-519.9587957402837
 20
30.39374715262575
 30
0.0
 11
-519.9587957402837
 21
45.99374715262574
 31
0.0
  0
LINE
  5
3E5
330
18E
100
AcDbEntity
  8
2
  6
Continuous
 62
     7
370
    18
100
AcDbLine
 10
-515.4866597402838
 20
42.19374715262575
 30
0.0
 11
-524.4309317402835
 21
42.19374715262575
 31
0.0
  0
ARC
  5
3E6
330
18E
100
AcDbEntity
  8
2
  6
Continuous
 62
     7
370
    18
100
AcDbCircle
 10
-519.9587957402837
 20
38.19374715262575
 30
0.0
 40
6.0
100
AcDbArc
 50
138.1896850000018
 51
41.81031499999821
  0
ENDBLK
  5
190
330
18E
100
AcDbEntity
  8
0
100
AcDbBlockEnd
  0
BLOCK
  5
192
330
191
100
AcDbEntity
  8
0
100
AcDbBlockBegin
  2
DC_GROUP_W_MR-3812_S_040_47
 70
     0
 10
0.0
 20
0.0
 30
0.0
  3
DC_GROUP_W_MR-3812_S_040_47
  1
DC_GROUP_W_MR-3812_S_040_47
  0
LINE
  5
3E7
330
191
100
AcDbEntity
  8
2
  6
CENTER
 62
     3
370
    13
100
AcDbLine
 10
-365.9587957402837
 20
30.39374715262575
 30
0.0
 11
-365.9587957402837
 21
45.99374715262574
 31
0.0
  0
LINE
  5
3E8
330
191
100
AcDbEntity
  8
2
  6
Continuous
 62
     7
370
    18
100
AcDbLine
 10
-361.4866597402838
 20
42.19374715262575
 30
0.0
 11
-370.4309317402835
 21
42.19374715262575
 31
0.0
  0
ARC
  5
3E9
330
191
100
AcDbEntity
  8
2
  6
Continuous
 62
     7
370
    18
100
AcDbCircle
 10
-365.9587957402837
 20
38.19374715262575
 30
0.0
 40
6.0
100
AcDbArc
 50
138.1896850000018
 51
41.81031499999821
  0
ENDBLK
  5
193
330
191
100
AcDbEntity
  8
0
100
AcDbBlockEnd
  0
BLOCK
  5
195
330
194
100
AcDbEntity
  8
0
100
AcDbBlockBegin
  2
DC_GROUP_W_MR-3812_S_040_48
 70
     0
 10
0.0
 20
0.0
 30
0.0
  3
DC_GROUP_W_MR-3812_S_040_48
  1
DC_GROUP_W_MR-3812_S_040_48
  0
LINE
  5
3EA
330
194
100
AcDbEntity
  8
2
  6
CENTER
 62
     3
370
    13
100
AcDbLine
 10
-211.9587957402837
 20
30.39374715262575
 30
0.0
 11
-211.9587957402837
 21
45.99374715262574
 31
0.0
  0
LINE
  5
3EB
330
194
100
AcDbEntity
  8
2
  6
Continuous
 62
     7
370
    18
100
AcDbLine
 10
-207.4866597402838
 20
42.19374715262575
 30
0.0
 11
-216.4309317402835
 21
42.19374715262575
 31
0.0
  0
ARC
  5
3EC
330
194
100
AcDbEntity
  8
2
  6
Continuous
 62
     7
370
    18
100
AcDbCircle
 10
-211.9587957402837
 20
38.19374715262575
 30
0.0
 40
6.0
100
AcDbArc
 50
138.1896850000018
 51
41.81031499999821
  0
ENDBLK
  5
196
330
194
100
AcDbEntity
  8
0
100
AcDbBlockEnd
  0
BLOCK
  5
198
330
197
100
AcDbEntity
  8
0
100
AcDbBlockBegin
  2
DC_GROUP_W_MR-3812_S_040_49
 70
     0
 10
0.0
 20
0.0
 30
0.0
  3
DC_GROUP_W_MR-3812_S_040_49
  1
DC_GROUP_W_MR-3812_S_040_49
  0
LINE
  5
3ED
330
197
100
AcDbEntity
  8
2
  6
CENTER
 62
     3
370
    13
100
AcDbLine
 10
-57.95879574028368
 20
30.39374715262575
 30
0.0
 11
-57.95879574028368
 21
45.99374715262574
 31
0.0
  0
LINE
  5
3EE
330
197
100
AcDbEntity
  8
2
  6
Continuous
 62
     7
370
    18
100
AcDbLine
 10
-53.48665974028381
 20
42.19374715262575
 30
0.0
 11
-62.43093174028354
 21
42.19374715262575
 31
0.0
  0
ARC
  5
3EF
330
197
100
AcDbEntity
  8
2
  6
Continuous
 62
     7
370
    18
100
AcDbCircle
 10
-57.95879574028368
 20
38.19374715262575
 30
0.0
 40
6.0
100
AcDbArc
 50
138.1896850000018
 51
41.81031499999821
  0
ENDBLK
  5
199
330
197
100
AcDbEntity
  8
0
100
AcDbBlockEnd
  0
BLOCK
  5
19B
330
19A
100
AcDbEntity
  8
0
100
AcDbBlockBegin
  2
DC_GROUP_W_MR-3812_S_040_50
 70
     0
 10
0.0
 20
0.0
 30
0.0
  3
DC_GROUP_W_MR-3812_S_040_50
  1
DC_GROUP_W_MR-3812_S_040_50
  0
LINE
  5
3F0
330
19A
100
AcDbEntity
  8
2
  6
CENTER
 62
     3
370
    13
100
AcDbLine
 10
96.04120425971632
 20
30.39374715262575
 30
0.0
 11
96.04120425971632
 21
45.99374715262574
 31
0.0
  0
LINE
  5
3F1
330
19A
100
AcDbEntity
  8
2
  6
Continuous
 62
     7
370
    18
100
AcDbLine
 10
100.5133402597162
 20
42.19374715262575
 30
0.0
 11
91.56906825971646
 21
42.19374715262575
 31
0.0
  0
ARC
  5
3F2
330
19A
100
AcDbEntity
  8
2
  6
Continuous
 62
     7
370
    18
100
AcDbCircle
 10
96.04120425971632
 20
38.19374715262575
 30
0.0
 40
6.0
100
AcDbArc
 50
138.1896850000018
 51
41.81031499999821
  0
ENDBLK
  5
19C
330
19A
100
AcDbEntity
  8
0
100
AcDbBlockEnd
  0
BLOCK
  5
19E
330
19D
100
AcDbEntity
  8
0
100
AcDbBlockBegin
  2
*D80
 70
     1
 10
0.0
 20
0.0
 30
0.0
  3
*D80
  1
*D80
  0
LINE
  5
3F3
330
19D
100
AcDbEntity
  8
0
  6
Continuous
 62
     2
370
    13
100
AcDbLine
 10
-40.16211886739281
 20
-9.806252847374445
 30
0.0
 11
-40.16211886739281
 21
20.19374715262555
 31
0.0
  0
LINE
  5
3F4
330
19D
100
AcDbEntity
  8
0
  6
Continuous
 62
     2
370
    13
100
AcDbLine
 10
26.04120425971615
 20
-9.806252847374452
 30
0.0
 11
-42.66211886739281
 21
-9.806252847374445
 31
0.0
  0
LINE
  5
3F5
330
19D
100
AcDbEntity
  8
0
  6
Continuous
 62
     2
370
    13
100
AcDbLine
 10
36.54268125971612
 20
20.19374715262555
 30
0.0
 11
-42.66211886739281
 21
20.19374715262555
 31
0.0
  0
LINE
  5
3F6
330
19D
100
AcDbEntity
  8
0
  6
Continuous
 62
     2
370
    13
100
AcDbLine
 10
-40.16211886739281
 20
-37.01125284737446
 30
0.0
 11
-40.16211886739281
 21
-9.806252847374445
 31
0.0
  0
INSERT
  5
3F7
330
19D
100
AcDbEntity
  8
0
 62
     2
100
AcDbBlockReference
  2
_OPEN30
 10
-40.16211886739281
 20
-9.806252847374445
 30
0.0
 41
15.00001403807643
 42
14.99994684111822
 50
90.0
  0
LINE
  5
3F8
330
19D
100
AcDbEntity
  8
0
  6
Continuous
 62
     2
370
    13
100
AcDbLine
 10
-40.16211886739281
 20
37.69374715262555
 30
0.0
 11
-40.16211886739281
 21
20.19374715262555
 31
0.0
  0
INSERT
  5
3F9
330
19D
100
AcDbEntity
  8
0
 62
     2
100
AcDbBlockReference
  2
_OPEN30
 10
-40.16211886739281
 20
20.19374715262555
 30
0.0
 41
15.00001403807643
 42
14.99994684111822
 50
270.0
  0
MTEXT
  5
3FA
330
19D
100
AcDbEntity
  8
0
 62
     2
100
AcDbMText
 10
-45.16211886739281
 20
-17.01125284737445
 30
0.0
 40
20.0
 41
50.00000000000001
 46
0.0
 71
     9
 72
     1
  1
\T1.00;30
  7
dcStyle0
 11
6.123233995736766E-17
 21
1.0
 31
0.0
 73
     1
 44
1.0
  0
ENDBLK
  5
19F
330
19D
100
AcDbEntity
  8
0
100
AcDbBlockEnd
  0
BLOCK
  5
1A1
330
1A0
100
AcDbEntity
  8
0
100
AcDbBlockBegin
  2
DC_GROUP_W_MR-3812_S_040_51
 70
     0
 10
0.0
 20
0.0
 30
0.0
  3
DC_GROUP_W_MR-3812_S_040_51
  1
DC_GROUP_W_MR-3812_S_040_51
  0
LINE
  5
3FB
330
1A0
100
AcDbEntity
  8
0
  6
Continuous
 62
     2
370
    13
100
AcDbLine
 10
-348.9587957402838
 20
-9.806252847374452
 30
0.0
 11
-472.391193855203
 21
-147.8062528473745
 31
0.0
  0
INSERT
  5
3FC
330
1A0
100
AcDbEntity
  8
0
 62
     2
100
AcDbBlockReference
  2
_OPEN30
 10
-348.9587957402838
 20
-9.806252847374452
 30
0.0
 41
15.00001403807643
 42
14.99994684111822
 50
48.1893516286211
  0
LINE
  5
3FD
330
1A0
100
AcDbEntity
  8
0
  6
Continuous
 62
     2
370
    13
100
AcDbLine
 10
-228.9587957402838
 20
-9.806252847374452
 30
0.0
 11
-472.391193855203
 21
-147.8062528473745
 31
0.0
  0
INSERT
  5
3FE
330
1A0
100
AcDbEntity
  8
0
 62
     2
100
AcDbBlockReference
  2
_OPEN30
 10
-228.9587957402838
 20
-9.806252847374452
 30
0.0
 41
15.00001403807643
 42
14.99994684111822
 50
29.54857543082324
  0
LINE
  5
3FF
330
1A0
100
AcDbEntity
  8
0
  6
Continuous
 62
     2
370
    13
100
AcDbLine
 10
-472.391193855203
 20
-147.8062528473745
 30
0.0
 11
-712.391193855203
 21
-147.8062528473745
 31
0.0
  0
LINE
  5
400
330
1A0
100
AcDbEntity
  8
0
  6
Continuous
 62
     2
370
    13
100
AcDbLine
 10
-492.391193855203
 20
-179.8062528473745
 30
0.0
 11
-712.391193855203
 21
-179.8062528473745
 31
0.0
  0
TEXT
  5
401
330
1A0
100
AcDbEntity
  8
0
 62
     2
100
AcDbText
 10
-712.391193855203
 20
-141.8062528473745
 30
0.0
 40
20.0
  1
呼び機長100 cmと150 cmの
 41
0.6991377301328362
  7
dcStyle0
 72
     5
 11
-472.391193855203
 21
-141.8062528473745
 31
0.0
100
AcDbText
  0
TEXT
  5
402
330
1A0
100
AcDbEntity
  8
0
 62
     2
100
AcDbText
 10
-712.391193855203
 20
-173.8062528473745
 30
0.0
 40
20.0
  1
中央に脚穴はありません
 41
0.7218321412166152
  7
dcStyle0
 72
     5
 11
-492.391193855203
 21
-173.8062528473745
 31
0.0
100
AcDbText
  0
ENDBLK
  5
1A2
330
1A0
100
AcDbEntity
  8
0
100
AcDbBlockEnd
  0
BLOCK
  5
1A4
330
1A3
100
AcDbEntity
  8
0
100
AcDbBlockBegin
  2
DC_GROUP_W_MR-3812_S_040_52
 70
     0
 10
0.0
 20
0.0
 30
0.0
  3
DC_GROUP_W_MR-3812_S_040_52
  1
DC_GROUP_W_MR-3812_S_040_52
  0
LINE
  5
403
330
1A3
100
AcDbEntity
  8
0
  6
Continuous
 62
     2
370
    13
100
AcDbLine
 10
612.5376319191868
 20
-10.039348214721
 30
0.0
 11
573.5796355496856
 21
-57.80625284737445
 31
0.0
  0
INSERT
  5
404
330
1A3
100
AcDbEntity
  8
0
 62
     2
100
AcDbBlockReference
  2
_OPEN30
 10
612.5376319191868
 20
-10.039348214721
 30
0.0
 41
15.00001403807643
 42
14.99994684111822
 50
50.79981302244646
  0
LINE
  5
405
330
1A3
100
AcDbEntity
  8
0
  6
Continuous
 62
     2
370
    13
100
AcDbLine
 10
573.5796355496856
 20
-57.80625284737445
 30
0.0
 11
493.5796355496856
 21
-57.80625284737445
 31
0.0
  0
TEXT
  5
406
330
1A3
100
AcDbEntity
  8
0
 62
     2
100
AcDbText
 10
493.5796355496856
 20
-51.80625284737445
 30
0.0
 40
20.0
  1
10×14長穴
 41
0.5502063273727648
  7
dcStyle0
 72
     5
 11
573.5796355496856
 21
-51.80625284737445
 31
0.0
100
AcDbText
  0
ENDBLK
  5
1A5
330
1A3
100
AcDbEntity
  8
0
100
AcDbBlockEnd
  0
BLOCK
  5
1A8
330
1A7
100
AcDbEntity
  8
0
100
AcDbBlockBegin
  2
_OPEN30
 70
     0
 10
0.0
 20
0.0
 30
0.0
  3
_OPEN30
  1
_OPEN30
  0
LINE
  5
1AA
330
1A7
100
AcDbEntity
  8
0
  6
ByBlock
 62
     0
370
    -2
100
AcDbLine
 10
-1.0
 20
0.267949
 30
0.0
 11
0.0
 21
0.0
 31
0.0
  0
LINE
  5
1AB
330
1A7
100
AcDbEntity
  8
0
  6
ByBlock
 62
     0
370
    -2
100
AcDbLine
 10
0.0
 20
0.0
 30
0.0
 11
-1.0
 21
-0.267949
 31
0.0
  0
LINE
  5
1AC
330
1A7
100
AcDbEntity
  8
0
  6
ByBlock
 62
     0
370
    -2
100
AcDbLine
 10
0.0
 20
0.0
 30
0.0
 11
-1.0
 21
0.0
 31
0.0
  0
ENDBLK
  5
1A9
330
1A7
100
AcDbEntity
  8
0
100
AcDbBlockEnd
  0
ENDSEC
  0
SECTION
  2
ENTITIES
  0
DIMENSION
  5
407
330
1F
100
AcDbEntity
  8
0
  6
Continuous
370
    13
100
AcDbDimension
280
     0
  2
*D1
 10
208.0412042597162
 20
163.7437471526257
 30
0.0
 11
-288.9587957402838
 21
163.7437471526257
 31
0.0
 70
   160
  1
機長
 71
     8
 42
-1.0
 73
     0
 74
     0
 75
     0
  3
dc_Rotated
100
AcDbAlignedDimension
 13
-785.9587957402838
 23
50.19374715262555
 33
0.0
 14
208.0412042597162
 24
50.19374715262555
 34
0.0
100
AcDbRotatedDimension
1001
ACAD
1000
DSTYLE
1002
{
1070
   144
1040
1.0
1070
   274
1070
     4
1070
    41
1040
15.00000953674316
1070
    79
1070
     2
1070
   343
1005
1A7
1070
   344
1005
1A7
1070
   176
1070
     2
1070
   177
1070
     2
1070
   178
1070
     2
1070
   271
1070
     2
1070
    44
1040
2.5
1070
    42
1040
5.0
1070
   147
1040
5.0
1070
   173
1070
     1
1070
    77
1070
     3
1070
    73
1070
     0
1070
   172
1070
     1
1070
    74
1070
     0
1070
   283
1070
     0
1070
   340
1005
1B1
1070
   140
1040
20.0
1070
   284
1070
     8
1070
   288
1070
     1
1070
    78
1070
     8
1070
    90
1070
     1
1002
}
  0
DIMENSION
  5
409
330
1F
100
AcDbEntity
  8
0
  6
Continuous
370
    13
100
AcDbDimension
280
     0
  2
*D2
 10
-728.9587957402838
 20
-97.80625284737445
 30
0.0
 11
-757.4587957402838
 21
-97.80625284737445
 31
0.0
 70
   160
  1
D
 71
     8
 42
-1.0
 73
     0
 74
     0
 75
     0
  3
dc_Rotated
100
AcDbAlignedDimension
 13
-785.9587957402838
 23
-9.806252847374452
 33
0.0
 14
-728.9587957402838
 24
-19.80625284737445
 34
0.0
100
AcDbRotatedDimension
1001
ACAD
1000
DSTYLE
1002
{
1070
   144
1040
1.0
1070
   274
1070
     4
1070
    41
1040
15.00000953674316
1070
    79
1070
     2
1070
   343
1005
1A7
1070
   344
1005
1A7
1070
   176
1070
     2
1070
   177
1070
     2
1070
   178
1070
     2
1070
   271
1070
     2
1070
    44
1040
2.5
1070
    42
1040
5.0
1070
   147
1040
5.0
1070
   173
1070
     1
1070
    77
1070
     3
1070
    73
1070
     0
1070
   172
1070
     1
1070
    74
1070
     0
1070
   283
1070
     0
1070
   340
1005
1B1
1070
   140
1040
20.0
1070
   284
1070
     8
1070
   288
1070
     1
1070
    78
1070
     8
1070
    90
1070
     1
1002
}
  0
DIMENSION
  5
40A
330
1F
100
AcDbEntity
  8
0
  6
Continuous
370
    13
100
AcDbDimension
280
     0
  2
*D3
 10
-608.9587957402838
 20
-97.80625284737445
 30
0.0
 11
-668.9587957402838
 21
-97.80625284737445
 31
0.0
 70
   160
 71
     8
 42
-1.0
 73
     0
 74
     0
 75
     0
  3
dc_Rotated
100
AcDbAlignedDimension
 13
-728.9587957402838
 23
-19.80625284737445
 33
0.0
 14
-608.9587957402838
 24
-97.80625284737445
 34
0.0
100
AcDbRotatedDimension
1001
ACAD
1000
DSTYLE
1002
{
1070
   144
1040
1.0
1070
   274
1070
     4
1070
    41
1040
15.00000953674316
1070
    79
1070
     2
1070
   343
1005
1A7
1070
   344
1005
1A7
1070
   176
1070
     2
1070
   177
1070
     2
1070
   178
1070
     2
1070
   271
1070
     2
1070
    44
1040
2.5
1070
    42
1040
5.0
1070
   147
1040
5.0
1070
   173
1070
     1
1070
    76
1070
     1
1070
    77
1070
     3
1070
    73
1070
     0
1070
   172
1070
     1
1070
    74
1070
     0
1070
   283
1070
     0
1070
   340
1005
1B1
1070
   140
1040
20.0
1070
   284
1070
     8
1070
   288
1070
     1
1070
    78
1070
     8
1070
    90
1070
     1
1002
}
  0
DIMENSION
  5
40B
330
1F
100
AcDbEntity
  8
0
  6
Continuous
370
    13
100
AcDbDimension
280
     0
  2
*D4
 10
151.0412042597162
 20
-97.80625284737445
 30
0.0
 11
86.8356740860919
 21
-97.80625284737445
 31
0.0
 70
   160
 71
     8
 42
-1.0
 73
     0
 74
     0
 75
     0
  3
dc_Rotated
100
AcDbAlignedDimension
 13
31.04120425971615
 23
-97.80625284737445
 33
0.0
 14
151.0412042597162
 24
-19.80625284737445
 34
0.0
100
AcDbRotatedDimension
1001
ACAD
1000
DSTYLE
1002
{
1070
   144
1040
1.0
1070
   274
1070
     4
1070
    41
1040
15.00000953674316
1070
    79
1070
     2
1070
   343
1005
1A7
1070
   344
1005
1A7
1070
   176
1070
     2
1070
   177
1070
     2
1070
   178
1070
     2
1070
   271
1070
     2
1070
    44
1040
2.5
1070
    42
1040
5.0
1070
   147
1040
5.0
1070
   173
1070
     1
1070
    75
1070
     1
1070
    77
1070
     3
1070
    73
1070
     0
1070
   172
1070
     1
1070
    74
1070
     0
1070
   283
1070
     0
1070
   340
1005
1B1
1070
   140
1040
20.0
1070
   284
1070
     8
1070
   288
1070
     1
1070
    78
1070
     8
1070
    90
1070
     1
1002
}
  0
DIMENSION
  5
40C
330
1F
100
AcDbEntity
  8
0
  6
Continuous
370
    13
100
AcDbDimension
280
     0
  2
*D5
 10
208.0412042597162
 20
-97.80625284737445
 30
0.0
 11
179.5412042597162
 21
-97.80625284737445
 31
0.0
 70
   160
  1
D
 71
     8
 42
-1.0
 73
     0
 74
     0
 75
     0
  3
dc_Rotated
100
AcDbAlignedDimension
 13
151.0412042597162
 23
-19.80625284737445
 33
0.0
 14
208.0412042597162
 24
-9.806252847374452
 34
0.0
100
AcDbRotatedDimension
1001
ACAD
1000
DSTYLE
1002
{
1070
   144
1040
1.0
1070
   274
1070
     4
1070
    41
1040
15.00000953674316
1070
    79
1070
     2
1070
   343
1005
1A7
1070
   344
1005
1A7
1070
   176
1070
     2
1070
   177
1070
     2
1070
   178
1070
     2
1070
   271
1070
     2
1070
    44
1040
2.5
1070
    42
1040
5.0
1070
   147
1040
5.0
1070
   173
1070
     1
1070
    77
1070
     3
1070
    73
1070
     0
1070
   172
1070
     1
1070
    74
1070
     0
1070
   283
1070
     0
1070
   340
1005
1B1
1070
   140
1040
20.0
1070
   284
1070
     8
1070
   288
1070
     1
1070
    78
1070
     8
1070
    90
1070
     1
1002
}
  0
DIMENSION
  5
40D
330
1F
100
AcDbEntity
  8
0
  6
Continuous
370
    13
100
AcDbDimension
280
     0
  2
*D6
 10
-750.9587957402837
 20
123.7437471526257
 30
0.0
 11
-798.1637957402838
 21
123.7437471526257
 31
0.0
 70
   160
  1
A
 71
     8
 42
-1.0
 73
     0
 74
     0
 75
     0
  3
dc_Rotated
100
AcDbAlignedDimension
 13
-785.9587957402838
 23
50.19374715262555
 33
0.0
 14
-750.9587957402837
 24
61.79374715262588
 34
0.0
100
AcDbRotatedDimension
1001
ACAD
1000
DSTYLE
1002
{
1070
   144
1040
1.0
1070
   274
1070
     4
1070
    41
1040
15.00000953674316
1070
    79
1070
     2
1070
   343
1005
1A7
1070
   344
1005
1A7
1070
   176
1070
     2
1070
   177
1070
     2
1070
   178
1070
     2
1070
   271
1070
     2
1070
    44
1040
2.5
1070
    42
1040
5.0
1070
   147
1040
5.0
1070
   173
1070
     1
1070
    77
1070
     3
1070
    73
1070
     0
1070
   172
1070
     1
1070
    74
1070
     0
1070
   283
1070
     0
1070
   340
1005
1B1
1070
   140
1040
20.0
1070
   284
1070
     8
1070
   288
1070
     1
1070
    78
1070
     8
1070
    90
1070
     1
1002
}
  0
DIMENSION
  5
40E
330
1F
100
AcDbEntity
  8
0
  6
Continuous
370
    13
100
AcDbDimension
280
     0
  2
*D7
 10
173.0412042597163
 20
123.7437471526257
 30
0.0
 11
-288.9587957402836
 21
123.7437471526257
 31
0.0
 70
   160
  1
N×P=B
 71
     8
 42
-1.0
 73
     0
 74
     0
 75
     0
  3
dc_Rotated
100
AcDbAlignedDimension
 13
-750.9587957402837
 23
61.79374715262588
 33
0.0
 14
173.0412042597163
 24
61.79374715262588
 34
0.0
100
AcDbRotatedDimension
1001
ACAD
1000
DSTYLE
1002
{
1070
   144
1040
1.0
1070
   274
1070
     4
1070
    41
1040
15.00000953674316
1070
    79
1070
     2
1070
   343
1005
1A7
1070
   344
1005
1A7
1070
   176
1070
     2
1070
   177
1070
     2
1070
   178
1070
     2
1070
   271
1070
     2
1070
    44
1040
2.5
1070
    42
1040
5.0
1070
   147
1040
5.0
1070
   173
1070
     1
1070
    77
1070
     3
1070
    73
1070
     0
1070
   172
1070
     1
1070
    74
1070
     0
1070
   283
1070
     0
1070
   340
1005
1B1
1070
   140
1040
20.0
1070
   284
1070
     8
1070
   288
1070
     1
1070
    78
1070
     8
1070
    90
1070
     1
1002
}
  0
DIMENSION
  5
40F
330
1F
100
AcDbEntity
  8
0
  6
Continuous
370
    13
100
AcDbDimension
280
     0
  2
*D8
 10
208.0412042597162
 20
123.7437471526257
 30
0.0
 11
220.2462042597162
 21
123.7437471526257
 31
0.0
 70
   160
  1
C
 71
     8
 42
-1.0
 73
     0
 74
     0
 75
     0
  3
dc_Rotated
100
AcDbAlignedDimension
 13
173.0412042597163
 23
61.79374715262588
 33
0.0
 14
208.0412042597162
 24
50.19374715262555
 34
0.0
100
AcDbRotatedDimension
1001
ACAD
1000
DSTYLE
1002
{
1070
   144
1040
1.0
1070
   274
1070
     4
1070
    41
1040
15.00000953674316
1070
    79
1070
     2
1070
   343
1005
1A7
1070
   344
1005
1A7
1070
   176
1070
     2
1070
   177
1070
     2
1070
   178
1070
     2
1070
   271
1070
     2
1070
    44
1040
2.5
1070
    42
1040
5.0
1070
   147
1040
5.0
1070
   173
1070
     1
1070
    77
1070
     3
1070
    73
1070
     0
1070
   172
1070
     1
1070
    74
1070
     0
1070
   283
1070
     0
1070
   340
1005
1B1
1070
   140
1040
20.0
1070
   284
1070
     8
1070
   288
1070
     1
1070
    78
1070
     8
1070
    90
1070
     1
1002
}
  0
DIMENSION
  5
410
330
1F
100
AcDbEntity
  8
0
  6
Continuous
370
    13
100
AcDbDimension
280
     0
  2
*D11
 10
256.0412042597162
 20
464.3251688631323
 30
0.0
 11
256.0412042597162
 21
376.8251688631323
 31
0.0
 70
   160
  1
機 幅 (<>)
 71
     8
 42
-1.0
 73
     0
 74
     0
 75
     0
  3
dc_Rotated
100
AcDbAlignedDimension
 13
198.0412042597162
 23
289.3251688631323
 33
0.0
 14
198.0412042597162
 24
464.3251688631323
 34
0.0
 50
90.0
100
AcDbRotatedDimension
1001
ACAD
1000
DSTYLE
1002
{
1070
   144
1040
1.0
1070
   274
1070
     4
1070
    41
1040
15.00000953674316
1070
    79
1070
     2
1070
   343
1005
1A7
1070
   344
1005
1A7
1070
   176
1070
     2
1070
   177
1070
     2
1070
   178
1070
     2
1070
   271
1070
     2
1070
    44
1040
2.5
1070
    42
1040
5.0
1070
   147
1040
5.0
1070
   173
1070
     1
1070
    77
1070
     3
1070
    73
1070
     0
1070
   172
1070
     1
1070
    74
1070
     0
1070
   283
1070
     0
1070
   340
1005
1B1
1070
   140
1040
20.0
1070
   284
1070
     8
1070
   288
1070
     1
1070
    78
1070
     8
1070
    90
1070
     1
1002
}
  0
DIMENSION
  5
411
330
1F
100
AcDbEntity
  8
0
  6
Continuous
370
    13
100
AcDbDimension
280
     0
  2
*D12
 10
-348.9587957402838
 20
-97.80625284737445
 30
0.0
 11
-478.9587957402838
 21
-97.80625284737445
 31
0.0
 70
   160
  1
E
 71
     8
 42
-1.0
 73
     0
 74
     0
 75
     0
  3
dc_Rotated
100
AcDbAlignedDimension
 13
-608.9587957402838
 23
-19.80625284737445
 33
0.0
 14
-348.9587957402838
 24
-19.80625284737445
 34
0.0
100
AcDbRotatedDimension
1001
ACAD
1000
DSTYLE
1002
{
1070
   144
1040
1.0
1070
   274
1070
     4
1070
    41
1040
15.00000953674316
1070
    79
1070
     2
1070
   343
1005
1A7
1070
   344
1005
1A7
1070
   176
1070
     2
1070
   177
1070
     2
1070
   178
1070
     2
1070
   271
1070
     2
1070
    44
1040
2.5
1070
    42
1040
5.0
1070
   147
1040
5.0
1070
   173
1070
     1
1070
    77
1070
     3
1070
    73
1070
     0
1070
   172
1070
     1
1070
    74
1070
     0
1070
   283
1070
     0
1070
   340
1005
1B1
1070
   140
1040
20.0
1070
   284
1070
     8
1070
   288
1070
     1
1070
    78
1070
     8
1070
    90
1070
     1
1002
}
  0
DIMENSION
  5
412
330
1F
100
AcDbEntity
  8
0
  6
Continuous
370
    13
100
AcDbDimension
280
     0
  2
*D13
 10
-228.9587957402838
 20
-97.80625284737445
 30
0.0
 11
-288.9587957402838
 21
-97.80625284737445
 31
0.0
 70
   160
 71
     8
 42
-1.0
 73
     0
 74
     0
 75
     0
  3
dc_Rotated
100
AcDbAlignedDimension
 13
-348.9587957402838
 23
-19.80625284737445
 33
0.0
 14
-228.9587957402838
 24
-19.80625284737445
 34
0.0
100
AcDbRotatedDimension
1001
ACAD
1000
DSTYLE
1002
{
1070
   144
1040
1.0
1070
   274
1070
     4
1070
    41
1040
15.00000953674316
1070
    79
1070
     2
1070
   343
1005
1A7
1070
   344
1005
1A7
1070
   176
1070
     2
1070
   177
1070
     2
1070
   178
1070
     2
1070
   271
1070
     2
1070
    44
1040
2.5
1070
    42
1040
5.0
1070
   147
1040
5.0
1070
   173
1070
     1
1070
    77
1070
     3
1070
    73
1070
     0
1070
   172
1070
     1
1070
    74
1070
     0
1070
   283
1070
     0
1070
   340
1005
1B1
1070
   140
1040
20.0
1070
   284
1070
     8
1070
   288
1070
     1
1070
    78
1070
     8
1070
    90
1070
     1
1002
}
  0
DIMENSION
  5
413
330
1F
100
AcDbEntity
  8
0
  6
Continuous
370
    13
100
AcDbDimension
280
     0
  2
*D14
 10
31.04120425971615
 20
-97.80625284737445
 30
0.0
 11
-98.95879574028382
 21
-97.80625284737445
 31
0.0
 70
   160
  1
E
 71
     8
 42
-1.0
 73
     0
 74
     0
 75
     0
  3
dc_Rotated
100
AcDbAlignedDimension
 13
-228.9587957402838
 23
-19.80625284737445
 33
0.0
 14
31.04120425971615
 24
-19.80625284737445
 34
0.0
100
AcDbRotatedDimension
1001
ACAD
1000
DSTYLE
1002
{
1070
   144
1040
1.0
1070
   274
1070
     4
1070
    41
1040
15.00000953674316
1070
    79
1070
     2
1070
   343
1005
1A7
1070
   344
1005
1A7
1070
   176
1070
     2
1070
   177
1070
     2
1070
   178
1070
     2
1070
   271
1070
     2
1070
    44
1040
2.5
1070
    42
1040
5.0
1070
   147
1040
5.0
1070
   173
1070
     1
1070
    77
1070
     3
1070
    73
1070
     0
1070
   172
1070
     1
1070
    74
1070
     0
1070
   283
1070
     0
1070
   340
1005
1B1
1070
   140
1040
20.0
1070
   284
1070
     8
1070
   288
1070
     1
1070
    78
1070
     8
1070
    90
1070
     1
1002
}
  0
INSERT
  5
414
330
1F
100
AcDbEntity
  8
0
  6
Continuous
100
AcDbBlockReference
  2
DC_IMAGEDIMGROUP_1
 10
0.0
 20
0.0
 30
0.0
  0
DIMENSION
  5
415
330
1F
100
AcDbEntity
  8
0
  6
Continuous
370
    13
100
AcDbDimension
280
     0
  2
*D16
 10
192.7751770877554
 20
8.979650811200836
 30
0.0
 11
272.7264736637041
 21
-57.80625284737445
 31
0.0
 70
   163
  1
4-φ10
 71
     8
 42
-1.0
 73
     0
 74
     0
 75
     0
  3
dc_Diam06
100
AcDbDiametricDimension
 15
198.7196397692387
 25
0.9716643465535153
 35
0.0
 40
0.0
1001
ACAD
1000
DSTYLE
1002
{
1070
   144
1040
1.0
1070
   274
1070
     4
1070
    41
1040
15.00000953674316
1070
    79
1070
     2
1070
   343
1005
1A7
1070
   344
1005
1A7
1070
   176
1070
     2
1070
   177
1070
     2
1070
   178
1070
     2
1070
   271
1070
     2
1070
    44
1040
5.0
1070
    42
1040
5.0
1070
   147
1040
5.0
1070
   173
1070
     1
1070
    77
1070
     2
1070
   283
1070
     0
1070
   340
1005
1B1
1070
   140
1040
20.0
1070
   284
1070
     8
1070
   288
1070
     1
1070
    78
1070
     8
1070
    90
1070
     1
1002
}
  0
INSERT
  5
417
330
1F
100
AcDbEntity
  8
0
  6
Continuous
100
AcDbBlockReference
  2
DC_IMAGEDIMGROUP_2
 10
0.0
 20
0.0
 30
0.0
  0
DIMENSION
  5
418
330
1F
100
AcDbEntity
  8
0
  6
Continuous
370
    13
100
AcDbDimension
280
     0
  2
*D18
 10
532.0376309191869
 20
50.19374715262554
 30
0.0
 11
532.0376309191869
 21
20.19374715262554
 31
0.0
 70
   160
 71
     8
 42
-1.0
 73
     0
 74
     0
 75
     0
  3
dc_Rotated
100
AcDbAlignedDimension
 13
600.0376309191869
 23
-9.806252847374452
 33
0.0
 14
600.0376309191869
 24
50.19374715262555
 34
0.0
 50
90.0
100
AcDbRotatedDimension
1001
ACAD
1000
DSTYLE
1002
{
1070
   144
1040
1.0
1070
   274
1070
     4
1070
    41
1040
15.00000953674316
1070
    79
1070
     2
1070
   343
1005
1A7
1070
   344
1005
1A7
1070
   176
1070
     2
1070
   177
1070
     2
1070
   178
1070
     2
1070
   271
1070
     2
1070
    44
1040
2.5
1070
    42
1040
5.0
1070
   147
1040
5.0
1070
   173
1070
     1
1070
    77
1070
     3
1070
    73
1070
     0
1070
   172
1070
     1
1070
    74
1070
     0
1070
   283
1070
     0
1070
   340
1005
1B1
1070
   140
1040
20.0
1070
   284
1070
     8
1070
   288
1070
     1
1070
    78
1070
     8
1070
    90
1070
     1
1002
}
  0
DIMENSION
  5
419
330
1F
100
AcDbEntity
  8
0
  6
Continuous
370
    13
100
AcDbDimension
280
     0
  2
*D19
 10
775.0376309191869
 20
223.7437471526257
 30
0.0
 11
687.5376309191869
 21
223.7437471526257
 31
0.0
 70
   160
  1
機　幅
 71
     8
 42
-1.0
 73
     0
 74
     0
 75
     0
  3
dc_Rotated
100
AcDbAlignedDimension
 13
600.0376309191869
 23
50.19374715262555
 33
0.0
 14
775.0376309191869
 24
50.19374715262555
 34
0.0
100
AcDbRotatedDimension
1001
ACAD
1000
DSTYLE
1002
{
1070
   144
1040
1.0
1070
   274
1070
     4
1070
    41
1040
15.00000953674316
1070
    79
1070
     2
1070
   343
1005
1A7
1070
   344
1005
1A7
1070
   176
1070
     2
1070
   177
1070
     2
1070
   178
1070
     2
1070
   271
1070
     2
1070
    44
1040
2.5
1070
    42
1040
5.0
1070
   147
1040
5.0
1070
   173
1070
     1
1070
    77
1070
     3
1070
    73
1070
     0
1070
   172
1070
     1
1070
    74
1070
     0
1070
   283
1070
     0
1070
   340
1005
1B1
1070
   140
1040
20.0
1070
   284
1070
     8
1070
   288
1070
     1
1070
    78
1070
     8
1070
    90
1070
     1
1002
}
  0
DIMENSION
  5
41A
330
1F
100
AcDbEntity
  8
0
  6
Continuous
370
    13
100
AcDbDimension
280
     0
  2
*D20
 10
745.0376309191871
 20
173.7437471526257
 30
0.0
 11
687.5376309191869
 21
173.7437471526257
 31
0.0
 70
   160
  1
呼び幅+15
 71
     8
 42
-1.0
 73
     0
 74
     0
 75
     0
  3
dc_Rotated
100
AcDbAlignedDimension
 13
630.0376309191867
 23
45.89374715262537
 33
0.0
 14
745.0376309191871
 24
45.89374715262537
 34
0.0
100
AcDbRotatedDimension
1001
ACAD
1000
DSTYLE
1002
{
1070
   144
1040
1.0
1070
   274
1070
     4
1070
    41
1040
15.00000953674316
1070
    79
1070
     2
1070
   343
1005
1A7
1070
   344
1005
1A7
1070
   176
1070
     2
1070
   177
1070
     2
1070
   178
1070
     2
1070
   271
1070
     2
1070
    44
1040
2.5
1070
    42
1040
5.0
1070
   147
1040
5.0
1070
   173
1070
     1
1070
    77
1070
     3
1070
    73
1070
     0
1070
   172
1070
     1
1070
    74
1070
     0
1070
   283
1070
     0
1070
   340
1005
1B1
1070
   140
1040
20.0
1070
   284
1070
     8
1070
   288
1070
     1
1070
    78
1070
     8
1070
    90
1070
     1
1002
}
  0
DIMENSION
  5
41B
330
1F
100
AcDbEntity
  8
0
  6
Continuous
370
    13
100
AcDbDimension
280
     0
  2
*D21
 10
612.5376319191868
 20
-97.80625284737445
 30
0.0
 11
572.8326309191868
 21
-97.80625284737445
 31
0.0
 70
   160
 71
     8
 42
-1.0
 73
     0
 74
     0
 75
     0
  3
dc_Rotated
100
AcDbAlignedDimension
 13
600.0376309191869
 23
-9.806252847374452
 33
0.0
 14
612.5376319191868
 24
-19.70040884737475
 34
0.0
100
AcDbRotatedDimension
1001
ACAD
1000
DSTYLE
1002
{
1070
   144
1040
1.0
1070
   274
1070
     4
1070
    41
1040
15.00000953674316
1070
    79
1070
     2
1070
   343
1005
1A7
1070
   344
1005
1A7
1070
   176
1070
     2
1070
   177
1070
     2
1070
   178
1070
     2
1070
   271
1070
     2
1070
    44
1040
2.5
1070
    42
1040
5.0
1070
   147
1040
5.0
1070
   173
1070
     1
1070
    77
1070
     3
1070
    73
1070
     0
1070
   172
1070
     1
1070
    74
1070
     0
1070
   283
1070
     0
1070
   340
1005
1B1
1070
   140
1040
20.0
1070
   284
1070
     8
1070
   288
1070
     1
1070
    78
1070
     8
1070
    90
1070
     1
1002
}
  0
DIMENSION
  5
41C
330
1F
100
AcDbEntity
  8
0
  6
Continuous
370
    13
100
AcDbDimension
280
     0
  2
*D22
 10
762.5376319191868
 20
-97.80625284737445
 30
0.0
 11
687.5376319191868
 21
-97.80625284737445
 31
0.0
 70
   160
  1
呼び幅+50
 71
     8
 42
-1.0
 73
     0
 74
     0
 75
     0
  3
dc_Rotated
100
AcDbAlignedDimension
 13
612.5376319191868
 23
-19.70040884737475
 33
0.0
 14
762.5376319191868
 24
-19.80625284737445
 34
0.0
100
AcDbRotatedDimension
1001
ACAD
1000
DSTYLE
1002
{
1070
   144
1040
1.0
1070
   274
1070
     4
1070
    41
1040
15.00000953674316
1070
    79
1070
     2
1070
   343
1005
1A7
1070
   344
1005
1A7
1070
   176
1070
     2
1070
   177
1070
     2
1070
   178
1070
     2
1070
   271
1070
     2
1070
    44
1040
2.5
1070
    42
1040
5.0
1070
   147
1040
5.0
1070
   173
1070
     1
1070
    77
1070
     3
1070
    73
1070
     0
1070
   172
1070
     1
1070
    74
1070
     0
1070
   283
1070
     0
1070
   340
1005
1B1
1070
   140
1040
20.0
1070
   284
1070
     8
1070
   288
1070
     1
1070
    78
1070
     8
1070
    90
1070
     1
1002
}
  0
DIMENSION
  5
41D
330
1F
100
AcDbEntity
  8
0
  6
Continuous
370
    13
100
AcDbDimension
280
     0
  2
*D23
 10
775.0376309191869
 20
-97.80625284737445
 30
0.0
 11
802.2426309191869
 21
-97.80625284737445
 31
0.0
 70
   160
 71
     8
 42
-1.0
 73
     0
 74
     0
 75
     0
  3
dc_Rotated
100
AcDbAlignedDimension
 13
762.5376319191868
 23
-19.80625284737445
 33
0.0
 14
775.0376309191869
 24
-9.806252847374452
 34
0.0
100
AcDbRotatedDimension
1001
ACAD
1000
DSTYLE
1002
{
1070
   144
1040
1.0
1070
   274
1070
     4
1070
    41
1040
15.00000953674316
1070
    79
1070
     2
1070
   343
1005
1A7
1070
   344
1005
1A7
1070
   176
1070
     2
1070
   177
1070
     2
1070
   178
1070
     2
1070
   271
1070
     2
1070
    44
1040
2.5
1070
    42
1040
5.0
1070
   147
1040
5.0
1070
   173
1070
     1
1070
    77
1070
     3
1070
    73
1070
     0
1070
   172
1070
     1
1070
    74
1070
     0
1070
   283
1070
     0
1070
   340
1005
1B1
1070
   140
1040
20.0
1070
   284
1070
     8
1070
   288
1070
     1
1070
    78
1070
     8
1070
    90
1070
     1
1002
}
  0
DIMENSION
  5
41E
330
1F
100
AcDbEntity
  8
0
  6
Continuous
370
    13
100
AcDbDimension
280
     0
  2
*D24
 10
630.0376309191867
 20
173.7437471526257
 30
0.0
 11
615.0376309191868
 21
173.7437471526257
 31
0.0
 70
   160
 71
     8
 42
-1.0
 73
     0
 74
     0
 75
     0
  3
dc_Rotated
100
AcDbAlignedDimension
 13
600.0376309191869
 23
50.19374715262555
 33
0.0
 14
630.0376309191867
 24
45.89374715262537
 34
0.0
100
AcDbRotatedDimension
1001
ACAD
1000
DSTYLE
1002
{
1070
   144
1040
1.0
1070
   274
1070
     4
1070
    41
1040
15.00000953674316
1070
    79
1070
     2
1070
   343
1005
1A7
1070
   344
1005
1A7
1070
   176
1070
     2
1070
   177
1070
     2
1070
   178
1070
     2
1070
   271
1070
     2
1070
    44
1040
2.5
1070
    42
1040
5.0
1070
   147
1040
5.0
1070
   173
1070
     1
1070
    77
1070
     3
1070
    73
1070
     0
1070
   172
1070
     1
1070
    74
1070
     0
1070
   283
1070
     0
1070
   340
1005
1B1
1070
   140
1040
20.0
1070
   284
1070
     8
1070
   288
1070
     1
1070
    78
1070
     8
1070
    90
1070
     1
1002
}
  0
DIMENSION
  5
41F
330
1F
100
AcDbEntity
  8
0
  6
Continuous
370
    13
100
AcDbDimension
280
     0
  2
*D25
 10
775.0376309191869
 20
173.7437471526257
 30
0.0
 11
760.037630919187
 21
173.7437471526257
 31
0.0
 70
   160
 71
     8
 42
-1.0
 73
     0
 74
     0
 75
     0
  3
dc_Rotated
100
AcDbAlignedDimension
 13
745.0376309191871
 23
45.89374715262537
 33
0.0
 14
775.0376309191869
 24
50.19374715262555
 34
0.0
100
AcDbRotatedDimension
1001
ACAD
1000
DSTYLE
1002
{
1070
   144
1040
1.0
1070
   274
1070
     4
1070
    41
1040
15.00000953674316
1070
    79
1070
     2
1070
   343
1005
1A7
1070
   344
1005
1A7
1070
   176
1070
     2
1070
   177
1070
     2
1070
   178
1070
     2
1070
   271
1070
     2
1070
    44
1040
2.5
1070
    42
1040
5.0
1070
   147
1040
5.0
1070
   173
1070
     1
1070
    77
1070
     3
1070
    73
1070
     0
1070
   172
1070
     1
1070
    74
1070
     0
1070
   283
1070
     0
1070
   340
1005
1B1
1070
   140
1040
20.0
1070
   284
1070
     8
1070
   288
1070
     1
1070
    78
1070
     8
1070
    90
1070
     1
1002
}
  0
INSERT
  5
420
330
1F
100
AcDbEntity
  8
0
  6
Continuous
100
AcDbBlockReference
  2
DC_GROUP_W_MR-3812_S_040_3
 10
0.0
 20
0.0
 30
0.0
  0
DIMENSION
  5
421
330
1F
100
AcDbEntity
  8
0
  6
Continuous
370
    13
100
AcDbDimension
280
     0
  2
*D28
 10
572.0376309191869
 20
38.19374715262575
 30
0.0
 11
572.0376309191869
 21
14.19374715262565
 31
0.0
 70
   160
 71
     8
 42
-1.0
 73
     0
 74
     0
 75
     0
  3
dc_Rotated
100
AcDbAlignedDimension
 13
600.0376309191869
 23
-9.806252847374452
 33
0.0
 14
611.6086113738585
 24
38.19374715262575
 34
0.0
 50
90.0
100
AcDbRotatedDimension
1001
ACAD
1000
DSTYLE
1002
{
1070
   144
1040
1.0
1070
   274
1070
     4
1070
    41
1040
15.00000953674316
1070
    79
1070
     2
1070
   343
1005
1A7
1070
   344
1005
1A7
1070
   176
1070
     2
1070
   177
1070
     2
1070
   178
1070
     2
1070
   271
1070
     2
1070
    44
1040
2.5
1070
    42
1040
5.0
1070
   147
1040
5.0
1070
   173
1070
     1
1070
    77
1070
     3
1070
    73
1070
     0
1070
   172
1070
     1
1070
    74
1070
     0
1070
   283
1070
     0
1070
   340
1005
1B1
1070
   140
1040
20.0
1070
   284
1070
     8
1070
   288
1070
     1
1070
    78
1070
     8
1070
    90
1070
     1
1002
}
  0
DIMENSION
  5
422
330
1F
100
AcDbEntity
  8
0
  6
Continuous
370
    13
100
AcDbDimension
280
     0
  2
*D29
 10
492.0376309191869
 20
57.24374715262593
 30
0.0
 11
492.0376309191869
 21
23.71874715262574
 31
0.0
 70
   160
 71
     8
 42
-1.0
 73
     0
 74
     0
 75
     0
  3
dc_Rotated
100
AcDbAlignedDimension
 13
600.0376309191869
 23
-9.806252847374452
 33
0.0
 14
638.9376309191871
 24
57.24374715262593
 34
0.0
 50
90.0
100
AcDbRotatedDimension
1001
ACAD
1000
DSTYLE
1002
{
1070
   144
1040
1.0
1070
   274
1070
     4
1070
    41
1040
15.00000953674316
1070
    79
1070
     2
1070
   343
1005
1A7
1070
   344
1005
1A7
1070
   176
1070
     2
1070
   177
1070
     2
1070
   178
1070
     2
1070
   271
1070
     0
1070
    44
1040
2.5
1070
    42
1040
5.0
1070
   147
1040
5.0
1070
   173
1070
     1
1070
    77
1070
     3
1070
    73
1070
     0
1070
   172
1070
     1
1070
    74
1070
     0
1070
   283
1070
     0
1070
   340
1005
1B1
1070
   140
1040
20.0
1070
   284
1070
     8
1070
   288
1070
     1
1070
    78
1070
     8
1070
    90
1070
     1
1002
}
  0
INSERT
  5
423
330
1F
100
AcDbEntity
  8
0
  6
Continuous
100
AcDbBlockReference
  2
DC_IMAGEDIMGROUP_3
 10
0.0
 20
0.0
 30
0.0
  0
DIMENSION
  5
424
330
1F
100
AcDbEntity
  8
0
  6
Continuous
370
    13
100
AcDbDimension
280
     0
  2
*D31
 10
739.037630919187
 20
123.7437471526257
 30
0.0
 11
687.537630919187
 21
123.7437471526257
 31
0.0
 70
   160
  1
ローラ幅
 71
     8
 42
-1.0
 73
     0
 74
     0
 75
     0
  3
dc_Rotated
100
AcDbAlignedDimension
 13
636.037630919187
 23
54.34374715262538
 33
0.0
 14
739.037630919187
 24
54.34374715262538
 34
0.0
100
AcDbRotatedDimension
1001
ACAD
1000
DSTYLE
1002
{
1070
   144
1040
1.0
1070
   274
1070
     4
1070
    41
1040
15.00000953674316
1070
    79
1070
     2
1070
   343
1005
1A7
1070
   344
1005
1A7
1070
   176
1070
     2
1070
   177
1070
     2
1070
   178
1070
     2
1070
   271
1070
     2
1070
    44
1040
2.5
1070
    42
1040
5.0
1070
   147
1040
5.0
1070
   173
1070
     1
1070
    77
1070
     3
1070
    73
1070
     0
1070
   172
1070
     1
1070
    74
1070
     0
1070
   283
1070
     0
1070
   340
1005
1B1
1070
   140
1040
20.0
1070
   284
1070
     8
1070
   288
1070
     1
1070
    78
1070
     8
1070
    90
1070
     1
1002
}
  0
INSERT
  5
425
330
1F
100
AcDbEntity
  8
0
  6
Continuous
100
AcDbBlockReference
  2
DC_GROUP_W_MR-3812_S_040_5
 10
0.0
 20
0.0
 30
0.0
  0
INSERT
  5
426
330
1F
100
AcDbEntity
  8
0
  6
Continuous
100
AcDbBlockReference
  2
DC_IMAGEDIMGROUP_4
 10
0.0
 20
0.0
 30
0.0
  0
DIMENSION
  5
427
330
1F
100
AcDbEntity
  8
0
  6
Continuous
370
    13
100
AcDbDimension
280
     0
  2
*D34
 10
-596.9587957402837
 20
83.74374715262573
 30
0.0
 11
-673.9587957402837
 21
83.74374715262573
 31
0.0
 70
   160
  1
P
 71
     8
 42
-1.0
 73
     0
 74
     0
 75
     0
  3
dc_Rotated
100
AcDbAlignedDimension
 13
-750.9587957402837
 23
61.79374715262588
 33
0.0
 14
-596.9587957402837
 24
61.79374715262588
 34
0.0
100
AcDbRotatedDimension
1001
ACAD
1000
DSTYLE
1002
{
1070
   144
1040
1.0
1070
   274
1070
     4
1070
    41
1040
15.00000953674316
1070
    79
1070
     2
1070
   343
1005
1A7
1070
   344
1005
1A7
1070
   176
1070
     2
1070
   177
1070
     2
1070
   178
1070
     2
1070
   271
1070
     2
1070
    44
1040
2.5
1070
    42
1040
5.0
1070
   147
1040
5.0
1070
   173
1070
     1
1070
    77
1070
     3
1070
    73
1070
     0
1070
   172
1070
     1
1070
    74
1070
     0
1070
   283
1070
     0
1070
   340
1005
1B1
1070
   140
1040
20.0
1070
   284
1070
     8
1070
   288
1070
     1
1070
    78
1070
     8
1070
    90
1070
     1
1002
}
  0
INSERT
  5
428
330
1F
100
AcDbEntity
  8
0
  6
Continuous
100
AcDbBlockReference
  2
DC_GROUP_W_MR-3812_S_040_6
 10
0.0
 20
0.0
 30
0.0
  0
INSERT
  5
429
330
1F
100
AcDbEntity
  8
0
  6
Continuous
100
AcDbBlockReference
  2
DC_GROUP_W_MR-3812_S_040_8
 10
0.0
 20
0.0
 30
0.0
  0
INSERT
  5
42A
330
1F
100
AcDbEntity
  8
0
  6
Continuous
100
AcDbBlockReference
  2
DC_GROUP_W_MR-3812_S_040_10
 10
0.0
 20
0.0
 30
0.0
  0
INSERT
  5
42B
330
1F
100
AcDbEntity
  8
0
  6
Continuous
100
AcDbBlockReference
  2
DC_GROUP_W_MR-3812_S_040_12
 10
0.0
 20
0.0
 30
0.0
  0
INSERT
  5
42C
330
1F
100
AcDbEntity
  8
0
  6
Continuous
100
AcDbBlockReference
  2
DC_GROUP_W_MR-3812_S_040_14
 10
0.0
 20
0.0
 30
0.0
  0
INSERT
  5
42D
330
1F
100
AcDbEntity
  8
0
  6
Continuous
100
AcDbBlockReference
  2
DC_GROUP_W_MR-3812_S_040_16
 10
0.0
 20
0.0
 30
0.0
  0
INSERT
  5
42E
330
1F
100
AcDbEntity
  8
0
  6
Continuous
100
AcDbBlockReference
  2
DC_GROUP_W_MR-3812_S_040_18
 10
0.0
 20
0.0
 30
0.0
  0
INSERT
  5
42F
330
1F
100
AcDbEntity
  8
0
  6
Continuous
100
AcDbBlockReference
  2
DC_GROUP_W_MR-3812_S_040_20
 10
0.0
 20
0.0
 30
0.0
  0
INSERT
  5
430
330
1F
100
AcDbEntity
  8
0
  6
Continuous
100
AcDbBlockReference
  2
DC_GROUP_W_MR-3812_S_040_21
 10
0.0
 20
0.0
 30
0.0
  0
INSERT
  5
431
330
1F
100
AcDbEntity
  8
0
  6
Continuous
100
AcDbBlockReference
  2
DC_GROUP_W_MR-3812_S_040_23
 10
0.0
 20
0.0
 30
0.0
  0
INSERT
  5
432
330
1F
100
AcDbEntity
  8
0
  6
Continuous
100
AcDbBlockReference
  2
DC_GROUP_W_MR-3812_S_040_24
 10
0.0
 20
0.0
 30
0.0
  0
DIMENSION
  5
433
330
1F
100
AcDbEntity
  8
0
  6
Continuous
370
    13
100
AcDbDimension
280
     0
  2
*D80
 10
-40.16211886739281
 20
20.19374715262555
 30
0.0
 11
-40.16211886739281
 21
-27.01125284737445
 31
0.0
 70
   160
 71
     8
 42
-1.0
 73
     0
 74
     0
 75
     0
  3
dc_Rotated
100
AcDbAlignedDimension
 13
31.04120425971615
 23
-9.806252847374452
 33
0.0
 14
41.54268125971612
 24
20.19374715262555
 34
0.0
 50
90.0
100
AcDbRotatedDimension
1001
ACAD
1000
DSTYLE
1002
{
1070
   144
1040
1.0
1070
   274
1070
     4
1070
    41
1040
15.00000953674316
1070
    79
1070
     2
1070
   343
1005
1A7
1070
   344
1005
1A7
1070
   176
1070
     2
1070
   177
1070
     2
1070
   178
1070
     2
1070
   271
1070
     2
1070
    44
1040
2.5
1070
    42
1040
5.0
1070
   147
1040
5.0
1070
   173
1070
     1
1070
    77
1070
     3
1070
    73
1070
     0
1070
   172
1070
     1
1070
    74
1070
     0
1070
   283
1070
     0
1070
   340
1005
1B1
1070
   140
1040
20.0
1070
   284
1070
     8
1070
   288
1070
     1
1070
    78
1070
     8
1070
    90
1070
     1
1002
}
  0
INSERT
  5
434
330
1F
100
AcDbEntity
  8
0
  6
Continuous
100
AcDbBlockReference
  2
DC_GROUP_W_MR-3812_S_040_51
 10
0.0
 20
0.0
 30
0.0
  0
INSERT
  5
435
330
1F
100
AcDbEntity
  8
0
  6
Continuous
100
AcDbBlockReference
  2
DC_GROUP_W_MR-3812_S_040_52
 10
0.0
 20
0.0
 30
0.0
  0
INSERT
  5
436
330
1F
100
AcDbEntity
  8
ZUWAKU
  6
Continuous
100
AcDbBlockReference
  2
DC_GROUP_W_MR-3812_S_040_1
 10
0.0
 20
0.0
 30
0.0
  0
INSERT
  5
437
330
1F
100
AcDbEntity
  8
ZUWAKU
  6
Continuous
100
AcDbBlockReference
  2
DC_GROUP_W_MR-3812_S_040_2
 10
0.0
 20
0.0
 30
0.0
  0
TEXT
  5
438
330
1F
100
AcDbEntity
  8
0
 62
     2
100
AcDbText
 10
190.0000000000001
 20
-649.3596166976107
 30
0.0
 40
20.0
  1
フリーローラコンベヤ
 41
1.186440677966102
  7
dcStyle1
 72
     5
 11
390.0000000000001
 21
-649.3596166976107
 31
0.0
100
AcDbText
  0
TEXT
  5
439
330
1F
100
AcDbEntity
  8
0
 62
     2
100
AcDbText
 10
820.0
 20
-649.3596166976107
 30
0.0
 40
20.0
  1
W_MR-3812_S_040
 41
0.5250000000000001
  7
dcStyle1
 72
     5
 11
970.0
 21
-649.3596166976107
 31
0.0
100
AcDbText
  0
TEXT
  5
43A
330
1F
100
AcDbEntity
  8
0
 62
     2
100
AcDbText
 10
567.5
 20
-599.3596166976107
 30
0.0
 40
20.0
  1
本体組立図 MR-3812 ローラピッチ150
 41
0.7968749999999999
  7
dcStyle1
 72
     5
 11
907.5
 21
-599.3596166976107
 31
0.0
100
AcDbText
  0
TEXT
  5
43B
330
1F
100
AcDbEntity
  8
0
 62
     2
100
AcDbText
 10
-68.74999999999986
 20
-649.3596166976107
 30
0.0
 40
20.0
  1
1/5
 41
0.5338983050847458
  7
dcStyle1
 72
     5
 11
-38.74999999999986
 21
-649.3596166976107
 31
0.0
100
AcDbText
  0
TEXT
  5
43C
330
1F
100
AcDbEntity
  8
0
 62
     2
100
AcDbText
 10
200.0000000000001
 20
-599.3596166976107
 30
0.0
 40
20.0
  1
マルチベヤシリーズ
 41
1.188679245283019
  7
dcStyle1
 72
     5
 11
380.0000000000001
 21
-599.3596166976107
 31
0.0
100
AcDbText
  0
TEXT
  5
43D
330
1F
100
AcDbEntity
  8
0
 62
     2
100
AcDbText
 10
-371.7243436757128
 20
-241.4653937975989
 30
0.0
 40
20.0
  1
呼び機長(cm)
 41
0.7109004739336492
  7
dcStyle0
 72
     5
 11
-251.7243436757128
 21
-241.4653937975989
 31
0.0
100
AcDbText
  0
TEXT
  5
43E
330
1F
100
AcDbEntity
  8
0
 62
     2
100
AcDbText
 10
-371.7243436757128
 20
-268.4653938032672
 30
0.0
 40
20.0
  1
機　長(cm)
 41
0.7627765064836002
  7
dcStyle0
 72
     5
 11
-271.7243436757128
 21
-268.4653938032672
 31
0.0
100
AcDbText
  0
TEXT
  5
43F
330
1F
100
AcDbEntity
  8
0
 62
     2
100
AcDbText
 10
-371.7243436757128
 20
-295.4653938032673
 30
0.0
 40
20.0
  1
A(mm)
 41
0.6341958396752917
  7
dcStyle0
 72
     5
 11
-321.7243436757128
 21
-295.4653938032673
 31
0.0
100
AcDbText
  0
TEXT
  5
440
330
1F
100
AcDbEntity
  8
0
 62
     2
100
AcDbText
 10
-371.7243436757128
 20
-322.4653938089356
 30
0.0
 40
20.0
  1
N
 41
0.5370569280343717
  7
dcStyle0
 72
     5
 11
-361.7243436757128
 21
-322.4653938089356
 31
0.0
100
AcDbText
  0
TEXT
  5
441
330
1F
100
AcDbEntity
  8
0
 62
     2
100
AcDbText
 10
-229.224343684663
 20
-268.4653937975973
 30
0.0
 40
20.0
  1
99.4
 41
0.8077544426494345
  7
dcStyle0
 72
     5
 11
-189.224343684663
 21
-268.4653937975973
 31
0.0
100
AcDbText
  0
TEXT
  5
442
330
1F
100
AcDbEntity
  8
0
 62
     2
100
AcDbText
 10
-164.224343689163
 20
-268.4653937975973
 30
0.0
 40
20.0
  1
149.4
 41
0.7805182641273806
  7
dcStyle0
 72
     5
 11
-114.224343689163
 21
-268.4653937975973
 31
0.0
100
AcDbText
  0
TEXT
  5
443
330
1F
100
AcDbEntity
  8
0
 62
     2
100
AcDbText
 10
-94.22434369366295
 20
-268.4653937975973
 30
0.0
 40
20.0
  1
199.4
 41
0.7805182641273806
  7
dcStyle0
 72
     5
 11
-44.22434369366295
 21
-268.4653937975973
 31
0.0
100
AcDbText
  0
TEXT
  5
444
330
1F
100
AcDbEntity
  8
0
 62
     2
100
AcDbText
 10
-24.2243436981629
 20
-268.4653937975973
 30
0.0
 40
20.0
  1
299.4
 41
0.7805182641273806
  7
dcStyle0
 72
     5
 11
25.7756563018371
 21
-268.4653937975973
 31
0.0
100
AcDbText
  0
TEXT
  5
445
330
1F
100
AcDbEntity
  8
0
 62
     2
100
AcDbText
 10
-219.224343684663
 20
-295.4653937975973
 30
0.0
 40
20.0
  1
35
 41
0.6877579092159559
  7
dcStyle0
 72
     5
 11
-199.224343684663
 21
-295.4653937975973
 31
0.0
100
AcDbText
  0
TEXT
  5
446
330
1F
100
AcDbEntity
  8
0
 62
     2
100
AcDbText
 10
-371.7243436757128
 20
-376.4653938089356
 30
0.0
 40
20.0
  1
B(mm)
 41
0.6332320162107397
  7
dcStyle0
 72
     5
 11
-321.7243436757128
 21
-376.4653938089356
 31
0.0
100
AcDbText
  0
TEXT
  5
447
330
1F
100
AcDbEntity
  8
0
 62
     2
100
AcDbText
 10
-224.224343684663
 20
-241.4653937976016
 30
0.0
 40
20.0
  1
100
 41
0.6877579092159559
  7
dcStyle0
 72
     5
 11
-194.224343684663
 21
-241.4653937976016
 31
0.0
100
AcDbText
  0
TEXT
  5
448
330
1F
100
AcDbEntity
  8
0
 62
     2
100
AcDbText
 10
-154.224343689163
 20
-241.4653937976016
 30
0.0
 40
20.0
  1
150
 41
0.6877579092159559
  7
dcStyle0
 72
     5
 11
-124.224343689163
 21
-241.4653937976016
 31
0.0
100
AcDbText
  0
TEXT
  5
449
330
1F
100
AcDbEntity
  8
0
 62
     2
100
AcDbText
 10
-84.22434369366295
 20
-241.4653937976016
 30
0.0
 40
20.0
  1
200
 41
0.6877579092159559
  7
dcStyle0
 72
     5
 11
-54.22434369366295
 21
-241.4653937976016
 31
0.0
100
AcDbText
  0
TEXT
  5
44A
330
1F
100
AcDbEntity
  8
0
 62
     2
100
AcDbText
 10
-14.2243436981629
 20
-241.4653937976016
 30
0.0
 40
20.0
  1
300
 41
0.6877579092159559
  7
dcStyle0
 72
     5
 11
15.7756563018371
 21
-241.4653937976016
 31
0.0
100
AcDbText
  0
TEXT
  5
44B
330
1F
100
AcDbEntity
  8
0
 62
     2
100
AcDbText
 10
-214.224343684663
 20
-322.4653938032656
 30
0.0
 40
20.0
  1
6
 41
0.6877579092159559
  7
dcStyle0
 72
     5
 11
-204.224343684663
 21
-322.4653938032656
 31
0.0
100
AcDbText
  0
TEXT
  5
44C
330
1F
100
AcDbEntity
  8
0
 62
     2
100
AcDbText
 10
-224.224343684663
 20
-376.4653938032656
 30
0.0
 40
20.0
  1
924
 41
0.6877579092159559
  7
dcStyle0
 72
     5
 11
-194.224343684663
 21
-376.4653938032656
 31
0.0
100
AcDbText
  0
TEXT
  5
44D
330
1F
100
AcDbEntity
  8
0
 62
     2
100
AcDbText
 10
-371.7243436757128
 20
-430.4653938032673
 30
0.0
 40
20.0
  1
D(mm)
 41
0.6305170239596469
  7
dcStyle0
 72
     5
 11
-321.7243436757128
 21
-430.4653938032673
 31
0.0
100
AcDbText
  0
TEXT
  5
44E
330
1F
100
AcDbEntity
  8
0
 62
     2
100
AcDbText
 10
-371.7243436757128
 20
-457.4653938032673
 30
0.0
 40
20.0
  1
E(mm)
 41
0.6500260010400416
  7
dcStyle0
 72
     5
 11
-321.7243436757128
 21
-457.4653938032673
 31
0.0
100
AcDbText
  0
TEXT
  5
44F
330
1F
100
AcDbEntity
  8
0
 62
     2
100
AcDbText
 10
-219.224343684663
 20
-430.4653937975908
 30
0.0
 40
20.0
  1
57
 41
0.6877579092159559
  7
dcStyle0
 72
     5
 11
-199.224343684663
 21
-430.4653937975908
 31
0.0
100
AcDbText
  0
TEXT
  5
450
330
1F
100
AcDbEntity
  8
0
 62
     2
100
AcDbText
 10
-224.224343684663
 20
-457.4653937975908
 30
0.0
 40
20.0
  1
---
 41
0.6877579092159559
  7
dcStyle0
 72
     5
 11
-194.224343684663
 21
-457.4653937975908
 31
0.0
100
AcDbText
  0
TEXT
  5
451
330
1F
100
AcDbEntity
  8
0
 62
     2
100
AcDbText
 10
-149.224343689163
 20
-430.4653937975908
 30
0.0
 40
20.0
  1
57
 41
0.6877579092159559
  7
dcStyle0
 72
     5
 11
-129.224343689163
 21
-430.4653937975908
 31
0.0
100
AcDbText
  0
TEXT
  5
452
330
1F
100
AcDbEntity
  8
0
 62
     2
100
AcDbText
 10
-154.224343689163
 20
-457.4653937975908
 30
0.0
 40
20.0
  1
---
 41
0.6877579092159559
  7
dcStyle0
 72
     5
 11
-124.224343689163
 21
-457.4653937975908
 31
0.0
100
AcDbText
  0
TEXT
  5
453
330
1F
100
AcDbEntity
  8
0
 62
     2
100
AcDbText
 10
-79.22434369366295
 20
-430.4653937975908
 30
0.0
 40
20.0
  1
57
 41
0.6877579092159559
  7
dcStyle0
 72
     5
 11
-59.22434369366295
 21
-430.4653937975908
 31
0.0
100
AcDbText
  0
TEXT
  5
454
330
1F
100
AcDbEntity
  8
0
 62
     2
100
AcDbText
 10
-9.224343698162897
 20
-430.4653937975908
 30
0.0
 40
20.0
  1
57
 41
0.6877579092159559
  7
dcStyle0
 72
     5
 11
10.7756563018371
 21
-430.4653937975908
 31
0.0
100
AcDbText
  0
TEXT
  5
455
330
1F
100
AcDbEntity
  8
0
 62
     2
100
AcDbText
 10
-84.22434369366295
 20
-457.4653937975973
 30
0.0
 40
20.0
  1
760
 41
0.6877579092159559
  7
dcStyle0
 72
     5
 11
-54.22434369366295
 21
-457.4653937975973
 31
0.0
100
AcDbText
  0
TEXT
  5
456
330
1F
100
AcDbEntity
  8
0
 62
     2
100
AcDbText
 10
-19.2243436981629
 20
-457.4653937975973
 30
0.0
 40
20.0
  1
1260
 41
0.6877579092159559
  7
dcStyle0
 72
     5
 11
20.7756563018371
 21
-457.4653937975973
 31
0.0
100
AcDbText
  0
TEXT
  5
457
330
1F
100
AcDbEntity
  8
0
 62
     2
100
AcDbText
 10
-149.224343689163
 20
-295.4653937975973
 30
0.0
 40
20.0
  1
72
 41
0.6877579092159559
  7
dcStyle0
 72
     5
 11
-129.224343689163
 21
-295.4653937975973
 31
0.0
100
AcDbText
  0
TEXT
  5
458
330
1F
100
AcDbEntity
  8
0
 62
     2
100
AcDbText
 10
-144.224343689163
 20
-322.4653938032656
 30
0.0
 40
20.0
  1
9
 41
0.6877579092159559
  7
dcStyle0
 72
     5
 11
-134.224343689163
 21
-322.4653938032656
 31
0.0
100
AcDbText
  0
TEXT
  5
459
330
1F
100
AcDbEntity
  8
0
 62
     2
100
AcDbText
 10
-159.224343689163
 20
-376.4653938032656
 30
0.0
 40
20.0
  1
1350
 41
0.6877579092159559
  7
dcStyle0
 72
     5
 11
-119.224343689163
 21
-376.4653938032656
 31
0.0
100
AcDbText
  0
TEXT
  5
45A
330
1F
100
AcDbEntity
  8
0
 62
     2
100
AcDbText
 10
-79.22434369366295
 20
-295.4653937975973
 30
0.0
 40
20.0
  1
73
 41
0.6877579092159559
  7
dcStyle0
 72
     5
 11
-59.22434369366295
 21
-295.4653937975973
 31
0.0
100
AcDbText
  0
TEXT
  5
45B
330
1F
100
AcDbEntity
  8
0
 62
     2
100
AcDbText
 10
-79.22434369366295
 20
-322.4653938032656
 30
0.0
 40
20.0
  1
12
 41
0.6877579092159559
  7
dcStyle0
 72
     5
 11
-59.22434369366295
 21
-322.4653938032656
 31
0.0
100
AcDbText
  0
TEXT
  5
45C
330
1F
100
AcDbEntity
  8
0
 62
     2
100
AcDbText
 10
-89.22434369366295
 20
-376.4653938032656
 30
0.0
 40
20.0
  1
1848
 41
0.6877579092159559
  7
dcStyle0
 72
     5
 11
-49.22434369366295
 21
-376.4653938032656
 31
0.0
100
AcDbText
  0
TEXT
  5
45D
330
1F
100
AcDbEntity
  8
0
 62
     2
100
AcDbText
 10
-9.224343698162897
 20
-295.4653937975973
 30
0.0
 40
20.0
  1
72
 41
0.6877579092159559
  7
dcStyle0
 72
     5
 11
10.7756563018371
 21
-295.4653937975973
 31
0.0
100
AcDbText
  0
TEXT
  5
45E
330
1F
100
AcDbEntity
  8
0
 62
     2
100
AcDbText
 10
-9.224343698162897
 20
-322.4653938032656
 30
0.0
 40
20.0
  1
19
 41
0.6877579092159559
  7
dcStyle0
 72
     5
 11
10.7756563018371
 21
-322.4653938032656
 31
0.0
100
AcDbText
  0
TEXT
  5
45F
330
1F
100
AcDbEntity
  8
0
 62
     2
100
AcDbText
 10
-19.2243436981629
 20
-376.4653938032656
 30
0.0
 40
20.0
  1
2850
 41
0.6877579092159559
  7
dcStyle0
 72
     5
 11
20.7756563018371
 21
-376.4653938032656
 31
0.0
100
AcDbText
  0
TEXT
  5
460
330
1F
100
AcDbEntity
  8
0
 62
     2
100
AcDbText
 10
-371.7243436757128
 20
-403.4653938032672
 30
0.0
 40
20.0
  1
C(mm)
 41
0.6268806419257773
  7
dcStyle0
 72
     5
 11
-321.7243436757128
 21
-403.4653938032672
 31
0.0
100
AcDbText
  0
TEXT
  5
461
330
1F
100
AcDbEntity
  8
0
 62
     2
100
AcDbText
 10
-219.224343684663
 20
-403.4653937975972
 30
0.0
 40
20.0
  1
35
 41
0.6877579092159559
  7
dcStyle0
 72
     5
 11
-199.224343684663
 21
-403.4653937975972
 31
0.0
100
AcDbText
  0
TEXT
  5
462
330
1F
100
AcDbEntity
  8
0
 62
     2
100
AcDbText
 10
-149.224343689163
 20
-403.4653937975972
 30
0.0
 40
20.0
  1
72
 41
0.6877579092159559
  7
dcStyle0
 72
     5
 11
-129.224343689163
 21
-403.4653937975972
 31
0.0
100
AcDbText
  0
TEXT
  5
463
330
1F
100
AcDbEntity
  8
0
 62
     2
100
AcDbText
 10
-79.22434369366295
 20
-403.4653937975972
 30
0.0
 40
20.0
  1
73
 41
0.6877579092159559
  7
dcStyle0
 72
     5
 11
-59.22434369366295
 21
-403.4653937975972
 31
0.0
100
AcDbText
  0
TEXT
  5
464
330
1F
100
AcDbEntity
  8
0
 62
     2
100
AcDbText
 10
-9.224343698162897
 20
-403.4653937975972
 30
0.0
 40
20.0
  1
72
 41
0.6877579092159559
  7
dcStyle0
 72
     5
 11
10.7756563018371
 21
-403.4653937975972
 31
0.0
100
AcDbText
  0
TEXT
  5
465
330
1F
100
AcDbEntity
  8
0
 62
     2
100
AcDbText
 10
-116.553289867142
 20
-612.3005385298998
 30
0.0
 40
20.0
  1
2019.10.1
 41
0.6258278145695364
  7
dcStyle1
 72
     5
 11
-26.55328986714204
 21
-612.3005385298998
 31
0.0
100
AcDbText
  0
TEXT
  5
466
330
1F
100
AcDbEntity
  8
0
 62
     2
100
AcDbText
 10
-371.7243436757128
 20
-349.4653938089356
 30
0.0
 40
20.0
  1
P(mm)
 41
0.6379178361826997
  7
dcStyle0
 72
     5
 11
-321.7243436757128
 21
-349.4653938089356
 31
0.0
100
AcDbText
  0
TEXT
  5
467
330
1F
100
AcDbEntity
  8
0
 62
     2
100
AcDbText
 10
-224.224343684663
 20
-349.4653937975973
 30
0.0
 40
20.0
  1
154
 41
0.6877579092159559
  7
dcStyle0
 72
     5
 11
-194.224343684663
 21
-349.4653937975973
 31
0.0
100
AcDbText
  0
TEXT
  5
468
330
1F
100
AcDbEntity
  8
0
 62
     2
100
AcDbText
 10
-154.224343689163
 20
-349.4653937975949
 30
0.0
 40
20.0
  1
150
 41
0.6877579092159559
  7
dcStyle0
 72
     5
 11
-124.224343689163
 21
-349.4653937975949
 31
0.0
100
AcDbText
  0
TEXT
  5
469
330
1F
100
AcDbEntity
  8
0
 62
     2
100
AcDbText
 10
-84.22434369366295
 20
-349.4653937975924
 30
0.0
 40
20.0
  1
154
 41
0.6877579092159559
  7
dcStyle0
 72
     5
 11
-54.22434369366295
 21
-349.4653937975924
 31
0.0
100
AcDbText
  0
TEXT
  5
46A
330
1F
100
AcDbEntity
  8
0
 62
     2
100
AcDbText
 10
-14.2243436981629
 20
-349.4653937975899
 30
0.0
 40
20.0
  1
150
 41
0.6877579092159559
  7
dcStyle0
 72
     5
 11
15.7756563018371
 21
-349.4653937975899
 31
0.0
100
AcDbText
  0
LINE
  5
46B
330
1F
100
AcDbEntity
  8
0
  6
CENTER
 62
     3
370
    13
100
AcDbLine
 10
-228.9587957402838
 20
-19.80625284737445
 30
0.0
 11
-228.9587957402838
 21
0.1937471526255479
 31
0.0
  0
LINE
  5
46C
330
1F
100
AcDbEntity
  8
0
  6
CENTER
 62
     3
370
    13
100
AcDbLine
 10
-348.9587957402838
 20
-19.80625284737445
 30
0.0
 11
-348.9587957402838
 21
0.1937471526255479
 31
0.0
  0
LINE
  5
46D
330
1F
100
AcDbEntity
  8
0
  6
CENTER
 62
     3
370
    13
100
AcDbLine
 10
612.5376319191868
 20
0.1937471526255479
 30
0.0
 11
612.5376319191868
 21
-19.70040884737475
 31
0.0
  0
LINE
  5
46E
330
1F
100
AcDbEntity
  8
0
  6
CENTER
 62
     3
370
    13
100
AcDbLine
 10
762.5376319191868
 20
0.1937471526255479
 30
0.0
 11
762.5376319191868
 21
-19.80625284737445
 31
0.0
  0
LINE
  5
46F
330
1F
100
AcDbEntity
  8
0
  6
CENTER
 62
     3
370
    13
100
AcDbLine
 10
221.0412042597162
 20
376.8251688631323
 30
0.0
 11
-798.9587957402838
 21
376.8251688631323
 31
0.0
  0
LINE
  5
470
330
1F
100
AcDbEntity
  8
0
  6
CENTER
 62
     3
370
    13
100
AcDbLine
 10
151.0412042597162
 20
-19.80625284737445
 30
0.0
 11
151.0412042597162
 21
0.1937471526255479
 31
0.0
  0
LINE
  5
471
330
1F
100
AcDbEntity
  8
0
  6
CENTER
 62
     3
370
    13
100
AcDbLine
 10
31.04120425971615
 20
-19.80625284737445
 30
0.0
 11
31.04120425971615
 21
0.1937471526255479
 31
0.0
  0
LINE
  5
472
330
1F
100
AcDbEntity
  8
0
  6
CENTER
 62
     3
370
    13
100
AcDbLine
 10
-608.9587957402838
 20
-19.80625284737445
 30
0.0
 11
-608.9587957402838
 21
0.1937471526255479
 31
0.0
  0
LINE
  5
473
330
1F
100
AcDbEntity
  8
0
  6
CENTER
 62
     3
370
    13
100
AcDbLine
 10
-728.9587957402838
 20
-19.80625284737445
 30
0.0
 11
-728.9587957402838
 21
0.1937471526255479
 31
0.0
  0
LINE
  5
474
330
1F
100
AcDbEntity
  8
0
  6
CENTER
 62
     3
370
    13
100
AcDbLine
 10
221.0412042597163
 20
38.19374715262575
 30
0.0
 11
-798.9587957402837
 21
38.19374715262575
 31
0.0
  0
LINE
  5
475
330
1F
100
AcDbEntity
  8
0
  6
Continuous
 62
     3
370
    13
100
AcDbLine
 10
-379.2243436754129
 20
-460.9653938004491
 30
0.0
 11
35.77565629958713
 21
-460.9653938004345
 31
0.0
  0
LINE
  5
476
330
1F
100
AcDbEntity
  8
0
  6
Continuous
 62
     3
370
    13
100
AcDbLine
 10
-379.2243436754129
 20
-217.965393794764
 30
0.0
 11
35.77565629958713
 21
-217.9653937947493
 31
0.0
  0
LINE
  5
477
330
1F
100
AcDbEntity
  8
0
  6
Continuous
 62
     3
370
    13
100
AcDbLine
 10
-379.2243436754176
 20
-217.965393794764
 30
0.0
 11
-379.2243436754129
 21
-460.9653938004515
 31
0.0
  0
LINE
  5
478
330
1F
100
AcDbEntity
  8
0
  6
Continuous
 62
     3
370
    13
100
AcDbLine
 10
-244.2243436824131
 20
-217.9653937947597
 30
0.0
 11
-244.2243436824131
 21
-460.9653938004494
 31
0.0
  0
LINE
  5
479
330
1F
100
AcDbEntity
  8
0
  6
Continuous
 62
     3
370
    13
100
AcDbLine
 10
35.77565629958349
 20
-217.9653937947493
 30
0.0
 11
35.77565629958713
 21
-460.9653938004367
 31
0.0
  0
LINE
  5
47A
330
1F
100
AcDbEntity
  8
0
  6
Continuous
 62
     3
370
    13
100
AcDbLine
 10
-379.2243436754129
 20
-244.9653938004323
 30
0.0
 11
35.77565629958713
 21
-244.9653938004176
 31
0.0
  0
LINE
  5
47B
330
1F
100
AcDbEntity
  8
0
  6
Continuous
 62
     3
370
    13
100
AcDbLine
 10
-379.2243436754129
 20
-271.9653938004323
 30
0.0
 11
35.77565629958713
 21
-271.9653938004176
 31
0.0
  0
LINE
  5
47C
330
1F
100
AcDbEntity
  8
0
  6
Continuous
 62
     3
370
    13
100
AcDbLine
 10
-379.2243436754129
 20
-325.9653938004323
 30
0.0
 11
35.77565629958713
 21
-325.9653938004176
 31
0.0
  0
LINE
  5
47D
330
1F
100
AcDbEntity
  8
0
  6
Continuous
 62
     3
370
    13
100
AcDbLine
 10
-379.2243436754129
 20
-379.9653938004323
 30
0.0
 11
35.77565629958713
 21
-379.9653938004176
 31
0.0
  0
LINE
  5
47E
330
1F
100
AcDbEntity
  8
0
  6
Continuous
 62
     3
370
    13
100
AcDbLine
 10
-174.224343686913
 20
-217.9653937947597
 30
0.0
 11
-174.224343686913
 21
-460.9653938004494
 31
0.0
  0
LINE
  5
47F
330
1F
100
AcDbEntity
  8
0
  6
Continuous
 62
     3
370
    13
100
AcDbLine
 10
-34.22434369591292
 20
-217.9653937947597
 30
0.0
 11
-34.22434369591292
 21
-460.9653938004494
 31
0.0
  0
LINE
  5
480
330
1F
100
AcDbEntity
  8
0
  6
Continuous
 62
     3
370
    13
100
AcDbLine
 10
-379.2243436754129
 20
-406.9653938004323
 30
0.0
 11
35.77565629958713
 21
-406.9653938004176
 31
0.0
  0
LINE
  5
481
330
1F
100
AcDbEntity
  8
0
  6
Continuous
 62
     3
370
    13
100
AcDbLine
 10
-379.2243436754129
 20
-433.9653938004323
 30
0.0
 11
35.77565629958713
 21
-433.9653938004176
 31
0.0
  0
LINE
  5
482
330
1F
100
AcDbEntity
  8
0
  6
Continuous
 62
     3
370
    13
100
AcDbLine
 10
-379.2243436754129
 20
-298.9653938061006
 30
0.0
 11
35.77565629958713
 21
-298.965393806086
 31
0.0
  0
LINE
  5
483
330
1F
100
AcDbEntity
  8
0
  6
Continuous
 62
     3
370
    13
100
AcDbLine
 10
-379.2243436754129
 20
-352.9653938004323
 30
0.0
 11
35.77565629958713
 21
-352.9653938004176
 31
0.0
  0
LINE
  5
484
330
1F
100
AcDbEntity
  8
0
  6
Continuous
 62
     3
370
    13
100
AcDbLine
 10
-104.224343691413
 20
-217.9653937947575
 30
0.0
 11
-104.224343691413
 21
-460.9653938004473
 31
0.0
  0
LINE
  5
485
330
1F
100
AcDbEntity
  8
0
  6
Continuous
 62
     7
370
    18
100
AcDbLine
 10
775.0376309191869
 20
50.19374715262555
 30
0.0
 11
775.0376309191869
 21
47.89374715262537
 31
0.0
  0
LINE
  5
486
330
1F
100
AcDbEntity
  8
0
  6
Continuous
 62
     7
370
    18
100
AcDbLine
 10
775.0376309191869
 20
-7.50625284737427
 30
0.0
 11
775.0376309191869
 21
-9.806252847374452
 31
0.0
  0
LINE
  5
487
330
1F
100
AcDbEntity
  8
0
  6
Continuous
 62
     7
370
    18
100
AcDbLine
 10
749.3376309191871
 20
47.89374715262537
 30
0.0
 11
775.0376309191869
 21
47.89374715262537
 31
0.0
  0
ARC
  5
488
330
1F
100
AcDbEntity
  8
0
  6
Continuous
 62
     7
370
    18
100
AcDbCircle
 10
749.3376309191871
 20
45.89374715262537
 30
0.0
 40
2.0
100
AcDbArc
 50
90.0
 51
180.0
  0
LINE
  5
489
330
1F
100
AcDbEntity
  8
0
  6
Continuous
 62
     7
370
    18
100
AcDbLine
 10
747.3376309191871
 20
-5.50625284737427
 30
0.0
 11
747.3376309191871
 21
45.89374715262537
 31
0.0
  0
LINE
  5
48A
330
1F
100
AcDbEntity
  8
0
  6
Continuous
 62
     7
370
    18
100
AcDbLine
 10
749.3376309191871
 20
-7.50625284737427
 30
0.0
 11
775.0376309191869
 21
-7.50625284737427
 31
0.0
  0
ARC
  5
48B
330
1F
100
AcDbEntity
  8
0
  6
Continuous
 62
     7
370
    18
100
AcDbCircle
 10
749.3376309191871
 20
-5.50625284737427
 30
0.0
 40
2.0
100
AcDbArc
 50
180.0
 51
270.0
  0
LINE
  5
48C
330
1F
100
AcDbEntity
  8
0
  6
Continuous
 62
     7
370
    18
100
AcDbLine
 10
775.0376309191869
 20
50.19374715262555
 30
0.0
 11
749.3376309191871
 21
50.19374715262555
 31
0.0
  0
ARC
  5
48D
330
1F
100
AcDbEntity
  8
0
  6
Continuous
 62
     7
370
    18
100
AcDbCircle
 10
749.3376309191871
 20
45.89374715262537
 30
0.0
 40
4.3
100
AcDbArc
 50
90.0
 51
180.0
  0
LINE
  5
48E
330
1F
100
AcDbEntity
  8
0
  6
Continuous
 62
     7
370
    18
100
AcDbLine
 10
745.0376309191869
 20
45.89374715262537
 30
0.0
 11
745.0376309191869
 21
-5.50625284737427
 31
0.0
  0
LINE
  5
48F
330
1F
100
AcDbEntity
  8
0
  6
Continuous
 62
     7
370
    18
100
AcDbLine
 10
749.3376309191871
 20
-9.806252847374452
 30
0.0
 11
775.0376309191869
 21
-9.806252847374452
 31
0.0
  0
ARC
  5
490
330
1F
100
AcDbEntity
  8
0
  6
Continuous
 62
     7
370
    18
100
AcDbCircle
 10
749.3376309191871
 20
-5.50625284737427
 30
0.0
 40
4.3
100
AcDbArc
 50
180.0
 51
270.0
  0
LINE
  5
491
330
1F
100
AcDbEntity
  8
0
  6
Continuous
 62
     7
370
    18
100
AcDbLine
 10
600.0376309191869
 20
50.19374715262555
 30
0.0
 11
600.0376309191869
 21
47.89374715262537
 31
0.0
  0
LINE
  5
492
330
1F
100
AcDbEntity
  8
0
  6
Continuous
 62
     7
370
    18
100
AcDbLine
 10
600.0376309191869
 20
-7.50625284737427
 30
0.0
 11
600.0376309191869
 21
-9.806252847374452
 31
0.0
  0
LINE
  5
493
330
1F
100
AcDbEntity
  8
0
  6
Continuous
 62
     7
370
    18
100
AcDbLine
 10
625.7376309191867
 20
47.89374715262537
 30
0.0
 11
600.0376309191869
 21
47.89374715262537
 31
0.0
  0
ARC
  5
494
330
1F
100
AcDbEntity
  8
0
  6
Continuous
 62
     7
370
    18
100
AcDbCircle
 10
625.7376309191867
 20
45.89374715262537
 30
0.0
 40
2.0
100
AcDbArc
 50
0.0
 51
90.0
  0
LINE
  5
495
330
1F
100
AcDbEntity
  8
0
  6
Continuous
 62
     7
370
    18
100
AcDbLine
 10
627.7376309191867
 20
-5.50625284737427
 30
0.0
 11
627.7376309191867
 21
45.89374715262537
 31
0.0
  0
LINE
  5
496
330
1F
100
AcDbEntity
  8
0
  6
Continuous
 62
     7
370
    18
100
AcDbLine
 10
625.7376309191867
 20
-7.50625284737427
 30
0.0
 11
600.0376309191869
 21
-7.50625284737427
 31
0.0
  0
ARC
  5
497
330
1F
100
AcDbEntity
  8
0
  6
Continuous
 62
     7
370
    18
100
AcDbCircle
 10
625.7376309191867
 20
-5.50625284737427
 30
0.0
 40
2.0
100
AcDbArc
 50
270.0
 51
0.0
  0
LINE
  5
498
330
1F
100
AcDbEntity
  8
0
  6
Continuous
 62
     7
370
    18
100
AcDbLine
 10
600.0376309191869
 20
50.19374715262555
 30
0.0
 11
625.7376309191867
 21
50.19374715262555
 31
0.0
  0
ARC
  5
499
330
1F
100
AcDbEntity
  8
0
  6
Continuous
 62
     7
370
    18
100
AcDbCircle
 10
625.7376309191867
 20
45.89374715262537
 30
0.0
 40
4.3
100
AcDbArc
 50
0.0
 51
90.0
  0
LINE
  5
49A
330
1F
100
AcDbEntity
  8
0
  6
Continuous
 62
     7
370
    18
100
AcDbLine
 10
630.0376309191869
 20
45.89374715262537
 30
0.0
 11
630.0376309191869
 21
-5.50625284737427
 31
0.0
  0
LINE
  5
49B
330
1F
100
AcDbEntity
  8
0
  6
Continuous
 62
     7
370
    18
100
AcDbLine
 10
625.7376309191867
 20
-9.806252847374452
 30
0.0
 11
600.0376309191869
 21
-9.806252847374452
 31
0.0
  0
ARC
  5
49C
330
1F
100
AcDbEntity
  8
0
  6
Continuous
 62
     7
370
    18
100
AcDbCircle
 10
625.7376309191867
 20
-5.50625284737427
 30
0.0
 40
4.3
100
AcDbArc
 50
270.0
 51
0.0
  0
LINE
  5
49D
330
1F
100
AcDbEntity
  8
0
  6
Continuous
 62
     7
370
    18
100
AcDbLine
 10
-785.9587957402838
 20
434.3251688631323
 30
0.0
 11
208.0412042597162
 21
434.3251688631323
 31
0.0
  0
LINE
  5
49E
330
1F
100
AcDbEntity
  8
0
  6
Continuous
 62
     7
370
    18
100
AcDbLine
 10
-785.9587957402838
 20
319.3251688631323
 30
0.0
 11
208.0412042597162
 21
319.3251688631323
 31
0.0
  0
LINE
  5
49F
330
1F
100
AcDbEntity
  8
0
  6
Continuous
 62
     7
370
    18
100
AcDbLine
 10
-785.9587957402838
 20
434.3251688631323
 30
0.0
 11
-785.9587957402838
 21
454.3251688631323
 31
0.0
  0
ARC
  5
4A0
330
1F
100
AcDbEntity
  8
0
  6
Continuous
 62
     7
370
    18
100
AcDbCircle
 10
-775.9587957402838
 20
454.3251688631323
 30
0.0
 40
10.0
100
AcDbArc
 50
90.0
 51
180.0
  0
LINE
  5
4A1
330
1F
100
AcDbEntity
  8
0
  6
Continuous
 62
     7
370
    18
100
AcDbLine
 10
-785.9587957402838
 20
299.3251688631323
 30
0.0
 11
-785.9587957402838
 21
319.3251688631323
 31
0.0
  0
ARC
  5
4A2
330
1F
100
AcDbEntity
  8
0
  6
Continuous
 62
     7
370
    18
100
AcDbCircle
 10
-775.9587957402838
 20
299.3251688631323
 30
0.0
 40
10.0
100
AcDbArc
 50
180.0
 51
270.0
  0
LINE
  5
4A3
330
1F
100
AcDbEntity
  8
0
  6
Continuous
 62
     7
370
    18
100
AcDbLine
 10
-775.9587957402838
 20
464.3251688631323
 30
0.0
 11
198.0412042597162
 21
464.3251688631323
 31
0.0
  0
LINE
  5
4A4
330
1F
100
AcDbEntity
  8
0
  6
Continuous
 62
     7
370
    18
100
AcDbLine
 10
208.0412042597162
 20
434.3251688631323
 30
0.0
 11
208.0412042597162
 21
454.3251688631323
 31
0.0
  0
ARC
  5
4A5
330
1F
100
AcDbEntity
  8
0
  6
Continuous
 62
     7
370
    18
100
AcDbCircle
 10
198.0412042597162
 20
454.3251688631323
 30
0.0
 40
10.0
100
AcDbArc
 50
0.0
 51
90.0
  0
LINE
  5
4A6
330
1F
100
AcDbEntity
  8
0
  6
Continuous
 62
     7
370
    18
100
AcDbLine
 10
208.0412042597162
 20
299.3251688631323
 30
0.0
 11
208.0412042597162
 21
319.3251688631323
 31
0.0
  0
LINE
  5
4A7
330
1F
100
AcDbEntity
  8
0
  6
Continuous
 62
     7
370
    18
100
AcDbLine
 10
-775.9587957402838
 20
289.3251688631323
 30
0.0
 11
198.0412042597162
 21
289.3251688631323
 31
0.0
  0
ARC
  5
4A8
330
1F
100
AcDbEntity
  8
0
  6
Continuous
 62
     7
370
    18
100
AcDbCircle
 10
198.0412042597162
 20
299.3251688631323
 30
0.0
 40
10.0
100
AcDbArc
 50
270.0
 51
0.0
  0
LINE
  5
4A9
330
1F
100
AcDbEntity
  8
0
  6
Continuous
 62
     7
370
    18
100
AcDbLine
 10
208.0412042597162
 20
50.19374715262555
 30
0.0
 11
208.0412042597162
 21
-9.806252847374452
 31
0.0
  0
LINE
  5
4AA
330
1F
100
AcDbEntity
  8
0
  6
Continuous
 62
     7
370
    18
100
AcDbLine
 10
-785.9587957402838
 20
50.19374715262555
 30
0.0
 11
-785.9587957402838
 21
-9.806252847374452
 31
0.0
  0
LINE
  5
4AB
330
1F
100
AcDbEntity
  8
0
  6
Continuous
 62
     7
370
    18
100
AcDbLine
 10
208.0412042597162
 20
47.89374715262537
 30
0.0
 11
-785.9587957402838
 21
47.89374715262537
 31
0.0
  0
LINE
  5
4AC
330
1F
100
AcDbEntity
  8
0
  6
Continuous
 62
     7
370
    18
100
AcDbLine
 10
-785.9587957402838
 20
50.19374715262555
 30
0.0
 11
208.0412042597162
 21
50.19374715262555
 31
0.0
  0
LINE
  5
4AD
330
1F
100
AcDbEntity
  8
0
  6
Continuous
 62
     7
370
    18
100
AcDbLine
 10
208.0412042597162
 20
-7.50625284737427
 30
0.0
 11
-785.9587957402838
 21
-7.50625284737427
 31
0.0
  0
LINE
  5
4AE
330
1F
100
AcDbEntity
  8
0
  6
Continuous
 62
     7
370
    18
100
AcDbLine
 10
208.0412042597162
 20
-9.806252847374452
 30
0.0
 11
-785.9587957402838
 21
-9.806252847374452
 31
0.0
  0
INSERT
  5
4AF
330
1F
100
AcDbEntity
  8
2
  6
Continuous
100
AcDbBlockReference
  2
DC_GROUP_W_MR-3812_S_040_4
 10
0.0
 20
0.0
 30
0.0
  0
INSERT
  5
4B0
330
1F
100
AcDbEntity
  8
2
  6
Continuous
100
AcDbBlockReference
  2
DC_GROUP_W_MR-3812_S_040_26
 10
0.0
 20
0.0
 30
0.0
  0
INSERT
  5
4B1
330
1F
100
AcDbEntity
  8
2
  6
Continuous
100
AcDbBlockReference
  2
DC_GROUP_W_MR-3812_S_040_27
 10
0.0
 20
0.0
 30
0.0
  0
INSERT
  5
4B2
330
1F
100
AcDbEntity
  8
2
  6
Continuous
100
AcDbBlockReference
  2
DC_GROUP_W_MR-3812_S_040_28
 10
0.0
 20
0.0
 30
0.0
  0
INSERT
  5
4B3
330
1F
100
AcDbEntity
  8
2
  6
Continuous
100
AcDbBlockReference
  2
DC_GROUP_W_MR-3812_S_040_29
 10
0.0
 20
0.0
 30
0.0
  0
INSERT
  5
4B4
330
1F
100
AcDbEntity
  8
2
  6
Continuous
100
AcDbBlockReference
  2
DC_GROUP_W_MR-3812_S_040_30
 10
0.0
 20
0.0
 30
0.0
  0
INSERT
  5
4B5
330
1F
100
AcDbEntity
  8
2
  6
Continuous
100
AcDbBlockReference
  2
DC_GROUP_W_MR-3812_S_040_31
 10
0.0
 20
0.0
 30
0.0
  0
INSERT
  5
4B6
330
1F
100
AcDbEntity
  8
2
  6
Continuous
100
AcDbBlockReference
  2
DC_GROUP_W_MR-3812_S_040_32
 10
0.0
 20
0.0
 30
0.0
  0
INSERT
  5
4B7
330
1F
100
AcDbEntity
  8
2
  6
Continuous
100
AcDbBlockReference
  2
DC_GROUP_W_MR-3812_S_040_33
 10
0.0
 20
0.0
 30
0.0
  0
INSERT
  5
4B8
330
1F
100
AcDbEntity
  8
2
  6
Continuous
100
AcDbBlockReference
  2
DC_GROUP_W_MR-3812_S_040_34
 10
0.0
 20
0.0
 30
0.0
  0
INSERT
  5
4B9
330
1F
100
AcDbEntity
  8
2
  6
Continuous
100
AcDbBlockReference
  2
DC_GROUP_W_MR-3812_S_040_35
 10
0.0
 20
0.0
 30
0.0
  0
INSERT
  5
4BA
330
1F
100
AcDbEntity
  8
2
  6
Continuous
100
AcDbBlockReference
  2
DC_GROUP_W_MR-3812_S_040_36
 10
0.0
 20
0.0
 30
0.0
  0
INSERT
  5
4BB
330
1F
100
AcDbEntity
  8
2
  6
Continuous
100
AcDbBlockReference
  2
DC_GROUP_W_MR-3812_S_040_37
 10
0.0
 20
0.0
 30
0.0
  0
INSERT
  5
4BC
330
1F
100
AcDbEntity
  8
2
  6
Continuous
100
AcDbBlockReference
  2
DC_GROUP_W_MR-3812_S_040_38
 10
0.0
 20
0.0
 30
0.0
  0
INSERT
  5
4BD
330
1F
100
AcDbEntity
  8
2
  6
Continuous
100
AcDbBlockReference
  2
DC_GROUP_W_MR-3812_S_040_39
 10
0.0
 20
0.0
 30
0.0
  0
INSERT
  5
4BE
330
1F
100
AcDbEntity
  8
2
  6
Continuous
100
AcDbBlockReference
  2
DC_GROUP_W_MR-3812_S_040_40
 10
0.0
 20
0.0
 30
0.0
  0
INSERT
  5
4BF
330
1F
100
AcDbEntity
  8
2
  6
Continuous
100
AcDbBlockReference
  2
DC_GROUP_W_MR-3812_S_040_41
 10
0.0
 20
0.0
 30
0.0
  0
INSERT
  5
4C0
330
1F
100
AcDbEntity
  8
2
  6
Continuous
100
AcDbBlockReference
  2
DC_GROUP_W_MR-3812_S_040_42
 10
0.0
 20
0.0
 30
0.0
  0
INSERT
  5
4C1
330
1F
100
AcDbEntity
  8
2
  6
Continuous
100
AcDbBlockReference
  2
DC_GROUP_W_MR-3812_S_040_43
 10
0.0
 20
0.0
 30
0.0
  0
INSERT
  5
4C2
330
1F
100
AcDbEntity
  8
2
  6
Continuous
100
AcDbBlockReference
  2
DC_GROUP_W_MR-3812_S_040_44
 10
0.0
 20
0.0
 30
0.0
  0
INSERT
  5
4C3
330
1F
100
AcDbEntity
  8
2
  6
Continuous
100
AcDbBlockReference
  2
DC_GROUP_W_MR-3812_S_040_45
 10
0.0
 20
0.0
 30
0.0
  0
INSERT
  5
4C4
330
1F
100
AcDbEntity
  8
2
  6
Continuous
100
AcDbBlockReference
  2
DC_GROUP_W_MR-3812_S_040_46
 10
0.0
 20
0.0
 30
0.0
  0
INSERT
  5
4C5
330
1F
100
AcDbEntity
  8
2
  6
Continuous
100
AcDbBlockReference
  2
DC_GROUP_W_MR-3812_S_040_47
 10
0.0
 20
0.0
 30
0.0
  0
INSERT
  5
4C6
330
1F
100
AcDbEntity
  8
2
  6
Continuous
100
AcDbBlockReference
  2
DC_GROUP_W_MR-3812_S_040_48
 10
0.0
 20
0.0
 30
0.0
  0
INSERT
  5
4C7
330
1F
100
AcDbEntity
  8
2
  6
Continuous
100
AcDbBlockReference
  2
DC_GROUP_W_MR-3812_S_040_49
 10
0.0
 20
0.0
 30
0.0
  0
INSERT
  5
4C8
330
1F
100
AcDbEntity
  8
2
  6
Continuous
100
AcDbBlockReference
  2
DC_GROUP_W_MR-3812_S_040_50
 10
0.0
 20
0.0
 30
0.0
  0
LINE
  5
4C9
330
1F
100
AcDbEntity
  8
0
  6
DASHED2
 62
     4
370
    13
100
AcDbLine
 10
-785.9587957402838
 20
436.6251688631323
 30
0.0
 11
208.0412042597162
 21
436.6251688631323
 31
0.0
  0
LINE
  5
4CA
330
1F
100
AcDbEntity
  8
0
  6
DASHED2
 62
     4
370
    13
100
AcDbLine
 10
-785.9587957402838
 20
317.0251688631323
 30
0.0
 11
208.0412042597162
 21
317.0251688631323
 31
0.0
  0
VIEWPORT
  5
AF
330
1B
100
AcDbEntity
 67
     1
  8
0
100
AcDbViewport
 10
0.0
 20
0.0
 30
0.0
 40
5910.0
 41
4053.842299814336
 68
     1
 69
     1
 12
0.0
 22
0.0
 13
0.0
 23
0.0
 14
0.5
 24
0.5
 15
0.0
 25
0.0
 16
0.0
 26
0.0
 36
1.0
 17
0.0
 27
0.0
 37
0.0
 42
50.0
 43
0.0
 44
0.0
 45
4053.842299814336
 50
0.0
 51
0.0
 72
   100
 90
   557152
  1

281
     0
 71
     1
 74
     0
110
0.0
120
0.0
130
0.0
111
1.0
121
0.0
131
0.0
112
0.0
122
1.0
132
0.0
 79
     0
146
0.0
170
     0
 61
     5
292
     1
282
     1
141
0.0
142
0.0
 63
   256
  0
ENDSEC
  0
SECTION
  2
OBJECTS
  0
DICTIONARY
  5
C
330
0
100
AcDbDictionary
281
     1
  3
ACAD_DETAILVIEWSTYLE
350
4FF
  3
ACAD_GROUP
350
D
  3
ACAD_LAYOUT
350
1A
  3
ACAD_MATERIAL
350
43
  3
ACAD_MLEADERSTYLE
350
4FE
  3
ACAD_MLINESTYLE
350
17
  3
ACAD_PLOTSETTINGS
350
19
  3
ACAD_PLOTSTYLENAME
350
E
  3
ACAD_SCALELIST
350
47
  3
ACAD_SECTIONVIEWSTYLE
350
500
  3
ACAD_TABLESTYLE
350
4FD
  3
ACAD_VISUALSTYLE
350
2A
  3
AcDbVariableDictionary
350
4CB
  0
SUN
  5
69
330
29
100
AcDbSun
 90
        1
290
     0
 63
     7
421
 16777215
 40
1.0
291
     1
 91
  2455826
 92
 54000000
292
     0
 70
     2
 71
   256
280
     1
  0
DICTIONARY
  5
4FF
102
{ACAD_REACTORS
330
C
102
}
330
C
100
AcDbDictionary
281
     1
  0
DICTIONARY
  5
D
102
{ACAD_REACTORS
330
C
102
}
330
C
100
AcDbDictionary
281
     1
  0
DICTIONARY
  5
1A
102
{ACAD_REACTORS
330
C
102
}
330
C
100
AcDbDictionary
281
     1
  3
Layout1
350
1E
  3
Layout2
350
26
  3
Model
350
22
  0
DICTIONARY
  5
43
102
{ACAD_REACTORS
330
C
102
}
330
C
100
AcDbDictionary
281
     1
  3
ByBlock
350
45
  3
ByLayer
350
44
  3
Global
350
46
  0
DICTIONARY
  5
4FE
102
{ACAD_REACTORS
330
C
102
}
330
C
100
AcDbDictionary
281
     1
  0
DICTIONARY
  5
17
102
{ACAD_REACTORS
330
C
102
}
330
C
100
AcDbDictionary
281
     1
  3
Standard
350
18
  0
DICTIONARY
  5
19
102
{ACAD_REACTORS
330
C
102
}
330
C
100
AcDbDictionary
281
     1
  0
ACDBDICTIONARYWDFLT
  5
E
102
{ACAD_REACTORS
330
C
102
}
330
C
100
AcDbDictionary
281
     1
  3
Normal
350
F
100
AcDbDictionaryWithDefault
340
F
  0
DICTIONARY
  5
47
102
{ACAD_REACTORS
330
C
102
}
330
C
100
AcDbDictionary
281
     1
  3
A0
350
48
  3
A1
350
49
  3
A2
350
4A
  3
A3
350
4B
  3
A4
350
4C
  3
A5
350
4D
  3
A6
350
4E
  3
A7
350
4F
  3
A8
350
50
  3
A9
350
51
  3
B0
350
52
  3
B1
350
53
  3
B2
350
54
  3
B3
350
55
  3
B4
350
56
  3
B5
350
57
  3
B6
350
58
  3
B7
350
59
  3
B8
350
5A
  3
B9
350
5B
  3
C0
350
5C
  3
C1
350
5D
  3
C2
350
5E
  3
C3
350
5F
  3
C4
350
60
  3
C5
350
61
  3
C6
350
62
  3
C7
350
63
  3
C8
350
64
  3
C9
350
65
  3
D0
350
66
  3
D1
350
67
  3
D2
350
68
  0
DICTIONARY
  5
500
102
{ACAD_REACTORS
330
C
102
}
330
C
100
AcDbDictionary
281
     1
  0
DICTIONARY
  5
4FD
102
{ACAD_REACTORS
330
C
102
}
330
C
100
AcDbDictionary
281
     1
  0
DICTIONARY
  5
2A
102
{ACAD_REACTORS
330
C
102
}
330
C
100
AcDbDictionary
281
     1
  3
2dWireframe
350
2F
  3
Basic
350
32
  3
Brighten
350
36
  3
ColorChange
350
3A
  3
Conceptual
350
34
  3
Dim
350
35
  3
EdgeColorOff
350
3D
  3
Facepattern
350
39
  3
Flat
350
2B
  3
FlatWithEdges
350
2C
  3
Gouraud
350
2D
  3
GouraudWithEdges
350
2E
  3
Hidden
350
31
  3
JitterOff
350
3B
  3
Linepattern
350
38
  3
OverhangOff
350
3C
  3
Realistic
350
33
  3
Shaded
350
42
  3
Shaded with edges
350
41
  3
Shades of Gray
350
3E
  3
Sketchy
350
3F
  3
Thicken
350
37
  3
Wireframe
350
30
  3
X-Ray
350
40
  0
DICTIONARY
  5
4CB
102
{ACAD_REACTORS
330
C
102
}
330
C
100
AcDbDictionary
281
     1
  3
CANNOSCALE
350
4CC
  0
LAYOUT
  5
1E
102
{ACAD_REACTORS
330
1A
102
}
330
1A
100
AcDbPlotSettings
  1

  2
none_device
  4

  6

 40
0.0
 41
0.0
 42
0.0
 43
0.0
 44
0.0
 45
0.0
 46
0.0
 47
0.0
 48
0.0
 49
0.0
140
0.0
141
0.0
142
1.0
143
1.0
 70
   688
 72
     0
 73
     0
 74
     5
  7

 75
    16
 76
     0
 77
     2
 78
   300
147
1.0
148
0.0
149
0.0
100
AcDbLayout
  1
Layout1
 70
     0
 71
     1
 10
0.0
 20
0.0
 11
12.0
 21
9.0
 12
0.0
 22
0.0
 32
0.0
 14
1.000000000000000E+20
 24
1.000000000000000E+20
 34
1.000000000000000E+20
 15
-1.000000000000000E+20
 25
-1.000000000000000E+20
 35
-1.000000000000000E+20
146
0.0
 13
0.0
 23
0.0
 33
0.0
 16
1.0
 26
0.0
 36
0.0
 17
0.0
 27
1.0
 37
0.0
 76
     0
330
1B
331
AF
  0
LAYOUT
  5
26
102
{ACAD_REACTORS
330
1A
102
}
330
1A
100
AcDbPlotSettings
  1

  2
none_device
  4

  6

 40
0.0
 41
0.0
 42
0.0
 43
0.0
 44
0.0
 45
0.0
 46
0.0
 47
0.0
 48
0.0
 49
0.0
140
0.0
141
0.0
142
1.0
143
1.0
 70
   688
 72
     0
 73
     0
 74
     5
  7

 75
    16
 76
     0
 77
     2
 78
   300
147
1.0
148
0.0
149
0.0
100
AcDbLayout
  1
Layout2
 70
     1
 71
     2
 10
0.0
 20
0.0
 11
0.0
 21
0.0
 12
0.0
 22
0.0
 32
0.0
 14
0.0
 24
0.0
 34
0.0
 15
0.0
 25
0.0
 35
0.0
146
0.0
 13
0.0
 23
0.0
 33
0.0
 16
1.0
 26
0.0
 36
0.0
 17
0.0
 27
1.0
 37
0.0
 76
     0
330
23
  0
LAYOUT
  5
22
102
{ACAD_REACTORS
330
1A
102
}
330
1A
100
AcDbPlotSettings
  1

  2
none_device
  4
Letter_(8.50_x_11.00_Inches)
  6

 40
6.35
 41
6.35
 42
6.35000508
 43
6.35000508
 44
215.9
 45
279.4
 46
0.0
 47
0.0
 48
0.0
 49
0.0
140
0.0
141
0.0
142
1.0
143
1.0
 70
  1712
 72
     0
 73
     0
 74
     0
  7

 75
     0
 76
     0
 77
     2
 78
   300
147
1.0
148
0.0
149
0.0
100
AcDbLayout
  1
Model
 70
     1
 71
     0
 10
-1050.0
 20
-742.5
 11
1050.0
 21
742.5
 12
0.0
 22
0.0
 32
0.0
 14
-2955.0
 24
-2026.921149907168
 34
0.0
 15
2955.0
 25
2026.921149907168
 35
0.0
146
0.0
 13
0.0
 23
0.0
 33
0.0
 16
1.0
 26
0.0
 36
0.0
 17
0.0
 27
1.0
 37
0.0
 76
     0
330
1F
331
29
  0
MATERIAL
  5
45
102
{ACAD_REACTORS
330
43
102
}
330
43
100
AcDbMaterial
  1
ByBlock
 72
     1
 94
      127
  0
MATERIAL
  5
44
102
{ACAD_REACTORS
330
43
102
}
330
43
100
AcDbMaterial
  1
ByLayer
 72
     1
 94
      127
  0
MATERIAL
  5
46
102
{ACAD_REACTORS
330
43
102
}
330
43
100
AcDbMaterial
  1
Global
 72
     1
 94
      127
  0
MLINESTYLE
  5
18
102
{ACAD_REACTORS
330
17
102
}
330
17
100
AcDbMlineStyle
  2
Standard
 70
     0
  3

 62
   256
 51
90.0
 52
90.0
 71
     2
 49
0.5
 62
   256
  6
BYLAYER
 49
-0.5
 62
   256
  6
BYLAYER
  0
ACDBPLACEHOLDER
  5
F
102
{ACAD_REACTORS
330
E
102
}
330
E
  0
SCALE
  5
48
102
{ACAD_REACTORS
330
47
102
}
330
47
100
AcDbScale
 70
     0
300
1:1
140
1.0
141
1.0
290
     1
  0
SCALE
  5
49
102
{ACAD_REACTORS
330
47
102
}
330
47
100
AcDbScale
 70
     0
300
1:2
140
1.0
141
2.0
290
     0
  0
SCALE
  5
4A
102
{ACAD_REACTORS
330
47
102
}
330
47
100
AcDbScale
 70
     0
300
1:4
140
1.0
141
4.0
290
     0
  0
SCALE
  5
4B
102
{ACAD_REACTORS
330
47
102
}
330
47
100
AcDbScale
 70
     0
300
1:5
140
1.0
141
5.0
290
     0
  0
SCALE
  5
4C
102
{ACAD_REACTORS
330
47
102
}
330
47
100
AcDbScale
 70
     0
300
1:8
140
1.0
141
8.0
290
     0
  0
SCALE
  5
4D
102
{ACAD_REACTORS
330
47
102
}
330
47
100
AcDbScale
 70
     0
300
1:10
140
1.0
141
10.0
290
     0
  0
SCALE
  5
4E
102
{ACAD_REACTORS
330
47
102
}
330
47
100
AcDbScale
 70
     0
300
1:16
140
1.0
141
16.0
290
     0
  0
SCALE
  5
4F
102
{ACAD_REACTORS
330
47
102
}
330
47
100
AcDbScale
 70
     0
300
1:20
140
1.0
141
20.0
290
     0
  0
SCALE
  5
50
102
{ACAD_REACTORS
330
47
102
}
330
47
100
AcDbScale
 70
     0
300
1:30
140
1.0
141
30.0
290
     0
  0
SCALE
  5
51
102
{ACAD_REACTORS
330
47
102
}
330
47
100
AcDbScale
 70
     0
300
1:40
140
1.0
141
40.0
290
     0
  0
SCALE
  5
52
102
{ACAD_REACTORS
330
47
102
}
330
47
100
AcDbScale
 70
     0
300
1:50
140
1.0
141
50.0
290
     0
  0
SCALE
  5
53
102
{ACAD_REACTORS
330
47
102
}
330
47
100
AcDbScale
 70
     0
300
1:100
140
1.0
141
100.0
290
     0
  0
SCALE
  5
54
102
{ACAD_REACTORS
330
47
102
}
330
47
100
AcDbScale
 70
     0
300
2:1
140
2.0
141
1.0
290
     0
  0
SCALE
  5
55
102
{ACAD_REACTORS
330
47
102
}
330
47
100
AcDbScale
 70
     0
300
4:1
140
4.0
141
1.0
290
     0
  0
SCALE
  5
56
102
{ACAD_REACTORS
330
47
102
}
330
47
100
AcDbScale
 70
     0
300
8:1
140
8.0
141
1.0
290
     0
  0
SCALE
  5
57
102
{ACAD_REACTORS
330
47
102
}
330
47
100
AcDbScale
 70
     0
300
10:1
140
10.0
141
1.0
290
     0
  0
SCALE
  5
58
102
{ACAD_REACTORS
330
47
102
}
330
47
100
AcDbScale
 70
     0
300
100:1
140
100.0
141
1.0
290
     0
  0
SCALE
  5
59
102
{ACAD_REACTORS
330
47
102
}
330
47
100
AcDbScale
 70
     0
300
1/128" = 1'-0"
140
0.0078125
141
12.0
290
     0
  0
SCALE
  5
5A
102
{ACAD_REACTORS
330
47
102
}
330
47
100
AcDbScale
 70
     0
300
1/64" = 1'-0"
140
0.015625
141
12.0
290
     0
  0
SCALE
  5
5B
102
{ACAD_REACTORS
330
47
102
}
330
47
100
AcDbScale
 70
     0
300
1/32" = 1'-0"
140
0.03125
141
12.0
290
     0
  0
SCALE
  5
5C
102
{ACAD_REACTORS
330
47
102
}
330
47
100
AcDbScale
 70
     0
300
1/16" = 1'-0"
140
0.0625
141
12.0
290
     0
  0
SCALE
  5
5D
102
{ACAD_REACTORS
330
47
102
}
330
47
100
AcDbScale
 70
     0
300
3/32" = 1'-0"
140
0.09375
141
12.0
290
     0
  0
SCALE
  5
5E
102
{ACAD_REACTORS
330
47
102
}
330
47
100
AcDbScale
 70
     0
300
1/8" = 1'-0"
140
0.125
141
12.0
290
     0
  0
SCALE
  5
5F
102
{ACAD_REACTORS
330
47
102
}
330
47
100
AcDbScale
 70
     0
300
3/16" = 1'-0"
140
0.1875
141
12.0
290
     0
  0
SCALE
  5
60
102
{ACAD_REACTORS
330
47
102
}
330
47
100
AcDbScale
 70
     0
300
1/4" = 1'-0"
140
0.25
141
12.0
290
     0
  0
SCALE
  5
61
102
{ACAD_REACTORS
330
47
102
}
330
47
100
AcDbScale
 70
     0
300
3/8" = 1'-0"
140
0.375
141
12.0
290
     0
  0
SCALE
  5
62
102
{ACAD_REACTORS
330
47
102
}
330
47
100
AcDbScale
 70
     0
300
1/2" = 1'-0"
140
0.5
141
12.0
290
     0
  0
SCALE
  5
63
102
{ACAD_REACTORS
330
47
102
}
330
47
100
AcDbScale
 70
     0
300
3/4" = 1'-0"
140
0.75
141
12.0
290
     0
  0
SCALE
  5
64
102
{ACAD_REACTORS
330
47
102
}
330
47
100
AcDbScale
 70
     0
300
1" = 1'-0"
140
1.0
141
12.0
290
     0
  0
SCALE
  5
65
102
{ACAD_REACTORS
330
47
102
}
330
47
100
AcDbScale
 70
     0
300
1-1/2" = 1'-0"
140
1.5
141
12.0
290
     0
  0
SCALE
  5
66
102
{ACAD_REACTORS
330
47
102
}
330
47
100
AcDbScale
 70
     0
300
3" = 1'-0"
140
3.0
141
12.0
290
     0
  0
SCALE
  5
67
102
{ACAD_REACTORS
330
47
102
}
330
47
100
AcDbScale
 70
     0
300
6" = 1'-0"
140
6.0
141
12.0
290
     0
  0
SCALE
  5
68
102
{ACAD_REACTORS
330
47
102
}
330
47
100
AcDbScale
 70
     0
300
1'-0" = 1'-0"
140
12.0
141
12.0
290
     0
  0
VISUALSTYLE
  5
2F
102
{ACAD_REACTORS
330
2A
102
}
102
{ACAD_XDICTIONARY
360
4D5
102
}
330
2A
100
AcDbVisualStyle
  2
2dWireframe
 70
     4
177
     2
291
     0
 71
     0
176
     1
 72
     2
176
     1
 73
     0
176
     1
 90
        0
176
     1
 40
0.6
176
     1
 41
30.0
176
     1
 62
     5
 63
     7
421
 16777215
176
     1
 74
     1
176
     1
 91
        4
176
     1
 64
     7
176
     1
 65
   257
176
     1
 75
     1
176
     1
175
     1
176
     1
 42
1.0
176
     1
 92
        0
176
     1
 66
   257
176
     1
 43
1.0
176
     1
 76
     1
176
     1
 77
     6
176
     1
 78
     2
176
     1
 67
     7
176
     1
 79
     5
176
     1
170
     0
176
     1
171
     0
176
     1
290
     0
176
     1
 93
        1
176
     1
 44
0.0
176
     1
173
     0
176
     1
  0
VISUALSTYLE
  5
32
102
{ACAD_REACTORS
330
2A
102
}
102
{ACAD_XDICTIONARY
360
4DB
102
}
330
2A
100
AcDbVisualStyle
  2
Basic
 70
     7
177
     2
291
     1
 71
     1
176
     1
 72
     0
176
     1
 73
     1
176
     1
 90
        0
176
     1
 40
0.6
176
     1
 41
30.0
176
     1
 62
     5
 63
     7
421
 16777215
176
     1
 74
     0
176
     1
 91
        4
176
     1
 64
     7
176
     1
 65
   257
176
     1
 75
     1
176
     1
175
     1
176
     1
 42
1.0
176
     1
 92
        8
176
     1
 66
     7
176
     1
 43
1.0
176
     1
 76
     1
176
     1
 77
     6
176
     1
 78
     2
176
     1
 67
     7
176
     1
 79
     5
176
     1
170
     0
176
     1
171
     0
176
     1
290
     0
176
     1
 93
        1
176
     1
 44
0.0
176
     1
173
     0
176
     1
  0
VISUALSTYLE
  5
36
102
{ACAD_REACTORS
330
2A
102
}
102
{ACAD_XDICTIONARY
360
4E3
102
}
330
2A
100
AcDbVisualStyle
  2
Brighten
 70
    12
177
     2
291
     1
 71
     2
176
     1
 72
     2
176
     1
 73
     0
176
     1
 90
        0
176
     1
 40
0.6
176
     1
 41
30.0
176
     1
 62
     5
 63
     7
421
 16777215
176
     1
 74
     1
176
     1
 91
        4
176
     1
 64
     7
176
     1
 65
   257
176
     1
 75
     1
176
     1
175
     1
176
     1
 42
1.0
176
     1
 92
        8
176
     1
 66
     7
176
     1
 43
1.0
176
     1
 76
     1
176
     1
 77
     6
176
     1
 78
     2
176
     1
 67
     7
176
     1
 79
     5
176
     1
170
     0
176
     1
171
     0
176
     1
290
     0
176
     1
 93
        1
176
     1
 44
50.0
176
     1
173
     0
176
     1
  0
VISUALSTYLE
  5
3A
102
{ACAD_REACTORS
330
2A
102
}
102
{ACAD_XDICTIONARY
360
4EB
102
}
330
2A
100
AcDbVisualStyle
  2
ColorChange
 70
    16
177
     2
291
     1
 71
     2
176
     1
 72
     2
176
     1
 73
     3
176
     1
 90
        0
176
     1
 40
0.6
176
     1
 41
30.0
176
     1
 62
     5
 63
     8
421
  8421504
176
     1
 74
     1
176
     1
 91
        4
176
     1
 64
     7
176
     1
 65
   257
176
     1
 75
     1
176
     1
175
     1
176
     1
 42
1.0
176
     1
 92
        8
176
     1
 66
     8
424
  8421504
176
     1
 43
1.0
176
     1
 76
     1
176
     1
 77
     6
176
     1
 78
     2
176
     1
 67
     7
176
     1
 79
     5
176
     1
170
     0
176
     1
171
     0
176
     1
290
     0
176
     1
 93
        1
176
     1
 44
0.0
176
     1
173
     0
176
     1
  0
VISUALSTYLE
  5
34
102
{ACAD_REACTORS
330
2A
102
}
102
{ACAD_XDICTIONARY
360
4DF
102
}
330
2A
100
AcDbVisualStyle
  2
Conceptual
 70
     9
177
     2
291
     0
 71
     3
176
     1
 72
     2
176
     1
 73
     0
176
     1
 90
        0
176
     1
 40
0.6
176
     1
 41
30.0
176
     1
 62
     5
 63
     7
421
 16777215
176
     1
 74
     2
176
     1
 91
        2
176
     1
 64
     7
176
     1
 65
   257
176
     1
 75
     1
176
     1
175
     1
176
     1
 42
179.0
176
     1
 92
        8
176
     1
 66
     7
176
     1
 43
1.0
176
     1
 76
     1
176
     1
 77
     6
176
     1
 78
     2
176
     1
 67
     7
176
     1
 79
     3
176
     1
170
     0
176
     1
171
     0
176
     1
290
     0
176
     1
 93
        1
176
     1
 44
0.0
176
     1
173
     0
176
     1
  0
VISUALSTYLE
  5
35
102
{ACAD_REACTORS
330
2A
102
}
102
{ACAD_XDICTIONARY
360
4E1
102
}
330
2A
100
AcDbVisualStyle
  2
Dim
 70
    11
177
     2
291
     1
 71
     2
176
     1
 72
     2
176
     1
 73
     0
176
     1
 90
        0
176
     1
 40
0.6
176
     1
 41
30.0
176
     1
 62
     5
 63
     7
421
 16777215
176
     1
 74
     1
176
     1
 91
        4
176
     1
 64
     7
176
     1
 65
   257
176
     1
 75
     1
176
     1
175
     1
176
     1
 42
1.0
176
     1
 92
        8
176
     1
 66
     7
176
     1
 43
1.0
176
     1
 76
     1
176
     1
 77
     6
176
     1
 78
     2
176
     1
 67
     7
176
     1
 79
     5
176
     1
170
     0
176
     1
171
     0
176
     1
290
     0
176
     1
 93
        1
176
     1
 44
-50.0
176
     1
173
     0
176
     1
  0
VISUALSTYLE
  5
3D
102
{ACAD_REACTORS
330
2A
102
}
102
{ACAD_XDICTIONARY
360
4F1
102
}
330
2A
100
AcDbVisualStyle
  2
EdgeColorOff
 70
    22
177
     2
291
     1
 71
     2
176
     0
 72
     2
176
     0
 73
     0
176
     0
 90
        0
176
     0
 40
0.6
176
     0
 41
30.0
176
     0
 62
     5
 63
     7
421
 16777215
176
     0
 74
     1
176
     0
 91
        4
176
     0
 64
     7
176
     0
 65
   257
176
     0
 75
     1
176
     0
175
     1
176
     0
 42
1.0
176
     0
 92
        8
176
     2
 66
     7
176
     0
 43
1.0
176
     0
 76
     1
176
     0
 77
     6
176
     0
 78
     2
176
     0
 67
     7
176
     0
 79
     5
176
     0
170
     0
176
     0
171
     0
176
     0
290
     0
176
     0
 93
        1
176
     0
 44
0.0
176
     0
173
     0
176
     0
  0
VISUALSTYLE
  5
39
102
{ACAD_REACTORS
330
2A
102
}
102
{ACAD_XDICTIONARY
360
4E9
102
}
330
2A
100
AcDbVisualStyle
  2
Facepattern
 70
    15
177
     2
291
     1
 71
     2
176
     1
 72
     2
176
     1
 73
     0
176
     1
 90
        0
176
     1
 40
0.6
176
     1
 41
30.0
176
     1
 62
     5
 63
     7
421
 16777215
176
     1
 74
     1
176
     1
 91
        4
176
     1
 64
     7
176
     1
 65
   257
176
     1
 75
     1
176
     1
175
     1
176
     1
 42
1.0
176
     1
 92
        8
176
     1
 66
     7
176
     1
 43
1.0
176
     1
 76
     1
176
     1
 77
     6
176
     1
 78
     2
176
     1
 67
     7
176
     1
 79
     5
176
     1
170
     0
176
     1
171
     0
176
     1
290
     0
176
     1
 93
        1
176
     1
 44
0.0
176
     1
173
     0
176
     1
  0
VISUALSTYLE
  5
2B
102
{ACAD_REACTORS
330
2A
102
}
102
{ACAD_XDICTIONARY
360
4CD
102
}
330
2A
100
AcDbVisualStyle
  2
Flat
 70
     0
177
     2
291
     1
 71
     2
176
     1
 72
     1
176
     1
 73
     1
176
     1
 90
        2
176
     1
 40
0.6
176
     1
 41
30.0
176
     1
 62
     5
 63
     7
421
 16777215
176
     1
 74
     0
176
     1
 91
        0
176
     1
 64
     7
176
     1
 65
   257
176
     1
 75
     1
176
     1
175
     1
176
     1
 42
1.0
176
     1
 92
        8
176
     1
 66
     7
176
     1
 43
1.0
176
     1
 76
     1
176
     1
 77
     6
176
     1
 78
     2
176
     1
 67
     7
176
     1
 79
     5
176
     1
170
     0
176
     1
171
     0
176
     1
290
     0
176
     1
 93
       13
176
     1
 44
0.0
176
     1
173
     0
176
     1
  0
VISUALSTYLE
  5
2C
102
{ACAD_REACTORS
330
2A
102
}
102
{ACAD_XDICTIONARY
360
4CF
102
}
330
2A
100
AcDbVisualStyle
  2
FlatWithEdges
 70
     1
177
     2
291
     1
 71
     2
176
     1
 72
     1
176
     1
 73
     1
176
     1
 90
        2
176
     1
 40
0.6
176
     1
 41
30.0
176
     1
 62
     5
 63
     7
421
 16777215
176
     1
 74
     1
176
     1
 91
        0
176
     1
 64
     7
176
     1
 65
   257
176
     1
 75
     1
176
     1
175
     1
176
     1
 42
1.0
176
     1
 92
        0
176
     1
 66
   257
176
     1
 43
1.0
176
     1
 76
     1
176
     1
 77
     6
176
     1
 78
     2
176
     1
 67
     7
176
     1
 79
     5
176
     1
170
     0
176
     1
171
     0
176
     1
290
     0
176
     1
 93
       13
176
     1
 44
0.0
176
     1
173
     0
176
     1
  0
VISUALSTYLE
  5
2D
102
{ACAD_REACTORS
330
2A
102
}
102
{ACAD_XDICTIONARY
360
4D1
102
}
330
2A
100
AcDbVisualStyle
  2
Gouraud
 70
     2
177
     2
291
     1
 71
     2
176
     1
 72
     2
176
     1
 73
     1
176
     1
 90
        2
176
     1
 40
0.6
176
     1
 41
30.0
176
     1
 62
     5
 63
     7
421
 16777215
176
     1
 74
     0
176
     1
 91
        0
176
     1
 64
     7
176
     1
 65
   257
176
     1
 75
     1
176
     1
175
     1
176
     1
 42
1.0
176
     1
 92
        0
176
     1
 66
     7
176
     1
 43
1.0
176
     1
 76
     1
176
     1
 77
     6
176
     1
 78
     2
176
     1
 67
     7
176
     1
 79
     5
176
     1
170
     0
176
     1
171
     0
176
     1
290
     0
176
     1
 93
       13
176
     1
 44
0.0
176
     1
173
     0
176
     1
  0
VISUALSTYLE
  5
2E
102
{ACAD_REACTORS
330
2A
102
}
102
{ACAD_XDICTIONARY
360
4D3
102
}
330
2A
100
AcDbVisualStyle
  2
GouraudWithEdges
 70
     3
177
     2
291
     1
 71
     2
176
     1
 72
     2
176
     1
 73
     1
176
     1
 90
        2
176
     1
 40
0.6
176
     1
 41
30.0
176
     1
 62
     5
 63
     7
421
 16777215
176
     1
 74
     1
176
     1
 91
        0
176
     1
 64
     7
176
     1
 65
   257
176
     1
 75
     1
176
     1
175
     1
176
     1
 42
1.0
176
     1
 92
        0
176
     1
 66
   257
176
     1
 43
1.0
176
     1
 76
     1
176
     1
 77
     6
176
     1
 78
     2
176
     1
 67
     7
176
     1
 79
     5
176
     1
170
     0
176
     1
171
     0
176
     1
290
     0
176
     1
 93
       13
176
     1
 44
0.0
176
     1
173
     0
176
     1
  0
VISUALSTYLE
  5
31
102
{ACAD_REACTORS
330
2A
102
}
102
{ACAD_XDICTIONARY
360
4D9
102
}
330
2A
100
AcDbVisualStyle
  2
Hidden
 70
     6
177
     2
291
     0
 71
     1
176
     1
 72
     2
176
     1
 73
     2
176
     1
 90
        0
176
     1
 40
0.6
176
     1
 41
30.0
176
     1
 62
     5
 63
     7
421
 16777215
176
     1
 74
     2
176
     1
 91
        2
176
     1
 64
     7
176
     1
 65
   257
176
     1
 75
     2
176
     1
175
     1
176
     1
 42
40.0
176
     1
 92
        0
176
     1
 66
   257
176
     1
 43
1.0
176
     1
 76
     1
176
     1
 77
     6
176
     1
 78
     2
176
     1
 67
     7
176
     1
 79
     3
176
     1
170
     0
176
     1
171
     0
176
     1
290
     0
176
     1
 93
        1
176
     1
 44
0.0
176
     1
173
     0
176
     1
  0
VISUALSTYLE
  5
3B
102
{ACAD_REACTORS
330
2A
102
}
102
{ACAD_XDICTIONARY
360
4ED
102
}
330
2A
100
AcDbVisualStyle
  2
JitterOff
 70
    20
177
     2
291
     1
 71
     2
176
     0
 72
     2
176
     0
 73
     0
176
     0
 90
        0
176
     0
 40
0.6
176
     0
 41
30.0
176
     0
 62
     5
 63
     7
421
 16777215
176
     0
 74
     1
176
     0
 91
        4
176
     0
 64
     7
176
     0
 65
   257
176
     0
 75
     1
176
     0
175
     1
176
     0
 42
1.0
176
     0
 92
       10
176
     2
 66
     7
176
     0
 43
1.0
176
     0
 76
     1
176
     0
 77
     6
176
     0
 78
     2
176
     0
 67
     7
176
     0
 79
     5
176
     0
170
     0
176
     0
171
     0
176
     0
290
     0
176
     0
 93
        1
176
     0
 44
0.0
176
     0
173
     0
176
     0
  0
VISUALSTYLE
  5
38
102
{ACAD_REACTORS
330
2A
102
}
102
{ACAD_XDICTIONARY
360
4E7
102
}
330
2A
100
AcDbVisualStyle
  2
Linepattern
 70
    14
177
     2
291
     1
 71
     2
176
     1
 72
     2
176
     1
 73
     0
176
     1
 90
        0
176
     1
 40
0.6
176
     1
 41
30.0
176
     1
 62
     5
 63
     7
421
 16777215
176
     1
 74
     1
176
     1
 91
        4
176
     1
 64
     7
176
     1
 65
   257
176
     1
 75
     7
176
     1
175
     7
176
     1
 42
1.0
176
     1
 92
        8
176
     1
 66
     7
176
     1
 43
1.0
176
     1
 76
     1
176
     1
 77
     6
176
     1
 78
     2
176
     1
 67
     7
176
     1
 79
     5
176
     1
170
     0
176
     1
171
     0
176
     1
290
     0
176
     1
 93
        1
176
     1
 44
0.0
176
     1
173
     0
176
     1
  0
VISUALSTYLE
  5
3C
102
{ACAD_REACTORS
330
2A
102
}
102
{ACAD_XDICTIONARY
360
4EF
102
}
330
2A
100
AcDbVisualStyle
  2
OverhangOff
 70
    21
177
     2
291
     1
 71
     2
176
     0
 72
     2
176
     0
 73
     0
176
     0
 90
        0
176
     0
 40
0.6
176
     0
 41
30.0
176
     0
 62
     5
 63
     7
421
 16777215
176
     0
 74
     1
176
     0
 91
        4
176
     0
 64
     7
176
     0
 65
   257
176
     0
 75
     1
176
     0
175
     1
176
     0
 42
1.0
176
     0
 92
        9
176
     2
 66
     7
176
     0
 43
1.0
176
     0
 76
     1
176
     0
 77
     6
176
     0
 78
     2
176
     0
 67
     7
176
     0
 79
     5
176
     0
170
     0
176
     0
171
     0
176
     0
290
     0
176
     0
 93
        1
176
     0
 44
0.0
176
     0
173
     0
176
     0
  0
VISUALSTYLE
  5
33
102
{ACAD_REACTORS
330
2A
102
}
102
{ACAD_XDICTIONARY
360
4DD
102
}
330
2A
100
AcDbVisualStyle
  2
Realistic
 70
     8
177
     2
291
     0
 71
     2
176
     1
 72
     3
176
     1
 73
     0
176
     1
 90
        2
176
     1
 40
0.6
176
     1
 41
30.0
176
     1
 62
     5
 63
     7
421
 16777215
176
     1
 74
     0
176
     1
 91
        0
176
     1
 64
     7
176
     1
 65
   257
176
     1
 75
     1
176
     1
175
     1
176
     1
 42
1.0
176
     1
 92
        8
176
     1
 66
   257
176
     1
 43
1.0
176
     1
 76
     1
176
     1
 77
     6
176
     1
 78
     2
176
     1
 67
     7
176
     1
 79
     3
176
     1
170
     0
176
     1
171
     0
176
     1
290
     0
176
     1
 93
       13
176
     1
 44
0.0
176
     1
173
     0
176
     1
  0
VISUALSTYLE
  5
42
102
{ACAD_REACTORS
330
2A
102
}
102
{ACAD_XDICTIONARY
360
4FB
102
}
330
2A
100
AcDbVisualStyle
  2
Shaded
 70
    27
177
     2
291
     0
 71
     2
176
     1
 72
     2
176
     1
 73
     1
176
     1
 90
        2
176
     1
 40
0.6
176
     1
 41
30.0
176
     1
 62
     5
 63
     7
421
 16777215
176
     1
 74
     0
176
     1
 91
        4
176
     1
 64
     7
176
     1
 65
   257
176
     1
 75
     1
176
     1
175
     1
176
     1
 42
1.0
176
     1
 92
        8
176
     1
 66
   257
176
     1
 43
1.0
176
     1
 76
     1
176
     1
 77
     6
176
     1
 78
     2
176
     1
 67
     8
425
  7895160
176
     1
 79
     3
176
     1
170
     0
176
     1
171
     0
176
     1
290
     0
176
     1
 93
        5
176
     1
 44
0.0
176
     1
173
     0
176
     1
  0
VISUALSTYLE
  5
41
102
{ACAD_REACTORS
330
2A
102
}
102
{ACAD_XDICTIONARY
360
4F9
102
}
330
2A
100
AcDbVisualStyle
  2
Shaded with edges
 70
    26
177
     2
291
     0
 71
     2
176
     1
 72
     2
176
     1
 73
     1
176
     1
 90
        2
176
     1
 40
0.6
176
     1
 41
30.0
176
     1
 62
     5
 63
     7
421
 16777215
176
     1
 74
     1
176
     1
 91
       10
176
     1
 64
     7
176
     1
 65
   257
176
     1
 75
     2
176
     1
175
     1
176
     1
 42
1.0
176
     1
 92
        8
176
     1
 66
   257
176
     1
 43
1.0
176
     1
 76
     1
176
     1
 77
     6
176
     1
 78
     2
176
     1
 67
     7
176
     1
 79
     3
176
     1
170
     0
176
     1
171
     0
176
     1
290
     0
176
     1
 93
        5
176
     1
 44
0.0
176
     1
173
     0
176
     1
  0
VISUALSTYLE
  5
3E
102
{ACAD_REACTORS
330
2A
102
}
102
{ACAD_XDICTIONARY
360
4F3
102
}
330
2A
100
AcDbVisualStyle
  2
Shades of Gray
 70
    23
177
     2
291
     0
 71
     2
176
     1
 72
     2
176
     1
 73
     3
176
     1
 90
        0
176
     1
 40
0.6
176
     1
 41
30.0
176
     1
 62
     5
 63
     7
421
 16777215
176
     1
 74
     2
176
     1
 91
        2
176
     1
 64
     7
176
     1
 65
     7
176
     1
 75
     1
176
     1
175
     1
176
     1
 42
40.0
176
     1
 92
        8
176
     1
 66
     7
176
     1
 43
1.0
176
     1
 76
     1
176
     1
 77
     6
176
     1
 78
     2
176
     1
 67
     7
176
     1
 79
     3
176
     1
170
     0
176
     1
171
     0
176
     1
290
     0
176
     1
 93
        1
176
     1
 44
0.0
176
     1
173
     0
176
     1
  0
VISUALSTYLE
  5
3F
102
{ACAD_REACTORS
330
2A
102
}
102
{ACAD_XDICTIONARY
360
4F5
102
}
330
2A
100
AcDbVisualStyle
  2
Sketchy
 70
    24
177
     2
291
     0
 71
     1
176
     1
 72
     2
176
     1
 73
     2
176
     1
 90
        0
176
     1
 40
0.6
176
     1
 41
30.0
176
     1
 62
     5
 63
     7
421
 16777215
176
     1
 74
     2
176
     1
 91
        2
176
     1
 64
     7
176
     1
 65
     7
176
     1
 75
     1
176
     1
175
     1
176
     1
 42
40.0
176
     1
 92
       11
176
     1
 66
     7
176
     1
 43
1.0
176
     1
 76
     1
176
     1
 77
     6
176
     1
 78
     2
176
     1
 67
     7
176
     1
 79
     6
176
     1
170
     0
176
     1
171
     0
176
     1
290
     0
176
     1
 93
        1
176
     1
 44
0.0
176
     1
173
     0
176
     1
  0
VISUALSTYLE
  5
37
102
{ACAD_REACTORS
330
2A
102
}
102
{ACAD_XDICTIONARY
360
4E5
102
}
330
2A
100
AcDbVisualStyle
  2
Thicken
 70
    13
177
     2
291
     1
 71
     2
176
     1
 72
     2
176
     1
 73
     0
176
     1
 90
        0
176
     1
 40
0.6
176
     1
 41
30.0
176
     1
 62
     5
 63
     7
421
 16777215
176
     1
 74
     1
176
     1
 91
        4
176
     1
 64
     7
176
     1
 65
   257
176
     1
 75
     1
176
     1
175
     1
176
     1
 42
1.0
176
     1
 92
       12
176
     1
 66
     7
176
     1
 43
1.0
176
     1
 76
     1
176
     1
 77
     6
176
     1
 78
     2
176
     1
 67
     7
176
     1
 79
     5
176
     1
170
     0
176
     1
171
     0
176
     1
290
     0
176
     1
 93
        1
176
     1
 44
0.0
176
     1
173
     0
176
     1
  0
VISUALSTYLE
  5
30
102
{ACAD_REACTORS
330
2A
102
}
102
{ACAD_XDICTIONARY
360
4D7
102
}
330
2A
100
AcDbVisualStyle
  2
Wireframe
 70
     5
177
     2
291
     0
 71
     0
176
     1
 72
     2
176
     1
 73
     0
176
     1
 90
        0
176
     1
 40
0.6
176
     1
 41
30.0
176
     1
 62
     5
 63
     7
421
 16777215
176
     1
 74
     1
176
     1
 91
        4
176
     1
 64
     7
176
     1
 65
   257
176
     1
 75
     1
176
     1
175
     1
176
     1
 42
1.0
176
     1
 92
        0
176
     1
 66
   257
176
     1
 43
1.0
176
     1
 76
     1
176
     1
 77
     6
176
     1
 78
     2
176
     1
 67
     7
176
     1
 79
     3
176
     1
170
     0
176
     1
171
     0
176
     1
290
     0
176
     1
 93
        1
176
     1
 44
0.0
176
     1
173
     0
176
     1
  0
VISUALSTYLE
  5
40
102
{ACAD_REACTORS
330
2A
102
}
102
{ACAD_XDICTIONARY
360
4F7
102
}
330
2A
100
AcDbVisualStyle
  2
X-Ray
 70
    25
177
     2
291
     0
 71
     2
176
     1
 72
     2
176
     1
 73
     1
176
     1
 90
        1
176
     1
 40
0.5
176
     1
 41
30.0
176
     1
 62
     5
 63
     7
421
 16777215
176
     1
 74
     1
176
     1
 91
        0
176
     1
 64
     7
176
     1
 65
   257
176
     1
 75
     1
176
     1
175
     1
176
     1
 42
1.0
176
     1
 92
        8
176
     1
 66
     7
176
     1
 43
1.0
176
     1
 76
     1
176
     1
 77
     6
176
     1
 78
     2
176
     1
 67
     7
176
     1
 79
     3
176
     1
170
     0
176
     1
171
     0
176
     1
290
     0
176
     1
 93
       13
176
     1
 44
0.0
176
     1
173
     0
176
     1
  0
DICTIONARYVAR
  5
4CC
102
{ACAD_REACTORS
330
4CB
102
}
330
4CB
100
DictionaryVariables
280
     0
  1
1:1
  0
DICTIONARY
  5
4D5
330
2F
100
AcDbDictionary
280
     1
281
     1
  3
ACAD_XREC_ROUNDTRIP
360
4D6
  0
DICTIONARY
  5
4DB
330
32
100
AcDbDictionary
280
     1
281
     1
  3
ACAD_XREC_ROUNDTRIP
360
4DC
  0
DICTIONARY
  5
4E3
330
36
100
AcDbDictionary
280
     1
281
     1
  3
ACAD_XREC_ROUNDTRIP
360
4E4
  0
DICTIONARY
  5
4EB
330
3A
100
AcDbDictionary
280
     1
281
     1
  3
ACAD_XREC_ROUNDTRIP
360
4EC
  0
DICTIONARY
  5
4DF
330
34
100
AcDbDictionary
280
     1
281
     1
  3
ACAD_XREC_ROUNDTRIP
360
4E0
  0
DICTIONARY
  5
4E1
330
35
100
AcDbDictionary
280
     1
281
     1
  3
ACAD_XREC_ROUNDTRIP
360
4E2
  0
DICTIONARY
  5
4F1
330
3D
100
AcDbDictionary
280
     1
281
     1
  3
ACAD_XREC_ROUNDTRIP
360
4F2
  0
DICTIONARY
  5
4E9
330
39
100
AcDbDictionary
280
     1
281
     1
  3
ACAD_XREC_ROUNDTRIP
360
4EA
  0
DICTIONARY
  5
4CD
330
2B
100
AcDbDictionary
280
     1
281
     1
  3
ACAD_XREC_ROUNDTRIP
360
4CE
  0
DICTIONARY
  5
4CF
330
2C
100
AcDbDictionary
280
     1
281
     1
  3
ACAD_XREC_ROUNDTRIP
360
4D0
  0
DICTIONARY
  5
4D1
330
2D
100
AcDbDictionary
280
     1
281
     1
  3
ACAD_XREC_ROUNDTRIP
360
4D2
  0
DICTIONARY
  5
4D3
330
2E
100
AcDbDictionary
280
     1
281
     1
  3
ACAD_XREC_ROUNDTRIP
360
4D4
  0
DICTIONARY
  5
4D9
330
31
100
AcDbDictionary
280
     1
281
     1
  3
ACAD_XREC_ROUNDTRIP
360
4DA
  0
DICTIONARY
  5
4ED
330
3B
100
AcDbDictionary
280
     1
281
     1
  3
ACAD_XREC_ROUNDTRIP
360
4EE
  0
DICTIONARY
  5
4E7
330
38
100
AcDbDictionary
280
     1
281
     1
  3
ACAD_XREC_ROUNDTRIP
360
4E8
  0
DICTIONARY
  5
4EF
330
3C
100
AcDbDictionary
280
     1
281
     1
  3
ACAD_XREC_ROUNDTRIP
360
4F0
  0
DICTIONARY
  5
4DD
330
33
100
AcDbDictionary
280
     1
281
     1
  3
ACAD_XREC_ROUNDTRIP
360
4DE
  0
DICTIONARY
  5
4FB
330
42
100
AcDbDictionary
280
     1
281
     1
  3
ACAD_XREC_ROUNDTRIP
360
4FC
  0
DICTIONARY
  5
4F9
330
41
100
AcDbDictionary
280
     1
281
     1
  3
ACAD_XREC_ROUNDTRIP
360
4FA
  0
DICTIONARY
  5
4F3
330
3E
100
AcDbDictionary
280
     1
281
     1
  3
ACAD_XREC_ROUNDTRIP
360
4F4
  0
DICTIONARY
  5
4F5
330
3F
100
AcDbDictionary
280
     1
281
     1
  3
ACAD_XREC_ROUNDTRIP
360
4F6
  0
DICTIONARY
  5
4E5
330
37
100
AcDbDictionary
280
     1
281
     1
  3
ACAD_XREC_ROUNDTRIP
360
4E6
  0
DICTIONARY
  5
4D7
330
30
100
AcDbDictionary
280
     1
281
     1
  3
ACAD_XREC_ROUNDTRIP
360
4D8
  0
DICTIONARY
  5
4F7
330
40
100
AcDbDictionary
280
     1
281
     1
  3
ACAD_XREC_ROUNDTRIP
360
4F8
  0
XRECORD
  5
4D6
102
{ACAD_REACTORS
330
4D5
102
}
330
4D5
100
AcDbXrecord
280
     1
102
RTVSPost2010Prop28
280
     1
102
RTVSPost2010PropOp28
 70
     1
102
RTVSPost2010Prop29
280
     1
102
RTVSPost2010PropOp29
 70
     1
102
RTVSPost2010Prop30
280
     0
102
RTVSPost2010PropOp30
 70
     1
102
RTVSPost2010Prop31
280
     0
102
RTVSPost2010PropOp31
 70
     1
102
RTVSPost2010Prop32
280
     0
102
RTVSPost2010PropOp32
 70
     1
102
RTVSPost2010Prop33
280
     0
102
RTVSPost2010PropOp33
 70
     1
102
RTVSPost2010Prop34
280
     0
102
RTVSPost2010PropOp34
 70
     1
102
RTVSPost2010Prop35
280
     0
102
RTVSPost2010PropOp35
 70
     1
102
RTVSPost2010Prop36
280
     0
102
RTVSPost2010PropOp36
 70
     1
102
RTVSPost2010Prop37
 90
       50
102
RTVSPost2010PropOp37
 70
     1
102
RTVSPost2010Prop38
140
0.0
102
RTVSPost2010PropOp38
 70
     1
102
RTVSPost2010Prop39
140
1.0
102
RTVSPost2010PropOp39
 70
     1
102
RTVSPost2010Prop40
 90
        0
102
RTVSPost2010PropOp40
 70
     1
102
RTVSPost2010Prop41ColorIndex
 90
       18
102
RTVSPost2010Prop41ColorRGB
 90
        0
102
RTVSPost2010PropOp41
 70
     1
102
RTVSPost2010Prop42
 90
       50
102
RTVSPost2010PropOp42
 70
     1
102
RTVSPost2010Prop43
 90
        3
102
RTVSPost2010PropOp43
 70
     1
102
RTVSPost2010Prop44ColorIndex
 90
        5
102
RTVSPost2010Prop44ColorRGB
 90
      255
102
RTVSPost2010PropOp44
 70
     1
102
RTVSPost2010Prop45
280
     0
102
RTVSPost2010PropOp45
 70
     1
102
RTVSPost2010Prop46
 90
       50
102
RTVSPost2010PropOp46
 70
     1
102
RTVSPost2010Prop47
 90
       50
102
RTVSPost2010PropOp47
 70
     1
102
RTVSPost2010Prop48
 90
       50
102
RTVSPost2010PropOp48
 70
     1
102
RTVSPost2010Prop49
280
     0
102
RTVSPost2010PropOp49
 70
     1
102
RTVSPost2010Prop50
 90
       50
102
RTVSPost2010PropOp50
 70
     1
102
RTVSPost2010Prop51ColorIndex
 90
      256
102
RTVSPost2010Prop51ColorRGB
 90
-16777216
102
RTVSPost2010PropOp51
 70
     0
102
RTVSPost2010Prop52
140
1.0
102
RTVSPost2010PropOp52
 70
     0
102
RTVSPost2010Prop53
 90
        2
102
RTVSPost2010PropOp53
 70
     1
102
RTVSPost2010Prop54
  1
strokes_ogs.tif
102
RTVSPost2010PropOp54
 70
     1
102
RTVSPost2010Prop55
280
     0
102
RTVSPost2010PropOp55
 70
     1
102
RTVSPost2010Prop56
140
1.0
102
RTVSPost2010PropOp56
 70
     1
102
RTVSPost2010Prop57
140
1.0
102
RTVSPost2010PropOp57
 70
     1
  0
XRECORD
  5
4DC
102
{ACAD_REACTORS
330
4DB
102
}
330
4DB
100
AcDbXrecord
280
     1
102
RTVSPost2010Prop28
280
     0
102
RTVSPost2010PropOp28
 70
     1
102
RTVSPost2010Prop29
280
     1
102
RTVSPost2010PropOp29
 70
     1
102
RTVSPost2010Prop30
280
     1
102
RTVSPost2010PropOp30
 70
     1
102
RTVSPost2010Prop31
280
     0
102
RTVSPost2010PropOp31
 70
     1
102
RTVSPost2010Prop32
280
     0
102
RTVSPost2010PropOp32
 70
     1
102
RTVSPost2010Prop33
280
     0
102
RTVSPost2010PropOp33
 70
     1
102
RTVSPost2010Prop34
280
     0
102
RTVSPost2010PropOp34
 70
     1
102
RTVSPost2010Prop35
280
     0
102
RTVSPost2010PropOp35
 70
     1
102
RTVSPost2010Prop36
280
     0
102
RTVSPost2010PropOp36
 70
     1
102
RTVSPost2010Prop37
 90
       50
102
RTVSPost2010PropOp37
 70
     1
102
RTVSPost2010Prop38
140
0.0
102
RTVSPost2010PropOp38
 70
     1
102
RTVSPost2010Prop39
140
1.0
102
RTVSPost2010PropOp39
 70
     1
102
RTVSPost2010Prop40
 90
        0
102
RTVSPost2010PropOp40
 70
     1
102
RTVSPost2010Prop41ColorIndex
 90
       18
102
RTVSPost2010Prop41ColorRGB
 90
        0
102
RTVSPost2010PropOp41
 70
     1
102
RTVSPost2010Prop42
 90
       50
102
RTVSPost2010PropOp42
 70
     1
102
RTVSPost2010Prop43
 90
        3
102
RTVSPost2010PropOp43
 70
     1
102
RTVSPost2010Prop44ColorIndex
 90
        5
102
RTVSPost2010Prop44ColorRGB
 90
      255
102
RTVSPost2010PropOp44
 70
     1
102
RTVSPost2010Prop45
280
     0
102
RTVSPost2010PropOp45
 70
     1
102
RTVSPost2010Prop46
 90
       50
102
RTVSPost2010PropOp46
 70
     1
102
RTVSPost2010Prop47
 90
       50
102
RTVSPost2010PropOp47
 70
     1
102
RTVSPost2010Prop48
 90
       50
102
RTVSPost2010PropOp48
 70
     1
102
RTVSPost2010Prop49
280
     0
102
RTVSPost2010PropOp49
 70
     1
102
RTVSPost2010Prop50
 90
       50
102
RTVSPost2010PropOp50
 70
     1
102
RTVSPost2010Prop51ColorIndex
 90
      256
102
RTVSPost2010Prop51ColorRGB
 90
-16777216
102
RTVSPost2010PropOp51
 70
     0
102
RTVSPost2010Prop52
140
1.0
102
RTVSPost2010PropOp52
 70
     0
102
RTVSPost2010Prop53
 90
        2
102
RTVSPost2010PropOp53
 70
     1
102
RTVSPost2010Prop54
  1
strokes_ogs.tif
102
RTVSPost2010PropOp54
 70
     1
102
RTVSPost2010Prop55
280
     0
102
RTVSPost2010PropOp55
 70
     1
102
RTVSPost2010Prop56
140
1.0
102
RTVSPost2010PropOp56
 70
     1
102
RTVSPost2010Prop57
140
1.0
102
RTVSPost2010PropOp57
 70
     1
  0
XRECORD
  5
4E4
102
{ACAD_REACTORS
330
4E3
102
}
330
4E3
100
AcDbXrecord
280
     1
102
RTVSPost2010Prop28
280
     0
102
RTVSPost2010PropOp28
 70
     1
102
RTVSPost2010Prop29
280
     1
102
RTVSPost2010PropOp29
 70
     1
102
RTVSPost2010Prop30
280
     1
102
RTVSPost2010PropOp30
 70
     1
102
RTVSPost2010Prop31
280
     0
102
RTVSPost2010PropOp31
 70
     1
102
RTVSPost2010Prop32
280
     0
102
RTVSPost2010PropOp32
 70
     1
102
RTVSPost2010Prop33
280
     0
102
RTVSPost2010PropOp33
 70
     1
102
RTVSPost2010Prop34
280
     0
102
RTVSPost2010PropOp34
 70
     1
102
RTVSPost2010Prop35
280
     0
102
RTVSPost2010PropOp35
 70
     1
102
RTVSPost2010Prop36
280
     0
102
RTVSPost2010PropOp36
 70
     1
102
RTVSPost2010Prop37
 90
       50
102
RTVSPost2010PropOp37
 70
     1
102
RTVSPost2010Prop38
140
0.0
102
RTVSPost2010PropOp38
 70
     1
102
RTVSPost2010Prop39
140
1.0
102
RTVSPost2010PropOp39
 70
     1
102
RTVSPost2010Prop40
 90
        0
102
RTVSPost2010PropOp40
 70
     1
102
RTVSPost2010Prop41ColorIndex
 90
       18
102
RTVSPost2010Prop41ColorRGB
 90
        0
102
RTVSPost2010PropOp41
 70
     1
102
RTVSPost2010Prop42
 90
       50
102
RTVSPost2010PropOp42
 70
     1
102
RTVSPost2010Prop43
 90
        3
102
RTVSPost2010PropOp43
 70
     1
102
RTVSPost2010Prop44ColorIndex
 90
        5
102
RTVSPost2010Prop44ColorRGB
 90
      255
102
RTVSPost2010PropOp44
 70
     1
102
RTVSPost2010Prop45
280
     0
102
RTVSPost2010PropOp45
 70
     1
102
RTVSPost2010Prop46
 90
       50
102
RTVSPost2010PropOp46
 70
     1
102
RTVSPost2010Prop47
 90
       50
102
RTVSPost2010PropOp47
 70
     1
102
RTVSPost2010Prop48
 90
       50
102
RTVSPost2010PropOp48
 70
     1
102
RTVSPost2010Prop49
280
     0
102
RTVSPost2010PropOp49
 70
     1
102
RTVSPost2010Prop50
 90
       50
102
RTVSPost2010PropOp50
 70
     1
102
RTVSPost2010Prop51ColorIndex
 90
      256
102
RTVSPost2010Prop51ColorRGB
 90
-16777216
102
RTVSPost2010PropOp51
 70
     0
102
RTVSPost2010Prop52
140
1.0
102
RTVSPost2010PropOp52
 70
     0
102
RTVSPost2010Prop53
 90
        2
102
RTVSPost2010PropOp53
 70
     1
102
RTVSPost2010Prop54
  1
strokes_ogs.tif
102
RTVSPost2010PropOp54
 70
     1
102
RTVSPost2010Prop55
280
     0
102
RTVSPost2010PropOp55
 70
     1
102
RTVSPost2010Prop56
140
1.0
102
RTVSPost2010PropOp56
 70
     1
102
RTVSPost2010Prop57
140
1.0
102
RTVSPost2010PropOp57
 70
     1
  0
XRECORD
  5
4EC
102
{ACAD_REACTORS
330
4EB
102
}
330
4EB
100
AcDbXrecord
280
     1
102
RTVSPost2010Prop28
280
     0
102
RTVSPost2010PropOp28
 70
     1
102
RTVSPost2010Prop29
280
     1
102
RTVSPost2010PropOp29
 70
     1
102
RTVSPost2010Prop30
280
     1
102
RTVSPost2010PropOp30
 70
     1
102
RTVSPost2010Prop31
280
     0
102
RTVSPost2010PropOp31
 70
     1
102
RTVSPost2010Prop32
280
     0
102
RTVSPost2010PropOp32
 70
     1
102
RTVSPost2010Prop33
280
     0
102
RTVSPost2010PropOp33
 70
     1
102
RTVSPost2010Prop34
280
     0
102
RTVSPost2010PropOp34
 70
     1
102
RTVSPost2010Prop35
280
     0
102
RTVSPost2010PropOp35
 70
     1
102
RTVSPost2010Prop36
280
     0
102
RTVSPost2010PropOp36
 70
     1
102
RTVSPost2010Prop37
 90
       50
102
RTVSPost2010PropOp37
 70
     1
102
RTVSPost2010Prop38
140
0.0
102
RTVSPost2010PropOp38
 70
     1
102
RTVSPost2010Prop39
140
1.0
102
RTVSPost2010PropOp39
 70
     1
102
RTVSPost2010Prop40
 90
        0
102
RTVSPost2010PropOp40
 70
     1
102
RTVSPost2010Prop41ColorIndex
 90
       18
102
RTVSPost2010Prop41ColorRGB
 90
        0
102
RTVSPost2010PropOp41
 70
     1
102
RTVSPost2010Prop42
 90
       50
102
RTVSPost2010PropOp42
 70
     1
102
RTVSPost2010Prop43
 90
        3
102
RTVSPost2010PropOp43
 70
     1
102
RTVSPost2010Prop44ColorIndex
 90
        5
102
RTVSPost2010Prop44ColorRGB
 90
      255
102
RTVSPost2010PropOp44
 70
     1
102
RTVSPost2010Prop45
280
     0
102
RTVSPost2010PropOp45
 70
     1
102
RTVSPost2010Prop46
 90
       50
102
RTVSPost2010PropOp46
 70
     1
102
RTVSPost2010Prop47
 90
       50
102
RTVSPost2010PropOp47
 70
     1
102
RTVSPost2010Prop48
 90
       50
102
RTVSPost2010PropOp48
 70
     1
102
RTVSPost2010Prop49
280
     0
102
RTVSPost2010PropOp49
 70
     1
102
RTVSPost2010Prop50
 90
       50
102
RTVSPost2010PropOp50
 70
     1
102
RTVSPost2010Prop51ColorIndex
 90
      256
102
RTVSPost2010Prop51ColorRGB
 90
-16777216
102
RTVSPost2010PropOp51
 70
     0
102
RTVSPost2010Prop52
140
1.0
102
RTVSPost2010PropOp52
 70
     0
102
RTVSPost2010Prop53
 90
        2
102
RTVSPost2010PropOp53
 70
     1
102
RTVSPost2010Prop54
  1
strokes_ogs.tif
102
RTVSPost2010PropOp54
 70
     1
102
RTVSPost2010Prop55
280
     0
102
RTVSPost2010PropOp55
 70
     1
102
RTVSPost2010Prop56
140
1.0
102
RTVSPost2010PropOp56
 70
     1
102
RTVSPost2010Prop57
140
1.0
102
RTVSPost2010PropOp57
 70
     1
  0
XRECORD
  5
4E0
102
{ACAD_REACTORS
330
4DF
102
}
330
4DF
100
AcDbXrecord
280
     1
102
RTVSPost2010Prop28
280
     0
102
RTVSPost2010PropOp28
 70
     1
102
RTVSPost2010Prop29
280
     1
102
RTVSPost2010PropOp29
 70
     1
102
RTVSPost2010Prop30
280
     1
102
RTVSPost2010PropOp30
 70
     1
102
RTVSPost2010Prop31
280
     0
102
RTVSPost2010PropOp31
 70
     1
102
RTVSPost2010Prop32
280
     0
102
RTVSPost2010PropOp32
 70
     1
102
RTVSPost2010Prop33
280
     0
102
RTVSPost2010PropOp33
 70
     1
102
RTVSPost2010Prop34
280
     0
102
RTVSPost2010PropOp34
 70
     1
102
RTVSPost2010Prop35
280
     0
102
RTVSPost2010PropOp35
 70
     1
102
RTVSPost2010Prop36
280
     0
102
RTVSPost2010PropOp36
 70
     1
102
RTVSPost2010Prop37
 90
       50
102
RTVSPost2010PropOp37
 70
     1
102
RTVSPost2010Prop38
140
0.0
102
RTVSPost2010PropOp38
 70
     1
102
RTVSPost2010Prop39
140
1.0
102
RTVSPost2010PropOp39
 70
     1
102
RTVSPost2010Prop40
 90
        0
102
RTVSPost2010PropOp40
 70
     1
102
RTVSPost2010Prop41ColorIndex
 90
       18
102
RTVSPost2010Prop41ColorRGB
 90
        0
102
RTVSPost2010PropOp41
 70
     1
102
RTVSPost2010Prop42
 90
       50
102
RTVSPost2010PropOp42
 70
     1
102
RTVSPost2010Prop43
 90
        3
102
RTVSPost2010PropOp43
 70
     1
102
RTVSPost2010Prop44ColorIndex
 90
        5
102
RTVSPost2010Prop44ColorRGB
 90
      255
102
RTVSPost2010PropOp44
 70
     1
102
RTVSPost2010Prop45
280
     0
102
RTVSPost2010PropOp45
 70
     1
102
RTVSPost2010Prop46
 90
       50
102
RTVSPost2010PropOp46
 70
     1
102
RTVSPost2010Prop47
 90
       50
102
RTVSPost2010PropOp47
 70
     1
102
RTVSPost2010Prop48
 90
       50
102
RTVSPost2010PropOp48
 70
     1
102
RTVSPost2010Prop49
280
     0
102
RTVSPost2010PropOp49
 70
     1
102
RTVSPost2010Prop50
 90
       50
102
RTVSPost2010PropOp50
 70
     1
102
RTVSPost2010Prop51ColorIndex
 90
      256
102
RTVSPost2010Prop51ColorRGB
 90
-16777216
102
RTVSPost2010PropOp51
 70
     0
102
RTVSPost2010Prop52
140
1.0
102
RTVSPost2010PropOp52
 70
     0
102
RTVSPost2010Prop53
 90
        2
102
RTVSPost2010PropOp53
 70
     1
102
RTVSPost2010Prop54
  1
strokes_ogs.tif
102
RTVSPost2010PropOp54
 70
     1
102
RTVSPost2010Prop55
280
     0
102
RTVSPost2010PropOp55
 70
     1
102
RTVSPost2010Prop56
140
1.0
102
RTVSPost2010PropOp56
 70
     1
102
RTVSPost2010Prop57
140
1.0
102
RTVSPost2010PropOp57
 70
     1
  0
XRECORD
  5
4E2
102
{ACAD_REACTORS
330
4E1
102
}
330
4E1
100
AcDbXrecord
280
     1
102
RTVSPost2010Prop28
280
     0
102
RTVSPost2010PropOp28
 70
     1
102
RTVSPost2010Prop29
280
     1
102
RTVSPost2010PropOp29
 70
     1
102
RTVSPost2010Prop30
280
     1
102
RTVSPost2010PropOp30
 70
     1
102
RTVSPost2010Prop31
280
     0
102
RTVSPost2010PropOp31
 70
     1
102
RTVSPost2010Prop32
280
     0
102
RTVSPost2010PropOp32
 70
     1
102
RTVSPost2010Prop33
280
     0
102
RTVSPost2010PropOp33
 70
     1
102
RTVSPost2010Prop34
280
     0
102
RTVSPost2010PropOp34
 70
     1
102
RTVSPost2010Prop35
280
     0
102
RTVSPost2010PropOp35
 70
     1
102
RTVSPost2010Prop36
280
     0
102
RTVSPost2010PropOp36
 70
     1
102
RTVSPost2010Prop37
 90
       50
102
RTVSPost2010PropOp37
 70
     1
102
RTVSPost2010Prop38
140
0.0
102
RTVSPost2010PropOp38
 70
     1
102
RTVSPost2010Prop39
140
1.0
102
RTVSPost2010PropOp39
 70
     1
102
RTVSPost2010Prop40
 90
        0
102
RTVSPost2010PropOp40
 70
     1
102
RTVSPost2010Prop41ColorIndex
 90
       18
102
RTVSPost2010Prop41ColorRGB
 90
        0
102
RTVSPost2010PropOp41
 70
     1
102
RTVSPost2010Prop42
 90
       50
102
RTVSPost2010PropOp42
 70
     1
102
RTVSPost2010Prop43
 90
        3
102
RTVSPost2010PropOp43
 70
     1
102
RTVSPost2010Prop44ColorIndex
 90
        5
102
RTVSPost2010Prop44ColorRGB
 90
      255
102
RTVSPost2010PropOp44
 70
     1
102
RTVSPost2010Prop45
280
     0
102
RTVSPost2010PropOp45
 70
     1
102
RTVSPost2010Prop46
 90
       50
102
RTVSPost2010PropOp46
 70
     1
102
RTVSPost2010Prop47
 90
       50
102
RTVSPost2010PropOp47
 70
     1
102
RTVSPost2010Prop48
 90
       50
102
RTVSPost2010PropOp48
 70
     1
102
RTVSPost2010Prop49
280
     0
102
RTVSPost2010PropOp49
 70
     1
102
RTVSPost2010Prop50
 90
       50
102
RTVSPost2010PropOp50
 70
     1
102
RTVSPost2010Prop51ColorIndex
 90
      256
102
RTVSPost2010Prop51ColorRGB
 90
-16777216
102
RTVSPost2010PropOp51
 70
     0
102
RTVSPost2010Prop52
140
1.0
102
RTVSPost2010PropOp52
 70
     0
102
RTVSPost2010Prop53
 90
        2
102
RTVSPost2010PropOp53
 70
     1
102
RTVSPost2010Prop54
  1
strokes_ogs.tif
102
RTVSPost2010PropOp54
 70
     1
102
RTVSPost2010Prop55
280
     0
102
RTVSPost2010PropOp55
 70
     1
102
RTVSPost2010Prop56
140
1.0
102
RTVSPost2010PropOp56
 70
     1
102
RTVSPost2010Prop57
140
1.0
102
RTVSPost2010PropOp57
 70
     1
  0
XRECORD
  5
4F2
102
{ACAD_REACTORS
330
4F1
102
}
330
4F1
100
AcDbXrecord
280
     1
102
RTVSPost2010Prop28
280
     0
102
RTVSPost2010PropOp28
 70
     0
102
RTVSPost2010Prop29
280
     1
102
RTVSPost2010PropOp29
 70
     0
102
RTVSPost2010Prop30
280
     1
102
RTVSPost2010PropOp30
 70
     0
102
RTVSPost2010Prop31
280
     0
102
RTVSPost2010PropOp31
 70
     0
102
RTVSPost2010Prop32
280
     0
102
RTVSPost2010PropOp32
 70
     0
102
RTVSPost2010Prop33
280
     0
102
RTVSPost2010PropOp33
 70
     0
102
RTVSPost2010Prop34
280
     0
102
RTVSPost2010PropOp34
 70
     0
102
RTVSPost2010Prop35
280
     0
102
RTVSPost2010PropOp35
 70
     0
102
RTVSPost2010Prop36
280
     0
102
RTVSPost2010PropOp36
 70
     0
102
RTVSPost2010Prop37
 90
       50
102
RTVSPost2010PropOp37
 70
     0
102
RTVSPost2010Prop38
140
0.0
102
RTVSPost2010PropOp38
 70
     0
102
RTVSPost2010Prop39
140
1.0
102
RTVSPost2010PropOp39
 70
     0
102
RTVSPost2010Prop40
 90
        0
102
RTVSPost2010PropOp40
 70
     0
102
RTVSPost2010Prop41ColorIndex
 90
       18
102
RTVSPost2010Prop41ColorRGB
 90
        0
102
RTVSPost2010PropOp41
 70
     0
102
RTVSPost2010Prop42
 90
       50
102
RTVSPost2010PropOp42
 70
     0
102
RTVSPost2010Prop43
 90
        3
102
RTVSPost2010PropOp43
 70
     0
102
RTVSPost2010Prop44ColorIndex
 90
        5
102
RTVSPost2010Prop44ColorRGB
 90
      255
102
RTVSPost2010PropOp44
 70
     0
102
RTVSPost2010Prop45
280
     0
102
RTVSPost2010PropOp45
 70
     0
102
RTVSPost2010Prop46
 90
       50
102
RTVSPost2010PropOp46
 70
     0
102
RTVSPost2010Prop47
 90
       50
102
RTVSPost2010PropOp47
 70
     0
102
RTVSPost2010Prop48
 90
       50
102
RTVSPost2010PropOp48
 70
     0
102
RTVSPost2010Prop49
280
     0
102
RTVSPost2010PropOp49
 70
     0
102
RTVSPost2010Prop50
 90
       50
102
RTVSPost2010PropOp50
 70
     0
102
RTVSPost2010Prop51ColorIndex
 90
      256
102
RTVSPost2010Prop51ColorRGB
 90
-16777216
102
RTVSPost2010PropOp51
 70
     0
102
RTVSPost2010Prop52
140
1.0
102
RTVSPost2010PropOp52
 70
     0
102
RTVSPost2010Prop53
 90
        2
102
RTVSPost2010PropOp53
 70
     0
102
RTVSPost2010Prop54
  1
strokes_ogs.tif
102
RTVSPost2010PropOp54
 70
     0
102
RTVSPost2010Prop55
280
     0
102
RTVSPost2010PropOp55
 70
     0
102
RTVSPost2010Prop56
140
1.0
102
RTVSPost2010PropOp56
 70
     0
102
RTVSPost2010Prop57
140
1.0
102
RTVSPost2010PropOp57
 70
     0
  0
XRECORD
  5
4EA
102
{ACAD_REACTORS
330
4E9
102
}
330
4E9
100
AcDbXrecord
280
     1
102
RTVSPost2010Prop28
280
     0
102
RTVSPost2010PropOp28
 70
     1
102
RTVSPost2010Prop29
280
     1
102
RTVSPost2010PropOp29
 70
     1
102
RTVSPost2010Prop30
280
     1
102
RTVSPost2010PropOp30
 70
     1
102
RTVSPost2010Prop31
280
     0
102
RTVSPost2010PropOp31
 70
     1
102
RTVSPost2010Prop32
280
     0
102
RTVSPost2010PropOp32
 70
     1
102
RTVSPost2010Prop33
280
     0
102
RTVSPost2010PropOp33
 70
     1
102
RTVSPost2010Prop34
280
     0
102
RTVSPost2010PropOp34
 70
     1
102
RTVSPost2010Prop35
280
     0
102
RTVSPost2010PropOp35
 70
     1
102
RTVSPost2010Prop36
280
     0
102
RTVSPost2010PropOp36
 70
     1
102
RTVSPost2010Prop37
 90
       50
102
RTVSPost2010PropOp37
 70
     1
102
RTVSPost2010Prop38
140
0.0
102
RTVSPost2010PropOp38
 70
     1
102
RTVSPost2010Prop39
140
1.0
102
RTVSPost2010PropOp39
 70
     1
102
RTVSPost2010Prop40
 90
        0
102
RTVSPost2010PropOp40
 70
     1
102
RTVSPost2010Prop41ColorIndex
 90
       18
102
RTVSPost2010Prop41ColorRGB
 90
        0
102
RTVSPost2010PropOp41
 70
     1
102
RTVSPost2010Prop42
 90
       50
102
RTVSPost2010PropOp42
 70
     1
102
RTVSPost2010Prop43
 90
        3
102
RTVSPost2010PropOp43
 70
     1
102
RTVSPost2010Prop44ColorIndex
 90
        5
102
RTVSPost2010Prop44ColorRGB
 90
      255
102
RTVSPost2010PropOp44
 70
     1
102
RTVSPost2010Prop45
280
     0
102
RTVSPost2010PropOp45
 70
     1
102
RTVSPost2010Prop46
 90
       50
102
RTVSPost2010PropOp46
 70
     1
102
RTVSPost2010Prop47
 90
       50
102
RTVSPost2010PropOp47
 70
     1
102
RTVSPost2010Prop48
 90
       50
102
RTVSPost2010PropOp48
 70
     1
102
RTVSPost2010Prop49
280
     0
102
RTVSPost2010PropOp49
 70
     1
102
RTVSPost2010Prop50
 90
       50
102
RTVSPost2010PropOp50
 70
     1
102
RTVSPost2010Prop51ColorIndex
 90
      256
102
RTVSPost2010Prop51ColorRGB
 90
-16777216
102
RTVSPost2010PropOp51
 70
     0
102
RTVSPost2010Prop52
140
1.0
102
RTVSPost2010PropOp52
 70
     0
102
RTVSPost2010Prop53
 90
        2
102
RTVSPost2010PropOp53
 70
     1
102
RTVSPost2010Prop54
  1
strokes_ogs.tif
102
RTVSPost2010PropOp54
 70
     1
102
RTVSPost2010Prop55
280
     0
102
RTVSPost2010PropOp55
 70
     1
102
RTVSPost2010Prop56
140
1.0
102
RTVSPost2010PropOp56
 70
     1
102
RTVSPost2010Prop57
140
1.0
102
RTVSPost2010PropOp57
 70
     1
  0
XRECORD
  5
4CE
102
{ACAD_REACTORS
330
4CD
102
}
330
4CD
100
AcDbXrecord
280
     1
102
RTVSPost2010Prop28
280
     0
102
RTVSPost2010PropOp28
 70
     1
102
RTVSPost2010Prop29
280
     1
102
RTVSPost2010PropOp29
 70
     1
102
RTVSPost2010Prop30
280
     1
102
RTVSPost2010PropOp30
 70
     1
102
RTVSPost2010Prop31
280
     0
102
RTVSPost2010PropOp31
 70
     1
102
RTVSPost2010Prop32
280
     0
102
RTVSPost2010PropOp32
 70
     1
102
RTVSPost2010Prop33
280
     0
102
RTVSPost2010PropOp33
 70
     1
102
RTVSPost2010Prop34
280
     0
102
RTVSPost2010PropOp34
 70
     1
102
RTVSPost2010Prop35
280
     0
102
RTVSPost2010PropOp35
 70
     1
102
RTVSPost2010Prop36
280
     0
102
RTVSPost2010PropOp36
 70
     1
102
RTVSPost2010Prop37
 90
       50
102
RTVSPost2010PropOp37
 70
     1
102
RTVSPost2010Prop38
140
0.0
102
RTVSPost2010PropOp38
 70
     1
102
RTVSPost2010Prop39
140
1.0
102
RTVSPost2010PropOp39
 70
     1
102
RTVSPost2010Prop40
 90
        0
102
RTVSPost2010PropOp40
 70
     1
102
RTVSPost2010Prop41ColorIndex
 90
       18
102
RTVSPost2010Prop41ColorRGB
 90
        0
102
RTVSPost2010PropOp41
 70
     1
102
RTVSPost2010Prop42
 90
       50
102
RTVSPost2010PropOp42
 70
     1
102
RTVSPost2010Prop43
 90
        3
102
RTVSPost2010PropOp43
 70
     1
102
RTVSPost2010Prop44ColorIndex
 90
        5
102
RTVSPost2010Prop44ColorRGB
 90
      255
102
RTVSPost2010PropOp44
 70
     1
102
RTVSPost2010Prop45
280
     0
102
RTVSPost2010PropOp45
 70
     1
102
RTVSPost2010Prop46
 90
       50
102
RTVSPost2010PropOp46
 70
     1
102
RTVSPost2010Prop47
 90
       50
102
RTVSPost2010PropOp47
 70
     1
102
RTVSPost2010Prop48
 90
       50
102
RTVSPost2010PropOp48
 70
     1
102
RTVSPost2010Prop49
280
     0
102
RTVSPost2010PropOp49
 70
     1
102
RTVSPost2010Prop50
 90
       50
102
RTVSPost2010PropOp50
 70
     1
102
RTVSPost2010Prop51ColorIndex
 90
      256
102
RTVSPost2010Prop51ColorRGB
 90
-16777216
102
RTVSPost2010PropOp51
 70
     0
102
RTVSPost2010Prop52
140
1.0
102
RTVSPost2010PropOp52
 70
     0
102
RTVSPost2010Prop53
 90
        2
102
RTVSPost2010PropOp53
 70
     1
102
RTVSPost2010Prop54
  1
strokes_ogs.tif
102
RTVSPost2010PropOp54
 70
     1
102
RTVSPost2010Prop55
280
     0
102
RTVSPost2010PropOp55
 70
     1
102
RTVSPost2010Prop56
140
1.0
102
RTVSPost2010PropOp56
 70
     1
102
RTVSPost2010Prop57
140
1.0
102
RTVSPost2010PropOp57
 70
     1
  0
XRECORD
  5
4D0
102
{ACAD_REACTORS
330
4CF
102
}
330
4CF
100
AcDbXrecord
280
     1
102
RTVSPost2010Prop28
280
     0
102
RTVSPost2010PropOp28
 70
     1
102
RTVSPost2010Prop29
280
     1
102
RTVSPost2010PropOp29
 70
     1
102
RTVSPost2010Prop30
280
     1
102
RTVSPost2010PropOp30
 70
     1
102
RTVSPost2010Prop31
280
     0
102
RTVSPost2010PropOp31
 70
     1
102
RTVSPost2010Prop32
280
     0
102
RTVSPost2010PropOp32
 70
     1
102
RTVSPost2010Prop33
280
     0
102
RTVSPost2010PropOp33
 70
     1
102
RTVSPost2010Prop34
280
     0
102
RTVSPost2010PropOp34
 70
     1
102
RTVSPost2010Prop35
280
     0
102
RTVSPost2010PropOp35
 70
     1
102
RTVSPost2010Prop36
280
     0
102
RTVSPost2010PropOp36
 70
     1
102
RTVSPost2010Prop37
 90
       50
102
RTVSPost2010PropOp37
 70
     1
102
RTVSPost2010Prop38
140
0.0
102
RTVSPost2010PropOp38
 70
     1
102
RTVSPost2010Prop39
140
1.0
102
RTVSPost2010PropOp39
 70
     1
102
RTVSPost2010Prop40
 90
        0
102
RTVSPost2010PropOp40
 70
     1
102
RTVSPost2010Prop41ColorIndex
 90
       18
102
RTVSPost2010Prop41ColorRGB
 90
        0
102
RTVSPost2010PropOp41
 70
     1
102
RTVSPost2010Prop42
 90
       50
102
RTVSPost2010PropOp42
 70
     1
102
RTVSPost2010Prop43
 90
        3
102
RTVSPost2010PropOp43
 70
     1
102
RTVSPost2010Prop44ColorIndex
 90
        5
102
RTVSPost2010Prop44ColorRGB
 90
      255
102
RTVSPost2010PropOp44
 70
     1
102
RTVSPost2010Prop45
280
     0
102
RTVSPost2010PropOp45
 70
     1
102
RTVSPost2010Prop46
 90
       50
102
RTVSPost2010PropOp46
 70
     1
102
RTVSPost2010Prop47
 90
       50
102
RTVSPost2010PropOp47
 70
     1
102
RTVSPost2010Prop48
 90
       50
102
RTVSPost2010PropOp48
 70
     1
102
RTVSPost2010Prop49
280
     0
102
RTVSPost2010PropOp49
 70
     1
102
RTVSPost2010Prop50
 90
       50
102
RTVSPost2010PropOp50
 70
     1
102
RTVSPost2010Prop51ColorIndex
 90
      256
102
RTVSPost2010Prop51ColorRGB
 90
-16777216
102
RTVSPost2010PropOp51
 70
     0
102
RTVSPost2010Prop52
140
1.0
102
RTVSPost2010PropOp52
 70
     0
102
RTVSPost2010Prop53
 90
        2
102
RTVSPost2010PropOp53
 70
     1
102
RTVSPost2010Prop54
  1
strokes_ogs.tif
102
RTVSPost2010PropOp54
 70
     1
102
RTVSPost2010Prop55
280
     0
102
RTVSPost2010PropOp55
 70
     1
102
RTVSPost2010Prop56
140
1.0
102
RTVSPost2010PropOp56
 70
     1
102
RTVSPost2010Prop57
140
1.0
102
RTVSPost2010PropOp57
 70
     1
  0
XRECORD
  5
4D2
102
{ACAD_REACTORS
330
4D1
102
}
330
4D1
100
AcDbXrecord
280
     1
102
RTVSPost2010Prop28
280
     0
102
RTVSPost2010PropOp28
 70
     1
102
RTVSPost2010Prop29
280
     1
102
RTVSPost2010PropOp29
 70
     1
102
RTVSPost2010Prop30
280
     1
102
RTVSPost2010PropOp30
 70
     1
102
RTVSPost2010Prop31
280
     0
102
RTVSPost2010PropOp31
 70
     1
102
RTVSPost2010Prop32
280
     0
102
RTVSPost2010PropOp32
 70
     1
102
RTVSPost2010Prop33
280
     0
102
RTVSPost2010PropOp33
 70
     1
102
RTVSPost2010Prop34
280
     0
102
RTVSPost2010PropOp34
 70
     1
102
RTVSPost2010Prop35
280
     0
102
RTVSPost2010PropOp35
 70
     1
102
RTVSPost2010Prop36
280
     0
102
RTVSPost2010PropOp36
 70
     1
102
RTVSPost2010Prop37
 90
       50
102
RTVSPost2010PropOp37
 70
     1
102
RTVSPost2010Prop38
140
0.0
102
RTVSPost2010PropOp38
 70
     1
102
RTVSPost2010Prop39
140
1.0
102
RTVSPost2010PropOp39
 70
     1
102
RTVSPost2010Prop40
 90
        0
102
RTVSPost2010PropOp40
 70
     1
102
RTVSPost2010Prop41ColorIndex
 90
       18
102
RTVSPost2010Prop41ColorRGB
 90
        0
102
RTVSPost2010PropOp41
 70
     1
102
RTVSPost2010Prop42
 90
       50
102
RTVSPost2010PropOp42
 70
     1
102
RTVSPost2010Prop43
 90
        3
102
RTVSPost2010PropOp43
 70
     1
102
RTVSPost2010Prop44ColorIndex
 90
        5
102
RTVSPost2010Prop44ColorRGB
 90
      255
102
RTVSPost2010PropOp44
 70
     1
102
RTVSPost2010Prop45
280
     0
102
RTVSPost2010PropOp45
 70
     1
102
RTVSPost2010Prop46
 90
       50
102
RTVSPost2010PropOp46
 70
     1
102
RTVSPost2010Prop47
 90
       50
102
RTVSPost2010PropOp47
 70
     1
102
RTVSPost2010Prop48
 90
       50
102
RTVSPost2010PropOp48
 70
     1
102
RTVSPost2010Prop49
280
     0
102
RTVSPost2010PropOp49
 70
     1
102
RTVSPost2010Prop50
 90
       50
102
RTVSPost2010PropOp50
 70
     1
102
RTVSPost2010Prop51ColorIndex
 90
      256
102
RTVSPost2010Prop51ColorRGB
 90
-16777216
102
RTVSPost2010PropOp51
 70
     0
102
RTVSPost2010Prop52
140
1.0
102
RTVSPost2010PropOp52
 70
     0
102
RTVSPost2010Prop53
 90
        2
102
RTVSPost2010PropOp53
 70
     1
102
RTVSPost2010Prop54
  1
strokes_ogs.tif
102
RTVSPost2010PropOp54
 70
     1
102
RTVSPost2010Prop55
280
     0
102
RTVSPost2010PropOp55
 70
     1
102
RTVSPost2010Prop56
140
1.0
102
RTVSPost2010PropOp56
 70
     1
102
RTVSPost2010Prop57
140
1.0
102
RTVSPost2010PropOp57
 70
     1
  0
XRECORD
  5
4D4
102
{ACAD_REACTORS
330
4D3
102
}
330
4D3
100
AcDbXrecord
280
     1
102
RTVSPost2010Prop28
280
     0
102
RTVSPost2010PropOp28
 70
     1
102
RTVSPost2010Prop29
280
     1
102
RTVSPost2010PropOp29
 70
     1
102
RTVSPost2010Prop30
280
     1
102
RTVSPost2010PropOp30
 70
     1
102
RTVSPost2010Prop31
280
     0
102
RTVSPost2010PropOp31
 70
     1
102
RTVSPost2010Prop32
280
     0
102
RTVSPost2010PropOp32
 70
     1
102
RTVSPost2010Prop33
280
     0
102
RTVSPost2010PropOp33
 70
     1
102
RTVSPost2010Prop34
280
     0
102
RTVSPost2010PropOp34
 70
     1
102
RTVSPost2010Prop35
280
     0
102
RTVSPost2010PropOp35
 70
     1
102
RTVSPost2010Prop36
280
     0
102
RTVSPost2010PropOp36
 70
     1
102
RTVSPost2010Prop37
 90
       50
102
RTVSPost2010PropOp37
 70
     1
102
RTVSPost2010Prop38
140
0.0
102
RTVSPost2010PropOp38
 70
     1
102
RTVSPost2010Prop39
140
1.0
102
RTVSPost2010PropOp39
 70
     1
102
RTVSPost2010Prop40
 90
        0
102
RTVSPost2010PropOp40
 70
     1
102
RTVSPost2010Prop41ColorIndex
 90
       18
102
RTVSPost2010Prop41ColorRGB
 90
        0
102
RTVSPost2010PropOp41
 70
     1
102
RTVSPost2010Prop42
 90
       50
102
RTVSPost2010PropOp42
 70
     1
102
RTVSPost2010Prop43
 90
        3
102
RTVSPost2010PropOp43
 70
     1
102
RTVSPost2010Prop44ColorIndex
 90
        5
102
RTVSPost2010Prop44ColorRGB
 90
      255
102
RTVSPost2010PropOp44
 70
     1
102
RTVSPost2010Prop45
280
     0
102
RTVSPost2010PropOp45
 70
     1
102
RTVSPost2010Prop46
 90
       50
102
RTVSPost2010PropOp46
 70
     1
102
RTVSPost2010Prop47
 90
       50
102
RTVSPost2010PropOp47
 70
     1
102
RTVSPost2010Prop48
 90
       50
102
RTVSPost2010PropOp48
 70
     1
102
RTVSPost2010Prop49
280
     0
102
RTVSPost2010PropOp49
 70
     1
102
RTVSPost2010Prop50
 90
       50
102
RTVSPost2010PropOp50
 70
     1
102
RTVSPost2010Prop51ColorIndex
 90
      256
102
RTVSPost2010Prop51ColorRGB
 90
-16777216
102
RTVSPost2010PropOp51
 70
     0
102
RTVSPost2010Prop52
140
1.0
102
RTVSPost2010PropOp52
 70
     0
102
RTVSPost2010Prop53
 90
        2
102
RTVSPost2010PropOp53
 70
     1
102
RTVSPost2010Prop54
  1
strokes_ogs.tif
102
RTVSPost2010PropOp54
 70
     1
102
RTVSPost2010Prop55
280
     0
102
RTVSPost2010PropOp55
 70
     1
102
RTVSPost2010Prop56
140
1.0
102
RTVSPost2010PropOp56
 70
     1
102
RTVSPost2010Prop57
140
1.0
102
RTVSPost2010PropOp57
 70
     1
  0
XRECORD
  5
4DA
102
{ACAD_REACTORS
330
4D9
102
}
330
4D9
100
AcDbXrecord
280
     1
102
RTVSPost2010Prop28
280
     0
102
RTVSPost2010PropOp28
 70
     1
102
RTVSPost2010Prop29
280
     1
102
RTVSPost2010PropOp29
 70
     1
102
RTVSPost2010Prop30
280
     1
102
RTVSPost2010PropOp30
 70
     1
102
RTVSPost2010Prop31
280
     0
102
RTVSPost2010PropOp31
 70
     1
102
RTVSPost2010Prop32
280
     0
102
RTVSPost2010PropOp32
 70
     1
102
RTVSPost2010Prop33
280
     0
102
RTVSPost2010PropOp33
 70
     1
102
RTVSPost2010Prop34
280
     0
102
RTVSPost2010PropOp34
 70
     1
102
RTVSPost2010Prop35
280
     0
102
RTVSPost2010PropOp35
 70
     1
102
RTVSPost2010Prop36
280
     0
102
RTVSPost2010PropOp36
 70
     1
102
RTVSPost2010Prop37
 90
       50
102
RTVSPost2010PropOp37
 70
     1
102
RTVSPost2010Prop38
140
0.0
102
RTVSPost2010PropOp38
 70
     1
102
RTVSPost2010Prop39
140
1.0
102
RTVSPost2010PropOp39
 70
     1
102
RTVSPost2010Prop40
 90
        0
102
RTVSPost2010PropOp40
 70
     1
102
RTVSPost2010Prop41ColorIndex
 90
       18
102
RTVSPost2010Prop41ColorRGB
 90
        0
102
RTVSPost2010PropOp41
 70
     1
102
RTVSPost2010Prop42
 90
       50
102
RTVSPost2010PropOp42
 70
     1
102
RTVSPost2010Prop43
 90
        3
102
RTVSPost2010PropOp43
 70
     1
102
RTVSPost2010Prop44ColorIndex
 90
        5
102
RTVSPost2010Prop44ColorRGB
 90
      255
102
RTVSPost2010PropOp44
 70
     1
102
RTVSPost2010Prop45
280
     0
102
RTVSPost2010PropOp45
 70
     1
102
RTVSPost2010Prop46
 90
       50
102
RTVSPost2010PropOp46
 70
     1
102
RTVSPost2010Prop47
 90
       50
102
RTVSPost2010PropOp47
 70
     1
102
RTVSPost2010Prop48
 90
       50
102
RTVSPost2010PropOp48
 70
     1
102
RTVSPost2010Prop49
280
     0
102
RTVSPost2010PropOp49
 70
     1
102
RTVSPost2010Prop50
 90
       50
102
RTVSPost2010PropOp50
 70
     1
102
RTVSPost2010Prop51ColorIndex
 90
      256
102
RTVSPost2010Prop51ColorRGB
 90
-16777216
102
RTVSPost2010PropOp51
 70
     0
102
RTVSPost2010Prop52
140
1.0
102
RTVSPost2010PropOp52
 70
     0
102
RTVSPost2010Prop53
 90
        2
102
RTVSPost2010PropOp53
 70
     1
102
RTVSPost2010Prop54
  1
strokes_ogs.tif
102
RTVSPost2010PropOp54
 70
     1
102
RTVSPost2010Prop55
280
     0
102
RTVSPost2010PropOp55
 70
     1
102
RTVSPost2010Prop56
140
1.0
102
RTVSPost2010PropOp56
 70
     1
102
RTVSPost2010Prop57
140
1.0
102
RTVSPost2010PropOp57
 70
     1
  0
XRECORD
  5
4EE
102
{ACAD_REACTORS
330
4ED
102
}
330
4ED
100
AcDbXrecord
280
     1
102
RTVSPost2010Prop28
280
     0
102
RTVSPost2010PropOp28
 70
     0
102
RTVSPost2010Prop29
280
     1
102
RTVSPost2010PropOp29
 70
     0
102
RTVSPost2010Prop30
280
     1
102
RTVSPost2010PropOp30
 70
     0
102
RTVSPost2010Prop31
280
     0
102
RTVSPost2010PropOp31
 70
     0
102
RTVSPost2010Prop32
280
     0
102
RTVSPost2010PropOp32
 70
     0
102
RTVSPost2010Prop33
280
     0
102
RTVSPost2010PropOp33
 70
     0
102
RTVSPost2010Prop34
280
     0
102
RTVSPost2010PropOp34
 70
     0
102
RTVSPost2010Prop35
280
     0
102
RTVSPost2010PropOp35
 70
     0
102
RTVSPost2010Prop36
280
     0
102
RTVSPost2010PropOp36
 70
     0
102
RTVSPost2010Prop37
 90
       50
102
RTVSPost2010PropOp37
 70
     0
102
RTVSPost2010Prop38
140
0.0
102
RTVSPost2010PropOp38
 70
     0
102
RTVSPost2010Prop39
140
1.0
102
RTVSPost2010PropOp39
 70
     0
102
RTVSPost2010Prop40
 90
        0
102
RTVSPost2010PropOp40
 70
     0
102
RTVSPost2010Prop41ColorIndex
 90
       18
102
RTVSPost2010Prop41ColorRGB
 90
        0
102
RTVSPost2010PropOp41
 70
     0
102
RTVSPost2010Prop42
 90
       50
102
RTVSPost2010PropOp42
 70
     0
102
RTVSPost2010Prop43
 90
        3
102
RTVSPost2010PropOp43
 70
     0
102
RTVSPost2010Prop44ColorIndex
 90
        5
102
RTVSPost2010Prop44ColorRGB
 90
      255
102
RTVSPost2010PropOp44
 70
     0
102
RTVSPost2010Prop45
280
     0
102
RTVSPost2010PropOp45
 70
     0
102
RTVSPost2010Prop46
 90
       50
102
RTVSPost2010PropOp46
 70
     0
102
RTVSPost2010Prop47
 90
       50
102
RTVSPost2010PropOp47
 70
     0
102
RTVSPost2010Prop48
 90
       50
102
RTVSPost2010PropOp48
 70
     0
102
RTVSPost2010Prop49
280
     0
102
RTVSPost2010PropOp49
 70
     0
102
RTVSPost2010Prop50
 90
       50
102
RTVSPost2010PropOp50
 70
     0
102
RTVSPost2010Prop51ColorIndex
 90
      256
102
RTVSPost2010Prop51ColorRGB
 90
-16777216
102
RTVSPost2010PropOp51
 70
     0
102
RTVSPost2010Prop52
140
1.0
102
RTVSPost2010PropOp52
 70
     0
102
RTVSPost2010Prop53
 90
        2
102
RTVSPost2010PropOp53
 70
     0
102
RTVSPost2010Prop54
  1
strokes_ogs.tif
102
RTVSPost2010PropOp54
 70
     0
102
RTVSPost2010Prop55
280
     0
102
RTVSPost2010PropOp55
 70
     0
102
RTVSPost2010Prop56
140
1.0
102
RTVSPost2010PropOp56
 70
     0
102
RTVSPost2010Prop57
140
1.0
102
RTVSPost2010PropOp57
 70
     0
  0
XRECORD
  5
4E8
102
{ACAD_REACTORS
330
4E7
102
}
330
4E7
100
AcDbXrecord
280
     1
102
RTVSPost2010Prop28
280
     0
102
RTVSPost2010PropOp28
 70
     1
102
RTVSPost2010Prop29
280
     1
102
RTVSPost2010PropOp29
 70
     1
102
RTVSPost2010Prop30
280
     1
102
RTVSPost2010PropOp30
 70
     1
102
RTVSPost2010Prop31
280
     0
102
RTVSPost2010PropOp31
 70
     1
102
RTVSPost2010Prop32
280
     0
102
RTVSPost2010PropOp32
 70
     1
102
RTVSPost2010Prop33
280
     0
102
RTVSPost2010PropOp33
 70
     1
102
RTVSPost2010Prop34
280
     0
102
RTVSPost2010PropOp34
 70
     1
102
RTVSPost2010Prop35
280
     0
102
RTVSPost2010PropOp35
 70
     1
102
RTVSPost2010Prop36
280
     0
102
RTVSPost2010PropOp36
 70
     1
102
RTVSPost2010Prop37
 90
       50
102
RTVSPost2010PropOp37
 70
     1
102
RTVSPost2010Prop38
140
0.0
102
RTVSPost2010PropOp38
 70
     1
102
RTVSPost2010Prop39
140
1.0
102
RTVSPost2010PropOp39
 70
     1
102
RTVSPost2010Prop40
 90
        0
102
RTVSPost2010PropOp40
 70
     1
102
RTVSPost2010Prop41ColorIndex
 90
       18
102
RTVSPost2010Prop41ColorRGB
 90
        0
102
RTVSPost2010PropOp41
 70
     1
102
RTVSPost2010Prop42
 90
       50
102
RTVSPost2010PropOp42
 70
     1
102
RTVSPost2010Prop43
 90
        3
102
RTVSPost2010PropOp43
 70
     1
102
RTVSPost2010Prop44ColorIndex
 90
        5
102
RTVSPost2010Prop44ColorRGB
 90
      255
102
RTVSPost2010PropOp44
 70
     1
102
RTVSPost2010Prop45
280
     0
102
RTVSPost2010PropOp45
 70
     1
102
RTVSPost2010Prop46
 90
       50
102
RTVSPost2010PropOp46
 70
     1
102
RTVSPost2010Prop47
 90
       50
102
RTVSPost2010PropOp47
 70
     1
102
RTVSPost2010Prop48
 90
       50
102
RTVSPost2010PropOp48
 70
     1
102
RTVSPost2010Prop49
280
     0
102
RTVSPost2010PropOp49
 70
     1
102
RTVSPost2010Prop50
 90
       50
102
RTVSPost2010PropOp50
 70
     1
102
RTVSPost2010Prop51ColorIndex
 90
      256
102
RTVSPost2010Prop51ColorRGB
 90
-16777216
102
RTVSPost2010PropOp51
 70
     0
102
RTVSPost2010Prop52
140
1.0
102
RTVSPost2010PropOp52
 70
     0
102
RTVSPost2010Prop53
 90
        2
102
RTVSPost2010PropOp53
 70
     1
102
RTVSPost2010Prop54
  1
strokes_ogs.tif
102
RTVSPost2010PropOp54
 70
     1
102
RTVSPost2010Prop55
280
     0
102
RTVSPost2010PropOp55
 70
     1
102
RTVSPost2010Prop56
140
1.0
102
RTVSPost2010PropOp56
 70
     1
102
RTVSPost2010Prop57
140
1.0
102
RTVSPost2010PropOp57
 70
     1
  0
XRECORD
  5
4F0
102
{ACAD_REACTORS
330
4EF
102
}
330
4EF
100
AcDbXrecord
280
     1
102
RTVSPost2010Prop28
280
     0
102
RTVSPost2010PropOp28
 70
     0
102
RTVSPost2010Prop29
280
     1
102
RTVSPost2010PropOp29
 70
     0
102
RTVSPost2010Prop30
280
     1
102
RTVSPost2010PropOp30
 70
     0
102
RTVSPost2010Prop31
280
     0
102
RTVSPost2010PropOp31
 70
     0
102
RTVSPost2010Prop32
280
     0
102
RTVSPost2010PropOp32
 70
     0
102
RTVSPost2010Prop33
280
     0
102
RTVSPost2010PropOp33
 70
     0
102
RTVSPost2010Prop34
280
     0
102
RTVSPost2010PropOp34
 70
     0
102
RTVSPost2010Prop35
280
     0
102
RTVSPost2010PropOp35
 70
     0
102
RTVSPost2010Prop36
280
     0
102
RTVSPost2010PropOp36
 70
     0
102
RTVSPost2010Prop37
 90
       50
102
RTVSPost2010PropOp37
 70
     0
102
RTVSPost2010Prop38
140
0.0
102
RTVSPost2010PropOp38
 70
     0
102
RTVSPost2010Prop39
140
1.0
102
RTVSPost2010PropOp39
 70
     0
102
RTVSPost2010Prop40
 90
        0
102
RTVSPost2010PropOp40
 70
     0
102
RTVSPost2010Prop41ColorIndex
 90
       18
102
RTVSPost2010Prop41ColorRGB
 90
        0
102
RTVSPost2010PropOp41
 70
     0
102
RTVSPost2010Prop42
 90
       50
102
RTVSPost2010PropOp42
 70
     0
102
RTVSPost2010Prop43
 90
        3
102
RTVSPost2010PropOp43
 70
     0
102
RTVSPost2010Prop44ColorIndex
 90
        5
102
RTVSPost2010Prop44ColorRGB
 90
      255
102
RTVSPost2010PropOp44
 70
     0
102
RTVSPost2010Prop45
280
     0
102
RTVSPost2010PropOp45
 70
     0
102
RTVSPost2010Prop46
 90
       50
102
RTVSPost2010PropOp46
 70
     0
102
RTVSPost2010Prop47
 90
       50
102
RTVSPost2010PropOp47
 70
     0
102
RTVSPost2010Prop48
 90
       50
102
RTVSPost2010PropOp48
 70
     0
102
RTVSPost2010Prop49
280
     0
102
RTVSPost2010PropOp49
 70
     0
102
RTVSPost2010Prop50
 90
       50
102
RTVSPost2010PropOp50
 70
     0
102
RTVSPost2010Prop51ColorIndex
 90
      256
102
RTVSPost2010Prop51ColorRGB
 90
-16777216
102
RTVSPost2010PropOp51
 70
     0
102
RTVSPost2010Prop52
140
1.0
102
RTVSPost2010PropOp52
 70
     0
102
RTVSPost2010Prop53
 90
        2
102
RTVSPost2010PropOp53
 70
     0
102
RTVSPost2010Prop54
  1
strokes_ogs.tif
102
RTVSPost2010PropOp54
 70
     0
102
RTVSPost2010Prop55
280
     0
102
RTVSPost2010PropOp55
 70
     0
102
RTVSPost2010Prop56
140
1.0
102
RTVSPost2010PropOp56
 70
     0
102
RTVSPost2010Prop57
140
1.0
102
RTVSPost2010PropOp57
 70
     0
  0
XRECORD
  5
4DE
102
{ACAD_REACTORS
330
4DD
102
}
330
4DD
100
AcDbXrecord
280
     1
102
RTVSPost2010Prop28
280
     0
102
RTVSPost2010PropOp28
 70
     1
102
RTVSPost2010Prop29
280
     1
102
RTVSPost2010PropOp29
 70
     1
102
RTVSPost2010Prop30
280
     1
102
RTVSPost2010PropOp30
 70
     1
102
RTVSPost2010Prop31
280
     0
102
RTVSPost2010PropOp31
 70
     1
102
RTVSPost2010Prop32
280
     0
102
RTVSPost2010PropOp32
 70
     1
102
RTVSPost2010Prop33
280
     0
102
RTVSPost2010PropOp33
 70
     1
102
RTVSPost2010Prop34
280
     0
102
RTVSPost2010PropOp34
 70
     1
102
RTVSPost2010Prop35
280
     0
102
RTVSPost2010PropOp35
 70
     1
102
RTVSPost2010Prop36
280
     0
102
RTVSPost2010PropOp36
 70
     1
102
RTVSPost2010Prop37
 90
       50
102
RTVSPost2010PropOp37
 70
     1
102
RTVSPost2010Prop38
140
0.0
102
RTVSPost2010PropOp38
 70
     1
102
RTVSPost2010Prop39
140
1.0
102
RTVSPost2010PropOp39
 70
     1
102
RTVSPost2010Prop40
 90
        0
102
RTVSPost2010PropOp40
 70
     1
102
RTVSPost2010Prop41ColorIndex
 90
       18
102
RTVSPost2010Prop41ColorRGB
 90
        0
102
RTVSPost2010PropOp41
 70
     1
102
RTVSPost2010Prop42
 90
       50
102
RTVSPost2010PropOp42
 70
     1
102
RTVSPost2010Prop43
 90
        3
102
RTVSPost2010PropOp43
 70
     1
102
RTVSPost2010Prop44ColorIndex
 90
        5
102
RTVSPost2010Prop44ColorRGB
 90
      255
102
RTVSPost2010PropOp44
 70
     1
102
RTVSPost2010Prop45
280
     0
102
RTVSPost2010PropOp45
 70
     1
102
RTVSPost2010Prop46
 90
       50
102
RTVSPost2010PropOp46
 70
     1
102
RTVSPost2010Prop47
 90
       50
102
RTVSPost2010PropOp47
 70
     1
102
RTVSPost2010Prop48
 90
       50
102
RTVSPost2010PropOp48
 70
     1
102
RTVSPost2010Prop49
280
     0
102
RTVSPost2010PropOp49
 70
     1
102
RTVSPost2010Prop50
 90
       50
102
RTVSPost2010PropOp50
 70
     1
102
RTVSPost2010Prop51ColorIndex
 90
      256
102
RTVSPost2010Prop51ColorRGB
 90
-16777216
102
RTVSPost2010PropOp51
 70
     0
102
RTVSPost2010Prop52
140
1.0
102
RTVSPost2010PropOp52
 70
     0
102
RTVSPost2010Prop53
 90
        2
102
RTVSPost2010PropOp53
 70
     1
102
RTVSPost2010Prop54
  1
strokes_ogs.tif
102
RTVSPost2010PropOp54
 70
     1
102
RTVSPost2010Prop55
280
     0
102
RTVSPost2010PropOp55
 70
     1
102
RTVSPost2010Prop56
140
1.0
102
RTVSPost2010PropOp56
 70
     1
102
RTVSPost2010Prop57
140
1.0
102
RTVSPost2010PropOp57
 70
     1
  0
XRECORD
  5
4FC
102
{ACAD_REACTORS
330
4FB
102
}
330
4FB
100
AcDbXrecord
280
     1
102
RTVSPost2010Prop28
280
     0
102
RTVSPost2010PropOp28
 70
     1
102
RTVSPost2010Prop29
280
     1
102
RTVSPost2010PropOp29
 70
     1
102
RTVSPost2010Prop30
280
     1
102
RTVSPost2010PropOp30
 70
     1
102
RTVSPost2010Prop31
280
     0
102
RTVSPost2010PropOp31
 70
     1
102
RTVSPost2010Prop32
280
     0
102
RTVSPost2010PropOp32
 70
     1
102
RTVSPost2010Prop33
280
     0
102
RTVSPost2010PropOp33
 70
     1
102
RTVSPost2010Prop34
280
     0
102
RTVSPost2010PropOp34
 70
     1
102
RTVSPost2010Prop35
280
     0
102
RTVSPost2010PropOp35
 70
     1
102
RTVSPost2010Prop36
280
     0
102
RTVSPost2010PropOp36
 70
     1
102
RTVSPost2010Prop37
 90
       50
102
RTVSPost2010PropOp37
 70
     1
102
RTVSPost2010Prop38
140
0.0
102
RTVSPost2010PropOp38
 70
     1
102
RTVSPost2010Prop39
140
1.0
102
RTVSPost2010PropOp39
 70
     1
102
RTVSPost2010Prop40
 90
        0
102
RTVSPost2010PropOp40
 70
     1
102
RTVSPost2010Prop41ColorIndex
 90
       18
102
RTVSPost2010Prop41ColorRGB
 90
        0
102
RTVSPost2010PropOp41
 70
     1
102
RTVSPost2010Prop42
 90
       50
102
RTVSPost2010PropOp42
 70
     1
102
RTVSPost2010Prop43
 90
        3
102
RTVSPost2010PropOp43
 70
     1
102
RTVSPost2010Prop44ColorIndex
 90
        5
102
RTVSPost2010Prop44ColorRGB
 90
      255
102
RTVSPost2010PropOp44
 70
     1
102
RTVSPost2010Prop45
280
     0
102
RTVSPost2010PropOp45
 70
     1
102
RTVSPost2010Prop46
 90
       50
102
RTVSPost2010PropOp46
 70
     1
102
RTVSPost2010Prop47
 90
       50
102
RTVSPost2010PropOp47
 70
     1
102
RTVSPost2010Prop48
 90
       50
102
RTVSPost2010PropOp48
 70
     1
102
RTVSPost2010Prop49
280
     0
102
RTVSPost2010PropOp49
 70
     1
102
RTVSPost2010Prop50
 90
       50
102
RTVSPost2010PropOp50
 70
     1
102
RTVSPost2010Prop51ColorIndex
 90
      256
102
RTVSPost2010Prop51ColorRGB
 90
-16777216
102
RTVSPost2010PropOp51
 70
     0
102
RTVSPost2010Prop52
140
1.0
102
RTVSPost2010PropOp52
 70
     0
102
RTVSPost2010Prop53
 90
        2
102
RTVSPost2010PropOp53
 70
     1
102
RTVSPost2010Prop54
  1
strokes_ogs.tif
102
RTVSPost2010PropOp54
 70
     1
102
RTVSPost2010Prop55
280
     0
102
RTVSPost2010PropOp55
 70
     1
102
RTVSPost2010Prop56
140
1.0
102
RTVSPost2010PropOp56
 70
     1
102
RTVSPost2010Prop57
140
1.0
102
RTVSPost2010PropOp57
 70
     1
  0
XRECORD
  5
4FA
102
{ACAD_REACTORS
330
4F9
102
}
330
4F9
100
AcDbXrecord
280
     1
102
RTVSPost2010Prop28
280
     0
102
RTVSPost2010PropOp28
 70
     1
102
RTVSPost2010Prop29
280
     1
102
RTVSPost2010PropOp29
 70
     1
102
RTVSPost2010Prop30
280
     1
102
RTVSPost2010PropOp30
 70
     1
102
RTVSPost2010Prop31
280
     0
102
RTVSPost2010PropOp31
 70
     1
102
RTVSPost2010Prop32
280
     0
102
RTVSPost2010PropOp32
 70
     1
102
RTVSPost2010Prop33
280
     0
102
RTVSPost2010PropOp33
 70
     1
102
RTVSPost2010Prop34
280
     0
102
RTVSPost2010PropOp34
 70
     1
102
RTVSPost2010Prop35
280
     0
102
RTVSPost2010PropOp35
 70
     1
102
RTVSPost2010Prop36
280
     0
102
RTVSPost2010PropOp36
 70
     1
102
RTVSPost2010Prop37
 90
       50
102
RTVSPost2010PropOp37
 70
     1
102
RTVSPost2010Prop38
140
0.0
102
RTVSPost2010PropOp38
 70
     1
102
RTVSPost2010Prop39
140
1.0
102
RTVSPost2010PropOp39
 70
     1
102
RTVSPost2010Prop40
 90
        0
102
RTVSPost2010PropOp40
 70
     1
102
RTVSPost2010Prop41ColorIndex
 90
       18
102
RTVSPost2010Prop41ColorRGB
 90
        0
102
RTVSPost2010PropOp41
 70
     1
102
RTVSPost2010Prop42
 90
       50
102
RTVSPost2010PropOp42
 70
     1
102
RTVSPost2010Prop43
 90
        3
102
RTVSPost2010PropOp43
 70
     1
102
RTVSPost2010Prop44ColorIndex
 90
        5
102
RTVSPost2010Prop44ColorRGB
 90
      255
102
RTVSPost2010PropOp44
 70
     1
102
RTVSPost2010Prop45
280
     0
102
RTVSPost2010PropOp45
 70
     1
102
RTVSPost2010Prop46
 90
       50
102
RTVSPost2010PropOp46
 70
     1
102
RTVSPost2010Prop47
 90
       50
102
RTVSPost2010PropOp47
 70
     1
102
RTVSPost2010Prop48
 90
       50
102
RTVSPost2010PropOp48
 70
     1
102
RTVSPost2010Prop49
280
     0
102
RTVSPost2010PropOp49
 70
     1
102
RTVSPost2010Prop50
 90
       50
102
RTVSPost2010PropOp50
 70
     1
102
RTVSPost2010Prop51ColorIndex
 90
      256
102
RTVSPost2010Prop51ColorRGB
 90
-16777216
102
RTVSPost2010PropOp51
 70
     0
102
RTVSPost2010Prop52
140
1.0
102
RTVSPost2010PropOp52
 70
     0
102
RTVSPost2010Prop53
 90
        2
102
RTVSPost2010PropOp53
 70
     1
102
RTVSPost2010Prop54
  1
strokes_ogs.tif
102
RTVSPost2010PropOp54
 70
     1
102
RTVSPost2010Prop55
280
     0
102
RTVSPost2010PropOp55
 70
     1
102
RTVSPost2010Prop56
140
1.0
102
RTVSPost2010PropOp56
 70
     1
102
RTVSPost2010Prop57
140
1.0
102
RTVSPost2010PropOp57
 70
     1
  0
XRECORD
  5
4F4
102
{ACAD_REACTORS
330
4F3
102
}
330
4F3
100
AcDbXrecord
280
     1
102
RTVSPost2010Prop28
280
     0
102
RTVSPost2010PropOp28
 70
     1
102
RTVSPost2010Prop29
280
     1
102
RTVSPost2010PropOp29
 70
     1
102
RTVSPost2010Prop30
280
     1
102
RTVSPost2010PropOp30
 70
     1
102
RTVSPost2010Prop31
280
     0
102
RTVSPost2010PropOp31
 70
     1
102
RTVSPost2010Prop32
280
     0
102
RTVSPost2010PropOp32
 70
     1
102
RTVSPost2010Prop33
280
     0
102
RTVSPost2010PropOp33
 70
     1
102
RTVSPost2010Prop34
280
     0
102
RTVSPost2010PropOp34
 70
     1
102
RTVSPost2010Prop35
280
     0
102
RTVSPost2010PropOp35
 70
     1
102
RTVSPost2010Prop36
280
     0
102
RTVSPost2010PropOp36
 70
     1
102
RTVSPost2010Prop37
 90
       50
102
RTVSPost2010PropOp37
 70
     1
102
RTVSPost2010Prop38
140
0.0
102
RTVSPost2010PropOp38
 70
     1
102
RTVSPost2010Prop39
140
1.0
102
RTVSPost2010PropOp39
 70
     1
102
RTVSPost2010Prop40
 90
        0
102
RTVSPost2010PropOp40
 70
     1
102
RTVSPost2010Prop41ColorIndex
 90
       18
102
RTVSPost2010Prop41ColorRGB
 90
        0
102
RTVSPost2010PropOp41
 70
     1
102
RTVSPost2010Prop42
 90
       50
102
RTVSPost2010PropOp42
 70
     1
102
RTVSPost2010Prop43
 90
        3
102
RTVSPost2010PropOp43
 70
     1
102
RTVSPost2010Prop44ColorIndex
 90
        5
102
RTVSPost2010Prop44ColorRGB
 90
      255
102
RTVSPost2010PropOp44
 70
     1
102
RTVSPost2010Prop45
280
     0
102
RTVSPost2010PropOp45
 70
     1
102
RTVSPost2010Prop46
 90
       50
102
RTVSPost2010PropOp46
 70
     1
102
RTVSPost2010Prop47
 90
       50
102
RTVSPost2010PropOp47
 70
     1
102
RTVSPost2010Prop48
 90
       50
102
RTVSPost2010PropOp48
 70
     1
102
RTVSPost2010Prop49
280
     0
102
RTVSPost2010PropOp49
 70
     1
102
RTVSPost2010Prop50
 90
       50
102
RTVSPost2010PropOp50
 70
     1
102
RTVSPost2010Prop51ColorIndex
 90
      256
102
RTVSPost2010Prop51ColorRGB
 90
-16777216
102
RTVSPost2010PropOp51
 70
     0
102
RTVSPost2010Prop52
140
1.0
102
RTVSPost2010PropOp52
 70
     0
102
RTVSPost2010Prop53
 90
        2
102
RTVSPost2010PropOp53
 70
     1
102
RTVSPost2010Prop54
  1
strokes_ogs.tif
102
RTVSPost2010PropOp54
 70
     1
102
RTVSPost2010Prop55
280
     0
102
RTVSPost2010PropOp55
 70
     1
102
RTVSPost2010Prop56
140
1.0
102
RTVSPost2010PropOp56
 70
     1
102
RTVSPost2010Prop57
140
1.0
102
RTVSPost2010PropOp57
 70
     1
  0
XRECORD
  5
4F6
102
{ACAD_REACTORS
330
4F5
102
}
330
4F5
100
AcDbXrecord
280
     1
102
RTVSPost2010Prop28
280
     0
102
RTVSPost2010PropOp28
 70
     1
102
RTVSPost2010Prop29
280
     1
102
RTVSPost2010PropOp29
 70
     1
102
RTVSPost2010Prop30
280
     1
102
RTVSPost2010PropOp30
 70
     1
102
RTVSPost2010Prop31
280
     0
102
RTVSPost2010PropOp31
 70
     1
102
RTVSPost2010Prop32
280
     0
102
RTVSPost2010PropOp32
 70
     1
102
RTVSPost2010Prop33
280
     0
102
RTVSPost2010PropOp33
 70
     1
102
RTVSPost2010Prop34
280
     0
102
RTVSPost2010PropOp34
 70
     1
102
RTVSPost2010Prop35
280
     0
102
RTVSPost2010PropOp35
 70
     1
102
RTVSPost2010Prop36
280
     0
102
RTVSPost2010PropOp36
 70
     1
102
RTVSPost2010Prop37
 90
       50
102
RTVSPost2010PropOp37
 70
     1
102
RTVSPost2010Prop38
140
0.0
102
RTVSPost2010PropOp38
 70
     1
102
RTVSPost2010Prop39
140
1.0
102
RTVSPost2010PropOp39
 70
     1
102
RTVSPost2010Prop40
 90
        0
102
RTVSPost2010PropOp40
 70
     1
102
RTVSPost2010Prop41ColorIndex
 90
       18
102
RTVSPost2010Prop41ColorRGB
 90
        0
102
RTVSPost2010PropOp41
 70
     1
102
RTVSPost2010Prop42
 90
       50
102
RTVSPost2010PropOp42
 70
     1
102
RTVSPost2010Prop43
 90
        3
102
RTVSPost2010PropOp43
 70
     1
102
RTVSPost2010Prop44ColorIndex
 90
        5
102
RTVSPost2010Prop44ColorRGB
 90
      255
102
RTVSPost2010PropOp44
 70
     1
102
RTVSPost2010Prop45
280
     0
102
RTVSPost2010PropOp45
 70
     1
102
RTVSPost2010Prop46
 90
       50
102
RTVSPost2010PropOp46
 70
     1
102
RTVSPost2010Prop47
 90
       50
102
RTVSPost2010PropOp47
 70
     1
102
RTVSPost2010Prop48
 90
       50
102
RTVSPost2010PropOp48
 70
     1
102
RTVSPost2010Prop49
280
     0
102
RTVSPost2010PropOp49
 70
     1
102
RTVSPost2010Prop50
 90
       50
102
RTVSPost2010PropOp50
 70
     1
102
RTVSPost2010Prop51ColorIndex
 90
      256
102
RTVSPost2010Prop51ColorRGB
 90
-16777216
102
RTVSPost2010PropOp51
 70
     0
102
RTVSPost2010Prop52
140
1.0
102
RTVSPost2010PropOp52
 70
     0
102
RTVSPost2010Prop53
 90
        2
102
RTVSPost2010PropOp53
 70
     1
102
RTVSPost2010Prop54
  1
strokes_ogs.tif
102
RTVSPost2010PropOp54
 70
     1
102
RTVSPost2010Prop55
280
     0
102
RTVSPost2010PropOp55
 70
     1
102
RTVSPost2010Prop56
140
1.0
102
RTVSPost2010PropOp56
 70
     1
102
RTVSPost2010Prop57
140
1.0
102
RTVSPost2010PropOp57
 70
     1
  0
XRECORD
  5
4E6
102
{ACAD_REACTORS
330
4E5
102
}
330
4E5
100
AcDbXrecord
280
     1
102
RTVSPost2010Prop28
280
     0
102
RTVSPost2010PropOp28
 70
     1
102
RTVSPost2010Prop29
280
     1
102
RTVSPost2010PropOp29
 70
     1
102
RTVSPost2010Prop30
280
     1
102
RTVSPost2010PropOp30
 70
     1
102
RTVSPost2010Prop31
280
     0
102
RTVSPost2010PropOp31
 70
     1
102
RTVSPost2010Prop32
280
     0
102
RTVSPost2010PropOp32
 70
     1
102
RTVSPost2010Prop33
280
     0
102
RTVSPost2010PropOp33
 70
     1
102
RTVSPost2010Prop34
280
     0
102
RTVSPost2010PropOp34
 70
     1
102
RTVSPost2010Prop35
280
     0
102
RTVSPost2010PropOp35
 70
     1
102
RTVSPost2010Prop36
280
     0
102
RTVSPost2010PropOp36
 70
     1
102
RTVSPost2010Prop37
 90
       50
102
RTVSPost2010PropOp37
 70
     1
102
RTVSPost2010Prop38
140
0.0
102
RTVSPost2010PropOp38
 70
     1
102
RTVSPost2010Prop39
140
1.0
102
RTVSPost2010PropOp39
 70
     1
102
RTVSPost2010Prop40
 90
        0
102
RTVSPost2010PropOp40
 70
     1
102
RTVSPost2010Prop41ColorIndex
 90
       18
102
RTVSPost2010Prop41ColorRGB
 90
        0
102
RTVSPost2010PropOp41
 70
     1
102
RTVSPost2010Prop42
 90
       50
102
RTVSPost2010PropOp42
 70
     1
102
RTVSPost2010Prop43
 90
        3
102
RTVSPost2010PropOp43
 70
     1
102
RTVSPost2010Prop44ColorIndex
 90
        5
102
RTVSPost2010Prop44ColorRGB
 90
      255
102
RTVSPost2010PropOp44
 70
     1
102
RTVSPost2010Prop45
280
     0
102
RTVSPost2010PropOp45
 70
     1
102
RTVSPost2010Prop46
 90
       50
102
RTVSPost2010PropOp46
 70
     1
102
RTVSPost2010Prop47
 90
       50
102
RTVSPost2010PropOp47
 70
     1
102
RTVSPost2010Prop48
 90
       50
102
RTVSPost2010PropOp48
 70
     1
102
RTVSPost2010Prop49
280
     0
102
RTVSPost2010PropOp49
 70
     1
102
RTVSPost2010Prop50
 90
       50
102
RTVSPost2010PropOp50
 70
     1
102
RTVSPost2010Prop51ColorIndex
 90
      256
102
RTVSPost2010Prop51ColorRGB
 90
-16777216
102
RTVSPost2010PropOp51
 70
     0
102
RTVSPost2010Prop52
140
1.0
102
RTVSPost2010PropOp52
 70
     0
102
RTVSPost2010Prop53
 90
        2
102
RTVSPost2010PropOp53
 70
     1
102
RTVSPost2010Prop54
  1
strokes_ogs.tif
102
RTVSPost2010PropOp54
 70
     1
102
RTVSPost2010Prop55
280
     0
102
RTVSPost2010PropOp55
 70
     1
102
RTVSPost2010Prop56
140
1.0
102
RTVSPost2010PropOp56
 70
     1
102
RTVSPost2010Prop57
140
1.0
102
RTVSPost2010PropOp57
 70
     1
  0
XRECORD
  5
4D8
102
{ACAD_REACTORS
330
4D7
102
}
330
4D7
100
AcDbXrecord
280
     1
102
RTVSPost2010Prop28
280
     0
102
RTVSPost2010PropOp28
 70
     1
102
RTVSPost2010Prop29
280
     1
102
RTVSPost2010PropOp29
 70
     1
102
RTVSPost2010Prop30
280
     1
102
RTVSPost2010PropOp30
 70
     1
102
RTVSPost2010Prop31
280
     0
102
RTVSPost2010PropOp31
 70
     1
102
RTVSPost2010Prop32
280
     0
102
RTVSPost2010PropOp32
 70
     1
102
RTVSPost2010Prop33
280
     0
102
RTVSPost2010PropOp33
 70
     1
102
RTVSPost2010Prop34
280
     0
102
RTVSPost2010PropOp34
 70
     1
102
RTVSPost2010Prop35
280
     0
102
RTVSPost2010PropOp35
 70
     1
102
RTVSPost2010Prop36
280
     0
102
RTVSPost2010PropOp36
 70
     1
102
RTVSPost2010Prop37
 90
       50
102
RTVSPost2010PropOp37
 70
     1
102
RTVSPost2010Prop38
140
0.0
102
RTVSPost2010PropOp38
 70
     1
102
RTVSPost2010Prop39
140
1.0
102
RTVSPost2010PropOp39
 70
     1
102
RTVSPost2010Prop40
 90
        0
102
RTVSPost2010PropOp40
 70
     1
102
RTVSPost2010Prop41ColorIndex
 90
       18
102
RTVSPost2010Prop41ColorRGB
 90
        0
102
RTVSPost2010PropOp41
 70
     1
102
RTVSPost2010Prop42
 90
       50
102
RTVSPost2010PropOp42
 70
     1
102
RTVSPost2010Prop43
 90
        3
102
RTVSPost2010PropOp43
 70
     1
102
RTVSPost2010Prop44ColorIndex
 90
        5
102
RTVSPost2010Prop44ColorRGB
 90
      255
102
RTVSPost2010PropOp44
 70
     1
102
RTVSPost2010Prop45
280
     0
102
RTVSPost2010PropOp45
 70
     1
102
RTVSPost2010Prop46
 90
       50
102
RTVSPost2010PropOp46
 70
     1
102
RTVSPost2010Prop47
 90
       50
102
RTVSPost2010PropOp47
 70
     1
102
RTVSPost2010Prop48
 90
       50
102
RTVSPost2010PropOp48
 70
     1
102
RTVSPost2010Prop49
280
     0
102
RTVSPost2010PropOp49
 70
     1
102
RTVSPost2010Prop50
 90
       50
102
RTVSPost2010PropOp50
 70
     1
102
RTVSPost2010Prop51ColorIndex
 90
      256
102
RTVSPost2010Prop51ColorRGB
 90
-16777216
102
RTVSPost2010PropOp51
 70
     0
102
RTVSPost2010Prop52
140
1.0
102
RTVSPost2010PropOp52
 70
     0
102
RTVSPost2010Prop53
 90
        2
102
RTVSPost2010PropOp53
 70
     1
102
RTVSPost2010Prop54
  1
strokes_ogs.tif
102
RTVSPost2010PropOp54
 70
     1
102
RTVSPost2010Prop55
280
     0
102
RTVSPost2010PropOp55
 70
     1
102
RTVSPost2010Prop56
140
1.0
102
RTVSPost2010PropOp56
 70
     1
102
RTVSPost2010Prop57
140
1.0
102
RTVSPost2010PropOp57
 70
     1
  0
XRECORD
  5
4F8
102
{ACAD_REACTORS
330
4F7
102
}
330
4F7
100
AcDbXrecord
280
     1
102
RTVSPost2010Prop28
280
     0
102
RTVSPost2010PropOp28
 70
     1
102
RTVSPost2010Prop29
280
     1
102
RTVSPost2010PropOp29
 70
     1
102
RTVSPost2010Prop30
280
     1
102
RTVSPost2010PropOp30
 70
     1
102
RTVSPost2010Prop31
280
     0
102
RTVSPost2010PropOp31
 70
     1
102
RTVSPost2010Prop32
280
     0
102
RTVSPost2010PropOp32
 70
     1
102
RTVSPost2010Prop33
280
     0
102
RTVSPost2010PropOp33
 70
     1
102
RTVSPost2010Prop34
280
     0
102
RTVSPost2010PropOp34
 70
     1
102
RTVSPost2010Prop35
280
     0
102
RTVSPost2010PropOp35
 70
     1
102
RTVSPost2010Prop36
280
     0
102
RTVSPost2010PropOp36
 70
     1
102
RTVSPost2010Prop37
 90
       50
102
RTVSPost2010PropOp37
 70
     1
102
RTVSPost2010Prop38
140
0.0
102
RTVSPost2010PropOp38
 70
     1
102
RTVSPost2010Prop39
140
1.0
102
RTVSPost2010PropOp39
 70
     1
102
RTVSPost2010Prop40
 90
        0
102
RTVSPost2010PropOp40
 70
     1
102
RTVSPost2010Prop41ColorIndex
 90
       18
102
RTVSPost2010Prop41ColorRGB
 90
        0
102
RTVSPost2010PropOp41
 70
     1
102
RTVSPost2010Prop42
 90
       50
102
RTVSPost2010PropOp42
 70
     1
102
RTVSPost2010Prop43
 90
        3
102
RTVSPost2010PropOp43
 70
     1
102
RTVSPost2010Prop44ColorIndex
 90
        5
102
RTVSPost2010Prop44ColorRGB
 90
      255
102
RTVSPost2010PropOp44
 70
     1
102
RTVSPost2010Prop45
280
     0
102
RTVSPost2010PropOp45
 70
     1
102
RTVSPost2010Prop46
 90
       50
102
RTVSPost2010PropOp46
 70
     1
102
RTVSPost2010Prop47
 90
       50
102
RTVSPost2010PropOp47
 70
     1
102
RTVSPost2010Prop48
 90
       50
102
RTVSPost2010PropOp48
 70
     1
102
RTVSPost2010Prop49
280
     0
102
RTVSPost2010PropOp49
 70
     1
102
RTVSPost2010Prop50
 90
       50
102
RTVSPost2010PropOp50
 70
     1
102
RTVSPost2010Prop51ColorIndex
 90
      256
102
RTVSPost2010Prop51ColorRGB
 90
-16777216
102
RTVSPost2010PropOp51
 70
     0
102
RTVSPost2010Prop52
140
1.0
102
RTVSPost2010PropOp52
 70
     0
102
RTVSPost2010Prop53
 90
        2
102
RTVSPost2010PropOp53
 70
     1
102
RTVSPost2010Prop54
  1
strokes_ogs.tif
102
RTVSPost2010PropOp54
 70
     1
102
RTVSPost2010Prop55
280
     0
102
RTVSPost2010PropOp55
 70
     1
102
RTVSPost2010Prop56
140
1.0
102
RTVSPost2010PropOp56
 70
     1
102
RTVSPost2010Prop57
140
1.0
102
RTVSPost2010PropOp57
 70
     1
  0
ENDSEC
  0
EOF
