  0
SECTION
  2
HEADER
  9
$ACADVER
  1
AC1024
  9
$ACADMAINTVER
 70
     6
  9
$DWGCODEPAGE
  3
ANSI_932
  9
$INSBASE
 10
0.0
 20
0.0
 30
0.0
  9
$EXTMIN
 10
-2955.0
 20
-2026.921149907168
 30
0.0
  9
$EXTMAX
 10
2955.0
 20
2026.921149907168
 30
0.0
  9
$LIMMIN
 10
-1050.0
 20
-742.5
  9
$LIMMAX
 10
1050.0
 20
742.5
  9
$ORTHOMODE
 70
     0
  9
$REGENMODE
 70
     1
  9
$FILLMODE
 70
     1
  9
$QTEXTMODE
 70
     0
  9
$MIRRTEXT
 70
     1
  9
$LTSCALE
 40
1.25
  9
$ATTMODE
 70
     1
  9
$TEXTSIZE
 40
0.2
  9
$TRACEWID
 40
0.05
  9
$TEXTSTYLE
  7
Standard
  9
$CLAYER
  8
0
  9
$CELTYPE
  6
ByLayer
  9
$CECOLOR
 62
   256
  9
$CELTSCALE
 40
1.0
  9
$DISPSILH
 70
     0
  9
$DIMSCALE
 40
1.0
  9
$DIMASZ
 40
15.00000953674316
  9
$DIMEXO
 40
1.0
  9
$DIMDLI
 40
10.0
  9
$DIMRND
 40
0.0
  9
$DIMDLE
 40
0.0
  9
$DIMEXE
 40
1.0
  9
$DIMTP
 40
0.0
  9
$DIMTM
 40
0.0
  9
$DIMTXT
 40
20.0
  9
$DIMCEN
 40
0.0
  9
$DIMTSZ
 40
0.0
  9
$DIMTOL
 70
     0
  9
$DIMLIM
 70
     0
  9
$DIMTIH
 70
     0
  9
$DIMTOH
 70
     0
  9
$DIMSE1
 70
     0
  9
$DIMSE2
 70
     0
  9
$DIMTAD
 70
     1
  9
$DIMZIN
 70
     8
  9
$DIMBLK
  1

  9
$DIMASO
 70
     1
  9
$DIMSHO
 70
     1
  9
$DIMPOST
  1

  9
$DIMAPOST
  1

  9
$DIMALT
 70
     0
  9
$DIMALTD
 70
     2
  9
$DIMALTF
 40
0.0393700787401575
  9
$DIMLFAC
 40
1.0
  9
$DIMTOFL
 70
     0
  9
$DIMTVP
 40
0.0
  9
$DIMTIX
 70
     0
  9
$DIMSOXD
 70
     0
  9
$DIMSAH
 70
     0
  9
$DIMBLK1
  1

  9
$DIMBLK2
  1

  9
$DIMSTYLE
  2
Standard
  9
$DIMCLRD
 70
     0
  9
$DIMCLRE
 70
     0
  9
$DIMCLRT
 70
     0
  9
$DIMTFAC
 40
0.65
  9
$DIMGAP
 40
0.09
  9
$DIMJUST
 70
     0
  9
$DIMSD1
 70
     0
  9
$DIMSD2
 70
     0
  9
$DIMTOLJ
 70
     0
  9
$DIMTZIN
 70
     0
  9
$DIMALTZ
 70
     0
  9
$DIMALTTZ
 70
     0
  9
$DIMUPT
 70
     0
  9
$DIMDEC
 70
     1
  9
$DIMTDEC
 70
     1
  9
$DIMALTU
 70
     2
  9
$DIMALTTD
 70
     1
  9
$DIMTXSTY
  7
Standard
  9
$DIMAUNIT
 70
     0
  9
$DIMADEC
 70
     1
  9
$DIMALTRND
 40
0.0
  9
$DIMAZIN
 70
     2
  9
$DIMDSEP
 70
    46
  9
$DIMATFIT
 70
     3
  9
$DIMFRAC
 70
     0
  9
$DIMLDRBLK
  1

  9
$DIMLUNIT
 70
     2
  9
$DIMLWD
 70
    -2
  9
$DIMLWE
 70
    -2
  9
$DIMTMOVE
 70
     0
  9
$DIMFXL
 40
1.0
  9
$DIMFXLON
 70
     0
  9
$DIMJOGANG
 40
0.7853981633974483
  9
$DIMTFILL
 70
     0
  9
$DIMTFILLCLR
 70
     0
  9
$DIMARCSYM
 70
     1
  9
$DIMLTYPE
  6

  9
$DIMLTEX1
  6

  9
$DIMLTEX2
  6

  9
$DIMTXTDIRECTION
 70
     0
  9
$LUNITS
 70
     2
  9
$LUPREC
 70
     4
  9
$SKETCHINC
 40
0.1
  9
$FILLETRAD
 40
0.5
  9
$AUNITS
 70
     0
  9
$AUPREC
 70
     0
  9
$MENU
  1
.
  9
$ELEVATION
 40
0.0
  9
$PELEVATION
 40
0.0
  9
$THICKNESS
 40
0.0
  9
$LIMCHECK
 70
     0
  9
$CHAMFERA
 40
0.0
  9
$CHAMFERB
 40
0.0
  9
$CHAMFERC
 40
0.0
  9
$CHAMFERD
 40
0.0
  9
$SKPOLY
 70
     0
  9
$TDCREATE
 40
2459611.462480451
  9
$TDUCREATE
 40
2459611.087480451
  9
$TDUPDATE
 40
2459611.462481111
  9
$TDUUPDATE
 40
2459611.087481111
  9
$TDINDWG
 40
0.0000000116
  9
$TDUSRTIMER
 40
0.0000000116
  9
$USRTIMER
 70
     1
  9
$ANGBASE
 50
0.0
  9
$ANGDIR
 70
     0
  9
$PDMODE
 70
     0
  9
$PDSIZE
 40
1.0
  9
$PLINEWID
 40
0.0
  9
$SPLFRAME
 70
     0
  9
$SPLINETYPE
 70
     6
  9
$SPLINESEGS
 70
     8
  9
$HANDSEED
  5
535
  9
$SURFTAB1
 70
     6
  9
$SURFTAB2
 70
     6
  9
$SURFTYPE
 70
     6
  9
$SURFU
 70
     6
  9
$SURFV
 70
     6
  9
$UCSBASE
  2

  9
$UCSNAME
  2

  9
$UCSORG
 10
0.0
 20
0.0
 30
0.0
  9
$UCSXDIR
 10
1.0
 20
0.0
 30
0.0
  9
$UCSYDIR
 10
0.0
 20
1.0
 30
0.0
  9
$UCSORTHOREF
  2

  9
$UCSORTHOVIEW
 70
     0
  9
$UCSORGTOP
 10
0.0
 20
0.0
 30
0.0
  9
$UCSORGBOTTOM
 10
0.0
 20
0.0
 30
0.0
  9
$UCSORGLEFT
 10
0.0
 20
0.0
 30
0.0
  9
$UCSORGRIGHT
 10
0.0
 20
0.0
 30
0.0
  9
$UCSORGFRONT
 10
0.0
 20
0.0
 30
0.0
  9
$UCSORGBACK
 10
0.0
 20
0.0
 30
0.0
  9
$PUCSBASE
  2

  9
$PUCSNAME
  2

  9
$PUCSORG
 10
0.0
 20
0.0
 30
0.0
  9
$PUCSXDIR
 10
1.0
 20
0.0
 30
0.0
  9
$PUCSYDIR
 10
0.0
 20
1.0
 30
0.0
  9
$PUCSORTHOREF
  2

  9
$PUCSORTHOVIEW
 70
     0
  9
$PUCSORGTOP
 10
0.0
 20
0.0
 30
0.0
  9
$PUCSORGBOTTOM
 10
0.0
 20
0.0
 30
0.0
  9
$PUCSORGLEFT
 10
0.0
 20
0.0
 30
0.0
  9
$PUCSORGRIGHT
 10
0.0
 20
0.0
 30
0.0
  9
$PUCSORGFRONT
 10
0.0
 20
0.0
 30
0.0
  9
$PUCSORGBACK
 10
0.0
 20
0.0
 30
0.0
  9
$USERI1
 70
     0
  9
$USERI2
 70
     0
  9
$USERI3
 70
     0
  9
$USERI4
 70
     0
  9
$USERI5
 70
     0
  9
$USERR1
 40
0.0
  9
$USERR2
 40
0.0
  9
$USERR3
 40
0.0
  9
$USERR4
 40
0.0
  9
$USERR5
 40
0.0
  9
$WORLDVIEW
 70
     1
  9
$SHADEDGE
 70
     3
  9
$SHADEDIF
 70
    70
  9
$TILEMODE
 70
     1
  9
$MAXACTVP
 70
    64
  9
$PINSBASE
 10
0.0
 20
0.0
 30
0.0
  9
$PLIMCHECK
 70
     0
  9
$PEXTMIN
 10
1.000000000000000E+20
 20
1.000000000000000E+20
 30
1.000000000000000E+20
  9
$PEXTMAX
 10
-1.000000000000000E+20
 20
-1.000000000000000E+20
 30
-1.000000000000000E+20
  9
$PLIMMIN
 10
0.0
 20
0.0
  9
$PLIMMAX
 10
12.0
 20
9.0
  9
$UNITMODE
 70
     0
  9
$VISRETAIN
 70
     0
  9
$PLINEGEN
 70
     1
  9
$PSLTSCALE
 70
     0
  9
$TREEDEPTH
 70
  3020
  9
$CMLSTYLE
  2
Standard
  9
$CMLJUST
 70
     0
  9
$CMLSCALE
 40
1.0
  9
$PROXYGRAPHICS
 70
     0
  9
$MEASUREMENT
 70
     1
  9
$CELWEIGHT
370
    -1
  9
$ENDCAPS
280
     0
  9
$JOINSTYLE
280
     0
  9
$LWDISPLAY
290
     1
  9
$INSUNITS
 70
     4
  9
$HYPERLINKBASE
  1

  9
$STYLESHEET
  1

  9
$XEDIT
290
     1
  9
$CEPSNTYPE
380
     0
  9
$PSTYLEMODE
290
     1
  9
$FINGERPRINTGUID
  2
{5f04c893-bbad-4b60-a8f3-b150d98f09d9}
  9
$VERSIONGUID
  2
{FAEB1C32-E019-11D5-929B-00C0DF256EC4}
  9
$EXTNAMES
290
     1
  9
$PSVPSCALE
 40
0.0
  9
$OLESTARTUP
290
     0
  9
$SORTENTS
280
   127
  9
$INDEXCTL
280
     0
  9
$HIDETEXT
280
     1
  9
$XCLIPFRAME
280
     2
  9
$HALOGAP
280
     0
  9
$OBSCOLOR
 70
   257
  9
$OBSLTYPE
280
     0
  9
$INTERSECTIONDISPLAY
280
     0
  9
$INTERSECTIONCOLOR
 70
   257
  9
$DIMASSOC
280
     2
  9
$PROJECTNAME
  1

  9
$CAMERADISPLAY
290
     0
  9
$LENSLENGTH
 40
50.0
  9
$CAMERAHEIGHT
 40
0.0
  9
$STEPSPERSEC
 40
2.0
  9
$STEPSIZE
 40
6.0
  9
$3DDWFPREC
 40
2.0
  9
$PSOLWIDTH
 40
0.25
  9
$PSOLHEIGHT
 40
4.0
  9
$LOFTANG1
 40
1.570796326794897
  9
$LOFTANG2
 40
1.570796326794897
  9
$LOFTMAG1
 40
0.0
  9
$LOFTMAG2
 40
0.0
  9
$LOFTPARAM
 70
     7
  9
$LOFTNORMALS
280
     1
  9
$LATITUDE
 40
37.795
  9
$LONGITUDE
 40
-122.394
  9
$NORTHDIRECTION
 40
0.0
  9
$TIMEZONE
 70
 -8000
  9
$LIGHTGLYPHDISPLAY
280
     1
  9
$TILEMODELIGHTSYNCH
280
     1
  9
$CMATERIAL
347
44
  9
$SOLIDHIST
280
     0
  9
$SHOWHIST
280
     1
  9
$DWFFRAME
280
     2
  9
$DGNFRAME
280
     2
  9
$REALWORLDSCALE
290
     1
  9
$INTERFERECOLOR
 62
   256
  9
$CSHADOW
280
     0
  9
$SHADOWPLANELOCATION
 40
0.0
  0
ENDSEC
  0
SECTION
  2
CLASSES
  0
CLASS
  1
ACDBDICTIONARYWDFLT
  2
AcDbDictionaryWithDefault
  3
ObjectDBX Classes
 90
        0
 91
        3
280
     0
281
     0
  0
CLASS
  1
VISUALSTYLE
  2
AcDbVisualStyle
  3
ObjectDBX Classes
 90
     4095
 91
        3
280
     0
281
     0
  0
CLASS
  1
MATERIAL
  2
AcDbMaterial
  3
ObjectDBX Classes
 90
     1153
 91
        3
280
     0
281
     0
  0
CLASS
  1
SCALE
  2
AcDbScale
  3
ObjectDBX Classes
 90
     1153
 91
        3
280
     0
281
     0
  0
CLASS
  1
TABLESTYLE
  2
AcDbTableStyle
  3
ObjectDBX Classes
 90
     4095
 91
        3
280
     0
281
     0
  0
CLASS
  1
MLEADERSTYLE
  2
AcDbMLeaderStyle
  3
ACDB_MLEADERSTYLE_CLASS
 90
     4095
 91
        3
280
     0
281
     0
  0
CLASS
  1
SUN
  2
AcDbSun
  3
SCENEOE
 90
     1153
 91
        3
280
     0
281
     0
  0
CLASS
  1
DICTIONARYVAR
  2
AcDbDictionaryVar
  3
ObjectDBX Classes
 90
        0
 91
        3
280
     0
281
     0
  0
CLASS
  1
CELLSTYLEMAP
  2
AcDbCellStyleMap
  3
ObjectDBX Classes
 90
     1152
 91
        3
280
     0
281
     0
  0
ENDSEC
  0
SECTION
  2
TABLES
  0
TABLE
  2
VPORT
  5
8
330
0
100
AcDbSymbolTable
 70
     1
  0
VPORT
  5
29
330
8
100
AcDbSymbolTableRecord
100
AcDbViewportTableRecord
  2
*Active
 70
     0
 10
0.0
 20
0.0
 11
1.0
 21
1.0
 12
0.0
 22
0.0
 13
0.0
 23
0.0
 14
0.5
 24
0.5
 15
0.5
 25
0.5
 16
0.0
 26
0.0
 36
1.0
 17
-0.0000000000000036
 27
0.0
 37
0.0
 40
1378.306381936874
 41
1.457876148825689
 42
50.0
 43
0.0
 44
0.0
 50
0.0
 51
0.0
 71
     0
 72
  1000
 73
     1
 74
     1
 75
     0
 76
     0
 77
     0
 78
     0
281
     0
 65
     1
110
0.0
120
0.0
130
0.0
111
1.0
121
0.0
131
0.0
112
0.0
122
1.0
132
0.0
 79
     0
146
0.0
348
2F
 60
     3
 61
     5
292
     1
282
     1
141
0.0
142
0.0
 63
   250
361
6D
  0
ENDTAB
  0
TABLE
  2
LTYPE
  5
5
330
0
100
AcDbSymbolTable
 70
    67
  0
LTYPE
  5
14
330
5
100
AcDbSymbolTableRecord
100
AcDbLinetypeTableRecord
  2
ByBlock
 70
     0
  3

 72
    65
 73
     0
 40
0.0
  0
LTYPE
  5
15
330
5
100
AcDbSymbolTableRecord
100
AcDbLinetypeTableRecord
  2
ByLayer
 70
     0
  3

 72
    65
 73
     0
 40
0.0
  0
LTYPE
  5
16
330
5
100
AcDbSymbolTableRecord
100
AcDbLinetypeTableRecord
  2
Continuous
 70
     0
  3
Solid line
 72
    65
 73
     0
 40
0.0
  0
LTYPE
  5
6F
330
5
100
AcDbSymbolTableRecord
100
AcDbLinetypeTableRecord
  2
HIDDENX2
 70
     0
  3
Hidden (2x) ____ ____ ____ ____ ____ ____ ____ 
 72
    65
 73
     2
 40
19.05
 49
12.7
 74
     0
 49
-6.35
 74
     0
  0
LTYPE
  5
70
330
5
100
AcDbSymbolTableRecord
100
AcDbLinetypeTableRecord
  2
HIDDEN
 70
     0
  3
Hidden __ __ __ __ __ __ __ __ __ __ __ __ __ __
 72
    65
 73
     2
 40
9.524999999999999
 49
6.35
 74
     0
 49
-3.175
 74
     0
  0
LTYPE
  5
71
330
5
100
AcDbSymbolTableRecord
100
AcDbLinetypeTableRecord
  2
HIDDEN2
 70
     0
  3
Hidden (.5x) _ _ _ _ _ _ _ _ _ _ _ _ _ _ _ _ _ 
 72
    65
 73
     2
 40
4.762499999999999
 49
3.175
 74
     0
 49
-1.5875
 74
     0
  0
LTYPE
  5
72
330
5
100
AcDbSymbolTableRecord
100
AcDbLinetypeTableRecord
  2
DASHED
 70
     0
  3
Dashed __ __ __ __ __ __ __ __ __ __ __ __ __ _
 72
    65
 73
     2
 40
19.05
 49
12.7
 74
     0
 49
-6.35
 74
     0
  0
LTYPE
  5
73
330
5
100
AcDbSymbolTableRecord
100
AcDbLinetypeTableRecord
  2
DASHED2
 70
     0
  3
Dashed (.5x) _ _ _ _ _ _ _ _ _ _ _ _ _ _ _ _ _ 
 72
    65
 73
     2
 40
9.524999999999999
 49
6.35
 74
     0
 49
-3.175
 74
     0
  0
LTYPE
  5
74
330
5
100
AcDbSymbolTableRecord
100
AcDbLinetypeTableRecord
  2
DASHEDX2
 70
     0
  3
Dashed (2x) ____  ____  ____  ____  ____  ___
 72
    65
 73
     2
 40
38.09999999999999
 49
25.4
 74
     0
 49
-12.7
 74
     0
  0
LTYPE
  5
75
330
5
100
AcDbSymbolTableRecord
100
AcDbLinetypeTableRecord
  2
DOTX2
 70
     0
  3
Dot (2x) .  .  .  .  .  .  .  .  .  .  .  .  .  .
 72
    65
 73
     2
 40
12.7
 49
0.0
 74
     0
 49
-12.7
 74
     0
  0
LTYPE
  5
76
330
5
100
AcDbSymbolTableRecord
100
AcDbLinetypeTableRecord
  2
DOT
 70
     0
  3
Dot . . . . . . . . . . . . . . . . . . . . . . . .
 72
    65
 73
     2
 40
6.35
 49
0.0
 74
     0
 49
-6.35
 74
     0
  0
LTYPE
  5
77
330
5
100
AcDbSymbolTableRecord
100
AcDbLinetypeTableRecord
  2
DOT2
 70
     0
  3
Dot (.5x) ........................................
 72
    65
 73
     2
 40
3.175
 49
0.0
 74
     0
 49
-3.175
 74
     0
  0
LTYPE
  5
78
330
5
100
AcDbSymbolTableRecord
100
AcDbLinetypeTableRecord
  2
CENTERX2
 70
     0
  3
Center (2x) ________  __  ________  __  _____
 72
    65
 73
     4
 40
101.6
 49
63.5
 74
     0
 49
-12.7
 74
     0
 49
12.7
 74
     0
 49
-12.7
 74
     0
  0
LTYPE
  5
79
330
5
100
AcDbSymbolTableRecord
100
AcDbLinetypeTableRecord
  2
CENTER
 70
     0
  3
Center ____ _ ____ _ ____ _ ____ _ ____ _ ____
 72
    65
 73
     4
 40
50.8
 49
31.75
 74
     0
 49
-6.35
 74
     0
 49
6.35
 74
     0
 49
-6.35
 74
     0
  0
LTYPE
  5
7A
330
5
100
AcDbSymbolTableRecord
100
AcDbLinetypeTableRecord
  2
CENTER2
 70
     0
  3
Center (.5x) ___ _ ___ _ ___ _ ___ _ ___ _ ___
 72
    65
 73
     4
 40
28.575
 49
19.05
 74
     0
 49
-3.175
 74
     0
 49
3.175
 74
     0
 49
-3.175
 74
     0
  0
LTYPE
  5
7B
330
5
100
AcDbSymbolTableRecord
100
AcDbLinetypeTableRecord
  2
DASHDOTX2
 70
     0
  3
Dash dot (2x) ____  .  ____  .  ____  .  ___
 72
    65
 73
     4
 40
50.8
 49
25.4
 74
     0
 49
-12.7
 74
     0
 49
0.0
 74
     0
 49
-12.7
 74
     0
  0
LTYPE
  5
7C
330
5
100
AcDbSymbolTableRecord
100
AcDbLinetypeTableRecord
  2
DASHDOT
 70
     0
  3
Dash dot __ . __ . __ . __ . __ . __ . __ . __
 72
    65
 73
     4
 40
25.4
 49
12.7
 74
     0
 49
-6.35
 74
     0
 49
0.0
 74
     0
 49
-6.35
 74
     0
  0
LTYPE
  5
7D
330
5
100
AcDbSymbolTableRecord
100
AcDbLinetypeTableRecord
  2
DASHDOT2
 70
     0
  3
Dash dot (.5x) _._._._._._._._._._._._._._._.
 72
    65
 73
     4
 40
12.7
 49
6.35
 74
     0
 49
-3.175
 74
     0
 49
0.0
 74
     0
 49
-3.175
 74
     0
  0
LTYPE
  5
7E
330
5
100
AcDbSymbolTableRecord
100
AcDbLinetypeTableRecord
  2
DIVIDEX2
 70
     0
  3
Divide (2x) ________  .  .  ________  .  .  _
 72
    65
 73
     6
 40
63.5
 49
25.4
 74
     0
 49
-12.7
 74
     0
 49
0.0
 74
     0
 49
-12.7
 74
     0
 49
0.0
 74
     0
 49
-12.7
 74
     0
  0
LTYPE
  5
7F
330
5
100
AcDbSymbolTableRecord
100
AcDbLinetypeTableRecord
  2
DIVIDE
 70
     0
  3
Divide ____ . . ____ . . ____ . . ____ . . ____
 72
    65
 73
     6
 40
31.75
 49
12.7
 74
     0
 49
-6.35
 74
     0
 49
0.0
 74
     0
 49
-6.35
 74
     0
 49
0.0
 74
     0
 49
-6.35
 74
     0
  0
LTYPE
  5
80
330
5
100
AcDbSymbolTableRecord
100
AcDbLinetypeTableRecord
  2
DIVIDE2
 70
     0
  3
Divide (.5x) __..__..__..__..__..__..__..__.._
 72
    65
 73
     6
 40
15.875
 49
6.35
 74
     0
 49
-3.175
 74
     0
 49
0.0
 74
     0
 49
-3.175
 74
     0
 49
0.0
 74
     0
 49
-3.175
 74
     0
  0
LTYPE
  5
81
330
5
100
AcDbSymbolTableRecord
100
AcDbLinetypeTableRecord
  2
BORDERX2
 70
     0
  3
Border (2x) ____  ____  .  ____  ____  .  ___
 72
    65
 73
     6
 40
88.89999999999999
 49
25.4
 74
     0
 49
-12.7
 74
     0
 49
25.4
 74
     0
 49
-12.7
 74
     0
 49
0.0
 74
     0
 49
-12.7
 74
     0
  0
LTYPE
  5
82
330
5
100
AcDbSymbolTableRecord
100
AcDbLinetypeTableRecord
  2
BORDER
 70
     0
  3
Border __ __ . __ __ . __ __ . __ __ . __ __ .
 72
    65
 73
     6
 40
44.45
 49
12.7
 74
     0
 49
-6.35
 74
     0
 49
12.7
 74
     0
 49
-6.35
 74
     0
 49
0.0
 74
     0
 49
-6.35
 74
     0
  0
LTYPE
  5
83
330
5
100
AcDbSymbolTableRecord
100
AcDbLinetypeTableRecord
  2
BORDER2
 70
     0
  3
Border (.5x) __.__.__.__.__.__.__.__.__.__.__.
 72
    65
 73
     6
 40
22.225
 49
6.35
 74
     0
 49
-3.175
 74
     0
 49
6.35
 74
     0
 49
-3.175
 74
     0
 49
0.0
 74
     0
 49
-3.175
 74
     0
  0
LTYPE
  5
84
330
5
100
AcDbSymbolTableRecord
100
AcDbLinetypeTableRecord
  2
PHANTOMX2
 70
     0
  3
Phantom (2x) ____________    ____    ____   _
 72
    65
 73
     6
 40
127.0
 49
63.5
 74
     0
 49
-12.7
 74
     0
 49
12.7
 74
     0
 49
-12.7
 74
     0
 49
12.7
 74
     0
 49
-12.7
 74
     0
  0
LTYPE
  5
85
330
5
100
AcDbSymbolTableRecord
100
AcDbLinetypeTableRecord
  2
PHANTOM
 70
     0
  3
Phantom ______  __  __  ______  __  __  ______ 
 72
    65
 73
     6
 40
63.5
 49
31.75
 74
     0
 49
-6.35
 74
     0
 49
6.35
 74
     0
 49
-6.35
 74
     0
 49
6.35
 74
     0
 49
-6.35
 74
     0
  0
LTYPE
  5
86
330
5
100
AcDbSymbolTableRecord
100
AcDbLinetypeTableRecord
  2
PHANTOM2
 70
     0
  3
Phantom (.5x) ___ _ _ ___ _ _ ___ _ _ ___ _ _
 72
    65
 73
     6
 40
31.75
 49
15.875
 74
     0
 49
-3.175
 74
     0
 49
3.175
 74
     0
 49
-3.175
 74
     0
 49
3.175
 74
     0
 49
-3.175
 74
     0
  0
LTYPE
  5
87
330
5
100
AcDbSymbolTableRecord
100
AcDbLinetypeTableRecord
  2
ACAD_ISO06W100
 70
     0
  3
ISO long-dash triple-dot ____ ... ____ ... ____
 72
    65
 73
     8
 40
36.0
 49
24.0
 74
     0
 49
-3.0
 74
     0
 49
0.0
 74
     0
 49
-3.0
 74
     0
 49
0.0
 74
     0
 49
-3.0
 74
     0
 49
0.0
 74
     0
 49
-3.0
 74
     0
  0
LTYPE
  5
88
330
5
100
AcDbSymbolTableRecord
100
AcDbLinetypeTableRecord
  2
ACAD_ISO13W100
 70
     0
  3
ISO double-dash double-dot __ __ . . __ __ . . _
 72
    65
 73
     8
 40
36.0
 49
12.0
 74
     0
 49
-3.0
 74
     0
 49
12.0
 74
     0
 49
-3.0
 74
     0
 49
0.0
 74
     0
 49
-3.0
 74
     0
 49
0.0
 74
     0
 49
-3.0
 74
     0
  0
LTYPE
  5
89
330
5
100
AcDbSymbolTableRecord
100
AcDbLinetypeTableRecord
  2
ACAD_ISO14W100
 70
     0
  3
ISO dash triple-dot __ . . . __ . . . __ . . . _
 72
    65
 73
     8
 40
24.0
 49
12.0
 74
     0
 49
-3.0
 74
     0
 49
0.0
 74
     0
 49
-3.0
 74
     0
 49
0.0
 74
     0
 49
-3.0
 74
     0
 49
0.0
 74
     0
 49
-3.0
 74
     0
  0
LTYPE
  5
8A
330
5
100
AcDbSymbolTableRecord
100
AcDbLinetypeTableRecord
  2
ACAD_ISO02W100
 70
     0
  3
ISO dash __ __ __ __ __ __ __ __ __ __ __ __ __
 72
    65
 73
     2
 40
15.0
 49
12.0
 74
     0
 49
-3.0
 74
     0
  0
LTYPE
  5
8B
330
5
100
AcDbSymbolTableRecord
100
AcDbLinetypeTableRecord
  2
ACAD_ISO03W100
 70
     0
  3
ISO dash space __    __    __    __    __    __
 72
    65
 73
     2
 40
30.0
 49
12.0
 74
     0
 49
-18.0
 74
     0
  0
LTYPE
  5
8C
330
5
100
AcDbSymbolTableRecord
100
AcDbLinetypeTableRecord
  2
ACAD_ISO04W100
 70
     0
  3
ISO long-dash dot ____ . ____ . ____ . ____ . _
 72
    65
 73
     4
 40
30.0
 49
24.0
 74
     0
 49
-3.0
 74
     0
 49
0.0
 74
     0
 49
-3.0
 74
     0
  0
LTYPE
  5
8D
330
5
100
AcDbSymbolTableRecord
100
AcDbLinetypeTableRecord
  2
ACAD_ISO05W100
 70
     0
  3
ISO long-dash double-dot ____ .. ____ .. ____ . 
 72
    65
 73
     6
 40
33.0
 49
24.0
 74
     0
 49
-3.0
 74
     0
 49
0.0
 74
     0
 49
-3.0
 74
     0
 49
0.0
 74
     0
 49
-3.0
 74
     0
  0
LTYPE
  5
8E
330
5
100
AcDbSymbolTableRecord
100
AcDbLinetypeTableRecord
  2
ACAD_ISO07W100
 70
     0
  3
ISO dot . . . . . . . . . . . . . . . . . . . . 
 72
    65
 73
     2
 40
3.0
 49
0.0
 74
     0
 49
-3.0
 74
     0
  0
LTYPE
  5
8F
330
5
100
AcDbSymbolTableRecord
100
AcDbLinetypeTableRecord
  2
ACAD_ISO08W100
 70
     0
  3
ISO long-dash short-dash ____ __ ____ __ ____ _
 72
    65
 73
     4
 40
36.0
 49
24.0
 74
     0
 49
-3.0
 74
     0
 49
6.0
 74
     0
 49
-3.0
 74
     0
  0
LTYPE
  5
90
330
5
100
AcDbSymbolTableRecord
100
AcDbLinetypeTableRecord
  2
ACAD_ISO09W100
 70
     0
  3
ISO long-dash double-short-dash ____ __ __ ____
 72
    65
 73
     6
 40
45.0
 49
24.0
 74
     0
 49
-3.0
 74
     0
 49
6.0
 74
     0
 49
-3.0
 74
     0
 49
6.0
 74
     0
 49
-3.0
 74
     0
  0
LTYPE
  5
91
330
5
100
AcDbSymbolTableRecord
100
AcDbLinetypeTableRecord
  2
ACAD_ISO10W100
 70
     0
  3
ISO dash dot __ . __ . __ . __ . __ . __ . __ . 
 72
    65
 73
     4
 40
18.0
 49
12.0
 74
     0
 49
-3.0
 74
     0
 49
0.0
 74
     0
 49
-3.0
 74
     0
  0
LTYPE
  5
92
330
5
100
AcDbSymbolTableRecord
100
AcDbLinetypeTableRecord
  2
ACAD_ISO11W100
 70
     0
  3
ISO double-dash dot __ __ . __ __ . __ __ . __ _
 72
    65
 73
     6
 40
33.0
 49
12.0
 74
     0
 49
-3.0
 74
     0
 49
12.0
 74
     0
 49
-3.0
 74
     0
 49
0.0
 74
     0
 49
-3.0
 74
     0
  0
LTYPE
  5
93
330
5
100
AcDbSymbolTableRecord
100
AcDbLinetypeTableRecord
  2
ACAD_ISO12W100
 70
     0
  3
ISO dash double-dot __ . . __ . . __ . . __ . . 
 72
    65
 73
     6
 40
21.0
 49
12.0
 74
     0
 49
-3.0
 74
     0
 49
0.0
 74
     0
 49
-3.0
 74
     0
 49
0.0
 74
     0
 49
-3.0
 74
     0
  0
LTYPE
  5
94
330
5
100
AcDbSymbolTableRecord
100
AcDbLinetypeTableRecord
  2
ACAD_ISO15W100
 70
     0
  3
ISO double-dash triple-dot __ __ . . . __ __ . .
 72
    65
 73
    10
 40
39.0
 49
12.0
 74
     0
 49
-3.0
 74
     0
 49
12.0
 74
     0
 49
-3.0
 74
     0
 49
0.0
 74
     0
 49
-3.0
 74
     0
 49
0.0
 74
     0
 49
-3.0
 74
     0
 49
0.0
 74
     0
 49
-3.0
 74
     0
  0
LTYPE
  5
95
330
5
100
AcDbSymbolTableRecord
100
AcDbLinetypeTableRecord
  2
JIS_02_0.7
 70
     0
  3
HIDDEN0.75 _ _ _ _ _ _ _ _ _ _ _ _ _ _ _ _ _ 
 72
    65
 73
     2
 40
1.35
 49
0.75
 74
     0
 49
-0.6
 74
     0
  0
LTYPE
  5
96
330
5
100
AcDbSymbolTableRecord
100
AcDbLinetypeTableRecord
  2
JIS_02_1.0
 70
     0
  3
HIDDEN01 _ _ _ _ _ _ _ _ _ _ _ _ _ _ _ _ _ 
 72
    65
 73
     2
 40
2.0
 49
1.0
 74
     0
 49
-1.0
 74
     0
  0
LTYPE
  5
97
330
5
100
AcDbSymbolTableRecord
100
AcDbLinetypeTableRecord
  2
JIS_02_1.2
 70
     0
  3
HIDDEN01.25  _ _ _ _ _ _ _ _ _ _ _ _ _ _ _ _ _ 
 72
    65
 73
     2
 40
2.5
 49
1.25
 74
     0
 49
-1.25
 74
     0
  0
LTYPE
  5
98
330
5
100
AcDbSymbolTableRecord
100
AcDbLinetypeTableRecord
  2
JIS_02_2.0
 70
     0
  3
HIDDEN02 __ __ __ __ __ __ __ __ __ __ __ 
 72
    65
 73
     2
 40
3.0
 49
2.0
 74
     0
 49
-1.0
 74
     0
  0
LTYPE
  5
99
330
5
100
AcDbSymbolTableRecord
100
AcDbLinetypeTableRecord
  2
JIS_02_4.0
 70
     0
  3
HIDDEN04 ____ ____ ____ ____ ____ ____ ____ 
 72
    65
 73
     2
 40
5.5
 49
4.0
 74
     0
 49
-1.5
 74
     0
  0
LTYPE
  5
9A
330
5
100
AcDbSymbolTableRecord
100
AcDbLinetypeTableRecord
  2
JIS_08_11
 70
     0
  3
1SASEN11 ___ _ ___ _ ___ _ ___ _ ___ _ ___
 72
    65
 73
     4
 40
12.8
 49
11.0
 74
     0
 49
-0.6
 74
     0
 49
0.6
 74
     0
 49
-0.6
 74
     0
  0
LTYPE
  5
9B
330
5
100
AcDbSymbolTableRecord
100
AcDbLinetypeTableRecord
  2
JIS_08_15
 70
     0
  3
1SASEN15 ____ _ ____ _ ____ _ ____ _ ____ 
 72
    65
 73
     4
 40
17.25
 49
15.0
 74
     0
 49
-0.75
 74
     0
 49
0.75
 74
     0
 49
-0.75
 74
     0
  0
LTYPE
  5
9C
330
5
100
AcDbSymbolTableRecord
100
AcDbLinetypeTableRecord
  2
JIS_08_25
 70
     0
  3
1SASEN25 ________  __  ________  __  _____
 72
    65
 73
     4
 40
28.0
 49
25.0
 74
     0
 49
-1.125
 74
     0
 49
0.75
 74
     0
 49
-1.125
 74
     0
  0
LTYPE
  5
9D
330
5
100
AcDbSymbolTableRecord
100
AcDbLinetypeTableRecord
  2
JIS_08_37
 70
     0
  3
1SASEN37 ________  __  ________  __  _____
 72
    65
 73
     4
 40
40.5
 49
37.5
 74
     0
 49
-1.125
 74
     0
 49
0.75
 74
     0
 49
-1.125
 74
     0
  0
LTYPE
  5
9E
330
5
100
AcDbSymbolTableRecord
100
AcDbLinetypeTableRecord
  2
JIS_08_50
 70
     0
  3
1SASEN50 _______________  __  ____________
 72
    65
 73
     4
 40
53.0
 49
50.0
 74
     0
 49
-1.125
 74
     0
 49
0.75
 74
     0
 49
-1.125
 74
     0
  0
LTYPE
  5
9F
330
5
100
AcDbSymbolTableRecord
100
AcDbLinetypeTableRecord
  2
JIS_09_08
 70
     0
  3
2SASEN8 __ _ _ __ _ _ __ _ _ __ _ _ __ _ _ 
 72
    65
 73
     6
 40
10.75
 49
8.0
 74
     0
 49
-0.55
 74
     0
 49
0.55
 74
     0
 49
-0.55
 74
     0
 49
0.55
 74
     0
 49
-0.55
 74
     0
  0
LTYPE
  5
A0
330
5
100
AcDbSymbolTableRecord
100
AcDbLinetypeTableRecord
  2
JIS_09_15
 70
     0
  3
2SASEN15 ___ _ _ ___ _ _ ___ _ _ ___ _ _ ___ 
 72
    65
 73
     6
 40
18.9
 49
15.0
 74
     0
 49
-0.9
 74
     0
 49
0.6
 74
     0
 49
-0.9
 74
     0
 49
0.6
 74
     0
 49
-0.9
 74
     0
  0
LTYPE
  5
A1
330
5
100
AcDbSymbolTableRecord
100
AcDbLinetypeTableRecord
  2
JIS_09_29
 70
     0
  3
2SASEN29 ______　__  __  ______　__  __  ___
 72
    65
 73
     6
 40
34.0
 49
29.0
 74
     0
 49
-1.2
 74
     0
 49
0.7
 74
     0
 49
-1.2
 74
     0
 49
0.7
 74
     0
 49
-1.2
 74
     0
  0
LTYPE
  5
A2
330
5
100
AcDbSymbolTableRecord
100
AcDbLinetypeTableRecord
  2
JIS_09_50
 70
     0
  3
2SASEN50 ____________　__  __  _____________
 72
    65
 73
     6
 40
55.0
 49
50.0
 74
     0
 49
-1.2
 74
     0
 49
0.7
 74
     0
 49
-1.2
 74
     0
 49
0.7
 74
     0
 49
-1.2
 74
     0
  0
LTYPE
  5
A3
330
5
100
AcDbSymbolTableRecord
100
AcDbLinetypeTableRecord
  2
SXF_破線
 70
     0
  3
02 dashed -- -- -- -- -- --
 72
    65
 73
     2
 40
7.5
 49
6.0
 74
     0
 49
-1.5
 74
     0
  0
LTYPE
  5
A4
330
5
100
AcDbSymbolTableRecord
100
AcDbLinetypeTableRecord
  2
SXF_跳び破線
 70
     0
  3
03 dashed_spaced --  --  --  --
 72
    65
 73
     2
 40
12.0
 49
6.0
 74
     0
 49
-6.0
 74
     0
  0
LTYPE
  5
A5
330
5
100
AcDbSymbolTableRecord
100
AcDbLinetypeTableRecord
  2
SXF_一点長鎖線
 70
     0
  3
04 long_dashed_dotted ---- . ---- . ----
 72
    65
 73
     4
 40
15.25
 49
12.0
 74
     0
 49
-1.5
 74
     0
 49
0.25
 74
     0
 49
-1.5
 74
     0
  0
LTYPE
  5
A6
330
5
100
AcDbSymbolTableRecord
100
AcDbLinetypeTableRecord
  2
SXF_二点長鎖線
 70
     0
  3
05 long_dashed_double-dotted ---- . . ---- 
 72
    65
 73
     6
 40
17.0
 49
12.0
 74
     0
 49
-1.5
 74
     0
 49
0.25
 74
     0
 49
-1.5
 74
     0
 49
0.25
 74
     0
 49
-1.5
 74
     0
  0
LTYPE
  5
A7
330
5
100
AcDbSymbolTableRecord
100
AcDbLinetypeTableRecord
  2
SXF_三点長鎖線
 70
     0
  3
06 long_dashed_triplicate-dotted ---- ... ---- 
 72
    65
 73
     8
 40
18.75
 49
12.0
 74
     0
 49
-1.5
 74
     0
 49
0.25
 74
     0
 49
-1.5
 74
     0
 49
0.25
 74
     0
 49
-1.5
 74
     0
 49
0.25
 74
     0
 49
-1.5
 74
     0
  0
LTYPE
  5
A8
330
5
100
AcDbSymbolTableRecord
100
AcDbLinetypeTableRecord
  2
SXF_点線
 70
     0
  3
07 dotted . . . . . . . . . . . . 
 72
    65
 73
     2
 40
1.75
 49
0.25
 74
     0
 49
-1.5
 74
     0
  0
LTYPE
  5
A9
330
5
100
AcDbSymbolTableRecord
100
AcDbLinetypeTableRecord
  2
SXF_一点鎖線
 70
     0
  3
08 chain ---- - --- - --- - ---
 72
    65
 73
     4
 40
18.5
 49
12.0
 74
     0
 49
-1.5
 74
     0
 49
3.5
 74
     0
 49
-1.5
 74
     0
  0
LTYPE
  5
AA
330
5
100
AcDbSymbolTableRecord
100
AcDbLinetypeTableRecord
  2
SXF_二点鎖線
 70
     0
  3
09 chain_double_dash ---- - - ---- - - ----
 72
    65
 73
     6
 40
23.5
 49
12.0
 74
     0
 49
-1.5
 74
     0
 49
3.5
 74
     0
 49
-1.5
 74
     0
 49
3.5
 74
     0
 49
-1.5
 74
     0
  0
LTYPE
  5
AB
330
5
100
AcDbSymbolTableRecord
100
AcDbLinetypeTableRecord
  2
SXF_一点短鎖線
 70
     0
  3
10 dashed_dotted -- . -- . -- . --
 72
    65
 73
     4
 40
9.25
 49
6.0
 74
     0
 49
-1.5
 74
     0
 49
0.25
 74
     0
 49
-1.5
 74
     0
  0
LTYPE
  5
AC
330
5
100
AcDbSymbolTableRecord
100
AcDbLinetypeTableRecord
  2
SXF_一点二短鎖線
 70
     0
  3
11 double-dashed_dotted -- -- . -- --
 72
    65
 73
     6
 40
16.75
 49
6.0
 74
     0
 49
-1.5
 74
     0
 49
6.0
 74
     0
 49
-1.5
 74
     0
 49
0.25
 74
     0
 49
-1.5
 74
     0
  0
LTYPE
  5
AD
330
5
100
AcDbSymbolTableRecord
100
AcDbLinetypeTableRecord
  2
SXF_二点短鎖線
 70
     0
  3
12 dashed_double_dotted -- . . -- . . --
 72
    65
 73
     6
 40
11.0
 49
6.0
 74
     0
 49
-1.5
 74
     0
 49
0.25
 74
     0
 49
-1.5
 74
     0
 49
0.25
 74
     0
 49
-1.5
 74
     0
  0
LTYPE
  5
AE
330
5
100
AcDbSymbolTableRecord
100
AcDbLinetypeTableRecord
  2
SXF_二点二短鎖線
 70
     0
  3
13 double-dashed_double-dotted -- -- . . -- --
 72
    65
 73
     8
 40
18.5
 49
6.0
 74
     0
 49
-1.5
 74
     0
 49
6.0
 74
     0
 49
-1.5
 74
     0
 49
0.25
 74
     0
 49
-1.5
 74
     0
 49
0.25
 74
     0
 49
-1.5
 74
     0
  0
LTYPE
  5
AF
330
5
100
AcDbSymbolTableRecord
100
AcDbLinetypeTableRecord
  2
SXF_三点短鎖線
 70
     0
  3
14 dashed triplicate-dotted -- . . . -- . . . --
 72
    65
 73
     8
 40
12.75
 49
6.0
 74
     0
 49
-1.5
 74
     0
 49
0.25
 74
     0
 49
-1.5
 74
     0
 49
0.25
 74
     0
 49
-1.5
 74
     0
 49
0.25
 74
     0
 49
-1.5
 74
     0
  0
LTYPE
  5
B0
330
5
100
AcDbSymbolTableRecord
100
AcDbLinetypeTableRecord
  2
SXF_三点二短鎖線
 70
     0
  3
15 double-dashed triplicate-dotted -- -- . . . -- -- 
 72
    65
 73
    10
 40
20.25
 49
6.0
 74
     0
 49
-1.5
 74
     0
 49
6.0
 74
     0
 49
-1.5
 74
     0
 49
0.25
 74
     0
 49
-1.5
 74
     0
 49
0.25
 74
     0
 49
-1.5
 74
     0
 49
0.25
 74
     0
 49
-1.5
 74
     0
  0
ENDTAB
  0
TABLE
  2
LAYER
  5
2
330
0
100
AcDbSymbolTable
 70
     4
  0
LAYER
  5
10
330
2
100
AcDbSymbolTableRecord
100
AcDbLayerTableRecord
  2
0
 70
     0
 62
     7
  6
Continuous
370
    -3
390
F
347
46
  0
LAYER
  5
B1
330
2
100
AcDbSymbolTableRecord
100
AcDbLayerTableRecord
  2
2
 70
     0
 62
     7
  6
Continuous
370
    -3
390
F
347
46
  0
LAYER
  5
B2
330
2
100
AcDbSymbolTableRecord
100
AcDbLayerTableRecord
  2
12
 70
     0
 62
     7
  6
Continuous
370
    -3
390
F
347
46
  0
LAYER
  5
B3
330
2
100
AcDbSymbolTableRecord
100
AcDbLayerTableRecord
  2
ZUWAKU
 70
     0
 62
     7
  6
Continuous
370
    -3
390
F
347
46
  0
ENDTAB
  0
TABLE
  2
STYLE
  5
3
330
0
100
AcDbSymbolTable
 70
     3
  0
STYLE
  5
11
330
3
100
AcDbSymbolTableRecord
100
AcDbTextStyleTableRecord
  2
Standard
 70
     0
 40
0.0
 41
1.0
 50
0.0
 71
     0
 42
0.2
  3
txt.shx
  4
bigfont.shx
  0
STYLE
  5
1CE
330
3
100
AcDbSymbolTableRecord
100
AcDbTextStyleTableRecord
  2
dcStyle0
 70
     0
 40
0.0
 41
1.0
 50
0.0
 71
     0
 42
0.2
  3
ＭＳ Ｐゴシック
  4

1001
ACAD
1000
ＭＳ Ｐゴシック
1071
    32802
  0
STYLE
  5
476
330
3
100
AcDbSymbolTableRecord
100
AcDbTextStyleTableRecord
  2
dcStyle1
 70
     0
 40
0.0
 41
1.2
 50
0.0
 71
     0
 42
0.2
  3
txt.shx
  4
bigfont
  0
ENDTAB
  0
TABLE
  2
VIEW
  5
6
330
0
100
AcDbSymbolTable
 70
     0
  0
ENDTAB
  0
TABLE
  2
UCS
  5
7
330
0
100
AcDbSymbolTable
 70
     0
  0
ENDTAB
  0
TABLE
  2
APPID
  5
9
330
0
100
AcDbSymbolTable
 70
     2
  0
APPID
  5
12
330
9
100
AcDbSymbolTableRecord
100
AcDbRegAppTableRecord
  2
ACAD
 70
     0
  0
APPID
  5
6E
330
9
100
AcDbSymbolTableRecord
100
AcDbRegAppTableRecord
  2
DaFusionOut
 70
     0
  0
ENDTAB
  0
TABLE
  2
DIMSTYLE
  5
A
330
0
100
AcDbSymbolTable
 70
     2
100
AcDbDimStyleTable
  0
DIMSTYLE
105
27
330
A
100
AcDbSymbolTableRecord
100
AcDbDimStyleTableRecord
  2
Standard
 70
     0
178
     0
340
11
  0
DIMSTYLE
105
4DB
102
{ACAD_REACTORS
330
4DA
330
4DD
330
4DF
330
4E0
330
4E1
330
4E3
330
4E4
330
4E5
330
4E6
330
4E7
330
4E8
330
4EA
330
4EB
330
4ED
102
}
330
A
100
AcDbSymbolTableRecord
100
AcDbDimStyleTableRecord
  2
dc_Rotated
 70
     0
 41
15.00000953674316
 42
5.0
 44
5.0
 90
        1
 73
     0
 74
     0
 77
     3
 78
     8
 79
     2
140
20.0
147
5.0
172
     1
173
     1
176
     2
177
     2
271
     2
178
     4
271
     2
274
     4
283
     0
284
     8
288
     1
340
1CE
343
1C4
344
1C4
  0
ENDTAB
  0
TABLE
  2
BLOCK_RECORD
  5
1
330
0
100
AcDbSymbolTable
 70
    92
  0
BLOCK_RECORD
  5
1F
330
1
100
AcDbSymbolTableRecord
100
AcDbBlockTableRecord
  2
*Model_Space
340
22
 70
     0
280
     1
281
     0
  0
BLOCK_RECORD
  5
1B
330
1
100
AcDbSymbolTableRecord
100
AcDbBlockTableRecord
  2
*Paper_Space
340
1E
 70
     0
280
     1
281
     0
  0
BLOCK_RECORD
  5
23
330
1
100
AcDbSymbolTableRecord
100
AcDbBlockTableRecord
  2
*Paper_Space0
340
26
 70
     0
280
     1
281
     0
  0
BLOCK_RECORD
  5
B5
330
1
100
AcDbSymbolTableRecord
100
AcDbBlockTableRecord
  2
*D1
340
0
 70
     0
280
     1
281
     0
  0
BLOCK_RECORD
  5
B8
330
1
100
AcDbSymbolTableRecord
100
AcDbBlockTableRecord
  2
DC_GROUP_W_MHR_LEG_010_1
340
0
102
{BLKREFS
331
4DC
102
}
 70
     0
280
     1
281
     0
  0
BLOCK_RECORD
  5
BB
330
1
100
AcDbSymbolTableRecord
100
AcDbBlockTableRecord
  2
DC_GROUP_W_MHR_LEG_010_2
340
0
102
{BLKREFS
331
1D0
102
}
 70
     0
280
     1
281
     0
  0
BLOCK_RECORD
  5
BE
330
1
100
AcDbSymbolTableRecord
100
AcDbBlockTableRecord
  2
DC_GROUP_W_MHR_LEG_010_3
340
0
102
{BLKREFS
331
1D3
102
}
 70
     0
280
     1
281
     0
  0
BLOCK_RECORD
  5
C1
330
1
100
AcDbSymbolTableRecord
100
AcDbBlockTableRecord
  2
DC_GROUP_W_MHR_LEG_010_4
340
0
102
{BLKREFS
331
1D6
102
}
 70
     0
280
     1
281
     0
  0
BLOCK_RECORD
  5
C4
330
1
100
AcDbSymbolTableRecord
100
AcDbBlockTableRecord
  2
DC_GROUP_W_MHR_LEG_010_5
340
0
102
{BLKREFS
331
1D7
102
}
 70
     0
280
     1
281
     0
  0
BLOCK_RECORD
  5
C7
330
1
100
AcDbSymbolTableRecord
100
AcDbBlockTableRecord
  2
DC_GROUP_W_MHR_LEG_010_6
340
0
102
{BLKREFS
331
1E6
102
}
 70
     0
280
     1
281
     0
  0
BLOCK_RECORD
  5
CA
330
1
100
AcDbSymbolTableRecord
100
AcDbBlockTableRecord
  2
DC_GROUP_W_MHR_LEG_010_7
340
0
102
{BLKREFS
331
1D8
102
}
 70
     0
280
     1
281
     0
  0
BLOCK_RECORD
  5
CD
330
1
100
AcDbSymbolTableRecord
100
AcDbBlockTableRecord
  2
DC_GROUP_W_MHR_LEG_010_8
340
0
102
{BLKREFS
331
1F1
102
}
 70
     0
280
     1
281
     0
  0
BLOCK_RECORD
  5
D0
330
1
100
AcDbSymbolTableRecord
100
AcDbBlockTableRecord
  2
DC_GROUP_W_MHR_LEG_010_9
340
0
102
{BLKREFS
331
1D9
102
}
 70
     0
280
     1
281
     0
  0
BLOCK_RECORD
  5
D3
330
1
100
AcDbSymbolTableRecord
100
AcDbBlockTableRecord
  2
DC_GROUP_W_MHR_LEG_010_10
340
0
102
{BLKREFS
331
1FF
102
}
 70
     0
280
     1
281
     0
  0
BLOCK_RECORD
  5
D6
330
1
100
AcDbSymbolTableRecord
100
AcDbBlockTableRecord
  2
DC_GROUP_W_MHR_LEG_010_11
340
0
102
{BLKREFS
331
200
102
}
 70
     0
280
     1
281
     0
  0
BLOCK_RECORD
  5
D9
330
1
100
AcDbSymbolTableRecord
100
AcDbBlockTableRecord
  2
DC_GROUP_W_MHR_LEG_010_12
340
0
102
{BLKREFS
331
1D4
102
}
 70
     0
280
     1
281
     0
  0
BLOCK_RECORD
  5
DC
330
1
100
AcDbSymbolTableRecord
100
AcDbBlockTableRecord
  2
DC_GROUP_W_MHR_LEG_010_13
340
0
102
{BLKREFS
331
1D5
102
}
 70
     0
280
     1
281
     0
  0
BLOCK_RECORD
  5
DF
330
1
100
AcDbSymbolTableRecord
100
AcDbBlockTableRecord
  2
DC_GROUP_W_MHR_LEG_010_14
340
0
102
{BLKREFS
331
1D1
102
}
 70
     0
280
     1
281
     0
  0
BLOCK_RECORD
  5
E2
330
1
100
AcDbSymbolTableRecord
100
AcDbBlockTableRecord
  2
DC_GROUP_W_MHR_LEG_010_15
340
0
102
{BLKREFS
331
25A
102
}
 70
     0
280
     1
281
     0
  0
BLOCK_RECORD
  5
E5
330
1
100
AcDbSymbolTableRecord
100
AcDbBlockTableRecord
  2
DC_GROUP_W_MHR_LEG_010_16
340
0
102
{BLKREFS
331
25D
102
}
 70
     0
280
     1
281
     0
  0
BLOCK_RECORD
  5
E8
330
1
100
AcDbSymbolTableRecord
100
AcDbBlockTableRecord
  2
DC_GROUP_W_MHR_LEG_010_17
340
0
102
{BLKREFS
331
25E
102
}
 70
     0
280
     1
281
     0
  0
BLOCK_RECORD
  5
EB
330
1
100
AcDbSymbolTableRecord
100
AcDbBlockTableRecord
  2
DC_GROUP_W_MHR_LEG_010_18
340
0
102
{BLKREFS
331
26D
102
}
 70
     0
280
     1
281
     0
  0
BLOCK_RECORD
  5
EE
330
1
100
AcDbSymbolTableRecord
100
AcDbBlockTableRecord
  2
DC_GROUP_W_MHR_LEG_010_19
340
0
102
{BLKREFS
331
25F
102
}
 70
     0
280
     1
281
     0
  0
BLOCK_RECORD
  5
F1
330
1
100
AcDbSymbolTableRecord
100
AcDbBlockTableRecord
  2
DC_GROUP_W_MHR_LEG_010_20
340
0
102
{BLKREFS
331
278
102
}
 70
     0
280
     1
281
     0
  0
BLOCK_RECORD
  5
F4
330
1
100
AcDbSymbolTableRecord
100
AcDbBlockTableRecord
  2
DC_GROUP_W_MHR_LEG_010_21
340
0
102
{BLKREFS
331
260
102
}
 70
     0
280
     1
281
     0
  0
BLOCK_RECORD
  5
F7
330
1
100
AcDbSymbolTableRecord
100
AcDbBlockTableRecord
  2
DC_GROUP_W_MHR_LEG_010_22
340
0
102
{BLKREFS
331
286
102
}
 70
     0
280
     1
281
     0
  0
BLOCK_RECORD
  5
FA
330
1
100
AcDbSymbolTableRecord
100
AcDbBlockTableRecord
  2
DC_GROUP_W_MHR_LEG_010_23
340
0
102
{BLKREFS
331
287
102
}
 70
     0
280
     1
281
     0
  0
BLOCK_RECORD
  5
FD
330
1
100
AcDbSymbolTableRecord
100
AcDbBlockTableRecord
  2
DC_GROUP_W_MHR_LEG_010_24
340
0
102
{BLKREFS
331
25B
102
}
 70
     0
280
     1
281
     0
  0
BLOCK_RECORD
  5
100
330
1
100
AcDbSymbolTableRecord
100
AcDbBlockTableRecord
  2
DC_GROUP_W_MHR_LEG_010_25
340
0
102
{BLKREFS
331
25C
102
}
 70
     0
280
     1
281
     0
  0
BLOCK_RECORD
  5
103
330
1
100
AcDbSymbolTableRecord
100
AcDbBlockTableRecord
  2
*D27
340
0
 70
     0
280
     1
281
     0
  0
BLOCK_RECORD
  5
106
330
1
100
AcDbSymbolTableRecord
100
AcDbBlockTableRecord
  2
DC_GROUP_W_MHR_LEG_010_26
340
0
102
{BLKREFS
331
4DE
102
}
 70
     0
280
     1
281
     0
  0
BLOCK_RECORD
  5
109
330
1
100
AcDbSymbolTableRecord
100
AcDbBlockTableRecord
  2
DC_GROUP_W_MHR_LEG_010_27
340
0
102
{BLKREFS
331
2E5
102
}
 70
     0
280
     1
281
     0
  0
BLOCK_RECORD
  5
10C
330
1
100
AcDbSymbolTableRecord
100
AcDbBlockTableRecord
  2
DC_GROUP_W_MHR_LEG_010_28
340
0
102
{BLKREFS
331
2E6
102
}
 70
     0
280
     1
281
     0
  0
BLOCK_RECORD
  5
10F
330
1
100
AcDbSymbolTableRecord
100
AcDbBlockTableRecord
  2
DC_GROUP_W_MHR_LEG_010_29
340
0
102
{BLKREFS
331
2E9
102
}
 70
     0
280
     1
281
     0
  0
BLOCK_RECORD
  5
112
330
1
100
AcDbSymbolTableRecord
100
AcDbBlockTableRecord
  2
DC_GROUP_W_MHR_LEG_010_30
340
0
102
{BLKREFS
331
2EC
102
}
 70
     0
280
     1
281
     0
  0
BLOCK_RECORD
  5
115
330
1
100
AcDbSymbolTableRecord
100
AcDbBlockTableRecord
  2
DC_GROUP_W_MHR_LEG_010_31
340
0
102
{BLKREFS
331
2ED
102
}
 70
     0
280
     1
281
     0
  0
BLOCK_RECORD
  5
118
330
1
100
AcDbSymbolTableRecord
100
AcDbBlockTableRecord
  2
DC_GROUP_W_MHR_LEG_010_32
340
0
102
{BLKREFS
331
2EE
102
}
 70
     0
280
     1
281
     0
  0
BLOCK_RECORD
  5
11B
330
1
100
AcDbSymbolTableRecord
100
AcDbBlockTableRecord
  2
DC_GROUP_W_MHR_LEG_010_33
340
0
102
{BLKREFS
331
2EA
102
}
 70
     0
280
     1
281
     0
  0
BLOCK_RECORD
  5
11E
330
1
100
AcDbSymbolTableRecord
100
AcDbBlockTableRecord
  2
DC_GROUP_W_MHR_LEG_010_34
340
0
102
{BLKREFS
331
324
102
}
 70
     0
280
     1
281
     0
  0
BLOCK_RECORD
  5
121
330
1
100
AcDbSymbolTableRecord
100
AcDbBlockTableRecord
  2
DC_GROUP_W_MHR_LEG_010_35
340
0
102
{BLKREFS
331
2EB
102
}
 70
     0
280
     1
281
     0
  0
BLOCK_RECORD
  5
124
330
1
100
AcDbSymbolTableRecord
100
AcDbBlockTableRecord
  2
DC_GROUP_W_MHR_LEG_010_36
340
0
102
{BLKREFS
331
326
102
}
 70
     0
280
     1
281
     0
  0
BLOCK_RECORD
  5
127
330
1
100
AcDbSymbolTableRecord
100
AcDbBlockTableRecord
  2
DC_GROUP_W_MHR_LEG_010_37
340
0
102
{BLKREFS
331
2E7
102
}
 70
     0
280
     1
281
     0
  0
BLOCK_RECORD
  5
12A
330
1
100
AcDbSymbolTableRecord
100
AcDbBlockTableRecord
  2
DC_GROUP_W_MHR_LEG_010_38
340
0
102
{BLKREFS
331
328
102
}
 70
     0
280
     1
281
     0
  0
BLOCK_RECORD
  5
12D
330
1
100
AcDbSymbolTableRecord
100
AcDbBlockTableRecord
  2
DC_GROUP_W_MHR_LEG_010_39
340
0
102
{BLKREFS
331
329
102
}
 70
     0
280
     1
281
     0
  0
BLOCK_RECORD
  5
130
330
1
100
AcDbSymbolTableRecord
100
AcDbBlockTableRecord
  2
DC_GROUP_W_MHR_LEG_010_40
340
0
102
{BLKREFS
331
2E8
102
}
 70
     0
280
     1
281
     0
  0
BLOCK_RECORD
  5
133
330
1
100
AcDbSymbolTableRecord
100
AcDbBlockTableRecord
  2
*D43
340
0
 70
     0
280
     1
281
     0
  0
BLOCK_RECORD
  5
136
330
1
100
AcDbSymbolTableRecord
100
AcDbBlockTableRecord
  2
*D44
340
0
 70
     0
280
     1
281
     0
  0
BLOCK_RECORD
  5
139
330
1
100
AcDbSymbolTableRecord
100
AcDbBlockTableRecord
  2
*D45
340
0
 70
     0
280
     1
281
     0
  0
BLOCK_RECORD
  5
13C
330
1
100
AcDbSymbolTableRecord
100
AcDbBlockTableRecord
  2
DC_GROUP_W_MHR_LEG_010_41
340
0
102
{BLKREFS
331
4E2
102
}
 70
     0
280
     1
281
     0
  0
BLOCK_RECORD
  5
13F
330
1
100
AcDbSymbolTableRecord
100
AcDbBlockTableRecord
  2
*D47
340
0
 70
     0
280
     1
281
     0
  0
BLOCK_RECORD
  5
142
330
1
100
AcDbSymbolTableRecord
100
AcDbBlockTableRecord
  2
*D48
340
0
 70
     0
280
     1
281
     0
  0
BLOCK_RECORD
  5
145
330
1
100
AcDbSymbolTableRecord
100
AcDbBlockTableRecord
  2
*D49
340
0
 70
     0
280
     1
281
     0
  0
BLOCK_RECORD
  5
148
330
1
100
AcDbSymbolTableRecord
100
AcDbBlockTableRecord
  2
*D50
340
0
 70
     0
280
     1
281
     0
  0
BLOCK_RECORD
  5
14B
330
1
100
AcDbSymbolTableRecord
100
AcDbBlockTableRecord
  2
*D51
340
0
 70
     0
280
     1
281
     0
  0
BLOCK_RECORD
  5
14E
330
1
100
AcDbSymbolTableRecord
100
AcDbBlockTableRecord
  2
*D52
340
0
 70
     0
280
     1
281
     0
  0
BLOCK_RECORD
  5
151
330
1
100
AcDbSymbolTableRecord
100
AcDbBlockTableRecord
  2
DC_GROUP_W_MHR_LEG_010_42
340
0
102
{BLKREFS
331
4E9
102
}
 70
     0
280
     1
281
     0
  0
BLOCK_RECORD
  5
154
330
1
100
AcDbSymbolTableRecord
100
AcDbBlockTableRecord
  2
DC_GROUP_W_MHR_LEG_010_43
340
0
102
{BLKREFS
331
3AA
102
}
 70
     0
280
     1
281
     0
  0
BLOCK_RECORD
  5
157
330
1
100
AcDbSymbolTableRecord
100
AcDbBlockTableRecord
  2
DC_GROUP_W_MHR_LEG_010_44
340
0
102
{BLKREFS
331
3AB
102
}
 70
     0
280
     1
281
     0
  0
BLOCK_RECORD
  5
15A
330
1
100
AcDbSymbolTableRecord
100
AcDbBlockTableRecord
  2
DC_GROUP_W_MHR_LEG_010_45
340
0
102
{BLKREFS
331
3AD
102
}
 70
     0
280
     1
281
     0
  0
BLOCK_RECORD
  5
15D
330
1
100
AcDbSymbolTableRecord
100
AcDbBlockTableRecord
  2
DC_GROUP_W_MHR_LEG_010_46
340
0
102
{BLKREFS
331
3AE
102
}
 70
     0
280
     1
281
     0
  0
BLOCK_RECORD
  5
160
330
1
100
AcDbSymbolTableRecord
100
AcDbBlockTableRecord
  2
DC_GROUP_W_MHR_LEG_010_47
340
0
102
{BLKREFS
331
3BA
102
}
 70
     0
280
     1
281
     0
  0
BLOCK_RECORD
  5
163
330
1
100
AcDbSymbolTableRecord
100
AcDbBlockTableRecord
  2
DC_GROUP_W_MHR_LEG_010_48
340
0
102
{BLKREFS
331
3AF
102
}
 70
     0
280
     1
281
     0
  0
BLOCK_RECORD
  5
166
330
1
100
AcDbSymbolTableRecord
100
AcDbBlockTableRecord
  2
DC_GROUP_W_MHR_LEG_010_49
340
0
102
{BLKREFS
331
3B0
102
}
 70
     0
280
     1
281
     0
  0
BLOCK_RECORD
  5
169
330
1
100
AcDbSymbolTableRecord
100
AcDbBlockTableRecord
  2
DC_GROUP_W_MHR_LEG_010_50
340
0
102
{BLKREFS
331
3AC
102
}
 70
     0
280
     1
281
     0
  0
BLOCK_RECORD
  5
16C
330
1
100
AcDbSymbolTableRecord
100
AcDbBlockTableRecord
  2
DC_GROUP_W_MHR_LEG_010_51
340
0
102
{BLKREFS
331
3D3
102
}
 70
     0
280
     1
281
     0
  0
BLOCK_RECORD
  5
16F
330
1
100
AcDbSymbolTableRecord
100
AcDbBlockTableRecord
  2
*D63
340
0
 70
     0
280
     1
281
     0
  0
BLOCK_RECORD
  5
172
330
1
100
AcDbSymbolTableRecord
100
AcDbBlockTableRecord
  2
*D64
340
0
 70
     0
280
     1
281
     0
  0
BLOCK_RECORD
  5
175
330
1
100
AcDbSymbolTableRecord
100
AcDbBlockTableRecord
  2
DC_GROUP_W_MHR_LEG_010_52
340
0
102
{BLKREFS
331
4EC
102
}
 70
     0
280
     1
281
     0
  0
BLOCK_RECORD
  5
178
330
1
100
AcDbSymbolTableRecord
100
AcDbBlockTableRecord
  2
DC_GROUP_W_MHR_LEG_010_53
340
0
102
{BLKREFS
331
3E4
102
}
 70
     0
280
     1
281
     0
  0
BLOCK_RECORD
  5
17B
330
1
100
AcDbSymbolTableRecord
100
AcDbBlockTableRecord
  2
DC_GROUP_W_MHR_LEG_010_54
340
0
102
{BLKREFS
331
3EC
102
}
 70
     0
280
     1
281
     0
  0
BLOCK_RECORD
  5
17E
330
1
100
AcDbSymbolTableRecord
100
AcDbBlockTableRecord
  2
DC_GROUP_W_MHR_LEG_010_55
340
0
102
{BLKREFS
331
3ED
102
}
 70
     0
280
     1
281
     0
  0
BLOCK_RECORD
  5
181
330
1
100
AcDbSymbolTableRecord
100
AcDbBlockTableRecord
  2
DC_GROUP_W_MHR_LEG_010_56
340
0
102
{BLKREFS
331
3E5
102
}
 70
     0
280
     1
281
     0
  0
BLOCK_RECORD
  5
184
330
1
100
AcDbSymbolTableRecord
100
AcDbBlockTableRecord
  2
DC_GROUP_W_MHR_LEG_010_57
340
0
102
{BLKREFS
331
3E6
102
}
 70
     0
280
     1
281
     0
  0
BLOCK_RECORD
  5
187
330
1
100
AcDbSymbolTableRecord
100
AcDbBlockTableRecord
  2
DC_GROUP_W_MHR_LEG_010_58
340
0
102
{BLKREFS
331
40F
102
}
 70
     0
280
     1
281
     0
  0
BLOCK_RECORD
  5
18A
330
1
100
AcDbSymbolTableRecord
100
AcDbBlockTableRecord
  2
DC_GROUP_W_MHR_LEG_010_59
340
0
102
{BLKREFS
331
410
102
}
 70
     0
280
     1
281
     0
  0
BLOCK_RECORD
  5
18D
330
1
100
AcDbSymbolTableRecord
100
AcDbBlockTableRecord
  2
DC_GROUP_W_MHR_LEG_010_60
340
0
102
{BLKREFS
331
3E7
102
}
 70
     0
280
     1
281
     0
  0
BLOCK_RECORD
  5
190
330
1
100
AcDbSymbolTableRecord
100
AcDbBlockTableRecord
  2
DC_GROUP_W_MHR_LEG_010_61
340
0
102
{BLKREFS
331
3E8
102
}
 70
     0
280
     1
281
     0
  0
BLOCK_RECORD
  5
193
330
1
100
AcDbSymbolTableRecord
100
AcDbBlockTableRecord
  2
DC_GROUP_W_MHR_LEG_010_62
340
0
102
{BLKREFS
331
421
102
}
 70
     0
280
     1
281
     0
  0
BLOCK_RECORD
  5
196
330
1
100
AcDbSymbolTableRecord
100
AcDbBlockTableRecord
  2
DC_GROUP_W_MHR_LEG_010_63
340
0
102
{BLKREFS
331
422
102
}
 70
     0
280
     1
281
     0
  0
BLOCK_RECORD
  5
199
330
1
100
AcDbSymbolTableRecord
100
AcDbBlockTableRecord
  2
DC_GROUP_W_MHR_LEG_010_64
340
0
102
{BLKREFS
331
3E9
102
}
 70
     0
280
     1
281
     0
  0
BLOCK_RECORD
  5
19C
330
1
100
AcDbSymbolTableRecord
100
AcDbBlockTableRecord
  2
DC_GROUP_W_MHR_LEG_010_65
340
0
102
{BLKREFS
331
432
102
}
 70
     0
280
     1
281
     0
  0
BLOCK_RECORD
  5
19F
330
1
100
AcDbSymbolTableRecord
100
AcDbBlockTableRecord
  2
DC_GROUP_W_MHR_LEG_010_66
340
0
102
{BLKREFS
331
433
102
}
 70
     0
280
     1
281
     0
  0
BLOCK_RECORD
  5
1A2
330
1
100
AcDbSymbolTableRecord
100
AcDbBlockTableRecord
  2
DC_GROUP_W_MHR_LEG_010_67
340
0
102
{BLKREFS
331
3EA
102
}
 70
     0
280
     1
281
     0
  0
BLOCK_RECORD
  5
1A5
330
1
100
AcDbSymbolTableRecord
100
AcDbBlockTableRecord
  2
DC_GROUP_W_MHR_LEG_010_68
340
0
102
{BLKREFS
331
3EB
102
}
 70
     0
280
     1
281
     0
  0
BLOCK_RECORD
  5
1A8
330
1
100
AcDbSymbolTableRecord
100
AcDbBlockTableRecord
  2
*D82
340
0
 70
     0
280
     1
281
     0
  0
BLOCK_RECORD
  5
1AB
330
1
100
AcDbSymbolTableRecord
100
AcDbBlockTableRecord
  2
DC_GROUP_W_MHR_LEG_010_69
340
0
102
{BLKREFS
331
4F4
102
}
 70
     0
280
     1
281
     0
  0
BLOCK_RECORD
  5
1AE
330
1
100
AcDbSymbolTableRecord
100
AcDbBlockTableRecord
  2
DC_GROUP_W_MHR_LEG_010_70
340
0
102
{BLKREFS
331
4F5
102
}
 70
     0
280
     1
281
     0
  0
BLOCK_RECORD
  5
1B1
330
1
100
AcDbSymbolTableRecord
100
AcDbBlockTableRecord
  2
DC_GROUP_W_MHR_LEG_010_71
340
0
102
{BLKREFS
331
4EE
102
}
 70
     0
280
     1
281
     0
  0
BLOCK_RECORD
  5
1B4
330
1
100
AcDbSymbolTableRecord
100
AcDbBlockTableRecord
  2
DC_GROUP_W_MHR_LEG_010_72
340
0
102
{BLKREFS
331
4EF
102
}
 70
     0
280
     1
281
     0
  0
BLOCK_RECORD
  5
1B7
330
1
100
AcDbSymbolTableRecord
100
AcDbBlockTableRecord
  2
DC_GROUP_W_MHR_LEG_010_73
340
0
102
{BLKREFS
331
4F0
102
}
 70
     0
280
     1
281
     0
  0
BLOCK_RECORD
  5
1BA
330
1
100
AcDbSymbolTableRecord
100
AcDbBlockTableRecord
  2
DC_GROUP_W_MHR_LEG_010_74
340
0
102
{BLKREFS
331
4F1
102
}
 70
     0
280
     1
281
     0
  0
BLOCK_RECORD
  5
1BD
330
1
100
AcDbSymbolTableRecord
100
AcDbBlockTableRecord
  2
DC_GROUP_W_MHR_LEG_010_75
340
0
102
{BLKREFS
331
4F2
102
}
 70
     0
280
     1
281
     0
  0
BLOCK_RECORD
  5
1C0
330
1
100
AcDbSymbolTableRecord
100
AcDbBlockTableRecord
  2
DC_GROUP_W_MHR_LEG_010_76
340
0
102
{BLKREFS
331
4F3
102
}
 70
     0
280
     1
281
     0
  0
BLOCK_RECORD
  5
1C4
330
1
100
AcDbSymbolTableRecord
100
AcDbBlockTableRecord
  2
_Open30
340
0
102
{BLKREFS
331
1CA
331
1CB
331
2E0
331
2E1
331
374
331
375
331
37A
331
37B
331
380
331
381
331
387
331
388
331
38D
331
38E
331
393
331
394
331
399
331
39A
331
39F
331
3A0
331
3A5
331
3A6
331
3D8
331
3D9
331
3DE
331
3DF
331
45F
331
460
331
48A
331
493
331
497
102
}
 70
     0
280
     1
281
     0
  0
ENDTAB
  0
ENDSEC
  0
SECTION
  2
BLOCKS
  0
BLOCK
  5
20
330
1F
100
AcDbEntity
  8
0
100
AcDbBlockBegin
  2
*Model_Space
 70
     0
 10
0.0
 20
0.0
 30
0.0
  3
*Model_Space
  1

  0
ENDBLK
  5
21
330
1F
100
AcDbEntity
  8
0
100
AcDbBlockEnd
  0
BLOCK
  5
1C
330
1B
100
AcDbEntity
 67
     1
  8
0
100
AcDbBlockBegin
  2
*Paper_Space
 70
     0
 10
0.0
 20
0.0
 30
0.0
  3
*Paper_Space
  1

  0
ENDBLK
  5
1D
330
1B
100
AcDbEntity
 67
     1
  8
0
100
AcDbBlockEnd
  0
BLOCK
  5
24
330
23
100
AcDbEntity
  8
0
100
AcDbBlockBegin
  2
*Paper_Space0
 70
     0
 10
0.0
 20
0.0
 30
0.0
  3
*Paper_Space0
  1

  0
ENDBLK
  5
25
330
23
100
AcDbEntity
  8
0
100
AcDbBlockEnd
  0
BLOCK
  5
B6
330
B5
100
AcDbEntity
  8
0
100
AcDbBlockBegin
  2
*D1
 70
     1
 10
0.0
 20
0.0
 30
0.0
  3
*D1
  1

  0
LINE
  5
1C3
330
B5
100
AcDbEntity
  8
0
  6
Continuous
 62
     2
370
    13
100
AcDbLine
 10
-90.04213912395159
 20
503.8356926548876
 30
0.0
 11
869.9578608760477
 21
503.8356926548876
 31
0.0
  0
INSERT
  5
1CA
330
B5
100
AcDbEntity
  8
0
 62
     2
100
AcDbBlockReference
  2
_Open30
 10
-90.04213912395159
 20
503.8356926548876
 30
0.0
 41
15.00001403807643
 42
14.99994684111822
 50
180.0
  0
INSERT
  5
1CB
330
B5
100
AcDbEntity
  8
0
 62
     2
100
AcDbBlockReference
  2
_Open30
 10
869.9578608760477
 20
503.8356926548876
 30
0.0
 41
15.00001403807643
 42
14.99994684111822
 50
360.0
  0
LINE
  5
1CC
330
B5
100
AcDbEntity
  8
0
  6
Continuous
 62
     2
370
    13
100
AcDbLine
 10
-90.04213912395159
 20
365.9740213293102
 30
0.0
 11
-90.04213912395159
 21
508.8356926548876
 31
0.0
  0
LINE
  5
1CD
330
B5
100
AcDbEntity
  8
0
  6
Continuous
 62
     2
370
    13
100
AcDbLine
 10
869.9578608760477
 20
365.9740213293102
 30
0.0
 11
869.9578608760477
 21
508.8356926548876
 31
0.0
  0
TEXT
  5
1CF
330
B5
100
AcDbEntity
  8
0
 62
     4
100
AcDbText
 10
369.957860876048
 20
508.8356926548876
 30
0.0
 40
20.0
  1
機幅
 41
0.6874999999999999
  7
dcStyle0
 72
     5
 11
409.957860876048
 21
508.8356926548876
 31
0.0
100
AcDbText
  0
ENDBLK
  5
B7
330
B5
100
AcDbEntity
  8
0
100
AcDbBlockEnd
  0
BLOCK
  5
B9
330
B8
100
AcDbEntity
  8
0
100
AcDbBlockBegin
  2
DC_GROUP_W_MHR_LEG_010_1
 70
     0
 10
0.0
 20
0.0
 30
0.0
  3
DC_GROUP_W_MHR_LEG_010_1
  1

  0
INSERT
  5
1D0
330
B8
100
AcDbEntity
  8
0
  6
Continuous
100
AcDbBlockReference
  2
DC_GROUP_W_MHR_LEG_010_2
 10
0.0
 20
0.0
 30
0.0
  0
INSERT
  5
1D1
330
B8
100
AcDbEntity
  8
0
  6
Continuous
100
AcDbBlockReference
  2
DC_GROUP_W_MHR_LEG_010_14
 10
0.0
 20
0.0
 30
0.0
  0
LINE
  5
1D2
330
B8
100
AcDbEntity
  8
0
  6
CENTERX2
 62
     3
370
    13
100
AcDbLine
 10
389.9578608760485
 20
235.5811282009551
 30
0.0
 11
389.9578608760467
 21
-129.02530733534
 31
0.0
  0
ENDBLK
  5
BA
330
B8
100
AcDbEntity
  8
0
100
AcDbBlockEnd
  0
BLOCK
  5
BC
330
BB
100
AcDbEntity
  8
0
100
AcDbBlockBegin
  2
DC_GROUP_W_MHR_LEG_010_2
 70
     0
 10
0.0
 20
0.0
 30
0.0
  3
DC_GROUP_W_MHR_LEG_010_2
  1

  0
INSERT
  5
1D3
330
BB
100
AcDbEntity
  8
0
  6
Continuous
100
AcDbBlockReference
  2
DC_GROUP_W_MHR_LEG_010_3
 10
0.0
 20
0.0
 30
0.0
  0
INSERT
  5
1D4
330
BB
100
AcDbEntity
  8
0
  6
Continuous
100
AcDbBlockReference
  2
DC_GROUP_W_MHR_LEG_010_12
 10
0.0
 20
0.0
 30
0.0
  0
INSERT
  5
1D5
330
BB
100
AcDbEntity
  8
0
  6
Continuous
100
AcDbBlockReference
  2
DC_GROUP_W_MHR_LEG_010_13
 10
0.0
 20
0.0
 30
0.0
  0
ENDBLK
  5
BD
330
BB
100
AcDbEntity
  8
0
100
AcDbBlockEnd
  0
BLOCK
  5
BF
330
BE
100
AcDbEntity
  8
0
100
AcDbBlockBegin
  2
DC_GROUP_W_MHR_LEG_010_3
 70
     0
 10
0.0
 20
0.0
 30
0.0
  3
DC_GROUP_W_MHR_LEG_010_3
  1

  0
INSERT
  5
1D6
330
BE
100
AcDbEntity
  8
0
  6
Continuous
100
AcDbBlockReference
  2
DC_GROUP_W_MHR_LEG_010_4
 10
0.0
 20
0.0
 30
0.0
  0
INSERT
  5
1D7
330
BE
100
AcDbEntity
  8
0
  6
Continuous
100
AcDbBlockReference
  2
DC_GROUP_W_MHR_LEG_010_5
 10
0.0
 20
0.0
 30
0.0
  0
INSERT
  5
1D8
330
BE
100
AcDbEntity
  8
0
  6
Continuous
100
AcDbBlockReference
  2
DC_GROUP_W_MHR_LEG_010_7
 10
0.0
 20
0.0
 30
0.0
  0
INSERT
  5
1D9
330
BE
100
AcDbEntity
  8
0
  6
Continuous
100
AcDbBlockReference
  2
DC_GROUP_W_MHR_LEG_010_9
 10
0.0
 20
0.0
 30
0.0
  0
ENDBLK
  5
C0
330
BE
100
AcDbEntity
  8
0
100
AcDbBlockEnd
  0
BLOCK
  5
C2
330
C1
100
AcDbEntity
  8
0
100
AcDbBlockBegin
  2
DC_GROUP_W_MHR_LEG_010_4
 70
     0
 10
0.0
 20
0.0
 30
0.0
  3
DC_GROUP_W_MHR_LEG_010_4
  1

  0
LINE
  5
1DA
330
C1
100
AcDbEntity
  8
0
  6
Continuous
 62
     7
370
    13
100
AcDbLine
 10
-53.04213912395159
 20
225.9740213293104
 30
0.0
 11
-53.04213912395159
 21
222.7740213293102
 31
0.0
  0
LINE
  5
1DB
330
C1
100
AcDbEntity
  8
0
  6
Continuous
 62
     7
370
    13
100
AcDbLine
 10
-83.24213912395163
 20
70.97402132931043
 30
0.0
 11
-83.24213912395163
 21
220.7740213293102
 31
0.0
  0
LINE
  5
1DC
330
C1
100
AcDbEntity
  8
0
  6
Continuous
 62
     7
370
    13
100
AcDbLine
 10
-80.04213912395159
 20
70.97402132931043
 30
0.0
 11
-80.04213912395159
 21
220.7740213293102
 31
0.0
  0
LINE
  5
1DD
330
C1
100
AcDbEntity
  8
0
  6
Continuous
 62
     7
370
    13
100
AcDbLine
 10
-53.04213912395159
 20
222.7740213293102
 30
0.0
 11
-78.04213912395159
 21
222.7740213293102
 31
0.0
  0
LINE
  5
1DE
330
C1
100
AcDbEntity
  8
0
  6
Continuous
 62
     7
370
    13
100
AcDbLine
 10
-53.04213912395159
 20
225.9740213293104
 30
0.0
 11
-78.04213912395159
 21
225.9740213293104
 31
0.0
  0
LINE
  5
1DF
330
C1
100
AcDbEntity
  8
0
  6
Continuous
 62
     7
370
    13
100
AcDbLine
 10
-83.24213912395163
 20
70.97402132931043
 30
0.0
 11
-80.04213912395159
 21
70.97402132931043
 31
0.0
  0
ARC
  5
1E0
330
C1
100
AcDbEntity
  8
0
  6
Continuous
 62
     7
370
    13
100
AcDbCircle
 10
-80.11713912395163
 20
153.4740213293104
 30
0.0
 40
8.125
100
AcDbArc
 50
180.0
 51
247.3801350519595
  0
ARC
  5
1E1
330
C1
100
AcDbEntity
  8
0
  6
Continuous
 62
     7
370
    13
100
AcDbCircle
 10
-80.26713912395172
 20
213.3740213293101
 30
0.0
 40
7.975626934605307
100
AcDbArc
 50
111.9014602219906
 51
179.2815952739494
  0
ARC
  5
1E2
330
C1
100
AcDbEntity
  8
0
  6
Continuous
 62
     7
370
    13
100
AcDbCircle
 10
-78.04213912395159
 20
220.7740213293102
 30
0.0
 40
2.0
100
AcDbArc
 50
90.0
 51
180.0
  0
ARC
  5
1E3
330
C1
100
AcDbEntity
  8
0
  6
Continuous
 62
     7
370
    13
100
AcDbCircle
 10
-78.04213912395159
 20
220.7740213293102
 30
0.0
 40
5.200000000000102
100
AcDbArc
 50
90.0
 51
180.0
  0
LINE
  5
1E4
330
C1
100
AcDbEntity
  8
0
  6
Continuous
 62
     7
370
    13
100
AcDbLine
 10
-88.24213912395163
 20
213.4740213293104
 30
0.0
 11
-88.24213912395163
 21
180.7889759055339
 31
0.0
  0
LINE
  5
1E5
330
C1
100
AcDbEntity
  8
0
  6
Continuous
 62
     7
370
    13
100
AcDbLine
 10
-88.24213912395163
 20
161.1590667530867
 30
0.0
 11
-88.24213912395163
 21
153.4740213293104
 31
0.0
  0
ENDBLK
  5
C3
330
C1
100
AcDbEntity
  8
0
100
AcDbBlockEnd
  0
BLOCK
  5
C5
330
C4
100
AcDbEntity
  8
0
100
AcDbBlockBegin
  2
DC_GROUP_W_MHR_LEG_010_5
 70
     0
 10
0.0
 20
0.0
 30
0.0
  3
DC_GROUP_W_MHR_LEG_010_5
  1

  0
INSERT
  5
1E6
330
C4
100
AcDbEntity
  8
0
  6
Continuous
100
AcDbBlockReference
  2
DC_GROUP_W_MHR_LEG_010_6
 10
0.0
 20
0.0
 30
0.0
  0
ENDBLK
  5
C6
330
C4
100
AcDbEntity
  8
0
100
AcDbBlockEnd
  0
BLOCK
  5
C8
330
C7
100
AcDbEntity
  8
0
100
AcDbBlockBegin
  2
DC_GROUP_W_MHR_LEG_010_6
 70
     0
 10
0.0
 20
0.0
 30
0.0
  3
DC_GROUP_W_MHR_LEG_010_6
  1

  0
LINE
  5
1E7
330
C7
100
AcDbEntity
  8
0
  6
Continuous
 62
     7
370
    13
100
AcDbLine
 10
-83.24213912395163
 20
105.7889759055339
 30
0.0
 11
-89.33861217809937
 21
105.7889759055339
 31
0.0
  0
LINE
  5
1E8
330
C7
100
AcDbEntity
  8
0
  6
Continuous
 62
     7
370
    13
100
AcDbLine
 10
-83.24213912395163
 20
100.8814986174222
 30
0.0
 11
-89.33861217809937
 21
100.8814986174222
 31
0.0
  0
LINE
  5
1E9
330
C7
100
AcDbEntity
  8
0
  6
Continuous
 62
     7
370
    13
100
AcDbLine
 10
-83.24213912395163
 20
105.7889759055339
 30
0.0
 11
-83.24213912395163
 21
86.15906675308648
 31
0.0
  0
LINE
  5
1EA
330
C7
100
AcDbEntity
  8
0
  6
Continuous
 62
     7
370
    13
100
AcDbLine
 10
-90.24213912395163
 20
103.3352372614783
 30
0.0
 11
-90.24213912395163
 21
88.61280539714258
 31
0.0
  0
LINE
  5
1EB
330
C7
100
AcDbEntity
  8
0
  6
Continuous
 62
     7
370
    13
100
AcDbLine
 10
-83.24213912395163
 20
86.15906675308648
 30
0.0
 11
-89.33861217809937
 21
86.15906675308648
 31
0.0
  0
LINE
  5
1EC
330
C7
100
AcDbEntity
  8
0
  6
Continuous
 62
     7
370
    13
100
AcDbLine
 10
-83.24213912395163
 20
91.06654404119823
 30
0.0
 11
-89.33861217809937
 21
91.06654404119823
 31
0.0
  0
ARC
  5
1ED
330
C7
100
AcDbEntity
  8
0
  6
Continuous
 62
     7
370
    13
100
AcDbCircle
 10
-86.45852519489205
 20
103.3352372614783
 30
0.0
 40
3.783613929059545
100
AcDbArc
 50
139.5701031551734
 51
220.4298968448272
  0
ARC
  5
1EE
330
C7
100
AcDbEntity
  8
0
  6
Continuous
 62
     7
370
    13
100
AcDbCircle
 10
-86.45852519489205
 20
88.61280539714258
 30
0.0
 40
3.783613929059545
100
AcDbArc
 50
139.5701031551734
 51
220.4298968448266
  0
ARC
  5
1EF
330
C7
100
AcDbEntity
  8
0
  6
Continuous
 62
     7
370
    13
100
AcDbCircle
 10
-76.46297382649192
 20
95.97402132931043
 30
0.0
 40
13.7791652974597
100
AcDbArc
 50
159.1359356360805
 51
200.8640643639197
  0
LINE
  5
1F0
330
C7
100
AcDbEntity
  8
0
  6
CENTERX2
 62
     3
370
    13
100
AcDbLine
 10
-94.16812095444112
 20
95.97402132931043
 30
0.0
 11
-76.00299183979651
 21
95.97402132931043
 31
0.0
  0
ENDBLK
  5
C9
330
C7
100
AcDbEntity
  8
0
100
AcDbBlockEnd
  0
BLOCK
  5
CB
330
CA
100
AcDbEntity
  8
0
100
AcDbBlockBegin
  2
DC_GROUP_W_MHR_LEG_010_7
 70
     0
 10
0.0
 20
0.0
 30
0.0
  3
DC_GROUP_W_MHR_LEG_010_7
  1

  0
INSERT
  5
1F1
330
CA
100
AcDbEntity
  8
0
  6
Continuous
100
AcDbBlockReference
  2
DC_GROUP_W_MHR_LEG_010_8
 10
0.0
 20
0.0
 30
0.0
  0
ENDBLK
  5
CC
330
CA
100
AcDbEntity
  8
0
100
AcDbBlockEnd
  0
BLOCK
  5
CE
330
CD
100
AcDbEntity
  8
0
100
AcDbBlockBegin
  2
DC_GROUP_W_MHR_LEG_010_8
 70
     0
 10
0.0
 20
0.0
 30
0.0
  3
DC_GROUP_W_MHR_LEG_010_8
  1

  0
LINE
  5
1F2
330
CD
100
AcDbEntity
  8
0
  6
Continuous
 62
     7
370
    13
100
AcDbLine
 10
-85.24213912395163
 20
180.7889759055339
 30
0.0
 11
-91.33861217809937
 21
180.7889759055339
 31
0.0
  0
LINE
  5
1F3
330
CD
100
AcDbEntity
  8
0
  6
Continuous
 62
     7
370
    13
100
AcDbLine
 10
-85.24213912395163
 20
175.8814986174222
 30
0.0
 11
-91.33861217809937
 21
175.8814986174222
 31
0.0
  0
LINE
  5
1F4
330
CD
100
AcDbEntity
  8
0
  6
Continuous
 62
     7
370
    13
100
AcDbLine
 10
-92.24213912395163
 20
178.3352372614781
 30
0.0
 11
-92.24213912395163
 21
163.6128053971426
 31
0.0
  0
LINE
  5
1F5
330
CD
100
AcDbEntity
  8
0
  6
Continuous
 62
     7
370
    13
100
AcDbLine
 10
-85.24213912395163
 20
161.1590667530867
 30
0.0
 11
-91.33861217809937
 21
161.1590667530867
 31
0.0
  0
LINE
  5
1F6
330
CD
100
AcDbEntity
  8
0
  6
Continuous
 62
     7
370
    13
100
AcDbLine
 10
-85.24213912395163
 20
166.0665440411985
 30
0.0
 11
-91.33861217809937
 21
166.0665440411985
 31
0.0
  0
ARC
  5
1F7
330
CD
100
AcDbEntity
  8
0
  6
Continuous
 62
     7
370
    13
100
AcDbCircle
 10
-88.45852519489205
 20
178.3352372614781
 30
0.0
 40
3.783613929059545
100
AcDbArc
 50
139.5701031551734
 51
220.4298968448272
  0
ARC
  5
1F8
330
CD
100
AcDbEntity
  8
0
  6
Continuous
 62
     7
370
    13
100
AcDbCircle
 10
-88.45852519489205
 20
163.6128053971426
 30
0.0
 40
3.783613929059545
100
AcDbArc
 50
139.5701031551734
 51
220.4298968448266
  0
ARC
  5
1F9
330
CD
100
AcDbEntity
  8
0
  6
Continuous
 62
     7
370
    13
100
AcDbCircle
 10
-78.46297382649192
 20
170.9740213293104
 30
0.0
 40
13.77916529745981
100
AcDbArc
 50
159.1359356360807
 51
200.8640643639195
  0
LINE
  5
1FA
330
CD
100
AcDbEntity
  8
0
  6
Continuous
 62
     7
370
    13
100
AcDbLine
 10
-83.24213912395163
 20
160.4740213293104
 30
0.0
 11
-85.24213912395163
 21
160.4740213293104
 31
0.0
  0
LINE
  5
1FB
330
CD
100
AcDbEntity
  8
0
  6
Continuous
 62
     7
370
    13
100
AcDbLine
 10
-83.24213912395163
 20
181.4740213293104
 30
0.0
 11
-83.24213912395163
 21
160.4740213293104
 31
0.0
  0
LINE
  5
1FC
330
CD
100
AcDbEntity
  8
0
  6
Continuous
 62
     7
370
    13
100
AcDbLine
 10
-83.24213912395163
 20
181.4740213293104
 30
0.0
 11
-85.24213912395163
 21
181.4740213293104
 31
0.0
  0
LINE
  5
1FD
330
CD
100
AcDbEntity
  8
0
  6
Continuous
 62
     7
370
    13
100
AcDbLine
 10
-85.24213912395163
 20
181.4740213293104
 30
0.0
 11
-85.24213912395163
 21
160.4740213293104
 31
0.0
  0
LINE
  5
1FE
330
CD
100
AcDbEntity
  8
0
  6
CENTERX2
 62
     3
370
    13
100
AcDbLine
 10
-96.44213912395168
 20
170.9740213293104
 30
0.0
 11
-76.00299183979651
 21
170.9740213293104
 31
0.0
  0
ENDBLK
  5
CF
330
CD
100
AcDbEntity
  8
0
100
AcDbBlockEnd
  0
BLOCK
  5
D1
330
D0
100
AcDbEntity
  8
0
100
AcDbBlockBegin
  2
DC_GROUP_W_MHR_LEG_010_9
 70
     0
 10
0.0
 20
0.0
 30
0.0
  3
DC_GROUP_W_MHR_LEG_010_9
  1

  0
INSERT
  5
1FF
330
D0
100
AcDbEntity
  8
0
  6
Continuous
100
AcDbBlockReference
  2
DC_GROUP_W_MHR_LEG_010_10
 10
0.0
 20
0.0
 30
0.0
  0
INSERT
  5
200
330
D0
100
AcDbEntity
  8
0
  6
Continuous
100
AcDbBlockReference
  2
DC_GROUP_W_MHR_LEG_010_11
 10
0.0
 20
0.0
 30
0.0
  0
ENDBLK
  5
D2
330
D0
100
AcDbEntity
  8
0
100
AcDbBlockEnd
  0
BLOCK
  5
D4
330
D3
100
AcDbEntity
  8
0
100
AcDbBlockBegin
  2
DC_GROUP_W_MHR_LEG_010_10
 70
     0
 10
0.0
 20
0.0
 30
0.0
  3
DC_GROUP_W_MHR_LEG_010_10
  1

  0
LINE
  5
201
330
D3
100
AcDbEntity
  8
0
  6
Continuous
 62
     7
370
    13
100
AcDbLine
 10
-55.22718454772786
 20
230.4740213293104
 30
0.0
 11
-55.22718454772786
 21
236.5704943834582
 31
0.0
  0
LINE
  5
202
330
D3
100
AcDbEntity
  8
0
  6
Continuous
 62
     7
370
    13
100
AcDbLine
 10
-60.13466183583984
 20
230.4740213293104
 30
0.0
 11
-60.13466183583984
 21
236.5704943834582
 31
0.0
  0
LINE
  5
203
330
D3
100
AcDbEntity
  8
0
  6
Continuous
 62
     7
370
    13
100
AcDbLine
 10
-55.22718454772786
 20
230.4740213293104
 30
0.0
 11
-74.85709370017531
 21
230.4740213293104
 31
0.0
  0
LINE
  5
204
330
D3
100
AcDbEntity
  8
0
  6
Continuous
 62
     7
370
    13
100
AcDbLine
 10
-57.68092319178396
 20
237.4740213293104
 30
0.0
 11
-72.40335505611921
 21
237.4740213293104
 31
0.0
  0
LINE
  5
205
330
D3
100
AcDbEntity
  8
0
  6
Continuous
 62
     7
370
    13
100
AcDbLine
 10
-74.85709370017531
 20
230.4740213293104
 30
0.0
 11
-74.85709370017531
 21
236.5704943834582
 31
0.0
  0
LINE
  5
206
330
D3
100
AcDbEntity
  8
0
  6
Continuous
 62
     7
370
    13
100
AcDbLine
 10
-69.94961641206334
 20
230.4740213293104
 30
0.0
 11
-69.94961641206334
 21
236.5704943834582
 31
0.0
  0
ARC
  5
207
330
D3
100
AcDbEntity
  8
0
  6
Continuous
 62
     7
370
    13
100
AcDbCircle
 10
-57.68092319178396
 20
233.6904074002506
 30
0.0
 40
3.783613929059545
100
AcDbArc
 50
49.57010315517341
 51
130.4298968448273
  0
ARC
  5
208
330
D3
100
AcDbEntity
  8
0
  6
Continuous
 62
     7
370
    13
100
AcDbCircle
 10
-72.40335505611921
 20
233.6904074002506
 30
0.0
 40
3.783613929059582
100
AcDbArc
 50
49.57010315517276
 51
130.4298968448266
  0
ARC
  5
209
330
D3
100
AcDbEntity
  8
0
  6
Continuous
 62
     7
370
    13
100
AcDbCircle
 10
-65.04213912395159
 20
223.6948560318505
 30
0.0
 40
13.77916529745981
100
AcDbArc
 50
69.13593563608069
 51
110.8640643639193
  0
LINE
  5
20A
330
D3
100
AcDbEntity
  8
0
  6
CENTERX2
 62
     3
370
    13
100
AcDbLine
 10
-65.04213912395159
 20
240.2591133025562
 30
0.0
 11
-65.04213912395159
 21
208.3880220271054
 31
0.0
  0
ENDBLK
  5
D5
330
D3
100
AcDbEntity
  8
0
100
AcDbBlockEnd
  0
BLOCK
  5
D7
330
D6
100
AcDbEntity
  8
0
100
AcDbBlockBegin
  2
DC_GROUP_W_MHR_LEG_010_11
 70
     0
 10
0.0
 20
0.0
 30
0.0
  3
DC_GROUP_W_MHR_LEG_010_11
  1

  0
LINE
  5
20B
330
D6
100
AcDbEntity
  8
0
  6
Continuous
 62
     7
370
    13
100
AcDbLine
 10
-55.22718454772786
 20
218.2740213293102
 30
0.0
 11
-55.22718454772786
 21
211.1775482751624
 31
0.0
  0
LINE
  5
20C
330
D6
100
AcDbEntity
  8
0
  6
Continuous
 62
     7
370
    13
100
AcDbLine
 10
-60.13466183583984
 20
211.1775482751624
 30
0.0
 11
-60.13466183583984
 21
218.2740213293102
 31
0.0
  0
LINE
  5
20D
330
D6
100
AcDbEntity
  8
0
  6
Continuous
 62
     7
370
    13
100
AcDbLine
 10
-55.22718454772786
 20
218.2740213293102
 30
0.0
 11
-74.85709370017531
 21
218.2740213293102
 31
0.0
  0
LINE
  5
20E
330
D6
100
AcDbEntity
  8
0
  6
Continuous
 62
     7
370
    13
100
AcDbLine
 10
-74.85709370017531
 20
218.2740213293102
 30
0.0
 11
-74.85709370017531
 21
211.1775482751624
 31
0.0
  0
LINE
  5
20F
330
D6
100
AcDbEntity
  8
0
  6
Continuous
 62
     7
370
    13
100
AcDbLine
 10
-69.94961641206334
 20
218.2740213293102
 30
0.0
 11
-69.94961641206334
 21
211.1775482751624
 31
0.0
  0
LINE
  5
210
330
D6
100
AcDbEntity
  8
0
  6
Continuous
 62
     7
370
    13
100
AcDbLine
 10
-74.24213912395163
 20
218.2740213293102
 30
0.0
 11
-74.24213912395163
 21
220.7740213293102
 31
0.0
  0
LINE
  5
211
330
D6
100
AcDbEntity
  8
0
  6
Continuous
 62
     7
370
    13
100
AcDbLine
 10
-55.84213912395154
 20
220.7740213293102
 30
0.0
 11
-55.84213912395154
 21
218.2740213293102
 31
0.0
  0
LINE
  5
212
330
D6
100
AcDbEntity
  8
0
  6
Continuous
 62
     7
370
    13
100
AcDbLine
 10
-65.04213912395159
 20
218.2740213293102
 30
0.0
 11
-65.71201210502937
 21
220.7740213293102
 31
0.0
  0
LINE
  5
213
330
D6
100
AcDbEntity
  8
0
  6
Continuous
 62
     7
370
    13
100
AcDbLine
 10
-64.3722661428738
 20
218.2740213293102
 30
0.0
 11
-65.04213912395159
 21
220.7740213293102
 31
0.0
  0
LINE
  5
214
330
D6
100
AcDbEntity
  8
0
  6
Continuous
 62
     7
370
    13
100
AcDbLine
 10
-75.54213912395159
 20
220.7740213293102
 30
0.0
 11
-75.54213912395159
 21
222.7740213293102
 31
0.0
  0
LINE
  5
215
330
D6
100
AcDbEntity
  8
0
  6
Continuous
 62
     7
370
    13
100
AcDbLine
 10
-75.54213912395159
 20
222.7740213293102
 30
0.0
 11
-54.54213912395159
 21
222.7740213293102
 31
0.0
  0
LINE
  5
216
330
D6
100
AcDbEntity
  8
0
  6
Continuous
 62
     7
370
    13
100
AcDbLine
 10
-54.54213912395159
 20
222.7740213293102
 30
0.0
 11
-54.54213912395159
 21
220.7740213293102
 31
0.0
  0
LINE
  5
217
330
D6
100
AcDbEntity
  8
0
  6
Continuous
 62
     7
370
    13
100
AcDbLine
 10
-75.54213912395159
 20
220.7740213293102
 30
0.0
 11
-54.54213912395159
 21
220.7740213293102
 31
0.0
  0
ENDBLK
  5
D8
330
D6
100
AcDbEntity
  8
0
100
AcDbBlockEnd
  0
BLOCK
  5
DA
330
D9
100
AcDbEntity
  8
0
100
AcDbBlockBegin
  2
DC_GROUP_W_MHR_LEG_010_12
 70
     0
 10
0.0
 20
0.0
 30
0.0
  3
DC_GROUP_W_MHR_LEG_010_12
  1

  0
LINE
  5
218
330
D9
100
AcDbEntity
  8
0
  6
Continuous
 62
     7
370
    13
100
AcDbLine
 10
-47.54213912395136
 20
-64.02530733533953
 30
0.0
 11
-47.54213912395136
 21
-91.02530733533908
 31
0.0
  0
LINE
  5
219
330
D9
100
AcDbEntity
  8
0
  6
Continuous
 62
     7
370
    13
100
AcDbLine
 10
-65.93444396936485
 20
-64.02530733533953
 30
0.0
 11
-45.14983427853832
 21
-64.02530733533953
 31
0.0
  0
LINE
  5
21A
330
D9
100
AcDbEntity
  8
0
  6
Continuous
 62
     7
370
    13
100
AcDbLine
 10
-137.5421391239514
 20
-129.0253073353393
 30
0.0
 11
-25.04213912395181
 21
-129.0253073353393
 31
0.0
  0
LINE
  5
21B
330
D9
100
AcDbEntity
  8
0
  6
Continuous
 62
     7
370
    13
100
AcDbLine
 10
-25.04213912395181
 20
-125.8253073353393
 30
0.0
 11
-137.5421391239514
 21
-125.8253073353393
 31
0.0
  0
LINE
  5
21C
330
D9
100
AcDbEntity
  8
0
  6
Continuous
 62
     7
370
    13
100
AcDbLine
 10
-137.5421391239514
 20
-129.0253073353393
 30
0.0
 11
-137.5421391239514
 21
-125.8253073353393
 31
0.0
  0
LINE
  5
21D
330
D9
100
AcDbEntity
  8
0
  6
Continuous
 62
     7
370
    13
100
AcDbLine
 10
-137.5421391239514
 20
-129.0253073353393
 30
0.0
 11
-137.5421391239514
 21
-125.8253073353393
 31
0.0
  0
LINE
  5
21E
330
D9
100
AcDbEntity
  8
0
  6
Continuous
 62
     7
370
    13
100
AcDbLine
 10
-48.61393589367646
 20
-63.14428214784479
 30
0.0
 11
-48.61393589367646
 21
-54.90633252283405
 31
0.0
  0
LINE
  5
21F
330
D9
100
AcDbEntity
  8
0
  6
Continuous
 62
     7
370
    13
100
AcDbLine
 10
-41.68573266340042
 20
-63.14428214784479
 30
0.0
 11
-41.68573266340042
 21
-54.90633252283405
 31
0.0
  0
LINE
  5
220
330
D9
100
AcDbEntity
  8
0
  6
Continuous
 62
     7
370
    13
100
AcDbLine
 10
-47.54213912395136
 20
-101.0253073353391
 30
0.0
 11
-47.54213912395136
 21
-103.0253073353393
 31
0.0
  0
LINE
  5
221
330
D9
100
AcDbEntity
  8
0
  6
Continuous
 62
     7
370
    13
100
AcDbLine
 10
-48.61393589367646
 20
-100.1442821478443
 30
0.0
 11
-48.61393589367646
 21
-91.02530733533908
 31
0.0
  0
LINE
  5
222
330
D9
100
AcDbEntity
  8
0
  6
Continuous
 62
     7
370
    13
100
AcDbLine
 10
-41.68573266340042
 20
-100.1442821478443
 30
0.0
 11
-41.68573266340042
 21
-91.02530733533908
 31
0.0
  0
LINE
  5
223
330
D9
100
AcDbEntity
  8
0
  6
Continuous
 62
     7
370
    13
100
AcDbLine
 10
-48.61393589367555
 20
-112.1442821478443
 30
0.0
 11
-48.61393589367555
 21
-103.906332522834
 31
0.0
  0
LINE
  5
224
330
D9
100
AcDbEntity
  8
0
  6
Continuous
 62
     7
370
    13
100
AcDbLine
 10
-41.68573266340042
 20
-112.1442821478443
 30
0.0
 11
-41.68573266340042
 21
-103.906332522834
 31
0.0
  0
LINE
  5
225
330
D9
100
AcDbEntity
  8
0
  6
Continuous
 62
     7
370
    13
100
AcDbLine
 10
-25.04213912395181
 20
-129.0253073353393
 30
0.0
 11
-25.04213912395181
 21
-125.8253073353393
 31
0.0
  0
LINE
  5
226
330
D9
100
AcDbEntity
  8
0
  6
Continuous
 62
     7
370
    13
100
AcDbLine
 10
-32.13830348982339
 20
-124.9600009198849
 30
0.0
 11
-38.81084204773452
 21
-115.2751040155207
 31
0.0
  0
LINE
  5
227
330
D9
100
AcDbEntity
  8
0
  6
Continuous
 62
     7
370
    13
100
AcDbLine
 10
-43.0929327020454
 20
-113.0253073353393
 30
0.0
 11
-67.99134554585845
 21
-113.0253073353393
 31
0.0
  0
LINE
  5
228
330
D9
100
AcDbEntity
  8
0
  6
Continuous
 62
     7
370
    13
100
AcDbLine
 10
-72.27343620016842
 20
-115.2751040155207
 30
0.0
 11
-78.94597475807933
 21
-124.9600009198849
 31
0.0
  0
LINE
  5
229
330
D9
100
AcDbEntity
  8
0
  6
Continuous
 62
     7
370
    13
100
AcDbLine
 10
-69.39854558450253
 20
-103.906332522834
 30
0.0
 11
-69.39854558450253
 21
-112.1442821478443
 31
0.0
  0
LINE
  5
22A
330
D9
100
AcDbEntity
  8
0
  6
Continuous
 62
     7
370
    13
100
AcDbLine
 10
-62.47034235422717
 20
-103.9063325228343
 30
0.0
 11
-62.4703423542274
 21
-112.1442821478443
 31
0.0
  0
LINE
  5
22B
330
D9
100
AcDbEntity
  8
0
  6
Continuous
 62
     7
370
    13
100
AcDbLine
 10
-69.39854558450253
 20
-91.02530733533908
 30
0.0
 11
-69.39854558450253
 21
-100.1442821478443
 31
0.0
  0
LINE
  5
22C
330
D9
100
AcDbEntity
  8
0
  6
Continuous
 62
     7
370
    13
100
AcDbLine
 10
-62.47034235422717
 20
-91.02530733533908
 30
0.0
 11
-62.47034235422717
 21
-100.1442821478443
 31
0.0
  0
LINE
  5
22D
330
D9
100
AcDbEntity
  8
0
  6
Continuous
 62
     7
370
    13
100
AcDbLine
 10
-63.54213912395136
 20
-103.0253073353393
 30
0.0
 11
-63.54213912395136
 21
-101.0253073353391
 31
0.0
  0
LINE
  5
22E
330
D9
100
AcDbEntity
  8
0
  6
Continuous
 62
     7
370
    13
100
AcDbLine
 10
-63.54213912395136
 20
-91.02530733533908
 30
0.0
 11
-63.54213912395136
 21
-64.02530733533953
 31
0.0
  0
LINE
  5
22F
330
D9
100
AcDbEntity
  8
0
  6
Continuous
 62
     7
370
    13
100
AcDbLine
 10
-69.39854558450253
 20
-54.90633252283405
 30
0.0
 11
-69.39854558450253
 21
-63.14428214784479
 31
0.0
  0
LINE
  5
230
330
D9
100
AcDbEntity
  8
0
  6
Continuous
 62
     7
370
    13
100
AcDbLine
 10
-62.47034235422717
 20
-54.90633252283519
 30
0.0
 11
-62.47034235422717
 21
-63.14428214784434
 31
0.0
  0
LINE
  5
231
330
D9
100
AcDbEntity
  8
0
  6
Continuous
 62
     7
370
    13
100
AcDbLine
 10
-45.14983427853787
 20
-103.0253073353393
 30
0.0
 11
-65.9344439693644
 21
-103.0253073353393
 31
0.0
  0
LINE
  5
232
330
D9
100
AcDbEntity
  8
0
  6
Continuous
 62
     7
370
    13
100
AcDbLine
 10
-45.14983427853832
 20
-101.0253073353391
 30
0.0
 11
-65.9344439693653
 21
-101.0253073353391
 31
0.0
  0
LINE
  5
233
330
D9
100
AcDbEntity
  8
0
  6
Continuous
 62
     7
370
    13
100
AcDbLine
 10
-41.68573266340042
 20
-91.02530733533908
 30
0.0
 11
-69.39854558450253
 21
-91.02530733533908
 31
0.0
  0
LINE
  5
234
330
D9
100
AcDbEntity
  8
0
  6
Continuous
 62
     7
370
    13
100
AcDbLine
 10
-45.14983427853832
 20
-54.02530733533908
 30
0.0
 11
-65.93444396936485
 21
-54.02530733533908
 31
0.0
  0
ARC
  5
235
330
D9
100
AcDbEntity
  8
0
  6
Continuous
 62
     7
370
    13
100
AcDbCircle
 10
-55.54213912395136
 20
-81.7068118333469
 30
0.0
 40
27.68150449800771
100
AcDbArc
 50
75.5057551579082
 51
90.0
  0
ARC
  5
236
330
D9
100
AcDbEntity
  8
0
  6
Continuous
 62
     7
370
    13
100
AcDbCircle
 10
-45.14983427853809
 20
-61.27606790515242
 30
0.0
 40
7.2507605698135
100
AcDbArc
 50
61.46098968474265
 51
118.5390103152621
  0
ARC
  5
237
330
D9
100
AcDbEntity
  8
0
  6
Continuous
 62
     7
370
    13
100
AcDbCircle
 10
-55.54213912395136
 20
-36.34380283733194
 30
0.0
 40
27.68150449800754
100
AcDbArc
 50
270.0
 51
284.4942448420919
  0
ARC
  5
238
330
D9
100
AcDbEntity
  8
0
  6
Continuous
 62
     7
370
    13
100
AcDbCircle
 10
-45.14983427853832
 20
-56.77454676552711
 30
0.0
 40
7.250760569812658
100
AcDbArc
 50
241.4609896847366
 51
298.5390103152614
  0
ARC
  5
239
330
D9
100
AcDbEntity
  8
0
  6
Continuous
 62
     7
370
    13
100
AcDbCircle
 10
-55.54213912395136
 20
-73.34380283733171
 30
0.0
 40
27.68150449800743
100
AcDbArc
 50
270.0
 51
284.494244842092
  0
ARC
  5
23A
330
D9
100
AcDbEntity
  8
0
  6
Continuous
 62
     7
370
    13
100
AcDbCircle
 10
-45.14983427853832
 20
-93.7745467655262
 30
0.0
 40
7.250760569812988
100
AcDbArc
 50
241.4609896847378
 51
298.53901031526
  0
ARC
  5
23B
330
D9
100
AcDbEntity
  8
0
  6
Continuous
 62
     7
370
    13
100
AcDbCircle
 10
-45.14983427853832
 20
-110.276067905152
 30
0.0
 40
7.250760569812575
100
AcDbArc
 50
61.46098968474006
 51
118.5390103152553
  0
ARC
  5
23C
330
D9
100
AcDbEntity
  8
0
  6
Continuous
 62
     7
370
    13
100
AcDbCircle
 10
-55.54213912395136
 20
-130.7068118333467
 30
0.0
 40
27.6815044980074
100
AcDbArc
 50
75.505755157906
 51
90.0
  0
ARC
  5
23D
330
D9
100
AcDbEntity
  8
0
  6
Continuous
 62
     7
370
    13
100
AcDbCircle
 10
-55.54213912395136
 20
-85.34380283733171
 30
0.0
 40
27.68150449800768
100
AcDbArc
 50
270.0
 51
284.494244842094
  0
ARC
  5
23E
330
D9
100
AcDbEntity
  8
0
  6
Continuous
 62
     7
370
    13
100
AcDbCircle
 10
-45.14983427853832
 20
-105.7745467655264
 30
0.0
 40
7.250760569812914
100
AcDbArc
 50
241.4609896847444
 51
298.5390103152602
  0
ARC
  5
23F
330
D9
100
AcDbEntity
  8
0
  6
Continuous
 62
     7
370
    13
100
AcDbCircle
 10
-43.0929327020454
 20
-118.2253073353391
 30
0.0
 40
5.199999999999989
100
AcDbArc
 50
34.56541597133671
 51
90.0
  0
ARC
  5
240
330
D9
100
AcDbEntity
  8
0
  6
Continuous
 62
     7
370
    13
100
AcDbCircle
 10
-30.49134554585845
 20
-123.8253073353393
 30
0.0
 40
2.0
100
AcDbArc
 50
214.5654159713501
 51
270.0
  0
ARC
  5
241
330
D9
100
AcDbEntity
  8
0
  6
Continuous
 62
     7
370
    13
100
AcDbCircle
 10
-80.5929327020454
 20
-123.8253073353393
 30
0.0
 40
2.000000000000498
100
AcDbArc
 50
270.0
 51
325.4345840286696
  0
ARC
  5
242
330
D9
100
AcDbEntity
  8
0
  6
Continuous
 62
     7
370
    13
100
AcDbCircle
 10
-67.99134554585845
 20
-118.2253073353391
 30
0.0
 40
5.199999999999685
100
AcDbArc
 50
90.0
 51
145.4345840286569
  0
ARC
  5
243
330
D9
100
AcDbEntity
  8
0
  6
Continuous
 62
     7
370
    13
100
AcDbCircle
 10
-65.9344439693644
 20
-105.7745467655262
 30
0.0
 40
7.25076056981266
100
AcDbArc
 50
241.4609896847394
 51
298.5390103152532
  0
ARC
  5
244
330
D9
100
AcDbEntity
  8
0
  6
Continuous
 62
     7
370
    13
100
AcDbCircle
 10
-55.54213912395136
 20
-85.34380283733171
 30
0.0
 40
27.6815044980076
100
AcDbArc
 50
255.5057551579059
 51
270.0
  0
ARC
  5
245
330
D9
100
AcDbEntity
  8
0
  6
Continuous
 62
     7
370
    13
100
AcDbCircle
 10
-55.54213912395136
 20
-130.7068118333467
 30
0.0
 40
27.68150449800745
100
AcDbArc
 50
90.0
 51
104.4942448420938
  0
ARC
  5
246
330
D9
100
AcDbEntity
  8
0
  6
Continuous
 62
     7
370
    13
100
AcDbCircle
 10
-65.9344439693644
 20
-110.2760679051524
 30
0.0
 40
7.250760569813339
100
AcDbArc
 50
61.46098968474531
 51
118.5390103152602
  0
ARC
  5
247
330
D9
100
AcDbEntity
  8
0
  6
Continuous
 62
     7
370
    13
100
AcDbCircle
 10
-65.9344439693653
 20
-93.77454676552597
 30
0.0
 40
7.25076056981329
100
AcDbArc
 50
241.4609896847462
 51
298.5390103152604
  0
ARC
  5
248
330
D9
100
AcDbEntity
  8
0
  6
Continuous
 62
     7
370
    13
100
AcDbCircle
 10
-55.54213912395136
 20
-73.34380283733171
 30
0.0
 40
27.68150449800748
100
AcDbArc
 50
255.5057551579063
 51
270.0
  0
ARC
  5
249
330
D9
100
AcDbEntity
  8
0
  6
Continuous
 62
     7
370
    13
100
AcDbCircle
 10
-65.93444396936485
 20
-56.77454676552711
 30
0.0
 40
7.250760569812313
100
AcDbArc
 50
241.4609896847408
 51
298.5390103152611
  0
ARC
  5
24A
330
D9
100
AcDbEntity
  8
0
  6
Continuous
 62
     7
370
    13
100
AcDbCircle
 10
-55.54213912395136
 20
-36.34380283733194
 30
0.0
 40
27.68150449800763
100
AcDbArc
 50
255.5057551579062
 51
270.0
  0
ARC
  5
24B
330
D9
100
AcDbEntity
  8
0
  6
Continuous
 62
     7
370
    13
100
AcDbCircle
 10
-65.93444396936485
 20
-61.27606790515242
 30
0.0
 40
7.25076056981312
100
AcDbArc
 50
61.46098968473851
 51
118.5390103152566
  0
ARC
  5
24C
330
D9
100
AcDbEntity
  8
0
  6
Continuous
 62
     7
370
    13
100
AcDbCircle
 10
-55.54213912395136
 20
-81.7068118333469
 30
0.0
 40
27.68150449800689
100
AcDbArc
 50
90.0
 51
104.4942448420941
  0
LINE
  5
24D
330
D9
100
AcDbEntity
  8
0
  6
Continuous
 62
     3
370
    13
100
AcDbLine
 10
-62.04213912395136
 20
-64.02530733533953
 30
0.0
 11
-62.04213912395136
 21
-91.02530733533999
 31
0.0
  0
LINE
  5
24E
330
D9
100
AcDbEntity
  8
0
  6
Continuous
 62
     3
370
    13
100
AcDbLine
 10
-49.04213912395136
 20
-91.02530733533999
 30
0.0
 11
-49.04213912395136
 21
-64.02530733533953
 31
0.0
  0
LINE
  5
24F
330
D9
100
AcDbEntity
  8
0
  6
Continuous
 62
     3
370
    13
100
AcDbLine
 10
-49.04213912395136
 20
-103.0253073353393
 30
0.0
 11
-49.04213912395136
 21
-101.0253073353391
 31
0.0
  0
LINE
  5
250
330
D9
100
AcDbEntity
  8
0
  6
Continuous
 62
     3
370
    13
100
AcDbLine
 10
-62.04213912395136
 20
-101.0253073353391
 30
0.0
 11
-62.04213912395136
 21
-103.0253073353393
 31
0.0
  0
LINE
  5
251
330
D9
100
AcDbEntity
  8
0
  6
CENTERX2
 62
     3
370
    13
100
AcDbLine
 10
-118.5421391239514
 20
-122.2377202835631
 30
0.0
 11
-118.5421391239514
 21
-132.418820872802
 31
0.0
  0
LINE
  5
252
330
D9
100
AcDbEntity
  8
0
  6
CENTERX2
 62
     3
370
    13
100
AcDbLine
 10
-55.54213912395136
 20
-41.60552242442676
 30
0.0
 11
-55.54213912395136
 21
-133.8991898468506
 31
0.0
  0
ENDBLK
  5
DB
330
D9
100
AcDbEntity
  8
0
100
AcDbBlockEnd
  0
BLOCK
  5
DD
330
DC
100
AcDbEntity
  8
0
100
AcDbBlockBegin
  2
DC_GROUP_W_MHR_LEG_010_13
 70
     0
 10
0.0
 20
0.0
 30
0.0
  3
DC_GROUP_W_MHR_LEG_010_13
  1

  0
LINE
  5
253
330
DC
100
AcDbEntity
  8
0
  6
Continuous
 62
     7
370
    13
100
AcDbLine
 10
-80.04213912395181
 20
-54.02530733533953
 30
0.0
 11
-35.04213912395113
 21
-54.02530733533908
 31
0.0
  0
LINE
  5
254
330
DC
100
AcDbEntity
  8
0
  6
Continuous
 62
     7
370
    13
100
AcDbLine
 10
-80.04213912395159
 20
210.9740213293104
 30
0.0
 11
-35.04213912395159
 21
210.9740213293104
 31
0.0
  0
LINE
  5
255
330
DC
100
AcDbEntity
  8
0
  6
Continuous
 62
     7
370
    13
100
AcDbLine
 10
-80.04213912395159
 20
70.97402132931043
 30
0.0
 11
-80.04213912395159
 21
210.9740213293104
 31
0.0
  0
LINE
  5
256
330
DC
100
AcDbEntity
  8
0
  6
Continuous
 62
     7
370
    13
100
AcDbLine
 10
-80.04213912395181
 20
-54.02530733533953
 30
0.0
 11
-80.04213912395159
 21
70.97402132931043
 31
0.0
  0
LINE
  5
257
330
DC
100
AcDbEntity
  8
0
  6
Continuous
 62
     7
370
    13
100
AcDbLine
 10
-35.04213912395159
 20
210.9740213293104
 30
0.0
 11
-35.04213912395113
 21
-54.02530733533908
 31
0.0
  0
LINE
  5
258
330
DC
100
AcDbEntity
  8
0
  6
Continuous
 62
     7
370
    13
100
AcDbLine
 10
-35.04213912395113
 20
-9.025307335339079
 30
0.0
 11
814.9578608760474
 21
-9.025307335339079
 31
0.0
  0
LINE
  5
259
330
DC
100
AcDbEntity
  8
0
  6
Continuous
 62
     7
370
    13
100
AcDbLine
 10
-35.04213912395113
 20
-54.02530733533908
 30
0.0
 11
814.9578608760473
 21
-54.02530733533908
 31
0.0
  0
ENDBLK
  5
DE
330
DC
100
AcDbEntity
  8
0
100
AcDbBlockEnd
  0
BLOCK
  5
E0
330
DF
100
AcDbEntity
  8
0
100
AcDbBlockBegin
  2
DC_GROUP_W_MHR_LEG_010_14
 70
     0
 10
0.0
 20
0.0
 30
0.0
  3
DC_GROUP_W_MHR_LEG_010_14
  1

  0
INSERT
  5
25A
330
DF
100
AcDbEntity
  8
0
  6
Continuous
100
AcDbBlockReference
  2
DC_GROUP_W_MHR_LEG_010_15
 10
0.0
 20
0.0
 30
0.0
  0
INSERT
  5
25B
330
DF
100
AcDbEntity
  8
0
  6
Continuous
100
AcDbBlockReference
  2
DC_GROUP_W_MHR_LEG_010_24
 10
0.0
 20
0.0
 30
0.0
  0
INSERT
  5
25C
330
DF
100
AcDbEntity
  8
0
  6
Continuous
100
AcDbBlockReference
  2
DC_GROUP_W_MHR_LEG_010_25
 10
0.0
 20
0.0
 30
0.0
  0
ENDBLK
  5
E1
330
DF
100
AcDbEntity
  8
0
100
AcDbBlockEnd
  0
BLOCK
  5
E3
330
E2
100
AcDbEntity
  8
0
100
AcDbBlockBegin
  2
DC_GROUP_W_MHR_LEG_010_15
 70
     0
 10
0.0
 20
0.0
 30
0.0
  3
DC_GROUP_W_MHR_LEG_010_15
  1

  0
INSERT
  5
25D
330
E2
100
AcDbEntity
  8
0
  6
Continuous
100
AcDbBlockReference
  2
DC_GROUP_W_MHR_LEG_010_16
 10
0.0
 20
0.0
 30
0.0
  0
INSERT
  5
25E
330
E2
100
AcDbEntity
  8
0
  6
Continuous
100
AcDbBlockReference
  2
DC_GROUP_W_MHR_LEG_010_17
 10
0.0
 20
0.0
 30
0.0
  0
INSERT
  5
25F
330
E2
100
AcDbEntity
  8
0
  6
Continuous
100
AcDbBlockReference
  2
DC_GROUP_W_MHR_LEG_010_19
 10
0.0
 20
0.0
 30
0.0
  0
INSERT
  5
260
330
E2
100
AcDbEntity
  8
0
  6
Continuous
100
AcDbBlockReference
  2
DC_GROUP_W_MHR_LEG_010_21
 10
0.0
 20
0.0
 30
0.0
  0
ENDBLK
  5
E4
330
E2
100
AcDbEntity
  8
0
100
AcDbBlockEnd
  0
BLOCK
  5
E6
330
E5
100
AcDbEntity
  8
0
100
AcDbBlockBegin
  2
DC_GROUP_W_MHR_LEG_010_16
 70
     0
 10
0.0
 20
0.0
 30
0.0
  3
DC_GROUP_W_MHR_LEG_010_16
  1

  0
LINE
  5
261
330
E5
100
AcDbEntity
  8
0
  6
Continuous
 62
     7
370
    13
100
AcDbLine
 10
832.9578608760478
 20
225.9740213293104
 30
0.0
 11
832.9578608760478
 21
222.7740213293102
 31
0.0
  0
LINE
  5
262
330
E5
100
AcDbEntity
  8
0
  6
Continuous
 62
     7
370
    13
100
AcDbLine
 10
863.1578608760478
 20
70.97402132931043
 30
0.0
 11
863.1578608760478
 21
220.7740213293102
 31
0.0
  0
LINE
  5
263
330
E5
100
AcDbEntity
  8
0
  6
Continuous
 62
     7
370
    13
100
AcDbLine
 10
859.9578608760478
 20
70.97402132931043
 30
0.0
 11
859.9578608760478
 21
220.7740213293102
 31
0.0
  0
LINE
  5
264
330
E5
100
AcDbEntity
  8
0
  6
Continuous
 62
     7
370
    13
100
AcDbLine
 10
832.9578608760478
 20
222.7740213293102
 30
0.0
 11
857.9578608760478
 21
222.7740213293102
 31
0.0
  0
LINE
  5
265
330
E5
100
AcDbEntity
  8
0
  6
Continuous
 62
     7
370
    13
100
AcDbLine
 10
832.9578608760478
 20
225.9740213293104
 30
0.0
 11
857.9578608760478
 21
225.9740213293104
 31
0.0
  0
LINE
  5
266
330
E5
100
AcDbEntity
  8
0
  6
Continuous
 62
     7
370
    13
100
AcDbLine
 10
863.1578608760478
 20
70.97402132931043
 30
0.0
 11
859.9578608760478
 21
70.97402132931043
 31
0.0
  0
ARC
  5
267
330
E5
100
AcDbEntity
  8
0
  6
Continuous
 62
     7
370
    13
100
AcDbCircle
 10
860.0328608760478
 20
153.4740213293104
 30
0.0
 40
8.125
100
AcDbArc
 50
292.6198649480405
 51
0.0
  0
ARC
  5
268
330
E5
100
AcDbEntity
  8
0
  6
Continuous
 62
     7
370
    13
100
AcDbCircle
 10
860.1828608760479
 20
213.3740213293101
 30
0.0
 40
7.975626934605307
100
AcDbArc
 50
0.7184047260506402
 51
68.09853977800941
  0
ARC
  5
269
330
E5
100
AcDbEntity
  8
0
  6
Continuous
 62
     7
370
    13
100
AcDbCircle
 10
857.9578608760478
 20
220.7740213293102
 30
0.0
 40
2.0
100
AcDbArc
 50
0.0
 51
90.0
  0
ARC
  5
26A
330
E5
100
AcDbEntity
  8
0
  6
Continuous
 62
     7
370
    13
100
AcDbCircle
 10
857.9578608760478
 20
220.7740213293102
 30
0.0
 40
5.200000000000102
100
AcDbArc
 50
0.0
 51
90.0
  0
LINE
  5
26B
330
E5
100
AcDbEntity
  8
0
  6
Continuous
 62
     7
370
    13
100
AcDbLine
 10
868.1578608760478
 20
213.4740213293104
 30
0.0
 11
868.1578608760478
 21
180.7889759055339
 31
0.0
  0
LINE
  5
26C
330
E5
100
AcDbEntity
  8
0
  6
Continuous
 62
     7
370
    13
100
AcDbLine
 10
868.1578608760478
 20
161.1590667530867
 30
0.0
 11
868.1578608760478
 21
153.4740213293104
 31
0.0
  0
ENDBLK
  5
E7
330
E5
100
AcDbEntity
  8
0
100
AcDbBlockEnd
  0
BLOCK
  5
E9
330
E8
100
AcDbEntity
  8
0
100
AcDbBlockBegin
  2
DC_GROUP_W_MHR_LEG_010_17
 70
     0
 10
0.0
 20
0.0
 30
0.0
  3
DC_GROUP_W_MHR_LEG_010_17
  1

  0
INSERT
  5
26D
330
E8
100
AcDbEntity
  8
0
  6
Continuous
100
AcDbBlockReference
  2
DC_GROUP_W_MHR_LEG_010_18
 10
0.0
 20
0.0
 30
0.0
  0
ENDBLK
  5
EA
330
E8
100
AcDbEntity
  8
0
100
AcDbBlockEnd
  0
BLOCK
  5
EC
330
EB
100
AcDbEntity
  8
0
100
AcDbBlockBegin
  2
DC_GROUP_W_MHR_LEG_010_18
 70
     0
 10
0.0
 20
0.0
 30
0.0
  3
DC_GROUP_W_MHR_LEG_010_18
  1

  0
LINE
  5
26E
330
EB
100
AcDbEntity
  8
0
  6
Continuous
 62
     7
370
    13
100
AcDbLine
 10
863.1578608760478
 20
105.7889759055339
 30
0.0
 11
869.2543339301956
 21
105.7889759055339
 31
0.0
  0
LINE
  5
26F
330
EB
100
AcDbEntity
  8
0
  6
Continuous
 62
     7
370
    13
100
AcDbLine
 10
863.1578608760478
 20
100.8814986174222
 30
0.0
 11
869.2543339301956
 21
100.8814986174222
 31
0.0
  0
LINE
  5
270
330
EB
100
AcDbEntity
  8
0
  6
Continuous
 62
     7
370
    13
100
AcDbLine
 10
863.1578608760478
 20
105.7889759055339
 30
0.0
 11
863.1578608760478
 21
86.15906675308648
 31
0.0
  0
LINE
  5
271
330
EB
100
AcDbEntity
  8
0
  6
Continuous
 62
     7
370
    13
100
AcDbLine
 10
870.1578608760478
 20
103.3352372614783
 30
0.0
 11
870.1578608760478
 21
88.61280539714258
 31
0.0
  0
LINE
  5
272
330
EB
100
AcDbEntity
  8
0
  6
Continuous
 62
     7
370
    13
100
AcDbLine
 10
863.1578608760478
 20
86.15906675308648
 30
0.0
 11
869.2543339301956
 21
86.15906675308648
 31
0.0
  0
LINE
  5
273
330
EB
100
AcDbEntity
  8
0
  6
Continuous
 62
     7
370
    13
100
AcDbLine
 10
863.1578608760478
 20
91.06654404119823
 30
0.0
 11
869.2543339301956
 21
91.06654404119823
 31
0.0
  0
ARC
  5
274
330
EB
100
AcDbEntity
  8
0
  6
Continuous
 62
     7
370
    13
100
AcDbCircle
 10
866.3742469469883
 20
103.3352372614783
 30
0.0
 40
3.783613929059545
100
AcDbArc
 50
319.5701031551727
 51
40.42989684482659
  0
ARC
  5
275
330
EB
100
AcDbEntity
  8
0
  6
Continuous
 62
     7
370
    13
100
AcDbCircle
 10
866.3742469469883
 20
88.61280539714258
 30
0.0
 40
3.783613929059545
100
AcDbArc
 50
319.5701031551734
 51
40.42989684482659
  0
ARC
  5
276
330
EB
100
AcDbEntity
  8
0
  6
Continuous
 62
     7
370
    13
100
AcDbCircle
 10
856.3786955785881
 20
95.97402132931043
 30
0.0
 40
13.7791652974597
100
AcDbArc
 50
339.1359356360803
 51
20.86406436391949
  0
LINE
  5
277
330
EB
100
AcDbEntity
  8
0
  6
CENTERX2
 62
     3
370
    13
100
AcDbLine
 10
874.0838427065373
 20
95.97402132931043
 30
0.0
 11
857.6578608760478
 21
95.97402132931043
 31
0.0
  0
ENDBLK
  5
ED
330
EB
100
AcDbEntity
  8
0
100
AcDbBlockEnd
  0
BLOCK
  5
EF
330
EE
100
AcDbEntity
  8
0
100
AcDbBlockBegin
  2
DC_GROUP_W_MHR_LEG_010_19
 70
     0
 10
0.0
 20
0.0
 30
0.0
  3
DC_GROUP_W_MHR_LEG_010_19
  1

  0
INSERT
  5
278
330
EE
100
AcDbEntity
  8
0
  6
Continuous
100
AcDbBlockReference
  2
DC_GROUP_W_MHR_LEG_010_20
 10
0.0
 20
0.0
 30
0.0
  0
ENDBLK
  5
F0
330
EE
100
AcDbEntity
  8
0
100
AcDbBlockEnd
  0
BLOCK
  5
F2
330
F1
100
AcDbEntity
  8
0
100
AcDbBlockBegin
  2
DC_GROUP_W_MHR_LEG_010_20
 70
     0
 10
0.0
 20
0.0
 30
0.0
  3
DC_GROUP_W_MHR_LEG_010_20
  1

  0
LINE
  5
279
330
F1
100
AcDbEntity
  8
0
  6
Continuous
 62
     7
370
    13
100
AcDbLine
 10
865.1578608760478
 20
180.7889759055339
 30
0.0
 11
871.2543339301956
 21
180.7889759055339
 31
0.0
  0
LINE
  5
27A
330
F1
100
AcDbEntity
  8
0
  6
Continuous
 62
     7
370
    13
100
AcDbLine
 10
865.1578608760478
 20
175.8814986174222
 30
0.0
 11
871.2543339301956
 21
175.8814986174222
 31
0.0
  0
LINE
  5
27B
330
F1
100
AcDbEntity
  8
0
  6
Continuous
 62
     7
370
    13
100
AcDbLine
 10
872.1578608760478
 20
178.3352372614781
 30
0.0
 11
872.1578608760478
 21
163.6128053971426
 31
0.0
  0
LINE
  5
27C
330
F1
100
AcDbEntity
  8
0
  6
Continuous
 62
     7
370
    13
100
AcDbLine
 10
865.1578608760478
 20
161.1590667530867
 30
0.0
 11
871.2543339301956
 21
161.1590667530867
 31
0.0
  0
LINE
  5
27D
330
F1
100
AcDbEntity
  8
0
  6
Continuous
 62
     7
370
    13
100
AcDbLine
 10
865.1578608760478
 20
166.0665440411985
 30
0.0
 11
871.2543339301956
 21
166.0665440411985
 31
0.0
  0
ARC
  5
27E
330
F1
100
AcDbEntity
  8
0
  6
Continuous
 62
     7
370
    13
100
AcDbCircle
 10
868.3742469469883
 20
178.3352372614781
 30
0.0
 40
3.783613929059545
100
AcDbArc
 50
319.5701031551727
 51
40.42989684482659
  0
ARC
  5
27F
330
F1
100
AcDbEntity
  8
0
  6
Continuous
 62
     7
370
    13
100
AcDbCircle
 10
868.3742469469883
 20
163.6128053971426
 30
0.0
 40
3.783613929059545
100
AcDbArc
 50
319.5701031551734
 51
40.42989684482659
  0
ARC
  5
280
330
F1
100
AcDbEntity
  8
0
  6
Continuous
 62
     7
370
    13
100
AcDbCircle
 10
858.3786955785881
 20
170.9740213293104
 30
0.0
 40
13.77916529745981
100
AcDbArc
 50
339.1359356360804
 51
20.86406436391934
  0
LINE
  5
281
330
F1
100
AcDbEntity
  8
0
  6
Continuous
 62
     7
370
    13
100
AcDbLine
 10
863.1578608760478
 20
160.4740213293104
 30
0.0
 11
865.1578608760478
 21
160.4740213293104
 31
0.0
  0
LINE
  5
282
330
F1
100
AcDbEntity
  8
0
  6
Continuous
 62
     7
370
    13
100
AcDbLine
 10
863.1578608760478
 20
181.4740213293104
 30
0.0
 11
863.1578608760478
 21
160.4740213293104
 31
0.0
  0
LINE
  5
283
330
F1
100
AcDbEntity
  8
0
  6
Continuous
 62
     7
370
    13
100
AcDbLine
 10
863.1578608760478
 20
181.4740213293104
 30
0.0
 11
865.1578608760478
 21
181.4740213293104
 31
0.0
  0
LINE
  5
284
330
F1
100
AcDbEntity
  8
0
  6
Continuous
 62
     7
370
    13
100
AcDbLine
 10
865.1578608760478
 20
181.4740213293104
 30
0.0
 11
865.1578608760478
 21
160.4740213293104
 31
0.0
  0
LINE
  5
285
330
F1
100
AcDbEntity
  8
0
  6
CENTERX2
 62
     3
370
    13
100
AcDbLine
 10
874.0838427065373
 20
170.9740213293104
 30
0.0
 11
857.6578608760478
 21
170.9740213293104
 31
0.0
  0
ENDBLK
  5
F3
330
F1
100
AcDbEntity
  8
0
100
AcDbBlockEnd
  0
BLOCK
  5
F5
330
F4
100
AcDbEntity
  8
0
100
AcDbBlockBegin
  2
DC_GROUP_W_MHR_LEG_010_21
 70
     0
 10
0.0
 20
0.0
 30
0.0
  3
DC_GROUP_W_MHR_LEG_010_21
  1

  0
INSERT
  5
286
330
F4
100
AcDbEntity
  8
0
  6
Continuous
100
AcDbBlockReference
  2
DC_GROUP_W_MHR_LEG_010_22
 10
0.0
 20
0.0
 30
0.0
  0
INSERT
  5
287
330
F4
100
AcDbEntity
  8
0
  6
Continuous
100
AcDbBlockReference
  2
DC_GROUP_W_MHR_LEG_010_23
 10
0.0
 20
0.0
 30
0.0
  0
ENDBLK
  5
F6
330
F4
100
AcDbEntity
  8
0
100
AcDbBlockEnd
  0
BLOCK
  5
F8
330
F7
100
AcDbEntity
  8
0
100
AcDbBlockBegin
  2
DC_GROUP_W_MHR_LEG_010_22
 70
     0
 10
0.0
 20
0.0
 30
0.0
  3
DC_GROUP_W_MHR_LEG_010_22
  1

  0
LINE
  5
288
330
F7
100
AcDbEntity
  8
0
  6
Continuous
 62
     7
370
    13
100
AcDbLine
 10
835.1429062998243
 20
230.4740213293104
 30
0.0
 11
835.1429062998243
 21
236.5704943834582
 31
0.0
  0
LINE
  5
289
330
F7
100
AcDbEntity
  8
0
  6
Continuous
 62
     7
370
    13
100
AcDbLine
 10
840.050383587936
 20
230.4740213293104
 30
0.0
 11
840.050383587936
 21
236.5704943834582
 31
0.0
  0
LINE
  5
28A
330
F7
100
AcDbEntity
  8
0
  6
Continuous
 62
     7
370
    13
100
AcDbLine
 10
835.1429062998243
 20
230.4740213293104
 30
0.0
 11
854.7728154522715
 21
230.4740213293104
 31
0.0
  0
LINE
  5
28B
330
F7
100
AcDbEntity
  8
0
  6
Continuous
 62
     7
370
    13
100
AcDbLine
 10
837.5966449438802
 20
237.4740213293104
 30
0.0
 11
852.3190768082156
 21
237.4740213293104
 31
0.0
  0
LINE
  5
28C
330
F7
100
AcDbEntity
  8
0
  6
Continuous
 62
     7
370
    13
100
AcDbLine
 10
854.7728154522715
 20
230.4740213293104
 30
0.0
 11
854.7728154522715
 21
236.5704943834582
 31
0.0
  0
LINE
  5
28D
330
F7
100
AcDbEntity
  8
0
  6
Continuous
 62
     7
370
    13
100
AcDbLine
 10
849.8653381641598
 20
230.4740213293104
 30
0.0
 11
849.8653381641598
 21
236.5704943834582
 31
0.0
  0
ARC
  5
28E
330
F7
100
AcDbEntity
  8
0
  6
Continuous
 62
     7
370
    13
100
AcDbCircle
 10
837.5966449438802
 20
233.6904074002506
 30
0.0
 40
3.783613929059545
100
AcDbArc
 50
49.57010315517275
 51
130.4298968448266
  0
ARC
  5
28F
330
F7
100
AcDbEntity
  8
0
  6
Continuous
 62
     7
370
    13
100
AcDbCircle
 10
852.3190768082156
 20
233.6904074002506
 30
0.0
 40
3.783613929059582
100
AcDbArc
 50
49.57010315517341
 51
130.4298968448273
  0
ARC
  5
290
330
F7
100
AcDbEntity
  8
0
  6
Continuous
 62
     7
370
    13
100
AcDbCircle
 10
844.9578608760478
 20
223.6948560318505
 30
0.0
 40
13.77916529745981
100
AcDbArc
 50
69.1359356360807
 51
110.8640643639193
  0
LINE
  5
291
330
F7
100
AcDbEntity
  8
0
  6
CENTERX2
 62
     3
370
    13
100
AcDbLine
 10
844.9578608760478
 20
240.1207567590191
 30
0.0
 11
844.9578608760478
 21
208.3582075068873
 31
0.0
  0
ENDBLK
  5
F9
330
F7
100
AcDbEntity
  8
0
100
AcDbBlockEnd
  0
BLOCK
  5
FB
330
FA
100
AcDbEntity
  8
0
100
AcDbBlockBegin
  2
DC_GROUP_W_MHR_LEG_010_23
 70
     0
 10
0.0
 20
0.0
 30
0.0
  3
DC_GROUP_W_MHR_LEG_010_23
  1

  0
LINE
  5
292
330
FA
100
AcDbEntity
  8
0
  6
Continuous
 62
     7
370
    13
100
AcDbLine
 10
835.1429062998243
 20
218.2740213293102
 30
0.0
 11
835.1429062998243
 21
211.1775482751624
 31
0.0
  0
LINE
  5
293
330
FA
100
AcDbEntity
  8
0
  6
Continuous
 62
     7
370
    13
100
AcDbLine
 10
840.050383587936
 20
211.1775482751624
 30
0.0
 11
840.050383587936
 21
218.2740213293102
 31
0.0
  0
LINE
  5
294
330
FA
100
AcDbEntity
  8
0
  6
Continuous
 62
     7
370
    13
100
AcDbLine
 10
835.1429062998243
 20
218.2740213293102
 30
0.0
 11
854.7728154522715
 21
218.2740213293102
 31
0.0
  0
LINE
  5
295
330
FA
100
AcDbEntity
  8
0
  6
Continuous
 62
     7
370
    13
100
AcDbLine
 10
854.7728154522715
 20
218.2740213293102
 30
0.0
 11
854.7728154522715
 21
211.1775482751624
 31
0.0
  0
LINE
  5
296
330
FA
100
AcDbEntity
  8
0
  6
Continuous
 62
     7
370
    13
100
AcDbLine
 10
849.8653381641598
 20
218.2740213293102
 30
0.0
 11
849.8653381641598
 21
211.1775482751624
 31
0.0
  0
LINE
  5
297
330
FA
100
AcDbEntity
  8
0
  6
Continuous
 62
     7
370
    13
100
AcDbLine
 10
854.1578608760478
 20
218.2740213293102
 30
0.0
 11
854.1578608760478
 21
220.7740213293102
 31
0.0
  0
LINE
  5
298
330
FA
100
AcDbEntity
  8
0
  6
Continuous
 62
     7
370
    13
100
AcDbLine
 10
835.7578608760477
 20
220.7740213293102
 30
0.0
 11
835.7578608760477
 21
218.2740213293102
 31
0.0
  0
LINE
  5
299
330
FA
100
AcDbEntity
  8
0
  6
Continuous
 62
     7
370
    13
100
AcDbLine
 10
844.9578608760478
 20
218.2740213293102
 30
0.0
 11
845.6277338571256
 21
220.7740213293102
 31
0.0
  0
LINE
  5
29A
330
FA
100
AcDbEntity
  8
0
  6
Continuous
 62
     7
370
    13
100
AcDbLine
 10
844.28798789497
 20
218.2740213293102
 30
0.0
 11
844.9578608760478
 21
220.7740213293102
 31
0.0
  0
LINE
  5
29B
330
FA
100
AcDbEntity
  8
0
  6
Continuous
 62
     7
370
    13
100
AcDbLine
 10
855.4578608760478
 20
220.7740213293102
 30
0.0
 11
855.4578608760478
 21
222.7740213293102
 31
0.0
  0
LINE
  5
29C
330
FA
100
AcDbEntity
  8
0
  6
Continuous
 62
     7
370
    13
100
AcDbLine
 10
855.4578608760478
 20
222.7740213293102
 30
0.0
 11
834.4578608760478
 21
222.7740213293102
 31
0.0
  0
LINE
  5
29D
330
FA
100
AcDbEntity
  8
0
  6
Continuous
 62
     7
370
    13
100
AcDbLine
 10
834.4578608760478
 20
222.7740213293102
 30
0.0
 11
834.4578608760478
 21
220.7740213293102
 31
0.0
  0
LINE
  5
29E
330
FA
100
AcDbEntity
  8
0
  6
Continuous
 62
     7
370
    13
100
AcDbLine
 10
855.4578608760478
 20
220.7740213293102
 30
0.0
 11
834.4578608760478
 21
220.7740213293102
 31
0.0
  0
ENDBLK
  5
FC
330
FA
100
AcDbEntity
  8
0
100
AcDbBlockEnd
  0
BLOCK
  5
FE
330
FD
100
AcDbEntity
  8
0
100
AcDbBlockBegin
  2
DC_GROUP_W_MHR_LEG_010_24
 70
     0
 10
0.0
 20
0.0
 30
0.0
  3
DC_GROUP_W_MHR_LEG_010_24
  1

  0
LINE
  5
29F
330
FD
100
AcDbEntity
  8
0
  6
Continuous
 62
     7
370
    13
100
AcDbLine
 10
827.4578608760476
 20
-64.02530733533953
 30
0.0
 11
827.4578608760476
 21
-91.02530733533908
 31
0.0
  0
LINE
  5
2A0
330
FD
100
AcDbEntity
  8
0
  6
Continuous
 62
     7
370
    13
100
AcDbLine
 10
845.850165721461
 20
-64.02530733533953
 30
0.0
 11
825.0655560306345
 21
-64.02530733533953
 31
0.0
  0
LINE
  5
2A1
330
FD
100
AcDbEntity
  8
0
  6
Continuous
 62
     7
370
    13
100
AcDbLine
 10
917.4578608760474
 20
-129.0253073353393
 30
0.0
 11
804.957860876048
 21
-129.0253073353393
 31
0.0
  0
LINE
  5
2A2
330
FD
100
AcDbEntity
  8
0
  6
Continuous
 62
     7
370
    13
100
AcDbLine
 10
804.957860876048
 20
-125.8253073353393
 30
0.0
 11
917.4578608760474
 21
-125.8253073353393
 31
0.0
  0
LINE
  5
2A3
330
FD
100
AcDbEntity
  8
0
  6
Continuous
 62
     7
370
    13
100
AcDbLine
 10
917.4578608760474
 20
-129.0253073353393
 30
0.0
 11
917.4578608760474
 21
-125.8253073353393
 31
0.0
  0
LINE
  5
2A4
330
FD
100
AcDbEntity
  8
0
  6
Continuous
 62
     7
370
    13
100
AcDbLine
 10
917.4578608760474
 20
-129.0253073353393
 30
0.0
 11
917.4578608760474
 21
-125.8253073353393
 31
0.0
  0
LINE
  5
2A5
330
FD
100
AcDbEntity
  8
0
  6
Continuous
 62
     7
370
    13
100
AcDbLine
 10
828.5296576457727
 20
-63.14428214784479
 30
0.0
 11
828.5296576457727
 21
-54.90633252283405
 31
0.0
  0
LINE
  5
2A6
330
FD
100
AcDbEntity
  8
0
  6
Continuous
 62
     7
370
    13
100
AcDbLine
 10
821.6014544154968
 20
-63.14428214784479
 30
0.0
 11
821.6014544154968
 21
-54.90633252283405
 31
0.0
  0
LINE
  5
2A7
330
FD
100
AcDbEntity
  8
0
  6
Continuous
 62
     7
370
    13
100
AcDbLine
 10
827.4578608760476
 20
-101.0253073353391
 30
0.0
 11
827.4578608760476
 21
-103.0253073353393
 31
0.0
  0
LINE
  5
2A8
330
FD
100
AcDbEntity
  8
0
  6
Continuous
 62
     7
370
    13
100
AcDbLine
 10
828.5296576457727
 20
-100.1442821478443
 30
0.0
 11
828.5296576457727
 21
-91.02530733533908
 31
0.0
  0
LINE
  5
2A9
330
FD
100
AcDbEntity
  8
0
  6
Continuous
 62
     7
370
    13
100
AcDbLine
 10
821.6014544154968
 20
-100.1442821478443
 30
0.0
 11
821.6014544154968
 21
-91.02530733533908
 31
0.0
  0
LINE
  5
2AA
330
FD
100
AcDbEntity
  8
0
  6
Continuous
 62
     7
370
    13
100
AcDbLine
 10
828.5296576457717
 20
-112.1442821478443
 30
0.0
 11
828.5296576457717
 21
-103.906332522834
 31
0.0
  0
LINE
  5
2AB
330
FD
100
AcDbEntity
  8
0
  6
Continuous
 62
     7
370
    13
100
AcDbLine
 10
821.6014544154968
 20
-112.1442821478443
 30
0.0
 11
821.6014544154968
 21
-103.906332522834
 31
0.0
  0
LINE
  5
2AC
330
FD
100
AcDbEntity
  8
0
  6
Continuous
 62
     7
370
    13
100
AcDbLine
 10
804.957860876048
 20
-129.0253073353393
 30
0.0
 11
804.957860876048
 21
-125.8253073353393
 31
0.0
  0
LINE
  5
2AD
330
FD
100
AcDbEntity
  8
0
  6
Continuous
 62
     7
370
    13
100
AcDbLine
 10
812.0540252419196
 20
-124.9600009198849
 30
0.0
 11
818.7265637998307
 21
-115.2751040155207
 31
0.0
  0
LINE
  5
2AE
330
FD
100
AcDbEntity
  8
0
  6
Continuous
 62
     7
370
    13
100
AcDbLine
 10
823.0086544541418
 20
-113.0253073353393
 30
0.0
 11
847.9070672979547
 21
-113.0253073353393
 31
0.0
  0
LINE
  5
2AF
330
FD
100
AcDbEntity
  8
0
  6
Continuous
 62
     7
370
    13
100
AcDbLine
 10
852.1891579522648
 20
-115.2751040155207
 30
0.0
 11
858.8616965101755
 21
-124.9600009198849
 31
0.0
  0
LINE
  5
2B0
330
FD
100
AcDbEntity
  8
0
  6
Continuous
 62
     7
370
    13
100
AcDbLine
 10
849.3142673365987
 20
-103.906332522834
 30
0.0
 11
849.3142673365987
 21
-112.1442821478443
 31
0.0
  0
LINE
  5
2B1
330
FD
100
AcDbEntity
  8
0
  6
Continuous
 62
     7
370
    13
100
AcDbLine
 10
842.3860641063234
 20
-103.9063325228343
 30
0.0
 11
842.3860641063238
 21
-112.1442821478443
 31
0.0
  0
LINE
  5
2B2
330
FD
100
AcDbEntity
  8
0
  6
Continuous
 62
     7
370
    13
100
AcDbLine
 10
849.3142673365987
 20
-91.02530733533908
 30
0.0
 11
849.3142673365987
 21
-100.1442821478443
 31
0.0
  0
LINE
  5
2B3
330
FD
100
AcDbEntity
  8
0
  6
Continuous
 62
     7
370
    13
100
AcDbLine
 10
842.3860641063234
 20
-91.02530733533908
 30
0.0
 11
842.3860641063234
 21
-100.1442821478443
 31
0.0
  0
LINE
  5
2B4
330
FD
100
AcDbEntity
  8
0
  6
Continuous
 62
     7
370
    13
100
AcDbLine
 10
843.4578608760476
 20
-103.0253073353393
 30
0.0
 11
843.4578608760476
 21
-101.0253073353391
 31
0.0
  0
LINE
  5
2B5
330
FD
100
AcDbEntity
  8
0
  6
Continuous
 62
     7
370
    13
100
AcDbLine
 10
843.4578608760476
 20
-91.02530733533908
 30
0.0
 11
843.4578608760476
 21
-64.02530733533953
 31
0.0
  0
LINE
  5
2B6
330
FD
100
AcDbEntity
  8
0
  6
Continuous
 62
     7
370
    13
100
AcDbLine
 10
849.3142673365987
 20
-54.90633252283405
 30
0.0
 11
849.3142673365987
 21
-63.14428214784479
 31
0.0
  0
LINE
  5
2B7
330
FD
100
AcDbEntity
  8
0
  6
Continuous
 62
     7
370
    13
100
AcDbLine
 10
842.3860641063234
 20
-54.90633252283519
 30
0.0
 11
842.3860641063234
 21
-63.14428214784434
 31
0.0
  0
LINE
  5
2B8
330
FD
100
AcDbEntity
  8
0
  6
Continuous
 62
     7
370
    13
100
AcDbLine
 10
825.0655560306341
 20
-103.0253073353393
 30
0.0
 11
845.8501657214606
 21
-103.0253073353393
 31
0.0
  0
LINE
  5
2B9
330
FD
100
AcDbEntity
  8
0
  6
Continuous
 62
     7
370
    13
100
AcDbLine
 10
825.0655560306345
 20
-101.0253073353391
 30
0.0
 11
845.8501657214615
 21
-101.0253073353391
 31
0.0
  0
LINE
  5
2BA
330
FD
100
AcDbEntity
  8
0
  6
Continuous
 62
     7
370
    13
100
AcDbLine
 10
821.6014544154968
 20
-91.02530733533908
 30
0.0
 11
849.3142673365987
 21
-91.02530733533908
 31
0.0
  0
LINE
  5
2BB
330
FD
100
AcDbEntity
  8
0
  6
Continuous
 62
     7
370
    13
100
AcDbLine
 10
825.0655560306345
 20
-54.02530733533908
 30
0.0
 11
845.850165721461
 21
-54.02530733533908
 31
0.0
  0
ARC
  5
2BC
330
FD
100
AcDbEntity
  8
0
  6
Continuous
 62
     7
370
    13
100
AcDbCircle
 10
835.4578608760476
 20
-81.7068118333469
 30
0.0
 40
27.68150449800771
100
AcDbArc
 50
90.0
 51
104.4942448420918
  0
ARC
  5
2BD
330
FD
100
AcDbEntity
  8
0
  6
Continuous
 62
     7
370
    13
100
AcDbCircle
 10
825.0655560306345
 20
-61.27606790515242
 30
0.0
 40
7.2507605698135
100
AcDbArc
 50
61.46098968473791
 51
118.5390103152574
  0
ARC
  5
2BE
330
FD
100
AcDbEntity
  8
0
  6
Continuous
 62
     7
370
    13
100
AcDbCircle
 10
835.4578608760476
 20
-36.34380283733194
 30
0.0
 40
27.68150449800754
100
AcDbArc
 50
255.5057551579081
 51
270.0
  0
ARC
  5
2BF
330
FD
100
AcDbEntity
  8
0
  6
Continuous
 62
     7
370
    13
100
AcDbCircle
 10
825.0655560306345
 20
-56.77454676552711
 30
0.0
 40
7.250760569812658
100
AcDbArc
 50
241.4609896847386
 51
298.5390103152633
  0
ARC
  5
2C0
330
FD
100
AcDbEntity
  8
0
  6
Continuous
 62
     7
370
    13
100
AcDbCircle
 10
835.4578608760476
 20
-73.34380283733171
 30
0.0
 40
27.68150449800743
100
AcDbArc
 50
255.5057551579081
 51
270.0
  0
ARC
  5
2C1
330
FD
100
AcDbEntity
  8
0
  6
Continuous
 62
     7
370
    13
100
AcDbCircle
 10
825.0655560306345
 20
-93.7745467655262
 30
0.0
 40
7.250760569812988
100
AcDbArc
 50
241.46098968474
 51
298.5390103152622
  0
ARC
  5
2C2
330
FD
100
AcDbEntity
  8
0
  6
Continuous
 62
     7
370
    13
100
AcDbCircle
 10
825.0655560306345
 20
-110.276067905152
 30
0.0
 40
7.250760569812575
100
AcDbArc
 50
61.46098968474467
 51
118.5390103152599
  0
ARC
  5
2C3
330
FD
100
AcDbEntity
  8
0
  6
Continuous
 62
     7
370
    13
100
AcDbCircle
 10
835.4578608760476
 20
-130.7068118333467
 30
0.0
 40
27.6815044980074
100
AcDbArc
 50
90.0
 51
104.494244842094
  0
ARC
  5
2C4
330
FD
100
AcDbEntity
  8
0
  6
Continuous
 62
     7
370
    13
100
AcDbCircle
 10
835.4578608760476
 20
-85.34380283733171
 30
0.0
 40
27.68150449800768
100
AcDbArc
 50
255.505755157906
 51
270.0
  0
ARC
  5
2C5
330
FD
100
AcDbEntity
  8
0
  6
Continuous
 62
     7
370
    13
100
AcDbCircle
 10
825.0655560306345
 20
-105.7745467655264
 30
0.0
 40
7.250760569812914
100
AcDbArc
 50
241.4609896847397
 51
298.5390103152556
  0
ARC
  5
2C6
330
FD
100
AcDbEntity
  8
0
  6
Continuous
 62
     7
370
    13
100
AcDbCircle
 10
823.0086544541418
 20
-118.2253073353391
 30
0.0
 40
5.199999999999989
100
AcDbArc
 50
90.0
 51
145.4345840286633
  0
ARC
  5
2C7
330
FD
100
AcDbEntity
  8
0
  6
Continuous
 62
     7
370
    13
100
AcDbCircle
 10
810.4070672979547
 20
-123.8253073353393
 30
0.0
 40
2.0
100
AcDbArc
 50
270.0
 51
325.4345840286499
  0
ARC
  5
2C8
330
FD
100
AcDbEntity
  8
0
  6
Continuous
 62
     7
370
    13
100
AcDbCircle
 10
860.5086544541418
 20
-123.8253073353393
 30
0.0
 40
2.000000000000498
100
AcDbArc
 50
214.5654159713305
 51
270.0
  0
ARC
  5
2C9
330
FD
100
AcDbEntity
  8
0
  6
Continuous
 62
     7
370
    13
100
AcDbCircle
 10
847.9070672979547
 20
-118.2253073353391
 30
0.0
 40
5.199999999999685
100
AcDbArc
 50
34.56541597134311
 51
90.0
  0
ARC
  5
2CA
330
FD
100
AcDbEntity
  8
0
  6
Continuous
 62
     7
370
    13
100
AcDbCircle
 10
845.8501657214606
 20
-105.7745467655262
 30
0.0
 40
7.25076056981266
100
AcDbArc
 50
241.4609896847468
 51
298.5390103152606
  0
ARC
  5
2CB
330
FD
100
AcDbEntity
  8
0
  6
Continuous
 62
     7
370
    13
100
AcDbCircle
 10
835.4578608760476
 20
-85.34380283733171
 30
0.0
 40
27.6815044980076
100
AcDbArc
 50
270.0
 51
284.4942448420941
  0
ARC
  5
2CC
330
FD
100
AcDbEntity
  8
0
  6
Continuous
 62
     7
370
    13
100
AcDbCircle
 10
835.4578608760476
 20
-130.7068118333467
 30
0.0
 40
27.68150449800745
100
AcDbArc
 50
75.50575515790621
 51
90.0
  0
ARC
  5
2CD
330
FD
100
AcDbEntity
  8
0
  6
Continuous
 62
     7
370
    13
100
AcDbCircle
 10
845.8501657214606
 20
-110.2760679051524
 30
0.0
 40
7.250760569813339
100
AcDbArc
 50
61.46098968473978
 51
118.5390103152547
  0
ARC
  5
2CE
330
FD
100
AcDbEntity
  8
0
  6
Continuous
 62
     7
370
    13
100
AcDbCircle
 10
845.8501657214615
 20
-93.77454676552597
 30
0.0
 40
7.25076056981329
100
AcDbArc
 50
241.4609896847396
 51
298.5390103152538
  0
ARC
  5
2CF
330
FD
100
AcDbEntity
  8
0
  6
Continuous
 62
     7
370
    13
100
AcDbCircle
 10
835.4578608760476
 20
-73.34380283733171
 30
0.0
 40
27.68150449800748
100
AcDbArc
 50
270.0
 51
284.4942448420937
  0
ARC
  5
2D0
330
FD
100
AcDbEntity
  8
0
  6
Continuous
 62
     7
370
    13
100
AcDbCircle
 10
845.850165721461
 20
-56.77454676552711
 30
0.0
 40
7.250760569812313
100
AcDbArc
 50
241.4609896847389
 51
298.5390103152592
  0
ARC
  5
2D1
330
FD
100
AcDbEntity
  8
0
  6
Continuous
 62
     7
370
    13
100
AcDbCircle
 10
835.4578608760476
 20
-36.34380283733194
 30
0.0
 40
27.68150449800763
100
AcDbArc
 50
270.0
 51
284.4942448420938
  0
ARC
  5
2D2
330
FD
100
AcDbEntity
  8
0
  6
Continuous
 62
     7
370
    13
100
AcDbCircle
 10
845.850165721461
 20
-61.27606790515242
 30
0.0
 40
7.25076056981312
100
AcDbArc
 50
61.46098968474344
 51
118.5390103152615
  0
ARC
  5
2D3
330
FD
100
AcDbEntity
  8
0
  6
Continuous
 62
     7
370
    13
100
AcDbCircle
 10
835.4578608760476
 20
-81.7068118333469
 30
0.0
 40
27.68150449800689
100
AcDbArc
 50
75.5057551579059
 51
90.0
  0
LINE
  5
2D4
330
FD
100
AcDbEntity
  8
0
  6
Continuous
 62
     3
370
    13
100
AcDbLine
 10
841.9578608760476
 20
-64.02530733533953
 30
0.0
 11
841.9578608760476
 21
-91.02530733533999
 31
0.0
  0
LINE
  5
2D5
330
FD
100
AcDbEntity
  8
0
  6
Continuous
 62
     3
370
    13
100
AcDbLine
 10
828.9578608760476
 20
-91.02530733533999
 30
0.0
 11
828.9578608760476
 21
-64.02530733533953
 31
0.0
  0
LINE
  5
2D6
330
FD
100
AcDbEntity
  8
0
  6
Continuous
 62
     3
370
    13
100
AcDbLine
 10
828.9578608760476
 20
-103.0253073353393
 30
0.0
 11
828.9578608760476
 21
-101.0253073353391
 31
0.0
  0
LINE
  5
2D7
330
FD
100
AcDbEntity
  8
0
  6
Continuous
 62
     3
370
    13
100
AcDbLine
 10
841.9578608760476
 20
-101.0253073353391
 30
0.0
 11
841.9578608760476
 21
-103.0253073353393
 31
0.0
  0
LINE
  5
2D8
330
FD
100
AcDbEntity
  8
0
  6
CENTERX2
 62
     3
370
    13
100
AcDbLine
 10
898.4578608760476
 20
-122.2377202835631
 30
0.0
 11
898.4578608760476
 21
-132.418820872802
 31
0.0
  0
LINE
  5
2D9
330
FD
100
AcDbEntity
  8
0
  6
CENTERX2
 62
     3
370
    13
100
AcDbLine
 10
835.4578608760476
 20
-41.60552242442676
 30
0.0
 11
835.4578608760476
 21
-133.8991898468506
 31
0.0
  0
ENDBLK
  5
FF
330
FD
100
AcDbEntity
  8
0
100
AcDbBlockEnd
  0
BLOCK
  5
101
330
100
100
AcDbEntity
  8
0
100
AcDbBlockBegin
  2
DC_GROUP_W_MHR_LEG_010_25
 70
     0
 10
0.0
 20
0.0
 30
0.0
  3
DC_GROUP_W_MHR_LEG_010_25
  1

  0
LINE
  5
2DA
330
100
100
AcDbEntity
  8
0
  6
Continuous
 62
     7
370
    13
100
AcDbLine
 10
859.957860876048
 20
-54.02530733533953
 30
0.0
 11
814.9578608760473
 21
-54.02530733533908
 31
0.0
  0
LINE
  5
2DB
330
100
100
AcDbEntity
  8
0
  6
Continuous
 62
     7
370
    13
100
AcDbLine
 10
859.9578608760478
 20
210.9740213293104
 30
0.0
 11
814.9578608760478
 21
210.9740213293104
 31
0.0
  0
LINE
  5
2DC
330
100
100
AcDbEntity
  8
0
  6
Continuous
 62
     7
370
    13
100
AcDbLine
 10
859.9578608760478
 20
70.97402132931043
 30
0.0
 11
859.9578608760478
 21
210.9740213293104
 31
0.0
  0
LINE
  5
2DD
330
100
100
AcDbEntity
  8
0
  6
Continuous
 62
     7
370
    13
100
AcDbLine
 10
859.957860876048
 20
-54.02530733533953
 30
0.0
 11
859.9578608760478
 21
70.97402132931043
 31
0.0
  0
LINE
  5
2DE
330
100
100
AcDbEntity
  8
0
  6
Continuous
 62
     7
370
    13
100
AcDbLine
 10
814.9578608760478
 20
210.9740213293104
 30
0.0
 11
814.9578608760473
 21
-54.02530733533908
 31
0.0
  0
ENDBLK
  5
102
330
100
100
AcDbEntity
  8
0
100
AcDbBlockEnd
  0
BLOCK
  5
104
330
103
100
AcDbEntity
  8
0
100
AcDbBlockBegin
  2
*D27
 70
     1
 10
0.0
 20
0.0
 30
0.0
  3
*D27
  1

  0
LINE
  5
2DF
330
103
100
AcDbEntity
  8
0
  6
Continuous
 62
     2
370
    13
100
AcDbLine
 10
-312.1651101012879
 20
-129.0253073353392
 30
0.0
 11
-312.1651101012879
 21
370.9746926646606
 31
0.0
  0
INSERT
  5
2E0
330
103
100
AcDbEntity
  8
0
 62
     2
100
AcDbBlockReference
  2
_Open30
 10
-312.1651101012879
 20
-129.0253073353392
 30
0.0
 41
15.00001403807643
 42
14.99994684111822
 50
270.0
  0
INSERT
  5
2E1
330
103
100
AcDbEntity
  8
0
 62
     2
100
AcDbBlockReference
  2
_Open30
 10
-312.1651101012879
 20
370.9746926646606
 30
0.0
 41
15.00001403807643
 42
14.99994684111822
 50
90.0
  0
LINE
  5
2E2
330
103
100
AcDbEntity
  8
0
  6
Continuous
 62
     2
370
    13
100
AcDbLine
 10
-145.0421391239516
 20
-129.0253073353392
 30
0.0
 11
-317.1651101012879
 21
-129.0253073353392
 31
0.0
  0
LINE
  5
2E3
330
103
100
AcDbEntity
  8
0
  6
Continuous
 62
     2
370
    13
100
AcDbLine
 10
23.45779762512888
 20
370.9746926646606
 30
0.0
 11
-317.1651101012879
 21
370.9746926646606
 31
0.0
  0
TEXT
  5
2E4
330
103
100
AcDbEntity
  8
0
 62
     4
100
AcDbText
 10
-317.1651101012879
 20
45.97469266466069
 30
0.0
 40
20.0
  1
機高 H±25　※1
 50
90.0
 41
0.7252769178678531
  7
dcStyle0
 72
     5
 11
-317.1651101012879
 21
195.9746926646607
 31
0.0
100
AcDbText
  0
ENDBLK
  5
105
330
103
100
AcDbEntity
  8
0
100
AcDbBlockEnd
  0
BLOCK
  5
107
330
106
100
AcDbEntity
  8
0
100
AcDbBlockBegin
  2
DC_GROUP_W_MHR_LEG_010_26
 70
     0
 10
0.0
 20
0.0
 30
0.0
  3
DC_GROUP_W_MHR_LEG_010_26
  1

  0
INSERT
  5
2E5
330
106
100
AcDbEntity
  8
0
  6
Continuous
100
AcDbBlockReference
  2
DC_GROUP_W_MHR_LEG_010_27
 10
0.0
 20
0.0
 30
0.0
  0
ENDBLK
  5
108
330
106
100
AcDbEntity
  8
0
100
AcDbBlockEnd
  0
BLOCK
  5
10A
330
109
100
AcDbEntity
  8
0
100
AcDbBlockBegin
  2
DC_GROUP_W_MHR_LEG_010_27
 70
     0
 10
0.0
 20
0.0
 30
0.0
  3
DC_GROUP_W_MHR_LEG_010_27
  1

  0
INSERT
  5
2E6
330
109
100
AcDbEntity
  8
0
  6
Continuous
100
AcDbBlockReference
  2
DC_GROUP_W_MHR_LEG_010_28
 10
0.0
 20
0.0
 30
0.0
  0
INSERT
  5
2E7
330
109
100
AcDbEntity
  8
0
  6
Continuous
100
AcDbBlockReference
  2
DC_GROUP_W_MHR_LEG_010_37
 10
0.0
 20
0.0
 30
0.0
  0
INSERT
  5
2E8
330
109
100
AcDbEntity
  8
0
  6
Continuous
100
AcDbBlockReference
  2
DC_GROUP_W_MHR_LEG_010_40
 10
0.0
 20
0.0
 30
0.0
  0
ENDBLK
  5
10B
330
109
100
AcDbEntity
  8
0
100
AcDbBlockEnd
  0
BLOCK
  5
10D
330
10C
100
AcDbEntity
  8
0
100
AcDbBlockBegin
  2
DC_GROUP_W_MHR_LEG_010_28
 70
     0
 10
0.0
 20
0.0
 30
0.0
  3
DC_GROUP_W_MHR_LEG_010_28
  1

  0
INSERT
  5
2E9
330
10C
100
AcDbEntity
  8
0
  6
Continuous
100
AcDbBlockReference
  2
DC_GROUP_W_MHR_LEG_010_29
 10
0.0
 20
0.0
 30
0.0
  0
INSERT
  5
2EA
330
10C
100
AcDbEntity
  8
0
  6
Continuous
100
AcDbBlockReference
  2
DC_GROUP_W_MHR_LEG_010_33
 10
0.0
 20
0.0
 30
0.0
  0
INSERT
  5
2EB
330
10C
100
AcDbEntity
  8
0
  6
Continuous
100
AcDbBlockReference
  2
DC_GROUP_W_MHR_LEG_010_35
 10
0.0
 20
0.0
 30
0.0
  0
ENDBLK
  5
10E
330
10C
100
AcDbEntity
  8
0
100
AcDbBlockEnd
  0
BLOCK
  5
110
330
10F
100
AcDbEntity
  8
0
100
AcDbBlockBegin
  2
DC_GROUP_W_MHR_LEG_010_29
 70
     0
 10
0.0
 20
0.0
 30
0.0
  3
DC_GROUP_W_MHR_LEG_010_29
  1

  0
INSERT
  5
2EC
330
10F
100
AcDbEntity
  8
0
  6
Continuous
100
AcDbBlockReference
  2
DC_GROUP_W_MHR_LEG_010_30
 10
0.0
 20
0.0
 30
0.0
  0
INSERT
  5
2ED
330
10F
100
AcDbEntity
  8
0
  6
Continuous
100
AcDbBlockReference
  2
DC_GROUP_W_MHR_LEG_010_31
 10
0.0
 20
0.0
 30
0.0
  0
INSERT
  5
2EE
330
10F
100
AcDbEntity
  8
0
  6
Continuous
100
AcDbBlockReference
  2
DC_GROUP_W_MHR_LEG_010_32
 10
0.0
 20
0.0
 30
0.0
  0
ENDBLK
  5
111
330
10F
100
AcDbEntity
  8
0
100
AcDbBlockEnd
  0
BLOCK
  5
113
330
112
100
AcDbEntity
  8
0
100
AcDbBlockBegin
  2
DC_GROUP_W_MHR_LEG_010_30
 70
     0
 10
0.0
 20
0.0
 30
0.0
  3
DC_GROUP_W_MHR_LEG_010_30
  1

  0
LINE
  5
2EF
330
112
100
AcDbEntity
  8
0
  6
Continuous
 62
     7
370
    13
100
AcDbLine
 10
-801.8631353114167
 20
170.9740213293103
 30
0.0
 11
-806.7706125995287
 21
179.4740213293103
 31
0.0
  0
LINE
  5
2F0
330
112
100
AcDbEntity
  8
0
  6
Continuous
 62
     7
370
    13
100
AcDbLine
 10
-806.7706125995287
 20
179.4740213293103
 30
0.0
 11
-816.5855671757522
 21
179.4740213293103
 31
0.0
  0
LINE
  5
2F1
330
112
100
AcDbEntity
  8
0
  6
Continuous
 62
     7
370
    13
100
AcDbLine
 10
-816.5855671757522
 20
179.4740213293103
 30
0.0
 11
-821.493044463864
 21
170.9740213293103
 31
0.0
  0
LINE
  5
2F2
330
112
100
AcDbEntity
  8
0
  6
Continuous
 62
     7
370
    13
100
AcDbLine
 10
-821.493044463864
 20
170.9740213293103
 30
0.0
 11
-816.5855671757522
 21
162.4740213293103
 31
0.0
  0
LINE
  5
2F3
330
112
100
AcDbEntity
  8
0
  6
Continuous
 62
     7
370
    13
100
AcDbLine
 10
-816.5855671757522
 20
162.4740213293103
 30
0.0
 11
-806.7706125995287
 21
162.4740213293103
 31
0.0
  0
LINE
  5
2F4
330
112
100
AcDbEntity
  8
0
  6
Continuous
 62
     7
370
    13
100
AcDbLine
 10
-806.7706125995287
 20
162.4740213293103
 30
0.0
 11
-801.8631353114167
 21
170.9740213293103
 31
0.0
  0
CIRCLE
  5
2F5
330
112
100
AcDbEntity
  8
0
  6
Continuous
 62
     7
370
    13
100
AcDbCircle
 10
-811.6780898876405
 20
170.9740213293103
 30
0.0
 40
8.5
  0
CIRCLE
  5
2F6
330
112
100
AcDbEntity
  8
0
  6
Continuous
 62
     7
370
    13
100
AcDbCircle
 10
-811.6780898876405
 20
170.9740213293103
 30
0.0
 40
10.5
  0
LINE
  5
2F7
330
112
100
AcDbEntity
  8
0
  6
CENTERX2
 62
     3
370
    13
100
AcDbLine
 10
-811.6780898876405
 20
156.2740213293103
 30
0.0
 11
-811.6780898876405
 21
185.6740213293104
 31
0.0
  0
ENDBLK
  5
114
330
112
100
AcDbEntity
  8
0
100
AcDbBlockEnd
  0
BLOCK
  5
116
330
115
100
AcDbEntity
  8
0
100
AcDbBlockBegin
  2
DC_GROUP_W_MHR_LEG_010_31
 70
     0
 10
0.0
 20
0.0
 30
0.0
  3
DC_GROUP_W_MHR_LEG_010_31
  1

  0
LINE
  5
2F8
330
115
100
AcDbEntity
  8
0
  6
Continuous
 62
     7
370
    13
100
AcDbLine
 10
-801.8631353114167
 20
95.97402132931032
 30
0.0
 11
-806.7706125995287
 21
104.4740213293103
 31
0.0
  0
LINE
  5
2F9
330
115
100
AcDbEntity
  8
0
  6
Continuous
 62
     7
370
    13
100
AcDbLine
 10
-806.7706125995287
 20
104.4740213293103
 30
0.0
 11
-816.5855671757522
 21
104.4740213293103
 31
0.0
  0
LINE
  5
2FA
330
115
100
AcDbEntity
  8
0
  6
Continuous
 62
     7
370
    13
100
AcDbLine
 10
-816.5855671757522
 20
104.4740213293103
 30
0.0
 11
-821.4930444638642
 21
95.97402132931032
 31
0.0
  0
LINE
  5
2FB
330
115
100
AcDbEntity
  8
0
  6
Continuous
 62
     7
370
    13
100
AcDbLine
 10
-821.4930444638642
 20
95.97402132931032
 30
0.0
 11
-816.5855671757522
 21
87.47402132931032
 31
0.0
  0
LINE
  5
2FC
330
115
100
AcDbEntity
  8
0
  6
Continuous
 62
     7
370
    13
100
AcDbLine
 10
-816.5855671757522
 20
87.47402132931032
 30
0.0
 11
-806.7706125995287
 21
87.47402132931032
 31
0.0
  0
LINE
  5
2FD
330
115
100
AcDbEntity
  8
0
  6
Continuous
 62
     7
370
    13
100
AcDbLine
 10
-806.7706125995287
 20
87.47402132931032
 30
0.0
 11
-801.8631353114167
 21
95.97402132931032
 31
0.0
  0
CIRCLE
  5
2FE
330
115
100
AcDbEntity
  8
0
  6
Continuous
 62
     7
370
    13
100
AcDbCircle
 10
-811.6780898876405
 20
95.97402132931032
 30
0.0
 40
8.5
  0
CIRCLE
  5
2FF
330
115
100
AcDbEntity
  8
0
  6
Continuous
 62
     7
370
    13
100
AcDbCircle
 10
-811.6780898876405
 20
95.97402132931032
 30
0.0
 40
9.200000000000045
  0
LINE
  5
300
330
115
100
AcDbEntity
  8
0
  6
CENTERX2
 62
     3
370
    13
100
AcDbLine
 10
-811.6780898876405
 20
83.09402132931044
 30
0.0
 11
-811.6780898876405
 21
108.8540213293102
 31
0.0
  0
ENDBLK
  5
117
330
115
100
AcDbEntity
  8
0
100
AcDbBlockEnd
  0
BLOCK
  5
119
330
118
100
AcDbEntity
  8
0
100
AcDbBlockBegin
  2
DC_GROUP_W_MHR_LEG_010_32
 70
     0
 10
0.0
 20
0.0
 30
0.0
  3
DC_GROUP_W_MHR_LEG_010_32
  1

  0
LINE
  5
301
330
118
100
AcDbEntity
  8
0
  6
Continuous
 62
     7
370
    13
100
AcDbLine
 10
-911.6780898876405
 20
225.9740213293103
 30
0.0
 11
-818.3601647705636
 21
225.9740213293103
 31
0.0
  0
LINE
  5
302
330
118
100
AcDbEntity
  8
0
  6
Continuous
 62
     7
370
    13
100
AcDbLine
 10
-711.6780898876405
 20
225.9740213293103
 30
0.0
 11
-711.6780898876405
 21
161.5795726047743
 31
0.0
  0
LINE
  5
303
330
118
100
AcDbEntity
  8
0
  6
Continuous
 62
     7
370
    13
100
AcDbLine
 10
-911.6780898876405
 20
225.9740213293103
 30
0.0
 11
-911.6780898876405
 21
162.4878995179702
 31
0.0
  0
LINE
  5
304
330
118
100
AcDbEntity
  8
0
  6
Continuous
 62
     7
370
    13
100
AcDbLine
 10
-712.0139892989648
 20
160.4701722123239
 30
0.0
 11
-770.1937572083912
 21
73.20052034818426
 31
0.0
  0
LINE
  5
305
330
118
100
AcDbEntity
  8
0
  6
Continuous
 62
     7
370
    13
100
AcDbLine
 10
-910.8383413593297
 20
159.7143985368441
 30
0.0
 11
-853.1624225668897
 21
73.20052034818403
 31
0.0
  0
LINE
  5
306
330
118
100
AcDbEntity
  8
0
  6
Continuous
 62
     7
370
    13
100
AcDbLine
 10
-756.6780898876405
 20
213.4740213293103
 30
0.0
 11
-756.6780898876405
 21
153.4740213293103
 31
0.0
  0
LINE
  5
307
330
118
100
AcDbEntity
  8
0
  6
Continuous
 62
     7
370
    13
100
AcDbLine
 10
-741.6780898876405
 20
213.4740213293103
 30
0.0
 11
-741.6780898876405
 21
153.4740213293103
 31
0.0
  0
LINE
  5
308
330
118
100
AcDbEntity
  8
0
  6
Continuous
 62
     7
370
    13
100
AcDbLine
 10
-866.6780898876405
 20
213.4740213293103
 30
0.0
 11
-866.6780898876405
 21
153.4740213293103
 31
0.0
  0
LINE
  5
309
330
118
100
AcDbEntity
  8
0
  6
Continuous
 62
     7
370
    13
100
AcDbLine
 10
-881.6780898876405
 20
153.4740213293103
 30
0.0
 11
-881.6780898876405
 21
213.4740213293103
 31
0.0
  0
LINE
  5
30A
330
118
100
AcDbEntity
  8
0
  6
Continuous
 62
     7
370
    13
100
AcDbLine
 10
-805.0318834058908
 20
225.9740213293103
 30
0.0
 11
-711.6780898876405
 21
225.9740213293103
 31
0.0
  0
LINE
  5
30B
330
118
100
AcDbEntity
  8
0
  6
Continuous
 62
     7
370
    13
100
AcDbLine
 10
-774.3540086800804
 20
70.97402132931032
 30
0.0
 11
-849.0021710952005
 21
70.97402132931032
 31
0.0
  0
ARC
  5
30C
330
118
100
AcDbEntity
  8
0
  6
Continuous
 62
     7
370
    13
100
AcDbCircle
 10
-848.9449284072143
 20
161.0599856131403
 30
0.0
 40
5.50000000000012
100
AcDbArc
 50
119.7945343998387
 51
299.7945343998413
  0
ARC
  5
30D
330
118
100
AcDbEntity
  8
0
  6
Continuous
 62
     7
370
    13
100
AcDbCircle
 10
-774.4112513680666
 20
161.0599856131403
 30
0.0
 40
5.499999999999947
100
AcDbArc
 50
240.2054656001602
 51
60.20546560016078
  0
ARC
  5
30E
330
118
100
AcDbEntity
  8
0
  6
Continuous
 62
     7
370
    13
100
AcDbCircle
 10
-749.1780898876405
 20
213.4740213293103
 30
0.0
 40
7.5
100
AcDbArc
 50
0.0
 51
180.0
  0
ARC
  5
30F
330
118
100
AcDbEntity
  8
0
  6
Continuous
 62
     7
370
    13
100
AcDbCircle
 10
-749.1780898876405
 20
153.4740213293103
 30
0.0
 40
7.5
100
AcDbArc
 50
180.0
 51
0.0
  0
ARC
  5
310
330
118
100
AcDbEntity
  8
0
  6
Continuous
 62
     7
370
    13
100
AcDbCircle
 10
-874.1780898876405
 20
153.4740213293103
 30
0.0
 40
7.5
100
AcDbArc
 50
270.0
 51
0.0
  0
ARC
  5
311
330
118
100
AcDbEntity
  8
0
  6
Continuous
 62
     7
370
    13
100
AcDbCircle
 10
-874.1780898876405
 20
213.4740213293103
 30
0.0
 40
7.5
100
AcDbArc
 50
90.0
 51
180.0
  0
ARC
  5
312
330
118
100
AcDbEntity
  8
0
  6
Continuous
 62
     7
370
    13
100
AcDbCircle
 10
-874.1780898876405
 20
213.4740213293103
 30
0.0
 40
7.5
100
AcDbArc
 50
0.0
 51
90.0
  0
ARC
  5
313
330
118
100
AcDbEntity
  8
0
  6
Continuous
 62
     7
370
    13
100
AcDbCircle
 10
-874.1780898876405
 20
153.4740213293103
 30
0.0
 40
7.5
100
AcDbArc
 50
180.0
 51
270.0
  0
ARC
  5
314
330
118
100
AcDbEntity
  8
0
  6
Continuous
 62
     7
370
    13
100
AcDbCircle
 10
-811.6780898876405
 20
95.97402132931032
 30
0.0
 40
80.50000000000004
100
AcDbArc
 50
60.20546560015992
 51
70.75022518111173
  0
ARC
  5
315
330
118
100
AcDbEntity
  8
0
  6
Continuous
 62
     7
370
    13
100
AcDbCircle
 10
-811.6780898876405
 20
95.97402132931032
 30
0.0
 40
69.49999999999994
100
AcDbArc
 50
60.20546560015983
 51
70.75022518111167
  0
ARC
  5
316
330
118
100
AcDbEntity
  8
0
  6
Continuous
 62
     7
370
    13
100
AcDbCircle
 10
-811.6960240882274
 20
237.4102572733159
 30
0.0
 40
13.23624809381187
100
AcDbArc
 50
270.0776318417193
 51
300.2302752675723
  0
ARC
  5
317
330
118
100
AcDbEntity
  8
0
  6
Continuous
 62
     7
370
    13
100
AcDbCircle
 10
-811.6960240882274
 20
237.4102572733159
 30
0.0
 40
13.23624809381185
100
AcDbArc
 50
239.769724732429
 51
270.0776318417193
  0
ARC
  5
318
330
118
100
AcDbEntity
  8
0
  6
Continuous
 62
     7
370
    13
100
AcDbCircle
 10
-906.6780898876405
 20
162.4878995179702
 30
0.0
 40
5.0
100
AcDbArc
 50
180.0
 51
213.6900675259799
  0
ARC
  5
319
330
118
100
AcDbEntity
  8
0
  6
Continuous
 62
     7
370
    13
100
AcDbCircle
 10
-713.6780898876405
 20
161.5795726047743
 30
0.0
 40
2.0
100
AcDbArc
 50
326.3099324740203
 51
0.0
  0
ARC
  5
31A
330
118
100
AcDbEntity
  8
0
  6
Continuous
 62
     7
370
    13
100
AcDbCircle
 10
-849.0021710952005
 20
75.97402132931032
 30
0.0
 40
5.0
100
AcDbArc
 50
213.6900675259798
 51
270.0
  0
ARC
  5
31B
330
118
100
AcDbEntity
  8
0
  6
Continuous
 62
     7
370
    13
100
AcDbCircle
 10
-774.3540086800804
 20
75.97402132931032
 30
0.0
 40
5.0
100
AcDbArc
 50
270.0
 51
326.3099324740217
  0
ARC
  5
31C
330
118
100
AcDbEntity
  8
0
  6
Continuous
 62
     7
370
    13
100
AcDbCircle
 10
-811.6780898876405
 20
95.97402132931032
 30
0.0
 40
80.50000000000001
100
AcDbArc
 50
70.75022518111173
 51
83.40098490327385
  0
ARC
  5
31D
330
118
100
AcDbEntity
  8
0
  6
Continuous
 62
     7
370
    13
100
AcDbCircle
 10
-811.6780898876405
 20
95.97402132931032
 30
0.0
 40
80.50000000000001
100
AcDbArc
 50
96.59901509672615
 51
119.79453439984
  0
ARC
  5
31E
330
118
100
AcDbEntity
  8
0
  6
Continuous
 62
     7
370
    13
100
AcDbCircle
 10
-811.6780898876405
 20
95.97402132931032
 30
0.0
 40
69.4999999999999
100
AcDbArc
 50
97.10268754096889
 51
119.79453439984
  0
ARC
  5
31F
330
118
100
AcDbEntity
  8
0
  6
Continuous
 62
     7
370
    13
100
AcDbCircle
 10
-811.6780898876405
 20
95.97402132931032
 30
0.0
 40
69.4999999999999
100
AcDbArc
 50
70.75022518111167
 51
82.89731245903114
  0
LINE
  5
320
330
118
100
AcDbEntity
  8
0
  6
CENTERX2
 62
     3
370
    13
100
AcDbLine
 10
-874.1780898876405
 20
229.3367810104918
 30
0.0
 11
-874.1780898876405
 21
142.4627957535575
 31
0.0
  0
LINE
  5
321
330
118
100
AcDbEntity
  8
0
  6
CENTERX2
 62
     3
370
    13
100
AcDbLine
 10
-749.1780898876405
 20
229.3367810104918
 30
0.0
 11
-749.1780898876405
 21
142.4627957535575
 31
0.0
  0
LINE
  5
322
330
118
100
AcDbEntity
  8
0
  6
CENTERX2
 62
     3
370
    13
100
AcDbLine
 10
-821.9225556039578
 20
95.97402132931032
 30
0.0
 11
-800.4415149636923
 21
95.97402132931032
 31
0.0
  0
ARC
  5
323
330
118
100
AcDbEntity
  8
0
  6
CENTERX2
 62
     3
370
    13
100
AcDbCircle
 10
-811.6780898876405
 20
95.97402132931032
 30
0.0
 40
74.99999999999996
100
AcDbArc
 50
55.99999999999988
 51
124.0
  0
ENDBLK
  5
11A
330
118
100
AcDbEntity
  8
0
100
AcDbBlockEnd
  0
BLOCK
  5
11C
330
11B
100
AcDbEntity
  8
0
100
AcDbBlockBegin
  2
DC_GROUP_W_MHR_LEG_010_33
 70
     0
 10
0.0
 20
0.0
 30
0.0
  3
DC_GROUP_W_MHR_LEG_010_33
  1

  0
INSERT
  5
324
330
11B
100
AcDbEntity
  8
0
  6
Continuous
100
AcDbBlockReference
  2
DC_GROUP_W_MHR_LEG_010_34
 10
0.0
 20
0.0
 30
0.0
  0
ENDBLK
  5
11D
330
11B
100
AcDbEntity
  8
0
100
AcDbBlockEnd
  0
BLOCK
  5
11F
330
11E
100
AcDbEntity
  8
0
100
AcDbBlockBegin
  2
DC_GROUP_W_MHR_LEG_010_34
 70
     0
 10
0.0
 20
0.0
 30
0.0
  3
DC_GROUP_W_MHR_LEG_010_34
  1

  0
LINE
  5
325
330
11E
100
AcDbEntity
  8
0
  6
CENTERX2
 62
     3
370
    13
100
AcDbLine
 10
-761.6780898876405
 20
234.1578242428751
 30
0.0
 11
-761.6780898876405
 21
215.3402038842175
 31
0.0
  0
ENDBLK
  5
120
330
11E
100
AcDbEntity
  8
0
100
AcDbBlockEnd
  0
BLOCK
  5
122
330
121
100
AcDbEntity
  8
0
100
AcDbBlockBegin
  2
DC_GROUP_W_MHR_LEG_010_35
 70
     0
 10
0.0
 20
0.0
 30
0.0
  3
DC_GROUP_W_MHR_LEG_010_35
  1

  0
INSERT
  5
326
330
121
100
AcDbEntity
  8
0
  6
Continuous
100
AcDbBlockReference
  2
DC_GROUP_W_MHR_LEG_010_36
 10
0.0
 20
0.0
 30
0.0
  0
ENDBLK
  5
123
330
121
100
AcDbEntity
  8
0
100
AcDbBlockEnd
  0
BLOCK
  5
125
330
124
100
AcDbEntity
  8
0
100
AcDbBlockBegin
  2
DC_GROUP_W_MHR_LEG_010_36
 70
     0
 10
0.0
 20
0.0
 30
0.0
  3
DC_GROUP_W_MHR_LEG_010_36
  1

  0
LINE
  5
327
330
124
100
AcDbEntity
  8
0
  6
CENTERX2
 62
     3
370
    13
100
AcDbLine
 10
-861.6780898876405
 20
234.1578242428751
 30
0.0
 11
-861.6780898876405
 21
215.3402038842175
 31
0.0
  0
ENDBLK
  5
126
330
124
100
AcDbEntity
  8
0
100
AcDbBlockEnd
  0
BLOCK
  5
128
330
127
100
AcDbEntity
  8
0
100
AcDbBlockBegin
  2
DC_GROUP_W_MHR_LEG_010_37
 70
     0
 10
0.0
 20
0.0
 30
0.0
  3
DC_GROUP_W_MHR_LEG_010_37
  1

  0
INSERT
  5
328
330
127
100
AcDbEntity
  8
0
  6
Continuous
100
AcDbBlockReference
  2
DC_GROUP_W_MHR_LEG_010_38
 10
0.0
 20
0.0
 30
0.0
  0
INSERT
  5
329
330
127
100
AcDbEntity
  8
0
  6
Continuous
100
AcDbBlockReference
  2
DC_GROUP_W_MHR_LEG_010_39
 10
0.0
 20
0.0
 30
0.0
  0
ENDBLK
  5
129
330
127
100
AcDbEntity
  8
0
100
AcDbBlockEnd
  0
BLOCK
  5
12B
330
12A
100
AcDbEntity
  8
0
100
AcDbBlockBegin
  2
DC_GROUP_W_MHR_LEG_010_38
 70
     0
 10
0.0
 20
0.0
 30
0.0
  3
DC_GROUP_W_MHR_LEG_010_38
  1

  0
LINE
  5
32A
330
12A
100
AcDbEntity
  8
0
  6
DASHED2
 62
     4
370
    13
100
AcDbLine
 10
-849.1780898876405
 20
-50.82530733533935
 30
0.0
 11
-849.1780898876405
 21
-12.22530733533908
 31
0.0
  0
LINE
  5
32B
330
12A
100
AcDbEntity
  8
0
  6
DASHED2
 62
     4
370
    13
100
AcDbLine
 10
-774.1780898876405
 20
-51.72530733533935
 30
0.0
 11
-774.1780898876405
 21
-11.32530733533908
 31
0.0
  0
ENDBLK
  5
12C
330
12A
100
AcDbEntity
  8
0
100
AcDbBlockEnd
  0
BLOCK
  5
12E
330
12D
100
AcDbEntity
  8
0
100
AcDbBlockBegin
  2
DC_GROUP_W_MHR_LEG_010_39
 70
     0
 10
0.0
 20
0.0
 30
0.0
  3
DC_GROUP_W_MHR_LEG_010_39
  1

  0
LINE
  5
32C
330
12D
100
AcDbEntity
  8
0
  6
CENTERX2
 62
     3
370
    13
100
AcDbLine
 10
-811.6780898876405
 20
90.72402132931032
 30
0.0
 11
-811.6780898876405
 21
68.67402132931082
 31
0.0
  0
LINE
  5
32D
330
12D
100
AcDbEntity
  8
0
  6
CENTERX2
 62
     3
370
    13
100
AcDbLine
 10
-811.6780898876405
 20
190.7240213293102
 30
0.0
 11
-811.6780898876405
 21
176.2240213293105
 31
0.0
  0
LINE
  5
32E
330
12D
100
AcDbEntity
  8
0
  6
CENTERX2
 62
     3
370
    13
100
AcDbLine
 10
-811.6780898876405
 20
165.7240213293105
 30
0.0
 11
-811.6780898876405
 21
101.2240213293103
 31
0.0
  0
LINE
  5
32F
330
12D
100
AcDbEntity
  8
0
  6
CENTERX2
 62
     3
370
    13
100
AcDbLine
 10
-811.6780898876405
 20
-61.32530733533926
 30
0.0
 11
-811.6780898876405
 21
-45.02530733533885
 31
0.0
  0
LINE
  5
330
330
12D
100
AcDbEntity
  8
0
  6
CENTERX2
 62
     3
370
    13
100
AcDbLine
 10
-811.6780898876405
 20
-45.02530733533885
 30
0.0
 11
-811.6780898876405
 21
-54.02530733533953
 31
0.0
  0
LINE
  5
331
330
12D
100
AcDbEntity
  8
0
  6
CENTERX2
 62
     3
370
    13
100
AcDbLine
 10
-811.6780898876405
 20
-54.02530733533953
 30
0.0
 11
-811.6780898876405
 21
-64.02530733535158
 31
0.0
  0
LINE
  5
332
330
12D
100
AcDbEntity
  8
0
  6
CENTERX2
 62
     3
370
    13
100
AcDbLine
 10
-811.6780898876405
 20
220.9740213293105
 30
0.0
 11
-811.6780898876405
 21
210.9740213293103
 31
0.0
  0
LINE
  5
333
330
12D
100
AcDbEntity
  8
0
  6
CENTERX2
 62
     3
370
    13
100
AcDbLine
 10
-811.6780898876405
 20
-143.9068118333465
 30
0.0
 11
-811.6780898876405
 21
31.29521770755967
 31
0.0
  0
LINE
  5
334
330
12D
100
AcDbEntity
  8
0
  6
CENTERX2
 62
     3
370
    13
100
AcDbLine
 10
-811.6780898876405
 20
66.29521770755967
 30
0.0
 11
-811.6780898876405
 21
239.773734818232
 31
0.0
  0
LINE
  5
335
330
12D
100
AcDbEntity
  8
0
  6
Continuous
 62
     7
370
    13
100
AcDbLine
 10
-849.1780898876405
 20
70.97402132931032
 30
0.0
 11
-849.1780898876405
 21
-54.02530733533885
 31
0.0
  0
LINE
  5
336
330
12D
100
AcDbEntity
  8
0
  6
Continuous
 62
     7
370
    13
100
AcDbLine
 10
-774.1780898876405
 20
70.97402132931032
 30
0.0
 11
-774.1780898876405
 21
-4.025307335338852
 31
0.0
  0
LINE
  5
337
330
12D
100
AcDbEntity
  8
0
  6
Continuous
 62
     7
370
    13
100
AcDbLine
 10
-774.1780898876405
 20
-4.025307335338852
 30
0.0
 11
-774.1780898876405
 21
-54.02530733533885
 31
0.0
  0
LINE
  5
338
330
12D
100
AcDbEntity
  8
0
  6
Continuous
 62
     7
370
    13
100
AcDbLine
 10
-849.1780898876405
 20
-54.02530733533885
 30
0.0
 11
-774.1780898876405
 21
-54.02530733533885
 31
0.0
  0
ENDBLK
  5
12F
330
12D
100
AcDbEntity
  8
0
100
AcDbBlockEnd
  0
BLOCK
  5
131
330
130
100
AcDbEntity
  8
0
100
AcDbBlockBegin
  2
DC_GROUP_W_MHR_LEG_010_40
 70
     0
 10
0.0
 20
0.0
 30
0.0
  3
DC_GROUP_W_MHR_LEG_010_40
  1

  0
LINE
  5
339
330
130
100
AcDbEntity
  8
0
  6
Continuous
 62
     7
370
    13
100
AcDbLine
 10
-803.6780898876405
 20
-64.02530733533953
 30
0.0
 11
-803.6780898876405
 21
-91.02530733533908
 31
0.0
  0
LINE
  5
33A
330
130
100
AcDbEntity
  8
0
  6
Continuous
 62
     7
370
    13
100
AcDbLine
 10
-822.070394733054
 20
-64.02530733533953
 30
0.0
 11
-801.2857850422274
 21
-64.02530733533953
 31
0.0
  0
LINE
  5
33B
330
130
100
AcDbEntity
  8
0
  6
Continuous
 62
     7
370
    13
100
AcDbLine
 10
-893.6780898876405
 20
-129.0253073353393
 30
0.0
 11
-781.1780898876409
 21
-129.0253073353393
 31
0.0
  0
LINE
  5
33C
330
130
100
AcDbEntity
  8
0
  6
Continuous
 62
     7
370
    13
100
AcDbLine
 10
-781.1780898876409
 20
-125.8253073353393
 30
0.0
 11
-893.6780898876405
 21
-125.8253073353393
 31
0.0
  0
LINE
  5
33D
330
130
100
AcDbEntity
  8
0
  6
Continuous
 62
     7
370
    13
100
AcDbLine
 10
-893.6780898876405
 20
-129.0253073353393
 30
0.0
 11
-893.6780898876405
 21
-125.8253073353393
 31
0.0
  0
LINE
  5
33E
330
130
100
AcDbEntity
  8
0
  6
Continuous
 62
     7
370
    13
100
AcDbLine
 10
-893.6780898876405
 20
-129.0253073353393
 30
0.0
 11
-893.6780898876405
 21
-125.8253073353393
 31
0.0
  0
LINE
  5
33F
330
130
100
AcDbEntity
  8
0
  6
Continuous
 62
     7
370
    13
100
AcDbLine
 10
-804.7498866573656
 20
-63.14428214784479
 30
0.0
 11
-804.7498866573656
 21
-54.90633252283405
 31
0.0
  0
LINE
  5
340
330
130
100
AcDbEntity
  8
0
  6
Continuous
 62
     7
370
    13
100
AcDbLine
 10
-797.8216834270895
 20
-63.14428214784479
 30
0.0
 11
-797.8216834270895
 21
-54.90633252283405
 31
0.0
  0
LINE
  5
341
330
130
100
AcDbEntity
  8
0
  6
Continuous
 62
     7
370
    13
100
AcDbLine
 10
-803.6780898876405
 20
-101.0253073353391
 30
0.0
 11
-803.6780898876405
 21
-103.0253073353393
 31
0.0
  0
LINE
  5
342
330
130
100
AcDbEntity
  8
0
  6
Continuous
 62
     7
370
    13
100
AcDbLine
 10
-804.7498866573656
 20
-100.1442821478443
 30
0.0
 11
-804.7498866573656
 21
-91.02530733533908
 31
0.0
  0
LINE
  5
343
330
130
100
AcDbEntity
  8
0
  6
Continuous
 62
     7
370
    13
100
AcDbLine
 10
-797.8216834270895
 20
-100.1442821478443
 30
0.0
 11
-797.8216834270895
 21
-91.02530733533908
 31
0.0
  0
LINE
  5
344
330
130
100
AcDbEntity
  8
0
  6
Continuous
 62
     7
370
    13
100
AcDbLine
 10
-804.7498866573646
 20
-112.1442821478443
 30
0.0
 11
-804.7498866573646
 21
-103.906332522834
 31
0.0
  0
LINE
  5
345
330
130
100
AcDbEntity
  8
0
  6
Continuous
 62
     7
370
    13
100
AcDbLine
 10
-797.8216834270895
 20
-112.1442821478443
 30
0.0
 11
-797.8216834270895
 21
-103.906332522834
 31
0.0
  0
LINE
  5
346
330
130
100
AcDbEntity
  8
0
  6
Continuous
 62
     7
370
    13
100
AcDbLine
 10
-781.1780898876409
 20
-129.0253073353393
 30
0.0
 11
-781.1780898876409
 21
-125.8253073353393
 31
0.0
  0
LINE
  5
347
330
130
100
AcDbEntity
  8
0
  6
Continuous
 62
     7
370
    13
100
AcDbLine
 10
-788.2742542535125
 20
-124.9600009198849
 30
0.0
 11
-794.9467928114236
 21
-115.2751040155207
 31
0.0
  0
LINE
  5
348
330
130
100
AcDbEntity
  8
0
  6
Continuous
 62
     7
370
    13
100
AcDbLine
 10
-799.2288834657345
 20
-113.0253073353393
 30
0.0
 11
-824.1272963095475
 21
-113.0253073353393
 31
0.0
  0
LINE
  5
349
330
130
100
AcDbEntity
  8
0
  6
Continuous
 62
     7
370
    13
100
AcDbLine
 10
-828.4093869638575
 20
-115.2751040155207
 30
0.0
 11
-835.0819255217684
 21
-124.9600009198849
 31
0.0
  0
LINE
  5
34A
330
130
100
AcDbEntity
  8
0
  6
Continuous
 62
     7
370
    13
100
AcDbLine
 10
-825.5344963481916
 20
-103.906332522834
 30
0.0
 11
-825.5344963481916
 21
-112.1442821478443
 31
0.0
  0
LINE
  5
34B
330
130
100
AcDbEntity
  8
0
  6
Continuous
 62
     7
370
    13
100
AcDbLine
 10
-818.6062931179163
 20
-103.9063325228343
 30
0.0
 11
-818.6062931179165
 21
-112.1442821478443
 31
0.0
  0
LINE
  5
34C
330
130
100
AcDbEntity
  8
0
  6
Continuous
 62
     7
370
    13
100
AcDbLine
 10
-825.5344963481916
 20
-91.02530733533908
 30
0.0
 11
-825.5344963481916
 21
-100.1442821478443
 31
0.0
  0
LINE
  5
34D
330
130
100
AcDbEntity
  8
0
  6
Continuous
 62
     7
370
    13
100
AcDbLine
 10
-818.6062931179163
 20
-91.02530733533908
 30
0.0
 11
-818.6062931179163
 21
-100.1442821478443
 31
0.0
  0
LINE
  5
34E
330
130
100
AcDbEntity
  8
0
  6
Continuous
 62
     7
370
    13
100
AcDbLine
 10
-819.6780898876405
 20
-103.0253073353393
 30
0.0
 11
-819.6780898876405
 21
-101.0253073353391
 31
0.0
  0
LINE
  5
34F
330
130
100
AcDbEntity
  8
0
  6
Continuous
 62
     7
370
    13
100
AcDbLine
 10
-819.6780898876405
 20
-91.02530733533908
 30
0.0
 11
-819.6780898876405
 21
-64.02530733533953
 31
0.0
  0
LINE
  5
350
330
130
100
AcDbEntity
  8
0
  6
Continuous
 62
     7
370
    13
100
AcDbLine
 10
-825.5344963481916
 20
-54.90633252283405
 30
0.0
 11
-825.5344963481916
 21
-63.14428214784479
 31
0.0
  0
LINE
  5
351
330
130
100
AcDbEntity
  8
0
  6
Continuous
 62
     7
370
    13
100
AcDbLine
 10
-818.6062931179163
 20
-54.90633252283519
 30
0.0
 11
-818.6062931179163
 21
-63.14428214784434
 31
0.0
  0
LINE
  5
352
330
130
100
AcDbEntity
  8
0
  6
Continuous
 62
     7
370
    13
100
AcDbLine
 10
-801.285785042227
 20
-103.0253073353393
 30
0.0
 11
-822.0703947330535
 21
-103.0253073353393
 31
0.0
  0
LINE
  5
353
330
130
100
AcDbEntity
  8
0
  6
Continuous
 62
     7
370
    13
100
AcDbLine
 10
-801.2857850422274
 20
-101.0253073353391
 30
0.0
 11
-822.0703947330544
 21
-101.0253073353391
 31
0.0
  0
LINE
  5
354
330
130
100
AcDbEntity
  8
0
  6
Continuous
 62
     7
370
    13
100
AcDbLine
 10
-797.8216834270895
 20
-91.02530733533908
 30
0.0
 11
-825.5344963481916
 21
-91.02530733533908
 31
0.0
  0
LINE
  5
355
330
130
100
AcDbEntity
  8
0
  6
Continuous
 62
     7
370
    13
100
AcDbLine
 10
-801.2857850422274
 20
-54.02530733533908
 30
0.0
 11
-822.070394733054
 21
-54.02530733533908
 31
0.0
  0
ARC
  5
356
330
130
100
AcDbEntity
  8
0
  6
Continuous
 62
     7
370
    13
100
AcDbCircle
 10
-811.6780898876405
 20
-81.7068118333469
 30
0.0
 40
27.68150449800771
100
AcDbArc
 50
75.5057551579082
 51
90.0
  0
ARC
  5
357
330
130
100
AcDbEntity
  8
0
  6
Continuous
 62
     7
370
    13
100
AcDbCircle
 10
-801.2857850422272
 20
-61.27606790515242
 30
0.0
 40
7.2507605698135
100
AcDbArc
 50
61.46098968474265
 51
118.5390103152621
  0
ARC
  5
358
330
130
100
AcDbEntity
  8
0
  6
Continuous
 62
     7
370
    13
100
AcDbCircle
 10
-811.6780898876405
 20
-36.34380283733194
 30
0.0
 40
27.68150449800754
100
AcDbArc
 50
270.0
 51
284.4942448420919
  0
ARC
  5
359
330
130
100
AcDbEntity
  8
0
  6
Continuous
 62
     7
370
    13
100
AcDbCircle
 10
-801.2857850422274
 20
-56.77454676552711
 30
0.0
 40
7.250760569812658
100
AcDbArc
 50
241.4609896847366
 51
298.5390103152614
  0
ARC
  5
35A
330
130
100
AcDbEntity
  8
0
  6
Continuous
 62
     7
370
    13
100
AcDbCircle
 10
-811.6780898876405
 20
-73.34380283733171
 30
0.0
 40
27.68150449800743
100
AcDbArc
 50
270.0
 51
284.494244842092
  0
ARC
  5
35B
330
130
100
AcDbEntity
  8
0
  6
Continuous
 62
     7
370
    13
100
AcDbCircle
 10
-801.2857850422274
 20
-93.7745467655262
 30
0.0
 40
7.250760569812988
100
AcDbArc
 50
241.4609896847378
 51
298.53901031526
  0
ARC
  5
35C
330
130
100
AcDbEntity
  8
0
  6
Continuous
 62
     7
370
    13
100
AcDbCircle
 10
-801.2857850422274
 20
-110.276067905152
 30
0.0
 40
7.250760569812575
100
AcDbArc
 50
61.46098968474006
 51
118.5390103152553
  0
ARC
  5
35D
330
130
100
AcDbEntity
  8
0
  6
Continuous
 62
     7
370
    13
100
AcDbCircle
 10
-811.6780898876405
 20
-130.7068118333467
 30
0.0
 40
27.6815044980074
100
AcDbArc
 50
75.505755157906
 51
90.0
  0
ARC
  5
35E
330
130
100
AcDbEntity
  8
0
  6
Continuous
 62
     7
370
    13
100
AcDbCircle
 10
-811.6780898876405
 20
-85.34380283733171
 30
0.0
 40
27.68150449800768
100
AcDbArc
 50
270.0
 51
284.494244842094
  0
ARC
  5
35F
330
130
100
AcDbEntity
  8
0
  6
Continuous
 62
     7
370
    13
100
AcDbCircle
 10
-801.2857850422274
 20
-105.7745467655264
 30
0.0
 40
7.250760569812914
100
AcDbArc
 50
241.4609896847444
 51
298.5390103152602
  0
ARC
  5
360
330
130
100
AcDbEntity
  8
0
  6
Continuous
 62
     7
370
    13
100
AcDbCircle
 10
-799.2288834657345
 20
-118.2253073353391
 30
0.0
 40
5.199999999999989
100
AcDbArc
 50
34.56541597133671
 51
90.0
  0
ARC
  5
361
330
130
100
AcDbEntity
  8
0
  6
Continuous
 62
     7
370
    13
100
AcDbCircle
 10
-786.6272963095475
 20
-123.8253073353393
 30
0.0
 40
2.0
100
AcDbArc
 50
214.5654159713501
 51
270.0
  0
ARC
  5
362
330
130
100
AcDbEntity
  8
0
  6
Continuous
 62
     7
370
    13
100
AcDbCircle
 10
-836.7288834657345
 20
-123.8253073353393
 30
0.0
 40
2.000000000000498
100
AcDbArc
 50
270.0
 51
325.4345840286696
  0
ARC
  5
363
330
130
100
AcDbEntity
  8
0
  6
Continuous
 62
     7
370
    13
100
AcDbCircle
 10
-824.1272963095475
 20
-118.2253073353391
 30
0.0
 40
5.199999999999685
100
AcDbArc
 50
90.0
 51
145.4345840286569
  0
ARC
  5
364
330
130
100
AcDbEntity
  8
0
  6
Continuous
 62
     7
370
    13
100
AcDbCircle
 10
-822.0703947330535
 20
-105.7745467655262
 30
0.0
 40
7.25076056981266
100
AcDbArc
 50
241.4609896847394
 51
298.5390103152532
  0
ARC
  5
365
330
130
100
AcDbEntity
  8
0
  6
Continuous
 62
     7
370
    13
100
AcDbCircle
 10
-811.6780898876405
 20
-85.34380283733171
 30
0.0
 40
27.6815044980076
100
AcDbArc
 50
255.5057551579059
 51
270.0
  0
ARC
  5
366
330
130
100
AcDbEntity
  8
0
  6
Continuous
 62
     7
370
    13
100
AcDbCircle
 10
-811.6780898876405
 20
-130.7068118333467
 30
0.0
 40
27.68150449800745
100
AcDbArc
 50
90.0
 51
104.4942448420938
  0
ARC
  5
367
330
130
100
AcDbEntity
  8
0
  6
Continuous
 62
     7
370
    13
100
AcDbCircle
 10
-822.0703947330535
 20
-110.2760679051524
 30
0.0
 40
7.250760569813339
100
AcDbArc
 50
61.46098968474531
 51
118.5390103152602
  0
ARC
  5
368
330
130
100
AcDbEntity
  8
0
  6
Continuous
 62
     7
370
    13
100
AcDbCircle
 10
-822.0703947330544
 20
-93.77454676552597
 30
0.0
 40
7.25076056981329
100
AcDbArc
 50
241.4609896847462
 51
298.5390103152604
  0
ARC
  5
369
330
130
100
AcDbEntity
  8
0
  6
Continuous
 62
     7
370
    13
100
AcDbCircle
 10
-811.6780898876405
 20
-73.34380283733171
 30
0.0
 40
27.68150449800748
100
AcDbArc
 50
255.5057551579063
 51
270.0
  0
ARC
  5
36A
330
130
100
AcDbEntity
  8
0
  6
Continuous
 62
     7
370
    13
100
AcDbCircle
 10
-822.070394733054
 20
-56.77454676552711
 30
0.0
 40
7.250760569812313
100
AcDbArc
 50
241.4609896847408
 51
298.5390103152611
  0
ARC
  5
36B
330
130
100
AcDbEntity
  8
0
  6
Continuous
 62
     7
370
    13
100
AcDbCircle
 10
-811.6780898876405
 20
-36.34380283733194
 30
0.0
 40
27.68150449800763
100
AcDbArc
 50
255.5057551579062
 51
270.0
  0
ARC
  5
36C
330
130
100
AcDbEntity
  8
0
  6
Continuous
 62
     7
370
    13
100
AcDbCircle
 10
-822.070394733054
 20
-61.27606790515242
 30
0.0
 40
7.25076056981312
100
AcDbArc
 50
61.46098968473851
 51
118.5390103152566
  0
ARC
  5
36D
330
130
100
AcDbEntity
  8
0
  6
Continuous
 62
     7
370
    13
100
AcDbCircle
 10
-811.6780898876405
 20
-81.7068118333469
 30
0.0
 40
27.68150449800689
100
AcDbArc
 50
90.0
 51
104.4942448420941
  0
LINE
  5
36E
330
130
100
AcDbEntity
  8
0
  6
Continuous
 62
     3
370
    13
100
AcDbLine
 10
-818.1780898876405
 20
-64.02530733533953
 30
0.0
 11
-818.1780898876405
 21
-91.02530733533999
 31
0.0
  0
LINE
  5
36F
330
130
100
AcDbEntity
  8
0
  6
Continuous
 62
     3
370
    13
100
AcDbLine
 10
-805.1780898876405
 20
-91.02530733533999
 30
0.0
 11
-805.1780898876405
 21
-64.02530733533953
 31
0.0
  0
LINE
  5
370
330
130
100
AcDbEntity
  8
0
  6
Continuous
 62
     3
370
    13
100
AcDbLine
 10
-805.1780898876405
 20
-103.0253073353393
 30
0.0
 11
-805.1780898876405
 21
-101.0253073353391
 31
0.0
  0
LINE
  5
371
330
130
100
AcDbEntity
  8
0
  6
Continuous
 62
     3
370
    13
100
AcDbLine
 10
-818.1780898876405
 20
-101.0253073353391
 30
0.0
 11
-818.1780898876405
 21
-103.0253073353393
 31
0.0
  0
LINE
  5
372
330
130
100
AcDbEntity
  8
0
  6
CENTERX2
 62
     3
370
    13
100
AcDbLine
 10
-874.6780898876405
 20
-122.2377202835631
 30
0.0
 11
-874.6780898876405
 21
-132.418820872802
 31
0.0
  0
ENDBLK
  5
132
330
130
100
AcDbEntity
  8
0
100
AcDbBlockEnd
  0
BLOCK
  5
134
330
133
100
AcDbEntity
  8
0
100
AcDbBlockBegin
  2
*D43
 70
     1
 10
0.0
 20
0.0
 30
0.0
  3
*D43
  1

  0
LINE
  5
373
330
133
100
AcDbEntity
  8
0
  6
Continuous
 62
     2
370
    13
100
AcDbLine
 10
-267.417673412174
 20
-129.0253073353392
 30
0.0
 11
-267.417673412174
 21
-54.02530733533952
 31
0.0
  0
INSERT
  5
374
330
133
100
AcDbEntity
  8
0
 62
     2
100
AcDbBlockReference
  2
_Open30
 10
-267.417673412174
 20
-129.0253073353392
 30
0.0
 41
15.00001403807643
 42
14.99994684111822
 50
270.0
  0
INSERT
  5
375
330
133
100
AcDbEntity
  8
0
 62
     2
100
AcDbBlockReference
  2
_Open30
 10
-267.417673412174
 20
-54.02530733533952
 30
0.0
 41
15.00001403807643
 42
14.99994684111822
 50
90.0
  0
LINE
  5
376
330
133
100
AcDbEntity
  8
0
  6
Continuous
 62
     2
370
    13
100
AcDbLine
 10
-145.0421391239516
 20
-129.0253073353392
 30
0.0
 11
-272.417673412174
 21
-129.0253073353392
 31
0.0
  0
LINE
  5
377
330
133
100
AcDbEntity
  8
0
  6
Continuous
 62
     2
370
    13
100
AcDbLine
 10
-85.04213912395181
 20
-54.02530733533953
 30
0.0
 11
-272.417673412174
 21
-54.02530733533952
 31
0.0
  0
TEXT
  5
378
330
133
100
AcDbEntity
  8
0
 62
     2
100
AcDbText
 10
-272.417673412174
 20
-101.5253073353393
 30
0.0
 40
20.0
  1
75
 50
90.0
 41
0.6874999999999999
  7
dcStyle0
 72
     5
 11
-272.417673412174
 21
-81.52530733533935
 31
0.0
100
AcDbText
  0
ENDBLK
  5
135
330
133
100
AcDbEntity
  8
0
100
AcDbBlockEnd
  0
BLOCK
  5
137
330
136
100
AcDbEntity
  8
0
100
AcDbBlockBegin
  2
*D44
 70
     1
 10
0.0
 20
0.0
 30
0.0
  3
*D44
  1

  0
LINE
  5
379
330
136
100
AcDbEntity
  8
0
  6
Continuous
 62
     2
370
    13
100
AcDbLine
 10
-267.417673412174
 20
-54.02530733533952
 30
0.0
 11
-267.417673412174
 21
225.9740213293103
 31
0.0
  0
INSERT
  5
37A
330
136
100
AcDbEntity
  8
0
 62
     2
100
AcDbBlockReference
  2
_Open30
 10
-267.417673412174
 20
-54.02530733533952
 30
0.0
 41
15.00001403807643
 42
14.99994684111822
 50
270.0
  0
INSERT
  5
37B
330
136
100
AcDbEntity
  8
0
 62
     2
100
AcDbBlockReference
  2
_Open30
 10
-267.417673412174
 20
225.9740213293103
 30
0.0
 41
15.00001403807643
 42
14.99994684111822
 50
90.0
  0
LINE
  5
37C
330
136
100
AcDbEntity
  8
0
  6
Continuous
 62
     2
370
    13
100
AcDbLine
 10
-85.04213912395181
 20
-54.02530733533953
 30
0.0
 11
-272.417673412174
 21
-54.02530733533952
 31
0.0
  0
LINE
  5
37D
330
136
100
AcDbEntity
  8
0
  6
Continuous
 62
     2
370
    13
100
AcDbLine
 10
-95.04213912395159
 20
225.9740213293103
 30
0.0
 11
-272.417673412174
 21
225.9740213293103
 31
0.0
  0
TEXT
  5
37E
330
136
100
AcDbEntity
  8
0
 62
     4
100
AcDbText
 10
-272.417673412174
 20
45.97435699698541
 30
0.0
 40
20.0
  1
H1=H-220
 50
90.0
 41
0.6424325192802056
  7
dcStyle0
 72
     5
 11
-272.417673412174
 21
125.9743569969854
 31
0.0
100
AcDbText
  0
ENDBLK
  5
138
330
136
100
AcDbEntity
  8
0
100
AcDbBlockEnd
  0
BLOCK
  5
13A
330
139
100
AcDbEntity
  8
0
100
AcDbBlockBegin
  2
*D45
 70
     1
 10
0.0
 20
0.0
 30
0.0
  3
*D45
  1

  0
LINE
  5
37F
330
139
100
AcDbEntity
  8
0
  6
Continuous
 62
     2
370
    13
100
AcDbLine
 10
-267.417673412174
 20
225.9740213293103
 30
0.0
 11
-267.417673412174
 21
370.9746926646606
 31
0.0
  0
INSERT
  5
380
330
139
100
AcDbEntity
  8
0
 62
     2
100
AcDbBlockReference
  2
_Open30
 10
-267.417673412174
 20
225.9740213293103
 30
0.0
 41
15.00001403807643
 42
14.99994684111822
 50
270.0
  0
INSERT
  5
381
330
139
100
AcDbEntity
  8
0
 62
     2
100
AcDbBlockReference
  2
_Open30
 10
-267.417673412174
 20
370.9746926646606
 30
0.0
 41
15.00001403807643
 42
14.99994684111822
 50
90.0
  0
LINE
  5
382
330
139
100
AcDbEntity
  8
0
  6
Continuous
 62
     2
370
    13
100
AcDbLine
 10
-95.04213912395159
 20
225.9740213293103
 30
0.0
 11
-272.417673412174
 21
225.9740213293103
 31
0.0
  0
LINE
  5
383
330
139
100
AcDbEntity
  8
0
  6
Continuous
 62
     2
370
    13
100
AcDbLine
 10
23.45779762512888
 20
370.9746926646606
 30
0.0
 11
-272.417673412174
 21
370.9746926646606
 31
0.0
  0
TEXT
  5
384
330
139
100
AcDbEntity
  8
0
 62
     2
100
AcDbText
 10
-272.417673412174
 20
283.4743569969854
 30
0.0
 40
20.0
  1
145
 50
90.0
 41
0.6874999999999999
  7
dcStyle0
 72
     5
 11
-272.417673412174
 21
313.4743569969854
 31
0.0
100
AcDbText
  0
ENDBLK
  5
13B
330
139
100
AcDbEntity
  8
0
100
AcDbBlockEnd
  0
BLOCK
  5
13D
330
13C
100
AcDbEntity
  8
0
100
AcDbBlockBegin
  2
DC_GROUP_W_MHR_LEG_010_41
 70
     0
 10
0.0
 20
0.0
 30
0.0
  3
DC_GROUP_W_MHR_LEG_010_41
  1

  0
TEXT
  5
385
330
13C
100
AcDbEntity
  8
0
 62
     2
100
AcDbText
 10
582.7818469322065
 20
-468.8370786516853
 30
0.0
 40
20.0
  1
※1 機高設定はmin 350～max 500まで
 41
0.7159430822379506
  7
dcStyle0
 72
     5
 11
922.7818469322065
 21
-468.8370786516853
 31
0.0
100
AcDbText
  0
ENDBLK
  5
13E
330
13C
100
AcDbEntity
  8
0
100
AcDbBlockEnd
  0
BLOCK
  5
140
330
13F
100
AcDbEntity
  8
0
100
AcDbBlockBegin
  2
*D47
 70
     1
 10
0.0
 20
0.0
 30
0.0
  3
*D47
  1

  0
LINE
  5
386
330
13F
100
AcDbEntity
  8
0
  6
Continuous
 62
     2
370
    13
100
AcDbLine
 10
-80.04213912395159
 20
469.9999133672079
 30
0.0
 11
859.9578608760479
 21
469.9999133672079
 31
0.0
  0
INSERT
  5
387
330
13F
100
AcDbEntity
  8
0
 62
     2
100
AcDbBlockReference
  2
_Open30
 10
-80.04213912395159
 20
469.9999133672079
 30
0.0
 41
15.00001403807643
 42
14.99994684111822
 50
180.0
  0
INSERT
  5
388
330
13F
100
AcDbEntity
  8
0
 62
     2
100
AcDbBlockReference
  2
_Open30
 10
859.9578608760479
 20
469.9999133672079
 30
0.0
 41
15.00001403807643
 42
14.99994684111822
 50
360.0
  0
LINE
  5
389
330
13F
100
AcDbEntity
  8
0
  6
Continuous
 62
     2
370
    13
100
AcDbLine
 10
-80.04213912395159
 20
215.9740213293104
 30
0.0
 11
-80.04213912395159
 21
474.9999133672079
 31
0.0
  0
LINE
  5
38A
330
13F
100
AcDbEntity
  8
0
  6
Continuous
 62
     2
370
    13
100
AcDbLine
 10
859.9578608760478
 20
215.9740213293104
 30
0.0
 11
859.9578608760478
 21
474.9999133672079
 31
0.0
  0
TEXT
  5
38B
330
13F
100
AcDbEntity
  8
0
 62
     4
100
AcDbText
 10
339.9578608760481
 20
474.9999133672079
 30
0.0
 40
20.0
  1
W1=機幅-20
 41
0.6557498032012595
  7
dcStyle0
 72
     5
 11
439.9578608760481
 21
474.9999133672079
 31
0.0
100
AcDbText
  0
ENDBLK
  5
141
330
13F
100
AcDbEntity
  8
0
100
AcDbBlockEnd
  0
BLOCK
  5
143
330
142
100
AcDbEntity
  8
0
100
AcDbBlockBegin
  2
*D48
 70
     1
 10
0.0
 20
0.0
 30
0.0
  3
*D48
  1

  0
LINE
  5
38C
330
142
100
AcDbEntity
  8
0
  6
Continuous
 62
     2
370
    13
100
AcDbLine
 10
-35.04213912395159
 20
432.8630824417058
 30
0.0
 11
814.9578608760479
 21
432.8630824417058
 31
0.0
  0
INSERT
  5
38D
330
142
100
AcDbEntity
  8
0
 62
     2
100
AcDbBlockReference
  2
_Open30
 10
-35.04213912395159
 20
432.8630824417058
 30
0.0
 41
15.00001403807643
 42
14.99994684111822
 50
180.0
  0
INSERT
  5
38E
330
142
100
AcDbEntity
  8
0
 62
     2
100
AcDbBlockReference
  2
_Open30
 10
814.9578608760479
 20
432.8630824417058
 30
0.0
 41
15.00001403807643
 42
14.99994684111822
 50
360.0
  0
LINE
  5
38F
330
142
100
AcDbEntity
  8
0
  6
Continuous
 62
     2
370
    13
100
AcDbLine
 10
-35.04213912395159
 20
215.9740213293104
 30
0.0
 11
-35.04213912395159
 21
437.8630824417058
 31
0.0
  0
LINE
  5
390
330
142
100
AcDbEntity
  8
0
  6
Continuous
 62
     2
370
    13
100
AcDbLine
 10
814.9578608760478
 20
215.9740213293104
 30
0.0
 11
814.9578608760478
 21
437.8630824417058
 31
0.0
  0
TEXT
  5
391
330
142
100
AcDbEntity
  8
0
 62
     4
100
AcDbText
 10
334.9578608760481
 20
437.8630824417058
 30
0.0
 40
20.0
  1
W3=機幅-110
 41
0.6585144927536231
  7
dcStyle0
 72
     5
 11
444.9578608760481
 21
437.8630824417058
 31
0.0
100
AcDbText
  0
ENDBLK
  5
144
330
142
100
AcDbEntity
  8
0
100
AcDbBlockEnd
  0
BLOCK
  5
146
330
145
100
AcDbEntity
  8
0
100
AcDbBlockBegin
  2
*D49
 70
     1
 10
0.0
 20
0.0
 30
0.0
  3
*D49
  1

  0
LINE
  5
392
330
145
100
AcDbEntity
  8
0
  6
Continuous
 62
     2
370
    13
100
AcDbLine
 10
15.58805548006995
 20
-54.02530733533908
 30
0.0
 11
15.58805548006995
 21
-9.025307335339079
 31
0.0
  0
INSERT
  5
393
330
145
100
AcDbEntity
  8
0
 62
     2
100
AcDbBlockReference
  2
_Open30
 10
15.58805548006995
 20
-54.02530733533908
 30
0.0
 41
15.00001403807643
 42
14.99994684111822
 50
270.0
  0
INSERT
  5
394
330
145
100
AcDbEntity
  8
0
 62
     2
100
AcDbBlockReference
  2
_Open30
 10
15.58805548006995
 20
-9.025307335339079
 30
0.0
 41
15.00001403807643
 42
14.99994684111822
 50
90.0
  0
LINE
  5
395
330
145
100
AcDbEntity
  8
0
  6
Continuous
 62
     2
370
    13
100
AcDbLine
 10
-30.04213912395113
 20
-54.02530733533908
 30
0.0
 11
20.58805548006995
 21
-54.02530733533908
 31
0.0
  0
LINE
  5
396
330
145
100
AcDbEntity
  8
0
  6
Continuous
 62
     2
370
    13
100
AcDbLine
 10
-30.04213912395113
 20
-9.025307335339079
 30
0.0
 11
20.58805548006995
 21
-9.025307335339079
 31
0.0
  0
TEXT
  5
397
330
145
100
AcDbEntity
  8
0
 62
     2
100
AcDbText
 10
10.58805548006995
 20
-41.52530733533908
 30
0.0
 40
20.0
  1
45
 50
90.0
 41
0.6874999999999999
  7
dcStyle0
 72
     5
 11
10.58805548006995
 21
-21.52530733533908
 31
0.0
100
AcDbText
  0
ENDBLK
  5
147
330
145
100
AcDbEntity
  8
0
100
AcDbBlockEnd
  0
BLOCK
  5
149
330
148
100
AcDbEntity
  8
0
100
AcDbBlockBegin
  2
*D50
 70
     1
 10
0.0
 20
0.0
 30
0.0
  3
*D50
  1

  0
LINE
  5
398
330
148
100
AcDbEntity
  8
0
  6
Continuous
 62
     2
370
    13
100
AcDbLine
 10
-911.6780898876405
 20
262.5815889216526
 30
0.0
 11
-711.6780898876405
 21
262.5815889216526
 31
0.0
  0
INSERT
  5
399
330
148
100
AcDbEntity
  8
0
 62
     2
100
AcDbBlockReference
  2
_Open30
 10
-911.6780898876405
 20
262.5815889216526
 30
0.0
 41
15.00001403807643
 42
14.99994684111822
 50
180.0
  0
INSERT
  5
39A
330
148
100
AcDbEntity
  8
0
 62
     2
100
AcDbBlockReference
  2
_Open30
 10
-711.6780898876405
 20
262.5815889216526
 30
0.0
 41
15.00001403807643
 42
14.99994684111822
 50
360.0
  0
LINE
  5
39B
330
148
100
AcDbEntity
  8
0
  6
Continuous
 62
     2
370
    13
100
AcDbLine
 10
-911.6780898876405
 20
230.9740213293103
 30
0.0
 11
-911.6780898876405
 21
267.5815889216526
 31
0.0
  0
LINE
  5
39C
330
148
100
AcDbEntity
  8
0
  6
Continuous
 62
     2
370
    13
100
AcDbLine
 10
-711.6780898876405
 20
230.9740213293103
 30
0.0
 11
-711.6780898876405
 21
267.5815889216526
 31
0.0
  0
TEXT
  5
39D
330
148
100
AcDbEntity
  8
0
 62
     2
100
AcDbText
 10
-826.6780898876405
 20
267.5815889216526
 30
0.0
 40
20.0
  1
200
 41
0.6874999999999999
  7
dcStyle0
 72
     5
 11
-796.6780898876405
 21
267.5815889216526
 31
0.0
100
AcDbText
  0
ENDBLK
  5
14A
330
148
100
AcDbEntity
  8
0
100
AcDbBlockEnd
  0
BLOCK
  5
14C
330
14B
100
AcDbEntity
  8
0
100
AcDbBlockBegin
  2
*D51
 70
     1
 10
0.0
 20
0.0
 30
0.0
  3
*D51
  1

  0
LINE
  5
39E
330
14B
100
AcDbEntity
  8
0
  6
Continuous
 62
     2
370
    13
100
AcDbLine
 10
-947.6864635319798
 20
70.97402132931032
 30
0.0
 11
-947.6864635319798
 21
225.9740213293103
 31
0.0
  0
INSERT
  5
39F
330
14B
100
AcDbEntity
  8
0
 62
     2
100
AcDbBlockReference
  2
_Open30
 10
-947.6864635319798
 20
70.97402132931032
 30
0.0
 41
15.00001403807643
 42
14.99994684111822
 50
270.0
  0
INSERT
  5
3A0
330
14B
100
AcDbEntity
  8
0
 62
     2
100
AcDbBlockReference
  2
_Open30
 10
-947.6864635319798
 20
225.9740213293103
 30
0.0
 41
15.00001403807643
 42
14.99994684111822
 50
90.0
  0
LINE
  5
3A1
330
14B
100
AcDbEntity
  8
0
  6
Continuous
 62
     2
370
    13
100
AcDbLine
 10
-854.0021710952005
 20
70.97402132931032
 30
0.0
 11
-952.6864635319798
 21
70.97402132931032
 31
0.0
  0
LINE
  5
3A2
330
14B
100
AcDbEntity
  8
0
  6
Continuous
 62
     2
370
    13
100
AcDbLine
 10
-916.6780898876405
 20
225.9740213293103
 30
0.0
 11
-952.6864635319798
 21
225.9740213293103
 31
0.0
  0
TEXT
  5
3A3
330
14B
100
AcDbEntity
  8
0
 62
     2
100
AcDbText
 10
-952.6864635319798
 20
133.4740213293103
 30
0.0
 40
20.0
  1
155
 50
90.0
 41
0.6874999999999999
  7
dcStyle0
 72
     5
 11
-952.6864635319798
 21
163.4740213293103
 31
0.0
100
AcDbText
  0
ENDBLK
  5
14D
330
14B
100
AcDbEntity
  8
0
100
AcDbBlockEnd
  0
BLOCK
  5
14F
330
14E
100
AcDbEntity
  8
0
100
AcDbBlockBegin
  2
*D52
 70
     1
 10
0.0
 20
0.0
 30
0.0
  3
*D52
  1

  0
LINE
  5
3A4
330
14E
100
AcDbEntity
  8
0
  6
Continuous
 62
     2
370
    13
100
AcDbLine
 10
-849.1780898876405
 20
36.29521770755967
 30
0.0
 11
-774.1780898876405
 21
36.29521770755967
 31
0.0
  0
INSERT
  5
3A5
330
14E
100
AcDbEntity
  8
0
 62
     2
100
AcDbBlockReference
  2
_Open30
 10
-849.1780898876405
 20
36.29521770755967
 30
0.0
 41
15.00001403807643
 42
14.99994684111822
 50
180.0
  0
INSERT
  5
3A6
330
14E
100
AcDbEntity
  8
0
 62
     2
100
AcDbBlockReference
  2
_Open30
 10
-774.1780898876405
 20
36.29521770755967
 30
0.0
 41
15.00001403807643
 42
14.99994684111822
 50
360.0
  0
LINE
  5
3A7
330
14E
100
AcDbEntity
  8
0
  6
Continuous
 62
     2
370
    13
100
AcDbLine
 10
-849.1780898876405
 20
65.97711702979983
 30
0.0
 11
-849.1780898876405
 21
31.29521770755967
 31
0.0
  0
LINE
  5
3A8
330
14E
100
AcDbEntity
  8
0
  6
Continuous
 62
     2
370
    13
100
AcDbLine
 10
-774.1780898876405
 20
65.97711702979983
 30
0.0
 11
-774.1780898876405
 21
31.29521770755967
 31
0.0
  0
TEXT
  5
3A9
330
14E
100
AcDbEntity
  8
0
 62
     2
100
AcDbText
 10
-821.6780898876405
 20
41.29521770755967
 30
0.0
 40
20.0
  1
75
 41
0.6874999999999999
  7
dcStyle0
 72
     5
 11
-801.6780898876405
 21
41.29521770755967
 31
0.0
100
AcDbText
  0
ENDBLK
  5
150
330
14E
100
AcDbEntity
  8
0
100
AcDbBlockEnd
  0
BLOCK
  5
152
330
151
100
AcDbEntity
  8
0
100
AcDbBlockBegin
  2
DC_GROUP_W_MHR_LEG_010_42
 70
     0
 10
0.0
 20
0.0
 30
0.0
  3
DC_GROUP_W_MHR_LEG_010_42
  1

  0
INSERT
  5
3AA
330
151
100
AcDbEntity
  8
0
  6
Continuous
100
AcDbBlockReference
  2
DC_GROUP_W_MHR_LEG_010_43
 10
0.0
 20
0.0
 30
0.0
  0
ENDBLK
  5
153
330
151
100
AcDbEntity
  8
0
100
AcDbBlockEnd
  0
BLOCK
  5
155
330
154
100
AcDbEntity
  8
0
100
AcDbBlockBegin
  2
DC_GROUP_W_MHR_LEG_010_43
 70
     0
 10
0.0
 20
0.0
 30
0.0
  3
DC_GROUP_W_MHR_LEG_010_43
  1

  0
INSERT
  5
3AB
330
154
100
AcDbEntity
  8
0
  6
Continuous
100
AcDbBlockReference
  2
DC_GROUP_W_MHR_LEG_010_44
 10
0.0
 20
0.0
 30
0.0
  0
INSERT
  5
3AC
330
154
100
AcDbEntity
  8
0
  6
Continuous
100
AcDbBlockReference
  2
DC_GROUP_W_MHR_LEG_010_50
 10
0.0
 20
0.0
 30
0.0
  0
ENDBLK
  5
156
330
154
100
AcDbEntity
  8
0
100
AcDbBlockEnd
  0
BLOCK
  5
158
330
157
100
AcDbEntity
  8
0
100
AcDbBlockBegin
  2
DC_GROUP_W_MHR_LEG_010_44
 70
     0
 10
0.0
 20
0.0
 30
0.0
  3
DC_GROUP_W_MHR_LEG_010_44
  1

  0
INSERT
  5
3AD
330
157
100
AcDbEntity
  8
0
  6
Continuous
100
AcDbBlockReference
  2
DC_GROUP_W_MHR_LEG_010_45
 10
0.0
 20
0.0
 30
0.0
  0
INSERT
  5
3AE
330
157
100
AcDbEntity
  8
0
  6
Continuous
100
AcDbBlockReference
  2
DC_GROUP_W_MHR_LEG_010_46
 10
0.0
 20
0.0
 30
0.0
  0
INSERT
  5
3AF
330
157
100
AcDbEntity
  8
0
  6
Continuous
100
AcDbBlockReference
  2
DC_GROUP_W_MHR_LEG_010_48
 10
0.0
 20
0.0
 30
0.0
  0
INSERT
  5
3B0
330
157
100
AcDbEntity
  8
0
  6
Continuous
100
AcDbBlockReference
  2
DC_GROUP_W_MHR_LEG_010_49
 10
0.0
 20
0.0
 30
0.0
  0
ENDBLK
  5
159
330
157
100
AcDbEntity
  8
0
100
AcDbBlockEnd
  0
BLOCK
  5
15B
330
15A
100
AcDbEntity
  8
0
100
AcDbBlockBegin
  2
DC_GROUP_W_MHR_LEG_010_45
 70
     0
 10
0.0
 20
0.0
 30
0.0
  3
DC_GROUP_W_MHR_LEG_010_45
  1

  0
LINE
  5
3B1
330
15A
100
AcDbEntity
  8
0
  6
Continuous
 62
     7
370
    13
100
AcDbLine
 10
-461.6780898876405
 20
225.9740213293103
 30
0.0
 11
-461.6780898876405
 21
180.9740213293103
 31
0.0
  0
LINE
  5
3B2
330
15A
100
AcDbEntity
  8
0
  6
Continuous
 62
     7
370
    13
100
AcDbLine
 10
-521.6780898876405
 20
145.9740213293103
 30
0.0
 11
-461.6780898876405
 21
180.9740213293103
 31
0.0
  0
LINE
  5
3B3
330
15A
100
AcDbEntity
  8
0
  6
Continuous
 62
     7
370
    13
100
AcDbLine
 10
-661.6780898876405
 20
225.9740213293103
 30
0.0
 11
-461.6780898876405
 21
225.9740213293103
 31
0.0
  0
LINE
  5
3B4
330
15A
100
AcDbEntity
  8
0
  6
Continuous
 62
     7
370
    13
100
AcDbLine
 10
-661.6780898876405
 20
180.9740213293103
 30
0.0
 11
-661.6780898876405
 21
225.9740213293103
 31
0.0
  0
LINE
  5
3B5
330
15A
100
AcDbEntity
  8
0
  6
Continuous
 62
     7
370
    13
100
AcDbLine
 10
-661.6780898876405
 20
180.9740213293103
 30
0.0
 11
-601.6780898876405
 21
145.9740213293103
 31
0.0
  0
LINE
  5
3B6
330
15A
100
AcDbEntity
  8
0
  6
Continuous
 62
     7
370
    13
100
AcDbLine
 10
-601.6780898876405
 20
145.9740213293103
 30
0.0
 11
-521.6780898876405
 21
145.9740213293103
 31
0.0
  0
ARC
  5
3B7
330
15A
100
AcDbEntity
  8
0
  6
Continuous
 62
     7
370
    13
100
AcDbCircle
 10
-568.1485660152039
 20
195.1221669865371
 30
0.0
 40
5.500000000000044
100
AcDbArc
 50
128.9040310846607
 51
246.0959689153354
  0
ARC
  5
3B8
330
15A
100
AcDbEntity
  8
0
  6
Continuous
 62
     7
370
    13
100
AcDbCircle
 10
-555.2076137600775
 20
195.1221669865371
 30
0.0
 40
5.500000000000014
100
AcDbArc
 50
293.9040310846675
 51
51.09596891533555
  0
LINE
  5
3B9
330
15A
100
AcDbEntity
  8
0
  6
CENTERX2
 62
     3
370
    13
100
AcDbLine
 10
-624.1780898876405
 20
232.0330590090004
 30
0.0
 11
-624.1780898876405
 21
216.7905492539107
 31
0.0
  0
ENDBLK
  5
15C
330
15A
100
AcDbEntity
  8
0
100
AcDbBlockEnd
  0
BLOCK
  5
15E
330
15D
100
AcDbEntity
  8
0
100
AcDbBlockBegin
  2
DC_GROUP_W_MHR_LEG_010_46
 70
     0
 10
0.0
 20
0.0
 30
0.0
  3
DC_GROUP_W_MHR_LEG_010_46
  1

  0
INSERT
  5
3BA
330
15D
100
AcDbEntity
  8
0
  6
Continuous
100
AcDbBlockReference
  2
DC_GROUP_W_MHR_LEG_010_47
 10
0.0
 20
0.0
 30
0.0
  0
ENDBLK
  5
15F
330
15D
100
AcDbEntity
  8
0
100
AcDbBlockEnd
  0
BLOCK
  5
161
330
160
100
AcDbEntity
  8
0
100
AcDbBlockBegin
  2
DC_GROUP_W_MHR_LEG_010_47
 70
     0
 10
0.0
 20
0.0
 30
0.0
  3
DC_GROUP_W_MHR_LEG_010_47
  1

  0
LINE
  5
3BB
330
160
100
AcDbEntity
  8
0
  6
CENTERX2
 62
     3
370
    13
100
AcDbLine
 10
-499.1780898876405
 20
232.0330590090004
 30
0.0
 11
-499.1780898876405
 21
216.7905492539107
 31
0.0
  0
ENDBLK
  5
162
330
160
100
AcDbEntity
  8
0
100
AcDbBlockEnd
  0
BLOCK
  5
164
330
163
100
AcDbEntity
  8
0
100
AcDbBlockBegin
  2
DC_GROUP_W_MHR_LEG_010_48
 70
     0
 10
0.0
 20
0.0
 30
0.0
  3
DC_GROUP_W_MHR_LEG_010_48
  1

  0
LINE
  5
3BC
330
163
100
AcDbEntity
  8
0
  6
Continuous
 62
     7
370
    13
100
AcDbLine
 10
-551.863135311417
 20
195.9740213293102
 30
0.0
 11
-556.7706125995287
 21
204.4740213293102
 31
0.0
  0
LINE
  5
3BD
330
163
100
AcDbEntity
  8
0
  6
Continuous
 62
     7
370
    13
100
AcDbLine
 10
-556.7706125995287
 20
204.4740213293102
 30
0.0
 11
-566.5855671757527
 21
204.4740213293102
 31
0.0
  0
LINE
  5
3BE
330
163
100
AcDbEntity
  8
0
  6
Continuous
 62
     7
370
    13
100
AcDbLine
 10
-566.5855671757527
 20
204.4740213293102
 30
0.0
 11
-571.493044463864
 21
195.9740213293102
 31
0.0
  0
LINE
  5
3BF
330
163
100
AcDbEntity
  8
0
  6
Continuous
 62
     7
370
    13
100
AcDbLine
 10
-571.493044463864
 20
195.9740213293102
 30
0.0
 11
-566.5855671757527
 21
187.4740213293102
 31
0.0
  0
LINE
  5
3C0
330
163
100
AcDbEntity
  8
0
  6
Continuous
 62
     7
370
    13
100
AcDbLine
 10
-566.5855671757527
 20
187.4740213293102
 30
0.0
 11
-556.7706125995287
 21
187.4740213293102
 31
0.0
  0
LINE
  5
3C1
330
163
100
AcDbEntity
  8
0
  6
Continuous
 62
     7
370
    13
100
AcDbLine
 10
-556.7706125995287
 20
187.4740213293102
 30
0.0
 11
-551.863135311417
 21
195.9740213293102
 31
0.0
  0
CIRCLE
  5
3C2
330
163
100
AcDbEntity
  8
0
  6
Continuous
 62
     7
370
    13
100
AcDbCircle
 10
-561.6780898876405
 20
195.9740213293102
 30
0.0
 40
8.5
  0
CIRCLE
  5
3C3
330
163
100
AcDbEntity
  8
0
  6
Continuous
 62
     7
370
    13
100
AcDbCircle
 10
-561.6780898876405
 20
195.9740213293102
 30
0.0
 40
10.5
  0
LINE
  5
3C4
330
163
100
AcDbEntity
  8
0
  6
CENTERX2
 62
     3
370
    13
100
AcDbLine
 10
-546.9780898876406
 20
195.9740213293102
 30
0.0
 11
-576.3780898876407
 21
195.9740213293102
 31
0.0
  0
ENDBLK
  5
165
330
163
100
AcDbEntity
  8
0
100
AcDbBlockEnd
  0
BLOCK
  5
167
330
166
100
AcDbEntity
  8
0
100
AcDbBlockBegin
  2
DC_GROUP_W_MHR_LEG_010_49
 70
     0
 10
0.0
 20
0.0
 30
0.0
  3
DC_GROUP_W_MHR_LEG_010_49
  1

  0
LINE
  5
3C5
330
166
100
AcDbEntity
  8
0
  6
Continuous
 62
     7
370
    13
100
AcDbLine
 10
-551.863135311417
 20
170.9740213293103
 30
0.0
 11
-556.7706125995287
 21
179.4740213293103
 31
0.0
  0
LINE
  5
3C6
330
166
100
AcDbEntity
  8
0
  6
Continuous
 62
     7
370
    13
100
AcDbLine
 10
-556.7706125995287
 20
179.4740213293103
 30
0.0
 11
-566.5855671757522
 21
179.4740213293103
 31
0.0
  0
LINE
  5
3C7
330
166
100
AcDbEntity
  8
0
  6
Continuous
 62
     7
370
    13
100
AcDbLine
 10
-566.5855671757522
 20
179.4740213293103
 30
0.0
 11
-571.4930444638644
 21
170.9740213293103
 31
0.0
  0
LINE
  5
3C8
330
166
100
AcDbEntity
  8
0
  6
Continuous
 62
     7
370
    13
100
AcDbLine
 10
-571.4930444638644
 20
170.9740213293103
 30
0.0
 11
-566.5855671757522
 21
162.4740213293103
 31
0.0
  0
LINE
  5
3C9
330
166
100
AcDbEntity
  8
0
  6
Continuous
 62
     7
370
    13
100
AcDbLine
 10
-566.5855671757522
 20
162.4740213293103
 30
0.0
 11
-556.7706125995287
 21
162.4740213293103
 31
0.0
  0
LINE
  5
3CA
330
166
100
AcDbEntity
  8
0
  6
Continuous
 62
     7
370
    13
100
AcDbLine
 10
-556.7706125995287
 20
162.4740213293103
 30
0.0
 11
-551.863135311417
 21
170.9740213293103
 31
0.0
  0
CIRCLE
  5
3CB
330
166
100
AcDbEntity
  8
0
  6
Continuous
 62
     7
370
    13
100
AcDbCircle
 10
-561.6780898876405
 20
170.9740213293103
 30
0.0
 40
8.5
  0
ARC
  5
3CC
330
166
100
AcDbEntity
  8
0
  6
Continuous
 62
     7
370
    13
100
AcDbCircle
 10
-561.6780898876405
 20
170.9740213293103
 30
0.0
 40
9.200000000000045
100
AcDbArc
 50
127.5050178288726
 51
172.494982171123
  0
ARC
  5
3CD
330
166
100
AcDbEntity
  8
0
  6
Continuous
 62
     7
370
    13
100
AcDbCircle
 10
-561.6780898876405
 20
170.9740213293103
 30
0.0
 40
9.200000000000045
100
AcDbArc
 50
187.505017828877
 51
232.4949821711274
  0
ARC
  5
3CE
330
166
100
AcDbEntity
  8
0
  6
Continuous
 62
     7
370
    13
100
AcDbCircle
 10
-561.6780898876405
 20
170.9740213293103
 30
0.0
 40
9.200000000000045
100
AcDbArc
 50
247.5050178288738
 51
292.4949821711263
  0
ARC
  5
3CF
330
166
100
AcDbEntity
  8
0
  6
Continuous
 62
     7
370
    13
100
AcDbCircle
 10
-561.6780898876405
 20
170.9740213293103
 30
0.0
 40
9.200000000000045
100
AcDbArc
 50
307.5050178288716
 51
352.4949821711286
  0
ARC
  5
3D0
330
166
100
AcDbEntity
  8
0
  6
Continuous
 62
     7
370
    13
100
AcDbCircle
 10
-561.6780898876405
 20
170.9740213293103
 30
0.0
 40
9.200000000000045
100
AcDbArc
 50
7.505017828871449
 51
52.49498217112833
  0
ARC
  5
3D1
330
166
100
AcDbEntity
  8
0
  6
Continuous
 62
     7
370
    13
100
AcDbCircle
 10
-561.6780898876405
 20
170.9740213293103
 30
0.0
 40
9.200000000000045
100
AcDbArc
 50
67.50501782887376
 51
112.4949821711262
  0
LINE
  5
3D2
330
166
100
AcDbEntity
  8
0
  6
CENTERX2
 62
     3
370
    13
100
AcDbLine
 10
-548.7980898876403
 20
170.9740213293103
 30
0.0
 11
-574.5580898876406
 21
170.9740213293103
 31
0.0
  0
ENDBLK
  5
168
330
166
100
AcDbEntity
  8
0
100
AcDbBlockEnd
  0
BLOCK
  5
16A
330
169
100
AcDbEntity
  8
0
100
AcDbBlockBegin
  2
DC_GROUP_W_MHR_LEG_010_50
 70
     0
 10
0.0
 20
0.0
 30
0.0
  3
DC_GROUP_W_MHR_LEG_010_50
  1

  0
INSERT
  5
3D3
330
169
100
AcDbEntity
  8
0
  6
Continuous
100
AcDbBlockReference
  2
DC_GROUP_W_MHR_LEG_010_51
 10
0.0
 20
0.0
 30
0.0
  0
ENDBLK
  5
16B
330
169
100
AcDbEntity
  8
0
100
AcDbBlockEnd
  0
BLOCK
  5
16D
330
16C
100
AcDbEntity
  8
0
100
AcDbBlockBegin
  2
DC_GROUP_W_MHR_LEG_010_51
 70
     0
 10
0.0
 20
0.0
 30
0.0
  3
DC_GROUP_W_MHR_LEG_010_51
  1

  0
LINE
  5
3D4
330
16C
100
AcDbEntity
  8
0
  6
Continuous
 62
     7
370
    13
100
AcDbLine
 10
-599.1780898876405
 20
122.9041390888556
 30
0.0
 11
-599.1780898876405
 21
145.9740213293103
 31
0.0
  0
LINE
  5
3D5
330
16C
100
AcDbEntity
  8
0
  6
Continuous
 62
     7
370
    13
100
AcDbLine
 10
-524.1780898876405
 20
122.9041390888556
 30
0.0
 11
-524.1780898876405
 21
145.9740213293103
 31
0.0
  0
LINE
  5
3D6
330
16C
100
AcDbEntity
  8
0
  6
CENTERX2
 62
     3
370
    13
100
AcDbLine
 10
-561.6780898876405
 20
122.9041390888556
 30
0.0
 11
-561.6780898876405
 21
237.9131975105255
 31
0.0
  0
ENDBLK
  5
16E
330
16C
100
AcDbEntity
  8
0
100
AcDbBlockEnd
  0
BLOCK
  5
170
330
16F
100
AcDbEntity
  8
0
100
AcDbBlockBegin
  2
*D63
 70
     1
 10
0.0
 20
0.0
 30
0.0
  3
*D63
  1

  0
LINE
  5
3D7
330
16F
100
AcDbEntity
  8
0
  6
Continuous
 62
     2
370
    13
100
AcDbLine
 10
-661.6780898876405
 20
262.5815889216526
 30
0.0
 11
-461.6780898876405
 21
262.5815889216526
 31
0.0
  0
INSERT
  5
3D8
330
16F
100
AcDbEntity
  8
0
 62
     2
100
AcDbBlockReference
  2
_Open30
 10
-661.6780898876405
 20
262.5815889216526
 30
0.0
 41
15.00001403807643
 42
14.99994684111822
 50
180.0
  0
INSERT
  5
3D9
330
16F
100
AcDbEntity
  8
0
 62
     2
100
AcDbBlockReference
  2
_Open30
 10
-461.6780898876405
 20
262.5815889216526
 30
0.0
 41
15.00001403807643
 42
14.99994684111822
 50
360.0
  0
LINE
  5
3DA
330
16F
100
AcDbEntity
  8
0
  6
Continuous
 62
     2
370
    13
100
AcDbLine
 10
-661.6780898876405
 20
230.9740213293103
 30
0.0
 11
-661.6780898876405
 21
267.5815889216526
 31
0.0
  0
LINE
  5
3DB
330
16F
100
AcDbEntity
  8
0
  6
Continuous
 62
     2
370
    13
100
AcDbLine
 10
-461.6780898876405
 20
230.9740213293103
 30
0.0
 11
-461.6780898876405
 21
267.5815889216526
 31
0.0
  0
TEXT
  5
3DC
330
16F
100
AcDbEntity
  8
0
 62
     2
100
AcDbText
 10
-576.6780898876405
 20
267.5815889216526
 30
0.0
 40
20.0
  1
200
 41
0.6874999999999999
  7
dcStyle0
 72
     5
 11
-546.6780898876405
 21
267.5815889216526
 31
0.0
100
AcDbText
  0
ENDBLK
  5
171
330
16F
100
AcDbEntity
  8
0
100
AcDbBlockEnd
  0
BLOCK
  5
173
330
172
100
AcDbEntity
  8
0
100
AcDbBlockBegin
  2
*D64
 70
     1
 10
0.0
 20
0.0
 30
0.0
  3
*D64
  1

  0
LINE
  5
3DD
330
172
100
AcDbEntity
  8
0
  6
Continuous
 62
     2
370
    13
100
AcDbLine
 10
-418.451898304585
 20
145.9740213293103
 30
0.0
 11
-418.451898304585
 21
225.9740213293103
 31
0.0
  0
INSERT
  5
3DE
330
172
100
AcDbEntity
  8
0
 62
     2
100
AcDbBlockReference
  2
_Open30
 10
-418.451898304585
 20
145.9740213293103
 30
0.0
 41
15.00001403807643
 42
14.99994684111822
 50
270.0
  0
INSERT
  5
3DF
330
172
100
AcDbEntity
  8
0
 62
     2
100
AcDbBlockReference
  2
_Open30
 10
-418.451898304585
 20
225.9740213293103
 30
0.0
 41
15.00001403807643
 42
14.99994684111822
 50
90.0
  0
LINE
  5
3E0
330
172
100
AcDbEntity
  8
0
  6
Continuous
 62
     2
370
    13
100
AcDbLine
 10
-516.6780898876405
 20
145.9740213293103
 30
0.0
 11
-413.451898304585
 21
145.9740213293103
 31
0.0
  0
LINE
  5
3E1
330
172
100
AcDbEntity
  8
0
  6
Continuous
 62
     2
370
    13
100
AcDbLine
 10
-456.6780898876405
 20
225.9740213293103
 30
0.0
 11
-413.451898304585
 21
225.9740213293103
 31
0.0
  0
TEXT
  5
3E2
330
172
100
AcDbEntity
  8
0
 62
     2
100
AcDbText
 10
-423.451898304585
 20
175.9740213293103
 30
0.0
 40
20.0
  1
80
 50
90.0
 41
0.6874999999999999
  7
dcStyle0
 72
     5
 11
-423.451898304585
 21
195.9740213293103
 31
0.0
100
AcDbText
  0
ENDBLK
  5
174
330
172
100
AcDbEntity
  8
0
100
AcDbBlockEnd
  0
BLOCK
  5
176
330
175
100
AcDbEntity
  8
0
100
AcDbBlockBegin
  2
DC_GROUP_W_MHR_LEG_010_52
 70
     0
 10
0.0
 20
0.0
 30
0.0
  3
DC_GROUP_W_MHR_LEG_010_52
  1

  0
LINE
  5
3E3
330
175
100
AcDbEntity
  8
0
  6
PHANTOM
 62
   140
370
    13
100
AcDbLine
 10
389.9578608760485
 20
403.4868341528932
 30
0.0
 11
389.9578608760485
 21
218.319235937523
 31
0.0
  0
INSERT
  5
3E4
330
175
100
AcDbEntity
  8
0
  6
Continuous
100
AcDbBlockReference
  2
DC_GROUP_W_MHR_LEG_010_53
 10
0.0
 20
0.0
 30
0.0
  0
INSERT
  5
3E5
330
175
100
AcDbEntity
  8
0
  6
Continuous
100
AcDbBlockReference
  2
DC_GROUP_W_MHR_LEG_010_56
 10
0.0
 20
0.0
 30
0.0
  0
INSERT
  5
3E6
330
175
100
AcDbEntity
  8
0
  6
Continuous
100
AcDbBlockReference
  2
DC_GROUP_W_MHR_LEG_010_57
 10
0.0
 20
0.0
 30
0.0
  0
INSERT
  5
3E7
330
175
100
AcDbEntity
  8
0
  6
Continuous
100
AcDbBlockReference
  2
DC_GROUP_W_MHR_LEG_010_60
 10
0.0
 20
0.0
 30
0.0
  0
INSERT
  5
3E8
330
175
100
AcDbEntity
  8
0
  6
Continuous
100
AcDbBlockReference
  2
DC_GROUP_W_MHR_LEG_010_61
 10
0.0
 20
0.0
 30
0.0
  0
INSERT
  5
3E9
330
175
100
AcDbEntity
  8
0
  6
Continuous
100
AcDbBlockReference
  2
DC_GROUP_W_MHR_LEG_010_64
 10
0.0
 20
0.0
 30
0.0
  0
INSERT
  5
3EA
330
175
100
AcDbEntity
  8
2
  6
Continuous
100
AcDbBlockReference
  2
DC_GROUP_W_MHR_LEG_010_67
 10
0.0
 20
0.0
 30
0.0
  0
INSERT
  5
3EB
330
175
100
AcDbEntity
  8
2
  6
Continuous
100
AcDbBlockReference
  2
DC_GROUP_W_MHR_LEG_010_68
 10
0.0
 20
0.0
 30
0.0
  0
ENDBLK
  5
177
330
175
100
AcDbEntity
  8
0
100
AcDbBlockEnd
  0
BLOCK
  5
179
330
178
100
AcDbEntity
  8
0
100
AcDbBlockBegin
  2
DC_GROUP_W_MHR_LEG_010_53
 70
     0
 10
0.0
 20
0.0
 30
0.0
  3
DC_GROUP_W_MHR_LEG_010_53
  1

  0
INSERT
  5
3EC
330
178
100
AcDbEntity
  8
12
  6
Continuous
100
AcDbBlockReference
  2
DC_GROUP_W_MHR_LEG_010_54
 10
0.0
 20
0.0
 30
0.0
  0
INSERT
  5
3ED
330
178
100
AcDbEntity
  8
12
  6
Continuous
100
AcDbBlockReference
  2
DC_GROUP_W_MHR_LEG_010_55
 10
0.0
 20
0.0
 30
0.0
  0
ENDBLK
  5
17A
330
178
100
AcDbEntity
  8
0
100
AcDbBlockEnd
  0
BLOCK
  5
17C
330
17B
100
AcDbEntity
  8
0
100
AcDbBlockBegin
  2
DC_GROUP_W_MHR_LEG_010_54
 70
     0
 10
0.0
 20
0.0
 30
0.0
  3
DC_GROUP_W_MHR_LEG_010_54
  1

  0
LINE
  5
3EE
330
17B
100
AcDbEntity
  8
12
  6
PHANTOM
 62
   140
370
    13
100
AcDbLine
 10
819.9578608760485
 20
342.3240213416631
 30
0.0
 11
819.9578608760485
 21
323.3240213422691
 31
0.0
  0
LINE
  5
3EF
330
17B
100
AcDbEntity
  8
12
  6
PHANTOM
 62
   140
370
    13
100
AcDbLine
 10
819.4578608760485
 20
342.8240213416631
 30
0.0
 11
819.9578608760485
 21
342.3240213416631
 31
0.0
  0
LINE
  5
3F0
330
17B
100
AcDbEntity
  8
12
  6
PHANTOM
 62
   140
370
    13
100
AcDbLine
 10
819.4578608760485
 20
322.8240213422691
 30
0.0
 11
819.9578608760485
 21
323.3240213422691
 31
0.0
  0
LINE
  5
3F1
330
17B
100
AcDbEntity
  8
12
  6
PHANTOM
 62
   140
370
    13
100
AcDbLine
 10
812.9578570600364
 20
342.8240213416631
 30
0.0
 11
819.4578608760485
 21
342.8240213416631
 31
0.0
  0
LINE
  5
3F2
330
17B
100
AcDbEntity
  8
12
  6
PHANTOM
 62
   140
370
    13
100
AcDbLine
 10
812.9578570600586
 20
322.8240213422691
 30
0.0
 11
819.4578608760485
 21
322.8240213422691
 31
0.0
  0
LINE
  5
3F3
330
17B
100
AcDbEntity
  8
12
  6
PHANTOM
 62
   140
370
    13
100
AcDbLine
 10
819.4578608760485
 20
342.8240213416631
 30
0.0
 11
819.4578608760485
 21
322.8240213422691
 31
0.0
  0
LINE
  5
3F4
330
17B
100
AcDbEntity
  8
12
  6
PHANTOM
 62
   140
370
    13
100
AcDbLine
 10
824.3578838663531
 20
332.824021348206
 30
0.0
 11
-41.7463949887744
 21
332.824021302749
 31
0.0
  0
ENDBLK
  5
17D
330
17B
100
AcDbEntity
  8
0
100
AcDbBlockEnd
  0
BLOCK
  5
17F
330
17E
100
AcDbEntity
  8
0
100
AcDbBlockBegin
  2
DC_GROUP_W_MHR_LEG_010_55
 70
     0
 10
0.0
 20
0.0
 30
0.0
  3
DC_GROUP_W_MHR_LEG_010_55
  1

  0
LINE
  5
3F5
330
17E
100
AcDbEntity
  8
12
  6
PHANTOM
 62
   140
370
    13
100
AcDbLine
 10
26.95783985643226
 20
370.9740213293103
 30
0.0
 11
23.95785515152176
 21
368.3240213143091
 31
0.0
  0
LINE
  5
3F6
330
17E
100
AcDbEntity
  8
12
  6
PHANTOM
 62
   140
370
    13
100
AcDbLine
 10
26.95783985643226
 20
294.6740213293103
 30
0.0
 11
23.95785515144308
 21
297.3240213143362
 31
0.0
  0
LINE
  5
3F7
330
17E
100
AcDbEntity
  8
12
  6
PHANTOM
 62
   140
370
    13
100
AcDbLine
 10
23.95785515144308
 20
297.3240213143362
 30
0.0
 11
23.95785515152176
 21
368.3240213143091
 31
0.0
  0
LINE
  5
3F8
330
17E
100
AcDbEntity
  8
12
  6
PHANTOM
 62
   140
370
    13
100
AcDbLine
 10
809.9578723550976
 20
370.9740213293103
 30
0.0
 11
812.9578570600082
 21
368.3240213143091
 31
0.0
  0
LINE
  5
3F9
330
17E
100
AcDbEntity
  8
12
  6
PHANTOM
 62
   140
370
    13
100
AcDbLine
 10
809.9578723550976
 20
294.6740213293103
 30
0.0
 11
812.9578570600868
 21
297.3240213143362
 31
0.0
  0
LINE
  5
3FA
330
17E
100
AcDbEntity
  8
12
  6
PHANTOM
 62
   140
370
    13
100
AcDbLine
 10
812.9578570600868
 20
297.3240213143362
 30
0.0
 11
812.9578570600082
 21
368.3240213143091
 31
0.0
  0
LINE
  5
3FB
330
17E
100
AcDbEntity
  8
12
  6
PHANTOM
 62
   140
370
    13
100
AcDbLine
 10
26.95778682277233
 20
370.9740213293103
 30
0.0
 11
26.95783985643226
 21
294.6740213293103
 31
0.0
  0
LINE
  5
3FC
330
17E
100
AcDbEntity
  8
12
  6
PHANTOM
 62
   140
370
    13
100
AcDbLine
 10
809.9578723550976
 20
370.9740213293103
 30
0.0
 11
809.9578723550976
 21
294.6740213293103
 31
0.0
  0
LINE
  5
3FD
330
17E
100
AcDbEntity
  8
12
  6
PHANTOM
 62
   140
370
    13
100
AcDbLine
 10
26.95778682277233
 20
294.6740213293103
 30
0.0
 11
809.9578723550977
 21
294.6740213293103
 31
0.0
  0
LINE
  5
3FE
330
17E
100
AcDbEntity
  8
12
  6
PHANTOM
 62
   140
370
    13
100
AcDbLine
 10
26.95778682277233
 20
370.9740213293103
 30
0.0
 11
809.9578723550977
 21
370.9740213293103
 31
0.0
  0
ENDBLK
  5
180
330
17E
100
AcDbEntity
  8
0
100
AcDbBlockEnd
  0
BLOCK
  5
182
330
181
100
AcDbEntity
  8
0
100
AcDbBlockBegin
  2
DC_GROUP_W_MHR_LEG_010_56
 70
     0
 10
0.0
 20
0.0
 30
0.0
  3
DC_GROUP_W_MHR_LEG_010_56
  1

  0
LINE
  5
3FF
330
181
100
AcDbEntity
  8
0
  6
PHANTOM
 62
   140
370
    13
100
AcDbLine
 10
-90.04213912395159
 20
360.9740213293103
 30
0.0
 11
-48.0421391239517
 21
360.9740213293103
 31
0.0
  0
LINE
  5
400
330
181
100
AcDbEntity
  8
0
  6
PHANTOM
 62
   140
370
    13
100
AcDbLine
 10
-40.0421391239517
 20
352.9740213293103
 30
0.0
 11
-40.0421391239517
 21
233.9740213293103
 31
0.0
  0
LINE
  5
401
330
181
100
AcDbEntity
  8
0
  6
PHANTOM
 62
   140
370
    13
100
AcDbLine
 10
-48.0421391239517
 20
225.9740213293103
 30
0.0
 11
-90.04213912395159
 21
225.9740213293103
 31
0.0
  0
LINE
  5
402
330
181
100
AcDbEntity
  8
0
  6
PHANTOM
 62
   140
370
    13
100
AcDbLine
 10
-90.04213912395159
 20
356.4740213293103
 30
0.0
 11
-48.0421391239517
 21
356.4740213293103
 31
0.0
  0
LINE
  5
403
330
181
100
AcDbEntity
  8
0
  6
PHANTOM
 62
   140
370
    13
100
AcDbLine
 10
-44.5421391239517
 20
352.9740213293103
 30
0.0
 11
-44.5421391239517
 21
233.9740213293103
 31
0.0
  0
LINE
  5
404
330
181
100
AcDbEntity
  8
0
  6
PHANTOM
 62
   140
370
    13
100
AcDbLine
 10
-48.0421391239517
 20
230.4740213293103
 30
0.0
 11
-90.04213912395159
 21
230.4740213293103
 31
0.0
  0
LINE
  5
405
330
181
100
AcDbEntity
  8
0
  6
PHANTOM
 62
   140
370
    13
100
AcDbLine
 10
-90.04213912395159
 20
360.9740213293103
 30
0.0
 11
-90.04213912395159
 21
356.4740213293103
 31
0.0
  0
LINE
  5
406
330
181
100
AcDbEntity
  8
0
  6
PHANTOM
 62
   140
370
    13
100
AcDbLine
 10
-90.04213912395159
 20
225.9740213293103
 30
0.0
 11
-90.04213912395159
 21
230.4740213293103
 31
0.0
  0
ARC
  5
407
330
181
100
AcDbEntity
  8
0
  6
PHANTOM
 62
   140
370
    13
100
AcDbCircle
 10
-48.0421391239517
 20
352.9740213293103
 30
0.0
 40
8.0
100
AcDbArc
 50
0.000000000000007
 51
90.00000000000001
  0
ARC
  5
408
330
181
100
AcDbEntity
  8
0
  6
PHANTOM
 62
   140
370
    13
100
AcDbCircle
 10
-48.0421391239517
 20
233.9740213293103
 30
0.0
 40
3.5
100
AcDbArc
 50
270.0
 51
0.0
  0
ARC
  5
409
330
181
100
AcDbEntity
  8
0
  6
PHANTOM
 62
   140
370
    13
100
AcDbCircle
 10
-48.0421391239517
 20
352.9740213293103
 30
0.0
 40
3.5
100
AcDbArc
 50
0.000000000000007
 51
90.00000000000001
  0
ARC
  5
40A
330
181
100
AcDbEntity
  8
0
  6
PHANTOM
 62
   140
370
    13
100
AcDbCircle
 10
-48.0421391239517
 20
233.9740213293103
 30
0.0
 40
8.0
100
AcDbArc
 50
270.0
 51
0.0
  0
LINE
  5
40B
330
181
100
AcDbEntity
  8
0
  6
PHANTOM
 62
   140
370
    13
100
AcDbLine
 10
-65.04213912395159
 20
233.057152767266
 30
0.0
 11
-65.04213912395159
 21
223.7415055480965
 31
0.0
  0
LINE
  5
40C
330
181
100
AcDbEntity
  8
0
  6
PHANTOM
 62
   140
370
    13
100
AcDbLine
 10
-38.06677035828869
 20
332.824021302749
 30
0.0
 11
-46.13086003530151
 21
332.824021302749
 31
0.0
  0
LINE
  5
40D
330
181
100
AcDbEntity
  8
0
  6
PHANTOM
 62
   140
370
    13
100
AcDbLine
 10
-38.06677035828869
 20
272.9740213293103
 30
0.0
 11
-46.5405316689444
 21
272.9740213293103
 31
0.0
  0
LINE
  5
40E
330
181
100
AcDbEntity
  8
0
  6
PHANTOM
 62
   140
370
    13
100
AcDbLine
 10
-75.04213912395159
 20
364.4246022490138
 30
0.0
 11
-75.04213912395159
 21
353.6250322420169
 31
0.0
  0
ENDBLK
  5
183
330
181
100
AcDbEntity
  8
0
100
AcDbBlockEnd
  0
BLOCK
  5
185
330
184
100
AcDbEntity
  8
0
100
AcDbBlockBegin
  2
DC_GROUP_W_MHR_LEG_010_57
 70
     0
 10
0.0
 20
0.0
 30
0.0
  3
DC_GROUP_W_MHR_LEG_010_57
  1

  0
INSERT
  5
40F
330
184
100
AcDbEntity
  8
0
  6
Continuous
100
AcDbBlockReference
  2
DC_GROUP_W_MHR_LEG_010_58
 10
0.0
 20
0.0
 30
0.0
  0
ENDBLK
  5
186
330
184
100
AcDbEntity
  8
0
100
AcDbBlockEnd
  0
BLOCK
  5
188
330
187
100
AcDbEntity
  8
0
100
AcDbBlockBegin
  2
DC_GROUP_W_MHR_LEG_010_58
 70
     0
 10
0.0
 20
0.0
 30
0.0
  3
DC_GROUP_W_MHR_LEG_010_58
  1

  0
INSERT
  5
410
330
187
100
AcDbEntity
  8
2
  6
Continuous
100
AcDbBlockReference
  2
DC_GROUP_W_MHR_LEG_010_59
 10
0.0
 20
0.0
 30
0.0
  0
ENDBLK
  5
189
330
187
100
AcDbEntity
  8
0
100
AcDbBlockEnd
  0
BLOCK
  5
18B
330
18A
100
AcDbEntity
  8
0
100
AcDbBlockBegin
  2
DC_GROUP_W_MHR_LEG_010_59
 70
     0
 10
0.0
 20
0.0
 30
0.0
  3
DC_GROUP_W_MHR_LEG_010_59
  1

  0
LINE
  5
411
330
18A
100
AcDbEntity
  8
2
  6
PHANTOM
 62
   140
370
    13
100
AcDbLine
 10
819.9578608760486
 20
232.9740213293103
 30
0.0
 11
819.9578608760486
 21
262.9740213293103
 31
0.0
  0
LINE
  5
412
330
18A
100
AcDbEntity
  8
2
  6
PHANTOM
 62
   140
370
    13
100
AcDbLine
 10
-40.0421391239517
 20
232.9740213293103
 30
0.0
 11
-40.0421391239517
 21
262.9740213293103
 31
0.0
  0
ENDBLK
  5
18C
330
18A
100
AcDbEntity
  8
0
100
AcDbBlockEnd
  0
BLOCK
  5
18E
330
18D
100
AcDbEntity
  8
0
100
AcDbBlockBegin
  2
DC_GROUP_W_MHR_LEG_010_60
 70
     0
 10
0.0
 20
0.0
 30
0.0
  3
DC_GROUP_W_MHR_LEG_010_60
  1

  0
LINE
  5
413
330
18D
100
AcDbEntity
  8
0
  6
PHANTOM
 62
   140
370
    13
100
AcDbLine
 10
869.9578608760485
 20
360.9740213293103
 30
0.0
 11
827.9578608760486
 21
360.9740213293103
 31
0.0
  0
LINE
  5
414
330
18D
100
AcDbEntity
  8
0
  6
PHANTOM
 62
   140
370
    13
100
AcDbLine
 10
819.9578608760486
 20
352.9740213293103
 30
0.0
 11
819.9578608760486
 21
233.9740213293103
 31
0.0
  0
LINE
  5
415
330
18D
100
AcDbEntity
  8
0
  6
PHANTOM
 62
   140
370
    13
100
AcDbLine
 10
827.9578608760486
 20
225.9740213293103
 30
0.0
 11
869.9578608760485
 21
225.9740213293103
 31
0.0
  0
LINE
  5
416
330
18D
100
AcDbEntity
  8
0
  6
PHANTOM
 62
   140
370
    13
100
AcDbLine
 10
869.9578608760485
 20
356.4740213293103
 30
0.0
 11
827.9578608760486
 21
356.4740213293103
 31
0.0
  0
LINE
  5
417
330
18D
100
AcDbEntity
  8
0
  6
PHANTOM
 62
   140
370
    13
100
AcDbLine
 10
824.4578608760486
 20
352.9740213293103
 30
0.0
 11
824.4578608760486
 21
233.9740213293103
 31
0.0
  0
LINE
  5
418
330
18D
100
AcDbEntity
  8
0
  6
PHANTOM
 62
   140
370
    13
100
AcDbLine
 10
827.9578608760486
 20
230.4740213293103
 30
0.0
 11
869.9578608760485
 21
230.4740213293103
 31
0.0
  0
LINE
  5
419
330
18D
100
AcDbEntity
  8
0
  6
PHANTOM
 62
   140
370
    13
100
AcDbLine
 10
869.9578608760485
 20
360.9740213293103
 30
0.0
 11
869.9578608760485
 21
356.4740213293103
 31
0.0
  0
LINE
  5
41A
330
18D
100
AcDbEntity
  8
0
  6
PHANTOM
 62
   140
370
    13
100
AcDbLine
 10
869.9578608760485
 20
225.9740213293103
 30
0.0
 11
869.9578608760485
 21
230.4740213293103
 31
0.0
  0
ARC
  5
41B
330
18D
100
AcDbEntity
  8
0
  6
PHANTOM
 62
   140
370
    13
100
AcDbCircle
 10
827.9578608760486
 20
352.9740213293103
 30
0.0
 40
8.0
100
AcDbArc
 50
90.0
 51
180.0
  0
ARC
  5
41C
330
18D
100
AcDbEntity
  8
0
  6
PHANTOM
 62
   140
370
    13
100
AcDbCircle
 10
827.9578608760486
 20
233.9740213293103
 30
0.0
 40
3.5
100
AcDbArc
 50
180.0
 51
270.0
  0
ARC
  5
41D
330
18D
100
AcDbEntity
  8
0
  6
PHANTOM
 62
   140
370
    13
100
AcDbCircle
 10
827.9578608760486
 20
352.9740213293103
 30
0.0
 40
3.5
100
AcDbArc
 50
90.0
 51
180.0
  0
ARC
  5
41E
330
18D
100
AcDbEntity
  8
0
  6
PHANTOM
 62
   140
370
    13
100
AcDbCircle
 10
827.9578608760486
 20
233.9740213293103
 30
0.0
 40
8.0
100
AcDbArc
 50
180.0
 51
270.0
  0
LINE
  5
41F
330
18D
100
AcDbEntity
  8
0
  6
PHANTOM
 62
   140
370
    13
100
AcDbLine
 10
844.9578608760504
 20
233.057152767266
 30
0.0
 11
844.9578608760504
 21
223.7415055480965
 31
0.0
  0
LINE
  5
420
330
18D
100
AcDbEntity
  8
0
  6
PHANTOM
 62
   140
370
    13
100
AcDbLine
 10
854.9578608760484
 20
364.4246022490156
 30
0.0
 11
854.9578608760484
 21
353.6250322420187
 31
0.0
  0
ENDBLK
  5
18F
330
18D
100
AcDbEntity
  8
0
100
AcDbBlockEnd
  0
BLOCK
  5
191
330
190
100
AcDbEntity
  8
0
100
AcDbBlockBegin
  2
DC_GROUP_W_MHR_LEG_010_61
 70
     0
 10
0.0
 20
0.0
 30
0.0
  3
DC_GROUP_W_MHR_LEG_010_61
  1

  0
INSERT
  5
421
330
190
100
AcDbEntity
  8
2
  6
Continuous
100
AcDbBlockReference
  2
DC_GROUP_W_MHR_LEG_010_62
 10
0.0
 20
0.0
 30
0.0
  0
INSERT
  5
422
330
190
100
AcDbEntity
  8
2
  6
Continuous
100
AcDbBlockReference
  2
DC_GROUP_W_MHR_LEG_010_63
 10
0.0
 20
0.0
 30
0.0
  0
ENDBLK
  5
192
330
190
100
AcDbEntity
  8
0
100
AcDbBlockEnd
  0
BLOCK
  5
194
330
193
100
AcDbEntity
  8
0
100
AcDbBlockBegin
  2
DC_GROUP_W_MHR_LEG_010_62
 70
     0
 10
0.0
 20
0.0
 30
0.0
  3
DC_GROUP_W_MHR_LEG_010_62
  1

  0
LINE
  5
423
330
193
100
AcDbEntity
  8
2
  6
PHANTOM
 62
   140
370
    13
100
AcDbLine
 10
-55.0421391239525
 20
354.1740213293119
 30
0.0
 11
-55.0421391239525
 21
364.1815433079798
 31
0.0
  0
ENDBLK
  5
195
330
193
100
AcDbEntity
  8
0
100
AcDbBlockEnd
  0
BLOCK
  5
197
330
196
100
AcDbEntity
  8
0
100
AcDbBlockBegin
  2
DC_GROUP_W_MHR_LEG_010_63
 70
     0
 10
0.0
 20
0.0
 30
0.0
  3
DC_GROUP_W_MHR_LEG_010_63
  1

  0
ARC
  5
424
330
196
100
AcDbEntity
  8
2
  6
PHANTOM
 62
   140
370
    13
100
AcDbCircle
 10
-40.04213912395261
 20
362.1740213293119
 30
0.0
 40
1.2
100
AcDbArc
 50
270.0
 51
0.0
  0
ARC
  5
425
330
196
100
AcDbEntity
  8
2
  6
PHANTOM
 62
   140
370
    13
100
AcDbCircle
 10
-38.84213912395188
 20
384.7740213293105
 30
0.0
 40
1.2
100
AcDbArc
 50
90.00000000000001
 51
180.0
  0
ARC
  5
426
330
196
100
AcDbEntity
  8
2
  6
PHANTOM
 62
   140
370
    13
100
AcDbCircle
 10
20.75785324296515
 20
384.7740213293123
 30
0.0
 40
1.2
100
AcDbArc
 50
0.000000000000007
 51
90.00000000000001
  0
LINE
  5
427
330
196
100
AcDbEntity
  8
2
  6
PHANTOM
 62
   140
370
    13
100
AcDbLine
 10
20.75783658473659
 20
371.7240213293107
 30
0.0
 11
21.95785324296588
 21
371.7240213293107
 31
0.0
  0
LINE
  5
428
330
196
100
AcDbEntity
  8
2
  6
PHANTOM
 62
   140
370
    13
100
AcDbLine
 10
20.75783658473659
 20
319.9740213293121
 30
0.0
 11
21.95785324296588
 21
319.9740213293121
 31
0.0
  0
LINE
  5
429
330
196
100
AcDbEntity
  8
2
  6
PHANTOM
 62
   140
370
    13
100
AcDbLine
 10
-62.54215978382859
 20
360.9694760625785
 30
0.0
 11
-62.54215978382859
 21
362.1694760625792
 31
0.0
  0
LINE
  5
42A
330
196
100
AcDbEntity
  8
2
  6
PHANTOM
 62
   140
370
    13
100
AcDbLine
 10
-62.54215978382859
 20
362.1694760625792
 30
0.0
 11
-40.04213912395261
 21
362.1740213293119
 31
0.0
  0
LINE
  5
42B
330
196
100
AcDbEntity
  8
2
  6
PHANTOM
 62
   140
370
    13
100
AcDbLine
 10
-62.54215978382859
 20
360.9694760625785
 30
0.0
 11
-40.04213912395261
 21
360.9740213293112
 31
0.0
  0
LINE
  5
42C
330
196
100
AcDbEntity
  8
2
  6
PHANTOM
 62
   140
370
    13
100
AcDbLine
 10
-38.84213912395188
 20
362.1740213293119
 30
0.0
 11
-38.84213912395188
 21
384.7740213293096
 31
0.0
  0
LINE
  5
42D
330
196
100
AcDbEntity
  8
2
  6
PHANTOM
 62
   140
370
    13
100
AcDbLine
 10
-40.04213912395261
 20
384.7740213293105
 30
0.0
 11
-40.04213912395261
 21
362.1740213293119
 31
0.0
  0
LINE
  5
42E
330
196
100
AcDbEntity
  8
2
  6
PHANTOM
 62
   140
370
    13
100
AcDbLine
 10
20.75785324296515
 20
385.9740213293112
 30
0.0
 11
-38.84213912395188
 21
385.9740213293094
 31
0.0
  0
LINE
  5
42F
330
196
100
AcDbEntity
  8
2
  6
PHANTOM
 62
   140
370
    13
100
AcDbLine
 10
-38.84213912395188
 20
384.7740213293096
 30
0.0
 11
20.75785324296515
 21
384.7740213293105
 31
0.0
  0
LINE
  5
430
330
196
100
AcDbEntity
  8
2
  6
PHANTOM
 62
   140
370
    13
100
AcDbLine
 10
20.75785324296515
 20
384.7740213293105
 30
0.0
 11
20.75783658473659
 21
319.9740213293121
 31
0.0
  0
LINE
  5
431
330
196
100
AcDbEntity
  8
2
  6
PHANTOM
 62
   140
370
    13
100
AcDbLine
 10
21.95785324296588
 20
319.9740213293121
 30
0.0
 11
21.95785324296588
 21
384.7740213293123
 31
0.0
  0
ENDBLK
  5
198
330
196
100
AcDbEntity
  8
0
100
AcDbBlockEnd
  0
BLOCK
  5
19A
330
199
100
AcDbEntity
  8
0
100
AcDbBlockBegin
  2
DC_GROUP_W_MHR_LEG_010_64
 70
     0
 10
0.0
 20
0.0
 30
0.0
  3
DC_GROUP_W_MHR_LEG_010_64
  1

  0
INSERT
  5
432
330
199
100
AcDbEntity
  8
0
  6
Continuous
100
AcDbBlockReference
  2
DC_GROUP_W_MHR_LEG_010_65
 10
0.0
 20
0.0
 30
0.0
  0
ENDBLK
  5
19B
330
199
100
AcDbEntity
  8
0
100
AcDbBlockEnd
  0
BLOCK
  5
19D
330
19C
100
AcDbEntity
  8
0
100
AcDbBlockBegin
  2
DC_GROUP_W_MHR_LEG_010_65
 70
     0
 10
0.0
 20
0.0
 30
0.0
  3
DC_GROUP_W_MHR_LEG_010_65
  1

  0
INSERT
  5
433
330
19C
100
AcDbEntity
  8
2
  6
Continuous
100
AcDbBlockReference
  2
DC_GROUP_W_MHR_LEG_010_66
 10
0.0
 20
0.0
 30
0.0
  0
ENDBLK
  5
19E
330
19C
100
AcDbEntity
  8
0
100
AcDbBlockEnd
  0
BLOCK
  5
1A0
330
19F
100
AcDbEntity
  8
0
100
AcDbBlockBegin
  2
DC_GROUP_W_MHR_LEG_010_66
 70
     0
 10
0.0
 20
0.0
 30
0.0
  3
DC_GROUP_W_MHR_LEG_010_66
  1

  0
LINE
  5
434
330
19F
100
AcDbEntity
  8
2
  6
PHANTOM
 62
   140
370
    13
100
AcDbLine
 10
21.95785324296588
 20
264.6740213293101
 30
0.0
 11
21.95785324296588
 21
318.4740213293103
 31
0.0
  0
LINE
  5
435
330
19F
100
AcDbEntity
  8
2
  6
PHANTOM
 62
   140
370
    13
100
AcDbLine
 10
20.75785324296515
 20
264.6740213293119
 30
0.0
 11
20.75785324296515
 21
318.4740213293103
 31
0.0
  0
LINE
  5
436
330
19F
100
AcDbEntity
  8
2
  6
PHANTOM
 62
   140
370
    13
100
AcDbLine
 10
20.75785324296515
 20
318.4740213293103
 30
0.0
 11
21.95785324296588
 21
318.4740213293103
 31
0.0
  0
ARC
  5
437
330
19F
100
AcDbEntity
  8
2
  6
PHANTOM
 62
   140
370
    13
100
AcDbCircle
 10
20.75785324296515
 20
264.6740213293101
 30
0.0
 40
1.2
100
AcDbArc
 50
270.0
 51
0.0000000000000509
  0
LINE
  5
438
330
19F
100
AcDbEntity
  8
2
  6
PHANTOM
 62
   140
370
    13
100
AcDbLine
 10
-40.04213912395261
 20
280.9740213293112
 30
0.0
 11
-38.84213912395188
 21
280.9740213293112
 31
0.0
  0
ARC
  5
439
330
19F
100
AcDbEntity
  8
2
  6
PHANTOM
 62
   140
370
    13
100
AcDbCircle
 10
-38.84213912395188
 20
264.6740213293119
 30
0.0
 40
1.2
100
AcDbArc
 50
180.0
 51
270.0
  0
LINE
  5
43A
330
19F
100
AcDbEntity
  8
2
  6
PHANTOM
 62
   140
370
    13
100
AcDbLine
 10
-38.84213912395188
 20
280.9740213293112
 30
0.0
 11
-38.84213912395188
 21
264.6740213293119
 31
0.0
  0
LINE
  5
43B
330
19F
100
AcDbEntity
  8
2
  6
PHANTOM
 62
   140
370
    13
100
AcDbLine
 10
-40.04213912395261
 20
280.9740213293112
 30
0.0
 11
-40.04213912395261
 21
264.6740213293119
 31
0.0
  0
LINE
  5
43C
330
19F
100
AcDbEntity
  8
2
  6
PHANTOM
 62
   140
370
    13
100
AcDbLine
 10
20.75785324296515
 20
264.6740213293119
 30
0.0
 11
1.957860876047391
 21
264.6740213293119
 31
0.0
  0
LINE
  5
43D
330
19F
100
AcDbEntity
  8
2
  6
PHANTOM
 62
   140
370
    13
100
AcDbLine
 10
1.957860876047391
 20
264.6740213293119
 30
0.0
 11
-38.84213912395188
 21
264.6740213293119
 31
0.0
  0
LINE
  5
43E
330
19F
100
AcDbEntity
  8
2
  6
PHANTOM
 62
   140
370
    13
100
AcDbLine
 10
-38.84213912395188
 20
263.4740213293112
 30
0.0
 11
1.957860876047391
 21
263.4740213293112
 31
0.0
  0
LINE
  5
43F
330
19F
100
AcDbEntity
  8
2
  6
PHANTOM
 62
   140
370
    13
100
AcDbLine
 10
1.957860876047391
 20
263.4740213293112
 30
0.0
 11
20.75785324296515
 21
263.4740213293112
 31
0.0
  0
ENDBLK
  5
1A1
330
19F
100
AcDbEntity
  8
0
100
AcDbBlockEnd
  0
BLOCK
  5
1A3
330
1A2
100
AcDbEntity
  8
0
100
AcDbBlockBegin
  2
DC_GROUP_W_MHR_LEG_010_67
 70
     0
 10
0.0
 20
0.0
 30
0.0
  3
DC_GROUP_W_MHR_LEG_010_67
  1

  0
LINE
  5
440
330
1A2
100
AcDbEntity
  8
2
  6
PHANTOM
 62
   140
370
    13
100
AcDbLine
 10
-47.5421391239517
 20
343.7936764173515
 30
0.0
 11
-54.40495821332485
 21
343.7936764173515
 31
0.0
  0
LINE
  5
441
330
1A2
100
AcDbEntity
  8
2
  6
PHANTOM
 62
   140
370
    13
100
AcDbLine
 10
-47.5421391239517
 20
338.3088488600503
 30
0.0
 11
-54.40495821332485
 21
338.3088488600503
 31
0.0
  0
LINE
  5
442
330
1A2
100
AcDbEntity
  8
2
  6
PHANTOM
 62
   140
370
    13
100
AcDbLine
 10
-47.5421391239517
 20
343.7936764173515
 30
0.0
 11
-47.5421391239517
 21
321.8543661881455
 31
0.0
  0
LINE
  5
443
330
1A2
100
AcDbEntity
  8
2
  6
PHANTOM
 62
   140
370
    13
100
AcDbLine
 10
-55.54213912395159
 20
341.0512626387014
 30
0.0
 11
-55.54213912395159
 21
324.5967799667966
 31
0.0
  0
LINE
  5
444
330
1A2
100
AcDbEntity
  8
2
  6
PHANTOM
 62
   140
370
    13
100
AcDbLine
 10
-47.5421391239517
 20
321.8543661881455
 30
0.0
 11
-54.40495821332485
 21
321.8543661881455
 31
0.0
  0
LINE
  5
445
330
1A2
100
AcDbEntity
  8
2
  6
PHANTOM
 62
   140
370
    13
100
AcDbLine
 10
-47.5421391239517
 20
327.3391937454477
 30
0.0
 11
-54.40495821332485
 21
327.3391937454477
 31
0.0
  0
ARC
  5
446
330
1A2
100
AcDbEntity
  8
2
  6
PHANTOM
 62
   140
370
    13
100
AcDbCircle
 10
-51.66676024867246
 20
341.0512626387014
 30
0.0
 40
3.875378875279244
100
AcDbArc
 50
134.955926762744
 51
225.044073237256
  0
ARC
  5
447
330
1A2
100
AcDbEntity
  8
2
  6
PHANTOM
 62
   140
370
    13
100
AcDbCircle
 10
-51.66676024867246
 20
324.5967799667966
 30
0.0
 40
3.875378875279244
100
AcDbArc
 50
134.955926762744
 51
225.044073237256
  0
ARC
  5
448
330
1A2
100
AcDbEntity
  8
2
  6
PHANTOM
 62
   140
370
    13
100
AcDbCircle
 10
-41.7463949887744
 20
332.824021302749
 30
0.0
 40
13.79574413517691
100
AcDbArc
 50
156.5734024913723
 51
203.4265975086278
  0
LINE
  5
449
330
1A2
100
AcDbEntity
  8
2
  6
PHANTOM
 62
   140
370
    13
100
AcDbLine
 10
-44.5421391239517
 20
322.074021302749
 30
0.0
 11
-47.5421391239517
 21
322.074021302749
 31
0.0
  0
LINE
  5
44A
330
1A2
100
AcDbEntity
  8
2
  6
PHANTOM
 62
   140
370
    13
100
AcDbLine
 10
-44.5421391239517
 20
343.574021302749
 30
0.0
 11
-44.5421391239517
 21
322.074021302749
 31
0.0
  0
LINE
  5
44B
330
1A2
100
AcDbEntity
  8
2
  6
PHANTOM
 62
   140
370
    13
100
AcDbLine
 10
-44.5421391239517
 20
343.574021302749
 30
0.0
 11
-47.5421391239517
 21
343.574021302749
 31
0.0
  0
LINE
  5
44C
330
1A2
100
AcDbEntity
  8
2
  6
PHANTOM
 62
   140
370
    13
100
AcDbLine
 10
-47.5421391239517
 20
332.824021302749
 30
0.0
 11
-44.5421391239517
 21
333.6278688800418
 31
0.0
  0
LINE
  5
44D
330
1A2
100
AcDbEntity
  8
2
  6
PHANTOM
 62
   140
370
    13
100
AcDbLine
 10
-47.5421391239517
 20
332.0201737254553
 30
0.0
 11
-44.5421391239517
 21
332.824021302749
 31
0.0
  0
LINE
  5
44E
330
1A2
100
AcDbEntity
  8
2
  6
PHANTOM
 62
   140
370
    13
100
AcDbLine
 10
-59.84213912395086
 20
332.824021302749
 30
0.0
 11
-37.84620176457069
 21
332.824021302749
 31
0.0
  0
ENDBLK
  5
1A4
330
1A2
100
AcDbEntity
  8
0
100
AcDbBlockEnd
  0
BLOCK
  5
1A6
330
1A5
100
AcDbEntity
  8
0
100
AcDbBlockBegin
  2
DC_GROUP_W_MHR_LEG_010_68
 70
     0
 10
0.0
 20
0.0
 30
0.0
  3
DC_GROUP_W_MHR_LEG_010_68
  1

  0
LINE
  5
44F
330
1A5
100
AcDbEntity
  8
2
  6
PHANTOM
 62
   140
370
    13
100
AcDbLine
 10
827.4578608760486
 20
343.7936764614019
 30
0.0
 11
834.3206799654218
 21
343.7936764614019
 31
0.0
  0
LINE
  5
450
330
1A5
100
AcDbEntity
  8
2
  6
PHANTOM
 62
   140
370
    13
100
AcDbLine
 10
827.4578608760486
 20
338.3088489041006
 30
0.0
 11
834.3206799654218
 21
338.3088489041006
 31
0.0
  0
LINE
  5
451
330
1A5
100
AcDbEntity
  8
2
  6
PHANTOM
 62
   140
370
    13
100
AcDbLine
 10
827.4578608760486
 20
343.7936764614019
 30
0.0
 11
827.4578608760486
 21
321.8543662321958
 31
0.0
  0
LINE
  5
452
330
1A5
100
AcDbEntity
  8
2
  6
PHANTOM
 62
   140
370
    13
100
AcDbLine
 10
835.4578608760486
 20
341.0512626827517
 30
0.0
 11
835.4578608760486
 21
324.5967800108469
 31
0.0
  0
LINE
  5
453
330
1A5
100
AcDbEntity
  8
2
  6
PHANTOM
 62
   140
370
    13
100
AcDbLine
 10
827.4578608760486
 20
321.8543662321958
 30
0.0
 11
834.3206799654218
 21
321.8543662321958
 31
0.0
  0
LINE
  5
454
330
1A5
100
AcDbEntity
  8
2
  6
PHANTOM
 62
   140
370
    13
100
AcDbLine
 10
827.4578608760486
 20
327.339193789498
 30
0.0
 11
834.3206799654218
 21
327.339193789498
 31
0.0
  0
ARC
  5
455
330
1A5
100
AcDbEntity
  8
2
  6
PHANTOM
 62
   140
370
    13
100
AcDbCircle
 10
831.5824820007693
 20
341.0512626827517
 30
0.0
 40
3.875378875279244
100
AcDbArc
 50
314.955926762744
 51
45.04407323725599
  0
ARC
  5
456
330
1A5
100
AcDbEntity
  8
2
  6
PHANTOM
 62
   140
370
    13
100
AcDbCircle
 10
831.5824820007693
 20
324.5967800108469
 30
0.0
 40
3.875378875279244
100
AcDbArc
 50
314.955926762744
 51
45.04407323725599
  0
ARC
  5
457
330
1A5
100
AcDbEntity
  8
2
  6
PHANTOM
 62
   140
370
    13
100
AcDbCircle
 10
821.6621167408713
 20
332.8240213467993
 30
0.0
 40
13.79574413517691
100
AcDbArc
 50
336.5734024913722
 51
23.42659750862776
  0
LINE
  5
458
330
1A5
100
AcDbEntity
  8
2
  6
PHANTOM
 62
   140
370
    13
100
AcDbLine
 10
824.4578608760486
 20
322.0740213467993
 30
0.0
 11
827.4578608760486
 21
322.0740213467993
 31
0.0
  0
LINE
  5
459
330
1A5
100
AcDbEntity
  8
2
  6
PHANTOM
 62
   140
370
    13
100
AcDbLine
 10
824.4578608760486
 20
343.5740213467993
 30
0.0
 11
824.4578608760486
 21
322.0740213467993
 31
0.0
  0
LINE
  5
45A
330
1A5
100
AcDbEntity
  8
2
  6
PHANTOM
 62
   140
370
    13
100
AcDbLine
 10
824.4578608760486
 20
343.5740213467993
 30
0.0
 11
827.4578608760486
 21
343.5740213467993
 31
0.0
  0
LINE
  5
45B
330
1A5
100
AcDbEntity
  8
2
  6
PHANTOM
 62
   140
370
    13
100
AcDbLine
 10
827.4578608760486
 20
332.8240213467993
 30
0.0
 11
824.4578608760486
 21
333.6278689240921
 31
0.0
  0
LINE
  5
45C
330
1A5
100
AcDbEntity
  8
2
  6
PHANTOM
 62
   140
370
    13
100
AcDbLine
 10
827.4578608760486
 20
332.0201737695056
 30
0.0
 11
824.4578608760486
 21
332.8240213467993
 31
0.0
  0
LINE
  5
45D
330
1A5
100
AcDbEntity
  8
2
  6
PHANTOM
 62
   140
370
    13
100
AcDbLine
 10
839.7578608760479
 20
332.8240213467993
 30
0.0
 11
798.1578608760483
 21
332.8240213467993
 31
0.0
  0
ENDBLK
  5
1A7
330
1A5
100
AcDbEntity
  8
0
100
AcDbBlockEnd
  0
BLOCK
  5
1A9
330
1A8
100
AcDbEntity
  8
0
100
AcDbBlockBegin
  2
*D82
 70
     1
 10
0.0
 20
0.0
 30
0.0
  3
*D82
  1

  0
LINE
  5
45E
330
1A8
100
AcDbEntity
  8
0
  6
Continuous
 62
     2
370
    13
100
AcDbLine
 10
55.58805548006995
 20
-129.0253073353392
 30
0.0
 11
55.58805548006995
 21
-9.025307335339079
 31
0.0
  0
INSERT
  5
45F
330
1A8
100
AcDbEntity
  8
0
 62
     2
100
AcDbBlockReference
  2
_Open30
 10
55.58805548006995
 20
-129.0253073353392
 30
0.0
 41
15.00001403807643
 42
14.99994684111822
 50
270.0
  0
INSERT
  5
460
330
1A8
100
AcDbEntity
  8
0
 62
     2
100
AcDbBlockReference
  2
_Open30
 10
55.58805548006995
 20
-9.025307335339079
 30
0.0
 41
15.00001403807643
 42
14.99994684111822
 50
90.0
  0
LINE
  5
461
330
1A8
100
AcDbEntity
  8
0
  6
Continuous
 62
     2
370
    13
100
AcDbLine
 10
-17.15007833007546
 20
-129.0253073353392
 30
0.0
 11
60.58805548006995
 21
-129.0253073353392
 31
0.0
  0
LINE
  5
462
330
1A8
100
AcDbEntity
  8
0
  6
Continuous
 62
     2
370
    13
100
AcDbLine
 10
-30.04213912395113
 20
-9.025307335339079
 30
0.0
 11
60.58805548006995
 21
-9.025307335339079
 31
0.0
  0
TEXT
  5
463
330
1A8
100
AcDbEntity
  8
0
 62
     2
100
AcDbText
 10
50.58805548006995
 20
-99.02530733533914
 30
0.0
 40
20.0
  1
120
 50
90.0
 41
0.6874999999999999
  7
dcStyle0
 72
     5
 11
50.58805548006995
 21
-69.02530733533914
 31
0.0
100
AcDbText
  0
ENDBLK
  5
1AA
330
1A8
100
AcDbEntity
  8
0
100
AcDbBlockEnd
  0
BLOCK
  5
1AC
330
1AB
100
AcDbEntity
  8
0
100
AcDbBlockBegin
  2
DC_GROUP_W_MHR_LEG_010_69
 70
     0
 10
0.0
 20
0.0
 30
0.0
  3
DC_GROUP_W_MHR_LEG_010_69
  1

  0
LINE
  5
464
330
1AB
100
AcDbEntity
  8
ZUWAKU
  6
Continuous
 62
     7
370
    13
100
AcDbLine
 10
-985.0
 20
-664.3596166976107
 30
0.0
 11
985.0
 21
-664.3596166976107
 31
0.0
  0
LINE
  5
465
330
1AB
100
AcDbEntity
  8
ZUWAKU
  6
Continuous
 62
     7
370
    13
100
AcDbLine
 10
984.999999999998
 20
675.6403833023893
 30
0.0
 11
-985.0
 21
675.6403833023893
 31
0.0
  0
LINE
  5
466
330
1AB
100
AcDbEntity
  8
ZUWAKU
  6
Continuous
 62
     7
370
    13
100
AcDbLine
 10
985.0
 20
-664.3596166976107
 30
0.0
 11
984.999999999998
 21
675.6403833023893
 31
0.0
  0
LINE
  5
467
330
1AB
100
AcDbEntity
  8
ZUWAKU
  6
Continuous
 62
     7
370
    13
100
AcDbLine
 10
-985.0
 20
675.6403833023893
 30
0.0
 11
-985.0
 21
-664.3596166976107
 31
0.0
  0
LINE
  5
468
330
1AB
100
AcDbEntity
  8
ZUWAKU
  6
Continuous
 62
     4
370
    13
100
AcDbLine
 10
-172.4999999999999
 20
-589.3596166976108
 30
0.0
 11
25.00000000000014
 21
-589.3596166976108
 31
0.0
  0
LINE
  5
469
330
1AB
100
AcDbEntity
  8
ZUWAKU
  6
Continuous
 62
     4
370
    13
100
AcDbLine
 10
-925.0
 20
-564.3596166976108
 30
0.0
 11
-925.0
 21
-664.3596166976107
 31
0.0
  0
LINE
  5
46A
330
1AB
100
AcDbEntity
  8
ZUWAKU
  6
Continuous
 62
     4
370
    13
100
AcDbLine
 10
-985.0
 20
-614.3596166976108
 30
0.0
 11
985.0
 21
-614.3596166976108
 31
0.0
  0
LINE
  5
46B
330
1AB
100
AcDbEntity
  8
ZUWAKU
  6
Continuous
 62
     4
370
    13
100
AcDbLine
 10
25.00000000000014
 20
-664.3596166976107
 30
0.0
 11
25.00000000000014
 21
-564.3596166976108
 31
0.0
  0
LINE
  5
46C
330
1AB
100
AcDbEntity
  8
ZUWAKU
  6
Continuous
 62
     4
370
    13
100
AcDbLine
 10
-172.4999999999999
 20
-664.3596166976107
 30
0.0
 11
-172.4999999999999
 21
-564.3596166976108
 31
0.0
  0
LINE
  5
46D
330
1AB
100
AcDbEntity
  8
ZUWAKU
  6
Continuous
 62
     4
370
    13
100
AcDbLine
 10
430.0
 20
-564.3596166976108
 30
0.0
 11
430.0
 21
-664.3596166976107
 31
0.0
  0
LINE
  5
46E
330
1AB
100
AcDbEntity
  8
ZUWAKU
  6
Continuous
 62
     4
370
    13
100
AcDbLine
 10
150.0000000000001
 20
-564.3596166976108
 30
0.0
 11
150.0000000000001
 21
-664.3596166976107
 31
0.0
  0
LINE
  5
46F
330
1AB
100
AcDbEntity
  8
ZUWAKU
  6
Continuous
 62
     4
370
    13
100
AcDbLine
 10
-132.4999999999999
 20
-614.3596166976108
 30
0.0
 11
-132.4999999999999
 21
-664.3596166976107
 31
0.0
  0
LINE
  5
470
330
1AB
100
AcDbEntity
  8
ZUWAKU
  6
Continuous
 62
     4
370
    13
100
AcDbLine
 10
-655.0
 20
-564.3596166976108
 30
0.0
 11
-655.0
 21
-664.3596166976107
 31
0.0
  0
LINE
  5
471
330
1AB
100
AcDbEntity
  8
ZUWAKU
  6
Continuous
 62
     4
370
    13
100
AcDbLine
 10
985.0
 20
-564.3596166976108
 30
0.0
 11
-985.0
 21
-564.3596166976108
 31
0.0
  0
LINE
  5
472
330
1AB
100
AcDbEntity
  8
ZUWAKU
  6
Continuous
 62
     4
370
    13
100
AcDbLine
 10
490.0
 20
-564.3596166976108
 30
0.0
 11
490.0
 21
-664.3596166976107
 31
0.0
  0
LINE
  5
473
330
1AB
100
AcDbEntity
  8
ZUWAKU
  6
Continuous
 62
     3
370
    13
100
AcDbLine
 10
-937.5
 20
-601.8596166976108
 30
0.0
 11
-955.0
 21
-569.3596166976108
 31
0.0
  0
LINE
  5
474
330
1AB
100
AcDbEntity
  8
ZUWAKU
  6
Continuous
 62
     3
370
    13
100
AcDbLine
 10
-972.5
 20
-601.8596166976108
 30
0.0
 11
-937.5
 21
-601.8596166976108
 31
0.0
  0
LINE
  5
475
330
1AB
100
AcDbEntity
  8
ZUWAKU
  6
Continuous
 62
     3
370
    13
100
AcDbLine
 10
-955.0
 20
-569.3596166976108
 30
0.0
 11
-972.5
 21
-601.8596166976108
 31
0.0
  0
TEXT
  5
477
330
1AB
100
AcDbEntity
  8
ZUWAKU
 62
     2
100
AcDbText
 10
439.0
 20
-659.3596166976107
 30
0.0
 40
17.49999999999999
  1
番号
 41
1.527272727272728
  7
dcStyle1
 72
     5
 11
481.0
 21
-659.3596166976107
 31
0.0
100
AcDbText
  0
TEXT
  5
478
330
1AB
100
AcDbEntity
  8
ZUWAKU
 62
     2
100
AcDbText
 10
-162.9999999999999
 20
-659.3596166976107
 30
0.0
 40
17.49999999999999
  1
度
 41
1.680000000000001
  7
dcStyle1
 72
     5
 11
-141.9999999999999
 21
-659.3596166976107
 31
0.0
100
AcDbText
  0
TEXT
  5
479
330
1AB
100
AcDbEntity
  8
ZUWAKU
 62
     2
100
AcDbText
 10
-974.1096098491414
 20
-659.3596166976107
 30
0.0
 40
17.5
  1
番号
 41
1.272727272727273
  7
dcStyle1
 72
     5
 11
-939.1096098491414
 21
-659.3596166976107
 31
0.0
100
AcDbText
  0
TEXT
  5
47A
330
1AB
100
AcDbEntity
  8
ZUWAKU
 62
     2
100
AcDbText
 10
42.50000000000014
 20
-599.3596166976108
 30
0.0
 40
20.0
  1
シリーズ名
 41
1.086206896551724
  7
dcStyle1
 72
     5
 11
132.5000000000001
 21
-599.3596166976108
 31
0.0
100
AcDbText
  0
TEXT
  5
47B
330
1AB
100
AcDbEntity
  8
ZUWAKU
 62
     2
100
AcDbText
 10
57.50000000000014
 20
-649.3596166976108
 30
0.0
 40
20.0
  1
機　種
 41
1.235294117647059
  7
dcStyle1
 72
     5
 11
117.5000000000001
 21
-649.3596166976108
 31
0.0
100
AcDbText
  0
TEXT
  5
47C
330
1AB
100
AcDbEntity
  8
ZUWAKU
 62
     2
100
AcDbText
 10
-972.5
 20
-636.8596166976108
 30
0.0
 40
17.5
  1
改訂
 41
1.272727272727273
  7
dcStyle1
 72
     5
 11
-937.5
 21
-636.8596166976108
 31
0.0
100
AcDbText
  0
TEXT
  5
47D
330
1AB
100
AcDbEntity
  8
ZUWAKU
 62
     2
100
AcDbText
 10
-872.25
 20
-648.1096166976108
 30
0.0
 40
17.49999999999999
  1
改　 訂　 記　 事
 41
1.061290322580646
  7
dcStyle1
 72
     5
 11
-707.75
 21
-648.1096166976108
 31
0.0
100
AcDbText
  0
TEXT
  5
47E
330
1AB
100
AcDbEntity
  8
ZUWAKU
 62
     2
100
AcDbText
 10
-162.9999999999999
 20
-636.8596166976108
 30
0.0
 40
17.49999999999999
  1
尺
 41
1.680000000000001
  7
dcStyle1
 72
     5
 11
-141.9999999999999
 21
-636.8596166976108
 31
0.0
100
AcDbText
  0
TEXT
  5
47F
330
1AB
100
AcDbEntity
  8
ZUWAKU
 62
     2
100
AcDbText
 10
-134.9999999999998
 20
-585.6096166976108
 30
0.0
 40
17.49999999999999
  1
年　　月　　日
 41
1.195121951219512
  7
dcStyle1
 72
     5
 11
-12.4999999999999
 21
-585.6096166976108
 31
0.0
100
AcDbText
  0
TEXT
  5
480
330
1AB
100
AcDbEntity
  8
ZUWAKU
 62
     2
100
AcDbText
 10
439.0
 20
-636.8596166976108
 30
0.0
 40
17.49999999999999
  1
図面
 41
1.527272727272728
  7
dcStyle1
 72
     5
 11
481.0
 21
-636.8596166976108
 31
0.0
100
AcDbText
  0
TEXT
  5
481
330
1AB
100
AcDbEntity
  8
ZUWAKU
 62
     2
100
AcDbText
 10
440.0
 20
-599.3596166976108
 30
0.0
 40
20.0
  1
図名
 41
1.272727272727273
  7
dcStyle1
 72
     5
 11
480.0
 21
-599.3596166976108
 31
0.0
100
AcDbText
  0
TEXT
  5
482
330
1AB
100
AcDbEntity
  8
ZUWAKU
 62
     7
100
AcDbText
 10
-513.7499999999999
 20
-601.8596166976108
 30
0.0
 40
25.0
  1
技術情報サービス
 41
1.191489361702128
  7
dcStyle1
 72
     5
 11
-313.7499999999999
 21
-601.8596166976108
 31
0.0
100
AcDbText
  0
TEXT
  5
483
330
1AB
100
AcDbEntity
  8
ZUWAKU
 62
     7
100
AcDbText
 10
-586.705882352941
 20
-649.3596166976108
 30
0.0
 40
20.0
  1
MARUYASU KIKAI CO.,LTD.
 41
0.8990281013395455
  7
dcStyle1
 72
     5
 11
-240.7941176470587
 21
-649.3596166976108
 31
0.0
100
AcDbText
  0
TEXT
  5
484
330
1AB
100
AcDbEntity
  8
ZUWAKU
 62
     4
100
AcDbText
 10
962.2827719618455
 20
-675.6403833023893
 30
0.0
 40
10.0
  1
A3
 41
1.2
  7
dcStyle1
 72
     5
 11
982.2827719618455
 21
-675.6403833023893
 31
0.0
100
AcDbText
  0
ENDBLK
  5
1AD
330
1AB
100
AcDbEntity
  8
0
100
AcDbBlockEnd
  0
BLOCK
  5
1AF
330
1AE
100
AcDbEntity
  8
0
100
AcDbBlockBegin
  2
DC_GROUP_W_MHR_LEG_010_70
 70
     0
 10
0.0
 20
0.0
 30
0.0
  3
DC_GROUP_W_MHR_LEG_010_70
  1

  0
POINT
  5
485
330
1AE
100
AcDbEntity
  8
ZUWAKU
  6
Continuous
 62
     2
100
AcDbPoint
 10
290.0000000000001
 20
-639.3596166976107
 30
0.0
  0
POINT
  5
486
330
1AE
100
AcDbEntity
  8
ZUWAKU
  6
Continuous
 62
     2
100
AcDbPoint
 10
970.0
 20
-639.3596166976107
 30
0.0
  0
POINT
  5
487
330
1AE
100
AcDbEntity
  8
ZUWAKU
  6
Continuous
 62
     2
100
AcDbPoint
 10
737.5
 20
-589.3596166976108
 30
0.0
  0
POINT
  5
488
330
1AE
100
AcDbEntity
  8
ZUWAKU
  6
Continuous
 62
     2
100
AcDbPoint
 10
-53.74999999999986
 20
-639.3596166976107
 30
0.0
  0
ENDBLK
  5
1B0
330
1AE
100
AcDbEntity
  8
0
100
AcDbBlockEnd
  0
BLOCK
  5
1B2
330
1B1
100
AcDbEntity
  8
0
100
AcDbBlockBegin
  2
DC_GROUP_W_MHR_LEG_010_71
 70
     0
 10
0.0
 20
0.0
 30
0.0
  3
DC_GROUP_W_MHR_LEG_010_71
  1

  0
LINE
  5
489
330
1B1
100
AcDbEntity
  8
0
  6
Continuous
 62
     2
370
    13
100
AcDbLine
 10
-55.54213912395136
 20
-129.0253073353393
 30
0.0
 11
-106.8954325239404
 21
-186.0081453156074
 31
0.0
  0
INSERT
  5
48A
330
1B1
100
AcDbEntity
  8
0
 62
     2
100
AcDbBlockReference
  2
_Open30
 10
-55.54213912395136
 20
-129.0253073353393
 30
0.0
 41
15.00001403807643
 42
14.99994684111822
 50
47.97462436587743
  0
LINE
  5
48B
330
1B1
100
AcDbEntity
  8
0
  6
Continuous
 62
     2
370
    13
100
AcDbLine
 10
-106.8954325239404
 20
-186.0081453156074
 30
0.0
 11
-295.8954325239404
 21
-186.0081453156074
 31
0.0
  0
TEXT
  5
48C
330
1B1
100
AcDbEntity
  8
0
 62
     2
100
AcDbText
 10
-295.8954325239404
 20
-181.0081453156074
 30
0.0
 40
14.0
  1
M16×100 アンカープレート付
 41
0.7462775811535695
  7
dcStyle0
 72
     5
 11
-106.8954325239404
 21
-181.0081453156074
 31
0.0
100
AcDbText
  0
TEXT
  5
48D
330
1B1
100
AcDbEntity
  8
0
 62
     2
100
AcDbText
 10
-295.8954325239404
 20
-162.0081453156074
 30
0.0
 40
14.0
  1
アジャストボルト
 41
0.8143584521384929
  7
dcStyle0
 72
     5
 11
-183.8954325239404
 21
-162.0081453156074
 31
0.0
100
AcDbText
  0
ENDBLK
  5
1B3
330
1B1
100
AcDbEntity
  8
0
100
AcDbBlockEnd
  0
BLOCK
  5
1B5
330
1B4
100
AcDbEntity
  8
0
100
AcDbBlockBegin
  2
DC_GROUP_W_MHR_LEG_010_72
 70
     0
 10
0.0
 20
0.0
 30
0.0
  3
DC_GROUP_W_MHR_LEG_010_72
  1

  0
TEXT
  5
48E
330
1B4
100
AcDbEntity
  8
0
 62
     2
100
AcDbText
 10
-845.8105367623712
 20
-182.1301687457345
 30
0.0
 40
24.0
  1
標準脚
 41
0.6875
  7
dcStyle0
 72
     5
 11
-773.8105367623712
 21
-182.1301687457345
 31
0.0
100
AcDbText
  0
LINE
  5
48F
330
1B4
100
AcDbEntity
  8
0
  6
Continuous
 62
     2
370
    13
100
AcDbLine
 10
-848.2105367623711
 20
-184.5301687457345
 30
0.0
 11
-771.4105367623712
 21
-184.5301687457345
 31
0.0
  0
ENDBLK
  5
1B6
330
1B4
100
AcDbEntity
  8
0
100
AcDbBlockEnd
  0
BLOCK
  5
1B8
330
1B7
100
AcDbEntity
  8
0
100
AcDbBlockBegin
  2
DC_GROUP_W_MHR_LEG_010_73
 70
     0
 10
0.0
 20
0.0
 30
0.0
  3
DC_GROUP_W_MHR_LEG_010_73
  1

  0
TEXT
  5
490
330
1B7
100
AcDbEntity
  8
0
 62
     2
100
AcDbText
 10
-613.0298154943356
 20
-182.1301687457345
 30
0.0
 40
24.0
  1
低機高脚
 41
0.6875
  7
dcStyle0
 72
     5
 11
-517.0298154943356
 21
-182.1301687457345
 31
0.0
100
AcDbText
  0
LINE
  5
491
330
1B7
100
AcDbEntity
  8
0
  6
Continuous
 62
     2
370
    13
100
AcDbLine
 10
-615.4298154943356
 20
-184.5301687457345
 30
0.0
 11
-514.6298154943356
 21
-184.5301687457345
 31
0.0
  0
ENDBLK
  5
1B9
330
1B7
100
AcDbEntity
  8
0
100
AcDbBlockEnd
  0
BLOCK
  5
1BB
330
1BA
100
AcDbEntity
  8
0
100
AcDbBlockBegin
  2
DC_GROUP_W_MHR_LEG_010_74
 70
     0
 10
0.0
 20
0.0
 30
0.0
  3
DC_GROUP_W_MHR_LEG_010_74
  1

  0
LINE
  5
492
330
1BA
100
AcDbEntity
  8
0
  6
Continuous
 62
     2
370
    13
100
AcDbLine
 10
-649.2342642590788
 20
173.7151230459828
 30
0.0
 11
-617.6631517627941
 21
85.81523648418171
 31
0.0
  0
INSERT
  5
493
330
1BA
100
AcDbEntity
  8
0
 62
     2
100
AcDbBlockReference
  2
_Open30
 10
-649.2342642590788
 20
173.7151230459828
 30
0.0
 41
15.00001403807643
 42
14.99994684111822
 50
109.7568294570014
  0
LINE
  5
494
330
1BA
100
AcDbEntity
  8
0
  6
Continuous
 62
     2
370
    13
100
AcDbLine
 10
-617.6631517627941
 20
85.81523648418171
 30
0.0
 11
-467.6631517627941
 21
85.81523648418171
 31
0.0
  0
TEXT
  5
495
330
1BA
100
AcDbEntity
  8
0
 62
     2
100
AcDbText
 10
-617.6631517627941
 20
90.81523648418171
 30
0.0
 40
20.0
  1
H=410未満の場合
 41
0.6748751012692411
  7
dcStyle0
 72
     5
 11
-467.6631517627941
 21
90.81523648418171
 31
0.0
100
AcDbText
  0
ENDBLK
  5
1BC
330
1BA
100
AcDbEntity
  8
0
100
AcDbBlockEnd
  0
BLOCK
  5
1BE
330
1BD
100
AcDbEntity
  8
0
100
AcDbBlockBegin
  2
DC_GROUP_W_MHR_LEG_010_75
 70
     0
 10
0.0
 20
0.0
 30
0.0
  3
DC_GROUP_W_MHR_LEG_010_75
  1

  0
LINE
  5
496
330
1BD
100
AcDbEntity
  8
0
  6
Continuous
 62
     2
370
    13
100
AcDbLine
 10
-758.9573629206216
 20
90.05511177983854
 30
0.0
 11
-722.1943539794365
 21
5.811244457244818
 31
0.0
  0
INSERT
  5
497
330
1BD
100
AcDbEntity
  8
0
 62
     2
100
AcDbBlockReference
  2
_Open30
 10
-758.9573629206216
 20
90.05511177983854
 30
0.0
 41
15.00001403807643
 42
14.99994684111822
 50
113.5758766483475
  0
LINE
  5
498
330
1BD
100
AcDbEntity
  8
0
  6
Continuous
 62
     2
370
    13
100
AcDbLine
 10
-722.1943539794365
 20
5.811244457244818
 30
0.0
 11
-572.1943539794365
 21
5.811244457244818
 31
0.0
  0
TEXT
  5
499
330
1BD
100
AcDbEntity
  8
0
 62
     2
100
AcDbText
 10
-722.1943539794365
 20
10.81124445724482
 30
0.0
 40
20.0
  1
H=410以上の場合
 41
0.6748751012692411
  7
dcStyle0
 72
     5
 11
-572.1943539794365
 21
10.81124445724482
 31
0.0
100
AcDbText
  0
ENDBLK
  5
1BF
330
1BD
100
AcDbEntity
  8
0
100
AcDbBlockEnd
  0
BLOCK
  5
1C1
330
1C0
100
AcDbEntity
  8
0
100
AcDbBlockBegin
  2
DC_GROUP_W_MHR_LEG_010_76
 70
     0
 10
0.0
 20
0.0
 30
0.0
  3
DC_GROUP_W_MHR_LEG_010_76
  1

  0
TEXT
  5
49A
330
1C0
100
AcDbEntity
  8
0
 62
     2
100
AcDbText
 10
107.7247191011675
 20
-435.1123595505617
 30
0.0
 40
20.0
  1
1400
 41
0.5500000000000002
  7
dcStyle0
 72
     5
 11
139.7247191011675
 21
-435.1123595505617
 31
0.0
100
AcDbText
  0
TEXT
  5
49B
330
1C0
100
AcDbEntity
  8
0
 62
     2
100
AcDbText
 10
107.7247191011675
 20
-393.1123595505617
 30
0.0
 40
20.0
  1
1300
 41
0.5500000000000002
  7
dcStyle0
 72
     5
 11
139.7247191011675
 21
-393.1123595505617
 31
0.0
100
AcDbText
  0
TEXT
  5
49C
330
1C0
100
AcDbEntity
  8
0
 62
     2
100
AcDbText
 10
107.7247191011675
 20
-365.1123595505617
 30
0.0
 40
20.0
  1
1200
 41
0.5500000000000002
  7
dcStyle0
 72
     5
 11
139.7247191011675
 21
-365.1123595505617
 31
0.0
100
AcDbText
  0
TEXT
  5
49D
330
1C0
100
AcDbEntity
  8
0
 62
     2
100
AcDbText
 10
107.7247191011675
 20
-337.1123595505617
 30
0.0
 40
20.0
  1
1100
 41
0.5500000000000002
  7
dcStyle0
 72
     5
 11
139.7247191011675
 21
-337.1123595505617
 31
0.0
100
AcDbText
  0
TEXT
  5
49E
330
1C0
100
AcDbEntity
  8
0
 62
     2
100
AcDbText
 10
93.7247191011237
 20
-281.1123595505617
 30
0.0
 40
20.0
  1
呼び幅
 41
0.6966027874564459
  7
dcStyle0
 72
     5
 11
153.7247191011237
 21
-281.1123595505617
 31
0.0
100
AcDbText
  0
TEXT
  5
49F
330
1C0
100
AcDbEntity
  8
0
 62
     2
100
AcDbText
 10
107.7247191011675
 20
-309.1123595505617
 30
0.0
 40
20.0
  1
1000
 41
0.5500000000000002
  7
dcStyle0
 72
     5
 11
139.7247191011675
 21
-309.1123595505617
 31
0.0
100
AcDbText
  0
TEXT
  5
4A0
330
1C0
100
AcDbEntity
  8
0
 62
     2
100
AcDbText
 10
285.5855575894548
 20
-337.3032598983003
 30
0.0
 40
20.0
  1
1160
 41
0.5499999999999999
  7
dcStyle0
 72
     5
 11
317.5855575894548
 21
-337.3032598983003
 31
0.0
100
AcDbText
  0
TEXT
  5
4A1
330
1C0
100
AcDbEntity
  8
0
 62
     2
100
AcDbText
 10
285.5855575894548
 20
-309.3032598983003
 30
0.0
 40
20.0
  1
1060
 41
0.5499999999999999
  7
dcStyle0
 72
     5
 11
317.5855575894548
 21
-309.3032598983003
 31
0.0
100
AcDbText
  0
TEXT
  5
4A2
330
1C0
100
AcDbEntity
  8
0
 62
     2
100
AcDbText
 10
283.7247191011236
 20
-281.1123595505617
 30
0.0
 40
20.0
  1
機幅
 41
0.6874999999999999
  7
dcStyle0
 72
     5
 11
323.7247191011236
 21
-281.1123595505617
 31
0.0
100
AcDbText
  0
TEXT
  5
4A3
330
1C0
100
AcDbEntity
  8
0
 62
     2
100
AcDbText
 10
285.5855575894548
 20
-365.3032598983003
 30
0.0
 40
20.0
  1
1260
 41
0.5499999999999999
  7
dcStyle0
 72
     5
 11
317.5855575894548
 21
-365.3032598983003
 31
0.0
100
AcDbText
  0
TEXT
  5
4A4
330
1C0
100
AcDbEntity
  8
0
 62
     2
100
AcDbText
 10
285.5855575894548
 20
-393.3032598983003
 30
0.0
 40
20.0
  1
1360
 41
0.5499999999999999
  7
dcStyle0
 72
     5
 11
317.5855575894548
 21
-393.3032598983003
 31
0.0
100
AcDbText
  0
TEXT
  5
4A5
330
1C0
100
AcDbEntity
  8
0
 62
     2
100
AcDbText
 10
285.5855575894548
 20
-435.3032598983003
 30
0.0
 40
20.0
  1
1460
 41
0.5499999999999999
  7
dcStyle0
 72
     5
 11
317.5855575894548
 21
-435.3032598983003
 31
0.0
100
AcDbText
  0
TEXT
  5
4A6
330
1C0
100
AcDbEntity
  8
0
 62
     2
100
AcDbText
 10
202.3855575894986
 20
-337.3032598983003
 30
0.0
 40
20.0
  1
900
 41
0.5499999999999999
  7
dcStyle0
 72
     5
 11
226.3855575894986
 21
-337.3032598983003
 31
0.0
100
AcDbText
  0
TEXT
  5
4A7
330
1C0
100
AcDbEntity
  8
0
 62
     2
100
AcDbText
 10
202.3855575894986
 20
-309.3032598983003
 30
0.0
 40
20.0
  1
800
 41
0.5499999999999999
  7
dcStyle0
 72
     5
 11
226.3855575894986
 21
-309.3032598983003
 31
0.0
100
AcDbText
  0
TEXT
  5
4A8
330
1C0
100
AcDbEntity
  8
0
 62
     2
100
AcDbText
 10
171.7247191011236
 20
-281.1123595505617
 30
0.0
 40
20.0
  1
適用パレット幅
 41
0.4631467181467181
  7
dcStyle0
 72
     5
 11
255.7247191011236
 21
-281.1123595505617
 31
0.0
100
AcDbText
  0
TEXT
  5
4A9
330
1C0
100
AcDbEntity
  8
0
 62
     2
100
AcDbText
 10
195.5855575894548
 20
-365.3032598983003
 30
0.0
 40
20.0
  1
1000
 41
0.5499999999999999
  7
dcStyle0
 72
     5
 11
227.5855575894548
 21
-365.3032598983003
 31
0.0
100
AcDbText
  0
TEXT
  5
4AA
330
1C0
100
AcDbEntity
  8
0
 62
     2
100
AcDbText
 10
195.5855575894548
 20
-393.3032598983003
 30
0.0
 40
20.0
  1
1100
 41
0.5499999999999999
  7
dcStyle0
 72
     5
 11
227.5855575894548
 21
-393.3032598983003
 31
0.0
100
AcDbText
  0
TEXT
  5
4AB
330
1C0
100
AcDbEntity
  8
0
 62
     2
100
AcDbText
 10
195.5855575894548
 20
-449.3032598983003
 30
0.0
 40
20.0
  1
1200
 41
0.5499999999999999
  7
dcStyle0
 72
     5
 11
227.5855575894548
 21
-449.3032598983003
 31
0.0
100
AcDbText
  0
TEXT
  5
4AC
330
1C0
100
AcDbEntity
  8
0
 62
     2
100
AcDbText
 10
195.5855575894548
 20
-421.3032598983003
 30
0.0
 40
20.0
  1
1130
 41
0.5499999999999999
  7
dcStyle0
 72
     5
 11
227.5855575894548
 21
-421.3032598983003
 31
0.0
100
AcDbText
  0
TEXT
  5
4AD
330
1C0
100
AcDbEntity
  8
0
 62
     2
100
AcDbText
 10
107.7247191011675
 20
-477.1123595505618
 30
0.0
 40
20.0
  1
1500
 41
0.5500000000000002
  7
dcStyle0
 72
     5
 11
139.7247191011675
 21
-477.1123595505618
 31
0.0
100
AcDbText
  0
TEXT
  5
4AE
330
1C0
100
AcDbEntity
  8
0
 62
     2
100
AcDbText
 10
285.5855575894548
 20
-477.3032598983004
 30
0.0
 40
20.0
  1
1560
 41
0.5499999999999999
  7
dcStyle0
 72
     5
 11
317.5855575894548
 21
-477.3032598983004
 31
0.0
100
AcDbText
  0
TEXT
  5
4AF
330
1C0
100
AcDbEntity
  8
0
 62
     2
100
AcDbText
 10
195.5855575894548
 20
-477.3032598983004
 30
0.0
 40
20.0
  1
1300
 41
0.5499999999999999
  7
dcStyle0
 72
     5
 11
227.5855575894548
 21
-477.3032598983004
 31
0.0
100
AcDbText
  0
TEXT
  5
4B0
330
1C0
100
AcDbEntity
  8
0
 62
     2
100
AcDbText
 10
107.7247191011675
 20
-533.1123595505615
 30
0.0
 40
20.0
  1
1700
 41
0.5500000000000002
  7
dcStyle0
 72
     5
 11
139.7247191011675
 21
-533.1123595505615
 31
0.0
100
AcDbText
  0
TEXT
  5
4B1
330
1C0
100
AcDbEntity
  8
0
 62
     2
100
AcDbText
 10
285.5855575894548
 20
-533.3032598983
 30
0.0
 40
20.0
  1
1760
 41
0.5499999999999999
  7
dcStyle0
 72
     5
 11
317.5855575894548
 21
-533.3032598983
 31
0.0
100
AcDbText
  0
TEXT
  5
4B2
330
1C0
100
AcDbEntity
  8
0
 62
     2
100
AcDbText
 10
195.5855575894548
 20
-533.3032598983
 30
0.0
 40
20.0
  1
1440
 41
0.5499999999999999
  7
dcStyle0
 72
     5
 11
227.5855575894548
 21
-533.3032598983
 31
0.0
100
AcDbText
  0
TEXT
  5
4B3
330
1C0
100
AcDbEntity
  8
0
 62
     2
100
AcDbText
 10
107.7247191011675
 20
-505.1123595505618
 30
0.0
 40
20.0
  1
1600
 41
0.5500000000000002
  7
dcStyle0
 72
     5
 11
139.7247191011675
 21
-505.1123595505618
 31
0.0
100
AcDbText
  0
TEXT
  5
4B4
330
1C0
100
AcDbEntity
  8
0
 62
     2
100
AcDbText
 10
285.5855575894548
 20
-505.3032598983004
 30
0.0
 40
20.0
  1
1660
 41
0.5499999999999999
  7
dcStyle0
 72
     5
 11
317.5855575894548
 21
-505.3032598983004
 31
0.0
100
AcDbText
  0
TEXT
  5
4B5
330
1C0
100
AcDbEntity
  8
0
 62
     2
100
AcDbText
 10
195.5855575894548
 20
-505.3032598983004
 30
0.0
 40
20.0
  1
1400
 41
0.5499999999999999
  7
dcStyle0
 72
     5
 11
227.5855575894548
 21
-505.3032598983004
 31
0.0
100
AcDbText
  0
TEXT
  5
4B6
330
1C0
100
AcDbEntity
  8
0
 62
     2
100
AcDbText
 10
377.7247191011675
 20
-309.1123595505617
 30
0.0
 40
20.0
  1
1040
 41
0.5499999999999999
  7
dcStyle0
 72
     5
 11
409.7247191011675
 21
-309.1123595505617
 31
0.0
100
AcDbText
  0
TEXT
  5
4B7
330
1C0
100
AcDbEntity
  8
0
 62
     2
100
AcDbText
 10
383.7247191011236
 20
-281.1123595505617
 30
0.0
 40
20.0
  1
W1
 41
0.5535022148394241
  7
dcStyle0
 72
     5
 11
403.7247191011236
 21
-281.1123595505617
 31
0.0
100
AcDbText
  0
TEXT
  5
4B8
330
1C0
100
AcDbEntity
  8
0
 62
     2
100
AcDbText
 10
472.3855575894986
 20
-309.3032598983003
 30
0.0
 40
20.0
  1
950
 41
0.5499999999999999
  7
dcStyle0
 72
     5
 11
496.3855575894986
 21
-309.3032598983003
 31
0.0
100
AcDbText
  0
TEXT
  5
4B9
330
1C0
100
AcDbEntity
  8
0
 62
     2
100
AcDbText
 10
473.7247191011236
 20
-281.1123595505617
 30
0.0
 40
20.0
  1
W3
 41
0.5535022148394241
  7
dcStyle0
 72
     5
 11
493.7247191011236
 21
-281.1123595505617
 31
0.0
100
AcDbText
  0
TEXT
  5
4BA
330
1C0
100
AcDbEntity
  8
0
 62
     2
100
AcDbText
 10
377.7247191011675
 20
-337.1123595505617
 30
0.0
 40
20.0
  1
1140
 41
0.5499999999999999
  7
dcStyle0
 72
     5
 11
409.7247191011675
 21
-337.1123595505617
 31
0.0
100
AcDbText
  0
TEXT
  5
4BB
330
1C0
100
AcDbEntity
  8
0
 62
     2
100
AcDbText
 10
465.5855575894548
 20
-337.3032598983003
 30
0.0
 40
20.0
  1
1050
 41
0.5499999999999999
  7
dcStyle0
 72
     5
 11
497.5855575894548
 21
-337.3032598983003
 31
0.0
100
AcDbText
  0
TEXT
  5
4BC
330
1C0
100
AcDbEntity
  8
0
 62
     2
100
AcDbText
 10
377.7247191011675
 20
-365.1123595505617
 30
0.0
 40
20.0
  1
1240
 41
0.5499999999999999
  7
dcStyle0
 72
     5
 11
409.7247191011675
 21
-365.1123595505617
 31
0.0
100
AcDbText
  0
TEXT
  5
4BD
330
1C0
100
AcDbEntity
  8
0
 62
     2
100
AcDbText
 10
465.5855575894548
 20
-365.3032598983003
 30
0.0
 40
20.0
  1
1150
 41
0.5499999999999999
  7
dcStyle0
 72
     5
 11
497.5855575894548
 21
-365.3032598983003
 31
0.0
100
AcDbText
  0
TEXT
  5
4BE
330
1C0
100
AcDbEntity
  8
0
 62
     2
100
AcDbText
 10
377.7247191011675
 20
-393.1123595505617
 30
0.0
 40
20.0
  1
1340
 41
0.5499999999999999
  7
dcStyle0
 72
     5
 11
409.7247191011675
 21
-393.1123595505617
 31
0.0
100
AcDbText
  0
TEXT
  5
4BF
330
1C0
100
AcDbEntity
  8
0
 62
     2
100
AcDbText
 10
465.5855575894548
 20
-393.3032598983003
 30
0.0
 40
20.0
  1
1250
 41
0.5499999999999999
  7
dcStyle0
 72
     5
 11
497.5855575894548
 21
-393.3032598983003
 31
0.0
100
AcDbText
  0
TEXT
  5
4C0
330
1C0
100
AcDbEntity
  8
0
 62
     2
100
AcDbText
 10
377.7247191011675
 20
-435.1123595505618
 30
0.0
 40
20.0
  1
1440
 41
0.5499999999999999
  7
dcStyle0
 72
     5
 11
409.7247191011675
 21
-435.1123595505618
 31
0.0
100
AcDbText
  0
TEXT
  5
4C1
330
1C0
100
AcDbEntity
  8
0
 62
     2
100
AcDbText
 10
465.5855575894548
 20
-435.3032598983004
 30
0.0
 40
20.0
  1
1350
 41
0.5499999999999999
  7
dcStyle0
 72
     5
 11
497.5855575894548
 21
-435.3032598983004
 31
0.0
100
AcDbText
  0
TEXT
  5
4C2
330
1C0
100
AcDbEntity
  8
0
 62
     2
100
AcDbText
 10
377.7247191011675
 20
-477.1123595505618
 30
0.0
 40
20.0
  1
1540
 41
0.5499999999999999
  7
dcStyle0
 72
     5
 11
409.7247191011675
 21
-477.1123595505618
 31
0.0
100
AcDbText
  0
TEXT
  5
4C3
330
1C0
100
AcDbEntity
  8
0
 62
     2
100
AcDbText
 10
465.5855575894548
 20
-477.3032598983004
 30
0.0
 40
20.0
  1
1450
 41
0.5499999999999999
  7
dcStyle0
 72
     5
 11
497.5855575894548
 21
-477.3032598983004
 31
0.0
100
AcDbText
  0
TEXT
  5
4C4
330
1C0
100
AcDbEntity
  8
0
 62
     2
100
AcDbText
 10
377.7247191011675
 20
-505.1123595505618
 30
0.0
 40
20.0
  1
1640
 41
0.5499999999999999
  7
dcStyle0
 72
     5
 11
409.7247191011675
 21
-505.1123595505618
 31
0.0
100
AcDbText
  0
TEXT
  5
4C5
330
1C0
100
AcDbEntity
  8
0
 62
     2
100
AcDbText
 10
465.5855575894548
 20
-505.3032598983004
 30
0.0
 40
20.0
  1
1550
 41
0.5499999999999999
  7
dcStyle0
 72
     5
 11
497.5855575894548
 21
-505.3032598983004
 31
0.0
100
AcDbText
  0
TEXT
  5
4C6
330
1C0
100
AcDbEntity
  8
0
 62
     2
100
AcDbText
 10
377.7247191011675
 20
-533.1123595505615
 30
0.0
 40
20.0
  1
1740
 41
0.5499999999999999
  7
dcStyle0
 72
     5
 11
409.7247191011675
 21
-533.1123595505615
 31
0.0
100
AcDbText
  0
TEXT
  5
4C7
330
1C0
100
AcDbEntity
  8
0
 62
     2
100
AcDbText
 10
465.5855575894548
 20
-533.3032598983
 30
0.0
 40
20.0
  1
1650
 41
0.5499999999999999
  7
dcStyle0
 72
     5
 11
497.5855575894548
 21
-533.3032598983
 31
0.0
100
AcDbText
  0
LINE
  5
4C8
330
1C0
100
AcDbEntity
  8
0
  6
Continuous
 62
     3
370
    13
100
AcDbLine
 10
78.7247191011237
 20
-397.1123595505617
 30
0.0
 11
528.7247191011236
 21
-397.1123595505617
 31
0.0
  0
LINE
  5
4C9
330
1C0
100
AcDbEntity
  8
0
  6
Continuous
 62
     3
370
    13
100
AcDbLine
 10
78.7247191011237
 20
-369.1123595505617
 30
0.0
 11
528.7247191011236
 21
-369.1123595505617
 31
0.0
  0
LINE
  5
4CA
330
1C0
100
AcDbEntity
  8
0
  6
Continuous
 62
     3
370
    13
100
AcDbLine
 10
78.7247191011237
 20
-341.1123595505617
 30
0.0
 11
528.7247191011236
 21
-341.1123595505617
 31
0.0
  0
LINE
  5
4CB
330
1C0
100
AcDbEntity
  8
0
  6
Continuous
 62
     3
370
    13
100
AcDbLine
 10
78.7247191011237
 20
-313.1123595505617
 30
0.0
 11
528.7247191011236
 21
-313.1123595505617
 31
0.0
  0
LINE
  5
4CC
330
1C0
100
AcDbEntity
  8
0
  6
Continuous
 62
     3
370
    13
100
AcDbLine
 10
78.7247191011237
 20
-453.1123595505618
 30
0.0
 11
528.7247191011236
 21
-453.1123595505618
 31
0.0
  0
LINE
  5
4CD
330
1C0
100
AcDbEntity
  8
0
  6
Continuous
 62
     3
370
    13
100
AcDbLine
 10
78.7247191011237
 20
-481.1123595505618
 30
0.0
 11
528.7247191011236
 21
-481.1123595505618
 31
0.0
  0
LINE
  5
4CE
330
1C0
100
AcDbEntity
  8
0
  6
Continuous
 62
     3
370
    13
100
AcDbLine
 10
78.7247191011237
 20
-509.1123595505614
 30
0.0
 11
528.7247191011236
 21
-509.1123595505614
 31
0.0
  0
LINE
  5
4CF
330
1C0
100
AcDbEntity
  8
0
  6
Continuous
 62
     7
370
    13
100
AcDbLine
 10
78.7247191011237
 20
-285.1123595505617
 30
0.0
 11
528.7247191011236
 21
-285.1123595505617
 31
0.0
  0
LINE
  5
4D0
330
1C0
100
AcDbEntity
  8
0
  6
Continuous
 62
     7
370
    13
100
AcDbLine
 10
258.7247191011236
 20
-537.1123595505615
 30
0.0
 11
258.7247191011236
 21
-257.1123595505617
 31
0.0
  0
LINE
  5
4D1
330
1C0
100
AcDbEntity
  8
0
  6
Continuous
 62
     7
370
    13
100
AcDbLine
 10
78.7247191011237
 20
-257.1123595505617
 30
0.0
 11
78.7247191011237
 21
-537.1123595505615
 31
0.0
  0
LINE
  5
4D2
330
1C0
100
AcDbEntity
  8
0
  6
Continuous
 62
     7
370
    13
100
AcDbLine
 10
528.7247191011236
 20
-257.1123595505617
 30
0.0
 11
78.7247191011237
 21
-257.1123595505617
 31
0.0
  0
LINE
  5
4D3
330
1C0
100
AcDbEntity
  8
0
  6
Continuous
 62
     7
370
    13
100
AcDbLine
 10
438.7247191011236
 20
-537.1123595505615
 30
0.0
 11
438.7247191011236
 21
-257.1123595505617
 31
0.0
  0
LINE
  5
4D4
330
1C0
100
AcDbEntity
  8
0
  6
Continuous
 62
     7
370
    13
100
AcDbLine
 10
528.7247191011236
 20
-537.1123595505615
 30
0.0
 11
528.7247191011236
 21
-257.1123595505617
 31
0.0
  0
LINE
  5
4D5
330
1C0
100
AcDbEntity
  8
0
  6
Continuous
 62
     7
370
    13
100
AcDbLine
 10
348.7247191011236
 20
-537.1123595505615
 30
0.0
 11
348.7247191011236
 21
-257.1123595505617
 31
0.0
  0
LINE
  5
4D6
330
1C0
100
AcDbEntity
  8
0
  6
Continuous
 62
     7
370
    13
100
AcDbLine
 10
168.7247191011236
 20
-537.1123595505615
 30
0.0
 11
168.7247191011236
 21
-257.1123595505617
 31
0.0
  0
LINE
  5
4D7
330
1C0
100
AcDbEntity
  8
0
  6
Continuous
 62
     7
370
    13
100
AcDbLine
 10
78.7247191011237
 20
-537.1123595505615
 30
0.0
 11
528.7247191011236
 21
-537.1123595505615
 31
0.0
  0
ENDBLK
  5
1C2
330
1C0
100
AcDbEntity
  8
0
100
AcDbBlockEnd
  0
BLOCK
  5
1C5
330
1C4
100
AcDbEntity
  8
0
100
AcDbBlockBegin
  2
_Open30
 70
     0
 10
0.0
 20
0.0
 30
0.0
  3
_Open30
  1

  0
LINE
  5
1C7
330
1C4
100
AcDbEntity
  8
0
  6
ByBlock
 62
     0
370
    -2
100
AcDbLine
 10
-1.0
 20
0.267949
 30
0.0
 11
0.0
 21
0.0
 31
0.0
  0
LINE
  5
1C8
330
1C4
100
AcDbEntity
  8
0
  6
ByBlock
 62
     0
370
    -2
100
AcDbLine
 10
0.0
 20
0.0
 30
0.0
 11
-1.0
 21
-0.267949
 31
0.0
  0
LINE
  5
1C9
330
1C4
100
AcDbEntity
  8
0
  6
ByBlock
 62
     0
370
    -2
100
AcDbLine
 10
0.0
 20
0.0
 30
0.0
 11
-1.0
 21
0.0
 31
0.0
  0
ENDBLK
  5
1C6
330
1C4
100
AcDbEntity
  8
0
100
AcDbBlockEnd
  0
ENDSEC
  0
SECTION
  2
ENTITIES
  0
LINE
  5
4D8
330
1F
100
AcDbEntity
  8
0
  6
Continuous
 62
     3
370
    13
100
AcDbLine
 10
-149.8276851966216
 20
-129.0253073353392
 30
0.0
 11
933.8360618623864
 21
-129.0253073353392
 31
0.0
  0
LINE
  5
4D9
330
1F
100
AcDbEntity
  8
0
  6
Continuous
 62
     3
370
    13
100
AcDbLine
 10
-919.7831784393295
 20
-129.0253073353393
 30
0.0
 11
-431.1367207969204
 21
-129.0253073353393
 31
0.0
  0
DIMENSION
  5
4DA
330
1F
100
AcDbEntity
  8
0
  6
Continuous
370
    13
100
AcDbDimension
280
     0
  2
*D1
 10
869.9578608760477
 20
503.8356926548876
 30
0.0
 11
389.957860876048
 21
503.8356926548876
 31
0.0
 70
   160
  1
機幅
 71
     8
 42
-1.0
 73
     0
 74
     0
 75
     0
  3
dc_Rotated
100
AcDbAlignedDimension
 13
-90.04213912395159
 23
360.9740213293102
 33
0.0
 14
869.9578608760477
 24
360.9740213293102
 34
0.0
100
AcDbRotatedDimension
1001
ACAD
1000
DSTYLE
1002
{
1070
   144
1040
1.0
1070
   274
1070
     4
1070
    41
1040
15.00000953674316
1070
    79
1070
     2
1070
   343
1005
1C4
1070
   344
1005
1C4
1070
   176
1070
     2
1070
   177
1070
     2
1070
   178
1070
     4
1070
   271
1070
     2
1070
    44
1040
5.0
1070
    42
1040
5.0
1070
   147
1040
5.0
1070
   173
1070
     1
1070
    77
1070
     3
1070
    73
1070
     0
1070
   172
1070
     1
1070
    74
1070
     0
1070
   283
1070
     0
1070
   340
1005
1CE
1070
   140
1040
20.0
1070
   284
1070
     8
1070
   288
1070
     1
1070
    78
1070
     8
1070
    90
1070
     1
1002
}
  0
INSERT
  5
4DC
330
1F
100
AcDbEntity
  8
0
  6
Continuous
100
AcDbBlockReference
  2
DC_GROUP_W_MHR_LEG_010_1
 10
0.0
 20
0.0
 30
0.0
  0
DIMENSION
  5
4DD
330
1F
100
AcDbEntity
  8
0
  6
Continuous
370
    13
100
AcDbDimension
280
     0
  2
*D27
 10
-312.1651101012879
 20
370.9746926646606
 30
0.0
 11
-312.1651101012879
 21
120.9746926646607
 31
0.0
 70
   160
  1
機高 H±25　※1
 71
     8
 42
-1.0
 73
     0
 74
     0
 75
     0
  3
dc_Rotated
100
AcDbAlignedDimension
 13
-140.0421391239516
 23
-129.0253073353392
 33
0.0
 14
28.45779762512888
 24
370.9746926646606
 34
0.0
 50
90.0
100
AcDbRotatedDimension
1001
ACAD
1000
DSTYLE
1002
{
1070
   144
1040
1.0
1070
   274
1070
     4
1070
    41
1040
15.00000953674316
1070
    79
1070
     2
1070
   343
1005
1C4
1070
   344
1005
1C4
1070
   176
1070
     2
1070
   177
1070
     2
1070
   178
1070
     4
1070
   271
1070
     2
1070
    44
1040
5.0
1070
    42
1040
5.0
1070
   147
1040
5.0
1070
   173
1070
     1
1070
    77
1070
     3
1070
    73
1070
     0
1070
   172
1070
     1
1070
    74
1070
     0
1070
   283
1070
     0
1070
   340
1005
1CE
1070
   140
1040
20.0
1070
   284
1070
     8
1070
   288
1070
     1
1070
    78
1070
     8
1070
    90
1070
     1
1002
}
  0
INSERT
  5
4DE
330
1F
100
AcDbEntity
  8
0
  6
Continuous
100
AcDbBlockReference
  2
DC_GROUP_W_MHR_LEG_010_26
 10
0.0
 20
0.0
 30
0.0
  0
DIMENSION
  5
4DF
330
1F
100
AcDbEntity
  8
0
  6
Continuous
370
    13
100
AcDbDimension
280
     0
  2
*D43
 10
-267.417673412174
 20
-54.02530733533952
 30
0.0
 11
-267.417673412174
 21
-91.52530733533935
 31
0.0
 70
   160
 71
     8
 42
-1.0
 73
     0
 74
     0
 75
     0
  3
dc_Rotated
100
AcDbAlignedDimension
 13
-140.0421391239516
 23
-129.0253073353392
 33
0.0
 14
-80.04213912395181
 24
-54.02530733533953
 34
0.0
 50
90.0
100
AcDbRotatedDimension
1001
ACAD
1000
DSTYLE
1002
{
1070
   144
1040
1.0
1070
   274
1070
     4
1070
    41
1040
15.00000953674316
1070
    79
1070
     2
1070
   343
1005
1C4
1070
   344
1005
1C4
1070
   176
1070
     2
1070
   177
1070
     2
1070
   178
1070
     2
1070
   271
1070
     2
1070
    44
1040
5.0
1070
    42
1040
5.0
1070
   147
1040
5.0
1070
   173
1070
     1
1070
    77
1070
     3
1070
    73
1070
     0
1070
   172
1070
     1
1070
    74
1070
     0
1070
   283
1070
     0
1070
   340
1005
1CE
1070
   140
1040
20.0
1070
   284
1070
     8
1070
   288
1070
     1
1070
    78
1070
     8
1070
    90
1070
     1
1002
}
  0
DIMENSION
  5
4E0
330
1F
100
AcDbEntity
  8
0
  6
Continuous
370
    13
100
AcDbDimension
280
     0
  2
*D44
 10
-267.417673412174
 20
225.9740213293103
 30
0.0
 11
-267.417673412174
 21
85.9743569969854
 31
0.0
 70
   160
  1
H1=H-220
 71
     8
 42
-1.0
 73
     0
 74
     0
 75
     0
  3
dc_Rotated
100
AcDbAlignedDimension
 13
-80.04213912395181
 23
-54.02530733533953
 33
0.0
 14
-90.04213912395159
 24
225.9740213293103
 34
0.0
 50
90.0
100
AcDbRotatedDimension
1001
ACAD
1000
DSTYLE
1002
{
1070
   144
1040
1.0
1070
   274
1070
     4
1070
    41
1040
15.00000953674316
1070
    79
1070
     2
1070
   343
1005
1C4
1070
   344
1005
1C4
1070
   176
1070
     2
1070
   177
1070
     2
1070
   178
1070
     4
1070
   271
1070
     2
1070
    44
1040
5.0
1070
    42
1040
5.0
1070
   147
1040
5.0
1070
   173
1070
     1
1070
    77
1070
     3
1070
    73
1070
     0
1070
   172
1070
     1
1070
    74
1070
     0
1070
   283
1070
     0
1070
   340
1005
1CE
1070
   140
1040
20.0
1070
   284
1070
     8
1070
   288
1070
     1
1070
    78
1070
     8
1070
    90
1070
     1
1002
}
  0
DIMENSION
  5
4E1
330
1F
100
AcDbEntity
  8
0
  6
Continuous
370
    13
100
AcDbDimension
280
     0
  2
*D45
 10
-267.417673412174
 20
370.9746926646606
 30
0.0
 11
-267.417673412174
 21
298.4743569969854
 31
0.0
 70
   160
 71
     8
 42
-1.0
 73
     0
 74
     0
 75
     0
  3
dc_Rotated
100
AcDbAlignedDimension
 13
-90.04213912395159
 23
225.9740213293103
 33
0.0
 14
28.45779762512888
 24
370.9746926646606
 34
0.0
 50
90.0
100
AcDbRotatedDimension
1001
ACAD
1000
DSTYLE
1002
{
1070
   144
1040
1.0
1070
   274
1070
     4
1070
    41
1040
15.00000953674316
1070
    79
1070
     2
1070
   343
1005
1C4
1070
   344
1005
1C4
1070
   176
1070
     2
1070
   177
1070
     2
1070
   178
1070
     2
1070
   271
1070
     2
1070
    44
1040
5.0
1070
    42
1040
5.0
1070
   147
1040
5.0
1070
   173
1070
     1
1070
    77
1070
     3
1070
    73
1070
     0
1070
   172
1070
     1
1070
    74
1070
     0
1070
   283
1070
     0
1070
   340
1005
1CE
1070
   140
1040
20.0
1070
   284
1070
     8
1070
   288
1070
     1
1070
    78
1070
     8
1070
    90
1070
     1
1002
}
  0
INSERT
  5
4E2
330
1F
100
AcDbEntity
  8
0
  6
Continuous
100
AcDbBlockReference
  2
DC_GROUP_W_MHR_LEG_010_41
 10
0.0
 20
0.0
 30
0.0
  0
DIMENSION
  5
4E3
330
1F
100
AcDbEntity
  8
0
  6
Continuous
370
    13
100
AcDbDimension
280
     0
  2
*D47
 10
859.9578608760479
 20
469.9999133672079
 30
0.0
 11
389.9578608760481
 21
469.9999133672079
 31
0.0
 70
   160
  1
W1=機幅-<>
 71
     8
 42
-1.0
 73
     0
 74
     0
 75
     0
  3
dc_Rotated
100
AcDbAlignedDimension
 13
-80.04213912395159
 23
210.9740213293104
 33
0.0
 14
859.9578608760478
 24
210.9740213293104
 34
0.0
100
AcDbRotatedDimension
1001
ACAD
1000
DSTYLE
1002
{
1070
   144
1040
1.0
1070
   274
1070
     4
1070
    41
1040
15.00000953674316
1070
    79
1070
     2
1070
   343
1005
1C4
1070
   344
1005
1C4
1070
   176
1070
     2
1070
   177
1070
     2
1070
   178
1070
     4
1070
   271
1070
     2
1070
    44
1040
5.0
1070
    42
1040
5.0
1070
   147
1040
5.0
1070
   173
1070
     1
1070
    77
1070
     3
1070
    73
1070
     0
1070
   172
1070
     1
1070
    74
1070
     0
1070
   283
1070
     0
1070
   340
1005
1CE
1070
   140
1040
20.0
1070
   284
1070
     8
1070
   288
1070
     1
1070
    78
1070
     8
1070
    90
1070
     1
1002
}
  0
DIMENSION
  5
4E4
330
1F
100
AcDbEntity
  8
0
  6
Continuous
370
    13
100
AcDbDimension
280
     0
  2
*D48
 10
814.9578608760479
 20
432.8630824417058
 30
0.0
 11
389.9578608760481
 21
432.8630824417058
 31
0.0
 70
   160
  1
W3=機幅-<>
 71
     8
 42
-1.0
 73
     0
 74
     0
 75
     0
  3
dc_Rotated
100
AcDbAlignedDimension
 13
-35.04213912395159
 23
210.9740213293104
 33
0.0
 14
814.9578608760478
 24
210.9740213293104
 34
0.0
100
AcDbRotatedDimension
1001
ACAD
1000
DSTYLE
1002
{
1070
   144
1040
1.0
1070
   274
1070
     4
1070
    41
1040
15.00000953674316
1070
    79
1070
     2
1070
   343
1005
1C4
1070
   344
1005
1C4
1070
   176
1070
     2
1070
   177
1070
     2
1070
   178
1070
     4
1070
   271
1070
     2
1070
    44
1040
5.0
1070
    42
1040
5.0
1070
   147
1040
5.0
1070
   173
1070
     1
1070
    77
1070
     3
1070
    73
1070
     0
1070
   172
1070
     1
1070
    74
1070
     0
1070
   283
1070
     0
1070
   340
1005
1CE
1070
   140
1040
20.0
1070
   284
1070
     8
1070
   288
1070
     1
1070
    78
1070
     8
1070
    90
1070
     1
1002
}
  0
DIMENSION
  5
4E5
330
1F
100
AcDbEntity
  8
0
  6
Continuous
370
    13
100
AcDbDimension
280
     0
  2
*D49
 10
15.58805548006995
 20
-9.025307335339079
 30
0.0
 11
15.58805548006995
 21
-31.52530733533908
 31
0.0
 70
   160
 71
     8
 42
-1.0
 73
     0
 74
     0
 75
     0
  3
dc_Rotated
100
AcDbAlignedDimension
 13
-35.04213912395113
 23
-54.02530733533908
 33
0.0
 14
-35.04213912395113
 24
-9.025307335339079
 34
0.0
 50
90.0
100
AcDbRotatedDimension
1001
ACAD
1000
DSTYLE
1002
{
1070
   144
1040
1.0
1070
   274
1070
     4
1070
    41
1040
15.00000953674316
1070
    79
1070
     2
1070
   343
1005
1C4
1070
   344
1005
1C4
1070
   176
1070
     2
1070
   177
1070
     2
1070
   178
1070
     2
1070
   271
1070
     2
1070
    44
1040
5.0
1070
    42
1040
5.0
1070
   147
1040
5.0
1070
   173
1070
     1
1070
    77
1070
     3
1070
    73
1070
     0
1070
   172
1070
     1
1070
    74
1070
     0
1070
   283
1070
     0
1070
   340
1005
1CE
1070
   140
1040
20.0
1070
   284
1070
     8
1070
   288
1070
     1
1070
    78
1070
     8
1070
    90
1070
     1
1002
}
  0
DIMENSION
  5
4E6
330
1F
100
AcDbEntity
  8
0
  6
Continuous
370
    13
100
AcDbDimension
280
     0
  2
*D50
 10
-711.6780898876405
 20
262.5815889216526
 30
0.0
 11
-811.6780898876405
 21
262.5815889216526
 31
0.0
 70
   160
 71
     8
 42
-1.0
 73
     0
 74
     0
 75
     0
  3
dc_Rotated
100
AcDbAlignedDimension
 13
-911.6780898876405
 23
225.9740213293103
 33
0.0
 14
-711.6780898876405
 24
225.9740213293103
 34
0.0
100
AcDbRotatedDimension
1001
ACAD
1000
DSTYLE
1002
{
1070
   144
1040
1.0
1070
   274
1070
     4
1070
    41
1040
15.00000953674316
1070
    79
1070
     2
1070
   343
1005
1C4
1070
   344
1005
1C4
1070
   176
1070
     2
1070
   177
1070
     2
1070
   178
1070
     2
1070
   271
1070
     2
1070
    44
1040
5.0
1070
    42
1040
5.0
1070
   147
1040
5.0
1070
   173
1070
     1
1070
    77
1070
     3
1070
    73
1070
     0
1070
   172
1070
     1
1070
    74
1070
     0
1070
   283
1070
     0
1070
   340
1005
1CE
1070
   140
1040
20.0
1070
   284
1070
     8
1070
   288
1070
     1
1070
    78
1070
     8
1070
    90
1070
     1
1002
}
  0
DIMENSION
  5
4E7
330
1F
100
AcDbEntity
  8
0
  6
Continuous
370
    13
100
AcDbDimension
280
     0
  2
*D51
 10
-947.6864635319798
 20
225.9740213293103
 30
0.0
 11
-947.6864635319798
 21
148.4740213293103
 31
0.0
 70
   160
 71
     8
 42
-1.0
 73
     0
 74
     0
 75
     0
  3
dc_Rotated
100
AcDbAlignedDimension
 13
-849.0021710952005
 23
70.97402132931032
 33
0.0
 14
-911.6780898876405
 24
225.9740213293103
 34
0.0
 50
90.0
100
AcDbRotatedDimension
1001
ACAD
1000
DSTYLE
1002
{
1070
   144
1040
1.0
1070
   274
1070
     4
1070
    41
1040
15.00000953674316
1070
    79
1070
     2
1070
   343
1005
1C4
1070
   344
1005
1C4
1070
   176
1070
     2
1070
   177
1070
     2
1070
   178
1070
     2
1070
   271
1070
     2
1070
    44
1040
5.0
1070
    42
1040
5.0
1070
   147
1040
5.0
1070
   173
1070
     1
1070
    77
1070
     3
1070
    73
1070
     0
1070
   172
1070
     1
1070
    74
1070
     0
1070
   283
1070
     0
1070
   340
1005
1CE
1070
   140
1040
20.0
1070
   284
1070
     8
1070
   288
1070
     1
1070
    78
1070
     8
1070
    90
1070
     1
1002
}
  0
DIMENSION
  5
4E8
330
1F
100
AcDbEntity
  8
0
  6
Continuous
370
    13
100
AcDbDimension
280
     0
  2
*D52
 10
-774.1780898876405
 20
36.29521770755967
 30
0.0
 11
-811.6780898876405
 21
36.29521770755967
 31
0.0
 70
   160
 71
     8
 42
-1.0
 73
     0
 74
     0
 75
     0
  3
dc_Rotated
100
AcDbAlignedDimension
 13
-849.1780898876405
 23
70.97711702979983
 33
0.0
 14
-774.1780898876405
 24
70.97711702979983
 34
0.0
100
AcDbRotatedDimension
1001
ACAD
1000
DSTYLE
1002
{
1070
   144
1040
1.0
1070
   274
1070
     4
1070
    41
1040
15.00000953674316
1070
    79
1070
     2
1070
   343
1005
1C4
1070
   344
1005
1C4
1070
   176
1070
     2
1070
   177
1070
     2
1070
   178
1070
     2
1070
   271
1070
     2
1070
    44
1040
5.0
1070
    42
1040
5.0
1070
   147
1040
5.0
1070
   173
1070
     1
1070
    77
1070
     3
1070
    73
1070
     0
1070
   172
1070
     1
1070
    74
1070
     0
1070
   283
1070
     0
1070
   340
1005
1CE
1070
   140
1040
20.0
1070
   284
1070
     8
1070
   288
1070
     1
1070
    78
1070
     8
1070
    90
1070
     1
1002
}
  0
INSERT
  5
4E9
330
1F
100
AcDbEntity
  8
0
  6
Continuous
100
AcDbBlockReference
  2
DC_GROUP_W_MHR_LEG_010_42
 10
0.0
 20
0.0
 30
0.0
  0
DIMENSION
  5
4EA
330
1F
100
AcDbEntity
  8
0
  6
Continuous
370
    13
100
AcDbDimension
280
     0
  2
*D63
 10
-461.6780898876405
 20
262.5815889216526
 30
0.0
 11
-561.6780898876405
 21
262.5815889216526
 31
0.0
 70
   160
 71
     8
 42
-1.0
 73
     0
 74
     0
 75
     0
  3
dc_Rotated
100
AcDbAlignedDimension
 13
-661.6780898876405
 23
225.9740213293103
 33
0.0
 14
-461.6780898876405
 24
225.9740213293103
 34
0.0
100
AcDbRotatedDimension
1001
ACAD
1000
DSTYLE
1002
{
1070
   144
1040
1.0
1070
   274
1070
     4
1070
    41
1040
15.00000953674316
1070
    79
1070
     2
1070
   343
1005
1C4
1070
   344
1005
1C4
1070
   176
1070
     2
1070
   177
1070
     2
1070
   178
1070
     2
1070
   271
1070
     2
1070
    44
1040
5.0
1070
    42
1040
5.0
1070
   147
1040
5.0
1070
   173
1070
     1
1070
    77
1070
     3
1070
    73
1070
     0
1070
   172
1070
     1
1070
    74
1070
     0
1070
   283
1070
     0
1070
   340
1005
1CE
1070
   140
1040
20.0
1070
   284
1070
     8
1070
   288
1070
     1
1070
    78
1070
     8
1070
    90
1070
     1
1002
}
  0
DIMENSION
  5
4EB
330
1F
100
AcDbEntity
  8
0
  6
Continuous
370
    13
100
AcDbDimension
280
     0
  2
*D64
 10
-418.451898304585
 20
225.9740213293103
 30
0.0
 11
-418.451898304585
 21
185.9740213293103
 31
0.0
 70
   160
 71
     8
 42
-1.0
 73
     0
 74
     0
 75
     0
  3
dc_Rotated
100
AcDbAlignedDimension
 13
-521.6780898876405
 23
145.9740213293103
 33
0.0
 14
-461.6780898876405
 24
225.9740213293103
 34
0.0
 50
90.0
100
AcDbRotatedDimension
1001
ACAD
1000
DSTYLE
1002
{
1070
   144
1040
1.0
1070
   274
1070
     4
1070
    41
1040
15.00000953674316
1070
    79
1070
     2
1070
   343
1005
1C4
1070
   344
1005
1C4
1070
   176
1070
     2
1070
   177
1070
     2
1070
   178
1070
     2
1070
   271
1070
     2
1070
    44
1040
5.0
1070
    42
1040
5.0
1070
   147
1040
5.0
1070
   173
1070
     1
1070
    77
1070
     3
1070
    73
1070
     0
1070
   172
1070
     1
1070
    74
1070
     0
1070
   283
1070
     0
1070
   340
1005
1CE
1070
   140
1040
20.0
1070
   284
1070
     8
1070
   288
1070
     1
1070
    78
1070
     8
1070
    90
1070
     1
1002
}
  0
INSERT
  5
4EC
330
1F
100
AcDbEntity
  8
0
  6
Continuous
100
AcDbBlockReference
  2
DC_GROUP_W_MHR_LEG_010_52
 10
0.0
 20
0.0
 30
0.0
  0
DIMENSION
  5
4ED
330
1F
100
AcDbEntity
  8
0
  6
Continuous
370
    13
100
AcDbDimension
280
     0
  2
*D82
 10
55.58805548006995
 20
-9.025307335339079
 30
0.0
 11
55.58805548006995
 21
-84.02530733533914
 31
0.0
 70
   160
 71
     8
 42
-1.0
 73
     0
 74
     0
 75
     0
  3
dc_Rotated
100
AcDbAlignedDimension
 13
-22.15007833007546
 23
-129.0253073353392
 33
0.0
 14
-35.04213912395113
 24
-9.025307335339079
 34
0.0
 50
90.0
100
AcDbRotatedDimension
1001
ACAD
1000
DSTYLE
1002
{
1070
   144
1040
1.0
1070
   274
1070
     4
1070
    41
1040
15.00000953674316
1070
    79
1070
     2
1070
   343
1005
1C4
1070
   344
1005
1C4
1070
   176
1070
     2
1070
   177
1070
     2
1070
   178
1070
     2
1070
   271
1070
     2
1070
    44
1040
5.0
1070
    42
1040
5.0
1070
   147
1040
5.0
1070
   173
1070
     1
1070
    77
1070
     3
1070
    73
1070
     0
1070
   172
1070
     1
1070
    74
1070
     0
1070
   283
1070
     0
1070
   340
1005
1CE
1070
   140
1040
20.0
1070
   284
1070
     8
1070
   288
1070
     1
1070
    78
1070
     8
1070
    90
1070
     1
1002
}
  0
INSERT
  5
4EE
330
1F
100
AcDbEntity
  8
0
  6
Continuous
100
AcDbBlockReference
  2
DC_GROUP_W_MHR_LEG_010_71
 10
0.0
 20
0.0
 30
0.0
  0
INSERT
  5
4EF
330
1F
100
AcDbEntity
  8
0
  6
Continuous
100
AcDbBlockReference
  2
DC_GROUP_W_MHR_LEG_010_72
 10
0.0
 20
0.0
 30
0.0
  0
INSERT
  5
4F0
330
1F
100
AcDbEntity
  8
0
  6
Continuous
100
AcDbBlockReference
  2
DC_GROUP_W_MHR_LEG_010_73
 10
0.0
 20
0.0
 30
0.0
  0
INSERT
  5
4F1
330
1F
100
AcDbEntity
  8
0
  6
Continuous
100
AcDbBlockReference
  2
DC_GROUP_W_MHR_LEG_010_74
 10
0.0
 20
0.0
 30
0.0
  0
INSERT
  5
4F2
330
1F
100
AcDbEntity
  8
0
  6
Continuous
100
AcDbBlockReference
  2
DC_GROUP_W_MHR_LEG_010_75
 10
0.0
 20
0.0
 30
0.0
  0
INSERT
  5
4F3
330
1F
100
AcDbEntity
  8
0
  6
Continuous
100
AcDbBlockReference
  2
DC_GROUP_W_MHR_LEG_010_76
 10
0.0
 20
0.0
 30
0.0
  0
INSERT
  5
4F4
330
1F
100
AcDbEntity
  8
ZUWAKU
  6
Continuous
100
AcDbBlockReference
  2
DC_GROUP_W_MHR_LEG_010_69
 10
0.0
 20
0.0
 30
0.0
  0
INSERT
  5
4F5
330
1F
100
AcDbEntity
  8
ZUWAKU
  6
Continuous
100
AcDbBlockReference
  2
DC_GROUP_W_MHR_LEG_010_70
 10
0.0
 20
0.0
 30
0.0
  0
TEXT
  5
4F6
330
1F
100
AcDbEntity
  8
0
 62
     2
100
AcDbText
 10
275.0000000000001
 20
-649.3596166976107
 30
0.0
 40
20.0
  1
MHR
 41
0.4921875
  7
dcStyle1
 72
     5
 11
305.0000000000001
 21
-649.3596166976107
 31
0.0
100
AcDbText
  0
TEXT
  5
4F7
330
1F
100
AcDbEntity
  8
0
 62
     2
100
AcDbText
 10
840.0
 20
-649.3596166976107
 30
0.0
 40
20.0
  1
W_MHR_LEG_010
 41
0.5395256916996048
  7
dcStyle1
 72
     5
 11
970.0
 21
-649.3596166976107
 31
0.0
100
AcDbText
  0
TEXT
  5
4F8
330
1F
100
AcDbEntity
  8
0
 62
     2
100
AcDbText
 10
-68.74999999999986
 20
-649.3596166976107
 30
0.0
 40
20.0
  1
1/5
 41
0.5338983050847458
  7
dcStyle1
 72
     5
 11
-38.74999999999986
 21
-649.3596166976107
 31
0.0
100
AcDbText
  0
TEXT
  5
4F9
330
1F
100
AcDbEntity
  8
0
 62
     2
100
AcDbText
 10
-244.1960049937582
 20
377.4375780274646
 30
0.0
 40
20.0
  1
ローラ上面
 41
0.742001929928741
  7
dcStyle0
 72
     5
 11
-144.1960049937582
 21
377.4375780274646
 31
0.0
100
AcDbText
  0
TEXT
  5
4FA
330
1F
100
AcDbEntity
  8
0
 62
     2
100
AcDbText
 10
200.0000000000001
 20
-599.3596166976107
 30
0.0
 40
20.0
  1
マルチベヤシリーズ
 41
1.188679245283019
  7
dcStyle1
 72
     5
 11
380.0000000000001
 21
-599.3596166976107
 31
0.0
100
AcDbText
  0
TEXT
  5
4FB
330
1F
100
AcDbEntity
  8
0
 62
     2
100
AcDbText
 10
727.5
 20
-599.3596166976107
 30
0.0
 40
20.0
  1
脚
 41
1.4
  7
dcStyle1
 72
     5
 11
747.5
 21
-599.3596166976107
 31
0.0
100
AcDbText
  0
VIEWPORT
  5
B4
330
1B
100
AcDbEntity
 67
     1
  8
0
100
AcDbViewport
 10
0.0
 20
0.0
 30
0.0
 40
5910.0
 41
4053.842299814336
 68
     1
 69
     1
 12
0.0
 22
0.0
 13
0.0
 23
0.0
 14
0.5
 24
0.5
 15
0.0
 25
0.0
 16
0.0
 26
0.0
 36
1.0
 17
0.0
 27
0.0
 37
0.0
 42
50.0
 43
0.0
 44
0.0
 45
4053.842299814336
 50
0.0
 51
0.0
 72
   100
 90
   557152
  1

281
     0
 71
     1
 74
     0
110
0.0
120
0.0
130
0.0
111
1.0
121
0.0
131
0.0
112
0.0
122
1.0
132
0.0
 79
     0
146
0.0
170
     0
 61
     5
348
2F
292
     1
282
     1
141
0.0
142
0.0
 63
   256
  0
ENDSEC
  0
SECTION
  2
OBJECTS
  0
DICTIONARY
  5
C
330
0
100
AcDbDictionary
281
     1
  3
ACAD_DETAILVIEWSTYLE
350
533
  3
ACAD_GROUP
350
D
  3
ACAD_LAYOUT
350
1A
  3
ACAD_MATERIAL
350
43
  3
ACAD_MLEADERSTYLE
350
6B
  3
ACAD_MLINESTYLE
350
17
  3
ACAD_PLOTSETTINGS
350
19
  3
ACAD_PLOTSTYLENAME
350
E
  3
ACAD_SCALELIST
350
47
  3
ACAD_SECTIONVIEWSTYLE
350
534
  3
ACAD_TABLESTYLE
350
69
  3
ACAD_VISUALSTYLE
350
2A
  3
ACDB_RECOMPOSE_DATA
350
530
  3
AcDbVariableDictionary
350
4FC
  0
SUN
  5
6D
330
29
100
AcDbSun
 90
        1
290
     0
 63
     7
421
 16777215
 40
1.0
291
     1
 91
  2455826
 92
 54000000
292
     0
 70
     2
 71
   256
280
     1
  0
DICTIONARY
  5
533
102
{ACAD_REACTORS
330
C
102
}
330
C
100
AcDbDictionary
281
     1
  0
DICTIONARY
  5
D
102
{ACAD_REACTORS
330
C
102
}
330
C
100
AcDbDictionary
281
     1
  0
DICTIONARY
  5
1A
102
{ACAD_REACTORS
330
C
102
}
330
C
100
AcDbDictionary
281
     1
  3
Layout1
350
1E
  3
Layout2
350
26
  3
Model
350
22
  0
DICTIONARY
  5
43
102
{ACAD_REACTORS
330
C
102
}
330
C
100
AcDbDictionary
281
     1
  3
ByBlock
350
45
  3
ByLayer
350
44
  3
Global
350
46
  0
DICTIONARY
  5
6B
102
{ACAD_REACTORS
330
C
102
}
330
C
100
AcDbDictionary
281
     1
  3
Standard
350
6C
  0
DICTIONARY
  5
17
102
{ACAD_REACTORS
330
C
102
}
330
C
100
AcDbDictionary
281
     1
  3
Standard
350
18
  0
DICTIONARY
  5
19
102
{ACAD_REACTORS
330
C
102
}
330
C
100
AcDbDictionary
281
     1
  0
ACDBDICTIONARYWDFLT
  5
E
102
{ACAD_REACTORS
330
C
102
}
330
C
100
AcDbDictionary
281
     1
  3
Normal
350
F
100
AcDbDictionaryWithDefault
340
F
  0
DICTIONARY
  5
47
102
{ACAD_REACTORS
330
C
102
}
330
C
100
AcDbDictionary
281
     1
  3
A0
350
48
  3
A1
350
49
  3
A2
350
4A
  3
A3
350
4B
  3
A4
350
4C
  3
A5
350
4D
  3
A6
350
4E
  3
A7
350
4F
  3
A8
350
50
  3
A9
350
51
  3
B0
350
52
  3
B1
350
53
  3
B2
350
54
  3
B3
350
55
  3
B4
350
56
  3
B5
350
57
  3
B6
350
58
  3
B7
350
59
  3
B8
350
5A
  3
B9
350
5B
  3
C0
350
5C
  3
C1
350
5D
  3
C2
350
5E
  3
C3
350
5F
  3
C4
350
60
  3
C5
350
61
  3
C6
350
62
  3
C7
350
63
  3
C8
350
64
  3
C9
350
65
  3
D0
350
66
  3
D1
350
67
  3
D2
350
68
  0
DICTIONARY
  5
534
102
{ACAD_REACTORS
330
C
102
}
330
C
100
AcDbDictionary
281
     1
  0
DICTIONARY
  5
69
102
{ACAD_REACTORS
330
C
102
}
330
C
100
AcDbDictionary
281
     1
  3
Standard
350
6A
  0
DICTIONARY
  5
2A
102
{ACAD_REACTORS
330
C
102
}
330
C
100
AcDbDictionary
281
     1
  3
2dWireframe
350
2F
  3
Basic
350
32
  3
Brighten
350
36
  3
ColorChange
350
3A
  3
Conceptual
350
34
  3
Dim
350
35
  3
EdgeColorOff
350
3D
  3
Facepattern
350
39
  3
Flat
350
2B
  3
FlatWithEdges
350
2C
  3
Gouraud
350
2D
  3
GouraudWithEdges
350
2E
  3
Hidden
350
31
  3
JitterOff
350
3B
  3
Linepattern
350
38
  3
OverhangOff
350
3C
  3
Realistic
350
33
  3
Shaded
350
42
  3
Shaded with edges
350
41
  3
Shades of Gray
350
3E
  3
Sketchy
350
3F
  3
Thicken
350
37
  3
Wireframe
350
30
  3
X-Ray
350
40
  0
XRECORD
  5
530
102
{ACAD_REACTORS
330
C
102
}
330
C
100
AcDbXrecord
280
     1
 90
        1
330
6A
  0
DICTIONARY
  5
4FC
102
{ACAD_REACTORS
330
C
102
}
330
C
100
AcDbDictionary
281
     1
  3
CANNOSCALE
350
4FD
  3
CMLEADERSTYLE
350
532
  3
CTABLESTYLE
350
531
  0
LAYOUT
  5
1E
102
{ACAD_REACTORS
330
1A
102
}
330
1A
100
AcDbPlotSettings
  1

  2
none_device
  4

  6

 40
0.0
 41
0.0
 42
0.0
 43
0.0
 44
0.0
 45
0.0
 46
0.0
 47
0.0
 48
0.0
 49
0.0
140
0.0
141
0.0
142
1.0
143
1.0
 70
   688
 72
     0
 73
     0
 74
     5
  7

 75
    16
 76
     0
 77
     2
 78
   300
147
1.0
148
0.0
149
0.0
100
AcDbLayout
  1
Layout1
 70
     0
 71
     1
 10
0.0
 20
0.0
 11
12.0
 21
9.0
 12
0.0
 22
0.0
 32
0.0
 14
1.000000000000000E+20
 24
1.000000000000000E+20
 34
1.000000000000000E+20
 15
-1.000000000000000E+20
 25
-1.000000000000000E+20
 35
-1.000000000000000E+20
146
0.0
 13
0.0
 23
0.0
 33
0.0
 16
1.0
 26
0.0
 36
0.0
 17
0.0
 27
1.0
 37
0.0
 76
     0
330
1B
331
B4
  0
LAYOUT
  5
26
102
{ACAD_REACTORS
330
1A
102
}
330
1A
100
AcDbPlotSettings
  1

  2
none_device
  4

  6

 40
0.0
 41
0.0
 42
0.0
 43
0.0
 44
0.0
 45
0.0
 46
0.0
 47
0.0
 48
0.0
 49
0.0
140
0.0
141
0.0
142
1.0
143
1.0
 70
   688
 72
     0
 73
     0
 74
     5
  7

 75
    16
 76
     0
 77
     2
 78
   300
147
1.0
148
0.0
149
0.0
100
AcDbLayout
  1
Layout2
 70
     1
 71
     2
 10
0.0
 20
0.0
 11
0.0
 21
0.0
 12
0.0
 22
0.0
 32
0.0
 14
0.0
 24
0.0
 34
0.0
 15
0.0
 25
0.0
 35
0.0
146
0.0
 13
0.0
 23
0.0
 33
0.0
 16
1.0
 26
0.0
 36
0.0
 17
0.0
 27
1.0
 37
0.0
 76
     0
330
23
  0
LAYOUT
  5
22
102
{ACAD_REACTORS
330
1A
102
}
330
1A
100
AcDbPlotSettings
  1

  2
none_device
  4
Letter_(8.50_x_11.00_Inches)
  6

 40
6.35
 41
6.35
 42
6.35000508
 43
6.35000508
 44
215.9
 45
279.4
 46
0.0
 47
0.0
 48
0.0
 49
0.0
140
0.0
141
0.0
142
1.0
143
1.0
 70
  1712
 72
     0
 73
     0
 74
     0
  7

 75
     0
 76
     0
 77
     2
 78
   300
147
1.0
148
0.0
149
0.0
100
AcDbLayout
  1
Model
 70
     1
 71
     0
 10
-1050.0
 20
-742.5
 11
1050.0
 21
742.5
 12
0.0
 22
0.0
 32
0.0
 14
-2955.0
 24
-2026.921149907168
 34
0.0
 15
2955.0
 25
2026.921149907168
 35
0.0
146
0.0
 13
0.0
 23
0.0
 33
0.0
 16
1.0
 26
0.0
 36
0.0
 17
0.0
 27
1.0
 37
0.0
 76
     0
330
1F
331
29
  0
MATERIAL
  5
45
102
{ACAD_REACTORS
330
43
102
}
330
43
100
AcDbMaterial
  1
ByBlock
 72
     1
 94
      127
  0
MATERIAL
  5
44
102
{ACAD_REACTORS
330
43
102
}
330
43
100
AcDbMaterial
  1
ByLayer
 72
     1
 94
      127
  0
MATERIAL
  5
46
102
{ACAD_REACTORS
330
43
102
}
330
43
100
AcDbMaterial
  1
Global
 72
     1
 94
      127
  0
MLEADERSTYLE
  5
6C
102
{ACAD_REACTORS
330
6B
102
}
330
6B
100
AcDbMLeaderStyle
179
     2
170
     2
171
     1
172
     0
 90
        2
 40
0.0
 41
0.0
173
     1
 91
-1056964608
340
14
 92
       -2
290
     1
 42
0.09
291
     1
 43
0.36
  3
Standard
341
0
 44
0.18
300

342
11
174
     1
178
     6
175
     1
176
     0
 93
-1056964608
 45
0.18
292
     0
297
     0
 46
0.18
343
0
 94
-1056964608
 47
1.0
 49
1.0
140
1.0
293
     1
141
0.0
294
     1
177
     0
142
1.0
295
     0
296
     0
143
0.125
271
     0
272
     9
273
     9
  0
MLINESTYLE
  5
18
102
{ACAD_REACTORS
330
17
102
}
330
17
100
AcDbMlineStyle
  2
Standard
 70
     0
  3

 62
   256
 51
90.0
 52
90.0
 71
     2
 49
0.5
 62
   256
  6
BYLAYER
 49
-0.5
 62
   256
  6
BYLAYER
  0
ACDBPLACEHOLDER
  5
F
102
{ACAD_REACTORS
330
E
102
}
330
E
  0
SCALE
  5
48
102
{ACAD_REACTORS
330
47
102
}
330
47
100
AcDbScale
 70
     0
300
1:1
140
1.0
141
1.0
290
     1
  0
SCALE
  5
49
102
{ACAD_REACTORS
330
47
102
}
330
47
100
AcDbScale
 70
     0
300
1:2
140
1.0
141
2.0
290
     0
  0
SCALE
  5
4A
102
{ACAD_REACTORS
330
47
102
}
330
47
100
AcDbScale
 70
     0
300
1:4
140
1.0
141
4.0
290
     0
  0
SCALE
  5
4B
102
{ACAD_REACTORS
330
47
102
}
330
47
100
AcDbScale
 70
     0
300
1:5
140
1.0
141
5.0
290
     0
  0
SCALE
  5
4C
102
{ACAD_REACTORS
330
47
102
}
330
47
100
AcDbScale
 70
     0
300
1:8
140
1.0
141
8.0
290
     0
  0
SCALE
  5
4D
102
{ACAD_REACTORS
330
47
102
}
330
47
100
AcDbScale
 70
     0
300
1:10
140
1.0
141
10.0
290
     0
  0
SCALE
  5
4E
102
{ACAD_REACTORS
330
47
102
}
330
47
100
AcDbScale
 70
     0
300
1:16
140
1.0
141
16.0
290
     0
  0
SCALE
  5
4F
102
{ACAD_REACTORS
330
47
102
}
330
47
100
AcDbScale
 70
     0
300
1:20
140
1.0
141
20.0
290
     0
  0
SCALE
  5
50
102
{ACAD_REACTORS
330
47
102
}
330
47
100
AcDbScale
 70
     0
300
1:30
140
1.0
141
30.0
290
     0
  0
SCALE
  5
51
102
{ACAD_REACTORS
330
47
102
}
330
47
100
AcDbScale
 70
     0
300
1:40
140
1.0
141
40.0
290
     0
  0
SCALE
  5
52
102
{ACAD_REACTORS
330
47
102
}
330
47
100
AcDbScale
 70
     0
300
1:50
140
1.0
141
50.0
290
     0
  0
SCALE
  5
53
102
{ACAD_REACTORS
330
47
102
}
330
47
100
AcDbScale
 70
     0
300
1:100
140
1.0
141
100.0
290
     0
  0
SCALE
  5
54
102
{ACAD_REACTORS
330
47
102
}
330
47
100
AcDbScale
 70
     0
300
2:1
140
2.0
141
1.0
290
     0
  0
SCALE
  5
55
102
{ACAD_REACTORS
330
47
102
}
330
47
100
AcDbScale
 70
     0
300
4:1
140
4.0
141
1.0
290
     0
  0
SCALE
  5
56
102
{ACAD_REACTORS
330
47
102
}
330
47
100
AcDbScale
 70
     0
300
8:1
140
8.0
141
1.0
290
     0
  0
SCALE
  5
57
102
{ACAD_REACTORS
330
47
102
}
330
47
100
AcDbScale
 70
     0
300
10:1
140
10.0
141
1.0
290
     0
  0
SCALE
  5
58
102
{ACAD_REACTORS
330
47
102
}
330
47
100
AcDbScale
 70
     0
300
100:1
140
100.0
141
1.0
290
     0
  0
SCALE
  5
59
102
{ACAD_REACTORS
330
47
102
}
330
47
100
AcDbScale
 70
     0
300
1/128" = 1'-0"
140
0.0078125
141
12.0
290
     0
  0
SCALE
  5
5A
102
{ACAD_REACTORS
330
47
102
}
330
47
100
AcDbScale
 70
     0
300
1/64" = 1'-0"
140
0.015625
141
12.0
290
     0
  0
SCALE
  5
5B
102
{ACAD_REACTORS
330
47
102
}
330
47
100
AcDbScale
 70
     0
300
1/32" = 1'-0"
140
0.03125
141
12.0
290
     0
  0
SCALE
  5
5C
102
{ACAD_REACTORS
330
47
102
}
330
47
100
AcDbScale
 70
     0
300
1/16" = 1'-0"
140
0.0625
141
12.0
290
     0
  0
SCALE
  5
5D
102
{ACAD_REACTORS
330
47
102
}
330
47
100
AcDbScale
 70
     0
300
3/32" = 1'-0"
140
0.09375
141
12.0
290
     0
  0
SCALE
  5
5E
102
{ACAD_REACTORS
330
47
102
}
330
47
100
AcDbScale
 70
     0
300
1/8" = 1'-0"
140
0.125
141
12.0
290
     0
  0
SCALE
  5
5F
102
{ACAD_REACTORS
330
47
102
}
330
47
100
AcDbScale
 70
     0
300
3/16" = 1'-0"
140
0.1875
141
12.0
290
     0
  0
SCALE
  5
60
102
{ACAD_REACTORS
330
47
102
}
330
47
100
AcDbScale
 70
     0
300
1/4" = 1'-0"
140
0.25
141
12.0
290
     0
  0
SCALE
  5
61
102
{ACAD_REACTORS
330
47
102
}
330
47
100
AcDbScale
 70
     0
300
3/8" = 1'-0"
140
0.375
141
12.0
290
     0
  0
SCALE
  5
62
102
{ACAD_REACTORS
330
47
102
}
330
47
100
AcDbScale
 70
     0
300
1/2" = 1'-0"
140
0.5
141
12.0
290
     0
  0
SCALE
  5
63
102
{ACAD_REACTORS
330
47
102
}
330
47
100
AcDbScale
 70
     0
300
3/4" = 1'-0"
140
0.75
141
12.0
290
     0
  0
SCALE
  5
64
102
{ACAD_REACTORS
330
47
102
}
330
47
100
AcDbScale
 70
     0
300
1" = 1'-0"
140
1.0
141
12.0
290
     0
  0
SCALE
  5
65
102
{ACAD_REACTORS
330
47
102
}
330
47
100
AcDbScale
 70
     0
300
1-1/2" = 1'-0"
140
1.5
141
12.0
290
     0
  0
SCALE
  5
66
102
{ACAD_REACTORS
330
47
102
}
330
47
100
AcDbScale
 70
     0
300
3" = 1'-0"
140
3.0
141
12.0
290
     0
  0
SCALE
  5
67
102
{ACAD_REACTORS
330
47
102
}
330
47
100
AcDbScale
 70
     0
300
6" = 1'-0"
140
6.0
141
12.0
290
     0
  0
SCALE
  5
68
102
{ACAD_REACTORS
330
47
102
}
330
47
100
AcDbScale
 70
     0
300
1'-0" = 1'-0"
140
12.0
141
12.0
290
     0
  0
TABLESTYLE
  5
6A
102
{ACAD_REACTORS
330
69
102
}
102
{ACAD_XDICTIONARY
360
52E
102
}
330
69
100
AcDbTableStyle
  3
Standard
 70
     0
 71
     0
 40
0.06
 41
0.06
280
     0
281
     0
  7
Standard
140
0.18
170
     2
 62
     0
 63
   257
283
     0
 90
        4
 91
        0
  1

274
    -2
284
     1
 64
     0
275
    -2
285
     1
 65
     0
276
    -2
286
     1
 66
     0
277
    -2
287
     1
 67
     0
278
    -2
288
     1
 68
     0
279
    -2
289
     1
 69
     0
  7
Standard
140
0.25
170
     5
 62
     0
 63
   257
283
     0
 90
        4
 91
        0
  1

274
    -2
284
     1
 64
     0
275
    -2
285
     1
 65
     0
276
    -2
286
     1
 66
     0
277
    -2
287
     1
 67
     0
278
    -2
288
     1
 68
     0
279
    -2
289
     1
 69
     0
  7
Standard
140
0.18
170
     5
 62
     0
 63
   257
283
     0
 90
        4
 91
        0
  1

274
    -2
284
     1
 64
     0
275
    -2
285
     1
 65
     0
276
    -2
286
     1
 66
     0
277
    -2
287
     1
 67
     0
278
    -2
288
     1
 68
     0
279
    -2
289
     1
 69
     0
  0
VISUALSTYLE
  5
2F
102
{ACAD_REACTORS
330
2A
102
}
102
{ACAD_XDICTIONARY
360
506
102
}
330
2A
100
AcDbVisualStyle
  2
2dWireframe
 70
     4
177
     2
291
     0
 71
     0
176
     1
 72
     2
176
     1
 73
     0
176
     1
 90
        0
176
     1
 40
0.6
176
     1
 41
30.0
176
     1
 62
     5
 63
     7
421
 16777215
176
     1
 74
     1
176
     1
 91
        4
176
     1
 64
     7
176
     1
 65
   257
176
     1
 75
     1
176
     1
175
     1
176
     1
 42
1.0
176
     1
 92
        0
176
     1
 66
   257
176
     1
 43
1.0
176
     1
 76
     1
176
     1
 77
     6
176
     1
 78
     2
176
     1
 67
     7
176
     1
 79
     5
176
     1
170
     0
176
     1
171
     0
176
     1
290
     0
176
     1
 93
        1
176
     1
 44
0.0
176
     1
173
     0
176
     1
  0
VISUALSTYLE
  5
32
102
{ACAD_REACTORS
330
2A
102
}
102
{ACAD_XDICTIONARY
360
50C
102
}
330
2A
100
AcDbVisualStyle
  2
Basic
 70
     7
177
     2
291
     1
 71
     1
176
     1
 72
     0
176
     1
 73
     1
176
     1
 90
        0
176
     1
 40
0.6
176
     1
 41
30.0
176
     1
 62
     5
 63
     7
421
 16777215
176
     1
 74
     0
176
     1
 91
        4
176
     1
 64
     7
176
     1
 65
   257
176
     1
 75
     1
176
     1
175
     1
176
     1
 42
1.0
176
     1
 92
        8
176
     1
 66
     7
176
     1
 43
1.0
176
     1
 76
     1
176
     1
 77
     6
176
     1
 78
     2
176
     1
 67
     7
176
     1
 79
     5
176
     1
170
     0
176
     1
171
     0
176
     1
290
     0
176
     1
 93
        1
176
     1
 44
0.0
176
     1
173
     0
176
     1
  0
VISUALSTYLE
  5
36
102
{ACAD_REACTORS
330
2A
102
}
102
{ACAD_XDICTIONARY
360
514
102
}
330
2A
100
AcDbVisualStyle
  2
Brighten
 70
    12
177
     2
291
     1
 71
     2
176
     1
 72
     2
176
     1
 73
     0
176
     1
 90
        0
176
     1
 40
0.6
176
     1
 41
30.0
176
     1
 62
     5
 63
     7
421
 16777215
176
     1
 74
     1
176
     1
 91
        4
176
     1
 64
     7
176
     1
 65
   257
176
     1
 75
     1
176
     1
175
     1
176
     1
 42
1.0
176
     1
 92
        8
176
     1
 66
     7
176
     1
 43
1.0
176
     1
 76
     1
176
     1
 77
     6
176
     1
 78
     2
176
     1
 67
     7
176
     1
 79
     5
176
     1
170
     0
176
     1
171
     0
176
     1
290
     0
176
     1
 93
        1
176
     1
 44
50.0
176
     1
173
     0
176
     1
  0
VISUALSTYLE
  5
3A
102
{ACAD_REACTORS
330
2A
102
}
102
{ACAD_XDICTIONARY
360
51C
102
}
330
2A
100
AcDbVisualStyle
  2
ColorChange
 70
    16
177
     2
291
     1
 71
     2
176
     1
 72
     2
176
     1
 73
     3
176
     1
 90
        0
176
     1
 40
0.6
176
     1
 41
30.0
176
     1
 62
     5
 63
     8
421
  8421504
176
     1
 74
     1
176
     1
 91
        4
176
     1
 64
     7
176
     1
 65
   257
176
     1
 75
     1
176
     1
175
     1
176
     1
 42
1.0
176
     1
 92
        8
176
     1
 66
     8
424
  8421504
176
     1
 43
1.0
176
     1
 76
     1
176
     1
 77
     6
176
     1
 78
     2
176
     1
 67
     7
176
     1
 79
     5
176
     1
170
     0
176
     1
171
     0
176
     1
290
     0
176
     1
 93
        1
176
     1
 44
0.0
176
     1
173
     0
176
     1
  0
VISUALSTYLE
  5
34
102
{ACAD_REACTORS
330
2A
102
}
102
{ACAD_XDICTIONARY
360
510
102
}
330
2A
100
AcDbVisualStyle
  2
Conceptual
 70
     9
177
     2
291
     0
 71
     3
176
     1
 72
     2
176
     1
 73
     0
176
     1
 90
        0
176
     1
 40
0.6
176
     1
 41
30.0
176
     1
 62
     5
 63
     7
421
 16777215
176
     1
 74
     2
176
     1
 91
        2
176
     1
 64
     7
176
     1
 65
   257
176
     1
 75
     1
176
     1
175
     1
176
     1
 42
179.0
176
     1
 92
        8
176
     1
 66
     7
176
     1
 43
1.0
176
     1
 76
     1
176
     1
 77
     6
176
     1
 78
     2
176
     1
 67
     7
176
     1
 79
     3
176
     1
170
     0
176
     1
171
     0
176
     1
290
     0
176
     1
 93
        1
176
     1
 44
0.0
176
     1
173
     0
176
     1
  0
VISUALSTYLE
  5
35
102
{ACAD_REACTORS
330
2A
102
}
102
{ACAD_XDICTIONARY
360
512
102
}
330
2A
100
AcDbVisualStyle
  2
Dim
 70
    11
177
     2
291
     1
 71
     2
176
     1
 72
     2
176
     1
 73
     0
176
     1
 90
        0
176
     1
 40
0.6
176
     1
 41
30.0
176
     1
 62
     5
 63
     7
421
 16777215
176
     1
 74
     1
176
     1
 91
        4
176
     1
 64
     7
176
     1
 65
   257
176
     1
 75
     1
176
     1
175
     1
176
     1
 42
1.0
176
     1
 92
        8
176
     1
 66
     7
176
     1
 43
1.0
176
     1
 76
     1
176
     1
 77
     6
176
     1
 78
     2
176
     1
 67
     7
176
     1
 79
     5
176
     1
170
     0
176
     1
171
     0
176
     1
290
     0
176
     1
 93
        1
176
     1
 44
-50.0
176
     1
173
     0
176
     1
  0
VISUALSTYLE
  5
3D
102
{ACAD_REACTORS
330
2A
102
}
102
{ACAD_XDICTIONARY
360
522
102
}
330
2A
100
AcDbVisualStyle
  2
EdgeColorOff
 70
    22
177
     2
291
     1
 71
     2
176
     0
 72
     2
176
     0
 73
     0
176
     0
 90
        0
176
     0
 40
0.6
176
     0
 41
30.0
176
     0
 62
     5
 63
     7
421
 16777215
176
     0
 74
     1
176
     0
 91
        4
176
     0
 64
     7
176
     0
 65
   257
176
     0
 75
     1
176
     0
175
     1
176
     0
 42
1.0
176
     0
 92
        8
176
     2
 66
     7
176
     0
 43
1.0
176
     0
 76
     1
176
     0
 77
     6
176
     0
 78
     2
176
     0
 67
     7
176
     0
 79
     5
176
     0
170
     0
176
     0
171
     0
176
     0
290
     0
176
     0
 93
        1
176
     0
 44
0.0
176
     0
173
     0
176
     0
  0
VISUALSTYLE
  5
39
102
{ACAD_REACTORS
330
2A
102
}
102
{ACAD_XDICTIONARY
360
51A
102
}
330
2A
100
AcDbVisualStyle
  2
Facepattern
 70
    15
177
     2
291
     1
 71
     2
176
     1
 72
     2
176
     1
 73
     0
176
     1
 90
        0
176
     1
 40
0.6
176
     1
 41
30.0
176
     1
 62
     5
 63
     7
421
 16777215
176
     1
 74
     1
176
     1
 91
        4
176
     1
 64
     7
176
     1
 65
   257
176
     1
 75
     1
176
     1
175
     1
176
     1
 42
1.0
176
     1
 92
        8
176
     1
 66
     7
176
     1
 43
1.0
176
     1
 76
     1
176
     1
 77
     6
176
     1
 78
     2
176
     1
 67
     7
176
     1
 79
     5
176
     1
170
     0
176
     1
171
     0
176
     1
290
     0
176
     1
 93
        1
176
     1
 44
0.0
176
     1
173
     0
176
     1
  0
VISUALSTYLE
  5
2B
102
{ACAD_REACTORS
330
2A
102
}
102
{ACAD_XDICTIONARY
360
4FE
102
}
330
2A
100
AcDbVisualStyle
  2
Flat
 70
     0
177
     2
291
     1
 71
     2
176
     1
 72
     1
176
     1
 73
     1
176
     1
 90
        2
176
     1
 40
0.6
176
     1
 41
30.0
176
     1
 62
     5
 63
     7
421
 16777215
176
     1
 74
     0
176
     1
 91
        0
176
     1
 64
     7
176
     1
 65
   257
176
     1
 75
     1
176
     1
175
     1
176
     1
 42
1.0
176
     1
 92
        8
176
     1
 66
     7
176
     1
 43
1.0
176
     1
 76
     1
176
     1
 77
     6
176
     1
 78
     2
176
     1
 67
     7
176
     1
 79
     5
176
     1
170
     0
176
     1
171
     0
176
     1
290
     0
176
     1
 93
       13
176
     1
 44
0.0
176
     1
173
     0
176
     1
  0
VISUALSTYLE
  5
2C
102
{ACAD_REACTORS
330
2A
102
}
102
{ACAD_XDICTIONARY
360
500
102
}
330
2A
100
AcDbVisualStyle
  2
FlatWithEdges
 70
     1
177
     2
291
     1
 71
     2
176
     1
 72
     1
176
     1
 73
     1
176
     1
 90
        2
176
     1
 40
0.6
176
     1
 41
30.0
176
     1
 62
     5
 63
     7
421
 16777215
176
     1
 74
     1
176
     1
 91
        0
176
     1
 64
     7
176
     1
 65
   257
176
     1
 75
     1
176
     1
175
     1
176
     1
 42
1.0
176
     1
 92
        0
176
     1
 66
   257
176
     1
 43
1.0
176
     1
 76
     1
176
     1
 77
     6
176
     1
 78
     2
176
     1
 67
     7
176
     1
 79
     5
176
     1
170
     0
176
     1
171
     0
176
     1
290
     0
176
     1
 93
       13
176
     1
 44
0.0
176
     1
173
     0
176
     1
  0
VISUALSTYLE
  5
2D
102
{ACAD_REACTORS
330
2A
102
}
102
{ACAD_XDICTIONARY
360
502
102
}
330
2A
100
AcDbVisualStyle
  2
Gouraud
 70
     2
177
     2
291
     1
 71
     2
176
     1
 72
     2
176
     1
 73
     1
176
     1
 90
        2
176
     1
 40
0.6
176
     1
 41
30.0
176
     1
 62
     5
 63
     7
421
 16777215
176
     1
 74
     0
176
     1
 91
        0
176
     1
 64
     7
176
     1
 65
   257
176
     1
 75
     1
176
     1
175
     1
176
     1
 42
1.0
176
     1
 92
        0
176
     1
 66
     7
176
     1
 43
1.0
176
     1
 76
     1
176
     1
 77
     6
176
     1
 78
     2
176
     1
 67
     7
176
     1
 79
     5
176
     1
170
     0
176
     1
171
     0
176
     1
290
     0
176
     1
 93
       13
176
     1
 44
0.0
176
     1
173
     0
176
     1
  0
VISUALSTYLE
  5
2E
102
{ACAD_REACTORS
330
2A
102
}
102
{ACAD_XDICTIONARY
360
504
102
}
330
2A
100
AcDbVisualStyle
  2
GouraudWithEdges
 70
     3
177
     2
291
     1
 71
     2
176
     1
 72
     2
176
     1
 73
     1
176
     1
 90
        2
176
     1
 40
0.6
176
     1
 41
30.0
176
     1
 62
     5
 63
     7
421
 16777215
176
     1
 74
     1
176
     1
 91
        0
176
     1
 64
     7
176
     1
 65
   257
176
     1
 75
     1
176
     1
175
     1
176
     1
 42
1.0
176
     1
 92
        0
176
     1
 66
   257
176
     1
 43
1.0
176
     1
 76
     1
176
     1
 77
     6
176
     1
 78
     2
176
     1
 67
     7
176
     1
 79
     5
176
     1
170
     0
176
     1
171
     0
176
     1
290
     0
176
     1
 93
       13
176
     1
 44
0.0
176
     1
173
     0
176
     1
  0
VISUALSTYLE
  5
31
102
{ACAD_REACTORS
330
2A
102
}
102
{ACAD_XDICTIONARY
360
50A
102
}
330
2A
100
AcDbVisualStyle
  2
Hidden
 70
     6
177
     2
291
     0
 71
     1
176
     1
 72
     2
176
     1
 73
     2
176
     1
 90
        0
176
     1
 40
0.6
176
     1
 41
30.0
176
     1
 62
     5
 63
     7
421
 16777215
176
     1
 74
     2
176
     1
 91
        2
176
     1
 64
     7
176
     1
 65
   257
176
     1
 75
     2
176
     1
175
     1
176
     1
 42
40.0
176
     1
 92
        0
176
     1
 66
   257
176
     1
 43
1.0
176
     1
 76
     1
176
     1
 77
     6
176
     1
 78
     2
176
     1
 67
     7
176
     1
 79
     3
176
     1
170
     0
176
     1
171
     0
176
     1
290
     0
176
     1
 93
        1
176
     1
 44
0.0
176
     1
173
     0
176
     1
  0
VISUALSTYLE
  5
3B
102
{ACAD_REACTORS
330
2A
102
}
102
{ACAD_XDICTIONARY
360
51E
102
}
330
2A
100
AcDbVisualStyle
  2
JitterOff
 70
    20
177
     2
291
     1
 71
     2
176
     0
 72
     2
176
     0
 73
     0
176
     0
 90
        0
176
     0
 40
0.6
176
     0
 41
30.0
176
     0
 62
     5
 63
     7
421
 16777215
176
     0
 74
     1
176
     0
 91
        4
176
     0
 64
     7
176
     0
 65
   257
176
     0
 75
     1
176
     0
175
     1
176
     0
 42
1.0
176
     0
 92
       10
176
     2
 66
     7
176
     0
 43
1.0
176
     0
 76
     1
176
     0
 77
     6
176
     0
 78
     2
176
     0
 67
     7
176
     0
 79
     5
176
     0
170
     0
176
     0
171
     0
176
     0
290
     0
176
     0
 93
        1
176
     0
 44
0.0
176
     0
173
     0
176
     0
  0
VISUALSTYLE
  5
38
102
{ACAD_REACTORS
330
2A
102
}
102
{ACAD_XDICTIONARY
360
518
102
}
330
2A
100
AcDbVisualStyle
  2
Linepattern
 70
    14
177
     2
291
     1
 71
     2
176
     1
 72
     2
176
     1
 73
     0
176
     1
 90
        0
176
     1
 40
0.6
176
     1
 41
30.0
176
     1
 62
     5
 63
     7
421
 16777215
176
     1
 74
     1
176
     1
 91
        4
176
     1
 64
     7
176
     1
 65
   257
176
     1
 75
     7
176
     1
175
     7
176
     1
 42
1.0
176
     1
 92
        8
176
     1
 66
     7
176
     1
 43
1.0
176
     1
 76
     1
176
     1
 77
     6
176
     1
 78
     2
176
     1
 67
     7
176
     1
 79
     5
176
     1
170
     0
176
     1
171
     0
176
     1
290
     0
176
     1
 93
        1
176
     1
 44
0.0
176
     1
173
     0
176
     1
  0
VISUALSTYLE
  5
3C
102
{ACAD_REACTORS
330
2A
102
}
102
{ACAD_XDICTIONARY
360
520
102
}
330
2A
100
AcDbVisualStyle
  2
OverhangOff
 70
    21
177
     2
291
     1
 71
     2
176
     0
 72
     2
176
     0
 73
     0
176
     0
 90
        0
176
     0
 40
0.6
176
     0
 41
30.0
176
     0
 62
     5
 63
     7
421
 16777215
176
     0
 74
     1
176
     0
 91
        4
176
     0
 64
     7
176
     0
 65
   257
176
     0
 75
     1
176
     0
175
     1
176
     0
 42
1.0
176
     0
 92
        9
176
     2
 66
     7
176
     0
 43
1.0
176
     0
 76
     1
176
     0
 77
     6
176
     0
 78
     2
176
     0
 67
     7
176
     0
 79
     5
176
     0
170
     0
176
     0
171
     0
176
     0
290
     0
176
     0
 93
        1
176
     0
 44
0.0
176
     0
173
     0
176
     0
  0
VISUALSTYLE
  5
33
102
{ACAD_REACTORS
330
2A
102
}
102
{ACAD_XDICTIONARY
360
50E
102
}
330
2A
100
AcDbVisualStyle
  2
Realistic
 70
     8
177
     2
291
     0
 71
     2
176
     1
 72
     3
176
     1
 73
     0
176
     1
 90
        2
176
     1
 40
0.6
176
     1
 41
30.0
176
     1
 62
     5
 63
     7
421
 16777215
176
     1
 74
     0
176
     1
 91
        0
176
     1
 64
     7
176
     1
 65
   257
176
     1
 75
     1
176
     1
175
     1
176
     1
 42
1.0
176
     1
 92
        8
176
     1
 66
   257
176
     1
 43
1.0
176
     1
 76
     1
176
     1
 77
     6
176
     1
 78
     2
176
     1
 67
     7
176
     1
 79
     3
176
     1
170
     0
176
     1
171
     0
176
     1
290
     0
176
     1
 93
       13
176
     1
 44
0.0
176
     1
173
     0
176
     1
  0
VISUALSTYLE
  5
42
102
{ACAD_REACTORS
330
2A
102
}
102
{ACAD_XDICTIONARY
360
52C
102
}
330
2A
100
AcDbVisualStyle
  2
Shaded
 70
    27
177
     2
291
     0
 71
     2
176
     1
 72
     2
176
     1
 73
     1
176
     1
 90
        2
176
     1
 40
0.6
176
     1
 41
30.0
176
     1
 62
     5
 63
     7
421
 16777215
176
     1
 74
     0
176
     1
 91
        4
176
     1
 64
     7
176
     1
 65
   257
176
     1
 75
     1
176
     1
175
     1
176
     1
 42
1.0
176
     1
 92
        8
176
     1
 66
   257
176
     1
 43
1.0
176
     1
 76
     1
176
     1
 77
     6
176
     1
 78
     2
176
     1
 67
     8
425
  7895160
176
     1
 79
     3
176
     1
170
     0
176
     1
171
     0
176
     1
290
     0
176
     1
 93
        5
176
     1
 44
0.0
176
     1
173
     0
176
     1
  0
VISUALSTYLE
  5
41
102
{ACAD_REACTORS
330
2A
102
}
102
{ACAD_XDICTIONARY
360
52A
102
}
330
2A
100
AcDbVisualStyle
  2
Shaded with edges
 70
    26
177
     2
291
     0
 71
     2
176
     1
 72
     2
176
     1
 73
     1
176
     1
 90
        2
176
     1
 40
0.6
176
     1
 41
30.0
176
     1
 62
     5
 63
     7
421
 16777215
176
     1
 74
     1
176
     1
 91
       10
176
     1
 64
     7
176
     1
 65
   257
176
     1
 75
     2
176
     1
175
     1
176
     1
 42
1.0
176
     1
 92
        8
176
     1
 66
   257
176
     1
 43
1.0
176
     1
 76
     1
176
     1
 77
     6
176
     1
 78
     2
176
     1
 67
     7
176
     1
 79
     3
176
     1
170
     0
176
     1
171
     0
176
     1
290
     0
176
     1
 93
        5
176
     1
 44
0.0
176
     1
173
     0
176
     1
  0
VISUALSTYLE
  5
3E
102
{ACAD_REACTORS
330
2A
102
}
102
{ACAD_XDICTIONARY
360
524
102
}
330
2A
100
AcDbVisualStyle
  2
Shades of Gray
 70
    23
177
     2
291
     0
 71
     2
176
     1
 72
     2
176
     1
 73
     3
176
     1
 90
        0
176
     1
 40
0.6
176
     1
 41
30.0
176
     1
 62
     5
 63
     7
421
 16777215
176
     1
 74
     2
176
     1
 91
        2
176
     1
 64
     7
176
     1
 65
     7
176
     1
 75
     1
176
     1
175
     1
176
     1
 42
40.0
176
     1
 92
        8
176
     1
 66
     7
176
     1
 43
1.0
176
     1
 76
     1
176
     1
 77
     6
176
     1
 78
     2
176
     1
 67
     7
176
     1
 79
     3
176
     1
170
     0
176
     1
171
     0
176
     1
290
     0
176
     1
 93
        1
176
     1
 44
0.0
176
     1
173
     0
176
     1
  0
VISUALSTYLE
  5
3F
102
{ACAD_REACTORS
330
2A
102
}
102
{ACAD_XDICTIONARY
360
526
102
}
330
2A
100
AcDbVisualStyle
  2
Sketchy
 70
    24
177
     2
291
     0
 71
     1
176
     1
 72
     2
176
     1
 73
     2
176
     1
 90
        0
176
     1
 40
0.6
176
     1
 41
30.0
176
     1
 62
     5
 63
     7
421
 16777215
176
     1
 74
     2
176
     1
 91
        2
176
     1
 64
     7
176
     1
 65
     7
176
     1
 75
     1
176
     1
175
     1
176
     1
 42
40.0
176
     1
 92
       11
176
     1
 66
     7
176
     1
 43
1.0
176
     1
 76
     1
176
     1
 77
     6
176
     1
 78
     2
176
     1
 67
     7
176
     1
 79
     6
176
     1
170
     0
176
     1
171
     0
176
     1
290
     0
176
     1
 93
        1
176
     1
 44
0.0
176
     1
173
     0
176
     1
  0
VISUALSTYLE
  5
37
102
{ACAD_REACTORS
330
2A
102
}
102
{ACAD_XDICTIONARY
360
516
102
}
330
2A
100
AcDbVisualStyle
  2
Thicken
 70
    13
177
     2
291
     1
 71
     2
176
     1
 72
     2
176
     1
 73
     0
176
     1
 90
        0
176
     1
 40
0.6
176
     1
 41
30.0
176
     1
 62
     5
 63
     7
421
 16777215
176
     1
 74
     1
176
     1
 91
        4
176
     1
 64
     7
176
     1
 65
   257
176
     1
 75
     1
176
     1
175
     1
176
     1
 42
1.0
176
     1
 92
       12
176
     1
 66
     7
176
     1
 43
1.0
176
     1
 76
     1
176
     1
 77
     6
176
     1
 78
     2
176
     1
 67
     7
176
     1
 79
     5
176
     1
170
     0
176
     1
171
     0
176
     1
290
     0
176
     1
 93
        1
176
     1
 44
0.0
176
     1
173
     0
176
     1
  0
VISUALSTYLE
  5
30
102
{ACAD_REACTORS
330
2A
102
}
102
{ACAD_XDICTIONARY
360
508
102
}
330
2A
100
AcDbVisualStyle
  2
Wireframe
 70
     5
177
     2
291
     0
 71
     0
176
     1
 72
     2
176
     1
 73
     0
176
     1
 90
        0
176
     1
 40
0.6
176
     1
 41
30.0
176
     1
 62
     5
 63
     7
421
 16777215
176
     1
 74
     1
176
     1
 91
        4
176
     1
 64
     7
176
     1
 65
   257
176
     1
 75
     1
176
     1
175
     1
176
     1
 42
1.0
176
     1
 92
        0
176
     1
 66
   257
176
     1
 43
1.0
176
     1
 76
     1
176
     1
 77
     6
176
     1
 78
     2
176
     1
 67
     7
176
     1
 79
     3
176
     1
170
     0
176
     1
171
     0
176
     1
290
     0
176
     1
 93
        1
176
     1
 44
0.0
176
     1
173
     0
176
     1
  0
VISUALSTYLE
  5
40
102
{ACAD_REACTORS
330
2A
102
}
102
{ACAD_XDICTIONARY
360
528
102
}
330
2A
100
AcDbVisualStyle
  2
X-Ray
 70
    25
177
     2
291
     0
 71
     2
176
     1
 72
     2
176
     1
 73
     1
176
     1
 90
        1
176
     1
 40
0.5
176
     1
 41
30.0
176
     1
 62
     5
 63
     7
421
 16777215
176
     1
 74
     1
176
     1
 91
        0
176
     1
 64
     7
176
     1
 65
   257
176
     1
 75
     1
176
     1
175
     1
176
     1
 42
1.0
176
     1
 92
        8
176
     1
 66
     7
176
     1
 43
1.0
176
     1
 76
     1
176
     1
 77
     6
176
     1
 78
     2
176
     1
 67
     7
176
     1
 79
     3
176
     1
170
     0
176
     1
171
     0
176
     1
290
     0
176
     1
 93
       13
176
     1
 44
0.0
176
     1
173
     0
176
     1
  0
DICTIONARYVAR
  5
4FD
102
{ACAD_REACTORS
330
4FC
102
}
330
4FC
100
DictionaryVariables
280
     0
  1
1:1
  0
DICTIONARYVAR
  5
532
102
{ACAD_REACTORS
330
4FC
102
}
330
4FC
100
DictionaryVariables
280
     0
  1
Standard
  0
DICTIONARYVAR
  5
531
102
{ACAD_REACTORS
330
4FC
102
}
330
4FC
100
DictionaryVariables
280
     0
  1
Standard
  0
DICTIONARY
  5
52E
330
6A
100
AcDbDictionary
280
     1
281
     1
  3
ACAD_ROUNDTRIP_2008_TABLESTYLE_CELLSTYLEMAP
360
52F
  0
DICTIONARY
  5
506
330
2F
100
AcDbDictionary
280
     1
281
     1
  3
ACAD_XREC_ROUNDTRIP
360
507
  0
DICTIONARY
  5
50C
330
32
100
AcDbDictionary
280
     1
281
     1
  3
ACAD_XREC_ROUNDTRIP
360
50D
  0
DICTIONARY
  5
514
330
36
100
AcDbDictionary
280
     1
281
     1
  3
ACAD_XREC_ROUNDTRIP
360
515
  0
DICTIONARY
  5
51C
330
3A
100
AcDbDictionary
280
     1
281
     1
  3
ACAD_XREC_ROUNDTRIP
360
51D
  0
DICTIONARY
  5
510
330
34
100
AcDbDictionary
280
     1
281
     1
  3
ACAD_XREC_ROUNDTRIP
360
511
  0
DICTIONARY
  5
512
330
35
100
AcDbDictionary
280
     1
281
     1
  3
ACAD_XREC_ROUNDTRIP
360
513
  0
DICTIONARY
  5
522
330
3D
100
AcDbDictionary
280
     1
281
     1
  3
ACAD_XREC_ROUNDTRIP
360
523
  0
DICTIONARY
  5
51A
330
39
100
AcDbDictionary
280
     1
281
     1
  3
ACAD_XREC_ROUNDTRIP
360
51B
  0
DICTIONARY
  5
4FE
330
2B
100
AcDbDictionary
280
     1
281
     1
  3
ACAD_XREC_ROUNDTRIP
360
4FF
  0
DICTIONARY
  5
500
330
2C
100
AcDbDictionary
280
     1
281
     1
  3
ACAD_XREC_ROUNDTRIP
360
501
  0
DICTIONARY
  5
502
330
2D
100
AcDbDictionary
280
     1
281
     1
  3
ACAD_XREC_ROUNDTRIP
360
503
  0
DICTIONARY
  5
504
330
2E
100
AcDbDictionary
280
     1
281
     1
  3
ACAD_XREC_ROUNDTRIP
360
505
  0
DICTIONARY
  5
50A
330
31
100
AcDbDictionary
280
     1
281
     1
  3
ACAD_XREC_ROUNDTRIP
360
50B
  0
DICTIONARY
  5
51E
330
3B
100
AcDbDictionary
280
     1
281
     1
  3
ACAD_XREC_ROUNDTRIP
360
51F
  0
DICTIONARY
  5
518
330
38
100
AcDbDictionary
280
     1
281
     1
  3
ACAD_XREC_ROUNDTRIP
360
519
  0
DICTIONARY
  5
520
330
3C
100
AcDbDictionary
280
     1
281
     1
  3
ACAD_XREC_ROUNDTRIP
360
521
  0
DICTIONARY
  5
50E
330
33
100
AcDbDictionary
280
     1
281
     1
  3
ACAD_XREC_ROUNDTRIP
360
50F
  0
DICTIONARY
  5
52C
330
42
100
AcDbDictionary
280
     1
281
     1
  3
ACAD_XREC_ROUNDTRIP
360
52D
  0
DICTIONARY
  5
52A
330
41
100
AcDbDictionary
280
     1
281
     1
  3
ACAD_XREC_ROUNDTRIP
360
52B
  0
DICTIONARY
  5
524
330
3E
100
AcDbDictionary
280
     1
281
     1
  3
ACAD_XREC_ROUNDTRIP
360
525
  0
DICTIONARY
  5
526
330
3F
100
AcDbDictionary
280
     1
281
     1
  3
ACAD_XREC_ROUNDTRIP
360
527
  0
DICTIONARY
  5
516
330
37
100
AcDbDictionary
280
     1
281
     1
  3
ACAD_XREC_ROUNDTRIP
360
517
  0
DICTIONARY
  5
508
330
30
100
AcDbDictionary
280
     1
281
     1
  3
ACAD_XREC_ROUNDTRIP
360
509
  0
DICTIONARY
  5
528
330
40
100
AcDbDictionary
280
     1
281
     1
  3
ACAD_XREC_ROUNDTRIP
360
529
  0
CELLSTYLEMAP
  5
52F
102
{ACAD_REACTORS
330
52E
102
}
330
52E
100
AcDbCellStyleMap
 90
        3
300
CELLSTYLE
  1
TABLEFORMAT_BEGIN
 90
        5
170
     1
 91
        0
 92
    32768
 62
   257
 93
        1
300
CONTENTFORMAT
  1
CONTENTFORMAT_BEGIN
 90
        0
 91
        0
 92
        4
 93
        0
300

 40
0.0
140
1.0
 94
        5
 62
     0
340
11
144
0.25
309
CONTENTFORMAT_END
171
     1
301
MARGIN
  1
CELLMARGIN_BEGIN
 40
0.06
 40
0.06
 40
0.06
 40
0.06
 40
0.06
 40
0.06
309
CELLMARGIN_END
 94
        6
 95
        1
302
GRIDFORMAT
  1
GRIDFORMAT_BEGIN
 90
        0
 91
        1
 62
     0
 92
       -2
340
14
 93
        0
 40
0.045
309
GRIDFORMAT_END
 95
        2
302
GRIDFORMAT
  1
GRIDFORMAT_BEGIN
 90
        0
 91
        1
 62
     0
 92
       -2
340
14
 93
        0
 40
0.045
309
GRIDFORMAT_END
 95
        4
302
GRIDFORMAT
  1
GRIDFORMAT_BEGIN
 90
        0
 91
        1
 62
     0
 92
       -2
340
14
 93
        0
 40
0.045
309
GRIDFORMAT_END
 95
        8
302
GRIDFORMAT
  1
GRIDFORMAT_BEGIN
 90
        0
 91
        1
 62
     0
 92
       -2
340
14
 93
        0
 40
0.045
309
GRIDFORMAT_END
 95
       16
302
GRIDFORMAT
  1
GRIDFORMAT_BEGIN
 90
        0
 91
        1
 62
     0
 92
       -2
340
14
 93
        0
 40
0.045
309
GRIDFORMAT_END
 95
       32
302
GRIDFORMAT
  1
GRIDFORMAT_BEGIN
 90
        0
 91
        1
 62
     0
 92
       -2
340
14
 93
        0
 40
0.045
309
GRIDFORMAT_END
309
TABLEFORMAT_END
  1
CELLSTYLE_BEGIN
 90
        1
 91
        1
300
_TITLE
309
CELLSTYLE_END
300
CELLSTYLE
  1
TABLEFORMAT_BEGIN
 90
        5
170
     1
 91
        0
 92
        0
 62
   257
 93
        1
300
CONTENTFORMAT
  1
CONTENTFORMAT_BEGIN
 90
        0
 91
        0
 92
        4
 93
        0
300

 40
0.0
140
1.0
 94
        5
 62
     0
340
11
144
0.18
309
CONTENTFORMAT_END
171
     1
301
MARGIN
  1
CELLMARGIN_BEGIN
 40
0.06
 40
0.06
 40
0.06
 40
0.06
 40
0.06
 40
0.06
309
CELLMARGIN_END
 94
        6
 95
        1
302
GRIDFORMAT
  1
GRIDFORMAT_BEGIN
 90
        0
 91
        1
 62
     0
 92
       -2
340
14
 93
        0
 40
0.045
309
GRIDFORMAT_END
 95
        2
302
GRIDFORMAT
  1
GRIDFORMAT_BEGIN
 90
        0
 91
        1
 62
     0
 92
       -2
340
14
 93
        0
 40
0.045
309
GRIDFORMAT_END
 95
        4
302
GRIDFORMAT
  1
GRIDFORMAT_BEGIN
 90
        0
 91
        1
 62
     0
 92
       -2
340
14
 93
        0
 40
0.045
309
GRIDFORMAT_END
 95
        8
302
GRIDFORMAT
  1
GRIDFORMAT_BEGIN
 90
        0
 91
        1
 62
     0
 92
       -2
340
14
 93
        0
 40
0.045
309
GRIDFORMAT_END
 95
       16
302
GRIDFORMAT
  1
GRIDFORMAT_BEGIN
 90
        0
 91
        1
 62
     0
 92
       -2
340
14
 93
        0
 40
0.045
309
GRIDFORMAT_END
 95
       32
302
GRIDFORMAT
  1
GRIDFORMAT_BEGIN
 90
        0
 91
        1
 62
     0
 92
       -2
340
14
 93
        0
 40
0.045
309
GRIDFORMAT_END
309
TABLEFORMAT_END
  1
CELLSTYLE_BEGIN
 90
        2
 91
        1
300
_HEADER
309
CELLSTYLE_END
300
CELLSTYLE
  1
TABLEFORMAT_BEGIN
 90
        5
170
     1
 91
        0
 92
        0
 62
   257
 93
        1
300
CONTENTFORMAT
  1
CONTENTFORMAT_BEGIN
 90
        0
 91
        0
 92
        4
 93
        0
300

 40
0.0
140
1.0
 94
        2
 62
     0
340
11
144
0.18
309
CONTENTFORMAT_END
171
     1
301
MARGIN
  1
CELLMARGIN_BEGIN
 40
0.06
 40
0.06
 40
0.06
 40
0.06
 40
0.06
 40
0.06
309
CELLMARGIN_END
 94
        6
 95
        1
302
GRIDFORMAT
  1
GRIDFORMAT_BEGIN
 90
        0
 91
        1
 62
     0
 92
       -2
340
14
 93
        0
 40
0.045
309
GRIDFORMAT_END
 95
        2
302
GRIDFORMAT
  1
GRIDFORMAT_BEGIN
 90
        0
 91
        1
 62
     0
 92
       -2
340
14
 93
        0
 40
0.045
309
GRIDFORMAT_END
 95
        4
302
GRIDFORMAT
  1
GRIDFORMAT_BEGIN
 90
        0
 91
        1
 62
     0
 92
       -2
340
14
 93
        0
 40
0.045
309
GRIDFORMAT_END
 95
        8
302
GRIDFORMAT
  1
GRIDFORMAT_BEGIN
 90
        0
 91
        1
 62
     0
 92
       -2
340
14
 93
        0
 40
0.045
309
GRIDFORMAT_END
 95
       16
302
GRIDFORMAT
  1
GRIDFORMAT_BEGIN
 90
        0
 91
        1
 62
     0
 92
       -2
340
14
 93
        0
 40
0.045
309
GRIDFORMAT_END
 95
       32
302
GRIDFORMAT
  1
GRIDFORMAT_BEGIN
 90
        0
 91
        1
 62
     0
 92
       -2
340
14
 93
        0
 40
0.045
309
GRIDFORMAT_END
309
TABLEFORMAT_END
  1
CELLSTYLE_BEGIN
 90
        3
 91
        2
300
_DATA
309
CELLSTYLE_END
  0
XRECORD
  5
507
102
{ACAD_REACTORS
330
506
102
}
330
506
100
AcDbXrecord
280
     1
102
RTVSPost2010Prop28
280
     1
102
RTVSPost2010PropOp28
 70
     1
102
RTVSPost2010Prop29
280
     1
102
RTVSPost2010PropOp29
 70
     1
102
RTVSPost2010Prop30
280
     0
102
RTVSPost2010PropOp30
 70
     1
102
RTVSPost2010Prop31
280
     0
102
RTVSPost2010PropOp31
 70
     1
102
RTVSPost2010Prop32
280
     0
102
RTVSPost2010PropOp32
 70
     1
102
RTVSPost2010Prop33
280
     0
102
RTVSPost2010PropOp33
 70
     1
102
RTVSPost2010Prop34
280
     0
102
RTVSPost2010PropOp34
 70
     1
102
RTVSPost2010Prop35
280
     0
102
RTVSPost2010PropOp35
 70
     1
102
RTVSPost2010Prop36
280
     0
102
RTVSPost2010PropOp36
 70
     1
102
RTVSPost2010Prop37
 90
       50
102
RTVSPost2010PropOp37
 70
     1
102
RTVSPost2010Prop38
140
0.0
102
RTVSPost2010PropOp38
 70
     1
102
RTVSPost2010Prop39
140
1.0
102
RTVSPost2010PropOp39
 70
     1
102
RTVSPost2010Prop40
 90
        0
102
RTVSPost2010PropOp40
 70
     1
102
RTVSPost2010Prop41ColorIndex
 90
       18
102
RTVSPost2010Prop41ColorRGB
 90
        0
102
RTVSPost2010PropOp41
 70
     1
102
RTVSPost2010Prop42
 90
       50
102
RTVSPost2010PropOp42
 70
     1
102
RTVSPost2010Prop43
 90
        3
102
RTVSPost2010PropOp43
 70
     1
102
RTVSPost2010Prop44ColorIndex
 90
        5
102
RTVSPost2010Prop44ColorRGB
 90
      255
102
RTVSPost2010PropOp44
 70
     1
102
RTVSPost2010Prop45
280
     0
102
RTVSPost2010PropOp45
 70
     1
102
RTVSPost2010Prop46
 90
       50
102
RTVSPost2010PropOp46
 70
     1
102
RTVSPost2010Prop47
 90
       50
102
RTVSPost2010PropOp47
 70
     1
102
RTVSPost2010Prop48
 90
       50
102
RTVSPost2010PropOp48
 70
     1
102
RTVSPost2010Prop49
280
     0
102
RTVSPost2010PropOp49
 70
     1
102
RTVSPost2010Prop50
 90
       50
102
RTVSPost2010PropOp50
 70
     1
102
RTVSPost2010Prop51ColorIndex
 90
      256
102
RTVSPost2010Prop51ColorRGB
 90
-16777216
102
RTVSPost2010PropOp51
 70
     0
102
RTVSPost2010Prop52
140
1.0
102
RTVSPost2010PropOp52
 70
     0
102
RTVSPost2010Prop53
 90
        2
102
RTVSPost2010PropOp53
 70
     1
102
RTVSPost2010Prop54
  1
strokes_ogs.tif
102
RTVSPost2010PropOp54
 70
     1
102
RTVSPost2010Prop55
280
     0
102
RTVSPost2010PropOp55
 70
     1
102
RTVSPost2010Prop56
140
1.0
102
RTVSPost2010PropOp56
 70
     1
102
RTVSPost2010Prop57
140
1.0
102
RTVSPost2010PropOp57
 70
     1
  0
XRECORD
  5
50D
102
{ACAD_REACTORS
330
50C
102
}
330
50C
100
AcDbXrecord
280
     1
102
RTVSPost2010Prop28
280
     0
102
RTVSPost2010PropOp28
 70
     1
102
RTVSPost2010Prop29
280
     1
102
RTVSPost2010PropOp29
 70
     1
102
RTVSPost2010Prop30
280
     1
102
RTVSPost2010PropOp30
 70
     1
102
RTVSPost2010Prop31
280
     0
102
RTVSPost2010PropOp31
 70
     1
102
RTVSPost2010Prop32
280
     0
102
RTVSPost2010PropOp32
 70
     1
102
RTVSPost2010Prop33
280
     0
102
RTVSPost2010PropOp33
 70
     1
102
RTVSPost2010Prop34
280
     0
102
RTVSPost2010PropOp34
 70
     1
102
RTVSPost2010Prop35
280
     0
102
RTVSPost2010PropOp35
 70
     1
102
RTVSPost2010Prop36
280
     0
102
RTVSPost2010PropOp36
 70
     1
102
RTVSPost2010Prop37
 90
       50
102
RTVSPost2010PropOp37
 70
     1
102
RTVSPost2010Prop38
140
0.0
102
RTVSPost2010PropOp38
 70
     1
102
RTVSPost2010Prop39
140
1.0
102
RTVSPost2010PropOp39
 70
     1
102
RTVSPost2010Prop40
 90
        0
102
RTVSPost2010PropOp40
 70
     1
102
RTVSPost2010Prop41ColorIndex
 90
       18
102
RTVSPost2010Prop41ColorRGB
 90
        0
102
RTVSPost2010PropOp41
 70
     1
102
RTVSPost2010Prop42
 90
       50
102
RTVSPost2010PropOp42
 70
     1
102
RTVSPost2010Prop43
 90
        3
102
RTVSPost2010PropOp43
 70
     1
102
RTVSPost2010Prop44ColorIndex
 90
        5
102
RTVSPost2010Prop44ColorRGB
 90
      255
102
RTVSPost2010PropOp44
 70
     1
102
RTVSPost2010Prop45
280
     0
102
RTVSPost2010PropOp45
 70
     1
102
RTVSPost2010Prop46
 90
       50
102
RTVSPost2010PropOp46
 70
     1
102
RTVSPost2010Prop47
 90
       50
102
RTVSPost2010PropOp47
 70
     1
102
RTVSPost2010Prop48
 90
       50
102
RTVSPost2010PropOp48
 70
     1
102
RTVSPost2010Prop49
280
     0
102
RTVSPost2010PropOp49
 70
     1
102
RTVSPost2010Prop50
 90
       50
102
RTVSPost2010PropOp50
 70
     1
102
RTVSPost2010Prop51ColorIndex
 90
      256
102
RTVSPost2010Prop51ColorRGB
 90
-16777216
102
RTVSPost2010PropOp51
 70
     0
102
RTVSPost2010Prop52
140
1.0
102
RTVSPost2010PropOp52
 70
     0
102
RTVSPost2010Prop53
 90
        2
102
RTVSPost2010PropOp53
 70
     1
102
RTVSPost2010Prop54
  1
strokes_ogs.tif
102
RTVSPost2010PropOp54
 70
     1
102
RTVSPost2010Prop55
280
     0
102
RTVSPost2010PropOp55
 70
     1
102
RTVSPost2010Prop56
140
1.0
102
RTVSPost2010PropOp56
 70
     1
102
RTVSPost2010Prop57
140
1.0
102
RTVSPost2010PropOp57
 70
     1
  0
XRECORD
  5
515
102
{ACAD_REACTORS
330
514
102
}
330
514
100
AcDbXrecord
280
     1
102
RTVSPost2010Prop28
280
     0
102
RTVSPost2010PropOp28
 70
     1
102
RTVSPost2010Prop29
280
     1
102
RTVSPost2010PropOp29
 70
     1
102
RTVSPost2010Prop30
280
     1
102
RTVSPost2010PropOp30
 70
     1
102
RTVSPost2010Prop31
280
     0
102
RTVSPost2010PropOp31
 70
     1
102
RTVSPost2010Prop32
280
     0
102
RTVSPost2010PropOp32
 70
     1
102
RTVSPost2010Prop33
280
     0
102
RTVSPost2010PropOp33
 70
     1
102
RTVSPost2010Prop34
280
     0
102
RTVSPost2010PropOp34
 70
     1
102
RTVSPost2010Prop35
280
     0
102
RTVSPost2010PropOp35
 70
     1
102
RTVSPost2010Prop36
280
     0
102
RTVSPost2010PropOp36
 70
     1
102
RTVSPost2010Prop37
 90
       50
102
RTVSPost2010PropOp37
 70
     1
102
RTVSPost2010Prop38
140
0.0
102
RTVSPost2010PropOp38
 70
     1
102
RTVSPost2010Prop39
140
1.0
102
RTVSPost2010PropOp39
 70
     1
102
RTVSPost2010Prop40
 90
        0
102
RTVSPost2010PropOp40
 70
     1
102
RTVSPost2010Prop41ColorIndex
 90
       18
102
RTVSPost2010Prop41ColorRGB
 90
        0
102
RTVSPost2010PropOp41
 70
     1
102
RTVSPost2010Prop42
 90
       50
102
RTVSPost2010PropOp42
 70
     1
102
RTVSPost2010Prop43
 90
        3
102
RTVSPost2010PropOp43
 70
     1
102
RTVSPost2010Prop44ColorIndex
 90
        5
102
RTVSPost2010Prop44ColorRGB
 90
      255
102
RTVSPost2010PropOp44
 70
     1
102
RTVSPost2010Prop45
280
     0
102
RTVSPost2010PropOp45
 70
     1
102
RTVSPost2010Prop46
 90
       50
102
RTVSPost2010PropOp46
 70
     1
102
RTVSPost2010Prop47
 90
       50
102
RTVSPost2010PropOp47
 70
     1
102
RTVSPost2010Prop48
 90
       50
102
RTVSPost2010PropOp48
 70
     1
102
RTVSPost2010Prop49
280
     0
102
RTVSPost2010PropOp49
 70
     1
102
RTVSPost2010Prop50
 90
       50
102
RTVSPost2010PropOp50
 70
     1
102
RTVSPost2010Prop51ColorIndex
 90
      256
102
RTVSPost2010Prop51ColorRGB
 90
-16777216
102
RTVSPost2010PropOp51
 70
     0
102
RTVSPost2010Prop52
140
1.0
102
RTVSPost2010PropOp52
 70
     0
102
RTVSPost2010Prop53
 90
        2
102
RTVSPost2010PropOp53
 70
     1
102
RTVSPost2010Prop54
  1
strokes_ogs.tif
102
RTVSPost2010PropOp54
 70
     1
102
RTVSPost2010Prop55
280
     0
102
RTVSPost2010PropOp55
 70
     1
102
RTVSPost2010Prop56
140
1.0
102
RTVSPost2010PropOp56
 70
     1
102
RTVSPost2010Prop57
140
1.0
102
RTVSPost2010PropOp57
 70
     1
  0
XRECORD
  5
51D
102
{ACAD_REACTORS
330
51C
102
}
330
51C
100
AcDbXrecord
280
     1
102
RTVSPost2010Prop28
280
     0
102
RTVSPost2010PropOp28
 70
     1
102
RTVSPost2010Prop29
280
     1
102
RTVSPost2010PropOp29
 70
     1
102
RTVSPost2010Prop30
280
     1
102
RTVSPost2010PropOp30
 70
     1
102
RTVSPost2010Prop31
280
     0
102
RTVSPost2010PropOp31
 70
     1
102
RTVSPost2010Prop32
280
     0
102
RTVSPost2010PropOp32
 70
     1
102
RTVSPost2010Prop33
280
     0
102
RTVSPost2010PropOp33
 70
     1
102
RTVSPost2010Prop34
280
     0
102
RTVSPost2010PropOp34
 70
     1
102
RTVSPost2010Prop35
280
     0
102
RTVSPost2010PropOp35
 70
     1
102
RTVSPost2010Prop36
280
     0
102
RTVSPost2010PropOp36
 70
     1
102
RTVSPost2010Prop37
 90
       50
102
RTVSPost2010PropOp37
 70
     1
102
RTVSPost2010Prop38
140
0.0
102
RTVSPost2010PropOp38
 70
     1
102
RTVSPost2010Prop39
140
1.0
102
RTVSPost2010PropOp39
 70
     1
102
RTVSPost2010Prop40
 90
        0
102
RTVSPost2010PropOp40
 70
     1
102
RTVSPost2010Prop41ColorIndex
 90
       18
102
RTVSPost2010Prop41ColorRGB
 90
        0
102
RTVSPost2010PropOp41
 70
     1
102
RTVSPost2010Prop42
 90
       50
102
RTVSPost2010PropOp42
 70
     1
102
RTVSPost2010Prop43
 90
        3
102
RTVSPost2010PropOp43
 70
     1
102
RTVSPost2010Prop44ColorIndex
 90
        5
102
RTVSPost2010Prop44ColorRGB
 90
      255
102
RTVSPost2010PropOp44
 70
     1
102
RTVSPost2010Prop45
280
     0
102
RTVSPost2010PropOp45
 70
     1
102
RTVSPost2010Prop46
 90
       50
102
RTVSPost2010PropOp46
 70
     1
102
RTVSPost2010Prop47
 90
       50
102
RTVSPost2010PropOp47
 70
     1
102
RTVSPost2010Prop48
 90
       50
102
RTVSPost2010PropOp48
 70
     1
102
RTVSPost2010Prop49
280
     0
102
RTVSPost2010PropOp49
 70
     1
102
RTVSPost2010Prop50
 90
       50
102
RTVSPost2010PropOp50
 70
     1
102
RTVSPost2010Prop51ColorIndex
 90
      256
102
RTVSPost2010Prop51ColorRGB
 90
-16777216
102
RTVSPost2010PropOp51
 70
     0
102
RTVSPost2010Prop52
140
1.0
102
RTVSPost2010PropOp52
 70
     0
102
RTVSPost2010Prop53
 90
        2
102
RTVSPost2010PropOp53
 70
     1
102
RTVSPost2010Prop54
  1
strokes_ogs.tif
102
RTVSPost2010PropOp54
 70
     1
102
RTVSPost2010Prop55
280
     0
102
RTVSPost2010PropOp55
 70
     1
102
RTVSPost2010Prop56
140
1.0
102
RTVSPost2010PropOp56
 70
     1
102
RTVSPost2010Prop57
140
1.0
102
RTVSPost2010PropOp57
 70
     1
  0
XRECORD
  5
511
102
{ACAD_REACTORS
330
510
102
}
330
510
100
AcDbXrecord
280
     1
102
RTVSPost2010Prop28
280
     0
102
RTVSPost2010PropOp28
 70
     1
102
RTVSPost2010Prop29
280
     1
102
RTVSPost2010PropOp29
 70
     1
102
RTVSPost2010Prop30
280
     1
102
RTVSPost2010PropOp30
 70
     1
102
RTVSPost2010Prop31
280
     0
102
RTVSPost2010PropOp31
 70
     1
102
RTVSPost2010Prop32
280
     0
102
RTVSPost2010PropOp32
 70
     1
102
RTVSPost2010Prop33
280
     0
102
RTVSPost2010PropOp33
 70
     1
102
RTVSPost2010Prop34
280
     0
102
RTVSPost2010PropOp34
 70
     1
102
RTVSPost2010Prop35
280
     0
102
RTVSPost2010PropOp35
 70
     1
102
RTVSPost2010Prop36
280
     0
102
RTVSPost2010PropOp36
 70
     1
102
RTVSPost2010Prop37
 90
       50
102
RTVSPost2010PropOp37
 70
     1
102
RTVSPost2010Prop38
140
0.0
102
RTVSPost2010PropOp38
 70
     1
102
RTVSPost2010Prop39
140
1.0
102
RTVSPost2010PropOp39
 70
     1
102
RTVSPost2010Prop40
 90
        0
102
RTVSPost2010PropOp40
 70
     1
102
RTVSPost2010Prop41ColorIndex
 90
       18
102
RTVSPost2010Prop41ColorRGB
 90
        0
102
RTVSPost2010PropOp41
 70
     1
102
RTVSPost2010Prop42
 90
       50
102
RTVSPost2010PropOp42
 70
     1
102
RTVSPost2010Prop43
 90
        3
102
RTVSPost2010PropOp43
 70
     1
102
RTVSPost2010Prop44ColorIndex
 90
        5
102
RTVSPost2010Prop44ColorRGB
 90
      255
102
RTVSPost2010PropOp44
 70
     1
102
RTVSPost2010Prop45
280
     0
102
RTVSPost2010PropOp45
 70
     1
102
RTVSPost2010Prop46
 90
       50
102
RTVSPost2010PropOp46
 70
     1
102
RTVSPost2010Prop47
 90
       50
102
RTVSPost2010PropOp47
 70
     1
102
RTVSPost2010Prop48
 90
       50
102
RTVSPost2010PropOp48
 70
     1
102
RTVSPost2010Prop49
280
     0
102
RTVSPost2010PropOp49
 70
     1
102
RTVSPost2010Prop50
 90
       50
102
RTVSPost2010PropOp50
 70
     1
102
RTVSPost2010Prop51ColorIndex
 90
      256
102
RTVSPost2010Prop51ColorRGB
 90
-16777216
102
RTVSPost2010PropOp51
 70
     0
102
RTVSPost2010Prop52
140
1.0
102
RTVSPost2010PropOp52
 70
     0
102
RTVSPost2010Prop53
 90
        2
102
RTVSPost2010PropOp53
 70
     1
102
RTVSPost2010Prop54
  1
strokes_ogs.tif
102
RTVSPost2010PropOp54
 70
     1
102
RTVSPost2010Prop55
280
     0
102
RTVSPost2010PropOp55
 70
     1
102
RTVSPost2010Prop56
140
1.0
102
RTVSPost2010PropOp56
 70
     1
102
RTVSPost2010Prop57
140
1.0
102
RTVSPost2010PropOp57
 70
     1
  0
XRECORD
  5
513
102
{ACAD_REACTORS
330
512
102
}
330
512
100
AcDbXrecord
280
     1
102
RTVSPost2010Prop28
280
     0
102
RTVSPost2010PropOp28
 70
     1
102
RTVSPost2010Prop29
280
     1
102
RTVSPost2010PropOp29
 70
     1
102
RTVSPost2010Prop30
280
     1
102
RTVSPost2010PropOp30
 70
     1
102
RTVSPost2010Prop31
280
     0
102
RTVSPost2010PropOp31
 70
     1
102
RTVSPost2010Prop32
280
     0
102
RTVSPost2010PropOp32
 70
     1
102
RTVSPost2010Prop33
280
     0
102
RTVSPost2010PropOp33
 70
     1
102
RTVSPost2010Prop34
280
     0
102
RTVSPost2010PropOp34
 70
     1
102
RTVSPost2010Prop35
280
     0
102
RTVSPost2010PropOp35
 70
     1
102
RTVSPost2010Prop36
280
     0
102
RTVSPost2010PropOp36
 70
     1
102
RTVSPost2010Prop37
 90
       50
102
RTVSPost2010PropOp37
 70
     1
102
RTVSPost2010Prop38
140
0.0
102
RTVSPost2010PropOp38
 70
     1
102
RTVSPost2010Prop39
140
1.0
102
RTVSPost2010PropOp39
 70
     1
102
RTVSPost2010Prop40
 90
        0
102
RTVSPost2010PropOp40
 70
     1
102
RTVSPost2010Prop41ColorIndex
 90
       18
102
RTVSPost2010Prop41ColorRGB
 90
        0
102
RTVSPost2010PropOp41
 70
     1
102
RTVSPost2010Prop42
 90
       50
102
RTVSPost2010PropOp42
 70
     1
102
RTVSPost2010Prop43
 90
        3
102
RTVSPost2010PropOp43
 70
     1
102
RTVSPost2010Prop44ColorIndex
 90
        5
102
RTVSPost2010Prop44ColorRGB
 90
      255
102
RTVSPost2010PropOp44
 70
     1
102
RTVSPost2010Prop45
280
     0
102
RTVSPost2010PropOp45
 70
     1
102
RTVSPost2010Prop46
 90
       50
102
RTVSPost2010PropOp46
 70
     1
102
RTVSPost2010Prop47
 90
       50
102
RTVSPost2010PropOp47
 70
     1
102
RTVSPost2010Prop48
 90
       50
102
RTVSPost2010PropOp48
 70
     1
102
RTVSPost2010Prop49
280
     0
102
RTVSPost2010PropOp49
 70
     1
102
RTVSPost2010Prop50
 90
       50
102
RTVSPost2010PropOp50
 70
     1
102
RTVSPost2010Prop51ColorIndex
 90
      256
102
RTVSPost2010Prop51ColorRGB
 90
-16777216
102
RTVSPost2010PropOp51
 70
     0
102
RTVSPost2010Prop52
140
1.0
102
RTVSPost2010PropOp52
 70
     0
102
RTVSPost2010Prop53
 90
        2
102
RTVSPost2010PropOp53
 70
     1
102
RTVSPost2010Prop54
  1
strokes_ogs.tif
102
RTVSPost2010PropOp54
 70
     1
102
RTVSPost2010Prop55
280
     0
102
RTVSPost2010PropOp55
 70
     1
102
RTVSPost2010Prop56
140
1.0
102
RTVSPost2010PropOp56
 70
     1
102
RTVSPost2010Prop57
140
1.0
102
RTVSPost2010PropOp57
 70
     1
  0
XRECORD
  5
523
102
{ACAD_REACTORS
330
522
102
}
330
522
100
AcDbXrecord
280
     1
102
RTVSPost2010Prop28
280
     0
102
RTVSPost2010PropOp28
 70
     0
102
RTVSPost2010Prop29
280
     1
102
RTVSPost2010PropOp29
 70
     0
102
RTVSPost2010Prop30
280
     1
102
RTVSPost2010PropOp30
 70
     0
102
RTVSPost2010Prop31
280
     0
102
RTVSPost2010PropOp31
 70
     0
102
RTVSPost2010Prop32
280
     0
102
RTVSPost2010PropOp32
 70
     0
102
RTVSPost2010Prop33
280
     0
102
RTVSPost2010PropOp33
 70
     0
102
RTVSPost2010Prop34
280
     0
102
RTVSPost2010PropOp34
 70
     0
102
RTVSPost2010Prop35
280
     0
102
RTVSPost2010PropOp35
 70
     0
102
RTVSPost2010Prop36
280
     0
102
RTVSPost2010PropOp36
 70
     0
102
RTVSPost2010Prop37
 90
       50
102
RTVSPost2010PropOp37
 70
     0
102
RTVSPost2010Prop38
140
0.0
102
RTVSPost2010PropOp38
 70
     0
102
RTVSPost2010Prop39
140
1.0
102
RTVSPost2010PropOp39
 70
     0
102
RTVSPost2010Prop40
 90
        0
102
RTVSPost2010PropOp40
 70
     0
102
RTVSPost2010Prop41ColorIndex
 90
       18
102
RTVSPost2010Prop41ColorRGB
 90
        0
102
RTVSPost2010PropOp41
 70
     0
102
RTVSPost2010Prop42
 90
       50
102
RTVSPost2010PropOp42
 70
     0
102
RTVSPost2010Prop43
 90
        3
102
RTVSPost2010PropOp43
 70
     0
102
RTVSPost2010Prop44ColorIndex
 90
        5
102
RTVSPost2010Prop44ColorRGB
 90
      255
102
RTVSPost2010PropOp44
 70
     0
102
RTVSPost2010Prop45
280
     0
102
RTVSPost2010PropOp45
 70
     0
102
RTVSPost2010Prop46
 90
       50
102
RTVSPost2010PropOp46
 70
     0
102
RTVSPost2010Prop47
 90
       50
102
RTVSPost2010PropOp47
 70
     0
102
RTVSPost2010Prop48
 90
       50
102
RTVSPost2010PropOp48
 70
     0
102
RTVSPost2010Prop49
280
     0
102
RTVSPost2010PropOp49
 70
     0
102
RTVSPost2010Prop50
 90
       50
102
RTVSPost2010PropOp50
 70
     0
102
RTVSPost2010Prop51ColorIndex
 90
      256
102
RTVSPost2010Prop51ColorRGB
 90
-16777216
102
RTVSPost2010PropOp51
 70
     0
102
RTVSPost2010Prop52
140
1.0
102
RTVSPost2010PropOp52
 70
     0
102
RTVSPost2010Prop53
 90
        2
102
RTVSPost2010PropOp53
 70
     0
102
RTVSPost2010Prop54
  1
strokes_ogs.tif
102
RTVSPost2010PropOp54
 70
     0
102
RTVSPost2010Prop55
280
     0
102
RTVSPost2010PropOp55
 70
     0
102
RTVSPost2010Prop56
140
1.0
102
RTVSPost2010PropOp56
 70
     0
102
RTVSPost2010Prop57
140
1.0
102
RTVSPost2010PropOp57
 70
     0
  0
XRECORD
  5
51B
102
{ACAD_REACTORS
330
51A
102
}
330
51A
100
AcDbXrecord
280
     1
102
RTVSPost2010Prop28
280
     0
102
RTVSPost2010PropOp28
 70
     1
102
RTVSPost2010Prop29
280
     1
102
RTVSPost2010PropOp29
 70
     1
102
RTVSPost2010Prop30
280
     1
102
RTVSPost2010PropOp30
 70
     1
102
RTVSPost2010Prop31
280
     0
102
RTVSPost2010PropOp31
 70
     1
102
RTVSPost2010Prop32
280
     0
102
RTVSPost2010PropOp32
 70
     1
102
RTVSPost2010Prop33
280
     0
102
RTVSPost2010PropOp33
 70
     1
102
RTVSPost2010Prop34
280
     0
102
RTVSPost2010PropOp34
 70
     1
102
RTVSPost2010Prop35
280
     0
102
RTVSPost2010PropOp35
 70
     1
102
RTVSPost2010Prop36
280
     0
102
RTVSPost2010PropOp36
 70
     1
102
RTVSPost2010Prop37
 90
       50
102
RTVSPost2010PropOp37
 70
     1
102
RTVSPost2010Prop38
140
0.0
102
RTVSPost2010PropOp38
 70
     1
102
RTVSPost2010Prop39
140
1.0
102
RTVSPost2010PropOp39
 70
     1
102
RTVSPost2010Prop40
 90
        0
102
RTVSPost2010PropOp40
 70
     1
102
RTVSPost2010Prop41ColorIndex
 90
       18
102
RTVSPost2010Prop41ColorRGB
 90
        0
102
RTVSPost2010PropOp41
 70
     1
102
RTVSPost2010Prop42
 90
       50
102
RTVSPost2010PropOp42
 70
     1
102
RTVSPost2010Prop43
 90
        3
102
RTVSPost2010PropOp43
 70
     1
102
RTVSPost2010Prop44ColorIndex
 90
        5
102
RTVSPost2010Prop44ColorRGB
 90
      255
102
RTVSPost2010PropOp44
 70
     1
102
RTVSPost2010Prop45
280
     0
102
RTVSPost2010PropOp45
 70
     1
102
RTVSPost2010Prop46
 90
       50
102
RTVSPost2010PropOp46
 70
     1
102
RTVSPost2010Prop47
 90
       50
102
RTVSPost2010PropOp47
 70
     1
102
RTVSPost2010Prop48
 90
       50
102
RTVSPost2010PropOp48
 70
     1
102
RTVSPost2010Prop49
280
     0
102
RTVSPost2010PropOp49
 70
     1
102
RTVSPost2010Prop50
 90
       50
102
RTVSPost2010PropOp50
 70
     1
102
RTVSPost2010Prop51ColorIndex
 90
      256
102
RTVSPost2010Prop51ColorRGB
 90
-16777216
102
RTVSPost2010PropOp51
 70
     0
102
RTVSPost2010Prop52
140
1.0
102
RTVSPost2010PropOp52
 70
     0
102
RTVSPost2010Prop53
 90
        2
102
RTVSPost2010PropOp53
 70
     1
102
RTVSPost2010Prop54
  1
strokes_ogs.tif
102
RTVSPost2010PropOp54
 70
     1
102
RTVSPost2010Prop55
280
     0
102
RTVSPost2010PropOp55
 70
     1
102
RTVSPost2010Prop56
140
1.0
102
RTVSPost2010PropOp56
 70
     1
102
RTVSPost2010Prop57
140
1.0
102
RTVSPost2010PropOp57
 70
     1
  0
XRECORD
  5
4FF
102
{ACAD_REACTORS
330
4FE
102
}
330
4FE
100
AcDbXrecord
280
     1
102
RTVSPost2010Prop28
280
     0
102
RTVSPost2010PropOp28
 70
     1
102
RTVSPost2010Prop29
280
     1
102
RTVSPost2010PropOp29
 70
     1
102
RTVSPost2010Prop30
280
     1
102
RTVSPost2010PropOp30
 70
     1
102
RTVSPost2010Prop31
280
     0
102
RTVSPost2010PropOp31
 70
     1
102
RTVSPost2010Prop32
280
     0
102
RTVSPost2010PropOp32
 70
     1
102
RTVSPost2010Prop33
280
     0
102
RTVSPost2010PropOp33
 70
     1
102
RTVSPost2010Prop34
280
     0
102
RTVSPost2010PropOp34
 70
     1
102
RTVSPost2010Prop35
280
     0
102
RTVSPost2010PropOp35
 70
     1
102
RTVSPost2010Prop36
280
     0
102
RTVSPost2010PropOp36
 70
     1
102
RTVSPost2010Prop37
 90
       50
102
RTVSPost2010PropOp37
 70
     1
102
RTVSPost2010Prop38
140
0.0
102
RTVSPost2010PropOp38
 70
     1
102
RTVSPost2010Prop39
140
1.0
102
RTVSPost2010PropOp39
 70
     1
102
RTVSPost2010Prop40
 90
        0
102
RTVSPost2010PropOp40
 70
     1
102
RTVSPost2010Prop41ColorIndex
 90
       18
102
RTVSPost2010Prop41ColorRGB
 90
        0
102
RTVSPost2010PropOp41
 70
     1
102
RTVSPost2010Prop42
 90
       50
102
RTVSPost2010PropOp42
 70
     1
102
RTVSPost2010Prop43
 90
        3
102
RTVSPost2010PropOp43
 70
     1
102
RTVSPost2010Prop44ColorIndex
 90
        5
102
RTVSPost2010Prop44ColorRGB
 90
      255
102
RTVSPost2010PropOp44
 70
     1
102
RTVSPost2010Prop45
280
     0
102
RTVSPost2010PropOp45
 70
     1
102
RTVSPost2010Prop46
 90
       50
102
RTVSPost2010PropOp46
 70
     1
102
RTVSPost2010Prop47
 90
       50
102
RTVSPost2010PropOp47
 70
     1
102
RTVSPost2010Prop48
 90
       50
102
RTVSPost2010PropOp48
 70
     1
102
RTVSPost2010Prop49
280
     0
102
RTVSPost2010PropOp49
 70
     1
102
RTVSPost2010Prop50
 90
       50
102
RTVSPost2010PropOp50
 70
     1
102
RTVSPost2010Prop51ColorIndex
 90
      256
102
RTVSPost2010Prop51ColorRGB
 90
-16777216
102
RTVSPost2010PropOp51
 70
     0
102
RTVSPost2010Prop52
140
1.0
102
RTVSPost2010PropOp52
 70
     0
102
RTVSPost2010Prop53
 90
        2
102
RTVSPost2010PropOp53
 70
     1
102
RTVSPost2010Prop54
  1
strokes_ogs.tif
102
RTVSPost2010PropOp54
 70
     1
102
RTVSPost2010Prop55
280
     0
102
RTVSPost2010PropOp55
 70
     1
102
RTVSPost2010Prop56
140
1.0
102
RTVSPost2010PropOp56
 70
     1
102
RTVSPost2010Prop57
140
1.0
102
RTVSPost2010PropOp57
 70
     1
  0
XRECORD
  5
501
102
{ACAD_REACTORS
330
500
102
}
330
500
100
AcDbXrecord
280
     1
102
RTVSPost2010Prop28
280
     0
102
RTVSPost2010PropOp28
 70
     1
102
RTVSPost2010Prop29
280
     1
102
RTVSPost2010PropOp29
 70
     1
102
RTVSPost2010Prop30
280
     1
102
RTVSPost2010PropOp30
 70
     1
102
RTVSPost2010Prop31
280
     0
102
RTVSPost2010PropOp31
 70
     1
102
RTVSPost2010Prop32
280
     0
102
RTVSPost2010PropOp32
 70
     1
102
RTVSPost2010Prop33
280
     0
102
RTVSPost2010PropOp33
 70
     1
102
RTVSPost2010Prop34
280
     0
102
RTVSPost2010PropOp34
 70
     1
102
RTVSPost2010Prop35
280
     0
102
RTVSPost2010PropOp35
 70
     1
102
RTVSPost2010Prop36
280
     0
102
RTVSPost2010PropOp36
 70
     1
102
RTVSPost2010Prop37
 90
       50
102
RTVSPost2010PropOp37
 70
     1
102
RTVSPost2010Prop38
140
0.0
102
RTVSPost2010PropOp38
 70
     1
102
RTVSPost2010Prop39
140
1.0
102
RTVSPost2010PropOp39
 70
     1
102
RTVSPost2010Prop40
 90
        0
102
RTVSPost2010PropOp40
 70
     1
102
RTVSPost2010Prop41ColorIndex
 90
       18
102
RTVSPost2010Prop41ColorRGB
 90
        0
102
RTVSPost2010PropOp41
 70
     1
102
RTVSPost2010Prop42
 90
       50
102
RTVSPost2010PropOp42
 70
     1
102
RTVSPost2010Prop43
 90
        3
102
RTVSPost2010PropOp43
 70
     1
102
RTVSPost2010Prop44ColorIndex
 90
        5
102
RTVSPost2010Prop44ColorRGB
 90
      255
102
RTVSPost2010PropOp44
 70
     1
102
RTVSPost2010Prop45
280
     0
102
RTVSPost2010PropOp45
 70
     1
102
RTVSPost2010Prop46
 90
       50
102
RTVSPost2010PropOp46
 70
     1
102
RTVSPost2010Prop47
 90
       50
102
RTVSPost2010PropOp47
 70
     1
102
RTVSPost2010Prop48
 90
       50
102
RTVSPost2010PropOp48
 70
     1
102
RTVSPost2010Prop49
280
     0
102
RTVSPost2010PropOp49
 70
     1
102
RTVSPost2010Prop50
 90
       50
102
RTVSPost2010PropOp50
 70
     1
102
RTVSPost2010Prop51ColorIndex
 90
      256
102
RTVSPost2010Prop51ColorRGB
 90
-16777216
102
RTVSPost2010PropOp51
 70
     0
102
RTVSPost2010Prop52
140
1.0
102
RTVSPost2010PropOp52
 70
     0
102
RTVSPost2010Prop53
 90
        2
102
RTVSPost2010PropOp53
 70
     1
102
RTVSPost2010Prop54
  1
strokes_ogs.tif
102
RTVSPost2010PropOp54
 70
     1
102
RTVSPost2010Prop55
280
     0
102
RTVSPost2010PropOp55
 70
     1
102
RTVSPost2010Prop56
140
1.0
102
RTVSPost2010PropOp56
 70
     1
102
RTVSPost2010Prop57
140
1.0
102
RTVSPost2010PropOp57
 70
     1
  0
XRECORD
  5
503
102
{ACAD_REACTORS
330
502
102
}
330
502
100
AcDbXrecord
280
     1
102
RTVSPost2010Prop28
280
     0
102
RTVSPost2010PropOp28
 70
     1
102
RTVSPost2010Prop29
280
     1
102
RTVSPost2010PropOp29
 70
     1
102
RTVSPost2010Prop30
280
     1
102
RTVSPost2010PropOp30
 70
     1
102
RTVSPost2010Prop31
280
     0
102
RTVSPost2010PropOp31
 70
     1
102
RTVSPost2010Prop32
280
     0
102
RTVSPost2010PropOp32
 70
     1
102
RTVSPost2010Prop33
280
     0
102
RTVSPost2010PropOp33
 70
     1
102
RTVSPost2010Prop34
280
     0
102
RTVSPost2010PropOp34
 70
     1
102
RTVSPost2010Prop35
280
     0
102
RTVSPost2010PropOp35
 70
     1
102
RTVSPost2010Prop36
280
     0
102
RTVSPost2010PropOp36
 70
     1
102
RTVSPost2010Prop37
 90
       50
102
RTVSPost2010PropOp37
 70
     1
102
RTVSPost2010Prop38
140
0.0
102
RTVSPost2010PropOp38
 70
     1
102
RTVSPost2010Prop39
140
1.0
102
RTVSPost2010PropOp39
 70
     1
102
RTVSPost2010Prop40
 90
        0
102
RTVSPost2010PropOp40
 70
     1
102
RTVSPost2010Prop41ColorIndex
 90
       18
102
RTVSPost2010Prop41ColorRGB
 90
        0
102
RTVSPost2010PropOp41
 70
     1
102
RTVSPost2010Prop42
 90
       50
102
RTVSPost2010PropOp42
 70
     1
102
RTVSPost2010Prop43
 90
        3
102
RTVSPost2010PropOp43
 70
     1
102
RTVSPost2010Prop44ColorIndex
 90
        5
102
RTVSPost2010Prop44ColorRGB
 90
      255
102
RTVSPost2010PropOp44
 70
     1
102
RTVSPost2010Prop45
280
     0
102
RTVSPost2010PropOp45
 70
     1
102
RTVSPost2010Prop46
 90
       50
102
RTVSPost2010PropOp46
 70
     1
102
RTVSPost2010Prop47
 90
       50
102
RTVSPost2010PropOp47
 70
     1
102
RTVSPost2010Prop48
 90
       50
102
RTVSPost2010PropOp48
 70
     1
102
RTVSPost2010Prop49
280
     0
102
RTVSPost2010PropOp49
 70
     1
102
RTVSPost2010Prop50
 90
       50
102
RTVSPost2010PropOp50
 70
     1
102
RTVSPost2010Prop51ColorIndex
 90
      256
102
RTVSPost2010Prop51ColorRGB
 90
-16777216
102
RTVSPost2010PropOp51
 70
     0
102
RTVSPost2010Prop52
140
1.0
102
RTVSPost2010PropOp52
 70
     0
102
RTVSPost2010Prop53
 90
        2
102
RTVSPost2010PropOp53
 70
     1
102
RTVSPost2010Prop54
  1
strokes_ogs.tif
102
RTVSPost2010PropOp54
 70
     1
102
RTVSPost2010Prop55
280
     0
102
RTVSPost2010PropOp55
 70
     1
102
RTVSPost2010Prop56
140
1.0
102
RTVSPost2010PropOp56
 70
     1
102
RTVSPost2010Prop57
140
1.0
102
RTVSPost2010PropOp57
 70
     1
  0
XRECORD
  5
505
102
{ACAD_REACTORS
330
504
102
}
330
504
100
AcDbXrecord
280
     1
102
RTVSPost2010Prop28
280
     0
102
RTVSPost2010PropOp28
 70
     1
102
RTVSPost2010Prop29
280
     1
102
RTVSPost2010PropOp29
 70
     1
102
RTVSPost2010Prop30
280
     1
102
RTVSPost2010PropOp30
 70
     1
102
RTVSPost2010Prop31
280
     0
102
RTVSPost2010PropOp31
 70
     1
102
RTVSPost2010Prop32
280
     0
102
RTVSPost2010PropOp32
 70
     1
102
RTVSPost2010Prop33
280
     0
102
RTVSPost2010PropOp33
 70
     1
102
RTVSPost2010Prop34
280
     0
102
RTVSPost2010PropOp34
 70
     1
102
RTVSPost2010Prop35
280
     0
102
RTVSPost2010PropOp35
 70
     1
102
RTVSPost2010Prop36
280
     0
102
RTVSPost2010PropOp36
 70
     1
102
RTVSPost2010Prop37
 90
       50
102
RTVSPost2010PropOp37
 70
     1
102
RTVSPost2010Prop38
140
0.0
102
RTVSPost2010PropOp38
 70
     1
102
RTVSPost2010Prop39
140
1.0
102
RTVSPost2010PropOp39
 70
     1
102
RTVSPost2010Prop40
 90
        0
102
RTVSPost2010PropOp40
 70
     1
102
RTVSPost2010Prop41ColorIndex
 90
       18
102
RTVSPost2010Prop41ColorRGB
 90
        0
102
RTVSPost2010PropOp41
 70
     1
102
RTVSPost2010Prop42
 90
       50
102
RTVSPost2010PropOp42
 70
     1
102
RTVSPost2010Prop43
 90
        3
102
RTVSPost2010PropOp43
 70
     1
102
RTVSPost2010Prop44ColorIndex
 90
        5
102
RTVSPost2010Prop44ColorRGB
 90
      255
102
RTVSPost2010PropOp44
 70
     1
102
RTVSPost2010Prop45
280
     0
102
RTVSPost2010PropOp45
 70
     1
102
RTVSPost2010Prop46
 90
       50
102
RTVSPost2010PropOp46
 70
     1
102
RTVSPost2010Prop47
 90
       50
102
RTVSPost2010PropOp47
 70
     1
102
RTVSPost2010Prop48
 90
       50
102
RTVSPost2010PropOp48
 70
     1
102
RTVSPost2010Prop49
280
     0
102
RTVSPost2010PropOp49
 70
     1
102
RTVSPost2010Prop50
 90
       50
102
RTVSPost2010PropOp50
 70
     1
102
RTVSPost2010Prop51ColorIndex
 90
      256
102
RTVSPost2010Prop51ColorRGB
 90
-16777216
102
RTVSPost2010PropOp51
 70
     0
102
RTVSPost2010Prop52
140
1.0
102
RTVSPost2010PropOp52
 70
     0
102
RTVSPost2010Prop53
 90
        2
102
RTVSPost2010PropOp53
 70
     1
102
RTVSPost2010Prop54
  1
strokes_ogs.tif
102
RTVSPost2010PropOp54
 70
     1
102
RTVSPost2010Prop55
280
     0
102
RTVSPost2010PropOp55
 70
     1
102
RTVSPost2010Prop56
140
1.0
102
RTVSPost2010PropOp56
 70
     1
102
RTVSPost2010Prop57
140
1.0
102
RTVSPost2010PropOp57
 70
     1
  0
XRECORD
  5
50B
102
{ACAD_REACTORS
330
50A
102
}
330
50A
100
AcDbXrecord
280
     1
102
RTVSPost2010Prop28
280
     0
102
RTVSPost2010PropOp28
 70
     1
102
RTVSPost2010Prop29
280
     1
102
RTVSPost2010PropOp29
 70
     1
102
RTVSPost2010Prop30
280
     1
102
RTVSPost2010PropOp30
 70
     1
102
RTVSPost2010Prop31
280
     0
102
RTVSPost2010PropOp31
 70
     1
102
RTVSPost2010Prop32
280
     0
102
RTVSPost2010PropOp32
 70
     1
102
RTVSPost2010Prop33
280
     0
102
RTVSPost2010PropOp33
 70
     1
102
RTVSPost2010Prop34
280
     0
102
RTVSPost2010PropOp34
 70
     1
102
RTVSPost2010Prop35
280
     0
102
RTVSPost2010PropOp35
 70
     1
102
RTVSPost2010Prop36
280
     0
102
RTVSPost2010PropOp36
 70
     1
102
RTVSPost2010Prop37
 90
       50
102
RTVSPost2010PropOp37
 70
     1
102
RTVSPost2010Prop38
140
0.0
102
RTVSPost2010PropOp38
 70
     1
102
RTVSPost2010Prop39
140
1.0
102
RTVSPost2010PropOp39
 70
     1
102
RTVSPost2010Prop40
 90
        0
102
RTVSPost2010PropOp40
 70
     1
102
RTVSPost2010Prop41ColorIndex
 90
       18
102
RTVSPost2010Prop41ColorRGB
 90
        0
102
RTVSPost2010PropOp41
 70
     1
102
RTVSPost2010Prop42
 90
       50
102
RTVSPost2010PropOp42
 70
     1
102
RTVSPost2010Prop43
 90
        3
102
RTVSPost2010PropOp43
 70
     1
102
RTVSPost2010Prop44ColorIndex
 90
        5
102
RTVSPost2010Prop44ColorRGB
 90
      255
102
RTVSPost2010PropOp44
 70
     1
102
RTVSPost2010Prop45
280
     0
102
RTVSPost2010PropOp45
 70
     1
102
RTVSPost2010Prop46
 90
       50
102
RTVSPost2010PropOp46
 70
     1
102
RTVSPost2010Prop47
 90
       50
102
RTVSPost2010PropOp47
 70
     1
102
RTVSPost2010Prop48
 90
       50
102
RTVSPost2010PropOp48
 70
     1
102
RTVSPost2010Prop49
280
     0
102
RTVSPost2010PropOp49
 70
     1
102
RTVSPost2010Prop50
 90
       50
102
RTVSPost2010PropOp50
 70
     1
102
RTVSPost2010Prop51ColorIndex
 90
      256
102
RTVSPost2010Prop51ColorRGB
 90
-16777216
102
RTVSPost2010PropOp51
 70
     0
102
RTVSPost2010Prop52
140
1.0
102
RTVSPost2010PropOp52
 70
     0
102
RTVSPost2010Prop53
 90
        2
102
RTVSPost2010PropOp53
 70
     1
102
RTVSPost2010Prop54
  1
strokes_ogs.tif
102
RTVSPost2010PropOp54
 70
     1
102
RTVSPost2010Prop55
280
     0
102
RTVSPost2010PropOp55
 70
     1
102
RTVSPost2010Prop56
140
1.0
102
RTVSPost2010PropOp56
 70
     1
102
RTVSPost2010Prop57
140
1.0
102
RTVSPost2010PropOp57
 70
     1
  0
XRECORD
  5
51F
102
{ACAD_REACTORS
330
51E
102
}
330
51E
100
AcDbXrecord
280
     1
102
RTVSPost2010Prop28
280
     0
102
RTVSPost2010PropOp28
 70
     0
102
RTVSPost2010Prop29
280
     1
102
RTVSPost2010PropOp29
 70
     0
102
RTVSPost2010Prop30
280
     1
102
RTVSPost2010PropOp30
 70
     0
102
RTVSPost2010Prop31
280
     0
102
RTVSPost2010PropOp31
 70
     0
102
RTVSPost2010Prop32
280
     0
102
RTVSPost2010PropOp32
 70
     0
102
RTVSPost2010Prop33
280
     0
102
RTVSPost2010PropOp33
 70
     0
102
RTVSPost2010Prop34
280
     0
102
RTVSPost2010PropOp34
 70
     0
102
RTVSPost2010Prop35
280
     0
102
RTVSPost2010PropOp35
 70
     0
102
RTVSPost2010Prop36
280
     0
102
RTVSPost2010PropOp36
 70
     0
102
RTVSPost2010Prop37
 90
       50
102
RTVSPost2010PropOp37
 70
     0
102
RTVSPost2010Prop38
140
0.0
102
RTVSPost2010PropOp38
 70
     0
102
RTVSPost2010Prop39
140
1.0
102
RTVSPost2010PropOp39
 70
     0
102
RTVSPost2010Prop40
 90
        0
102
RTVSPost2010PropOp40
 70
     0
102
RTVSPost2010Prop41ColorIndex
 90
       18
102
RTVSPost2010Prop41ColorRGB
 90
        0
102
RTVSPost2010PropOp41
 70
     0
102
RTVSPost2010Prop42
 90
       50
102
RTVSPost2010PropOp42
 70
     0
102
RTVSPost2010Prop43
 90
        3
102
RTVSPost2010PropOp43
 70
     0
102
RTVSPost2010Prop44ColorIndex
 90
        5
102
RTVSPost2010Prop44ColorRGB
 90
      255
102
RTVSPost2010PropOp44
 70
     0
102
RTVSPost2010Prop45
280
     0
102
RTVSPost2010PropOp45
 70
     0
102
RTVSPost2010Prop46
 90
       50
102
RTVSPost2010PropOp46
 70
     0
102
RTVSPost2010Prop47
 90
       50
102
RTVSPost2010PropOp47
 70
     0
102
RTVSPost2010Prop48
 90
       50
102
RTVSPost2010PropOp48
 70
     0
102
RTVSPost2010Prop49
280
     0
102
RTVSPost2010PropOp49
 70
     0
102
RTVSPost2010Prop50
 90
       50
102
RTVSPost2010PropOp50
 70
     0
102
RTVSPost2010Prop51ColorIndex
 90
      256
102
RTVSPost2010Prop51ColorRGB
 90
-16777216
102
RTVSPost2010PropOp51
 70
     0
102
RTVSPost2010Prop52
140
1.0
102
RTVSPost2010PropOp52
 70
     0
102
RTVSPost2010Prop53
 90
        2
102
RTVSPost2010PropOp53
 70
     0
102
RTVSPost2010Prop54
  1
strokes_ogs.tif
102
RTVSPost2010PropOp54
 70
     0
102
RTVSPost2010Prop55
280
     0
102
RTVSPost2010PropOp55
 70
     0
102
RTVSPost2010Prop56
140
1.0
102
RTVSPost2010PropOp56
 70
     0
102
RTVSPost2010Prop57
140
1.0
102
RTVSPost2010PropOp57
 70
     0
  0
XRECORD
  5
519
102
{ACAD_REACTORS
330
518
102
}
330
518
100
AcDbXrecord
280
     1
102
RTVSPost2010Prop28
280
     0
102
RTVSPost2010PropOp28
 70
     1
102
RTVSPost2010Prop29
280
     1
102
RTVSPost2010PropOp29
 70
     1
102
RTVSPost2010Prop30
280
     1
102
RTVSPost2010PropOp30
 70
     1
102
RTVSPost2010Prop31
280
     0
102
RTVSPost2010PropOp31
 70
     1
102
RTVSPost2010Prop32
280
     0
102
RTVSPost2010PropOp32
 70
     1
102
RTVSPost2010Prop33
280
     0
102
RTVSPost2010PropOp33
 70
     1
102
RTVSPost2010Prop34
280
     0
102
RTVSPost2010PropOp34
 70
     1
102
RTVSPost2010Prop35
280
     0
102
RTVSPost2010PropOp35
 70
     1
102
RTVSPost2010Prop36
280
     0
102
RTVSPost2010PropOp36
 70
     1
102
RTVSPost2010Prop37
 90
       50
102
RTVSPost2010PropOp37
 70
     1
102
RTVSPost2010Prop38
140
0.0
102
RTVSPost2010PropOp38
 70
     1
102
RTVSPost2010Prop39
140
1.0
102
RTVSPost2010PropOp39
 70
     1
102
RTVSPost2010Prop40
 90
        0
102
RTVSPost2010PropOp40
 70
     1
102
RTVSPost2010Prop41ColorIndex
 90
       18
102
RTVSPost2010Prop41ColorRGB
 90
        0
102
RTVSPost2010PropOp41
 70
     1
102
RTVSPost2010Prop42
 90
       50
102
RTVSPost2010PropOp42
 70
     1
102
RTVSPost2010Prop43
 90
        3
102
RTVSPost2010PropOp43
 70
     1
102
RTVSPost2010Prop44ColorIndex
 90
        5
102
RTVSPost2010Prop44ColorRGB
 90
      255
102
RTVSPost2010PropOp44
 70
     1
102
RTVSPost2010Prop45
280
     0
102
RTVSPost2010PropOp45
 70
     1
102
RTVSPost2010Prop46
 90
       50
102
RTVSPost2010PropOp46
 70
     1
102
RTVSPost2010Prop47
 90
       50
102
RTVSPost2010PropOp47
 70
     1
102
RTVSPost2010Prop48
 90
       50
102
RTVSPost2010PropOp48
 70
     1
102
RTVSPost2010Prop49
280
     0
102
RTVSPost2010PropOp49
 70
     1
102
RTVSPost2010Prop50
 90
       50
102
RTVSPost2010PropOp50
 70
     1
102
RTVSPost2010Prop51ColorIndex
 90
      256
102
RTVSPost2010Prop51ColorRGB
 90
-16777216
102
RTVSPost2010PropOp51
 70
     0
102
RTVSPost2010Prop52
140
1.0
102
RTVSPost2010PropOp52
 70
     0
102
RTVSPost2010Prop53
 90
        2
102
RTVSPost2010PropOp53
 70
     1
102
RTVSPost2010Prop54
  1
strokes_ogs.tif
102
RTVSPost2010PropOp54
 70
     1
102
RTVSPost2010Prop55
280
     0
102
RTVSPost2010PropOp55
 70
     1
102
RTVSPost2010Prop56
140
1.0
102
RTVSPost2010PropOp56
 70
     1
102
RTVSPost2010Prop57
140
1.0
102
RTVSPost2010PropOp57
 70
     1
  0
XRECORD
  5
521
102
{ACAD_REACTORS
330
520
102
}
330
520
100
AcDbXrecord
280
     1
102
RTVSPost2010Prop28
280
     0
102
RTVSPost2010PropOp28
 70
     0
102
RTVSPost2010Prop29
280
     1
102
RTVSPost2010PropOp29
 70
     0
102
RTVSPost2010Prop30
280
     1
102
RTVSPost2010PropOp30
 70
     0
102
RTVSPost2010Prop31
280
     0
102
RTVSPost2010PropOp31
 70
     0
102
RTVSPost2010Prop32
280
     0
102
RTVSPost2010PropOp32
 70
     0
102
RTVSPost2010Prop33
280
     0
102
RTVSPost2010PropOp33
 70
     0
102
RTVSPost2010Prop34
280
     0
102
RTVSPost2010PropOp34
 70
     0
102
RTVSPost2010Prop35
280
     0
102
RTVSPost2010PropOp35
 70
     0
102
RTVSPost2010Prop36
280
     0
102
RTVSPost2010PropOp36
 70
     0
102
RTVSPost2010Prop37
 90
       50
102
RTVSPost2010PropOp37
 70
     0
102
RTVSPost2010Prop38
140
0.0
102
RTVSPost2010PropOp38
 70
     0
102
RTVSPost2010Prop39
140
1.0
102
RTVSPost2010PropOp39
 70
     0
102
RTVSPost2010Prop40
 90
        0
102
RTVSPost2010PropOp40
 70
     0
102
RTVSPost2010Prop41ColorIndex
 90
       18
102
RTVSPost2010Prop41ColorRGB
 90
        0
102
RTVSPost2010PropOp41
 70
     0
102
RTVSPost2010Prop42
 90
       50
102
RTVSPost2010PropOp42
 70
     0
102
RTVSPost2010Prop43
 90
        3
102
RTVSPost2010PropOp43
 70
     0
102
RTVSPost2010Prop44ColorIndex
 90
        5
102
RTVSPost2010Prop44ColorRGB
 90
      255
102
RTVSPost2010PropOp44
 70
     0
102
RTVSPost2010Prop45
280
     0
102
RTVSPost2010PropOp45
 70
     0
102
RTVSPost2010Prop46
 90
       50
102
RTVSPost2010PropOp46
 70
     0
102
RTVSPost2010Prop47
 90
       50
102
RTVSPost2010PropOp47
 70
     0
102
RTVSPost2010Prop48
 90
       50
102
RTVSPost2010PropOp48
 70
     0
102
RTVSPost2010Prop49
280
     0
102
RTVSPost2010PropOp49
 70
     0
102
RTVSPost2010Prop50
 90
       50
102
RTVSPost2010PropOp50
 70
     0
102
RTVSPost2010Prop51ColorIndex
 90
      256
102
RTVSPost2010Prop51ColorRGB
 90
-16777216
102
RTVSPost2010PropOp51
 70
     0
102
RTVSPost2010Prop52
140
1.0
102
RTVSPost2010PropOp52
 70
     0
102
RTVSPost2010Prop53
 90
        2
102
RTVSPost2010PropOp53
 70
     0
102
RTVSPost2010Prop54
  1
strokes_ogs.tif
102
RTVSPost2010PropOp54
 70
     0
102
RTVSPost2010Prop55
280
     0
102
RTVSPost2010PropOp55
 70
     0
102
RTVSPost2010Prop56
140
1.0
102
RTVSPost2010PropOp56
 70
     0
102
RTVSPost2010Prop57
140
1.0
102
RTVSPost2010PropOp57
 70
     0
  0
XRECORD
  5
50F
102
{ACAD_REACTORS
330
50E
102
}
330
50E
100
AcDbXrecord
280
     1
102
RTVSPost2010Prop28
280
     0
102
RTVSPost2010PropOp28
 70
     1
102
RTVSPost2010Prop29
280
     1
102
RTVSPost2010PropOp29
 70
     1
102
RTVSPost2010Prop30
280
     1
102
RTVSPost2010PropOp30
 70
     1
102
RTVSPost2010Prop31
280
     0
102
RTVSPost2010PropOp31
 70
     1
102
RTVSPost2010Prop32
280
     0
102
RTVSPost2010PropOp32
 70
     1
102
RTVSPost2010Prop33
280
     0
102
RTVSPost2010PropOp33
 70
     1
102
RTVSPost2010Prop34
280
     0
102
RTVSPost2010PropOp34
 70
     1
102
RTVSPost2010Prop35
280
     0
102
RTVSPost2010PropOp35
 70
     1
102
RTVSPost2010Prop36
280
     0
102
RTVSPost2010PropOp36
 70
     1
102
RTVSPost2010Prop37
 90
       50
102
RTVSPost2010PropOp37
 70
     1
102
RTVSPost2010Prop38
140
0.0
102
RTVSPost2010PropOp38
 70
     1
102
RTVSPost2010Prop39
140
1.0
102
RTVSPost2010PropOp39
 70
     1
102
RTVSPost2010Prop40
 90
        0
102
RTVSPost2010PropOp40
 70
     1
102
RTVSPost2010Prop41ColorIndex
 90
       18
102
RTVSPost2010Prop41ColorRGB
 90
        0
102
RTVSPost2010PropOp41
 70
     1
102
RTVSPost2010Prop42
 90
       50
102
RTVSPost2010PropOp42
 70
     1
102
RTVSPost2010Prop43
 90
        3
102
RTVSPost2010PropOp43
 70
     1
102
RTVSPost2010Prop44ColorIndex
 90
        5
102
RTVSPost2010Prop44ColorRGB
 90
      255
102
RTVSPost2010PropOp44
 70
     1
102
RTVSPost2010Prop45
280
     0
102
RTVSPost2010PropOp45
 70
     1
102
RTVSPost2010Prop46
 90
       50
102
RTVSPost2010PropOp46
 70
     1
102
RTVSPost2010Prop47
 90
       50
102
RTVSPost2010PropOp47
 70
     1
102
RTVSPost2010Prop48
 90
       50
102
RTVSPost2010PropOp48
 70
     1
102
RTVSPost2010Prop49
280
     0
102
RTVSPost2010PropOp49
 70
     1
102
RTVSPost2010Prop50
 90
       50
102
RTVSPost2010PropOp50
 70
     1
102
RTVSPost2010Prop51ColorIndex
 90
      256
102
RTVSPost2010Prop51ColorRGB
 90
-16777216
102
RTVSPost2010PropOp51
 70
     0
102
RTVSPost2010Prop52
140
1.0
102
RTVSPost2010PropOp52
 70
     0
102
RTVSPost2010Prop53
 90
        2
102
RTVSPost2010PropOp53
 70
     1
102
RTVSPost2010Prop54
  1
strokes_ogs.tif
102
RTVSPost2010PropOp54
 70
     1
102
RTVSPost2010Prop55
280
     0
102
RTVSPost2010PropOp55
 70
     1
102
RTVSPost2010Prop56
140
1.0
102
RTVSPost2010PropOp56
 70
     1
102
RTVSPost2010Prop57
140
1.0
102
RTVSPost2010PropOp57
 70
     1
  0
XRECORD
  5
52D
102
{ACAD_REACTORS
330
52C
102
}
330
52C
100
AcDbXrecord
280
     1
102
RTVSPost2010Prop28
280
     0
102
RTVSPost2010PropOp28
 70
     1
102
RTVSPost2010Prop29
280
     1
102
RTVSPost2010PropOp29
 70
     1
102
RTVSPost2010Prop30
280
     1
102
RTVSPost2010PropOp30
 70
     1
102
RTVSPost2010Prop31
280
     0
102
RTVSPost2010PropOp31
 70
     1
102
RTVSPost2010Prop32
280
     0
102
RTVSPost2010PropOp32
 70
     1
102
RTVSPost2010Prop33
280
     0
102
RTVSPost2010PropOp33
 70
     1
102
RTVSPost2010Prop34
280
     0
102
RTVSPost2010PropOp34
 70
     1
102
RTVSPost2010Prop35
280
     0
102
RTVSPost2010PropOp35
 70
     1
102
RTVSPost2010Prop36
280
     0
102
RTVSPost2010PropOp36
 70
     1
102
RTVSPost2010Prop37
 90
       50
102
RTVSPost2010PropOp37
 70
     1
102
RTVSPost2010Prop38
140
0.0
102
RTVSPost2010PropOp38
 70
     1
102
RTVSPost2010Prop39
140
1.0
102
RTVSPost2010PropOp39
 70
     1
102
RTVSPost2010Prop40
 90
        0
102
RTVSPost2010PropOp40
 70
     1
102
RTVSPost2010Prop41ColorIndex
 90
       18
102
RTVSPost2010Prop41ColorRGB
 90
        0
102
RTVSPost2010PropOp41
 70
     1
102
RTVSPost2010Prop42
 90
       50
102
RTVSPost2010PropOp42
 70
     1
102
RTVSPost2010Prop43
 90
        3
102
RTVSPost2010PropOp43
 70
     1
102
RTVSPost2010Prop44ColorIndex
 90
        5
102
RTVSPost2010Prop44ColorRGB
 90
      255
102
RTVSPost2010PropOp44
 70
     1
102
RTVSPost2010Prop45
280
     0
102
RTVSPost2010PropOp45
 70
     1
102
RTVSPost2010Prop46
 90
       50
102
RTVSPost2010PropOp46
 70
     1
102
RTVSPost2010Prop47
 90
       50
102
RTVSPost2010PropOp47
 70
     1
102
RTVSPost2010Prop48
 90
       50
102
RTVSPost2010PropOp48
 70
     1
102
RTVSPost2010Prop49
280
     0
102
RTVSPost2010PropOp49
 70
     1
102
RTVSPost2010Prop50
 90
       50
102
RTVSPost2010PropOp50
 70
     1
102
RTVSPost2010Prop51ColorIndex
 90
      256
102
RTVSPost2010Prop51ColorRGB
 90
-16777216
102
RTVSPost2010PropOp51
 70
     0
102
RTVSPost2010Prop52
140
1.0
102
RTVSPost2010PropOp52
 70
     0
102
RTVSPost2010Prop53
 90
        2
102
RTVSPost2010PropOp53
 70
     1
102
RTVSPost2010Prop54
  1
strokes_ogs.tif
102
RTVSPost2010PropOp54
 70
     1
102
RTVSPost2010Prop55
280
     0
102
RTVSPost2010PropOp55
 70
     1
102
RTVSPost2010Prop56
140
1.0
102
RTVSPost2010PropOp56
 70
     1
102
RTVSPost2010Prop57
140
1.0
102
RTVSPost2010PropOp57
 70
     1
  0
XRECORD
  5
52B
102
{ACAD_REACTORS
330
52A
102
}
330
52A
100
AcDbXrecord
280
     1
102
RTVSPost2010Prop28
280
     0
102
RTVSPost2010PropOp28
 70
     1
102
RTVSPost2010Prop29
280
     1
102
RTVSPost2010PropOp29
 70
     1
102
RTVSPost2010Prop30
280
     1
102
RTVSPost2010PropOp30
 70
     1
102
RTVSPost2010Prop31
280
     0
102
RTVSPost2010PropOp31
 70
     1
102
RTVSPost2010Prop32
280
     0
102
RTVSPost2010PropOp32
 70
     1
102
RTVSPost2010Prop33
280
     0
102
RTVSPost2010PropOp33
 70
     1
102
RTVSPost2010Prop34
280
     0
102
RTVSPost2010PropOp34
 70
     1
102
RTVSPost2010Prop35
280
     0
102
RTVSPost2010PropOp35
 70
     1
102
RTVSPost2010Prop36
280
     0
102
RTVSPost2010PropOp36
 70
     1
102
RTVSPost2010Prop37
 90
       50
102
RTVSPost2010PropOp37
 70
     1
102
RTVSPost2010Prop38
140
0.0
102
RTVSPost2010PropOp38
 70
     1
102
RTVSPost2010Prop39
140
1.0
102
RTVSPost2010PropOp39
 70
     1
102
RTVSPost2010Prop40
 90
        0
102
RTVSPost2010PropOp40
 70
     1
102
RTVSPost2010Prop41ColorIndex
 90
       18
102
RTVSPost2010Prop41ColorRGB
 90
        0
102
RTVSPost2010PropOp41
 70
     1
102
RTVSPost2010Prop42
 90
       50
102
RTVSPost2010PropOp42
 70
     1
102
RTVSPost2010Prop43
 90
        3
102
RTVSPost2010PropOp43
 70
     1
102
RTVSPost2010Prop44ColorIndex
 90
        5
102
RTVSPost2010Prop44ColorRGB
 90
      255
102
RTVSPost2010PropOp44
 70
     1
102
RTVSPost2010Prop45
280
     0
102
RTVSPost2010PropOp45
 70
     1
102
RTVSPost2010Prop46
 90
       50
102
RTVSPost2010PropOp46
 70
     1
102
RTVSPost2010Prop47
 90
       50
102
RTVSPost2010PropOp47
 70
     1
102
RTVSPost2010Prop48
 90
       50
102
RTVSPost2010PropOp48
 70
     1
102
RTVSPost2010Prop49
280
     0
102
RTVSPost2010PropOp49
 70
     1
102
RTVSPost2010Prop50
 90
       50
102
RTVSPost2010PropOp50
 70
     1
102
RTVSPost2010Prop51ColorIndex
 90
      256
102
RTVSPost2010Prop51ColorRGB
 90
-16777216
102
RTVSPost2010PropOp51
 70
     0
102
RTVSPost2010Prop52
140
1.0
102
RTVSPost2010PropOp52
 70
     0
102
RTVSPost2010Prop53
 90
        2
102
RTVSPost2010PropOp53
 70
     1
102
RTVSPost2010Prop54
  1
strokes_ogs.tif
102
RTVSPost2010PropOp54
 70
     1
102
RTVSPost2010Prop55
280
     0
102
RTVSPost2010PropOp55
 70
     1
102
RTVSPost2010Prop56
140
1.0
102
RTVSPost2010PropOp56
 70
     1
102
RTVSPost2010Prop57
140
1.0
102
RTVSPost2010PropOp57
 70
     1
  0
XRECORD
  5
525
102
{ACAD_REACTORS
330
524
102
}
330
524
100
AcDbXrecord
280
     1
102
RTVSPost2010Prop28
280
     0
102
RTVSPost2010PropOp28
 70
     1
102
RTVSPost2010Prop29
280
     1
102
RTVSPost2010PropOp29
 70
     1
102
RTVSPost2010Prop30
280
     1
102
RTVSPost2010PropOp30
 70
     1
102
RTVSPost2010Prop31
280
     0
102
RTVSPost2010PropOp31
 70
     1
102
RTVSPost2010Prop32
280
     0
102
RTVSPost2010PropOp32
 70
     1
102
RTVSPost2010Prop33
280
     0
102
RTVSPost2010PropOp33
 70
     1
102
RTVSPost2010Prop34
280
     0
102
RTVSPost2010PropOp34
 70
     1
102
RTVSPost2010Prop35
280
     0
102
RTVSPost2010PropOp35
 70
     1
102
RTVSPost2010Prop36
280
     0
102
RTVSPost2010PropOp36
 70
     1
102
RTVSPost2010Prop37
 90
       50
102
RTVSPost2010PropOp37
 70
     1
102
RTVSPost2010Prop38
140
0.0
102
RTVSPost2010PropOp38
 70
     1
102
RTVSPost2010Prop39
140
1.0
102
RTVSPost2010PropOp39
 70
     1
102
RTVSPost2010Prop40
 90
        0
102
RTVSPost2010PropOp40
 70
     1
102
RTVSPost2010Prop41ColorIndex
 90
       18
102
RTVSPost2010Prop41ColorRGB
 90
        0
102
RTVSPost2010PropOp41
 70
     1
102
RTVSPost2010Prop42
 90
       50
102
RTVSPost2010PropOp42
 70
     1
102
RTVSPost2010Prop43
 90
        3
102
RTVSPost2010PropOp43
 70
     1
102
RTVSPost2010Prop44ColorIndex
 90
        5
102
RTVSPost2010Prop44ColorRGB
 90
      255
102
RTVSPost2010PropOp44
 70
     1
102
RTVSPost2010Prop45
280
     0
102
RTVSPost2010PropOp45
 70
     1
102
RTVSPost2010Prop46
 90
       50
102
RTVSPost2010PropOp46
 70
     1
102
RTVSPost2010Prop47
 90
       50
102
RTVSPost2010PropOp47
 70
     1
102
RTVSPost2010Prop48
 90
       50
102
RTVSPost2010PropOp48
 70
     1
102
RTVSPost2010Prop49
280
     0
102
RTVSPost2010PropOp49
 70
     1
102
RTVSPost2010Prop50
 90
       50
102
RTVSPost2010PropOp50
 70
     1
102
RTVSPost2010Prop51ColorIndex
 90
      256
102
RTVSPost2010Prop51ColorRGB
 90
-16777216
102
RTVSPost2010PropOp51
 70
     0
102
RTVSPost2010Prop52
140
1.0
102
RTVSPost2010PropOp52
 70
     0
102
RTVSPost2010Prop53
 90
        2
102
RTVSPost2010PropOp53
 70
     1
102
RTVSPost2010Prop54
  1
strokes_ogs.tif
102
RTVSPost2010PropOp54
 70
     1
102
RTVSPost2010Prop55
280
     0
102
RTVSPost2010PropOp55
 70
     1
102
RTVSPost2010Prop56
140
1.0
102
RTVSPost2010PropOp56
 70
     1
102
RTVSPost2010Prop57
140
1.0
102
RTVSPost2010PropOp57
 70
     1
  0
XRECORD
  5
527
102
{ACAD_REACTORS
330
526
102
}
330
526
100
AcDbXrecord
280
     1
102
RTVSPost2010Prop28
280
     0
102
RTVSPost2010PropOp28
 70
     1
102
RTVSPost2010Prop29
280
     1
102
RTVSPost2010PropOp29
 70
     1
102
RTVSPost2010Prop30
280
     1
102
RTVSPost2010PropOp30
 70
     1
102
RTVSPost2010Prop31
280
     0
102
RTVSPost2010PropOp31
 70
     1
102
RTVSPost2010Prop32
280
     0
102
RTVSPost2010PropOp32
 70
     1
102
RTVSPost2010Prop33
280
     0
102
RTVSPost2010PropOp33
 70
     1
102
RTVSPost2010Prop34
280
     0
102
RTVSPost2010PropOp34
 70
     1
102
RTVSPost2010Prop35
280
     0
102
RTVSPost2010PropOp35
 70
     1
102
RTVSPost2010Prop36
280
     0
102
RTVSPost2010PropOp36
 70
     1
102
RTVSPost2010Prop37
 90
       50
102
RTVSPost2010PropOp37
 70
     1
102
RTVSPost2010Prop38
140
0.0
102
RTVSPost2010PropOp38
 70
     1
102
RTVSPost2010Prop39
140
1.0
102
RTVSPost2010PropOp39
 70
     1
102
RTVSPost2010Prop40
 90
        0
102
RTVSPost2010PropOp40
 70
     1
102
RTVSPost2010Prop41ColorIndex
 90
       18
102
RTVSPost2010Prop41ColorRGB
 90
        0
102
RTVSPost2010PropOp41
 70
     1
102
RTVSPost2010Prop42
 90
       50
102
RTVSPost2010PropOp42
 70
     1
102
RTVSPost2010Prop43
 90
        3
102
RTVSPost2010PropOp43
 70
     1
102
RTVSPost2010Prop44ColorIndex
 90
        5
102
RTVSPost2010Prop44ColorRGB
 90
      255
102
RTVSPost2010PropOp44
 70
     1
102
RTVSPost2010Prop45
280
     0
102
RTVSPost2010PropOp45
 70
     1
102
RTVSPost2010Prop46
 90
       50
102
RTVSPost2010PropOp46
 70
     1
102
RTVSPost2010Prop47
 90
       50
102
RTVSPost2010PropOp47
 70
     1
102
RTVSPost2010Prop48
 90
       50
102
RTVSPost2010PropOp48
 70
     1
102
RTVSPost2010Prop49
280
     0
102
RTVSPost2010PropOp49
 70
     1
102
RTVSPost2010Prop50
 90
       50
102
RTVSPost2010PropOp50
 70
     1
102
RTVSPost2010Prop51ColorIndex
 90
      256
102
RTVSPost2010Prop51ColorRGB
 90
-16777216
102
RTVSPost2010PropOp51
 70
     0
102
RTVSPost2010Prop52
140
1.0
102
RTVSPost2010PropOp52
 70
     0
102
RTVSPost2010Prop53
 90
        2
102
RTVSPost2010PropOp53
 70
     1
102
RTVSPost2010Prop54
  1
strokes_ogs.tif
102
RTVSPost2010PropOp54
 70
     1
102
RTVSPost2010Prop55
280
     0
102
RTVSPost2010PropOp55
 70
     1
102
RTVSPost2010Prop56
140
1.0
102
RTVSPost2010PropOp56
 70
     1
102
RTVSPost2010Prop57
140
1.0
102
RTVSPost2010PropOp57
 70
     1
  0
XRECORD
  5
517
102
{ACAD_REACTORS
330
516
102
}
330
516
100
AcDbXrecord
280
     1
102
RTVSPost2010Prop28
280
     0
102
RTVSPost2010PropOp28
 70
     1
102
RTVSPost2010Prop29
280
     1
102
RTVSPost2010PropOp29
 70
     1
102
RTVSPost2010Prop30
280
     1
102
RTVSPost2010PropOp30
 70
     1
102
RTVSPost2010Prop31
280
     0
102
RTVSPost2010PropOp31
 70
     1
102
RTVSPost2010Prop32
280
     0
102
RTVSPost2010PropOp32
 70
     1
102
RTVSPost2010Prop33
280
     0
102
RTVSPost2010PropOp33
 70
     1
102
RTVSPost2010Prop34
280
     0
102
RTVSPost2010PropOp34
 70
     1
102
RTVSPost2010Prop35
280
     0
102
RTVSPost2010PropOp35
 70
     1
102
RTVSPost2010Prop36
280
     0
102
RTVSPost2010PropOp36
 70
     1
102
RTVSPost2010Prop37
 90
       50
102
RTVSPost2010PropOp37
 70
     1
102
RTVSPost2010Prop38
140
0.0
102
RTVSPost2010PropOp38
 70
     1
102
RTVSPost2010Prop39
140
1.0
102
RTVSPost2010PropOp39
 70
     1
102
RTVSPost2010Prop40
 90
        0
102
RTVSPost2010PropOp40
 70
     1
102
RTVSPost2010Prop41ColorIndex
 90
       18
102
RTVSPost2010Prop41ColorRGB
 90
        0
102
RTVSPost2010PropOp41
 70
     1
102
RTVSPost2010Prop42
 90
       50
102
RTVSPost2010PropOp42
 70
     1
102
RTVSPost2010Prop43
 90
        3
102
RTVSPost2010PropOp43
 70
     1
102
RTVSPost2010Prop44ColorIndex
 90
        5
102
RTVSPost2010Prop44ColorRGB
 90
      255
102
RTVSPost2010PropOp44
 70
     1
102
RTVSPost2010Prop45
280
     0
102
RTVSPost2010PropOp45
 70
     1
102
RTVSPost2010Prop46
 90
       50
102
RTVSPost2010PropOp46
 70
     1
102
RTVSPost2010Prop47
 90
       50
102
RTVSPost2010PropOp47
 70
     1
102
RTVSPost2010Prop48
 90
       50
102
RTVSPost2010PropOp48
 70
     1
102
RTVSPost2010Prop49
280
     0
102
RTVSPost2010PropOp49
 70
     1
102
RTVSPost2010Prop50
 90
       50
102
RTVSPost2010PropOp50
 70
     1
102
RTVSPost2010Prop51ColorIndex
 90
      256
102
RTVSPost2010Prop51ColorRGB
 90
-16777216
102
RTVSPost2010PropOp51
 70
     0
102
RTVSPost2010Prop52
140
1.0
102
RTVSPost2010PropOp52
 70
     0
102
RTVSPost2010Prop53
 90
        2
102
RTVSPost2010PropOp53
 70
     1
102
RTVSPost2010Prop54
  1
strokes_ogs.tif
102
RTVSPost2010PropOp54
 70
     1
102
RTVSPost2010Prop55
280
     0
102
RTVSPost2010PropOp55
 70
     1
102
RTVSPost2010Prop56
140
1.0
102
RTVSPost2010PropOp56
 70
     1
102
RTVSPost2010Prop57
140
1.0
102
RTVSPost2010PropOp57
 70
     1
  0
XRECORD
  5
509
102
{ACAD_REACTORS
330
508
102
}
330
508
100
AcDbXrecord
280
     1
102
RTVSPost2010Prop28
280
     0
102
RTVSPost2010PropOp28
 70
     1
102
RTVSPost2010Prop29
280
     1
102
RTVSPost2010PropOp29
 70
     1
102
RTVSPost2010Prop30
280
     1
102
RTVSPost2010PropOp30
 70
     1
102
RTVSPost2010Prop31
280
     0
102
RTVSPost2010PropOp31
 70
     1
102
RTVSPost2010Prop32
280
     0
102
RTVSPost2010PropOp32
 70
     1
102
RTVSPost2010Prop33
280
     0
102
RTVSPost2010PropOp33
 70
     1
102
RTVSPost2010Prop34
280
     0
102
RTVSPost2010PropOp34
 70
     1
102
RTVSPost2010Prop35
280
     0
102
RTVSPost2010PropOp35
 70
     1
102
RTVSPost2010Prop36
280
     0
102
RTVSPost2010PropOp36
 70
     1
102
RTVSPost2010Prop37
 90
       50
102
RTVSPost2010PropOp37
 70
     1
102
RTVSPost2010Prop38
140
0.0
102
RTVSPost2010PropOp38
 70
     1
102
RTVSPost2010Prop39
140
1.0
102
RTVSPost2010PropOp39
 70
     1
102
RTVSPost2010Prop40
 90
        0
102
RTVSPost2010PropOp40
 70
     1
102
RTVSPost2010Prop41ColorIndex
 90
       18
102
RTVSPost2010Prop41ColorRGB
 90
        0
102
RTVSPost2010PropOp41
 70
     1
102
RTVSPost2010Prop42
 90
       50
102
RTVSPost2010PropOp42
 70
     1
102
RTVSPost2010Prop43
 90
        3
102
RTVSPost2010PropOp43
 70
     1
102
RTVSPost2010Prop44ColorIndex
 90
        5
102
RTVSPost2010Prop44ColorRGB
 90
      255
102
RTVSPost2010PropOp44
 70
     1
102
RTVSPost2010Prop45
280
     0
102
RTVSPost2010PropOp45
 70
     1
102
RTVSPost2010Prop46
 90
       50
102
RTVSPost2010PropOp46
 70
     1
102
RTVSPost2010Prop47
 90
       50
102
RTVSPost2010PropOp47
 70
     1
102
RTVSPost2010Prop48
 90
       50
102
RTVSPost2010PropOp48
 70
     1
102
RTVSPost2010Prop49
280
     0
102
RTVSPost2010PropOp49
 70
     1
102
RTVSPost2010Prop50
 90
       50
102
RTVSPost2010PropOp50
 70
     1
102
RTVSPost2010Prop51ColorIndex
 90
      256
102
RTVSPost2010Prop51ColorRGB
 90
-16777216
102
RTVSPost2010PropOp51
 70
     0
102
RTVSPost2010Prop52
140
1.0
102
RTVSPost2010PropOp52
 70
     0
102
RTVSPost2010Prop53
 90
        2
102
RTVSPost2010PropOp53
 70
     1
102
RTVSPost2010Prop54
  1
strokes_ogs.tif
102
RTVSPost2010PropOp54
 70
     1
102
RTVSPost2010Prop55
280
     0
102
RTVSPost2010PropOp55
 70
     1
102
RTVSPost2010Prop56
140
1.0
102
RTVSPost2010PropOp56
 70
     1
102
RTVSPost2010Prop57
140
1.0
102
RTVSPost2010PropOp57
 70
     1
  0
XRECORD
  5
529
102
{ACAD_REACTORS
330
528
102
}
330
528
100
AcDbXrecord
280
     1
102
RTVSPost2010Prop28
280
     0
102
RTVSPost2010PropOp28
 70
     1
102
RTVSPost2010Prop29
280
     1
102
RTVSPost2010PropOp29
 70
     1
102
RTVSPost2010Prop30
280
     1
102
RTVSPost2010PropOp30
 70
     1
102
RTVSPost2010Prop31
280
     0
102
RTVSPost2010PropOp31
 70
     1
102
RTVSPost2010Prop32
280
     0
102
RTVSPost2010PropOp32
 70
     1
102
RTVSPost2010Prop33
280
     0
102
RTVSPost2010PropOp33
 70
     1
102
RTVSPost2010Prop34
280
     0
102
RTVSPost2010PropOp34
 70
     1
102
RTVSPost2010Prop35
280
     0
102
RTVSPost2010PropOp35
 70
     1
102
RTVSPost2010Prop36
280
     0
102
RTVSPost2010PropOp36
 70
     1
102
RTVSPost2010Prop37
 90
       50
102
RTVSPost2010PropOp37
 70
     1
102
RTVSPost2010Prop38
140
0.0
102
RTVSPost2010PropOp38
 70
     1
102
RTVSPost2010Prop39
140
1.0
102
RTVSPost2010PropOp39
 70
     1
102
RTVSPost2010Prop40
 90
        0
102
RTVSPost2010PropOp40
 70
     1
102
RTVSPost2010Prop41ColorIndex
 90
       18
102
RTVSPost2010Prop41ColorRGB
 90
        0
102
RTVSPost2010PropOp41
 70
     1
102
RTVSPost2010Prop42
 90
       50
102
RTVSPost2010PropOp42
 70
     1
102
RTVSPost2010Prop43
 90
        3
102
RTVSPost2010PropOp43
 70
     1
102
RTVSPost2010Prop44ColorIndex
 90
        5
102
RTVSPost2010Prop44ColorRGB
 90
      255
102
RTVSPost2010PropOp44
 70
     1
102
RTVSPost2010Prop45
280
     0
102
RTVSPost2010PropOp45
 70
     1
102
RTVSPost2010Prop46
 90
       50
102
RTVSPost2010PropOp46
 70
     1
102
RTVSPost2010Prop47
 90
       50
102
RTVSPost2010PropOp47
 70
     1
102
RTVSPost2010Prop48
 90
       50
102
RTVSPost2010PropOp48
 70
     1
102
RTVSPost2010Prop49
280
     0
102
RTVSPost2010PropOp49
 70
     1
102
RTVSPost2010Prop50
 90
       50
102
RTVSPost2010PropOp50
 70
     1
102
RTVSPost2010Prop51ColorIndex
 90
      256
102
RTVSPost2010Prop51ColorRGB
 90
-16777216
102
RTVSPost2010PropOp51
 70
     0
102
RTVSPost2010Prop52
140
1.0
102
RTVSPost2010PropOp52
 70
     0
102
RTVSPost2010Prop53
 90
        2
102
RTVSPost2010PropOp53
 70
     1
102
RTVSPost2010Prop54
  1
strokes_ogs.tif
102
RTVSPost2010PropOp54
 70
     1
102
RTVSPost2010Prop55
280
     0
102
RTVSPost2010PropOp55
 70
     1
102
RTVSPost2010Prop56
140
1.0
102
RTVSPost2010PropOp56
 70
     1
102
RTVSPost2010Prop57
140
1.0
102
RTVSPost2010PropOp57
 70
     1
  0
ENDSEC
  0
EOF
