  0
SECTION
  2
HEADER
  9
$ACADVER
  1
AC1024
  9
$ACADMAINTVER
 70
     6
  9
$DWGCODEPAGE
  3
ANSI_932
  9
$INSBASE
 10
0.0
 20
0.0
 30
0.0
  9
$EXTMIN
 10
-8865.0
 20
-6080.763449721504
 30
0.0
  9
$EXTMAX
 10
8865.0
 20
6080.763449721504
 30
0.0
  9
$LIMMIN
 10
-3150.0
 20
-2227.5
  9
$LIMMAX
 10
3150.0
 20
2227.5
  9
$ORTHOMODE
 70
     0
  9
$REGENMODE
 70
     1
  9
$FILLMODE
 70
     1
  9
$QTEXTMODE
 70
     0
  9
$MIRRTEXT
 70
     1
  9
$LTSCALE
 40
3.75
  9
$ATTMODE
 70
     1
  9
$TEXTSIZE
 40
0.2
  9
$TRACEWID
 40
0.05
  9
$TEXTSTYLE
  7
Standard
  9
$CLAYER
  8
0
  9
$CELTYPE
  6
ByLayer
  9
$CECOLOR
 62
   256
  9
$CELTSCALE
 40
1.0
  9
$DISPSILH
 70
     0
  9
$DIMSCALE
 40
1.0
  9
$DIMASZ
 40
45.00002861022949
  9
$DIMEXO
 40
1.0
  9
$DIMDLI
 40
10.0
  9
$DIMRND
 40
0.0
  9
$DIMDLE
 40
0.0
  9
$DIMEXE
 40
1.0
  9
$DIMTP
 40
0.0
  9
$DIMTM
 40
0.0
  9
$DIMTXT
 40
60.0
  9
$DIMCEN
 40
0.0
  9
$DIMTSZ
 40
0.0
  9
$DIMTOL
 70
     0
  9
$DIMLIM
 70
     0
  9
$DIMTIH
 70
     0
  9
$DIMTOH
 70
     0
  9
$DIMSE1
 70
     0
  9
$DIMSE2
 70
     0
  9
$DIMTAD
 70
     1
  9
$DIMZIN
 70
     8
  9
$DIMBLK
  1

  9
$DIMASO
 70
     1
  9
$DIMSHO
 70
     1
  9
$DIMPOST
  1

  9
$DIMAPOST
  1

  9
$DIMALT
 70
     0
  9
$DIMALTD
 70
     2
  9
$DIMALTF
 40
0.0393700787401575
  9
$DIMLFAC
 40
1.0
  9
$DIMTOFL
 70
     0
  9
$DIMTVP
 40
0.0
  9
$DIMTIX
 70
     0
  9
$DIMSOXD
 70
     0
  9
$DIMSAH
 70
     0
  9
$DIMBLK1
  1

  9
$DIMBLK2
  1

  9
$DIMSTYLE
  2
Standard
  9
$DIMCLRD
 70
     0
  9
$DIMCLRE
 70
     0
  9
$DIMCLRT
 70
     0
  9
$DIMTFAC
 40
0.65
  9
$DIMGAP
 40
0.09
  9
$DIMJUST
 70
     0
  9
$DIMSD1
 70
     0
  9
$DIMSD2
 70
     0
  9
$DIMTOLJ
 70
     0
  9
$DIMTZIN
 70
     0
  9
$DIMALTZ
 70
     0
  9
$DIMALTTZ
 70
     0
  9
$DIMUPT
 70
     0
  9
$DIMDEC
 70
     5
  9
$DIMTDEC
 70
     5
  9
$DIMALTU
 70
     2
  9
$DIMALTTD
 70
     5
  9
$DIMTXSTY
  7
Standard
  9
$DIMAUNIT
 70
     0
  9
$DIMADEC
 70
     5
  9
$DIMALTRND
 40
0.0
  9
$DIMAZIN
 70
     2
  9
$DIMDSEP
 70
    46
  9
$DIMATFIT
 70
     3
  9
$DIMFRAC
 70
     0
  9
$DIMLDRBLK
  1

  9
$DIMLUNIT
 70
     2
  9
$DIMLWD
 70
    -2
  9
$DIMLWE
 70
    -2
  9
$DIMTMOVE
 70
     0
  9
$DIMFXL
 40
1.0
  9
$DIMFXLON
 70
     0
  9
$DIMJOGANG
 40
0.7853981633974483
  9
$DIMTFILL
 70
     0
  9
$DIMTFILLCLR
 70
     0
  9
$DIMARCSYM
 70
     1
  9
$DIMLTYPE
  6

  9
$DIMLTEX1
  6

  9
$DIMLTEX2
  6

  9
$DIMTXTDIRECTION
 70
     0
  9
$LUNITS
 70
     2
  9
$LUPREC
 70
     4
  9
$SKETCHINC
 40
0.1
  9
$FILLETRAD
 40
0.5
  9
$AUNITS
 70
     0
  9
$AUPREC
 70
     0
  9
$MENU
  1
.
  9
$ELEVATION
 40
0.0
  9
$PELEVATION
 40
0.0
  9
$THICKNESS
 40
0.0
  9
$LIMCHECK
 70
     0
  9
$CHAMFERA
 40
0.0
  9
$CHAMFERB
 40
0.0
  9
$CHAMFERC
 40
0.0
  9
$CHAMFERD
 40
0.0
  9
$SKPOLY
 70
     0
  9
$TDCREATE
 40
2458736.364983785
  9
$TDUCREATE
 40
2458735.989983785
  9
$TDUPDATE
 40
2458736.364984201
  9
$TDUUPDATE
 40
2458735.989984201
  9
$TDINDWG
 40
0.0000000116
  9
$TDUSRTIMER
 40
0.0000000116
  9
$USRTIMER
 70
     1
  9
$ANGBASE
 50
0.0
  9
$ANGDIR
 70
     0
  9
$PDMODE
 70
     0
  9
$PDSIZE
 40
1.0
  9
$PLINEWID
 40
0.0
  9
$SPLFRAME
 70
     0
  9
$SPLINETYPE
 70
     6
  9
$SPLINESEGS
 70
     8
  9
$HANDSEED
  5
322
  9
$SURFTAB1
 70
     6
  9
$SURFTAB2
 70
     6
  9
$SURFTYPE
 70
     6
  9
$SURFU
 70
     6
  9
$SURFV
 70
     6
  9
$UCSBASE
  2

  9
$UCSNAME
  2

  9
$UCSORG
 10
0.0
 20
0.0
 30
0.0
  9
$UCSXDIR
 10
1.0
 20
0.0
 30
0.0
  9
$UCSYDIR
 10
0.0
 20
1.0
 30
0.0
  9
$UCSORTHOREF
  2

  9
$UCSORTHOVIEW
 70
     0
  9
$UCSORGTOP
 10
0.0
 20
0.0
 30
0.0
  9
$UCSORGBOTTOM
 10
0.0
 20
0.0
 30
0.0
  9
$UCSORGLEFT
 10
0.0
 20
0.0
 30
0.0
  9
$UCSORGRIGHT
 10
0.0
 20
0.0
 30
0.0
  9
$UCSORGFRONT
 10
0.0
 20
0.0
 30
0.0
  9
$UCSORGBACK
 10
0.0
 20
0.0
 30
0.0
  9
$PUCSBASE
  2

  9
$PUCSNAME
  2

  9
$PUCSORG
 10
0.0
 20
0.0
 30
0.0
  9
$PUCSXDIR
 10
1.0
 20
0.0
 30
0.0
  9
$PUCSYDIR
 10
0.0
 20
1.0
 30
0.0
  9
$PUCSORTHOREF
  2

  9
$PUCSORTHOVIEW
 70
     0
  9
$PUCSORGTOP
 10
0.0
 20
0.0
 30
0.0
  9
$PUCSORGBOTTOM
 10
0.0
 20
0.0
 30
0.0
  9
$PUCSORGLEFT
 10
0.0
 20
0.0
 30
0.0
  9
$PUCSORGRIGHT
 10
0.0
 20
0.0
 30
0.0
  9
$PUCSORGFRONT
 10
0.0
 20
0.0
 30
0.0
  9
$PUCSORGBACK
 10
0.0
 20
0.0
 30
0.0
  9
$USERI1
 70
     0
  9
$USERI2
 70
     0
  9
$USERI3
 70
     0
  9
$USERI4
 70
     0
  9
$USERI5
 70
     0
  9
$USERR1
 40
0.0
  9
$USERR2
 40
0.0
  9
$USERR3
 40
0.0
  9
$USERR4
 40
0.0
  9
$USERR5
 40
0.0
  9
$WORLDVIEW
 70
     1
  9
$SHADEDGE
 70
     3
  9
$SHADEDIF
 70
    70
  9
$TILEMODE
 70
     1
  9
$MAXACTVP
 70
    64
  9
$PINSBASE
 10
0.0
 20
0.0
 30
0.0
  9
$PLIMCHECK
 70
     0
  9
$PEXTMIN
 10
1.000000000000000E+20
 20
1.000000000000000E+20
 30
1.000000000000000E+20
  9
$PEXTMAX
 10
-1.000000000000000E+20
 20
-1.000000000000000E+20
 30
-1.000000000000000E+20
  9
$PLIMMIN
 10
0.0
 20
0.0
  9
$PLIMMAX
 10
12.0
 20
9.0
  9
$UNITMODE
 70
     0
  9
$VISRETAIN
 70
     0
  9
$PLINEGEN
 70
     1
  9
$PSLTSCALE
 70
     0
  9
$TREEDEPTH
 70
  3020
  9
$CMLSTYLE
  2
Standard
  9
$CMLJUST
 70
     0
  9
$CMLSCALE
 40
1.0
  9
$PROXYGRAPHICS
 70
     0
  9
$MEASUREMENT
 70
     1
  9
$CELWEIGHT
370
    -1
  9
$ENDCAPS
280
     0
  9
$JOINSTYLE
280
     0
  9
$LWDISPLAY
290
     1
  9
$INSUNITS
 70
     4
  9
$HYPERLINKBASE
  1

  9
$STYLESHEET
  1

  9
$XEDIT
290
     1
  9
$CEPSNTYPE
380
     0
  9
$PSTYLEMODE
290
     1
  9
$FINGERPRINTGUID
  2
{AC44F2B2-4270-4A63-93F6-F9BA9DE2EE4C}
  9
$VERSIONGUID
  2
{FAEB1C32-E019-11D5-929B-00C0DF256EC4}
  9
$EXTNAMES
290
     1
  9
$PSVPSCALE
 40
0.0
  9
$OLESTARTUP
290
     0
  9
$SORTENTS
280
   127
  9
$INDEXCTL
280
     0
  9
$HIDETEXT
280
     1
  9
$XCLIPFRAME
280
     2
  9
$HALOGAP
280
     0
  9
$OBSCOLOR
 70
   257
  9
$OBSLTYPE
280
     0
  9
$INTERSECTIONDISPLAY
280
     0
  9
$INTERSECTIONCOLOR
 70
   257
  9
$DIMASSOC
280
     2
  9
$PROJECTNAME
  1

  9
$CAMERADISPLAY
290
     0
  9
$LENSLENGTH
 40
50.0
  9
$CAMERAHEIGHT
 40
0.0
  9
$STEPSPERSEC
 40
2.0
  9
$STEPSIZE
 40
6.0
  9
$3DDWFPREC
 40
2.0
  9
$PSOLWIDTH
 40
0.25
  9
$PSOLHEIGHT
 40
4.0
  9
$LOFTANG1
 40
1.570796326794897
  9
$LOFTANG2
 40
1.570796326794897
  9
$LOFTMAG1
 40
0.0
  9
$LOFTMAG2
 40
0.0
  9
$LOFTPARAM
 70
     7
  9
$LOFTNORMALS
280
     1
  9
$LATITUDE
 40
37.795
  9
$LONGITUDE
 40
-122.394
  9
$NORTHDIRECTION
 40
0.0
  9
$TIMEZONE
 70
 -8000
  9
$LIGHTGLYPHDISPLAY
280
     1
  9
$TILEMODELIGHTSYNCH
280
     1
  9
$CMATERIAL
347
44
  9
$SOLIDHIST
280
     1
  9
$SHOWHIST
280
     1
  9
$DWFFRAME
280
     2
  9
$DGNFRAME
280
     2
  9
$REALWORLDSCALE
290
     1
  9
$INTERFERECOLOR
 62
   256
  9
$CSHADOW
280
     0
  9
$SHADOWPLANELOCATION
 40
0.0
  0
ENDSEC
  0
SECTION
  2
CLASSES
  0
CLASS
  1
ACDBDICTIONARYWDFLT
  2
AcDbDictionaryWithDefault
  3
ObjectDBX Classes
 90
        0
 91
        4
280
     0
281
     0
  0
CLASS
  1
VISUALSTYLE
  2
AcDbVisualStyle
  3
ObjectDBX Classes
 90
     4095
 91
        4
280
     0
281
     0
  0
CLASS
  1
MATERIAL
  2
AcDbMaterial
  3
ObjectDBX Classes
 90
     1153
 91
        4
280
     0
281
     0
  0
CLASS
  1
SCALE
  2
AcDbScale
  3
ObjectDBX Classes
 90
     1153
 91
        4
280
     0
281
     0
  0
CLASS
  1
SUN
  2
AcDbSun
  3
SCENEOE
 90
     1153
 91
        4
280
     0
281
     0
  0
CLASS
  1
DICTIONARYVAR
  2
AcDbDictionaryVar
  3
ObjectDBX Classes
 90
        0
 91
        4
280
     0
281
     0
  0
ENDSEC
  0
SECTION
  2
TABLES
  0
TABLE
  2
VPORT
  5
8
330
0
100
AcDbSymbolTable
 70
     1
  0
VPORT
  5
29
330
8
100
AcDbSymbolTableRecord
100
AcDbViewportTableRecord
  2
*Active
 70
     0
 10
0.0
 20
0.0
 11
1.0
 21
1.0
 12
0.0
 22
0.0
 13
0.0
 23
0.0
 14
0.5
 24
0.5
 15
0.5
 25
0.5
 16
0.0
 26
0.0
 36
1.0
 17
0.0000000000001101
 27
0.0
 37
0.0
 40
4134.919145810622
 41
1.457876148825689
 42
50.0
 43
0.0
 44
0.0
 50
0.0
 51
0.0
 71
     0
 72
  1000
 73
     1
 74
     1
 75
     0
 76
     0
 77
     0
 78
     0
281
     0
 65
     1
110
0.0
120
0.0
130
0.0
111
1.0
121
0.0
131
0.0
112
0.0
122
1.0
132
0.0
 79
     0
146
0.0
 60
     3
 61
     5
292
     1
282
     1
141
0.0
142
0.0
 63
   250
361
69
  0
ENDTAB
  0
TABLE
  2
LTYPE
  5
5
330
0
100
AcDbSymbolTable
 70
    67
  0
LTYPE
  5
14
330
5
100
AcDbSymbolTableRecord
100
AcDbLinetypeTableRecord
  2
ByBlock
 70
     0
  3

 72
    65
 73
     0
 40
0.0
  0
LTYPE
  5
15
330
5
100
AcDbSymbolTableRecord
100
AcDbLinetypeTableRecord
  2
ByLayer
 70
     0
  3

 72
    65
 73
     0
 40
0.0
  0
LTYPE
  5
16
330
5
100
AcDbSymbolTableRecord
100
AcDbLinetypeTableRecord
  2
Continuous
 70
     0
  3
Solid line
 72
    65
 73
     0
 40
0.0
  0
LTYPE
  5
6B
330
5
100
AcDbSymbolTableRecord
100
AcDbLinetypeTableRecord
  2
HIDDENX2
 70
     0
  3
Hidden (2x) ____ ____ ____ ____ ____ ____ ____ 
 72
    65
 73
     2
 40
19.05
 49
12.7
 74
     0
 49
-6.35
 74
     0
  0
LTYPE
  5
6C
330
5
100
AcDbSymbolTableRecord
100
AcDbLinetypeTableRecord
  2
HIDDEN
 70
     0
  3
Hidden __ __ __ __ __ __ __ __ __ __ __ __ __ __
 72
    65
 73
     2
 40
9.524999999999999
 49
6.35
 74
     0
 49
-3.175
 74
     0
  0
LTYPE
  5
6D
330
5
100
AcDbSymbolTableRecord
100
AcDbLinetypeTableRecord
  2
HIDDEN2
 70
     0
  3
Hidden (.5x) _ _ _ _ _ _ _ _ _ _ _ _ _ _ _ _ _ 
 72
    65
 73
     2
 40
4.762499999999999
 49
3.175
 74
     0
 49
-1.5875
 74
     0
  0
LTYPE
  5
6E
330
5
100
AcDbSymbolTableRecord
100
AcDbLinetypeTableRecord
  2
DASHED
 70
     0
  3
Dashed __ __ __ __ __ __ __ __ __ __ __ __ __ _
 72
    65
 73
     2
 40
19.05
 49
12.7
 74
     0
 49
-6.35
 74
     0
  0
LTYPE
  5
6F
330
5
100
AcDbSymbolTableRecord
100
AcDbLinetypeTableRecord
  2
DASHED2
 70
     0
  3
Dashed (.5x) _ _ _ _ _ _ _ _ _ _ _ _ _ _ _ _ _ 
 72
    65
 73
     2
 40
9.524999999999999
 49
6.35
 74
     0
 49
-3.175
 74
     0
  0
LTYPE
  5
70
330
5
100
AcDbSymbolTableRecord
100
AcDbLinetypeTableRecord
  2
DASHEDX2
 70
     0
  3
Dashed (2x) ____  ____  ____  ____  ____  ___
 72
    65
 73
     2
 40
38.09999999999999
 49
25.4
 74
     0
 49
-12.7
 74
     0
  0
LTYPE
  5
71
330
5
100
AcDbSymbolTableRecord
100
AcDbLinetypeTableRecord
  2
DOTX2
 70
     0
  3
Dot (2x) .  .  .  .  .  .  .  .  .  .  .  .  .  .
 72
    65
 73
     2
 40
12.7
 49
0.0
 74
     0
 49
-12.7
 74
     0
  0
LTYPE
  5
72
330
5
100
AcDbSymbolTableRecord
100
AcDbLinetypeTableRecord
  2
DOT
 70
     0
  3
Dot . . . . . . . . . . . . . . . . . . . . . . . .
 72
    65
 73
     2
 40
6.35
 49
0.0
 74
     0
 49
-6.35
 74
     0
  0
LTYPE
  5
73
330
5
100
AcDbSymbolTableRecord
100
AcDbLinetypeTableRecord
  2
DOT2
 70
     0
  3
Dot (.5x) ........................................
 72
    65
 73
     2
 40
3.175
 49
0.0
 74
     0
 49
-3.175
 74
     0
  0
LTYPE
  5
74
330
5
100
AcDbSymbolTableRecord
100
AcDbLinetypeTableRecord
  2
CENTERX2
 70
     0
  3
Center (2x) ________  __  ________  __  _____
 72
    65
 73
     4
 40
101.6
 49
63.5
 74
     0
 49
-12.7
 74
     0
 49
12.7
 74
     0
 49
-12.7
 74
     0
  0
LTYPE
  5
75
330
5
100
AcDbSymbolTableRecord
100
AcDbLinetypeTableRecord
  2
CENTER
 70
     0
  3
Center ____ _ ____ _ ____ _ ____ _ ____ _ ____
 72
    65
 73
     4
 40
50.8
 49
31.75
 74
     0
 49
-6.35
 74
     0
 49
6.35
 74
     0
 49
-6.35
 74
     0
  0
LTYPE
  5
76
330
5
100
AcDbSymbolTableRecord
100
AcDbLinetypeTableRecord
  2
CENTER2
 70
     0
  3
Center (.5x) ___ _ ___ _ ___ _ ___ _ ___ _ ___
 72
    65
 73
     4
 40
28.575
 49
19.05
 74
     0
 49
-3.175
 74
     0
 49
3.175
 74
     0
 49
-3.175
 74
     0
  0
LTYPE
  5
77
330
5
100
AcDbSymbolTableRecord
100
AcDbLinetypeTableRecord
  2
DASHDOTX2
 70
     0
  3
Dash dot (2x) ____  .  ____  .  ____  .  ___
 72
    65
 73
     4
 40
50.8
 49
25.4
 74
     0
 49
-12.7
 74
     0
 49
0.0
 74
     0
 49
-12.7
 74
     0
  0
LTYPE
  5
78
330
5
100
AcDbSymbolTableRecord
100
AcDbLinetypeTableRecord
  2
DASHDOT
 70
     0
  3
Dash dot __ . __ . __ . __ . __ . __ . __ . __
 72
    65
 73
     4
 40
25.4
 49
12.7
 74
     0
 49
-6.35
 74
     0
 49
0.0
 74
     0
 49
-6.35
 74
     0
  0
LTYPE
  5
79
330
5
100
AcDbSymbolTableRecord
100
AcDbLinetypeTableRecord
  2
DASHDOT2
 70
     0
  3
Dash dot (.5x) _._._._._._._._._._._._._._._.
 72
    65
 73
     4
 40
12.7
 49
6.35
 74
     0
 49
-3.175
 74
     0
 49
0.0
 74
     0
 49
-3.175
 74
     0
  0
LTYPE
  5
7A
330
5
100
AcDbSymbolTableRecord
100
AcDbLinetypeTableRecord
  2
DIVIDEX2
 70
     0
  3
Divide (2x) ________  .  .  ________  .  .  _
 72
    65
 73
     6
 40
63.5
 49
25.4
 74
     0
 49
-12.7
 74
     0
 49
0.0
 74
     0
 49
-12.7
 74
     0
 49
0.0
 74
     0
 49
-12.7
 74
     0
  0
LTYPE
  5
7B
330
5
100
AcDbSymbolTableRecord
100
AcDbLinetypeTableRecord
  2
DIVIDE
 70
     0
  3
Divide ____ . . ____ . . ____ . . ____ . . ____
 72
    65
 73
     6
 40
31.75
 49
12.7
 74
     0
 49
-6.35
 74
     0
 49
0.0
 74
     0
 49
-6.35
 74
     0
 49
0.0
 74
     0
 49
-6.35
 74
     0
  0
LTYPE
  5
7C
330
5
100
AcDbSymbolTableRecord
100
AcDbLinetypeTableRecord
  2
DIVIDE2
 70
     0
  3
Divide (.5x) __..__..__..__..__..__..__..__.._
 72
    65
 73
     6
 40
15.875
 49
6.35
 74
     0
 49
-3.175
 74
     0
 49
0.0
 74
     0
 49
-3.175
 74
     0
 49
0.0
 74
     0
 49
-3.175
 74
     0
  0
LTYPE
  5
7D
330
5
100
AcDbSymbolTableRecord
100
AcDbLinetypeTableRecord
  2
BORDERX2
 70
     0
  3
Border (2x) ____  ____  .  ____  ____  .  ___
 72
    65
 73
     6
 40
88.89999999999999
 49
25.4
 74
     0
 49
-12.7
 74
     0
 49
25.4
 74
     0
 49
-12.7
 74
     0
 49
0.0
 74
     0
 49
-12.7
 74
     0
  0
LTYPE
  5
7E
330
5
100
AcDbSymbolTableRecord
100
AcDbLinetypeTableRecord
  2
BORDER
 70
     0
  3
Border __ __ . __ __ . __ __ . __ __ . __ __ .
 72
    65
 73
     6
 40
44.45
 49
12.7
 74
     0
 49
-6.35
 74
     0
 49
12.7
 74
     0
 49
-6.35
 74
     0
 49
0.0
 74
     0
 49
-6.35
 74
     0
  0
LTYPE
  5
7F
330
5
100
AcDbSymbolTableRecord
100
AcDbLinetypeTableRecord
  2
BORDER2
 70
     0
  3
Border (.5x) __.__.__.__.__.__.__.__.__.__.__.
 72
    65
 73
     6
 40
22.225
 49
6.35
 74
     0
 49
-3.175
 74
     0
 49
6.35
 74
     0
 49
-3.175
 74
     0
 49
0.0
 74
     0
 49
-3.175
 74
     0
  0
LTYPE
  5
80
330
5
100
AcDbSymbolTableRecord
100
AcDbLinetypeTableRecord
  2
PHANTOMX2
 70
     0
  3
Phantom (2x) ____________    ____    ____   _
 72
    65
 73
     6
 40
127.0
 49
63.5
 74
     0
 49
-12.7
 74
     0
 49
12.7
 74
     0
 49
-12.7
 74
     0
 49
12.7
 74
     0
 49
-12.7
 74
     0
  0
LTYPE
  5
81
330
5
100
AcDbSymbolTableRecord
100
AcDbLinetypeTableRecord
  2
PHANTOM
 70
     0
  3
Phantom ______  __  __  ______  __  __  ______ 
 72
    65
 73
     6
 40
63.5
 49
31.75
 74
     0
 49
-6.35
 74
     0
 49
6.35
 74
     0
 49
-6.35
 74
     0
 49
6.35
 74
     0
 49
-6.35
 74
     0
  0
LTYPE
  5
82
330
5
100
AcDbSymbolTableRecord
100
AcDbLinetypeTableRecord
  2
PHANTOM2
 70
     0
  3
Phantom (.5x) ___ _ _ ___ _ _ ___ _ _ ___ _ _
 72
    65
 73
     6
 40
31.75
 49
15.875
 74
     0
 49
-3.175
 74
     0
 49
3.175
 74
     0
 49
-3.175
 74
     0
 49
3.175
 74
     0
 49
-3.175
 74
     0
  0
LTYPE
  5
83
330
5
100
AcDbSymbolTableRecord
100
AcDbLinetypeTableRecord
  2
ACAD_ISO06W100
 70
     0
  3
ISO long-dash triple-dot ____ ... ____ ... ____
 72
    65
 73
     8
 40
36.0
 49
24.0
 74
     0
 49
-3.0
 74
     0
 49
0.0
 74
     0
 49
-3.0
 74
     0
 49
0.0
 74
     0
 49
-3.0
 74
     0
 49
0.0
 74
     0
 49
-3.0
 74
     0
  0
LTYPE
  5
84
330
5
100
AcDbSymbolTableRecord
100
AcDbLinetypeTableRecord
  2
ACAD_ISO13W100
 70
     0
  3
ISO double-dash double-dot __ __ . . __ __ . . _
 72
    65
 73
     8
 40
36.0
 49
12.0
 74
     0
 49
-3.0
 74
     0
 49
12.0
 74
     0
 49
-3.0
 74
     0
 49
0.0
 74
     0
 49
-3.0
 74
     0
 49
0.0
 74
     0
 49
-3.0
 74
     0
  0
LTYPE
  5
85
330
5
100
AcDbSymbolTableRecord
100
AcDbLinetypeTableRecord
  2
ACAD_ISO14W100
 70
     0
  3
ISO dash triple-dot __ . . . __ . . . __ . . . _
 72
    65
 73
     8
 40
24.0
 49
12.0
 74
     0
 49
-3.0
 74
     0
 49
0.0
 74
     0
 49
-3.0
 74
     0
 49
0.0
 74
     0
 49
-3.0
 74
     0
 49
0.0
 74
     0
 49
-3.0
 74
     0
  0
LTYPE
  5
86
330
5
100
AcDbSymbolTableRecord
100
AcDbLinetypeTableRecord
  2
ACAD_ISO02W100
 70
     0
  3
ISO dash __ __ __ __ __ __ __ __ __ __ __ __ __
 72
    65
 73
     2
 40
15.0
 49
12.0
 74
     0
 49
-3.0
 74
     0
  0
LTYPE
  5
87
330
5
100
AcDbSymbolTableRecord
100
AcDbLinetypeTableRecord
  2
ACAD_ISO03W100
 70
     0
  3
ISO dash space __    __    __    __    __    __
 72
    65
 73
     2
 40
30.0
 49
12.0
 74
     0
 49
-18.0
 74
     0
  0
LTYPE
  5
88
330
5
100
AcDbSymbolTableRecord
100
AcDbLinetypeTableRecord
  2
ACAD_ISO04W100
 70
     0
  3
ISO long-dash dot ____ . ____ . ____ . ____ . _
 72
    65
 73
     4
 40
30.0
 49
24.0
 74
     0
 49
-3.0
 74
     0
 49
0.0
 74
     0
 49
-3.0
 74
     0
  0
LTYPE
  5
89
330
5
100
AcDbSymbolTableRecord
100
AcDbLinetypeTableRecord
  2
ACAD_ISO05W100
 70
     0
  3
ISO long-dash double-dot ____ .. ____ .. ____ . 
 72
    65
 73
     6
 40
33.0
 49
24.0
 74
     0
 49
-3.0
 74
     0
 49
0.0
 74
     0
 49
-3.0
 74
     0
 49
0.0
 74
     0
 49
-3.0
 74
     0
  0
LTYPE
  5
8A
330
5
100
AcDbSymbolTableRecord
100
AcDbLinetypeTableRecord
  2
ACAD_ISO07W100
 70
     0
  3
ISO dot . . . . . . . . . . . . . . . . . . . . 
 72
    65
 73
     2
 40
3.0
 49
0.0
 74
     0
 49
-3.0
 74
     0
  0
LTYPE
  5
8B
330
5
100
AcDbSymbolTableRecord
100
AcDbLinetypeTableRecord
  2
ACAD_ISO08W100
 70
     0
  3
ISO long-dash short-dash ____ __ ____ __ ____ _
 72
    65
 73
     4
 40
36.0
 49
24.0
 74
     0
 49
-3.0
 74
     0
 49
6.0
 74
     0
 49
-3.0
 74
     0
  0
LTYPE
  5
8C
330
5
100
AcDbSymbolTableRecord
100
AcDbLinetypeTableRecord
  2
ACAD_ISO09W100
 70
     0
  3
ISO long-dash double-short-dash ____ __ __ ____
 72
    65
 73
     6
 40
45.0
 49
24.0
 74
     0
 49
-3.0
 74
     0
 49
6.0
 74
     0
 49
-3.0
 74
     0
 49
6.0
 74
     0
 49
-3.0
 74
     0
  0
LTYPE
  5
8D
330
5
100
AcDbSymbolTableRecord
100
AcDbLinetypeTableRecord
  2
ACAD_ISO10W100
 70
     0
  3
ISO dash dot __ . __ . __ . __ . __ . __ . __ . 
 72
    65
 73
     4
 40
18.0
 49
12.0
 74
     0
 49
-3.0
 74
     0
 49
0.0
 74
     0
 49
-3.0
 74
     0
  0
LTYPE
  5
8E
330
5
100
AcDbSymbolTableRecord
100
AcDbLinetypeTableRecord
  2
ACAD_ISO11W100
 70
     0
  3
ISO double-dash dot __ __ . __ __ . __ __ . __ _
 72
    65
 73
     6
 40
33.0
 49
12.0
 74
     0
 49
-3.0
 74
     0
 49
12.0
 74
     0
 49
-3.0
 74
     0
 49
0.0
 74
     0
 49
-3.0
 74
     0
  0
LTYPE
  5
8F
330
5
100
AcDbSymbolTableRecord
100
AcDbLinetypeTableRecord
  2
ACAD_ISO12W100
 70
     0
  3
ISO dash double-dot __ . . __ . . __ . . __ . . 
 72
    65
 73
     6
 40
21.0
 49
12.0
 74
     0
 49
-3.0
 74
     0
 49
0.0
 74
     0
 49
-3.0
 74
     0
 49
0.0
 74
     0
 49
-3.0
 74
     0
  0
LTYPE
  5
90
330
5
100
AcDbSymbolTableRecord
100
AcDbLinetypeTableRecord
  2
ACAD_ISO15W100
 70
     0
  3
ISO double-dash triple-dot __ __ . . . __ __ . .
 72
    65
 73
    10
 40
39.0
 49
12.0
 74
     0
 49
-3.0
 74
     0
 49
12.0
 74
     0
 49
-3.0
 74
     0
 49
0.0
 74
     0
 49
-3.0
 74
     0
 49
0.0
 74
     0
 49
-3.0
 74
     0
 49
0.0
 74
     0
 49
-3.0
 74
     0
  0
LTYPE
  5
91
330
5
100
AcDbSymbolTableRecord
100
AcDbLinetypeTableRecord
  2
JIS_02_0.7
 70
     0
  3
HIDDEN0.75 _ _ _ _ _ _ _ _ _ _ _ _ _ _ _ _ _ 
 72
    65
 73
     2
 40
1.35
 49
0.75
 74
     0
 49
-0.6
 74
     0
  0
LTYPE
  5
92
330
5
100
AcDbSymbolTableRecord
100
AcDbLinetypeTableRecord
  2
JIS_02_1.0
 70
     0
  3
HIDDEN01 _ _ _ _ _ _ _ _ _ _ _ _ _ _ _ _ _ 
 72
    65
 73
     2
 40
2.0
 49
1.0
 74
     0
 49
-1.0
 74
     0
  0
LTYPE
  5
93
330
5
100
AcDbSymbolTableRecord
100
AcDbLinetypeTableRecord
  2
JIS_02_1.2
 70
     0
  3
HIDDEN01.25  _ _ _ _ _ _ _ _ _ _ _ _ _ _ _ _ _ 
 72
    65
 73
     2
 40
2.5
 49
1.25
 74
     0
 49
-1.25
 74
     0
  0
LTYPE
  5
94
330
5
100
AcDbSymbolTableRecord
100
AcDbLinetypeTableRecord
  2
JIS_02_2.0
 70
     0
  3
HIDDEN02 __ __ __ __ __ __ __ __ __ __ __ 
 72
    65
 73
     2
 40
3.0
 49
2.0
 74
     0
 49
-1.0
 74
     0
  0
LTYPE
  5
95
330
5
100
AcDbSymbolTableRecord
100
AcDbLinetypeTableRecord
  2
JIS_02_4.0
 70
     0
  3
HIDDEN04 ____ ____ ____ ____ ____ ____ ____ 
 72
    65
 73
     2
 40
5.5
 49
4.0
 74
     0
 49
-1.5
 74
     0
  0
LTYPE
  5
96
330
5
100
AcDbSymbolTableRecord
100
AcDbLinetypeTableRecord
  2
JIS_08_11
 70
     0
  3
1SASEN11 ___ _ ___ _ ___ _ ___ _ ___ _ ___
 72
    65
 73
     4
 40
12.8
 49
11.0
 74
     0
 49
-0.6
 74
     0
 49
0.6
 74
     0
 49
-0.6
 74
     0
  0
LTYPE
  5
97
330
5
100
AcDbSymbolTableRecord
100
AcDbLinetypeTableRecord
  2
JIS_08_15
 70
     0
  3
1SASEN15 ____ _ ____ _ ____ _ ____ _ ____ 
 72
    65
 73
     4
 40
17.25
 49
15.0
 74
     0
 49
-0.75
 74
     0
 49
0.75
 74
     0
 49
-0.75
 74
     0
  0
LTYPE
  5
98
330
5
100
AcDbSymbolTableRecord
100
AcDbLinetypeTableRecord
  2
JIS_08_25
 70
     0
  3
1SASEN25 ________  __  ________  __  _____
 72
    65
 73
     4
 40
28.0
 49
25.0
 74
     0
 49
-1.125
 74
     0
 49
0.75
 74
     0
 49
-1.125
 74
     0
  0
LTYPE
  5
99
330
5
100
AcDbSymbolTableRecord
100
AcDbLinetypeTableRecord
  2
JIS_08_37
 70
     0
  3
1SASEN37 ________  __  ________  __  _____
 72
    65
 73
     4
 40
40.5
 49
37.5
 74
     0
 49
-1.125
 74
     0
 49
0.75
 74
     0
 49
-1.125
 74
     0
  0
LTYPE
  5
9A
330
5
100
AcDbSymbolTableRecord
100
AcDbLinetypeTableRecord
  2
JIS_08_50
 70
     0
  3
1SASEN50 _______________  __  ____________
 72
    65
 73
     4
 40
53.0
 49
50.0
 74
     0
 49
-1.125
 74
     0
 49
0.75
 74
     0
 49
-1.125
 74
     0
  0
LTYPE
  5
9B
330
5
100
AcDbSymbolTableRecord
100
AcDbLinetypeTableRecord
  2
JIS_09_08
 70
     0
  3
2SASEN8 __ _ _ __ _ _ __ _ _ __ _ _ __ _ _ 
 72
    65
 73
     6
 40
10.75
 49
8.0
 74
     0
 49
-0.55
 74
     0
 49
0.55
 74
     0
 49
-0.55
 74
     0
 49
0.55
 74
     0
 49
-0.55
 74
     0
  0
LTYPE
  5
9C
330
5
100
AcDbSymbolTableRecord
100
AcDbLinetypeTableRecord
  2
JIS_09_15
 70
     0
  3
2SASEN15 ___ _ _ ___ _ _ ___ _ _ ___ _ _ ___ 
 72
    65
 73
     6
 40
18.9
 49
15.0
 74
     0
 49
-0.9
 74
     0
 49
0.6
 74
     0
 49
-0.9
 74
     0
 49
0.6
 74
     0
 49
-0.9
 74
     0
  0
LTYPE
  5
9D
330
5
100
AcDbSymbolTableRecord
100
AcDbLinetypeTableRecord
  2
JIS_09_29
 70
     0
  3
2SASEN29 ______　__  __  ______　__  __  ___
 72
    65
 73
     6
 40
34.0
 49
29.0
 74
     0
 49
-1.2
 74
     0
 49
0.7
 74
     0
 49
-1.2
 74
     0
 49
0.7
 74
     0
 49
-1.2
 74
     0
  0
LTYPE
  5
9E
330
5
100
AcDbSymbolTableRecord
100
AcDbLinetypeTableRecord
  2
JIS_09_50
 70
     0
  3
2SASEN50 ____________　__  __  _____________
 72
    65
 73
     6
 40
55.0
 49
50.0
 74
     0
 49
-1.2
 74
     0
 49
0.7
 74
     0
 49
-1.2
 74
     0
 49
0.7
 74
     0
 49
-1.2
 74
     0
  0
LTYPE
  5
9F
330
5
100
AcDbSymbolTableRecord
100
AcDbLinetypeTableRecord
  2
SXF_破線
 70
     0
  3
02 dashed -- -- -- -- -- --
 72
    65
 73
     2
 40
7.5
 49
6.0
 74
     0
 49
-1.5
 74
     0
  0
LTYPE
  5
A0
330
5
100
AcDbSymbolTableRecord
100
AcDbLinetypeTableRecord
  2
SXF_跳び破線
 70
     0
  3
03 dashed_spaced --  --  --  --
 72
    65
 73
     2
 40
12.0
 49
6.0
 74
     0
 49
-6.0
 74
     0
  0
LTYPE
  5
A1
330
5
100
AcDbSymbolTableRecord
100
AcDbLinetypeTableRecord
  2
SXF_一点長鎖線
 70
     0
  3
04 long_dashed_dotted ---- . ---- . ----
 72
    65
 73
     4
 40
15.25
 49
12.0
 74
     0
 49
-1.5
 74
     0
 49
0.25
 74
     0
 49
-1.5
 74
     0
  0
LTYPE
  5
A2
330
5
100
AcDbSymbolTableRecord
100
AcDbLinetypeTableRecord
  2
SXF_二点長鎖線
 70
     0
  3
05 long_dashed_double-dotted ---- . . ---- 
 72
    65
 73
     6
 40
17.0
 49
12.0
 74
     0
 49
-1.5
 74
     0
 49
0.25
 74
     0
 49
-1.5
 74
     0
 49
0.25
 74
     0
 49
-1.5
 74
     0
  0
LTYPE
  5
A3
330
5
100
AcDbSymbolTableRecord
100
AcDbLinetypeTableRecord
  2
SXF_三点長鎖線
 70
     0
  3
06 long_dashed_triplicate-dotted ---- ... ---- 
 72
    65
 73
     8
 40
18.75
 49
12.0
 74
     0
 49
-1.5
 74
     0
 49
0.25
 74
     0
 49
-1.5
 74
     0
 49
0.25
 74
     0
 49
-1.5
 74
     0
 49
0.25
 74
     0
 49
-1.5
 74
     0
  0
LTYPE
  5
A4
330
5
100
AcDbSymbolTableRecord
100
AcDbLinetypeTableRecord
  2
SXF_点線
 70
     0
  3
07 dotted . . . . . . . . . . . . 
 72
    65
 73
     2
 40
1.75
 49
0.25
 74
     0
 49
-1.5
 74
     0
  0
LTYPE
  5
A5
330
5
100
AcDbSymbolTableRecord
100
AcDbLinetypeTableRecord
  2
SXF_一点鎖線
 70
     0
  3
08 chain ---- - --- - --- - ---
 72
    65
 73
     4
 40
18.5
 49
12.0
 74
     0
 49
-1.5
 74
     0
 49
3.5
 74
     0
 49
-1.5
 74
     0
  0
LTYPE
  5
A6
330
5
100
AcDbSymbolTableRecord
100
AcDbLinetypeTableRecord
  2
SXF_二点鎖線
 70
     0
  3
09 chain_double_dash ---- - - ---- - - ----
 72
    65
 73
     6
 40
23.5
 49
12.0
 74
     0
 49
-1.5
 74
     0
 49
3.5
 74
     0
 49
-1.5
 74
     0
 49
3.5
 74
     0
 49
-1.5
 74
     0
  0
LTYPE
  5
A7
330
5
100
AcDbSymbolTableRecord
100
AcDbLinetypeTableRecord
  2
SXF_一点短鎖線
 70
     0
  3
10 dashed_dotted -- . -- . -- . --
 72
    65
 73
     4
 40
9.25
 49
6.0
 74
     0
 49
-1.5
 74
     0
 49
0.25
 74
     0
 49
-1.5
 74
     0
  0
LTYPE
  5
A8
330
5
100
AcDbSymbolTableRecord
100
AcDbLinetypeTableRecord
  2
SXF_一点二短鎖線
 70
     0
  3
11 double-dashed_dotted -- -- . -- --
 72
    65
 73
     6
 40
16.75
 49
6.0
 74
     0
 49
-1.5
 74
     0
 49
6.0
 74
     0
 49
-1.5
 74
     0
 49
0.25
 74
     0
 49
-1.5
 74
     0
  0
LTYPE
  5
A9
330
5
100
AcDbSymbolTableRecord
100
AcDbLinetypeTableRecord
  2
SXF_二点短鎖線
 70
     0
  3
12 dashed_double_dotted -- . . -- . . --
 72
    65
 73
     6
 40
11.0
 49
6.0
 74
     0
 49
-1.5
 74
     0
 49
0.25
 74
     0
 49
-1.5
 74
     0
 49
0.25
 74
     0
 49
-1.5
 74
     0
  0
LTYPE
  5
AA
330
5
100
AcDbSymbolTableRecord
100
AcDbLinetypeTableRecord
  2
SXF_二点二短鎖線
 70
     0
  3
13 double-dashed_double-dotted -- -- . . -- --
 72
    65
 73
     8
 40
18.5
 49
6.0
 74
     0
 49
-1.5
 74
     0
 49
6.0
 74
     0
 49
-1.5
 74
     0
 49
0.25
 74
     0
 49
-1.5
 74
     0
 49
0.25
 74
     0
 49
-1.5
 74
     0
  0
LTYPE
  5
AB
330
5
100
AcDbSymbolTableRecord
100
AcDbLinetypeTableRecord
  2
SXF_三点短鎖線
 70
     0
  3
14 dashed triplicate-dotted -- . . . -- . . . --
 72
    65
 73
     8
 40
12.75
 49
6.0
 74
     0
 49
-1.5
 74
     0
 49
0.25
 74
     0
 49
-1.5
 74
     0
 49
0.25
 74
     0
 49
-1.5
 74
     0
 49
0.25
 74
     0
 49
-1.5
 74
     0
  0
LTYPE
  5
AC
330
5
100
AcDbSymbolTableRecord
100
AcDbLinetypeTableRecord
  2
SXF_三点二短鎖線
 70
     0
  3
15 double-dashed triplicate-dotted -- -- . . . -- -- 
 72
    65
 73
    10
 40
20.25
 49
6.0
 74
     0
 49
-1.5
 74
     0
 49
6.0
 74
     0
 49
-1.5
 74
     0
 49
0.25
 74
     0
 49
-1.5
 74
     0
 49
0.25
 74
     0
 49
-1.5
 74
     0
 49
0.25
 74
     0
 49
-1.5
 74
     0
  0
ENDTAB
  0
TABLE
  2
LAYER
  5
2
330
0
100
AcDbSymbolTable
 70
     5
  0
LAYER
  5
10
330
2
100
AcDbSymbolTableRecord
100
AcDbLayerTableRecord
  2
0
 70
     0
 62
     7
  6
Continuous
370
    -3
390
F
347
46
  0
LAYER
  5
AD
330
2
100
AcDbSymbolTableRecord
100
AcDbLayerTableRecord
  2
2
 70
     0
 62
     7
  6
Continuous
370
    -3
390
F
347
46
  0
LAYER
  5
AE
330
2
100
AcDbSymbolTableRecord
100
AcDbLayerTableRecord
  2
9
 70
     0
 62
     7
  6
Continuous
370
    -3
390
F
347
46
  0
LAYER
  5
AF
330
2
100
AcDbSymbolTableRecord
100
AcDbLayerTableRecord
  2
8
 70
     0
 62
     7
  6
Continuous
370
    -3
390
F
347
46
  0
LAYER
  5
B0
330
2
100
AcDbSymbolTableRecord
100
AcDbLayerTableRecord
  2
ZUWAKU
 70
     0
 62
     7
  6
Continuous
370
    -3
390
F
347
46
  0
ENDTAB
  0
TABLE
  2
STYLE
  5
3
330
0
100
AcDbSymbolTable
 70
     3
  0
STYLE
  5
11
330
3
100
AcDbSymbolTableRecord
100
AcDbTextStyleTableRecord
  2
Standard
 70
     0
 40
0.0
 41
1.0
 50
0.0
 71
     0
 42
0.2
  3
txt.shx
  4
bigfont.shx
  0
STYLE
  5
136
330
3
100
AcDbSymbolTableRecord
100
AcDbTextStyleTableRecord
  2
dcStyle0
 70
     0
 40
0.0
 41
0.75
 50
0.0
 71
     0
 42
0.2
  3
ＭＳ Ｐゴシック
  4

1001
ACAD
1000
ＭＳ Ｐゴシック
1071
    32802
  0
STYLE
  5
14D
330
3
100
AcDbSymbolTableRecord
100
AcDbTextStyleTableRecord
  2
dcStyle1
 70
     0
 40
0.0
 41
1.2
 50
0.0
 71
     0
 42
0.2
  3
txt.shx
  4
bigfont
  0
ENDTAB
  0
TABLE
  2
VIEW
  5
6
330
0
100
AcDbSymbolTable
 70
     0
  0
ENDTAB
  0
TABLE
  2
UCS
  5
7
330
0
100
AcDbSymbolTable
 70
     0
  0
ENDTAB
  0
TABLE
  2
APPID
  5
9
330
0
100
AcDbSymbolTable
 70
     2
  0
APPID
  5
12
330
9
100
AcDbSymbolTableRecord
100
AcDbRegAppTableRecord
  2
ACAD
 70
     0
  0
APPID
  5
6A
330
9
100
AcDbSymbolTableRecord
100
AcDbRegAppTableRecord
  2
DaFusionOut
 70
     0
  0
ENDTAB
  0
TABLE
  2
DIMSTYLE
  5
A
330
0
100
AcDbSymbolTable
 70
     4
100
AcDbDimStyleTable
  0
DIMSTYLE
105
27
330
A
100
AcDbSymbolTableRecord
100
AcDbDimStyleTableRecord
  2
Standard
 70
     0
178
     0
340
11
  0
DIMSTYLE
105
28F
102
{ACAD_REACTORS
330
28E
330
290
102
}
330
A
100
AcDbSymbolTableRecord
100
AcDbDimStyleTableRecord
  2
dc_Ang01
 70
     0
 41
45.00002861022949
 42
15.0
 44
15.0000000000008
 90
        1
 73
     0
 74
     0
 77
     3
 78
     8
 79
     2
140
60.0
147
15.00000099999945
172
     1
173
     1
176
     2
177
     2
271
     1
178
     2
271
     1
274
     4
283
     0
284
     8
288
     1
340
136
343
164
344
164
  0
DIMSTYLE
105
292
102
{ACAD_REACTORS
330
291
330
293
102
}
330
A
100
AcDbSymbolTableRecord
100
AcDbDimStyleTableRecord
  2
dc_Radial05
 70
     0
 41
45.00002861022949
 42
15.0
 44
15.0000000000008
 90
        1
 73
     0
 74
     0
 77
     3
 78
     8
 79
     2
140
60.0
147
14.99999999999996
172
     1
173
     1
176
     2
177
     2
271
     2
178
     2
271
     2
274
     4
283
     0
284
     8
288
     1
289
     0
340
136
343
164
344
164
  0
DIMSTYLE
105
299
102
{ACAD_REACTORS
330
298
330
29A
330
29B
330
29C
330
29D
330
29E
330
29F
330
2A4
102
}
330
A
100
AcDbSymbolTableRecord
100
AcDbDimStyleTableRecord
  2
dc_Rotated
 70
     0
 41
45.00002861022949
 42
15.0
 44
15.0
 90
        1
 73
     0
 74
     0
 77
     3
 78
     8
 79
     2
140
60.0
147
10.0
172
     1
173
     1
176
     2
177
     2
271
     2
178
     2
271
     2
274
     4
283
     0
284
     8
288
     1
340
136
343
164
344
164
  0
ENDTAB
  0
TABLE
  2
BLOCK_RECORD
  5
1
330
0
100
AcDbSymbolTable
 70
    47
  0
BLOCK_RECORD
  5
1F
330
1
100
AcDbSymbolTableRecord
100
AcDbBlockTableRecord
  2
*Model_Space
340
22
 70
     0
280
     1
281
     0
  0
BLOCK_RECORD
  5
1B
330
1
100
AcDbSymbolTableRecord
100
AcDbBlockTableRecord
  2
*Paper_Space
340
1E
 70
     0
280
     1
281
     0
  0
BLOCK_RECORD
  5
23
330
1
100
AcDbSymbolTableRecord
100
AcDbBlockTableRecord
  2
*Paper_Space0
340
26
 70
     0
280
     1
281
     0
  0
BLOCK_RECORD
  5
B2
330
1
100
AcDbSymbolTableRecord
100
AcDbBlockTableRecord
  2
DC_GROUP_W_MEM-C_ARG_090_1_1
340
0
102
{BLKREFS
331
28C
102
}
 70
     0
280
     1
281
     0
  0
BLOCK_RECORD
  5
B5
330
1
100
AcDbSymbolTableRecord
100
AcDbBlockTableRecord
  2
DC_GROUP_W_MEM-C_ARG_090_1_2
340
0
102
{BLKREFS
331
28D
102
}
 70
     0
280
     1
281
     0
  0
BLOCK_RECORD
  5
B8
330
1
100
AcDbSymbolTableRecord
100
AcDbBlockTableRecord
  2
DC_GROUP_W_MEM-C_ARG_090_1_3
340
0
102
{BLKREFS
331
2A5
102
}
 70
     0
280
     1
281
     0
  0
BLOCK_RECORD
  5
BB
330
1
100
AcDbSymbolTableRecord
100
AcDbBlockTableRecord
  2
DC_GROUP_W_MEM-C_ARG_090_1_4
340
0
102
{BLKREFS
331
2A6
102
}
 70
     0
280
     1
281
     0
  0
BLOCK_RECORD
  5
BE
330
1
100
AcDbSymbolTableRecord
100
AcDbBlockTableRecord
  2
*D5
340
0
 70
     0
280
     1
281
     0
  0
BLOCK_RECORD
  5
C1
330
1
100
AcDbSymbolTableRecord
100
AcDbBlockTableRecord
  2
*D6
340
0
 70
     0
280
     1
281
     0
  0
BLOCK_RECORD
  5
C4
330
1
100
AcDbSymbolTableRecord
100
AcDbBlockTableRecord
  2
*D7
340
0
 70
     0
280
     1
281
     0
  0
BLOCK_RECORD
  5
C7
330
1
100
AcDbSymbolTableRecord
100
AcDbBlockTableRecord
  2
*D8
340
0
 70
     0
280
     1
281
     0
  0
BLOCK_RECORD
  5
CA
330
1
100
AcDbSymbolTableRecord
100
AcDbBlockTableRecord
  2
DC_GROUP_W_MEM-C_ARG_090_1_5
340
0
102
{BLKREFS
331
294
102
}
 70
     0
280
     1
281
     0
  0
BLOCK_RECORD
  5
CD
330
1
100
AcDbSymbolTableRecord
100
AcDbBlockTableRecord
  2
DC_GROUP_W_MEM-C_ARG_090_1_6
340
0
102
{BLKREFS
331
196
102
}
 70
     0
280
     1
281
     0
  0
BLOCK_RECORD
  5
D0
330
1
100
AcDbSymbolTableRecord
100
AcDbBlockTableRecord
  2
DC_GROUP_W_MEM-C_ARG_090_1_7
340
0
102
{BLKREFS
331
197
102
}
 70
     0
280
     1
281
     0
  0
BLOCK_RECORD
  5
D3
330
1
100
AcDbSymbolTableRecord
100
AcDbBlockTableRecord
  2
DC_GROUP_W_MEM-C_ARG_090_1_8
340
0
102
{BLKREFS
331
198
102
}
 70
     0
280
     1
281
     0
  0
BLOCK_RECORD
  5
D6
330
1
100
AcDbSymbolTableRecord
100
AcDbBlockTableRecord
  2
DC_GROUP_W_MEM-C_ARG_090_1_9
340
0
102
{BLKREFS
331
295
102
}
 70
     0
280
     1
281
     0
  0
BLOCK_RECORD
  5
D9
330
1
100
AcDbSymbolTableRecord
100
AcDbBlockTableRecord
  2
DC_GROUP_W_MEM-C_ARG_090_1_10
340
0
102
{BLKREFS
331
1C7
102
}
 70
     0
280
     1
281
     0
  0
BLOCK_RECORD
  5
DC
330
1
100
AcDbSymbolTableRecord
100
AcDbBlockTableRecord
  2
DC_GROUP_W_MEM-C_ARG_090_1_11
340
0
102
{BLKREFS
331
1C8
102
}
 70
     0
280
     1
281
     0
  0
BLOCK_RECORD
  5
DF
330
1
100
AcDbSymbolTableRecord
100
AcDbBlockTableRecord
  2
DC_GROUP_W_MEM-C_ARG_090_1_12
340
0
102
{BLKREFS
331
1C9
102
}
 70
     0
280
     1
281
     0
  0
BLOCK_RECORD
  5
E2
330
1
100
AcDbSymbolTableRecord
100
AcDbBlockTableRecord
  2
DC_GROUP_W_MEM-C_ARG_090_1_13
340
0
102
{BLKREFS
331
296
102
}
 70
     0
280
     1
281
     0
  0
BLOCK_RECORD
  5
E5
330
1
100
AcDbSymbolTableRecord
100
AcDbBlockTableRecord
  2
DC_GROUP_W_MEM-C_ARG_090_1_14
340
0
102
{BLKREFS
331
1DE
102
}
 70
     0
280
     1
281
     0
  0
BLOCK_RECORD
  5
E8
330
1
100
AcDbSymbolTableRecord
100
AcDbBlockTableRecord
  2
DC_GROUP_W_MEM-C_ARG_090_1_15
340
0
102
{BLKREFS
331
297
102
}
 70
     0
280
     1
281
     0
  0
BLOCK_RECORD
  5
EB
330
1
100
AcDbSymbolTableRecord
100
AcDbBlockTableRecord
  2
DC_GROUP_W_MEM-C_ARG_090_1_16
340
0
102
{BLKREFS
331
1E3
102
}
 70
     0
280
     1
281
     0
  0
BLOCK_RECORD
  5
EE
330
1
100
AcDbSymbolTableRecord
100
AcDbBlockTableRecord
  2
DC_GROUP_W_MEM-C_ARG_090_1_17
340
0
102
{BLKREFS
331
2E7
102
}
 70
     0
280
     1
281
     0
  0
BLOCK_RECORD
  5
F1
330
1
100
AcDbSymbolTableRecord
100
AcDbBlockTableRecord
  2
DC_GROUP_W_MEM-C_ARG_090_1_18
340
0
102
{BLKREFS
331
2E8
102
}
 70
     0
280
     1
281
     0
  0
BLOCK_RECORD
  5
F4
330
1
100
AcDbSymbolTableRecord
100
AcDbBlockTableRecord
  2
DC_GROUP_W_MEM-C_ARG_090_1_19
340
0
102
{BLKREFS
331
2E9
102
}
 70
     0
280
     1
281
     0
  0
BLOCK_RECORD
  5
F7
330
1
100
AcDbSymbolTableRecord
100
AcDbBlockTableRecord
  2
*D24
340
0
 70
     0
280
     1
281
     0
  0
BLOCK_RECORD
  5
FA
330
1
100
AcDbSymbolTableRecord
100
AcDbBlockTableRecord
  2
*D25
340
0
 70
     0
280
     1
281
     0
  0
BLOCK_RECORD
  5
FD
330
1
100
AcDbSymbolTableRecord
100
AcDbBlockTableRecord
  2
DC_GROUP_W_MEM-C_ARG_090_1_20
340
0
102
{BLKREFS
331
2EA
102
}
 70
     0
280
     1
281
     0
  0
BLOCK_RECORD
  5
100
330
1
100
AcDbSymbolTableRecord
100
AcDbBlockTableRecord
  2
*D27
340
0
 70
     0
280
     1
281
     0
  0
BLOCK_RECORD
  5
103
330
1
100
AcDbSymbolTableRecord
100
AcDbBlockTableRecord
  2
*D28
340
0
 70
     0
280
     1
281
     0
  0
BLOCK_RECORD
  5
106
330
1
100
AcDbSymbolTableRecord
100
AcDbBlockTableRecord
  2
*D29
340
0
 70
     0
280
     1
281
     0
  0
BLOCK_RECORD
  5
109
330
1
100
AcDbSymbolTableRecord
100
AcDbBlockTableRecord
  2
*D30
340
0
 70
     0
280
     1
281
     0
  0
BLOCK_RECORD
  5
10C
330
1
100
AcDbSymbolTableRecord
100
AcDbBlockTableRecord
  2
*D31
340
0
 70
     0
280
     1
281
     0
  0
BLOCK_RECORD
  5
10F
330
1
100
AcDbSymbolTableRecord
100
AcDbBlockTableRecord
  2
DC_GROUP_W_MEM-C_ARG_090_1_21
340
0
102
{BLKREFS
331
2A0
102
}
 70
     0
280
     1
281
     0
  0
BLOCK_RECORD
  5
112
330
1
100
AcDbSymbolTableRecord
100
AcDbBlockTableRecord
  2
DC_GROUP_W_MEM-C_ARG_090_1_22
340
0
102
{BLKREFS
331
234
102
}
 70
     0
280
     1
281
     0
  0
BLOCK_RECORD
  5
115
330
1
100
AcDbSymbolTableRecord
100
AcDbBlockTableRecord
  2
DC_GROUP_W_MEM-C_ARG_090_1_23
340
0
102
{BLKREFS
331
236
102
}
 70
     0
280
     1
281
     0
  0
BLOCK_RECORD
  5
118
330
1
100
AcDbSymbolTableRecord
100
AcDbBlockTableRecord
  2
DC_GROUP_W_MEM-C_ARG_090_1_24
340
0
102
{BLKREFS
331
237
102
}
 70
     0
280
     1
281
     0
  0
BLOCK_RECORD
  5
11B
330
1
100
AcDbSymbolTableRecord
100
AcDbBlockTableRecord
  2
DC_GROUP_W_MEM-C_ARG_090_1_25
340
0
102
{BLKREFS
331
238
102
}
 70
     0
280
     1
281
     0
  0
BLOCK_RECORD
  5
11E
330
1
100
AcDbSymbolTableRecord
100
AcDbBlockTableRecord
  2
DC_GROUP_W_MEM-C_ARG_090_1_26
340
0
102
{BLKREFS
331
235
102
}
 70
     0
280
     1
281
     0
  0
BLOCK_RECORD
  5
121
330
1
100
AcDbSymbolTableRecord
100
AcDbBlockTableRecord
  2
DC_GROUP_W_MEM-C_ARG_090_1_27
340
0
102
{BLKREFS
331
2A1
102
}
 70
     0
280
     1
281
     0
  0
BLOCK_RECORD
  5
124
330
1
100
AcDbSymbolTableRecord
100
AcDbBlockTableRecord
  2
DC_GROUP_W_MEM-C_ARG_090_1_28
340
0
102
{BLKREFS
331
257
102
}
 70
     0
280
     1
281
     0
  0
BLOCK_RECORD
  5
127
330
1
100
AcDbSymbolTableRecord
100
AcDbBlockTableRecord
  2
DC_GROUP_W_MEM-C_ARG_090_1_29
340
0
102
{BLKREFS
331
2EB
102
}
 70
     0
280
     1
281
     0
  0
BLOCK_RECORD
  5
12A
330
1
100
AcDbSymbolTableRecord
100
AcDbBlockTableRecord
  2
DC_GROUP_W_MEM-C_ARG_090_1_30
340
0
102
{BLKREFS
331
269
102
}
 70
     0
280
     1
281
     0
  0
BLOCK_RECORD
  5
12D
330
1
100
AcDbSymbolTableRecord
100
AcDbBlockTableRecord
  2
DC_GROUP_W_MEM-C_ARG_090_1_31
340
0
102
{BLKREFS
331
2A2
102
}
 70
     0
280
     1
281
     0
  0
BLOCK_RECORD
  5
130
330
1
100
AcDbSymbolTableRecord
100
AcDbBlockTableRecord
  2
DC_GROUP_W_MEM-C_ARG_090_1_32
340
0
102
{BLKREFS
331
2A3
102
}
 70
     0
280
     1
281
     0
  0
BLOCK_RECORD
  5
133
330
1
100
AcDbSymbolTableRecord
100
AcDbBlockTableRecord
  2
*D44
340
0
 70
     0
280
     1
281
     0
  0
BLOCK_RECORD
  5
164
330
1
100
AcDbSymbolTableRecord
100
AcDbBlockTableRecord
  2
_OPEN30
340
0
102
{BLKREFS
331
16A
331
16B
331
170
331
171
331
174
331
177
331
202
331
205
331
206
331
214
331
224
331
225
331
232
331
287
331
288
102
}
 70
     0
280
     1
281
     0
  0
BLOCK_RECORD
  5
217
330
1
100
AcDbSymbolTableRecord
100
AcDbBlockTableRecord
  2
_DOT
340
0
102
{BLKREFS
331
21F
331
22E
102
}
 70
     0
280
     1
281
     0
  0
ENDTAB
  0
ENDSEC
  0
SECTION
  2
BLOCKS
  0
BLOCK
  5
20
330
1F
100
AcDbEntity
  8
0
100
AcDbBlockBegin
  2
*Model_Space
 70
     0
 10
0.0
 20
0.0
 30
0.0
  3
*Model_Space
  1
*Model_Space
  0
ENDBLK
  5
21
330
1F
100
AcDbEntity
  8
0
100
AcDbBlockEnd
  0
BLOCK
  5
1C
330
1B
100
AcDbEntity
 67
     1
  8
0
100
AcDbBlockBegin
  2
*Paper_Space
 70
     0
 10
0.0
 20
0.0
 30
0.0
  3
*Paper_Space
  1
*Paper_Space
  0
ENDBLK
  5
1D
330
1B
100
AcDbEntity
 67
     1
  8
0
100
AcDbBlockEnd
  0
BLOCK
  5
24
330
23
100
AcDbEntity
  8
0
100
AcDbBlockBegin
  2
*Paper_Space0
 70
     0
 10
0.0
 20
0.0
 30
0.0
  3
*Paper_Space0
  1
*Paper_Space0
  0
ENDBLK
  5
25
330
23
100
AcDbEntity
  8
0
100
AcDbBlockEnd
  0
BLOCK
  5
B3
330
B2
100
AcDbEntity
  8
0
100
AcDbBlockBegin
  2
DC_GROUP_W_MEM-C_ARG_090_1_1
 70
     0
 10
0.0
 20
0.0
 30
0.0
  3
DC_GROUP_W_MEM-C_ARG_090_1_1
  1
DC_GROUP_W_MEM-C_ARG_090_1_1
  0
TEXT
  5
137
330
B2
100
AcDbEntity
  8
0
 62
     2
100
AcDbText
 10
-2421.479380938425
 20
1162.23176800495
 30
0.0
 40
60.0
  1
相当ローラピッチ75
 41
0.9124704291990537
  7
dcStyle0
 72
     5
 11
-1773.479380938425
 21
1162.23176800495
 31
0.0
100
AcDbText
  0
LINE
  5
138
330
B2
100
AcDbEntity
  8
0
  6
Continuous
 62
     2
370
    13
100
AcDbLine
 10
-2427.479380938425
 20
1156.23176800495
 30
0.0
 11
-1767.479380938425
 21
1156.23176800495
 31
0.0
  0
ENDBLK
  5
B4
330
B2
100
AcDbEntity
  8
0
100
AcDbBlockEnd
  0
BLOCK
  5
B6
330
B5
100
AcDbEntity
  8
0
100
AcDbBlockBegin
  2
DC_GROUP_W_MEM-C_ARG_090_1_2
 70
     0
 10
0.0
 20
0.0
 30
0.0
  3
DC_GROUP_W_MEM-C_ARG_090_1_2
  1
DC_GROUP_W_MEM-C_ARG_090_1_2
  0
TEXT
  5
139
330
B5
100
AcDbEntity
  8
0
 62
     2
100
AcDbText
 10
-518.9588161499946
 20
1212.23176800495
 30
0.0
 40
60.0
  1
相当ローラピッチ100
 41
0.9074265700867628
  7
dcStyle0
 72
     5
 11
165.0411838500054
 21
1212.23176800495
 31
0.0
100
AcDbText
  0
LINE
  5
13A
330
B5
100
AcDbEntity
  8
0
  6
Continuous
 62
     2
370
    13
100
AcDbLine
 10
-524.9588161499946
 20
1206.23176800495
 30
0.0
 11
171.0411838500054
 21
1206.23176800495
 31
0.0
  0
ENDBLK
  5
B7
330
B5
100
AcDbEntity
  8
0
100
AcDbBlockEnd
  0
BLOCK
  5
B9
330
B8
100
AcDbEntity
  8
0
100
AcDbBlockBegin
  2
DC_GROUP_W_MEM-C_ARG_090_1_3
 70
     0
 10
0.0
 20
0.0
 30
0.0
  3
DC_GROUP_W_MEM-C_ARG_090_1_3
  1
DC_GROUP_W_MEM-C_ARG_090_1_3
  0
LINE
  5
13B
330
B8
100
AcDbEntity
  8
ZUWAKU
  6
Continuous
 62
     7
370
    13
100
AcDbLine
 10
-2955.0
 20
-1993.078850092832
 30
0.0
 11
2955.0
 21
-1993.078850092832
 31
0.0
  0
LINE
  5
13C
330
B8
100
AcDbEntity
  8
ZUWAKU
  6
Continuous
 62
     7
370
    13
100
AcDbLine
 10
2954.999999999994
 20
2026.921149907168
 30
0.0
 11
-2955.0
 21
2026.921149907168
 31
0.0
  0
LINE
  5
13D
330
B8
100
AcDbEntity
  8
ZUWAKU
  6
Continuous
 62
     7
370
    13
100
AcDbLine
 10
2955.0
 20
-1993.078850092832
 30
0.0
 11
2954.999999999994
 21
2026.921149907168
 31
0.0
  0
LINE
  5
13E
330
B8
100
AcDbEntity
  8
ZUWAKU
  6
Continuous
 62
     7
370
    13
100
AcDbLine
 10
-2955.0
 20
2026.921149907168
 30
0.0
 11
-2955.0
 21
-1993.078850092832
 31
0.0
  0
LINE
  5
13F
330
B8
100
AcDbEntity
  8
ZUWAKU
  6
Continuous
 62
     4
370
    13
100
AcDbLine
 10
-517.4999999999995
 20
-1768.078850092832
 30
0.0
 11
75.00000000000043
 21
-1768.078850092832
 31
0.0
  0
LINE
  5
140
330
B8
100
AcDbEntity
  8
ZUWAKU
  6
Continuous
 62
     4
370
    13
100
AcDbLine
 10
-2775.0
 20
-1693.078850092832
 30
0.0
 11
-2775.0
 21
-1993.078850092832
 31
0.0
  0
LINE
  5
141
330
B8
100
AcDbEntity
  8
ZUWAKU
  6
Continuous
 62
     4
370
    13
100
AcDbLine
 10
-2955.0
 20
-1843.078850092832
 30
0.0
 11
2955.0
 21
-1843.078850092832
 31
0.0
  0
LINE
  5
142
330
B8
100
AcDbEntity
  8
ZUWAKU
  6
Continuous
 62
     4
370
    13
100
AcDbLine
 10
75.00000000000043
 20
-1993.078850092832
 30
0.0
 11
75.00000000000043
 21
-1693.078850092832
 31
0.0
  0
LINE
  5
143
330
B8
100
AcDbEntity
  8
ZUWAKU
  6
Continuous
 62
     4
370
    13
100
AcDbLine
 10
-517.4999999999995
 20
-1993.078850092832
 30
0.0
 11
-517.4999999999995
 21
-1693.078850092832
 31
0.0
  0
LINE
  5
144
330
B8
100
AcDbEntity
  8
ZUWAKU
  6
Continuous
 62
     4
370
    13
100
AcDbLine
 10
1290.0
 20
-1693.078850092832
 30
0.0
 11
1290.0
 21
-1993.078850092832
 31
0.0
  0
LINE
  5
145
330
B8
100
AcDbEntity
  8
ZUWAKU
  6
Continuous
 62
     4
370
    13
100
AcDbLine
 10
450.0000000000005
 20
-1693.078850092832
 30
0.0
 11
450.0000000000005
 21
-1993.078850092832
 31
0.0
  0
LINE
  5
146
330
B8
100
AcDbEntity
  8
ZUWAKU
  6
Continuous
 62
     4
370
    13
100
AcDbLine
 10
-397.4999999999995
 20
-1843.078850092832
 30
0.0
 11
-397.4999999999995
 21
-1993.078850092832
 31
0.0
  0
LINE
  5
147
330
B8
100
AcDbEntity
  8
ZUWAKU
  6
Continuous
 62
     4
370
    13
100
AcDbLine
 10
-1965.0
 20
-1693.078850092832
 30
0.0
 11
-1965.0
 21
-1993.078850092832
 31
0.0
  0
LINE
  5
148
330
B8
100
AcDbEntity
  8
ZUWAKU
  6
Continuous
 62
     4
370
    13
100
AcDbLine
 10
2955.0
 20
-1693.078850092832
 30
0.0
 11
-2955.0
 21
-1693.078850092832
 31
0.0
  0
LINE
  5
149
330
B8
100
AcDbEntity
  8
ZUWAKU
  6
Continuous
 62
     4
370
    13
100
AcDbLine
 10
1470.0
 20
-1693.078850092832
 30
0.0
 11
1470.0
 21
-1993.078850092832
 31
0.0
  0
LINE
  5
14A
330
B8
100
AcDbEntity
  8
ZUWAKU
  6
Continuous
 62
     3
370
    13
100
AcDbLine
 10
-2812.5
 20
-1805.578850092832
 30
0.0
 11
-2865.0
 21
-1708.078850092832
 31
0.0
  0
LINE
  5
14B
330
B8
100
AcDbEntity
  8
ZUWAKU
  6
Continuous
 62
     3
370
    13
100
AcDbLine
 10
-2917.5
 20
-1805.578850092832
 30
0.0
 11
-2812.5
 21
-1805.578850092832
 31
0.0
  0
LINE
  5
14C
330
B8
100
AcDbEntity
  8
ZUWAKU
  6
Continuous
 62
     3
370
    13
100
AcDbLine
 10
-2865.0
 20
-1708.078850092832
 30
0.0
 11
-2917.5
 21
-1805.578850092832
 31
0.0
  0
TEXT
  5
14E
330
B8
100
AcDbEntity
  8
ZUWAKU
 62
     2
100
AcDbText
 10
1317.0
 20
-1978.078850092832
 30
0.0
 40
52.49999999999996
  1
番号
 41
1.527272727272728
  7
dcStyle1
 72
     5
 11
1443.0
 21
-1978.078850092832
 31
0.0
100
AcDbText
  0
TEXT
  5
14F
330
B8
100
AcDbEntity
  8
ZUWAKU
 62
     2
100
AcDbText
 10
-488.9999999999995
 20
-1978.078850092832
 30
0.0
 40
52.49999999999996
  1
度
 41
1.680000000000001
  7
dcStyle1
 72
     5
 11
-425.9999999999995
 21
-1978.078850092832
 31
0.0
100
AcDbText
  0
TEXT
  5
150
330
B8
100
AcDbEntity
  8
ZUWAKU
 62
     2
100
AcDbText
 10
-2922.328829547424
 20
-1978.078850092832
 30
0.0
 40
52.5
  1
番号
 41
1.272727272727273
  7
dcStyle1
 72
     5
 11
-2817.328829547424
 21
-1978.078850092832
 31
0.0
100
AcDbText
  0
TEXT
  5
151
330
B8
100
AcDbEntity
  8
ZUWAKU
 62
     2
100
AcDbText
 10
127.5000000000005
 20
-1798.078850092832
 30
0.0
 40
60.0
  1
シリーズ名
 41
1.086206896551724
  7
dcStyle1
 72
     5
 11
397.5000000000005
 21
-1798.078850092832
 31
0.0
100
AcDbText
  0
TEXT
  5
152
330
B8
100
AcDbEntity
  8
ZUWAKU
 62
     2
100
AcDbText
 10
172.5000000000005
 20
-1948.078850092832
 30
0.0
 40
60.0
  1
機　種
 41
1.235294117647059
  7
dcStyle1
 72
     5
 11
352.5000000000005
 21
-1948.078850092832
 31
0.0
100
AcDbText
  0
TEXT
  5
153
330
B8
100
AcDbEntity
  8
ZUWAKU
 62
     2
100
AcDbText
 10
-2917.5
 20
-1910.578850092832
 30
0.0
 40
52.5
  1
改訂
 41
1.272727272727273
  7
dcStyle1
 72
     5
 11
-2812.5
 21
-1910.578850092832
 31
0.0
100
AcDbText
  0
TEXT
  5
154
330
B8
100
AcDbEntity
  8
ZUWAKU
 62
     2
100
AcDbText
 10
-2616.75
 20
-1944.328850092832
 30
0.0
 40
52.49999999999996
  1
改　 訂　 記　 事
 41
1.061290322580646
  7
dcStyle1
 72
     5
 11
-2123.25
 21
-1944.328850092832
 31
0.0
100
AcDbText
  0
TEXT
  5
155
330
B8
100
AcDbEntity
  8
ZUWAKU
 62
     2
100
AcDbText
 10
-488.9999999999995
 20
-1910.578850092832
 30
0.0
 40
52.49999999999996
  1
尺
 41
1.680000000000001
  7
dcStyle1
 72
     5
 11
-425.9999999999995
 21
-1910.578850092832
 31
0.0
100
AcDbText
  0
TEXT
  5
156
330
B8
100
AcDbEntity
  8
ZUWAKU
 62
     2
100
AcDbText
 10
-404.9999999999994
 20
-1756.828850092832
 30
0.0
 40
52.49999999999996
  1
年　　月　　日
 41
1.195121951219512
  7
dcStyle1
 72
     5
 11
-37.49999999999972
 21
-1756.828850092832
 31
0.0
100
AcDbText
  0
TEXT
  5
157
330
B8
100
AcDbEntity
  8
ZUWAKU
 62
     2
100
AcDbText
 10
1317.0
 20
-1910.578850092832
 30
0.0
 40
52.49999999999996
  1
図面
 41
1.527272727272728
  7
dcStyle1
 72
     5
 11
1443.0
 21
-1910.578850092832
 31
0.0
100
AcDbText
  0
TEXT
  5
158
330
B8
100
AcDbEntity
  8
ZUWAKU
 62
     2
100
AcDbText
 10
1320.0
 20
-1798.078850092832
 30
0.0
 40
60.0
  1
図名
 41
1.272727272727273
  7
dcStyle1
 72
     5
 11
1440.0
 21
-1798.078850092832
 31
0.0
100
AcDbText
  0
TEXT
  5
159
330
B8
100
AcDbEntity
  8
ZUWAKU
 62
     7
100
AcDbText
 10
-1541.25
 20
-1805.578850092832
 30
0.0
 40
75.0
  1
技術情報サービス
 41
1.191489361702128
  7
dcStyle1
 72
     5
 11
-941.2499999999995
 21
-1805.578850092832
 31
0.0
100
AcDbText
  0
TEXT
  5
15A
330
B8
100
AcDbEntity
  8
ZUWAKU
 62
     7
100
AcDbText
 10
-1760.117647058823
 20
-1948.078850092832
 30
0.0
 40
60.0
  1
MARUYASU KIKAI CO.,LTD.
 41
0.8990281013395462
  7
dcStyle1
 72
     5
 11
-722.3823529411758
 21
-1948.078850092832
 31
0.0
100
AcDbText
  0
TEXT
  5
15B
330
B8
100
AcDbEntity
  8
ZUWAKU
 62
     4
100
AcDbText
 10
2886.848315885537
 20
-2026.921149907168
 30
0.0
 40
30.0
  1
A3
 41
1.2
  7
dcStyle1
 72
     5
 11
2946.848315885537
 21
-2026.921149907168
 31
0.0
100
AcDbText
  0
ENDBLK
  5
BA
330
B8
100
AcDbEntity
  8
0
100
AcDbBlockEnd
  0
BLOCK
  5
BC
330
BB
100
AcDbEntity
  8
0
100
AcDbBlockBegin
  2
DC_GROUP_W_MEM-C_ARG_090_1_4
 70
     0
 10
0.0
 20
0.0
 30
0.0
  3
DC_GROUP_W_MEM-C_ARG_090_1_4
  1
DC_GROUP_W_MEM-C_ARG_090_1_4
  0
POINT
  5
15C
330
BB
100
AcDbEntity
  8
ZUWAKU
  6
Continuous
 62
     2
100
AcDbPoint
 10
870.0000000000002
 20
-1768.078850092832
 30
0.0
  0
POINT
  5
15D
330
BB
100
AcDbEntity
  8
ZUWAKU
  6
Continuous
 62
     2
100
AcDbPoint
 10
870.0000000000002
 20
-1918.078850092832
 30
0.0
  0
POINT
  5
15E
330
BB
100
AcDbEntity
  8
ZUWAKU
  6
Continuous
 62
     2
100
AcDbPoint
 10
2910.0
 20
-1918.078850092832
 30
0.0
  0
POINT
  5
15F
330
BB
100
AcDbEntity
  8
ZUWAKU
  6
Continuous
 62
     2
100
AcDbPoint
 10
2212.5
 20
-1768.078850092832
 30
0.0
  0
POINT
  5
160
330
BB
100
AcDbEntity
  8
ZUWAKU
  6
Continuous
 62
     2
100
AcDbPoint
 10
-161.2499999999996
 20
-1918.078850092832
 30
0.0
  0
ENDBLK
  5
BD
330
BB
100
AcDbEntity
  8
0
100
AcDbBlockEnd
  0
BLOCK
  5
BF
330
BE
100
AcDbEntity
  8
0
100
AcDbBlockBegin
  2
*D5
 70
     1
 10
0.0
 20
0.0
 30
0.0
  3
*D5
  1
*D5
  0
LINE
  5
161
330
BE
100
AcDbEntity
  8
0
  6
Continuous
 62
     2
370
    13
100
AcDbLine
 10
710.9210465502347
 20
-142.4519583436304
 30
0.0
 11
710.9210465502413
 21
144.5086558768535
 31
0.0
  0
LINE
  5
162
330
BE
100
AcDbEntity
  8
0
  6
Continuous
 62
     2
370
    13
100
AcDbLine
 10
218.9845081150515
 20
-426.4716512333835
 30
0.0
 11
-29.53067368545339
 21
-282.9913441231474
 31
0.0
  0
ARC
  5
163
330
BE
100
AcDbEntity
  8
0
  6
Continuous
 62
     2
370
    13
100
AcDbCircle
 10
710.9210465502217
 20
-710.4913441231511
 30
0.0
 40
583.0393857795215
100
AcDbArc
 50
89.9999999999987
 51
149.9999999999991
  0
INSERT
  5
16A
330
BE
100
AcDbEntity
  8
0
 62
     2
100
AcDbBlockReference
  2
_OPEN30
 10
710.9210465502349
 20
-127.4519583436296
 30
0.0
 41
45.00004211422929
 42
44.99984052335464
 50
2.814119966820285
  0
INSERT
  5
16B
330
BE
100
AcDbEntity
  8
0
 62
     2
100
AcDbBlockReference
  2
_OPEN30
 10
205.994127058285
 20
-418.9716512333825
 30
0.0
 41
45.00004211422929
 42
44.99984052335464
 50
237.1858800331775
  0
MTEXT
  5
16C
330
BE
100
AcDbEntity
  8
0
 62
     2
100
AcDbMText
 10
411.9013536604709
 20
-192.5740435744383
 30
0.0
 40
60.0
 41
225.0
 46
0.0
 71
     8
 72
     1
  1
\T1.00;60°
  7
dcStyle0
 11
0.8660254037844483
 21
0.4999999999999833
 31
0.0
 73
     1
 44
1.0
  0
ENDBLK
  5
C0
330
BE
100
AcDbEntity
  8
0
100
AcDbBlockEnd
  0
BLOCK
  5
C2
330
C1
100
AcDbEntity
  8
0
100
AcDbBlockBegin
  2
*D6
 70
     1
 10
0.0
 20
0.0
 30
0.0
  3
*D6
  1
*D6
  0
LINE
  5
16D
330
C1
100
AcDbEntity
  8
0
  6
Continuous
 62
     2
370
    13
100
AcDbLine
 10
-1207.562995112113
 20
-142.4519583436304
 30
0.0
 11
-1207.562995112107
 21
144.5086558768535
 31
0.0
  0
LINE
  5
16E
330
C1
100
AcDbEntity
  8
0
  6
Continuous
 62
     2
370
    13
100
AcDbLine
 10
-1699.499533547296
 20
-426.4716512333835
 30
0.0
 11
-1948.014715347801
 21
-282.9913441231474
 31
0.0
  0
ARC
  5
16F
330
C1
100
AcDbEntity
  8
0
  6
Continuous
 62
     2
370
    13
100
AcDbCircle
 10
-1207.562995112126
 20
-710.4913441231511
 30
0.0
 40
583.0393857795215
100
AcDbArc
 50
89.9999999999987
 51
149.9999999999991
  0
INSERT
  5
170
330
C1
100
AcDbEntity
  8
0
 62
     2
100
AcDbBlockReference
  2
_OPEN30
 10
-1207.562995112113
 20
-127.4519583436296
 30
0.0
 41
45.00004211422929
 42
44.99984052335464
 50
2.211095665420174
  0
INSERT
  5
171
330
C1
100
AcDbEntity
  8
0
 62
     2
100
AcDbBlockReference
  2
_OPEN30
 10
-1712.489914604063
 20
-418.9716512333825
 30
0.0
 41
45.00004211422929
 42
44.99984052335464
 50
237.7889043345776
  0
MTEXT
  5
172
330
C1
100
AcDbEntity
  8
0
 62
     2
100
AcDbMText
 10
-1506.582688001877
 20
-192.5740435744383
 30
0.0
 40
60.0
 41
225.0
 46
0.0
 71
     8
 72
     1
  1
\T1.00;60°
  7
dcStyle0
 11
0.8660254037844483
 21
0.4999999999999833
 31
0.0
 73
     1
 44
1.0
  0
ENDBLK
  5
C3
330
C1
100
AcDbEntity
  8
0
100
AcDbBlockEnd
  0
BLOCK
  5
C5
330
C4
100
AcDbEntity
  8
0
100
AcDbBlockBegin
  2
*D7
 70
     1
 10
0.0
 20
0.0
 30
0.0
  3
*D7
  1
*D7
  0
LINE
  5
173
330
C4
100
AcDbEntity
  8
0
  6
Continuous
 62
     2
370
    13
100
AcDbLine
 10
-1207.562995112105
 20
-710.4913441231711
 30
0.0
 11
-1516.936343395078
 21
145.305437462378
 31
0.0
  0
INSERT
  5
174
330
C4
100
AcDbEntity
  8
0
 62
     2
100
AcDbBlockReference
  2
_OPEN30
 10
-1516.936343395078
 20
145.305437462378
 30
0.0
 41
45.00004211422929
 42
44.99984052335464
 50
109.8750897218183
  0
MTEXT
  5
175
330
C4
100
AcDbEntity
  8
0
 62
     2
100
AcDbMText
 10
-1365.990281888485
 20
-228.1241235245188
 30
0.0
 40
60.0
 41
225.0
 46
0.0
 71
     7
 72
     1
  1
\T1.00;R910
  7
dcStyle0
 11
0.3399707123988703
 21
-0.9404360237203829
 31
0.0
 73
     1
 44
1.0
  0
ENDBLK
  5
C6
330
C4
100
AcDbEntity
  8
0
100
AcDbBlockEnd
  0
BLOCK
  5
C8
330
C7
100
AcDbEntity
  8
0
100
AcDbBlockBegin
  2
*D8
 70
     1
 10
0.0
 20
0.0
 30
0.0
  3
*D8
  1
*D8
  0
LINE
  5
176
330
C7
100
AcDbEntity
  8
0
  6
Continuous
 62
     2
370
    13
100
AcDbLine
 10
710.9210465502424
 20
-710.491344123171
 30
0.0
 11
406.4130602971873
 21
147.04867611385
 31
0.0
  0
INSERT
  5
177
330
C7
100
AcDbEntity
  8
0
 62
     2
100
AcDbBlockReference
  2
_OPEN30
 10
406.4130602971873
 20
147.04867611385
 30
0.0
 41
45.00004211422929
 42
44.99984052335464
 50
109.5496849788456
  0
MTEXT
  5
178
330
C7
100
AcDbEntity
  8
0
 62
     2
100
AcDbMText
 10
591.534412761102
 20
-329.454321799737
 30
0.0
 40
60.0
 41
225.0000000000001
 46
0.0
 71
     7
 72
     1
  1
\T1.00;R910
  7
dcStyle0
 11
0.3346241607176428
 21
-0.9423516705901323
 31
0.0
 73
     1
 44
1.0
  0
ENDBLK
  5
C9
330
C7
100
AcDbEntity
  8
0
100
AcDbBlockEnd
  0
BLOCK
  5
CB
330
CA
100
AcDbEntity
  8
0
100
AcDbBlockBegin
  2
DC_GROUP_W_MEM-C_ARG_090_1_5
 70
     0
 10
0.0
 20
0.0
 30
0.0
  3
DC_GROUP_W_MEM-C_ARG_090_1_5
  1
DC_GROUP_W_MEM-C_ARG_090_1_5
  0
LINE
  5
179
330
CA
100
AcDbEntity
  8
0
  6
Continuous
 62
     7
370
    13
100
AcDbLine
 10
-1207.562995112105
 20
1019.508655876829
 30
0.0
 11
-1207.562995112105
 21
979.5086558768289
 31
0.0
  0
LINE
  5
17A
330
CA
100
AcDbEntity
  8
0
  6
Continuous
 62
     7
370
    13
100
AcDbLine
 10
-1207.562995112105
 20
199.5086558768298
 30
0.0
 11
-1207.562995112105
 21
159.5086558768289
 31
0.0
  0
LINE
  5
17B
330
CA
100
AcDbEntity
  8
0
  6
Continuous
 62
     7
370
    13
100
AcDbLine
 10
-1995.646112555944
 20
-255.4913441231702
 30
0.0
 11
-1961.005096404568
 21
-275.4913441231711
 31
0.0
  0
LINE
  5
17C
330
CA
100
AcDbEntity
  8
0
  6
Continuous
 62
     7
370
    13
100
AcDbLine
 10
-2705.786943659184
 20
154.5086558768298
 30
0.0
 11
-2671.145927507807
 21
134.5086558768298
 31
0.0
  0
ARC
  5
17D
330
CA
100
AcDbEntity
  8
0
  6
Continuous
 62
     7
370
    13
100
AcDbCircle
 10
-1207.562995112105
 20
-710.4913441231711
 30
0.0
 40
1730.0
100
AcDbArc
 50
90.0
 51
149.9999999999995
  0
ARC
  5
17E
330
CA
100
AcDbEntity
  8
0
  6
Continuous
 62
     7
370
    13
100
AcDbCircle
 10
-1207.562995112105
 20
-710.4913441231711
 30
0.0
 40
1690.0
100
AcDbArc
 50
90.0
 51
149.9999999999995
  0
ARC
  5
17F
330
CA
100
AcDbEntity
  8
0
  6
Continuous
 62
     7
370
    13
100
AcDbCircle
 10
-1207.562995112105
 20
-710.4913441231711
 30
0.0
 40
870.0
100
AcDbArc
 50
90.00000000000001
 51
149.9999999999995
  0
ARC
  5
180
330
CA
100
AcDbEntity
  8
0
  6
Continuous
 62
     7
370
    13
100
AcDbCircle
 10
-1207.562995112105
 20
-710.4913441231711
 30
0.0
 40
910.0000000000009
100
AcDbArc
 50
90.0
 51
149.9999999999995
  0
LINE
  5
181
330
CA
100
AcDbEntity
  8
0
  6
CENTERX2
 62
     3
370
    13
100
AcDbLine
 10
-1207.562995112105
 20
-528.6634136176172
 30
0.0
 11
-1207.562995112105
 21
-844.0261755838437
 31
0.0
  0
ARC
  5
182
330
CA
100
AcDbEntity
  8
0
  6
CENTERX2
 62
     3
370
    13
100
AcDbCircle
 10
-1207.562995112105
 20
-710.4913441231711
 30
0.0
 40
1300.0
100
AcDbArc
 50
90.0
 51
149.9999999999995
  0
LINE
  5
183
330
CA
100
AcDbEntity
  8
0
  6
CENTERX2
 62
     3
370
    13
100
AcDbLine
 10
-1294.370852240982
 20
170.8836202895463
 30
0.0
 11
-1375.662390777304
 21
996.2504621196458
 31
0.0
  0
LINE
  5
184
330
CA
100
AcDbEntity
  8
0
  6
CENTERX2
 62
     3
370
    13
100
AcDbLine
 10
-1351.829670653074
 20
163.3190233371743
 30
0.0
 11
-1486.928731983826
 21
981.6019704023956
 31
0.0
  0
LINE
  5
185
330
CA
100
AcDbEntity
  8
0
  6
CENTERX2
 62
     3
370
    13
100
AcDbLine
 10
-1408.670717012275
 20
152.0126362415285
 30
0.0
 11
-1596.99878621606
 21
959.707675337454
 31
0.0
  0
LINE
  5
186
330
CA
100
AcDbEntity
  8
0
  6
CENTERX2
 62
     3
370
    13
100
AcDbLine
 10
-1464.65058923168
 20
137.0128746879409
 30
0.0
 11
-1705.40121660351
 21
930.6613316575649
 31
0.0
  0
LINE
  5
187
330
CA
100
AcDbEntity
  8
0
  6
CENTERX2
 62
     3
370
    13
100
AcDbLine
 10
-1519.52957290426
 20
118.3839699581904
 30
0.0
 11
-1811.671827297024
 21
894.5873202656394
 31
0.0
  0
LINE
  5
188
330
CA
100
AcDbEntity
  8
0
  6
CENTERX2
 62
     3
370
    13
100
AcDbLine
 10
-1573.072667796753
 20
96.20569388228978
 30
0.0
 11
-1915.355551226647
 21
851.6401156166403
 31
0.0
  0
LINE
  5
189
330
CA
100
AcDbEntity
  8
0
  6
CENTERX2
 62
     3
370
    13
100
AcDbLine
 10
-1625.050594156745
 20
70.57301724326771
 30
0.0
 11
-2016.008398768699
 21
802.0036242342503
 31
0.0
  0
LINE
  5
18A
330
CA
100
AcDbEntity
  8
0
  6
CENTERX2
 62
     3
370
    13
100
AcDbLine
 10
-1675.240774523766
 20
41.59570309769242
 30
0.0
 11
-2113.199358977493
 21
745.8903971949026
 31
0.0
  0
LINE
  5
18B
330
CA
100
AcDbEntity
  8
0
  6
CENTERX2
 62
     3
370
    13
100
AcDbLine
 10
-1723.428286840147
 20
9.397836753412776
 30
0.0
 11
-2206.512245240396
 21
683.5407199514357
 31
0.0
  0
LINE
  5
18C
330
CA
100
AcDbEntity
  8
0
  6
CENTERX2
 62
     3
370
    13
100
AcDbLine
 10
-1769.406784780269
 20
-25.88270558277782
 30
0.0
 11
-2295.547477452763
 21
615.2215833939108
 31
0.0
  0
LINE
  5
18D
330
CA
100
AcDbEntity
  8
0
  6
CENTERX2
 62
     3
370
    13
100
AcDbLine
 10
-1812.979381357203
 20
-64.09484721222725
 30
0.0
 11
-2379.923793081333
 21
541.2255405536043
 31
0.0
  0
LINE
  5
18E
330
CA
100
AcDbEntity
  8
0
  6
CENTERX2
 62
     3
370
    13
100
AcDbLine
 10
-1853.959492023022
 20
-105.074957878046
 30
0.0
 11
-2459.279879788897
 21
461.8694538460377
 31
0.0
  0
LINE
  5
18F
330
CA
100
AcDbEntity
  8
0
  6
CENTERX2
 62
     3
370
    13
100
AcDbLine
 10
-1892.171633652471
 20
-148.6475544549803
 30
0.0
 11
-2533.275922629204
 21
377.4931382174609
 31
0.0
  0
LINE
  5
190
330
CA
100
AcDbEntity
  8
0
  6
CENTERX2
 62
     3
370
    13
100
AcDbLine
 10
-1927.452175988662
 20
-194.6260523951014
 30
0.0
 11
-2601.595059186726
 21
288.457906005091
 31
0.0
  0
LINE
  5
191
330
CA
100
AcDbEntity
  8
0
  6
CENTERX2
 62
     3
370
    13
100
AcDbLine
 10
-1959.650042332941
 20
-242.8135647114832
 30
0.0
 11
-2663.944736430187
 21
195.1450197421891
 31
0.0
  0
LINE
  5
192
330
CA
100
AcDbEntity
  8
0
  6
CENTERX2
 62
     3
370
    13
100
AcDbLine
 10
-1475.542399137824
 20
-710.4913441231465
 30
0.0
 11
-1088.153325629609
 21
-710.4913441231465
 31
0.0
  0
LINE
  5
193
330
CA
100
AcDbEntity
  8
0
  6
Continuous
 62
     3
370
    13
100
AcDbLine
 10
-1207.562995112105
 20
233.0086558768544
 30
0.0
 11
-1207.562995112105
 21
199.5086558768544
 31
0.0
  0
ARC
  5
194
330
CA
100
AcDbEntity
  8
0
  6
Continuous
 62
     3
370
    13
100
AcDbCircle
 10
-1207.562995112105
 20
-710.4913441231465
 30
0.0
 40
943.5
100
AcDbArc
 50
89.99999999999994
 51
149.9999999999995
  0
LINE
  5
195
330
CA
100
AcDbEntity
  8
0
  6
Continuous
 62
     3
370
    13
100
AcDbLine
 10
-2024.657963582711
 20
-238.7413441231492
 30
0.0
 11
-1995.646112555934
 21
-255.4913441231483
 31
0.0
  0
INSERT
  5
196
330
CA
100
AcDbEntity
  8
0
  6
Continuous
100
AcDbBlockReference
  2
DC_GROUP_W_MEM-C_ARG_090_1_6
 10
0.0
 20
0.0
 30
0.0
  0
ENDBLK
  5
CC
330
CA
100
AcDbEntity
  8
0
100
AcDbBlockEnd
  0
BLOCK
  5
CE
330
CD
100
AcDbEntity
  8
0
100
AcDbBlockBegin
  2
DC_GROUP_W_MEM-C_ARG_090_1_6
 70
     0
 10
0.0
 20
0.0
 30
0.0
  3
DC_GROUP_W_MEM-C_ARG_090_1_6
  1
DC_GROUP_W_MEM-C_ARG_090_1_6
  0
INSERT
  5
197
330
CD
100
AcDbEntity
  8
0
  6
Continuous
100
AcDbBlockReference
  2
DC_GROUP_W_MEM-C_ARG_090_1_7
 10
0.0
 20
0.0
 30
0.0
  0
INSERT
  5
198
330
CD
100
AcDbEntity
  8
2
  6
Continuous
100
AcDbBlockReference
  2
DC_GROUP_W_MEM-C_ARG_090_1_8
 10
0.0
 20
0.0
 30
0.0
  0
ENDBLK
  5
CF
330
CD
100
AcDbEntity
  8
0
100
AcDbBlockEnd
  0
BLOCK
  5
D1
330
D0
100
AcDbEntity
  8
0
100
AcDbBlockBegin
  2
DC_GROUP_W_MEM-C_ARG_090_1_7
 70
     0
 10
0.0
 20
0.0
 30
0.0
  3
DC_GROUP_W_MEM-C_ARG_090_1_7
  1
DC_GROUP_W_MEM-C_ARG_090_1_7
  0
LINE
  5
199
330
D0
100
AcDbEntity
  8
0
  6
PHANTOM
 62
    91
370
    13
100
AcDbLine
 10
-1304.793032528024
 20
971.950064217046
 30
0.0
 11
-1304.253362667925
 21
971.9677311167306
 31
0.0
  0
LINE
  5
19A
330
D0
100
AcDbEntity
  8
0
  6
PHANTOM
 62
    91
370
    13
100
AcDbLine
 10
-1304.793032528024
 20
971.950064217046
 30
0.0
 11
-1304.631456680031
 21
969.1538536963981
 31
0.0
  0
LINE
  5
19B
330
D0
100
AcDbEntity
  8
0
  6
PHANTOM
 62
    91
370
    13
100
AcDbLine
 10
-1220.577891069821
 20
974.7069727813378
 30
0.0
 11
-1221.117560929919
 21
974.6893058815795
 31
0.0
  0
LINE
  5
19C
330
D0
100
AcDbEntity
  8
0
  6
PHANTOM
 62
    91
370
    13
100
AcDbLine
 10
-1220.577891069821
 20
974.7069727813378
 30
0.0
 11
-1220.556240698821
 21
971.9061815910009
 31
0.0
  0
LINE
  5
19D
330
D0
100
AcDbEntity
  8
0
  6
Continuous
 62
     7
370
    13
100
AcDbLine
 10
-1304.516045360035
 20
967.1565604673533
 30
0.0
 11
-1262.148549789763
 21
233.9502160893398
 31
0.0
  0
LINE
  5
19E
330
D0
100
AcDbEntity
  8
0
  6
Continuous
 62
     7
370
    13
100
AcDbLine
 10
-1262.148549789762
 20
233.9502160893398
 30
0.0
 11
-1261.144017677093
 21
233.9831009498389
 31
0.0
  0
LINE
  5
19F
330
D0
100
AcDbEntity
  8
0
  6
Continuous
 62
     7
370
    13
100
AcDbLine
 10
-1215.868271693558
 20
235.4652701825476
 30
0.0
 11
-1214.863739580971
 21
235.4981550430448
 31
0.0
  0
ARC
  5
1A0
330
D0
100
AcDbEntity
  8
0
  6
Continuous
 62
     7
370
    13
100
AcDbCircle
 10
-1303.506482256881
 20
967.1896100249178
 30
0.0
 40
1.010099999999994
100
AcDbArc
 50
171.8749933992007
 51
181.8749933991742
  0
LINE
  5
1A1
330
D0
100
AcDbEntity
  8
0
  6
Continuous
 62
     7
370
    13
100
AcDbLine
 10
-1304.506442941192
 20
967.3323708032412
 30
0.0
 11
-1303.828043044203
 21
972.0841887269144
 31
0.0
  0
LINE
  5
1A2
330
D0
100
AcDbEntity
  8
0
  6
Continuous
 62
     7
370
    13
100
AcDbLine
 10
-1214.863739580971
 20
235.4981550430448
 30
0.0
 11
-1220.540776148114
 21
969.9056164550339
 31
0.0
  0
ARC
  5
1A3
330
D0
100
AcDbEntity
  8
0
  6
Continuous
 62
     7
370
    13
100
AcDbCircle
 10
-1221.550339251261
 20
969.8725668974721
 30
0.0
 40
1.010099999999994
100
AcDbArc
 50
1.874993399174161
 51
11.87499339914762
  0
LINE
  5
1A4
330
D0
100
AcDbEntity
  8
0
  6
Continuous
 62
     7
370
    13
100
AcDbLine
 10
-1220.561856513275
 20
970.0804223441146
 30
0.0
 11
-1221.54958658344
 21
974.7776970123086
 31
0.0
  0
LINE
  5
1A5
330
D0
100
AcDbEntity
  8
0
  6
Continuous
 62
     7
370
    13
100
AcDbLine
 10
-1221.54958658344
 20
974.7776970123086
 30
0.0
 11
-1303.828043044202
 21
972.0841887269144
 31
0.0
  0
LINE
  5
1A6
330
D0
100
AcDbEntity
  8
0
  6
CENTERX2
 62
     3
370
    13
100
AcDbLine
 10
-1236.50990245885
 20
173.7450811932302
 30
0.0
 11
-1263.748355458696
 21
1005.796539297439
 31
0.0
  0
ENDBLK
  5
D2
330
D0
100
AcDbEntity
  8
0
100
AcDbBlockEnd
  0
BLOCK
  5
D4
330
D3
100
AcDbEntity
  8
0
100
AcDbBlockBegin
  2
DC_GROUP_W_MEM-C_ARG_090_1_8
 70
     0
 10
0.0
 20
0.0
 30
0.0
  3
DC_GROUP_W_MEM-C_ARG_090_1_8
  1
DC_GROUP_W_MEM-C_ARG_090_1_8
  0
LINE
  5
1A7
330
D3
100
AcDbEntity
  8
2
  6
Continuous
 62
     7
370
    13
100
AcDbLine
 10
-1215.218609955664
 20
235.4862253599313
 30
0.0
 11
-1215.15317202482
 21
233.487296315202
 31
0.0
  0
LINE
  5
1A8
330
D3
100
AcDbEntity
  8
2
  6
Continuous
 62
     7
370
    13
100
AcDbLine
 10
-1261.728221047539
 20
231.9625924518623
 30
0.0
 11
-1261.793658978385
 21
233.9615214965916
 31
0.0
  0
LINE
  5
1A9
330
D3
100
AcDbEntity
  8
2
  6
Continuous
 62
     7
370
    13
100
AcDbLine
 10
-1261.793658978385
 20
233.9615214965916
 30
0.0
 11
-1215.218609955664
 21
235.4862253599313
 31
0.0
  0
ARC
  5
1AA
330
D3
100
AcDbEntity
  8
2
  6
Continuous
 62
     7
370
    13
100
AcDbCircle
 10
-1216.152636147741
 20
233.4545772510355
 30
0.0
 40
1.000000000000056
100
AcDbArc
 50
0.0
 51
1.874993399174161
  0
ARC
  5
1AB
330
D3
100
AcDbEntity
  8
2
  6
Continuous
 62
     7
370
    13
100
AcDbCircle
 10
-1216.152636147741
 20
233.4545772510355
 30
0.0
 40
1.000000000000056
100
AcDbArc
 50
331.4822003212753
 51
0.0
  0
ARC
  5
1AC
330
D3
100
AcDbEntity
  8
2
  6
Continuous
 62
     7
370
    13
100
AcDbCircle
 10
-1260.728756917305
 20
231.9953112926269
 30
0.0
 40
1.000000000000056
100
AcDbArc
 50
184.3475274080626
 51
212.2681272995299
  0
ARC
  5
1AD
330
D3
100
AcDbEntity
  8
2
  6
Continuous
 62
     7
370
    13
100
AcDbCircle
 10
-1260.728756917305
 20
231.9953112926269
 30
0.0
 40
1.000000000000056
100
AcDbArc
 50
181.8749933991742
 51
184.3475274080626
  0
ENDBLK
  5
D5
330
D3
100
AcDbEntity
  8
0
100
AcDbBlockEnd
  0
BLOCK
  5
D7
330
D6
100
AcDbEntity
  8
0
100
AcDbBlockBegin
  2
DC_GROUP_W_MEM-C_ARG_090_1_9
 70
     0
 10
0.0
 20
0.0
 30
0.0
  3
DC_GROUP_W_MEM-C_ARG_090_1_9
  1
DC_GROUP_W_MEM-C_ARG_090_1_9
  0
LINE
  5
1AE
330
D6
100
AcDbEntity
  8
0
  6
Continuous
 62
     7
370
    13
100
AcDbLine
 10
710.9210465502415
 20
1019.508655876829
 30
0.0
 11
710.9210465502424
 21
979.5086558768289
 31
0.0
  0
LINE
  5
1AF
330
D6
100
AcDbEntity
  8
0
  6
Continuous
 62
     7
370
    13
100
AcDbLine
 10
710.9210465502424
 20
199.5086558768298
 30
0.0
 11
710.9210465502415
 21
159.5086558768289
 31
0.0
  0
LINE
  5
1B0
330
D6
100
AcDbEntity
  8
0
  6
Continuous
 62
     7
370
    13
100
AcDbLine
 10
-77.16207089359636
 20
-255.491344123172
 30
0.0
 11
-42.52105474221889
 21
-275.491344123172
 31
0.0
  0
LINE
  5
1B1
330
D6
100
AcDbEntity
  8
0
  6
Continuous
 62
     7
370
    13
100
AcDbLine
 10
-787.3029019968349
 20
154.508655876828
 30
0.0
 11
-752.6618858454572
 21
134.508655876828
 31
0.0
  0
ARC
  5
1B2
330
D6
100
AcDbEntity
  8
0
  6
Continuous
 62
     7
370
    13
100
AcDbCircle
 10
710.9210465502424
 20
-710.4913441231711
 30
0.0
 40
1730.0
100
AcDbArc
 50
90.0
 51
150.0000000000027
  0
ARC
  5
1B3
330
D6
100
AcDbEntity
  8
0
  6
Continuous
 62
     7
370
    13
100
AcDbCircle
 10
710.9210465502424
 20
-710.4913441231711
 30
0.0
 40
1690.0
100
AcDbArc
 50
90.0
 51
150.0000000000027
  0
ARC
  5
1B4
330
D6
100
AcDbEntity
  8
0
  6
Continuous
 62
     7
370
    13
100
AcDbCircle
 10
710.9210465502424
 20
-710.4913441231711
 30
0.0
 40
870.0
100
AcDbArc
 50
90.00000000000001
 51
150.0000000000027
  0
ARC
  5
1B5
330
D6
100
AcDbEntity
  8
0
  6
Continuous
 62
     7
370
    13
100
AcDbCircle
 10
710.9210465502424
 20
-710.4913441231711
 30
0.0
 40
910.0000000000009
100
AcDbArc
 50
90.0
 51
150.0000000000027
  0
LINE
  5
1B6
330
D6
100
AcDbEntity
  8
0
  6
CENTERX2
 62
     3
370
    13
100
AcDbLine
 10
710.9210465502424
 20
-528.6634136176172
 30
0.0
 11
710.9210465502424
 21
-844.0261755838437
 31
0.0
  0
ARC
  5
1B7
330
D6
100
AcDbEntity
  8
0
  6
CENTERX2
 62
     3
370
    13
100
AcDbCircle
 10
710.9210465502424
 20
-710.4913441231711
 30
0.0
 40
1300.0
100
AcDbArc
 50
90.0
 51
150.0000000000027
  0
LINE
  5
1B8
330
D6
100
AcDbEntity
  8
0
  6
CENTERX2
 62
     3
370
    13
100
AcDbLine
 10
595.3218869775524
 20
167.5714476286003
 30
0.0
 11
487.0686268928305
 21
989.8365931329108
 31
0.0
  0
LINE
  5
1B9
330
D6
100
AcDbEntity
  8
0
  6
CENTERX2
 62
     3
370
    13
100
AcDbLine
 10
519.233561885861
 20
154.1550229980176
 30
0.0
 11
339.7271086463788
 21
963.8563080875101
 31
0.0
  0
LINE
  5
1BA
330
D6
100
AcDbEntity
  8
0
  6
CENTERX2
 62
     3
370
    13
100
AcDbLine
 10
444.6040942965342
 20
134.1581174258918
 30
0.0
 11
195.2106004003947
 21
925.133226410032
 31
0.0
  0
LINE
  5
1BB
330
D6
100
AcDbEntity
  8
0
  6
CENTERX2
 62
     3
370
    13
100
AcDbLine
 10
372.0014595204298
 20
107.7329194380891
 30
0.0
 11
54.61896004409493
 21
873.9620541336781
 31
0.0
  0
LINE
  5
1BC
330
D6
100
AcDbEntity
  8
0
  6
CENTERX2
 62
     3
370
    13
100
AcDbLine
 10
301.9782074468644
 20
75.08054074726624
 30
0.0
 11
-80.97782514785831
 21
810.7322347774698
 31
0.0
  0
LINE
  5
1BD
330
D6
100
AcDbEntity
  8
0
  6
CENTERX2
 62
     3
370
    13
100
AcDbLine
 10
235.0672573053139
 20
36.44948567130723
 30
0.0
 11
-210.5477817645783
 21
735.9249854459158
 31
0.0
  0
LINE
  5
1BE
330
D6
100
AcDbEntity
  8
0
  6
CENTERX2
 62
     3
370
    13
100
AcDbLine
 10
171.7778418282901
 20
-7.866240134591862
 30
0.0
 11
-333.1048041997265
 21
650.1096344762864
 31
0.0
  0
LINE
  5
1BF
330
D6
100
AcDbEntity
  8
0
  6
CENTERX2
 62
     3
370
    13
100
AcDbLine
 10
112.5916316827684
 20
-57.52936723848143
 30
0.0
 11
-447.7161595106295
 21
553.939288506178
 31
0.0
  0
LINE
  5
1C0
330
D6
100
AcDbEntity
  8
0
  6
CENTERX2
 62
     3
370
    13
100
AcDbLine
 10
57.9590696655664
 20
-112.1619292556843
 30
0.0
 11
-553.5095860791337
 21
448.1458619376708
 31
0.0
  0
LINE
  5
1C1
330
D6
100
AcDbEntity
  8
0
  6
CENTERX2
 62
     3
370
    13
100
AcDbLine
 10
8.295942561678658
 20
-171.3481394012069
 30
0.0
 11
-649.6799320492403
 21
333.5345066267655
 31
0.0
  0
LINE
  5
1C2
330
D6
100
AcDbEntity
  8
0
  6
CENTERX2
 62
     3
370
    13
100
AcDbLine
 10
-36.01978324421952
 20
-234.6375548782316
 30
0.0
 11
-735.4952830188681
 21
210.9774841916133
 31
0.0
  0
LINE
  5
1C3
330
D6
100
AcDbEntity
  8
0
  6
CENTERX2
 62
     3
370
    13
100
AcDbLine
 10
442.9416425245231
 20
-710.4913441231465
 30
0.0
 11
830.330716032739
 21
-710.4913441231465
 31
0.0
  0
ARC
  5
1C4
330
D6
100
AcDbEntity
  8
0
  6
Continuous
 62
     3
370
    13
100
AcDbCircle
 10
710.9210465502424
 20
-710.4913441231465
 30
0.0
 40
943.5
100
AcDbArc
 50
89.99999999999994
 51
150.0000000000027
  0
LINE
  5
1C5
330
D6
100
AcDbEntity
  8
0
  6
Continuous
 62
     3
370
    13
100
AcDbLine
 10
710.9210465502424
 20
233.0086558768544
 30
0.0
 11
710.9210465502424
 21
199.5086558768544
 31
0.0
  0
LINE
  5
1C6
330
D6
100
AcDbEntity
  8
0
  6
Continuous
 62
     3
370
    13
100
AcDbLine
 10
-106.1739219203628
 20
-238.7413441231502
 30
0.0
 11
-77.16207089358409
 21
-255.4913441231502
 31
0.0
  0
INSERT
  5
1C7
330
D6
100
AcDbEntity
  8
0
  6
Continuous
100
AcDbBlockReference
  2
DC_GROUP_W_MEM-C_ARG_090_1_10
 10
0.0
 20
0.0
 30
0.0
  0
ENDBLK
  5
D8
330
D6
100
AcDbEntity
  8
0
100
AcDbBlockEnd
  0
BLOCK
  5
DA
330
D9
100
AcDbEntity
  8
0
100
AcDbBlockBegin
  2
DC_GROUP_W_MEM-C_ARG_090_1_10
 70
     0
 10
0.0
 20
0.0
 30
0.0
  3
DC_GROUP_W_MEM-C_ARG_090_1_10
  1
DC_GROUP_W_MEM-C_ARG_090_1_10
  0
INSERT
  5
1C8
330
D9
100
AcDbEntity
  8
0
  6
Continuous
100
AcDbBlockReference
  2
DC_GROUP_W_MEM-C_ARG_090_1_11
 10
0.0
 20
0.0
 30
0.0
  0
INSERT
  5
1C9
330
D9
100
AcDbEntity
  8
2
  6
Continuous
100
AcDbBlockReference
  2
DC_GROUP_W_MEM-C_ARG_090_1_12
 10
0.0
 20
0.0
 30
0.0
  0
ENDBLK
  5
DB
330
D9
100
AcDbEntity
  8
0
100
AcDbBlockEnd
  0
BLOCK
  5
DD
330
DC
100
AcDbEntity
  8
0
100
AcDbBlockBegin
  2
DC_GROUP_W_MEM-C_ARG_090_1_11
 70
     0
 10
0.0
 20
0.0
 30
0.0
  3
DC_GROUP_W_MEM-C_ARG_090_1_11
  1
DC_GROUP_W_MEM-C_ARG_090_1_11
  0
LINE
  5
1CA
330
DC
100
AcDbEntity
  8
0
  6
PHANTOM
 62
    91
370
    13
100
AcDbLine
 10
595.3444925730153
 20
970.7892827318146
 30
0.0
 11
595.8839376108206
 21
970.8128354053733
 31
0.0
  0
LINE
  5
1CB
330
DC
100
AcDbEntity
  8
0
  6
PHANTOM
 62
    91
370
    13
100
AcDbLine
 10
595.3444925730153
 20
970.7892827318146
 30
0.0
 11
595.5365604222368
 21
967.9950010760522
 31
0.0
  0
LINE
  5
1CC
330
DC
100
AcDbEntity
  8
0
  6
PHANTOM
 62
    91
370
    13
100
AcDbLine
 10
679.5245506538424
 20
974.4646625986579
 30
0.0
 11
678.9851056160398
 21
974.4411099250256
 31
0.0
  0
LINE
  5
1CD
330
DC
100
AcDbEntity
  8
0
  6
PHANTOM
 62
    91
370
    13
100
AcDbLine
 10
679.5245506538424
 20
974.4646625986579
 30
0.0
 11
679.5767513179437
 21
971.6642742111117
 31
0.0
  0
LINE
  5
1CE
330
DC
100
AcDbEntity
  8
0
  6
Continuous
 62
     7
370
    13
100
AcDbLine
 10
595.67375174311
 20
965.9990856076392
 30
0.0
 11
646.0366856354315
 21
233.2985171577275
 31
0.0
  0
LINE
  5
1CF
330
DC
100
AcDbEntity
  8
0
  6
Continuous
 62
     7
370
    13
100
AcDbLine
 10
646.0366856354324
 20
233.2985171577275
 30
0.0
 11
647.040799267784
 21
233.3423576955784
 31
0.0
  0
LINE
  5
1D0
330
DC
100
AcDbEntity
  8
0
  6
Continuous
 62
     7
370
    13
100
AcDbLine
 10
692.2976837253275
 20
235.3183154877725
 30
0.0
 11
693.3017973575973
 21
235.3621560256206
 31
0.0
  0
ARC
  5
1D1
330
DC
100
AcDbEntity
  8
0
  6
Continuous
 62
     7
370
    13
100
AcDbCircle
 10
596.6828942700747
 20
966.0431457117911
 30
0.0
 40
1.010099999999994
100
AcDbArc
 50
172.4999994273034
 51
182.4999994272767
  0
LINE
  5
1D2
330
DC
100
AcDbEntity
  8
0
  6
Continuous
 62
     7
370
    13
100
AcDbLine
 10
595.6814358169211
 20
966.1749902285637
 30
0.0
 11
596.3079615871445
 21
970.933925556893
 31
0.0
  0
LINE
  5
1D3
330
DC
100
AcDbEntity
  8
0
  6
Continuous
 62
     7
370
    13
100
AcDbLine
 10
693.3017973575968
 20
235.3621560256206
 30
0.0
 11
679.61403750658
 21
969.6639967914243
 31
0.0
  0
ARC
  5
1D4
330
DC
100
AcDbEntity
  8
0
  6
Continuous
 62
     7
370
    13
100
AcDbCircle
 10
678.6048949796225
 20
969.6199366872761
 30
0.0
 40
1.010099999999994
100
AcDbArc
 50
2.499999427276786
 51
12.49999942725025
  0
LINE
  5
1D5
330
DC
100
AcDbEntity
  8
0
  6
Continuous
 62
     7
370
    13
100
AcDbLine
 10
679.5910515785974
 20
969.838562331458
 30
0.0
 11
678.5521414785401
 21
974.5247831760162
 31
0.0
  0
LINE
  5
1D6
330
DC
100
AcDbEntity
  8
0
  6
Continuous
 62
     7
370
    13
100
AcDbLine
 10
678.5521414785401
 20
974.5247831760162
 30
0.0
 11
596.307961587145
 21
970.933925556893
 31
0.0
  0
LINE
  5
1D7
330
DC
100
AcDbEntity
  8
0
  6
CENTERX2
 62
     3
370
    13
100
AcDbLine
 10
672.4005351460515
 20
171.7734147915782
 30
0.0
 11
636.036812820164
 21
1004.639672455222
 31
0.0
  0
ENDBLK
  5
DE
330
DC
100
AcDbEntity
  8
0
100
AcDbBlockEnd
  0
BLOCK
  5
E0
330
DF
100
AcDbEntity
  8
0
100
AcDbBlockBegin
  2
DC_GROUP_W_MEM-C_ARG_090_1_12
 70
     0
 10
0.0
 20
0.0
 30
0.0
  3
DC_GROUP_W_MEM-C_ARG_090_1_12
  1
DC_GROUP_W_MEM-C_ARG_090_1_12
  0
LINE
  5
1D8
330
DF
100
AcDbEntity
  8
2
  6
Continuous
 62
     7
370
    13
100
AcDbLine
 10
692.9470782276542
 20
235.3463560564278
 30
0.0
 11
693.0343169763994
 21
233.348259750097
 31
0.0
  0
LINE
  5
1D9
330
DF
100
AcDbEntity
  8
2
  6
Continuous
 62
     7
370
    13
100
AcDbLine
 10
646.4786707593141
 20
231.3155968047968
 30
0.0
 11
646.391432010568
 21
233.3136931111276
 31
0.0
  0
LINE
  5
1DA
330
DF
100
AcDbEntity
  8
2
  6
Continuous
 62
     7
370
    13
100
AcDbLine
 10
646.391432010568
 20
233.3136931111276
 30
0.0
 11
692.9470782276542
 21
235.3463560564278
 31
0.0
  0
ARC
  5
1DB
330
DF
100
AcDbEntity
  8
2
  6
Continuous
 62
     7
370
    13
100
AcDbCircle
 10
692.0352692237304
 20
233.3046402813434
 30
0.0
 40
1.000000000000056
100
AcDbArc
 50
0.0
 51
2.499999427276786
  0
ARC
  5
1DC
330
DF
100
AcDbEntity
  8
2
  6
Continuous
 62
     7
370
    13
100
AcDbCircle
 10
692.0352692237304
 20
233.3046402813434
 30
0.0
 40
1.000000000000056
100
AcDbArc
 50
332.1124614613253
 51
0.0
  0
ARC
  5
1DD
330
DF
100
AcDbEntity
  8
2
  6
Continuous
 62
     7
370
    13
100
AcDbCircle
 10
647.4777185217329
 20
231.3592160502421
 30
0.0
 40
1.000000000000056
100
AcDbArc
 50
182.4447503337306
 51
212.8875664872063
  0
ENDBLK
  5
E1
330
DF
100
AcDbEntity
  8
0
100
AcDbBlockEnd
  0
BLOCK
  5
E3
330
E2
100
AcDbEntity
  8
0
100
AcDbBlockBegin
  2
DC_GROUP_W_MEM-C_ARG_090_1_13
 70
     0
 10
0.0
 20
0.0
 30
0.0
  3
DC_GROUP_W_MEM-C_ARG_090_1_13
  1
DC_GROUP_W_MEM-C_ARG_090_1_13
  0
INSERT
  5
1DE
330
E2
100
AcDbEntity
  8
0
  6
Continuous
100
AcDbBlockReference
  2
DC_GROUP_W_MEM-C_ARG_090_1_14
 10
0.0
 20
0.0
 30
0.0
  0
ENDBLK
  5
E4
330
E2
100
AcDbEntity
  8
0
100
AcDbBlockEnd
  0
BLOCK
  5
E6
330
E5
100
AcDbEntity
  8
0
100
AcDbBlockBegin
  2
DC_GROUP_W_MEM-C_ARG_090_1_14
 70
     0
 10
0.0
 20
0.0
 30
0.0
  3
DC_GROUP_W_MEM-C_ARG_090_1_14
  1
DC_GROUP_W_MEM-C_ARG_090_1_14
  0
LINE
  5
1DF
330
E5
100
AcDbEntity
  8
0
  6
Continuous
 62
     2
370
    13
100
AcDbLine
 10
-1262.672362720721
 20
1154.705076203897
 30
0.0
 11
-1219.371092531497
 21
1079.705076203897
 31
0.0
  0
LINE
  5
1E0
330
E5
100
AcDbEntity
  8
0
  6
Continuous
 62
     2
370
    13
100
AcDbLine
 10
-1219.371092531497
 20
1079.705076203897
 30
0.0
 11
-1305.973632909942
 21
1079.705076203897
 31
0.0
  0
LINE
  5
1E1
330
E5
100
AcDbEntity
  8
0
  6
Continuous
 62
     2
370
    13
100
AcDbLine
 10
-1305.973632909942
 20
1079.705076203897
 30
0.0
 11
-1262.672362720721
 21
1154.705076203897
 31
0.0
  0
TEXT
  5
1E2
330
E5
100
AcDbEntity
  8
0
 62
     2
100
AcDbText
 10
-1273.922362720721
 20
1085.330076203897
 30
0.0
 40
37.5
  1
1
 41
1.145454545454546
  7
dcStyle1
 72
     5
 11
-1251.422362720721
 21
1085.330076203897
 31
0.0
100
AcDbText
  0
ENDBLK
  5
E7
330
E5
100
AcDbEntity
  8
0
100
AcDbBlockEnd
  0
BLOCK
  5
E9
330
E8
100
AcDbEntity
  8
0
100
AcDbBlockBegin
  2
DC_GROUP_W_MEM-C_ARG_090_1_15
 70
     0
 10
0.0
 20
0.0
 30
0.0
  3
DC_GROUP_W_MEM-C_ARG_090_1_15
  1
DC_GROUP_W_MEM-C_ARG_090_1_15
  0
INSERT
  5
1E3
330
E8
100
AcDbEntity
  8
0
  6
Continuous
100
AcDbBlockReference
  2
DC_GROUP_W_MEM-C_ARG_090_1_16
 10
0.0
 20
0.0
 30
0.0
  0
ENDBLK
  5
EA
330
E8
100
AcDbEntity
  8
0
100
AcDbBlockEnd
  0
BLOCK
  5
EC
330
EB
100
AcDbEntity
  8
0
100
AcDbBlockBegin
  2
DC_GROUP_W_MEM-C_ARG_090_1_16
 70
     0
 10
0.0
 20
0.0
 30
0.0
  3
DC_GROUP_W_MEM-C_ARG_090_1_16
  1
DC_GROUP_W_MEM-C_ARG_090_1_16
  0
LINE
  5
1E4
330
EB
100
AcDbEntity
  8
0
  6
Continuous
 62
     2
370
    13
100
AcDbLine
 10
655.8116789416272
 20
1154.705076203897
 30
0.0
 11
699.1129491308507
 21
1079.705076203897
 31
0.0
  0
LINE
  5
1E5
330
EB
100
AcDbEntity
  8
0
  6
Continuous
 62
     2
370
    13
100
AcDbLine
 10
699.1129491308507
 20
1079.705076203897
 30
0.0
 11
612.5104087524055
 21
1079.705076203897
 31
0.0
  0
LINE
  5
1E6
330
EB
100
AcDbEntity
  8
0
  6
Continuous
 62
     2
370
    13
100
AcDbLine
 10
612.5104087524055
 20
1079.705076203897
 30
0.0
 11
655.8116789416272
 21
1154.705076203897
 31
0.0
  0
TEXT
  5
1E7
330
EB
100
AcDbEntity
  8
0
 62
     2
100
AcDbText
 10
644.5616789416272
 20
1085.330076203897
 30
0.0
 40
37.5
  1
1
 41
1.145454545454546
  7
dcStyle1
 72
     5
 11
667.0616789416272
 21
1085.330076203897
 31
0.0
100
AcDbText
  0
ENDBLK
  5
ED
330
EB
100
AcDbEntity
  8
0
100
AcDbBlockEnd
  0
BLOCK
  5
EF
330
EE
100
AcDbEntity
  8
0
100
AcDbBlockBegin
  2
DC_GROUP_W_MEM-C_ARG_090_1_17
 70
     0
 10
0.0
 20
0.0
 30
0.0
  3
DC_GROUP_W_MEM-C_ARG_090_1_17
  1
DC_GROUP_W_MEM-C_ARG_090_1_17
  0
LINE
  5
1E8
330
EE
100
AcDbEntity
  8
8
  6
CENTERX2
 62
     3
370
    13
100
AcDbLine
 10
1963.058544546047
 20
193.7086558768262
 30
0.0
 11
1963.058544546047
 21
209.2086558768262
 31
0.0
  0
LINE
  5
1E9
330
EE
100
AcDbEntity
  8
8
  6
Continuous
 62
     3
370
    13
100
AcDbLine
 10
1953.658544546047
 20
233.0086558768282
 30
0.0
 11
1955.958544546048
 21
233.0086558768282
 31
0.0
  0
LINE
  5
1EA
330
EE
100
AcDbEntity
  8
8
  6
Continuous
 62
     3
370
    13
100
AcDbLine
 10
1955.958544546048
 20
233.0086558768282
 30
0.0
 11
1955.958544546048
 21
204.1086558768263
 31
0.0
  0
LINE
  5
1EB
330
EE
100
AcDbEntity
  8
8
  6
Continuous
 62
     3
370
    13
100
AcDbLine
 10
1958.258544546048
 20
201.8086558768263
 30
0.0
 11
1975.658544546047
 21
201.8086558768263
 31
0.0
  0
LINE
  5
1EC
330
EE
100
AcDbEntity
  8
8
  6
Continuous
 62
     3
370
    13
100
AcDbLine
 10
1975.658544546047
 20
201.8086558768263
 30
0.0
 11
1975.658544546047
 21
199.5086558768282
 31
0.0
  0
LINE
  5
1ED
330
EE
100
AcDbEntity
  8
8
  6
Continuous
 62
     3
370
    13
100
AcDbLine
 10
1953.658544546047
 20
204.1086558768282
 30
0.0
 11
1953.658544546047
 21
233.0086558768282
 31
0.0
  0
ARC
  5
1EE
330
EE
100
AcDbEntity
  8
8
  6
Continuous
 62
     3
370
    13
100
AcDbCircle
 10
1958.258544546047
 20
204.1086558768282
 30
0.0
 40
4.6
100
AcDbArc
 50
180.0
 51
270.0
  0
ARC
  5
1EF
330
EE
100
AcDbEntity
  8
8
  6
Continuous
 62
     3
370
    13
100
AcDbCircle
 10
1958.258544546048
 20
204.1086558768263
 30
0.0
 40
2.3
100
AcDbArc
 50
180.0
 51
270.0
  0
ENDBLK
  5
F0
330
EE
100
AcDbEntity
  8
0
100
AcDbBlockEnd
  0
BLOCK
  5
F2
330
F1
100
AcDbEntity
  8
0
100
AcDbBlockBegin
  2
DC_GROUP_W_MEM-C_ARG_090_1_18
 70
     0
 10
0.0
 20
0.0
 30
0.0
  3
DC_GROUP_W_MEM-C_ARG_090_1_18
  1
DC_GROUP_W_MEM-C_ARG_090_1_18
  0
LINE
  5
1F0
330
F1
100
AcDbEntity
  8
8
  6
Continuous
 62
     3
370
    13
100
AcDbLine
 10
1913.758544546047
 20
159.5086558768287
 30
0.0
 11
2018.758544546047
 21
159.5086558768287
 31
0.0
  0
LINE
  5
1F1
330
F1
100
AcDbEntity
  8
8
  6
Continuous
 62
     3
370
    13
100
AcDbLine
 10
2018.758544546047
 20
159.5086558768287
 30
0.0
 11
2018.758544546048
 21
158.3086558768277
 31
0.0
  0
LINE
  5
1F2
330
F1
100
AcDbEntity
  8
8
  6
Continuous
 62
     3
370
    13
100
AcDbLine
 10
2018.758544546048
 20
158.3086558768277
 30
0.0
 11
1913.758544546047
 21
158.3086558768277
 31
0.0
  0
LINE
  5
1F3
330
F1
100
AcDbEntity
  8
8
  6
Continuous
 62
     3
370
    13
100
AcDbLine
 10
1913.758544546047
 20
158.3086558768277
 30
0.0
 11
1913.758544546047
 21
159.5086558768287
 31
0.0
  0
ENDBLK
  5
F3
330
F1
100
AcDbEntity
  8
0
100
AcDbBlockEnd
  0
BLOCK
  5
F5
330
F4
100
AcDbEntity
  8
0
100
AcDbBlockBegin
  2
DC_GROUP_W_MEM-C_ARG_090_1_19
 70
     0
 10
0.0
 20
0.0
 30
0.0
  3
DC_GROUP_W_MEM-C_ARG_090_1_19
  1
DC_GROUP_W_MEM-C_ARG_090_1_19
  0
LINE
  5
1F4
330
F4
100
AcDbEntity
  8
8
  6
Continuous
 62
     7
370
    13
100
AcDbLine
 10
2021.258544546047
 20
975.0086558768287
 30
0.0
 11
2021.258544546047
 21
979.5086558768287
 31
0.0
  0
LINE
  5
1F5
330
F4
100
AcDbEntity
  8
8
  6
Continuous
 62
     7
370
    13
100
AcDbLine
 10
1977.258544546047
 20
975.0086558768287
 30
0.0
 11
2021.258544546047
 21
975.0086558768287
 31
0.0
  0
LINE
  5
1F6
330
F4
100
AcDbEntity
  8
8
  6
Continuous
 62
     7
370
    13
100
AcDbLine
 10
1977.258544546047
 20
979.5086558768287
 30
0.0
 11
1977.258544546047
 21
975.0086558768287
 31
0.0
  0
LINE
  5
1F7
330
F4
100
AcDbEntity
  8
8
  6
Continuous
 62
     7
370
    13
100
AcDbLine
 10
1977.258544546047
 20
204.0086558768287
 30
0.0
 11
1977.258544546047
 21
199.5086558768287
 31
0.0
  0
LINE
  5
1F8
330
F4
100
AcDbEntity
  8
8
  6
Continuous
 62
     7
370
    13
100
AcDbLine
 10
2021.258544546047
 20
204.0086558768287
 30
0.0
 11
1977.258544546047
 21
204.0086558768287
 31
0.0
  0
LINE
  5
1F9
330
F4
100
AcDbEntity
  8
8
  6
Continuous
 62
     7
370
    13
100
AcDbLine
 10
2021.258544546047
 20
199.5086558768287
 30
0.0
 11
2021.258544546047
 21
204.0086558768287
 31
0.0
  0
LINE
  5
1FA
330
F4
100
AcDbEntity
  8
8
  6
Continuous
 62
     7
370
    13
100
AcDbLine
 10
2019.258544546047
 20
975.0086558768287
 30
0.0
 11
2019.258544546047
 21
204.0086558768287
 31
0.0
  0
LINE
  5
1FB
330
F4
100
AcDbEntity
  8
8
  6
Continuous
 62
     7
370
    13
100
AcDbLine
 10
1979.258544546047
 20
972.9096551388639
 30
0.0
 11
1979.258544546047
 21
975.0086558768287
 31
0.0
  0
LINE
  5
1FC
330
F4
100
AcDbEntity
  8
8
  6
Continuous
 62
     7
370
    13
100
AcDbLine
 10
1979.258544546047
 20
204.0086558768287
 30
0.0
 11
1979.258544546047
 21
848.0507368792048
 31
0.0
  0
LINE
  5
1FD
330
F4
100
AcDbEntity
  8
8
  6
DASHED2
 62
     4
370
    13
100
AcDbLine
 10
1979.258544546047
 20
848.0507368792048
 30
0.0
 11
1979.258544546047
 21
972.9096551388639
 31
0.0
  0
ENDBLK
  5
F6
330
F4
100
AcDbEntity
  8
0
100
AcDbBlockEnd
  0
BLOCK
  5
F8
330
F7
100
AcDbEntity
  8
0
100
AcDbBlockBegin
  2
*D24
 70
     1
 10
0.0
 20
0.0
 30
0.0
  3
*D24
  1
*D24
  0
LINE
  5
1FE
330
F7
100
AcDbEntity
  8
0
  6
Continuous
 62
     2
370
    13
100
AcDbLine
 10
1901.258543810168
 20
12.79226526090702
 30
0.0
 11
1911.258544546047
 21
12.79226526090702
 31
0.0
  0
LINE
  5
1FF
330
F7
100
AcDbEntity
  8
0
  6
Continuous
 62
     2
370
    13
100
AcDbLine
 10
1901.258543810168
 20
225.5256222298033
 30
0.0
 11
1901.258543810168
 21
-2.207734739092984
 31
0.0
  0
LINE
  5
200
330
F7
100
AcDbEntity
  8
0
  6
Continuous
 62
     2
370
    13
100
AcDbLine
 10
1911.258544546047
 20
149.1086559019755
 30
0.0
 11
1911.258544546047
 21
-2.207734739092984
 31
0.0
  0
LINE
  5
201
330
F7
100
AcDbEntity
  8
0
  6
Continuous
 62
     2
370
    13
100
AcDbLine
 10
1787.280743810169
 20
12.79226526090703
 30
0.0
 11
1901.258543810168
 21
12.79226526090702
 31
0.0
  0
INSERT
  5
202
330
F7
100
AcDbEntity
  8
0
 62
     2
100
AcDbBlockReference
  2
_OPEN30
 10
1901.258543810168
 20
12.79226526090702
 30
0.0
 41
45.00004211422929
 42
44.99984052335464
 50
360.0
  0
MTEXT
  5
203
330
F7
100
AcDbEntity
  8
0
 62
     2
100
AcDbMText
 10
1862.280743810169
 20
22.79226526090702
 30
0.0
 40
60.0
 41
150.0
 46
0.0
 71
     9
 72
     1
  1
\T1.00;10
  7
dcStyle0
 73
     1
 44
1.0
  0
ENDBLK
  5
F9
330
F7
100
AcDbEntity
  8
0
100
AcDbBlockEnd
  0
BLOCK
  5
FB
330
FA
100
AcDbEntity
  8
0
100
AcDbBlockBegin
  2
*D25
 70
     1
 10
0.0
 20
0.0
 30
0.0
  3
*D25
  1
*D25
  0
LINE
  5
204
330
FA
100
AcDbEntity
  8
0
  6
Continuous
 62
     2
370
    13
100
AcDbLine
 10
1911.258544546047
 20
12.79226526090702
 30
0.0
 11
2021.258544546047
 21
12.79226526090702
 31
0.0
  0
INSERT
  5
205
330
FA
100
AcDbEntity
  8
0
 62
     2
100
AcDbBlockReference
  2
_OPEN30
 10
1911.258544546047
 20
12.79226526090702
 30
0.0
 41
45.00004211422929
 42
44.99984052335464
 50
180.0
  0
INSERT
  5
206
330
FA
100
AcDbEntity
  8
0
 62
     2
100
AcDbBlockReference
  2
_OPEN30
 10
2021.258544546047
 20
12.79226526090702
 30
0.0
 41
45.00004211422929
 42
44.99984052335464
 50
360.0
  0
LINE
  5
207
330
FA
100
AcDbEntity
  8
0
  6
Continuous
 62
     2
370
    13
100
AcDbLine
 10
1911.258544546047
 20
149.1086559019755
 30
0.0
 11
1911.258544546047
 21
-2.207734739092984
 31
0.0
  0
LINE
  5
208
330
FA
100
AcDbEntity
  8
0
  6
Continuous
 62
     2
370
    13
100
AcDbLine
 10
2021.258544546047
 20
149.1086559019755
 30
0.0
 11
2021.258544546047
 21
-2.207734739092984
 31
0.0
  0
MTEXT
  5
209
330
FA
100
AcDbEntity
  8
0
 62
     2
100
AcDbMText
 10
1966.258544546047
 20
22.79226526090702
 30
0.0
 40
60.0
 41
187.5
 46
0.0
 71
     8
 72
     1
  1
\T1.00;110
  7
dcStyle0
 73
     1
 44
1.0
  0
ENDBLK
  5
FC
330
FA
100
AcDbEntity
  8
0
100
AcDbBlockEnd
  0
BLOCK
  5
FE
330
FD
100
AcDbEntity
  8
0
100
AcDbBlockBegin
  2
DC_GROUP_W_MEM-C_ARG_090_1_20
 70
     0
 10
0.0
 20
0.0
 30
0.0
  3
DC_GROUP_W_MEM-C_ARG_090_1_20
  1
DC_GROUP_W_MEM-C_ARG_090_1_20
  0
LINE
  5
20A
330
FD
100
AcDbEntity
  8
8
  6
Continuous
 62
     3
370
    13
100
AcDbLine
 10
1913.758544546047
 20
1019.508655876829
 30
0.0
 11
1913.758544546047
 21
1020.708655876829
 31
0.0
  0
LINE
  5
20B
330
FD
100
AcDbEntity
  8
8
  6
Continuous
 62
     3
370
    13
100
AcDbLine
 10
1913.758544546047
 20
1020.708655876829
 30
0.0
 11
2018.758544546048
 21
1020.708655876829
 31
0.0
  0
LINE
  5
20C
330
FD
100
AcDbEntity
  8
8
  6
Continuous
 62
     3
370
    13
100
AcDbLine
 10
2018.758544546048
 20
1020.708655876829
 30
0.0
 11
2018.758544546047
 21
1019.508655876829
 31
0.0
  0
LINE
  5
20D
330
FD
100
AcDbEntity
  8
8
  6
Continuous
 62
     3
370
    13
100
AcDbLine
 10
2018.758544546047
 20
1019.508655876829
 30
0.0
 11
1913.758544546047
 21
1019.508655876829
 31
0.0
  0
LINE
  5
20E
330
FD
100
AcDbEntity
  8
8
  6
CENTERX2
 62
     3
370
    13
100
AcDbLine
 10
1920.258544546047
 20
1013.44277458557
 30
0.0
 11
1920.258544546047
 21
1025.916731920431
 31
0.0
  0
LINE
  5
20F
330
FD
100
AcDbEntity
  8
8
  6
CENTERX2
 62
     3
370
    13
100
AcDbLine
 10
2012.258544546047
 20
1013.44277458557
 30
0.0
 11
2012.258544546047
 21
1025.916731920431
 31
0.0
  0
ENDBLK
  5
FF
330
FD
100
AcDbEntity
  8
0
100
AcDbBlockEnd
  0
BLOCK
  5
101
330
100
100
AcDbEntity
  8
0
100
AcDbBlockBegin
  2
*D27
 70
     1
 10
0.0
 20
0.0
 30
0.0
  3
*D27
  1
*D27
  0
LINE
  5
210
330
100
100
AcDbEntity
  8
0
  6
Continuous
 62
     2
370
    13
100
AcDbLine
 10
1643.744773102489
 20
159.5086558768287
 30
0.0
 11
1643.744773102489
 21
199.5086565495197
 31
0.0
  0
LINE
  5
211
330
100
100
AcDbEntity
  8
0
  6
Continuous
 62
     2
370
    13
100
AcDbLine
 10
1900.858544546046
 20
159.5086559005891
 30
0.0
 11
1628.744773102489
 21
159.5086558754425
 31
0.0
  0
LINE
  5
212
330
100
100
AcDbEntity
  8
0
  6
Continuous
 62
     2
370
    13
100
AcDbLine
 10
1883.358542984914
 20
199.5086565495196
 30
0.0
 11
1628.744773102489
 21
199.5086565495197
 31
0.0
  0
LINE
  5
213
330
100
100
AcDbEntity
  8
0
  6
Continuous
 62
     2
370
    13
100
AcDbLine
 10
1643.744773102489
 20
26.04195587682878
 30
0.0
 11
1643.744773102489
 21
159.5086558768287
 31
0.0
  0
INSERT
  5
214
330
100
100
AcDbEntity
  8
0
 62
     2
100
AcDbBlockReference
  2
_OPEN30
 10
1643.744773102489
 20
159.5086558768287
 30
0.0
 41
45.00004211422929
 42
44.99984052335464
 50
90.0
  0
MTEXT
  5
215
330
100
100
AcDbEntity
  8
0
 62
     2
100
AcDbMText
 10
1628.744773102489
 20
101.0419558768288
 30
0.0
 40
60.0
 41
150.0
 46
0.0
 71
     9
 72
     1
  1
\T1.00;40
  7
dcStyle0
 11
6.123233995736766E-17
 21
1.0
 31
0.0
 73
     1
 44
1.0
  0
ENDBLK
  5
102
330
100
100
AcDbEntity
  8
0
100
AcDbBlockEnd
  0
BLOCK
  5
104
330
103
100
AcDbEntity
  8
0
100
AcDbBlockBegin
  2
*D28
 70
     1
 10
0.0
 20
0.0
 30
0.0
  3
*D28
  1
*D28
  0
LINE
  5
216
330
103
100
AcDbEntity
  8
0
  6
Continuous
 62
     2
370
    13
100
AcDbLine
 10
1643.744773102489
 20
199.5086565495197
 30
0.0
 11
1643.744773102489
 21
233.0086565495197
 31
0.0
  0
INSERT
  5
21F
330
103
100
AcDbEntity
  8
0
 62
     2
100
AcDbBlockReference
  2
_DOT
 10
1643.744773102489
 20
199.5086565495197
 30
0.0
 41
37.5
 42
37.5
 50
270.0
  0
LINE
  5
220
330
103
100
AcDbEntity
  8
0
  6
Continuous
 62
     2
370
    13
100
AcDbLine
 10
1883.358542984914
 20
199.5086565495196
 30
0.0
 11
1628.744773102489
 21
199.5086565495197
 31
0.0
  0
LINE
  5
221
330
103
100
AcDbEntity
  8
0
  6
Continuous
 62
     2
370
    13
100
AcDbLine
 10
1878.758542984914
 20
233.0086565495196
 30
0.0
 11
1628.744773102489
 21
233.0086565495197
 31
0.0
  0
MTEXT
  5
222
330
103
100
AcDbEntity
  8
0
 62
     2
100
AcDbMText
 10
1628.744773102489
 20
216.2586565495196
 30
0.0
 40
60.0
 41
225.0
 46
0.0
 71
     8
 72
     1
  1
\T1.00;33.5
  7
dcStyle0
 11
6.123233995736766E-17
 21
1.0
 31
0.0
 73
     1
 44
1.0
  0
ENDBLK
  5
105
330
103
100
AcDbEntity
  8
0
100
AcDbBlockEnd
  0
BLOCK
  5
107
330
106
100
AcDbEntity
  8
0
100
AcDbBlockBegin
  2
*D29
 70
     1
 10
0.0
 20
0.0
 30
0.0
  3
*D29
  1
*D29
  0
LINE
  5
223
330
106
100
AcDbEntity
  8
0
  6
Continuous
 62
     2
370
    13
100
AcDbLine
 10
1643.744773102489
 20
233.0086565495197
 30
0.0
 11
1643.744773102489
 21
974.5086559963286
 31
0.0
  0
INSERT
  5
224
330
106
100
AcDbEntity
  8
0
 62
     2
100
AcDbBlockReference
  2
_OPEN30
 10
1643.744773102489
 20
233.0086565495197
 30
0.0
 41
45.00004211422929
 42
44.99984052335464
 50
270.0
  0
INSERT
  5
225
330
106
100
AcDbEntity
  8
0
 62
     2
100
AcDbBlockReference
  2
_OPEN30
 10
1643.744773102489
 20
974.5086559963286
 30
0.0
 41
45.00004211422929
 42
44.99984052335464
 50
90.0
  0
LINE
  5
226
330
106
100
AcDbEntity
  8
0
  6
Continuous
 62
     2
370
    13
100
AcDbLine
 10
1878.758542984914
 20
233.0086565495196
 30
0.0
 11
1628.744773102489
 21
233.0086565495197
 31
0.0
  0
LINE
  5
227
330
106
100
AcDbEntity
  8
0
  6
Continuous
 62
     2
370
    13
100
AcDbLine
 10
1885.490750266901
 20
974.5086559963286
 30
0.0
 11
1628.744773102489
 21
974.5086559963286
 31
0.0
  0
MTEXT
  5
228
330
106
100
AcDbEntity
  8
0
 62
     2
100
AcDbMText
 10
1628.744773102489
 20
603.7586562729241
 30
0.0
 40
60.0
 41
262.5
 46
0.0
 71
     8
 72
     1
  1
\T1.00;741.5
  7
dcStyle0
 11
6.123233995736766E-17
 21
1.0
 31
0.0
 73
     1
 44
1.0
  0
ENDBLK
  5
108
330
106
100
AcDbEntity
  8
0
100
AcDbBlockEnd
  0
BLOCK
  5
10A
330
109
100
AcDbEntity
  8
0
100
AcDbBlockBegin
  2
*D30
 70
     1
 10
0.0
 20
0.0
 30
0.0
  3
*D30
  1
*D30
  0
LINE
  5
229
330
109
100
AcDbEntity
  8
0
  6
Continuous
 62
     2
370
    13
100
AcDbLine
 10
1643.744773102489
 20
974.5086559963286
 30
0.0
 11
1643.744773102489
 21
979.5086559271219
 31
0.0
  0
LINE
  5
22A
330
109
100
AcDbEntity
  8
0
  6
Continuous
 62
     2
370
    13
100
AcDbLine
 10
1885.490750266901
 20
974.5086559963286
 30
0.0
 11
1628.744773102489
 21
974.5086559963286
 31
0.0
  0
LINE
  5
22B
330
109
100
AcDbEntity
  8
0
  6
Continuous
 62
     2
370
    13
100
AcDbLine
 10
1900.858538790453
 20
979.5086559271219
 30
0.0
 11
1628.744773102489
 21
979.5086559271219
 31
0.0
  0
MTEXT
  5
22C
330
109
100
AcDbEntity
  8
0
 62
     2
100
AcDbMText
 10
1628.744773102489
 20
977.0086559617253
 30
0.0
 40
60.0
 41
112.5
 46
0.0
 71
     8
 72
     1
  1
\T1.00;5
  7
dcStyle0
 11
6.123233995736766E-17
 21
1.0
 31
0.0
 73
     1
 44
1.0
  0
ENDBLK
  5
10B
330
109
100
AcDbEntity
  8
0
100
AcDbBlockEnd
  0
BLOCK
  5
10D
330
10C
100
AcDbEntity
  8
0
100
AcDbBlockBegin
  2
*D31
 70
     1
 10
0.0
 20
0.0
 30
0.0
  3
*D31
  1
*D31
  0
LINE
  5
22D
330
10C
100
AcDbEntity
  8
0
  6
Continuous
 62
     2
370
    13
100
AcDbLine
 10
1643.744773102489
 20
979.5086559271219
 30
0.0
 11
1643.744773102489
 21
1019.508655876829
 31
0.0
  0
INSERT
  5
22E
330
10C
100
AcDbEntity
  8
0
 62
     2
100
AcDbBlockReference
  2
_DOT
 10
1643.744773102489
 20
979.5086559271219
 30
0.0
 41
37.5
 42
37.5
 50
270.0
  0
LINE
  5
22F
330
10C
100
AcDbEntity
  8
0
  6
Continuous
 62
     2
370
    13
100
AcDbLine
 10
1900.858538790453
 20
979.5086559271219
 30
0.0
 11
1628.744773102489
 21
979.5086559271219
 31
0.0
  0
LINE
  5
230
330
10C
100
AcDbEntity
  8
0
  6
Continuous
 62
     2
370
    13
100
AcDbLine
 10
1900.858544546046
 20
1019.508655876829
 30
0.0
 11
1628.744773102489
 21
1019.508655876829
 31
0.0
  0
LINE
  5
231
330
10C
100
AcDbEntity
  8
0
  6
Continuous
 62
     2
370
    13
100
AcDbLine
 10
1643.744773102489
 20
1152.975355876829
 30
0.0
 11
1643.744773102489
 21
1019.508655876829
 31
0.0
  0
INSERT
  5
232
330
10C
100
AcDbEntity
  8
0
 62
     2
100
AcDbBlockReference
  2
_OPEN30
 10
1643.744773102489
 20
1019.508655876829
 30
0.0
 41
45.00004211422929
 42
44.99984052335464
 50
270.0
  0
MTEXT
  5
233
330
10C
100
AcDbEntity
  8
0
 62
     2
100
AcDbMText
 10
1628.744773102489
 20
1077.975355876829
 30
0.0
 40
60.0
 41
150.0
 46
0.0
 71
     7
 72
     1
  1
\T1.00;40
  7
dcStyle0
 11
6.123233995736766E-17
 21
1.0
 31
0.0
 73
     1
 44
1.0
  0
ENDBLK
  5
10E
330
10C
100
AcDbEntity
  8
0
100
AcDbBlockEnd
  0
BLOCK
  5
110
330
10F
100
AcDbEntity
  8
0
100
AcDbBlockBegin
  2
DC_GROUP_W_MEM-C_ARG_090_1_21
 70
     0
 10
0.0
 20
0.0
 30
0.0
  3
DC_GROUP_W_MEM-C_ARG_090_1_21
  1
DC_GROUP_W_MEM-C_ARG_090_1_21
  0
INSERT
  5
234
330
10F
100
AcDbEntity
  8
0
  6
Continuous
100
AcDbBlockReference
  2
DC_GROUP_W_MEM-C_ARG_090_1_22
 10
0.0
 20
0.0
 30
0.0
  0
INSERT
  5
235
330
10F
100
AcDbEntity
  8
0
  6
Continuous
100
AcDbBlockReference
  2
DC_GROUP_W_MEM-C_ARG_090_1_26
 10
0.0
 20
0.0
 30
0.0
  0
ENDBLK
  5
111
330
10F
100
AcDbEntity
  8
0
100
AcDbBlockEnd
  0
BLOCK
  5
113
330
112
100
AcDbEntity
  8
0
100
AcDbBlockBegin
  2
DC_GROUP_W_MEM-C_ARG_090_1_22
 70
     0
 10
0.0
 20
0.0
 30
0.0
  3
DC_GROUP_W_MEM-C_ARG_090_1_22
  1
DC_GROUP_W_MEM-C_ARG_090_1_22
  0
INSERT
  5
236
330
112
100
AcDbEntity
  8
2
  6
Continuous
100
AcDbBlockReference
  2
DC_GROUP_W_MEM-C_ARG_090_1_23
 10
0.0
 20
0.0
 30
0.0
  0
INSERT
  5
237
330
112
100
AcDbEntity
  8
0
  6
Continuous
100
AcDbBlockReference
  2
DC_GROUP_W_MEM-C_ARG_090_1_24
 10
0.0
 20
0.0
 30
0.0
  0
INSERT
  5
238
330
112
100
AcDbEntity
  8
9
  6
Continuous
100
AcDbBlockReference
  2
DC_GROUP_W_MEM-C_ARG_090_1_25
 10
0.0
 20
0.0
 30
0.0
  0
ENDBLK
  5
114
330
112
100
AcDbEntity
  8
0
100
AcDbBlockEnd
  0
BLOCK
  5
116
330
115
100
AcDbEntity
  8
0
100
AcDbBlockBegin
  2
DC_GROUP_W_MEM-C_ARG_090_1_23
 70
     0
 10
0.0
 20
0.0
 30
0.0
  3
DC_GROUP_W_MEM-C_ARG_090_1_23
  1
DC_GROUP_W_MEM-C_ARG_090_1_23
  0
LINE
  5
239
330
115
100
AcDbEntity
  8
2
  6
Continuous
 62
     7
370
    15
100
AcDbLine
 10
1948.198947324938
 20
234.3524209551358
 30
0.0
 11
1948.165353110548
 21
233.0086565495196
 31
0.0
  0
LINE
  5
23A
330
115
100
AcDbEntity
  8
2
  6
Continuous
 62
     7
370
    15
100
AcDbLine
 10
1901.563519488266
 20
233.5176855006937
 30
0.0
 11
1901.613504022158
 21
235.5170606518411
 31
0.0
  0
LINE
  5
23B
330
115
100
AcDbEntity
  8
2
  6
Continuous
 62
     7
370
    15
100
AcDbLine
 10
1901.258544229468
 20
235.5259346741964
 30
0.0
 11
1948.553907117543
 21
234.3435469327826
 31
0.0
  0
ARC
  5
23C
330
115
100
AcDbEntity
  8
2
  6
Continuous
 62
     7
370
    15
100
AcDbCircle
 10
1902.563206665173
 20
233.4926931319185
 30
0.0
 40
1.000000000000056
100
AcDbArc
 50
178.6231484555186
 51
208.9493711760141
  0
ENDBLK
  5
117
330
115
100
AcDbEntity
  8
0
100
AcDbBlockEnd
  0
BLOCK
  5
119
330
118
100
AcDbEntity
  8
0
100
AcDbBlockBegin
  2
DC_GROUP_W_MEM-C_ARG_090_1_24
 70
     0
 10
0.0
 20
0.0
 30
0.0
  3
DC_GROUP_W_MEM-C_ARG_090_1_24
  1
DC_GROUP_W_MEM-C_ARG_090_1_24
  0
LINE
  5
23D
330
118
100
AcDbEntity
  8
0
  6
PHANTOM
 62
    91
370
    13
100
AcDbLine
 10
1901.258552034828
 20
974.7571497442875
 30
0.0
 11
1901.798342334512
 21
974.743654944881
 31
0.0
  0
LINE
  5
23E
330
118
100
AcDbEntity
  8
0
  6
PHANTOM
 62
    91
370
    13
100
AcDbLine
 10
1901.258552034828
 20
974.7571497442875
 30
0.0
 11
1901.258552034826
 21
971.9562748755295
 31
0.0
  0
LINE
  5
23F
330
118
100
AcDbEntity
  8
0
  6
PHANTOM
 62
    91
370
    13
100
AcDbLine
 10
1985.492488014647
 20
972.6512948098559
 30
0.0
 11
1984.95269771496
 21
972.6647896091888
 31
0.0
  0
LINE
  5
240
330
118
100
AcDbEntity
  8
0
  6
PHANTOM
 62
    91
370
    13
100
AcDbLine
 10
1985.492488014647
 20
972.6512948098559
 30
0.0
 11
1985.352531310105
 21
969.8539188695693
 31
0.0
  0
LINE
  5
241
330
118
100
AcDbEntity
  8
0
  6
Continuous
 62
     7
370
    13
100
AcDbLine
 10
1901.258552034825
 20
969.9556499692642
 30
0.0
 11
1901.258552034723
 21
235.5262468833942
 31
0.0
  0
ARC
  5
242
330
118
100
AcDbEntity
  8
0
  6
Continuous
 62
     7
370
    13
100
AcDbCircle
 10
1902.268340444918
 20
969.9304051806728
 30
0.0
 40
1.010099999999993
100
AcDbArc
 50
168.5678993735855
 51
178.567899373559
  0
LINE
  5
243
330
118
100
AcDbEntity
  8
0
  6
Continuous
 62
     7
370
    13
100
AcDbLine
 10
1901.278280545127
 20
970.1306135841503
 30
0.0
 11
1902.229671829837
 21
974.8353829327314
 31
0.0
  0
LINE
  5
244
330
118
100
AcDbEntity
  8
0
  6
Continuous
 62
     7
370
    13
100
AcDbLine
 10
1948.553914922717
 20
234.3438591387701
 30
0.0
 11
1985.252562235424
 21
967.8557931979265
 31
0.0
  0
ARC
  5
245
330
118
100
AcDbEntity
  8
0
  6
Continuous
 62
     7
370
    13
100
AcDbCircle
 10
1984.242773825339
 20
967.8810379865206
 30
0.0
 40
1.010099999999993
100
AcDbArc
 50
358.5678993735589
 51
8.567899373532422
  0
LINE
  5
246
330
118
100
AcDbEntity
  8
0
  6
Continuous
 62
     7
370
    13
100
AcDbLine
 10
1985.241601114161
 20
968.0315240559828
 30
0.0
 11
1984.526490596971
 21
972.7779560789002
 31
0.0
  0
LINE
  5
247
330
118
100
AcDbEntity
  8
0
  6
Continuous
 62
     7
370
    13
100
AcDbLine
 10
1984.526490596968
 20
972.7779560788993
 30
0.0
 11
1902.229671829837
 21
974.8353829327323
 31
0.0
  0
LINE
  5
248
330
118
100
AcDbEntity
  8
0
  6
CENTERX2
 62
     3
370
    13
100
AcDbLine
 10
1923.731481227033
 20
187.9451087738514
 30
0.0
 11
1943.839618276079
 21
992.2682259655783
 31
0.0
  0
ENDBLK
  5
11A
330
118
100
AcDbEntity
  8
0
100
AcDbBlockEnd
  0
BLOCK
  5
11C
330
11B
100
AcDbEntity
  8
0
100
AcDbBlockBegin
  2
DC_GROUP_W_MEM-C_ARG_090_1_25
 70
     0
 10
0.0
 20
0.0
 30
0.0
  3
DC_GROUP_W_MEM-C_ARG_090_1_25
  1
DC_GROUP_W_MEM-C_ARG_090_1_25
  0
LINE
  5
249
330
11B
100
AcDbEntity
  8
9
  6
Continuous
 62
     7
370
    13
100
AcDbLine
 10
1952.436930775502
 20
976.048293151274
 30
0.0
 11
1952.486915312839
 21
978.0476684402145
 31
0.0
  0
LINE
  5
24A
330
11B
100
AcDbEntity
  8
9
  6
Continuous
 62
     7
370
    13
100
AcDbLine
 10
1934.442553175034
 20
976.4981539873049
 30
0.0
 11
1934.492537712371
 21
978.4975292762444
 31
0.0
  0
ARC
  5
24B
330
11B
100
AcDbEntity
  8
9
  6
Continuous
 62
     7
370
    13
100
AcDbCircle
 10
1954.616249778401
 20
975.1935600446275
 30
0.0
 40
0.8000000000001816
100
AcDbArc
 50
358.5678993735589
 51
88.56789937355894
  0
ARC
  5
24C
330
11B
100
AcDbEntity
  8
9
  6
Continuous
 62
     7
370
    13
100
AcDbCircle
 10
1955.615937422871
 20
975.1685677759594
 30
0.0
 40
0.199999999999818
100
AcDbArc
 50
178.567899373559
 51
268.5678993735589
  0
ARC
  5
24D
330
11B
100
AcDbEntity
  8
9
  6
Continuous
 62
     7
370
    13
100
AcDbCircle
 10
1931.223558897794
 20
975.7783791314666
 30
0.0
 40
0.2000000000002728
100
AcDbArc
 50
268.5678993735589
 51
358.5678993735589
  0
ARC
  5
24E
330
11B
100
AcDbEntity
  8
9
  6
Continuous
 62
     7
370
    13
100
AcDbCircle
 10
1932.223246542264
 20
975.7533868627986
 30
0.0
 40
0.7999999999997268
100
AcDbArc
 50
88.56789937355896
 51
178.567899373559
  0
LINE
  5
24F
330
11B
100
AcDbEntity
  8
9
  6
Continuous
 62
     7
370
    13
100
AcDbLine
 10
1932.243240357199
 20
976.5531369783746
 30
0.0
 11
1954.636243593335
 21
975.9933101602044
 31
0.0
  0
LINE
  5
250
330
11B
100
AcDbEntity
  8
9
  6
Continuous
 62
     7
370
    13
100
AcDbLine
 10
1925.970200310591
 20
975.7096510130812
 30
0.0
 11
1960.859299102608
 21
974.8374208365565
 31
0.0
  0
ARC
  5
251
330
11B
100
AcDbEntity
  8
9
  6
Continuous
 62
     7
370
    13
100
AcDbCircle
 10
1925.943958428488
 20
974.6599789863874
 30
0.0
 40
1.050000000000011
100
AcDbArc
 50
88.56789937355899
 51
201.986890207506
  0
ARC
  5
252
330
11B
100
AcDbEntity
  8
9
  6
Continuous
 62
     7
370
    13
100
AcDbCircle
 10
1960.833057220507
 20
973.7877488098627
 30
0.0
 40
1.050000000000011
100
AcDbArc
 50
335.1489085396144
 51
88.567899373559
  0
ENDBLK
  5
11D
330
11B
100
AcDbEntity
  8
0
100
AcDbBlockEnd
  0
BLOCK
  5
11F
330
11E
100
AcDbEntity
  8
0
100
AcDbBlockBegin
  2
DC_GROUP_W_MEM-C_ARG_090_1_26
 70
     0
 10
0.0
 20
0.0
 30
0.0
  3
DC_GROUP_W_MEM-C_ARG_090_1_26
  1
DC_GROUP_W_MEM-C_ARG_090_1_26
  0
LINE
  5
253
330
11E
100
AcDbEntity
  8
0
  6
Continuous
 62
     7
370
    13
100
AcDbLine
 10
1953.01028289532
 20
979.0348968518754
 30
0.0
 11
1952.985290637581
 21
978.0352092071314
 31
0.0
  0
LINE
  5
254
330
11E
100
AcDbEntity
  8
0
  6
Continuous
 62
     7
370
    13
100
AcDbLine
 10
1933.991225387452
 20
978.510062104159
 30
0.0
 11
1934.01621764519
 21
979.509749748903
 31
0.0
  0
LINE
  5
255
330
11E
100
AcDbEntity
  8
0
  6
Continuous
 62
     7
370
    13
100
AcDbLine
 10
1933.991225387452
 20
978.510062104159
 30
0.0
 11
1952.985290637581
 21
978.0352092071314
 31
0.0
  0
LINE
  5
256
330
11E
100
AcDbEntity
  8
0
  6
Continuous
 62
     7
370
    13
100
AcDbLine
 10
1934.01621764519
 20
979.509749748903
 30
0.0
 11
1953.01028289532
 21
979.0348968518754
 31
0.0
  0
ENDBLK
  5
120
330
11E
100
AcDbEntity
  8
0
100
AcDbBlockEnd
  0
BLOCK
  5
122
330
121
100
AcDbEntity
  8
0
100
AcDbBlockBegin
  2
DC_GROUP_W_MEM-C_ARG_090_1_27
 70
     0
 10
0.0
 20
0.0
 30
0.0
  3
DC_GROUP_W_MEM-C_ARG_090_1_27
  1
DC_GROUP_W_MEM-C_ARG_090_1_27
  0
INSERT
  5
257
330
121
100
AcDbEntity
  8
0
  6
Continuous
100
AcDbBlockReference
  2
DC_GROUP_W_MEM-C_ARG_090_1_28
 10
0.0
 20
0.0
 30
0.0
  0
ENDBLK
  5
123
330
121
100
AcDbEntity
  8
0
100
AcDbBlockEnd
  0
BLOCK
  5
125
330
124
100
AcDbEntity
  8
0
100
AcDbBlockBegin
  2
DC_GROUP_W_MEM-C_ARG_090_1_28
 70
     0
 10
0.0
 20
0.0
 30
0.0
  3
DC_GROUP_W_MEM-C_ARG_090_1_28
  1
DC_GROUP_W_MEM-C_ARG_090_1_28
  0
LINE
  5
258
330
124
100
AcDbEntity
  8
0
  6
Continuous
 62
     2
370
    13
100
AcDbLine
 10
1833.083910467776
 20
449.8736136844179
 30
0.0
 11
1876.385180657
 21
374.8736136844177
 31
0.0
  0
LINE
  5
259
330
124
100
AcDbEntity
  8
0
  6
Continuous
 62
     2
370
    13
100
AcDbLine
 10
1876.385180657
 20
374.8736136844177
 30
0.0
 11
1789.782640278555
 21
374.8736136844177
 31
0.0
  0
LINE
  5
25A
330
124
100
AcDbEntity
  8
0
  6
Continuous
 62
     2
370
    13
100
AcDbLine
 10
1789.782640278555
 20
374.8736136844177
 30
0.0
 11
1833.083910467776
 21
449.8736136844179
 31
0.0
  0
TEXT
  5
25B
330
124
100
AcDbEntity
  8
0
 62
     2
100
AcDbText
 10
1821.833910467776
 20
380.4986136844177
 30
0.0
 40
37.5
  1
1
 41
1.145454545454546
  7
dcStyle1
 72
     5
 11
1844.333910467776
 21
380.4986136844177
 31
0.0
100
AcDbText
  0
ENDBLK
  5
126
330
124
100
AcDbEntity
  8
0
100
AcDbBlockEnd
  0
BLOCK
  5
128
330
127
100
AcDbEntity
  8
0
100
AcDbBlockBegin
  2
DC_GROUP_W_MEM-C_ARG_090_1_29
 70
     0
 10
0.0
 20
0.0
 30
0.0
  3
DC_GROUP_W_MEM-C_ARG_090_1_29
  1
DC_GROUP_W_MEM-C_ARG_090_1_29
  0
LINE
  5
25C
330
127
100
AcDbEntity
  8
8
  6
Continuous
 62
     7
370
    13
100
AcDbLine
 10
1896.058542984914
 20
231.4086565495197
 30
0.0
 11
1893.758542984914
 21
231.4086565495197
 31
0.0
  0
LINE
  5
25D
330
127
100
AcDbEntity
  8
8
  6
Continuous
 62
     7
370
    13
100
AcDbLine
 10
1893.758542984914
 20
231.4086565495197
 30
0.0
 11
1893.758542984914
 21
201.8086565495196
 31
0.0
  0
LINE
  5
25E
330
127
100
AcDbEntity
  8
8
  6
Continuous
 62
     7
370
    13
100
AcDbLine
 10
1898.358542984913
 20
197.2086565495197
 30
0.0
 11
1911.258542984914
 21
197.2086565495197
 31
0.0
  0
LINE
  5
25F
330
127
100
AcDbEntity
  8
8
  6
Continuous
 62
     7
370
    13
100
AcDbLine
 10
1911.258542984914
 20
197.2086565495197
 30
0.0
 11
1911.258542984914
 21
199.5086565495196
 31
0.0
  0
LINE
  5
260
330
127
100
AcDbEntity
  8
8
  6
Continuous
 62
     7
370
    13
100
AcDbLine
 10
1898.358542984913
 20
199.5086565495196
 30
0.0
 11
1911.258542984914
 21
199.5086565495196
 31
0.0
  0
LINE
  5
261
330
127
100
AcDbEntity
  8
8
  6
Continuous
 62
     7
370
    13
100
AcDbLine
 10
1896.058542984914
 20
231.4086565495197
 30
0.0
 11
1896.058542984914
 21
201.8086565495196
 31
0.0
  0
ARC
  5
262
330
127
100
AcDbEntity
  8
8
  6
Continuous
 62
     7
370
    13
100
AcDbCircle
 10
1898.358542984913
 20
201.8086565495196
 30
0.0
 40
2.3
100
AcDbArc
 50
180.0
 51
270.0
  0
ARC
  5
263
330
127
100
AcDbEntity
  8
8
  6
Continuous
 62
     7
370
    13
100
AcDbCircle
 10
1898.358542984913
 20
201.8086565495196
 30
0.0
 40
4.6
100
AcDbArc
 50
180.0
 51
270.0
  0
LINE
  5
264
330
127
100
AcDbEntity
  8
8
  6
Continuous
 62
     7
370
    13
100
AcDbLine
 10
1949.758542984914
 20
199.5086565495196
 30
0.0
 11
1911.258542984914
 21
199.5086565495196
 31
0.0
  0
LINE
  5
265
330
127
100
AcDbEntity
  8
8
  6
Continuous
 62
     7
370
    13
100
AcDbLine
 10
1951.758542984914
 20
231.4086565495197
 30
0.0
 11
1951.758542984914
 21
201.5086565495196
 31
0.0
  0
ARC
  5
266
330
127
100
AcDbEntity
  8
8
  6
Continuous
 62
     7
370
    13
100
AcDbCircle
 10
1949.758542984914
 20
201.5086565495196
 30
0.0
 40
2.0
100
AcDbArc
 50
270.0
 51
0.0
  0
ARC
  5
267
330
127
100
AcDbEntity
  8
8
  6
Continuous
 62
     7
370
    13
100
AcDbCircle
 10
1901.058542984914
 20
204.5086565495196
 30
0.0
 40
5.0
100
AcDbArc
 50
180.0
 51
270.0
  0
ARC
  5
268
330
127
100
AcDbEntity
  8
8
  6
Continuous
 62
     7
370
    13
100
AcDbCircle
 10
1901.058542984914
 20
226.4086565495197
 30
0.0
 40
5.0
100
AcDbArc
 50
90.0
 51
180.0
  0
INSERT
  5
269
330
127
100
AcDbEntity
  8
8
  6
Continuous
100
AcDbBlockReference
  2
DC_GROUP_W_MEM-C_ARG_090_1_30
 10
0.0
 20
0.0
 30
0.0
  0
ENDBLK
  5
129
330
127
100
AcDbEntity
  8
0
100
AcDbBlockEnd
  0
BLOCK
  5
12B
330
12A
100
AcDbEntity
  8
0
100
AcDbBlockBegin
  2
DC_GROUP_W_MEM-C_ARG_090_1_30
 70
     0
 10
0.0
 20
0.0
 30
0.0
  3
DC_GROUP_W_MEM-C_ARG_090_1_30
  1
DC_GROUP_W_MEM-C_ARG_090_1_30
  0
LINE
  5
26A
330
12A
100
AcDbEntity
  8
8
  6
Continuous
 62
     7
370
    13
100
AcDbLine
 10
1951.758542984914
 20
231.4086565495197
 30
0.0
 11
1893.758542984914
 21
231.4086565495197
 31
0.0
  0
LINE
  5
26B
330
12A
100
AcDbEntity
  8
8
  6
Continuous
 62
     7
370
    13
100
AcDbLine
 10
1893.758542984914
 20
233.0086565495196
 30
0.0
 11
1951.758542984914
 21
233.0086565495196
 31
0.0
  0
LINE
  5
26C
330
12A
100
AcDbEntity
  8
8
  6
Continuous
 62
     7
370
    13
100
AcDbLine
 10
1951.758542984914
 20
233.0086565495196
 30
0.0
 11
1951.758542984914
 21
231.4086565495197
 31
0.0
  0
LINE
  5
26D
330
12A
100
AcDbEntity
  8
8
  6
Continuous
 62
     7
370
    13
100
AcDbLine
 10
1893.758542984914
 20
231.4086565495197
 30
0.0
 11
1893.758542984914
 21
233.0086565495196
 31
0.0
  0
ENDBLK
  5
12C
330
12A
100
AcDbEntity
  8
0
100
AcDbBlockEnd
  0
BLOCK
  5
12E
330
12D
100
AcDbEntity
  8
0
100
AcDbBlockBegin
  2
DC_GROUP_W_MEM-C_ARG_090_1_31
 70
     0
 10
0.0
 20
0.0
 30
0.0
  3
DC_GROUP_W_MEM-C_ARG_090_1_31
  1
DC_GROUP_W_MEM-C_ARG_090_1_31
  0
LINE
  5
26E
330
12D
100
AcDbEntity
  8
0
  6
Continuous
 62
     7
370
    13
100
AcDbLine
 10
1916.058544546049
 20
197.2513915008145
 30
0.0
 11
2015.458544546049
 21
197.2513915008145
 31
0.0
  0
LINE
  5
26F
330
12D
100
AcDbEntity
  8
0
  6
Continuous
 62
     7
370
    13
100
AcDbLine
 10
1914.058544546049
 20
195.2513915008145
 30
0.0
 11
1914.058544546049
 21
164.3513915008144
 31
0.0
  0
LINE
  5
270
330
12D
100
AcDbEntity
  8
0
  6
Continuous
 62
     7
370
    13
100
AcDbLine
 10
2018.458544546049
 20
195.2513915008145
 30
0.0
 11
2018.458544546049
 21
164.3513915008144
 31
0.0
  0
LINE
  5
271
330
12D
100
AcDbEntity
  8
0
  6
Continuous
 62
     7
370
    13
100
AcDbLine
 10
2016.458544546049
 20
162.3513915008144
 30
0.0
 11
2005.258544546049
 21
162.3513915008144
 31
0.0
  0
LINE
  5
272
330
12D
100
AcDbEntity
  8
0
  6
Continuous
 62
     7
370
    13
100
AcDbLine
 10
1916.058544546049
 20
162.3513915008144
 30
0.0
 11
1927.258544546049
 21
162.3513915008144
 31
0.0
  0
LINE
  5
273
330
12D
100
AcDbEntity
  8
0
  6
Continuous
 62
     7
370
    13
100
AcDbLine
 10
1927.258544546049
 20
160.0513915008145
 30
0.0
 11
2005.258544546049
 21
160.0513915008145
 31
0.0
  0
ARC
  5
274
330
12D
100
AcDbEntity
  8
0
  6
Continuous
 62
     7
370
    13
100
AcDbCircle
 10
1916.058544546049
 20
195.2513915008145
 30
0.0
 40
2.0
100
AcDbArc
 50
90.0
 51
180.0
  0
ARC
  5
275
330
12D
100
AcDbEntity
  8
0
  6
Continuous
 62
     7
370
    13
100
AcDbCircle
 10
1916.058544546049
 20
164.3513915008144
 30
0.0
 40
2.0
100
AcDbArc
 50
180.0
 51
270.0
  0
ARC
  5
276
330
12D
100
AcDbEntity
  8
0
  6
Continuous
 62
     7
370
    13
100
AcDbCircle
 10
2016.458544546049
 20
164.3513915008144
 30
0.0
 40
2.0
100
AcDbArc
 50
270.0
 51
0.0
  0
ARC
  5
277
330
12D
100
AcDbEntity
  8
0
  6
Continuous
 62
     7
370
    13
100
AcDbCircle
 10
2016.458544546049
 20
195.2513915008145
 30
0.0
 40
2.0
100
AcDbArc
 50
0.0
 51
90.0
  0
LINE
  5
278
330
12D
100
AcDbEntity
  8
0
  6
Continuous
 62
     7
370
    13
100
AcDbLine
 10
1927.258544546049
 20
160.0513915008145
 30
0.0
 11
1927.258544546049
 21
162.3513915008144
 31
0.0
  0
LINE
  5
279
330
12D
100
AcDbEntity
  8
0
  6
Continuous
 62
     7
370
    13
100
AcDbLine
 10
2005.258544546049
 20
160.0513915008145
 30
0.0
 11
2005.258544546049
 21
162.3513915008144
 31
0.0
  0
ENDBLK
  5
12F
330
12D
100
AcDbEntity
  8
0
100
AcDbBlockEnd
  0
BLOCK
  5
131
330
130
100
AcDbEntity
  8
0
100
AcDbBlockBegin
  2
DC_GROUP_W_MEM-C_ARG_090_1_32
 70
     0
 10
0.0
 20
0.0
 30
0.0
  3
DC_GROUP_W_MEM-C_ARG_090_1_32
  1
DC_GROUP_W_MEM-C_ARG_090_1_32
  0
LINE
  5
27A
330
130
100
AcDbEntity
  8
0
  6
Continuous
 62
     7
370
    13
100
AcDbLine
 10
1916.058544546049
 20
981.7659202528429
 30
0.0
 11
2015.458544546049
 21
981.7659202528429
 31
0.0
  0
LINE
  5
27B
330
130
100
AcDbEntity
  8
0
  6
Continuous
 62
     7
370
    13
100
AcDbLine
 10
1914.058544546049
 20
983.7659202528429
 30
0.0
 11
1914.058544546049
 21
1014.665920252843
 31
0.0
  0
LINE
  5
27C
330
130
100
AcDbEntity
  8
0
  6
Continuous
 62
     7
370
    13
100
AcDbLine
 10
2018.458544546049
 20
983.7659202528429
 30
0.0
 11
2018.458544546049
 21
1014.665920252843
 31
0.0
  0
LINE
  5
27D
330
130
100
AcDbEntity
  8
0
  6
Continuous
 62
     7
370
    13
100
AcDbLine
 10
2016.458544546049
 20
1016.665920252843
 30
0.0
 11
2005.258544546049
 21
1016.665920252843
 31
0.0
  0
LINE
  5
27E
330
130
100
AcDbEntity
  8
0
  6
Continuous
 62
     7
370
    13
100
AcDbLine
 10
1916.058544546049
 20
1016.665920252843
 30
0.0
 11
1927.258544546049
 21
1016.665920252843
 31
0.0
  0
LINE
  5
27F
330
130
100
AcDbEntity
  8
0
  6
Continuous
 62
     7
370
    13
100
AcDbLine
 10
1927.258544546049
 20
1018.965920252843
 30
0.0
 11
2005.258544546049
 21
1018.965920252843
 31
0.0
  0
ARC
  5
280
330
130
100
AcDbEntity
  8
0
  6
Continuous
 62
     7
370
    13
100
AcDbCircle
 10
1916.058544546049
 20
983.7659202528429
 30
0.0
 40
2.0
100
AcDbArc
 50
180.0
 51
270.0
  0
ARC
  5
281
330
130
100
AcDbEntity
  8
0
  6
Continuous
 62
     7
370
    13
100
AcDbCircle
 10
1916.058544546049
 20
1014.665920252843
 30
0.0
 40
2.0
100
AcDbArc
 50
90.00000000000001
 51
180.0
  0
ARC
  5
282
330
130
100
AcDbEntity
  8
0
  6
Continuous
 62
     7
370
    13
100
AcDbCircle
 10
2016.458544546049
 20
1014.665920252843
 30
0.0
 40
2.0
100
AcDbArc
 50
0.0
 51
90.00000000000001
  0
ARC
  5
283
330
130
100
AcDbEntity
  8
0
  6
Continuous
 62
     7
370
    13
100
AcDbCircle
 10
2016.458544546049
 20
983.7659202528429
 30
0.0
 40
2.0
100
AcDbArc
 50
270.0
 51
0.0
  0
LINE
  5
284
330
130
100
AcDbEntity
  8
0
  6
Continuous
 62
     7
370
    13
100
AcDbLine
 10
1927.258544546049
 20
1018.965920252843
 30
0.0
 11
1927.258544546049
 21
1016.665920252843
 31
0.0
  0
LINE
  5
285
330
130
100
AcDbEntity
  8
0
  6
Continuous
 62
     7
370
    13
100
AcDbLine
 10
2005.258544546049
 20
1018.965920252843
 30
0.0
 11
2005.258544546049
 21
1016.665920252843
 31
0.0
  0
ENDBLK
  5
132
330
130
100
AcDbEntity
  8
0
100
AcDbBlockEnd
  0
BLOCK
  5
134
330
133
100
AcDbEntity
  8
0
100
AcDbBlockBegin
  2
*D44
 70
     1
 10
0.0
 20
0.0
 30
0.0
  3
*D44
  1
*D44
  0
LINE
  5
286
330
133
100
AcDbEntity
  8
0
  6
Continuous
 62
     2
370
    13
100
AcDbLine
 10
1452.187975525313
 20
159.5086559019753
 30
0.0
 11
1452.187975525313
 21
1019.508655876829
 31
0.0
  0
INSERT
  5
287
330
133
100
AcDbEntity
  8
0
 62
     2
100
AcDbBlockReference
  2
_OPEN30
 10
1452.187975525313
 20
159.5086559019753
 30
0.0
 41
45.00004211422929
 42
44.99984052335464
 50
270.0
  0
INSERT
  5
288
330
133
100
AcDbEntity
  8
0
 62
     2
100
AcDbBlockReference
  2
_OPEN30
 10
1452.187975525313
 20
1019.508655876829
 30
0.0
 41
45.00004211422929
 42
44.99984052335464
 50
90.0
  0
LINE
  5
289
330
133
100
AcDbEntity
  8
0
  6
Continuous
 62
     2
370
    13
100
AcDbLine
 10
1900.858544546046
 20
159.5086559019753
 30
0.0
 11
1437.187975525313
 21
159.5086559019753
 31
0.0
  0
LINE
  5
28A
330
133
100
AcDbEntity
  8
0
  6
Continuous
 62
     2
370
    13
100
AcDbLine
 10
1900.858544546046
 20
1019.508655876829
 30
0.0
 11
1437.187975525313
 21
1019.508655876829
 31
0.0
  0
MTEXT
  5
28B
330
133
100
AcDbEntity
  8
0
 62
     2
100
AcDbMText
 10
1437.187975525313
 20
589.508655889402
 30
0.0
 40
60.0
 41
187.5
 46
0.0
 71
     8
 72
     1
  1
\T1.00;860
  7
dcStyle0
 11
6.123233995736766E-17
 21
1.0
 31
0.0
 73
     1
 44
1.0
  0
ENDBLK
  5
135
330
133
100
AcDbEntity
  8
0
100
AcDbBlockEnd
  0
BLOCK
  5
165
330
164
100
AcDbEntity
  8
0
100
AcDbBlockBegin
  2
_OPEN30
 70
     0
 10
0.0
 20
0.0
 30
0.0
  3
_OPEN30
  1
_OPEN30
  0
LINE
  5
167
330
164
100
AcDbEntity
  8
0
  6
ByBlock
 62
     0
370
    -2
100
AcDbLine
 10
-1.0
 20
0.267949
 30
0.0
 11
0.0
 21
0.0
 31
0.0
  0
LINE
  5
168
330
164
100
AcDbEntity
  8
0
  6
ByBlock
 62
     0
370
    -2
100
AcDbLine
 10
0.0
 20
0.0
 30
0.0
 11
-1.0
 21
-0.267949
 31
0.0
  0
LINE
  5
169
330
164
100
AcDbEntity
  8
0
  6
ByBlock
 62
     0
370
    -2
100
AcDbLine
 10
0.0
 20
0.0
 30
0.0
 11
-1.0
 21
0.0
 31
0.0
  0
ENDBLK
  5
166
330
164
100
AcDbEntity
  8
0
100
AcDbBlockEnd
  0
BLOCK
  5
218
330
217
100
AcDbEntity
  8
0
100
AcDbBlockBegin
  2
_DOT
 70
     0
 10
0.0
 20
0.0
 30
0.0
  3
_DOT
  1
_DOT
  0
POLYLINE
  5
21A
330
217
100
AcDbEntity
  8
0
  6
ByBlock
 62
     0
100
AcDb2dPolyline
 66
     1
 10
0.0
 20
0.0
 30
0.0
 70
     1
 40
0.5
 41
0.5
  0
VERTEX
  5
21C
330
21A
100
AcDbEntity
  8
0
  6
ByBlock
 62
     0
100
AcDbVertex
100
AcDb2dVertex
 10
-0.25
 20
0.0
 30
0.0
 42
1.0
  0
VERTEX
  5
21D
330
21A
100
AcDbEntity
  8
0
  6
ByBlock
 62
     0
100
AcDbVertex
100
AcDb2dVertex
 10
0.25
 20
0.0
 30
0.0
 42
1.0
  0
SEQEND
  5
21E
330
21A
100
AcDbEntity
  8
0
  6
ByBlock
 62
     0
  0
LINE
  5
21B
330
217
100
AcDbEntity
  8
0
  6
ByBlock
 62
     0
370
    -2
100
AcDbLine
 10
-0.5
 20
0.0
 30
0.0
 11
-1.0
 21
0.0
 31
0.0
  0
ENDBLK
  5
219
330
217
100
AcDbEntity
  8
0
100
AcDbBlockEnd
  0
ENDSEC
  0
SECTION
  2
ENTITIES
  0
INSERT
  5
28C
330
1F
100
AcDbEntity
  8
0
  6
Continuous
100
AcDbBlockReference
  2
DC_GROUP_W_MEM-C_ARG_090_1_1
 10
0.0
 20
0.0
 30
0.0
  0
INSERT
  5
28D
330
1F
100
AcDbEntity
  8
0
  6
Continuous
100
AcDbBlockReference
  2
DC_GROUP_W_MEM-C_ARG_090_1_2
 10
0.0
 20
0.0
 30
0.0
  0
DIMENSION
  5
28E
330
1F
100
AcDbEntity
  8
0
  6
Continuous
370
    13
100
AcDbDimension
280
     0
  2
*D5
 10
710.9210465502415
 20
159.5086558768289
 30
0.0
 11
419.4013536604704
 21
-205.5644246312045
 31
0.0
 70
   162
  1
60°
 71
     8
 42
-1.0
 73
     0
 74
     0
 75
     0
  3
dc_Ang01
100
AcDb2LineAngularDimension
 13
-77.16207089359636
 23
-255.491344123172
 33
0.0
 14
-42.52105474221889
 24
-275.491344123172
 34
0.0
 15
710.9210465502424
 25
199.5086558768298
 35
0.0
 16
419.4013536604708
 26
-205.5644246312043
 36
0.0
1001
ACAD
1000
DSTYLE
1002
{
1070
   144
1040
1.0
1070
   274
1070
     4
1070
    41
1040
45.00002861022949
1070
    79
1070
     2
1070
   343
1005
164
1070
   344
1005
164
1070
   176
1070
     2
1070
   177
1070
     2
1070
   178
1070
     2
1070
   271
1070
     1
1070
    44
1040
15.0000000000008
1070
    42
1040
15.0
1070
   147
1040
15.00000099999945
1070
   173
1070
     1
1070
    77
1070
     3
1070
    73
1070
     0
1070
   172
1070
     1
1070
    74
1070
     0
1070
   283
1070
     0
1070
   340
1005
136
1070
   140
1040
60.0
1070
   284
1070
     8
1070
   288
1070
     1
1070
    78
1070
     8
1070
    90
1070
     1
1002
}
  0
DIMENSION
  5
290
330
1F
100
AcDbEntity
  8
0
  6
Continuous
370
    13
100
AcDbDimension
280
     0
  2
*D6
 10
-1207.562995112105
 20
159.5086558768289
 30
0.0
 11
-1499.082688001877
 21
-205.5644246312044
 31
0.0
 70
   162
  1
60°
 71
     8
 42
-1.0
 73
     0
 74
     0
 75
     0
  3
dc_Ang01
100
AcDb2LineAngularDimension
 13
-1995.646112555944
 23
-255.4913441231702
 33
0.0
 14
-1961.005096404568
 24
-275.4913441231711
 34
0.0
 15
-1207.562995112105
 25
199.5086558768298
 35
0.0
 16
-1499.082688001877
 26
-205.5644246312043
 36
0.0
1001
ACAD
1000
DSTYLE
1002
{
1070
   144
1040
1.0
1070
   274
1070
     4
1070
    41
1040
45.00002861022949
1070
    79
1070
     2
1070
   343
1005
164
1070
   344
1005
164
1070
   176
1070
     2
1070
   177
1070
     2
1070
   178
1070
     2
1070
   271
1070
     1
1070
    44
1040
15.0000000000008
1070
    42
1040
15.0
1070
   147
1040
15.00000099999948
1070
   173
1070
     1
1070
    77
1070
     3
1070
    73
1070
     0
1070
   172
1070
     1
1070
    74
1070
     0
1070
   283
1070
     0
1070
   340
1005
136
1070
   140
1040
60.0
1070
   284
1070
     8
1070
   288
1070
     1
1070
    78
1070
     8
1070
    90
1070
     1
1002
}
  0
DIMENSION
  5
291
330
1F
100
AcDbEntity
  8
0
  6
Continuous
370
    13
100
AcDbDimension
280
     0
  2
*D7
 10
-1207.562995112105
 20
-710.4913441231711
 30
0.0
 11
-1359.698579500358
 21
-289.6498456337256
 31
0.0
 70
   164
  1
R910
 71
     8
 42
-1.0
 73
     0
 74
     0
 75
     0
  3
dc_Radial05
100
AcDbRadialDimension
 15
-1516.936343395078
 25
145.305437462378
 35
0.0
 40
0.0
1001
ACAD
1000
DSTYLE
1002
{
1070
   144
1040
1.0
1070
   274
1070
     4
1070
    41
1040
45.00002861022949
1070
   289
1070
     0
1070
    79
1070
     2
1070
   343
1005
164
1070
   344
1005
164
1070
   176
1070
     2
1070
   177
1070
     2
1070
   178
1070
     2
1070
   271
1070
     2
1070
    44
1040
15.0000000000008
1070
    42
1040
15.0
1070
   147
1040
14.99999999999996
1070
   173
1070
     1
1070
    77
1070
     3
1070
    73
1070
     0
1070
   172
1070
     1
1070
    74
1070
     0
1070
   283
1070
     0
1070
   340
1005
136
1070
   140
1040
60.0
1070
   284
1070
     8
1070
   288
1070
     1
1070
    78
1070
     8
1070
    90
1070
     1
1002
}
  0
DIMENSION
  5
293
330
1F
100
AcDbEntity
  8
0
  6
Continuous
370
    13
100
AcDbDimension
280
     0
  2
*D8
 10
710.9210465502424
 20
-710.4913441231711
 30
0.0
 11
597.4765873453083
 21
-391.0147844459087
 31
0.0
 70
   164
  1
R910
 71
     8
 42
-1.0
 73
     0
 74
     0
 75
     0
  3
dc_Radial05
100
AcDbRadialDimension
 15
406.4130602971873
 25
147.04867611385
 35
0.0
 40
0.0
1001
ACAD
1000
DSTYLE
1002
{
1070
   144
1040
1.0
1070
   274
1070
     4
1070
    41
1040
45.00002861022949
1070
   289
1070
     0
1070
    79
1070
     2
1070
   343
1005
164
1070
   344
1005
164
1070
   176
1070
     2
1070
   177
1070
     2
1070
   178
1070
     2
1070
   271
1070
     2
1070
    44
1040
15.0000000000008
1070
    42
1040
15.0
1070
   147
1040
15.00000000000003
1070
   173
1070
     1
1070
    77
1070
     3
1070
    73
1070
     0
1070
   172
1070
     1
1070
    74
1070
     0
1070
   283
1070
     0
1070
   340
1005
136
1070
   140
1040
60.0
1070
   284
1070
     8
1070
   288
1070
     1
1070
    78
1070
     8
1070
    90
1070
     1
1002
}
  0
INSERT
  5
294
330
1F
100
AcDbEntity
  8
0
  6
Continuous
100
AcDbBlockReference
  2
DC_GROUP_W_MEM-C_ARG_090_1_5
 10
0.0
 20
0.0
 30
0.0
  0
INSERT
  5
295
330
1F
100
AcDbEntity
  8
0
  6
Continuous
100
AcDbBlockReference
  2
DC_GROUP_W_MEM-C_ARG_090_1_9
 10
0.0
 20
0.0
 30
0.0
  0
INSERT
  5
296
330
1F
100
AcDbEntity
  8
0
  6
Continuous
100
AcDbBlockReference
  2
DC_GROUP_W_MEM-C_ARG_090_1_13
 10
0.0
 20
0.0
 30
0.0
  0
INSERT
  5
297
330
1F
100
AcDbEntity
  8
0
  6
Continuous
100
AcDbBlockReference
  2
DC_GROUP_W_MEM-C_ARG_090_1_15
 10
0.0
 20
0.0
 30
0.0
  0
DIMENSION
  5
298
330
1F
100
AcDbEntity
  8
0
  6
Continuous
370
    13
100
AcDbDimension
280
     0
  2
*D24
 10
1911.258544546047
 20
12.79226526090702
 30
0.0
 11
1832.280743810169
 21
12.79226526090702
 31
0.0
 70
   160
 71
     8
 42
-1.0
 73
     0
 74
     0
 75
     0
  3
dc_Rotated
100
AcDbAlignedDimension
 13
1901.258543810168
 23
240.5256222298033
 33
0.0
 14
1911.258544546047
 24
164.1086559019755
 34
0.0
100
AcDbRotatedDimension
1001
ACAD
1000
DSTYLE
1002
{
1070
   144
1040
1.0
1070
   274
1070
     4
1070
    41
1040
45.00002861022949
1070
    79
1070
     2
1070
   343
1005
164
1070
   344
1005
164
1070
   176
1070
     2
1070
   177
1070
     2
1070
   178
1070
     2
1070
   271
1070
     2
1070
    44
1040
15.0
1070
    42
1040
15.0
1070
   147
1040
10.0
1070
   173
1070
     1
1070
    77
1070
     3
1070
    73
1070
     0
1070
   172
1070
     1
1070
    74
1070
     0
1070
   283
1070
     0
1070
   340
1005
136
1070
   140
1040
60.0
1070
   284
1070
     8
1070
   288
1070
     1
1070
    78
1070
     8
1070
    90
1070
     1
1002
}
  0
DIMENSION
  5
29A
330
1F
100
AcDbEntity
  8
0
  6
Continuous
370
    13
100
AcDbDimension
280
     0
  2
*D25
 10
2021.258544546047
 20
12.79226526090702
 30
0.0
 11
1966.258544546047
 21
12.79226526090702
 31
0.0
 70
   160
 71
     8
 42
-1.0
 73
     0
 74
     0
 75
     0
  3
dc_Rotated
100
AcDbAlignedDimension
 13
1911.258544546047
 23
164.1086559019755
 33
0.0
 14
2021.258544546047
 24
164.1086559019755
 34
0.0
100
AcDbRotatedDimension
1001
ACAD
1000
DSTYLE
1002
{
1070
   144
1040
1.0
1070
   274
1070
     4
1070
    41
1040
45.00002861022949
1070
    79
1070
     2
1070
   343
1005
164
1070
   344
1005
164
1070
   176
1070
     2
1070
   177
1070
     2
1070
   178
1070
     2
1070
   271
1070
     2
1070
    44
1040
15.0
1070
    42
1040
15.0
1070
   147
1040
10.0
1070
   173
1070
     1
1070
    77
1070
     3
1070
    73
1070
     0
1070
   172
1070
     1
1070
    74
1070
     0
1070
   283
1070
     0
1070
   340
1005
136
1070
   140
1040
60.0
1070
   284
1070
     8
1070
   288
1070
     1
1070
    78
1070
     8
1070
    90
1070
     1
1002
}
  0
DIMENSION
  5
29B
330
1F
100
AcDbEntity
  8
0
  6
Continuous
370
    13
100
AcDbDimension
280
     0
  2
*D27
 10
1643.744773102489
 20
199.5086565495197
 30
0.0
 11
1643.744773102489
 21
71.04195587682877
 31
0.0
 70
   160
 71
     8
 42
-1.0
 73
     0
 74
     0
 75
     0
  3
dc_Rotated
100
AcDbAlignedDimension
 13
1915.858544546046
 23
159.5086559019753
 33
0.0
 14
1898.358542984914
 24
199.5086565495196
 34
0.0
 50
90.0
100
AcDbRotatedDimension
1001
ACAD
1000
DSTYLE
1002
{
1070
   144
1040
1.0
1070
   274
1070
     4
1070
    41
1040
45.00002861022949
1070
    79
1070
     2
1070
   343
1005
164
1070
   344
1005
164
1070
   176
1070
     2
1070
   177
1070
     2
1070
   178
1070
     2
1070
   271
1070
     2
1070
    44
1040
15.0
1070
    42
1040
15.0
1070
   147
1040
15.0
1070
   173
1070
     1
1070
    77
1070
     3
1070
    73
1070
     0
1070
   172
1070
     1
1070
    74
1070
     0
1070
   283
1070
     0
1070
   340
1005
136
1070
   140
1040
60.0
1070
   284
1070
     8
1070
   288
1070
     1
1070
    78
1070
     8
1070
    90
1070
     1
1002
}
  0
DIMENSION
  5
29C
330
1F
100
AcDbEntity
  8
0
  6
Continuous
370
    13
100
AcDbDimension
280
     0
  2
*D28
 10
1643.744773102489
 20
233.0086565495197
 30
0.0
 11
1643.744773102489
 21
216.2586565495196
 31
0.0
 70
   160
 71
     8
 42
-1.0
 73
     0
 74
     0
 75
     0
  3
dc_Rotated
100
AcDbAlignedDimension
 13
1898.358542984914
 23
199.5086565495196
 33
0.0
 14
1893.758542984914
 24
233.0086565495196
 34
0.0
 50
90.0
100
AcDbRotatedDimension
1001
ACAD
1000
DSTYLE
1002
{
1070
   144
1040
1.0
1070
   274
1070
     4
1070
    41
1040
37.5
1070
    79
1070
     2
1070
   343
1005
217
1070
   344
1005
217
1070
   176
1070
     2
1070
   177
1070
     2
1070
   178
1070
     2
1070
   271
1070
     2
1070
    44
1040
15.0
1070
    42
1040
15.0
1070
   147
1040
15.0
1070
   173
1070
     1
1070
    77
1070
     3
1070
    73
1070
     0
1070
   172
1070
     1
1070
    74
1070
     0
1070
   283
1070
     0
1070
   340
1005
136
1070
   140
1040
60.0
1070
   284
1070
     8
1070
   288
1070
     1
1070
    78
1070
     8
1070
    90
1070
     1
1002
}
  0
DIMENSION
  5
29D
330
1F
100
AcDbEntity
  8
0
  6
Continuous
370
    13
100
AcDbDimension
280
     0
  2
*D29
 10
1643.744773102489
 20
974.5086559963286
 30
0.0
 11
1643.744773102489
 21
603.7586562729241
 31
0.0
 70
   160
 71
     8
 42
-1.0
 73
     0
 74
     0
 75
     0
  3
dc_Rotated
100
AcDbAlignedDimension
 13
1893.758542984914
 23
233.0086565495196
 33
0.0
 14
1900.490750266901
 24
974.5086559963286
 34
0.0
 50
90.0
100
AcDbRotatedDimension
1001
ACAD
1000
DSTYLE
1002
{
1070
   144
1040
1.0
1070
   274
1070
     4
1070
    41
1040
45.00002861022949
1070
    79
1070
     2
1070
   343
1005
164
1070
   344
1005
164
1070
   176
1070
     2
1070
   177
1070
     2
1070
   178
1070
     2
1070
   271
1070
     2
1070
    44
1040
15.0
1070
    42
1040
15.0
1070
   147
1040
15.0
1070
   173
1070
     1
1070
    77
1070
     3
1070
    73
1070
     0
1070
   172
1070
     1
1070
    74
1070
     0
1070
   283
1070
     0
1070
   340
1005
136
1070
   140
1040
60.0
1070
   284
1070
     8
1070
   288
1070
     1
1070
    78
1070
     8
1070
    90
1070
     1
1002
}
  0
DIMENSION
  5
29E
330
1F
100
AcDbEntity
  8
0
  6
Continuous
370
    13
100
AcDbDimension
280
     0
  2
*D30
 10
1643.744773102489
 20
979.5086559271219
 30
0.0
 11
1643.744773102489
 21
977.0086559617253
 31
0.0
 70
   160
 71
     8
 42
-1.0
 73
     0
 74
     0
 75
     0
  3
dc_Rotated
100
AcDbAlignedDimension
 13
1900.490750266901
 23
974.5086559963286
 33
0.0
 14
1915.858538790453
 24
979.5086559271219
 34
0.0
 50
90.0
100
AcDbRotatedDimension
1001
ACAD
1000
DSTYLE
1002
{
1070
   144
1040
1.0
1070
   274
1070
     4
1070
    41
1040
45.00002861022949
1070
    79
1070
     2
1070
   343
1005
164
1070
   344
1005
164
1070
   176
1070
     2
1070
   177
1070
     2
1070
   178
1070
     2
1070
   271
1070
     2
1070
    44
1040
15.0
1070
    42
1040
15.0
1070
   147
1040
15.0
1070
   173
1070
     1
1070
    77
1070
     3
1070
    73
1070
     0
1070
   172
1070
     1
1070
    74
1070
     0
1070
   283
1070
     0
1070
   340
1005
136
1070
   140
1040
60.0
1070
   284
1070
     8
1070
   288
1070
     1
1070
    78
1070
     8
1070
    90
1070
     1
1002
}
  0
DIMENSION
  5
29F
330
1F
100
AcDbEntity
  8
0
  6
Continuous
370
    13
100
AcDbDimension
280
     0
  2
*D31
 10
1643.744773102489
 20
1019.508655876829
 30
0.0
 11
1643.744773102489
 21
1107.975355876829
 31
0.0
 70
   160
 71
     8
 42
-1.0
 73
     0
 74
     0
 75
     0
  3
dc_Rotated
100
AcDbAlignedDimension
 13
1915.858538790453
 23
979.5086559271219
 33
0.0
 14
1915.858544546046
 24
1019.508655876829
 34
0.0
 50
90.0
100
AcDbRotatedDimension
1001
ACAD
1000
DSTYLE
1002
{
1070
   144
1040
1.0
1070
   274
1070
     4
1070
    41
1040
37.5
1070
    79
1070
     2
1070
   343
1005
217
1070
   344
1005
217
1070
   176
1070
     2
1070
   177
1070
     2
1070
   178
1070
     2
1070
   271
1070
     2
1070
    44
1040
15.0
1070
    42
1040
15.0
1070
   147
1040
15.0
1070
   173
1070
     1
1070
    77
1070
     3
1070
    73
1070
     0
1070
   172
1070
     1
1070
    74
1070
     0
1070
   283
1070
     0
1070
   340
1005
136
1070
   140
1040
60.0
1070
   284
1070
     8
1070
   288
1070
     1
1070
    78
1070
     8
1070
    90
1070
     1
1002
}
  0
INSERT
  5
2A0
330
1F
100
AcDbEntity
  8
0
  6
Continuous
100
AcDbBlockReference
  2
DC_GROUP_W_MEM-C_ARG_090_1_21
 10
0.0
 20
0.0
 30
0.0
  0
INSERT
  5
2A1
330
1F
100
AcDbEntity
  8
0
  6
Continuous
100
AcDbBlockReference
  2
DC_GROUP_W_MEM-C_ARG_090_1_27
 10
0.0
 20
0.0
 30
0.0
  0
INSERT
  5
2A2
330
1F
100
AcDbEntity
  8
0
  6
Continuous
100
AcDbBlockReference
  2
DC_GROUP_W_MEM-C_ARG_090_1_31
 10
0.0
 20
0.0
 30
0.0
  0
INSERT
  5
2A3
330
1F
100
AcDbEntity
  8
0
  6
Continuous
100
AcDbBlockReference
  2
DC_GROUP_W_MEM-C_ARG_090_1_32
 10
0.0
 20
0.0
 30
0.0
  0
DIMENSION
  5
2A4
330
1F
100
AcDbEntity
  8
0
  6
Continuous
370
    13
100
AcDbDimension
280
     0
  2
*D44
 10
1452.187975525313
 20
1019.508655876829
 30
0.0
 11
1452.187975525313
 21
589.508655889402
 31
0.0
 70
   160
 71
     8
 42
-1.0
 73
     0
 74
     0
 75
     0
  3
dc_Rotated
100
AcDbAlignedDimension
 13
1915.858544546046
 23
159.5086559019753
 33
0.0
 14
1915.858544546046
 24
1019.508655876829
 34
0.0
 50
90.0
100
AcDbRotatedDimension
1001
ACAD
1000
DSTYLE
1002
{
1070
   144
1040
1.0
1070
   274
1070
     4
1070
    41
1040
45.00002861022949
1070
    79
1070
     2
1070
   343
1005
164
1070
   344
1005
164
1070
   176
1070
     2
1070
   177
1070
     2
1070
   178
1070
     2
1070
   271
1070
     2
1070
    44
1040
15.0
1070
    42
1040
15.0
1070
   147
1040
15.0
1070
   173
1070
     1
1070
    77
1070
     3
1070
    73
1070
     0
1070
   172
1070
     1
1070
    74
1070
     0
1070
   283
1070
     0
1070
   340
1005
136
1070
   140
1040
60.0
1070
   284
1070
     8
1070
   288
1070
     1
1070
    78
1070
     8
1070
    90
1070
     1
1002
}
  0
INSERT
  5
2A5
330
1F
100
AcDbEntity
  8
ZUWAKU
  6
Continuous
100
AcDbBlockReference
  2
DC_GROUP_W_MEM-C_ARG_090_1_3
 10
0.0
 20
0.0
 30
0.0
  0
INSERT
  5
2A6
330
1F
100
AcDbEntity
  8
ZUWAKU
  6
Continuous
100
AcDbBlockReference
  2
DC_GROUP_W_MEM-C_ARG_090_1_4
 10
0.0
 20
0.0
 30
0.0
  0
TEXT
  5
2A7
330
1F
100
AcDbEntity
  8
0
 62
     2
100
AcDbText
 10
795.0000000000002
 20
-1948.078850092832
 30
0.0
 40
60.0
  1
MEM-C
 41
0.4729729729729729
  7
dcStyle1
 72
     5
 11
945.0000000000002
 21
-1948.078850092832
 31
0.0
100
AcDbText
  0
TEXT
  5
2A8
330
1F
100
AcDbEntity
  8
0
 62
     2
100
AcDbText
 10
2400.0
 20
-1948.078850092832
 30
0.0
 40
60.0
  1
W_MEM-C_ARG_090_1
 41
0.5360360360360361
  7
dcStyle1
 72
     5
 11
2910.0
 21
-1948.078850092832
 31
0.0
100
AcDbText
  0
TEXT
  5
2A9
330
1F
100
AcDbEntity
  8
0
 62
     2
100
AcDbText
 10
-221.2499999999996
 20
-1948.078850092832
 30
0.0
 40
60.0
  1
1/15
 41
0.5316455696202531
  7
dcStyle1
 72
     5
 11
-101.2499999999996
 21
-1948.078850092832
 31
0.0
100
AcDbText
  0
TEXT
  5
2AA
330
1F
100
AcDbEntity
  8
0
 62
     2
100
AcDbText
 10
-370.9185010482184
 20
-1836.316823899372
 30
0.0
 40
60.0
  1
2019.10.1
 41
0.6258278145695363
  7
dcStyle1
 72
     5
 11
-100.9185010482184
 21
-1836.316823899372
 31
0.0
100
AcDbText
  0
TEXT
  5
2AB
330
1F
100
AcDbEntity
  8
0
 62
     2
100
AcDbText
 10
600.0000000000002
 20
-1798.078850092832
 30
0.0
 40
60.0
  1
マルチベヤシリーズ
 41
1.188679245283019
  7
dcStyle1
 72
     5
 11
1140.0
 21
-1798.078850092832
 31
0.0
100
AcDbText
  0
TEXT
  5
2AC
330
1F
100
AcDbEntity
  8
0
 62
     2
100
AcDbText
 10
1687.5
 20
-1798.078850092832
 30
0.0
 40
60.0
  1
レイアウト図　　60°　呼び幅 800 mm
 41
0.8708530805687204
  7
dcStyle1
 72
     5
 11
2737.5
 21
-1798.078850092832
 31
0.0
100
AcDbText
  0
TEXT
  5
2AD
330
1F
100
AcDbEntity
  8
0
 62
     2
100
AcDbText
 10
-2882.801931788121
 20
-1796.862773822254
 30
0.0
 40
60.0
  1
1
 41
0.9545454545454545
  7
dcStyle1
 72
     5
 11
-2852.801931788121
 21
-1796.862773822254
 31
0.0
100
AcDbText
  0
TEXT
  5
2AE
330
1F
100
AcDbEntity
  8
0
 62
     2
100
AcDbText
 10
-2716.289028475423
 20
-1796.862773822254
 30
0.0
 40
60.0
  1
ローラ変更
 41
1.206896551724138
  7
dcStyle1
 72
     5
 11
-2416.289028475423
 21
-1796.862773822254
 31
0.0
100
AcDbText
  0
ARC
  5
2AF
330
1F
100
AcDbEntity
  8
8
  6
Continuous
 62
     7
370
    13
100
AcDbCircle
 10
1915.85854436944
 20
194.9086559271225
 30
0.0
 40
4.6
100
AcDbArc
 50
90.00000062643532
 51
180.0000004399971
  0
ARC
  5
2B0
330
1F
100
AcDbEntity
  8
8
  6
Continuous
 62
     7
370
    13
100
AcDbCircle
 10
1915.858538783361
 20
984.1086559370617
 30
0.0
 40
2.3
100
AcDbArc
 50
180.0000004285172
 51
270.0000006201476
  0
ARC
  5
2B1
330
1F
100
AcDbEntity
  8
8
  6
Continuous
 62
     7
370
    13
100
AcDbCircle
 10
1915.858538790453
 20
984.1086559271218
 30
0.0
 40
4.6
100
AcDbArc
 50
180.0000004399985
 51
270.0000006264364
  0
ARC
  5
2B2
330
1F
100
AcDbEntity
  8
8
  6
Continuous
 62
     7
370
    13
100
AcDbCircle
 10
1915.858544478602
 20
194.9086565495195
 30
0.0
 40
2.3
100
AcDbArc
 50
90.0
 51
180.0
  0
LINE
  5
2B3
330
1F
100
AcDbEntity
  8
8
  6
Continuous
 62
     7
370
    13
100
AcDbLine
 10
1926.258544546047
 20
161.8086559019755
 30
0.0
 11
1926.258544546047
 21
159.5086559019753
 31
0.0
  0
LINE
  5
2B4
330
1F
100
AcDbEntity
  8
8
  6
Continuous
 62
     7
370
    13
100
AcDbLine
 10
1915.858544546046
 20
159.5086559019753
 30
0.0
 11
1926.258544546047
 21
159.5086559019753
 31
0.0
  0
ARC
  5
2B5
330
1F
100
AcDbEntity
  8
8
  6
Continuous
 62
     7
370
    13
100
AcDbCircle
 10
1915.858544546046
 20
164.1086559019755
 30
0.0
 40
4.6
100
AcDbArc
 50
180.0
 51
270.0
  0
LINE
  5
2B6
330
1F
100
AcDbEntity
  8
8
  6
Continuous
 62
     7
370
    13
100
AcDbLine
 10
1915.858544546046
 20
161.8086559019755
 30
0.0
 11
1926.258544546047
 21
161.8086559019755
 31
0.0
  0
ARC
  5
2B7
330
1F
100
AcDbEntity
  8
8
  6
Continuous
 62
     7
370
    13
100
AcDbCircle
 10
1915.858544546046
 20
164.1086559019755
 30
0.0
 40
2.3
100
AcDbArc
 50
180.0
 51
270.0
  0
LINE
  5
2B8
330
1F
100
AcDbEntity
  8
8
  6
Continuous
 62
     7
370
    13
100
AcDbLine
 10
1911.258544546047
 20
164.1086559019755
 30
0.0
 11
1911.258544546047
 21
194.9086559019754
 31
0.0
  0
LINE
  5
2B9
330
1F
100
AcDbEntity
  8
8
  6
Continuous
 62
     7
370
    13
100
AcDbLine
 10
1913.558544546047
 20
164.1086559019755
 30
0.0
 11
1913.558544546047
 21
194.9086559019754
 31
0.0
  0
LINE
  5
2BA
330
1F
100
AcDbEntity
  8
8
  6
Continuous
 62
     7
370
    13
100
AcDbLine
 10
1926.258544546047
 20
1017.208655876829
 30
0.0
 11
1926.258544546047
 21
1019.508655876829
 31
0.0
  0
LINE
  5
2BB
330
1F
100
AcDbEntity
  8
8
  6
Continuous
 62
     7
370
    13
100
AcDbLine
 10
1915.858544546046
 20
1017.208655876829
 30
0.0
 11
1926.258544546047
 21
1017.208655876829
 31
0.0
  0
ARC
  5
2BC
330
1F
100
AcDbEntity
  8
8
  6
Continuous
 62
     7
370
    13
100
AcDbCircle
 10
1915.858544546046
 20
1014.908655876829
 30
0.0
 40
2.3
100
AcDbArc
 50
90.0
 51
180.0
  0
LINE
  5
2BD
330
1F
100
AcDbEntity
  8
8
  6
Continuous
 62
     7
370
    13
100
AcDbLine
 10
1915.858544546046
 20
1019.508655876829
 30
0.0
 11
1926.258544546047
 21
1019.508655876829
 31
0.0
  0
ARC
  5
2BE
330
1F
100
AcDbEntity
  8
8
  6
Continuous
 62
     7
370
    13
100
AcDbCircle
 10
1915.858544546046
 20
1014.908655876829
 30
0.0
 40
4.6
100
AcDbArc
 50
90.0
 51
180.0
  0
LINE
  5
2BF
330
1F
100
AcDbEntity
  8
8
  6
Continuous
 62
     7
370
    13
100
AcDbLine
 10
1913.558544546047
 20
1014.908655876829
 30
0.0
 11
1913.558544546047
 21
984.1086558768288
 31
0.0
  0
LINE
  5
2C0
330
1F
100
AcDbEntity
  8
8
  6
Continuous
 62
     7
370
    13
100
AcDbLine
 10
1911.258544546047
 20
1014.908655876829
 30
0.0
 11
1911.258544546047
 21
984.1086558768288
 31
0.0
  0
ARC
  5
2C1
330
1F
100
AcDbEntity
  8
8
  6
Continuous
 62
     7
370
    13
100
AcDbCircle
 10
2016.658550308733
 20
984.1086559370617
 30
0.0
 40
2.3
100
AcDbArc
 50
269.9999993798524
 51
359.9999995714828
  0
LINE
  5
2C2
330
1F
100
AcDbEntity
  8
8
  6
Continuous
 62
     7
370
    13
100
AcDbLine
 10
2006.258544546047
 20
1017.208655876829
 30
0.0
 11
2006.258544546047
 21
1019.508655876829
 31
0.0
  0
LINE
  5
2C3
330
1F
100
AcDbEntity
  8
8
  6
Continuous
 62
     7
370
    13
100
AcDbLine
 10
2016.658544546047
 20
1017.208655876829
 30
0.0
 11
2006.258544546047
 21
1017.208655876829
 31
0.0
  0
ARC
  5
2C4
330
1F
100
AcDbEntity
  8
8
  6
Continuous
 62
     7
370
    13
100
AcDbCircle
 10
2016.658544546047
 20
1014.908655876829
 30
0.0
 40
2.3
100
AcDbArc
 50
0.0
 51
90.0
  0
LINE
  5
2C5
330
1F
100
AcDbEntity
  8
8
  6
Continuous
 62
     7
370
    13
100
AcDbLine
 10
2016.658544546047
 20
1019.508655876829
 30
0.0
 11
2006.258544546047
 21
1019.508655876829
 31
0.0
  0
ARC
  5
2C6
330
1F
100
AcDbEntity
  8
8
  6
Continuous
 62
     7
370
    13
100
AcDbCircle
 10
2016.658544546047
 20
1014.908655876829
 30
0.0
 40
4.6
100
AcDbArc
 50
0.0
 51
90.0
  0
LINE
  5
2C7
330
1F
100
AcDbEntity
  8
8
  6
Continuous
 62
     7
370
    13
100
AcDbLine
 10
2018.958544546047
 20
1014.908655876829
 30
0.0
 11
2018.958544546047
 21
984.1086558768288
 31
0.0
  0
LINE
  5
2C8
330
1F
100
AcDbEntity
  8
8
  6
Continuous
 62
     7
370
    13
100
AcDbLine
 10
2021.258544546047
 20
1014.908655876829
 30
0.0
 11
2021.258544546047
 21
984.1086558768288
 31
0.0
  0
ARC
  5
2C9
330
1F
100
AcDbEntity
  8
8
  6
Continuous
 62
     7
370
    13
100
AcDbCircle
 10
2016.658550301641
 20
984.1086559271218
 30
0.0
 40
4.6
100
AcDbArc
 50
269.9999993735636
 51
359.9999995600015
  0
LINE
  5
2CA
330
1F
100
AcDbEntity
  8
8
  6
Continuous
 62
     7
370
    13
100
AcDbLine
 10
2006.258544546047
 20
161.8086559019755
 30
0.0
 11
2006.258544546047
 21
159.5086559019753
 31
0.0
  0
LINE
  5
2CB
330
1F
100
AcDbEntity
  8
8
  6
Continuous
 62
     7
370
    13
100
AcDbLine
 10
2016.658544546047
 20
159.5086559019753
 30
0.0
 11
2006.258544546047
 21
159.5086559019753
 31
0.0
  0
ARC
  5
2CC
330
1F
100
AcDbEntity
  8
8
  6
Continuous
 62
     7
370
    13
100
AcDbCircle
 10
2016.658544546047
 20
164.1086559019755
 30
0.0
 40
4.6
100
AcDbArc
 50
270.0
 51
0.0
  0
LINE
  5
2CD
330
1F
100
AcDbEntity
  8
8
  6
Continuous
 62
     7
370
    13
100
AcDbLine
 10
2016.658544546047
 20
161.8086559019755
 30
0.0
 11
2006.258544546047
 21
161.8086559019755
 31
0.0
  0
ARC
  5
2CE
330
1F
100
AcDbEntity
  8
8
  6
Continuous
 62
     7
370
    13
100
AcDbCircle
 10
2016.658544546047
 20
164.1086559019755
 30
0.0
 40
2.3
100
AcDbArc
 50
270.0
 51
0.0
  0
ARC
  5
2CF
330
1F
100
AcDbEntity
  8
8
  6
Continuous
 62
     7
370
    13
100
AcDbCircle
 10
2016.658544722654
 20
194.9086559271225
 30
0.0
 40
4.6
100
AcDbArc
 50
359.9999995600029
 51
89.99999937356466
  0
ARC
  5
2D0
330
1F
100
AcDbEntity
  8
8
  6
Continuous
 62
     7
370
    13
100
AcDbCircle
 10
2016.658544613492
 20
194.9086565495195
 30
0.0
 40
2.3
100
AcDbArc
 50
0.0
 51
90.0
  0
LINE
  5
2D1
330
1F
100
AcDbEntity
  8
8
  6
Continuous
 62
     7
370
    13
100
AcDbLine
 10
2018.958544546047
 20
164.1086559019755
 30
0.0
 11
2018.958544546047
 21
194.9086559019754
 31
0.0
  0
LINE
  5
2D2
330
1F
100
AcDbEntity
  8
8
  6
Continuous
 62
     7
370
    13
100
AcDbLine
 10
2021.258544546047
 20
164.1086559019755
 30
0.0
 11
2021.258544546047
 21
194.9086559019754
 31
0.0
  0
LINE
  5
2D3
330
1F
100
AcDbEntity
  8
8
  6
Continuous
 62
     7
370
    13
100
AcDbLine
 10
1936.075773488834
 20
981.8086560747081
 30
0.0
 11
1915.858538808255
 21
981.8086559370618
 31
0.0
  0
LINE
  5
2D4
330
1F
100
AcDbEntity
  8
8
  6
Continuous
 62
     7
370
    13
100
AcDbLine
 10
2016.658550283839
 20
981.8086570280823
 30
0.0
 11
1936.075773488834
 21
981.808656056134
 31
0.0
  0
LINE
  5
2D5
330
1F
100
AcDbEntity
  8
8
  6
Continuous
 62
     7
370
    13
100
AcDbLine
 10
1936.01827333533
 20
979.5086560467897
 30
0.0
 11
2016.658550301641
 21
979.5086570292062
 31
0.0
  0
LINE
  5
2D6
330
1F
100
AcDbEntity
  8
8
  6
Continuous
 62
     7
370
    13
100
AcDbLine
 10
1915.858538840747
 20
979.5086559271219
 30
0.0
 11
1936.01827333533
 21
979.5086560655352
 31
0.0
  0
LINE
  5
2D7
330
1F
100
AcDbEntity
  8
8
  6
Continuous
 62
     7
370
    13
100
AcDbLine
 10
1915.858544319146
 20
199.5086559271226
 30
0.0
 11
1916.518227376307
 21
199.5086559343351
 31
0.0
  0
LINE
  5
2D8
330
1F
100
AcDbEntity
  8
8
  6
Continuous
 62
     7
370
    13
100
AcDbLine
 10
1915.858544478602
 20
197.2086565495194
 30
0.0
 11
1916.460727238413
 21
197.2086565495194
 31
0.0
  0
LINE
  5
2D9
330
1F
100
AcDbEntity
  8
8
  6
Continuous
 62
     7
370
    13
100
AcDbLine
 10
1916.159635858508
 20
197.2086565495194
 30
0.0
 11
2016.658544613492
 21
197.2086565495194
 31
0.0
  0
LINE
  5
2DA
330
1F
100
AcDbEntity
  8
8
  6
Continuous
 62
     7
370
    13
100
AcDbLine
 10
1931.522914173198
 20
199.5086560983867
 30
0.0
 11
2016.658544772947
 21
199.5086570292051
 31
0.0
  0
LINE
  5
2DB
330
1F
100
AcDbEntity
  8
8
  6
Continuous
 62
     7
370
    13
100
AcDbLine
 10
2021.258544546047
 20
979.5086568899799
 30
0.0
 11
2016.661526590093
 21
979.5086568899799
 31
0.0
  0
LINE
  5
2DC
330
1F
100
AcDbEntity
  8
8
  6
Continuous
 62
     7
370
    13
100
AcDbLine
 10
2021.258544546047
 20
199.5086570143169
 30
0.0
 11
2016.658544772947
 21
199.5086570143169
 31
0.0
  0
LINE
  5
2DD
330
1F
100
AcDbEntity
  8
8
  6
Continuous
 62
     3
370
    13
100
AcDbLine
 10
1911.258544478602
 20
195.4065297587404
 30
0.0
 11
1911.258544478602
 21
197.2086565495197
 31
0.0
  0
LINE
  5
2DE
330
1F
100
AcDbEntity
  8
8
  6
Continuous
 62
     3
370
    13
100
AcDbLine
 10
1908.958544478602
 20
185.2086565495196
 30
0.0
 11
1911.258544445466
 21
185.2086565495196
 31
0.0
  0
LINE
  5
2DF
330
1F
100
AcDbEntity
  8
8
  6
Continuous
 62
     3
370
    13
100
AcDbLine
 10
1908.958544478602
 20
197.2086565495197
 30
0.0
 11
1908.958544478602
 21
185.2086565495196
 31
0.0
  0
LINE
  5
2E0
330
1F
100
AcDbEntity
  8
8
  6
CENTERX2
 62
     3
370
    13
100
AcDbLine
 10
1996.558544546047
 20
190.2086558768287
 30
0.0
 11
1996.558544546047
 21
219.2086558768297
 31
0.0
  0
LINE
  5
2E1
330
1F
100
AcDbEntity
  8
8
  6
CENTERX2
 62
     3
370
    13
100
AcDbLine
 10
1996.558544546047
 20
959.8086558768277
 30
0.0
 11
1996.558544546047
 21
988.8086558768277
 31
0.0
  0
LINE
  5
2E2
330
1F
100
AcDbEntity
  8
8
  6
CENTERX2
 62
     3
370
    13
100
AcDbLine
 10
1864.21821290315
 20
589.5086558768287
 30
0.0
 11
2027.735066835732
 21
589.5086558768287
 31
0.0
  0
LINE
  5
2E3
330
1F
100
AcDbEntity
  8
8
  6
CENTERX2
 62
     3
370
    13
100
AcDbLine
 10
1905.713823908269
 20
190.5086565495196
 30
0.0
 11
1917.978124797988
 21
190.5086565495196
 31
0.0
  0
LINE
  5
2E4
330
1F
100
AcDbEntity
  8
8
  6
CENTERX2
 62
     3
370
    13
100
AcDbLine
 10
1920.258544546047
 20
153.1005798332258
 30
0.0
 11
1920.258544546047
 21
165.5745371680875
 31
0.0
  0
LINE
  5
2E5
330
1F
100
AcDbEntity
  8
8
  6
CENTERX2
 62
     3
370
    13
100
AcDbLine
 10
2012.258544546047
 20
153.1005798332258
 30
0.0
 11
2012.258544546047
 21
165.5745371680875
 31
0.0
  0
LINE
  5
2E6
330
1F
100
AcDbEntity
  8
0
  6
PHANTOM
 62
    91
370
    13
100
AcDbLine
 10
1905.990750266901
 20
974.5086559963286
 30
0.0
 11
1900.490750266901
 21
974.5086559963286
 31
0.0
  0
INSERT
  5
2E7
330
1F
100
AcDbEntity
  8
8
  6
Continuous
100
AcDbBlockReference
  2
DC_GROUP_W_MEM-C_ARG_090_1_17
 10
0.0
 20
0.0
 30
0.0
  0
INSERT
  5
2E8
330
1F
100
AcDbEntity
  8
8
  6
Continuous
100
AcDbBlockReference
  2
DC_GROUP_W_MEM-C_ARG_090_1_18
 10
0.0
 20
0.0
 30
0.0
  0
INSERT
  5
2E9
330
1F
100
AcDbEntity
  8
8
  6
Continuous
100
AcDbBlockReference
  2
DC_GROUP_W_MEM-C_ARG_090_1_19
 10
0.0
 20
0.0
 30
0.0
  0
INSERT
  5
2EA
330
1F
100
AcDbEntity
  8
8
  6
Continuous
100
AcDbBlockReference
  2
DC_GROUP_W_MEM-C_ARG_090_1_20
 10
0.0
 20
0.0
 30
0.0
  0
INSERT
  5
2EB
330
1F
100
AcDbEntity
  8
8
  6
Continuous
100
AcDbBlockReference
  2
DC_GROUP_W_MEM-C_ARG_090_1_29
 10
0.0
 20
0.0
 30
0.0
  0
VIEWPORT
  5
B1
330
1B
100
AcDbEntity
 67
     1
  8
0
100
AcDbViewport
 10
0.0
 20
0.0
 30
0.0
 40
17730.0
 41
12161.52689944301
 68
     1
 69
     1
 12
0.0
 22
0.0
 13
0.0
 23
0.0
 14
0.5
 24
0.5
 15
0.0
 25
0.0
 16
0.0
 26
0.0
 36
1.0
 17
0.0
 27
0.0
 37
0.0
 42
50.0
 43
0.0
 44
0.0
 45
12161.52689944301
 50
0.0
 51
0.0
 72
   100
 90
   557152
  1

281
     0
 71
     1
 74
     0
110
0.0
120
0.0
130
0.0
111
1.0
121
0.0
131
0.0
112
0.0
122
1.0
132
0.0
 79
     0
146
0.0
170
     0
 61
     5
292
     1
282
     1
141
0.0
142
0.0
 63
   256
  0
ENDSEC
  0
SECTION
  2
OBJECTS
  0
DICTIONARY
  5
C
330
0
100
AcDbDictionary
281
     1
  3
ACAD_DETAILVIEWSTYLE
350
320
  3
ACAD_GROUP
350
D
  3
ACAD_LAYOUT
350
1A
  3
ACAD_MATERIAL
350
43
  3
ACAD_MLEADERSTYLE
350
31F
  3
ACAD_MLINESTYLE
350
17
  3
ACAD_PLOTSETTINGS
350
19
  3
ACAD_PLOTSTYLENAME
350
E
  3
ACAD_SCALELIST
350
47
  3
ACAD_SECTIONVIEWSTYLE
350
321
  3
ACAD_TABLESTYLE
350
31E
  3
ACAD_VISUALSTYLE
350
2A
  3
AcDbVariableDictionary
350
2EC
  0
SUN
  5
69
330
29
100
AcDbSun
 90
        1
290
     0
 63
     7
421
 16777215
 40
1.0
291
     1
 91
  2455826
 92
 54000000
292
     0
 70
     2
 71
   256
280
     1
  0
DICTIONARY
  5
320
102
{ACAD_REACTORS
330
C
102
}
330
C
100
AcDbDictionary
281
     1
  0
DICTIONARY
  5
D
102
{ACAD_REACTORS
330
C
102
}
330
C
100
AcDbDictionary
281
     1
  0
DICTIONARY
  5
1A
102
{ACAD_REACTORS
330
C
102
}
330
C
100
AcDbDictionary
281
     1
  3
Layout1
350
1E
  3
Layout2
350
26
  3
Model
350
22
  0
DICTIONARY
  5
43
102
{ACAD_REACTORS
330
C
102
}
330
C
100
AcDbDictionary
281
     1
  3
ByBlock
350
45
  3
ByLayer
350
44
  3
Global
350
46
  0
DICTIONARY
  5
31F
102
{ACAD_REACTORS
330
C
102
}
330
C
100
AcDbDictionary
281
     1
  0
DICTIONARY
  5
17
102
{ACAD_REACTORS
330
C
102
}
330
C
100
AcDbDictionary
281
     1
  3
Standard
350
18
  0
DICTIONARY
  5
19
102
{ACAD_REACTORS
330
C
102
}
330
C
100
AcDbDictionary
281
     1
  0
ACDBDICTIONARYWDFLT
  5
E
102
{ACAD_REACTORS
330
C
102
}
330
C
100
AcDbDictionary
281
     1
  3
Normal
350
F
100
AcDbDictionaryWithDefault
340
F
  0
DICTIONARY
  5
47
102
{ACAD_REACTORS
330
C
102
}
330
C
100
AcDbDictionary
281
     1
  3
A0
350
48
  3
A1
350
49
  3
A2
350
4A
  3
A3
350
4B
  3
A4
350
4C
  3
A5
350
4D
  3
A6
350
4E
  3
A7
350
4F
  3
A8
350
50
  3
A9
350
51
  3
B0
350
52
  3
B1
350
53
  3
B2
350
54
  3
B3
350
55
  3
B4
350
56
  3
B5
350
57
  3
B6
350
58
  3
B7
350
59
  3
B8
350
5A
  3
B9
350
5B
  3
C0
350
5C
  3
C1
350
5D
  3
C2
350
5E
  3
C3
350
5F
  3
C4
350
60
  3
C5
350
61
  3
C6
350
62
  3
C7
350
63
  3
C8
350
64
  3
C9
350
65
  3
D0
350
66
  3
D1
350
67
  3
D2
350
68
  0
DICTIONARY
  5
321
102
{ACAD_REACTORS
330
C
102
}
330
C
100
AcDbDictionary
281
     1
  0
DICTIONARY
  5
31E
102
{ACAD_REACTORS
330
C
102
}
330
C
100
AcDbDictionary
281
     1
  0
DICTIONARY
  5
2A
102
{ACAD_REACTORS
330
C
102
}
330
C
100
AcDbDictionary
281
     1
  3
2dWireframe
350
2F
  3
Basic
350
32
  3
Brighten
350
36
  3
ColorChange
350
3A
  3
Conceptual
350
34
  3
Dim
350
35
  3
EdgeColorOff
350
3D
  3
Facepattern
350
39
  3
Flat
350
2B
  3
FlatWithEdges
350
2C
  3
Gouraud
350
2D
  3
GouraudWithEdges
350
2E
  3
Hidden
350
31
  3
JitterOff
350
3B
  3
Linepattern
350
38
  3
OverhangOff
350
3C
  3
Realistic
350
33
  3
Shaded
350
42
  3
Shaded with edges
350
41
  3
Shades of Gray
350
3E
  3
Sketchy
350
3F
  3
Thicken
350
37
  3
Wireframe
350
30
  3
X-Ray
350
40
  0
DICTIONARY
  5
2EC
102
{ACAD_REACTORS
330
C
102
}
330
C
100
AcDbDictionary
281
     1
  3
CANNOSCALE
350
2ED
  0
LAYOUT
  5
1E
102
{ACAD_REACTORS
330
1A
102
}
330
1A
100
AcDbPlotSettings
  1

  2
none_device
  4

  6

 40
0.0
 41
0.0
 42
0.0
 43
0.0
 44
0.0
 45
0.0
 46
0.0
 47
0.0
 48
0.0
 49
0.0
140
0.0
141
0.0
142
1.0
143
1.0
 70
   688
 72
     0
 73
     0
 74
     5
  7

 75
    16
 76
     0
 77
     2
 78
   300
147
1.0
148
0.0
149
0.0
100
AcDbLayout
  1
Layout1
 70
     0
 71
     1
 10
0.0
 20
0.0
 11
12.0
 21
9.0
 12
0.0
 22
0.0
 32
0.0
 14
1.000000000000000E+20
 24
1.000000000000000E+20
 34
1.000000000000000E+20
 15
-1.000000000000000E+20
 25
-1.000000000000000E+20
 35
-1.000000000000000E+20
146
0.0
 13
0.0
 23
0.0
 33
0.0
 16
1.0
 26
0.0
 36
0.0
 17
0.0
 27
1.0
 37
0.0
 76
     0
330
1B
331
B1
  0
LAYOUT
  5
26
102
{ACAD_REACTORS
330
1A
102
}
330
1A
100
AcDbPlotSettings
  1

  2
none_device
  4

  6

 40
0.0
 41
0.0
 42
0.0
 43
0.0
 44
0.0
 45
0.0
 46
0.0
 47
0.0
 48
0.0
 49
0.0
140
0.0
141
0.0
142
1.0
143
1.0
 70
   688
 72
     0
 73
     0
 74
     5
  7

 75
    16
 76
     0
 77
     2
 78
   300
147
1.0
148
0.0
149
0.0
100
AcDbLayout
  1
Layout2
 70
     1
 71
     2
 10
0.0
 20
0.0
 11
0.0
 21
0.0
 12
0.0
 22
0.0
 32
0.0
 14
0.0
 24
0.0
 34
0.0
 15
0.0
 25
0.0
 35
0.0
146
0.0
 13
0.0
 23
0.0
 33
0.0
 16
1.0
 26
0.0
 36
0.0
 17
0.0
 27
1.0
 37
0.0
 76
     0
330
23
  0
LAYOUT
  5
22
102
{ACAD_REACTORS
330
1A
102
}
330
1A
100
AcDbPlotSettings
  1

  2
none_device
  4
Letter_(8.50_x_11.00_Inches)
  6

 40
6.35
 41
6.35
 42
6.35000508
 43
6.35000508
 44
215.9
 45
279.4
 46
0.0
 47
0.0
 48
0.0
 49
0.0
140
0.0
141
0.0
142
1.0
143
1.0
 70
  1712
 72
     0
 73
     0
 74
     0
  7

 75
     0
 76
     0
 77
     2
 78
   300
147
1.0
148
0.0
149
0.0
100
AcDbLayout
  1
Model
 70
     1
 71
     0
 10
-3150.0
 20
-2227.5
 11
3150.0
 21
2227.5
 12
0.0
 22
0.0
 32
0.0
 14
-8865.0
 24
-6080.763449721504
 34
0.0
 15
8865.0
 25
6080.763449721504
 35
0.0
146
0.0
 13
0.0
 23
0.0
 33
0.0
 16
1.0
 26
0.0
 36
0.0
 17
0.0
 27
1.0
 37
0.0
 76
     0
330
1F
331
29
  0
MATERIAL
  5
45
102
{ACAD_REACTORS
330
43
102
}
330
43
100
AcDbMaterial
  1
ByBlock
 72
     1
 94
      127
  0
MATERIAL
  5
44
102
{ACAD_REACTORS
330
43
102
}
330
43
100
AcDbMaterial
  1
ByLayer
 72
     1
 94
      127
  0
MATERIAL
  5
46
102
{ACAD_REACTORS
330
43
102
}
330
43
100
AcDbMaterial
  1
Global
 72
     1
 94
      127
  0
MLINESTYLE
  5
18
102
{ACAD_REACTORS
330
17
102
}
330
17
100
AcDbMlineStyle
  2
Standard
 70
     0
  3

 62
   256
 51
90.0
 52
90.0
 71
     2
 49
0.5
 62
   256
  6
BYLAYER
 49
-0.5
 62
   256
  6
BYLAYER
  0
ACDBPLACEHOLDER
  5
F
102
{ACAD_REACTORS
330
E
102
}
330
E
  0
SCALE
  5
48
102
{ACAD_REACTORS
330
47
102
}
330
47
100
AcDbScale
 70
     0
300
1:1
140
1.0
141
1.0
290
     1
  0
SCALE
  5
49
102
{ACAD_REACTORS
330
47
102
}
330
47
100
AcDbScale
 70
     0
300
1:2
140
1.0
141
2.0
290
     0
  0
SCALE
  5
4A
102
{ACAD_REACTORS
330
47
102
}
330
47
100
AcDbScale
 70
     0
300
1:4
140
1.0
141
4.0
290
     0
  0
SCALE
  5
4B
102
{ACAD_REACTORS
330
47
102
}
330
47
100
AcDbScale
 70
     0
300
1:5
140
1.0
141
5.0
290
     0
  0
SCALE
  5
4C
102
{ACAD_REACTORS
330
47
102
}
330
47
100
AcDbScale
 70
     0
300
1:8
140
1.0
141
8.0
290
     0
  0
SCALE
  5
4D
102
{ACAD_REACTORS
330
47
102
}
330
47
100
AcDbScale
 70
     0
300
1:10
140
1.0
141
10.0
290
     0
  0
SCALE
  5
4E
102
{ACAD_REACTORS
330
47
102
}
330
47
100
AcDbScale
 70
     0
300
1:16
140
1.0
141
16.0
290
     0
  0
SCALE
  5
4F
102
{ACAD_REACTORS
330
47
102
}
330
47
100
AcDbScale
 70
     0
300
1:20
140
1.0
141
20.0
290
     0
  0
SCALE
  5
50
102
{ACAD_REACTORS
330
47
102
}
330
47
100
AcDbScale
 70
     0
300
1:30
140
1.0
141
30.0
290
     0
  0
SCALE
  5
51
102
{ACAD_REACTORS
330
47
102
}
330
47
100
AcDbScale
 70
     0
300
1:40
140
1.0
141
40.0
290
     0
  0
SCALE
  5
52
102
{ACAD_REACTORS
330
47
102
}
330
47
100
AcDbScale
 70
     0
300
1:50
140
1.0
141
50.0
290
     0
  0
SCALE
  5
53
102
{ACAD_REACTORS
330
47
102
}
330
47
100
AcDbScale
 70
     0
300
1:100
140
1.0
141
100.0
290
     0
  0
SCALE
  5
54
102
{ACAD_REACTORS
330
47
102
}
330
47
100
AcDbScale
 70
     0
300
2:1
140
2.0
141
1.0
290
     0
  0
SCALE
  5
55
102
{ACAD_REACTORS
330
47
102
}
330
47
100
AcDbScale
 70
     0
300
4:1
140
4.0
141
1.0
290
     0
  0
SCALE
  5
56
102
{ACAD_REACTORS
330
47
102
}
330
47
100
AcDbScale
 70
     0
300
8:1
140
8.0
141
1.0
290
     0
  0
SCALE
  5
57
102
{ACAD_REACTORS
330
47
102
}
330
47
100
AcDbScale
 70
     0
300
10:1
140
10.0
141
1.0
290
     0
  0
SCALE
  5
58
102
{ACAD_REACTORS
330
47
102
}
330
47
100
AcDbScale
 70
     0
300
100:1
140
100.0
141
1.0
290
     0
  0
SCALE
  5
59
102
{ACAD_REACTORS
330
47
102
}
330
47
100
AcDbScale
 70
     0
300
1/128" = 1'-0"
140
0.0078125
141
12.0
290
     0
  0
SCALE
  5
5A
102
{ACAD_REACTORS
330
47
102
}
330
47
100
AcDbScale
 70
     0
300
1/64" = 1'-0"
140
0.015625
141
12.0
290
     0
  0
SCALE
  5
5B
102
{ACAD_REACTORS
330
47
102
}
330
47
100
AcDbScale
 70
     0
300
1/32" = 1'-0"
140
0.03125
141
12.0
290
     0
  0
SCALE
  5
5C
102
{ACAD_REACTORS
330
47
102
}
330
47
100
AcDbScale
 70
     0
300
1/16" = 1'-0"
140
0.0625
141
12.0
290
     0
  0
SCALE
  5
5D
102
{ACAD_REACTORS
330
47
102
}
330
47
100
AcDbScale
 70
     0
300
3/32" = 1'-0"
140
0.09375
141
12.0
290
     0
  0
SCALE
  5
5E
102
{ACAD_REACTORS
330
47
102
}
330
47
100
AcDbScale
 70
     0
300
1/8" = 1'-0"
140
0.125
141
12.0
290
     0
  0
SCALE
  5
5F
102
{ACAD_REACTORS
330
47
102
}
330
47
100
AcDbScale
 70
     0
300
3/16" = 1'-0"
140
0.1875
141
12.0
290
     0
  0
SCALE
  5
60
102
{ACAD_REACTORS
330
47
102
}
330
47
100
AcDbScale
 70
     0
300
1/4" = 1'-0"
140
0.25
141
12.0
290
     0
  0
SCALE
  5
61
102
{ACAD_REACTORS
330
47
102
}
330
47
100
AcDbScale
 70
     0
300
3/8" = 1'-0"
140
0.375
141
12.0
290
     0
  0
SCALE
  5
62
102
{ACAD_REACTORS
330
47
102
}
330
47
100
AcDbScale
 70
     0
300
1/2" = 1'-0"
140
0.5
141
12.0
290
     0
  0
SCALE
  5
63
102
{ACAD_REACTORS
330
47
102
}
330
47
100
AcDbScale
 70
     0
300
3/4" = 1'-0"
140
0.75
141
12.0
290
     0
  0
SCALE
  5
64
102
{ACAD_REACTORS
330
47
102
}
330
47
100
AcDbScale
 70
     0
300
1" = 1'-0"
140
1.0
141
12.0
290
     0
  0
SCALE
  5
65
102
{ACAD_REACTORS
330
47
102
}
330
47
100
AcDbScale
 70
     0
300
1-1/2" = 1'-0"
140
1.5
141
12.0
290
     0
  0
SCALE
  5
66
102
{ACAD_REACTORS
330
47
102
}
330
47
100
AcDbScale
 70
     0
300
3" = 1'-0"
140
3.0
141
12.0
290
     0
  0
SCALE
  5
67
102
{ACAD_REACTORS
330
47
102
}
330
47
100
AcDbScale
 70
     0
300
6" = 1'-0"
140
6.0
141
12.0
290
     0
  0
SCALE
  5
68
102
{ACAD_REACTORS
330
47
102
}
330
47
100
AcDbScale
 70
     0
300
1'-0" = 1'-0"
140
12.0
141
12.0
290
     0
  0
VISUALSTYLE
  5
2F
102
{ACAD_REACTORS
330
2A
102
}
102
{ACAD_XDICTIONARY
360
2F6
102
}
330
2A
100
AcDbVisualStyle
  2
2dWireframe
 70
     4
177
     2
291
     0
 71
     0
176
     1
 72
     2
176
     1
 73
     0
176
     1
 90
        0
176
     1
 40
0.6
176
     1
 41
30.0
176
     1
 62
     5
 63
     7
421
 16777215
176
     1
 74
     1
176
     1
 91
        4
176
     1
 64
     7
176
     1
 65
   257
176
     1
 75
     1
176
     1
175
     1
176
     1
 42
1.0
176
     1
 92
        0
176
     1
 66
   257
176
     1
 43
1.0
176
     1
 76
     1
176
     1
 77
     6
176
     1
 78
     2
176
     1
 67
     7
176
     1
 79
     5
176
     1
170
     0
176
     1
171
     0
176
     1
290
     0
176
     1
 93
        1
176
     1
 44
0.0
176
     1
173
     0
176
     1
  0
VISUALSTYLE
  5
32
102
{ACAD_REACTORS
330
2A
102
}
102
{ACAD_XDICTIONARY
360
2FC
102
}
330
2A
100
AcDbVisualStyle
  2
Basic
 70
     7
177
     2
291
     1
 71
     1
176
     1
 72
     0
176
     1
 73
     1
176
     1
 90
        0
176
     1
 40
0.6
176
     1
 41
30.0
176
     1
 62
     5
 63
     7
421
 16777215
176
     1
 74
     0
176
     1
 91
        4
176
     1
 64
     7
176
     1
 65
   257
176
     1
 75
     1
176
     1
175
     1
176
     1
 42
1.0
176
     1
 92
        8
176
     1
 66
     7
176
     1
 43
1.0
176
     1
 76
     1
176
     1
 77
     6
176
     1
 78
     2
176
     1
 67
     7
176
     1
 79
     5
176
     1
170
     0
176
     1
171
     0
176
     1
290
     0
176
     1
 93
        1
176
     1
 44
0.0
176
     1
173
     0
176
     1
  0
VISUALSTYLE
  5
36
102
{ACAD_REACTORS
330
2A
102
}
102
{ACAD_XDICTIONARY
360
304
102
}
330
2A
100
AcDbVisualStyle
  2
Brighten
 70
    12
177
     2
291
     1
 71
     2
176
     1
 72
     2
176
     1
 73
     0
176
     1
 90
        0
176
     1
 40
0.6
176
     1
 41
30.0
176
     1
 62
     5
 63
     7
421
 16777215
176
     1
 74
     1
176
     1
 91
        4
176
     1
 64
     7
176
     1
 65
   257
176
     1
 75
     1
176
     1
175
     1
176
     1
 42
1.0
176
     1
 92
        8
176
     1
 66
     7
176
     1
 43
1.0
176
     1
 76
     1
176
     1
 77
     6
176
     1
 78
     2
176
     1
 67
     7
176
     1
 79
     5
176
     1
170
     0
176
     1
171
     0
176
     1
290
     0
176
     1
 93
        1
176
     1
 44
50.0
176
     1
173
     0
176
     1
  0
VISUALSTYLE
  5
3A
102
{ACAD_REACTORS
330
2A
102
}
102
{ACAD_XDICTIONARY
360
30C
102
}
330
2A
100
AcDbVisualStyle
  2
ColorChange
 70
    16
177
     2
291
     1
 71
     2
176
     1
 72
     2
176
     1
 73
     3
176
     1
 90
        0
176
     1
 40
0.6
176
     1
 41
30.0
176
     1
 62
     5
 63
     8
421
  8421504
176
     1
 74
     1
176
     1
 91
        4
176
     1
 64
     7
176
     1
 65
   257
176
     1
 75
     1
176
     1
175
     1
176
     1
 42
1.0
176
     1
 92
        8
176
     1
 66
     8
424
  8421504
176
     1
 43
1.0
176
     1
 76
     1
176
     1
 77
     6
176
     1
 78
     2
176
     1
 67
     7
176
     1
 79
     5
176
     1
170
     0
176
     1
171
     0
176
     1
290
     0
176
     1
 93
        1
176
     1
 44
0.0
176
     1
173
     0
176
     1
  0
VISUALSTYLE
  5
34
102
{ACAD_REACTORS
330
2A
102
}
102
{ACAD_XDICTIONARY
360
300
102
}
330
2A
100
AcDbVisualStyle
  2
Conceptual
 70
     9
177
     2
291
     0
 71
     3
176
     1
 72
     2
176
     1
 73
     0
176
     1
 90
        0
176
     1
 40
0.6
176
     1
 41
30.0
176
     1
 62
     5
 63
     7
421
 16777215
176
     1
 74
     2
176
     1
 91
        2
176
     1
 64
     7
176
     1
 65
   257
176
     1
 75
     1
176
     1
175
     1
176
     1
 42
179.0
176
     1
 92
        8
176
     1
 66
     7
176
     1
 43
1.0
176
     1
 76
     1
176
     1
 77
     6
176
     1
 78
     2
176
     1
 67
     7
176
     1
 79
     3
176
     1
170
     0
176
     1
171
     0
176
     1
290
     0
176
     1
 93
        1
176
     1
 44
0.0
176
     1
173
     0
176
     1
  0
VISUALSTYLE
  5
35
102
{ACAD_REACTORS
330
2A
102
}
102
{ACAD_XDICTIONARY
360
302
102
}
330
2A
100
AcDbVisualStyle
  2
Dim
 70
    11
177
     2
291
     1
 71
     2
176
     1
 72
     2
176
     1
 73
     0
176
     1
 90
        0
176
     1
 40
0.6
176
     1
 41
30.0
176
     1
 62
     5
 63
     7
421
 16777215
176
     1
 74
     1
176
     1
 91
        4
176
     1
 64
     7
176
     1
 65
   257
176
     1
 75
     1
176
     1
175
     1
176
     1
 42
1.0
176
     1
 92
        8
176
     1
 66
     7
176
     1
 43
1.0
176
     1
 76
     1
176
     1
 77
     6
176
     1
 78
     2
176
     1
 67
     7
176
     1
 79
     5
176
     1
170
     0
176
     1
171
     0
176
     1
290
     0
176
     1
 93
        1
176
     1
 44
-50.0
176
     1
173
     0
176
     1
  0
VISUALSTYLE
  5
3D
102
{ACAD_REACTORS
330
2A
102
}
102
{ACAD_XDICTIONARY
360
312
102
}
330
2A
100
AcDbVisualStyle
  2
EdgeColorOff
 70
    22
177
     2
291
     1
 71
     2
176
     0
 72
     2
176
     0
 73
     0
176
     0
 90
        0
176
     0
 40
0.6
176
     0
 41
30.0
176
     0
 62
     5
 63
     7
421
 16777215
176
     0
 74
     1
176
     0
 91
        4
176
     0
 64
     7
176
     0
 65
   257
176
     0
 75
     1
176
     0
175
     1
176
     0
 42
1.0
176
     0
 92
        8
176
     2
 66
     7
176
     0
 43
1.0
176
     0
 76
     1
176
     0
 77
     6
176
     0
 78
     2
176
     0
 67
     7
176
     0
 79
     5
176
     0
170
     0
176
     0
171
     0
176
     0
290
     0
176
     0
 93
        1
176
     0
 44
0.0
176
     0
173
     0
176
     0
  0
VISUALSTYLE
  5
39
102
{ACAD_REACTORS
330
2A
102
}
102
{ACAD_XDICTIONARY
360
30A
102
}
330
2A
100
AcDbVisualStyle
  2
Facepattern
 70
    15
177
     2
291
     1
 71
     2
176
     1
 72
     2
176
     1
 73
     0
176
     1
 90
        0
176
     1
 40
0.6
176
     1
 41
30.0
176
     1
 62
     5
 63
     7
421
 16777215
176
     1
 74
     1
176
     1
 91
        4
176
     1
 64
     7
176
     1
 65
   257
176
     1
 75
     1
176
     1
175
     1
176
     1
 42
1.0
176
     1
 92
        8
176
     1
 66
     7
176
     1
 43
1.0
176
     1
 76
     1
176
     1
 77
     6
176
     1
 78
     2
176
     1
 67
     7
176
     1
 79
     5
176
     1
170
     0
176
     1
171
     0
176
     1
290
     0
176
     1
 93
        1
176
     1
 44
0.0
176
     1
173
     0
176
     1
  0
VISUALSTYLE
  5
2B
102
{ACAD_REACTORS
330
2A
102
}
102
{ACAD_XDICTIONARY
360
2EE
102
}
330
2A
100
AcDbVisualStyle
  2
Flat
 70
     0
177
     2
291
     1
 71
     2
176
     1
 72
     1
176
     1
 73
     1
176
     1
 90
        2
176
     1
 40
0.6
176
     1
 41
30.0
176
     1
 62
     5
 63
     7
421
 16777215
176
     1
 74
     0
176
     1
 91
        0
176
     1
 64
     7
176
     1
 65
   257
176
     1
 75
     1
176
     1
175
     1
176
     1
 42
1.0
176
     1
 92
        8
176
     1
 66
     7
176
     1
 43
1.0
176
     1
 76
     1
176
     1
 77
     6
176
     1
 78
     2
176
     1
 67
     7
176
     1
 79
     5
176
     1
170
     0
176
     1
171
     0
176
     1
290
     0
176
     1
 93
       13
176
     1
 44
0.0
176
     1
173
     0
176
     1
  0
VISUALSTYLE
  5
2C
102
{ACAD_REACTORS
330
2A
102
}
102
{ACAD_XDICTIONARY
360
2F0
102
}
330
2A
100
AcDbVisualStyle
  2
FlatWithEdges
 70
     1
177
     2
291
     1
 71
     2
176
     1
 72
     1
176
     1
 73
     1
176
     1
 90
        2
176
     1
 40
0.6
176
     1
 41
30.0
176
     1
 62
     5
 63
     7
421
 16777215
176
     1
 74
     1
176
     1
 91
        0
176
     1
 64
     7
176
     1
 65
   257
176
     1
 75
     1
176
     1
175
     1
176
     1
 42
1.0
176
     1
 92
        0
176
     1
 66
   257
176
     1
 43
1.0
176
     1
 76
     1
176
     1
 77
     6
176
     1
 78
     2
176
     1
 67
     7
176
     1
 79
     5
176
     1
170
     0
176
     1
171
     0
176
     1
290
     0
176
     1
 93
       13
176
     1
 44
0.0
176
     1
173
     0
176
     1
  0
VISUALSTYLE
  5
2D
102
{ACAD_REACTORS
330
2A
102
}
102
{ACAD_XDICTIONARY
360
2F2
102
}
330
2A
100
AcDbVisualStyle
  2
Gouraud
 70
     2
177
     2
291
     1
 71
     2
176
     1
 72
     2
176
     1
 73
     1
176
     1
 90
        2
176
     1
 40
0.6
176
     1
 41
30.0
176
     1
 62
     5
 63
     7
421
 16777215
176
     1
 74
     0
176
     1
 91
        0
176
     1
 64
     7
176
     1
 65
   257
176
     1
 75
     1
176
     1
175
     1
176
     1
 42
1.0
176
     1
 92
        0
176
     1
 66
     7
176
     1
 43
1.0
176
     1
 76
     1
176
     1
 77
     6
176
     1
 78
     2
176
     1
 67
     7
176
     1
 79
     5
176
     1
170
     0
176
     1
171
     0
176
     1
290
     0
176
     1
 93
       13
176
     1
 44
0.0
176
     1
173
     0
176
     1
  0
VISUALSTYLE
  5
2E
102
{ACAD_REACTORS
330
2A
102
}
102
{ACAD_XDICTIONARY
360
2F4
102
}
330
2A
100
AcDbVisualStyle
  2
GouraudWithEdges
 70
     3
177
     2
291
     1
 71
     2
176
     1
 72
     2
176
     1
 73
     1
176
     1
 90
        2
176
     1
 40
0.6
176
     1
 41
30.0
176
     1
 62
     5
 63
     7
421
 16777215
176
     1
 74
     1
176
     1
 91
        0
176
     1
 64
     7
176
     1
 65
   257
176
     1
 75
     1
176
     1
175
     1
176
     1
 42
1.0
176
     1
 92
        0
176
     1
 66
   257
176
     1
 43
1.0
176
     1
 76
     1
176
     1
 77
     6
176
     1
 78
     2
176
     1
 67
     7
176
     1
 79
     5
176
     1
170
     0
176
     1
171
     0
176
     1
290
     0
176
     1
 93
       13
176
     1
 44
0.0
176
     1
173
     0
176
     1
  0
VISUALSTYLE
  5
31
102
{ACAD_REACTORS
330
2A
102
}
102
{ACAD_XDICTIONARY
360
2FA
102
}
330
2A
100
AcDbVisualStyle
  2
Hidden
 70
     6
177
     2
291
     0
 71
     1
176
     1
 72
     2
176
     1
 73
     2
176
     1
 90
        0
176
     1
 40
0.6
176
     1
 41
30.0
176
     1
 62
     5
 63
     7
421
 16777215
176
     1
 74
     2
176
     1
 91
        2
176
     1
 64
     7
176
     1
 65
   257
176
     1
 75
     2
176
     1
175
     1
176
     1
 42
40.0
176
     1
 92
        0
176
     1
 66
   257
176
     1
 43
1.0
176
     1
 76
     1
176
     1
 77
     6
176
     1
 78
     2
176
     1
 67
     7
176
     1
 79
     3
176
     1
170
     0
176
     1
171
     0
176
     1
290
     0
176
     1
 93
        1
176
     1
 44
0.0
176
     1
173
     0
176
     1
  0
VISUALSTYLE
  5
3B
102
{ACAD_REACTORS
330
2A
102
}
102
{ACAD_XDICTIONARY
360
30E
102
}
330
2A
100
AcDbVisualStyle
  2
JitterOff
 70
    20
177
     2
291
     1
 71
     2
176
     0
 72
     2
176
     0
 73
     0
176
     0
 90
        0
176
     0
 40
0.6
176
     0
 41
30.0
176
     0
 62
     5
 63
     7
421
 16777215
176
     0
 74
     1
176
     0
 91
        4
176
     0
 64
     7
176
     0
 65
   257
176
     0
 75
     1
176
     0
175
     1
176
     0
 42
1.0
176
     0
 92
       10
176
     2
 66
     7
176
     0
 43
1.0
176
     0
 76
     1
176
     0
 77
     6
176
     0
 78
     2
176
     0
 67
     7
176
     0
 79
     5
176
     0
170
     0
176
     0
171
     0
176
     0
290
     0
176
     0
 93
        1
176
     0
 44
0.0
176
     0
173
     0
176
     0
  0
VISUALSTYLE
  5
38
102
{ACAD_REACTORS
330
2A
102
}
102
{ACAD_XDICTIONARY
360
308
102
}
330
2A
100
AcDbVisualStyle
  2
Linepattern
 70
    14
177
     2
291
     1
 71
     2
176
     1
 72
     2
176
     1
 73
     0
176
     1
 90
        0
176
     1
 40
0.6
176
     1
 41
30.0
176
     1
 62
     5
 63
     7
421
 16777215
176
     1
 74
     1
176
     1
 91
        4
176
     1
 64
     7
176
     1
 65
   257
176
     1
 75
     7
176
     1
175
     7
176
     1
 42
1.0
176
     1
 92
        8
176
     1
 66
     7
176
     1
 43
1.0
176
     1
 76
     1
176
     1
 77
     6
176
     1
 78
     2
176
     1
 67
     7
176
     1
 79
     5
176
     1
170
     0
176
     1
171
     0
176
     1
290
     0
176
     1
 93
        1
176
     1
 44
0.0
176
     1
173
     0
176
     1
  0
VISUALSTYLE
  5
3C
102
{ACAD_REACTORS
330
2A
102
}
102
{ACAD_XDICTIONARY
360
310
102
}
330
2A
100
AcDbVisualStyle
  2
OverhangOff
 70
    21
177
     2
291
     1
 71
     2
176
     0
 72
     2
176
     0
 73
     0
176
     0
 90
        0
176
     0
 40
0.6
176
     0
 41
30.0
176
     0
 62
     5
 63
     7
421
 16777215
176
     0
 74
     1
176
     0
 91
        4
176
     0
 64
     7
176
     0
 65
   257
176
     0
 75
     1
176
     0
175
     1
176
     0
 42
1.0
176
     0
 92
        9
176
     2
 66
     7
176
     0
 43
1.0
176
     0
 76
     1
176
     0
 77
     6
176
     0
 78
     2
176
     0
 67
     7
176
     0
 79
     5
176
     0
170
     0
176
     0
171
     0
176
     0
290
     0
176
     0
 93
        1
176
     0
 44
0.0
176
     0
173
     0
176
     0
  0
VISUALSTYLE
  5
33
102
{ACAD_REACTORS
330
2A
102
}
102
{ACAD_XDICTIONARY
360
2FE
102
}
330
2A
100
AcDbVisualStyle
  2
Realistic
 70
     8
177
     2
291
     0
 71
     2
176
     1
 72
     3
176
     1
 73
     0
176
     1
 90
        2
176
     1
 40
0.6
176
     1
 41
30.0
176
     1
 62
     5
 63
     7
421
 16777215
176
     1
 74
     0
176
     1
 91
        0
176
     1
 64
     7
176
     1
 65
   257
176
     1
 75
     1
176
     1
175
     1
176
     1
 42
1.0
176
     1
 92
        8
176
     1
 66
   257
176
     1
 43
1.0
176
     1
 76
     1
176
     1
 77
     6
176
     1
 78
     2
176
     1
 67
     7
176
     1
 79
     3
176
     1
170
     0
176
     1
171
     0
176
     1
290
     0
176
     1
 93
       13
176
     1
 44
0.0
176
     1
173
     0
176
     1
  0
VISUALSTYLE
  5
42
102
{ACAD_REACTORS
330
2A
102
}
102
{ACAD_XDICTIONARY
360
31C
102
}
330
2A
100
AcDbVisualStyle
  2
Shaded
 70
    27
177
     2
291
     0
 71
     2
176
     1
 72
     2
176
     1
 73
     1
176
     1
 90
        2
176
     1
 40
0.6
176
     1
 41
30.0
176
     1
 62
     5
 63
     7
421
 16777215
176
     1
 74
     0
176
     1
 91
        4
176
     1
 64
     7
176
     1
 65
   257
176
     1
 75
     1
176
     1
175
     1
176
     1
 42
1.0
176
     1
 92
        8
176
     1
 66
   257
176
     1
 43
1.0
176
     1
 76
     1
176
     1
 77
     6
176
     1
 78
     2
176
     1
 67
     8
425
  7895160
176
     1
 79
     3
176
     1
170
     0
176
     1
171
     0
176
     1
290
     0
176
     1
 93
        5
176
     1
 44
0.0
176
     1
173
     0
176
     1
  0
VISUALSTYLE
  5
41
102
{ACAD_REACTORS
330
2A
102
}
102
{ACAD_XDICTIONARY
360
31A
102
}
330
2A
100
AcDbVisualStyle
  2
Shaded with edges
 70
    26
177
     2
291
     0
 71
     2
176
     1
 72
     2
176
     1
 73
     1
176
     1
 90
        2
176
     1
 40
0.6
176
     1
 41
30.0
176
     1
 62
     5
 63
     7
421
 16777215
176
     1
 74
     1
176
     1
 91
       10
176
     1
 64
     7
176
     1
 65
   257
176
     1
 75
     2
176
     1
175
     1
176
     1
 42
1.0
176
     1
 92
        8
176
     1
 66
   257
176
     1
 43
1.0
176
     1
 76
     1
176
     1
 77
     6
176
     1
 78
     2
176
     1
 67
     7
176
     1
 79
     3
176
     1
170
     0
176
     1
171
     0
176
     1
290
     0
176
     1
 93
        5
176
     1
 44
0.0
176
     1
173
     0
176
     1
  0
VISUALSTYLE
  5
3E
102
{ACAD_REACTORS
330
2A
102
}
102
{ACAD_XDICTIONARY
360
314
102
}
330
2A
100
AcDbVisualStyle
  2
Shades of Gray
 70
    23
177
     2
291
     0
 71
     2
176
     1
 72
     2
176
     1
 73
     3
176
     1
 90
        0
176
     1
 40
0.6
176
     1
 41
30.0
176
     1
 62
     5
 63
     7
421
 16777215
176
     1
 74
     2
176
     1
 91
        2
176
     1
 64
     7
176
     1
 65
     7
176
     1
 75
     1
176
     1
175
     1
176
     1
 42
40.0
176
     1
 92
        8
176
     1
 66
     7
176
     1
 43
1.0
176
     1
 76
     1
176
     1
 77
     6
176
     1
 78
     2
176
     1
 67
     7
176
     1
 79
     3
176
     1
170
     0
176
     1
171
     0
176
     1
290
     0
176
     1
 93
        1
176
     1
 44
0.0
176
     1
173
     0
176
     1
  0
VISUALSTYLE
  5
3F
102
{ACAD_REACTORS
330
2A
102
}
102
{ACAD_XDICTIONARY
360
316
102
}
330
2A
100
AcDbVisualStyle
  2
Sketchy
 70
    24
177
     2
291
     0
 71
     1
176
     1
 72
     2
176
     1
 73
     2
176
     1
 90
        0
176
     1
 40
0.6
176
     1
 41
30.0
176
     1
 62
     5
 63
     7
421
 16777215
176
     1
 74
     2
176
     1
 91
        2
176
     1
 64
     7
176
     1
 65
     7
176
     1
 75
     1
176
     1
175
     1
176
     1
 42
40.0
176
     1
 92
       11
176
     1
 66
     7
176
     1
 43
1.0
176
     1
 76
     1
176
     1
 77
     6
176
     1
 78
     2
176
     1
 67
     7
176
     1
 79
     6
176
     1
170
     0
176
     1
171
     0
176
     1
290
     0
176
     1
 93
        1
176
     1
 44
0.0
176
     1
173
     0
176
     1
  0
VISUALSTYLE
  5
37
102
{ACAD_REACTORS
330
2A
102
}
102
{ACAD_XDICTIONARY
360
306
102
}
330
2A
100
AcDbVisualStyle
  2
Thicken
 70
    13
177
     2
291
     1
 71
     2
176
     1
 72
     2
176
     1
 73
     0
176
     1
 90
        0
176
     1
 40
0.6
176
     1
 41
30.0
176
     1
 62
     5
 63
     7
421
 16777215
176
     1
 74
     1
176
     1
 91
        4
176
     1
 64
     7
176
     1
 65
   257
176
     1
 75
     1
176
     1
175
     1
176
     1
 42
1.0
176
     1
 92
       12
176
     1
 66
     7
176
     1
 43
1.0
176
     1
 76
     1
176
     1
 77
     6
176
     1
 78
     2
176
     1
 67
     7
176
     1
 79
     5
176
     1
170
     0
176
     1
171
     0
176
     1
290
     0
176
     1
 93
        1
176
     1
 44
0.0
176
     1
173
     0
176
     1
  0
VISUALSTYLE
  5
30
102
{ACAD_REACTORS
330
2A
102
}
102
{ACAD_XDICTIONARY
360
2F8
102
}
330
2A
100
AcDbVisualStyle
  2
Wireframe
 70
     5
177
     2
291
     0
 71
     0
176
     1
 72
     2
176
     1
 73
     0
176
     1
 90
        0
176
     1
 40
0.6
176
     1
 41
30.0
176
     1
 62
     5
 63
     7
421
 16777215
176
     1
 74
     1
176
     1
 91
        4
176
     1
 64
     7
176
     1
 65
   257
176
     1
 75
     1
176
     1
175
     1
176
     1
 42
1.0
176
     1
 92
        0
176
     1
 66
   257
176
     1
 43
1.0
176
     1
 76
     1
176
     1
 77
     6
176
     1
 78
     2
176
     1
 67
     7
176
     1
 79
     3
176
     1
170
     0
176
     1
171
     0
176
     1
290
     0
176
     1
 93
        1
176
     1
 44
0.0
176
     1
173
     0
176
     1
  0
VISUALSTYLE
  5
40
102
{ACAD_REACTORS
330
2A
102
}
102
{ACAD_XDICTIONARY
360
318
102
}
330
2A
100
AcDbVisualStyle
  2
X-Ray
 70
    25
177
     2
291
     0
 71
     2
176
     1
 72
     2
176
     1
 73
     1
176
     1
 90
        1
176
     1
 40
0.5
176
     1
 41
30.0
176
     1
 62
     5
 63
     7
421
 16777215
176
     1
 74
     1
176
     1
 91
        0
176
     1
 64
     7
176
     1
 65
   257
176
     1
 75
     1
176
     1
175
     1
176
     1
 42
1.0
176
     1
 92
        8
176
     1
 66
     7
176
     1
 43
1.0
176
     1
 76
     1
176
     1
 77
     6
176
     1
 78
     2
176
     1
 67
     7
176
     1
 79
     3
176
     1
170
     0
176
     1
171
     0
176
     1
290
     0
176
     1
 93
       13
176
     1
 44
0.0
176
     1
173
     0
176
     1
  0
DICTIONARYVAR
  5
2ED
102
{ACAD_REACTORS
330
2EC
102
}
330
2EC
100
DictionaryVariables
280
     0
  1
1:1
  0
DICTIONARY
  5
2F6
330
2F
100
AcDbDictionary
280
     1
281
     1
  3
ACAD_XREC_ROUNDTRIP
360
2F7
  0
DICTIONARY
  5
2FC
330
32
100
AcDbDictionary
280
     1
281
     1
  3
ACAD_XREC_ROUNDTRIP
360
2FD
  0
DICTIONARY
  5
304
330
36
100
AcDbDictionary
280
     1
281
     1
  3
ACAD_XREC_ROUNDTRIP
360
305
  0
DICTIONARY
  5
30C
330
3A
100
AcDbDictionary
280
     1
281
     1
  3
ACAD_XREC_ROUNDTRIP
360
30D
  0
DICTIONARY
  5
300
330
34
100
AcDbDictionary
280
     1
281
     1
  3
ACAD_XREC_ROUNDTRIP
360
301
  0
DICTIONARY
  5
302
330
35
100
AcDbDictionary
280
     1
281
     1
  3
ACAD_XREC_ROUNDTRIP
360
303
  0
DICTIONARY
  5
312
330
3D
100
AcDbDictionary
280
     1
281
     1
  3
ACAD_XREC_ROUNDTRIP
360
313
  0
DICTIONARY
  5
30A
330
39
100
AcDbDictionary
280
     1
281
     1
  3
ACAD_XREC_ROUNDTRIP
360
30B
  0
DICTIONARY
  5
2EE
330
2B
100
AcDbDictionary
280
     1
281
     1
  3
ACAD_XREC_ROUNDTRIP
360
2EF
  0
DICTIONARY
  5
2F0
330
2C
100
AcDbDictionary
280
     1
281
     1
  3
ACAD_XREC_ROUNDTRIP
360
2F1
  0
DICTIONARY
  5
2F2
330
2D
100
AcDbDictionary
280
     1
281
     1
  3
ACAD_XREC_ROUNDTRIP
360
2F3
  0
DICTIONARY
  5
2F4
330
2E
100
AcDbDictionary
280
     1
281
     1
  3
ACAD_XREC_ROUNDTRIP
360
2F5
  0
DICTIONARY
  5
2FA
330
31
100
AcDbDictionary
280
     1
281
     1
  3
ACAD_XREC_ROUNDTRIP
360
2FB
  0
DICTIONARY
  5
30E
330
3B
100
AcDbDictionary
280
     1
281
     1
  3
ACAD_XREC_ROUNDTRIP
360
30F
  0
DICTIONARY
  5
308
330
38
100
AcDbDictionary
280
     1
281
     1
  3
ACAD_XREC_ROUNDTRIP
360
309
  0
DICTIONARY
  5
310
330
3C
100
AcDbDictionary
280
     1
281
     1
  3
ACAD_XREC_ROUNDTRIP
360
311
  0
DICTIONARY
  5
2FE
330
33
100
AcDbDictionary
280
     1
281
     1
  3
ACAD_XREC_ROUNDTRIP
360
2FF
  0
DICTIONARY
  5
31C
330
42
100
AcDbDictionary
280
     1
281
     1
  3
ACAD_XREC_ROUNDTRIP
360
31D
  0
DICTIONARY
  5
31A
330
41
100
AcDbDictionary
280
     1
281
     1
  3
ACAD_XREC_ROUNDTRIP
360
31B
  0
DICTIONARY
  5
314
330
3E
100
AcDbDictionary
280
     1
281
     1
  3
ACAD_XREC_ROUNDTRIP
360
315
  0
DICTIONARY
  5
316
330
3F
100
AcDbDictionary
280
     1
281
     1
  3
ACAD_XREC_ROUNDTRIP
360
317
  0
DICTIONARY
  5
306
330
37
100
AcDbDictionary
280
     1
281
     1
  3
ACAD_XREC_ROUNDTRIP
360
307
  0
DICTIONARY
  5
2F8
330
30
100
AcDbDictionary
280
     1
281
     1
  3
ACAD_XREC_ROUNDTRIP
360
2F9
  0
DICTIONARY
  5
318
330
40
100
AcDbDictionary
280
     1
281
     1
  3
ACAD_XREC_ROUNDTRIP
360
319
  0
XRECORD
  5
2F7
102
{ACAD_REACTORS
330
2F6
102
}
330
2F6
100
AcDbXrecord
280
     1
102
RTVSPost2010Prop28
280
     1
102
RTVSPost2010PropOp28
 70
     1
102
RTVSPost2010Prop29
280
     1
102
RTVSPost2010PropOp29
 70
     1
102
RTVSPost2010Prop30
280
     0
102
RTVSPost2010PropOp30
 70
     1
102
RTVSPost2010Prop31
280
     0
102
RTVSPost2010PropOp31
 70
     1
102
RTVSPost2010Prop32
280
     0
102
RTVSPost2010PropOp32
 70
     1
102
RTVSPost2010Prop33
280
     0
102
RTVSPost2010PropOp33
 70
     1
102
RTVSPost2010Prop34
280
     0
102
RTVSPost2010PropOp34
 70
     1
102
RTVSPost2010Prop35
280
     0
102
RTVSPost2010PropOp35
 70
     1
102
RTVSPost2010Prop36
280
     0
102
RTVSPost2010PropOp36
 70
     1
102
RTVSPost2010Prop37
 90
       50
102
RTVSPost2010PropOp37
 70
     1
102
RTVSPost2010Prop38
140
0.0
102
RTVSPost2010PropOp38
 70
     1
102
RTVSPost2010Prop39
140
1.0
102
RTVSPost2010PropOp39
 70
     1
102
RTVSPost2010Prop40
 90
        0
102
RTVSPost2010PropOp40
 70
     1
102
RTVSPost2010Prop41ColorIndex
 90
       18
102
RTVSPost2010Prop41ColorRGB
 90
        0
102
RTVSPost2010PropOp41
 70
     1
102
RTVSPost2010Prop42
 90
       50
102
RTVSPost2010PropOp42
 70
     1
102
RTVSPost2010Prop43
 90
        3
102
RTVSPost2010PropOp43
 70
     1
102
RTVSPost2010Prop44ColorIndex
 90
        5
102
RTVSPost2010Prop44ColorRGB
 90
      255
102
RTVSPost2010PropOp44
 70
     1
102
RTVSPost2010Prop45
280
     0
102
RTVSPost2010PropOp45
 70
     1
102
RTVSPost2010Prop46
 90
       50
102
RTVSPost2010PropOp46
 70
     1
102
RTVSPost2010Prop47
 90
       50
102
RTVSPost2010PropOp47
 70
     1
102
RTVSPost2010Prop48
 90
       50
102
RTVSPost2010PropOp48
 70
     1
102
RTVSPost2010Prop49
280
     0
102
RTVSPost2010PropOp49
 70
     1
102
RTVSPost2010Prop50
 90
       50
102
RTVSPost2010PropOp50
 70
     1
102
RTVSPost2010Prop51ColorIndex
 90
      256
102
RTVSPost2010Prop51ColorRGB
 90
-16777216
102
RTVSPost2010PropOp51
 70
     0
102
RTVSPost2010Prop52
140
1.0
102
RTVSPost2010PropOp52
 70
     0
102
RTVSPost2010Prop53
 90
        2
102
RTVSPost2010PropOp53
 70
     1
102
RTVSPost2010Prop54
  1
strokes_ogs.tif
102
RTVSPost2010PropOp54
 70
     1
102
RTVSPost2010Prop55
280
     0
102
RTVSPost2010PropOp55
 70
     1
102
RTVSPost2010Prop56
140
1.0
102
RTVSPost2010PropOp56
 70
     1
102
RTVSPost2010Prop57
140
1.0
102
RTVSPost2010PropOp57
 70
     1
  0
XRECORD
  5
2FD
102
{ACAD_REACTORS
330
2FC
102
}
330
2FC
100
AcDbXrecord
280
     1
102
RTVSPost2010Prop28
280
     0
102
RTVSPost2010PropOp28
 70
     1
102
RTVSPost2010Prop29
280
     1
102
RTVSPost2010PropOp29
 70
     1
102
RTVSPost2010Prop30
280
     1
102
RTVSPost2010PropOp30
 70
     1
102
RTVSPost2010Prop31
280
     0
102
RTVSPost2010PropOp31
 70
     1
102
RTVSPost2010Prop32
280
     0
102
RTVSPost2010PropOp32
 70
     1
102
RTVSPost2010Prop33
280
     0
102
RTVSPost2010PropOp33
 70
     1
102
RTVSPost2010Prop34
280
     0
102
RTVSPost2010PropOp34
 70
     1
102
RTVSPost2010Prop35
280
     0
102
RTVSPost2010PropOp35
 70
     1
102
RTVSPost2010Prop36
280
     0
102
RTVSPost2010PropOp36
 70
     1
102
RTVSPost2010Prop37
 90
       50
102
RTVSPost2010PropOp37
 70
     1
102
RTVSPost2010Prop38
140
0.0
102
RTVSPost2010PropOp38
 70
     1
102
RTVSPost2010Prop39
140
1.0
102
RTVSPost2010PropOp39
 70
     1
102
RTVSPost2010Prop40
 90
        0
102
RTVSPost2010PropOp40
 70
     1
102
RTVSPost2010Prop41ColorIndex
 90
       18
102
RTVSPost2010Prop41ColorRGB
 90
        0
102
RTVSPost2010PropOp41
 70
     1
102
RTVSPost2010Prop42
 90
       50
102
RTVSPost2010PropOp42
 70
     1
102
RTVSPost2010Prop43
 90
        3
102
RTVSPost2010PropOp43
 70
     1
102
RTVSPost2010Prop44ColorIndex
 90
        5
102
RTVSPost2010Prop44ColorRGB
 90
      255
102
RTVSPost2010PropOp44
 70
     1
102
RTVSPost2010Prop45
280
     0
102
RTVSPost2010PropOp45
 70
     1
102
RTVSPost2010Prop46
 90
       50
102
RTVSPost2010PropOp46
 70
     1
102
RTVSPost2010Prop47
 90
       50
102
RTVSPost2010PropOp47
 70
     1
102
RTVSPost2010Prop48
 90
       50
102
RTVSPost2010PropOp48
 70
     1
102
RTVSPost2010Prop49
280
     0
102
RTVSPost2010PropOp49
 70
     1
102
RTVSPost2010Prop50
 90
       50
102
RTVSPost2010PropOp50
 70
     1
102
RTVSPost2010Prop51ColorIndex
 90
      256
102
RTVSPost2010Prop51ColorRGB
 90
-16777216
102
RTVSPost2010PropOp51
 70
     0
102
RTVSPost2010Prop52
140
1.0
102
RTVSPost2010PropOp52
 70
     0
102
RTVSPost2010Prop53
 90
        2
102
RTVSPost2010PropOp53
 70
     1
102
RTVSPost2010Prop54
  1
strokes_ogs.tif
102
RTVSPost2010PropOp54
 70
     1
102
RTVSPost2010Prop55
280
     0
102
RTVSPost2010PropOp55
 70
     1
102
RTVSPost2010Prop56
140
1.0
102
RTVSPost2010PropOp56
 70
     1
102
RTVSPost2010Prop57
140
1.0
102
RTVSPost2010PropOp57
 70
     1
  0
XRECORD
  5
305
102
{ACAD_REACTORS
330
304
102
}
330
304
100
AcDbXrecord
280
     1
102
RTVSPost2010Prop28
280
     0
102
RTVSPost2010PropOp28
 70
     1
102
RTVSPost2010Prop29
280
     1
102
RTVSPost2010PropOp29
 70
     1
102
RTVSPost2010Prop30
280
     1
102
RTVSPost2010PropOp30
 70
     1
102
RTVSPost2010Prop31
280
     0
102
RTVSPost2010PropOp31
 70
     1
102
RTVSPost2010Prop32
280
     0
102
RTVSPost2010PropOp32
 70
     1
102
RTVSPost2010Prop33
280
     0
102
RTVSPost2010PropOp33
 70
     1
102
RTVSPost2010Prop34
280
     0
102
RTVSPost2010PropOp34
 70
     1
102
RTVSPost2010Prop35
280
     0
102
RTVSPost2010PropOp35
 70
     1
102
RTVSPost2010Prop36
280
     0
102
RTVSPost2010PropOp36
 70
     1
102
RTVSPost2010Prop37
 90
       50
102
RTVSPost2010PropOp37
 70
     1
102
RTVSPost2010Prop38
140
0.0
102
RTVSPost2010PropOp38
 70
     1
102
RTVSPost2010Prop39
140
1.0
102
RTVSPost2010PropOp39
 70
     1
102
RTVSPost2010Prop40
 90
        0
102
RTVSPost2010PropOp40
 70
     1
102
RTVSPost2010Prop41ColorIndex
 90
       18
102
RTVSPost2010Prop41ColorRGB
 90
        0
102
RTVSPost2010PropOp41
 70
     1
102
RTVSPost2010Prop42
 90
       50
102
RTVSPost2010PropOp42
 70
     1
102
RTVSPost2010Prop43
 90
        3
102
RTVSPost2010PropOp43
 70
     1
102
RTVSPost2010Prop44ColorIndex
 90
        5
102
RTVSPost2010Prop44ColorRGB
 90
      255
102
RTVSPost2010PropOp44
 70
     1
102
RTVSPost2010Prop45
280
     0
102
RTVSPost2010PropOp45
 70
     1
102
RTVSPost2010Prop46
 90
       50
102
RTVSPost2010PropOp46
 70
     1
102
RTVSPost2010Prop47
 90
       50
102
RTVSPost2010PropOp47
 70
     1
102
RTVSPost2010Prop48
 90
       50
102
RTVSPost2010PropOp48
 70
     1
102
RTVSPost2010Prop49
280
     0
102
RTVSPost2010PropOp49
 70
     1
102
RTVSPost2010Prop50
 90
       50
102
RTVSPost2010PropOp50
 70
     1
102
RTVSPost2010Prop51ColorIndex
 90
      256
102
RTVSPost2010Prop51ColorRGB
 90
-16777216
102
RTVSPost2010PropOp51
 70
     0
102
RTVSPost2010Prop52
140
1.0
102
RTVSPost2010PropOp52
 70
     0
102
RTVSPost2010Prop53
 90
        2
102
RTVSPost2010PropOp53
 70
     1
102
RTVSPost2010Prop54
  1
strokes_ogs.tif
102
RTVSPost2010PropOp54
 70
     1
102
RTVSPost2010Prop55
280
     0
102
RTVSPost2010PropOp55
 70
     1
102
RTVSPost2010Prop56
140
1.0
102
RTVSPost2010PropOp56
 70
     1
102
RTVSPost2010Prop57
140
1.0
102
RTVSPost2010PropOp57
 70
     1
  0
XRECORD
  5
30D
102
{ACAD_REACTORS
330
30C
102
}
330
30C
100
AcDbXrecord
280
     1
102
RTVSPost2010Prop28
280
     0
102
RTVSPost2010PropOp28
 70
     1
102
RTVSPost2010Prop29
280
     1
102
RTVSPost2010PropOp29
 70
     1
102
RTVSPost2010Prop30
280
     1
102
RTVSPost2010PropOp30
 70
     1
102
RTVSPost2010Prop31
280
     0
102
RTVSPost2010PropOp31
 70
     1
102
RTVSPost2010Prop32
280
     0
102
RTVSPost2010PropOp32
 70
     1
102
RTVSPost2010Prop33
280
     0
102
RTVSPost2010PropOp33
 70
     1
102
RTVSPost2010Prop34
280
     0
102
RTVSPost2010PropOp34
 70
     1
102
RTVSPost2010Prop35
280
     0
102
RTVSPost2010PropOp35
 70
     1
102
RTVSPost2010Prop36
280
     0
102
RTVSPost2010PropOp36
 70
     1
102
RTVSPost2010Prop37
 90
       50
102
RTVSPost2010PropOp37
 70
     1
102
RTVSPost2010Prop38
140
0.0
102
RTVSPost2010PropOp38
 70
     1
102
RTVSPost2010Prop39
140
1.0
102
RTVSPost2010PropOp39
 70
     1
102
RTVSPost2010Prop40
 90
        0
102
RTVSPost2010PropOp40
 70
     1
102
RTVSPost2010Prop41ColorIndex
 90
       18
102
RTVSPost2010Prop41ColorRGB
 90
        0
102
RTVSPost2010PropOp41
 70
     1
102
RTVSPost2010Prop42
 90
       50
102
RTVSPost2010PropOp42
 70
     1
102
RTVSPost2010Prop43
 90
        3
102
RTVSPost2010PropOp43
 70
     1
102
RTVSPost2010Prop44ColorIndex
 90
        5
102
RTVSPost2010Prop44ColorRGB
 90
      255
102
RTVSPost2010PropOp44
 70
     1
102
RTVSPost2010Prop45
280
     0
102
RTVSPost2010PropOp45
 70
     1
102
RTVSPost2010Prop46
 90
       50
102
RTVSPost2010PropOp46
 70
     1
102
RTVSPost2010Prop47
 90
       50
102
RTVSPost2010PropOp47
 70
     1
102
RTVSPost2010Prop48
 90
       50
102
RTVSPost2010PropOp48
 70
     1
102
RTVSPost2010Prop49
280
     0
102
RTVSPost2010PropOp49
 70
     1
102
RTVSPost2010Prop50
 90
       50
102
RTVSPost2010PropOp50
 70
     1
102
RTVSPost2010Prop51ColorIndex
 90
      256
102
RTVSPost2010Prop51ColorRGB
 90
-16777216
102
RTVSPost2010PropOp51
 70
     0
102
RTVSPost2010Prop52
140
1.0
102
RTVSPost2010PropOp52
 70
     0
102
RTVSPost2010Prop53
 90
        2
102
RTVSPost2010PropOp53
 70
     1
102
RTVSPost2010Prop54
  1
strokes_ogs.tif
102
RTVSPost2010PropOp54
 70
     1
102
RTVSPost2010Prop55
280
     0
102
RTVSPost2010PropOp55
 70
     1
102
RTVSPost2010Prop56
140
1.0
102
RTVSPost2010PropOp56
 70
     1
102
RTVSPost2010Prop57
140
1.0
102
RTVSPost2010PropOp57
 70
     1
  0
XRECORD
  5
301
102
{ACAD_REACTORS
330
300
102
}
330
300
100
AcDbXrecord
280
     1
102
RTVSPost2010Prop28
280
     0
102
RTVSPost2010PropOp28
 70
     1
102
RTVSPost2010Prop29
280
     1
102
RTVSPost2010PropOp29
 70
     1
102
RTVSPost2010Prop30
280
     1
102
RTVSPost2010PropOp30
 70
     1
102
RTVSPost2010Prop31
280
     0
102
RTVSPost2010PropOp31
 70
     1
102
RTVSPost2010Prop32
280
     0
102
RTVSPost2010PropOp32
 70
     1
102
RTVSPost2010Prop33
280
     0
102
RTVSPost2010PropOp33
 70
     1
102
RTVSPost2010Prop34
280
     0
102
RTVSPost2010PropOp34
 70
     1
102
RTVSPost2010Prop35
280
     0
102
RTVSPost2010PropOp35
 70
     1
102
RTVSPost2010Prop36
280
     0
102
RTVSPost2010PropOp36
 70
     1
102
RTVSPost2010Prop37
 90
       50
102
RTVSPost2010PropOp37
 70
     1
102
RTVSPost2010Prop38
140
0.0
102
RTVSPost2010PropOp38
 70
     1
102
RTVSPost2010Prop39
140
1.0
102
RTVSPost2010PropOp39
 70
     1
102
RTVSPost2010Prop40
 90
        0
102
RTVSPost2010PropOp40
 70
     1
102
RTVSPost2010Prop41ColorIndex
 90
       18
102
RTVSPost2010Prop41ColorRGB
 90
        0
102
RTVSPost2010PropOp41
 70
     1
102
RTVSPost2010Prop42
 90
       50
102
RTVSPost2010PropOp42
 70
     1
102
RTVSPost2010Prop43
 90
        3
102
RTVSPost2010PropOp43
 70
     1
102
RTVSPost2010Prop44ColorIndex
 90
        5
102
RTVSPost2010Prop44ColorRGB
 90
      255
102
RTVSPost2010PropOp44
 70
     1
102
RTVSPost2010Prop45
280
     0
102
RTVSPost2010PropOp45
 70
     1
102
RTVSPost2010Prop46
 90
       50
102
RTVSPost2010PropOp46
 70
     1
102
RTVSPost2010Prop47
 90
       50
102
RTVSPost2010PropOp47
 70
     1
102
RTVSPost2010Prop48
 90
       50
102
RTVSPost2010PropOp48
 70
     1
102
RTVSPost2010Prop49
280
     0
102
RTVSPost2010PropOp49
 70
     1
102
RTVSPost2010Prop50
 90
       50
102
RTVSPost2010PropOp50
 70
     1
102
RTVSPost2010Prop51ColorIndex
 90
      256
102
RTVSPost2010Prop51ColorRGB
 90
-16777216
102
RTVSPost2010PropOp51
 70
     0
102
RTVSPost2010Prop52
140
1.0
102
RTVSPost2010PropOp52
 70
     0
102
RTVSPost2010Prop53
 90
        2
102
RTVSPost2010PropOp53
 70
     1
102
RTVSPost2010Prop54
  1
strokes_ogs.tif
102
RTVSPost2010PropOp54
 70
     1
102
RTVSPost2010Prop55
280
     0
102
RTVSPost2010PropOp55
 70
     1
102
RTVSPost2010Prop56
140
1.0
102
RTVSPost2010PropOp56
 70
     1
102
RTVSPost2010Prop57
140
1.0
102
RTVSPost2010PropOp57
 70
     1
  0
XRECORD
  5
303
102
{ACAD_REACTORS
330
302
102
}
330
302
100
AcDbXrecord
280
     1
102
RTVSPost2010Prop28
280
     0
102
RTVSPost2010PropOp28
 70
     1
102
RTVSPost2010Prop29
280
     1
102
RTVSPost2010PropOp29
 70
     1
102
RTVSPost2010Prop30
280
     1
102
RTVSPost2010PropOp30
 70
     1
102
RTVSPost2010Prop31
280
     0
102
RTVSPost2010PropOp31
 70
     1
102
RTVSPost2010Prop32
280
     0
102
RTVSPost2010PropOp32
 70
     1
102
RTVSPost2010Prop33
280
     0
102
RTVSPost2010PropOp33
 70
     1
102
RTVSPost2010Prop34
280
     0
102
RTVSPost2010PropOp34
 70
     1
102
RTVSPost2010Prop35
280
     0
102
RTVSPost2010PropOp35
 70
     1
102
RTVSPost2010Prop36
280
     0
102
RTVSPost2010PropOp36
 70
     1
102
RTVSPost2010Prop37
 90
       50
102
RTVSPost2010PropOp37
 70
     1
102
RTVSPost2010Prop38
140
0.0
102
RTVSPost2010PropOp38
 70
     1
102
RTVSPost2010Prop39
140
1.0
102
RTVSPost2010PropOp39
 70
     1
102
RTVSPost2010Prop40
 90
        0
102
RTVSPost2010PropOp40
 70
     1
102
RTVSPost2010Prop41ColorIndex
 90
       18
102
RTVSPost2010Prop41ColorRGB
 90
        0
102
RTVSPost2010PropOp41
 70
     1
102
RTVSPost2010Prop42
 90
       50
102
RTVSPost2010PropOp42
 70
     1
102
RTVSPost2010Prop43
 90
        3
102
RTVSPost2010PropOp43
 70
     1
102
RTVSPost2010Prop44ColorIndex
 90
        5
102
RTVSPost2010Prop44ColorRGB
 90
      255
102
RTVSPost2010PropOp44
 70
     1
102
RTVSPost2010Prop45
280
     0
102
RTVSPost2010PropOp45
 70
     1
102
RTVSPost2010Prop46
 90
       50
102
RTVSPost2010PropOp46
 70
     1
102
RTVSPost2010Prop47
 90
       50
102
RTVSPost2010PropOp47
 70
     1
102
RTVSPost2010Prop48
 90
       50
102
RTVSPost2010PropOp48
 70
     1
102
RTVSPost2010Prop49
280
     0
102
RTVSPost2010PropOp49
 70
     1
102
RTVSPost2010Prop50
 90
       50
102
RTVSPost2010PropOp50
 70
     1
102
RTVSPost2010Prop51ColorIndex
 90
      256
102
RTVSPost2010Prop51ColorRGB
 90
-16777216
102
RTVSPost2010PropOp51
 70
     0
102
RTVSPost2010Prop52
140
1.0
102
RTVSPost2010PropOp52
 70
     0
102
RTVSPost2010Prop53
 90
        2
102
RTVSPost2010PropOp53
 70
     1
102
RTVSPost2010Prop54
  1
strokes_ogs.tif
102
RTVSPost2010PropOp54
 70
     1
102
RTVSPost2010Prop55
280
     0
102
RTVSPost2010PropOp55
 70
     1
102
RTVSPost2010Prop56
140
1.0
102
RTVSPost2010PropOp56
 70
     1
102
RTVSPost2010Prop57
140
1.0
102
RTVSPost2010PropOp57
 70
     1
  0
XRECORD
  5
313
102
{ACAD_REACTORS
330
312
102
}
330
312
100
AcDbXrecord
280
     1
102
RTVSPost2010Prop28
280
     0
102
RTVSPost2010PropOp28
 70
     0
102
RTVSPost2010Prop29
280
     1
102
RTVSPost2010PropOp29
 70
     0
102
RTVSPost2010Prop30
280
     1
102
RTVSPost2010PropOp30
 70
     0
102
RTVSPost2010Prop31
280
     0
102
RTVSPost2010PropOp31
 70
     0
102
RTVSPost2010Prop32
280
     0
102
RTVSPost2010PropOp32
 70
     0
102
RTVSPost2010Prop33
280
     0
102
RTVSPost2010PropOp33
 70
     0
102
RTVSPost2010Prop34
280
     0
102
RTVSPost2010PropOp34
 70
     0
102
RTVSPost2010Prop35
280
     0
102
RTVSPost2010PropOp35
 70
     0
102
RTVSPost2010Prop36
280
     0
102
RTVSPost2010PropOp36
 70
     0
102
RTVSPost2010Prop37
 90
       50
102
RTVSPost2010PropOp37
 70
     0
102
RTVSPost2010Prop38
140
0.0
102
RTVSPost2010PropOp38
 70
     0
102
RTVSPost2010Prop39
140
1.0
102
RTVSPost2010PropOp39
 70
     0
102
RTVSPost2010Prop40
 90
        0
102
RTVSPost2010PropOp40
 70
     0
102
RTVSPost2010Prop41ColorIndex
 90
       18
102
RTVSPost2010Prop41ColorRGB
 90
        0
102
RTVSPost2010PropOp41
 70
     0
102
RTVSPost2010Prop42
 90
       50
102
RTVSPost2010PropOp42
 70
     0
102
RTVSPost2010Prop43
 90
        3
102
RTVSPost2010PropOp43
 70
     0
102
RTVSPost2010Prop44ColorIndex
 90
        5
102
RTVSPost2010Prop44ColorRGB
 90
      255
102
RTVSPost2010PropOp44
 70
     0
102
RTVSPost2010Prop45
280
     0
102
RTVSPost2010PropOp45
 70
     0
102
RTVSPost2010Prop46
 90
       50
102
RTVSPost2010PropOp46
 70
     0
102
RTVSPost2010Prop47
 90
       50
102
RTVSPost2010PropOp47
 70
     0
102
RTVSPost2010Prop48
 90
       50
102
RTVSPost2010PropOp48
 70
     0
102
RTVSPost2010Prop49
280
     0
102
RTVSPost2010PropOp49
 70
     0
102
RTVSPost2010Prop50
 90
       50
102
RTVSPost2010PropOp50
 70
     0
102
RTVSPost2010Prop51ColorIndex
 90
      256
102
RTVSPost2010Prop51ColorRGB
 90
-16777216
102
RTVSPost2010PropOp51
 70
     0
102
RTVSPost2010Prop52
140
1.0
102
RTVSPost2010PropOp52
 70
     0
102
RTVSPost2010Prop53
 90
        2
102
RTVSPost2010PropOp53
 70
     0
102
RTVSPost2010Prop54
  1
strokes_ogs.tif
102
RTVSPost2010PropOp54
 70
     0
102
RTVSPost2010Prop55
280
     0
102
RTVSPost2010PropOp55
 70
     0
102
RTVSPost2010Prop56
140
1.0
102
RTVSPost2010PropOp56
 70
     0
102
RTVSPost2010Prop57
140
1.0
102
RTVSPost2010PropOp57
 70
     0
  0
XRECORD
  5
30B
102
{ACAD_REACTORS
330
30A
102
}
330
30A
100
AcDbXrecord
280
     1
102
RTVSPost2010Prop28
280
     0
102
RTVSPost2010PropOp28
 70
     1
102
RTVSPost2010Prop29
280
     1
102
RTVSPost2010PropOp29
 70
     1
102
RTVSPost2010Prop30
280
     1
102
RTVSPost2010PropOp30
 70
     1
102
RTVSPost2010Prop31
280
     0
102
RTVSPost2010PropOp31
 70
     1
102
RTVSPost2010Prop32
280
     0
102
RTVSPost2010PropOp32
 70
     1
102
RTVSPost2010Prop33
280
     0
102
RTVSPost2010PropOp33
 70
     1
102
RTVSPost2010Prop34
280
     0
102
RTVSPost2010PropOp34
 70
     1
102
RTVSPost2010Prop35
280
     0
102
RTVSPost2010PropOp35
 70
     1
102
RTVSPost2010Prop36
280
     0
102
RTVSPost2010PropOp36
 70
     1
102
RTVSPost2010Prop37
 90
       50
102
RTVSPost2010PropOp37
 70
     1
102
RTVSPost2010Prop38
140
0.0
102
RTVSPost2010PropOp38
 70
     1
102
RTVSPost2010Prop39
140
1.0
102
RTVSPost2010PropOp39
 70
     1
102
RTVSPost2010Prop40
 90
        0
102
RTVSPost2010PropOp40
 70
     1
102
RTVSPost2010Prop41ColorIndex
 90
       18
102
RTVSPost2010Prop41ColorRGB
 90
        0
102
RTVSPost2010PropOp41
 70
     1
102
RTVSPost2010Prop42
 90
       50
102
RTVSPost2010PropOp42
 70
     1
102
RTVSPost2010Prop43
 90
        3
102
RTVSPost2010PropOp43
 70
     1
102
RTVSPost2010Prop44ColorIndex
 90
        5
102
RTVSPost2010Prop44ColorRGB
 90
      255
102
RTVSPost2010PropOp44
 70
     1
102
RTVSPost2010Prop45
280
     0
102
RTVSPost2010PropOp45
 70
     1
102
RTVSPost2010Prop46
 90
       50
102
RTVSPost2010PropOp46
 70
     1
102
RTVSPost2010Prop47
 90
       50
102
RTVSPost2010PropOp47
 70
     1
102
RTVSPost2010Prop48
 90
       50
102
RTVSPost2010PropOp48
 70
     1
102
RTVSPost2010Prop49
280
     0
102
RTVSPost2010PropOp49
 70
     1
102
RTVSPost2010Prop50
 90
       50
102
RTVSPost2010PropOp50
 70
     1
102
RTVSPost2010Prop51ColorIndex
 90
      256
102
RTVSPost2010Prop51ColorRGB
 90
-16777216
102
RTVSPost2010PropOp51
 70
     0
102
RTVSPost2010Prop52
140
1.0
102
RTVSPost2010PropOp52
 70
     0
102
RTVSPost2010Prop53
 90
        2
102
RTVSPost2010PropOp53
 70
     1
102
RTVSPost2010Prop54
  1
strokes_ogs.tif
102
RTVSPost2010PropOp54
 70
     1
102
RTVSPost2010Prop55
280
     0
102
RTVSPost2010PropOp55
 70
     1
102
RTVSPost2010Prop56
140
1.0
102
RTVSPost2010PropOp56
 70
     1
102
RTVSPost2010Prop57
140
1.0
102
RTVSPost2010PropOp57
 70
     1
  0
XRECORD
  5
2EF
102
{ACAD_REACTORS
330
2EE
102
}
330
2EE
100
AcDbXrecord
280
     1
102
RTVSPost2010Prop28
280
     0
102
RTVSPost2010PropOp28
 70
     1
102
RTVSPost2010Prop29
280
     1
102
RTVSPost2010PropOp29
 70
     1
102
RTVSPost2010Prop30
280
     1
102
RTVSPost2010PropOp30
 70
     1
102
RTVSPost2010Prop31
280
     0
102
RTVSPost2010PropOp31
 70
     1
102
RTVSPost2010Prop32
280
     0
102
RTVSPost2010PropOp32
 70
     1
102
RTVSPost2010Prop33
280
     0
102
RTVSPost2010PropOp33
 70
     1
102
RTVSPost2010Prop34
280
     0
102
RTVSPost2010PropOp34
 70
     1
102
RTVSPost2010Prop35
280
     0
102
RTVSPost2010PropOp35
 70
     1
102
RTVSPost2010Prop36
280
     0
102
RTVSPost2010PropOp36
 70
     1
102
RTVSPost2010Prop37
 90
       50
102
RTVSPost2010PropOp37
 70
     1
102
RTVSPost2010Prop38
140
0.0
102
RTVSPost2010PropOp38
 70
     1
102
RTVSPost2010Prop39
140
1.0
102
RTVSPost2010PropOp39
 70
     1
102
RTVSPost2010Prop40
 90
        0
102
RTVSPost2010PropOp40
 70
     1
102
RTVSPost2010Prop41ColorIndex
 90
       18
102
RTVSPost2010Prop41ColorRGB
 90
        0
102
RTVSPost2010PropOp41
 70
     1
102
RTVSPost2010Prop42
 90
       50
102
RTVSPost2010PropOp42
 70
     1
102
RTVSPost2010Prop43
 90
        3
102
RTVSPost2010PropOp43
 70
     1
102
RTVSPost2010Prop44ColorIndex
 90
        5
102
RTVSPost2010Prop44ColorRGB
 90
      255
102
RTVSPost2010PropOp44
 70
     1
102
RTVSPost2010Prop45
280
     0
102
RTVSPost2010PropOp45
 70
     1
102
RTVSPost2010Prop46
 90
       50
102
RTVSPost2010PropOp46
 70
     1
102
RTVSPost2010Prop47
 90
       50
102
RTVSPost2010PropOp47
 70
     1
102
RTVSPost2010Prop48
 90
       50
102
RTVSPost2010PropOp48
 70
     1
102
RTVSPost2010Prop49
280
     0
102
RTVSPost2010PropOp49
 70
     1
102
RTVSPost2010Prop50
 90
       50
102
RTVSPost2010PropOp50
 70
     1
102
RTVSPost2010Prop51ColorIndex
 90
      256
102
RTVSPost2010Prop51ColorRGB
 90
-16777216
102
RTVSPost2010PropOp51
 70
     0
102
RTVSPost2010Prop52
140
1.0
102
RTVSPost2010PropOp52
 70
     0
102
RTVSPost2010Prop53
 90
        2
102
RTVSPost2010PropOp53
 70
     1
102
RTVSPost2010Prop54
  1
strokes_ogs.tif
102
RTVSPost2010PropOp54
 70
     1
102
RTVSPost2010Prop55
280
     0
102
RTVSPost2010PropOp55
 70
     1
102
RTVSPost2010Prop56
140
1.0
102
RTVSPost2010PropOp56
 70
     1
102
RTVSPost2010Prop57
140
1.0
102
RTVSPost2010PropOp57
 70
     1
  0
XRECORD
  5
2F1
102
{ACAD_REACTORS
330
2F0
102
}
330
2F0
100
AcDbXrecord
280
     1
102
RTVSPost2010Prop28
280
     0
102
RTVSPost2010PropOp28
 70
     1
102
RTVSPost2010Prop29
280
     1
102
RTVSPost2010PropOp29
 70
     1
102
RTVSPost2010Prop30
280
     1
102
RTVSPost2010PropOp30
 70
     1
102
RTVSPost2010Prop31
280
     0
102
RTVSPost2010PropOp31
 70
     1
102
RTVSPost2010Prop32
280
     0
102
RTVSPost2010PropOp32
 70
     1
102
RTVSPost2010Prop33
280
     0
102
RTVSPost2010PropOp33
 70
     1
102
RTVSPost2010Prop34
280
     0
102
RTVSPost2010PropOp34
 70
     1
102
RTVSPost2010Prop35
280
     0
102
RTVSPost2010PropOp35
 70
     1
102
RTVSPost2010Prop36
280
     0
102
RTVSPost2010PropOp36
 70
     1
102
RTVSPost2010Prop37
 90
       50
102
RTVSPost2010PropOp37
 70
     1
102
RTVSPost2010Prop38
140
0.0
102
RTVSPost2010PropOp38
 70
     1
102
RTVSPost2010Prop39
140
1.0
102
RTVSPost2010PropOp39
 70
     1
102
RTVSPost2010Prop40
 90
        0
102
RTVSPost2010PropOp40
 70
     1
102
RTVSPost2010Prop41ColorIndex
 90
       18
102
RTVSPost2010Prop41ColorRGB
 90
        0
102
RTVSPost2010PropOp41
 70
     1
102
RTVSPost2010Prop42
 90
       50
102
RTVSPost2010PropOp42
 70
     1
102
RTVSPost2010Prop43
 90
        3
102
RTVSPost2010PropOp43
 70
     1
102
RTVSPost2010Prop44ColorIndex
 90
        5
102
RTVSPost2010Prop44ColorRGB
 90
      255
102
RTVSPost2010PropOp44
 70
     1
102
RTVSPost2010Prop45
280
     0
102
RTVSPost2010PropOp45
 70
     1
102
RTVSPost2010Prop46
 90
       50
102
RTVSPost2010PropOp46
 70
     1
102
RTVSPost2010Prop47
 90
       50
102
RTVSPost2010PropOp47
 70
     1
102
RTVSPost2010Prop48
 90
       50
102
RTVSPost2010PropOp48
 70
     1
102
RTVSPost2010Prop49
280
     0
102
RTVSPost2010PropOp49
 70
     1
102
RTVSPost2010Prop50
 90
       50
102
RTVSPost2010PropOp50
 70
     1
102
RTVSPost2010Prop51ColorIndex
 90
      256
102
RTVSPost2010Prop51ColorRGB
 90
-16777216
102
RTVSPost2010PropOp51
 70
     0
102
RTVSPost2010Prop52
140
1.0
102
RTVSPost2010PropOp52
 70
     0
102
RTVSPost2010Prop53
 90
        2
102
RTVSPost2010PropOp53
 70
     1
102
RTVSPost2010Prop54
  1
strokes_ogs.tif
102
RTVSPost2010PropOp54
 70
     1
102
RTVSPost2010Prop55
280
     0
102
RTVSPost2010PropOp55
 70
     1
102
RTVSPost2010Prop56
140
1.0
102
RTVSPost2010PropOp56
 70
     1
102
RTVSPost2010Prop57
140
1.0
102
RTVSPost2010PropOp57
 70
     1
  0
XRECORD
  5
2F3
102
{ACAD_REACTORS
330
2F2
102
}
330
2F2
100
AcDbXrecord
280
     1
102
RTVSPost2010Prop28
280
     0
102
RTVSPost2010PropOp28
 70
     1
102
RTVSPost2010Prop29
280
     1
102
RTVSPost2010PropOp29
 70
     1
102
RTVSPost2010Prop30
280
     1
102
RTVSPost2010PropOp30
 70
     1
102
RTVSPost2010Prop31
280
     0
102
RTVSPost2010PropOp31
 70
     1
102
RTVSPost2010Prop32
280
     0
102
RTVSPost2010PropOp32
 70
     1
102
RTVSPost2010Prop33
280
     0
102
RTVSPost2010PropOp33
 70
     1
102
RTVSPost2010Prop34
280
     0
102
RTVSPost2010PropOp34
 70
     1
102
RTVSPost2010Prop35
280
     0
102
RTVSPost2010PropOp35
 70
     1
102
RTVSPost2010Prop36
280
     0
102
RTVSPost2010PropOp36
 70
     1
102
RTVSPost2010Prop37
 90
       50
102
RTVSPost2010PropOp37
 70
     1
102
RTVSPost2010Prop38
140
0.0
102
RTVSPost2010PropOp38
 70
     1
102
RTVSPost2010Prop39
140
1.0
102
RTVSPost2010PropOp39
 70
     1
102
RTVSPost2010Prop40
 90
        0
102
RTVSPost2010PropOp40
 70
     1
102
RTVSPost2010Prop41ColorIndex
 90
       18
102
RTVSPost2010Prop41ColorRGB
 90
        0
102
RTVSPost2010PropOp41
 70
     1
102
RTVSPost2010Prop42
 90
       50
102
RTVSPost2010PropOp42
 70
     1
102
RTVSPost2010Prop43
 90
        3
102
RTVSPost2010PropOp43
 70
     1
102
RTVSPost2010Prop44ColorIndex
 90
        5
102
RTVSPost2010Prop44ColorRGB
 90
      255
102
RTVSPost2010PropOp44
 70
     1
102
RTVSPost2010Prop45
280
     0
102
RTVSPost2010PropOp45
 70
     1
102
RTVSPost2010Prop46
 90
       50
102
RTVSPost2010PropOp46
 70
     1
102
RTVSPost2010Prop47
 90
       50
102
RTVSPost2010PropOp47
 70
     1
102
RTVSPost2010Prop48
 90
       50
102
RTVSPost2010PropOp48
 70
     1
102
RTVSPost2010Prop49
280
     0
102
RTVSPost2010PropOp49
 70
     1
102
RTVSPost2010Prop50
 90
       50
102
RTVSPost2010PropOp50
 70
     1
102
RTVSPost2010Prop51ColorIndex
 90
      256
102
RTVSPost2010Prop51ColorRGB
 90
-16777216
102
RTVSPost2010PropOp51
 70
     0
102
RTVSPost2010Prop52
140
1.0
102
RTVSPost2010PropOp52
 70
     0
102
RTVSPost2010Prop53
 90
        2
102
RTVSPost2010PropOp53
 70
     1
102
RTVSPost2010Prop54
  1
strokes_ogs.tif
102
RTVSPost2010PropOp54
 70
     1
102
RTVSPost2010Prop55
280
     0
102
RTVSPost2010PropOp55
 70
     1
102
RTVSPost2010Prop56
140
1.0
102
RTVSPost2010PropOp56
 70
     1
102
RTVSPost2010Prop57
140
1.0
102
RTVSPost2010PropOp57
 70
     1
  0
XRECORD
  5
2F5
102
{ACAD_REACTORS
330
2F4
102
}
330
2F4
100
AcDbXrecord
280
     1
102
RTVSPost2010Prop28
280
     0
102
RTVSPost2010PropOp28
 70
     1
102
RTVSPost2010Prop29
280
     1
102
RTVSPost2010PropOp29
 70
     1
102
RTVSPost2010Prop30
280
     1
102
RTVSPost2010PropOp30
 70
     1
102
RTVSPost2010Prop31
280
     0
102
RTVSPost2010PropOp31
 70
     1
102
RTVSPost2010Prop32
280
     0
102
RTVSPost2010PropOp32
 70
     1
102
RTVSPost2010Prop33
280
     0
102
RTVSPost2010PropOp33
 70
     1
102
RTVSPost2010Prop34
280
     0
102
RTVSPost2010PropOp34
 70
     1
102
RTVSPost2010Prop35
280
     0
102
RTVSPost2010PropOp35
 70
     1
102
RTVSPost2010Prop36
280
     0
102
RTVSPost2010PropOp36
 70
     1
102
RTVSPost2010Prop37
 90
       50
102
RTVSPost2010PropOp37
 70
     1
102
RTVSPost2010Prop38
140
0.0
102
RTVSPost2010PropOp38
 70
     1
102
RTVSPost2010Prop39
140
1.0
102
RTVSPost2010PropOp39
 70
     1
102
RTVSPost2010Prop40
 90
        0
102
RTVSPost2010PropOp40
 70
     1
102
RTVSPost2010Prop41ColorIndex
 90
       18
102
RTVSPost2010Prop41ColorRGB
 90
        0
102
RTVSPost2010PropOp41
 70
     1
102
RTVSPost2010Prop42
 90
       50
102
RTVSPost2010PropOp42
 70
     1
102
RTVSPost2010Prop43
 90
        3
102
RTVSPost2010PropOp43
 70
     1
102
RTVSPost2010Prop44ColorIndex
 90
        5
102
RTVSPost2010Prop44ColorRGB
 90
      255
102
RTVSPost2010PropOp44
 70
     1
102
RTVSPost2010Prop45
280
     0
102
RTVSPost2010PropOp45
 70
     1
102
RTVSPost2010Prop46
 90
       50
102
RTVSPost2010PropOp46
 70
     1
102
RTVSPost2010Prop47
 90
       50
102
RTVSPost2010PropOp47
 70
     1
102
RTVSPost2010Prop48
 90
       50
102
RTVSPost2010PropOp48
 70
     1
102
RTVSPost2010Prop49
280
     0
102
RTVSPost2010PropOp49
 70
     1
102
RTVSPost2010Prop50
 90
       50
102
RTVSPost2010PropOp50
 70
     1
102
RTVSPost2010Prop51ColorIndex
 90
      256
102
RTVSPost2010Prop51ColorRGB
 90
-16777216
102
RTVSPost2010PropOp51
 70
     0
102
RTVSPost2010Prop52
140
1.0
102
RTVSPost2010PropOp52
 70
     0
102
RTVSPost2010Prop53
 90
        2
102
RTVSPost2010PropOp53
 70
     1
102
RTVSPost2010Prop54
  1
strokes_ogs.tif
102
RTVSPost2010PropOp54
 70
     1
102
RTVSPost2010Prop55
280
     0
102
RTVSPost2010PropOp55
 70
     1
102
RTVSPost2010Prop56
140
1.0
102
RTVSPost2010PropOp56
 70
     1
102
RTVSPost2010Prop57
140
1.0
102
RTVSPost2010PropOp57
 70
     1
  0
XRECORD
  5
2FB
102
{ACAD_REACTORS
330
2FA
102
}
330
2FA
100
AcDbXrecord
280
     1
102
RTVSPost2010Prop28
280
     0
102
RTVSPost2010PropOp28
 70
     1
102
RTVSPost2010Prop29
280
     1
102
RTVSPost2010PropOp29
 70
     1
102
RTVSPost2010Prop30
280
     1
102
RTVSPost2010PropOp30
 70
     1
102
RTVSPost2010Prop31
280
     0
102
RTVSPost2010PropOp31
 70
     1
102
RTVSPost2010Prop32
280
     0
102
RTVSPost2010PropOp32
 70
     1
102
RTVSPost2010Prop33
280
     0
102
RTVSPost2010PropOp33
 70
     1
102
RTVSPost2010Prop34
280
     0
102
RTVSPost2010PropOp34
 70
     1
102
RTVSPost2010Prop35
280
     0
102
RTVSPost2010PropOp35
 70
     1
102
RTVSPost2010Prop36
280
     0
102
RTVSPost2010PropOp36
 70
     1
102
RTVSPost2010Prop37
 90
       50
102
RTVSPost2010PropOp37
 70
     1
102
RTVSPost2010Prop38
140
0.0
102
RTVSPost2010PropOp38
 70
     1
102
RTVSPost2010Prop39
140
1.0
102
RTVSPost2010PropOp39
 70
     1
102
RTVSPost2010Prop40
 90
        0
102
RTVSPost2010PropOp40
 70
     1
102
RTVSPost2010Prop41ColorIndex
 90
       18
102
RTVSPost2010Prop41ColorRGB
 90
        0
102
RTVSPost2010PropOp41
 70
     1
102
RTVSPost2010Prop42
 90
       50
102
RTVSPost2010PropOp42
 70
     1
102
RTVSPost2010Prop43
 90
        3
102
RTVSPost2010PropOp43
 70
     1
102
RTVSPost2010Prop44ColorIndex
 90
        5
102
RTVSPost2010Prop44ColorRGB
 90
      255
102
RTVSPost2010PropOp44
 70
     1
102
RTVSPost2010Prop45
280
     0
102
RTVSPost2010PropOp45
 70
     1
102
RTVSPost2010Prop46
 90
       50
102
RTVSPost2010PropOp46
 70
     1
102
RTVSPost2010Prop47
 90
       50
102
RTVSPost2010PropOp47
 70
     1
102
RTVSPost2010Prop48
 90
       50
102
RTVSPost2010PropOp48
 70
     1
102
RTVSPost2010Prop49
280
     0
102
RTVSPost2010PropOp49
 70
     1
102
RTVSPost2010Prop50
 90
       50
102
RTVSPost2010PropOp50
 70
     1
102
RTVSPost2010Prop51ColorIndex
 90
      256
102
RTVSPost2010Prop51ColorRGB
 90
-16777216
102
RTVSPost2010PropOp51
 70
     0
102
RTVSPost2010Prop52
140
1.0
102
RTVSPost2010PropOp52
 70
     0
102
RTVSPost2010Prop53
 90
        2
102
RTVSPost2010PropOp53
 70
     1
102
RTVSPost2010Prop54
  1
strokes_ogs.tif
102
RTVSPost2010PropOp54
 70
     1
102
RTVSPost2010Prop55
280
     0
102
RTVSPost2010PropOp55
 70
     1
102
RTVSPost2010Prop56
140
1.0
102
RTVSPost2010PropOp56
 70
     1
102
RTVSPost2010Prop57
140
1.0
102
RTVSPost2010PropOp57
 70
     1
  0
XRECORD
  5
30F
102
{ACAD_REACTORS
330
30E
102
}
330
30E
100
AcDbXrecord
280
     1
102
RTVSPost2010Prop28
280
     0
102
RTVSPost2010PropOp28
 70
     0
102
RTVSPost2010Prop29
280
     1
102
RTVSPost2010PropOp29
 70
     0
102
RTVSPost2010Prop30
280
     1
102
RTVSPost2010PropOp30
 70
     0
102
RTVSPost2010Prop31
280
     0
102
RTVSPost2010PropOp31
 70
     0
102
RTVSPost2010Prop32
280
     0
102
RTVSPost2010PropOp32
 70
     0
102
RTVSPost2010Prop33
280
     0
102
RTVSPost2010PropOp33
 70
     0
102
RTVSPost2010Prop34
280
     0
102
RTVSPost2010PropOp34
 70
     0
102
RTVSPost2010Prop35
280
     0
102
RTVSPost2010PropOp35
 70
     0
102
RTVSPost2010Prop36
280
     0
102
RTVSPost2010PropOp36
 70
     0
102
RTVSPost2010Prop37
 90
       50
102
RTVSPost2010PropOp37
 70
     0
102
RTVSPost2010Prop38
140
0.0
102
RTVSPost2010PropOp38
 70
     0
102
RTVSPost2010Prop39
140
1.0
102
RTVSPost2010PropOp39
 70
     0
102
RTVSPost2010Prop40
 90
        0
102
RTVSPost2010PropOp40
 70
     0
102
RTVSPost2010Prop41ColorIndex
 90
       18
102
RTVSPost2010Prop41ColorRGB
 90
        0
102
RTVSPost2010PropOp41
 70
     0
102
RTVSPost2010Prop42
 90
       50
102
RTVSPost2010PropOp42
 70
     0
102
RTVSPost2010Prop43
 90
        3
102
RTVSPost2010PropOp43
 70
     0
102
RTVSPost2010Prop44ColorIndex
 90
        5
102
RTVSPost2010Prop44ColorRGB
 90
      255
102
RTVSPost2010PropOp44
 70
     0
102
RTVSPost2010Prop45
280
     0
102
RTVSPost2010PropOp45
 70
     0
102
RTVSPost2010Prop46
 90
       50
102
RTVSPost2010PropOp46
 70
     0
102
RTVSPost2010Prop47
 90
       50
102
RTVSPost2010PropOp47
 70
     0
102
RTVSPost2010Prop48
 90
       50
102
RTVSPost2010PropOp48
 70
     0
102
RTVSPost2010Prop49
280
     0
102
RTVSPost2010PropOp49
 70
     0
102
RTVSPost2010Prop50
 90
       50
102
RTVSPost2010PropOp50
 70
     0
102
RTVSPost2010Prop51ColorIndex
 90
      256
102
RTVSPost2010Prop51ColorRGB
 90
-16777216
102
RTVSPost2010PropOp51
 70
     0
102
RTVSPost2010Prop52
140
1.0
102
RTVSPost2010PropOp52
 70
     0
102
RTVSPost2010Prop53
 90
        2
102
RTVSPost2010PropOp53
 70
     0
102
RTVSPost2010Prop54
  1
strokes_ogs.tif
102
RTVSPost2010PropOp54
 70
     0
102
RTVSPost2010Prop55
280
     0
102
RTVSPost2010PropOp55
 70
     0
102
RTVSPost2010Prop56
140
1.0
102
RTVSPost2010PropOp56
 70
     0
102
RTVSPost2010Prop57
140
1.0
102
RTVSPost2010PropOp57
 70
     0
  0
XRECORD
  5
309
102
{ACAD_REACTORS
330
308
102
}
330
308
100
AcDbXrecord
280
     1
102
RTVSPost2010Prop28
280
     0
102
RTVSPost2010PropOp28
 70
     1
102
RTVSPost2010Prop29
280
     1
102
RTVSPost2010PropOp29
 70
     1
102
RTVSPost2010Prop30
280
     1
102
RTVSPost2010PropOp30
 70
     1
102
RTVSPost2010Prop31
280
     0
102
RTVSPost2010PropOp31
 70
     1
102
RTVSPost2010Prop32
280
     0
102
RTVSPost2010PropOp32
 70
     1
102
RTVSPost2010Prop33
280
     0
102
RTVSPost2010PropOp33
 70
     1
102
RTVSPost2010Prop34
280
     0
102
RTVSPost2010PropOp34
 70
     1
102
RTVSPost2010Prop35
280
     0
102
RTVSPost2010PropOp35
 70
     1
102
RTVSPost2010Prop36
280
     0
102
RTVSPost2010PropOp36
 70
     1
102
RTVSPost2010Prop37
 90
       50
102
RTVSPost2010PropOp37
 70
     1
102
RTVSPost2010Prop38
140
0.0
102
RTVSPost2010PropOp38
 70
     1
102
RTVSPost2010Prop39
140
1.0
102
RTVSPost2010PropOp39
 70
     1
102
RTVSPost2010Prop40
 90
        0
102
RTVSPost2010PropOp40
 70
     1
102
RTVSPost2010Prop41ColorIndex
 90
       18
102
RTVSPost2010Prop41ColorRGB
 90
        0
102
RTVSPost2010PropOp41
 70
     1
102
RTVSPost2010Prop42
 90
       50
102
RTVSPost2010PropOp42
 70
     1
102
RTVSPost2010Prop43
 90
        3
102
RTVSPost2010PropOp43
 70
     1
102
RTVSPost2010Prop44ColorIndex
 90
        5
102
RTVSPost2010Prop44ColorRGB
 90
      255
102
RTVSPost2010PropOp44
 70
     1
102
RTVSPost2010Prop45
280
     0
102
RTVSPost2010PropOp45
 70
     1
102
RTVSPost2010Prop46
 90
       50
102
RTVSPost2010PropOp46
 70
     1
102
RTVSPost2010Prop47
 90
       50
102
RTVSPost2010PropOp47
 70
     1
102
RTVSPost2010Prop48
 90
       50
102
RTVSPost2010PropOp48
 70
     1
102
RTVSPost2010Prop49
280
     0
102
RTVSPost2010PropOp49
 70
     1
102
RTVSPost2010Prop50
 90
       50
102
RTVSPost2010PropOp50
 70
     1
102
RTVSPost2010Prop51ColorIndex
 90
      256
102
RTVSPost2010Prop51ColorRGB
 90
-16777216
102
RTVSPost2010PropOp51
 70
     0
102
RTVSPost2010Prop52
140
1.0
102
RTVSPost2010PropOp52
 70
     0
102
RTVSPost2010Prop53
 90
        2
102
RTVSPost2010PropOp53
 70
     1
102
RTVSPost2010Prop54
  1
strokes_ogs.tif
102
RTVSPost2010PropOp54
 70
     1
102
RTVSPost2010Prop55
280
     0
102
RTVSPost2010PropOp55
 70
     1
102
RTVSPost2010Prop56
140
1.0
102
RTVSPost2010PropOp56
 70
     1
102
RTVSPost2010Prop57
140
1.0
102
RTVSPost2010PropOp57
 70
     1
  0
XRECORD
  5
311
102
{ACAD_REACTORS
330
310
102
}
330
310
100
AcDbXrecord
280
     1
102
RTVSPost2010Prop28
280
     0
102
RTVSPost2010PropOp28
 70
     0
102
RTVSPost2010Prop29
280
     1
102
RTVSPost2010PropOp29
 70
     0
102
RTVSPost2010Prop30
280
     1
102
RTVSPost2010PropOp30
 70
     0
102
RTVSPost2010Prop31
280
     0
102
RTVSPost2010PropOp31
 70
     0
102
RTVSPost2010Prop32
280
     0
102
RTVSPost2010PropOp32
 70
     0
102
RTVSPost2010Prop33
280
     0
102
RTVSPost2010PropOp33
 70
     0
102
RTVSPost2010Prop34
280
     0
102
RTVSPost2010PropOp34
 70
     0
102
RTVSPost2010Prop35
280
     0
102
RTVSPost2010PropOp35
 70
     0
102
RTVSPost2010Prop36
280
     0
102
RTVSPost2010PropOp36
 70
     0
102
RTVSPost2010Prop37
 90
       50
102
RTVSPost2010PropOp37
 70
     0
102
RTVSPost2010Prop38
140
0.0
102
RTVSPost2010PropOp38
 70
     0
102
RTVSPost2010Prop39
140
1.0
102
RTVSPost2010PropOp39
 70
     0
102
RTVSPost2010Prop40
 90
        0
102
RTVSPost2010PropOp40
 70
     0
102
RTVSPost2010Prop41ColorIndex
 90
       18
102
RTVSPost2010Prop41ColorRGB
 90
        0
102
RTVSPost2010PropOp41
 70
     0
102
RTVSPost2010Prop42
 90
       50
102
RTVSPost2010PropOp42
 70
     0
102
RTVSPost2010Prop43
 90
        3
102
RTVSPost2010PropOp43
 70
     0
102
RTVSPost2010Prop44ColorIndex
 90
        5
102
RTVSPost2010Prop44ColorRGB
 90
      255
102
RTVSPost2010PropOp44
 70
     0
102
RTVSPost2010Prop45
280
     0
102
RTVSPost2010PropOp45
 70
     0
102
RTVSPost2010Prop46
 90
       50
102
RTVSPost2010PropOp46
 70
     0
102
RTVSPost2010Prop47
 90
       50
102
RTVSPost2010PropOp47
 70
     0
102
RTVSPost2010Prop48
 90
       50
102
RTVSPost2010PropOp48
 70
     0
102
RTVSPost2010Prop49
280
     0
102
RTVSPost2010PropOp49
 70
     0
102
RTVSPost2010Prop50
 90
       50
102
RTVSPost2010PropOp50
 70
     0
102
RTVSPost2010Prop51ColorIndex
 90
      256
102
RTVSPost2010Prop51ColorRGB
 90
-16777216
102
RTVSPost2010PropOp51
 70
     0
102
RTVSPost2010Prop52
140
1.0
102
RTVSPost2010PropOp52
 70
     0
102
RTVSPost2010Prop53
 90
        2
102
RTVSPost2010PropOp53
 70
     0
102
RTVSPost2010Prop54
  1
strokes_ogs.tif
102
RTVSPost2010PropOp54
 70
     0
102
RTVSPost2010Prop55
280
     0
102
RTVSPost2010PropOp55
 70
     0
102
RTVSPost2010Prop56
140
1.0
102
RTVSPost2010PropOp56
 70
     0
102
RTVSPost2010Prop57
140
1.0
102
RTVSPost2010PropOp57
 70
     0
  0
XRECORD
  5
2FF
102
{ACAD_REACTORS
330
2FE
102
}
330
2FE
100
AcDbXrecord
280
     1
102
RTVSPost2010Prop28
280
     0
102
RTVSPost2010PropOp28
 70
     1
102
RTVSPost2010Prop29
280
     1
102
RTVSPost2010PropOp29
 70
     1
102
RTVSPost2010Prop30
280
     1
102
RTVSPost2010PropOp30
 70
     1
102
RTVSPost2010Prop31
280
     0
102
RTVSPost2010PropOp31
 70
     1
102
RTVSPost2010Prop32
280
     0
102
RTVSPost2010PropOp32
 70
     1
102
RTVSPost2010Prop33
280
     0
102
RTVSPost2010PropOp33
 70
     1
102
RTVSPost2010Prop34
280
     0
102
RTVSPost2010PropOp34
 70
     1
102
RTVSPost2010Prop35
280
     0
102
RTVSPost2010PropOp35
 70
     1
102
RTVSPost2010Prop36
280
     0
102
RTVSPost2010PropOp36
 70
     1
102
RTVSPost2010Prop37
 90
       50
102
RTVSPost2010PropOp37
 70
     1
102
RTVSPost2010Prop38
140
0.0
102
RTVSPost2010PropOp38
 70
     1
102
RTVSPost2010Prop39
140
1.0
102
RTVSPost2010PropOp39
 70
     1
102
RTVSPost2010Prop40
 90
        0
102
RTVSPost2010PropOp40
 70
     1
102
RTVSPost2010Prop41ColorIndex
 90
       18
102
RTVSPost2010Prop41ColorRGB
 90
        0
102
RTVSPost2010PropOp41
 70
     1
102
RTVSPost2010Prop42
 90
       50
102
RTVSPost2010PropOp42
 70
     1
102
RTVSPost2010Prop43
 90
        3
102
RTVSPost2010PropOp43
 70
     1
102
RTVSPost2010Prop44ColorIndex
 90
        5
102
RTVSPost2010Prop44ColorRGB
 90
      255
102
RTVSPost2010PropOp44
 70
     1
102
RTVSPost2010Prop45
280
     0
102
RTVSPost2010PropOp45
 70
     1
102
RTVSPost2010Prop46
 90
       50
102
RTVSPost2010PropOp46
 70
     1
102
RTVSPost2010Prop47
 90
       50
102
RTVSPost2010PropOp47
 70
     1
102
RTVSPost2010Prop48
 90
       50
102
RTVSPost2010PropOp48
 70
     1
102
RTVSPost2010Prop49
280
     0
102
RTVSPost2010PropOp49
 70
     1
102
RTVSPost2010Prop50
 90
       50
102
RTVSPost2010PropOp50
 70
     1
102
RTVSPost2010Prop51ColorIndex
 90
      256
102
RTVSPost2010Prop51ColorRGB
 90
-16777216
102
RTVSPost2010PropOp51
 70
     0
102
RTVSPost2010Prop52
140
1.0
102
RTVSPost2010PropOp52
 70
     0
102
RTVSPost2010Prop53
 90
        2
102
RTVSPost2010PropOp53
 70
     1
102
RTVSPost2010Prop54
  1
strokes_ogs.tif
102
RTVSPost2010PropOp54
 70
     1
102
RTVSPost2010Prop55
280
     0
102
RTVSPost2010PropOp55
 70
     1
102
RTVSPost2010Prop56
140
1.0
102
RTVSPost2010PropOp56
 70
     1
102
RTVSPost2010Prop57
140
1.0
102
RTVSPost2010PropOp57
 70
     1
  0
XRECORD
  5
31D
102
{ACAD_REACTORS
330
31C
102
}
330
31C
100
AcDbXrecord
280
     1
102
RTVSPost2010Prop28
280
     0
102
RTVSPost2010PropOp28
 70
     1
102
RTVSPost2010Prop29
280
     1
102
RTVSPost2010PropOp29
 70
     1
102
RTVSPost2010Prop30
280
     1
102
RTVSPost2010PropOp30
 70
     1
102
RTVSPost2010Prop31
280
     0
102
RTVSPost2010PropOp31
 70
     1
102
RTVSPost2010Prop32
280
     0
102
RTVSPost2010PropOp32
 70
     1
102
RTVSPost2010Prop33
280
     0
102
RTVSPost2010PropOp33
 70
     1
102
RTVSPost2010Prop34
280
     0
102
RTVSPost2010PropOp34
 70
     1
102
RTVSPost2010Prop35
280
     0
102
RTVSPost2010PropOp35
 70
     1
102
RTVSPost2010Prop36
280
     0
102
RTVSPost2010PropOp36
 70
     1
102
RTVSPost2010Prop37
 90
       50
102
RTVSPost2010PropOp37
 70
     1
102
RTVSPost2010Prop38
140
0.0
102
RTVSPost2010PropOp38
 70
     1
102
RTVSPost2010Prop39
140
1.0
102
RTVSPost2010PropOp39
 70
     1
102
RTVSPost2010Prop40
 90
        0
102
RTVSPost2010PropOp40
 70
     1
102
RTVSPost2010Prop41ColorIndex
 90
       18
102
RTVSPost2010Prop41ColorRGB
 90
        0
102
RTVSPost2010PropOp41
 70
     1
102
RTVSPost2010Prop42
 90
       50
102
RTVSPost2010PropOp42
 70
     1
102
RTVSPost2010Prop43
 90
        3
102
RTVSPost2010PropOp43
 70
     1
102
RTVSPost2010Prop44ColorIndex
 90
        5
102
RTVSPost2010Prop44ColorRGB
 90
      255
102
RTVSPost2010PropOp44
 70
     1
102
RTVSPost2010Prop45
280
     0
102
RTVSPost2010PropOp45
 70
     1
102
RTVSPost2010Prop46
 90
       50
102
RTVSPost2010PropOp46
 70
     1
102
RTVSPost2010Prop47
 90
       50
102
RTVSPost2010PropOp47
 70
     1
102
RTVSPost2010Prop48
 90
       50
102
RTVSPost2010PropOp48
 70
     1
102
RTVSPost2010Prop49
280
     0
102
RTVSPost2010PropOp49
 70
     1
102
RTVSPost2010Prop50
 90
       50
102
RTVSPost2010PropOp50
 70
     1
102
RTVSPost2010Prop51ColorIndex
 90
      256
102
RTVSPost2010Prop51ColorRGB
 90
-16777216
102
RTVSPost2010PropOp51
 70
     0
102
RTVSPost2010Prop52
140
1.0
102
RTVSPost2010PropOp52
 70
     0
102
RTVSPost2010Prop53
 90
        2
102
RTVSPost2010PropOp53
 70
     1
102
RTVSPost2010Prop54
  1
strokes_ogs.tif
102
RTVSPost2010PropOp54
 70
     1
102
RTVSPost2010Prop55
280
     0
102
RTVSPost2010PropOp55
 70
     1
102
RTVSPost2010Prop56
140
1.0
102
RTVSPost2010PropOp56
 70
     1
102
RTVSPost2010Prop57
140
1.0
102
RTVSPost2010PropOp57
 70
     1
  0
XRECORD
  5
31B
102
{ACAD_REACTORS
330
31A
102
}
330
31A
100
AcDbXrecord
280
     1
102
RTVSPost2010Prop28
280
     0
102
RTVSPost2010PropOp28
 70
     1
102
RTVSPost2010Prop29
280
     1
102
RTVSPost2010PropOp29
 70
     1
102
RTVSPost2010Prop30
280
     1
102
RTVSPost2010PropOp30
 70
     1
102
RTVSPost2010Prop31
280
     0
102
RTVSPost2010PropOp31
 70
     1
102
RTVSPost2010Prop32
280
     0
102
RTVSPost2010PropOp32
 70
     1
102
RTVSPost2010Prop33
280
     0
102
RTVSPost2010PropOp33
 70
     1
102
RTVSPost2010Prop34
280
     0
102
RTVSPost2010PropOp34
 70
     1
102
RTVSPost2010Prop35
280
     0
102
RTVSPost2010PropOp35
 70
     1
102
RTVSPost2010Prop36
280
     0
102
RTVSPost2010PropOp36
 70
     1
102
RTVSPost2010Prop37
 90
       50
102
RTVSPost2010PropOp37
 70
     1
102
RTVSPost2010Prop38
140
0.0
102
RTVSPost2010PropOp38
 70
     1
102
RTVSPost2010Prop39
140
1.0
102
RTVSPost2010PropOp39
 70
     1
102
RTVSPost2010Prop40
 90
        0
102
RTVSPost2010PropOp40
 70
     1
102
RTVSPost2010Prop41ColorIndex
 90
       18
102
RTVSPost2010Prop41ColorRGB
 90
        0
102
RTVSPost2010PropOp41
 70
     1
102
RTVSPost2010Prop42
 90
       50
102
RTVSPost2010PropOp42
 70
     1
102
RTVSPost2010Prop43
 90
        3
102
RTVSPost2010PropOp43
 70
     1
102
RTVSPost2010Prop44ColorIndex
 90
        5
102
RTVSPost2010Prop44ColorRGB
 90
      255
102
RTVSPost2010PropOp44
 70
     1
102
RTVSPost2010Prop45
280
     0
102
RTVSPost2010PropOp45
 70
     1
102
RTVSPost2010Prop46
 90
       50
102
RTVSPost2010PropOp46
 70
     1
102
RTVSPost2010Prop47
 90
       50
102
RTVSPost2010PropOp47
 70
     1
102
RTVSPost2010Prop48
 90
       50
102
RTVSPost2010PropOp48
 70
     1
102
RTVSPost2010Prop49
280
     0
102
RTVSPost2010PropOp49
 70
     1
102
RTVSPost2010Prop50
 90
       50
102
RTVSPost2010PropOp50
 70
     1
102
RTVSPost2010Prop51ColorIndex
 90
      256
102
RTVSPost2010Prop51ColorRGB
 90
-16777216
102
RTVSPost2010PropOp51
 70
     0
102
RTVSPost2010Prop52
140
1.0
102
RTVSPost2010PropOp52
 70
     0
102
RTVSPost2010Prop53
 90
        2
102
RTVSPost2010PropOp53
 70
     1
102
RTVSPost2010Prop54
  1
strokes_ogs.tif
102
RTVSPost2010PropOp54
 70
     1
102
RTVSPost2010Prop55
280
     0
102
RTVSPost2010PropOp55
 70
     1
102
RTVSPost2010Prop56
140
1.0
102
RTVSPost2010PropOp56
 70
     1
102
RTVSPost2010Prop57
140
1.0
102
RTVSPost2010PropOp57
 70
     1
  0
XRECORD
  5
315
102
{ACAD_REACTORS
330
314
102
}
330
314
100
AcDbXrecord
280
     1
102
RTVSPost2010Prop28
280
     0
102
RTVSPost2010PropOp28
 70
     1
102
RTVSPost2010Prop29
280
     1
102
RTVSPost2010PropOp29
 70
     1
102
RTVSPost2010Prop30
280
     1
102
RTVSPost2010PropOp30
 70
     1
102
RTVSPost2010Prop31
280
     0
102
RTVSPost2010PropOp31
 70
     1
102
RTVSPost2010Prop32
280
     0
102
RTVSPost2010PropOp32
 70
     1
102
RTVSPost2010Prop33
280
     0
102
RTVSPost2010PropOp33
 70
     1
102
RTVSPost2010Prop34
280
     0
102
RTVSPost2010PropOp34
 70
     1
102
RTVSPost2010Prop35
280
     0
102
RTVSPost2010PropOp35
 70
     1
102
RTVSPost2010Prop36
280
     0
102
RTVSPost2010PropOp36
 70
     1
102
RTVSPost2010Prop37
 90
       50
102
RTVSPost2010PropOp37
 70
     1
102
RTVSPost2010Prop38
140
0.0
102
RTVSPost2010PropOp38
 70
     1
102
RTVSPost2010Prop39
140
1.0
102
RTVSPost2010PropOp39
 70
     1
102
RTVSPost2010Prop40
 90
        0
102
RTVSPost2010PropOp40
 70
     1
102
RTVSPost2010Prop41ColorIndex
 90
       18
102
RTVSPost2010Prop41ColorRGB
 90
        0
102
RTVSPost2010PropOp41
 70
     1
102
RTVSPost2010Prop42
 90
       50
102
RTVSPost2010PropOp42
 70
     1
102
RTVSPost2010Prop43
 90
        3
102
RTVSPost2010PropOp43
 70
     1
102
RTVSPost2010Prop44ColorIndex
 90
        5
102
RTVSPost2010Prop44ColorRGB
 90
      255
102
RTVSPost2010PropOp44
 70
     1
102
RTVSPost2010Prop45
280
     0
102
RTVSPost2010PropOp45
 70
     1
102
RTVSPost2010Prop46
 90
       50
102
RTVSPost2010PropOp46
 70
     1
102
RTVSPost2010Prop47
 90
       50
102
RTVSPost2010PropOp47
 70
     1
102
RTVSPost2010Prop48
 90
       50
102
RTVSPost2010PropOp48
 70
     1
102
RTVSPost2010Prop49
280
     0
102
RTVSPost2010PropOp49
 70
     1
102
RTVSPost2010Prop50
 90
       50
102
RTVSPost2010PropOp50
 70
     1
102
RTVSPost2010Prop51ColorIndex
 90
      256
102
RTVSPost2010Prop51ColorRGB
 90
-16777216
102
RTVSPost2010PropOp51
 70
     0
102
RTVSPost2010Prop52
140
1.0
102
RTVSPost2010PropOp52
 70
     0
102
RTVSPost2010Prop53
 90
        2
102
RTVSPost2010PropOp53
 70
     1
102
RTVSPost2010Prop54
  1
strokes_ogs.tif
102
RTVSPost2010PropOp54
 70
     1
102
RTVSPost2010Prop55
280
     0
102
RTVSPost2010PropOp55
 70
     1
102
RTVSPost2010Prop56
140
1.0
102
RTVSPost2010PropOp56
 70
     1
102
RTVSPost2010Prop57
140
1.0
102
RTVSPost2010PropOp57
 70
     1
  0
XRECORD
  5
317
102
{ACAD_REACTORS
330
316
102
}
330
316
100
AcDbXrecord
280
     1
102
RTVSPost2010Prop28
280
     0
102
RTVSPost2010PropOp28
 70
     1
102
RTVSPost2010Prop29
280
     1
102
RTVSPost2010PropOp29
 70
     1
102
RTVSPost2010Prop30
280
     1
102
RTVSPost2010PropOp30
 70
     1
102
RTVSPost2010Prop31
280
     0
102
RTVSPost2010PropOp31
 70
     1
102
RTVSPost2010Prop32
280
     0
102
RTVSPost2010PropOp32
 70
     1
102
RTVSPost2010Prop33
280
     0
102
RTVSPost2010PropOp33
 70
     1
102
RTVSPost2010Prop34
280
     0
102
RTVSPost2010PropOp34
 70
     1
102
RTVSPost2010Prop35
280
     0
102
RTVSPost2010PropOp35
 70
     1
102
RTVSPost2010Prop36
280
     0
102
RTVSPost2010PropOp36
 70
     1
102
RTVSPost2010Prop37
 90
       50
102
RTVSPost2010PropOp37
 70
     1
102
RTVSPost2010Prop38
140
0.0
102
RTVSPost2010PropOp38
 70
     1
102
RTVSPost2010Prop39
140
1.0
102
RTVSPost2010PropOp39
 70
     1
102
RTVSPost2010Prop40
 90
        0
102
RTVSPost2010PropOp40
 70
     1
102
RTVSPost2010Prop41ColorIndex
 90
       18
102
RTVSPost2010Prop41ColorRGB
 90
        0
102
RTVSPost2010PropOp41
 70
     1
102
RTVSPost2010Prop42
 90
       50
102
RTVSPost2010PropOp42
 70
     1
102
RTVSPost2010Prop43
 90
        3
102
RTVSPost2010PropOp43
 70
     1
102
RTVSPost2010Prop44ColorIndex
 90
        5
102
RTVSPost2010Prop44ColorRGB
 90
      255
102
RTVSPost2010PropOp44
 70
     1
102
RTVSPost2010Prop45
280
     0
102
RTVSPost2010PropOp45
 70
     1
102
RTVSPost2010Prop46
 90
       50
102
RTVSPost2010PropOp46
 70
     1
102
RTVSPost2010Prop47
 90
       50
102
RTVSPost2010PropOp47
 70
     1
102
RTVSPost2010Prop48
 90
       50
102
RTVSPost2010PropOp48
 70
     1
102
RTVSPost2010Prop49
280
     0
102
RTVSPost2010PropOp49
 70
     1
102
RTVSPost2010Prop50
 90
       50
102
RTVSPost2010PropOp50
 70
     1
102
RTVSPost2010Prop51ColorIndex
 90
      256
102
RTVSPost2010Prop51ColorRGB
 90
-16777216
102
RTVSPost2010PropOp51
 70
     0
102
RTVSPost2010Prop52
140
1.0
102
RTVSPost2010PropOp52
 70
     0
102
RTVSPost2010Prop53
 90
        2
102
RTVSPost2010PropOp53
 70
     1
102
RTVSPost2010Prop54
  1
strokes_ogs.tif
102
RTVSPost2010PropOp54
 70
     1
102
RTVSPost2010Prop55
280
     0
102
RTVSPost2010PropOp55
 70
     1
102
RTVSPost2010Prop56
140
1.0
102
RTVSPost2010PropOp56
 70
     1
102
RTVSPost2010Prop57
140
1.0
102
RTVSPost2010PropOp57
 70
     1
  0
XRECORD
  5
307
102
{ACAD_REACTORS
330
306
102
}
330
306
100
AcDbXrecord
280
     1
102
RTVSPost2010Prop28
280
     0
102
RTVSPost2010PropOp28
 70
     1
102
RTVSPost2010Prop29
280
     1
102
RTVSPost2010PropOp29
 70
     1
102
RTVSPost2010Prop30
280
     1
102
RTVSPost2010PropOp30
 70
     1
102
RTVSPost2010Prop31
280
     0
102
RTVSPost2010PropOp31
 70
     1
102
RTVSPost2010Prop32
280
     0
102
RTVSPost2010PropOp32
 70
     1
102
RTVSPost2010Prop33
280
     0
102
RTVSPost2010PropOp33
 70
     1
102
RTVSPost2010Prop34
280
     0
102
RTVSPost2010PropOp34
 70
     1
102
RTVSPost2010Prop35
280
     0
102
RTVSPost2010PropOp35
 70
     1
102
RTVSPost2010Prop36
280
     0
102
RTVSPost2010PropOp36
 70
     1
102
RTVSPost2010Prop37
 90
       50
102
RTVSPost2010PropOp37
 70
     1
102
RTVSPost2010Prop38
140
0.0
102
RTVSPost2010PropOp38
 70
     1
102
RTVSPost2010Prop39
140
1.0
102
RTVSPost2010PropOp39
 70
     1
102
RTVSPost2010Prop40
 90
        0
102
RTVSPost2010PropOp40
 70
     1
102
RTVSPost2010Prop41ColorIndex
 90
       18
102
RTVSPost2010Prop41ColorRGB
 90
        0
102
RTVSPost2010PropOp41
 70
     1
102
RTVSPost2010Prop42
 90
       50
102
RTVSPost2010PropOp42
 70
     1
102
RTVSPost2010Prop43
 90
        3
102
RTVSPost2010PropOp43
 70
     1
102
RTVSPost2010Prop44ColorIndex
 90
        5
102
RTVSPost2010Prop44ColorRGB
 90
      255
102
RTVSPost2010PropOp44
 70
     1
102
RTVSPost2010Prop45
280
     0
102
RTVSPost2010PropOp45
 70
     1
102
RTVSPost2010Prop46
 90
       50
102
RTVSPost2010PropOp46
 70
     1
102
RTVSPost2010Prop47
 90
       50
102
RTVSPost2010PropOp47
 70
     1
102
RTVSPost2010Prop48
 90
       50
102
RTVSPost2010PropOp48
 70
     1
102
RTVSPost2010Prop49
280
     0
102
RTVSPost2010PropOp49
 70
     1
102
RTVSPost2010Prop50
 90
       50
102
RTVSPost2010PropOp50
 70
     1
102
RTVSPost2010Prop51ColorIndex
 90
      256
102
RTVSPost2010Prop51ColorRGB
 90
-16777216
102
RTVSPost2010PropOp51
 70
     0
102
RTVSPost2010Prop52
140
1.0
102
RTVSPost2010PropOp52
 70
     0
102
RTVSPost2010Prop53
 90
        2
102
RTVSPost2010PropOp53
 70
     1
102
RTVSPost2010Prop54
  1
strokes_ogs.tif
102
RTVSPost2010PropOp54
 70
     1
102
RTVSPost2010Prop55
280
     0
102
RTVSPost2010PropOp55
 70
     1
102
RTVSPost2010Prop56
140
1.0
102
RTVSPost2010PropOp56
 70
     1
102
RTVSPost2010Prop57
140
1.0
102
RTVSPost2010PropOp57
 70
     1
  0
XRECORD
  5
2F9
102
{ACAD_REACTORS
330
2F8
102
}
330
2F8
100
AcDbXrecord
280
     1
102
RTVSPost2010Prop28
280
     0
102
RTVSPost2010PropOp28
 70
     1
102
RTVSPost2010Prop29
280
     1
102
RTVSPost2010PropOp29
 70
     1
102
RTVSPost2010Prop30
280
     1
102
RTVSPost2010PropOp30
 70
     1
102
RTVSPost2010Prop31
280
     0
102
RTVSPost2010PropOp31
 70
     1
102
RTVSPost2010Prop32
280
     0
102
RTVSPost2010PropOp32
 70
     1
102
RTVSPost2010Prop33
280
     0
102
RTVSPost2010PropOp33
 70
     1
102
RTVSPost2010Prop34
280
     0
102
RTVSPost2010PropOp34
 70
     1
102
RTVSPost2010Prop35
280
     0
102
RTVSPost2010PropOp35
 70
     1
102
RTVSPost2010Prop36
280
     0
102
RTVSPost2010PropOp36
 70
     1
102
RTVSPost2010Prop37
 90
       50
102
RTVSPost2010PropOp37
 70
     1
102
RTVSPost2010Prop38
140
0.0
102
RTVSPost2010PropOp38
 70
     1
102
RTVSPost2010Prop39
140
1.0
102
RTVSPost2010PropOp39
 70
     1
102
RTVSPost2010Prop40
 90
        0
102
RTVSPost2010PropOp40
 70
     1
102
RTVSPost2010Prop41ColorIndex
 90
       18
102
RTVSPost2010Prop41ColorRGB
 90
        0
102
RTVSPost2010PropOp41
 70
     1
102
RTVSPost2010Prop42
 90
       50
102
RTVSPost2010PropOp42
 70
     1
102
RTVSPost2010Prop43
 90
        3
102
RTVSPost2010PropOp43
 70
     1
102
RTVSPost2010Prop44ColorIndex
 90
        5
102
RTVSPost2010Prop44ColorRGB
 90
      255
102
RTVSPost2010PropOp44
 70
     1
102
RTVSPost2010Prop45
280
     0
102
RTVSPost2010PropOp45
 70
     1
102
RTVSPost2010Prop46
 90
       50
102
RTVSPost2010PropOp46
 70
     1
102
RTVSPost2010Prop47
 90
       50
102
RTVSPost2010PropOp47
 70
     1
102
RTVSPost2010Prop48
 90
       50
102
RTVSPost2010PropOp48
 70
     1
102
RTVSPost2010Prop49
280
     0
102
RTVSPost2010PropOp49
 70
     1
102
RTVSPost2010Prop50
 90
       50
102
RTVSPost2010PropOp50
 70
     1
102
RTVSPost2010Prop51ColorIndex
 90
      256
102
RTVSPost2010Prop51ColorRGB
 90
-16777216
102
RTVSPost2010PropOp51
 70
     0
102
RTVSPost2010Prop52
140
1.0
102
RTVSPost2010PropOp52
 70
     0
102
RTVSPost2010Prop53
 90
        2
102
RTVSPost2010PropOp53
 70
     1
102
RTVSPost2010Prop54
  1
strokes_ogs.tif
102
RTVSPost2010PropOp54
 70
     1
102
RTVSPost2010Prop55
280
     0
102
RTVSPost2010PropOp55
 70
     1
102
RTVSPost2010Prop56
140
1.0
102
RTVSPost2010PropOp56
 70
     1
102
RTVSPost2010Prop57
140
1.0
102
RTVSPost2010PropOp57
 70
     1
  0
XRECORD
  5
319
102
{ACAD_REACTORS
330
318
102
}
330
318
100
AcDbXrecord
280
     1
102
RTVSPost2010Prop28
280
     0
102
RTVSPost2010PropOp28
 70
     1
102
RTVSPost2010Prop29
280
     1
102
RTVSPost2010PropOp29
 70
     1
102
RTVSPost2010Prop30
280
     1
102
RTVSPost2010PropOp30
 70
     1
102
RTVSPost2010Prop31
280
     0
102
RTVSPost2010PropOp31
 70
     1
102
RTVSPost2010Prop32
280
     0
102
RTVSPost2010PropOp32
 70
     1
102
RTVSPost2010Prop33
280
     0
102
RTVSPost2010PropOp33
 70
     1
102
RTVSPost2010Prop34
280
     0
102
RTVSPost2010PropOp34
 70
     1
102
RTVSPost2010Prop35
280
     0
102
RTVSPost2010PropOp35
 70
     1
102
RTVSPost2010Prop36
280
     0
102
RTVSPost2010PropOp36
 70
     1
102
RTVSPost2010Prop37
 90
       50
102
RTVSPost2010PropOp37
 70
     1
102
RTVSPost2010Prop38
140
0.0
102
RTVSPost2010PropOp38
 70
     1
102
RTVSPost2010Prop39
140
1.0
102
RTVSPost2010PropOp39
 70
     1
102
RTVSPost2010Prop40
 90
        0
102
RTVSPost2010PropOp40
 70
     1
102
RTVSPost2010Prop41ColorIndex
 90
       18
102
RTVSPost2010Prop41ColorRGB
 90
        0
102
RTVSPost2010PropOp41
 70
     1
102
RTVSPost2010Prop42
 90
       50
102
RTVSPost2010PropOp42
 70
     1
102
RTVSPost2010Prop43
 90
        3
102
RTVSPost2010PropOp43
 70
     1
102
RTVSPost2010Prop44ColorIndex
 90
        5
102
RTVSPost2010Prop44ColorRGB
 90
      255
102
RTVSPost2010PropOp44
 70
     1
102
RTVSPost2010Prop45
280
     0
102
RTVSPost2010PropOp45
 70
     1
102
RTVSPost2010Prop46
 90
       50
102
RTVSPost2010PropOp46
 70
     1
102
RTVSPost2010Prop47
 90
       50
102
RTVSPost2010PropOp47
 70
     1
102
RTVSPost2010Prop48
 90
       50
102
RTVSPost2010PropOp48
 70
     1
102
RTVSPost2010Prop49
280
     0
102
RTVSPost2010PropOp49
 70
     1
102
RTVSPost2010Prop50
 90
       50
102
RTVSPost2010PropOp50
 70
     1
102
RTVSPost2010Prop51ColorIndex
 90
      256
102
RTVSPost2010Prop51ColorRGB
 90
-16777216
102
RTVSPost2010PropOp51
 70
     0
102
RTVSPost2010Prop52
140
1.0
102
RTVSPost2010PropOp52
 70
     0
102
RTVSPost2010Prop53
 90
        2
102
RTVSPost2010PropOp53
 70
     1
102
RTVSPost2010Prop54
  1
strokes_ogs.tif
102
RTVSPost2010PropOp54
 70
     1
102
RTVSPost2010Prop55
280
     0
102
RTVSPost2010PropOp55
 70
     1
102
RTVSPost2010Prop56
140
1.0
102
RTVSPost2010PropOp56
 70
     1
102
RTVSPost2010Prop57
140
1.0
102
RTVSPost2010PropOp57
 70
     1
  0
ENDSEC
  0
EOF
