  0
SECTION
  2
HEADER
  9
$ACADVER
  1
AC1024
  9
$ACADMAINTVER
 70
     6
  9
$DWGCODEPAGE
  3
ANSI_932
  9
$INSBASE
 10
0.0
 20
0.0
 30
0.0
  9
$EXTMIN
 10
-1182.0
 20
-810.7684599628672
 30
0.0
  9
$EXTMAX
 10
1182.0
 20
810.7684599628672
 30
0.0
  9
$LIMMIN
 10
-420.0
 20
-297.0
  9
$LIMMAX
 10
420.0
 20
297.0
  9
$ORTHOMODE
 70
     0
  9
$REGENMODE
 70
     1
  9
$FILLMODE
 70
     1
  9
$QTEXTMODE
 70
     0
  9
$MIRRTEXT
 70
     1
  9
$LTSCALE
 40
0.5
  9
$ATTMODE
 70
     1
  9
$TEXTSIZE
 40
0.2
  9
$TRACEWID
 40
0.05
  9
$TEXTSTYLE
  7
Standard
  9
$CLAYER
  8
0
  9
$CELTYPE
  6
ByLayer
  9
$CECOLOR
 62
   256
  9
$CELTSCALE
 40
1.0
  9
$DISPSILH
 70
     0
  9
$DIMSCALE
 40
1.0
  9
$DIMASZ
 40
6.000003814697266
  9
$DIMEXO
 40
1.0
  9
$DIMDLI
 40
10.0
  9
$DIMRND
 40
0.0
  9
$DIMDLE
 40
0.0
  9
$DIMEXE
 40
1.0
  9
$DIMTP
 40
0.0
  9
$DIMTM
 40
0.0
  9
$DIMTXT
 40
8.0
  9
$DIMCEN
 40
0.0
  9
$DIMTSZ
 40
0.0
  9
$DIMTOL
 70
     0
  9
$DIMLIM
 70
     0
  9
$DIMTIH
 70
     0
  9
$DIMTOH
 70
     0
  9
$DIMSE1
 70
     0
  9
$DIMSE2
 70
     0
  9
$DIMTAD
 70
     1
  9
$DIMZIN
 70
     8
  9
$DIMBLK
  1

  9
$DIMASO
 70
     1
  9
$DIMSHO
 70
     1
  9
$DIMPOST
  1

  9
$DIMAPOST
  1

  9
$DIMALT
 70
     0
  9
$DIMALTD
 70
     2
  9
$DIMALTF
 40
0.0393700787401575
  9
$DIMLFAC
 40
1.0
  9
$DIMTOFL
 70
     0
  9
$DIMTVP
 40
0.0
  9
$DIMTIX
 70
     0
  9
$DIMSOXD
 70
     0
  9
$DIMSAH
 70
     0
  9
$DIMBLK1
  1

  9
$DIMBLK2
  1

  9
$DIMSTYLE
  2
Standard
  9
$DIMCLRD
 70
     0
  9
$DIMCLRE
 70
     0
  9
$DIMCLRT
 70
     0
  9
$DIMTFAC
 40
0.65
  9
$DIMGAP
 40
0.09
  9
$DIMJUST
 70
     0
  9
$DIMSD1
 70
     0
  9
$DIMSD2
 70
     0
  9
$DIMTOLJ
 70
     0
  9
$DIMTZIN
 70
     0
  9
$DIMALTZ
 70
     0
  9
$DIMALTTZ
 70
     0
  9
$DIMUPT
 70
     0
  9
$DIMDEC
 70
     5
  9
$DIMTDEC
 70
     5
  9
$DIMALTU
 70
     2
  9
$DIMALTTD
 70
     5
  9
$DIMTXSTY
  7
Standard
  9
$DIMAUNIT
 70
     0
  9
$DIMADEC
 70
     5
  9
$DIMALTRND
 40
0.0
  9
$DIMAZIN
 70
     2
  9
$DIMDSEP
 70
    46
  9
$DIMATFIT
 70
     3
  9
$DIMFRAC
 70
     0
  9
$DIMLDRBLK
  1

  9
$DIMLUNIT
 70
     2
  9
$DIMLWD
 70
    -2
  9
$DIMLWE
 70
    -2
  9
$DIMTMOVE
 70
     0
  9
$DIMFXL
 40
1.0
  9
$DIMFXLON
 70
     0
  9
$DIMJOGANG
 40
0.7853981633974483
  9
$DIMTFILL
 70
     0
  9
$DIMTFILLCLR
 70
     0
  9
$DIMARCSYM
 70
     1
  9
$DIMLTYPE
  6

  9
$DIMLTEX1
  6

  9
$DIMLTEX2
  6

  9
$DIMTXTDIRECTION
 70
     0
  9
$LUNITS
 70
     2
  9
$LUPREC
 70
     4
  9
$SKETCHINC
 40
0.1
  9
$FILLETRAD
 40
0.5
  9
$AUNITS
 70
     0
  9
$AUPREC
 70
     0
  9
$MENU
  1
.
  9
$ELEVATION
 40
0.0
  9
$PELEVATION
 40
0.0
  9
$THICKNESS
 40
0.0
  9
$LIMCHECK
 70
     0
  9
$CHAMFERA
 40
0.0
  9
$CHAMFERB
 40
0.0
  9
$CHAMFERC
 40
0.0
  9
$CHAMFERD
 40
0.0
  9
$SKPOLY
 70
     0
  9
$TDCREATE
 40
2458733.643876111
  9
$TDUCREATE
 40
2458733.268876111
  9
$TDUPDATE
 40
2458733.643876736
  9
$TDUUPDATE
 40
2458733.268876736
  9
$TDINDWG
 40
0.0000000116
  9
$TDUSRTIMER
 40
0.0000000116
  9
$USRTIMER
 70
     1
  9
$ANGBASE
 50
0.0
  9
$ANGDIR
 70
     0
  9
$PDMODE
 70
     0
  9
$PDSIZE
 40
1.0
  9
$PLINEWID
 40
0.0
  9
$SPLFRAME
 70
     0
  9
$SPLINETYPE
 70
     6
  9
$SPLINESEGS
 70
     8
  9
$HANDSEED
  5
498
  9
$SURFTAB1
 70
     6
  9
$SURFTAB2
 70
     6
  9
$SURFTYPE
 70
     6
  9
$SURFU
 70
     6
  9
$SURFV
 70
     6
  9
$UCSBASE
  2

  9
$UCSNAME
  2

  9
$UCSORG
 10
0.0
 20
0.0
 30
0.0
  9
$UCSXDIR
 10
1.0
 20
0.0
 30
0.0
  9
$UCSYDIR
 10
0.0
 20
1.0
 30
0.0
  9
$UCSORTHOREF
  2

  9
$UCSORTHOVIEW
 70
     0
  9
$UCSORGTOP
 10
0.0
 20
0.0
 30
0.0
  9
$UCSORGBOTTOM
 10
0.0
 20
0.0
 30
0.0
  9
$UCSORGLEFT
 10
0.0
 20
0.0
 30
0.0
  9
$UCSORGRIGHT
 10
0.0
 20
0.0
 30
0.0
  9
$UCSORGFRONT
 10
0.0
 20
0.0
 30
0.0
  9
$UCSORGBACK
 10
0.0
 20
0.0
 30
0.0
  9
$PUCSBASE
  2

  9
$PUCSNAME
  2

  9
$PUCSORG
 10
0.0
 20
0.0
 30
0.0
  9
$PUCSXDIR
 10
1.0
 20
0.0
 30
0.0
  9
$PUCSYDIR
 10
0.0
 20
1.0
 30
0.0
  9
$PUCSORTHOREF
  2

  9
$PUCSORTHOVIEW
 70
     0
  9
$PUCSORGTOP
 10
0.0
 20
0.0
 30
0.0
  9
$PUCSORGBOTTOM
 10
0.0
 20
0.0
 30
0.0
  9
$PUCSORGLEFT
 10
0.0
 20
0.0
 30
0.0
  9
$PUCSORGRIGHT
 10
0.0
 20
0.0
 30
0.0
  9
$PUCSORGFRONT
 10
0.0
 20
0.0
 30
0.0
  9
$PUCSORGBACK
 10
0.0
 20
0.0
 30
0.0
  9
$USERI1
 70
     0
  9
$USERI2
 70
     0
  9
$USERI3
 70
     0
  9
$USERI4
 70
     0
  9
$USERI5
 70
     0
  9
$USERR1
 40
0.0
  9
$USERR2
 40
0.0
  9
$USERR3
 40
0.0
  9
$USERR4
 40
0.0
  9
$USERR5
 40
0.0
  9
$WORLDVIEW
 70
     1
  9
$SHADEDGE
 70
     3
  9
$SHADEDIF
 70
    70
  9
$TILEMODE
 70
     1
  9
$MAXACTVP
 70
    64
  9
$PINSBASE
 10
0.0
 20
0.0
 30
0.0
  9
$PLIMCHECK
 70
     0
  9
$PEXTMIN
 10
1.000000000000000E+20
 20
1.000000000000000E+20
 30
1.000000000000000E+20
  9
$PEXTMAX
 10
-1.000000000000000E+20
 20
-1.000000000000000E+20
 30
-1.000000000000000E+20
  9
$PLIMMIN
 10
0.0
 20
0.0
  9
$PLIMMAX
 10
12.0
 20
9.0
  9
$UNITMODE
 70
     0
  9
$VISRETAIN
 70
     0
  9
$PLINEGEN
 70
     1
  9
$PSLTSCALE
 70
     0
  9
$TREEDEPTH
 70
  3020
  9
$CMLSTYLE
  2
Standard
  9
$CMLJUST
 70
     0
  9
$CMLSCALE
 40
1.0
  9
$PROXYGRAPHICS
 70
     0
  9
$MEASUREMENT
 70
     1
  9
$CELWEIGHT
370
    -1
  9
$ENDCAPS
280
     0
  9
$JOINSTYLE
280
     0
  9
$LWDISPLAY
290
     1
  9
$INSUNITS
 70
     4
  9
$HYPERLINKBASE
  1

  9
$STYLESHEET
  1

  9
$XEDIT
290
     1
  9
$CEPSNTYPE
380
     0
  9
$PSTYLEMODE
290
     1
  9
$FINGERPRINTGUID
  2
{728E0D77-A06A-4E7D-91F7-DBA66450F2D7}
  9
$VERSIONGUID
  2
{FAEB1C32-E019-11D5-929B-00C0DF256EC4}
  9
$EXTNAMES
290
     1
  9
$PSVPSCALE
 40
0.0
  9
$OLESTARTUP
290
     0
  9
$SORTENTS
280
   127
  9
$INDEXCTL
280
     0
  9
$HIDETEXT
280
     1
  9
$XCLIPFRAME
280
     2
  9
$HALOGAP
280
     0
  9
$OBSCOLOR
 70
   257
  9
$OBSLTYPE
280
     0
  9
$INTERSECTIONDISPLAY
280
     0
  9
$INTERSECTIONCOLOR
 70
   257
  9
$DIMASSOC
280
     2
  9
$PROJECTNAME
  1

  9
$CAMERADISPLAY
290
     0
  9
$LENSLENGTH
 40
50.0
  9
$CAMERAHEIGHT
 40
0.0
  9
$STEPSPERSEC
 40
2.0
  9
$STEPSIZE
 40
6.0
  9
$3DDWFPREC
 40
2.0
  9
$PSOLWIDTH
 40
0.25
  9
$PSOLHEIGHT
 40
4.0
  9
$LOFTANG1
 40
1.570796326794897
  9
$LOFTANG2
 40
1.570796326794897
  9
$LOFTMAG1
 40
0.0
  9
$LOFTMAG2
 40
0.0
  9
$LOFTPARAM
 70
     7
  9
$LOFTNORMALS
280
     1
  9
$LATITUDE
 40
37.795
  9
$LONGITUDE
 40
-122.394
  9
$NORTHDIRECTION
 40
0.0
  9
$TIMEZONE
 70
 -8000
  9
$LIGHTGLYPHDISPLAY
280
     1
  9
$TILEMODELIGHTSYNCH
280
     1
  9
$CMATERIAL
347
44
  9
$SOLIDHIST
280
     1
  9
$SHOWHIST
280
     1
  9
$DWFFRAME
280
     2
  9
$DGNFRAME
280
     2
  9
$REALWORLDSCALE
290
     1
  9
$INTERFERECOLOR
 62
   256
  9
$CSHADOW
280
     0
  9
$SHADOWPLANELOCATION
 40
0.0
  0
ENDSEC
  0
SECTION
  2
CLASSES
  0
CLASS
  1
ACDBDICTIONARYWDFLT
  2
AcDbDictionaryWithDefault
  3
ObjectDBX Classes
 90
        0
 91
        4
280
     0
281
     0
  0
CLASS
  1
VISUALSTYLE
  2
AcDbVisualStyle
  3
ObjectDBX Classes
 90
     4095
 91
        4
280
     0
281
     0
  0
CLASS
  1
MATERIAL
  2
AcDbMaterial
  3
ObjectDBX Classes
 90
     1153
 91
        4
280
     0
281
     0
  0
CLASS
  1
SCALE
  2
AcDbScale
  3
ObjectDBX Classes
 90
     1153
 91
        4
280
     0
281
     0
  0
CLASS
  1
SUN
  2
AcDbSun
  3
SCENEOE
 90
     1153
 91
        4
280
     0
281
     0
  0
CLASS
  1
DICTIONARYVAR
  2
AcDbDictionaryVar
  3
ObjectDBX Classes
 90
        0
 91
        4
280
     0
281
     0
  0
ENDSEC
  0
SECTION
  2
TABLES
  0
TABLE
  2
VPORT
  5
8
330
0
100
AcDbSymbolTable
 70
     1
  0
VPORT
  5
29
330
8
100
AcDbSymbolTableRecord
100
AcDbViewportTableRecord
  2
*Active
 70
     0
 10
0.0
 20
0.0
 11
1.0
 21
1.0
 12
0.0
 22
0.0
 13
0.0
 23
0.0
 14
0.5
 24
0.5
 15
0.5
 25
0.5
 16
0.0
 26
0.0
 36
1.0
 17
-0.0000000000000036
 27
0.0
 37
0.0
 40
551.3225527747496
 41
1.457876148825689
 42
50.0
 43
0.0
 44
0.0
 50
0.0
 51
0.0
 71
     0
 72
  1000
 73
     1
 74
     1
 75
     0
 76
     0
 77
     0
 78
     0
281
     0
 65
     1
110
0.0
120
0.0
130
0.0
111
1.0
121
0.0
131
0.0
112
0.0
122
1.0
132
0.0
 79
     0
146
0.0
 60
     3
 61
     5
292
     1
282
     1
141
0.0
142
0.0
 63
   250
361
69
  0
ENDTAB
  0
TABLE
  2
LTYPE
  5
5
330
0
100
AcDbSymbolTable
 70
    67
  0
LTYPE
  5
14
330
5
100
AcDbSymbolTableRecord
100
AcDbLinetypeTableRecord
  2
ByBlock
 70
     0
  3

 72
    65
 73
     0
 40
0.0
  0
LTYPE
  5
15
330
5
100
AcDbSymbolTableRecord
100
AcDbLinetypeTableRecord
  2
ByLayer
 70
     0
  3

 72
    65
 73
     0
 40
0.0
  0
LTYPE
  5
16
330
5
100
AcDbSymbolTableRecord
100
AcDbLinetypeTableRecord
  2
Continuous
 70
     0
  3
Solid line
 72
    65
 73
     0
 40
0.0
  0
LTYPE
  5
6B
330
5
100
AcDbSymbolTableRecord
100
AcDbLinetypeTableRecord
  2
HIDDENX2
 70
     0
  3
Hidden (2x) ____ ____ ____ ____ ____ ____ ____ 
 72
    65
 73
     2
 40
19.05
 49
12.7
 74
     0
 49
-6.35
 74
     0
  0
LTYPE
  5
6C
330
5
100
AcDbSymbolTableRecord
100
AcDbLinetypeTableRecord
  2
HIDDEN
 70
     0
  3
Hidden __ __ __ __ __ __ __ __ __ __ __ __ __ __
 72
    65
 73
     2
 40
9.524999999999999
 49
6.35
 74
     0
 49
-3.175
 74
     0
  0
LTYPE
  5
6D
330
5
100
AcDbSymbolTableRecord
100
AcDbLinetypeTableRecord
  2
HIDDEN2
 70
     0
  3
Hidden (.5x) _ _ _ _ _ _ _ _ _ _ _ _ _ _ _ _ _ 
 72
    65
 73
     2
 40
4.762499999999999
 49
3.175
 74
     0
 49
-1.5875
 74
     0
  0
LTYPE
  5
6E
330
5
100
AcDbSymbolTableRecord
100
AcDbLinetypeTableRecord
  2
DASHED
 70
     0
  3
Dashed __ __ __ __ __ __ __ __ __ __ __ __ __ _
 72
    65
 73
     2
 40
19.05
 49
12.7
 74
     0
 49
-6.35
 74
     0
  0
LTYPE
  5
6F
330
5
100
AcDbSymbolTableRecord
100
AcDbLinetypeTableRecord
  2
DASHED2
 70
     0
  3
Dashed (.5x) _ _ _ _ _ _ _ _ _ _ _ _ _ _ _ _ _ 
 72
    65
 73
     2
 40
9.524999999999999
 49
6.35
 74
     0
 49
-3.175
 74
     0
  0
LTYPE
  5
70
330
5
100
AcDbSymbolTableRecord
100
AcDbLinetypeTableRecord
  2
DASHEDX2
 70
     0
  3
Dashed (2x) ____  ____  ____  ____  ____  ___
 72
    65
 73
     2
 40
38.09999999999999
 49
25.4
 74
     0
 49
-12.7
 74
     0
  0
LTYPE
  5
71
330
5
100
AcDbSymbolTableRecord
100
AcDbLinetypeTableRecord
  2
DOTX2
 70
     0
  3
Dot (2x) .  .  .  .  .  .  .  .  .  .  .  .  .  .
 72
    65
 73
     2
 40
12.7
 49
0.0
 74
     0
 49
-12.7
 74
     0
  0
LTYPE
  5
72
330
5
100
AcDbSymbolTableRecord
100
AcDbLinetypeTableRecord
  2
DOT
 70
     0
  3
Dot . . . . . . . . . . . . . . . . . . . . . . . .
 72
    65
 73
     2
 40
6.35
 49
0.0
 74
     0
 49
-6.35
 74
     0
  0
LTYPE
  5
73
330
5
100
AcDbSymbolTableRecord
100
AcDbLinetypeTableRecord
  2
DOT2
 70
     0
  3
Dot (.5x) ........................................
 72
    65
 73
     2
 40
3.175
 49
0.0
 74
     0
 49
-3.175
 74
     0
  0
LTYPE
  5
74
330
5
100
AcDbSymbolTableRecord
100
AcDbLinetypeTableRecord
  2
CENTERX2
 70
     0
  3
Center (2x) ________  __  ________  __  _____
 72
    65
 73
     4
 40
101.6
 49
63.5
 74
     0
 49
-12.7
 74
     0
 49
12.7
 74
     0
 49
-12.7
 74
     0
  0
LTYPE
  5
75
330
5
100
AcDbSymbolTableRecord
100
AcDbLinetypeTableRecord
  2
CENTER
 70
     0
  3
Center ____ _ ____ _ ____ _ ____ _ ____ _ ____
 72
    65
 73
     4
 40
50.8
 49
31.75
 74
     0
 49
-6.35
 74
     0
 49
6.35
 74
     0
 49
-6.35
 74
     0
  0
LTYPE
  5
76
330
5
100
AcDbSymbolTableRecord
100
AcDbLinetypeTableRecord
  2
CENTER2
 70
     0
  3
Center (.5x) ___ _ ___ _ ___ _ ___ _ ___ _ ___
 72
    65
 73
     4
 40
28.575
 49
19.05
 74
     0
 49
-3.175
 74
     0
 49
3.175
 74
     0
 49
-3.175
 74
     0
  0
LTYPE
  5
77
330
5
100
AcDbSymbolTableRecord
100
AcDbLinetypeTableRecord
  2
DASHDOTX2
 70
     0
  3
Dash dot (2x) ____  .  ____  .  ____  .  ___
 72
    65
 73
     4
 40
50.8
 49
25.4
 74
     0
 49
-12.7
 74
     0
 49
0.0
 74
     0
 49
-12.7
 74
     0
  0
LTYPE
  5
78
330
5
100
AcDbSymbolTableRecord
100
AcDbLinetypeTableRecord
  2
DASHDOT
 70
     0
  3
Dash dot __ . __ . __ . __ . __ . __ . __ . __
 72
    65
 73
     4
 40
25.4
 49
12.7
 74
     0
 49
-6.35
 74
     0
 49
0.0
 74
     0
 49
-6.35
 74
     0
  0
LTYPE
  5
79
330
5
100
AcDbSymbolTableRecord
100
AcDbLinetypeTableRecord
  2
DASHDOT2
 70
     0
  3
Dash dot (.5x) _._._._._._._._._._._._._._._.
 72
    65
 73
     4
 40
12.7
 49
6.35
 74
     0
 49
-3.175
 74
     0
 49
0.0
 74
     0
 49
-3.175
 74
     0
  0
LTYPE
  5
7A
330
5
100
AcDbSymbolTableRecord
100
AcDbLinetypeTableRecord
  2
DIVIDEX2
 70
     0
  3
Divide (2x) ________  .  .  ________  .  .  _
 72
    65
 73
     6
 40
63.5
 49
25.4
 74
     0
 49
-12.7
 74
     0
 49
0.0
 74
     0
 49
-12.7
 74
     0
 49
0.0
 74
     0
 49
-12.7
 74
     0
  0
LTYPE
  5
7B
330
5
100
AcDbSymbolTableRecord
100
AcDbLinetypeTableRecord
  2
DIVIDE
 70
     0
  3
Divide ____ . . ____ . . ____ . . ____ . . ____
 72
    65
 73
     6
 40
31.75
 49
12.7
 74
     0
 49
-6.35
 74
     0
 49
0.0
 74
     0
 49
-6.35
 74
     0
 49
0.0
 74
     0
 49
-6.35
 74
     0
  0
LTYPE
  5
7C
330
5
100
AcDbSymbolTableRecord
100
AcDbLinetypeTableRecord
  2
DIVIDE2
 70
     0
  3
Divide (.5x) __..__..__..__..__..__..__..__.._
 72
    65
 73
     6
 40
15.875
 49
6.35
 74
     0
 49
-3.175
 74
     0
 49
0.0
 74
     0
 49
-3.175
 74
     0
 49
0.0
 74
     0
 49
-3.175
 74
     0
  0
LTYPE
  5
7D
330
5
100
AcDbSymbolTableRecord
100
AcDbLinetypeTableRecord
  2
BORDERX2
 70
     0
  3
Border (2x) ____  ____  .  ____  ____  .  ___
 72
    65
 73
     6
 40
88.89999999999999
 49
25.4
 74
     0
 49
-12.7
 74
     0
 49
25.4
 74
     0
 49
-12.7
 74
     0
 49
0.0
 74
     0
 49
-12.7
 74
     0
  0
LTYPE
  5
7E
330
5
100
AcDbSymbolTableRecord
100
AcDbLinetypeTableRecord
  2
BORDER
 70
     0
  3
Border __ __ . __ __ . __ __ . __ __ . __ __ .
 72
    65
 73
     6
 40
44.45
 49
12.7
 74
     0
 49
-6.35
 74
     0
 49
12.7
 74
     0
 49
-6.35
 74
     0
 49
0.0
 74
     0
 49
-6.35
 74
     0
  0
LTYPE
  5
7F
330
5
100
AcDbSymbolTableRecord
100
AcDbLinetypeTableRecord
  2
BORDER2
 70
     0
  3
Border (.5x) __.__.__.__.__.__.__.__.__.__.__.
 72
    65
 73
     6
 40
22.225
 49
6.35
 74
     0
 49
-3.175
 74
     0
 49
6.35
 74
     0
 49
-3.175
 74
     0
 49
0.0
 74
     0
 49
-3.175
 74
     0
  0
LTYPE
  5
80
330
5
100
AcDbSymbolTableRecord
100
AcDbLinetypeTableRecord
  2
PHANTOMX2
 70
     0
  3
Phantom (2x) ____________    ____    ____   _
 72
    65
 73
     6
 40
127.0
 49
63.5
 74
     0
 49
-12.7
 74
     0
 49
12.7
 74
     0
 49
-12.7
 74
     0
 49
12.7
 74
     0
 49
-12.7
 74
     0
  0
LTYPE
  5
81
330
5
100
AcDbSymbolTableRecord
100
AcDbLinetypeTableRecord
  2
PHANTOM
 70
     0
  3
Phantom ______  __  __  ______  __  __  ______ 
 72
    65
 73
     6
 40
63.5
 49
31.75
 74
     0
 49
-6.35
 74
     0
 49
6.35
 74
     0
 49
-6.35
 74
     0
 49
6.35
 74
     0
 49
-6.35
 74
     0
  0
LTYPE
  5
82
330
5
100
AcDbSymbolTableRecord
100
AcDbLinetypeTableRecord
  2
PHANTOM2
 70
     0
  3
Phantom (.5x) ___ _ _ ___ _ _ ___ _ _ ___ _ _
 72
    65
 73
     6
 40
31.75
 49
15.875
 74
     0
 49
-3.175
 74
     0
 49
3.175
 74
     0
 49
-3.175
 74
     0
 49
3.175
 74
     0
 49
-3.175
 74
     0
  0
LTYPE
  5
83
330
5
100
AcDbSymbolTableRecord
100
AcDbLinetypeTableRecord
  2
ACAD_ISO06W100
 70
     0
  3
ISO long-dash triple-dot ____ ... ____ ... ____
 72
    65
 73
     8
 40
36.0
 49
24.0
 74
     0
 49
-3.0
 74
     0
 49
0.0
 74
     0
 49
-3.0
 74
     0
 49
0.0
 74
     0
 49
-3.0
 74
     0
 49
0.0
 74
     0
 49
-3.0
 74
     0
  0
LTYPE
  5
84
330
5
100
AcDbSymbolTableRecord
100
AcDbLinetypeTableRecord
  2
ACAD_ISO13W100
 70
     0
  3
ISO double-dash double-dot __ __ . . __ __ . . _
 72
    65
 73
     8
 40
36.0
 49
12.0
 74
     0
 49
-3.0
 74
     0
 49
12.0
 74
     0
 49
-3.0
 74
     0
 49
0.0
 74
     0
 49
-3.0
 74
     0
 49
0.0
 74
     0
 49
-3.0
 74
     0
  0
LTYPE
  5
85
330
5
100
AcDbSymbolTableRecord
100
AcDbLinetypeTableRecord
  2
ACAD_ISO14W100
 70
     0
  3
ISO dash triple-dot __ . . . __ . . . __ . . . _
 72
    65
 73
     8
 40
24.0
 49
12.0
 74
     0
 49
-3.0
 74
     0
 49
0.0
 74
     0
 49
-3.0
 74
     0
 49
0.0
 74
     0
 49
-3.0
 74
     0
 49
0.0
 74
     0
 49
-3.0
 74
     0
  0
LTYPE
  5
86
330
5
100
AcDbSymbolTableRecord
100
AcDbLinetypeTableRecord
  2
ACAD_ISO02W100
 70
     0
  3
ISO dash __ __ __ __ __ __ __ __ __ __ __ __ __
 72
    65
 73
     2
 40
15.0
 49
12.0
 74
     0
 49
-3.0
 74
     0
  0
LTYPE
  5
87
330
5
100
AcDbSymbolTableRecord
100
AcDbLinetypeTableRecord
  2
ACAD_ISO03W100
 70
     0
  3
ISO dash space __    __    __    __    __    __
 72
    65
 73
     2
 40
30.0
 49
12.0
 74
     0
 49
-18.0
 74
     0
  0
LTYPE
  5
88
330
5
100
AcDbSymbolTableRecord
100
AcDbLinetypeTableRecord
  2
ACAD_ISO04W100
 70
     0
  3
ISO long-dash dot ____ . ____ . ____ . ____ . _
 72
    65
 73
     4
 40
30.0
 49
24.0
 74
     0
 49
-3.0
 74
     0
 49
0.0
 74
     0
 49
-3.0
 74
     0
  0
LTYPE
  5
89
330
5
100
AcDbSymbolTableRecord
100
AcDbLinetypeTableRecord
  2
ACAD_ISO05W100
 70
     0
  3
ISO long-dash double-dot ____ .. ____ .. ____ . 
 72
    65
 73
     6
 40
33.0
 49
24.0
 74
     0
 49
-3.0
 74
     0
 49
0.0
 74
     0
 49
-3.0
 74
     0
 49
0.0
 74
     0
 49
-3.0
 74
     0
  0
LTYPE
  5
8A
330
5
100
AcDbSymbolTableRecord
100
AcDbLinetypeTableRecord
  2
ACAD_ISO07W100
 70
     0
  3
ISO dot . . . . . . . . . . . . . . . . . . . . 
 72
    65
 73
     2
 40
3.0
 49
0.0
 74
     0
 49
-3.0
 74
     0
  0
LTYPE
  5
8B
330
5
100
AcDbSymbolTableRecord
100
AcDbLinetypeTableRecord
  2
ACAD_ISO08W100
 70
     0
  3
ISO long-dash short-dash ____ __ ____ __ ____ _
 72
    65
 73
     4
 40
36.0
 49
24.0
 74
     0
 49
-3.0
 74
     0
 49
6.0
 74
     0
 49
-3.0
 74
     0
  0
LTYPE
  5
8C
330
5
100
AcDbSymbolTableRecord
100
AcDbLinetypeTableRecord
  2
ACAD_ISO09W100
 70
     0
  3
ISO long-dash double-short-dash ____ __ __ ____
 72
    65
 73
     6
 40
45.0
 49
24.0
 74
     0
 49
-3.0
 74
     0
 49
6.0
 74
     0
 49
-3.0
 74
     0
 49
6.0
 74
     0
 49
-3.0
 74
     0
  0
LTYPE
  5
8D
330
5
100
AcDbSymbolTableRecord
100
AcDbLinetypeTableRecord
  2
ACAD_ISO10W100
 70
     0
  3
ISO dash dot __ . __ . __ . __ . __ . __ . __ . 
 72
    65
 73
     4
 40
18.0
 49
12.0
 74
     0
 49
-3.0
 74
     0
 49
0.0
 74
     0
 49
-3.0
 74
     0
  0
LTYPE
  5
8E
330
5
100
AcDbSymbolTableRecord
100
AcDbLinetypeTableRecord
  2
ACAD_ISO11W100
 70
     0
  3
ISO double-dash dot __ __ . __ __ . __ __ . __ _
 72
    65
 73
     6
 40
33.0
 49
12.0
 74
     0
 49
-3.0
 74
     0
 49
12.0
 74
     0
 49
-3.0
 74
     0
 49
0.0
 74
     0
 49
-3.0
 74
     0
  0
LTYPE
  5
8F
330
5
100
AcDbSymbolTableRecord
100
AcDbLinetypeTableRecord
  2
ACAD_ISO12W100
 70
     0
  3
ISO dash double-dot __ . . __ . . __ . . __ . . 
 72
    65
 73
     6
 40
21.0
 49
12.0
 74
     0
 49
-3.0
 74
     0
 49
0.0
 74
     0
 49
-3.0
 74
     0
 49
0.0
 74
     0
 49
-3.0
 74
     0
  0
LTYPE
  5
90
330
5
100
AcDbSymbolTableRecord
100
AcDbLinetypeTableRecord
  2
ACAD_ISO15W100
 70
     0
  3
ISO double-dash triple-dot __ __ . . . __ __ . .
 72
    65
 73
    10
 40
39.0
 49
12.0
 74
     0
 49
-3.0
 74
     0
 49
12.0
 74
     0
 49
-3.0
 74
     0
 49
0.0
 74
     0
 49
-3.0
 74
     0
 49
0.0
 74
     0
 49
-3.0
 74
     0
 49
0.0
 74
     0
 49
-3.0
 74
     0
  0
LTYPE
  5
91
330
5
100
AcDbSymbolTableRecord
100
AcDbLinetypeTableRecord
  2
JIS_02_0.7
 70
     0
  3
HIDDEN0.75 _ _ _ _ _ _ _ _ _ _ _ _ _ _ _ _ _ 
 72
    65
 73
     2
 40
1.35
 49
0.75
 74
     0
 49
-0.6
 74
     0
  0
LTYPE
  5
92
330
5
100
AcDbSymbolTableRecord
100
AcDbLinetypeTableRecord
  2
JIS_02_1.0
 70
     0
  3
HIDDEN01 _ _ _ _ _ _ _ _ _ _ _ _ _ _ _ _ _ 
 72
    65
 73
     2
 40
2.0
 49
1.0
 74
     0
 49
-1.0
 74
     0
  0
LTYPE
  5
93
330
5
100
AcDbSymbolTableRecord
100
AcDbLinetypeTableRecord
  2
JIS_02_1.2
 70
     0
  3
HIDDEN01.25  _ _ _ _ _ _ _ _ _ _ _ _ _ _ _ _ _ 
 72
    65
 73
     2
 40
2.5
 49
1.25
 74
     0
 49
-1.25
 74
     0
  0
LTYPE
  5
94
330
5
100
AcDbSymbolTableRecord
100
AcDbLinetypeTableRecord
  2
JIS_02_2.0
 70
     0
  3
HIDDEN02 __ __ __ __ __ __ __ __ __ __ __ 
 72
    65
 73
     2
 40
3.0
 49
2.0
 74
     0
 49
-1.0
 74
     0
  0
LTYPE
  5
95
330
5
100
AcDbSymbolTableRecord
100
AcDbLinetypeTableRecord
  2
JIS_02_4.0
 70
     0
  3
HIDDEN04 ____ ____ ____ ____ ____ ____ ____ 
 72
    65
 73
     2
 40
5.5
 49
4.0
 74
     0
 49
-1.5
 74
     0
  0
LTYPE
  5
96
330
5
100
AcDbSymbolTableRecord
100
AcDbLinetypeTableRecord
  2
JIS_08_11
 70
     0
  3
1SASEN11 ___ _ ___ _ ___ _ ___ _ ___ _ ___
 72
    65
 73
     4
 40
12.8
 49
11.0
 74
     0
 49
-0.6
 74
     0
 49
0.6
 74
     0
 49
-0.6
 74
     0
  0
LTYPE
  5
97
330
5
100
AcDbSymbolTableRecord
100
AcDbLinetypeTableRecord
  2
JIS_08_15
 70
     0
  3
1SASEN15 ____ _ ____ _ ____ _ ____ _ ____ 
 72
    65
 73
     4
 40
17.25
 49
15.0
 74
     0
 49
-0.75
 74
     0
 49
0.75
 74
     0
 49
-0.75
 74
     0
  0
LTYPE
  5
98
330
5
100
AcDbSymbolTableRecord
100
AcDbLinetypeTableRecord
  2
JIS_08_25
 70
     0
  3
1SASEN25 ________  __  ________  __  _____
 72
    65
 73
     4
 40
28.0
 49
25.0
 74
     0
 49
-1.125
 74
     0
 49
0.75
 74
     0
 49
-1.125
 74
     0
  0
LTYPE
  5
99
330
5
100
AcDbSymbolTableRecord
100
AcDbLinetypeTableRecord
  2
JIS_08_37
 70
     0
  3
1SASEN37 ________  __  ________  __  _____
 72
    65
 73
     4
 40
40.5
 49
37.5
 74
     0
 49
-1.125
 74
     0
 49
0.75
 74
     0
 49
-1.125
 74
     0
  0
LTYPE
  5
9A
330
5
100
AcDbSymbolTableRecord
100
AcDbLinetypeTableRecord
  2
JIS_08_50
 70
     0
  3
1SASEN50 _______________  __  ____________
 72
    65
 73
     4
 40
53.0
 49
50.0
 74
     0
 49
-1.125
 74
     0
 49
0.75
 74
     0
 49
-1.125
 74
     0
  0
LTYPE
  5
9B
330
5
100
AcDbSymbolTableRecord
100
AcDbLinetypeTableRecord
  2
JIS_09_08
 70
     0
  3
2SASEN8 __ _ _ __ _ _ __ _ _ __ _ _ __ _ _ 
 72
    65
 73
     6
 40
10.75
 49
8.0
 74
     0
 49
-0.55
 74
     0
 49
0.55
 74
     0
 49
-0.55
 74
     0
 49
0.55
 74
     0
 49
-0.55
 74
     0
  0
LTYPE
  5
9C
330
5
100
AcDbSymbolTableRecord
100
AcDbLinetypeTableRecord
  2
JIS_09_15
 70
     0
  3
2SASEN15 ___ _ _ ___ _ _ ___ _ _ ___ _ _ ___ 
 72
    65
 73
     6
 40
18.9
 49
15.0
 74
     0
 49
-0.9
 74
     0
 49
0.6
 74
     0
 49
-0.9
 74
     0
 49
0.6
 74
     0
 49
-0.9
 74
     0
  0
LTYPE
  5
9D
330
5
100
AcDbSymbolTableRecord
100
AcDbLinetypeTableRecord
  2
JIS_09_29
 70
     0
  3
2SASEN29 ______　__  __  ______　__  __  ___
 72
    65
 73
     6
 40
34.0
 49
29.0
 74
     0
 49
-1.2
 74
     0
 49
0.7
 74
     0
 49
-1.2
 74
     0
 49
0.7
 74
     0
 49
-1.2
 74
     0
  0
LTYPE
  5
9E
330
5
100
AcDbSymbolTableRecord
100
AcDbLinetypeTableRecord
  2
JIS_09_50
 70
     0
  3
2SASEN50 ____________　__  __  _____________
 72
    65
 73
     6
 40
55.0
 49
50.0
 74
     0
 49
-1.2
 74
     0
 49
0.7
 74
     0
 49
-1.2
 74
     0
 49
0.7
 74
     0
 49
-1.2
 74
     0
  0
LTYPE
  5
9F
330
5
100
AcDbSymbolTableRecord
100
AcDbLinetypeTableRecord
  2
SXF_破線
 70
     0
  3
02 dashed -- -- -- -- -- --
 72
    65
 73
     2
 40
7.5
 49
6.0
 74
     0
 49
-1.5
 74
     0
  0
LTYPE
  5
A0
330
5
100
AcDbSymbolTableRecord
100
AcDbLinetypeTableRecord
  2
SXF_跳び破線
 70
     0
  3
03 dashed_spaced --  --  --  --
 72
    65
 73
     2
 40
12.0
 49
6.0
 74
     0
 49
-6.0
 74
     0
  0
LTYPE
  5
A1
330
5
100
AcDbSymbolTableRecord
100
AcDbLinetypeTableRecord
  2
SXF_一点長鎖線
 70
     0
  3
04 long_dashed_dotted ---- . ---- . ----
 72
    65
 73
     4
 40
15.25
 49
12.0
 74
     0
 49
-1.5
 74
     0
 49
0.25
 74
     0
 49
-1.5
 74
     0
  0
LTYPE
  5
A2
330
5
100
AcDbSymbolTableRecord
100
AcDbLinetypeTableRecord
  2
SXF_二点長鎖線
 70
     0
  3
05 long_dashed_double-dotted ---- . . ---- 
 72
    65
 73
     6
 40
17.0
 49
12.0
 74
     0
 49
-1.5
 74
     0
 49
0.25
 74
     0
 49
-1.5
 74
     0
 49
0.25
 74
     0
 49
-1.5
 74
     0
  0
LTYPE
  5
A3
330
5
100
AcDbSymbolTableRecord
100
AcDbLinetypeTableRecord
  2
SXF_三点長鎖線
 70
     0
  3
06 long_dashed_triplicate-dotted ---- ... ---- 
 72
    65
 73
     8
 40
18.75
 49
12.0
 74
     0
 49
-1.5
 74
     0
 49
0.25
 74
     0
 49
-1.5
 74
     0
 49
0.25
 74
     0
 49
-1.5
 74
     0
 49
0.25
 74
     0
 49
-1.5
 74
     0
  0
LTYPE
  5
A4
330
5
100
AcDbSymbolTableRecord
100
AcDbLinetypeTableRecord
  2
SXF_点線
 70
     0
  3
07 dotted . . . . . . . . . . . . 
 72
    65
 73
     2
 40
1.75
 49
0.25
 74
     0
 49
-1.5
 74
     0
  0
LTYPE
  5
A5
330
5
100
AcDbSymbolTableRecord
100
AcDbLinetypeTableRecord
  2
SXF_一点鎖線
 70
     0
  3
08 chain ---- - --- - --- - ---
 72
    65
 73
     4
 40
18.5
 49
12.0
 74
     0
 49
-1.5
 74
     0
 49
3.5
 74
     0
 49
-1.5
 74
     0
  0
LTYPE
  5
A6
330
5
100
AcDbSymbolTableRecord
100
AcDbLinetypeTableRecord
  2
SXF_二点鎖線
 70
     0
  3
09 chain_double_dash ---- - - ---- - - ----
 72
    65
 73
     6
 40
23.5
 49
12.0
 74
     0
 49
-1.5
 74
     0
 49
3.5
 74
     0
 49
-1.5
 74
     0
 49
3.5
 74
     0
 49
-1.5
 74
     0
  0
LTYPE
  5
A7
330
5
100
AcDbSymbolTableRecord
100
AcDbLinetypeTableRecord
  2
SXF_一点短鎖線
 70
     0
  3
10 dashed_dotted -- . -- . -- . --
 72
    65
 73
     4
 40
9.25
 49
6.0
 74
     0
 49
-1.5
 74
     0
 49
0.25
 74
     0
 49
-1.5
 74
     0
  0
LTYPE
  5
A8
330
5
100
AcDbSymbolTableRecord
100
AcDbLinetypeTableRecord
  2
SXF_一点二短鎖線
 70
     0
  3
11 double-dashed_dotted -- -- . -- --
 72
    65
 73
     6
 40
16.75
 49
6.0
 74
     0
 49
-1.5
 74
     0
 49
6.0
 74
     0
 49
-1.5
 74
     0
 49
0.25
 74
     0
 49
-1.5
 74
     0
  0
LTYPE
  5
A9
330
5
100
AcDbSymbolTableRecord
100
AcDbLinetypeTableRecord
  2
SXF_二点短鎖線
 70
     0
  3
12 dashed_double_dotted -- . . -- . . --
 72
    65
 73
     6
 40
11.0
 49
6.0
 74
     0
 49
-1.5
 74
     0
 49
0.25
 74
     0
 49
-1.5
 74
     0
 49
0.25
 74
     0
 49
-1.5
 74
     0
  0
LTYPE
  5
AA
330
5
100
AcDbSymbolTableRecord
100
AcDbLinetypeTableRecord
  2
SXF_二点二短鎖線
 70
     0
  3
13 double-dashed_double-dotted -- -- . . -- --
 72
    65
 73
     8
 40
18.5
 49
6.0
 74
     0
 49
-1.5
 74
     0
 49
6.0
 74
     0
 49
-1.5
 74
     0
 49
0.25
 74
     0
 49
-1.5
 74
     0
 49
0.25
 74
     0
 49
-1.5
 74
     0
  0
LTYPE
  5
AB
330
5
100
AcDbSymbolTableRecord
100
AcDbLinetypeTableRecord
  2
SXF_三点短鎖線
 70
     0
  3
14 dashed triplicate-dotted -- . . . -- . . . --
 72
    65
 73
     8
 40
12.75
 49
6.0
 74
     0
 49
-1.5
 74
     0
 49
0.25
 74
     0
 49
-1.5
 74
     0
 49
0.25
 74
     0
 49
-1.5
 74
     0
 49
0.25
 74
     0
 49
-1.5
 74
     0
  0
LTYPE
  5
AC
330
5
100
AcDbSymbolTableRecord
100
AcDbLinetypeTableRecord
  2
SXF_三点二短鎖線
 70
     0
  3
15 double-dashed triplicate-dotted -- -- . . . -- -- 
 72
    65
 73
    10
 40
20.25
 49
6.0
 74
     0
 49
-1.5
 74
     0
 49
6.0
 74
     0
 49
-1.5
 74
     0
 49
0.25
 74
     0
 49
-1.5
 74
     0
 49
0.25
 74
     0
 49
-1.5
 74
     0
 49
0.25
 74
     0
 49
-1.5
 74
     0
  0
ENDTAB
  0
TABLE
  2
LAYER
  5
2
330
0
100
AcDbSymbolTable
 70
     4
  0
LAYER
  5
10
330
2
100
AcDbSymbolTableRecord
100
AcDbLayerTableRecord
  2
0
 70
     0
 62
     7
  6
Continuous
370
    -3
390
F
347
46
  0
LAYER
  5
AD
330
2
100
AcDbSymbolTableRecord
100
AcDbLayerTableRecord
  2
7
 70
     0
 62
     7
  6
Continuous
370
    -3
390
F
347
46
  0
LAYER
  5
AE
330
2
100
AcDbSymbolTableRecord
100
AcDbLayerTableRecord
  2
8
 70
     0
 62
     7
  6
Continuous
370
    -3
390
F
347
46
  0
LAYER
  5
AF
330
2
100
AcDbSymbolTableRecord
100
AcDbLayerTableRecord
  2
ZUWAKU
 70
     0
 62
     7
  6
Continuous
370
    -3
390
F
347
46
  0
ENDTAB
  0
TABLE
  2
STYLE
  5
3
330
0
100
AcDbSymbolTable
 70
     3
  0
STYLE
  5
11
330
3
100
AcDbSymbolTableRecord
100
AcDbTextStyleTableRecord
  2
Standard
 70
     0
 40
0.0
 41
1.0
 50
0.0
 71
     0
 42
0.2
  3
txt.shx
  4
bigfont.shx
  0
STYLE
  5
124
330
3
100
AcDbSymbolTableRecord
100
AcDbTextStyleTableRecord
  2
dcStyle1
 70
     0
 40
0.0
 41
0.75
 50
0.0
 71
     0
 42
0.2
  3
ＭＳ Ｐゴシック
  4

1001
ACAD
1000
ＭＳ Ｐゴシック
1071
    32802
  0
STYLE
  5
1DC
330
3
100
AcDbSymbolTableRecord
100
AcDbTextStyleTableRecord
  2
dcStyle0
 70
     0
 40
0.0
 41
1.0
 50
0.0
 71
     0
 42
0.2
  3
txt.shx
  4
bigfont
  0
ENDTAB
  0
TABLE
  2
VIEW
  5
6
330
0
100
AcDbSymbolTable
 70
     0
  0
ENDTAB
  0
TABLE
  2
UCS
  5
7
330
0
100
AcDbSymbolTable
 70
     0
  0
ENDTAB
  0
TABLE
  2
APPID
  5
9
330
0
100
AcDbSymbolTable
 70
     2
  0
APPID
  5
12
330
9
100
AcDbSymbolTableRecord
100
AcDbRegAppTableRecord
  2
ACAD
 70
     0
  0
APPID
  5
6A
330
9
100
AcDbSymbolTableRecord
100
AcDbRegAppTableRecord
  2
DaFusionOut
 70
     0
  0
ENDTAB
  0
TABLE
  2
DIMSTYLE
  5
A
330
0
100
AcDbSymbolTable
 70
     2
100
AcDbDimStyleTable
  0
DIMSTYLE
105
27
330
A
100
AcDbSymbolTableRecord
100
AcDbDimStyleTableRecord
  2
Standard
 70
     0
178
     0
340
11
  0
DIMSTYLE
105
449
102
{ACAD_REACTORS
330
448
330
44A
330
44B
330
44C
330
44D
330
44E
330
44F
330
450
330
451
102
}
330
A
100
AcDbSymbolTableRecord
100
AcDbDimStyleTableRecord
  2
dc_Rotated
 70
     0
 41
6.000003814697266
 42
2.0
 44
2.0
 90
        1
 73
     0
 74
     0
 77
     3
 78
     8
 79
     2
140
8.0
147
2.0
172
     1
173
     1
176
     2
177
     2
271
     2
178
     2
271
     2
274
     4
283
     0
284
     8
288
     1
340
124
343
11B
344
11B
  0
ENDTAB
  0
TABLE
  2
BLOCK_RECORD
  5
1
330
0
100
AcDbSymbolTable
 70
    36
  0
BLOCK_RECORD
  5
1F
330
1
100
AcDbSymbolTableRecord
100
AcDbBlockTableRecord
  2
*Model_Space
340
22
 70
     0
280
     1
281
     0
  0
BLOCK_RECORD
  5
1B
330
1
100
AcDbSymbolTableRecord
100
AcDbBlockTableRecord
  2
*Paper_Space
340
1E
 70
     0
280
     1
281
     0
  0
BLOCK_RECORD
  5
23
330
1
100
AcDbSymbolTableRecord
100
AcDbBlockTableRecord
  2
*Paper_Space0
340
26
 70
     0
280
     1
281
     0
  0
BLOCK_RECORD
  5
B1
330
1
100
AcDbSymbolTableRecord
100
AcDbBlockTableRecord
  2
*D1
340
0
 70
     0
280
     1
281
     0
  0
BLOCK_RECORD
  5
B4
330
1
100
AcDbSymbolTableRecord
100
AcDbBlockTableRecord
  2
*D2
340
0
 70
     0
280
     1
281
     0
  0
BLOCK_RECORD
  5
B7
330
1
100
AcDbSymbolTableRecord
100
AcDbBlockTableRecord
  2
*D3
340
0
 70
     0
280
     1
281
     0
  0
BLOCK_RECORD
  5
BA
330
1
100
AcDbSymbolTableRecord
100
AcDbBlockTableRecord
  2
*D4
340
0
 70
     0
280
     1
281
     0
  0
BLOCK_RECORD
  5
BD
330
1
100
AcDbSymbolTableRecord
100
AcDbBlockTableRecord
  2
*D5
340
0
 70
     0
280
     1
281
     0
  0
BLOCK_RECORD
  5
C0
330
1
100
AcDbSymbolTableRecord
100
AcDbBlockTableRecord
  2
*D6
340
0
 70
     0
280
     1
281
     0
  0
BLOCK_RECORD
  5
C3
330
1
100
AcDbSymbolTableRecord
100
AcDbBlockTableRecord
  2
*D7
340
0
 70
     0
280
     1
281
     0
  0
BLOCK_RECORD
  5
C6
330
1
100
AcDbSymbolTableRecord
100
AcDbBlockTableRecord
  2
*D8
340
0
 70
     0
280
     1
281
     0
  0
BLOCK_RECORD
  5
C9
330
1
100
AcDbSymbolTableRecord
100
AcDbBlockTableRecord
  2
*D9
340
0
 70
     0
280
     1
281
     0
  0
BLOCK_RECORD
  5
CC
330
1
100
AcDbSymbolTableRecord
100
AcDbBlockTableRecord
  2
DC_GROUP_W_MCD50_G_080_1_1
340
0
102
{BLKREFS
331
452
102
}
 70
     0
280
     1
281
     0
  0
BLOCK_RECORD
  5
CF
330
1
100
AcDbSymbolTableRecord
100
AcDbBlockTableRecord
  2
DC_GROUP_W_MCD50_G_080_1_2
340
0
102
{BLKREFS
331
453
102
}
 70
     0
280
     1
281
     0
  0
BLOCK_RECORD
  5
D2
330
1
100
AcDbSymbolTableRecord
100
AcDbBlockTableRecord
  2
DC_GROUP_W_MCD50_G_080_1_3
340
0
102
{BLKREFS
331
454
102
}
 70
     0
280
     1
281
     0
  0
BLOCK_RECORD
  5
D5
330
1
100
AcDbSymbolTableRecord
100
AcDbBlockTableRecord
  2
DC_GROUP_W_MCD50_G_080_1_4
340
0
102
{BLKREFS
331
455
102
}
 70
     0
280
     1
281
     0
  0
BLOCK_RECORD
  5
D8
330
1
100
AcDbSymbolTableRecord
100
AcDbBlockTableRecord
  2
DC_GROUP_W_MCD50_G_080_1_5
340
0
102
{BLKREFS
331
169
102
}
 70
     0
280
     1
281
     0
  0
BLOCK_RECORD
  5
DB
330
1
100
AcDbSymbolTableRecord
100
AcDbBlockTableRecord
  2
DC_GROUP_W_MCD50_G_080_1_6
340
0
102
{BLKREFS
331
17D
102
}
 70
     0
280
     1
281
     0
  0
BLOCK_RECORD
  5
DE
330
1
100
AcDbSymbolTableRecord
100
AcDbBlockTableRecord
  2
DC_GROUP_W_MCD50_G_080_1_7
340
0
102
{BLKREFS
331
17E
102
}
 70
     0
280
     1
281
     0
  0
BLOCK_RECORD
  5
E1
330
1
100
AcDbSymbolTableRecord
100
AcDbBlockTableRecord
  2
DC_GROUP_W_MCD50_G_080_1_8
340
0
102
{BLKREFS
331
456
102
}
 70
     0
280
     1
281
     0
  0
BLOCK_RECORD
  5
E4
330
1
100
AcDbSymbolTableRecord
100
AcDbBlockTableRecord
  2
DC_GROUP_W_MCD50_G_080_1_9
340
0
102
{BLKREFS
331
18F
102
}
 70
     0
280
     1
281
     0
  0
BLOCK_RECORD
  5
E7
330
1
100
AcDbSymbolTableRecord
100
AcDbBlockTableRecord
  2
DC_GROUP_W_MCD50_G_080_1_10
340
0
102
{BLKREFS
331
19F
102
}
 70
     0
280
     1
281
     0
  0
BLOCK_RECORD
  5
EA
330
1
100
AcDbSymbolTableRecord
100
AcDbBlockTableRecord
  2
DC_GROUP_W_MCD50_G_080_1_11
340
0
102
{BLKREFS
331
1A0
102
}
 70
     0
280
     1
281
     0
  0
BLOCK_RECORD
  5
ED
330
1
100
AcDbSymbolTableRecord
100
AcDbBlockTableRecord
  2
DC_GROUP_W_MCD50_G_080_1_12
340
0
102
{BLKREFS
331
45E
102
}
 70
     0
280
     1
281
     0
  0
BLOCK_RECORD
  5
F0
330
1
100
AcDbSymbolTableRecord
100
AcDbBlockTableRecord
  2
DC_GROUP_W_MCD50_G_080_1_13
340
0
102
{BLKREFS
331
1B5
102
}
 70
     0
280
     1
281
     0
  0
BLOCK_RECORD
  5
F3
330
1
100
AcDbSymbolTableRecord
100
AcDbBlockTableRecord
  2
DC_GROUP_W_MCD50_G_080_1_14
340
0
102
{BLKREFS
331
1B6
102
}
 70
     0
280
     1
281
     0
  0
BLOCK_RECORD
  5
F6
330
1
100
AcDbSymbolTableRecord
100
AcDbBlockTableRecord
  2
DC_GROUP_W_MCD50_G_080_1_15
340
0
102
{BLKREFS
331
1B7
102
}
 70
     0
280
     1
281
     0
  0
BLOCK_RECORD
  5
F9
330
1
100
AcDbSymbolTableRecord
100
AcDbBlockTableRecord
  2
DC_GROUP_W_MCD50_G_080_1_16
340
0
102
{BLKREFS
331
45F
102
}
 70
     0
280
     1
281
     0
  0
BLOCK_RECORD
  5
FC
330
1
100
AcDbSymbolTableRecord
100
AcDbBlockTableRecord
  2
DC_GROUP_W_MCD50_G_080_1_17
340
0
102
{BLKREFS
331
460
102
}
 70
     0
280
     1
281
     0
  0
BLOCK_RECORD
  5
FF
330
1
100
AcDbSymbolTableRecord
100
AcDbBlockTableRecord
  2
DC_GROUP_W_MCD50_G_080_1_18
340
0
102
{BLKREFS
331
461
102
}
 70
     0
280
     1
281
     0
  0
BLOCK_RECORD
  5
102
330
1
100
AcDbSymbolTableRecord
100
AcDbBlockTableRecord
  2
DC_GROUP_W_MCD50_G_080_1_19
340
0
102
{BLKREFS
331
457
102
}
 70
     0
280
     1
281
     0
  0
BLOCK_RECORD
  5
105
330
1
100
AcDbSymbolTableRecord
100
AcDbBlockTableRecord
  2
DC_GROUP_W_MCD50_G_080_1_20
340
0
102
{BLKREFS
331
458
102
}
 70
     0
280
     1
281
     0
  0
BLOCK_RECORD
  5
108
330
1
100
AcDbSymbolTableRecord
100
AcDbBlockTableRecord
  2
DC_GROUP_W_MCD50_G_080_1_21
340
0
102
{BLKREFS
331
459
102
}
 70
     0
280
     1
281
     0
  0
BLOCK_RECORD
  5
10B
330
1
100
AcDbSymbolTableRecord
100
AcDbBlockTableRecord
  2
DC_GROUP_W_MCD50_G_080_1_22
340
0
102
{BLKREFS
331
45A
102
}
 70
     0
280
     1
281
     0
  0
BLOCK_RECORD
  5
10E
330
1
100
AcDbSymbolTableRecord
100
AcDbBlockTableRecord
  2
DC_GROUP_W_MCD50_G_080_1_23
340
0
102
{BLKREFS
331
45B
102
}
 70
     0
280
     1
281
     0
  0
BLOCK_RECORD
  5
111
330
1
100
AcDbSymbolTableRecord
100
AcDbBlockTableRecord
  2
DC_GROUP_W_MCD50_G_080_1_24
340
0
102
{BLKREFS
331
45C
102
}
 70
     0
280
     1
281
     0
  0
BLOCK_RECORD
  5
114
330
1
100
AcDbSymbolTableRecord
100
AcDbBlockTableRecord
  2
DC_GROUP_W_MCD50_G_080_1_25
340
0
102
{BLKREFS
331
45D
102
}
 70
     0
280
     1
281
     0
  0
BLOCK_RECORD
  5
11B
330
1
100
AcDbSymbolTableRecord
100
AcDbBlockTableRecord
  2
_OPEN30
340
0
102
{BLKREFS
331
121
331
123
331
12A
331
12C
331
131
331
132
331
137
331
138
331
13D
331
13E
331
143
331
144
331
149
331
14A
331
150
331
152
331
158
331
15A
331
15E
331
163
331
168
331
21D
102
}
 70
     0
280
     1
281
     0
  0
ENDTAB
  0
ENDSEC
  0
SECTION
  2
BLOCKS
  0
BLOCK
  5
20
330
1F
100
AcDbEntity
  8
0
100
AcDbBlockBegin
  2
*Model_Space
 70
     0
 10
0.0
 20
0.0
 30
0.0
  3
*Model_Space
  1
*Model_Space
  0
ENDBLK
  5
21
330
1F
100
AcDbEntity
  8
0
100
AcDbBlockEnd
  0
BLOCK
  5
1C
330
1B
100
AcDbEntity
 67
     1
  8
0
100
AcDbBlockBegin
  2
*Paper_Space
 70
     0
 10
0.0
 20
0.0
 30
0.0
  3
*Paper_Space
  1
*Paper_Space
  0
ENDBLK
  5
1D
330
1B
100
AcDbEntity
 67
     1
  8
0
100
AcDbBlockEnd
  0
BLOCK
  5
24
330
23
100
AcDbEntity
  8
0
100
AcDbBlockBegin
  2
*Paper_Space0
 70
     0
 10
0.0
 20
0.0
 30
0.0
  3
*Paper_Space0
  1
*Paper_Space0
  0
ENDBLK
  5
25
330
23
100
AcDbEntity
  8
0
100
AcDbBlockEnd
  0
BLOCK
  5
B2
330
B1
100
AcDbEntity
  8
0
100
AcDbBlockBegin
  2
*D1
 70
     1
 10
0.0
 20
0.0
 30
0.0
  3
*D1
  1
*D1
  0
LINE
  5
117
330
B1
100
AcDbEntity
  8
0
  6
Continuous
 62
     2
370
    13
100
AcDbLine
 10
-171.7602125490322
 20
-18.34384667904428
 30
0.0
 11
-212.5948626281595
 21
-18.34384667904428
 31
0.0
  0
LINE
  5
118
330
B1
100
AcDbEntity
  8
0
  6
Continuous
 62
     2
370
    13
100
AcDbLine
 10
-192.6602125490322
 20
-8.343846679044304
 30
0.0
 11
-212.5948626281595
 21
-8.343846679044304
 31
0.0
  0
LINE
  5
119
330
B1
100
AcDbEntity
  8
0
  6
Continuous
 62
     2
370
    13
100
AcDbLine
 10
-210.5948626281595
 20
-8.343846679044304
 30
0.0
 11
-210.5948626281595
 21
-18.34384667904428
 31
0.0
  0
LINE
  5
11A
330
B1
100
AcDbEntity
  8
0
  6
Continuous
 62
     2
370
    13
100
AcDbLine
 10
-210.5948626281595
 20
9.452153320955695
 30
0.0
 11
-210.5948626281595
 21
-8.343846679044304
 31
0.0
  0
INSERT
  5
121
330
B1
100
AcDbEntity
  8
0
 62
     2
100
AcDbBlockReference
  2
_OPEN30
 10
-210.5948626281595
 20
-8.343846679044304
 30
0.0
 41
6.000005615230571
 42
5.999978736447286
 50
270.0
  0
LINE
  5
122
330
B1
100
AcDbEntity
  8
0
  6
Continuous
 62
     2
370
    13
100
AcDbLine
 10
-210.5948626281595
 20
-26.34384667904428
 30
0.0
 11
-210.5948626281595
 21
-18.34384667904428
 31
0.0
  0
INSERT
  5
123
330
B1
100
AcDbEntity
  8
0
 62
     2
100
AcDbBlockReference
  2
_OPEN30
 10
-210.5948626281595
 20
-18.34384667904428
 30
0.0
 41
6.000005615230571
 42
5.999978736447286
 50
90.0
  0
MTEXT
  5
125
330
B1
100
AcDbEntity
  8
0
 62
     2
100
AcDbMText
 10
-212.5948626281595
 20
-0.5478466790443033
 30
0.0
 40
8.0
 41
20.0
 46
0.0
 71
     7
 72
     1
  1
\T1.00;10
  7
dcStyle1
 11
6.123233995736766E-17
 21
1.0
 31
0.0
 73
     1
 44
1.0
  0
ENDBLK
  5
B3
330
B1
100
AcDbEntity
  8
0
100
AcDbBlockEnd
  0
BLOCK
  5
B5
330
B4
100
AcDbEntity
  8
0
100
AcDbBlockBegin
  2
*D2
 70
     1
 10
0.0
 20
0.0
 30
0.0
  3
*D2
  1
*D2
  0
LINE
  5
126
330
B4
100
AcDbEntity
  8
0
  6
Continuous
 62
     2
370
    13
100
AcDbLine
 10
63.32570934015968
 20
31.6561533209557
 30
0.0
 11
23.466962300864
 21
31.6561533209557
 31
0.0
  0
LINE
  5
127
330
B4
100
AcDbEntity
  8
0
  6
Continuous
 62
     2
370
    13
100
AcDbLine
 10
42.42570934015981
 20
41.6561533209557
 30
0.0
 11
23.466962300864
 21
41.6561533209557
 31
0.0
  0
LINE
  5
128
330
B4
100
AcDbEntity
  8
0
  6
Continuous
 62
     2
370
    13
100
AcDbLine
 10
25.466962300864
 20
41.6561533209557
 30
0.0
 11
25.466962300864
 21
31.6561533209557
 31
0.0
  0
LINE
  5
129
330
B4
100
AcDbEntity
  8
0
  6
Continuous
 62
     2
370
    13
100
AcDbLine
 10
25.466962300864
 20
59.45215332095569
 30
0.0
 11
25.466962300864
 21
41.6561533209557
 31
0.0
  0
INSERT
  5
12A
330
B4
100
AcDbEntity
  8
0
 62
     2
100
AcDbBlockReference
  2
_OPEN30
 10
25.466962300864
 20
41.6561533209557
 30
0.0
 41
6.000005615230571
 42
5.999978736447286
 50
270.0
  0
LINE
  5
12B
330
B4
100
AcDbEntity
  8
0
  6
Continuous
 62
     2
370
    13
100
AcDbLine
 10
25.466962300864
 20
23.6561533209557
 30
0.0
 11
25.466962300864
 21
31.6561533209557
 31
0.0
  0
INSERT
  5
12C
330
B4
100
AcDbEntity
  8
0
 62
     2
100
AcDbBlockReference
  2
_OPEN30
 10
25.466962300864
 20
31.6561533209557
 30
0.0
 41
6.000005615230571
 42
5.999978736447286
 50
90.0
  0
MTEXT
  5
12D
330
B4
100
AcDbEntity
  8
0
 62
     2
100
AcDbMText
 10
23.466962300864
 20
49.45215332095569
 30
0.0
 40
8.0
 41
20.0
 46
0.0
 71
     7
 72
     1
  1
\T1.00;10
  7
dcStyle1
 11
6.123233995736766E-17
 21
1.0
 31
0.0
 73
     1
 44
1.0
  0
ENDBLK
  5
B6
330
B4
100
AcDbEntity
  8
0
100
AcDbBlockEnd
  0
BLOCK
  5
B8
330
B7
100
AcDbEntity
  8
0
100
AcDbBlockBegin
  2
*D3
 70
     1
 10
0.0
 20
0.0
 30
0.0
  3
*D3
  1
*D3
  0
LINE
  5
12E
330
B7
100
AcDbEntity
  8
0
  6
Continuous
 62
     2
370
    13
100
AcDbLine
 10
-249.4572489316126
 20
97.6561533209557
 30
0.0
 11
-274.9572489316126
 21
97.6561533209557
 31
0.0
  0
LINE
  5
12F
330
B7
100
AcDbEntity
  8
0
  6
Continuous
 62
     2
370
    13
100
AcDbLine
 10
-249.4572489316126
 20
125.6561533209557
 30
0.0
 11
-274.9572489316126
 21
125.6561533209557
 31
0.0
  0
LINE
  5
130
330
B7
100
AcDbEntity
  8
0
  6
Continuous
 62
     2
370
    13
100
AcDbLine
 10
-272.9572489316126
 20
97.6561533209557
 30
0.0
 11
-272.9572489316126
 21
125.6561533209557
 31
0.0
  0
INSERT
  5
131
330
B7
100
AcDbEntity
  8
0
 62
     2
100
AcDbBlockReference
  2
_OPEN30
 10
-272.9572489316126
 20
97.6561533209557
 30
0.0
 41
6.000005615230571
 42
5.999978736447286
 50
270.0
  0
INSERT
  5
132
330
B7
100
AcDbEntity
  8
0
 62
     2
100
AcDbBlockReference
  2
_OPEN30
 10
-272.9572489316126
 20
125.6561533209557
 30
0.0
 41
6.000005615230571
 42
5.999978736447286
 50
90.0
  0
MTEXT
  5
133
330
B7
100
AcDbEntity
  8
0
 62
     2
100
AcDbMText
 10
-274.9572489316126
 20
113.0545113378997
 30
0.0
 40
8.0
 41
20.0
 46
0.0
 71
     8
 72
     1
  1
\T1.00;28
  7
dcStyle1
 11
6.123233995736766E-17
 21
1.0
 31
0.0
 73
     1
 44
1.0
  0
ENDBLK
  5
B9
330
B7
100
AcDbEntity
  8
0
100
AcDbBlockEnd
  0
BLOCK
  5
BB
330
BA
100
AcDbEntity
  8
0
100
AcDbBlockBegin
  2
*D4
 70
     1
 10
0.0
 20
0.0
 30
0.0
  3
*D4
  1
*D4
  0
LINE
  5
134
330
BA
100
AcDbEntity
  8
0
  6
Continuous
 62
     2
370
    13
100
AcDbLine
 10
-19.67429065984061
 20
97.6561533209557
 30
0.0
 11
-45.17429065984061
 21
97.6561533209557
 31
0.0
  0
LINE
  5
135
330
BA
100
AcDbEntity
  8
0
  6
Continuous
 62
     2
370
    13
100
AcDbLine
 10
-19.67429065984061
 20
125.6561533209557
 30
0.0
 11
-45.17429065984061
 21
125.6561533209557
 31
0.0
  0
LINE
  5
136
330
BA
100
AcDbEntity
  8
0
  6
Continuous
 62
     2
370
    13
100
AcDbLine
 10
-43.17429065984061
 20
97.6561533209557
 30
0.0
 11
-43.17429065984061
 21
125.6561533209557
 31
0.0
  0
INSERT
  5
137
330
BA
100
AcDbEntity
  8
0
 62
     2
100
AcDbBlockReference
  2
_OPEN30
 10
-43.17429065984061
 20
97.6561533209557
 30
0.0
 41
6.000005615230571
 42
5.999978736447286
 50
270.0
  0
INSERT
  5
138
330
BA
100
AcDbEntity
  8
0
 62
     2
100
AcDbBlockReference
  2
_OPEN30
 10
-43.17429065984061
 20
125.6561533209557
 30
0.0
 41
6.000005615230571
 42
5.999978736447286
 50
90.0
  0
MTEXT
  5
139
330
BA
100
AcDbEntity
  8
0
 62
     2
100
AcDbMText
 10
-45.17429065984061
 20
111.6561533209557
 30
0.0
 40
8.0
 41
20.0
 46
0.0
 71
     8
 72
     1
  1
\T1.00;28
  7
dcStyle1
 11
6.123233995736766E-17
 21
1.0
 31
0.0
 73
     1
 44
1.0
  0
ENDBLK
  5
BC
330
BA
100
AcDbEntity
  8
0
100
AcDbBlockEnd
  0
BLOCK
  5
BE
330
BD
100
AcDbEntity
  8
0
100
AcDbBlockBegin
  2
*D5
 70
     1
 10
0.0
 20
0.0
 30
0.0
  3
*D5
  1
*D5
  0
LINE
  5
13A
330
BD
100
AcDbEntity
  8
0
  6
Continuous
 62
     2
370
    13
100
AcDbLine
 10
-265.9772079326745
 20
-8.343846679044304
 30
0.0
 11
-295.9172489316126
 21
-8.343846679044304
 31
0.0
  0
LINE
  5
13B
330
BD
100
AcDbEntity
  8
0
  6
Continuous
 62
     2
370
    13
100
AcDbLine
 10
-252.5706263514637
 20
111.6561533209557
 30
0.0
 11
-295.9172489316126
 21
111.6561533209557
 31
0.0
  0
LINE
  5
13C
330
BD
100
AcDbEntity
  8
0
  6
Continuous
 62
     2
370
    13
100
AcDbLine
 10
-293.9172489316126
 20
-8.343846679044304
 30
0.0
 11
-293.9172489316126
 21
111.6561533209557
 31
0.0
  0
INSERT
  5
13D
330
BD
100
AcDbEntity
  8
0
 62
     2
100
AcDbBlockReference
  2
_OPEN30
 10
-293.9172489316126
 20
-8.343846679044304
 30
0.0
 41
6.000005615230571
 42
5.999978736447286
 50
270.0
  0
INSERT
  5
13E
330
BD
100
AcDbEntity
  8
0
 62
     2
100
AcDbBlockReference
  2
_OPEN30
 10
-293.9172489316126
 20
111.6561533209557
 30
0.0
 41
6.000005615230571
 42
5.999978736447286
 50
90.0
  0
MTEXT
  5
13F
330
BD
100
AcDbEntity
  8
0
 62
     4
100
AcDbMText
 10
-295.9172489316126
 20
46.40058903612061
 30
0.0
 40
8.0
 41
45.0
 46
0.0
 71
     8
 72
     1
  1
\T1.00;90～150
  7
dcStyle1
 11
6.123233995736766E-17
 21
1.0
 31
0.0
 73
     1
 44
1.0
  0
ENDBLK
  5
BF
330
BD
100
AcDbEntity
  8
0
100
AcDbBlockEnd
  0
BLOCK
  5
C1
330
C0
100
AcDbEntity
  8
0
100
AcDbBlockBegin
  2
*D6
 70
     1
 10
0.0
 20
0.0
 30
0.0
  3
*D6
  1
*D6
  0
LINE
  5
140
330
C0
100
AcDbEntity
  8
0
  6
Continuous
 62
     2
370
    13
100
AcDbLine
 10
-30.89128604348252
 20
41.6561533209557
 30
0.0
 11
-68.85755726290046
 21
41.6561533209557
 31
0.0
  0
LINE
  5
141
330
C0
100
AcDbEntity
  8
0
  6
Continuous
 62
     2
370
    13
100
AcDbLine
 10
-22.7876680796918
 20
111.6561533209557
 30
0.0
 11
-68.85755726290046
 21
111.6561533209557
 31
0.0
  0
LINE
  5
142
330
C0
100
AcDbEntity
  8
0
  6
Continuous
 62
     2
370
    13
100
AcDbLine
 10
-66.85755726290046
 20
41.6561533209557
 30
0.0
 11
-66.85755726290046
 21
111.6561533209557
 31
0.0
  0
INSERT
  5
143
330
C0
100
AcDbEntity
  8
0
 62
     2
100
AcDbBlockReference
  2
_OPEN30
 10
-66.85755726290046
 20
41.6561533209557
 30
0.0
 41
6.000005615230571
 42
5.999978736447286
 50
270.0
  0
INSERT
  5
144
330
C0
100
AcDbEntity
  8
0
 62
     2
100
AcDbBlockReference
  2
_OPEN30
 10
-66.85755726290046
 20
111.6561533209557
 30
0.0
 41
6.000005615230571
 42
5.999978736447286
 50
90.0
  0
MTEXT
  5
145
330
C0
100
AcDbEntity
  8
0
 62
     4
100
AcDbMText
 10
-68.85755726290046
 20
79.33821251386863
 30
0.0
 40
8.0
 41
40.0
 46
0.0
 71
     8
 72
     1
  1
\T1.00;50～90
  7
dcStyle1
 11
6.123233995736766E-17
 21
1.0
 31
0.0
 73
     1
 44
1.0
  0
ENDBLK
  5
C2
330
C0
100
AcDbEntity
  8
0
100
AcDbBlockEnd
  0
BLOCK
  5
C4
330
C3
100
AcDbEntity
  8
0
100
AcDbBlockBegin
  2
*D7
 70
     1
 10
0.0
 20
0.0
 30
0.0
  3
*D7
  1
*D7
  0
LINE
  5
146
330
C3
100
AcDbEntity
  8
0
  6
Continuous
 62
     2
370
    13
100
AcDbLine
 10
222.632387116249
 20
121.6561533209557
 30
0.0
 11
222.632387116249
 21
173.6561533209558
 31
0.0
  0
LINE
  5
147
330
C3
100
AcDbEntity
  8
0
  6
Continuous
 62
     2
370
    13
100
AcDbLine
 10
267.632387116249
 20
121.6561533209557
 30
0.0
 11
267.632387116249
 21
173.6561533209558
 31
0.0
  0
LINE
  5
148
330
C3
100
AcDbEntity
  8
0
  6
Continuous
 62
     2
370
    13
100
AcDbLine
 10
222.632387116249
 20
171.6561533209558
 30
0.0
 11
267.632387116249
 21
171.6561533209558
 31
0.0
  0
INSERT
  5
149
330
C3
100
AcDbEntity
  8
0
 62
     2
100
AcDbBlockReference
  2
_OPEN30
 10
222.632387116249
 20
171.6561533209558
 30
0.0
 41
6.000005615230571
 42
5.999978736447286
 50
180.0
  0
INSERT
  5
14A
330
C3
100
AcDbEntity
  8
0
 62
     2
100
AcDbBlockReference
  2
_OPEN30
 10
267.632387116249
 20
171.6561533209558
 30
0.0
 41
6.000005615230571
 42
5.999978736447286
 50
360.0
  0
MTEXT
  5
14B
330
C3
100
AcDbEntity
  8
0
 62
     2
100
AcDbMText
 10
245.8260683102576
 20
173.6561533209558
 30
0.0
 40
8.0
 41
20.0
 46
0.0
 71
     8
 72
     1
  1
\T1.00;45
  7
dcStyle1
 73
     1
 44
1.0
  0
ENDBLK
  5
C5
330
C3
100
AcDbEntity
  8
0
100
AcDbBlockEnd
  0
BLOCK
  5
C7
330
C6
100
AcDbEntity
  8
0
100
AcDbBlockBegin
  2
*D8
 70
     1
 10
0.0
 20
0.0
 30
0.0
  3
*D8
  1
*D8
  0
LINE
  5
14C
330
C6
100
AcDbEntity
  8
0
  6
Continuous
 62
     2
370
    13
100
AcDbLine
 10
-248.9572489316126
 20
126.1561533209557
 30
0.0
 11
-248.9572489316126
 21
153.6561533209556
 31
0.0
  0
LINE
  5
14D
330
C6
100
AcDbEntity
  8
0
  6
Continuous
 62
     2
370
    13
100
AcDbLine
 10
-245.9572489316124
 20
127.6561533209557
 30
0.0
 11
-245.9572489316124
 21
153.6561533209556
 31
0.0
  0
LINE
  5
14E
330
C6
100
AcDbEntity
  8
0
  6
Continuous
 62
     2
370
    13
100
AcDbLine
 10
-245.9572489316124
 20
151.6561533209556
 30
0.0
 11
-248.9572489316126
 21
151.6561533209556
 31
0.0
  0
LINE
  5
14F
330
C6
100
AcDbEntity
  8
0
  6
Continuous
 62
     2
370
    13
100
AcDbLine
 10
-259.3821228857785
 20
151.6561533209556
 30
0.0
 11
-248.9572489316126
 21
151.6561533209556
 31
0.0
  0
INSERT
  5
150
330
C6
100
AcDbEntity
  8
0
 62
     2
100
AcDbBlockReference
  2
_OPEN30
 10
-248.9572489316126
 20
151.6561533209556
 30
0.0
 41
6.000005615230571
 42
5.999978736447286
 50
360.0
  0
LINE
  5
151
330
C6
100
AcDbEntity
  8
0
  6
Continuous
 62
     2
370
    13
100
AcDbLine
 10
-235.9572489316124
 20
151.6561533209556
 30
0.0
 11
-245.9572489316124
 21
151.6561533209556
 31
0.0
  0
INSERT
  5
152
330
C6
100
AcDbEntity
  8
0
 62
     2
100
AcDbBlockReference
  2
_OPEN30
 10
-245.9572489316124
 20
151.6561533209556
 30
0.0
 41
6.000005615230571
 42
5.999978736447286
 50
180.0
  0
MTEXT
  5
153
330
C6
100
AcDbEntity
  8
0
 62
     2
100
AcDbMText
 10
-253.3821228857785
 20
153.6561533209556
 30
0.0
 40
8.0
 41
15.0
 46
0.0
 71
     9
 72
     1
  1
\T1.00;3
  7
dcStyle1
 73
     1
 44
1.0
  0
ENDBLK
  5
C8
330
C6
100
AcDbEntity
  8
0
100
AcDbBlockEnd
  0
BLOCK
  5
CA
330
C9
100
AcDbEntity
  8
0
100
AcDbBlockBegin
  2
*D9
 70
     1
 10
0.0
 20
0.0
 30
0.0
  3
*D9
  1
*D9
  0
LINE
  5
154
330
C9
100
AcDbEntity
  8
0
  6
Continuous
 62
     2
370
    13
100
AcDbLine
 10
-19.17429065984072
 20
126.1561533209557
 30
0.0
 11
-19.17429065984072
 21
153.6561533209556
 31
0.0
  0
LINE
  5
155
330
C9
100
AcDbEntity
  8
0
  6
Continuous
 62
     2
370
    13
100
AcDbLine
 10
-16.17429065984049
 20
125.6561533209557
 30
0.0
 11
-16.17429065984049
 21
153.6561533209556
 31
0.0
  0
LINE
  5
156
330
C9
100
AcDbEntity
  8
0
  6
Continuous
 62
     2
370
    13
100
AcDbLine
 10
-16.17429065984049
 20
151.6561533209556
 30
0.0
 11
-19.17429065984072
 21
151.6561533209556
 31
0.0
  0
LINE
  5
157
330
C9
100
AcDbEntity
  8
0
  6
Continuous
 62
     2
370
    13
100
AcDbLine
 10
-33.08141089381854
 20
151.6561533209556
 30
0.0
 11
-19.17429065984072
 21
151.6561533209556
 31
0.0
  0
INSERT
  5
158
330
C9
100
AcDbEntity
  8
0
 62
     2
100
AcDbBlockReference
  2
_OPEN30
 10
-19.17429065984072
 20
151.6561533209556
 30
0.0
 41
6.000005615230571
 42
5.999978736447286
 50
360.0
  0
LINE
  5
159
330
C9
100
AcDbEntity
  8
0
  6
Continuous
 62
     2
370
    13
100
AcDbLine
 10
-6.174290659840494
 20
151.6561533209556
 30
0.0
 11
-16.17429065984049
 21
151.6561533209556
 31
0.0
  0
INSERT
  5
15A
330
C9
100
AcDbEntity
  8
0
 62
     2
100
AcDbBlockReference
  2
_OPEN30
 10
-16.17429065984049
 20
151.6561533209556
 30
0.0
 41
6.000005615230571
 42
5.999978736447286
 50
180.0
  0
MTEXT
  5
15B
330
C9
100
AcDbEntity
  8
0
 62
     2
100
AcDbMText
 10
-27.08141089381854
 20
153.6561533209556
 30
0.0
 40
8.0
 41
15.0
 46
0.0
 71
     9
 72
     1
  1
\T1.00;3
  7
dcStyle1
 73
     1
 44
1.0
  0
ENDBLK
  5
CB
330
C9
100
AcDbEntity
  8
0
100
AcDbBlockEnd
  0
BLOCK
  5
CD
330
CC
100
AcDbEntity
  8
0
100
AcDbBlockBegin
  2
DC_GROUP_W_MCD50_G_080_1_1
 70
     0
 10
0.0
 20
0.0
 30
0.0
  3
DC_GROUP_W_MCD50_G_080_1_1
  1
DC_GROUP_W_MCD50_G_080_1_1
  0
TEXT
  5
15C
330
CC
100
AcDbEntity
  8
0
 62
     2
100
AcDbText
 10
-71.90214625742897
 20
173.0561533209557
 30
0.0
 40
8.0
  1
W2
 41
0.5537098560354374
  7
dcStyle1
 72
     5
 11
-63.90214625742897
 21
173.0561533209557
 31
0.0
100
AcDbText
  0
LINE
  5
15D
330
CC
100
AcDbEntity
  8
0
  6
Continuous
 62
     2
370
    13
100
AcDbLine
 10
-19.17429065984066
 20
171.6561533209557
 30
0.0
 11
-19.27429065984069
 21
171.6561533209557
 31
0.0
  0
INSERT
  5
15E
330
CC
100
AcDbEntity
  8
0
 62
     2
100
AcDbBlockReference
  2
_OPEN30
 10
-19.17429065984066
 20
171.6561533209557
 30
0.0
 41
6.000005615230571
 42
5.999978736447286
 50
360.0
  0
LINE
  5
15F
330
CC
100
AcDbEntity
  8
0
  6
Continuous
 62
     2
370
    13
100
AcDbLine
 10
-19.17429065984066
 20
171.6561533209557
 30
0.0
 11
-71.90214625742897
 21
171.6561533209557
 31
0.0
  0
LINE
  5
160
330
CC
100
AcDbEntity
  8
0
  6
Continuous
 62
     2
370
    13
100
AcDbLine
 10
-19.17429065984066
 20
126.1561533209557
 30
0.0
 11
-19.17429065984066
 21
173.6561533209557
 31
0.0
  0
ENDBLK
  5
CE
330
CC
100
AcDbEntity
  8
0
100
AcDbBlockEnd
  0
BLOCK
  5
D0
330
CF
100
AcDbEntity
  8
0
100
AcDbBlockBegin
  2
DC_GROUP_W_MCD50_G_080_1_2
 70
     0
 10
0.0
 20
0.0
 30
0.0
  3
DC_GROUP_W_MCD50_G_080_1_2
  1
DC_GROUP_W_MCD50_G_080_1_2
  0
TEXT
  5
161
330
CF
100
AcDbEntity
  8
0
 62
     2
100
AcDbText
 10
-303.1880687836992
 20
173.0561533209558
 30
0.0
 40
8.0
  1
W2
 41
0.5537098560354374
  7
dcStyle1
 72
     5
 11
-295.1880687836992
 21
173.0561533209558
 31
0.0
100
AcDbText
  0
LINE
  5
162
330
CF
100
AcDbEntity
  8
0
  6
Continuous
 62
     2
370
    13
100
AcDbLine
 10
-248.9572489316126
 20
171.6561533209558
 30
0.0
 11
-249.0572489316126
 21
171.6561533209558
 31
0.0
  0
INSERT
  5
163
330
CF
100
AcDbEntity
  8
0
 62
     2
100
AcDbBlockReference
  2
_OPEN30
 10
-248.9572489316126
 20
171.6561533209558
 30
0.0
 41
6.000005615230571
 42
5.999978736447286
 50
360.0
  0
LINE
  5
164
330
CF
100
AcDbEntity
  8
0
  6
Continuous
 62
     2
370
    13
100
AcDbLine
 10
-248.9572489316126
 20
171.6561533209558
 30
0.0
 11
-303.1880687836992
 21
171.6561533209558
 31
0.0
  0
LINE
  5
165
330
CF
100
AcDbEntity
  8
0
  6
Continuous
 62
     2
370
    13
100
AcDbLine
 10
-248.9572489316126
 20
126.1561533209558
 30
0.0
 11
-248.9572489316126
 21
173.6561533209558
 31
0.0
  0
ENDBLK
  5
D1
330
CF
100
AcDbEntity
  8
0
100
AcDbBlockEnd
  0
BLOCK
  5
D3
330
D2
100
AcDbEntity
  8
0
100
AcDbBlockBegin
  2
DC_GROUP_W_MCD50_G_080_1_3
 70
     0
 10
0.0
 20
0.0
 30
0.0
  3
DC_GROUP_W_MCD50_G_080_1_3
  1
DC_GROUP_W_MCD50_G_080_1_3
  0
LINE
  5
166
330
D2
100
AcDbEntity
  8
0
  6
Continuous
 62
     2
370
    13
100
AcDbLine
 10
-139.3975185799396
 20
151.2328134880547
 30
0.0
 11
-54.23239301288498
 21
151.2328134880547
 31
0.0
  0
LINE
  5
167
330
D2
100
AcDbEntity
  8
0
  6
Continuous
 62
     2
370
    13
100
AcDbLine
 10
-54.23239301288498
 20
151.2328134880547
 30
0.0
 11
-19.17429065984072
 21
124.1561533209557
 31
0.0
  0
INSERT
  5
168
330
D2
100
AcDbEntity
  8
0
 62
     2
100
AcDbBlockReference
  2
_OPEN30
 10
-19.17429065984072
 20
124.1561533209557
 30
0.0
 41
6.000005615230571
 42
5.999978736447286
 50
322.319772754675
  0
ENDBLK
  5
D4
330
D2
100
AcDbEntity
  8
0
100
AcDbBlockEnd
  0
BLOCK
  5
D6
330
D5
100
AcDbEntity
  8
0
100
AcDbBlockBegin
  2
DC_GROUP_W_MCD50_G_080_1_4
 70
     0
 10
0.0
 20
0.0
 30
0.0
  3
DC_GROUP_W_MCD50_G_080_1_4
  1
DC_GROUP_W_MCD50_G_080_1_4
  0
INSERT
  5
169
330
D5
100
AcDbEntity
  8
8
  6
Continuous
100
AcDbBlockReference
  2
DC_GROUP_W_MCD50_G_080_1_5
 10
0.0
 20
0.0
 30
0.0
  0
ENDBLK
  5
D7
330
D5
100
AcDbEntity
  8
0
100
AcDbBlockEnd
  0
BLOCK
  5
D9
330
D8
100
AcDbEntity
  8
0
100
AcDbBlockBegin
  2
DC_GROUP_W_MCD50_G_080_1_5
 70
     0
 10
0.0
 20
0.0
 30
0.0
  3
DC_GROUP_W_MCD50_G_080_1_5
  1
DC_GROUP_W_MCD50_G_080_1_5
  0
LINE
  5
16A
330
D8
100
AcDbEntity
  8
8
  6
CENTERX2
 62
     3
370
    13
100
AcDbLine
 10
-157.2602125490322
 20
-70.34384667904428
 30
0.0
 11
-157.2602125490322
 21
29.0715929103898
 31
0.0
  0
LINE
  5
16B
330
D8
100
AcDbEntity
  8
8
  6
CENTERX2
 62
     3
370
    13
100
AcDbLine
 10
-162.4018903975365
 20
39.76949559975938
 30
0.0
 11
-197.1185347005272
 21
67.5428110421523
 31
0.0
  0
LINE
  5
16C
330
D8
100
AcDbEntity
  8
8
  6
CENTERX2
 62
     3
370
    13
100
AcDbLine
 10
-202.2602125490315
 20
78.24071373152165
 30
0.0
 11
-202.2602125490316
 21
144.6561533209557
 31
0.0
  0
ARC
  5
16D
330
D8
100
AcDbEntity
  8
8
  6
CENTERX2
 62
     3
370
    13
100
AcDbCircle
 10
-188.5602125490314
 20
78.24071373152165
 30
0.0
 40
13.7
100
AcDbArc
 50
180.0
 51
231.3401917459094
  0
ARC
  5
16E
330
D8
100
AcDbEntity
  8
8
  6
CENTERX2
 62
     3
370
    13
100
AcDbCircle
 10
-170.9602125490322
 20
29.0715929103898
 30
0.0
 40
13.7
100
AcDbArc
 50
359.9999999999999
 51
51.34019174590967
  0
LINE
  5
16F
330
D8
100
AcDbEntity
  8
8
  6
Continuous
 62
     7
370
    13
100
AcDbLine
 10
-196.9602125490315
 20
81.65615332095572
 30
0.0
 11
-196.9602125490315
 21
78.24071373152165
 31
0.0
  0
LINE
  5
170
330
D8
100
AcDbEntity
  8
8
  6
Continuous
 62
     7
370
    13
100
AcDbLine
 10
-151.9602125490316
 20
24.65615332095572
 30
0.0
 11
-151.9602125490316
 21
29.07159291038911
 31
0.0
  0
LINE
  5
171
330
D8
100
AcDbEntity
  8
8
  6
Continuous
 62
     7
370
    13
100
AcDbLine
 10
-162.5602125490315
 20
24.65615332095572
 30
0.0
 11
-162.5602125490315
 21
29.07159291038934
 31
0.0
  0
LINE
  5
172
330
D8
100
AcDbEntity
  8
8
  6
Continuous
 62
     7
370
    13
100
AcDbLine
 10
-207.5602125490314
 20
81.65615332095572
 30
0.0
 11
-207.5602125490314
 21
78.24071373152165
 31
0.0
  0
LINE
  5
173
330
D8
100
AcDbEntity
  8
8
  6
Continuous
 62
     7
370
    13
100
AcDbLine
 10
-193.8076509484887
 20
71.68141573220024
 30
0.0
 11
-159.0910066454973
 21
43.90810028980664
 31
0.0
  0
LINE
  5
174
330
D8
100
AcDbEntity
  8
8
  6
Continuous
 62
     7
370
    13
100
AcDbLine
 10
-165.7127741495743
 20
35.63089090971076
 30
0.0
 11
-200.4294184525657
 21
63.40420635210413
 31
0.0
  0
ARC
  5
175
330
D8
100
AcDbEntity
  8
8
  6
Continuous
 62
     7
370
    13
100
AcDbCircle
 10
-188.5602125490314
 20
78.24071373152165
 30
0.0
 40
19.0
100
AcDbArc
 50
180.0
 51
231.3401917459095
  0
ARC
  5
176
330
D8
100
AcDbEntity
  8
8
  6
Continuous
 62
     7
370
    13
100
AcDbCircle
 10
-170.9602125490316
 20
29.07159291038911
 30
0.0
 40
19.0
100
AcDbArc
 50
0.000000000000014
 51
51.34019174590942
  0
ARC
  5
177
330
D8
100
AcDbEntity
  8
8
  6
Continuous
 62
     7
370
    13
100
AcDbCircle
 10
-170.9602125490316
 20
29.07159291038934
 30
0.0
 40
8.4
100
AcDbArc
 50
0.000000000000014
 51
51.34019174590976
  0
ARC
  5
178
330
D8
100
AcDbEntity
  8
8
  6
Continuous
 62
     7
370
    13
100
AcDbCircle
 10
-188.5602125490314
 20
78.24071373152165
 30
0.0
 40
8.4
100
AcDbArc
 50
180.0
 51
231.3401917459094
  0
LINE
  5
179
330
D8
100
AcDbEntity
  8
8
  6
PHANTOM
 62
    91
370
    13
100
AcDbLine
 10
-157.2602125490322
 20
29.0715929103898
 30
0.0
 11
-157.2602125490322
 21
35.65615332095527
 31
0.0
  0
LINE
  5
17A
330
D8
100
AcDbEntity
  8
8
  6
PHANTOM
 62
    91
370
    13
100
AcDbLine
 10
-157.2602125490322
 20
35.65615332095527
 30
0.0
 11
-162.1113563006471
 21
39.53706832224626
 31
0.0
  0
LINE
  5
17B
330
D8
100
AcDbEntity
  8
8
  6
PHANTOM
 62
    91
370
    13
100
AcDbLine
 10
-202.2602125490315
 20
78.24071373152165
 30
0.0
 11
-202.2602125490315
 21
71.65615332095595
 31
0.0
  0
LINE
  5
17C
330
D8
100
AcDbEntity
  8
8
  6
PHANTOM
 62
    91
370
    13
100
AcDbLine
 10
-202.2602125490315
 20
71.65615332095595
 30
0.0
 11
-197.1185347005272
 21
67.5428110421523
 31
0.0
  0
INSERT
  5
17D
330
D8
100
AcDbEntity
  8
8
  6
Continuous
100
AcDbBlockReference
  2
DC_GROUP_W_MCD50_G_080_1_6
 10
0.0
 20
0.0
 30
0.0
  0
INSERT
  5
17E
330
D8
100
AcDbEntity
  8
8
  6
Continuous
100
AcDbBlockReference
  2
DC_GROUP_W_MCD50_G_080_1_7
 10
0.0
 20
0.0
 30
0.0
  0
ENDBLK
  5
DA
330
D8
100
AcDbEntity
  8
0
100
AcDbBlockEnd
  0
BLOCK
  5
DC
330
DB
100
AcDbEntity
  8
0
100
AcDbBlockBegin
  2
DC_GROUP_W_MCD50_G_080_1_6
 70
     0
 10
0.0
 20
0.0
 30
0.0
  3
DC_GROUP_W_MCD50_G_080_1_6
  1
DC_GROUP_W_MCD50_G_080_1_6
  0
LINE
  5
17F
330
DB
100
AcDbEntity
  8
8
  6
Continuous
 62
     7
370
    13
100
AcDbLine
 10
-163.2602125490322
 20
24.65615332095572
 30
0.0
 11
-151.2602125490322
 21
24.65615332095572
 31
0.0
  0
LINE
  5
180
330
DB
100
AcDbEntity
  8
8
  6
Continuous
 62
     7
370
    13
100
AcDbLine
 10
-163.2602125490322
 20
-65.34384667904428
 30
0.0
 11
-151.2602125490322
 21
-65.34384667904428
 31
0.0
  0
LINE
  5
181
330
DB
100
AcDbEntity
  8
8
  6
Continuous
 62
     7
370
    13
100
AcDbLine
 10
-151.2602125490322
 20
24.65615332095572
 30
0.0
 11
-151.2602125490322
 21
-8.34384667904439
 31
0.0
  0
LINE
  5
182
330
DB
100
AcDbEntity
  8
8
  6
Continuous
 62
     7
370
    13
100
AcDbLine
 10
-163.2602125490322
 20
24.65615332095572
 30
0.0
 11
-163.2602125490322
 21
-8.34384667904439
 31
0.0
  0
LINE
  5
183
330
DB
100
AcDbEntity
  8
8
  6
Continuous
 62
     7
370
    13
100
AcDbLine
 10
-151.2602125490322
 20
-34.54384667904426
 30
0.0
 11
-151.2602125490322
 21
-65.34384667904428
 31
0.0
  0
LINE
  5
184
330
DB
100
AcDbEntity
  8
8
  6
Continuous
 62
     7
370
    13
100
AcDbLine
 10
-163.2602125490322
 20
-34.54384667904426
 30
0.0
 11
-163.2602125490322
 21
-65.34384667904428
 31
0.0
  0
LINE
  5
185
330
DB
100
AcDbEntity
  8
8
  6
Continuous
 62
     3
370
    13
100
AcDbLine
 10
-151.2602125490322
 20
-64.34384667904428
 30
0.0
 11
-163.2602125490324
 21
-64.34384667904428
 31
0.0
  0
LINE
  5
186
330
DB
100
AcDbEntity
  8
8
  6
Continuous
 62
     3
370
    13
100
AcDbLine
 10
-152.4602125490311
 20
-8.34384667904439
 30
0.0
 11
-152.4602125490311
 21
24.65615332095572
 31
0.0
  0
LINE
  5
187
330
DB
100
AcDbEntity
  8
8
  6
Continuous
 62
     3
370
    13
100
AcDbLine
 10
-162.0602125490322
 20
-8.34384667904439
 30
0.0
 11
-162.0602125490324
 21
24.65615332095572
 31
0.0
  0
LINE
  5
188
330
DB
100
AcDbEntity
  8
8
  6
Continuous
 62
     3
370
    13
100
AcDbLine
 10
-152.4602125490311
 20
-65.34384667904428
 30
0.0
 11
-152.4602125490311
 21
-34.54384667904426
 31
0.0
  0
LINE
  5
189
330
DB
100
AcDbEntity
  8
8
  6
Continuous
 62
     3
370
    13
100
AcDbLine
 10
-162.0602125490319
 20
-65.34384667904428
 30
0.0
 11
-162.0602125490321
 21
-34.54384667904426
 31
0.0
  0
ENDBLK
  5
DD
330
DB
100
AcDbEntity
  8
0
100
AcDbBlockEnd
  0
BLOCK
  5
DF
330
DE
100
AcDbEntity
  8
0
100
AcDbBlockBegin
  2
DC_GROUP_W_MCD50_G_080_1_7
 70
     0
 10
0.0
 20
0.0
 30
0.0
  3
DC_GROUP_W_MCD50_G_080_1_7
  1
DC_GROUP_W_MCD50_G_080_1_7
  0
LINE
  5
18A
330
DE
100
AcDbEntity
  8
8
  6
Continuous
 62
     7
370
    13
100
AcDbLine
 10
-196.2602125490308
 20
81.65615332095572
 30
0.0
 11
-208.2602125490308
 21
81.65615332095572
 31
0.0
  0
LINE
  5
18B
330
DE
100
AcDbEntity
  8
8
  6
Continuous
 62
     7
370
    13
100
AcDbLine
 10
-196.2602125490308
 20
81.65615332095572
 30
0.0
 11
-196.2602125490308
 21
85.65615332095595
 31
0.0
  0
LINE
  5
18C
330
DE
100
AcDbEntity
  8
8
  6
Continuous
 62
     7
370
    13
100
AcDbLine
 10
-208.2602125490308
 20
81.65615332095572
 30
0.0
 11
-208.2602125490308
 21
85.65615332095595
 31
0.0
  0
LINE
  5
18D
330
DE
100
AcDbEntity
  8
8
  6
Continuous
 62
     3
370
    13
100
AcDbLine
 10
-197.4602125490306
 20
85.65615332095595
 30
0.0
 11
-197.4602125490306
 21
81.65615332095572
 31
0.0
  0
LINE
  5
18E
330
DE
100
AcDbEntity
  8
8
  6
Continuous
 62
     3
370
    13
100
AcDbLine
 10
-207.0602125490319
 20
85.65615332095595
 30
0.0
 11
-207.0602125490319
 21
81.65615332095572
 31
0.0
  0
ENDBLK
  5
E0
330
DE
100
AcDbEntity
  8
0
100
AcDbBlockEnd
  0
BLOCK
  5
E2
330
E1
100
AcDbEntity
  8
0
100
AcDbBlockBegin
  2
DC_GROUP_W_MCD50_G_080_1_8
 70
     0
 10
0.0
 20
0.0
 30
0.0
  3
DC_GROUP_W_MCD50_G_080_1_8
  1
DC_GROUP_W_MCD50_G_080_1_8
  0
INSERT
  5
18F
330
E1
100
AcDbEntity
  8
8
  6
Continuous
100
AcDbBlockReference
  2
DC_GROUP_W_MCD50_G_080_1_9
 10
0.0
 20
0.0
 30
0.0
  0
ENDBLK
  5
E3
330
E1
100
AcDbEntity
  8
0
100
AcDbBlockEnd
  0
BLOCK
  5
E5
330
E4
100
AcDbEntity
  8
0
100
AcDbBlockBegin
  2
DC_GROUP_W_MCD50_G_080_1_9
 70
     0
 10
0.0
 20
0.0
 30
0.0
  3
DC_GROUP_W_MCD50_G_080_1_9
  1
DC_GROUP_W_MCD50_G_080_1_9
  0
LINE
  5
190
330
E4
100
AcDbEntity
  8
8
  6
CENTERX2
 62
     3
370
    13
100
AcDbLine
 10
44.52560730993366
 20
72.09845793149464
 30
0.0
 11
66.12581137038421
 21
72.0977463343014
 31
0.0
  0
LINE
  5
191
330
E4
100
AcDbEntity
  8
8
  6
CENTERX2
 62
     3
370
    13
100
AcDbLine
 10
32.8257093401586
 20
147.0979124871577
 30
0.0
 11
32.8257093401586
 21
83.79845793104994
 31
0.0
  0
LINE
  5
192
330
E4
100
AcDbEntity
  8
8
  6
CENTERX2
 62
     3
370
    13
100
AcDbLine
 10
77.8257093401595
 20
60.39774633474633
 30
0.0
 11
77.8257093401595
 21
-17.90208751284229
 31
0.0
  0
ARC
  5
193
330
E4
100
AcDbEntity
  8
8
  6
CENTERX2
 62
     3
370
    13
100
AcDbCircle
 10
44.52570934015841
 20
83.79845793104994
 30
0.0
 40
11.7
100
AcDbArc
 50
180.0
 51
269.9995003503194
  0
ARC
  5
194
330
E4
100
AcDbEntity
  8
8
  6
CENTERX2
 62
     3
370
    13
100
AcDbCircle
 10
66.12570934015946
 20
60.39774633474633
 30
0.0
 40
11.7
100
AcDbArc
 50
0.0000000000000211
 51
89.99950035031958
  0
LINE
  5
195
330
E4
100
AcDbEntity
  8
8
  6
Continuous
 62
     7
370
    13
100
AcDbLine
 10
72.52570934015932
 20
60.09791248715771
 30
0.0
 11
72.52570934015932
 21
60.3979124871579
 31
0.0
  0
LINE
  5
196
330
E4
100
AcDbEntity
  8
8
  6
Continuous
 62
     7
370
    13
100
AcDbLine
 10
66.12570934015946
 20
66.79791248715776
 30
0.0
 11
44.52570934015841
 21
66.79791248715776
 31
0.0
  0
LINE
  5
197
330
E4
100
AcDbEntity
  8
8
  6
Continuous
 62
     7
370
    13
100
AcDbLine
 10
27.52570934015841
 20
83.79791248715776
 30
0.0
 11
27.52570934015841
 21
84.09791248715771
 31
0.0
  0
LINE
  5
198
330
E4
100
AcDbEntity
  8
8
  6
Continuous
 62
     7
370
    13
100
AcDbLine
 10
38.12570934015855
 20
84.09791248715771
 30
0.0
 11
38.12570934015855
 21
83.79791248715912
 31
0.0
  0
LINE
  5
199
330
E4
100
AcDbEntity
  8
8
  6
Continuous
 62
     7
370
    13
100
AcDbLine
 10
44.52570934015841
 20
77.3979124871579
 30
0.0
 11
66.12570934015946
 21
77.39791248715767
 31
0.0
  0
LINE
  5
19A
330
E4
100
AcDbEntity
  8
8
  6
Continuous
 62
     7
370
    13
100
AcDbLine
 10
83.12570934015946
 20
60.09791248715771
 30
0.0
 11
83.12570934015946
 21
60.39791248715767
 31
0.0
  0
ARC
  5
19B
330
E4
100
AcDbEntity
  8
8
  6
Continuous
 62
     7
370
    13
100
AcDbCircle
 10
44.52570934015841
 20
83.79791248715776
 30
0.0
 40
17.0
100
AcDbArc
 50
180.0
 51
270.0
  0
ARC
  5
19C
330
E4
100
AcDbEntity
  8
8
  6
Continuous
 62
     7
370
    13
100
AcDbCircle
 10
66.12570934015946
 20
60.39791248715767
 30
0.0
 40
17.0
100
AcDbArc
 50
0.000000000000026
 51
89.99999999999982
  0
ARC
  5
19D
330
E4
100
AcDbEntity
  8
8
  6
Continuous
 62
     7
370
    13
100
AcDbCircle
 10
44.52570934015841
 20
83.79791248715776
 30
0.0
 40
6.4
100
AcDbArc
 50
179.9999999999884
 51
269.9999999999998
  0
ARC
  5
19E
330
E4
100
AcDbEntity
  8
8
  6
Continuous
 62
     7
370
    13
100
AcDbCircle
 10
66.12570934015946
 20
60.3979124871579
 30
0.0
 40
6.4
100
AcDbArc
 50
0.000000000000014
 51
90.00000000000001
  0
INSERT
  5
19F
330
E4
100
AcDbEntity
  8
8
  6
Continuous
100
AcDbBlockReference
  2
DC_GROUP_W_MCD50_G_080_1_10
 10
0.0
 20
0.0
 30
0.0
  0
INSERT
  5
1A0
330
E4
100
AcDbEntity
  8
8
  6
Continuous
100
AcDbBlockReference
  2
DC_GROUP_W_MCD50_G_080_1_11
 10
0.0
 20
0.0
 30
0.0
  0
ENDBLK
  5
E6
330
E4
100
AcDbEntity
  8
0
100
AcDbBlockEnd
  0
BLOCK
  5
E8
330
E7
100
AcDbEntity
  8
0
100
AcDbBlockBegin
  2
DC_GROUP_W_MCD50_G_080_1_10
 70
     0
 10
0.0
 20
0.0
 30
0.0
  3
DC_GROUP_W_MCD50_G_080_1_10
  1
DC_GROUP_W_MCD50_G_080_1_10
  0
LINE
  5
1A1
330
E7
100
AcDbEntity
  8
8
  6
Continuous
 62
     7
370
    13
100
AcDbLine
 10
38.8257093401586
 20
84.09791248715771
 30
0.0
 11
26.8257093401586
 21
84.09791248715771
 31
0.0
  0
LINE
  5
1A2
330
E7
100
AcDbEntity
  8
8
  6
Continuous
 62
     7
370
    13
100
AcDbLine
 10
38.8257093401586
 20
84.09791248715771
 30
0.0
 11
38.8257093401586
 21
85.65615332095592
 31
0.0
  0
LINE
  5
1A3
330
E7
100
AcDbEntity
  8
8
  6
Continuous
 62
     7
370
    13
100
AcDbLine
 10
26.8257093401586
 20
84.09791248715771
 30
0.0
 11
26.8257093401586
 21
85.65615332095592
 31
0.0
  0
LINE
  5
1A4
330
E7
100
AcDbEntity
  8
8
  6
Continuous
 62
     3
370
    13
100
AcDbLine
 10
37.62570934015854
 20
85.65615332095592
 30
0.0
 11
37.62570934015855
 21
84.09791248715771
 31
0.0
  0
LINE
  5
1A5
330
E7
100
AcDbEntity
  8
8
  6
Continuous
 62
     3
370
    13
100
AcDbLine
 10
28.0257093401575
 20
85.65615332095592
 30
0.0
 11
28.0257093401575
 21
84.09791248715771
 31
0.0
  0
ENDBLK
  5
E9
330
E7
100
AcDbEntity
  8
0
100
AcDbBlockEnd
  0
BLOCK
  5
EB
330
EA
100
AcDbEntity
  8
0
100
AcDbBlockBegin
  2
DC_GROUP_W_MCD50_G_080_1_11
 70
     0
 10
0.0
 20
0.0
 30
0.0
  3
DC_GROUP_W_MCD50_G_080_1_11
  1
DC_GROUP_W_MCD50_G_080_1_11
  0
LINE
  5
1A6
330
EA
100
AcDbEntity
  8
8
  6
Continuous
 62
     7
370
    13
100
AcDbLine
 10
71.8257093401586
 20
60.09791248715771
 30
0.0
 11
83.8257093401586
 21
60.09791248715771
 31
0.0
  0
LINE
  5
1A7
330
EA
100
AcDbEntity
  8
8
  6
Continuous
 62
     7
370
    13
100
AcDbLine
 10
71.8257093401586
 20
-12.90208751284229
 30
0.0
 11
83.8257093401586
 21
-12.90208751284229
 31
0.0
  0
LINE
  5
1A8
330
EA
100
AcDbEntity
  8
8
  6
Continuous
 62
     7
370
    13
100
AcDbLine
 10
83.8257093401586
 20
60.09791248715771
 30
0.0
 11
83.8257093401586
 21
41.65615332095558
 31
0.0
  0
LINE
  5
1A9
330
EA
100
AcDbEntity
  8
8
  6
Continuous
 62
     7
370
    13
100
AcDbLine
 10
71.8257093401586
 20
60.09791248715771
 30
0.0
 11
71.8257093401586
 21
41.65615332095558
 31
0.0
  0
LINE
  5
1AA
330
EA
100
AcDbEntity
  8
8
  6
Continuous
 62
     7
370
    13
100
AcDbLine
 10
83.8257093401586
 20
15.45615332095571
 30
0.0
 11
83.8257093401586
 21
-12.90208751284229
 31
0.0
  0
LINE
  5
1AB
330
EA
100
AcDbEntity
  8
8
  6
Continuous
 62
     7
370
    13
100
AcDbLine
 10
71.8257093401586
 20
15.45615332095571
 30
0.0
 11
71.8257093401586
 21
-12.90208751284229
 31
0.0
  0
LINE
  5
1AC
330
EA
100
AcDbEntity
  8
8
  6
Continuous
 62
     3
370
    13
100
AcDbLine
 10
83.8257093401586
 20
-11.90208751284229
 30
0.0
 11
71.8257093401586
 21
-11.90208751284229
 31
0.0
  0
LINE
  5
1AD
330
EA
100
AcDbEntity
  8
8
  6
Continuous
 62
     3
370
    13
100
AcDbLine
 10
82.62570934015969
 20
41.65615332095558
 30
0.0
 11
82.62570934015969
 21
60.09791248715771
 31
0.0
  0
LINE
  5
1AE
330
EA
100
AcDbEntity
  8
8
  6
Continuous
 62
     3
370
    13
100
AcDbLine
 10
73.0257093401587
 20
41.65615332095558
 30
0.0
 11
73.02570934015864
 21
60.09791248715771
 31
0.0
  0
LINE
  5
1AF
330
EA
100
AcDbEntity
  8
8
  6
Continuous
 62
     3
370
    13
100
AcDbLine
 10
82.62570934015969
 20
-12.90208751284229
 30
0.0
 11
82.62570934015969
 21
15.45615332095571
 31
0.0
  0
LINE
  5
1B0
330
EA
100
AcDbEntity
  8
8
  6
Continuous
 62
     3
370
    13
100
AcDbLine
 10
73.02570934015887
 20
-12.90208751284229
 30
0.0
 11
73.02570934015878
 21
15.45615332095571
 31
0.0
  0
ENDBLK
  5
EC
330
EA
100
AcDbEntity
  8
0
100
AcDbBlockEnd
  0
BLOCK
  5
EE
330
ED
100
AcDbEntity
  8
0
100
AcDbBlockBegin
  2
DC_GROUP_W_MCD50_G_080_1_12
 70
     0
 10
0.0
 20
0.0
 30
0.0
  3
DC_GROUP_W_MCD50_G_080_1_12
  1
DC_GROUP_W_MCD50_G_080_1_12
  0
LINE
  5
1B1
330
ED
100
AcDbEntity
  8
8
  6
CENTERX2
 62
     3
370
    13
100
AcDbLine
 10
245.632387116249
 20
147.0979124871577
 30
0.0
 11
245.632387116249
 21
-17.90208751284234
 31
0.0
  0
LINE
  5
1B2
330
ED
100
AcDbEntity
  8
8
  6
Continuous
 62
     7
370
    13
100
AcDbLine
 10
250.9323871162491
 20
60.09791248715766
 30
0.0
 11
250.9323871162491
 21
84.09791248715766
 31
0.0
  0
LINE
  5
1B3
330
ED
100
AcDbEntity
  8
8
  6
Continuous
 62
     7
370
    13
100
AcDbLine
 10
240.3323871162489
 20
60.09791248715766
 30
0.0
 11
240.3323871162489
 21
84.09791248715743
 31
0.0
  0
ARC
  5
1B4
330
ED
100
AcDbEntity
  8
8
  6
DASHED2
 62
     4
370
    13
100
AcDbCircle
 10
245.632387116249
 20
72.09810213289796
 30
0.0
 40
5.300000000000011
100
AcDbArc
 50
180.0
 51
359.9979498300918
  0
INSERT
  5
1B5
330
ED
100
AcDbEntity
  8
8
  6
Continuous
100
AcDbBlockReference
  2
DC_GROUP_W_MCD50_G_080_1_13
 10
0.0
 20
0.0
 30
0.0
  0
INSERT
  5
1B6
330
ED
100
AcDbEntity
  8
8
  6
Continuous
100
AcDbBlockReference
  2
DC_GROUP_W_MCD50_G_080_1_14
 10
0.0
 20
0.0
 30
0.0
  0
INSERT
  5
1B7
330
ED
100
AcDbEntity
  8
8
  6
Continuous
100
AcDbBlockReference
  2
DC_GROUP_W_MCD50_G_080_1_15
 10
0.0
 20
0.0
 30
0.0
  0
ENDBLK
  5
EF
330
ED
100
AcDbEntity
  8
0
100
AcDbBlockEnd
  0
BLOCK
  5
F1
330
F0
100
AcDbEntity
  8
0
100
AcDbBlockBegin
  2
DC_GROUP_W_MCD50_G_080_1_13
 70
     0
 10
0.0
 20
0.0
 30
0.0
  3
DC_GROUP_W_MCD50_G_080_1_13
  1
DC_GROUP_W_MCD50_G_080_1_13
  0
LINE
  5
1B8
330
F0
100
AcDbEntity
  8
8
  6
Continuous
 62
     7
370
    13
100
AcDbLine
 10
239.6323871162489
 20
84.09791248715766
 30
0.0
 11
251.6323871162489
 21
84.09791248715766
 31
0.0
  0
LINE
  5
1B9
330
F0
100
AcDbEntity
  8
8
  6
Continuous
 62
     7
370
    13
100
AcDbLine
 10
251.6323871162489
 20
84.09791248715766
 30
0.0
 11
251.6323871162489
 21
85.65615332095547
 31
0.0
  0
LINE
  5
1BA
330
F0
100
AcDbEntity
  8
8
  6
Continuous
 62
     7
370
    13
100
AcDbLine
 10
239.6323871162489
 20
84.09791248715766
 30
0.0
 11
239.6323871162489
 21
85.65615332095547
 31
0.0
  0
LINE
  5
1BB
330
F0
100
AcDbEntity
  8
8
  6
Continuous
 62
     3
370
    13
100
AcDbLine
 10
250.43238711625
 20
85.65615332095547
 30
0.0
 11
250.43238711625
 21
84.09791248715766
 31
0.0
  0
LINE
  5
1BC
330
F0
100
AcDbEntity
  8
8
  6
Continuous
 62
     3
370
    13
100
AcDbLine
 10
240.8323871162489
 20
85.65615332095547
 30
0.0
 11
240.8323871162489
 21
84.09791248715766
 31
0.0
  0
ENDBLK
  5
F2
330
F0
100
AcDbEntity
  8
0
100
AcDbBlockEnd
  0
BLOCK
  5
F4
330
F3
100
AcDbEntity
  8
0
100
AcDbBlockBegin
  2
DC_GROUP_W_MCD50_G_080_1_14
 70
     0
 10
0.0
 20
0.0
 30
0.0
  3
DC_GROUP_W_MCD50_G_080_1_14
  1
DC_GROUP_W_MCD50_G_080_1_14
  0
LINE
  5
1BD
330
F3
100
AcDbEntity
  8
8
  6
Continuous
 62
     7
370
    13
100
AcDbLine
 10
251.6323871162498
 20
60.09791248715766
 30
0.0
 11
239.6323871162498
 21
60.09791248715766
 31
0.0
  0
LINE
  5
1BE
330
F3
100
AcDbEntity
  8
8
  6
Continuous
 62
     7
370
    13
100
AcDbLine
 10
251.6323871162498
 20
-12.90208751284229
 30
0.0
 11
239.6323871162498
 21
-12.90208751284229
 31
0.0
  0
LINE
  5
1BF
330
F3
100
AcDbEntity
  8
8
  6
Continuous
 62
     7
370
    13
100
AcDbLine
 10
251.6323871162498
 20
60.09791248715766
 30
0.0
 11
251.6323871162498
 21
41.65615332095564
 31
0.0
  0
LINE
  5
1C0
330
F3
100
AcDbEntity
  8
8
  6
Continuous
 62
     7
370
    13
100
AcDbLine
 10
239.6323871162498
 20
60.09791248715766
 30
0.0
 11
239.6323871162498
 21
41.65615332095564
 31
0.0
  0
LINE
  5
1C1
330
F3
100
AcDbEntity
  8
8
  6
Continuous
 62
     7
370
    13
100
AcDbLine
 10
251.6323871162498
 20
15.45615332095565
 30
0.0
 11
251.6323871162498
 21
-12.90208751284229
 31
0.0
  0
LINE
  5
1C2
330
F3
100
AcDbEntity
  8
8
  6
Continuous
 62
     7
370
    13
100
AcDbLine
 10
239.6323871162498
 20
15.45615332095565
 30
0.0
 11
239.6323871162498
 21
-12.90208751284229
 31
0.0
  0
LINE
  5
1C3
330
F3
100
AcDbEntity
  8
8
  6
Continuous
 62
     3
370
    13
100
AcDbLine
 10
239.6323871162498
 20
-11.90208751284229
 30
0.0
 11
251.6323871162499
 21
-11.90208751284229
 31
0.0
  0
LINE
  5
1C4
330
F3
100
AcDbEntity
  8
8
  6
Continuous
 62
     3
370
    13
100
AcDbLine
 10
250.4323871162497
 20
41.65615332095564
 30
0.0
 11
250.4323871162497
 21
60.09791248715766
 31
0.0
  0
LINE
  5
1C5
330
F3
100
AcDbEntity
  8
8
  6
Continuous
 62
     3
370
    13
100
AcDbLine
 10
240.8323871162487
 20
41.65615332095564
 30
0.0
 11
240.8323871162487
 21
60.09791248715766
 31
0.0
  0
LINE
  5
1C6
330
F3
100
AcDbEntity
  8
8
  6
Continuous
 62
     3
370
    13
100
AcDbLine
 10
250.4323871162495
 20
-12.90208751284229
 30
0.0
 11
250.4323871162496
 21
15.45615332095565
 31
0.0
  0
LINE
  5
1C7
330
F3
100
AcDbEntity
  8
8
  6
Continuous
 62
     3
370
    13
100
AcDbLine
 10
240.8323871162487
 20
-12.90208751284229
 30
0.0
 11
240.8323871162487
 21
15.45615332095565
 31
0.0
  0
ENDBLK
  5
F5
330
F3
100
AcDbEntity
  8
0
100
AcDbBlockEnd
  0
BLOCK
  5
F7
330
F6
100
AcDbEntity
  8
0
100
AcDbBlockBegin
  2
DC_GROUP_W_MCD50_G_080_1_15
 70
     0
 10
0.0
 20
0.0
 30
0.0
  3
DC_GROUP_W_MCD50_G_080_1_15
  1
DC_GROUP_W_MCD50_G_080_1_15
  0
ARC
  5
1C8
330
F6
100
AcDbEntity
  8
8
  6
Continuous
 62
     7
370
    13
100
AcDbCircle
 10
245.632387116249
 20
72.09810213289796
 30
0.0
 40
5.300000000000011
100
AcDbArc
 50
0.0
 51
180.0
  0
LINE
  5
1C9
330
F6
100
AcDbEntity
  8
8
  6
CENTERX2
 62
     3
370
    13
100
AcDbLine
 10
251.992387116249
 20
72.09810213289796
 30
0.0
 11
239.272387116249
 21
72.09810213289796
 31
0.0
  0
ENDBLK
  5
F8
330
F6
100
AcDbEntity
  8
0
100
AcDbBlockEnd
  0
BLOCK
  5
FA
330
F9
100
AcDbEntity
  8
0
100
AcDbBlockBegin
  2
DC_GROUP_W_MCD50_G_080_1_16
 70
     0
 10
0.0
 20
0.0
 30
0.0
  3
DC_GROUP_W_MCD50_G_080_1_16
  1
DC_GROUP_W_MCD50_G_080_1_16
  0
LINE
  5
1CA
330
F9
100
AcDbEntity
  8
ZUWAKU
  6
Continuous
 62
     7
370
    13
100
AcDbLine
 10
-394.0
 20
-265.7438466790443
 30
0.0
 11
394.0
 21
-265.7438466790443
 31
0.0
  0
LINE
  5
1CB
330
F9
100
AcDbEntity
  8
ZUWAKU
  6
Continuous
 62
     7
370
    13
100
AcDbLine
 10
393.9999999999992
 20
270.2561533209557
 30
0.0
 11
-394.0
 21
270.2561533209557
 31
0.0
  0
LINE
  5
1CC
330
F9
100
AcDbEntity
  8
ZUWAKU
  6
Continuous
 62
     7
370
    13
100
AcDbLine
 10
394.0
 20
-265.7438466790443
 30
0.0
 11
393.9999999999992
 21
270.2561533209557
 31
0.0
  0
LINE
  5
1CD
330
F9
100
AcDbEntity
  8
ZUWAKU
  6
Continuous
 62
     7
370
    13
100
AcDbLine
 10
-394.0
 20
270.2561533209557
 30
0.0
 11
-394.0
 21
-265.7438466790443
 31
0.0
  0
LINE
  5
1CE
330
F9
100
AcDbEntity
  8
ZUWAKU
  6
Continuous
 62
     4
370
    13
100
AcDbLine
 10
-68.99999999999994
 20
-235.7438466790443
 30
0.0
 11
10.00000000000006
 21
-235.7438466790443
 31
0.0
  0
LINE
  5
1CF
330
F9
100
AcDbEntity
  8
ZUWAKU
  6
Continuous
 62
     4
370
    13
100
AcDbLine
 10
-370.0
 20
-225.7438466790443
 30
0.0
 11
-370.0
 21
-265.7438466790443
 31
0.0
  0
LINE
  5
1D0
330
F9
100
AcDbEntity
  8
ZUWAKU
  6
Continuous
 62
     4
370
    13
100
AcDbLine
 10
-394.0
 20
-245.7438466790443
 30
0.0
 11
394.0
 21
-245.7438466790443
 31
0.0
  0
LINE
  5
1D1
330
F9
100
AcDbEntity
  8
ZUWAKU
  6
Continuous
 62
     4
370
    13
100
AcDbLine
 10
10.00000000000006
 20
-265.7438466790443
 30
0.0
 11
10.00000000000006
 21
-225.7438466790443
 31
0.0
  0
LINE
  5
1D2
330
F9
100
AcDbEntity
  8
ZUWAKU
  6
Continuous
 62
     4
370
    13
100
AcDbLine
 10
-68.99999999999994
 20
-265.7438466790443
 30
0.0
 11
-68.99999999999994
 21
-225.7438466790443
 31
0.0
  0
LINE
  5
1D3
330
F9
100
AcDbEntity
  8
ZUWAKU
  6
Continuous
 62
     4
370
    13
100
AcDbLine
 10
172.0
 20
-225.7438466790443
 30
0.0
 11
172.0
 21
-265.7438466790443
 31
0.0
  0
LINE
  5
1D4
330
F9
100
AcDbEntity
  8
ZUWAKU
  6
Continuous
 62
     4
370
    13
100
AcDbLine
 10
60.00000000000006
 20
-225.7438466790443
 30
0.0
 11
60.00000000000006
 21
-265.7438466790443
 31
0.0
  0
LINE
  5
1D5
330
F9
100
AcDbEntity
  8
ZUWAKU
  6
Continuous
 62
     4
370
    13
100
AcDbLine
 10
-52.99999999999994
 20
-245.7438466790443
 30
0.0
 11
-52.99999999999994
 21
-265.7438466790443
 31
0.0
  0
LINE
  5
1D6
330
F9
100
AcDbEntity
  8
ZUWAKU
  6
Continuous
 62
     4
370
    13
100
AcDbLine
 10
-262.0
 20
-225.7438466790443
 30
0.0
 11
-262.0
 21
-265.7438466790443
 31
0.0
  0
LINE
  5
1D7
330
F9
100
AcDbEntity
  8
ZUWAKU
  6
Continuous
 62
     4
370
    13
100
AcDbLine
 10
394.0
 20
-225.7438466790443
 30
0.0
 11
-394.0
 21
-225.7438466790443
 31
0.0
  0
LINE
  5
1D8
330
F9
100
AcDbEntity
  8
ZUWAKU
  6
Continuous
 62
     4
370
    13
100
AcDbLine
 10
196.0
 20
-225.7438466790443
 30
0.0
 11
196.0
 21
-265.7438466790443
 31
0.0
  0
LINE
  5
1D9
330
F9
100
AcDbEntity
  8
ZUWAKU
  6
Continuous
 62
     3
370
    13
100
AcDbLine
 10
-375.0
 20
-240.7438466790443
 30
0.0
 11
-382.0
 21
-227.7438466790443
 31
0.0
  0
LINE
  5
1DA
330
F9
100
AcDbEntity
  8
ZUWAKU
  6
Continuous
 62
     3
370
    13
100
AcDbLine
 10
-389.0
 20
-240.7438466790443
 30
0.0
 11
-375.0
 21
-240.7438466790443
 31
0.0
  0
LINE
  5
1DB
330
F9
100
AcDbEntity
  8
ZUWAKU
  6
Continuous
 62
     3
370
    13
100
AcDbLine
 10
-382.0
 20
-227.7438466790443
 30
0.0
 11
-389.0
 21
-240.7438466790443
 31
0.0
  0
TEXT
  5
1DD
330
F9
100
AcDbEntity
  8
ZUWAKU
 62
     2
100
AcDbText
 10
175.6
 20
-263.7438466790443
 30
0.0
 40
6.999999999999996
  1
番号
 41
1.527272727272729
  7
dcStyle0
 72
     5
 11
192.4
 21
-263.7438466790443
 31
0.0
100
AcDbText
  0
TEXT
  5
1DE
330
F9
100
AcDbEntity
  8
ZUWAKU
 62
     2
100
AcDbText
 10
-65.19999999999995
 20
-263.7438466790443
 30
0.0
 40
6.999999999999996
  1
度
 41
1.680000000000001
  7
dcStyle0
 72
     5
 11
-56.79999999999995
 21
-263.7438466790443
 31
0.0
100
AcDbText
  0
TEXT
  5
1DF
330
F9
100
AcDbEntity
  8
ZUWAKU
 62
     2
100
AcDbText
 10
-389.6438439396566
 20
-263.7438466790443
 30
0.0
 40
7.0
  1
番号
 41
1.272727272727273
  7
dcStyle0
 72
     5
 11
-375.6438439396566
 21
-263.7438466790443
 31
0.0
100
AcDbText
  0
TEXT
  5
1E0
330
F9
100
AcDbEntity
  8
ZUWAKU
 62
     2
100
AcDbText
 10
17.00000000000006
 20
-239.7438466790443
 30
0.0
 40
8.0
  1
シリーズ名
 41
1.086206896551724
  7
dcStyle0
 72
     5
 11
53.00000000000006
 21
-239.7438466790443
 31
0.0
100
AcDbText
  0
TEXT
  5
1E1
330
F9
100
AcDbEntity
  8
ZUWAKU
 62
     2
100
AcDbText
 10
23.00000000000006
 20
-259.7438466790443
 30
0.0
 40
8.0
  1
機　種
 41
1.235294117647059
  7
dcStyle0
 72
     5
 11
47.00000000000006
 21
-259.7438466790443
 31
0.0
100
AcDbText
  0
TEXT
  5
1E2
330
F9
100
AcDbEntity
  8
ZUWAKU
 62
     2
100
AcDbText
 10
-389.0
 20
-254.7438466790443
 30
0.0
 40
7.0
  1
改訂
 41
1.272727272727273
  7
dcStyle0
 72
     5
 11
-375.0
 21
-254.7438466790443
 31
0.0
100
AcDbText
  0
TEXT
  5
1E3
330
F9
100
AcDbEntity
  8
ZUWAKU
 62
     2
100
AcDbText
 10
-348.9
 20
-259.2438466790443
 30
0.0
 40
6.999999999999996
  1
改　 訂　 記　 事
 41
1.061290322580645
  7
dcStyle0
 72
     5
 11
-283.1
 21
-259.2438466790443
 31
0.0
100
AcDbText
  0
TEXT
  5
1E4
330
F9
100
AcDbEntity
  8
ZUWAKU
 62
     2
100
AcDbText
 10
-65.19999999999995
 20
-254.7438466790443
 30
0.0
 40
6.999999999999996
  1
尺
 41
1.680000000000001
  7
dcStyle0
 72
     5
 11
-56.79999999999995
 21
-254.7438466790443
 31
0.0
100
AcDbText
  0
TEXT
  5
1E5
330
F9
100
AcDbEntity
  8
ZUWAKU
 62
     2
100
AcDbText
 10
-53.99999999999993
 20
-234.2438466790443
 30
0.0
 40
6.999999999999996
  1
年　　月　　日
 41
1.195121951219512
  7
dcStyle0
 72
     5
 11
-4.999999999999961
 21
-234.2438466790443
 31
0.0
100
AcDbText
  0
TEXT
  5
1E6
330
F9
100
AcDbEntity
  8
ZUWAKU
 62
     2
100
AcDbText
 10
175.6
 20
-254.7438466790443
 30
0.0
 40
6.999999999999996
  1
図面
 41
1.527272727272729
  7
dcStyle0
 72
     5
 11
192.4
 21
-254.7438466790443
 31
0.0
100
AcDbText
  0
TEXT
  5
1E7
330
F9
100
AcDbEntity
  8
ZUWAKU
 62
     2
100
AcDbText
 10
176.0
 20
-239.7438466790443
 30
0.0
 40
8.0
  1
図名
 41
1.272727272727273
  7
dcStyle0
 72
     5
 11
192.0
 21
-239.7438466790443
 31
0.0
100
AcDbText
  0
TEXT
  5
1E8
330
F9
100
AcDbEntity
  8
ZUWAKU
 62
     7
100
AcDbText
 10
-205.4999999999999
 20
-240.7438466790443
 30
0.0
 40
10.0
  1
技術情報サービス
 41
1.191489361702128
  7
dcStyle0
 72
     5
 11
-125.4999999999999
 21
-240.7438466790443
 31
0.0
100
AcDbText
  0
TEXT
  5
1E9
330
F9
100
AcDbEntity
  8
ZUWAKU
 62
     7
100
AcDbText
 10
-234.6823529411764
 20
-259.7438466790443
 30
0.0
 40
8.0
  1
MARUYASU KIKAI CO.,LTD.
 41
0.8990281013395461
  7
dcStyle0
 72
     5
 11
-96.31764705882344
 21
-259.7438466790443
 31
0.0
100
AcDbText
  0
TEXT
  5
1EA
330
F9
100
AcDbEntity
  8
ZUWAKU
 62
     4
100
AcDbText
 10
384.9131087847382
 20
-270.2561533209557
 30
0.0
 40
4.0
  1
A3
 41
1.2
  7
dcStyle0
 72
     5
 11
392.9131087847382
 21
-270.2561533209557
 31
0.0
100
AcDbText
  0
ENDBLK
  5
FB
330
F9
100
AcDbEntity
  8
0
100
AcDbBlockEnd
  0
BLOCK
  5
FD
330
FC
100
AcDbEntity
  8
0
100
AcDbBlockBegin
  2
DC_GROUP_W_MCD50_G_080_1_17
 70
     0
 10
0.0
 20
0.0
 30
0.0
  3
DC_GROUP_W_MCD50_G_080_1_17
  1
DC_GROUP_W_MCD50_G_080_1_17
  0
POINT
  5
1EB
330
FC
100
AcDbEntity
  8
ZUWAKU
  6
Continuous
 62
     2
100
AcDbPoint
 10
116.0
 20
-235.7438466790443
 30
0.0
  0
POINT
  5
1EC
330
FC
100
AcDbEntity
  8
ZUWAKU
  6
Continuous
 62
     2
100
AcDbPoint
 10
116.0
 20
-255.7438466790443
 30
0.0
  0
POINT
  5
1ED
330
FC
100
AcDbEntity
  8
ZUWAKU
  6
Continuous
 62
     2
100
AcDbPoint
 10
388.0
 20
-255.7438466790443
 30
0.0
  0
POINT
  5
1EE
330
FC
100
AcDbEntity
  8
ZUWAKU
  6
Continuous
 62
     2
100
AcDbPoint
 10
295.0
 20
-235.7438466790443
 30
0.0
  0
POINT
  5
1EF
330
FC
100
AcDbEntity
  8
ZUWAKU
  6
Continuous
 62
     2
100
AcDbPoint
 10
-21.49999999999994
 20
-255.7438466790443
 30
0.0
  0
ENDBLK
  5
FE
330
FC
100
AcDbEntity
  8
0
100
AcDbBlockEnd
  0
BLOCK
  5
100
330
FF
100
AcDbEntity
  8
0
100
AcDbBlockBegin
  2
DC_GROUP_W_MCD50_G_080_1_18
 70
     0
 10
0.0
 20
0.0
 30
0.0
  3
DC_GROUP_W_MCD50_G_080_1_18
  1
DC_GROUP_W_MCD50_G_080_1_18
  0
LINE
  5
1F0
330
FF
100
AcDbEntity
  8
7
  6
Continuous
 62
     7
370
    13
100
AcDbLine
 10
-23.77429065984049
 20
-170.3665480427039
 30
0.0
 11
96.22570934015951
 21
-170.3665480427039
 31
0.0
  0
LINE
  5
1F1
330
FF
100
AcDbEntity
  8
7
  6
Continuous
 62
     7
370
    13
100
AcDbLine
 10
-23.77429065984049
 20
-100.3665480427035
 30
0.0
 11
96.22570934015951
 21
-100.3665480427035
 31
0.0
  0
LINE
  5
1F2
330
FF
100
AcDbEntity
  8
7
  6
Continuous
 62
     7
370
    13
100
AcDbLine
 10
-23.77429065984049
 20
-86.36654804270307
 30
0.0
 11
-23.77429065984072
 21
-170.366548042704
 31
0.0
  0
LINE
  5
1F3
330
FF
100
AcDbEntity
  8
7
  6
Continuous
 62
     7
370
    13
100
AcDbLine
 10
96.22570934015951
 20
-86.36654804270307
 30
0.0
 11
-23.77429065984049
 21
-86.36654804270307
 31
0.0
  0
LINE
  5
1F4
330
FF
100
AcDbEntity
  8
7
  6
Continuous
 62
     7
370
    13
100
AcDbLine
 10
96.22570934015951
 20
-170.3665480427039
 30
0.0
 11
96.22570934015951
 21
-86.36654804270307
 31
0.0
  0
LINE
  5
1F5
330
FF
100
AcDbEntity
  8
7
  6
Continuous
 62
     3
370
    13
100
AcDbLine
 10
-23.77429065984049
 20
-156.366548042704
 30
0.0
 11
96.22570934015951
 21
-156.366548042704
 31
0.0
  0
LINE
  5
1F6
330
FF
100
AcDbEntity
  8
7
  6
Continuous
 62
     3
370
    13
100
AcDbLine
 10
16.22570934015951
 20
-86.36654804270307
 30
0.0
 11
16.22570934015951
 21
-170.3665480427039
 31
0.0
  0
LINE
  5
1F7
330
FF
100
AcDbEntity
  8
7
  6
Continuous
 62
     3
370
    13
100
AcDbLine
 10
-23.77429065984049
 20
-142.366548042704
 30
0.0
 11
96.22570934015951
 21
-142.366548042704
 31
0.0
  0
LINE
  5
1F8
330
FF
100
AcDbEntity
  8
7
  6
Continuous
 62
     3
370
    13
100
AcDbLine
 10
-23.77429065984049
 20
-128.366548042704
 30
0.0
 11
96.22570934015951
 21
-128.366548042704
 31
0.0
  0
LINE
  5
1F9
330
FF
100
AcDbEntity
  8
7
  6
Continuous
 62
     3
370
    13
100
AcDbLine
 10
-23.77429065984049
 20
-114.366548042704
 30
0.0
 11
96.22570934015951
 21
-114.366548042704
 31
0.0
  0
TEXT
  5
1FA
330
FF
100
AcDbEntity
  8
7
 62
     7
100
AcDbText
 10
32.22570934015952
 20
-167.3665480427042
 30
0.0
 40
8.0
  1
485 ～ 640
 41
0.8952551477170991
  7
dcStyle1
 72
     5
 11
80.22570934015951
 21
-167.3665480427042
 31
0.0
100
AcDbText
  0
TEXT
  5
1FB
330
FF
100
AcDbEntity
  8
7
 62
     7
100
AcDbText
 10
32.22570934015952
 20
-153.3665480427042
 30
0.0
 40
8.0
  1
355 ～ 510
 41
0.8952551477170991
  7
dcStyle1
 72
     5
 11
80.22570934015951
 21
-153.3665480427042
 31
0.0
100
AcDbText
  0
TEXT
  5
1FC
330
FF
100
AcDbEntity
  8
7
 62
     7
100
AcDbText
 10
32.22570934015952
 20
-139.3665480427042
 30
0.0
 40
8.0
  1
255 ～ 410
 41
0.8952551477170991
  7
dcStyle1
 72
     5
 11
80.22570934015951
 21
-139.3665480427042
 31
0.0
100
AcDbText
  0
TEXT
  5
1FD
330
FF
100
AcDbEntity
  8
7
 62
     7
100
AcDbText
 10
-12.41429065984049
 20
-166.5665480427042
 30
0.0
 40
6.4
  1
630
 41
1.237964236588721
  7
dcStyle1
 72
     5
 11
4.865709340159512
 21
-166.5665480427042
 31
0.0
100
AcDbText
  0
TEXT
  5
1FE
330
FF
100
AcDbEntity
  8
7
 62
     7
100
AcDbText
 10
-12.41429065984049
 20
-152.5665480427042
 30
0.0
 40
6.4
  1
500
 41
1.237964236588721
  7
dcStyle1
 72
     5
 11
4.865709340159512
 21
-152.5665480427042
 31
0.0
100
AcDbText
  0
TEXT
  5
1FF
330
FF
100
AcDbEntity
  8
7
 62
     7
100
AcDbText
 10
-12.41429065984049
 20
-138.5665480427042
 30
0.0
 40
6.4
  1
400
 41
1.237964236588721
  7
dcStyle1
 72
     5
 11
4.865709340159512
 21
-138.5665480427042
 31
0.0
100
AcDbText
  0
TEXT
  5
200
330
FF
100
AcDbEntity
  8
7
 62
     7
100
AcDbText
 10
49.50570934015951
 20
-96.56654804270308
 30
0.0
 40
6.399999999999998
  1
W2
 41
1.162790697674419
  7
dcStyle1
 72
     5
 11
62.94570934015951
 21
-96.56654804270308
 31
0.0
100
AcDbText
  0
TEXT
  5
201
330
FF
100
AcDbEntity
  8
7
 62
     7
100
AcDbText
 10
-18.49429065984049
 20
-96.56654804270308
 30
0.0
 40
6.400000000000002
  1
呼 び 幅
 41
0.8861491042188403
  7
dcStyle1
 72
     5
 11
10.94570934015952
 21
-96.56654804270308
 31
0.0
100
AcDbText
  0
TEXT
  5
202
330
FF
100
AcDbEntity
  8
7
 62
     7
100
AcDbText
 10
32.22570934015952
 20
-125.3665480427042
 30
0.0
 40
8.0
  1
210 ～ 365
 41
0.8952551477170991
  7
dcStyle1
 72
     5
 11
80.22570934015951
 21
-125.3665480427042
 31
0.0
100
AcDbText
  0
TEXT
  5
203
330
FF
100
AcDbEntity
  8
7
 62
     7
100
AcDbText
 10
-12.41429065984049
 20
-124.5665480427042
 30
0.0
 40
6.4
  1
355
 41
1.237964236588721
  7
dcStyle1
 72
     5
 11
4.865709340159512
 21
-124.5665480427042
 31
0.0
100
AcDbText
  0
TEXT
  5
204
330
FF
100
AcDbEntity
  8
7
 62
     7
100
AcDbText
 10
32.22570934015952
 20
-111.3665480427042
 30
0.0
 40
8.0
  1
170 ～ 325
 41
0.8952551477170991
  7
dcStyle1
 72
     5
 11
80.22570934015951
 21
-111.3665480427042
 31
0.0
100
AcDbText
  0
TEXT
  5
205
330
FF
100
AcDbEntity
  8
7
 62
     7
100
AcDbText
 10
-12.41429065984049
 20
-110.5665480427042
 30
0.0
 40
6.4
  1
315
 41
1.237964236588721
  7
dcStyle1
 72
     5
 11
4.865709340159512
 21
-110.5665480427042
 31
0.0
100
AcDbText
  0
ENDBLK
  5
101
330
FF
100
AcDbEntity
  8
0
100
AcDbBlockEnd
  0
BLOCK
  5
103
330
102
100
AcDbEntity
  8
0
100
AcDbBlockBegin
  2
DC_GROUP_W_MCD50_G_080_1_19
 70
     0
 10
0.0
 20
0.0
 30
0.0
  3
DC_GROUP_W_MCD50_G_080_1_19
  1
DC_GROUP_W_MCD50_G_080_1_19
  0
TEXT
  5
206
330
102
100
AcDbEntity
  8
0
 62
     2
100
AcDbText
 10
-365.256649322173
 20
-239.3222400759399
 30
0.0
 40
6.4
  1
ガイドポール修正、呼び幅追加
 41
1.180722891566265
  7
dcStyle0
 72
     5
 11
-275.656649322173
 21
-239.3222400759399
 31
0.0
100
AcDbText
  0
ENDBLK
  5
104
330
102
100
AcDbEntity
  8
0
100
AcDbBlockEnd
  0
BLOCK
  5
106
330
105
100
AcDbEntity
  8
0
100
AcDbBlockBegin
  2
DC_GROUP_W_MCD50_G_080_1_20
 70
     0
 10
0.0
 20
0.0
 30
0.0
  3
DC_GROUP_W_MCD50_G_080_1_20
  1
DC_GROUP_W_MCD50_G_080_1_20
  0
LINE
  5
207
330
105
100
AcDbEntity
  8
0
  6
Continuous
 62
     2
370
    13
100
AcDbLine
 10
-165.0160832064996
 20
68.46727394990974
 30
0.0
 11
-159.2425805146032
 21
58.46727394990974
 31
0.0
  0
LINE
  5
208
330
105
100
AcDbEntity
  8
0
  6
Continuous
 62
     2
370
    13
100
AcDbLine
 10
-159.2425805146032
 20
58.46727394990974
 30
0.0
 11
-170.7895858983958
 21
58.46727394990974
 31
0.0
  0
LINE
  5
209
330
105
100
AcDbEntity
  8
0
  6
Continuous
 62
     2
370
    13
100
AcDbLine
 10
-170.7895858983958
 20
58.46727394990974
 30
0.0
 11
-165.0160832064996
 21
68.46727394990974
 31
0.0
  0
TEXT
  5
20A
330
105
100
AcDbEntity
  8
0
 62
     2
100
AcDbText
 10
-166.5160832064996
 20
59.21727394990974
 30
0.0
 40
5.0
  1
1
 41
1.145454545454546
  7
dcStyle0
 72
     5
 11
-163.5160832064996
 21
59.21727394990974
 31
0.0
100
AcDbText
  0
ENDBLK
  5
107
330
105
100
AcDbEntity
  8
0
100
AcDbBlockEnd
  0
BLOCK
  5
109
330
108
100
AcDbEntity
  8
0
100
AcDbBlockBegin
  2
DC_GROUP_W_MCD50_G_080_1_21
 70
     0
 10
0.0
 20
0.0
 30
0.0
  3
DC_GROUP_W_MCD50_G_080_1_21
  1
DC_GROUP_W_MCD50_G_080_1_21
  0
LINE
  5
20B
330
108
100
AcDbEntity
  8
0
  6
Continuous
 62
     2
370
    13
100
AcDbLine
 10
86.11150223155144
 20
87.49309896587864
 30
0.0
 11
91.88500492344784
 21
77.49309896587864
 31
0.0
  0
LINE
  5
20C
330
108
100
AcDbEntity
  8
0
  6
Continuous
 62
     2
370
    13
100
AcDbLine
 10
91.88500492344784
 20
77.49309896587864
 30
0.0
 11
80.33799953965527
 21
77.49309896587864
 31
0.0
  0
LINE
  5
20D
330
108
100
AcDbEntity
  8
0
  6
Continuous
 62
     2
370
    13
100
AcDbLine
 10
80.33799953965527
 20
77.49309896587864
 30
0.0
 11
86.11150223155144
 21
87.49309896587864
 31
0.0
  0
TEXT
  5
20E
330
108
100
AcDbEntity
  8
0
 62
     2
100
AcDbText
 10
84.61150223155144
 20
78.24309896587864
 30
0.0
 40
5.0
  1
1
 41
1.145454545454546
  7
dcStyle0
 72
     5
 11
87.61150223155144
 21
78.24309896587864
 31
0.0
100
AcDbText
  0
ENDBLK
  5
10A
330
108
100
AcDbEntity
  8
0
100
AcDbBlockEnd
  0
BLOCK
  5
10C
330
10B
100
AcDbEntity
  8
0
100
AcDbBlockBegin
  2
DC_GROUP_W_MCD50_G_080_1_22
 70
     0
 10
0.0
 20
0.0
 30
0.0
  3
DC_GROUP_W_MCD50_G_080_1_22
  1
DC_GROUP_W_MCD50_G_080_1_22
  0
LINE
  5
20F
330
10B
100
AcDbEntity
  8
0
  6
Continuous
 62
     2
370
    13
100
AcDbLine
 10
266.524220564795
 20
74.72051713697645
 30
0.0
 11
272.2977232566914
 21
64.72051713697645
 31
0.0
  0
LINE
  5
210
330
10B
100
AcDbEntity
  8
0
  6
Continuous
 62
     2
370
    13
100
AcDbLine
 10
272.2977232566914
 20
64.72051713697645
 30
0.0
 11
260.7507178728988
 21
64.72051713697645
 31
0.0
  0
LINE
  5
211
330
10B
100
AcDbEntity
  8
0
  6
Continuous
 62
     2
370
    13
100
AcDbLine
 10
260.7507178728988
 20
64.72051713697645
 30
0.0
 11
266.524220564795
 21
74.72051713697645
 31
0.0
  0
TEXT
  5
212
330
10B
100
AcDbEntity
  8
0
 62
     2
100
AcDbText
 10
265.024220564795
 20
65.47051713697645
 30
0.0
 40
5.0
  1
1
 41
1.145454545454546
  7
dcStyle0
 72
     5
 11
268.024220564795
 21
65.47051713697645
 31
0.0
100
AcDbText
  0
ENDBLK
  5
10D
330
10B
100
AcDbEntity
  8
0
100
AcDbBlockEnd
  0
BLOCK
  5
10F
330
10E
100
AcDbEntity
  8
0
100
AcDbBlockBegin
  2
DC_GROUP_W_MCD50_G_080_1_23
 70
     0
 10
0.0
 20
0.0
 30
0.0
  3
DC_GROUP_W_MCD50_G_080_1_23
  1
DC_GROUP_W_MCD50_G_080_1_23
  0
LINE
  5
213
330
10E
100
AcDbEntity
  8
0
  6
Continuous
 62
     2
370
    13
100
AcDbLine
 10
-32.49227417197204
 20
-101.6586137567205
 30
0.0
 11
-26.71877148007565
 21
-111.6586137567205
 31
0.0
  0
LINE
  5
214
330
10E
100
AcDbEntity
  8
0
  6
Continuous
 62
     2
370
    13
100
AcDbLine
 10
-26.71877148007565
 20
-111.6586137567205
 30
0.0
 11
-38.26577686386821
 21
-111.6586137567205
 31
0.0
  0
LINE
  5
215
330
10E
100
AcDbEntity
  8
0
  6
Continuous
 62
     2
370
    13
100
AcDbLine
 10
-38.26577686386821
 20
-111.6586137567205
 30
0.0
 11
-32.49227417197204
 21
-101.6586137567205
 31
0.0
  0
TEXT
  5
216
330
10E
100
AcDbEntity
  8
0
 62
     2
100
AcDbText
 10
-33.99227417197204
 20
-110.9086137567205
 30
0.0
 40
5.0
  1
1
 41
1.145454545454546
  7
dcStyle0
 72
     5
 11
-30.99227417197204
 21
-110.9086137567205
 31
0.0
100
AcDbText
  0
ENDBLK
  5
110
330
10E
100
AcDbEntity
  8
0
100
AcDbBlockEnd
  0
BLOCK
  5
112
330
111
100
AcDbEntity
  8
0
100
AcDbBlockBegin
  2
DC_GROUP_W_MCD50_G_080_1_24
 70
     0
 10
0.0
 20
0.0
 30
0.0
  3
DC_GROUP_W_MCD50_G_080_1_24
  1
DC_GROUP_W_MCD50_G_080_1_24
  0
LINE
  5
217
330
111
100
AcDbEntity
  8
0
  6
Continuous
 62
     2
370
    13
100
AcDbLine
 10
-32.96128608387789
 20
-116.4214327428705
 30
0.0
 11
-27.1877833919815
 21
-126.4214327428705
 31
0.0
  0
LINE
  5
218
330
111
100
AcDbEntity
  8
0
  6
Continuous
 62
     2
370
    13
100
AcDbLine
 10
-27.1877833919815
 20
-126.4214327428705
 30
0.0
 11
-38.73478877577406
 21
-126.4214327428705
 31
0.0
  0
LINE
  5
219
330
111
100
AcDbEntity
  8
0
  6
Continuous
 62
     2
370
    13
100
AcDbLine
 10
-38.73478877577406
 20
-126.4214327428705
 30
0.0
 11
-32.96128608387789
 21
-116.4214327428705
 31
0.0
  0
TEXT
  5
21A
330
111
100
AcDbEntity
  8
0
 62
     2
100
AcDbText
 10
-34.46128608387789
 20
-125.6714327428705
 30
0.0
 40
5.0
  1
1
 41
1.145454545454546
  7
dcStyle0
 72
     5
 11
-31.46128608387789
 21
-125.6714327428705
 31
0.0
100
AcDbText
  0
ENDBLK
  5
113
330
111
100
AcDbEntity
  8
0
100
AcDbBlockEnd
  0
BLOCK
  5
115
330
114
100
AcDbEntity
  8
0
100
AcDbBlockBegin
  2
DC_GROUP_W_MCD50_G_080_1_25
 70
     0
 10
0.0
 20
0.0
 30
0.0
  3
DC_GROUP_W_MCD50_G_080_1_25
  1
DC_GROUP_W_MCD50_G_080_1_25
  0
LINE
  5
21B
330
114
100
AcDbEntity
  8
0
  6
Continuous
 62
     2
370
    13
100
AcDbLine
 10
-370.1559014046578
 20
148.2328134880547
 30
0.0
 11
-284.015351284657
 21
148.2328134880547
 31
0.0
  0
LINE
  5
21C
330
114
100
AcDbEntity
  8
0
  6
Continuous
 62
     2
370
    13
100
AcDbLine
 10
-284.015351284657
 20
148.2328134880547
 30
0.0
 11
-248.9572489316127
 21
121.1561533209557
 31
0.0
  0
INSERT
  5
21D
330
114
100
AcDbEntity
  8
0
 62
     2
100
AcDbBlockReference
  2
_OPEN30
 10
-248.9572489316127
 20
121.1561533209557
 30
0.0
 41
6.000005615230571
 42
5.999978736447286
 50
322.319772754675
  0
ENDBLK
  5
116
330
114
100
AcDbEntity
  8
0
100
AcDbBlockEnd
  0
BLOCK
  5
11C
330
11B
100
AcDbEntity
  8
0
100
AcDbBlockBegin
  2
_OPEN30
 70
     0
 10
0.0
 20
0.0
 30
0.0
  3
_OPEN30
  1
_OPEN30
  0
LINE
  5
11E
330
11B
100
AcDbEntity
  8
0
  6
ByBlock
 62
     0
370
    -2
100
AcDbLine
 10
-1.0
 20
0.267949
 30
0.0
 11
0.0
 21
0.0
 31
0.0
  0
LINE
  5
11F
330
11B
100
AcDbEntity
  8
0
  6
ByBlock
 62
     0
370
    -2
100
AcDbLine
 10
0.0
 20
0.0
 30
0.0
 11
-1.0
 21
-0.267949
 31
0.0
  0
LINE
  5
120
330
11B
100
AcDbEntity
  8
0
  6
ByBlock
 62
     0
370
    -2
100
AcDbLine
 10
0.0
 20
0.0
 30
0.0
 11
-1.0
 21
0.0
 31
0.0
  0
ENDBLK
  5
11D
330
11B
100
AcDbEntity
  8
0
100
AcDbBlockEnd
  0
ENDSEC
  0
SECTION
  2
ENTITIES
  0
LINE
  5
21E
330
1F
100
AcDbEntity
  8
0
  6
Continuous
 62
     7
370
    13
100
AcDbLine
 10
-325.2978132416833
 20
-104.7444730509913
 30
0.0
 11
-283.2978132416833
 21
-104.7444730509913
 31
0.0
  0
LINE
  5
21F
330
1F
100
AcDbEntity
  8
0
  6
Continuous
 62
     7
370
    13
100
AcDbLine
 10
-89.62712677069902
 20
-54.41733159715429
 30
0.0
 11
-48.62712677069902
 21
-54.41733159715429
 31
0.0
  0
LINE
  5
220
330
1F
100
AcDbEntity
  8
0
  6
Continuous
 62
     7
370
    13
100
AcDbLine
 10
-224.0792066139644
 20
-108.3438466790443
 30
0.0
 11
-235.778236448791
 21
-11.44418914479769
 31
0.0
  0
LINE
  5
221
330
1F
100
AcDbEntity
  8
0
  6
Continuous
 62
     7
370
    13
100
AcDbLine
 10
-229.115516189542
 20
-108.3438466790443
 30
0.0
 11
-231.2283515423099
 21
-90.84384667904428
 31
0.0
  0
LINE
  5
222
330
1F
100
AcDbEntity
  8
0
  6
Continuous
 62
     7
370
    13
100
AcDbLine
 10
-169.7602125490322
 20
-18.34384667904428
 30
0.0
 11
-144.7602125490324
 21
-18.34384667904428
 31
0.0
  0
LINE
  5
223
330
1F
100
AcDbEntity
  8
0
  6
Continuous
 62
     7
370
    13
100
AcDbLine
 10
-169.7602125490322
 20
-108.3438466790443
 30
0.0
 11
-144.7602125490324
 21
-108.3438466790443
 31
0.0
  0
LINE
  5
224
330
1F
100
AcDbEntity
  8
0
  6
Continuous
 62
     7
370
    13
100
AcDbLine
 10
-169.7602125490322
 20
-21.54384667904429
 30
0.0
 11
-144.7602125490324
 21
-21.54384667904429
 31
0.0
  0
LINE
  5
225
330
1F
100
AcDbEntity
  8
0
  6
Continuous
 62
     7
370
    13
100
AcDbLine
 10
-171.5602125490323
 20
-103.3438466790443
 30
0.0
 11
-171.5602125490323
 21
-23.34384667904428
 31
0.0
  0
LINE
  5
226
330
1F
100
AcDbEntity
  8
0
  6
Continuous
 62
     7
370
    13
100
AcDbLine
 10
-169.7602125490322
 20
-105.1438466790443
 30
0.0
 11
-144.7602125490324
 21
-105.1438466790443
 31
0.0
  0
LINE
  5
227
330
1F
100
AcDbEntity
  8
0
  6
Continuous
 62
     7
370
    13
100
AcDbLine
 10
-144.7602125490324
 20
-21.54384667904429
 30
0.0
 11
-144.7602125490324
 21
-18.34384667904428
 31
0.0
  0
LINE
  5
228
330
1F
100
AcDbEntity
  8
0
  6
Continuous
 62
     7
370
    13
100
AcDbLine
 10
-144.7602125490324
 20
-108.3438466790443
 30
0.0
 11
-144.7602125490324
 21
-105.1438466790443
 31
0.0
  0
LINE
  5
229
330
1F
100
AcDbEntity
  8
0
  6
Continuous
 62
     7
370
    13
100
AcDbLine
 10
-182.2602125490322
 20
-42.74384667904428
 30
0.0
 11
-182.2602125490322
 21
-50.74384667904428
 31
0.0
  0
LINE
  5
22A
330
1F
100
AcDbEntity
  8
0
  6
Continuous
 62
     7
370
    13
100
AcDbLine
 10
-177.2602125490322
 20
-42.74384667904428
 30
0.0
 11
-182.2602125490322
 21
-42.74384667904428
 31
0.0
  0
LINE
  5
22B
330
1F
100
AcDbEntity
  8
0
  6
Continuous
 62
     7
370
    13
100
AcDbLine
 10
-182.2602125490322
 20
-24.74384667904428
 30
0.0
 11
-182.2602125490322
 21
-42.74384667904428
 31
0.0
  0
LINE
  5
22C
330
1F
100
AcDbEntity
  8
0
  6
Continuous
 62
     7
370
    13
100
AcDbLine
 10
-177.2602125490322
 20
-24.74384667904428
 30
0.0
 11
-177.2602125490322
 21
-42.74384667904428
 31
0.0
  0
LINE
  5
22D
330
1F
100
AcDbEntity
  8
0
  6
Continuous
 62
     7
370
    13
100
AcDbLine
 10
-182.2602125490322
 20
-24.74384667904428
 30
0.0
 11
-177.2602125490322
 21
-24.74384667904428
 31
0.0
  0
LINE
  5
22E
330
1F
100
AcDbEntity
  8
0
  6
Continuous
 62
     7
370
    13
100
AcDbLine
 10
-182.2602125490322
 20
-16.74384667904428
 30
0.0
 11
-182.2602125490322
 21
-24.74384667904428
 31
0.0
  0
LINE
  5
22F
330
1F
100
AcDbEntity
  8
0
  6
Continuous
 62
     7
370
    13
100
AcDbLine
 10
-174.7602125490322
 20
-23.34384667904428
 30
0.0
 11
-174.7602125490322
 21
-103.3438466790443
 31
0.0
  0
LINE
  5
230
330
1F
100
AcDbEntity
  8
0
  6
Continuous
 62
     7
370
    13
100
AcDbLine
 10
-246.7094728716878
 20
-8.343846679044304
 30
0.0
 11
-263.9772079326745
 21
-8.343846679044304
 31
0.0
  0
LINE
  5
231
330
1F
100
AcDbEntity
  8
0
  6
Continuous
 62
     7
370
    13
100
AcDbLine
 10
-246.7094728716878
 20
-59.14384667904429
 30
0.0
 11
-263.9772079326745
 21
-59.14384667904429
 31
0.0
  0
LINE
  5
232
330
1F
100
AcDbEntity
  8
0
  6
Continuous
 62
     7
370
    13
100
AcDbLine
 10
-229.8109522263768
 20
-8.343846679044304
 30
0.0
 11
-190.6602125490322
 21
-8.343846679044304
 31
0.0
  0
LINE
  5
233
330
1F
100
AcDbEntity
  8
0
  6
Continuous
 62
     7
370
    13
100
AcDbLine
 10
-229.8109522263769
 20
-59.14384667904429
 30
0.0
 11
-190.6602125490323
 21
-59.14384667904429
 31
0.0
  0
LINE
  5
234
330
1F
100
AcDbEntity
  8
0
  6
Continuous
 62
     7
370
    13
100
AcDbLine
 10
-231.2283515423099
 20
-90.84384667904428
 30
0.0
 11
-240.7421886492737
 21
-12.04350421329087
 31
0.0
  0
LINE
  5
235
330
1F
100
AcDbEntity
  8
0
  6
Continuous
 62
     7
370
    13
100
AcDbLine
 10
-246.7094728716878
 20
-59.14384667904429
 30
0.0
 11
-252.5430092842533
 21
-108.3438466790443
 31
0.0
  0
LINE
  5
236
330
1F
100
AcDbEntity
  8
0
  6
Continuous
 62
     7
370
    13
100
AcDbLine
 10
-240.821834523129
 20
-53.81815844050487
 30
0.0
 11
-247.4049089085227
 21
-108.3438466790443
 31
0.0
  0
LINE
  5
237
330
1F
100
AcDbEntity
  8
0
  6
Continuous
 62
     7
370
    13
100
AcDbLine
 10
-247.4572489316126
 20
110.9561533209557
 30
0.0
 11
-247.4572489316126
 21
110.8592111332416
 31
0.0
  0
LINE
  5
238
330
1F
100
AcDbEntity
  8
0
  6
Continuous
 62
     7
370
    13
100
AcDbLine
 10
-243.4572489316124
 20
108.5561533209557
 30
0.0
 11
-243.4572489316124
 21
107.6561533209557
 31
0.0
  0
LINE
  5
239
330
1F
100
AcDbEntity
  8
0
  6
Continuous
 62
     7
370
    13
100
AcDbLine
 10
-243.4572489316124
 20
108.5561533209557
 30
0.0
 11
-246.9572489316124
 21
108.5561533209557
 31
0.0
  0
LINE
  5
23A
330
1F
100
AcDbEntity
  8
0
  6
Continuous
 62
     7
370
    13
100
AcDbLine
 10
-246.4572489316124
 20
109.9561533209557
 30
0.0
 11
-239.6572489316123
 21
109.9561533209557
 31
0.0
  0
LINE
  5
23B
330
1F
100
AcDbEntity
  8
0
  6
Continuous
 62
     7
370
    13
100
AcDbLine
 10
-245.9572489316124
 20
125.6561533209557
 30
0.0
 11
-245.9572489316124
 21
123.6561533209557
 31
0.0
  0
LINE
  5
23C
330
1F
100
AcDbEntity
  8
0
  6
Continuous
 62
     7
370
    13
100
AcDbLine
 10
-248.9572489316126
 20
124.1561533209557
 30
0.0
 11
-248.9572489316126
 21
99.1561533209557
 31
0.0
  0
LINE
  5
23D
330
1F
100
AcDbEntity
  8
0
  6
Continuous
 62
     7
370
    13
100
AcDbLine
 10
-247.4572489316126
 20
97.6561533209557
 30
0.0
 11
-245.9572489316124
 21
97.6561533209557
 31
0.0
  0
LINE
  5
23E
330
1F
100
AcDbEntity
  8
0
  6
Continuous
 62
     7
370
    13
100
AcDbLine
 10
-247.4572489316126
 20
125.6561533209557
 30
0.0
 11
-245.9572489316124
 21
125.6561533209557
 31
0.0
  0
LINE
  5
23F
330
1F
100
AcDbEntity
  8
0
  6
Continuous
 62
     7
370
    13
100
AcDbLine
 10
-239.6572489316123
 20
113.3561533209558
 30
0.0
 11
-239.6572489316123
 21
113.7561533209557
 31
0.0
  0
LINE
  5
240
330
1F
100
AcDbEntity
  8
0
  6
Continuous
 62
     7
370
    13
100
AcDbLine
 10
-243.4572489316124
 20
115.6561533209557
 30
0.0
 11
-243.4572489316124
 21
114.7561533209557
 31
0.0
  0
LINE
  5
241
330
1F
100
AcDbEntity
  8
0
  6
Continuous
 62
     7
370
    13
100
AcDbLine
 10
-243.4572489316124
 20
114.7561533209557
 30
0.0
 11
-246.9572489316124
 21
114.7561533209557
 31
0.0
  0
LINE
  5
242
330
1F
100
AcDbEntity
  8
0
  6
Continuous
 62
     7
370
    13
100
AcDbLine
 10
-239.6572489316123
 20
113.3561533209558
 30
0.0
 11
-246.4572489316124
 21
113.3561533209558
 31
0.0
  0
LINE
  5
243
330
1F
100
AcDbEntity
  8
0
  6
Continuous
 62
     7
370
    13
100
AcDbLine
 10
-247.4572489316126
 20
112.3561533209558
 30
0.0
 11
-247.4572489316126
 21
110.9561533209557
 31
0.0
  0
LINE
  5
244
330
1F
100
AcDbEntity
  8
0
  6
Continuous
 62
     7
370
    13
100
AcDbLine
 10
-246.9572489316124
 20
123.6561533209557
 30
0.0
 11
-245.9572489316124
 21
123.6561533209557
 31
0.0
  0
LINE
  5
245
330
1F
100
AcDbEntity
  8
0
  6
Continuous
 62
     7
370
    13
100
AcDbLine
 10
-246.9572489316124
 20
118.6561533209558
 30
0.0
 11
-245.9572489316124
 21
118.6561533209558
 31
0.0
  0
LINE
  5
246
330
1F
100
AcDbEntity
  8
0
  6
Continuous
 62
     7
370
    13
100
AcDbLine
 10
-246.9572489316124
 20
117.1561533209557
 30
0.0
 11
-245.9572489316124
 21
117.1561533209557
 31
0.0
  0
LINE
  5
247
330
1F
100
AcDbEntity
  8
0
  6
Continuous
 62
     7
370
    13
100
AcDbLine
 10
-246.9572489316124
 20
106.1561533209557
 30
0.0
 11
-245.9572489316124
 21
106.1561533209557
 31
0.0
  0
LINE
  5
248
330
1F
100
AcDbEntity
  8
0
  6
Continuous
 62
     7
370
    13
100
AcDbLine
 10
-246.9572489316124
 20
104.6561533209557
 30
0.0
 11
-245.9572489316124
 21
104.6561533209557
 31
0.0
  0
LINE
  5
249
330
1F
100
AcDbEntity
  8
0
  6
Continuous
 62
     7
370
    13
100
AcDbLine
 10
-246.9572489316124
 20
99.6561533209557
 30
0.0
 11
-245.9572489316124
 21
99.6561533209557
 31
0.0
  0
LINE
  5
24A
330
1F
100
AcDbEntity
  8
0
  6
Continuous
 62
     7
370
    13
100
AcDbLine
 10
-247.4572489316126
 20
123.1561533209557
 30
0.0
 11
-247.4572489316126
 21
119.1561533209557
 31
0.0
  0
LINE
  5
24B
330
1F
100
AcDbEntity
  8
0
  6
Continuous
 62
     7
370
    13
100
AcDbLine
 10
-247.4572489316126
 20
116.6561533209557
 30
0.0
 11
-247.4572489316126
 21
115.2561533209557
 31
0.0
  0
LINE
  5
24C
330
1F
100
AcDbEntity
  8
0
  6
Continuous
 62
     7
370
    13
100
AcDbLine
 10
-247.4572489316126
 20
108.0561533209557
 30
0.0
 11
-247.4572489316126
 21
106.6561533209557
 31
0.0
  0
LINE
  5
24D
330
1F
100
AcDbEntity
  8
0
  6
Continuous
 62
     7
370
    13
100
AcDbLine
 10
-247.4572489316126
 20
104.1561533209557
 30
0.0
 11
-247.4572489316126
 21
100.1561533209557
 31
0.0
  0
LINE
  5
24E
330
1F
100
AcDbEntity
  8
0
  6
Continuous
 62
     7
370
    13
100
AcDbLine
 10
-245.9572489316124
 20
99.6561533209557
 30
0.0
 11
-245.9572489316124
 21
97.6561533209557
 31
0.0
  0
LINE
  5
24F
330
1F
100
AcDbEntity
  8
0
  6
Continuous
 62
     7
370
    13
100
AcDbLine
 10
-245.9572489316124
 20
106.1561533209557
 30
0.0
 11
-245.9572489316124
 21
104.6561533209557
 31
0.0
  0
LINE
  5
250
330
1F
100
AcDbEntity
  8
0
  6
Continuous
 62
     7
370
    13
100
AcDbLine
 10
-245.9572489316124
 20
118.6561533209558
 30
0.0
 11
-245.9572489316124
 21
117.1561533209557
 31
0.0
  0
LINE
  5
251
330
1F
100
AcDbEntity
  8
0
  6
Continuous
 62
     7
370
    13
100
AcDbLine
 10
-239.6572489316123
 20
109.5561533209557
 30
0.0
 11
-243.4572489316124
 21
107.6561533209557
 31
0.0
  0
LINE
  5
252
330
1F
100
AcDbEntity
  8
0
  6
Continuous
 62
     7
370
    13
100
AcDbLine
 10
-239.6572489316123
 20
113.7561533209557
 30
0.0
 11
-243.4572489316124
 21
115.6561533209557
 31
0.0
  0
LINE
  5
253
330
1F
100
AcDbEntity
  8
0
  6
Continuous
 62
     7
370
    13
100
AcDbLine
 10
-239.6572489316123
 20
109.5561533209557
 30
0.0
 11
-239.6572489316123
 21
109.9561533209557
 31
0.0
  0
LINE
  5
254
330
1F
100
AcDbEntity
  8
0
  6
Continuous
 62
     7
370
    13
100
AcDbLine
 10
-224.4572489316124
 20
114.6561533209558
 30
0.0
 11
-224.4572489316124
 21
108.6561533209559
 31
0.0
  0
LINE
  5
255
330
1F
100
AcDbEntity
  8
0
  6
Continuous
 62
     7
370
    13
100
AcDbLine
 10
-224.4572489316124
 20
108.6561533209559
 30
0.0
 11
-221.4572489316127
 21
108.6561533209558
 31
0.0
  0
LINE
  5
256
330
1F
100
AcDbEntity
  8
0
  6
Continuous
 62
     7
370
    13
100
AcDbLine
 10
-224.4572489316124
 20
114.6561533209558
 30
0.0
 11
-221.4572489316127
 21
114.6561533209558
 31
0.0
  0
LINE
  5
257
330
1F
100
AcDbEntity
  8
0
  6
Continuous
 62
     7
370
    13
100
AcDbLine
 10
-213.9572489316124
 20
108.6561533209558
 30
0.0
 11
-216.4572489316127
 21
108.6561533209558
 31
0.0
  0
LINE
  5
258
330
1F
100
AcDbEntity
  8
0
  6
Continuous
 62
     7
370
    13
100
AcDbLine
 10
-213.9572489316124
 20
114.6561533209558
 30
0.0
 11
-216.4572489316127
 21
114.6561533209558
 31
0.0
  0
LINE
  5
259
330
1F
100
AcDbEntity
  8
0
  6
Continuous
 62
     7
370
    13
100
AcDbLine
 10
-221.4572489316127
 20
114.1561533209558
 30
0.0
 11
-221.4572489316127
 21
109.1561533209556
 31
0.0
  0
LINE
  5
25A
330
1F
100
AcDbEntity
  8
0
  6
Continuous
 62
     7
370
    13
100
AcDbLine
 10
-216.4572489316127
 20
111.6561533209557
 30
0.0
 11
-221.0106669442275
 21
111.6561533209557
 31
0.0
  0
LINE
  5
25B
330
1F
100
AcDbEntity
  8
0
  6
Continuous
 62
     7
370
    13
100
AcDbLine
 10
-216.4572489316127
 20
106.6561533209559
 30
0.0
 11
-221.0106669442275
 21
106.6561533209559
 31
0.0
  0
LINE
  5
25C
330
1F
100
AcDbEntity
  8
0
  6
Continuous
 62
     7
370
    13
100
AcDbLine
 10
-216.4572489316127
 20
116.6561533209559
 30
0.0
 11
-216.4572489316127
 21
106.6561533209559
 31
0.0
  0
LINE
  5
25D
330
1F
100
AcDbEntity
  8
0
  6
Continuous
 62
     7
370
    13
100
AcDbLine
 10
-221.0106669442275
 20
116.6561533209559
 30
0.0
 11
-216.4572489316127
 21
116.6561533209559
 31
0.0
  0
LINE
  5
25E
330
1F
100
AcDbEntity
  8
0
  6
Continuous
 62
     7
370
    13
100
AcDbLine
 10
-191.2905574344294
 20
133.1561533209559
 30
0.0
 11
-213.2298676636352
 21
133.1561533209559
 31
0.0
  0
LINE
  5
25F
330
1F
100
AcDbEntity
  8
0
  6
Continuous
 62
     7
370
    13
100
AcDbLine
 10
-205.2602125490323
 20
130.1561533209559
 30
0.0
 11
-202.2602125490323
 21
133.1561533209559
 31
0.0
  0
LINE
  5
260
330
1F
100
AcDbEntity
  8
0
  6
Continuous
 62
     7
370
    13
100
AcDbLine
 10
-202.2602125490323
 20
130.1561533209559
 30
0.0
 11
-199.2602125490323
 21
133.1561533209559
 31
0.0
  0
LINE
  5
261
330
1F
100
AcDbEntity
  8
0
  6
Continuous
 62
     7
370
    13
100
AcDbLine
 10
-191.5102125490323
 20
133.1561533209559
 30
0.0
 11
-191.5102125490323
 21
130.1561533209559
 31
0.0
  0
LINE
  5
262
330
1F
100
AcDbEntity
  8
0
  6
Continuous
 62
     7
370
    13
100
AcDbLine
 10
-213.0102125490323
 20
130.1561533209559
 30
0.0
 11
-213.0102125490323
 21
133.1561533209559
 31
0.0
  0
LINE
  5
263
330
1F
100
AcDbEntity
  8
0
  6
Continuous
 62
     7
370
    13
100
AcDbLine
 10
-190.2602125490323
 20
130.1561533209559
 30
0.0
 11
-190.2602125490323
 21
127.6561533209559
 31
0.0
  0
LINE
  5
264
330
1F
100
AcDbEntity
  8
0
  6
Continuous
 62
     7
370
    13
100
AcDbLine
 10
-214.2602125490323
 20
130.1561533209559
 30
0.0
 11
-190.2602125490323
 21
130.1561533209559
 31
0.0
  0
LINE
  5
265
330
1F
100
AcDbEntity
  8
0
  6
Continuous
 62
     7
370
    13
100
AcDbLine
 10
-214.2602125490323
 20
127.6561533209559
 30
0.0
 11
-214.2602125490323
 21
130.1561533209559
 31
0.0
  0
LINE
  5
266
330
1F
100
AcDbEntity
  8
0
  6
Continuous
 62
     7
370
    13
100
AcDbLine
 10
-210.4874538849844
 20
143.1561533209559
 30
0.0
 11
-194.0329712130801
 21
143.1561533209559
 31
0.0
  0
LINE
  5
267
330
1F
100
AcDbEntity
  8
0
  6
Continuous
 62
     7
370
    13
100
AcDbLine
 10
-207.7450401063337
 20
133.1561533209559
 30
0.0
 11
-207.7450401063337
 21
142.3076475449241
 31
0.0
  0
LINE
  5
268
330
1F
100
AcDbEntity
  8
0
  6
Continuous
 62
     7
370
    13
100
AcDbLine
 10
-196.7753849917308
 20
133.1561533209559
 30
0.0
 11
-196.7753849917308
 21
142.3076475449241
 31
0.0
  0
LINE
  5
269
330
1F
100
AcDbEntity
  8
0
  6
Continuous
 62
     7
370
    13
100
AcDbLine
 10
-213.2298676636352
 20
133.1561533209559
 30
0.0
 11
-213.2298676636352
 21
142.3076475449241
 31
0.0
  0
LINE
  5
26A
330
1F
100
AcDbEntity
  8
0
  6
Continuous
 62
     7
370
    13
100
AcDbLine
 10
-191.2905574344294
 20
142.3076475449241
 30
0.0
 11
-191.2905574344294
 21
133.1561533209559
 31
0.0
  0
LINE
  5
26B
330
1F
100
AcDbEntity
  8
0
  6
Continuous
 62
     7
370
    13
100
AcDbLine
 10
-194.0329712130802
 20
85.65615332095592
 30
0.0
 11
-210.4874538849845
 21
85.65615332095592
 31
0.0
  0
LINE
  5
26C
330
1F
100
AcDbEntity
  8
0
  6
Continuous
 62
     7
370
    13
100
AcDbLine
 10
-196.7753849917309
 20
95.65615332095592
 30
0.0
 11
-196.7753849917309
 21
86.5046590969879
 31
0.0
  0
LINE
  5
26D
330
1F
100
AcDbEntity
  8
0
  6
Continuous
 62
     7
370
    13
100
AcDbLine
 10
-207.7450401063338
 20
95.65615332095592
 30
0.0
 11
-207.7450401063338
 21
86.5046590969879
 31
0.0
  0
LINE
  5
26E
330
1F
100
AcDbEntity
  8
0
  6
Continuous
 62
     7
370
    13
100
AcDbLine
 10
-191.2905574344295
 20
95.65615332095592
 30
0.0
 11
-191.2905574344295
 21
86.5046590969879
 31
0.0
  0
LINE
  5
26F
330
1F
100
AcDbEntity
  8
0
  6
Continuous
 62
     7
370
    13
100
AcDbLine
 10
-213.2298676636353
 20
86.5046590969879
 30
0.0
 11
-213.2298676636353
 21
95.65615332095592
 31
0.0
  0
LINE
  5
270
330
1F
100
AcDbEntity
  8
0
  6
Continuous
 62
     7
370
    13
100
AcDbLine
 10
-165.4874538849839
 20
-8.343846679044304
 30
0.0
 11
-149.0329712130796
 21
-8.343846679044304
 31
0.0
  0
LINE
  5
271
330
1F
100
AcDbEntity
  8
0
  6
Continuous
 62
     7
370
    13
100
AcDbLine
 10
-162.7450401063332
 20
-18.34384667904428
 30
0.0
 11
-162.7450401063332
 21
-9.192352455076161
 31
0.0
  0
LINE
  5
272
330
1F
100
AcDbEntity
  8
0
  6
Continuous
 62
     7
370
    13
100
AcDbLine
 10
-151.7753849917303
 20
-18.34384667904428
 30
0.0
 11
-151.7753849917303
 21
-9.192352455076161
 31
0.0
  0
LINE
  5
273
330
1F
100
AcDbEntity
  8
0
  6
Continuous
 62
     7
370
    13
100
AcDbLine
 10
-168.2298676636347
 20
-18.34384667904428
 30
0.0
 11
-168.2298676636347
 21
-9.192352455076161
 31
0.0
  0
LINE
  5
274
330
1F
100
AcDbEntity
  8
0
  6
Continuous
 62
     7
370
    13
100
AcDbLine
 10
-146.2905574344288
 20
-9.192352455076161
 30
0.0
 11
-146.2905574344288
 21
-18.34384667904428
 31
0.0
  0
LINE
  5
275
330
1F
100
AcDbEntity
  8
0
  6
Continuous
 62
     7
370
    13
100
AcDbLine
 10
-149.0329712130798
 20
-34.54384667904429
 30
0.0
 11
-165.4874538849841
 21
-34.54384667904429
 31
0.0
  0
LINE
  5
276
330
1F
100
AcDbEntity
  8
0
  6
Continuous
 62
     7
370
    13
100
AcDbLine
 10
-151.7753849917305
 20
-24.54384667904429
 30
0.0
 11
-151.7753849917305
 21
-33.69534090301238
 31
0.0
  0
LINE
  5
277
330
1F
100
AcDbEntity
  8
0
  6
Continuous
 62
     7
370
    13
100
AcDbLine
 10
-162.7450401063334
 20
-24.54384667904429
 30
0.0
 11
-162.7450401063334
 21
-33.69534090301238
 31
0.0
  0
LINE
  5
278
330
1F
100
AcDbEntity
  8
0
  6
Continuous
 62
     7
370
    13
100
AcDbLine
 10
-146.2905574344291
 20
-24.54384667904429
 30
0.0
 11
-146.2905574344291
 21
-33.69534090301238
 31
0.0
  0
LINE
  5
279
330
1F
100
AcDbEntity
  8
0
  6
Continuous
 62
     7
370
    13
100
AcDbLine
 10
-168.2298676636349
 20
-24.54384667904429
 30
0.0
 11
-146.2905574344291
 21
-24.54384667904429
 31
0.0
  0
LINE
  5
27A
330
1F
100
AcDbEntity
  8
0
  6
Continuous
 62
     7
370
    13
100
AcDbLine
 10
-168.2298676636349
 20
-33.69534090301238
 30
0.0
 11
-168.2298676636349
 21
-24.54384667904429
 31
0.0
  0
LINE
  5
27B
330
1F
100
AcDbEntity
  8
0
  6
Continuous
 62
     7
370
    13
100
AcDbLine
 10
-154.2602125490319
 20
-21.54384667904429
 30
0.0
 11
-157.2602125490319
 21
-24.54384667904429
 31
0.0
  0
LINE
  5
27C
330
1F
100
AcDbEntity
  8
0
  6
Continuous
 62
     7
370
    13
100
AcDbLine
 10
-157.2602125490319
 20
-21.54384667904429
 30
0.0
 11
-160.2602125490319
 21
-24.54384667904429
 31
0.0
  0
LINE
  5
27D
330
1F
100
AcDbEntity
  8
0
  6
Continuous
 62
     7
370
    13
100
AcDbLine
 10
-168.0102125490319
 20
-24.54384667904429
 30
0.0
 11
-168.0102125490319
 21
-21.54384667904429
 31
0.0
  0
LINE
  5
27E
330
1F
100
AcDbEntity
  8
0
  6
Continuous
 62
     7
370
    13
100
AcDbLine
 10
-146.5102125490319
 20
-21.54384667904429
 30
0.0
 11
-146.5102125490319
 21
-24.54384667904429
 31
0.0
  0
LINE
  5
27F
330
1F
100
AcDbEntity
  8
0
  6
Continuous
 62
     7
370
    13
100
AcDbLine
 10
-210.7602125490323
 20
146.6561533209559
 30
0.0
 11
-210.7602125490323
 21
144.0161693359114
 31
0.0
  0
LINE
  5
280
330
1F
100
AcDbEntity
  8
0
  6
Continuous
 62
     7
370
    13
100
AcDbLine
 10
-193.7602125490323
 20
144.0161693359114
 30
0.0
 11
-193.7602125490323
 21
146.6561533209559
 31
0.0
  0
LINE
  5
281
330
1F
100
AcDbEntity
  8
0
  6
Continuous
 62
     7
370
    13
100
AcDbLine
 10
-213.9572489316124
 20
108.4061533209557
 30
0.0
 11
-213.9572489316124
 21
97.6561533209557
 31
0.0
  0
LINE
  5
282
330
1F
100
AcDbEntity
  8
0
  6
Continuous
 62
     7
370
    13
100
AcDbLine
 10
-213.9572489316124
 20
125.6561533209557
 30
0.0
 11
-213.9572489316124
 21
114.9061533209557
 31
0.0
  0
LINE
  5
283
330
1F
100
AcDbEntity
  8
0
  6
Continuous
 62
     7
370
    13
100
AcDbLine
 10
-213.9572489316124
 20
125.6561533209557
 30
0.0
 11
-213.9572489316124
 21
97.6561533209557
 31
0.0
  0
LINE
  5
284
330
1F
100
AcDbEntity
  8
0
  6
Continuous
 62
     7
370
    13
100
AcDbLine
 10
-211.9572489316123
 20
95.65615332095592
 30
0.0
 11
-184.9572489316124
 21
95.65615332095592
 31
0.0
  0
LINE
  5
285
330
1F
100
AcDbEntity
  8
0
  6
Continuous
 62
     7
370
    13
100
AcDbLine
 10
-182.9572489316124
 20
97.65615332095592
 30
0.0
 11
-182.9572489316124
 21
125.6561533209559
 31
0.0
  0
LINE
  5
286
330
1F
100
AcDbEntity
  8
0
  6
Continuous
 62
     7
370
    13
100
AcDbLine
 10
-184.9572489316124
 20
127.6561533209559
 30
0.0
 11
-211.9572489316123
 21
127.6561533209559
 31
0.0
  0
LINE
  5
287
330
1F
100
AcDbEntity
  8
0
  6
Continuous
 62
     7
370
    13
100
AcDbLine
 10
-213.9572489316124
 20
108.4061533209557
 30
0.0
 11
-213.9572489316124
 21
97.6561533209557
 31
0.0
  0
LINE
  5
288
330
1F
100
AcDbEntity
  8
0
  6
Continuous
 62
     7
370
    13
100
AcDbLine
 10
-226.7072489316124
 20
127.6561533209557
 30
0.0
 11
-215.9572489316124
 21
127.6561533209557
 31
0.0
  0
LINE
  5
289
330
1F
100
AcDbEntity
  8
0
  6
Continuous
 62
     7
370
    13
100
AcDbLine
 10
-226.7072489316127
 20
95.6561533209557
 30
0.0
 11
-215.9572489316124
 21
95.6561533209557
 31
0.0
  0
LINE
  5
28A
330
1F
100
AcDbEntity
  8
0
  6
Continuous
 62
     7
370
    13
100
AcDbLine
 10
-233.2072489316124
 20
125.1561533209557
 30
0.0
 11
-235.2072489316124
 21
125.1561533209557
 31
0.0
  0
LINE
  5
28B
330
1F
100
AcDbEntity
  8
0
  6
Continuous
 62
     7
370
    13
100
AcDbLine
 10
-224.7072489316124
 20
125.1561533209557
 30
0.0
 11
-226.7072489316124
 21
125.1561533209557
 31
0.0
  0
LINE
  5
28C
330
1F
100
AcDbEntity
  8
0
  6
Continuous
 62
     7
370
    13
100
AcDbLine
 10
-233.2072489316124
 20
119.1561533209557
 30
0.0
 11
-235.2072489316124
 21
119.1561533209557
 31
0.0
  0
LINE
  5
28D
330
1F
100
AcDbEntity
  8
0
  6
Continuous
 62
     7
370
    13
100
AcDbLine
 10
-224.7072489316124
 20
119.1561533209557
 30
0.0
 11
-226.7072489316124
 21
119.1561533209557
 31
0.0
  0
LINE
  5
28E
330
1F
100
AcDbEntity
  8
0
  6
Continuous
 62
     7
370
    13
100
AcDbLine
 10
-226.7072489316124
 20
116.6561533209557
 30
0.0
 11
-233.2072489316124
 21
116.6561533209557
 31
0.0
  0
LINE
  5
28F
330
1F
100
AcDbEntity
  8
0
  6
Continuous
 62
     7
370
    13
100
AcDbLine
 10
-233.2072489316124
 20
119.1561533209557
 30
0.0
 11
-233.2072489316124
 21
116.6561533209557
 31
0.0
  0
LINE
  5
290
330
1F
100
AcDbEntity
  8
0
  6
Continuous
 62
     7
370
    13
100
AcDbLine
 10
-235.2072489316124
 20
125.1561533209557
 30
0.0
 11
-235.2072489316124
 21
119.1561533209557
 31
0.0
  0
LINE
  5
291
330
1F
100
AcDbEntity
  8
0
  6
Continuous
 62
     7
370
    13
100
AcDbLine
 10
-233.2072489316124
 20
127.6561533209557
 30
0.0
 11
-233.2072489316124
 21
125.1561533209557
 31
0.0
  0
LINE
  5
292
330
1F
100
AcDbEntity
  8
0
  6
Continuous
 62
     7
370
    13
100
AcDbLine
 10
-226.7072489316124
 20
119.1561533209557
 30
0.0
 11
-226.7072489316124
 21
116.6561533209557
 31
0.0
  0
LINE
  5
293
330
1F
100
AcDbEntity
  8
0
  6
Continuous
 62
     7
370
    13
100
AcDbLine
 10
-224.7072489316124
 20
125.1561533209557
 30
0.0
 11
-224.7072489316124
 21
119.1561533209557
 31
0.0
  0
LINE
  5
294
330
1F
100
AcDbEntity
  8
0
  6
Continuous
 62
     7
370
    13
100
AcDbLine
 10
-226.7072489316124
 20
127.6561533209557
 30
0.0
 11
-226.7072489316124
 21
125.1561533209557
 31
0.0
  0
LINE
  5
295
330
1F
100
AcDbEntity
  8
0
  6
Continuous
 62
     7
370
    13
100
AcDbLine
 10
-216.4572489316127
 20
114.9061533209557
 30
0.0
 11
-216.4572489316127
 21
116.9061533209557
 31
0.0
  0
LINE
  5
296
330
1F
100
AcDbEntity
  8
0
  6
Continuous
 62
     7
370
    13
100
AcDbLine
 10
-216.4572489316127
 20
106.4061533209557
 30
0.0
 11
-216.4572489316127
 21
108.4061533209557
 31
0.0
  0
LINE
  5
297
330
1F
100
AcDbEntity
  8
0
  6
Continuous
 62
     7
370
    13
100
AcDbLine
 10
-222.4572489316127
 20
114.9061533209557
 30
0.0
 11
-222.4572489316127
 21
116.9061533209557
 31
0.0
  0
LINE
  5
298
330
1F
100
AcDbEntity
  8
0
  6
Continuous
 62
     7
370
    13
100
AcDbLine
 10
-222.4572489316127
 20
106.4061533209557
 30
0.0
 11
-222.4572489316127
 21
108.4061533209557
 31
0.0
  0
LINE
  5
299
330
1F
100
AcDbEntity
  8
0
  6
Continuous
 62
     7
370
    13
100
AcDbLine
 10
-224.9572489316127
 20
108.4061533209557
 30
0.0
 11
-224.9572489316127
 21
114.9061533209557
 31
0.0
  0
LINE
  5
29A
330
1F
100
AcDbEntity
  8
0
  6
Continuous
 62
     7
370
    13
100
AcDbLine
 10
-222.4572489316127
 20
114.9061533209557
 30
0.0
 11
-224.9572489316127
 21
114.9061533209557
 31
0.0
  0
LINE
  5
29B
330
1F
100
AcDbEntity
  8
0
  6
Continuous
 62
     7
370
    13
100
AcDbLine
 10
-216.4572489316127
 20
116.9061533209557
 30
0.0
 11
-222.4572489316127
 21
116.9061533209557
 31
0.0
  0
LINE
  5
29C
330
1F
100
AcDbEntity
  8
0
  6
Continuous
 62
     7
370
    13
100
AcDbLine
 10
-213.9572489316124
 20
114.9061533209557
 30
0.0
 11
-216.4572489316127
 21
114.9061533209557
 31
0.0
  0
LINE
  5
29D
330
1F
100
AcDbEntity
  8
0
  6
Continuous
 62
     7
370
    13
100
AcDbLine
 10
-222.4572489316127
 20
108.4061533209557
 30
0.0
 11
-224.9572489316127
 21
108.4061533209557
 31
0.0
  0
LINE
  5
29E
330
1F
100
AcDbEntity
  8
0
  6
Continuous
 62
     7
370
    13
100
AcDbLine
 10
-216.4572489316127
 20
106.4061533209557
 30
0.0
 11
-222.4572489316127
 21
106.4061533209557
 31
0.0
  0
LINE
  5
29F
330
1F
100
AcDbEntity
  8
0
  6
Continuous
 62
     7
370
    13
100
AcDbLine
 10
-213.9572489316124
 20
108.4061533209557
 30
0.0
 11
-216.4572489316127
 21
108.4061533209557
 31
0.0
  0
LINE
  5
2A0
330
1F
100
AcDbEntity
  8
0
  6
Continuous
 62
     7
370
    13
100
AcDbLine
 10
-226.7072489316127
 20
98.1561533209557
 30
0.0
 11
-224.7072489316127
 21
98.1561533209557
 31
0.0
  0
LINE
  5
2A1
330
1F
100
AcDbEntity
  8
0
  6
Continuous
 62
     7
370
    13
100
AcDbLine
 10
-235.2072489316126
 20
98.1561533209557
 30
0.0
 11
-233.2072489316126
 21
98.1561533209557
 31
0.0
  0
LINE
  5
2A2
330
1F
100
AcDbEntity
  8
0
  6
Continuous
 62
     7
370
    13
100
AcDbLine
 10
-226.7072489316127
 20
104.1561533209557
 30
0.0
 11
-224.7072489316127
 21
104.1561533209557
 31
0.0
  0
LINE
  5
2A3
330
1F
100
AcDbEntity
  8
0
  6
Continuous
 62
     7
370
    13
100
AcDbLine
 10
-235.2072489316126
 20
104.1561533209557
 30
0.0
 11
-233.2072489316126
 21
104.1561533209557
 31
0.0
  0
LINE
  5
2A4
330
1F
100
AcDbEntity
  8
0
  6
Continuous
 62
     7
370
    13
100
AcDbLine
 10
-233.2072489316126
 20
106.6561533209557
 30
0.0
 11
-226.7072489316127
 21
106.6561533209557
 31
0.0
  0
LINE
  5
2A5
330
1F
100
AcDbEntity
  8
0
  6
Continuous
 62
     7
370
    13
100
AcDbLine
 10
-226.7072489316127
 20
104.1561533209557
 30
0.0
 11
-226.7072489316127
 21
106.6561533209557
 31
0.0
  0
LINE
  5
2A6
330
1F
100
AcDbEntity
  8
0
  6
Continuous
 62
     7
370
    13
100
AcDbLine
 10
-224.7072489316127
 20
98.1561533209557
 30
0.0
 11
-224.7072489316127
 21
104.1561533209557
 31
0.0
  0
LINE
  5
2A7
330
1F
100
AcDbEntity
  8
0
  6
Continuous
 62
     7
370
    13
100
AcDbLine
 10
-226.7072489316127
 20
95.6561533209557
 30
0.0
 11
-226.7072489316127
 21
98.1561533209557
 31
0.0
  0
LINE
  5
2A8
330
1F
100
AcDbEntity
  8
0
  6
Continuous
 62
     7
370
    13
100
AcDbLine
 10
-233.2072489316126
 20
104.1561533209557
 30
0.0
 11
-233.2072489316126
 21
106.6561533209557
 31
0.0
  0
LINE
  5
2A9
330
1F
100
AcDbEntity
  8
0
  6
Continuous
 62
     7
370
    13
100
AcDbLine
 10
-235.2072489316126
 20
98.1561533209557
 30
0.0
 11
-235.2072489316126
 21
104.1561533209557
 31
0.0
  0
LINE
  5
2AA
330
1F
100
AcDbEntity
  8
0
  6
Continuous
 62
     7
370
    13
100
AcDbLine
 10
-233.2072489316126
 20
95.6561533209557
 30
0.0
 11
-233.2072489316126
 21
98.1561533209557
 31
0.0
  0
LINE
  5
2AB
330
1F
100
AcDbEntity
  8
0
  6
Continuous
 62
     7
370
    13
100
AcDbLine
 10
-245.9572489316124
 20
108.4061533209557
 30
0.0
 11
-245.9572489316124
 21
97.6561533209557
 31
0.0
  0
LINE
  5
2AC
330
1F
100
AcDbEntity
  8
0
  6
Continuous
 62
     7
370
    13
100
AcDbLine
 10
-243.4572489316124
 20
108.4061533209557
 30
0.0
 11
-243.4572489316124
 21
106.4061533209557
 31
0.0
  0
LINE
  5
2AD
330
1F
100
AcDbEntity
  8
0
  6
Continuous
 62
     7
370
    13
100
AcDbLine
 10
-243.4572489316124
 20
116.9061533209557
 30
0.0
 11
-243.4572489316124
 21
114.9061533209557
 31
0.0
  0
LINE
  5
2AE
330
1F
100
AcDbEntity
  8
0
  6
Continuous
 62
     7
370
    13
100
AcDbLine
 10
-237.4572489316124
 20
108.4061533209557
 30
0.0
 11
-237.4572489316124
 21
106.4061533209557
 31
0.0
  0
LINE
  5
2AF
330
1F
100
AcDbEntity
  8
0
  6
Continuous
 62
     7
370
    13
100
AcDbLine
 10
-237.4572489316124
 20
116.9061533209557
 30
0.0
 11
-237.4572489316124
 21
114.9061533209557
 31
0.0
  0
LINE
  5
2B0
330
1F
100
AcDbEntity
  8
0
  6
Continuous
 62
     7
370
    13
100
AcDbLine
 10
-234.9572489316124
 20
114.9061533209557
 30
0.0
 11
-234.9572489316124
 21
108.4061533209557
 31
0.0
  0
LINE
  5
2B1
330
1F
100
AcDbEntity
  8
0
  6
Continuous
 62
     7
370
    13
100
AcDbLine
 10
-237.4572489316124
 20
108.4061533209557
 30
0.0
 11
-234.9572489316124
 21
108.4061533209557
 31
0.0
  0
LINE
  5
2B2
330
1F
100
AcDbEntity
  8
0
  6
Continuous
 62
     7
370
    13
100
AcDbLine
 10
-243.4572489316124
 20
106.4061533209557
 30
0.0
 11
-237.4572489316124
 21
106.4061533209557
 31
0.0
  0
LINE
  5
2B3
330
1F
100
AcDbEntity
  8
0
  6
Continuous
 62
     7
370
    13
100
AcDbLine
 10
-245.9572489316124
 20
108.4061533209557
 30
0.0
 11
-243.4572489316124
 21
108.4061533209557
 31
0.0
  0
LINE
  5
2B4
330
1F
100
AcDbEntity
  8
0
  6
Continuous
 62
     7
370
    13
100
AcDbLine
 10
-237.4572489316124
 20
114.9061533209557
 30
0.0
 11
-234.9572489316124
 21
114.9061533209557
 31
0.0
  0
LINE
  5
2B5
330
1F
100
AcDbEntity
  8
0
  6
Continuous
 62
     7
370
    13
100
AcDbLine
 10
-243.4572489316124
 20
116.9061533209557
 30
0.0
 11
-237.4572489316124
 21
116.9061533209557
 31
0.0
  0
LINE
  5
2B6
330
1F
100
AcDbEntity
  8
0
  6
Continuous
 62
     7
370
    13
100
AcDbLine
 10
-245.9572489316124
 20
114.9061533209557
 30
0.0
 11
-243.4572489316124
 21
114.9061533209557
 31
0.0
  0
LINE
  5
2B7
330
1F
100
AcDbEntity
  8
0
  6
Continuous
 62
     7
370
    13
100
AcDbLine
 10
-245.9572489316124
 20
125.6561533209557
 30
0.0
 11
-245.9572489316124
 21
114.9061533209557
 31
0.0
  0
LINE
  5
2B8
330
1F
100
AcDbEntity
  8
0
  6
Continuous
 62
     7
370
    13
100
AcDbLine
 10
-213.9572489316124
 20
125.6561533209557
 30
0.0
 11
-213.9572489316124
 21
114.9061533209557
 31
0.0
  0
LINE
  5
2B9
330
1F
100
AcDbEntity
  8
0
  6
Continuous
 62
     7
370
    13
100
AcDbLine
 10
-243.9572489316124
 20
95.6561533209557
 30
0.0
 11
-233.2072489316126
 21
95.6561533209557
 31
0.0
  0
LINE
  5
2BA
330
1F
100
AcDbEntity
  8
0
  6
Continuous
 62
     7
370
    13
100
AcDbLine
 10
-243.9572489316124
 20
127.6561533209557
 30
0.0
 11
-233.2072489316124
 21
127.6561533209557
 31
0.0
  0
LINE
  5
2BB
330
1F
100
AcDbEntity
  8
0
  6
Continuous
 62
     7
370
    13
100
AcDbLine
 10
-5.735912633936891
 20
-3.818158440504874
 30
0.0
 11
-12.31898701933068
 21
-58.34384667904428
 31
0.0
  0
LINE
  5
2BC
330
1F
100
AcDbEntity
  8
0
  6
Continuous
 62
     7
370
    13
100
AcDbLine
 10
-11.62355098249589
 20
-9.143846679044259
 30
0.0
 11
-17.45708739506131
 21
-58.34384667904428
 31
0.0
  0
LINE
  5
2BD
330
1F
100
AcDbEntity
  8
0
  6
Continuous
 62
     7
370
    13
100
AcDbLine
 10
3.857570346882085
 20
-40.84384667904428
 30
0.0
 11
-5.656266760081678
 21
37.95649578670913
 31
0.0
  0
LINE
  5
2BE
330
1F
100
AcDbEntity
  8
0
  6
Continuous
 62
     7
370
    13
100
AcDbLine
 10
5.27496966281501
 20
-9.143846679044259
 30
0.0
 11
44.42570934015981
 21
-9.143846679044259
 31
0.0
  0
LINE
  5
2BF
330
1F
100
AcDbEntity
  8
0
  6
Continuous
 62
     7
370
    13
100
AcDbLine
 10
5.274969662815181
 20
41.6561533209557
 30
0.0
 11
44.42570934015981
 21
41.6561533209557
 31
0.0
  0
LINE
  5
2C0
330
1F
100
AcDbEntity
  8
0
  6
Continuous
 62
     7
370
    13
100
AcDbLine
 10
-11.62355098249589
 20
-9.143846679044259
 30
0.0
 11
-28.89128604348252
 21
-9.143846679044259
 31
0.0
  0
LINE
  5
2C1
330
1F
100
AcDbEntity
  8
0
  6
Continuous
 62
     7
370
    13
100
AcDbLine
 10
-11.62355098249589
 20
41.6561533209557
 30
0.0
 11
-28.89128604348252
 21
41.6561533209557
 31
0.0
  0
LINE
  5
2C2
330
1F
100
AcDbEntity
  8
0
  6
Continuous
 62
     7
370
    13
100
AcDbLine
 10
60.32570934015968
 20
26.6561533209557
 30
0.0
 11
60.32570934015968
 21
-53.34384667904428
 31
0.0
  0
LINE
  5
2C3
330
1F
100
AcDbEntity
  8
0
  6
Continuous
 62
     7
370
    13
100
AcDbLine
 10
52.82570934015968
 20
33.25615332095572
 30
0.0
 11
52.82570934015968
 21
25.25615332095572
 31
0.0
  0
LINE
  5
2C4
330
1F
100
AcDbEntity
  8
0
  6
Continuous
 62
     7
370
    13
100
AcDbLine
 10
52.82570934015968
 20
25.25615332095572
 30
0.0
 11
57.82570934015968
 21
25.25615332095572
 31
0.0
  0
LINE
  5
2C5
330
1F
100
AcDbEntity
  8
0
  6
Continuous
 62
     7
370
    13
100
AcDbLine
 10
57.82570934015968
 20
25.25615332095572
 30
0.0
 11
57.82570934015968
 21
7.256153320955718
 31
0.0
  0
LINE
  5
2C6
330
1F
100
AcDbEntity
  8
0
  6
Continuous
 62
     7
370
    13
100
AcDbLine
 10
52.82570934015968
 20
25.25615332095572
 30
0.0
 11
52.82570934015968
 21
7.256153320955718
 31
0.0
  0
LINE
  5
2C7
330
1F
100
AcDbEntity
  8
0
  6
Continuous
 62
     7
370
    13
100
AcDbLine
 10
57.82570934015968
 20
7.256153320955718
 30
0.0
 11
52.82570934015968
 21
7.256153320955718
 31
0.0
  0
LINE
  5
2C8
330
1F
100
AcDbEntity
  8
0
  6
Continuous
 62
     7
370
    13
100
AcDbLine
 10
52.82570934015968
 20
7.256153320955718
 30
0.0
 11
52.82570934015968
 21
-0.7438466790442817
 31
0.0
  0
LINE
  5
2C9
330
1F
100
AcDbEntity
  8
0
  6
Continuous
 62
     7
370
    13
100
AcDbLine
 10
90.3257093401595
 20
-58.34384667904428
 30
0.0
 11
90.3257093401595
 21
-55.14384667904429
 31
0.0
  0
LINE
  5
2CA
330
1F
100
AcDbEntity
  8
0
  6
Continuous
 62
     7
370
    13
100
AcDbLine
 10
90.3257093401595
 20
28.45615332095571
 30
0.0
 11
90.3257093401595
 21
31.6561533209557
 31
0.0
  0
LINE
  5
2CB
330
1F
100
AcDbEntity
  8
0
  6
Continuous
 62
     7
370
    13
100
AcDbLine
 10
65.32570934015968
 20
-55.14384667904429
 30
0.0
 11
90.3257093401595
 21
-55.14384667904429
 31
0.0
  0
LINE
  5
2CC
330
1F
100
AcDbEntity
  8
0
  6
Continuous
 62
     7
370
    13
100
AcDbLine
 10
63.52570934015978
 20
-53.34384667904428
 30
0.0
 11
63.52570934015978
 21
26.6561533209557
 31
0.0
  0
LINE
  5
2CD
330
1F
100
AcDbEntity
  8
0
  6
Continuous
 62
     7
370
    13
100
AcDbLine
 10
65.32570934015968
 20
28.45615332095571
 30
0.0
 11
90.3257093401595
 21
28.45615332095571
 31
0.0
  0
LINE
  5
2CE
330
1F
100
AcDbEntity
  8
0
  6
Continuous
 62
     7
370
    13
100
AcDbLine
 10
65.32570934015968
 20
-58.34384667904428
 30
0.0
 11
90.3257093401595
 21
-58.34384667904428
 31
0.0
  0
LINE
  5
2CF
330
1F
100
AcDbEntity
  8
0
  6
Continuous
 62
     7
370
    13
100
AcDbLine
 10
65.32570934015968
 20
31.6561533209557
 30
0.0
 11
90.3257093401595
 21
31.6561533209557
 31
0.0
  0
LINE
  5
2D0
330
1F
100
AcDbEntity
  8
0
  6
Continuous
 62
     7
370
    13
100
AcDbLine
 10
5.970405699649973
 20
-58.34384667904428
 30
0.0
 11
3.857570346882085
 21
-40.84384667904428
 31
0.0
  0
LINE
  5
2D1
330
1F
100
AcDbEntity
  8
0
  6
Continuous
 62
     7
370
    13
100
AcDbLine
 10
11.00671527522758
 20
-58.34384667904428
 30
0.0
 11
-0.6923145595990263
 21
38.5558108552022
 31
0.0
  0
LINE
  5
2D2
330
1F
100
AcDbEntity
  8
0
  6
Continuous
 62
     7
370
    13
100
AcDbLine
 10
8.772291327544508
 20
116.6561533209559
 30
0.0
 11
13.32570934015922
 21
116.6561533209559
 31
0.0
  0
LINE
  5
2D3
330
1F
100
AcDbEntity
  8
0
  6
Continuous
 62
     7
370
    13
100
AcDbLine
 10
13.32570934015922
 20
116.6561533209559
 30
0.0
 11
13.32570934015922
 21
106.6561533209559
 31
0.0
  0
LINE
  5
2D4
330
1F
100
AcDbEntity
  8
0
  6
Continuous
 62
     7
370
    13
100
AcDbLine
 10
13.32570934015922
 20
106.6561533209559
 30
0.0
 11
8.772291327544508
 21
106.6561533209559
 31
0.0
  0
LINE
  5
2D5
330
1F
100
AcDbEntity
  8
0
  6
Continuous
 62
     7
370
    13
100
AcDbLine
 10
13.32570934015922
 20
111.6561533209557
 30
0.0
 11
8.772291327544508
 21
111.6561533209557
 31
0.0
  0
LINE
  5
2D6
330
1F
100
AcDbEntity
  8
0
  6
Continuous
 62
     7
370
    13
100
AcDbLine
 10
8.325709340159221
 20
114.1561533209558
 30
0.0
 11
8.325709340159221
 21
109.1561533209556
 31
0.0
  0
LINE
  5
2D7
330
1F
100
AcDbEntity
  8
0
  6
Continuous
 62
     7
370
    13
100
AcDbLine
 10
15.82570934015951
 20
114.6561533209558
 30
0.0
 11
13.32570934015922
 21
114.6561533209558
 31
0.0
  0
LINE
  5
2D8
330
1F
100
AcDbEntity
  8
0
  6
Continuous
 62
     7
370
    13
100
AcDbLine
 10
15.82570934015951
 20
108.6561533209558
 30
0.0
 11
13.32570934015922
 21
108.6561533209558
 31
0.0
  0
LINE
  5
2D9
330
1F
100
AcDbEntity
  8
0
  6
Continuous
 62
     7
370
    13
100
AcDbLine
 10
5.325709340159506
 20
114.6561533209558
 30
0.0
 11
8.325709340159221
 21
114.6561533209558
 31
0.0
  0
LINE
  5
2DA
330
1F
100
AcDbEntity
  8
0
  6
Continuous
 62
     7
370
    13
100
AcDbLine
 10
5.325709340159506
 20
108.6561533209559
 30
0.0
 11
8.325709340159221
 21
108.6561533209558
 31
0.0
  0
LINE
  5
2DB
330
1F
100
AcDbEntity
  8
0
  6
Continuous
 62
     7
370
    13
100
AcDbLine
 10
5.325709340159506
 20
114.6561533209558
 30
0.0
 11
5.325709340159506
 21
108.6561533209559
 31
0.0
  0
LINE
  5
2DC
330
1F
100
AcDbEntity
  8
0
  6
Continuous
 62
     7
370
    13
100
AcDbLine
 10
-9.874290659840426
 20
109.5561533209557
 30
0.0
 11
-9.874290659840426
 21
109.9561533209557
 31
0.0
  0
LINE
  5
2DD
330
1F
100
AcDbEntity
  8
0
  6
Continuous
 62
     7
370
    13
100
AcDbLine
 10
-9.874290659840426
 20
113.7561533209557
 30
0.0
 11
-13.67429065984049
 21
115.6561533209557
 31
0.0
  0
LINE
  5
2DE
330
1F
100
AcDbEntity
  8
0
  6
Continuous
 62
     7
370
    13
100
AcDbLine
 10
-9.874290659840426
 20
109.5561533209557
 30
0.0
 11
-13.67429065984049
 21
107.6561533209557
 31
0.0
  0
LINE
  5
2DF
330
1F
100
AcDbEntity
  8
0
  6
Continuous
 62
     7
370
    13
100
AcDbLine
 10
-16.17429065984049
 20
118.6561533209558
 30
0.0
 11
-16.17429065984049
 21
117.1561533209557
 31
0.0
  0
LINE
  5
2E0
330
1F
100
AcDbEntity
  8
0
  6
Continuous
 62
     7
370
    13
100
AcDbLine
 10
-16.17429065984049
 20
106.1561533209557
 30
0.0
 11
-16.17429065984049
 21
104.6561533209557
 31
0.0
  0
LINE
  5
2E1
330
1F
100
AcDbEntity
  8
0
  6
Continuous
 62
     7
370
    13
100
AcDbLine
 10
-16.17429065984049
 20
99.6561533209557
 30
0.0
 11
-16.17429065984049
 21
97.6561533209557
 31
0.0
  0
LINE
  5
2E2
330
1F
100
AcDbEntity
  8
0
  6
Continuous
 62
     7
370
    13
100
AcDbLine
 10
-17.67429065984061
 20
104.1561533209557
 30
0.0
 11
-17.67429065984061
 21
100.1561533209557
 31
0.0
  0
LINE
  5
2E3
330
1F
100
AcDbEntity
  8
0
  6
Continuous
 62
     7
370
    13
100
AcDbLine
 10
-17.67429065984061
 20
108.0561533209557
 30
0.0
 11
-17.67429065984061
 21
106.6561533209557
 31
0.0
  0
LINE
  5
2E4
330
1F
100
AcDbEntity
  8
0
  6
Continuous
 62
     7
370
    13
100
AcDbLine
 10
-17.67429065984061
 20
116.6561533209557
 30
0.0
 11
-17.67429065984061
 21
115.2561533209557
 31
0.0
  0
LINE
  5
2E5
330
1F
100
AcDbEntity
  8
0
  6
Continuous
 62
     7
370
    13
100
AcDbLine
 10
-17.67429065984061
 20
123.1561533209557
 30
0.0
 11
-17.67429065984061
 21
119.1561533209557
 31
0.0
  0
LINE
  5
2E6
330
1F
100
AcDbEntity
  8
0
  6
Continuous
 62
     7
370
    13
100
AcDbLine
 10
-17.17429065984049
 20
99.6561533209557
 30
0.0
 11
-16.17429065984049
 21
99.6561533209557
 31
0.0
  0
LINE
  5
2E7
330
1F
100
AcDbEntity
  8
0
  6
Continuous
 62
     7
370
    13
100
AcDbLine
 10
-17.17429065984049
 20
104.6561533209557
 30
0.0
 11
-16.17429065984049
 21
104.6561533209557
 31
0.0
  0
LINE
  5
2E8
330
1F
100
AcDbEntity
  8
0
  6
Continuous
 62
     7
370
    13
100
AcDbLine
 10
-17.17429065984049
 20
106.1561533209557
 30
0.0
 11
-16.17429065984049
 21
106.1561533209557
 31
0.0
  0
LINE
  5
2E9
330
1F
100
AcDbEntity
  8
0
  6
Continuous
 62
     7
370
    13
100
AcDbLine
 10
-17.17429065984049
 20
117.1561533209557
 30
0.0
 11
-16.17429065984049
 21
117.1561533209557
 31
0.0
  0
LINE
  5
2EA
330
1F
100
AcDbEntity
  8
0
  6
Continuous
 62
     7
370
    13
100
AcDbLine
 10
-17.17429065984049
 20
118.6561533209558
 30
0.0
 11
-16.17429065984049
 21
118.6561533209558
 31
0.0
  0
LINE
  5
2EB
330
1F
100
AcDbEntity
  8
0
  6
Continuous
 62
     7
370
    13
100
AcDbLine
 10
-17.17429065984049
 20
123.6561533209557
 30
0.0
 11
-16.17429065984049
 21
123.6561533209557
 31
0.0
  0
LINE
  5
2EC
330
1F
100
AcDbEntity
  8
0
  6
Continuous
 62
     7
370
    13
100
AcDbLine
 10
-17.67429065984061
 20
112.3561533209558
 30
0.0
 11
-17.67429065984061
 21
110.9561533209557
 31
0.0
  0
LINE
  5
2ED
330
1F
100
AcDbEntity
  8
0
  6
Continuous
 62
     7
370
    13
100
AcDbLine
 10
-9.874290659840426
 20
113.3561533209558
 30
0.0
 11
-16.67429065984049
 21
113.3561533209558
 31
0.0
  0
LINE
  5
2EE
330
1F
100
AcDbEntity
  8
0
  6
Continuous
 62
     7
370
    13
100
AcDbLine
 10
-13.67429065984049
 20
114.7561533209557
 30
0.0
 11
-17.17429065984049
 21
114.7561533209557
 31
0.0
  0
LINE
  5
2EF
330
1F
100
AcDbEntity
  8
0
  6
Continuous
 62
     7
370
    13
100
AcDbLine
 10
-13.67429065984049
 20
115.6561533209557
 30
0.0
 11
-13.67429065984049
 21
114.7561533209557
 31
0.0
  0
LINE
  5
2F0
330
1F
100
AcDbEntity
  8
0
  6
Continuous
 62
     7
370
    13
100
AcDbLine
 10
-9.874290659840426
 20
113.3561533209558
 30
0.0
 11
-9.874290659840426
 21
113.7561533209557
 31
0.0
  0
LINE
  5
2F1
330
1F
100
AcDbEntity
  8
0
  6
Continuous
 62
     7
370
    13
100
AcDbLine
 10
-17.67429065984061
 20
125.6561533209557
 30
0.0
 11
-16.17429065984049
 21
125.6561533209558
 31
0.0
  0
LINE
  5
2F2
330
1F
100
AcDbEntity
  8
0
  6
Continuous
 62
     7
370
    13
100
AcDbLine
 10
-17.67429065984061
 20
97.6561533209557
 30
0.0
 11
-16.17429065984049
 21
97.6561533209557
 31
0.0
  0
LINE
  5
2F3
330
1F
100
AcDbEntity
  8
0
  6
Continuous
 62
     7
370
    13
100
AcDbLine
 10
-19.17429065984072
 20
124.1561533209557
 30
0.0
 11
-19.17429065984061
 21
99.1561533209557
 31
0.0
  0
LINE
  5
2F4
330
1F
100
AcDbEntity
  8
0
  6
Continuous
 62
     7
370
    13
100
AcDbLine
 10
-16.17429065984049
 20
125.6561533209558
 30
0.0
 11
-16.17429065984049
 21
123.6561533209557
 31
0.0
  0
LINE
  5
2F5
330
1F
100
AcDbEntity
  8
0
  6
Continuous
 62
     7
370
    13
100
AcDbLine
 10
-16.67429065984049
 20
109.9561533209557
 30
0.0
 11
-9.874290659840426
 21
109.9561533209557
 31
0.0
  0
LINE
  5
2F6
330
1F
100
AcDbEntity
  8
0
  6
Continuous
 62
     7
370
    13
100
AcDbLine
 10
-13.67429065984049
 20
108.5561533209557
 30
0.0
 11
-17.17429065984049
 21
108.5561533209557
 31
0.0
  0
LINE
  5
2F7
330
1F
100
AcDbEntity
  8
0
  6
Continuous
 62
     7
370
    13
100
AcDbLine
 10
-13.67429065984049
 20
108.5561533209557
 30
0.0
 11
-13.67429065984049
 21
107.6561533209557
 31
0.0
  0
LINE
  5
2F8
330
1F
100
AcDbEntity
  8
0
  6
Continuous
 62
     7
370
    13
100
AcDbLine
 10
-17.67429065984061
 20
110.9561533209557
 30
0.0
 11
-17.67429065984061
 21
110.8592111332416
 31
0.0
  0
LINE
  5
2F9
330
1F
100
AcDbEntity
  8
0
  6
Continuous
 62
     7
370
    13
100
AcDbLine
 10
44.82570934015951
 20
127.6561533209559
 30
0.0
 11
17.82570934015962
 21
127.6561533209559
 31
0.0
  0
LINE
  5
2FA
330
1F
100
AcDbEntity
  8
0
  6
Continuous
 62
     7
370
    13
100
AcDbLine
 10
46.82570934015951
 20
97.65615332095592
 30
0.0
 11
46.82570934015951
 21
125.6561533209559
 31
0.0
  0
LINE
  5
2FB
330
1F
100
AcDbEntity
  8
0
  6
Continuous
 62
     7
370
    13
100
AcDbLine
 10
17.82570934015962
 20
95.65615332095592
 30
0.0
 11
44.82570934015951
 21
95.65615332095592
 31
0.0
  0
LINE
  5
2FC
330
1F
100
AcDbEntity
  8
0
  6
Continuous
 62
     7
370
    13
100
AcDbLine
 10
15.82570934015951
 20
125.6561533209558
 30
0.0
 11
15.82570934015951
 21
97.6561533209557
 31
0.0
  0
LINE
  5
2FD
330
1F
100
AcDbEntity
  8
0
  6
Continuous
 62
     7
370
    13
100
AcDbLine
 10
15.82570934015951
 20
125.6561533209558
 30
0.0
 11
15.82570934015951
 21
114.9061533209557
 31
0.0
  0
LINE
  5
2FE
330
1F
100
AcDbEntity
  8
0
  6
Continuous
 62
     7
370
    13
100
AcDbLine
 10
15.82570934015951
 20
108.4061533209557
 30
0.0
 11
15.82570934015951
 21
97.6561533209557
 31
0.0
  0
LINE
  5
2FF
330
1F
100
AcDbEntity
  8
0
  6
Continuous
 62
     7
370
    13
100
AcDbLine
 10
-14.17429065984049
 20
127.6561533209557
 30
0.0
 11
-3.424290659840494
 21
127.6561533209557
 31
0.0
  0
LINE
  5
300
330
1F
100
AcDbEntity
  8
0
  6
Continuous
 62
     7
370
    13
100
AcDbLine
 10
-14.17429065984049
 20
95.6561533209557
 30
0.0
 11
-3.424290659840608
 21
95.6561533209557
 31
0.0
  0
LINE
  5
301
330
1F
100
AcDbEntity
  8
0
  6
Continuous
 62
     7
370
    13
100
AcDbLine
 10
15.82570934015951
 20
125.6561533209558
 30
0.0
 11
15.82570934015951
 21
114.9061533209557
 31
0.0
  0
LINE
  5
302
330
1F
100
AcDbEntity
  8
0
  6
Continuous
 62
     7
370
    13
100
AcDbLine
 10
-16.17429065984049
 20
125.6561533209558
 30
0.0
 11
-16.17429065984049
 21
114.9061533209557
 31
0.0
  0
LINE
  5
303
330
1F
100
AcDbEntity
  8
0
  6
Continuous
 62
     7
370
    13
100
AcDbLine
 10
-16.17429065984049
 20
114.9061533209557
 30
0.0
 11
-13.67429065984049
 21
114.9061533209557
 31
0.0
  0
LINE
  5
304
330
1F
100
AcDbEntity
  8
0
  6
Continuous
 62
     7
370
    13
100
AcDbLine
 10
-13.67429065984049
 20
116.9061533209557
 30
0.0
 11
-7.674290659840494
 21
116.9061533209557
 31
0.0
  0
LINE
  5
305
330
1F
100
AcDbEntity
  8
0
  6
Continuous
 62
     7
370
    13
100
AcDbLine
 10
-7.674290659840494
 20
114.9061533209557
 30
0.0
 11
-5.174290659840494
 21
114.9061533209557
 31
0.0
  0
LINE
  5
306
330
1F
100
AcDbEntity
  8
0
  6
Continuous
 62
     7
370
    13
100
AcDbLine
 10
-16.17429065984049
 20
108.4061533209557
 30
0.0
 11
-13.67429065984049
 21
108.4061533209557
 31
0.0
  0
LINE
  5
307
330
1F
100
AcDbEntity
  8
0
  6
Continuous
 62
     7
370
    13
100
AcDbLine
 10
-13.67429065984049
 20
106.4061533209557
 30
0.0
 11
-7.674290659840494
 21
106.4061533209557
 31
0.0
  0
LINE
  5
308
330
1F
100
AcDbEntity
  8
0
  6
Continuous
 62
     7
370
    13
100
AcDbLine
 10
-7.674290659840494
 20
108.4061533209557
 30
0.0
 11
-5.174290659840494
 21
108.4061533209557
 31
0.0
  0
LINE
  5
309
330
1F
100
AcDbEntity
  8
0
  6
Continuous
 62
     7
370
    13
100
AcDbLine
 10
-5.174290659840494
 20
114.9061533209557
 30
0.0
 11
-5.174290659840494
 21
108.4061533209557
 31
0.0
  0
LINE
  5
30A
330
1F
100
AcDbEntity
  8
0
  6
Continuous
 62
     7
370
    13
100
AcDbLine
 10
-7.674290659840494
 20
116.9061533209557
 30
0.0
 11
-7.674290659840494
 21
114.9061533209557
 31
0.0
  0
LINE
  5
30B
330
1F
100
AcDbEntity
  8
0
  6
Continuous
 62
     7
370
    13
100
AcDbLine
 10
-7.674290659840494
 20
108.4061533209557
 30
0.0
 11
-7.674290659840494
 21
106.4061533209557
 31
0.0
  0
LINE
  5
30C
330
1F
100
AcDbEntity
  8
0
  6
Continuous
 62
     7
370
    13
100
AcDbLine
 10
-13.67429065984049
 20
116.9061533209557
 30
0.0
 11
-13.67429065984049
 21
114.9061533209557
 31
0.0
  0
LINE
  5
30D
330
1F
100
AcDbEntity
  8
0
  6
Continuous
 62
     7
370
    13
100
AcDbLine
 10
-13.67429065984049
 20
108.4061533209557
 30
0.0
 11
-13.67429065984049
 21
106.4061533209557
 31
0.0
  0
LINE
  5
30E
330
1F
100
AcDbEntity
  8
0
  6
Continuous
 62
     7
370
    13
100
AcDbLine
 10
-16.17429065984049
 20
108.4061533209557
 30
0.0
 11
-16.17429065984049
 21
97.6561533209557
 31
0.0
  0
LINE
  5
30F
330
1F
100
AcDbEntity
  8
0
  6
Continuous
 62
     7
370
    13
100
AcDbLine
 10
-3.424290659840608
 20
95.6561533209557
 30
0.0
 11
-3.424290659840608
 21
98.1561533209557
 31
0.0
  0
LINE
  5
310
330
1F
100
AcDbEntity
  8
0
  6
Continuous
 62
     7
370
    13
100
AcDbLine
 10
-5.424290659840608
 20
98.1561533209557
 30
0.0
 11
-5.424290659840608
 21
104.1561533209557
 31
0.0
  0
LINE
  5
311
330
1F
100
AcDbEntity
  8
0
  6
Continuous
 62
     7
370
    13
100
AcDbLine
 10
-3.424290659840608
 20
104.1561533209557
 30
0.0
 11
-3.424290659840608
 21
106.6561533209557
 31
0.0
  0
LINE
  5
312
330
1F
100
AcDbEntity
  8
0
  6
Continuous
 62
     7
370
    13
100
AcDbLine
 10
3.075709340159221
 20
95.6561533209557
 30
0.0
 11
3.075709340159221
 21
98.1561533209557
 31
0.0
  0
LINE
  5
313
330
1F
100
AcDbEntity
  8
0
  6
Continuous
 62
     7
370
    13
100
AcDbLine
 10
5.075709340159221
 20
98.1561533209557
 30
0.0
 11
5.075709340159221
 21
104.1561533209557
 31
0.0
  0
LINE
  5
314
330
1F
100
AcDbEntity
  8
0
  6
Continuous
 62
     7
370
    13
100
AcDbLine
 10
3.075709340159221
 20
104.1561533209557
 30
0.0
 11
3.075709340159221
 21
106.6561533209557
 31
0.0
  0
LINE
  5
315
330
1F
100
AcDbEntity
  8
0
  6
Continuous
 62
     7
370
    13
100
AcDbLine
 10
-3.424290659840608
 20
106.6561533209557
 30
0.0
 11
3.075709340159221
 21
106.6561533209557
 31
0.0
  0
LINE
  5
316
330
1F
100
AcDbEntity
  8
0
  6
Continuous
 62
     7
370
    13
100
AcDbLine
 10
-5.424290659840608
 20
104.1561533209557
 30
0.0
 11
-3.424290659840608
 21
104.1561533209557
 31
0.0
  0
LINE
  5
317
330
1F
100
AcDbEntity
  8
0
  6
Continuous
 62
     7
370
    13
100
AcDbLine
 10
3.075709340159221
 20
104.1561533209557
 30
0.0
 11
5.075709340159221
 21
104.1561533209557
 31
0.0
  0
LINE
  5
318
330
1F
100
AcDbEntity
  8
0
  6
Continuous
 62
     7
370
    13
100
AcDbLine
 10
-5.424290659840608
 20
98.1561533209557
 30
0.0
 11
-3.424290659840608
 21
98.1561533209557
 31
0.0
  0
LINE
  5
319
330
1F
100
AcDbEntity
  8
0
  6
Continuous
 62
     7
370
    13
100
AcDbLine
 10
3.075709340159221
 20
98.1561533209557
 30
0.0
 11
5.075709340159221
 21
98.1561533209557
 31
0.0
  0
LINE
  5
31A
330
1F
100
AcDbEntity
  8
0
  6
Continuous
 62
     7
370
    13
100
AcDbLine
 10
15.82570934015951
 20
108.4061533209557
 30
0.0
 11
13.32570934015922
 21
108.4061533209557
 31
0.0
  0
LINE
  5
31B
330
1F
100
AcDbEntity
  8
0
  6
Continuous
 62
     7
370
    13
100
AcDbLine
 10
13.32570934015922
 20
106.4061533209557
 30
0.0
 11
7.325709340159221
 21
106.4061533209557
 31
0.0
  0
LINE
  5
31C
330
1F
100
AcDbEntity
  8
0
  6
Continuous
 62
     7
370
    13
100
AcDbLine
 10
7.325709340159221
 20
108.4061533209557
 30
0.0
 11
4.825709340159221
 21
108.4061533209557
 31
0.0
  0
LINE
  5
31D
330
1F
100
AcDbEntity
  8
0
  6
Continuous
 62
     7
370
    13
100
AcDbLine
 10
15.82570934015951
 20
114.9061533209557
 30
0.0
 11
13.32570934015922
 21
114.9061533209557
 31
0.0
  0
LINE
  5
31E
330
1F
100
AcDbEntity
  8
0
  6
Continuous
 62
     7
370
    13
100
AcDbLine
 10
13.32570934015922
 20
116.9061533209557
 30
0.0
 11
7.325709340159221
 21
116.9061533209557
 31
0.0
  0
LINE
  5
31F
330
1F
100
AcDbEntity
  8
0
  6
Continuous
 62
     7
370
    13
100
AcDbLine
 10
7.325709340159221
 20
114.9061533209557
 30
0.0
 11
4.825709340159221
 21
114.9061533209557
 31
0.0
  0
LINE
  5
320
330
1F
100
AcDbEntity
  8
0
  6
Continuous
 62
     7
370
    13
100
AcDbLine
 10
4.825709340159221
 20
108.4061533209557
 30
0.0
 11
4.825709340159221
 21
114.9061533209557
 31
0.0
  0
LINE
  5
321
330
1F
100
AcDbEntity
  8
0
  6
Continuous
 62
     7
370
    13
100
AcDbLine
 10
7.325709340159221
 20
106.4061533209557
 30
0.0
 11
7.325709340159221
 21
108.4061533209557
 31
0.0
  0
LINE
  5
322
330
1F
100
AcDbEntity
  8
0
  6
Continuous
 62
     7
370
    13
100
AcDbLine
 10
7.325709340159221
 20
114.9061533209557
 30
0.0
 11
7.325709340159221
 21
116.9061533209557
 31
0.0
  0
LINE
  5
323
330
1F
100
AcDbEntity
  8
0
  6
Continuous
 62
     7
370
    13
100
AcDbLine
 10
13.32570934015922
 20
106.4061533209557
 30
0.0
 11
13.32570934015922
 21
108.4061533209557
 31
0.0
  0
LINE
  5
324
330
1F
100
AcDbEntity
  8
0
  6
Continuous
 62
     7
370
    13
100
AcDbLine
 10
13.32570934015922
 20
114.9061533209557
 30
0.0
 11
13.32570934015922
 21
116.9061533209557
 31
0.0
  0
LINE
  5
325
330
1F
100
AcDbEntity
  8
0
  6
Continuous
 62
     7
370
    13
100
AcDbLine
 10
3.075709340159506
 20
127.6561533209557
 30
0.0
 11
3.075709340159506
 21
125.1561533209557
 31
0.0
  0
LINE
  5
326
330
1F
100
AcDbEntity
  8
0
  6
Continuous
 62
     7
370
    13
100
AcDbLine
 10
5.075709340159506
 20
125.1561533209557
 30
0.0
 11
5.075709340159506
 21
119.1561533209557
 31
0.0
  0
LINE
  5
327
330
1F
100
AcDbEntity
  8
0
  6
Continuous
 62
     7
370
    13
100
AcDbLine
 10
3.075709340159506
 20
119.1561533209557
 30
0.0
 11
3.075709340159506
 21
116.6561533209557
 31
0.0
  0
LINE
  5
328
330
1F
100
AcDbEntity
  8
0
  6
Continuous
 62
     7
370
    13
100
AcDbLine
 10
-3.424290659840494
 20
127.6561533209557
 30
0.0
 11
-3.424290659840494
 21
125.1561533209557
 31
0.0
  0
LINE
  5
329
330
1F
100
AcDbEntity
  8
0
  6
Continuous
 62
     7
370
    13
100
AcDbLine
 10
-5.424290659840494
 20
125.1561533209557
 30
0.0
 11
-5.424290659840494
 21
119.1561533209557
 31
0.0
  0
LINE
  5
32A
330
1F
100
AcDbEntity
  8
0
  6
Continuous
 62
     7
370
    13
100
AcDbLine
 10
-3.424290659840494
 20
119.1561533209557
 30
0.0
 11
-3.424290659840494
 21
116.6561533209557
 31
0.0
  0
LINE
  5
32B
330
1F
100
AcDbEntity
  8
0
  6
Continuous
 62
     7
370
    13
100
AcDbLine
 10
3.075709340159506
 20
116.6561533209557
 30
0.0
 11
-3.424290659840494
 21
116.6561533209557
 31
0.0
  0
LINE
  5
32C
330
1F
100
AcDbEntity
  8
0
  6
Continuous
 62
     7
370
    13
100
AcDbLine
 10
5.075709340159506
 20
119.1561533209557
 30
0.0
 11
3.075709340159506
 21
119.1561533209557
 31
0.0
  0
LINE
  5
32D
330
1F
100
AcDbEntity
  8
0
  6
Continuous
 62
     7
370
    13
100
AcDbLine
 10
-3.424290659840494
 20
119.1561533209557
 30
0.0
 11
-5.424290659840494
 21
119.1561533209557
 31
0.0
  0
LINE
  5
32E
330
1F
100
AcDbEntity
  8
0
  6
Continuous
 62
     7
370
    13
100
AcDbLine
 10
5.075709340159506
 20
125.1561533209557
 30
0.0
 11
3.075709340159506
 21
125.1561533209557
 31
0.0
  0
LINE
  5
32F
330
1F
100
AcDbEntity
  8
0
  6
Continuous
 62
     7
370
    13
100
AcDbLine
 10
-3.424290659840494
 20
125.1561533209557
 30
0.0
 11
-5.424290659840494
 21
125.1561533209557
 31
0.0
  0
LINE
  5
330
330
1F
100
AcDbEntity
  8
0
  6
Continuous
 62
     7
370
    13
100
AcDbLine
 10
3.075709340159221
 20
95.6561533209557
 30
0.0
 11
13.82570934015951
 21
95.6561533209557
 31
0.0
  0
LINE
  5
331
330
1F
100
AcDbEntity
  8
0
  6
Continuous
 62
     7
370
    13
100
AcDbLine
 10
3.075709340159506
 20
127.6561533209557
 30
0.0
 11
13.82570934015951
 21
127.6561533209557
 31
0.0
  0
LINE
  5
332
330
1F
100
AcDbEntity
  8
0
  6
Continuous
 62
     7
370
    13
100
AcDbLine
 10
15.82570934015951
 20
108.4061533209557
 30
0.0
 11
15.82570934015951
 21
97.6561533209557
 31
0.0
  0
LINE
  5
333
330
1F
100
AcDbEntity
  8
0
  6
Continuous
 62
     7
370
    13
100
AcDbLine
 10
43.79536445476248
 20
142.3076475449241
 30
0.0
 11
43.79536445476248
 21
133.1561533209559
 31
0.0
  0
LINE
  5
334
330
1F
100
AcDbEntity
  8
0
  6
Continuous
 62
     7
370
    13
100
AcDbLine
 10
21.82570934015951
 20
133.1561533209559
 30
0.0
 11
43.82570934015939
 21
133.1561533209559
 31
0.0
  0
LINE
  5
335
330
1F
100
AcDbEntity
  8
0
  6
Continuous
 62
     7
370
    13
100
AcDbLine
 10
29.82570934015951
 20
130.1561533209559
 30
0.0
 11
32.82570934015951
 21
133.1561533209559
 31
0.0
  0
LINE
  5
336
330
1F
100
AcDbEntity
  8
0
  6
Continuous
 62
     7
370
    13
100
AcDbLine
 10
32.82570934015951
 20
130.1561533209559
 30
0.0
 11
35.82570934015951
 21
133.1561533209559
 31
0.0
  0
LINE
  5
337
330
1F
100
AcDbEntity
  8
0
  6
Continuous
 62
     7
370
    13
100
AcDbLine
 10
43.57570934015951
 20
133.1561533209559
 30
0.0
 11
43.57570934015951
 21
130.1561533209559
 31
0.0
  0
LINE
  5
338
330
1F
100
AcDbEntity
  8
0
  6
Continuous
 62
     7
370
    13
100
AcDbLine
 10
22.07570934015951
 20
130.1561533209559
 30
0.0
 11
22.07570934015951
 21
133.1561533209559
 31
0.0
  0
LINE
  5
339
330
1F
100
AcDbEntity
  8
0
  6
Continuous
 62
     7
370
    13
100
AcDbLine
 10
44.82570934015951
 20
130.1561533209559
 30
0.0
 11
44.82570934015951
 21
127.6561533209559
 31
0.0
  0
LINE
  5
33A
330
1F
100
AcDbEntity
  8
0
  6
Continuous
 62
     7
370
    13
100
AcDbLine
 10
20.82570934015951
 20
130.1561533209559
 30
0.0
 11
44.82570934015951
 21
130.1561533209559
 31
0.0
  0
LINE
  5
33B
330
1F
100
AcDbEntity
  8
0
  6
Continuous
 62
     7
370
    13
100
AcDbLine
 10
20.82570934015951
 20
127.6561533209559
 30
0.0
 11
20.82570934015951
 21
130.1561533209559
 31
0.0
  0
LINE
  5
33C
330
1F
100
AcDbEntity
  8
0
  6
Continuous
 62
     7
370
    13
100
AcDbLine
 10
41.05295067611172
 20
85.65615332095592
 30
0.0
 11
24.5984680042074
 21
85.65615332095592
 31
0.0
  0
LINE
  5
33D
330
1F
100
AcDbEntity
  8
0
  6
Continuous
 62
     7
370
    13
100
AcDbLine
 10
38.31053689746091
 20
95.65615332095592
 30
0.0
 11
38.31053689746091
 21
86.5046590969879
 31
0.0
  0
LINE
  5
33E
330
1F
100
AcDbEntity
  8
0
  6
Continuous
 62
     7
370
    13
100
AcDbLine
 10
27.3408817828581
 20
95.65615332095592
 30
0.0
 11
27.3408817828581
 21
86.5046590969879
 31
0.0
  0
LINE
  5
33F
330
1F
100
AcDbEntity
  8
0
  6
Continuous
 62
     7
370
    13
100
AcDbLine
 10
43.79536445476231
 20
95.65615332095592
 30
0.0
 11
43.79536445476231
 21
86.5046590969879
 31
0.0
  0
LINE
  5
340
330
1F
100
AcDbEntity
  8
0
  6
Continuous
 62
     7
370
    13
100
AcDbLine
 10
21.85605422555659
 20
86.5046590969879
 30
0.0
 11
21.85605422555659
 21
95.65615332095592
 31
0.0
  0
LINE
  5
341
330
1F
100
AcDbEntity
  8
0
  6
Continuous
 62
     7
370
    13
100
AcDbLine
 10
24.59846800420752
 20
143.1561533209559
 30
0.0
 11
41.05295067611178
 21
143.1561533209559
 31
0.0
  0
LINE
  5
342
330
1F
100
AcDbEntity
  8
0
  6
Continuous
 62
     7
370
    13
100
AcDbLine
 10
27.3408817828581
 20
133.1561533209559
 30
0.0
 11
27.3408817828581
 21
142.3076475449241
 31
0.0
  0
LINE
  5
343
330
1F
100
AcDbEntity
  8
0
  6
Continuous
 62
     7
370
    13
100
AcDbLine
 10
38.31053689746108
 20
133.1561533209559
 30
0.0
 11
38.31053689746108
 21
142.3076475449241
 31
0.0
  0
LINE
  5
344
330
1F
100
AcDbEntity
  8
0
  6
Continuous
 62
     7
370
    13
100
AcDbLine
 10
21.8560542255567
 20
133.1561533209559
 30
0.0
 11
21.8560542255567
 21
142.3076475449241
 31
0.0
  0
LINE
  5
345
330
1F
100
AcDbEntity
  8
0
  6
Continuous
 62
     7
370
    13
100
AcDbLine
 10
69.5984680042074
 20
41.6561533209557
 30
0.0
 11
86.05295067611172
 21
41.6561533209557
 31
0.0
  0
LINE
  5
346
330
1F
100
AcDbEntity
  8
0
  6
Continuous
 62
     7
370
    13
100
AcDbLine
 10
72.3408817828581
 20
31.6561533209557
 30
0.0
 11
72.3408817828581
 21
40.80764754492384
 31
0.0
  0
LINE
  5
347
330
1F
100
AcDbEntity
  8
0
  6
Continuous
 62
     7
370
    13
100
AcDbLine
 10
83.3105368974609
 20
31.6561533209557
 30
0.0
 11
83.3105368974609
 21
40.80764754492384
 31
0.0
  0
LINE
  5
348
330
1F
100
AcDbEntity
  8
0
  6
Continuous
 62
     7
370
    13
100
AcDbLine
 10
66.8560542255567
 20
31.6561533209557
 30
0.0
 11
66.8560542255567
 21
40.80764754492384
 31
0.0
  0
LINE
  5
349
330
1F
100
AcDbEntity
  8
0
  6
Continuous
 62
     7
370
    13
100
AcDbLine
 10
88.79536445476248
 20
40.80764754492384
 30
0.0
 11
88.79536445476248
 21
31.6561533209557
 31
0.0
  0
LINE
  5
34A
330
1F
100
AcDbEntity
  8
0
  6
Continuous
 62
     7
370
    13
100
AcDbLine
 10
86.0529506761115
 20
15.45615332095571
 30
0.0
 11
69.59846800420718
 21
15.45615332095571
 31
0.0
  0
LINE
  5
34B
330
1F
100
AcDbEntity
  8
0
  6
Continuous
 62
     7
370
    13
100
AcDbLine
 10
83.31053689746079
 20
25.45615332095571
 30
0.0
 11
83.31053689746079
 21
16.30465909698762
 31
0.0
  0
LINE
  5
34C
330
1F
100
AcDbEntity
  8
0
  6
Continuous
 62
     7
370
    13
100
AcDbLine
 10
72.34088178285788
 20
25.45615332095571
 30
0.0
 11
72.34088178285788
 21
16.30465909698762
 31
0.0
  0
LINE
  5
34D
330
1F
100
AcDbEntity
  8
0
  6
Continuous
 62
     7
370
    13
100
AcDbLine
 10
88.7953644547623
 20
25.45615332095571
 30
0.0
 11
88.7953644547623
 21
16.30465909698762
 31
0.0
  0
LINE
  5
34E
330
1F
100
AcDbEntity
  8
0
  6
Continuous
 62
     7
370
    13
100
AcDbLine
 10
66.85605422555642
 20
25.45615332095571
 30
0.0
 11
88.7953644547623
 21
25.45615332095571
 31
0.0
  0
LINE
  5
34F
330
1F
100
AcDbEntity
  8
0
  6
Continuous
 62
     7
370
    13
100
AcDbLine
 10
66.85605422555642
 20
16.30465909698762
 30
0.0
 11
66.85605422555642
 21
25.45615332095571
 31
0.0
  0
LINE
  5
350
330
1F
100
AcDbEntity
  8
0
  6
Continuous
 62
     7
370
    13
100
AcDbLine
 10
80.82570934015939
 20
28.45615332095571
 30
0.0
 11
77.82570934015939
 21
25.45615332095571
 31
0.0
  0
LINE
  5
351
330
1F
100
AcDbEntity
  8
0
  6
Continuous
 62
     7
370
    13
100
AcDbLine
 10
77.82570934015939
 20
28.45615332095571
 30
0.0
 11
74.82570934015939
 21
25.45615332095571
 31
0.0
  0
LINE
  5
352
330
1F
100
AcDbEntity
  8
0
  6
Continuous
 62
     7
370
    13
100
AcDbLine
 10
67.07570934015939
 20
25.45615332095571
 30
0.0
 11
67.07570934015939
 21
28.45615332095571
 31
0.0
  0
LINE
  5
353
330
1F
100
AcDbEntity
  8
0
  6
Continuous
 62
     7
370
    13
100
AcDbLine
 10
88.57570934015939
 20
28.45615332095571
 30
0.0
 11
88.57570934015939
 21
25.45615332095571
 31
0.0
  0
LINE
  5
354
330
1F
100
AcDbEntity
  8
0
  6
Continuous
 62
     7
370
    13
100
AcDbLine
 10
24.32570934015951
 20
146.6561533209559
 30
0.0
 11
24.32570934015951
 21
144.0161693359114
 31
0.0
  0
LINE
  5
355
330
1F
100
AcDbEntity
  8
0
  6
Continuous
 62
     7
370
    13
100
AcDbLine
 10
41.32570934015951
 20
144.0161693359114
 30
0.0
 11
41.32570934015951
 21
146.6561533209559
 31
0.0
  0
LINE
  5
356
330
1F
100
AcDbEntity
  8
0
  6
Continuous
 62
     7
370
    13
100
AcDbLine
 10
256.602042230852
 20
142.3076475449238
 30
0.0
 11
256.602042230852
 21
133.1561533209557
 31
0.0
  0
LINE
  5
357
330
1F
100
AcDbEntity
  8
0
  6
Continuous
 62
     7
370
    13
100
AcDbLine
 10
234.632387116249
 20
133.1561533209557
 30
0.0
 11
256.6323871162488
 21
133.1561533209557
 31
0.0
  0
LINE
  5
358
330
1F
100
AcDbEntity
  8
0
  6
Continuous
 62
     7
370
    13
100
AcDbLine
 10
237.4051457802968
 20
143.1561533209557
 30
0.0
 11
253.8596284522012
 21
143.1561533209557
 31
0.0
  0
LINE
  5
359
330
1F
100
AcDbEntity
  8
0
  6
Continuous
 62
     7
370
    13
100
AcDbLine
 10
240.1475595589475
 20
133.1561533209557
 30
0.0
 11
240.1475595589475
 21
142.3076475449238
 31
0.0
  0
LINE
  5
35A
330
1F
100
AcDbEntity
  8
0
  6
Continuous
 62
     7
370
    13
100
AcDbLine
 10
251.1172146735505
 20
133.1561533209557
 30
0.0
 11
251.1172146735505
 21
142.3076475449238
 31
0.0
  0
LINE
  5
35B
330
1F
100
AcDbEntity
  8
0
  6
Continuous
 62
     7
370
    13
100
AcDbLine
 10
234.6627320016462
 20
133.1561533209557
 30
0.0
 11
234.6627320016462
 21
142.3076475449238
 31
0.0
  0
LINE
  5
35C
330
1F
100
AcDbEntity
  8
0
  6
Continuous
 62
     7
370
    13
100
AcDbLine
 10
237.132387116249
 20
146.6561533209557
 30
0.0
 11
237.132387116249
 21
144.0161693359112
 31
0.0
  0
LINE
  5
35D
330
1F
100
AcDbEntity
  8
0
  6
Continuous
 62
     7
370
    13
100
AcDbLine
 10
254.132387116249
 20
144.0161693359112
 30
0.0
 11
254.132387116249
 21
146.6561533209557
 31
0.0
  0
LINE
  5
35E
330
1F
100
AcDbEntity
  8
0
  6
Continuous
 62
     7
370
    13
100
AcDbLine
 10
253.8596284522012
 20
85.65615332095553
 30
0.0
 11
237.4051457802968
 21
85.65615332095553
 31
0.0
  0
LINE
  5
35F
330
1F
100
AcDbEntity
  8
0
  6
Continuous
 62
     7
370
    13
100
AcDbLine
 10
251.1172146735503
 20
95.65615332095553
 30
0.0
 11
251.1172146735503
 21
86.5046590969875
 31
0.0
  0
LINE
  5
360
330
1F
100
AcDbEntity
  8
0
  6
Continuous
 62
     7
370
    13
100
AcDbLine
 10
240.1475595589475
 20
95.65615332095553
 30
0.0
 11
240.1475595589475
 21
86.5046590969875
 31
0.0
  0
LINE
  5
361
330
1F
100
AcDbEntity
  8
0
  6
Continuous
 62
     7
370
    13
100
AcDbLine
 10
256.6020422308518
 20
95.65615332095553
 30
0.0
 11
256.6020422308518
 21
86.5046590969875
 31
0.0
  0
LINE
  5
362
330
1F
100
AcDbEntity
  8
0
  6
Continuous
 62
     7
370
    13
100
AcDbLine
 10
234.662732001646
 20
86.5046590969875
 30
0.0
 11
234.662732001646
 21
95.65615332095553
 31
0.0
  0
LINE
  5
363
330
1F
100
AcDbEntity
  8
0
  6
Continuous
 62
     7
370
    13
100
AcDbLine
 10
222.632387116249
 20
119.6561533209557
 30
0.0
 11
222.632387116249
 21
103.6561533209557
 31
0.0
  0
LINE
  5
364
330
1F
100
AcDbEntity
  8
0
  6
Continuous
 62
     7
370
    13
100
AcDbLine
 10
259.632387116249
 20
127.6561533209557
 30
0.0
 11
230.632387116249
 21
127.6561533209557
 31
0.0
  0
LINE
  5
365
330
1F
100
AcDbEntity
  8
0
  6
Continuous
 62
     7
370
    13
100
AcDbLine
 10
267.632387116249
 20
103.6561533209557
 30
0.0
 11
267.632387116249
 21
119.6561533209557
 31
0.0
  0
LINE
  5
366
330
1F
100
AcDbEntity
  8
0
  6
Continuous
 62
     7
370
    13
100
AcDbLine
 10
230.632387116249
 20
95.6561533209557
 30
0.0
 11
259.632387116249
 21
95.6561533209557
 31
0.0
  0
LINE
  5
367
330
1F
100
AcDbEntity
  8
0
  6
Continuous
 62
     7
370
    13
100
AcDbLine
 10
233.1073871162491
 20
109.1013783797916
 30
0.0
 11
230.1573871162491
 21
109.1013783797916
 31
0.0
  0
LINE
  5
368
330
1F
100
AcDbEntity
  8
0
  6
Continuous
 62
     7
370
    13
100
AcDbLine
 10
230.1573871162491
 20
109.1013783797916
 30
0.0
 11
228.6823871162492
 21
111.6561533209557
 31
0.0
  0
LINE
  5
369
330
1F
100
AcDbEntity
  8
0
  6
Continuous
 62
     7
370
    13
100
AcDbLine
 10
228.6823871162492
 20
111.6561533209557
 30
0.0
 11
230.1573871162491
 21
114.2109282621197
 31
0.0
  0
LINE
  5
36A
330
1F
100
AcDbEntity
  8
0
  6
Continuous
 62
     7
370
    13
100
AcDbLine
 10
230.1573871162491
 20
114.2109282621197
 30
0.0
 11
233.1073871162491
 21
114.2109282621197
 31
0.0
  0
LINE
  5
36B
330
1F
100
AcDbEntity
  8
0
  6
Continuous
 62
     7
370
    13
100
AcDbLine
 10
233.1073871162491
 20
114.2109282621197
 30
0.0
 11
234.582387116249
 21
111.6561533209557
 31
0.0
  0
LINE
  5
36C
330
1F
100
AcDbEntity
  8
0
  6
Continuous
 62
     7
370
    13
100
AcDbLine
 10
234.582387116249
 20
111.6561533209557
 30
0.0
 11
233.1073871162491
 21
109.1013783797916
 31
0.0
  0
LINE
  5
36D
330
1F
100
AcDbEntity
  8
0
  6
Continuous
 62
     7
370
    13
100
AcDbLine
 10
260.1073871162489
 20
109.1013783797916
 30
0.0
 11
257.1573871162489
 21
109.1013783797916
 31
0.0
  0
LINE
  5
36E
330
1F
100
AcDbEntity
  8
0
  6
Continuous
 62
     7
370
    13
100
AcDbLine
 10
261.5823871162488
 20
111.6561533209557
 30
0.0
 11
260.1073871162489
 21
109.1013783797916
 31
0.0
  0
LINE
  5
36F
330
1F
100
AcDbEntity
  8
0
  6
Continuous
 62
     7
370
    13
100
AcDbLine
 10
260.1073871162489
 20
114.2109282621197
 30
0.0
 11
261.5823871162488
 21
111.6561533209557
 31
0.0
  0
LINE
  5
370
330
1F
100
AcDbEntity
  8
0
  6
Continuous
 62
     7
370
    13
100
AcDbLine
 10
257.1573871162489
 20
114.2109282621197
 30
0.0
 11
260.1073871162489
 21
114.2109282621197
 31
0.0
  0
LINE
  5
371
330
1F
100
AcDbEntity
  8
0
  6
Continuous
 62
     7
370
    13
100
AcDbLine
 10
255.6823871162489
 20
111.6561533209557
 30
0.0
 11
257.1573871162489
 21
114.2109282621197
 31
0.0
  0
LINE
  5
372
330
1F
100
AcDbEntity
  8
0
  6
Continuous
 62
     7
370
    13
100
AcDbLine
 10
257.1573871162489
 20
109.1013783797916
 30
0.0
 11
255.6823871162489
 21
111.6561533209557
 31
0.0
  0
LINE
  5
373
330
1F
100
AcDbEntity
  8
0
  6
Continuous
 62
     7
370
    13
100
AcDbLine
 10
340.132387116249
 20
108.4061533209555
 30
0.0
 11
267.632387116249
 21
108.4061533209555
 31
0.0
  0
LINE
  5
374
330
1F
100
AcDbEntity
  8
0
  6
Continuous
 62
     7
370
    13
100
AcDbLine
 10
155.0617576903269
 20
114.9061533209555
 30
0.0
 11
222.632387116249
 21
114.9061533209555
 31
0.0
  0
LINE
  5
375
330
1F
100
AcDbEntity
  8
0
  6
Continuous
 62
     7
370
    13
100
AcDbLine
 10
155.0617576903269
 20
95.65615332095553
 30
0.0
 11
340.132387116249
 21
95.65615332095553
 31
0.0
  0
LINE
  5
376
330
1F
100
AcDbEntity
  8
0
  6
Continuous
 62
     7
370
    13
100
AcDbLine
 10
340.132387116249
 20
127.6561533209555
 30
0.0
 11
155.0617576903269
 21
127.6561533209555
 31
0.0
  0
LINE
  5
377
330
1F
100
AcDbEntity
  8
0
  6
Continuous
 62
     7
370
    13
100
AcDbLine
 10
267.632387116249
 20
114.9061533209555
 30
0.0
 11
340.132387116249
 21
114.9061533209555
 31
0.0
  0
LINE
  5
378
330
1F
100
AcDbEntity
  8
0
  6
Continuous
 62
     7
370
    13
100
AcDbLine
 10
222.632387116249
 20
108.4061533209555
 30
0.0
 11
155.0617576903269
 21
108.4061533209555
 31
0.0
  0
LINE
  5
379
330
1F
100
AcDbEntity
  8
0
  6
Continuous
 62
     7
370
    13
100
AcDbLine
 10
242.632387116249
 20
130.1561533209557
 30
0.0
 11
245.632387116249
 21
133.1561533209557
 31
0.0
  0
LINE
  5
37A
330
1F
100
AcDbEntity
  8
0
  6
Continuous
 62
     7
370
    13
100
AcDbLine
 10
245.632387116249
 20
130.1561533209557
 30
0.0
 11
248.632387116249
 21
133.1561533209557
 31
0.0
  0
LINE
  5
37B
330
1F
100
AcDbEntity
  8
0
  6
Continuous
 62
     7
370
    13
100
AcDbLine
 10
256.382387116249
 20
133.1561533209557
 30
0.0
 11
256.382387116249
 21
130.1561533209557
 31
0.0
  0
LINE
  5
37C
330
1F
100
AcDbEntity
  8
0
  6
Continuous
 62
     7
370
    13
100
AcDbLine
 10
234.882387116249
 20
130.1561533209557
 30
0.0
 11
234.882387116249
 21
133.1561533209557
 31
0.0
  0
LINE
  5
37D
330
1F
100
AcDbEntity
  8
0
  6
Continuous
 62
     7
370
    13
100
AcDbLine
 10
257.632387116249
 20
130.1561533209557
 30
0.0
 11
257.632387116249
 21
127.6561533209557
 31
0.0
  0
LINE
  5
37E
330
1F
100
AcDbEntity
  8
0
  6
Continuous
 62
     7
370
    13
100
AcDbLine
 10
233.632387116249
 20
130.1561533209557
 30
0.0
 11
257.632387116249
 21
130.1561533209557
 31
0.0
  0
LINE
  5
37F
330
1F
100
AcDbEntity
  8
0
  6
Continuous
 62
     7
370
    13
100
AcDbLine
 10
233.632387116249
 20
127.6561533209557
 30
0.0
 11
233.632387116249
 21
130.1561533209557
 31
0.0
  0
LINE
  5
380
330
1F
100
AcDbEntity
  8
0
  6
Continuous
 62
     7
370
    13
100
AcDbLine
 10
344.948014491712
 20
-58.34384667904428
 30
0.0
 11
155.5617576903271
 21
-58.34384667904428
 31
0.0
  0
LINE
  5
381
330
1F
100
AcDbEntity
  8
0
  6
Continuous
 62
     7
370
    13
100
AcDbLine
 10
155.5617576903271
 20
-55.14384667904429
 30
0.0
 11
344.948014491712
 21
-55.14384667904429
 31
0.0
  0
LINE
  5
382
330
1F
100
AcDbEntity
  8
0
  6
Continuous
 62
     7
370
    13
100
AcDbLine
 10
155.5617576903271
 20
28.45615332095582
 30
0.0
 11
344.948014491712
 21
28.45615332095571
 31
0.0
  0
LINE
  5
383
330
1F
100
AcDbEntity
  8
0
  6
Continuous
 62
     7
370
    13
100
AcDbLine
 10
155.5617576903271
 20
31.6561533209557
 30
0.0
 11
344.948014491712
 21
31.6561533209557
 31
0.0
  0
LINE
  5
384
330
1F
100
AcDbEntity
  8
0
  6
Continuous
 62
     7
370
    13
100
AcDbLine
 10
237.4051457802968
 20
41.6561533209557
 30
0.0
 11
253.8596284522012
 21
41.6561533209557
 31
0.0
  0
LINE
  5
385
330
1F
100
AcDbEntity
  8
0
  6
Continuous
 62
     7
370
    13
100
AcDbLine
 10
240.1475595589475
 20
31.6561533209557
 30
0.0
 11
240.1475595589475
 21
40.80764754492384
 31
0.0
  0
LINE
  5
386
330
1F
100
AcDbEntity
  8
0
  6
Continuous
 62
     7
370
    13
100
AcDbLine
 10
251.1172146735505
 20
31.6561533209557
 30
0.0
 11
251.1172146735505
 21
40.80764754492384
 31
0.0
  0
LINE
  5
387
330
1F
100
AcDbEntity
  8
0
  6
Continuous
 62
     7
370
    13
100
AcDbLine
 10
234.6627320016462
 20
31.6561533209557
 30
0.0
 11
234.6627320016462
 21
40.80764754492384
 31
0.0
  0
LINE
  5
388
330
1F
100
AcDbEntity
  8
0
  6
Continuous
 62
     7
370
    13
100
AcDbLine
 10
256.602042230852
 20
40.80764754492384
 30
0.0
 11
256.602042230852
 21
31.6561533209557
 31
0.0
  0
LINE
  5
389
330
1F
100
AcDbEntity
  8
0
  6
Continuous
 62
     7
370
    13
100
AcDbLine
 10
253.8596284522009
 20
15.45615332095571
 30
0.0
 11
237.4051457802966
 21
15.45615332095571
 31
0.0
  0
LINE
  5
38A
330
1F
100
AcDbEntity
  8
0
  6
Continuous
 62
     7
370
    13
100
AcDbLine
 10
251.1172146735503
 20
25.45615332095571
 30
0.0
 11
251.1172146735503
 21
16.30465909698762
 31
0.0
  0
LINE
  5
38B
330
1F
100
AcDbEntity
  8
0
  6
Continuous
 62
     7
370
    13
100
AcDbLine
 10
240.1475595589473
 20
25.45615332095571
 30
0.0
 11
240.1475595589473
 21
16.30465909698762
 31
0.0
  0
LINE
  5
38C
330
1F
100
AcDbEntity
  8
0
  6
Continuous
 62
     7
370
    13
100
AcDbLine
 10
256.6020422308518
 20
25.45615332095571
 30
0.0
 11
256.6020422308518
 21
16.30465909698762
 31
0.0
  0
LINE
  5
38D
330
1F
100
AcDbEntity
  8
0
  6
Continuous
 62
     7
370
    13
100
AcDbLine
 10
234.662732001646
 20
25.45615332095571
 30
0.0
 11
256.6020422308518
 21
25.45615332095571
 31
0.0
  0
LINE
  5
38E
330
1F
100
AcDbEntity
  8
0
  6
Continuous
 62
     7
370
    13
100
AcDbLine
 10
234.662732001646
 20
16.30465909698762
 30
0.0
 11
234.662732001646
 21
25.45615332095571
 31
0.0
  0
LINE
  5
38F
330
1F
100
AcDbEntity
  8
0
  6
Continuous
 62
     7
370
    13
100
AcDbLine
 10
248.6323871162488
 20
28.45615332095571
 30
0.0
 11
245.6323871162488
 21
25.45615332095571
 31
0.0
  0
LINE
  5
390
330
1F
100
AcDbEntity
  8
0
  6
Continuous
 62
     7
370
    13
100
AcDbLine
 10
245.6323871162488
 20
28.45615332095571
 30
0.0
 11
242.6323871162488
 21
25.45615332095571
 31
0.0
  0
LINE
  5
391
330
1F
100
AcDbEntity
  8
0
  6
Continuous
 62
     7
370
    13
100
AcDbLine
 10
234.8823871162488
 20
25.45615332095571
 30
0.0
 11
234.8823871162488
 21
28.45615332095571
 31
0.0
  0
LINE
  5
392
330
1F
100
AcDbEntity
  8
0
  6
Continuous
 62
     7
370
    13
100
AcDbLine
 10
256.3823871162488
 20
28.45615332095571
 30
0.0
 11
256.3823871162488
 21
25.45615332095571
 31
0.0
  0
ARC
  5
393
330
1F
100
AcDbEntity
  8
0
  6
Continuous
 62
     7
370
    13
100
AcDbCircle
 10
-238.2602125490323
 20
-8.243846679044282
 30
0.0
 40
6.000000000000058
100
AcDbArc
 50
200.1478862872472
 51
247.7677119031657
  0
ARC
  5
394
330
1F
100
AcDbEntity
  8
0
  6
Continuous
 62
     7
370
    13
100
AcDbCircle
 10
-238.2602125490323
 20
-11.74384667904428
 30
0.0
 40
2.499999999999949
100
AcDbArc
 50
6.884196779689299
 51
186.8841967796891
  0
ARC
  5
395
330
1F
100
AcDbEntity
  8
0
  6
Continuous
 62
     7
370
    13
100
AcDbCircle
 10
-238.2602125490323
 20
-59.24384667904428
 30
0.0
 40
5.999999999999999
100
AcDbArc
 50
115.2733306526887
 51
159.8521137127532
  0
ARC
  5
396
330
1F
100
AcDbEntity
  8
0
  6
Continuous
 62
     7
370
    13
100
AcDbCircle
 10
-238.2602125490323
 20
-59.24384667904428
 30
0.0
 40
5.99999999999995
100
AcDbArc
 50
64.72666934731228
 51
115.2733306526887
  0
ARC
  5
397
330
1F
100
AcDbEntity
  8
0
  6
Continuous
 62
     7
370
    13
100
AcDbCircle
 10
-238.2602125490323
 20
-8.243846679044282
 30
0.0
 40
6.000000000000024
100
AcDbArc
 50
297.172646514195
 51
339.8521137127526
  0
ARC
  5
398
330
1F
100
AcDbEntity
  8
0
  6
Continuous
 62
     7
370
    13
100
AcDbCircle
 10
-214.2363626737286
 20
109.1561533209556
 30
0.0
 40
7.220886257884136
100
AcDbArc
 50
159.7438419995828
 51
200.2561580004146
  0
ARC
  5
399
330
1F
100
AcDbEntity
  8
0
  6
Continuous
 62
     7
370
    13
100
AcDbCircle
 10
-214.2363626737286
 20
114.1561533209558
 30
0.0
 40
7.220886257884155
100
AcDbArc
 50
159.7438419995824
 51
200.2561580004176
  0
ARC
  5
39A
330
1F
100
AcDbEntity
  8
0
  6
Continuous
 62
     7
370
    13
100
AcDbCircle
 10
-194.0329712130801
 20
138.3000900989519
 30
0.0
 40
4.856063222004079
100
AcDbArc
 50
55.61575253195912
 51
124.3842474680409
  0
ARC
  5
39B
330
1F
100
AcDbEntity
  8
0
  6
Continuous
 62
     7
370
    13
100
AcDbCircle
 10
-202.2602125490323
 20
125.0046590969877
 30
0.0
 40
18.1514942239683
100
AcDbArc
 50
72.4120462260062
 51
107.5879537739935
  0
ARC
  5
39C
330
1F
100
AcDbEntity
  8
0
  6
Continuous
 62
     7
370
    13
100
AcDbCircle
 10
-210.4874538849845
 20
138.3000900989518
 30
0.0
 40
4.856063222004174
100
AcDbArc
 50
55.61575253195866
 51
124.3842474680405
  0
ARC
  5
39D
330
1F
100
AcDbEntity
  8
0
  6
Continuous
 62
     7
370
    13
100
AcDbCircle
 10
-210.4874538849846
 20
90.51221654295983
 30
0.0
 40
4.856063222003844
100
AcDbArc
 50
235.6157525319572
 51
304.3842474680439
  0
ARC
  5
39E
330
1F
100
AcDbEntity
  8
0
  6
Continuous
 62
     7
370
    13
100
AcDbCircle
 10
-202.2602125490324
 20
103.8076475449242
 30
0.0
 40
18.15149422396821
100
AcDbArc
 50
252.4120462260065
 51
287.5879537739938
  0
ARC
  5
39F
330
1F
100
AcDbEntity
  8
0
  6
Continuous
 62
     7
370
    13
100
AcDbCircle
 10
-194.0329712130802
 20
90.51221654296012
 30
0.0
 40
4.856063222004079
100
AcDbArc
 50
235.6157525319591
 51
304.3842474680409
  0
ARC
  5
3A0
330
1F
100
AcDbEntity
  8
0
  6
Continuous
 62
     7
370
    13
100
AcDbCircle
 10
-149.0329712130795
 20
-13.19990990104827
 30
0.0
 40
4.856063222003985
100
AcDbArc
 50
55.61575253195834
 51
124.3842474680428
  0
ARC
  5
3A1
330
1F
100
AcDbEntity
  8
0
  6
Continuous
 62
     7
370
    13
100
AcDbCircle
 10
-157.2602125490318
 20
-26.49534090301259
 30
0.0
 40
18.15149422396832
100
AcDbArc
 50
72.41204622600631
 51
107.5879537739934
  0
ARC
  5
3A2
330
1F
100
AcDbEntity
  8
0
  6
Continuous
 62
     7
370
    13
100
AcDbCircle
 10
-165.487453884984
 20
-13.19990990104839
 30
0.0
 40
4.856063222004143
100
AcDbArc
 50
55.615752531958
 51
124.3842474680409
  0
ARC
  5
3A3
330
1F
100
AcDbEntity
  8
0
  6
Continuous
 62
     7
370
    13
100
AcDbCircle
 10
-165.4874538849842
 20
-29.68778345704027
 30
0.0
 40
4.856063222003985
100
AcDbArc
 50
235.6157525319583
 51
304.3842474680428
  0
ARC
  5
3A4
330
1F
100
AcDbEntity
  8
0
  6
Continuous
 62
     7
370
    13
100
AcDbCircle
 10
-157.260212549032
 20
-16.39235245507598
 30
0.0
 40
18.15149422396827
100
AcDbArc
 50
252.4120462260065
 51
287.5879537739937
  0
ARC
  5
3A5
330
1F
100
AcDbEntity
  8
0
  6
Continuous
 62
     7
370
    13
100
AcDbCircle
 10
-149.0329712130798
 20
-29.68778345704007
 30
0.0
 40
4.856063222004149
100
AcDbArc
 50
235.6157525319597
 51
304.3842474680403
  0
ARC
  5
3A6
330
1F
100
AcDbEntity
  8
0
  6
Continuous
 62
     7
370
    13
100
AcDbCircle
 10
-202.2602125490323
 20
146.6561533209559
 30
0.0
 40
8.5
100
AcDbArc
 50
90.0
 51
180.0
  0
ARC
  5
3A7
330
1F
100
AcDbEntity
  8
0
  6
Continuous
 62
     7
370
    13
100
AcDbCircle
 10
-202.2602125490323
 20
146.6561533209559
 30
0.0
 40
8.5
100
AcDbArc
 50
0.0
 51
90.0
  0
ARC
  5
3A8
330
1F
100
AcDbEntity
  8
0
  6
Continuous
 62
     7
370
    13
100
AcDbCircle
 10
-3.174290659840324
 20
41.75615332095572
 30
0.0
 40
6.000000000000036
100
AcDbArc
 50
297.1726465141953
 51
339.8521137127527
  0
ARC
  5
3A9
330
1F
100
AcDbEntity
  8
0
  6
Continuous
 62
     7
370
    13
100
AcDbCircle
 10
-3.174290659840324
 20
-9.243846679044282
 30
0.0
 40
6.000000000000012
100
AcDbArc
 50
64.72666934731105
 51
115.2733306526875
  0
ARC
  5
3AA
330
1F
100
AcDbEntity
  8
0
  6
Continuous
 62
     7
370
    13
100
AcDbCircle
 10
-3.174290659840324
 20
-9.243846679044282
 30
0.0
 40
5.999999999999939
100
AcDbArc
 50
115.2733306526875
 51
159.8521137127532
  0
ARC
  5
3AB
330
1F
100
AcDbEntity
  8
0
  6
Continuous
 62
     7
370
    13
100
AcDbCircle
 10
-3.174290659840324
 20
38.25615332095572
 30
0.0
 40
2.499999999999936
100
AcDbArc
 50
6.884196779686711
 51
186.8841967796891
  0
ARC
  5
3AC
330
1F
100
AcDbEntity
  8
0
  6
Continuous
 62
     7
370
    13
100
AcDbCircle
 10
-3.174290659840324
 20
41.75615332095572
 30
0.0
 40
5.999999999999933
100
AcDbArc
 50
200.1478862872478
 51
247.7677119031657
  0
ARC
  5
3AD
330
1F
100
AcDbEntity
  8
0
  6
Continuous
 62
     7
370
    13
100
AcDbCircle
 10
15.54659559804333
 20
114.1561533209558
 30
0.0
 40
7.220886257884074
100
AcDbArc
 50
159.7438419995822
 51
200.2561580004178
  0
ARC
  5
3AE
330
1F
100
AcDbEntity
  8
0
  6
Continuous
 62
     7
370
    13
100
AcDbCircle
 10
15.54659559804333
 20
109.1561533209556
 30
0.0
 40
7.220886257884055
100
AcDbArc
 50
159.7438419995826
 51
200.2561580004148
  0
ARC
  5
3AF
330
1F
100
AcDbEntity
  8
0
  6
Continuous
 62
     7
370
    13
100
AcDbCircle
 10
41.05295067611178
 20
138.3000900989519
 30
0.0
 40
4.856063222004079
100
AcDbArc
 50
55.61575253195912
 51
124.3842474680409
  0
ARC
  5
3B0
330
1F
100
AcDbEntity
  8
0
  6
Continuous
 62
     7
370
    13
100
AcDbCircle
 10
24.59846800420729
 20
90.51221654295989
 30
0.0
 40
4.856063222003891
100
AcDbArc
 50
235.6157525319576
 51
304.3842474680436
  0
ARC
  5
3B1
330
1F
100
AcDbEntity
  8
0
  6
Continuous
 62
     7
370
    13
100
AcDbCircle
 10
32.82570934015951
 20
103.8076475449242
 30
0.0
 40
18.15149422396821
100
AcDbArc
 50
252.4120462260065
 51
287.5879537739935
  0
ARC
  5
3B2
330
1F
100
AcDbEntity
  8
0
  6
Continuous
 62
     7
370
    13
100
AcDbCircle
 10
41.05295067611172
 20
90.51221654296
 30
0.0
 40
4.85606322200405
100
AcDbArc
 50
235.6157525319572
 51
304.3842474680405
  0
ARC
  5
3B3
330
1F
100
AcDbEntity
  8
0
  6
Continuous
 62
     7
370
    13
100
AcDbCircle
 10
32.82570934015951
 20
125.0046590969877
 30
0.0
 40
18.15149422396832
100
AcDbArc
 50
72.41204622600601
 51
107.5879537739935
  0
ARC
  5
3B4
330
1F
100
AcDbEntity
  8
0
  6
Continuous
 62
     7
370
    13
100
AcDbCircle
 10
24.5984680042074
 20
138.3000900989518
 30
0.0
 40
4.856063222004125
100
AcDbArc
 50
55.61575253195949
 51
124.3842474680405
  0
ARC
  5
3B5
330
1F
100
AcDbEntity
  8
0
  6
Continuous
 62
     7
370
    13
100
AcDbCircle
 10
86.05295067611178
 20
36.80009009895173
 30
0.0
 40
4.856063222003985
100
AcDbArc
 50
55.61575253195834
 51
124.3842474680433
  0
ARC
  5
3B6
330
1F
100
AcDbEntity
  8
0
  6
Continuous
 62
     7
370
    13
100
AcDbCircle
 10
77.8257093401595
 20
23.50465909698744
 30
0.0
 40
18.15149422396827
100
AcDbArc
 50
72.41204622600654
 51
107.5879537739935
  0
ARC
  5
3B7
330
1F
100
AcDbEntity
  8
0
  6
Continuous
 62
     7
370
    13
100
AcDbCircle
 10
69.5984680042074
 20
36.80009009895161
 30
0.0
 40
4.856063222004079
100
AcDbArc
 50
55.61575253195912
 51
124.3842474680409
  0
ARC
  5
3B8
330
1F
100
AcDbEntity
  8
0
  6
Continuous
 62
     7
370
    13
100
AcDbCircle
 10
69.598468004207
 20
20.31221654295973
 30
0.0
 40
4.856063222003921
100
AcDbArc
 50
235.6157525319594
 51
304.3842474680433
  0
ARC
  5
3B9
330
1F
100
AcDbEntity
  8
0
  6
Continuous
 62
     7
370
    13
100
AcDbCircle
 10
77.82570934015928
 20
33.60764754492402
 30
0.0
 40
18.15149422396827
100
AcDbArc
 50
252.4120462260065
 51
287.5879537739938
  0
ARC
  5
3BA
330
1F
100
AcDbEntity
  8
0
  6
Continuous
 62
     7
370
    13
100
AcDbCircle
 10
86.0529506761116
 20
20.31221654295985
 30
0.0
 40
4.856063222004143
100
AcDbArc
 50
235.615752531958
 51
304.3842474680409
  0
ARC
  5
3BB
330
1F
100
AcDbEntity
  8
0
  6
Continuous
 62
     7
370
    13
100
AcDbCircle
 10
32.82570934015951
 20
146.6561533209559
 30
0.0
 40
8.5
100
AcDbArc
 50
90.0
 51
180.0
  0
ARC
  5
3BC
330
1F
100
AcDbEntity
  8
0
  6
Continuous
 62
     7
370
    13
100
AcDbCircle
 10
32.82570934015951
 20
146.6561533209559
 30
0.0
 40
8.5
100
AcDbArc
 50
0.0
 51
90.0
  0
ARC
  5
3BD
330
1F
100
AcDbEntity
  8
0
  6
Continuous
 62
     7
370
    13
100
AcDbCircle
 10
253.8596284522012
 20
138.3000900989517
 30
0.0
 40
4.856063222004081
100
AcDbArc
 50
55.61575253195669
 51
124.3842474680411
  0
ARC
  5
3BE
330
1F
100
AcDbEntity
  8
0
  6
Continuous
 62
     7
370
    13
100
AcDbCircle
 10
245.632387116249
 20
125.0046590969874
 30
0.0
 40
18.1514942239683
100
AcDbArc
 50
72.4120462260062
 51
107.5879537739938
  0
ARC
  5
3BF
330
1F
100
AcDbEntity
  8
0
  6
Continuous
 62
     7
370
    13
100
AcDbCircle
 10
237.4051457802968
 20
138.3000900989516
 30
0.0
 40
4.856063222004047
100
AcDbArc
 50
55.61575253195966
 51
124.3842474680404
  0
ARC
  5
3C0
330
1F
100
AcDbEntity
  8
0
  6
Continuous
 62
     7
370
    13
100
AcDbCircle
 10
245.632387116249
 20
146.6561533209557
 30
0.0
 40
8.5
100
AcDbArc
 50
90.0
 51
180.0
  0
ARC
  5
3C1
330
1F
100
AcDbEntity
  8
0
  6
Continuous
 62
     7
370
    13
100
AcDbCircle
 10
245.632387116249
 20
146.6561533209557
 30
0.0
 40
8.5
100
AcDbArc
 50
0.0
 51
90.0
  0
ARC
  5
3C2
330
1F
100
AcDbEntity
  8
0
  6
Continuous
 62
     7
370
    13
100
AcDbCircle
 10
237.4051457802968
 20
90.5122165429595
 30
0.0
 40
4.856063222003987
100
AcDbArc
 50
235.6157525319559
 51
304.3842474680418
  0
ARC
  5
3C3
330
1F
100
AcDbEntity
  8
0
  6
Continuous
 62
     7
370
    13
100
AcDbCircle
 10
245.632387116249
 20
103.8076475449238
 30
0.0
 40
18.15149422396825
100
AcDbArc
 50
252.4120462260061
 51
287.5879537739931
  0
ARC
  5
3C4
330
1F
100
AcDbEntity
  8
0
  6
Continuous
 62
     7
370
    13
100
AcDbCircle
 10
253.8596284522012
 20
90.5122165429596
 30
0.0
 40
4.856063222004081
100
AcDbArc
 50
235.6157525319567
 51
304.3842474680411
  0
ARC
  5
3C5
330
1F
100
AcDbEntity
  8
0
  6
Continuous
 62
     7
370
    13
100
AcDbCircle
 10
295.632387116249
 20
16.25615332095572
 30
0.0
 40
25.4
100
AcDbArc
 50
37.32239029571567
 51
142.6776097042843
  0
ARC
  5
3C6
330
1F
100
AcDbEntity
  8
0
  6
Continuous
 62
     7
370
    13
100
AcDbCircle
 10
195.632387116249
 20
16.25615332095572
 30
0.0
 40
25.4
100
AcDbArc
 50
37.32239029571567
 51
142.6776097042843
  0
ARC
  5
3C7
330
1F
100
AcDbEntity
  8
0
  6
Continuous
 62
     7
370
    13
100
AcDbCircle
 10
253.8596284522012
 20
36.80009009895173
 30
0.0
 40
4.856063222004081
100
AcDbArc
 50
55.61575253195669
 51
124.3842474680411
  0
ARC
  5
3C8
330
1F
100
AcDbEntity
  8
0
  6
Continuous
 62
     7
370
    13
100
AcDbCircle
 10
245.632387116249
 20
23.50465909698744
 30
0.0
 40
18.1514942239683
100
AcDbArc
 50
72.4120462260062
 51
107.5879537739938
  0
ARC
  5
3C9
330
1F
100
AcDbEntity
  8
0
  6
Continuous
 62
     7
370
    13
100
AcDbCircle
 10
237.4051457802968
 20
36.80009009895161
 30
0.0
 40
4.856063222004047
100
AcDbArc
 50
55.61575253195966
 51
124.3842474680404
  0
ARC
  5
3CA
330
1F
100
AcDbEntity
  8
0
  6
Continuous
 62
     7
370
    13
100
AcDbCircle
 10
237.4051457802966
 20
20.31221654295973
 30
0.0
 40
4.856063222003953
100
AcDbArc
 50
235.6157525319589
 51
304.3842474680411
  0
ARC
  5
3CB
330
1F
100
AcDbEntity
  8
0
  6
Continuous
 62
     7
370
    13
100
AcDbCircle
 10
245.6323871162488
 20
33.60764754492402
 30
0.0
 40
18.1514942239683
100
AcDbArc
 50
252.4120462260062
 51
287.5879537739938
  0
ARC
  5
3CC
330
1F
100
AcDbEntity
  8
0
  6
Continuous
 62
     7
370
    13
100
AcDbCircle
 10
253.8596284522009
 20
20.31221654295985
 30
0.0
 40
4.856063222004047
100
AcDbArc
 50
235.6157525319596
 51
304.3842474680426
  0
CIRCLE
  5
3CD
330
1F
100
AcDbEntity
  8
0
  6
Continuous
 62
     7
370
    13
100
AcDbCircle
 10
-240.4572489316124
 20
101.1561533209557
 30
0.0
 40
3.0
  0
CIRCLE
  5
3CE
330
1F
100
AcDbEntity
  8
0
  6
Continuous
 62
     7
370
    13
100
AcDbCircle
 10
-219.4572489316124
 20
101.1561533209557
 30
0.0
 40
3.0
  0
CIRCLE
  5
3CF
330
1F
100
AcDbEntity
  8
0
  6
Continuous
 62
     7
370
    13
100
AcDbCircle
 10
-219.4572489316124
 20
122.1561533209557
 30
0.0
 40
3.0
  0
CIRCLE
  5
3D0
330
1F
100
AcDbEntity
  8
0
  6
Continuous
 62
     7
370
    13
100
AcDbCircle
 10
-240.4572489316124
 20
122.1561533209557
 30
0.0
 40
3.0
  0
CIRCLE
  5
3D1
330
1F
100
AcDbEntity
  8
0
  6
Continuous
 62
     7
370
    13
100
AcDbCircle
 10
-229.9572489316124
 20
111.6561533209557
 30
0.0
 40
2.349999999999824
  0
CIRCLE
  5
3D2
330
1F
100
AcDbEntity
  8
0
  6
Continuous
 62
     7
370
    13
100
AcDbCircle
 10
-0.1742906598404943
 20
111.6561533209557
 30
0.0
 40
2.349999999999795
  0
CIRCLE
  5
3D3
330
1F
100
AcDbEntity
  8
0
  6
Continuous
 62
     7
370
    13
100
AcDbCircle
 10
-10.67429065984049
 20
122.1561533209557
 30
0.0
 40
3.0
  0
CIRCLE
  5
3D4
330
1F
100
AcDbEntity
  8
0
  6
Continuous
 62
     7
370
    13
100
AcDbCircle
 10
10.32570934015951
 20
122.1561533209557
 30
0.0
 40
3.0
  0
CIRCLE
  5
3D5
330
1F
100
AcDbEntity
  8
0
  6
Continuous
 62
     7
370
    13
100
AcDbCircle
 10
10.32570934015951
 20
101.1561533209557
 30
0.0
 40
3.0
  0
CIRCLE
  5
3D6
330
1F
100
AcDbEntity
  8
0
  6
Continuous
 62
     7
370
    13
100
AcDbCircle
 10
-10.67429065984049
 20
101.1561533209557
 30
0.0
 40
3.0
  0
CIRCLE
  5
3D7
330
1F
100
AcDbEntity
  8
0
  6
Continuous
 62
     7
370
    13
100
AcDbCircle
 10
231.632387116249
 20
111.6561533209557
 30
0.0
 40
5.0
  0
CIRCLE
  5
3D8
330
1F
100
AcDbEntity
  8
0
  6
Continuous
 62
     7
370
    13
100
AcDbCircle
 10
258.632387116249
 20
111.6561533209557
 30
0.0
 40
5.0
  0
ARC
  5
3D9
330
1F
100
AcDbEntity
  8
0
  6
Continuous
 62
     7
370
    13
100
AcDbCircle
 10
-169.7602125490322
 20
-23.34384667904428
 30
0.0
 40
5.0
100
AcDbArc
 50
90.0
 51
180.0
  0
ARC
  5
3DA
330
1F
100
AcDbEntity
  8
0
  6
Continuous
 62
     7
370
    13
100
AcDbCircle
 10
-169.7602125490322
 20
-103.3438466790443
 30
0.0
 40
5.0
100
AcDbArc
 50
180.0
 51
270.0
  0
ARC
  5
3DB
330
1F
100
AcDbEntity
  8
0
  6
Continuous
 62
     7
370
    13
100
AcDbCircle
 10
-169.7602125490322
 20
-23.34384667904428
 30
0.0
 40
1.799999999999983
100
AcDbArc
 50
90.0
 51
180.0
  0
ARC
  5
3DC
330
1F
100
AcDbEntity
  8
0
  6
Continuous
 62
     7
370
    13
100
AcDbCircle
 10
-169.7602125490322
 20
-103.3438466790443
 30
0.0
 40
1.800000000000097
100
AcDbArc
 50
180.0
 51
270.0
  0
ARC
  5
3DD
330
1F
100
AcDbEntity
  8
0
  6
Continuous
 62
     7
370
    13
100
AcDbCircle
 10
-190.6602125490323
 20
-50.74384667904428
 30
0.0
 40
8.400000000000006
100
AcDbArc
 50
270.0
 51
0.0
  0
ARC
  5
3DE
330
1F
100
AcDbEntity
  8
0
  6
Continuous
 62
     7
370
    13
100
AcDbCircle
 10
-190.6602125490323
 20
-16.74384667904428
 30
0.0
 40
8.40000000000012
100
AcDbArc
 50
0.0
 51
89.99999999999922
  0
ARC
  5
3DF
330
1F
100
AcDbEntity
  8
0
  6
Continuous
 62
     7
370
    13
100
AcDbCircle
 10
-246.7094728716878
 20
-56.14384667904429
 30
0.0
 40
3.0
100
AcDbArc
 50
270.0
 51
339.8521137127526
  0
ARC
  5
3E0
330
1F
100
AcDbEntity
  8
0
  6
Continuous
 62
     7
370
    13
100
AcDbCircle
 10
-246.7094728716878
 20
-11.34384667904428
 30
0.0
 40
2.999999999999974
100
AcDbArc
 50
20.14788628724667
 51
90.0
  0
ARC
  5
3E1
330
1F
100
AcDbEntity
  8
0
  6
Continuous
 62
     7
370
    13
100
AcDbCircle
 10
-229.8109522263768
 20
-11.34384667904428
 30
0.0
 40
2.999999999999972
100
AcDbArc
 50
90.0
 51
159.8521137127539
  0
ARC
  5
3E2
330
1F
100
AcDbEntity
  8
0
  6
Continuous
 62
     7
370
    13
100
AcDbCircle
 10
-246.4572489316126
 20
110.9561533209557
 30
0.0
 40
1.0
100
AcDbArc
 50
180.0
 51
270.0000000000114
  0
ARC
  5
3E3
330
1F
100
AcDbEntity
  8
0
  6
Continuous
 62
     7
370
    13
100
AcDbCircle
 10
-247.4572489316126
 20
99.1561533209557
 30
0.0
 40
1.5
100
AcDbArc
 50
180.0
 51
270.0
  0
ARC
  5
3E4
330
1F
100
AcDbEntity
  8
0
  6
Continuous
 62
     7
370
    13
100
AcDbCircle
 10
-247.4572489316126
 20
124.1561533209557
 30
0.0
 40
1.5
100
AcDbArc
 50
90.0
 51
180.0
  0
ARC
  5
3E5
330
1F
100
AcDbEntity
  8
0
  6
Continuous
 62
     7
370
    13
100
AcDbCircle
 10
-246.4572489316126
 20
112.3561533209558
 30
0.0
 40
1.0
100
AcDbArc
 50
89.9999999999886
 51
180.0
  0
ARC
  5
3E6
330
1F
100
AcDbEntity
  8
0
  6
Continuous
 62
     7
370
    13
100
AcDbCircle
 10
-246.9572489316124
 20
115.2561533209557
 30
0.0
 40
0.500000000000199
100
AcDbArc
 50
180.0
 51
270.0
  0
ARC
  5
3E7
330
1F
100
AcDbEntity
  8
0
  6
Continuous
 62
     7
370
    13
100
AcDbCircle
 10
-246.9572489316124
 20
108.0561533209557
 30
0.0
 40
0.5
100
AcDbArc
 50
90.0
 51
180.0
  0
ARC
  5
3E8
330
1F
100
AcDbEntity
  8
0
  6
Continuous
 62
     7
370
    13
100
AcDbCircle
 10
-246.9572489316124
 20
100.1561533209557
 30
0.0
 40
0.500000000000199
100
AcDbArc
 50
180.0
 51
270.0
  0
ARC
  5
3E9
330
1F
100
AcDbEntity
  8
0
  6
Continuous
 62
     7
370
    13
100
AcDbCircle
 10
-246.9572489316124
 20
104.1561533209557
 30
0.0
 40
0.5
100
AcDbArc
 50
90.0
 51
180.0
  0
ARC
  5
3EA
330
1F
100
AcDbEntity
  8
0
  6
Continuous
 62
     7
370
    13
100
AcDbCircle
 10
-246.9572489316124
 20
106.6561533209557
 30
0.0
 40
0.500000000000199
100
AcDbArc
 50
180.0
 51
270.0
  0
ARC
  5
3EB
330
1F
100
AcDbEntity
  8
0
  6
Continuous
 62
     7
370
    13
100
AcDbCircle
 10
-246.9572489316124
 20
116.6561533209557
 30
0.0
 40
0.5
100
AcDbArc
 50
90.0
 51
180.0
  0
ARC
  5
3EC
330
1F
100
AcDbEntity
  8
0
  6
Continuous
 62
     7
370
    13
100
AcDbCircle
 10
-246.9572489316124
 20
119.1561533209557
 30
0.0
 40
0.500000000000199
100
AcDbArc
 50
180.0
 51
270.0
  0
ARC
  5
3ED
330
1F
100
AcDbEntity
  8
0
  6
Continuous
 62
     7
370
    13
100
AcDbCircle
 10
-246.9572489316124
 20
123.1561533209557
 30
0.0
 40
0.5
100
AcDbArc
 50
90.0
 51
180.0
  0
ARC
  5
3EE
330
1F
100
AcDbEntity
  8
0
  6
Continuous
 62
     7
370
    13
100
AcDbCircle
 10
-211.7602125490323
 20
144.0161693359114
 30
0.0
 40
1.000000000000085
100
AcDbArc
 50
282.5528651493595
 51
0.0
  0
ARC
  5
3EF
330
1F
100
AcDbEntity
  8
0
  6
Continuous
 62
     7
370
    13
100
AcDbCircle
 10
-192.7602125490323
 20
144.0161693359114
 30
0.0
 40
1.0
100
AcDbArc
 50
180.0
 51
257.4471348506407
  0
ARC
  5
3F0
330
1F
100
AcDbEntity
  8
0
  6
Continuous
 62
     7
370
    13
100
AcDbCircle
 10
-184.9572489316124
 20
97.65615332095592
 30
0.0
 40
2.0
100
AcDbArc
 50
270.0
 51
0.0
  0
ARC
  5
3F1
330
1F
100
AcDbEntity
  8
0
  6
Continuous
 62
     7
370
    13
100
AcDbCircle
 10
-184.9572489316124
 20
125.6561533209559
 30
0.0
 40
2.0
100
AcDbArc
 50
0.0
 51
90.0
  0
ARC
  5
3F2
330
1F
100
AcDbEntity
  8
0
  6
Continuous
 62
     7
370
    13
100
AcDbCircle
 10
-211.9572489316123
 20
125.6561533209559
 30
0.0
 40
2.0
100
AcDbArc
 50
90.0
 51
180.0000000000065
  0
ARC
  5
3F3
330
1F
100
AcDbEntity
  8
0
  6
Continuous
 62
     7
370
    13
100
AcDbCircle
 10
-211.9572489316123
 20
97.65615332095592
 30
0.0
 40
2.000000000000114
100
AcDbArc
 50
180.0000000000065
 51
270.0
  0
ARC
  5
3F4
330
1F
100
AcDbEntity
  8
0
  6
Continuous
 62
     7
370
    13
100
AcDbCircle
 10
-243.9572489316124
 20
97.6561533209557
 30
0.0
 40
2.0
100
AcDbArc
 50
180.0
 51
270.0
  0
ARC
  5
3F5
330
1F
100
AcDbEntity
  8
0
  6
Continuous
 62
     7
370
    13
100
AcDbCircle
 10
-215.9572489316124
 20
97.6561533209557
 30
0.0
 40
2.0
100
AcDbArc
 50
270.0
 51
0.0
  0
ARC
  5
3F6
330
1F
100
AcDbEntity
  8
0
  6
Continuous
 62
     7
370
    13
100
AcDbCircle
 10
-215.9572489316124
 20
125.6561533209557
 30
0.0
 40
2.0
100
AcDbArc
 50
0.0
 51
90.0
  0
ARC
  5
3F7
330
1F
100
AcDbEntity
  8
0
  6
Continuous
 62
     7
370
    13
100
AcDbCircle
 10
-243.9572489316124
 20
125.6561533209557
 30
0.0
 40
2.0
100
AcDbArc
 50
90.0
 51
180.0
  0
ARC
  5
3F8
330
1F
100
AcDbEntity
  8
0
  6
Continuous
 62
     7
370
    13
100
AcDbCircle
 10
5.274969662815181
 20
38.6561533209557
 30
0.0
 40
3.0
100
AcDbArc
 50
90.0
 51
159.8521137127532
  0
ARC
  5
3F9
330
1F
100
AcDbEntity
  8
0
  6
Continuous
 62
     7
370
    13
100
AcDbCircle
 10
-11.62355098249589
 20
38.6561533209557
 30
0.0
 40
3.000000000000161
100
AcDbArc
 50
20.14788628724535
 51
90.0
  0
ARC
  5
3FA
330
1F
100
AcDbEntity
  8
0
  6
Continuous
 62
     7
370
    13
100
AcDbCircle
 10
-11.62355098249589
 20
-6.143846679044259
 30
0.0
 40
3.0
100
AcDbArc
 50
270.0
 51
339.8521137127526
  0
ARC
  5
3FB
330
1F
100
AcDbEntity
  8
0
  6
Continuous
 62
     7
370
    13
100
AcDbCircle
 10
44.42570934015981
 20
33.25615332095572
 30
0.0
 40
8.399999999999864
100
AcDbArc
 50
0.0
 51
90.0
  0
ARC
  5
3FC
330
1F
100
AcDbEntity
  8
0
  6
Continuous
 62
     7
370
    13
100
AcDbCircle
 10
44.42570934015981
 20
-0.7438466790442817
 30
0.0
 40
8.399999999999977
100
AcDbArc
 50
270.0
 51
0.0
  0
ARC
  5
3FD
330
1F
100
AcDbEntity
  8
0
  6
Continuous
 62
     7
370
    13
100
AcDbCircle
 10
65.32570934015968
 20
-53.34384667904428
 30
0.0
 40
1.799999999999898
100
AcDbArc
 50
180.0
 51
270.0
  0
ARC
  5
3FE
330
1F
100
AcDbEntity
  8
0
  6
Continuous
 62
     7
370
    13
100
AcDbCircle
 10
65.32570934015968
 20
26.6561533209557
 30
0.0
 40
1.800000000000011
100
AcDbArc
 50
90.0
 51
180.0
  0
ARC
  5
3FF
330
1F
100
AcDbEntity
  8
0
  6
Continuous
 62
     7
370
    13
100
AcDbCircle
 10
65.32570934015968
 20
-53.34384667904428
 30
0.0
 40
5.0
100
AcDbArc
 50
180.0
 51
270.0
  0
ARC
  5
400
330
1F
100
AcDbEntity
  8
0
  6
Continuous
 62
     7
370
    13
100
AcDbCircle
 10
65.32570934015968
 20
26.6561533209557
 30
0.0
 40
5.0
100
AcDbArc
 50
90.0
 51
180.0
  0
ARC
  5
401
330
1F
100
AcDbEntity
  8
0
  6
Continuous
 62
     7
370
    13
100
AcDbCircle
 10
-17.17429065984049
 20
123.1561533209557
 30
0.0
 40
0.5
100
AcDbArc
 50
90.0
 51
180.0
  0
ARC
  5
402
330
1F
100
AcDbEntity
  8
0
  6
Continuous
 62
     7
370
    13
100
AcDbCircle
 10
-17.17429065984049
 20
119.1561533209557
 30
0.0
 40
0.5000000000001137
100
AcDbArc
 50
180.0
 51
270.0
  0
ARC
  5
403
330
1F
100
AcDbEntity
  8
0
  6
Continuous
 62
     7
370
    13
100
AcDbCircle
 10
-17.17429065984049
 20
116.6561533209557
 30
0.0
 40
0.5
100
AcDbArc
 50
90.0
 51
180.0
  0
ARC
  5
404
330
1F
100
AcDbEntity
  8
0
  6
Continuous
 62
     7
370
    13
100
AcDbCircle
 10
-17.17429065984049
 20
106.6561533209557
 30
0.0
 40
0.5000000000001137
100
AcDbArc
 50
180.0
 51
270.0
  0
ARC
  5
405
330
1F
100
AcDbEntity
  8
0
  6
Continuous
 62
     7
370
    13
100
AcDbCircle
 10
-17.17429065984049
 20
104.1561533209557
 30
0.0
 40
0.5
100
AcDbArc
 50
90.0
 51
180.0
  0
ARC
  5
406
330
1F
100
AcDbEntity
  8
0
  6
Continuous
 62
     7
370
    13
100
AcDbCircle
 10
-17.17429065984049
 20
100.1561533209557
 30
0.0
 40
0.5000000000001137
100
AcDbArc
 50
180.0
 51
270.0
  0
ARC
  5
407
330
1F
100
AcDbEntity
  8
0
  6
Continuous
 62
     7
370
    13
100
AcDbCircle
 10
-17.17429065984049
 20
108.0561533209557
 30
0.0
 40
0.5
100
AcDbArc
 50
90.0
 51
180.0
  0
ARC
  5
408
330
1F
100
AcDbEntity
  8
0
  6
Continuous
 62
     7
370
    13
100
AcDbCircle
 10
-17.17429065984049
 20
115.2561533209557
 30
0.0
 40
0.5000000000001137
100
AcDbArc
 50
180.0
 51
270.0
  0
ARC
  5
409
330
1F
100
AcDbEntity
  8
0
  6
Continuous
 62
     7
370
    13
100
AcDbCircle
 10
-16.67429065984061
 20
112.3561533209558
 30
0.0
 40
1.0
100
AcDbArc
 50
89.99999999999349
 51
180.0
  0
ARC
  5
40A
330
1F
100
AcDbEntity
  8
0
  6
Continuous
 62
     7
370
    13
100
AcDbCircle
 10
-17.67429065984061
 20
124.1561533209557
 30
0.0
 40
1.5
100
AcDbArc
 50
90.0
 51
180.0
  0
ARC
  5
40B
330
1F
100
AcDbEntity
  8
0
  6
Continuous
 62
     7
370
    13
100
AcDbCircle
 10
-17.67429065984061
 20
99.1561533209557
 30
0.0
 40
1.5
100
AcDbArc
 50
180.0
 51
270.0
  0
ARC
  5
40C
330
1F
100
AcDbEntity
  8
0
  6
Continuous
 62
     7
370
    13
100
AcDbCircle
 10
-16.67429065984061
 20
110.9561533209557
 30
0.0
 40
1.0
100
AcDbArc
 50
180.0
 51
270.0000000000065
  0
ARC
  5
40D
330
1F
100
AcDbEntity
  8
0
  6
Continuous
 62
     7
370
    13
100
AcDbCircle
 10
17.82570934015962
 20
97.65615332095592
 30
0.0
 40
2.000000000000114
100
AcDbArc
 50
180.0000000000065
 51
270.0
  0
ARC
  5
40E
330
1F
100
AcDbEntity
  8
0
  6
Continuous
 62
     7
370
    13
100
AcDbCircle
 10
17.82570934015962
 20
125.6561533209559
 30
0.0
 40
2.0
100
AcDbArc
 50
90.0
 51
180.0000000000032
  0
ARC
  5
40F
330
1F
100
AcDbEntity
  8
0
  6
Continuous
 62
     7
370
    13
100
AcDbCircle
 10
44.82570934015951
 20
125.6561533209559
 30
0.0
 40
2.0
100
AcDbArc
 50
0.0
 51
90.0
  0
ARC
  5
410
330
1F
100
AcDbEntity
  8
0
  6
Continuous
 62
     7
370
    13
100
AcDbCircle
 10
44.82570934015951
 20
97.65615332095592
 30
0.0
 40
2.0
100
AcDbArc
 50
270.0
 51
0.0
  0
ARC
  5
411
330
1F
100
AcDbEntity
  8
0
  6
Continuous
 62
     7
370
    13
100
AcDbCircle
 10
-14.17429065984049
 20
125.6561533209557
 30
0.0
 40
2.0
100
AcDbArc
 50
90.0
 51
179.9999999999967
  0
ARC
  5
412
330
1F
100
AcDbEntity
  8
0
  6
Continuous
 62
     7
370
    13
100
AcDbCircle
 10
13.82570934015951
 20
125.6561533209557
 30
0.0
 40
2.0
100
AcDbArc
 50
0.0000000000032569
 51
90.0
  0
ARC
  5
413
330
1F
100
AcDbEntity
  8
0
  6
Continuous
 62
     7
370
    13
100
AcDbCircle
 10
13.82570934015951
 20
97.6561533209557
 30
0.0
 40
2.0
100
AcDbArc
 50
270.0
 51
0.0
  0
ARC
  5
414
330
1F
100
AcDbEntity
  8
0
  6
Continuous
 62
     7
370
    13
100
AcDbCircle
 10
-14.17429065984049
 20
97.6561533209557
 30
0.0
 40
2.0
100
AcDbArc
 50
180.0
 51
270.0
  0
ARC
  5
415
330
1F
100
AcDbEntity
  8
0
  6
Continuous
 62
     7
370
    13
100
AcDbCircle
 10
23.32570934015951
 20
144.0161693359114
 30
0.0
 40
1.000000000000098
100
AcDbArc
 50
282.5528651493627
 51
0.0
  0
ARC
  5
416
330
1F
100
AcDbEntity
  8
0
  6
Continuous
 62
     7
370
    13
100
AcDbCircle
 10
42.32570934015951
 20
144.0161693359114
 30
0.0
 40
1.0
100
AcDbArc
 50
180.0
 51
257.4471348506455
  0
ARC
  5
417
330
1F
100
AcDbEntity
  8
0
  6
Continuous
 62
     7
370
    13
100
AcDbCircle
 10
236.132387116249
 20
144.0161693359112
 30
0.0
 40
1.000000000000098
100
AcDbArc
 50
282.5528651493627
 51
0.0
  0
ARC
  5
418
330
1F
100
AcDbEntity
  8
0
  6
Continuous
 62
     7
370
    13
100
AcDbCircle
 10
255.132387116249
 20
144.0161693359112
 30
0.0
 40
1.0
100
AcDbArc
 50
180.0
 51
257.4471348506358
  0
ARC
  5
419
330
1F
100
AcDbEntity
  8
0
  6
Continuous
 62
     7
370
    13
100
AcDbCircle
 10
259.632387116249
 20
103.6561533209557
 30
0.0
 40
8.0
100
AcDbArc
 50
270.0
 51
0.0
  0
ARC
  5
41A
330
1F
100
AcDbEntity
  8
0
  6
Continuous
 62
     7
370
    13
100
AcDbCircle
 10
230.632387116249
 20
103.6561533209557
 30
0.0
 40
8.0
100
AcDbArc
 50
180.0
 51
270.0
  0
ARC
  5
41B
330
1F
100
AcDbEntity
  8
0
  6
Continuous
 62
     7
370
    13
100
AcDbCircle
 10
230.632387116249
 20
119.6561533209557
 30
0.0
 40
8.0
100
AcDbArc
 50
90.0
 51
180.0
  0
ARC
  5
41C
330
1F
100
AcDbEntity
  8
0
  6
Continuous
 62
     7
370
    13
100
AcDbCircle
 10
259.632387116249
 20
119.6561533209557
 30
0.0
 40
8.0
100
AcDbArc
 50
0.0
 51
90.0
  0
LINE
  5
41D
330
1F
100
AcDbEntity
  8
0
  6
CENTERX2
 62
     3
370
    13
100
AcDbLine
 10
-162.9016326673754
 20
-33.74384667904428
 30
0.0
 11
-272.9825577557395
 21
-33.74384667904428
 31
0.0
  0
LINE
  5
41E
330
1F
100
AcDbEntity
  8
0
  6
CENTERX2
 62
     3
370
    13
100
AcDbLine
 10
-250.5706263514637
 20
111.6561533209557
 30
0.0
 11
-245.9572489316124
 21
111.6561533209558
 31
0.0
  0
LINE
  5
41F
330
1F
100
AcDbEntity
  8
0
  6
CENTERX2
 62
     3
370
    13
100
AcDbLine
 10
-213.9572489316124
 20
111.6561533209558
 30
0.0
 11
-178.965589421914
 21
111.6561533209559
 31
0.0
  0
LINE
  5
420
330
1F
100
AcDbEntity
  8
0
  6
CENTERX2
 62
     3
370
    13
100
AcDbLine
 10
-229.9572489316124
 20
127.6561533209557
 30
0.0
 11
-229.9572489316124
 21
95.6561533209557
 31
0.0
  0
LINE
  5
421
330
1F
100
AcDbEntity
  8
0
  6
CENTERX2
 62
     3
370
    13
100
AcDbLine
 10
-245.9572489316124
 20
111.6561533209558
 30
0.0
 11
-213.9572489316124
 21
111.6561533209558
 31
0.0
  0
LINE
  5
422
330
1F
100
AcDbEntity
  8
0
  6
CENTERX2
 62
     3
370
    13
100
AcDbLine
 10
72.18428922181658
 20
16.25615332095572
 30
0.0
 11
-37.89663586654751
 21
16.25615332095572
 31
0.0
  0
LINE
  5
423
330
1F
100
AcDbEntity
  8
0
  6
CENTERX2
 62
     3
370
    13
100
AcDbLine
 10
-20.7876680796918
 20
111.6561533209557
 30
0.0
 11
-16.17429065984049
 21
111.6561533209558
 31
0.0
  0
LINE
  5
424
330
1F
100
AcDbEntity
  8
0
  6
CENTERX2
 62
     3
370
    13
100
AcDbLine
 10
15.82570934015951
 20
111.6561533209558
 30
0.0
 11
50.81736884985793
 21
111.6561533209559
 31
0.0
  0
LINE
  5
425
330
1F
100
AcDbEntity
  8
0
  6
CENTERX2
 62
     3
370
    13
100
AcDbLine
 10
-16.17429065984049
 20
111.6561533209558
 30
0.0
 11
15.82570934015951
 21
111.6561533209558
 31
0.0
  0
LINE
  5
426
330
1F
100
AcDbEntity
  8
0
  6
CENTERX2
 62
     3
370
    13
100
AcDbLine
 10
-0.1742906598404943
 20
127.6561533209557
 30
0.0
 11
-0.1742906598404943
 21
95.6561533209557
 31
0.0
  0
LINE
  5
427
330
1F
100
AcDbEntity
  8
0
  6
CENTERX2
 62
     3
370
    13
100
AcDbLine
 10
220.6592253221236
 20
111.6561533209557
 30
0.0
 11
269.9256001230026
 21
111.6561533209557
 31
0.0
  0
LINE
  5
428
330
1F
100
AcDbEntity
  8
0
  6
CENTERX2
 62
     3
370
    13
100
AcDbLine
 10
231.632387116249
 20
104.0021431957225
 30
0.0
 11
231.632387116249
 21
106.6561533209557
 31
0.0
  0
LINE
  5
429
330
1F
100
AcDbEntity
  8
0
  6
CENTERX2
 62
     3
370
    13
100
AcDbLine
 10
231.632387116249
 20
119.7375992753033
 30
0.0
 11
231.632387116249
 21
106.6561533209557
 31
0.0
  0
LINE
  5
42A
330
1F
100
AcDbEntity
  8
0
  6
CENTERX2
 62
     3
370
    13
100
AcDbLine
 10
258.6323871162488
 20
106.6561533209557
 30
0.0
 11
258.6323871162488
 21
104.0021431957225
 31
0.0
  0
LINE
  5
42B
330
1F
100
AcDbEntity
  8
0
  6
CENTERX2
 62
     3
370
    13
100
AcDbLine
 10
258.6323871162488
 20
106.6561533209557
 30
0.0
 11
258.6323871162488
 21
119.7375992753033
 31
0.0
  0
LINE
  5
42C
330
1F
100
AcDbEntity
  8
0
  6
CENTERX2
 62
     3
370
    13
100
AcDbLine
 10
165.602931106371
 20
16.25615332095572
 30
0.0
 11
226.4026181776819
 21
16.25615332095572
 31
0.0
  0
LINE
  5
42D
330
1F
100
AcDbEntity
  8
0
  6
CENTERX2
 62
     3
370
    13
100
AcDbLine
 10
263.649273320467
 20
16.25615332095572
 30
0.0
 11
326.913812570345
 21
16.25615332095572
 31
0.0
  0
LINE
  5
42E
330
1F
100
AcDbEntity
  8
0
  6
CENTERX2
 62
     3
370
    13
100
AcDbLine
 10
295.632387116249
 20
-21.84384667904428
 30
0.0
 11
295.632387116249
 21
54.35615332095574
 31
0.0
  0
LINE
  5
42F
330
1F
100
AcDbEntity
  8
0
  6
CENTERX2
 62
     3
370
    13
100
AcDbLine
 10
195.632387116249
 20
54.35615332095574
 30
0.0
 11
195.632387116249
 21
-21.84384667904428
 31
0.0
  0
LINE
  5
430
330
1F
100
AcDbEntity
  8
0
  6
Continuous
 62
     3
370
    13
100
AcDbLine
 10
-216.4572489316127
 20
109.2561533209557
 30
0.0
 11
-213.9572489316123
 21
109.2561533209557
 31
0.0
  0
LINE
  5
431
330
1F
100
AcDbEntity
  8
0
  6
Continuous
 62
     3
370
    13
100
AcDbLine
 10
-216.4572489316127
 20
114.0561533209558
 30
0.0
 11
-213.9572489316123
 21
114.0561533209558
 31
0.0
  0
LINE
  5
432
330
1F
100
AcDbEntity
  8
0
  6
Continuous
 62
     3
370
    13
100
AcDbLine
 10
-224.4572489316124
 20
109.2561533209557
 30
0.0
 11
-221.4572489316127
 21
109.2561533209557
 31
0.0
  0
LINE
  5
433
330
1F
100
AcDbEntity
  8
0
  6
Continuous
 62
     3
370
    13
100
AcDbLine
 10
-224.4572489316124
 20
114.0561533209558
 30
0.0
 11
-221.4572489316127
 21
114.0561533209558
 31
0.0
  0
LINE
  5
434
330
1F
100
AcDbEntity
  8
0
  6
Continuous
 62
     3
370
    13
100
AcDbLine
 10
5.325709340159506
 20
114.0561533209558
 30
0.0
 11
8.325709340159221
 21
114.0561533209558
 31
0.0
  0
LINE
  5
435
330
1F
100
AcDbEntity
  8
0
  6
Continuous
 62
     3
370
    13
100
AcDbLine
 10
5.325709340159506
 20
109.2561533209557
 30
0.0
 11
8.325709340159221
 21
109.2561533209557
 31
0.0
  0
LINE
  5
436
330
1F
100
AcDbEntity
  8
0
  6
Continuous
 62
     3
370
    13
100
AcDbLine
 10
13.32570934015922
 20
114.0561533209558
 30
0.0
 11
15.82570934015962
 21
114.0561533209558
 31
0.0
  0
LINE
  5
437
330
1F
100
AcDbEntity
  8
0
  6
Continuous
 62
     3
370
    13
100
AcDbLine
 10
13.32570934015922
 20
109.2561533209557
 30
0.0
 11
15.82570934015962
 21
109.2561533209557
 31
0.0
  0
LINE
  5
438
330
1F
100
AcDbEntity
  8
0
  6
CENTER
 62
     3
370
    13
100
AcDbLine
 10
-202.2602125490323
 20
79.14681396406104
 30
0.0
 11
-202.2602125490323
 21
156.2423403462796
 31
0.0
  0
LINE
  5
439
330
1F
100
AcDbEntity
  8
0
  6
CENTER
 62
     3
370
    13
100
AcDbLine
 10
-202.2602125490323
 20
81.28357031892523
 30
0.0
 11
-202.2602125490323
 21
85.65615332095592
 31
0.0
  0
LINE
  5
43A
330
1F
100
AcDbEntity
  8
0
  6
CENTER
 62
     3
370
    13
100
AcDbLine
 10
32.82570934015951
 20
154.2082042479759
 30
0.0
 11
32.82570934015951
 21
82.09791248715771
 31
0.0
  0
ARC
  5
43B
330
1F
100
AcDbEntity
  8
0
  6
DASHED2
 62
     4
370
    13
100
AcDbCircle
 10
295.632387116249
 20
16.25615332095572
 30
0.0
 40
25.4
100
AcDbArc
 50
142.6776097042843
 51
37.32239029571566
  0
ARC
  5
43C
330
1F
100
AcDbEntity
  8
0
  6
DASHED2
 62
     4
370
    13
100
AcDbCircle
 10
195.632387116249
 20
16.25615332095572
 30
0.0
 40
25.4
100
AcDbArc
 50
142.6776097042843
 51
37.32239029571566
  0
TEXT
  5
43D
330
1F
100
AcDbEntity
  8
0
 62
     2
100
AcDbText
 10
-48.46385211537182
 20
-244.4002819723288
 30
0.0
 40
8.0
  1
2019.10.1
 41
0.6258278145695364
  7
dcStyle0
 72
     5
 11
-12.46385211537182
 21
-244.4002819723288
 31
0.0
100
AcDbText
  0
TEXT
  5
43E
330
1F
100
AcDbEntity
  8
0
 62
     2
100
AcDbText
 10
-140.232393012885
 20
153.2328134880547
 30
0.0
 40
8.0
  1
樹脂ガイドレールAF_28
 41
0.7404273323460968
  7
dcStyle1
 72
     5
 11
-56.23239301288498
 21
153.2328134880547
 31
0.0
100
AcDbText
  0
TEXT
  5
43F
330
1F
100
AcDbEntity
  8
0
 62
     2
100
AcDbText
 10
106.0
 20
-259.7438466790443
 30
0.0
 40
8.0
  1
MCD50
 41
0.5097087378640778
  7
dcStyle0
 72
     5
 11
126.0
 21
-259.7438466790443
 31
0.0
100
AcDbText
  0
TEXT
  5
440
330
1F
100
AcDbEntity
  8
0
 62
     2
100
AcDbText
 10
-27.49999999999994
 20
-259.7438466790443
 30
0.0
 40
8.0
  1
1/2
 41
0.5338983050847458
  7
dcStyle0
 72
     5
 11
-15.49999999999994
 21
-259.7438466790443
 31
0.0
100
AcDbText
  0
TEXT
  5
441
330
1F
100
AcDbEntity
  8
0
 62
     2
100
AcDbText
 10
-384.3788323340564
 20
-239.6785729472297
 30
0.0
 40
8.0
  1
1
 41
0.9545454545454547
  7
dcStyle0
 72
     5
 11
-380.3788323340564
 21
-239.6785729472297
 31
0.0
100
AcDbText
  0
TEXT
  5
442
330
1F
100
AcDbEntity
  8
0
 62
     2
100
AcDbText
 10
80.00000000000003
 20
-239.7438466790443
 30
0.0
 40
8.0
  1
マルチベヤシリーズ
 41
1.188679245283019
  7
dcStyle0
 72
     5
 11
152.0
 21
-239.7438466790443
 31
0.0
100
AcDbText
  0
TEXT
  5
443
330
1F
100
AcDbEntity
  8
0
 62
     2
100
AcDbText
 10
328.0
 20
-259.7438466790443
 30
0.0
 40
8.0
  1
W_MCD50_G_080_1
 41
0.5506993006993006
  7
dcStyle0
 72
     5
 11
388.0
 21
-259.7438466790443
 31
0.0
100
AcDbText
  0
TEXT
  5
444
330
1F
100
AcDbEntity
  8
0
 62
     2
100
AcDbText
 10
261.0
 20
-239.7438466790443
 30
0.0
 40
8.0
  1
AF-28  樹脂ガイド
 41
0.7727272727272727
  7
dcStyle0
 72
     5
 11
329.0
 21
-239.7438466790443
 31
0.0
100
AcDbText
  0
TEXT
  5
445
330
1F
100
AcDbEntity
  8
0
 62
     2
100
AcDbText
 10
-370.015351284657
 20
150.2328134880547
 30
0.0
 40
8.0
  1
樹脂ガイドレールAF_28
 41
0.7404273323460968
  7
dcStyle1
 72
     5
 11
-286.015351284657
 21
150.2328134880547
 31
0.0
100
AcDbText
  0
TEXT
  5
446
330
1F
100
AcDbEntity
  8
0
 62
     7
100
AcDbText
 10
-85.74303841702027
 20
-51.66256230458839
 30
0.0
 40
10.0
  1
Lタイプ
 41
0.7992692395524092
  7
dcStyle1
 72
     5
 11
-50.74303841702027
 21
-51.66256230458839
 31
0.0
100
AcDbText
  0
TEXT
  5
447
330
1F
100
AcDbEntity
  8
0
 62
     7
100
AcDbText
 10
-320.8289603062123
 20
-101.6625623045884
 30
0.0
 40
10.0
  1
Hタイプ
 41
0.7733097657976137
  7
dcStyle1
 72
     5
 11
-285.8289603062123
 21
-101.6625623045884
 31
0.0
100
AcDbText
  0
DIMENSION
  5
448
330
1F
100
AcDbEntity
  8
0
  6
Continuous
370
    13
100
AcDbDimension
280
     0
  2
*D1
 10
-210.5948626281595
 20
-18.34384667904428
 30
0.0
 11
-210.5948626281595
 21
3.452153320955696
 31
0.0
 70
   160
 71
     8
 42
-1.0
 73
     0
 74
     0
 75
     0
  3
dc_Rotated
100
AcDbAlignedDimension
 13
-190.6602125490322
 23
-8.343846679044304
 33
0.0
 14
-169.7602125490322
 24
-18.34384667904428
 34
0.0
 50
90.0
100
AcDbRotatedDimension
1001
ACAD
1000
DSTYLE
1002
{
1070
   144
1040
1.0
1070
   274
1070
     4
1070
    41
1040
6.000003814697266
1070
    79
1070
     2
1070
   343
1005
11B
1070
   344
1005
11B
1070
   176
1070
     2
1070
   177
1070
     2
1070
   178
1070
     2
1070
   271
1070
     2
1070
    44
1040
2.0
1070
    42
1040
2.0
1070
   147
1040
2.0
1070
   173
1070
     1
1070
    77
1070
     3
1070
    73
1070
     0
1070
   172
1070
     1
1070
    74
1070
     0
1070
   283
1070
     0
1070
   340
1005
124
1070
   140
1040
8.0
1070
   284
1070
     8
1070
   288
1070
     1
1070
    78
1070
     8
1070
    90
1070
     1
1002
}
  0
DIMENSION
  5
44A
330
1F
100
AcDbEntity
  8
0
  6
Continuous
370
    13
100
AcDbDimension
280
     0
  2
*D2
 10
25.466962300864
 20
31.6561533209557
 30
0.0
 11
25.466962300864
 21
53.45215332095569
 31
0.0
 70
   160
 71
     8
 42
-1.0
 73
     0
 74
     0
 75
     0
  3
dc_Rotated
100
AcDbAlignedDimension
 13
44.42570934015981
 23
41.6561533209557
 33
0.0
 14
65.32570934015968
 24
31.6561533209557
 34
0.0
 50
90.0
100
AcDbRotatedDimension
1001
ACAD
1000
DSTYLE
1002
{
1070
   144
1040
1.0
1070
   274
1070
     4
1070
    41
1040
6.000003814697266
1070
    79
1070
     2
1070
   343
1005
11B
1070
   344
1005
11B
1070
   176
1070
     2
1070
   177
1070
     2
1070
   178
1070
     2
1070
   271
1070
     2
1070
    44
1040
2.0
1070
    42
1040
2.0
1070
   147
1040
2.0
1070
   173
1070
     1
1070
    77
1070
     3
1070
    73
1070
     0
1070
   172
1070
     1
1070
    74
1070
     0
1070
   283
1070
     0
1070
   340
1005
124
1070
   140
1040
8.0
1070
   284
1070
     8
1070
   288
1070
     1
1070
    78
1070
     8
1070
    90
1070
     1
1002
}
  0
DIMENSION
  5
44B
330
1F
100
AcDbEntity
  8
0
  6
Continuous
370
    13
100
AcDbDimension
280
     0
  2
*D3
 10
-272.9572489316126
 20
125.6561533209557
 30
0.0
 11
-272.9572489316126
 21
113.0545113378997
 31
0.0
 70
   160
 71
     8
 42
-1.0
 73
     0
 74
     0
 75
     0
  3
dc_Rotated
100
AcDbAlignedDimension
 13
-247.4572489316126
 23
97.6561533209557
 33
0.0
 14
-247.4572489316126
 24
125.6561533209557
 34
0.0
 50
90.0
100
AcDbRotatedDimension
1001
ACAD
1000
DSTYLE
1002
{
1070
   144
1040
1.0
1070
   274
1070
     4
1070
    41
1040
6.000003814697266
1070
    79
1070
     2
1070
   343
1005
11B
1070
   344
1005
11B
1070
   176
1070
     2
1070
   177
1070
     2
1070
   178
1070
     2
1070
   271
1070
     2
1070
    44
1040
2.0
1070
    42
1040
2.0
1070
   147
1040
2.0
1070
   173
1070
     1
1070
    77
1070
     3
1070
    73
1070
     0
1070
   172
1070
     1
1070
    74
1070
     0
1070
   283
1070
     0
1070
   340
1005
124
1070
   140
1040
8.0
1070
   284
1070
     8
1070
   288
1070
     1
1070
    78
1070
     8
1070
    90
1070
     1
1002
}
  0
DIMENSION
  5
44C
330
1F
100
AcDbEntity
  8
0
  6
Continuous
370
    13
100
AcDbDimension
280
     0
  2
*D4
 10
-43.17429065984061
 20
125.6561533209557
 30
0.0
 11
-43.17429065984061
 21
111.6561533209557
 31
0.0
 70
   160
 71
     8
 42
-1.0
 73
     0
 74
     0
 75
     0
  3
dc_Rotated
100
AcDbAlignedDimension
 13
-17.67429065984061
 23
97.6561533209557
 33
0.0
 14
-17.67429065984061
 24
125.6561533209557
 34
0.0
 50
90.0
100
AcDbRotatedDimension
1001
ACAD
1000
DSTYLE
1002
{
1070
   144
1040
1.0
1070
   274
1070
     4
1070
    41
1040
6.000003814697266
1070
    79
1070
     2
1070
   343
1005
11B
1070
   344
1005
11B
1070
   176
1070
     2
1070
   177
1070
     2
1070
   178
1070
     2
1070
   271
1070
     2
1070
    44
1040
2.0
1070
    42
1040
2.0
1070
   147
1040
2.0
1070
   173
1070
     1
1070
    77
1070
     3
1070
    73
1070
     0
1070
   172
1070
     1
1070
    74
1070
     0
1070
   283
1070
     0
1070
   340
1005
124
1070
   140
1040
8.0
1070
   284
1070
     8
1070
   288
1070
     1
1070
    78
1070
     8
1070
    90
1070
     1
1002
}
  0
DIMENSION
  5
44D
330
1F
100
AcDbEntity
  8
0
  6
Continuous
370
    13
100
AcDbDimension
280
     0
  2
*D5
 10
-293.9172489316126
 20
111.6561533209557
 30
0.0
 11
-293.9172489316126
 21
46.40058903612061
 31
0.0
 70
   160
  1
90～150
 71
     8
 42
-1.0
 73
     0
 74
     0
 75
     0
  3
dc_Rotated
100
AcDbAlignedDimension
 13
-263.9772079326745
 23
-8.343846679044304
 33
0.0
 14
-250.5706263514637
 24
111.6561533209557
 34
0.0
 50
90.0
100
AcDbRotatedDimension
1001
ACAD
1000
DSTYLE
1002
{
1070
   144
1040
1.0
1070
   274
1070
     4
1070
    41
1040
6.000003814697266
1070
    79
1070
     2
1070
   343
1005
11B
1070
   344
1005
11B
1070
   176
1070
     2
1070
   177
1070
     2
1070
   178
1070
     4
1070
   271
1070
     2
1070
    44
1040
2.0
1070
    42
1040
2.0
1070
   147
1040
2.0
1070
   173
1070
     1
1070
    77
1070
     3
1070
    73
1070
     0
1070
   172
1070
     1
1070
    74
1070
     0
1070
   283
1070
     0
1070
   340
1005
124
1070
   140
1040
8.0
1070
   284
1070
     8
1070
   288
1070
     1
1070
    78
1070
     8
1070
    90
1070
     1
1002
}
  0
DIMENSION
  5
44E
330
1F
100
AcDbEntity
  8
0
  6
Continuous
370
    13
100
AcDbDimension
280
     0
  2
*D6
 10
-66.85755726290046
 20
111.6561533209557
 30
0.0
 11
-66.85755726290046
 21
79.33821251386863
 31
0.0
 70
   160
  1
50～90
 71
     8
 42
-1.0
 73
     0
 74
     0
 75
     0
  3
dc_Rotated
100
AcDbAlignedDimension
 13
-28.89128604348252
 23
41.6561533209557
 33
0.0
 14
-20.7876680796918
 24
111.6561533209557
 34
0.0
 50
90.0
100
AcDbRotatedDimension
1001
ACAD
1000
DSTYLE
1002
{
1070
   144
1040
1.0
1070
   274
1070
     4
1070
    41
1040
6.000003814697266
1070
    79
1070
     2
1070
   343
1005
11B
1070
   344
1005
11B
1070
   176
1070
     2
1070
   177
1070
     2
1070
   178
1070
     4
1070
   271
1070
     2
1070
    44
1040
2.0
1070
    42
1040
2.0
1070
   147
1040
2.0
1070
   173
1070
     1
1070
    77
1070
     3
1070
    73
1070
     0
1070
   172
1070
     1
1070
    74
1070
     0
1070
   283
1070
     0
1070
   340
1005
124
1070
   140
1040
8.0
1070
   284
1070
     8
1070
   288
1070
     1
1070
    78
1070
     8
1070
    90
1070
     1
1002
}
  0
DIMENSION
  5
44F
330
1F
100
AcDbEntity
  8
0
  6
Continuous
370
    13
100
AcDbDimension
280
     0
  2
*D7
 10
267.632387116249
 20
171.6561533209558
 30
0.0
 11
245.8260683102576
 21
171.6561533209558
 31
0.0
 70
   160
 71
     8
 42
-1.0
 73
     0
 74
     0
 75
     0
  3
dc_Rotated
100
AcDbAlignedDimension
 13
222.632387116249
 23
119.6561533209557
 33
0.0
 14
267.632387116249
 24
119.6561533209557
 34
0.0
100
AcDbRotatedDimension
1001
ACAD
1000
DSTYLE
1002
{
1070
   144
1040
1.0
1070
   274
1070
     4
1070
    41
1040
6.000003814697266
1070
    79
1070
     2
1070
   343
1005
11B
1070
   344
1005
11B
1070
   176
1070
     2
1070
   177
1070
     2
1070
   178
1070
     2
1070
   271
1070
     2
1070
    44
1040
2.0
1070
    42
1040
2.0
1070
   147
1040
2.0
1070
   173
1070
     1
1070
    77
1070
     3
1070
    73
1070
     0
1070
   172
1070
     1
1070
    74
1070
     0
1070
   283
1070
     0
1070
   340
1005
124
1070
   140
1040
8.0
1070
   284
1070
     8
1070
   288
1070
     1
1070
    78
1070
     8
1070
    90
1070
     1
1002
}
  0
DIMENSION
  5
450
330
1F
100
AcDbEntity
  8
0
  6
Continuous
370
    13
100
AcDbDimension
280
     0
  2
*D8
 10
-248.9572489316126
 20
151.6561533209556
 30
0.0
 11
-255.3821228857785
 21
151.6561533209556
 31
0.0
 70
   160
 71
     8
 42
-1.0
 73
     0
 74
     0
 75
     0
  3
dc_Rotated
100
AcDbAlignedDimension
 13
-245.9572489316124
 23
125.6561533209557
 33
0.0
 14
-248.9572489316126
 24
124.1561533209557
 34
0.0
100
AcDbRotatedDimension
1001
ACAD
1000
DSTYLE
1002
{
1070
   144
1040
1.0
1070
   274
1070
     4
1070
    41
1040
6.000003814697266
1070
    79
1070
     2
1070
   343
1005
11B
1070
   344
1005
11B
1070
   176
1070
     2
1070
   177
1070
     2
1070
   178
1070
     2
1070
   271
1070
     2
1070
    44
1040
2.0
1070
    42
1040
2.0
1070
   147
1040
2.0
1070
   173
1070
     1
1070
    77
1070
     3
1070
    73
1070
     0
1070
   172
1070
     1
1070
    74
1070
     0
1070
   283
1070
     0
1070
   340
1005
124
1070
   140
1040
8.0
1070
   284
1070
     8
1070
   288
1070
     1
1070
    78
1070
     8
1070
    90
1070
     1
1002
}
  0
DIMENSION
  5
451
330
1F
100
AcDbEntity
  8
0
  6
Continuous
370
    13
100
AcDbDimension
280
     0
  2
*D9
 10
-19.17429065984072
 20
151.6561533209556
 30
0.0
 11
-29.08141089381854
 21
151.6561533209556
 31
0.0
 70
   160
 71
     8
 42
-1.0
 73
     0
 74
     0
 75
     0
  3
dc_Rotated
100
AcDbAlignedDimension
 13
-16.17429065984049
 23
123.6561533209557
 33
0.0
 14
-19.17429065984072
 24
124.1561533209557
 34
0.0
100
AcDbRotatedDimension
1001
ACAD
1000
DSTYLE
1002
{
1070
   144
1040
1.0
1070
   274
1070
     4
1070
    41
1040
6.000003814697266
1070
    79
1070
     2
1070
   343
1005
11B
1070
   344
1005
11B
1070
   176
1070
     2
1070
   177
1070
     2
1070
   178
1070
     2
1070
   271
1070
     2
1070
    44
1040
2.0
1070
    42
1040
2.0
1070
   147
1040
2.0
1070
   173
1070
     1
1070
    77
1070
     3
1070
    73
1070
     0
1070
   172
1070
     1
1070
    74
1070
     0
1070
   283
1070
     0
1070
   340
1005
124
1070
   140
1040
8.0
1070
   284
1070
     8
1070
   288
1070
     1
1070
    78
1070
     8
1070
    90
1070
     1
1002
}
  0
INSERT
  5
452
330
1F
100
AcDbEntity
  8
0
  6
Continuous
100
AcDbBlockReference
  2
DC_GROUP_W_MCD50_G_080_1_1
 10
0.0
 20
0.0
 30
0.0
  0
INSERT
  5
453
330
1F
100
AcDbEntity
  8
0
  6
Continuous
100
AcDbBlockReference
  2
DC_GROUP_W_MCD50_G_080_1_2
 10
0.0
 20
0.0
 30
0.0
  0
INSERT
  5
454
330
1F
100
AcDbEntity
  8
0
  6
Continuous
100
AcDbBlockReference
  2
DC_GROUP_W_MCD50_G_080_1_3
 10
0.0
 20
0.0
 30
0.0
  0
INSERT
  5
455
330
1F
100
AcDbEntity
  8
0
  6
Continuous
100
AcDbBlockReference
  2
DC_GROUP_W_MCD50_G_080_1_4
 10
0.0
 20
0.0
 30
0.0
  0
INSERT
  5
456
330
1F
100
AcDbEntity
  8
0
  6
Continuous
100
AcDbBlockReference
  2
DC_GROUP_W_MCD50_G_080_1_8
 10
0.0
 20
0.0
 30
0.0
  0
INSERT
  5
457
330
1F
100
AcDbEntity
  8
0
  6
Continuous
100
AcDbBlockReference
  2
DC_GROUP_W_MCD50_G_080_1_19
 10
0.0
 20
0.0
 30
0.0
  0
INSERT
  5
458
330
1F
100
AcDbEntity
  8
0
  6
Continuous
100
AcDbBlockReference
  2
DC_GROUP_W_MCD50_G_080_1_20
 10
0.0
 20
0.0
 30
0.0
  0
INSERT
  5
459
330
1F
100
AcDbEntity
  8
0
  6
Continuous
100
AcDbBlockReference
  2
DC_GROUP_W_MCD50_G_080_1_21
 10
0.0
 20
0.0
 30
0.0
  0
INSERT
  5
45A
330
1F
100
AcDbEntity
  8
0
  6
Continuous
100
AcDbBlockReference
  2
DC_GROUP_W_MCD50_G_080_1_22
 10
0.0
 20
0.0
 30
0.0
  0
INSERT
  5
45B
330
1F
100
AcDbEntity
  8
0
  6
Continuous
100
AcDbBlockReference
  2
DC_GROUP_W_MCD50_G_080_1_23
 10
0.0
 20
0.0
 30
0.0
  0
INSERT
  5
45C
330
1F
100
AcDbEntity
  8
0
  6
Continuous
100
AcDbBlockReference
  2
DC_GROUP_W_MCD50_G_080_1_24
 10
0.0
 20
0.0
 30
0.0
  0
INSERT
  5
45D
330
1F
100
AcDbEntity
  8
0
  6
Continuous
100
AcDbBlockReference
  2
DC_GROUP_W_MCD50_G_080_1_25
 10
0.0
 20
0.0
 30
0.0
  0
INSERT
  5
45E
330
1F
100
AcDbEntity
  8
8
  6
Continuous
100
AcDbBlockReference
  2
DC_GROUP_W_MCD50_G_080_1_12
 10
0.0
 20
0.0
 30
0.0
  0
INSERT
  5
45F
330
1F
100
AcDbEntity
  8
ZUWAKU
  6
Continuous
100
AcDbBlockReference
  2
DC_GROUP_W_MCD50_G_080_1_16
 10
0.0
 20
0.0
 30
0.0
  0
INSERT
  5
460
330
1F
100
AcDbEntity
  8
ZUWAKU
  6
Continuous
100
AcDbBlockReference
  2
DC_GROUP_W_MCD50_G_080_1_17
 10
0.0
 20
0.0
 30
0.0
  0
INSERT
  5
461
330
1F
100
AcDbEntity
  8
7
  6
Continuous
100
AcDbBlockReference
  2
DC_GROUP_W_MCD50_G_080_1_18
 10
0.0
 20
0.0
 30
0.0
  0
VIEWPORT
  5
B0
330
1B
100
AcDbEntity
 67
     1
  8
0
100
AcDbViewport
 10
0.0
 20
0.0
 30
0.0
 40
2364.0
 41
1621.536919925734
 68
     1
 69
     1
 12
0.0
 22
0.0
 13
0.0
 23
0.0
 14
0.5
 24
0.5
 15
0.0
 25
0.0
 16
0.0
 26
0.0
 36
1.0
 17
0.0
 27
0.0
 37
0.0
 42
50.0
 43
0.0
 44
0.0
 45
1621.536919925734
 50
0.0
 51
0.0
 72
   100
 90
   557152
  1

281
     0
 71
     1
 74
     0
110
0.0
120
0.0
130
0.0
111
1.0
121
0.0
131
0.0
112
0.0
122
1.0
132
0.0
 79
     0
146
0.0
170
     0
 61
     5
292
     1
282
     1
141
0.0
142
0.0
 63
   256
  0
ENDSEC
  0
SECTION
  2
OBJECTS
  0
DICTIONARY
  5
C
330
0
100
AcDbDictionary
281
     1
  3
ACAD_DETAILVIEWSTYLE
350
496
  3
ACAD_GROUP
350
D
  3
ACAD_LAYOUT
350
1A
  3
ACAD_MATERIAL
350
43
  3
ACAD_MLEADERSTYLE
350
495
  3
ACAD_MLINESTYLE
350
17
  3
ACAD_PLOTSETTINGS
350
19
  3
ACAD_PLOTSTYLENAME
350
E
  3
ACAD_SCALELIST
350
47
  3
ACAD_SECTIONVIEWSTYLE
350
497
  3
ACAD_TABLESTYLE
350
494
  3
ACAD_VISUALSTYLE
350
2A
  3
AcDbVariableDictionary
350
462
  0
SUN
  5
69
330
29
100
AcDbSun
 90
        1
290
     0
 63
     7
421
 16777215
 40
1.0
291
     1
 91
  2455826
 92
 54000000
292
     0
 70
     2
 71
   256
280
     1
  0
DICTIONARY
  5
496
102
{ACAD_REACTORS
330
C
102
}
330
C
100
AcDbDictionary
281
     1
  0
DICTIONARY
  5
D
102
{ACAD_REACTORS
330
C
102
}
330
C
100
AcDbDictionary
281
     1
  0
DICTIONARY
  5
1A
102
{ACAD_REACTORS
330
C
102
}
330
C
100
AcDbDictionary
281
     1
  3
Layout1
350
1E
  3
Layout2
350
26
  3
Model
350
22
  0
DICTIONARY
  5
43
102
{ACAD_REACTORS
330
C
102
}
330
C
100
AcDbDictionary
281
     1
  3
ByBlock
350
45
  3
ByLayer
350
44
  3
Global
350
46
  0
DICTIONARY
  5
495
102
{ACAD_REACTORS
330
C
102
}
330
C
100
AcDbDictionary
281
     1
  0
DICTIONARY
  5
17
102
{ACAD_REACTORS
330
C
102
}
330
C
100
AcDbDictionary
281
     1
  3
Standard
350
18
  0
DICTIONARY
  5
19
102
{ACAD_REACTORS
330
C
102
}
330
C
100
AcDbDictionary
281
     1
  0
ACDBDICTIONARYWDFLT
  5
E
102
{ACAD_REACTORS
330
C
102
}
330
C
100
AcDbDictionary
281
     1
  3
Normal
350
F
100
AcDbDictionaryWithDefault
340
F
  0
DICTIONARY
  5
47
102
{ACAD_REACTORS
330
C
102
}
330
C
100
AcDbDictionary
281
     1
  3
A0
350
48
  3
A1
350
49
  3
A2
350
4A
  3
A3
350
4B
  3
A4
350
4C
  3
A5
350
4D
  3
A6
350
4E
  3
A7
350
4F
  3
A8
350
50
  3
A9
350
51
  3
B0
350
52
  3
B1
350
53
  3
B2
350
54
  3
B3
350
55
  3
B4
350
56
  3
B5
350
57
  3
B6
350
58
  3
B7
350
59
  3
B8
350
5A
  3
B9
350
5B
  3
C0
350
5C
  3
C1
350
5D
  3
C2
350
5E
  3
C3
350
5F
  3
C4
350
60
  3
C5
350
61
  3
C6
350
62
  3
C7
350
63
  3
C8
350
64
  3
C9
350
65
  3
D0
350
66
  3
D1
350
67
  3
D2
350
68
  0
DICTIONARY
  5
497
102
{ACAD_REACTORS
330
C
102
}
330
C
100
AcDbDictionary
281
     1
  0
DICTIONARY
  5
494
102
{ACAD_REACTORS
330
C
102
}
330
C
100
AcDbDictionary
281
     1
  0
DICTIONARY
  5
2A
102
{ACAD_REACTORS
330
C
102
}
330
C
100
AcDbDictionary
281
     1
  3
2dWireframe
350
2F
  3
Basic
350
32
  3
Brighten
350
36
  3
ColorChange
350
3A
  3
Conceptual
350
34
  3
Dim
350
35
  3
EdgeColorOff
350
3D
  3
Facepattern
350
39
  3
Flat
350
2B
  3
FlatWithEdges
350
2C
  3
Gouraud
350
2D
  3
GouraudWithEdges
350
2E
  3
Hidden
350
31
  3
JitterOff
350
3B
  3
Linepattern
350
38
  3
OverhangOff
350
3C
  3
Realistic
350
33
  3
Shaded
350
42
  3
Shaded with edges
350
41
  3
Shades of Gray
350
3E
  3
Sketchy
350
3F
  3
Thicken
350
37
  3
Wireframe
350
30
  3
X-Ray
350
40
  0
DICTIONARY
  5
462
102
{ACAD_REACTORS
330
C
102
}
330
C
100
AcDbDictionary
281
     1
  3
CANNOSCALE
350
463
  0
LAYOUT
  5
1E
102
{ACAD_REACTORS
330
1A
102
}
330
1A
100
AcDbPlotSettings
  1

  2
none_device
  4

  6

 40
0.0
 41
0.0
 42
0.0
 43
0.0
 44
0.0
 45
0.0
 46
0.0
 47
0.0
 48
0.0
 49
0.0
140
0.0
141
0.0
142
1.0
143
1.0
 70
   688
 72
     0
 73
     0
 74
     5
  7

 75
    16
 76
     0
 77
     2
 78
   300
147
1.0
148
0.0
149
0.0
100
AcDbLayout
  1
Layout1
 70
     0
 71
     1
 10
0.0
 20
0.0
 11
12.0
 21
9.0
 12
0.0
 22
0.0
 32
0.0
 14
1.000000000000000E+20
 24
1.000000000000000E+20
 34
1.000000000000000E+20
 15
-1.000000000000000E+20
 25
-1.000000000000000E+20
 35
-1.000000000000000E+20
146
0.0
 13
0.0
 23
0.0
 33
0.0
 16
1.0
 26
0.0
 36
0.0
 17
0.0
 27
1.0
 37
0.0
 76
     0
330
1B
331
B0
  0
LAYOUT
  5
26
102
{ACAD_REACTORS
330
1A
102
}
330
1A
100
AcDbPlotSettings
  1

  2
none_device
  4

  6

 40
0.0
 41
0.0
 42
0.0
 43
0.0
 44
0.0
 45
0.0
 46
0.0
 47
0.0
 48
0.0
 49
0.0
140
0.0
141
0.0
142
1.0
143
1.0
 70
   688
 72
     0
 73
     0
 74
     5
  7

 75
    16
 76
     0
 77
     2
 78
   300
147
1.0
148
0.0
149
0.0
100
AcDbLayout
  1
Layout2
 70
     1
 71
     2
 10
0.0
 20
0.0
 11
0.0
 21
0.0
 12
0.0
 22
0.0
 32
0.0
 14
0.0
 24
0.0
 34
0.0
 15
0.0
 25
0.0
 35
0.0
146
0.0
 13
0.0
 23
0.0
 33
0.0
 16
1.0
 26
0.0
 36
0.0
 17
0.0
 27
1.0
 37
0.0
 76
     0
330
23
  0
LAYOUT
  5
22
102
{ACAD_REACTORS
330
1A
102
}
330
1A
100
AcDbPlotSettings
  1

  2
none_device
  4
Letter_(8.50_x_11.00_Inches)
  6

 40
6.35
 41
6.35
 42
6.35000508
 43
6.35000508
 44
215.9
 45
279.4
 46
0.0
 47
0.0
 48
0.0
 49
0.0
140
0.0
141
0.0
142
1.0
143
1.0
 70
  1712
 72
     0
 73
     0
 74
     0
  7

 75
     0
 76
     0
 77
     2
 78
   300
147
1.0
148
0.0
149
0.0
100
AcDbLayout
  1
Model
 70
     1
 71
     0
 10
-420.0
 20
-297.0
 11
420.0
 21
297.0
 12
0.0
 22
0.0
 32
0.0
 14
-1182.0
 24
-810.7684599628672
 34
0.0
 15
1182.0
 25
810.7684599628672
 35
0.0
146
0.0
 13
0.0
 23
0.0
 33
0.0
 16
1.0
 26
0.0
 36
0.0
 17
0.0
 27
1.0
 37
0.0
 76
     0
330
1F
331
29
  0
MATERIAL
  5
45
102
{ACAD_REACTORS
330
43
102
}
330
43
100
AcDbMaterial
  1
ByBlock
 72
     1
 94
      127
  0
MATERIAL
  5
44
102
{ACAD_REACTORS
330
43
102
}
330
43
100
AcDbMaterial
  1
ByLayer
 72
     1
 94
      127
  0
MATERIAL
  5
46
102
{ACAD_REACTORS
330
43
102
}
330
43
100
AcDbMaterial
  1
Global
 72
     1
 94
      127
  0
MLINESTYLE
  5
18
102
{ACAD_REACTORS
330
17
102
}
330
17
100
AcDbMlineStyle
  2
Standard
 70
     0
  3

 62
   256
 51
90.0
 52
90.0
 71
     2
 49
0.5
 62
   256
  6
BYLAYER
 49
-0.5
 62
   256
  6
BYLAYER
  0
ACDBPLACEHOLDER
  5
F
102
{ACAD_REACTORS
330
E
102
}
330
E
  0
SCALE
  5
48
102
{ACAD_REACTORS
330
47
102
}
330
47
100
AcDbScale
 70
     0
300
1:1
140
1.0
141
1.0
290
     1
  0
SCALE
  5
49
102
{ACAD_REACTORS
330
47
102
}
330
47
100
AcDbScale
 70
     0
300
1:2
140
1.0
141
2.0
290
     0
  0
SCALE
  5
4A
102
{ACAD_REACTORS
330
47
102
}
330
47
100
AcDbScale
 70
     0
300
1:4
140
1.0
141
4.0
290
     0
  0
SCALE
  5
4B
102
{ACAD_REACTORS
330
47
102
}
330
47
100
AcDbScale
 70
     0
300
1:5
140
1.0
141
5.0
290
     0
  0
SCALE
  5
4C
102
{ACAD_REACTORS
330
47
102
}
330
47
100
AcDbScale
 70
     0
300
1:8
140
1.0
141
8.0
290
     0
  0
SCALE
  5
4D
102
{ACAD_REACTORS
330
47
102
}
330
47
100
AcDbScale
 70
     0
300
1:10
140
1.0
141
10.0
290
     0
  0
SCALE
  5
4E
102
{ACAD_REACTORS
330
47
102
}
330
47
100
AcDbScale
 70
     0
300
1:16
140
1.0
141
16.0
290
     0
  0
SCALE
  5
4F
102
{ACAD_REACTORS
330
47
102
}
330
47
100
AcDbScale
 70
     0
300
1:20
140
1.0
141
20.0
290
     0
  0
SCALE
  5
50
102
{ACAD_REACTORS
330
47
102
}
330
47
100
AcDbScale
 70
     0
300
1:30
140
1.0
141
30.0
290
     0
  0
SCALE
  5
51
102
{ACAD_REACTORS
330
47
102
}
330
47
100
AcDbScale
 70
     0
300
1:40
140
1.0
141
40.0
290
     0
  0
SCALE
  5
52
102
{ACAD_REACTORS
330
47
102
}
330
47
100
AcDbScale
 70
     0
300
1:50
140
1.0
141
50.0
290
     0
  0
SCALE
  5
53
102
{ACAD_REACTORS
330
47
102
}
330
47
100
AcDbScale
 70
     0
300
1:100
140
1.0
141
100.0
290
     0
  0
SCALE
  5
54
102
{ACAD_REACTORS
330
47
102
}
330
47
100
AcDbScale
 70
     0
300
2:1
140
2.0
141
1.0
290
     0
  0
SCALE
  5
55
102
{ACAD_REACTORS
330
47
102
}
330
47
100
AcDbScale
 70
     0
300
4:1
140
4.0
141
1.0
290
     0
  0
SCALE
  5
56
102
{ACAD_REACTORS
330
47
102
}
330
47
100
AcDbScale
 70
     0
300
8:1
140
8.0
141
1.0
290
     0
  0
SCALE
  5
57
102
{ACAD_REACTORS
330
47
102
}
330
47
100
AcDbScale
 70
     0
300
10:1
140
10.0
141
1.0
290
     0
  0
SCALE
  5
58
102
{ACAD_REACTORS
330
47
102
}
330
47
100
AcDbScale
 70
     0
300
100:1
140
100.0
141
1.0
290
     0
  0
SCALE
  5
59
102
{ACAD_REACTORS
330
47
102
}
330
47
100
AcDbScale
 70
     0
300
1/128" = 1'-0"
140
0.0078125
141
12.0
290
     0
  0
SCALE
  5
5A
102
{ACAD_REACTORS
330
47
102
}
330
47
100
AcDbScale
 70
     0
300
1/64" = 1'-0"
140
0.015625
141
12.0
290
     0
  0
SCALE
  5
5B
102
{ACAD_REACTORS
330
47
102
}
330
47
100
AcDbScale
 70
     0
300
1/32" = 1'-0"
140
0.03125
141
12.0
290
     0
  0
SCALE
  5
5C
102
{ACAD_REACTORS
330
47
102
}
330
47
100
AcDbScale
 70
     0
300
1/16" = 1'-0"
140
0.0625
141
12.0
290
     0
  0
SCALE
  5
5D
102
{ACAD_REACTORS
330
47
102
}
330
47
100
AcDbScale
 70
     0
300
3/32" = 1'-0"
140
0.09375
141
12.0
290
     0
  0
SCALE
  5
5E
102
{ACAD_REACTORS
330
47
102
}
330
47
100
AcDbScale
 70
     0
300
1/8" = 1'-0"
140
0.125
141
12.0
290
     0
  0
SCALE
  5
5F
102
{ACAD_REACTORS
330
47
102
}
330
47
100
AcDbScale
 70
     0
300
3/16" = 1'-0"
140
0.1875
141
12.0
290
     0
  0
SCALE
  5
60
102
{ACAD_REACTORS
330
47
102
}
330
47
100
AcDbScale
 70
     0
300
1/4" = 1'-0"
140
0.25
141
12.0
290
     0
  0
SCALE
  5
61
102
{ACAD_REACTORS
330
47
102
}
330
47
100
AcDbScale
 70
     0
300
3/8" = 1'-0"
140
0.375
141
12.0
290
     0
  0
SCALE
  5
62
102
{ACAD_REACTORS
330
47
102
}
330
47
100
AcDbScale
 70
     0
300
1/2" = 1'-0"
140
0.5
141
12.0
290
     0
  0
SCALE
  5
63
102
{ACAD_REACTORS
330
47
102
}
330
47
100
AcDbScale
 70
     0
300
3/4" = 1'-0"
140
0.75
141
12.0
290
     0
  0
SCALE
  5
64
102
{ACAD_REACTORS
330
47
102
}
330
47
100
AcDbScale
 70
     0
300
1" = 1'-0"
140
1.0
141
12.0
290
     0
  0
SCALE
  5
65
102
{ACAD_REACTORS
330
47
102
}
330
47
100
AcDbScale
 70
     0
300
1-1/2" = 1'-0"
140
1.5
141
12.0
290
     0
  0
SCALE
  5
66
102
{ACAD_REACTORS
330
47
102
}
330
47
100
AcDbScale
 70
     0
300
3" = 1'-0"
140
3.0
141
12.0
290
     0
  0
SCALE
  5
67
102
{ACAD_REACTORS
330
47
102
}
330
47
100
AcDbScale
 70
     0
300
6" = 1'-0"
140
6.0
141
12.0
290
     0
  0
SCALE
  5
68
102
{ACAD_REACTORS
330
47
102
}
330
47
100
AcDbScale
 70
     0
300
1'-0" = 1'-0"
140
12.0
141
12.0
290
     0
  0
VISUALSTYLE
  5
2F
102
{ACAD_REACTORS
330
2A
102
}
102
{ACAD_XDICTIONARY
360
46C
102
}
330
2A
100
AcDbVisualStyle
  2
2dWireframe
 70
     4
177
     2
291
     0
 71
     0
176
     1
 72
     2
176
     1
 73
     0
176
     1
 90
        0
176
     1
 40
0.6
176
     1
 41
30.0
176
     1
 62
     5
 63
     7
421
 16777215
176
     1
 74
     1
176
     1
 91
        4
176
     1
 64
     7
176
     1
 65
   257
176
     1
 75
     1
176
     1
175
     1
176
     1
 42
1.0
176
     1
 92
        0
176
     1
 66
   257
176
     1
 43
1.0
176
     1
 76
     1
176
     1
 77
     6
176
     1
 78
     2
176
     1
 67
     7
176
     1
 79
     5
176
     1
170
     0
176
     1
171
     0
176
     1
290
     0
176
     1
 93
        1
176
     1
 44
0.0
176
     1
173
     0
176
     1
  0
VISUALSTYLE
  5
32
102
{ACAD_REACTORS
330
2A
102
}
102
{ACAD_XDICTIONARY
360
472
102
}
330
2A
100
AcDbVisualStyle
  2
Basic
 70
     7
177
     2
291
     1
 71
     1
176
     1
 72
     0
176
     1
 73
     1
176
     1
 90
        0
176
     1
 40
0.6
176
     1
 41
30.0
176
     1
 62
     5
 63
     7
421
 16777215
176
     1
 74
     0
176
     1
 91
        4
176
     1
 64
     7
176
     1
 65
   257
176
     1
 75
     1
176
     1
175
     1
176
     1
 42
1.0
176
     1
 92
        8
176
     1
 66
     7
176
     1
 43
1.0
176
     1
 76
     1
176
     1
 77
     6
176
     1
 78
     2
176
     1
 67
     7
176
     1
 79
     5
176
     1
170
     0
176
     1
171
     0
176
     1
290
     0
176
     1
 93
        1
176
     1
 44
0.0
176
     1
173
     0
176
     1
  0
VISUALSTYLE
  5
36
102
{ACAD_REACTORS
330
2A
102
}
102
{ACAD_XDICTIONARY
360
47A
102
}
330
2A
100
AcDbVisualStyle
  2
Brighten
 70
    12
177
     2
291
     1
 71
     2
176
     1
 72
     2
176
     1
 73
     0
176
     1
 90
        0
176
     1
 40
0.6
176
     1
 41
30.0
176
     1
 62
     5
 63
     7
421
 16777215
176
     1
 74
     1
176
     1
 91
        4
176
     1
 64
     7
176
     1
 65
   257
176
     1
 75
     1
176
     1
175
     1
176
     1
 42
1.0
176
     1
 92
        8
176
     1
 66
     7
176
     1
 43
1.0
176
     1
 76
     1
176
     1
 77
     6
176
     1
 78
     2
176
     1
 67
     7
176
     1
 79
     5
176
     1
170
     0
176
     1
171
     0
176
     1
290
     0
176
     1
 93
        1
176
     1
 44
50.0
176
     1
173
     0
176
     1
  0
VISUALSTYLE
  5
3A
102
{ACAD_REACTORS
330
2A
102
}
102
{ACAD_XDICTIONARY
360
482
102
}
330
2A
100
AcDbVisualStyle
  2
ColorChange
 70
    16
177
     2
291
     1
 71
     2
176
     1
 72
     2
176
     1
 73
     3
176
     1
 90
        0
176
     1
 40
0.6
176
     1
 41
30.0
176
     1
 62
     5
 63
     8
421
  8421504
176
     1
 74
     1
176
     1
 91
        4
176
     1
 64
     7
176
     1
 65
   257
176
     1
 75
     1
176
     1
175
     1
176
     1
 42
1.0
176
     1
 92
        8
176
     1
 66
     8
424
  8421504
176
     1
 43
1.0
176
     1
 76
     1
176
     1
 77
     6
176
     1
 78
     2
176
     1
 67
     7
176
     1
 79
     5
176
     1
170
     0
176
     1
171
     0
176
     1
290
     0
176
     1
 93
        1
176
     1
 44
0.0
176
     1
173
     0
176
     1
  0
VISUALSTYLE
  5
34
102
{ACAD_REACTORS
330
2A
102
}
102
{ACAD_XDICTIONARY
360
476
102
}
330
2A
100
AcDbVisualStyle
  2
Conceptual
 70
     9
177
     2
291
     0
 71
     3
176
     1
 72
     2
176
     1
 73
     0
176
     1
 90
        0
176
     1
 40
0.6
176
     1
 41
30.0
176
     1
 62
     5
 63
     7
421
 16777215
176
     1
 74
     2
176
     1
 91
        2
176
     1
 64
     7
176
     1
 65
   257
176
     1
 75
     1
176
     1
175
     1
176
     1
 42
179.0
176
     1
 92
        8
176
     1
 66
     7
176
     1
 43
1.0
176
     1
 76
     1
176
     1
 77
     6
176
     1
 78
     2
176
     1
 67
     7
176
     1
 79
     3
176
     1
170
     0
176
     1
171
     0
176
     1
290
     0
176
     1
 93
        1
176
     1
 44
0.0
176
     1
173
     0
176
     1
  0
VISUALSTYLE
  5
35
102
{ACAD_REACTORS
330
2A
102
}
102
{ACAD_XDICTIONARY
360
478
102
}
330
2A
100
AcDbVisualStyle
  2
Dim
 70
    11
177
     2
291
     1
 71
     2
176
     1
 72
     2
176
     1
 73
     0
176
     1
 90
        0
176
     1
 40
0.6
176
     1
 41
30.0
176
     1
 62
     5
 63
     7
421
 16777215
176
     1
 74
     1
176
     1
 91
        4
176
     1
 64
     7
176
     1
 65
   257
176
     1
 75
     1
176
     1
175
     1
176
     1
 42
1.0
176
     1
 92
        8
176
     1
 66
     7
176
     1
 43
1.0
176
     1
 76
     1
176
     1
 77
     6
176
     1
 78
     2
176
     1
 67
     7
176
     1
 79
     5
176
     1
170
     0
176
     1
171
     0
176
     1
290
     0
176
     1
 93
        1
176
     1
 44
-50.0
176
     1
173
     0
176
     1
  0
VISUALSTYLE
  5
3D
102
{ACAD_REACTORS
330
2A
102
}
102
{ACAD_XDICTIONARY
360
488
102
}
330
2A
100
AcDbVisualStyle
  2
EdgeColorOff
 70
    22
177
     2
291
     1
 71
     2
176
     0
 72
     2
176
     0
 73
     0
176
     0
 90
        0
176
     0
 40
0.6
176
     0
 41
30.0
176
     0
 62
     5
 63
     7
421
 16777215
176
     0
 74
     1
176
     0
 91
        4
176
     0
 64
     7
176
     0
 65
   257
176
     0
 75
     1
176
     0
175
     1
176
     0
 42
1.0
176
     0
 92
        8
176
     2
 66
     7
176
     0
 43
1.0
176
     0
 76
     1
176
     0
 77
     6
176
     0
 78
     2
176
     0
 67
     7
176
     0
 79
     5
176
     0
170
     0
176
     0
171
     0
176
     0
290
     0
176
     0
 93
        1
176
     0
 44
0.0
176
     0
173
     0
176
     0
  0
VISUALSTYLE
  5
39
102
{ACAD_REACTORS
330
2A
102
}
102
{ACAD_XDICTIONARY
360
480
102
}
330
2A
100
AcDbVisualStyle
  2
Facepattern
 70
    15
177
     2
291
     1
 71
     2
176
     1
 72
     2
176
     1
 73
     0
176
     1
 90
        0
176
     1
 40
0.6
176
     1
 41
30.0
176
     1
 62
     5
 63
     7
421
 16777215
176
     1
 74
     1
176
     1
 91
        4
176
     1
 64
     7
176
     1
 65
   257
176
     1
 75
     1
176
     1
175
     1
176
     1
 42
1.0
176
     1
 92
        8
176
     1
 66
     7
176
     1
 43
1.0
176
     1
 76
     1
176
     1
 77
     6
176
     1
 78
     2
176
     1
 67
     7
176
     1
 79
     5
176
     1
170
     0
176
     1
171
     0
176
     1
290
     0
176
     1
 93
        1
176
     1
 44
0.0
176
     1
173
     0
176
     1
  0
VISUALSTYLE
  5
2B
102
{ACAD_REACTORS
330
2A
102
}
102
{ACAD_XDICTIONARY
360
464
102
}
330
2A
100
AcDbVisualStyle
  2
Flat
 70
     0
177
     2
291
     1
 71
     2
176
     1
 72
     1
176
     1
 73
     1
176
     1
 90
        2
176
     1
 40
0.6
176
     1
 41
30.0
176
     1
 62
     5
 63
     7
421
 16777215
176
     1
 74
     0
176
     1
 91
        0
176
     1
 64
     7
176
     1
 65
   257
176
     1
 75
     1
176
     1
175
     1
176
     1
 42
1.0
176
     1
 92
        8
176
     1
 66
     7
176
     1
 43
1.0
176
     1
 76
     1
176
     1
 77
     6
176
     1
 78
     2
176
     1
 67
     7
176
     1
 79
     5
176
     1
170
     0
176
     1
171
     0
176
     1
290
     0
176
     1
 93
       13
176
     1
 44
0.0
176
     1
173
     0
176
     1
  0
VISUALSTYLE
  5
2C
102
{ACAD_REACTORS
330
2A
102
}
102
{ACAD_XDICTIONARY
360
466
102
}
330
2A
100
AcDbVisualStyle
  2
FlatWithEdges
 70
     1
177
     2
291
     1
 71
     2
176
     1
 72
     1
176
     1
 73
     1
176
     1
 90
        2
176
     1
 40
0.6
176
     1
 41
30.0
176
     1
 62
     5
 63
     7
421
 16777215
176
     1
 74
     1
176
     1
 91
        0
176
     1
 64
     7
176
     1
 65
   257
176
     1
 75
     1
176
     1
175
     1
176
     1
 42
1.0
176
     1
 92
        0
176
     1
 66
   257
176
     1
 43
1.0
176
     1
 76
     1
176
     1
 77
     6
176
     1
 78
     2
176
     1
 67
     7
176
     1
 79
     5
176
     1
170
     0
176
     1
171
     0
176
     1
290
     0
176
     1
 93
       13
176
     1
 44
0.0
176
     1
173
     0
176
     1
  0
VISUALSTYLE
  5
2D
102
{ACAD_REACTORS
330
2A
102
}
102
{ACAD_XDICTIONARY
360
468
102
}
330
2A
100
AcDbVisualStyle
  2
Gouraud
 70
     2
177
     2
291
     1
 71
     2
176
     1
 72
     2
176
     1
 73
     1
176
     1
 90
        2
176
     1
 40
0.6
176
     1
 41
30.0
176
     1
 62
     5
 63
     7
421
 16777215
176
     1
 74
     0
176
     1
 91
        0
176
     1
 64
     7
176
     1
 65
   257
176
     1
 75
     1
176
     1
175
     1
176
     1
 42
1.0
176
     1
 92
        0
176
     1
 66
     7
176
     1
 43
1.0
176
     1
 76
     1
176
     1
 77
     6
176
     1
 78
     2
176
     1
 67
     7
176
     1
 79
     5
176
     1
170
     0
176
     1
171
     0
176
     1
290
     0
176
     1
 93
       13
176
     1
 44
0.0
176
     1
173
     0
176
     1
  0
VISUALSTYLE
  5
2E
102
{ACAD_REACTORS
330
2A
102
}
102
{ACAD_XDICTIONARY
360
46A
102
}
330
2A
100
AcDbVisualStyle
  2
GouraudWithEdges
 70
     3
177
     2
291
     1
 71
     2
176
     1
 72
     2
176
     1
 73
     1
176
     1
 90
        2
176
     1
 40
0.6
176
     1
 41
30.0
176
     1
 62
     5
 63
     7
421
 16777215
176
     1
 74
     1
176
     1
 91
        0
176
     1
 64
     7
176
     1
 65
   257
176
     1
 75
     1
176
     1
175
     1
176
     1
 42
1.0
176
     1
 92
        0
176
     1
 66
   257
176
     1
 43
1.0
176
     1
 76
     1
176
     1
 77
     6
176
     1
 78
     2
176
     1
 67
     7
176
     1
 79
     5
176
     1
170
     0
176
     1
171
     0
176
     1
290
     0
176
     1
 93
       13
176
     1
 44
0.0
176
     1
173
     0
176
     1
  0
VISUALSTYLE
  5
31
102
{ACAD_REACTORS
330
2A
102
}
102
{ACAD_XDICTIONARY
360
470
102
}
330
2A
100
AcDbVisualStyle
  2
Hidden
 70
     6
177
     2
291
     0
 71
     1
176
     1
 72
     2
176
     1
 73
     2
176
     1
 90
        0
176
     1
 40
0.6
176
     1
 41
30.0
176
     1
 62
     5
 63
     7
421
 16777215
176
     1
 74
     2
176
     1
 91
        2
176
     1
 64
     7
176
     1
 65
   257
176
     1
 75
     2
176
     1
175
     1
176
     1
 42
40.0
176
     1
 92
        0
176
     1
 66
   257
176
     1
 43
1.0
176
     1
 76
     1
176
     1
 77
     6
176
     1
 78
     2
176
     1
 67
     7
176
     1
 79
     3
176
     1
170
     0
176
     1
171
     0
176
     1
290
     0
176
     1
 93
        1
176
     1
 44
0.0
176
     1
173
     0
176
     1
  0
VISUALSTYLE
  5
3B
102
{ACAD_REACTORS
330
2A
102
}
102
{ACAD_XDICTIONARY
360
484
102
}
330
2A
100
AcDbVisualStyle
  2
JitterOff
 70
    20
177
     2
291
     1
 71
     2
176
     0
 72
     2
176
     0
 73
     0
176
     0
 90
        0
176
     0
 40
0.6
176
     0
 41
30.0
176
     0
 62
     5
 63
     7
421
 16777215
176
     0
 74
     1
176
     0
 91
        4
176
     0
 64
     7
176
     0
 65
   257
176
     0
 75
     1
176
     0
175
     1
176
     0
 42
1.0
176
     0
 92
       10
176
     2
 66
     7
176
     0
 43
1.0
176
     0
 76
     1
176
     0
 77
     6
176
     0
 78
     2
176
     0
 67
     7
176
     0
 79
     5
176
     0
170
     0
176
     0
171
     0
176
     0
290
     0
176
     0
 93
        1
176
     0
 44
0.0
176
     0
173
     0
176
     0
  0
VISUALSTYLE
  5
38
102
{ACAD_REACTORS
330
2A
102
}
102
{ACAD_XDICTIONARY
360
47E
102
}
330
2A
100
AcDbVisualStyle
  2
Linepattern
 70
    14
177
     2
291
     1
 71
     2
176
     1
 72
     2
176
     1
 73
     0
176
     1
 90
        0
176
     1
 40
0.6
176
     1
 41
30.0
176
     1
 62
     5
 63
     7
421
 16777215
176
     1
 74
     1
176
     1
 91
        4
176
     1
 64
     7
176
     1
 65
   257
176
     1
 75
     7
176
     1
175
     7
176
     1
 42
1.0
176
     1
 92
        8
176
     1
 66
     7
176
     1
 43
1.0
176
     1
 76
     1
176
     1
 77
     6
176
     1
 78
     2
176
     1
 67
     7
176
     1
 79
     5
176
     1
170
     0
176
     1
171
     0
176
     1
290
     0
176
     1
 93
        1
176
     1
 44
0.0
176
     1
173
     0
176
     1
  0
VISUALSTYLE
  5
3C
102
{ACAD_REACTORS
330
2A
102
}
102
{ACAD_XDICTIONARY
360
486
102
}
330
2A
100
AcDbVisualStyle
  2
OverhangOff
 70
    21
177
     2
291
     1
 71
     2
176
     0
 72
     2
176
     0
 73
     0
176
     0
 90
        0
176
     0
 40
0.6
176
     0
 41
30.0
176
     0
 62
     5
 63
     7
421
 16777215
176
     0
 74
     1
176
     0
 91
        4
176
     0
 64
     7
176
     0
 65
   257
176
     0
 75
     1
176
     0
175
     1
176
     0
 42
1.0
176
     0
 92
        9
176
     2
 66
     7
176
     0
 43
1.0
176
     0
 76
     1
176
     0
 77
     6
176
     0
 78
     2
176
     0
 67
     7
176
     0
 79
     5
176
     0
170
     0
176
     0
171
     0
176
     0
290
     0
176
     0
 93
        1
176
     0
 44
0.0
176
     0
173
     0
176
     0
  0
VISUALSTYLE
  5
33
102
{ACAD_REACTORS
330
2A
102
}
102
{ACAD_XDICTIONARY
360
474
102
}
330
2A
100
AcDbVisualStyle
  2
Realistic
 70
     8
177
     2
291
     0
 71
     2
176
     1
 72
     3
176
     1
 73
     0
176
     1
 90
        2
176
     1
 40
0.6
176
     1
 41
30.0
176
     1
 62
     5
 63
     7
421
 16777215
176
     1
 74
     0
176
     1
 91
        0
176
     1
 64
     7
176
     1
 65
   257
176
     1
 75
     1
176
     1
175
     1
176
     1
 42
1.0
176
     1
 92
        8
176
     1
 66
   257
176
     1
 43
1.0
176
     1
 76
     1
176
     1
 77
     6
176
     1
 78
     2
176
     1
 67
     7
176
     1
 79
     3
176
     1
170
     0
176
     1
171
     0
176
     1
290
     0
176
     1
 93
       13
176
     1
 44
0.0
176
     1
173
     0
176
     1
  0
VISUALSTYLE
  5
42
102
{ACAD_REACTORS
330
2A
102
}
102
{ACAD_XDICTIONARY
360
492
102
}
330
2A
100
AcDbVisualStyle
  2
Shaded
 70
    27
177
     2
291
     0
 71
     2
176
     1
 72
     2
176
     1
 73
     1
176
     1
 90
        2
176
     1
 40
0.6
176
     1
 41
30.0
176
     1
 62
     5
 63
     7
421
 16777215
176
     1
 74
     0
176
     1
 91
        4
176
     1
 64
     7
176
     1
 65
   257
176
     1
 75
     1
176
     1
175
     1
176
     1
 42
1.0
176
     1
 92
        8
176
     1
 66
   257
176
     1
 43
1.0
176
     1
 76
     1
176
     1
 77
     6
176
     1
 78
     2
176
     1
 67
     8
425
  7895160
176
     1
 79
     3
176
     1
170
     0
176
     1
171
     0
176
     1
290
     0
176
     1
 93
        5
176
     1
 44
0.0
176
     1
173
     0
176
     1
  0
VISUALSTYLE
  5
41
102
{ACAD_REACTORS
330
2A
102
}
102
{ACAD_XDICTIONARY
360
490
102
}
330
2A
100
AcDbVisualStyle
  2
Shaded with edges
 70
    26
177
     2
291
     0
 71
     2
176
     1
 72
     2
176
     1
 73
     1
176
     1
 90
        2
176
     1
 40
0.6
176
     1
 41
30.0
176
     1
 62
     5
 63
     7
421
 16777215
176
     1
 74
     1
176
     1
 91
       10
176
     1
 64
     7
176
     1
 65
   257
176
     1
 75
     2
176
     1
175
     1
176
     1
 42
1.0
176
     1
 92
        8
176
     1
 66
   257
176
     1
 43
1.0
176
     1
 76
     1
176
     1
 77
     6
176
     1
 78
     2
176
     1
 67
     7
176
     1
 79
     3
176
     1
170
     0
176
     1
171
     0
176
     1
290
     0
176
     1
 93
        5
176
     1
 44
0.0
176
     1
173
     0
176
     1
  0
VISUALSTYLE
  5
3E
102
{ACAD_REACTORS
330
2A
102
}
102
{ACAD_XDICTIONARY
360
48A
102
}
330
2A
100
AcDbVisualStyle
  2
Shades of Gray
 70
    23
177
     2
291
     0
 71
     2
176
     1
 72
     2
176
     1
 73
     3
176
     1
 90
        0
176
     1
 40
0.6
176
     1
 41
30.0
176
     1
 62
     5
 63
     7
421
 16777215
176
     1
 74
     2
176
     1
 91
        2
176
     1
 64
     7
176
     1
 65
     7
176
     1
 75
     1
176
     1
175
     1
176
     1
 42
40.0
176
     1
 92
        8
176
     1
 66
     7
176
     1
 43
1.0
176
     1
 76
     1
176
     1
 77
     6
176
     1
 78
     2
176
     1
 67
     7
176
     1
 79
     3
176
     1
170
     0
176
     1
171
     0
176
     1
290
     0
176
     1
 93
        1
176
     1
 44
0.0
176
     1
173
     0
176
     1
  0
VISUALSTYLE
  5
3F
102
{ACAD_REACTORS
330
2A
102
}
102
{ACAD_XDICTIONARY
360
48C
102
}
330
2A
100
AcDbVisualStyle
  2
Sketchy
 70
    24
177
     2
291
     0
 71
     1
176
     1
 72
     2
176
     1
 73
     2
176
     1
 90
        0
176
     1
 40
0.6
176
     1
 41
30.0
176
     1
 62
     5
 63
     7
421
 16777215
176
     1
 74
     2
176
     1
 91
        2
176
     1
 64
     7
176
     1
 65
     7
176
     1
 75
     1
176
     1
175
     1
176
     1
 42
40.0
176
     1
 92
       11
176
     1
 66
     7
176
     1
 43
1.0
176
     1
 76
     1
176
     1
 77
     6
176
     1
 78
     2
176
     1
 67
     7
176
     1
 79
     6
176
     1
170
     0
176
     1
171
     0
176
     1
290
     0
176
     1
 93
        1
176
     1
 44
0.0
176
     1
173
     0
176
     1
  0
VISUALSTYLE
  5
37
102
{ACAD_REACTORS
330
2A
102
}
102
{ACAD_XDICTIONARY
360
47C
102
}
330
2A
100
AcDbVisualStyle
  2
Thicken
 70
    13
177
     2
291
     1
 71
     2
176
     1
 72
     2
176
     1
 73
     0
176
     1
 90
        0
176
     1
 40
0.6
176
     1
 41
30.0
176
     1
 62
     5
 63
     7
421
 16777215
176
     1
 74
     1
176
     1
 91
        4
176
     1
 64
     7
176
     1
 65
   257
176
     1
 75
     1
176
     1
175
     1
176
     1
 42
1.0
176
     1
 92
       12
176
     1
 66
     7
176
     1
 43
1.0
176
     1
 76
     1
176
     1
 77
     6
176
     1
 78
     2
176
     1
 67
     7
176
     1
 79
     5
176
     1
170
     0
176
     1
171
     0
176
     1
290
     0
176
     1
 93
        1
176
     1
 44
0.0
176
     1
173
     0
176
     1
  0
VISUALSTYLE
  5
30
102
{ACAD_REACTORS
330
2A
102
}
102
{ACAD_XDICTIONARY
360
46E
102
}
330
2A
100
AcDbVisualStyle
  2
Wireframe
 70
     5
177
     2
291
     0
 71
     0
176
     1
 72
     2
176
     1
 73
     0
176
     1
 90
        0
176
     1
 40
0.6
176
     1
 41
30.0
176
     1
 62
     5
 63
     7
421
 16777215
176
     1
 74
     1
176
     1
 91
        4
176
     1
 64
     7
176
     1
 65
   257
176
     1
 75
     1
176
     1
175
     1
176
     1
 42
1.0
176
     1
 92
        0
176
     1
 66
   257
176
     1
 43
1.0
176
     1
 76
     1
176
     1
 77
     6
176
     1
 78
     2
176
     1
 67
     7
176
     1
 79
     3
176
     1
170
     0
176
     1
171
     0
176
     1
290
     0
176
     1
 93
        1
176
     1
 44
0.0
176
     1
173
     0
176
     1
  0
VISUALSTYLE
  5
40
102
{ACAD_REACTORS
330
2A
102
}
102
{ACAD_XDICTIONARY
360
48E
102
}
330
2A
100
AcDbVisualStyle
  2
X-Ray
 70
    25
177
     2
291
     0
 71
     2
176
     1
 72
     2
176
     1
 73
     1
176
     1
 90
        1
176
     1
 40
0.5
176
     1
 41
30.0
176
     1
 62
     5
 63
     7
421
 16777215
176
     1
 74
     1
176
     1
 91
        0
176
     1
 64
     7
176
     1
 65
   257
176
     1
 75
     1
176
     1
175
     1
176
     1
 42
1.0
176
     1
 92
        8
176
     1
 66
     7
176
     1
 43
1.0
176
     1
 76
     1
176
     1
 77
     6
176
     1
 78
     2
176
     1
 67
     7
176
     1
 79
     3
176
     1
170
     0
176
     1
171
     0
176
     1
290
     0
176
     1
 93
       13
176
     1
 44
0.0
176
     1
173
     0
176
     1
  0
DICTIONARYVAR
  5
463
102
{ACAD_REACTORS
330
462
102
}
330
462
100
DictionaryVariables
280
     0
  1
1:1
  0
DICTIONARY
  5
46C
330
2F
100
AcDbDictionary
280
     1
281
     1
  3
ACAD_XREC_ROUNDTRIP
360
46D
  0
DICTIONARY
  5
472
330
32
100
AcDbDictionary
280
     1
281
     1
  3
ACAD_XREC_ROUNDTRIP
360
473
  0
DICTIONARY
  5
47A
330
36
100
AcDbDictionary
280
     1
281
     1
  3
ACAD_XREC_ROUNDTRIP
360
47B
  0
DICTIONARY
  5
482
330
3A
100
AcDbDictionary
280
     1
281
     1
  3
ACAD_XREC_ROUNDTRIP
360
483
  0
DICTIONARY
  5
476
330
34
100
AcDbDictionary
280
     1
281
     1
  3
ACAD_XREC_ROUNDTRIP
360
477
  0
DICTIONARY
  5
478
330
35
100
AcDbDictionary
280
     1
281
     1
  3
ACAD_XREC_ROUNDTRIP
360
479
  0
DICTIONARY
  5
488
330
3D
100
AcDbDictionary
280
     1
281
     1
  3
ACAD_XREC_ROUNDTRIP
360
489
  0
DICTIONARY
  5
480
330
39
100
AcDbDictionary
280
     1
281
     1
  3
ACAD_XREC_ROUNDTRIP
360
481
  0
DICTIONARY
  5
464
330
2B
100
AcDbDictionary
280
     1
281
     1
  3
ACAD_XREC_ROUNDTRIP
360
465
  0
DICTIONARY
  5
466
330
2C
100
AcDbDictionary
280
     1
281
     1
  3
ACAD_XREC_ROUNDTRIP
360
467
  0
DICTIONARY
  5
468
330
2D
100
AcDbDictionary
280
     1
281
     1
  3
ACAD_XREC_ROUNDTRIP
360
469
  0
DICTIONARY
  5
46A
330
2E
100
AcDbDictionary
280
     1
281
     1
  3
ACAD_XREC_ROUNDTRIP
360
46B
  0
DICTIONARY
  5
470
330
31
100
AcDbDictionary
280
     1
281
     1
  3
ACAD_XREC_ROUNDTRIP
360
471
  0
DICTIONARY
  5
484
330
3B
100
AcDbDictionary
280
     1
281
     1
  3
ACAD_XREC_ROUNDTRIP
360
485
  0
DICTIONARY
  5
47E
330
38
100
AcDbDictionary
280
     1
281
     1
  3
ACAD_XREC_ROUNDTRIP
360
47F
  0
DICTIONARY
  5
486
330
3C
100
AcDbDictionary
280
     1
281
     1
  3
ACAD_XREC_ROUNDTRIP
360
487
  0
DICTIONARY
  5
474
330
33
100
AcDbDictionary
280
     1
281
     1
  3
ACAD_XREC_ROUNDTRIP
360
475
  0
DICTIONARY
  5
492
330
42
100
AcDbDictionary
280
     1
281
     1
  3
ACAD_XREC_ROUNDTRIP
360
493
  0
DICTIONARY
  5
490
330
41
100
AcDbDictionary
280
     1
281
     1
  3
ACAD_XREC_ROUNDTRIP
360
491
  0
DICTIONARY
  5
48A
330
3E
100
AcDbDictionary
280
     1
281
     1
  3
ACAD_XREC_ROUNDTRIP
360
48B
  0
DICTIONARY
  5
48C
330
3F
100
AcDbDictionary
280
     1
281
     1
  3
ACAD_XREC_ROUNDTRIP
360
48D
  0
DICTIONARY
  5
47C
330
37
100
AcDbDictionary
280
     1
281
     1
  3
ACAD_XREC_ROUNDTRIP
360
47D
  0
DICTIONARY
  5
46E
330
30
100
AcDbDictionary
280
     1
281
     1
  3
ACAD_XREC_ROUNDTRIP
360
46F
  0
DICTIONARY
  5
48E
330
40
100
AcDbDictionary
280
     1
281
     1
  3
ACAD_XREC_ROUNDTRIP
360
48F
  0
XRECORD
  5
46D
102
{ACAD_REACTORS
330
46C
102
}
330
46C
100
AcDbXrecord
280
     1
102
RTVSPost2010Prop28
280
     1
102
RTVSPost2010PropOp28
 70
     1
102
RTVSPost2010Prop29
280
     1
102
RTVSPost2010PropOp29
 70
     1
102
RTVSPost2010Prop30
280
     0
102
RTVSPost2010PropOp30
 70
     1
102
RTVSPost2010Prop31
280
     0
102
RTVSPost2010PropOp31
 70
     1
102
RTVSPost2010Prop32
280
     0
102
RTVSPost2010PropOp32
 70
     1
102
RTVSPost2010Prop33
280
     0
102
RTVSPost2010PropOp33
 70
     1
102
RTVSPost2010Prop34
280
     0
102
RTVSPost2010PropOp34
 70
     1
102
RTVSPost2010Prop35
280
     0
102
RTVSPost2010PropOp35
 70
     1
102
RTVSPost2010Prop36
280
     0
102
RTVSPost2010PropOp36
 70
     1
102
RTVSPost2010Prop37
 90
       50
102
RTVSPost2010PropOp37
 70
     1
102
RTVSPost2010Prop38
140
0.0
102
RTVSPost2010PropOp38
 70
     1
102
RTVSPost2010Prop39
140
1.0
102
RTVSPost2010PropOp39
 70
     1
102
RTVSPost2010Prop40
 90
        0
102
RTVSPost2010PropOp40
 70
     1
102
RTVSPost2010Prop41ColorIndex
 90
       18
102
RTVSPost2010Prop41ColorRGB
 90
        0
102
RTVSPost2010PropOp41
 70
     1
102
RTVSPost2010Prop42
 90
       50
102
RTVSPost2010PropOp42
 70
     1
102
RTVSPost2010Prop43
 90
        3
102
RTVSPost2010PropOp43
 70
     1
102
RTVSPost2010Prop44ColorIndex
 90
        5
102
RTVSPost2010Prop44ColorRGB
 90
      255
102
RTVSPost2010PropOp44
 70
     1
102
RTVSPost2010Prop45
280
     0
102
RTVSPost2010PropOp45
 70
     1
102
RTVSPost2010Prop46
 90
       50
102
RTVSPost2010PropOp46
 70
     1
102
RTVSPost2010Prop47
 90
       50
102
RTVSPost2010PropOp47
 70
     1
102
RTVSPost2010Prop48
 90
       50
102
RTVSPost2010PropOp48
 70
     1
102
RTVSPost2010Prop49
280
     0
102
RTVSPost2010PropOp49
 70
     1
102
RTVSPost2010Prop50
 90
       50
102
RTVSPost2010PropOp50
 70
     1
102
RTVSPost2010Prop51ColorIndex
 90
      256
102
RTVSPost2010Prop51ColorRGB
 90
-16777216
102
RTVSPost2010PropOp51
 70
     0
102
RTVSPost2010Prop52
140
1.0
102
RTVSPost2010PropOp52
 70
     0
102
RTVSPost2010Prop53
 90
        2
102
RTVSPost2010PropOp53
 70
     1
102
RTVSPost2010Prop54
  1
strokes_ogs.tif
102
RTVSPost2010PropOp54
 70
     1
102
RTVSPost2010Prop55
280
     0
102
RTVSPost2010PropOp55
 70
     1
102
RTVSPost2010Prop56
140
1.0
102
RTVSPost2010PropOp56
 70
     1
102
RTVSPost2010Prop57
140
1.0
102
RTVSPost2010PropOp57
 70
     1
  0
XRECORD
  5
473
102
{ACAD_REACTORS
330
472
102
}
330
472
100
AcDbXrecord
280
     1
102
RTVSPost2010Prop28
280
     0
102
RTVSPost2010PropOp28
 70
     1
102
RTVSPost2010Prop29
280
     1
102
RTVSPost2010PropOp29
 70
     1
102
RTVSPost2010Prop30
280
     1
102
RTVSPost2010PropOp30
 70
     1
102
RTVSPost2010Prop31
280
     0
102
RTVSPost2010PropOp31
 70
     1
102
RTVSPost2010Prop32
280
     0
102
RTVSPost2010PropOp32
 70
     1
102
RTVSPost2010Prop33
280
     0
102
RTVSPost2010PropOp33
 70
     1
102
RTVSPost2010Prop34
280
     0
102
RTVSPost2010PropOp34
 70
     1
102
RTVSPost2010Prop35
280
     0
102
RTVSPost2010PropOp35
 70
     1
102
RTVSPost2010Prop36
280
     0
102
RTVSPost2010PropOp36
 70
     1
102
RTVSPost2010Prop37
 90
       50
102
RTVSPost2010PropOp37
 70
     1
102
RTVSPost2010Prop38
140
0.0
102
RTVSPost2010PropOp38
 70
     1
102
RTVSPost2010Prop39
140
1.0
102
RTVSPost2010PropOp39
 70
     1
102
RTVSPost2010Prop40
 90
        0
102
RTVSPost2010PropOp40
 70
     1
102
RTVSPost2010Prop41ColorIndex
 90
       18
102
RTVSPost2010Prop41ColorRGB
 90
        0
102
RTVSPost2010PropOp41
 70
     1
102
RTVSPost2010Prop42
 90
       50
102
RTVSPost2010PropOp42
 70
     1
102
RTVSPost2010Prop43
 90
        3
102
RTVSPost2010PropOp43
 70
     1
102
RTVSPost2010Prop44ColorIndex
 90
        5
102
RTVSPost2010Prop44ColorRGB
 90
      255
102
RTVSPost2010PropOp44
 70
     1
102
RTVSPost2010Prop45
280
     0
102
RTVSPost2010PropOp45
 70
     1
102
RTVSPost2010Prop46
 90
       50
102
RTVSPost2010PropOp46
 70
     1
102
RTVSPost2010Prop47
 90
       50
102
RTVSPost2010PropOp47
 70
     1
102
RTVSPost2010Prop48
 90
       50
102
RTVSPost2010PropOp48
 70
     1
102
RTVSPost2010Prop49
280
     0
102
RTVSPost2010PropOp49
 70
     1
102
RTVSPost2010Prop50
 90
       50
102
RTVSPost2010PropOp50
 70
     1
102
RTVSPost2010Prop51ColorIndex
 90
      256
102
RTVSPost2010Prop51ColorRGB
 90
-16777216
102
RTVSPost2010PropOp51
 70
     0
102
RTVSPost2010Prop52
140
1.0
102
RTVSPost2010PropOp52
 70
     0
102
RTVSPost2010Prop53
 90
        2
102
RTVSPost2010PropOp53
 70
     1
102
RTVSPost2010Prop54
  1
strokes_ogs.tif
102
RTVSPost2010PropOp54
 70
     1
102
RTVSPost2010Prop55
280
     0
102
RTVSPost2010PropOp55
 70
     1
102
RTVSPost2010Prop56
140
1.0
102
RTVSPost2010PropOp56
 70
     1
102
RTVSPost2010Prop57
140
1.0
102
RTVSPost2010PropOp57
 70
     1
  0
XRECORD
  5
47B
102
{ACAD_REACTORS
330
47A
102
}
330
47A
100
AcDbXrecord
280
     1
102
RTVSPost2010Prop28
280
     0
102
RTVSPost2010PropOp28
 70
     1
102
RTVSPost2010Prop29
280
     1
102
RTVSPost2010PropOp29
 70
     1
102
RTVSPost2010Prop30
280
     1
102
RTVSPost2010PropOp30
 70
     1
102
RTVSPost2010Prop31
280
     0
102
RTVSPost2010PropOp31
 70
     1
102
RTVSPost2010Prop32
280
     0
102
RTVSPost2010PropOp32
 70
     1
102
RTVSPost2010Prop33
280
     0
102
RTVSPost2010PropOp33
 70
     1
102
RTVSPost2010Prop34
280
     0
102
RTVSPost2010PropOp34
 70
     1
102
RTVSPost2010Prop35
280
     0
102
RTVSPost2010PropOp35
 70
     1
102
RTVSPost2010Prop36
280
     0
102
RTVSPost2010PropOp36
 70
     1
102
RTVSPost2010Prop37
 90
       50
102
RTVSPost2010PropOp37
 70
     1
102
RTVSPost2010Prop38
140
0.0
102
RTVSPost2010PropOp38
 70
     1
102
RTVSPost2010Prop39
140
1.0
102
RTVSPost2010PropOp39
 70
     1
102
RTVSPost2010Prop40
 90
        0
102
RTVSPost2010PropOp40
 70
     1
102
RTVSPost2010Prop41ColorIndex
 90
       18
102
RTVSPost2010Prop41ColorRGB
 90
        0
102
RTVSPost2010PropOp41
 70
     1
102
RTVSPost2010Prop42
 90
       50
102
RTVSPost2010PropOp42
 70
     1
102
RTVSPost2010Prop43
 90
        3
102
RTVSPost2010PropOp43
 70
     1
102
RTVSPost2010Prop44ColorIndex
 90
        5
102
RTVSPost2010Prop44ColorRGB
 90
      255
102
RTVSPost2010PropOp44
 70
     1
102
RTVSPost2010Prop45
280
     0
102
RTVSPost2010PropOp45
 70
     1
102
RTVSPost2010Prop46
 90
       50
102
RTVSPost2010PropOp46
 70
     1
102
RTVSPost2010Prop47
 90
       50
102
RTVSPost2010PropOp47
 70
     1
102
RTVSPost2010Prop48
 90
       50
102
RTVSPost2010PropOp48
 70
     1
102
RTVSPost2010Prop49
280
     0
102
RTVSPost2010PropOp49
 70
     1
102
RTVSPost2010Prop50
 90
       50
102
RTVSPost2010PropOp50
 70
     1
102
RTVSPost2010Prop51ColorIndex
 90
      256
102
RTVSPost2010Prop51ColorRGB
 90
-16777216
102
RTVSPost2010PropOp51
 70
     0
102
RTVSPost2010Prop52
140
1.0
102
RTVSPost2010PropOp52
 70
     0
102
RTVSPost2010Prop53
 90
        2
102
RTVSPost2010PropOp53
 70
     1
102
RTVSPost2010Prop54
  1
strokes_ogs.tif
102
RTVSPost2010PropOp54
 70
     1
102
RTVSPost2010Prop55
280
     0
102
RTVSPost2010PropOp55
 70
     1
102
RTVSPost2010Prop56
140
1.0
102
RTVSPost2010PropOp56
 70
     1
102
RTVSPost2010Prop57
140
1.0
102
RTVSPost2010PropOp57
 70
     1
  0
XRECORD
  5
483
102
{ACAD_REACTORS
330
482
102
}
330
482
100
AcDbXrecord
280
     1
102
RTVSPost2010Prop28
280
     0
102
RTVSPost2010PropOp28
 70
     1
102
RTVSPost2010Prop29
280
     1
102
RTVSPost2010PropOp29
 70
     1
102
RTVSPost2010Prop30
280
     1
102
RTVSPost2010PropOp30
 70
     1
102
RTVSPost2010Prop31
280
     0
102
RTVSPost2010PropOp31
 70
     1
102
RTVSPost2010Prop32
280
     0
102
RTVSPost2010PropOp32
 70
     1
102
RTVSPost2010Prop33
280
     0
102
RTVSPost2010PropOp33
 70
     1
102
RTVSPost2010Prop34
280
     0
102
RTVSPost2010PropOp34
 70
     1
102
RTVSPost2010Prop35
280
     0
102
RTVSPost2010PropOp35
 70
     1
102
RTVSPost2010Prop36
280
     0
102
RTVSPost2010PropOp36
 70
     1
102
RTVSPost2010Prop37
 90
       50
102
RTVSPost2010PropOp37
 70
     1
102
RTVSPost2010Prop38
140
0.0
102
RTVSPost2010PropOp38
 70
     1
102
RTVSPost2010Prop39
140
1.0
102
RTVSPost2010PropOp39
 70
     1
102
RTVSPost2010Prop40
 90
        0
102
RTVSPost2010PropOp40
 70
     1
102
RTVSPost2010Prop41ColorIndex
 90
       18
102
RTVSPost2010Prop41ColorRGB
 90
        0
102
RTVSPost2010PropOp41
 70
     1
102
RTVSPost2010Prop42
 90
       50
102
RTVSPost2010PropOp42
 70
     1
102
RTVSPost2010Prop43
 90
        3
102
RTVSPost2010PropOp43
 70
     1
102
RTVSPost2010Prop44ColorIndex
 90
        5
102
RTVSPost2010Prop44ColorRGB
 90
      255
102
RTVSPost2010PropOp44
 70
     1
102
RTVSPost2010Prop45
280
     0
102
RTVSPost2010PropOp45
 70
     1
102
RTVSPost2010Prop46
 90
       50
102
RTVSPost2010PropOp46
 70
     1
102
RTVSPost2010Prop47
 90
       50
102
RTVSPost2010PropOp47
 70
     1
102
RTVSPost2010Prop48
 90
       50
102
RTVSPost2010PropOp48
 70
     1
102
RTVSPost2010Prop49
280
     0
102
RTVSPost2010PropOp49
 70
     1
102
RTVSPost2010Prop50
 90
       50
102
RTVSPost2010PropOp50
 70
     1
102
RTVSPost2010Prop51ColorIndex
 90
      256
102
RTVSPost2010Prop51ColorRGB
 90
-16777216
102
RTVSPost2010PropOp51
 70
     0
102
RTVSPost2010Prop52
140
1.0
102
RTVSPost2010PropOp52
 70
     0
102
RTVSPost2010Prop53
 90
        2
102
RTVSPost2010PropOp53
 70
     1
102
RTVSPost2010Prop54
  1
strokes_ogs.tif
102
RTVSPost2010PropOp54
 70
     1
102
RTVSPost2010Prop55
280
     0
102
RTVSPost2010PropOp55
 70
     1
102
RTVSPost2010Prop56
140
1.0
102
RTVSPost2010PropOp56
 70
     1
102
RTVSPost2010Prop57
140
1.0
102
RTVSPost2010PropOp57
 70
     1
  0
XRECORD
  5
477
102
{ACAD_REACTORS
330
476
102
}
330
476
100
AcDbXrecord
280
     1
102
RTVSPost2010Prop28
280
     0
102
RTVSPost2010PropOp28
 70
     1
102
RTVSPost2010Prop29
280
     1
102
RTVSPost2010PropOp29
 70
     1
102
RTVSPost2010Prop30
280
     1
102
RTVSPost2010PropOp30
 70
     1
102
RTVSPost2010Prop31
280
     0
102
RTVSPost2010PropOp31
 70
     1
102
RTVSPost2010Prop32
280
     0
102
RTVSPost2010PropOp32
 70
     1
102
RTVSPost2010Prop33
280
     0
102
RTVSPost2010PropOp33
 70
     1
102
RTVSPost2010Prop34
280
     0
102
RTVSPost2010PropOp34
 70
     1
102
RTVSPost2010Prop35
280
     0
102
RTVSPost2010PropOp35
 70
     1
102
RTVSPost2010Prop36
280
     0
102
RTVSPost2010PropOp36
 70
     1
102
RTVSPost2010Prop37
 90
       50
102
RTVSPost2010PropOp37
 70
     1
102
RTVSPost2010Prop38
140
0.0
102
RTVSPost2010PropOp38
 70
     1
102
RTVSPost2010Prop39
140
1.0
102
RTVSPost2010PropOp39
 70
     1
102
RTVSPost2010Prop40
 90
        0
102
RTVSPost2010PropOp40
 70
     1
102
RTVSPost2010Prop41ColorIndex
 90
       18
102
RTVSPost2010Prop41ColorRGB
 90
        0
102
RTVSPost2010PropOp41
 70
     1
102
RTVSPost2010Prop42
 90
       50
102
RTVSPost2010PropOp42
 70
     1
102
RTVSPost2010Prop43
 90
        3
102
RTVSPost2010PropOp43
 70
     1
102
RTVSPost2010Prop44ColorIndex
 90
        5
102
RTVSPost2010Prop44ColorRGB
 90
      255
102
RTVSPost2010PropOp44
 70
     1
102
RTVSPost2010Prop45
280
     0
102
RTVSPost2010PropOp45
 70
     1
102
RTVSPost2010Prop46
 90
       50
102
RTVSPost2010PropOp46
 70
     1
102
RTVSPost2010Prop47
 90
       50
102
RTVSPost2010PropOp47
 70
     1
102
RTVSPost2010Prop48
 90
       50
102
RTVSPost2010PropOp48
 70
     1
102
RTVSPost2010Prop49
280
     0
102
RTVSPost2010PropOp49
 70
     1
102
RTVSPost2010Prop50
 90
       50
102
RTVSPost2010PropOp50
 70
     1
102
RTVSPost2010Prop51ColorIndex
 90
      256
102
RTVSPost2010Prop51ColorRGB
 90
-16777216
102
RTVSPost2010PropOp51
 70
     0
102
RTVSPost2010Prop52
140
1.0
102
RTVSPost2010PropOp52
 70
     0
102
RTVSPost2010Prop53
 90
        2
102
RTVSPost2010PropOp53
 70
     1
102
RTVSPost2010Prop54
  1
strokes_ogs.tif
102
RTVSPost2010PropOp54
 70
     1
102
RTVSPost2010Prop55
280
     0
102
RTVSPost2010PropOp55
 70
     1
102
RTVSPost2010Prop56
140
1.0
102
RTVSPost2010PropOp56
 70
     1
102
RTVSPost2010Prop57
140
1.0
102
RTVSPost2010PropOp57
 70
     1
  0
XRECORD
  5
479
102
{ACAD_REACTORS
330
478
102
}
330
478
100
AcDbXrecord
280
     1
102
RTVSPost2010Prop28
280
     0
102
RTVSPost2010PropOp28
 70
     1
102
RTVSPost2010Prop29
280
     1
102
RTVSPost2010PropOp29
 70
     1
102
RTVSPost2010Prop30
280
     1
102
RTVSPost2010PropOp30
 70
     1
102
RTVSPost2010Prop31
280
     0
102
RTVSPost2010PropOp31
 70
     1
102
RTVSPost2010Prop32
280
     0
102
RTVSPost2010PropOp32
 70
     1
102
RTVSPost2010Prop33
280
     0
102
RTVSPost2010PropOp33
 70
     1
102
RTVSPost2010Prop34
280
     0
102
RTVSPost2010PropOp34
 70
     1
102
RTVSPost2010Prop35
280
     0
102
RTVSPost2010PropOp35
 70
     1
102
RTVSPost2010Prop36
280
     0
102
RTVSPost2010PropOp36
 70
     1
102
RTVSPost2010Prop37
 90
       50
102
RTVSPost2010PropOp37
 70
     1
102
RTVSPost2010Prop38
140
0.0
102
RTVSPost2010PropOp38
 70
     1
102
RTVSPost2010Prop39
140
1.0
102
RTVSPost2010PropOp39
 70
     1
102
RTVSPost2010Prop40
 90
        0
102
RTVSPost2010PropOp40
 70
     1
102
RTVSPost2010Prop41ColorIndex
 90
       18
102
RTVSPost2010Prop41ColorRGB
 90
        0
102
RTVSPost2010PropOp41
 70
     1
102
RTVSPost2010Prop42
 90
       50
102
RTVSPost2010PropOp42
 70
     1
102
RTVSPost2010Prop43
 90
        3
102
RTVSPost2010PropOp43
 70
     1
102
RTVSPost2010Prop44ColorIndex
 90
        5
102
RTVSPost2010Prop44ColorRGB
 90
      255
102
RTVSPost2010PropOp44
 70
     1
102
RTVSPost2010Prop45
280
     0
102
RTVSPost2010PropOp45
 70
     1
102
RTVSPost2010Prop46
 90
       50
102
RTVSPost2010PropOp46
 70
     1
102
RTVSPost2010Prop47
 90
       50
102
RTVSPost2010PropOp47
 70
     1
102
RTVSPost2010Prop48
 90
       50
102
RTVSPost2010PropOp48
 70
     1
102
RTVSPost2010Prop49
280
     0
102
RTVSPost2010PropOp49
 70
     1
102
RTVSPost2010Prop50
 90
       50
102
RTVSPost2010PropOp50
 70
     1
102
RTVSPost2010Prop51ColorIndex
 90
      256
102
RTVSPost2010Prop51ColorRGB
 90
-16777216
102
RTVSPost2010PropOp51
 70
     0
102
RTVSPost2010Prop52
140
1.0
102
RTVSPost2010PropOp52
 70
     0
102
RTVSPost2010Prop53
 90
        2
102
RTVSPost2010PropOp53
 70
     1
102
RTVSPost2010Prop54
  1
strokes_ogs.tif
102
RTVSPost2010PropOp54
 70
     1
102
RTVSPost2010Prop55
280
     0
102
RTVSPost2010PropOp55
 70
     1
102
RTVSPost2010Prop56
140
1.0
102
RTVSPost2010PropOp56
 70
     1
102
RTVSPost2010Prop57
140
1.0
102
RTVSPost2010PropOp57
 70
     1
  0
XRECORD
  5
489
102
{ACAD_REACTORS
330
488
102
}
330
488
100
AcDbXrecord
280
     1
102
RTVSPost2010Prop28
280
     0
102
RTVSPost2010PropOp28
 70
     0
102
RTVSPost2010Prop29
280
     1
102
RTVSPost2010PropOp29
 70
     0
102
RTVSPost2010Prop30
280
     1
102
RTVSPost2010PropOp30
 70
     0
102
RTVSPost2010Prop31
280
     0
102
RTVSPost2010PropOp31
 70
     0
102
RTVSPost2010Prop32
280
     0
102
RTVSPost2010PropOp32
 70
     0
102
RTVSPost2010Prop33
280
     0
102
RTVSPost2010PropOp33
 70
     0
102
RTVSPost2010Prop34
280
     0
102
RTVSPost2010PropOp34
 70
     0
102
RTVSPost2010Prop35
280
     0
102
RTVSPost2010PropOp35
 70
     0
102
RTVSPost2010Prop36
280
     0
102
RTVSPost2010PropOp36
 70
     0
102
RTVSPost2010Prop37
 90
       50
102
RTVSPost2010PropOp37
 70
     0
102
RTVSPost2010Prop38
140
0.0
102
RTVSPost2010PropOp38
 70
     0
102
RTVSPost2010Prop39
140
1.0
102
RTVSPost2010PropOp39
 70
     0
102
RTVSPost2010Prop40
 90
        0
102
RTVSPost2010PropOp40
 70
     0
102
RTVSPost2010Prop41ColorIndex
 90
       18
102
RTVSPost2010Prop41ColorRGB
 90
        0
102
RTVSPost2010PropOp41
 70
     0
102
RTVSPost2010Prop42
 90
       50
102
RTVSPost2010PropOp42
 70
     0
102
RTVSPost2010Prop43
 90
        3
102
RTVSPost2010PropOp43
 70
     0
102
RTVSPost2010Prop44ColorIndex
 90
        5
102
RTVSPost2010Prop44ColorRGB
 90
      255
102
RTVSPost2010PropOp44
 70
     0
102
RTVSPost2010Prop45
280
     0
102
RTVSPost2010PropOp45
 70
     0
102
RTVSPost2010Prop46
 90
       50
102
RTVSPost2010PropOp46
 70
     0
102
RTVSPost2010Prop47
 90
       50
102
RTVSPost2010PropOp47
 70
     0
102
RTVSPost2010Prop48
 90
       50
102
RTVSPost2010PropOp48
 70
     0
102
RTVSPost2010Prop49
280
     0
102
RTVSPost2010PropOp49
 70
     0
102
RTVSPost2010Prop50
 90
       50
102
RTVSPost2010PropOp50
 70
     0
102
RTVSPost2010Prop51ColorIndex
 90
      256
102
RTVSPost2010Prop51ColorRGB
 90
-16777216
102
RTVSPost2010PropOp51
 70
     0
102
RTVSPost2010Prop52
140
1.0
102
RTVSPost2010PropOp52
 70
     0
102
RTVSPost2010Prop53
 90
        2
102
RTVSPost2010PropOp53
 70
     0
102
RTVSPost2010Prop54
  1
strokes_ogs.tif
102
RTVSPost2010PropOp54
 70
     0
102
RTVSPost2010Prop55
280
     0
102
RTVSPost2010PropOp55
 70
     0
102
RTVSPost2010Prop56
140
1.0
102
RTVSPost2010PropOp56
 70
     0
102
RTVSPost2010Prop57
140
1.0
102
RTVSPost2010PropOp57
 70
     0
  0
XRECORD
  5
481
102
{ACAD_REACTORS
330
480
102
}
330
480
100
AcDbXrecord
280
     1
102
RTVSPost2010Prop28
280
     0
102
RTVSPost2010PropOp28
 70
     1
102
RTVSPost2010Prop29
280
     1
102
RTVSPost2010PropOp29
 70
     1
102
RTVSPost2010Prop30
280
     1
102
RTVSPost2010PropOp30
 70
     1
102
RTVSPost2010Prop31
280
     0
102
RTVSPost2010PropOp31
 70
     1
102
RTVSPost2010Prop32
280
     0
102
RTVSPost2010PropOp32
 70
     1
102
RTVSPost2010Prop33
280
     0
102
RTVSPost2010PropOp33
 70
     1
102
RTVSPost2010Prop34
280
     0
102
RTVSPost2010PropOp34
 70
     1
102
RTVSPost2010Prop35
280
     0
102
RTVSPost2010PropOp35
 70
     1
102
RTVSPost2010Prop36
280
     0
102
RTVSPost2010PropOp36
 70
     1
102
RTVSPost2010Prop37
 90
       50
102
RTVSPost2010PropOp37
 70
     1
102
RTVSPost2010Prop38
140
0.0
102
RTVSPost2010PropOp38
 70
     1
102
RTVSPost2010Prop39
140
1.0
102
RTVSPost2010PropOp39
 70
     1
102
RTVSPost2010Prop40
 90
        0
102
RTVSPost2010PropOp40
 70
     1
102
RTVSPost2010Prop41ColorIndex
 90
       18
102
RTVSPost2010Prop41ColorRGB
 90
        0
102
RTVSPost2010PropOp41
 70
     1
102
RTVSPost2010Prop42
 90
       50
102
RTVSPost2010PropOp42
 70
     1
102
RTVSPost2010Prop43
 90
        3
102
RTVSPost2010PropOp43
 70
     1
102
RTVSPost2010Prop44ColorIndex
 90
        5
102
RTVSPost2010Prop44ColorRGB
 90
      255
102
RTVSPost2010PropOp44
 70
     1
102
RTVSPost2010Prop45
280
     0
102
RTVSPost2010PropOp45
 70
     1
102
RTVSPost2010Prop46
 90
       50
102
RTVSPost2010PropOp46
 70
     1
102
RTVSPost2010Prop47
 90
       50
102
RTVSPost2010PropOp47
 70
     1
102
RTVSPost2010Prop48
 90
       50
102
RTVSPost2010PropOp48
 70
     1
102
RTVSPost2010Prop49
280
     0
102
RTVSPost2010PropOp49
 70
     1
102
RTVSPost2010Prop50
 90
       50
102
RTVSPost2010PropOp50
 70
     1
102
RTVSPost2010Prop51ColorIndex
 90
      256
102
RTVSPost2010Prop51ColorRGB
 90
-16777216
102
RTVSPost2010PropOp51
 70
     0
102
RTVSPost2010Prop52
140
1.0
102
RTVSPost2010PropOp52
 70
     0
102
RTVSPost2010Prop53
 90
        2
102
RTVSPost2010PropOp53
 70
     1
102
RTVSPost2010Prop54
  1
strokes_ogs.tif
102
RTVSPost2010PropOp54
 70
     1
102
RTVSPost2010Prop55
280
     0
102
RTVSPost2010PropOp55
 70
     1
102
RTVSPost2010Prop56
140
1.0
102
RTVSPost2010PropOp56
 70
     1
102
RTVSPost2010Prop57
140
1.0
102
RTVSPost2010PropOp57
 70
     1
  0
XRECORD
  5
465
102
{ACAD_REACTORS
330
464
102
}
330
464
100
AcDbXrecord
280
     1
102
RTVSPost2010Prop28
280
     0
102
RTVSPost2010PropOp28
 70
     1
102
RTVSPost2010Prop29
280
     1
102
RTVSPost2010PropOp29
 70
     1
102
RTVSPost2010Prop30
280
     1
102
RTVSPost2010PropOp30
 70
     1
102
RTVSPost2010Prop31
280
     0
102
RTVSPost2010PropOp31
 70
     1
102
RTVSPost2010Prop32
280
     0
102
RTVSPost2010PropOp32
 70
     1
102
RTVSPost2010Prop33
280
     0
102
RTVSPost2010PropOp33
 70
     1
102
RTVSPost2010Prop34
280
     0
102
RTVSPost2010PropOp34
 70
     1
102
RTVSPost2010Prop35
280
     0
102
RTVSPost2010PropOp35
 70
     1
102
RTVSPost2010Prop36
280
     0
102
RTVSPost2010PropOp36
 70
     1
102
RTVSPost2010Prop37
 90
       50
102
RTVSPost2010PropOp37
 70
     1
102
RTVSPost2010Prop38
140
0.0
102
RTVSPost2010PropOp38
 70
     1
102
RTVSPost2010Prop39
140
1.0
102
RTVSPost2010PropOp39
 70
     1
102
RTVSPost2010Prop40
 90
        0
102
RTVSPost2010PropOp40
 70
     1
102
RTVSPost2010Prop41ColorIndex
 90
       18
102
RTVSPost2010Prop41ColorRGB
 90
        0
102
RTVSPost2010PropOp41
 70
     1
102
RTVSPost2010Prop42
 90
       50
102
RTVSPost2010PropOp42
 70
     1
102
RTVSPost2010Prop43
 90
        3
102
RTVSPost2010PropOp43
 70
     1
102
RTVSPost2010Prop44ColorIndex
 90
        5
102
RTVSPost2010Prop44ColorRGB
 90
      255
102
RTVSPost2010PropOp44
 70
     1
102
RTVSPost2010Prop45
280
     0
102
RTVSPost2010PropOp45
 70
     1
102
RTVSPost2010Prop46
 90
       50
102
RTVSPost2010PropOp46
 70
     1
102
RTVSPost2010Prop47
 90
       50
102
RTVSPost2010PropOp47
 70
     1
102
RTVSPost2010Prop48
 90
       50
102
RTVSPost2010PropOp48
 70
     1
102
RTVSPost2010Prop49
280
     0
102
RTVSPost2010PropOp49
 70
     1
102
RTVSPost2010Prop50
 90
       50
102
RTVSPost2010PropOp50
 70
     1
102
RTVSPost2010Prop51ColorIndex
 90
      256
102
RTVSPost2010Prop51ColorRGB
 90
-16777216
102
RTVSPost2010PropOp51
 70
     0
102
RTVSPost2010Prop52
140
1.0
102
RTVSPost2010PropOp52
 70
     0
102
RTVSPost2010Prop53
 90
        2
102
RTVSPost2010PropOp53
 70
     1
102
RTVSPost2010Prop54
  1
strokes_ogs.tif
102
RTVSPost2010PropOp54
 70
     1
102
RTVSPost2010Prop55
280
     0
102
RTVSPost2010PropOp55
 70
     1
102
RTVSPost2010Prop56
140
1.0
102
RTVSPost2010PropOp56
 70
     1
102
RTVSPost2010Prop57
140
1.0
102
RTVSPost2010PropOp57
 70
     1
  0
XRECORD
  5
467
102
{ACAD_REACTORS
330
466
102
}
330
466
100
AcDbXrecord
280
     1
102
RTVSPost2010Prop28
280
     0
102
RTVSPost2010PropOp28
 70
     1
102
RTVSPost2010Prop29
280
     1
102
RTVSPost2010PropOp29
 70
     1
102
RTVSPost2010Prop30
280
     1
102
RTVSPost2010PropOp30
 70
     1
102
RTVSPost2010Prop31
280
     0
102
RTVSPost2010PropOp31
 70
     1
102
RTVSPost2010Prop32
280
     0
102
RTVSPost2010PropOp32
 70
     1
102
RTVSPost2010Prop33
280
     0
102
RTVSPost2010PropOp33
 70
     1
102
RTVSPost2010Prop34
280
     0
102
RTVSPost2010PropOp34
 70
     1
102
RTVSPost2010Prop35
280
     0
102
RTVSPost2010PropOp35
 70
     1
102
RTVSPost2010Prop36
280
     0
102
RTVSPost2010PropOp36
 70
     1
102
RTVSPost2010Prop37
 90
       50
102
RTVSPost2010PropOp37
 70
     1
102
RTVSPost2010Prop38
140
0.0
102
RTVSPost2010PropOp38
 70
     1
102
RTVSPost2010Prop39
140
1.0
102
RTVSPost2010PropOp39
 70
     1
102
RTVSPost2010Prop40
 90
        0
102
RTVSPost2010PropOp40
 70
     1
102
RTVSPost2010Prop41ColorIndex
 90
       18
102
RTVSPost2010Prop41ColorRGB
 90
        0
102
RTVSPost2010PropOp41
 70
     1
102
RTVSPost2010Prop42
 90
       50
102
RTVSPost2010PropOp42
 70
     1
102
RTVSPost2010Prop43
 90
        3
102
RTVSPost2010PropOp43
 70
     1
102
RTVSPost2010Prop44ColorIndex
 90
        5
102
RTVSPost2010Prop44ColorRGB
 90
      255
102
RTVSPost2010PropOp44
 70
     1
102
RTVSPost2010Prop45
280
     0
102
RTVSPost2010PropOp45
 70
     1
102
RTVSPost2010Prop46
 90
       50
102
RTVSPost2010PropOp46
 70
     1
102
RTVSPost2010Prop47
 90
       50
102
RTVSPost2010PropOp47
 70
     1
102
RTVSPost2010Prop48
 90
       50
102
RTVSPost2010PropOp48
 70
     1
102
RTVSPost2010Prop49
280
     0
102
RTVSPost2010PropOp49
 70
     1
102
RTVSPost2010Prop50
 90
       50
102
RTVSPost2010PropOp50
 70
     1
102
RTVSPost2010Prop51ColorIndex
 90
      256
102
RTVSPost2010Prop51ColorRGB
 90
-16777216
102
RTVSPost2010PropOp51
 70
     0
102
RTVSPost2010Prop52
140
1.0
102
RTVSPost2010PropOp52
 70
     0
102
RTVSPost2010Prop53
 90
        2
102
RTVSPost2010PropOp53
 70
     1
102
RTVSPost2010Prop54
  1
strokes_ogs.tif
102
RTVSPost2010PropOp54
 70
     1
102
RTVSPost2010Prop55
280
     0
102
RTVSPost2010PropOp55
 70
     1
102
RTVSPost2010Prop56
140
1.0
102
RTVSPost2010PropOp56
 70
     1
102
RTVSPost2010Prop57
140
1.0
102
RTVSPost2010PropOp57
 70
     1
  0
XRECORD
  5
469
102
{ACAD_REACTORS
330
468
102
}
330
468
100
AcDbXrecord
280
     1
102
RTVSPost2010Prop28
280
     0
102
RTVSPost2010PropOp28
 70
     1
102
RTVSPost2010Prop29
280
     1
102
RTVSPost2010PropOp29
 70
     1
102
RTVSPost2010Prop30
280
     1
102
RTVSPost2010PropOp30
 70
     1
102
RTVSPost2010Prop31
280
     0
102
RTVSPost2010PropOp31
 70
     1
102
RTVSPost2010Prop32
280
     0
102
RTVSPost2010PropOp32
 70
     1
102
RTVSPost2010Prop33
280
     0
102
RTVSPost2010PropOp33
 70
     1
102
RTVSPost2010Prop34
280
     0
102
RTVSPost2010PropOp34
 70
     1
102
RTVSPost2010Prop35
280
     0
102
RTVSPost2010PropOp35
 70
     1
102
RTVSPost2010Prop36
280
     0
102
RTVSPost2010PropOp36
 70
     1
102
RTVSPost2010Prop37
 90
       50
102
RTVSPost2010PropOp37
 70
     1
102
RTVSPost2010Prop38
140
0.0
102
RTVSPost2010PropOp38
 70
     1
102
RTVSPost2010Prop39
140
1.0
102
RTVSPost2010PropOp39
 70
     1
102
RTVSPost2010Prop40
 90
        0
102
RTVSPost2010PropOp40
 70
     1
102
RTVSPost2010Prop41ColorIndex
 90
       18
102
RTVSPost2010Prop41ColorRGB
 90
        0
102
RTVSPost2010PropOp41
 70
     1
102
RTVSPost2010Prop42
 90
       50
102
RTVSPost2010PropOp42
 70
     1
102
RTVSPost2010Prop43
 90
        3
102
RTVSPost2010PropOp43
 70
     1
102
RTVSPost2010Prop44ColorIndex
 90
        5
102
RTVSPost2010Prop44ColorRGB
 90
      255
102
RTVSPost2010PropOp44
 70
     1
102
RTVSPost2010Prop45
280
     0
102
RTVSPost2010PropOp45
 70
     1
102
RTVSPost2010Prop46
 90
       50
102
RTVSPost2010PropOp46
 70
     1
102
RTVSPost2010Prop47
 90
       50
102
RTVSPost2010PropOp47
 70
     1
102
RTVSPost2010Prop48
 90
       50
102
RTVSPost2010PropOp48
 70
     1
102
RTVSPost2010Prop49
280
     0
102
RTVSPost2010PropOp49
 70
     1
102
RTVSPost2010Prop50
 90
       50
102
RTVSPost2010PropOp50
 70
     1
102
RTVSPost2010Prop51ColorIndex
 90
      256
102
RTVSPost2010Prop51ColorRGB
 90
-16777216
102
RTVSPost2010PropOp51
 70
     0
102
RTVSPost2010Prop52
140
1.0
102
RTVSPost2010PropOp52
 70
     0
102
RTVSPost2010Prop53
 90
        2
102
RTVSPost2010PropOp53
 70
     1
102
RTVSPost2010Prop54
  1
strokes_ogs.tif
102
RTVSPost2010PropOp54
 70
     1
102
RTVSPost2010Prop55
280
     0
102
RTVSPost2010PropOp55
 70
     1
102
RTVSPost2010Prop56
140
1.0
102
RTVSPost2010PropOp56
 70
     1
102
RTVSPost2010Prop57
140
1.0
102
RTVSPost2010PropOp57
 70
     1
  0
XRECORD
  5
46B
102
{ACAD_REACTORS
330
46A
102
}
330
46A
100
AcDbXrecord
280
     1
102
RTVSPost2010Prop28
280
     0
102
RTVSPost2010PropOp28
 70
     1
102
RTVSPost2010Prop29
280
     1
102
RTVSPost2010PropOp29
 70
     1
102
RTVSPost2010Prop30
280
     1
102
RTVSPost2010PropOp30
 70
     1
102
RTVSPost2010Prop31
280
     0
102
RTVSPost2010PropOp31
 70
     1
102
RTVSPost2010Prop32
280
     0
102
RTVSPost2010PropOp32
 70
     1
102
RTVSPost2010Prop33
280
     0
102
RTVSPost2010PropOp33
 70
     1
102
RTVSPost2010Prop34
280
     0
102
RTVSPost2010PropOp34
 70
     1
102
RTVSPost2010Prop35
280
     0
102
RTVSPost2010PropOp35
 70
     1
102
RTVSPost2010Prop36
280
     0
102
RTVSPost2010PropOp36
 70
     1
102
RTVSPost2010Prop37
 90
       50
102
RTVSPost2010PropOp37
 70
     1
102
RTVSPost2010Prop38
140
0.0
102
RTVSPost2010PropOp38
 70
     1
102
RTVSPost2010Prop39
140
1.0
102
RTVSPost2010PropOp39
 70
     1
102
RTVSPost2010Prop40
 90
        0
102
RTVSPost2010PropOp40
 70
     1
102
RTVSPost2010Prop41ColorIndex
 90
       18
102
RTVSPost2010Prop41ColorRGB
 90
        0
102
RTVSPost2010PropOp41
 70
     1
102
RTVSPost2010Prop42
 90
       50
102
RTVSPost2010PropOp42
 70
     1
102
RTVSPost2010Prop43
 90
        3
102
RTVSPost2010PropOp43
 70
     1
102
RTVSPost2010Prop44ColorIndex
 90
        5
102
RTVSPost2010Prop44ColorRGB
 90
      255
102
RTVSPost2010PropOp44
 70
     1
102
RTVSPost2010Prop45
280
     0
102
RTVSPost2010PropOp45
 70
     1
102
RTVSPost2010Prop46
 90
       50
102
RTVSPost2010PropOp46
 70
     1
102
RTVSPost2010Prop47
 90
       50
102
RTVSPost2010PropOp47
 70
     1
102
RTVSPost2010Prop48
 90
       50
102
RTVSPost2010PropOp48
 70
     1
102
RTVSPost2010Prop49
280
     0
102
RTVSPost2010PropOp49
 70
     1
102
RTVSPost2010Prop50
 90
       50
102
RTVSPost2010PropOp50
 70
     1
102
RTVSPost2010Prop51ColorIndex
 90
      256
102
RTVSPost2010Prop51ColorRGB
 90
-16777216
102
RTVSPost2010PropOp51
 70
     0
102
RTVSPost2010Prop52
140
1.0
102
RTVSPost2010PropOp52
 70
     0
102
RTVSPost2010Prop53
 90
        2
102
RTVSPost2010PropOp53
 70
     1
102
RTVSPost2010Prop54
  1
strokes_ogs.tif
102
RTVSPost2010PropOp54
 70
     1
102
RTVSPost2010Prop55
280
     0
102
RTVSPost2010PropOp55
 70
     1
102
RTVSPost2010Prop56
140
1.0
102
RTVSPost2010PropOp56
 70
     1
102
RTVSPost2010Prop57
140
1.0
102
RTVSPost2010PropOp57
 70
     1
  0
XRECORD
  5
471
102
{ACAD_REACTORS
330
470
102
}
330
470
100
AcDbXrecord
280
     1
102
RTVSPost2010Prop28
280
     0
102
RTVSPost2010PropOp28
 70
     1
102
RTVSPost2010Prop29
280
     1
102
RTVSPost2010PropOp29
 70
     1
102
RTVSPost2010Prop30
280
     1
102
RTVSPost2010PropOp30
 70
     1
102
RTVSPost2010Prop31
280
     0
102
RTVSPost2010PropOp31
 70
     1
102
RTVSPost2010Prop32
280
     0
102
RTVSPost2010PropOp32
 70
     1
102
RTVSPost2010Prop33
280
     0
102
RTVSPost2010PropOp33
 70
     1
102
RTVSPost2010Prop34
280
     0
102
RTVSPost2010PropOp34
 70
     1
102
RTVSPost2010Prop35
280
     0
102
RTVSPost2010PropOp35
 70
     1
102
RTVSPost2010Prop36
280
     0
102
RTVSPost2010PropOp36
 70
     1
102
RTVSPost2010Prop37
 90
       50
102
RTVSPost2010PropOp37
 70
     1
102
RTVSPost2010Prop38
140
0.0
102
RTVSPost2010PropOp38
 70
     1
102
RTVSPost2010Prop39
140
1.0
102
RTVSPost2010PropOp39
 70
     1
102
RTVSPost2010Prop40
 90
        0
102
RTVSPost2010PropOp40
 70
     1
102
RTVSPost2010Prop41ColorIndex
 90
       18
102
RTVSPost2010Prop41ColorRGB
 90
        0
102
RTVSPost2010PropOp41
 70
     1
102
RTVSPost2010Prop42
 90
       50
102
RTVSPost2010PropOp42
 70
     1
102
RTVSPost2010Prop43
 90
        3
102
RTVSPost2010PropOp43
 70
     1
102
RTVSPost2010Prop44ColorIndex
 90
        5
102
RTVSPost2010Prop44ColorRGB
 90
      255
102
RTVSPost2010PropOp44
 70
     1
102
RTVSPost2010Prop45
280
     0
102
RTVSPost2010PropOp45
 70
     1
102
RTVSPost2010Prop46
 90
       50
102
RTVSPost2010PropOp46
 70
     1
102
RTVSPost2010Prop47
 90
       50
102
RTVSPost2010PropOp47
 70
     1
102
RTVSPost2010Prop48
 90
       50
102
RTVSPost2010PropOp48
 70
     1
102
RTVSPost2010Prop49
280
     0
102
RTVSPost2010PropOp49
 70
     1
102
RTVSPost2010Prop50
 90
       50
102
RTVSPost2010PropOp50
 70
     1
102
RTVSPost2010Prop51ColorIndex
 90
      256
102
RTVSPost2010Prop51ColorRGB
 90
-16777216
102
RTVSPost2010PropOp51
 70
     0
102
RTVSPost2010Prop52
140
1.0
102
RTVSPost2010PropOp52
 70
     0
102
RTVSPost2010Prop53
 90
        2
102
RTVSPost2010PropOp53
 70
     1
102
RTVSPost2010Prop54
  1
strokes_ogs.tif
102
RTVSPost2010PropOp54
 70
     1
102
RTVSPost2010Prop55
280
     0
102
RTVSPost2010PropOp55
 70
     1
102
RTVSPost2010Prop56
140
1.0
102
RTVSPost2010PropOp56
 70
     1
102
RTVSPost2010Prop57
140
1.0
102
RTVSPost2010PropOp57
 70
     1
  0
XRECORD
  5
485
102
{ACAD_REACTORS
330
484
102
}
330
484
100
AcDbXrecord
280
     1
102
RTVSPost2010Prop28
280
     0
102
RTVSPost2010PropOp28
 70
     0
102
RTVSPost2010Prop29
280
     1
102
RTVSPost2010PropOp29
 70
     0
102
RTVSPost2010Prop30
280
     1
102
RTVSPost2010PropOp30
 70
     0
102
RTVSPost2010Prop31
280
     0
102
RTVSPost2010PropOp31
 70
     0
102
RTVSPost2010Prop32
280
     0
102
RTVSPost2010PropOp32
 70
     0
102
RTVSPost2010Prop33
280
     0
102
RTVSPost2010PropOp33
 70
     0
102
RTVSPost2010Prop34
280
     0
102
RTVSPost2010PropOp34
 70
     0
102
RTVSPost2010Prop35
280
     0
102
RTVSPost2010PropOp35
 70
     0
102
RTVSPost2010Prop36
280
     0
102
RTVSPost2010PropOp36
 70
     0
102
RTVSPost2010Prop37
 90
       50
102
RTVSPost2010PropOp37
 70
     0
102
RTVSPost2010Prop38
140
0.0
102
RTVSPost2010PropOp38
 70
     0
102
RTVSPost2010Prop39
140
1.0
102
RTVSPost2010PropOp39
 70
     0
102
RTVSPost2010Prop40
 90
        0
102
RTVSPost2010PropOp40
 70
     0
102
RTVSPost2010Prop41ColorIndex
 90
       18
102
RTVSPost2010Prop41ColorRGB
 90
        0
102
RTVSPost2010PropOp41
 70
     0
102
RTVSPost2010Prop42
 90
       50
102
RTVSPost2010PropOp42
 70
     0
102
RTVSPost2010Prop43
 90
        3
102
RTVSPost2010PropOp43
 70
     0
102
RTVSPost2010Prop44ColorIndex
 90
        5
102
RTVSPost2010Prop44ColorRGB
 90
      255
102
RTVSPost2010PropOp44
 70
     0
102
RTVSPost2010Prop45
280
     0
102
RTVSPost2010PropOp45
 70
     0
102
RTVSPost2010Prop46
 90
       50
102
RTVSPost2010PropOp46
 70
     0
102
RTVSPost2010Prop47
 90
       50
102
RTVSPost2010PropOp47
 70
     0
102
RTVSPost2010Prop48
 90
       50
102
RTVSPost2010PropOp48
 70
     0
102
RTVSPost2010Prop49
280
     0
102
RTVSPost2010PropOp49
 70
     0
102
RTVSPost2010Prop50
 90
       50
102
RTVSPost2010PropOp50
 70
     0
102
RTVSPost2010Prop51ColorIndex
 90
      256
102
RTVSPost2010Prop51ColorRGB
 90
-16777216
102
RTVSPost2010PropOp51
 70
     0
102
RTVSPost2010Prop52
140
1.0
102
RTVSPost2010PropOp52
 70
     0
102
RTVSPost2010Prop53
 90
        2
102
RTVSPost2010PropOp53
 70
     0
102
RTVSPost2010Prop54
  1
strokes_ogs.tif
102
RTVSPost2010PropOp54
 70
     0
102
RTVSPost2010Prop55
280
     0
102
RTVSPost2010PropOp55
 70
     0
102
RTVSPost2010Prop56
140
1.0
102
RTVSPost2010PropOp56
 70
     0
102
RTVSPost2010Prop57
140
1.0
102
RTVSPost2010PropOp57
 70
     0
  0
XRECORD
  5
47F
102
{ACAD_REACTORS
330
47E
102
}
330
47E
100
AcDbXrecord
280
     1
102
RTVSPost2010Prop28
280
     0
102
RTVSPost2010PropOp28
 70
     1
102
RTVSPost2010Prop29
280
     1
102
RTVSPost2010PropOp29
 70
     1
102
RTVSPost2010Prop30
280
     1
102
RTVSPost2010PropOp30
 70
     1
102
RTVSPost2010Prop31
280
     0
102
RTVSPost2010PropOp31
 70
     1
102
RTVSPost2010Prop32
280
     0
102
RTVSPost2010PropOp32
 70
     1
102
RTVSPost2010Prop33
280
     0
102
RTVSPost2010PropOp33
 70
     1
102
RTVSPost2010Prop34
280
     0
102
RTVSPost2010PropOp34
 70
     1
102
RTVSPost2010Prop35
280
     0
102
RTVSPost2010PropOp35
 70
     1
102
RTVSPost2010Prop36
280
     0
102
RTVSPost2010PropOp36
 70
     1
102
RTVSPost2010Prop37
 90
       50
102
RTVSPost2010PropOp37
 70
     1
102
RTVSPost2010Prop38
140
0.0
102
RTVSPost2010PropOp38
 70
     1
102
RTVSPost2010Prop39
140
1.0
102
RTVSPost2010PropOp39
 70
     1
102
RTVSPost2010Prop40
 90
        0
102
RTVSPost2010PropOp40
 70
     1
102
RTVSPost2010Prop41ColorIndex
 90
       18
102
RTVSPost2010Prop41ColorRGB
 90
        0
102
RTVSPost2010PropOp41
 70
     1
102
RTVSPost2010Prop42
 90
       50
102
RTVSPost2010PropOp42
 70
     1
102
RTVSPost2010Prop43
 90
        3
102
RTVSPost2010PropOp43
 70
     1
102
RTVSPost2010Prop44ColorIndex
 90
        5
102
RTVSPost2010Prop44ColorRGB
 90
      255
102
RTVSPost2010PropOp44
 70
     1
102
RTVSPost2010Prop45
280
     0
102
RTVSPost2010PropOp45
 70
     1
102
RTVSPost2010Prop46
 90
       50
102
RTVSPost2010PropOp46
 70
     1
102
RTVSPost2010Prop47
 90
       50
102
RTVSPost2010PropOp47
 70
     1
102
RTVSPost2010Prop48
 90
       50
102
RTVSPost2010PropOp48
 70
     1
102
RTVSPost2010Prop49
280
     0
102
RTVSPost2010PropOp49
 70
     1
102
RTVSPost2010Prop50
 90
       50
102
RTVSPost2010PropOp50
 70
     1
102
RTVSPost2010Prop51ColorIndex
 90
      256
102
RTVSPost2010Prop51ColorRGB
 90
-16777216
102
RTVSPost2010PropOp51
 70
     0
102
RTVSPost2010Prop52
140
1.0
102
RTVSPost2010PropOp52
 70
     0
102
RTVSPost2010Prop53
 90
        2
102
RTVSPost2010PropOp53
 70
     1
102
RTVSPost2010Prop54
  1
strokes_ogs.tif
102
RTVSPost2010PropOp54
 70
     1
102
RTVSPost2010Prop55
280
     0
102
RTVSPost2010PropOp55
 70
     1
102
RTVSPost2010Prop56
140
1.0
102
RTVSPost2010PropOp56
 70
     1
102
RTVSPost2010Prop57
140
1.0
102
RTVSPost2010PropOp57
 70
     1
  0
XRECORD
  5
487
102
{ACAD_REACTORS
330
486
102
}
330
486
100
AcDbXrecord
280
     1
102
RTVSPost2010Prop28
280
     0
102
RTVSPost2010PropOp28
 70
     0
102
RTVSPost2010Prop29
280
     1
102
RTVSPost2010PropOp29
 70
     0
102
RTVSPost2010Prop30
280
     1
102
RTVSPost2010PropOp30
 70
     0
102
RTVSPost2010Prop31
280
     0
102
RTVSPost2010PropOp31
 70
     0
102
RTVSPost2010Prop32
280
     0
102
RTVSPost2010PropOp32
 70
     0
102
RTVSPost2010Prop33
280
     0
102
RTVSPost2010PropOp33
 70
     0
102
RTVSPost2010Prop34
280
     0
102
RTVSPost2010PropOp34
 70
     0
102
RTVSPost2010Prop35
280
     0
102
RTVSPost2010PropOp35
 70
     0
102
RTVSPost2010Prop36
280
     0
102
RTVSPost2010PropOp36
 70
     0
102
RTVSPost2010Prop37
 90
       50
102
RTVSPost2010PropOp37
 70
     0
102
RTVSPost2010Prop38
140
0.0
102
RTVSPost2010PropOp38
 70
     0
102
RTVSPost2010Prop39
140
1.0
102
RTVSPost2010PropOp39
 70
     0
102
RTVSPost2010Prop40
 90
        0
102
RTVSPost2010PropOp40
 70
     0
102
RTVSPost2010Prop41ColorIndex
 90
       18
102
RTVSPost2010Prop41ColorRGB
 90
        0
102
RTVSPost2010PropOp41
 70
     0
102
RTVSPost2010Prop42
 90
       50
102
RTVSPost2010PropOp42
 70
     0
102
RTVSPost2010Prop43
 90
        3
102
RTVSPost2010PropOp43
 70
     0
102
RTVSPost2010Prop44ColorIndex
 90
        5
102
RTVSPost2010Prop44ColorRGB
 90
      255
102
RTVSPost2010PropOp44
 70
     0
102
RTVSPost2010Prop45
280
     0
102
RTVSPost2010PropOp45
 70
     0
102
RTVSPost2010Prop46
 90
       50
102
RTVSPost2010PropOp46
 70
     0
102
RTVSPost2010Prop47
 90
       50
102
RTVSPost2010PropOp47
 70
     0
102
RTVSPost2010Prop48
 90
       50
102
RTVSPost2010PropOp48
 70
     0
102
RTVSPost2010Prop49
280
     0
102
RTVSPost2010PropOp49
 70
     0
102
RTVSPost2010Prop50
 90
       50
102
RTVSPost2010PropOp50
 70
     0
102
RTVSPost2010Prop51ColorIndex
 90
      256
102
RTVSPost2010Prop51ColorRGB
 90
-16777216
102
RTVSPost2010PropOp51
 70
     0
102
RTVSPost2010Prop52
140
1.0
102
RTVSPost2010PropOp52
 70
     0
102
RTVSPost2010Prop53
 90
        2
102
RTVSPost2010PropOp53
 70
     0
102
RTVSPost2010Prop54
  1
strokes_ogs.tif
102
RTVSPost2010PropOp54
 70
     0
102
RTVSPost2010Prop55
280
     0
102
RTVSPost2010PropOp55
 70
     0
102
RTVSPost2010Prop56
140
1.0
102
RTVSPost2010PropOp56
 70
     0
102
RTVSPost2010Prop57
140
1.0
102
RTVSPost2010PropOp57
 70
     0
  0
XRECORD
  5
475
102
{ACAD_REACTORS
330
474
102
}
330
474
100
AcDbXrecord
280
     1
102
RTVSPost2010Prop28
280
     0
102
RTVSPost2010PropOp28
 70
     1
102
RTVSPost2010Prop29
280
     1
102
RTVSPost2010PropOp29
 70
     1
102
RTVSPost2010Prop30
280
     1
102
RTVSPost2010PropOp30
 70
     1
102
RTVSPost2010Prop31
280
     0
102
RTVSPost2010PropOp31
 70
     1
102
RTVSPost2010Prop32
280
     0
102
RTVSPost2010PropOp32
 70
     1
102
RTVSPost2010Prop33
280
     0
102
RTVSPost2010PropOp33
 70
     1
102
RTVSPost2010Prop34
280
     0
102
RTVSPost2010PropOp34
 70
     1
102
RTVSPost2010Prop35
280
     0
102
RTVSPost2010PropOp35
 70
     1
102
RTVSPost2010Prop36
280
     0
102
RTVSPost2010PropOp36
 70
     1
102
RTVSPost2010Prop37
 90
       50
102
RTVSPost2010PropOp37
 70
     1
102
RTVSPost2010Prop38
140
0.0
102
RTVSPost2010PropOp38
 70
     1
102
RTVSPost2010Prop39
140
1.0
102
RTVSPost2010PropOp39
 70
     1
102
RTVSPost2010Prop40
 90
        0
102
RTVSPost2010PropOp40
 70
     1
102
RTVSPost2010Prop41ColorIndex
 90
       18
102
RTVSPost2010Prop41ColorRGB
 90
        0
102
RTVSPost2010PropOp41
 70
     1
102
RTVSPost2010Prop42
 90
       50
102
RTVSPost2010PropOp42
 70
     1
102
RTVSPost2010Prop43
 90
        3
102
RTVSPost2010PropOp43
 70
     1
102
RTVSPost2010Prop44ColorIndex
 90
        5
102
RTVSPost2010Prop44ColorRGB
 90
      255
102
RTVSPost2010PropOp44
 70
     1
102
RTVSPost2010Prop45
280
     0
102
RTVSPost2010PropOp45
 70
     1
102
RTVSPost2010Prop46
 90
       50
102
RTVSPost2010PropOp46
 70
     1
102
RTVSPost2010Prop47
 90
       50
102
RTVSPost2010PropOp47
 70
     1
102
RTVSPost2010Prop48
 90
       50
102
RTVSPost2010PropOp48
 70
     1
102
RTVSPost2010Prop49
280
     0
102
RTVSPost2010PropOp49
 70
     1
102
RTVSPost2010Prop50
 90
       50
102
RTVSPost2010PropOp50
 70
     1
102
RTVSPost2010Prop51ColorIndex
 90
      256
102
RTVSPost2010Prop51ColorRGB
 90
-16777216
102
RTVSPost2010PropOp51
 70
     0
102
RTVSPost2010Prop52
140
1.0
102
RTVSPost2010PropOp52
 70
     0
102
RTVSPost2010Prop53
 90
        2
102
RTVSPost2010PropOp53
 70
     1
102
RTVSPost2010Prop54
  1
strokes_ogs.tif
102
RTVSPost2010PropOp54
 70
     1
102
RTVSPost2010Prop55
280
     0
102
RTVSPost2010PropOp55
 70
     1
102
RTVSPost2010Prop56
140
1.0
102
RTVSPost2010PropOp56
 70
     1
102
RTVSPost2010Prop57
140
1.0
102
RTVSPost2010PropOp57
 70
     1
  0
XRECORD
  5
493
102
{ACAD_REACTORS
330
492
102
}
330
492
100
AcDbXrecord
280
     1
102
RTVSPost2010Prop28
280
     0
102
RTVSPost2010PropOp28
 70
     1
102
RTVSPost2010Prop29
280
     1
102
RTVSPost2010PropOp29
 70
     1
102
RTVSPost2010Prop30
280
     1
102
RTVSPost2010PropOp30
 70
     1
102
RTVSPost2010Prop31
280
     0
102
RTVSPost2010PropOp31
 70
     1
102
RTVSPost2010Prop32
280
     0
102
RTVSPost2010PropOp32
 70
     1
102
RTVSPost2010Prop33
280
     0
102
RTVSPost2010PropOp33
 70
     1
102
RTVSPost2010Prop34
280
     0
102
RTVSPost2010PropOp34
 70
     1
102
RTVSPost2010Prop35
280
     0
102
RTVSPost2010PropOp35
 70
     1
102
RTVSPost2010Prop36
280
     0
102
RTVSPost2010PropOp36
 70
     1
102
RTVSPost2010Prop37
 90
       50
102
RTVSPost2010PropOp37
 70
     1
102
RTVSPost2010Prop38
140
0.0
102
RTVSPost2010PropOp38
 70
     1
102
RTVSPost2010Prop39
140
1.0
102
RTVSPost2010PropOp39
 70
     1
102
RTVSPost2010Prop40
 90
        0
102
RTVSPost2010PropOp40
 70
     1
102
RTVSPost2010Prop41ColorIndex
 90
       18
102
RTVSPost2010Prop41ColorRGB
 90
        0
102
RTVSPost2010PropOp41
 70
     1
102
RTVSPost2010Prop42
 90
       50
102
RTVSPost2010PropOp42
 70
     1
102
RTVSPost2010Prop43
 90
        3
102
RTVSPost2010PropOp43
 70
     1
102
RTVSPost2010Prop44ColorIndex
 90
        5
102
RTVSPost2010Prop44ColorRGB
 90
      255
102
RTVSPost2010PropOp44
 70
     1
102
RTVSPost2010Prop45
280
     0
102
RTVSPost2010PropOp45
 70
     1
102
RTVSPost2010Prop46
 90
       50
102
RTVSPost2010PropOp46
 70
     1
102
RTVSPost2010Prop47
 90
       50
102
RTVSPost2010PropOp47
 70
     1
102
RTVSPost2010Prop48
 90
       50
102
RTVSPost2010PropOp48
 70
     1
102
RTVSPost2010Prop49
280
     0
102
RTVSPost2010PropOp49
 70
     1
102
RTVSPost2010Prop50
 90
       50
102
RTVSPost2010PropOp50
 70
     1
102
RTVSPost2010Prop51ColorIndex
 90
      256
102
RTVSPost2010Prop51ColorRGB
 90
-16777216
102
RTVSPost2010PropOp51
 70
     0
102
RTVSPost2010Prop52
140
1.0
102
RTVSPost2010PropOp52
 70
     0
102
RTVSPost2010Prop53
 90
        2
102
RTVSPost2010PropOp53
 70
     1
102
RTVSPost2010Prop54
  1
strokes_ogs.tif
102
RTVSPost2010PropOp54
 70
     1
102
RTVSPost2010Prop55
280
     0
102
RTVSPost2010PropOp55
 70
     1
102
RTVSPost2010Prop56
140
1.0
102
RTVSPost2010PropOp56
 70
     1
102
RTVSPost2010Prop57
140
1.0
102
RTVSPost2010PropOp57
 70
     1
  0
XRECORD
  5
491
102
{ACAD_REACTORS
330
490
102
}
330
490
100
AcDbXrecord
280
     1
102
RTVSPost2010Prop28
280
     0
102
RTVSPost2010PropOp28
 70
     1
102
RTVSPost2010Prop29
280
     1
102
RTVSPost2010PropOp29
 70
     1
102
RTVSPost2010Prop30
280
     1
102
RTVSPost2010PropOp30
 70
     1
102
RTVSPost2010Prop31
280
     0
102
RTVSPost2010PropOp31
 70
     1
102
RTVSPost2010Prop32
280
     0
102
RTVSPost2010PropOp32
 70
     1
102
RTVSPost2010Prop33
280
     0
102
RTVSPost2010PropOp33
 70
     1
102
RTVSPost2010Prop34
280
     0
102
RTVSPost2010PropOp34
 70
     1
102
RTVSPost2010Prop35
280
     0
102
RTVSPost2010PropOp35
 70
     1
102
RTVSPost2010Prop36
280
     0
102
RTVSPost2010PropOp36
 70
     1
102
RTVSPost2010Prop37
 90
       50
102
RTVSPost2010PropOp37
 70
     1
102
RTVSPost2010Prop38
140
0.0
102
RTVSPost2010PropOp38
 70
     1
102
RTVSPost2010Prop39
140
1.0
102
RTVSPost2010PropOp39
 70
     1
102
RTVSPost2010Prop40
 90
        0
102
RTVSPost2010PropOp40
 70
     1
102
RTVSPost2010Prop41ColorIndex
 90
       18
102
RTVSPost2010Prop41ColorRGB
 90
        0
102
RTVSPost2010PropOp41
 70
     1
102
RTVSPost2010Prop42
 90
       50
102
RTVSPost2010PropOp42
 70
     1
102
RTVSPost2010Prop43
 90
        3
102
RTVSPost2010PropOp43
 70
     1
102
RTVSPost2010Prop44ColorIndex
 90
        5
102
RTVSPost2010Prop44ColorRGB
 90
      255
102
RTVSPost2010PropOp44
 70
     1
102
RTVSPost2010Prop45
280
     0
102
RTVSPost2010PropOp45
 70
     1
102
RTVSPost2010Prop46
 90
       50
102
RTVSPost2010PropOp46
 70
     1
102
RTVSPost2010Prop47
 90
       50
102
RTVSPost2010PropOp47
 70
     1
102
RTVSPost2010Prop48
 90
       50
102
RTVSPost2010PropOp48
 70
     1
102
RTVSPost2010Prop49
280
     0
102
RTVSPost2010PropOp49
 70
     1
102
RTVSPost2010Prop50
 90
       50
102
RTVSPost2010PropOp50
 70
     1
102
RTVSPost2010Prop51ColorIndex
 90
      256
102
RTVSPost2010Prop51ColorRGB
 90
-16777216
102
RTVSPost2010PropOp51
 70
     0
102
RTVSPost2010Prop52
140
1.0
102
RTVSPost2010PropOp52
 70
     0
102
RTVSPost2010Prop53
 90
        2
102
RTVSPost2010PropOp53
 70
     1
102
RTVSPost2010Prop54
  1
strokes_ogs.tif
102
RTVSPost2010PropOp54
 70
     1
102
RTVSPost2010Prop55
280
     0
102
RTVSPost2010PropOp55
 70
     1
102
RTVSPost2010Prop56
140
1.0
102
RTVSPost2010PropOp56
 70
     1
102
RTVSPost2010Prop57
140
1.0
102
RTVSPost2010PropOp57
 70
     1
  0
XRECORD
  5
48B
102
{ACAD_REACTORS
330
48A
102
}
330
48A
100
AcDbXrecord
280
     1
102
RTVSPost2010Prop28
280
     0
102
RTVSPost2010PropOp28
 70
     1
102
RTVSPost2010Prop29
280
     1
102
RTVSPost2010PropOp29
 70
     1
102
RTVSPost2010Prop30
280
     1
102
RTVSPost2010PropOp30
 70
     1
102
RTVSPost2010Prop31
280
     0
102
RTVSPost2010PropOp31
 70
     1
102
RTVSPost2010Prop32
280
     0
102
RTVSPost2010PropOp32
 70
     1
102
RTVSPost2010Prop33
280
     0
102
RTVSPost2010PropOp33
 70
     1
102
RTVSPost2010Prop34
280
     0
102
RTVSPost2010PropOp34
 70
     1
102
RTVSPost2010Prop35
280
     0
102
RTVSPost2010PropOp35
 70
     1
102
RTVSPost2010Prop36
280
     0
102
RTVSPost2010PropOp36
 70
     1
102
RTVSPost2010Prop37
 90
       50
102
RTVSPost2010PropOp37
 70
     1
102
RTVSPost2010Prop38
140
0.0
102
RTVSPost2010PropOp38
 70
     1
102
RTVSPost2010Prop39
140
1.0
102
RTVSPost2010PropOp39
 70
     1
102
RTVSPost2010Prop40
 90
        0
102
RTVSPost2010PropOp40
 70
     1
102
RTVSPost2010Prop41ColorIndex
 90
       18
102
RTVSPost2010Prop41ColorRGB
 90
        0
102
RTVSPost2010PropOp41
 70
     1
102
RTVSPost2010Prop42
 90
       50
102
RTVSPost2010PropOp42
 70
     1
102
RTVSPost2010Prop43
 90
        3
102
RTVSPost2010PropOp43
 70
     1
102
RTVSPost2010Prop44ColorIndex
 90
        5
102
RTVSPost2010Prop44ColorRGB
 90
      255
102
RTVSPost2010PropOp44
 70
     1
102
RTVSPost2010Prop45
280
     0
102
RTVSPost2010PropOp45
 70
     1
102
RTVSPost2010Prop46
 90
       50
102
RTVSPost2010PropOp46
 70
     1
102
RTVSPost2010Prop47
 90
       50
102
RTVSPost2010PropOp47
 70
     1
102
RTVSPost2010Prop48
 90
       50
102
RTVSPost2010PropOp48
 70
     1
102
RTVSPost2010Prop49
280
     0
102
RTVSPost2010PropOp49
 70
     1
102
RTVSPost2010Prop50
 90
       50
102
RTVSPost2010PropOp50
 70
     1
102
RTVSPost2010Prop51ColorIndex
 90
      256
102
RTVSPost2010Prop51ColorRGB
 90
-16777216
102
RTVSPost2010PropOp51
 70
     0
102
RTVSPost2010Prop52
140
1.0
102
RTVSPost2010PropOp52
 70
     0
102
RTVSPost2010Prop53
 90
        2
102
RTVSPost2010PropOp53
 70
     1
102
RTVSPost2010Prop54
  1
strokes_ogs.tif
102
RTVSPost2010PropOp54
 70
     1
102
RTVSPost2010Prop55
280
     0
102
RTVSPost2010PropOp55
 70
     1
102
RTVSPost2010Prop56
140
1.0
102
RTVSPost2010PropOp56
 70
     1
102
RTVSPost2010Prop57
140
1.0
102
RTVSPost2010PropOp57
 70
     1
  0
XRECORD
  5
48D
102
{ACAD_REACTORS
330
48C
102
}
330
48C
100
AcDbXrecord
280
     1
102
RTVSPost2010Prop28
280
     0
102
RTVSPost2010PropOp28
 70
     1
102
RTVSPost2010Prop29
280
     1
102
RTVSPost2010PropOp29
 70
     1
102
RTVSPost2010Prop30
280
     1
102
RTVSPost2010PropOp30
 70
     1
102
RTVSPost2010Prop31
280
     0
102
RTVSPost2010PropOp31
 70
     1
102
RTVSPost2010Prop32
280
     0
102
RTVSPost2010PropOp32
 70
     1
102
RTVSPost2010Prop33
280
     0
102
RTVSPost2010PropOp33
 70
     1
102
RTVSPost2010Prop34
280
     0
102
RTVSPost2010PropOp34
 70
     1
102
RTVSPost2010Prop35
280
     0
102
RTVSPost2010PropOp35
 70
     1
102
RTVSPost2010Prop36
280
     0
102
RTVSPost2010PropOp36
 70
     1
102
RTVSPost2010Prop37
 90
       50
102
RTVSPost2010PropOp37
 70
     1
102
RTVSPost2010Prop38
140
0.0
102
RTVSPost2010PropOp38
 70
     1
102
RTVSPost2010Prop39
140
1.0
102
RTVSPost2010PropOp39
 70
     1
102
RTVSPost2010Prop40
 90
        0
102
RTVSPost2010PropOp40
 70
     1
102
RTVSPost2010Prop41ColorIndex
 90
       18
102
RTVSPost2010Prop41ColorRGB
 90
        0
102
RTVSPost2010PropOp41
 70
     1
102
RTVSPost2010Prop42
 90
       50
102
RTVSPost2010PropOp42
 70
     1
102
RTVSPost2010Prop43
 90
        3
102
RTVSPost2010PropOp43
 70
     1
102
RTVSPost2010Prop44ColorIndex
 90
        5
102
RTVSPost2010Prop44ColorRGB
 90
      255
102
RTVSPost2010PropOp44
 70
     1
102
RTVSPost2010Prop45
280
     0
102
RTVSPost2010PropOp45
 70
     1
102
RTVSPost2010Prop46
 90
       50
102
RTVSPost2010PropOp46
 70
     1
102
RTVSPost2010Prop47
 90
       50
102
RTVSPost2010PropOp47
 70
     1
102
RTVSPost2010Prop48
 90
       50
102
RTVSPost2010PropOp48
 70
     1
102
RTVSPost2010Prop49
280
     0
102
RTVSPost2010PropOp49
 70
     1
102
RTVSPost2010Prop50
 90
       50
102
RTVSPost2010PropOp50
 70
     1
102
RTVSPost2010Prop51ColorIndex
 90
      256
102
RTVSPost2010Prop51ColorRGB
 90
-16777216
102
RTVSPost2010PropOp51
 70
     0
102
RTVSPost2010Prop52
140
1.0
102
RTVSPost2010PropOp52
 70
     0
102
RTVSPost2010Prop53
 90
        2
102
RTVSPost2010PropOp53
 70
     1
102
RTVSPost2010Prop54
  1
strokes_ogs.tif
102
RTVSPost2010PropOp54
 70
     1
102
RTVSPost2010Prop55
280
     0
102
RTVSPost2010PropOp55
 70
     1
102
RTVSPost2010Prop56
140
1.0
102
RTVSPost2010PropOp56
 70
     1
102
RTVSPost2010Prop57
140
1.0
102
RTVSPost2010PropOp57
 70
     1
  0
XRECORD
  5
47D
102
{ACAD_REACTORS
330
47C
102
}
330
47C
100
AcDbXrecord
280
     1
102
RTVSPost2010Prop28
280
     0
102
RTVSPost2010PropOp28
 70
     1
102
RTVSPost2010Prop29
280
     1
102
RTVSPost2010PropOp29
 70
     1
102
RTVSPost2010Prop30
280
     1
102
RTVSPost2010PropOp30
 70
     1
102
RTVSPost2010Prop31
280
     0
102
RTVSPost2010PropOp31
 70
     1
102
RTVSPost2010Prop32
280
     0
102
RTVSPost2010PropOp32
 70
     1
102
RTVSPost2010Prop33
280
     0
102
RTVSPost2010PropOp33
 70
     1
102
RTVSPost2010Prop34
280
     0
102
RTVSPost2010PropOp34
 70
     1
102
RTVSPost2010Prop35
280
     0
102
RTVSPost2010PropOp35
 70
     1
102
RTVSPost2010Prop36
280
     0
102
RTVSPost2010PropOp36
 70
     1
102
RTVSPost2010Prop37
 90
       50
102
RTVSPost2010PropOp37
 70
     1
102
RTVSPost2010Prop38
140
0.0
102
RTVSPost2010PropOp38
 70
     1
102
RTVSPost2010Prop39
140
1.0
102
RTVSPost2010PropOp39
 70
     1
102
RTVSPost2010Prop40
 90
        0
102
RTVSPost2010PropOp40
 70
     1
102
RTVSPost2010Prop41ColorIndex
 90
       18
102
RTVSPost2010Prop41ColorRGB
 90
        0
102
RTVSPost2010PropOp41
 70
     1
102
RTVSPost2010Prop42
 90
       50
102
RTVSPost2010PropOp42
 70
     1
102
RTVSPost2010Prop43
 90
        3
102
RTVSPost2010PropOp43
 70
     1
102
RTVSPost2010Prop44ColorIndex
 90
        5
102
RTVSPost2010Prop44ColorRGB
 90
      255
102
RTVSPost2010PropOp44
 70
     1
102
RTVSPost2010Prop45
280
     0
102
RTVSPost2010PropOp45
 70
     1
102
RTVSPost2010Prop46
 90
       50
102
RTVSPost2010PropOp46
 70
     1
102
RTVSPost2010Prop47
 90
       50
102
RTVSPost2010PropOp47
 70
     1
102
RTVSPost2010Prop48
 90
       50
102
RTVSPost2010PropOp48
 70
     1
102
RTVSPost2010Prop49
280
     0
102
RTVSPost2010PropOp49
 70
     1
102
RTVSPost2010Prop50
 90
       50
102
RTVSPost2010PropOp50
 70
     1
102
RTVSPost2010Prop51ColorIndex
 90
      256
102
RTVSPost2010Prop51ColorRGB
 90
-16777216
102
RTVSPost2010PropOp51
 70
     0
102
RTVSPost2010Prop52
140
1.0
102
RTVSPost2010PropOp52
 70
     0
102
RTVSPost2010Prop53
 90
        2
102
RTVSPost2010PropOp53
 70
     1
102
RTVSPost2010Prop54
  1
strokes_ogs.tif
102
RTVSPost2010PropOp54
 70
     1
102
RTVSPost2010Prop55
280
     0
102
RTVSPost2010PropOp55
 70
     1
102
RTVSPost2010Prop56
140
1.0
102
RTVSPost2010PropOp56
 70
     1
102
RTVSPost2010Prop57
140
1.0
102
RTVSPost2010PropOp57
 70
     1
  0
XRECORD
  5
46F
102
{ACAD_REACTORS
330
46E
102
}
330
46E
100
AcDbXrecord
280
     1
102
RTVSPost2010Prop28
280
     0
102
RTVSPost2010PropOp28
 70
     1
102
RTVSPost2010Prop29
280
     1
102
RTVSPost2010PropOp29
 70
     1
102
RTVSPost2010Prop30
280
     1
102
RTVSPost2010PropOp30
 70
     1
102
RTVSPost2010Prop31
280
     0
102
RTVSPost2010PropOp31
 70
     1
102
RTVSPost2010Prop32
280
     0
102
RTVSPost2010PropOp32
 70
     1
102
RTVSPost2010Prop33
280
     0
102
RTVSPost2010PropOp33
 70
     1
102
RTVSPost2010Prop34
280
     0
102
RTVSPost2010PropOp34
 70
     1
102
RTVSPost2010Prop35
280
     0
102
RTVSPost2010PropOp35
 70
     1
102
RTVSPost2010Prop36
280
     0
102
RTVSPost2010PropOp36
 70
     1
102
RTVSPost2010Prop37
 90
       50
102
RTVSPost2010PropOp37
 70
     1
102
RTVSPost2010Prop38
140
0.0
102
RTVSPost2010PropOp38
 70
     1
102
RTVSPost2010Prop39
140
1.0
102
RTVSPost2010PropOp39
 70
     1
102
RTVSPost2010Prop40
 90
        0
102
RTVSPost2010PropOp40
 70
     1
102
RTVSPost2010Prop41ColorIndex
 90
       18
102
RTVSPost2010Prop41ColorRGB
 90
        0
102
RTVSPost2010PropOp41
 70
     1
102
RTVSPost2010Prop42
 90
       50
102
RTVSPost2010PropOp42
 70
     1
102
RTVSPost2010Prop43
 90
        3
102
RTVSPost2010PropOp43
 70
     1
102
RTVSPost2010Prop44ColorIndex
 90
        5
102
RTVSPost2010Prop44ColorRGB
 90
      255
102
RTVSPost2010PropOp44
 70
     1
102
RTVSPost2010Prop45
280
     0
102
RTVSPost2010PropOp45
 70
     1
102
RTVSPost2010Prop46
 90
       50
102
RTVSPost2010PropOp46
 70
     1
102
RTVSPost2010Prop47
 90
       50
102
RTVSPost2010PropOp47
 70
     1
102
RTVSPost2010Prop48
 90
       50
102
RTVSPost2010PropOp48
 70
     1
102
RTVSPost2010Prop49
280
     0
102
RTVSPost2010PropOp49
 70
     1
102
RTVSPost2010Prop50
 90
       50
102
RTVSPost2010PropOp50
 70
     1
102
RTVSPost2010Prop51ColorIndex
 90
      256
102
RTVSPost2010Prop51ColorRGB
 90
-16777216
102
RTVSPost2010PropOp51
 70
     0
102
RTVSPost2010Prop52
140
1.0
102
RTVSPost2010PropOp52
 70
     0
102
RTVSPost2010Prop53
 90
        2
102
RTVSPost2010PropOp53
 70
     1
102
RTVSPost2010Prop54
  1
strokes_ogs.tif
102
RTVSPost2010PropOp54
 70
     1
102
RTVSPost2010Prop55
280
     0
102
RTVSPost2010PropOp55
 70
     1
102
RTVSPost2010Prop56
140
1.0
102
RTVSPost2010PropOp56
 70
     1
102
RTVSPost2010Prop57
140
1.0
102
RTVSPost2010PropOp57
 70
     1
  0
XRECORD
  5
48F
102
{ACAD_REACTORS
330
48E
102
}
330
48E
100
AcDbXrecord
280
     1
102
RTVSPost2010Prop28
280
     0
102
RTVSPost2010PropOp28
 70
     1
102
RTVSPost2010Prop29
280
     1
102
RTVSPost2010PropOp29
 70
     1
102
RTVSPost2010Prop30
280
     1
102
RTVSPost2010PropOp30
 70
     1
102
RTVSPost2010Prop31
280
     0
102
RTVSPost2010PropOp31
 70
     1
102
RTVSPost2010Prop32
280
     0
102
RTVSPost2010PropOp32
 70
     1
102
RTVSPost2010Prop33
280
     0
102
RTVSPost2010PropOp33
 70
     1
102
RTVSPost2010Prop34
280
     0
102
RTVSPost2010PropOp34
 70
     1
102
RTVSPost2010Prop35
280
     0
102
RTVSPost2010PropOp35
 70
     1
102
RTVSPost2010Prop36
280
     0
102
RTVSPost2010PropOp36
 70
     1
102
RTVSPost2010Prop37
 90
       50
102
RTVSPost2010PropOp37
 70
     1
102
RTVSPost2010Prop38
140
0.0
102
RTVSPost2010PropOp38
 70
     1
102
RTVSPost2010Prop39
140
1.0
102
RTVSPost2010PropOp39
 70
     1
102
RTVSPost2010Prop40
 90
        0
102
RTVSPost2010PropOp40
 70
     1
102
RTVSPost2010Prop41ColorIndex
 90
       18
102
RTVSPost2010Prop41ColorRGB
 90
        0
102
RTVSPost2010PropOp41
 70
     1
102
RTVSPost2010Prop42
 90
       50
102
RTVSPost2010PropOp42
 70
     1
102
RTVSPost2010Prop43
 90
        3
102
RTVSPost2010PropOp43
 70
     1
102
RTVSPost2010Prop44ColorIndex
 90
        5
102
RTVSPost2010Prop44ColorRGB
 90
      255
102
RTVSPost2010PropOp44
 70
     1
102
RTVSPost2010Prop45
280
     0
102
RTVSPost2010PropOp45
 70
     1
102
RTVSPost2010Prop46
 90
       50
102
RTVSPost2010PropOp46
 70
     1
102
RTVSPost2010Prop47
 90
       50
102
RTVSPost2010PropOp47
 70
     1
102
RTVSPost2010Prop48
 90
       50
102
RTVSPost2010PropOp48
 70
     1
102
RTVSPost2010Prop49
280
     0
102
RTVSPost2010PropOp49
 70
     1
102
RTVSPost2010Prop50
 90
       50
102
RTVSPost2010PropOp50
 70
     1
102
RTVSPost2010Prop51ColorIndex
 90
      256
102
RTVSPost2010Prop51ColorRGB
 90
-16777216
102
RTVSPost2010PropOp51
 70
     0
102
RTVSPost2010Prop52
140
1.0
102
RTVSPost2010PropOp52
 70
     0
102
RTVSPost2010Prop53
 90
        2
102
RTVSPost2010PropOp53
 70
     1
102
RTVSPost2010Prop54
  1
strokes_ogs.tif
102
RTVSPost2010PropOp54
 70
     1
102
RTVSPost2010Prop55
280
     0
102
RTVSPost2010PropOp55
 70
     1
102
RTVSPost2010Prop56
140
1.0
102
RTVSPost2010PropOp56
 70
     1
102
RTVSPost2010Prop57
140
1.0
102
RTVSPost2010PropOp57
 70
     1
  0
ENDSEC
  0
EOF
