  0
SECTION
  2
HEADER
  9
$ACADVER
  1
AC1015
  9
$ACADMAINTVER
 70
     6
  9
$DWGCODEPAGE
  3
DOS932
  9
$INSBASE
 10
0.0
 20
0.0
 30
0.0
  9
$EXTMIN
 10
0.0
 20
-22.5615332095569
 30
0.0
  9
$EXTMAX
 10
3940.0
 20
2680.0
 30
0.0
  9
$LIMMIN
 10
0.0
 20
0.0
  9
$LIMMAX
 10
12.0
 20
9.0
  9
$ORTHOMODE
 70
     0
  9
$REGENMODE
 70
     1
  9
$FILLMODE
 70
     1
  9
$QTEXTMODE
 70
     0
  9
$MIRRTEXT
 70
     1
  9
$LTSCALE
 40
1.0
  9
$ATTMODE
 70
     1
  9
$TEXTSIZE
 40
0.2
  9
$TRACEWID
 40
0.05
  9
$TEXTSTYLE
  7
Standard
  9
$CLAYER
  8
0
  9
$CELTYPE
  6
ByLayer
  9
$CECOLOR
 62
   256
  9
$CELTSCALE
 40
1.0
  9
$DISPSILH
 70
     0
  9
$DIMSCALE
 40
1.0
  9
$DIMASZ
 40
0.18
  9
$DIMEXO
 40
0.0625
  9
$DIMDLI
 40
0.38
  9
$DIMRND
 40
0.0
  9
$DIMDLE
 40
0.0
  9
$DIMEXE
 40
0.18
  9
$DIMTP
 40
0.0
  9
$DIMTM
 40
0.0
  9
$DIMTXT
 40
0.18
  9
$DIMCEN
 40
0.09
  9
$DIMTSZ
 40
0.0
  9
$DIMTOL
 70
     0
  9
$DIMLIM
 70
     0
  9
$DIMTIH
 70
     1
  9
$DIMTOH
 70
     1
  9
$DIMSE1
 70
     0
  9
$DIMSE2
 70
     0
  9
$DIMTAD
 70
     0
  9
$DIMZIN
 70
     0
  9
$DIMBLK
  1

  9
$DIMASO
 70
     1
  9
$DIMSHO
 70
     1
  9
$DIMPOST
  1

  9
$DIMAPOST
  1

  9
$DIMALT
 70
     0
  9
$DIMALTD
 70
     2
  9
$DIMALTF
 40
25.4
  9
$DIMLFAC
 40
1.0
  9
$DIMTOFL
 70
     0
  9
$DIMTVP
 40
0.0
  9
$DIMTIX
 70
     0
  9
$DIMSOXD
 70
     0
  9
$DIMSAH
 70
     0
  9
$DIMBLK1
  1

  9
$DIMBLK2
  1

  9
$DIMSTYLE
  2
Standard
  9
$DIMCLRD
 70
     0
  9
$DIMCLRE
 70
     0
  9
$DIMCLRT
 70
     0
  9
$DIMTFAC
 40
1.0
  9
$DIMGAP
 40
0.09
  9
$DIMJUST
 70
     0
  9
$DIMSD1
 70
     0
  9
$DIMSD2
 70
     0
  9
$DIMTOLJ
 70
     1
  9
$DIMTZIN
 70
     0
  9
$DIMALTZ
 70
     0
  9
$DIMALTTZ
 70
     0
  9
$DIMUPT
 70
     0
  9
$DIMDEC
 70
     4
  9
$DIMTDEC
 70
     4
  9
$DIMALTU
 70
     2
  9
$DIMALTTD
 70
     2
  9
$DIMTXSTY
  7
Standard
  9
$DIMAUNIT
 70
     0
  9
$DIMADEC
 70
     0
  9
$DIMALTRND
 40
0.0
  9
$DIMAZIN
 70
     0
  9
$DIMDSEP
 70
    46
  9
$DIMATFIT
 70
     3
  9
$DIMFRAC
 70
     0
  9
$DIMLDRBLK
  1

  9
$DIMLUNIT
 70
     2
  9
$DIMLWD
 70
    -2
  9
$DIMLWE
 70
    -2
  9
$DIMTMOVE
 70
     0
  9
$LUNITS
 70
     2
  9
$LUPREC
 70
     4
  9
$SKETCHINC
 40
0.1
  9
$FILLETRAD
 40
0.5
  9
$AUNITS
 70
     0
  9
$AUPREC
 70
     0
  9
$MENU
  1
.
  9
$ELEVATION
 40
0.0
  9
$PELEVATION
 40
0.0
  9
$THICKNESS
 40
0.0
  9
$LIMCHECK
 70
     0
  9
$CHAMFERA
 40
0.5
  9
$CHAMFERB
 40
0.5
  9
$CHAMFERC
 40
1.0
  9
$CHAMFERD
 40
0.0
  9
$SKPOLY
 70
     0
  9
$TDCREATE
 40
2455804.54464713
  9
$TDUCREATE
 40
2455804.16964713
  9
$TDUPDATE
 40
2455804.544647141
  9
$TDUUPDATE
 40
2455804.169647141
  9
$TDINDWG
 40
0.0000000116
  9
$TDUSRTIMER
 40
0.0000000116
  9
$USRTIMER
 70
     1
  9
$ANGBASE
 50
0.0
  9
$ANGDIR
 70
     0
  9
$PDMODE
 70
     0
  9
$PDSIZE
 40
0.0
  9
$PLINEWID
 40
0.0
  9
$SPLFRAME
 70
     0
  9
$SPLINETYPE
 70
     6
  9
$SPLINESEGS
 70
     8
  9
$HANDSEED
  5
38D
  9
$SURFTAB1
 70
     6
  9
$SURFTAB2
 70
     6
  9
$SURFTYPE
 70
     6
  9
$SURFU
 70
     6
  9
$SURFV
 70
     6
  9
$UCSBASE
  2

  9
$UCSNAME
  2

  9
$UCSORG
 10
0.0
 20
0.0
 30
0.0
  9
$UCSXDIR
 10
1.0
 20
0.0
 30
0.0
  9
$UCSYDIR
 10
0.0
 20
1.0
 30
0.0
  9
$UCSORTHOREF
  2

  9
$UCSORTHOVIEW
 70
     0
  9
$UCSORGTOP
 10
0.0
 20
0.0
 30
0.0
  9
$UCSORGBOTTOM
 10
0.0
 20
0.0
 30
0.0
  9
$UCSORGLEFT
 10
0.0
 20
0.0
 30
0.0
  9
$UCSORGRIGHT
 10
0.0
 20
0.0
 30
0.0
  9
$UCSORGFRONT
 10
0.0
 20
0.0
 30
0.0
  9
$UCSORGBACK
 10
0.0
 20
0.0
 30
0.0
  9
$PUCSBASE
  2

  9
$PUCSNAME
  2

  9
$PUCSORG
 10
0.0
 20
0.0
 30
0.0
  9
$PUCSXDIR
 10
1.0
 20
0.0
 30
0.0
  9
$PUCSYDIR
 10
0.0
 20
1.0
 30
0.0
  9
$PUCSORTHOREF
  2

  9
$PUCSORTHOVIEW
 70
     0
  9
$PUCSORGTOP
 10
0.0
 20
0.0
 30
0.0
  9
$PUCSORGBOTTOM
 10
0.0
 20
0.0
 30
0.0
  9
$PUCSORGLEFT
 10
0.0
 20
0.0
 30
0.0
  9
$PUCSORGRIGHT
 10
0.0
 20
0.0
 30
0.0
  9
$PUCSORGFRONT
 10
0.0
 20
0.0
 30
0.0
  9
$PUCSORGBACK
 10
0.0
 20
0.0
 30
0.0
  9
$USERI1
 70
     0
  9
$USERI2
 70
     0
  9
$USERI3
 70
     0
  9
$USERI4
 70
     0
  9
$USERI5
 70
     0
  9
$USERR1
 40
14.0
  9
$USERR2
 40
0.0
  9
$USERR3
 40
0.0
  9
$USERR4
 40
0.0
  9
$USERR5
 40
0.0
  9
$WORLDVIEW
 70
     1
  9
$SHADEDGE
 70
     3
  9
$SHADEDIF
 70
    70
  9
$TILEMODE
 70
     1
  9
$MAXACTVP
 70
    64
  9
$PINSBASE
 10
0.0
 20
0.0
 30
0.0
  9
$PLIMCHECK
 70
     0
  9
$PEXTMIN
 10
1.00000000000000E+20
 20
1.00000000000000E+20
 30
1.00000000000000E+20
  9
$PEXTMAX
 10
-1.00000000000000E+20
 20
-1.00000000000000E+20
 30
-1.00000000000000E+20
  9
$PLIMMIN
 10
0.0
 20
0.0
  9
$PLIMMAX
 10
12.0
 20
9.0
  9
$UNITMODE
 70
     0
  9
$VISRETAIN
 70
     1
  9
$PLINEGEN
 70
     0
  9
$PSLTSCALE
 70
     1
  9
$TREEDEPTH
 70
  3020
  9
$CMLSTYLE
  2
Standard
  9
$CMLJUST
 70
     0
  9
$CMLSCALE
 40
1.0
  9
$PROXYGRAPHICS
 70
     1
  9
$MEASUREMENT
 70
     1
  9
$CELWEIGHT
370
    -1
  9
$ENDCAPS
280
     0
  9
$JOINSTYLE
280
     0
  9
$LWDISPLAY
290
     0
  9
$INSUNITS
 70
     1
  9
$HYPERLINKBASE
  1

  9
$STYLESHEET
  1

  9
$XEDIT
290
     1
  9
$CEPSNTYPE
380
     0
  9
$PSTYLEMODE
290
     1
  9
$FINGERPRINTGUID
  2
{068F1A52-3F49-405C-8944-054D3F78F2A2}
  9
$VERSIONGUID
  2
{FAEB1C32-E019-11D5-929B-00C0DF256EC4}
  9
$EXTNAMES
290
     1
  9
$PSVPSCALE
 40
0.0
  9
$OLESTARTUP
290
     0
  0
ENDSEC
  0
SECTION
  2
CLASSES
  0
CLASS
  1
ACDBDICTIONARYWDFLT
  2
AcDbDictionaryWithDefault
  3
ObjectDBX Classes
 90
        0
280
     0
281
     0
  0
CLASS
  1

  2
exOdDbCircle
  3

 90
        0
280
     0
281
     1
  0
CLASS
  1
ACDBPLACEHOLDER
  2
AcDbPlaceHolder
  3
ObjectDBX Classes
 90
        0
280
     0
281
     0
  0
CLASS
  1
LAYOUT
  2
AcDbLayout
  3
ObjectDBX Classes
 90
        0
280
     0
281
     0
  0
ENDSEC
  0
SECTION
  2
TABLES
  0
TABLE
  2
VPORT
  5
8
330
0
100
AcDbSymbolTable
 70
     1
  0
VPORT
  5
29
330
8
100
AcDbSymbolTableRecord
100
AcDbViewportTableRecord
  2
*Active
 70
     0
 10
0.0
 20
0.0
 11
1.0
 21
1.0
 12
1970.0
 22
1328.719233395222
 13
0.0
 23
0.0
 14
0.5
 24
0.5
 15
0.5
 25
0.5
 16
0.0
 26
0.0
 36
1.0
 17
0.0
 27
0.0
 37
0.0
 40
2972.817686530513
 41
1.60267857142857
 42
50.0
 43
0.0
 44
0.0
 50
0.0
 51
0.0
 71
     0
 72
   100
 73
     1
 74
     3
 75
     0
 76
     0
 77
     0
 78
     0
281
     0
 65
     1
110
0.0
120
0.0
130
0.0
111
1.0
121
0.0
131
0.0
112
0.0
122
1.0
132
0.0
 79
     0
146
0.0
  0
ENDTAB
  0
TABLE
  2
LTYPE
  5
5
330
0
100
AcDbSymbolTable
 70
     8
  0
LTYPE
  5
14
330
5
100
AcDbSymbolTableRecord
100
AcDbLinetypeTableRecord
  2
ByBlock
 70
     0
  3

 72
    65
 73
     0
 40
0.0
  0
LTYPE
  5
15
330
5
100
AcDbSymbolTableRecord
100
AcDbLinetypeTableRecord
  2
ByLayer
 70
     0
  3

 72
    65
 73
     0
 40
0.0
  0
LTYPE
  5
16
330
5
100
AcDbSymbolTableRecord
100
AcDbLinetypeTableRecord
  2
Continuous
 70
     0
  3
Solid line
 72
    65
 73
     0
 40
0.0
  0
LTYPE
  5
2A
330
5
100
AcDbSymbolTableRecord
100
AcDbLinetypeTableRecord
  2
DASHED
 70
     0
  3
Dashed
 72
    65
 73
     2
 40
15.0
 49
7.0
 74
     0
 49
-8.0
 74
     0
  0
LTYPE
  5
2B
330
5
100
AcDbSymbolTableRecord
100
AcDbLinetypeTableRecord
  2
DOTTED
 70
     0
  3
Dotted
 72
    65
 73
     2
 40
1.0
 49
0.0
 74
     0
 49
-1.0
 74
     0
  0
LTYPE
  5
2C
330
5
100
AcDbSymbolTableRecord
100
AcDbLinetypeTableRecord
  2
DOT_CENTER
 70
     0
  3
Dot_Center
 72
    65
 73
     4
 40
14.0
 49
12.0
 74
     0
 49
-1.0
 74
     0
 49
0.0
 74
     0
 49
-1.0
 74
     0
  0
LTYPE
  5
2D
330
5
100
AcDbSymbolTableRecord
100
AcDbLinetypeTableRecord
  2
LONG_DASHED
 70
     0
  3
Long_Dashed
 72
    65
 73
     2
 40
15.0
 49
10.0
 74
     0
 49
-5.0
 74
     0
  0
LTYPE
  5
2E
330
5
100
AcDbSymbolTableRecord
100
AcDbLinetypeTableRecord
  2
DASH_CENTER
 70
     0
  3
Dash_Center
 72
    65
 73
     4
 40
14.0
 49
11.0
 74
     0
 49
-1.0
 74
     0
 49
1.0
 74
     0
 49
-1.0
 74
     0
  0
LTYPE
  5
2F
330
5
100
AcDbSymbolTableRecord
100
AcDbLinetypeTableRecord
  2
PHANTOM
 70
     0
  3
Phantom
 72
    65
 73
     6
 40
13.0
 49
10.0
 74
     0
 49
-1.0
 74
     0
 49
0.0
 74
     0
 49
-1.0
 74
     0
 49
0.0
 74
     0
 49
-1.0
 74
     0
  0
LTYPE
  5
30
330
5
100
AcDbSymbolTableRecord
100
AcDbLinetypeTableRecord
  2
CENTER_DASH_DASH
 70
     0
  3
Center_Dash_Dash
 72
    65
 73
     6
 40
14.0
 49
9.0
 74
     0
 49
-1.0
 74
     0
 49
1.0
 74
     0
 49
-1.0
 74
     0
 49
1.0
 74
     0
 49
-1.0
 74
     0
  0
ENDTAB
  0
TABLE
  2
LAYER
  5
2
330
0
100
AcDbSymbolTable
 70
     4
  0
LAYER
  5
10
330
2
100
AcDbSymbolTableRecord
100
AcDbLayerTableRecord
  2
0
 70
     0
 62
     7
  6
Continuous
370
    -3
390
F
  0
LAYER
  5
31
330
2
100
AcDbSymbolTableRecord
100
AcDbLayerTableRecord
  2
1
 70
     0
 62
     7
  6
Continuous
370
    -3
390
F
  0
LAYER
  5
32
330
2
100
AcDbSymbolTableRecord
100
AcDbLayerTableRecord
  2
COLOR
 70
     0
 62
     7
  6
Continuous
370
    -3
390
F
  0
LAYER
  5
33
330
2
100
AcDbSymbolTableRecord
100
AcDbLayerTableRecord
  2
DETAIL
 70
     0
 62
     7
  6
Continuous
370
    -3
390
F
  0
ENDTAB
  0
TABLE
  2
STYLE
  5
3
330
0
100
AcDbSymbolTable
 70
     6
  0
STYLE
  5
11
330
3
100
AcDbSymbolTableRecord
100
AcDbTextStyleTableRecord
  2
Standard
 70
     0
 40
0.0
 41
1.0
 50
0.0
 71
     0
 42
0.2
  3
txt
  4

  0
STYLE
  5
52
330
3
100
AcDbSymbolTableRecord
100
AcDbTextStyleTableRecord
  2
CONVERTER_1
 70
     0
 40
0.0
 41
0.9
 50
0.0
 71
     0
 42
0.2
  3
txt.shx
  4

  0
STYLE
  5
55
330
3
100
AcDbSymbolTableRecord
100
AcDbTextStyleTableRecord
  2
CONVERTER_2
 70
     0
 40
0.0
 41
1.068
 50
0.0
 71
     0
 42
0.2
  3
msmincho.ttc
  4

1001
ACAD
1000
MS Mincho
1071
    32785
  0
STYLE
  5
58
330
3
100
AcDbSymbolTableRecord
100
AcDbTextStyleTableRecord
  2
CONVERTER_3
 70
     0
 40
0.0
 41
0.89
 50
0.0
 71
     0
 42
0.2
  3
MSMINCHO.TTC
  4

1001
ACAD
1000
MS Mincho
1071
    32785
  0
STYLE
  5
5B
330
3
100
AcDbSymbolTableRecord
100
AcDbTextStyleTableRecord
  2
CONVERTER_4
 70
     0
 40
0.0
 41
0.801
 50
0.0
 71
     0
 42
0.2
  3
msmincho.ttc
  4

1001
ACAD
1000
MS Mincho
1071
    32785
  0
STYLE
  5
5F
330
3
100
AcDbSymbolTableRecord
100
AcDbTextStyleTableRecord
  2
CONVERTER_5
 70
     0
 40
0.0
 41
0.9025
 50
0.0
 71
     0
 42
0.2
  3
complex.shx
  4

  0
ENDTAB
  0
TABLE
  2
VIEW
  5
6
330
0
100
AcDbSymbolTable
 70
     0
  0
ENDTAB
  0
TABLE
  2
UCS
  5
7
330
0
100
AcDbSymbolTable
 70
     0
  0
ENDTAB
  0
TABLE
  2
APPID
  5
9
330
0
100
AcDbSymbolTable
 70
     1
  0
APPID
  5
12
330
9
100
AcDbSymbolTableRecord
100
AcDbRegAppTableRecord
  2
ACAD
 70
     0
  0
ENDTAB
  0
TABLE
  2
DIMSTYLE
  5
A
330
0
100
AcDbSymbolTable
 70
    15
100
AcDbDimStyleTable
  0
DIMSTYLE
105
27
330
A
100
AcDbSymbolTableRecord
100
AcDbDimStyleTableRecord
  2
Standard
 70
     0
340
11
  0
DIMSTYLE
105
2C6
102
{ACAD_REACTORS
330
2C7
102
}
330
A
100
AcDbSymbolTableRecord
100
AcDbDimStyleTableRecord
  2
ME10_DIM_0
 70
     0
 41
32.0
 42
10.0
 44
10.0
 73
     0
 74
     0
 77
     1
 78
     8
140
32.0
147
10.0
172
     1
173
     1
176
     2
177
     2
178
     2
271
     2
340
58
343
2C0
344
2C0
  0
DIMSTYLE
105
2D5
102
{ACAD_REACTORS
330
2D6
102
}
330
A
100
AcDbSymbolTableRecord
100
AcDbDimStyleTableRecord
  2
ME10_DIM_1
 70
     0
  3
φ<>
 41
32.0
 42
10.0
 44
10.0
 73
     0
 74
     0
 77
     1
 78
     8
140
32.0
147
10.0
172
     1
173
     1
176
     2
177
     2
178
     2
271
     2
340
58
343
2C0
344
2C0
  0
DIMSTYLE
105
2E2
102
{ACAD_REACTORS
330
2E3
102
}
330
A
100
AcDbSymbolTableRecord
100
AcDbDimStyleTableRecord
  2
ME10_DIM_2
 70
     0
 41
32.0
 42
10.0
 44
10.0
 73
     0
 74
     0
 77
     1
 78
     8
140
32.0
147
7.0
172
     1
173
     1
176
     2
177
     2
178
     2
271
     2
340
52
343
2C0
344
2C0
  0
DIMSTYLE
105
2EF
102
{ACAD_REACTORS
330
2F0
102
}
330
A
100
AcDbSymbolTableRecord
100
AcDbDimStyleTableRecord
  2
ME10_DIM_3
 70
     0
 41
32.0
 42
10.0
 44
10.0
 73
     0
 74
     0
 77
     1
 78
     8
140
32.0
147
7.0
172
     1
173
     1
176
     2
177
     2
178
     2
271
     2
340
52
343
2C0
344
2C0
  0
DIMSTYLE
105
2FE
102
{ACAD_REACTORS
330
2FF
102
}
330
A
100
AcDbSymbolTableRecord
100
AcDbDimStyleTableRecord
  2
ME10_DIM_4
 70
     0
 41
32.0
 42
10.0
 44
10.0
 73
     0
 74
     0
 77
     1
 78
     8
140
32.0
147
7.0
172
     1
173
     1
176
     2
177
     2
178
     2
271
     2
340
58
343
2C0
344
2C0
  0
DIMSTYLE
105
30B
102
{ACAD_REACTORS
330
30C
102
}
330
A
100
AcDbSymbolTableRecord
100
AcDbDimStyleTableRecord
  2
ME10_DIM_5
 70
     0
 41
32.0
 42
10.0
 44
10.0
 73
     0
 74
     0
 77
     1
 78
     8
140
32.0
147
10.0
172
     1
173
     1
176
     2
177
     2
178
     2
271
     0
340
52
343
2C0
344
2C0
  0
DIMSTYLE
105
31A
102
{ACAD_REACTORS
330
31B
102
}
330
A
100
AcDbSymbolTableRecord
100
AcDbDimStyleTableRecord
  2
ME10_DIM_6
 70
     0
 41
32.0
 42
10.0
 44
10.0
 73
     0
 74
     0
 77
     1
 78
     8
140
32.0
147
10.0
172
     1
173
     1
176
     2
177
     2
178
     2
271
     0
340
52
343
2C0
344
2C0
  0
DIMSTYLE
105
329
102
{ACAD_REACTORS
330
32A
102
}
330
A
100
AcDbSymbolTableRecord
100
AcDbDimStyleTableRecord
  2
ME10_DIM_7
 70
     0
 41
32.0
 42
10.0
 44
10.0
 73
     0
 74
     0
 77
     1
 78
     8
140
32.0
147
10.0
172
     1
173
     1
176
     2
177
     2
178
     2
271
     0
340
52
343
2C0
344
2C0
  0
DIMSTYLE
105
338
102
{ACAD_REACTORS
330
339
102
}
330
A
100
AcDbSymbolTableRecord
100
AcDbDimStyleTableRecord
  2
ME10_DIM_8
 70
     0
 41
32.0
 42
10.0
 44
10.0
 73
     0
 74
     0
 77
     1
 78
     8
140
32.0
147
10.0
172
     1
173
     1
176
     2
177
     2
178
     2
271
     0
340
52
343
2C0
344
2C0
  0
DIMSTYLE
105
345
102
{ACAD_REACTORS
330
346
102
}
330
A
100
AcDbSymbolTableRecord
100
AcDbDimStyleTableRecord
  2
ME10_DIM_9
 70
     0
 41
32.0
 42
10.0
 44
10.0
 73
     0
 74
     0
 77
     1
 78
     8
140
32.0
147
10.0
172
     1
173
     1
176
     2
177
     2
178
     2
271
     0
340
58
343
2C0
344
2C0
  0
DIMSTYLE
105
355
102
{ACAD_REACTORS
330
356
102
}
330
A
100
AcDbSymbolTableRecord
100
AcDbDimStyleTableRecord
  2
ME10_DIM_10
 70
     0
 41
32.0
 42
10.0
 44
10.0
 73
     0
 74
     0
 77
     1
 78
     8
140
32.0
147
10.0
172
     1
173
     1
176
     2
177
     2
178
     2
271
     2
340
52
343
2C0
344
2C0
  0
DIMSTYLE
105
365
102
{ACAD_REACTORS
330
366
102
}
330
A
100
AcDbSymbolTableRecord
100
AcDbDimStyleTableRecord
  2
ME10_DIM_11
 70
     0
 41
32.0
 42
10.0
 44
10.0
 73
     0
 74
     0
 77
     1
 78
     8
140
32.0
147
10.0
172
     1
173
     1
176
     2
177
     2
178
     2
271
     2
340
52
343
2C0
344
2C0
  0
DIMSTYLE
105
374
102
{ACAD_REACTORS
330
375
102
}
330
A
100
AcDbSymbolTableRecord
100
AcDbDimStyleTableRecord
  2
ME10_DIM_12
 70
     0
  3
　(呼び幅）
 41
32.0
 42
10.0
 44
10.0
 73
     0
 74
     0
 77
     1
 78
     8
140
32.0
147
10.0
172
     1
173
     1
176
     2
177
     2
178
     2
271
     2
340
58
343
2C0
344
2C0
  0
DIMSTYLE
105
38B
102
{ACAD_REACTORS
330
38C
102
}
330
A
100
AcDbSymbolTableRecord
100
AcDbDimStyleTableRecord
  2
ME10_DIM_13
 70
     0
 41
32.0
 42
10.0
 44
10.0
 73
     0
 74
     0
 77
     1
 78
     8
140
32.0
147
10.0
172
     1
173
     1
176
     2
177
     2
178
     2
271
     2
340
52
343
2C0
344
2C0
  0
ENDTAB
  0
TABLE
  2
BLOCK_RECORD
  5
1
330
0
100
AcDbSymbolTable
 70
    18
  0
BLOCK_RECORD
  5
1F
330
1
100
AcDbSymbolTableRecord
100
AcDbBlockTableRecord
  2
*Model_Space
340
22
  0
BLOCK_RECORD
  5
1B
330
1
100
AcDbSymbolTableRecord
100
AcDbBlockTableRecord
  2
*Paper_Space
340
1E
  0
BLOCK_RECORD
  5
23
330
1
100
AcDbSymbolTableRecord
100
AcDbBlockTableRecord
  2
*Paper_Space0
340
26
  0
BLOCK_RECORD
  5
34
330
1
100
AcDbSymbolTableRecord
100
AcDbBlockTableRecord
  2
Zuwaku-A3-web
340
0
102
{BLKREFS
331
37
102
}
  0
BLOCK_RECORD
  5
2B5
330
1
100
AcDbSymbolTableRecord
100
AcDbBlockTableRecord
  2
*D02
340
0
  0
BLOCK_RECORD
  5
2C0
330
1
100
AcDbSymbolTableRecord
100
AcDbBlockTableRecord
  2
_Open30
340
0
  0
BLOCK_RECORD
  5
2C8
330
1
100
AcDbSymbolTableRecord
100
AcDbBlockTableRecord
  2
*D14
340
0
  0
BLOCK_RECORD
  5
2D7
330
1
100
AcDbSymbolTableRecord
100
AcDbBlockTableRecord
  2
*D25
340
0
  0
BLOCK_RECORD
  5
2E4
330
1
100
AcDbSymbolTableRecord
100
AcDbBlockTableRecord
  2
*D36
340
0
  0
BLOCK_RECORD
  5
2F1
330
1
100
AcDbSymbolTableRecord
100
AcDbBlockTableRecord
  2
*D47
340
0
  0
BLOCK_RECORD
  5
300
330
1
100
AcDbSymbolTableRecord
100
AcDbBlockTableRecord
  2
*D58
340
0
  0
BLOCK_RECORD
  5
30D
330
1
100
AcDbSymbolTableRecord
100
AcDbBlockTableRecord
  2
*D69
340
0
  0
BLOCK_RECORD
  5
31C
330
1
100
AcDbSymbolTableRecord
100
AcDbBlockTableRecord
  2
*D710
340
0
  0
BLOCK_RECORD
  5
32B
330
1
100
AcDbSymbolTableRecord
100
AcDbBlockTableRecord
  2
*D811
340
0
  0
BLOCK_RECORD
  5
33A
330
1
100
AcDbSymbolTableRecord
100
AcDbBlockTableRecord
  2
*D912
340
0
  0
BLOCK_RECORD
  5
347
330
1
100
AcDbSymbolTableRecord
100
AcDbBlockTableRecord
  2
*D1013
340
0
  0
BLOCK_RECORD
  5
357
330
1
100
AcDbSymbolTableRecord
100
AcDbBlockTableRecord
  2
*D1114
340
0
  0
BLOCK_RECORD
  5
367
330
1
100
AcDbSymbolTableRecord
100
AcDbBlockTableRecord
  2
*D1215
340
0
  0
BLOCK_RECORD
  5
376
330
1
100
AcDbSymbolTableRecord
100
AcDbBlockTableRecord
  2
*D1316
340
0
102
{BLKREFS
331
37D
102
}
  0
BLOCK_RECORD
  5
37E
330
1
100
AcDbSymbolTableRecord
100
AcDbBlockTableRecord
  2
*D1417
340
0
  0
ENDTAB
  0
ENDSEC
  0
SECTION
  2
BLOCKS
  0
BLOCK
  5
20
330
1F
100
AcDbEntity
  8
0
100
AcDbBlockBegin
  2
*Model_Space
 70
     0
 71
     0
 10
0.0
 20
0.0
 30
0.0
  3
*Model_Space
  1

  0
ENDBLK
  5
21
330
1F
100
AcDbEntity
  8
0
100
AcDbBlockEnd
  0
BLOCK
  5
1C
330
1B
100
AcDbEntity
 67
     1
  8
0
100
AcDbBlockBegin
  2
*Paper_Space
 70
     0
 71
     0
 10
0.0
 20
0.0
 30
0.0
  3
*Paper_Space
  1

  0
ENDBLK
  5
1D
330
1B
100
AcDbEntity
 67
     1
  8
0
100
AcDbBlockEnd
  0
BLOCK
  5
24
330
23
100
AcDbEntity
  8
0
100
AcDbBlockBegin
  2
*Paper_Space0
 70
     0
 71
     0
 10
0.0
 20
0.0
 30
0.0
  3
*Paper_Space0
  1

  0
ENDBLK
  5
25
330
23
100
AcDbEntity
  8
0
100
AcDbBlockEnd
  0
BLOCK
  5
35
330
34
100
AcDbEntity
  8
0
100
AcDbBlockBegin
  2
Zuwaku-A3-web
 70
     0
 71
     0
 10
196.9999999999998
 20
134.0
 30
0.0
  3
Zuwaku-A3-web
  1

  0
POINT
  5
38
330
34
100
AcDbEntity
  8
1
 62
     3
 60
     1
100
AcDbPoint
 10
162.5
 20
20.0
 30
0.0
  0
POINT
  5
39
330
34
100
AcDbEntity
  8
1
 62
     3
 60
     1
100
AcDbPoint
 10
202.0
 20
15.0
 30
0.0
  0
POINT
  5
3A
330
34
100
AcDbEntity
  8
1
 62
     3
 60
     1
100
AcDbPoint
 10
162.5
 20
15.0
 30
0.0
  0
POINT
  5
3B
330
34
100
AcDbEntity
  8
1
 62
     3
 60
     1
100
AcDbPoint
 10
9.5
 20
12.5
 30
0.0
  0
POINT
  5
3C
330
34
100
AcDbEntity
  8
1
 62
     3
 60
     1
100
AcDbPoint
 10
2.5
 20
12.5
 30
0.0
  0
POINT
  5
3D
330
34
100
AcDbEntity
  8
1
 62
     3
 60
     1
100
AcDbPoint
 10
0.0
 20
0.0
 30
0.0
  0
LINE
  5
3E
330
34
100
AcDbEntity
  8
1
  6
Continuous
 62
     4
100
AcDbLine
 10
189.4945771572093
 20
2.13397584248199
 30
0.0
 11
195.2266254722454
 21
7.866024157518
 31
0.0
  0
LINE
  5
3F
330
34
100
AcDbEntity
  8
1
  6
Continuous
 62
     7
100
AcDbLine
 10
0.0
 20
0.0
 30
0.0
 11
394.0
 21
0.0
 31
0.0
  0
LINE
  5
40
330
34
100
AcDbEntity
  8
1
  6
Continuous
 62
     4
100
AcDbLine
 10
162.5
 20
15.0
 30
0.0
 11
202.0
 21
15.0
 31
0.0
  0
LINE
  5
41
330
34
100
AcDbEntity
  8
1
  6
Continuous
 62
     3
100
AcDbLine
 10
9.5
 20
12.5
 30
0.0
 11
6.0
 21
19.0
 31
0.0
  0
LINE
  5
42
330
34
100
AcDbEntity
  8
1
  6
Continuous
 62
     3
100
AcDbLine
 10
2.5
 20
12.5
 30
0.0
 11
9.5
 21
12.5
 31
0.0
  0
LINE
  5
43
330
34
100
AcDbEntity
  8
1
  6
Continuous
 62
     3
100
AcDbLine
 10
6.0
 20
19.0
 30
0.0
 11
2.5
 21
12.5
 31
0.0
  0
LINE
  5
44
330
34
100
AcDbEntity
  8
1
  6
Continuous
 62
     4
100
AcDbLine
 10
12.0
 20
20.0
 30
0.0
 11
12.0
 21
0.0
 31
0.0
  0
LINE
  5
45
330
34
100
AcDbEntity
  8
1
  6
Continuous
 62
     4
100
AcDbLine
 10
0.0
 20
10.0
 30
0.0
 11
394.0
 21
10.0
 31
0.0
  0
LINE
  5
46
330
34
100
AcDbEntity
  8
1
  6
Continuous
 62
     7
100
AcDbLine
 10
393.9999999999996
 20
268.0
 30
0.0
 11
0.0
 21
268.0
 31
0.0
  0
LINE
  5
47
330
34
100
AcDbEntity
  8
1
  6
Continuous
 62
     7
100
AcDbLine
 10
394.0
 20
0.0
 30
0.0
 11
393.9999999999996
 21
268.0
 31
0.0
  0
LINE
  5
48
330
34
100
AcDbEntity
  8
1
  6
Continuous
 62
     4
100
AcDbLine
 10
202.0
 20
0.0
 30
0.0
 11
202.0
 21
20.0
 31
0.0
  0
LINE
  5
49
330
34
100
AcDbEntity
  8
1
  6
Continuous
 62
     4
100
AcDbLine
 10
162.5
 20
0.0
 30
0.0
 11
162.5
 21
20.0
 31
0.0
  0
LINE
  5
4A
330
34
100
AcDbEntity
  8
1
  6
Continuous
 62
     4
100
AcDbLine
 10
283.0
 20
20.0
 30
0.0
 11
283.0
 21
0.0
 31
0.0
  0
LINE
  5
4B
330
34
100
AcDbEntity
  8
1
  6
Continuous
 62
     4
100
AcDbLine
 10
227.0
 20
20.0
 30
0.0
 11
227.0
 21
0.0
 31
0.0
  0
LINE
  5
4C
330
34
100
AcDbEntity
  8
1
  6
Continuous
 62
     4
100
AcDbLine
 10
170.5
 20
10.0
 30
0.0
 11
170.5
 21
0.0
 31
0.0
  0
LINE
  5
4D
330
34
100
AcDbEntity
  8
1
  6
Continuous
 62
     4
100
AcDbLine
 10
66.0
 20
20.0
 30
0.0
 11
66.0
 21
0.0
 31
0.0
  0
LINE
  5
4E
330
34
100
AcDbEntity
  8
1
  6
Continuous
 62
     7
100
AcDbLine
 10
0.0
 20
268.0
 30
0.0
 11
0.0
 21
0.0
 31
0.0
  0
LINE
  5
4F
330
34
100
AcDbEntity
  8
1
  6
Continuous
 62
     4
100
AcDbLine
 10
173.7445771572093
 20
2.13397584248199
 30
0.0
 11
179.4766254722454
 21
7.866024157518
 31
0.0
  0
LINE
  5
50
330
34
100
AcDbEntity
  8
1
  6
Continuous
 62
     4
100
AcDbLine
 10
394.0
 20
20.0
 30
0.0
 11
0.0
 21
20.0
 31
0.0
  0
LINE
  5
51
330
34
100
AcDbEntity
  8
1
  6
Continuous
 62
     4
100
AcDbLine
 10
295.0
 20
20.0
 30
0.0
 11
295.0
 21
0.0
 31
0.0
  0
MTEXT
  5
53
330
34
100
AcDbEntity
  8
1
 62
     2
100
AcDbMText
 10
180.9766254722454
 20
3.75
 30
0.0
 40
4.0
 41
0.0
 71
     5
 72
     1
  1
10
  7
CONVERTER_1
 73
     1
 44
0.60024009603842
  0
MTEXT
  5
54
330
34
100
AcDbEntity
  8
1
 62
     2
100
AcDbMText
 10
173.183432867907
 20
6.25
 30
0.0
 40
4.0
 41
0.0
 71
     5
 72
     1
  1
1
  7
CONVERTER_1
 73
     1
 44
0.60024009603842
  0
MTEXT
  5
56
330
34
100
AcDbEntity
  8
1
 62
     2
100
AcDbMText
 10
289.0
 20
2.75
 30
0.0
 40
3.5
 41
0.0
 71
     5
 72
     1
  1
番号
  7
CONVERTER_2
 73
     1
 44
0.78031212484994
  0
MTEXT
  5
57
330
34
100
AcDbEntity
  8
1
 62
     2
100
AcDbMText
 10
166.5
 20
2.75
 30
0.0
 40
3.5
 41
0.0
 71
     5
 72
     1
  1
度
  7
CONVERTER_2
 73
     1
 44
0.78031212484994
  0
MTEXT
  5
59
330
34
100
AcDbEntity
  8
1
 62
     2
100
AcDbMText
 10
5.67807803017169
 20
2.75
 30
0.0
 40
3.5
 41
0.0
 71
     5
 72
     1
  1
番号
  7
CONVERTER_3
 73
     1
 44
0.78031212484994
  0
MTEXT
  5
5A
330
34
100
AcDbEntity
  8
1
 62
     7
100
AcDbMText
 10
114.25
 20
15.0
 30
0.0
 40
5.0
 41
0.0
 71
     5
 72
     1
  1
技術情報サービス
  7
CONVERTER_3
 73
     1
 44
1.20048019207683
  0
MTEXT
  5
5C
330
34
100
AcDbEntity
  8
1
 62
     2
100
AcDbMText
 10
214.5
 20
15.0
 30
0.0
 40
4.0
 41
0.0
 71
     5
 72
     1
  1
シリーズ名
  7
CONVERTER_4
 73
     1
 44
1.32052821128451
  0
MTEXT
  5
5D
330
34
100
AcDbEntity
  8
1
 62
     2
100
AcDbMText
 10
214.5
 20
5.0
 30
0.0
 40
4.0
 41
0.0
 71
     5
 72
     1
  1
機　種
  7
CONVERTER_3
 73
     1
 44
1.32052821128451
  0
MTEXT
  5
5E
330
34
100
AcDbEntity
  8
1
 62
     2
100
AcDbMText
 10
189.75
 20
6.5
 30
0.0
 40
4.0
 41
0.0
 71
     5
 72
     1
  1
1
  7
CONVERTER_1
 73
     1
 44
1.32052821128451
  0
MTEXT
  5
60
330
34
100
AcDbEntity
  8
1
 62
     7
100
AcDbMText
 10
114.25
 20
5.0
 30
0.0
 40
4.0
 41
0.0
 71
     5
 72
     1
  1
MARUYASU KIKAI CO.,LTD.
  7
CONVERTER_5
 73
     1
 44
1.32052821128451
  0
MTEXT
  5
61
330
34
100
AcDbEntity
  8
1
 62
     2
100
AcDbMText
 10
6.0
 20
7.25
 30
0.0
 40
3.5
 41
0.0
 71
     5
 72
     1
  1
改訂
  7
CONVERTER_3
 73
     1
 44
0.78031212484994
  0
MTEXT
  5
62
330
34
100
AcDbEntity
  8
1
 62
     2
100
AcDbMText
 10
39.0
 20
5.0
 30
0.0
 40
3.5
 41
0.0
 71
     5
 72
     1
  1
改　 訂　 記　 事
  7
CONVERTER_3
 73
     1
 44
1.32052821128451
  0
MTEXT
  5
63
330
34
100
AcDbEntity
  8
1
 62
     2
100
AcDbMText
 10
166.5
 20
7.25
 30
0.0
 40
3.5
 41
0.0
 71
     5
 72
     1
  1
尺
  7
CONVERTER_2
 73
     1
 44
0.78031212484994
  0
MTEXT
  5
64
330
34
100
AcDbEntity
  8
1
 62
     2
100
AcDbMText
 10
182.25
 20
17.5
 30
0.0
 40
3.5
 41
0.0
 71
     5
 72
     1
  1
年　　月　　日
  7
CONVERTER_3
 73
     1
 44
0.78031212484994
  0
MTEXT
  5
65
330
34
100
AcDbEntity
  8
1
 62
     2
100
AcDbMText
 10
289.0
 20
7.25
 30
0.0
 40
3.5
 41
0.0
 71
     5
 72
     1
  1
図面
  7
CONVERTER_2
 73
     1
 44
0.78031212484994
  0
MTEXT
  5
66
330
34
100
AcDbEntity
  8
1
 62
     2
100
AcDbMText
 10
289.0
 20
15.0
 30
0.0
 40
4.0
 41
0.0
 71
     5
 72
     1
  1
図名
  7
CONVERTER_3
 73
     1
 44
1.32052821128451
  0
MTEXT
  5
67
330
34
100
AcDbEntity
  8
1
 62
     4
100
AcDbMText
 10
393.4565543923691
 20
-0.25615332095569
 30
0.0
 40
2.0
 41
0.0
 71
     3
 72
     1
  1
A3
  7
CONVERTER_1
 73
     1
 44
1.32052821128451
  0
ENDBLK
  5
36
330
34
100
AcDbEntity
  8
0
100
AcDbBlockEnd
  0
BLOCK
  5
2BE
330
2B5
100
AcDbEntity
  8
0
100
AcDbBlockBegin
  2
*D02
 70
     1
 71
     0
 10
0.0
 20
0.0
 30
0.0
  3
*D02
  1

  0
LINE
  5
2B6
330
2B5
100
AcDbEntity
  8
1
  6
Continuous
 62
     2
100
AcDbLine
 10
1297.979516994544
 20
965.6383375480734
 30
0.0
 11
1757.979516994543
 21
965.6383375480734
 31
0.0
  0
LINE
  5
2B7
330
2B5
100
AcDbEntity
  8
1
  6
Continuous
 62
     2
100
AcDbLine
 10
1757.979516994543
 20
621.688337548072
 30
0.0
 11
1757.979516994543
 21
975.6383375480734
 31
0.0
  0
LINE
  5
2B8
330
2B5
100
AcDbEntity
  8
1
  6
Continuous
 62
     2
100
AcDbLine
 10
1297.979516994544
 20
627.688337548072
 30
0.0
 11
1297.979516994544
 21
975.6383375480734
 31
0.0
  0
LINE
  5
2B9
330
2B5
100
AcDbEntity
  8
1
 62
     2
100
AcDbLine
 10
1297.979516994544
 20
965.6383375480734
 30
0.0
 11
1329.979516994544
 21
974.2127117058693
 31
0.0
  0
LINE
  5
2BA
330
2B5
100
AcDbEntity
  8
1
 62
     2
100
AcDbLine
 10
1297.979516994544
 20
965.6383375480734
 30
0.0
 11
1329.979516994544
 21
957.0639633902775
 31
0.0
  0
LINE
  5
2BB
330
2B5
100
AcDbEntity
  8
1
 62
     2
100
AcDbLine
 10
1757.979516994543
 20
965.6383375480734
 30
0.0
 11
1725.979516994543
 21
957.0639633902775
 31
0.0
  0
LINE
  5
2BC
330
2B5
100
AcDbEntity
  8
1
 62
     2
100
AcDbLine
 10
1757.979516994543
 20
965.6383375480734
 30
0.0
 11
1725.979516994543
 21
974.2127117058693
 31
0.0
  0
MTEXT
  5
2BD
330
2B5
100
AcDbEntity
  8
1
 62
     2
100
AcDbMText
 10
1478.868273325846
 20
972.99631926387
 30
0.0
 40
32.0
 41
0.0
 71
     7
 72
     1
  1
機 幅
  7
CONVERTER_3
 11
0.9999999999970621
 21
2.424068405545307E-6
 31
0.0
 73
     1
 44
0.60024009603842
  0
ENDBLK
  5
2BF
330
2B5
100
AcDbEntity
  8
0
100
AcDbBlockEnd
  0
BLOCK
  5
2C1
330
2C0
100
AcDbEntity
  8
0
100
AcDbBlockBegin
  2
_Open30
 70
     0
 71
     0
 10
0.0
 20
0.0
 30
0.0
  3
_Open30
  1

  0
LINE
  5
2C3
330
2C0
100
AcDbEntity
  8
0
  6
ByBlock
 62
     0
370
    -2
100
AcDbLine
 10
-1.0
 20
0.267949
 30
0.0
 11
0.0
 21
0.0
 31
0.0
  0
LINE
  5
2C4
330
2C0
100
AcDbEntity
  8
0
  6
ByBlock
 62
     0
370
    -2
100
AcDbLine
 10
0.0
 20
0.0
 30
0.0
 11
-1.0
 21
-0.267949
 31
0.0
  0
LINE
  5
2C5
330
2C0
100
AcDbEntity
  8
0
  6
ByBlock
 62
     0
370
    -2
100
AcDbLine
 10
0.0
 20
0.0
 30
0.0
 11
-1.0
 21
0.0
 31
0.0
  0
ENDBLK
  5
2C2
330
2C0
100
AcDbEntity
  8
0
100
AcDbBlockEnd
  0
BLOCK
  5
2D3
330
2C8
100
AcDbEntity
  8
0
100
AcDbBlockBegin
  2
*D14
 70
     1
 71
     0
 10
0.0
 20
0.0
 30
0.0
  3
*D14
  1

  0
LINE
  5
2C9
330
2C8
100
AcDbEntity
  8
1
  6
Continuous
 62
     2
100
AcDbLine
 10
1652.561500705144
 20
615.4287621688352
 30
0.0
 11
1654.161000939397
 21
551.4487527987153
 31
0.0
  0
LINE
  5
2CA
330
2C8
100
AcDbEntity
  8
1
  6
Continuous
 62
     2
100
AcDbLine
 10
1651.429354445587
 20
660.7146125511233
 30
0.0
 11
1652.561500705144
 21
615.4287621688352
 31
0.0
  0
LINE
  5
2CB
330
2C8
100
AcDbEntity
  8
1
  6
Continuous
 62
     2
100
AcDbLine
 10
1649.829854211334
 20
724.6946219212432
 30
0.0
 11
1651.429354445587
 21
660.7146125511233
 31
0.0
  0
LINE
  5
2CC
330
2C8
100
AcDbEntity
  8
1
  6
Continuous
 62
     2
100
AcDbLine
 10
1714.303240465978
 20
626.4803339321661
 30
0.0
 11
1642.646844513397
 21
665.4966120587542
 31
0.0
  0
LINE
  5
2CD
330
2C8
100
AcDbEntity
  8
1
  6
Continuous
 62
     2
100
AcDbLine
 10
1715.435386725535
 20
581.194483549878
 30
0.0
 11
1643.778990772954
 21
620.2107616764661
 31
0.0
  0
LINE
  5
2CE
330
2C8
100
AcDbEntity
  8
1
 62
     2
100
AcDbLine
 10
1651.429354445587
 20
660.7146125511233
 30
0.0
 11
1642.057908407231
 21
692.4903248381525
 31
0.0
  0
LINE
  5
2CF
330
2C8
100
AcDbEntity
  8
1
 62
     2
100
AcDbLine
 10
1651.429354445587
 20
660.7146125511233
 30
0.0
 11
1659.20130024969
 21
692.9189096342141
 31
0.0
  0
LINE
  5
2D0
330
2C8
100
AcDbEntity
  8
1
 62
     2
100
AcDbLine
 10
1652.561500705144
 20
615.4287621688352
 30
0.0
 11
1661.9329467435
 21
583.6530498818061
 31
0.0
  0
LINE
  5
2D1
330
2C8
100
AcDbEntity
  8
1
 62
     2
100
AcDbLine
 10
1652.561500705144
 20
615.4287621688352
 30
0.0
 11
1644.789554901041
 21
583.2244650857444
 31
0.0
  0
MTEXT
  5
2D2
330
2C8
100
AcDbEntity
  8
1
 62
     2
100
AcDbMText
 10
1625.939164546046
 20
607.80855270051
 30
0.0
 40
32.0
 41
0.0
 71
     7
 72
     1
  1
\C2;φ\C2;45.3
  7
CONVERTER_3
 11
-0.02499219116020139
 21
0.9996876464081228
 31
0.0
 73
     1
 44
0.60024009603842
  0
ENDBLK
  5
2D4
330
2C8
100
AcDbEntity
  8
0
100
AcDbBlockEnd
  0
BLOCK
  5
2E0
330
2D7
100
AcDbEntity
  8
0
100
AcDbBlockBegin
  2
*D25
 70
     1
 71
     0
 10
0.0
 20
0.0
 30
0.0
  3
*D25
  1

  0
LINE
  5
2D8
330
2D7
100
AcDbEntity
  8
1
  6
Continuous
 62
     2
100
AcDbLine
 10
801.0418776556696
 20
1408.849034118151
 30
0.0
 11
511.2641297689489
 21
1486.494747648908
 31
0.0
  0
LINE
  5
2D9
330
2D7
100
AcDbEntity
  8
1
  6
Continuous
 62
     2
100
AcDbLine
 10
829.5119726169469
 20
1515.100875009948
 30
0.0
 11
798.4536872046444
 21
1399.18977585526
 31
0.0
  0
LINE
  5
2DA
330
2D7
100
AcDbEntity
  8
1
  6
Continuous
 62
     2
100
AcDbLine
 10
539.7342247302263
 20
1592.746588540704
 30
0.0
 11
508.6759393179235
 21
1476.835489386017
 31
0.0
  0
LINE
  5
2DB
330
2D7
100
AcDbEntity
  8
1
 62
     2
100
AcDbLine
 10
801.0418776556696
 20
1408.849034118151
 30
0.0
 11
767.913039882547
 21
1408.849034118148
 31
0.0
  0
LINE
  5
2DC
330
2D7
100
AcDbEntity
  8
1
 62
     2
100
AcDbLine
 10
801.0418776556696
 20
1408.849034118151
 30
0.0
 11
772.3514625462904
 21
1425.413453004709
 31
0.0
  0
LINE
  5
2DD
330
2D7
100
AcDbEntity
  8
1
 62
     2
100
AcDbLine
 10
511.2641297689489
 20
1486.494747648908
 30
0.0
 11
544.3929675420716
 21
1486.49474764891
 31
0.0
  0
LINE
  5
2DE
330
2D7
100
AcDbEntity
  8
1
 62
     2
100
AcDbLine
 10
511.2641297689489
 20
1486.494747648908
 30
0.0
 11
539.954544878328
 21
1469.930328762349
 31
0.0
  0
MTEXT
  5
2DF
330
2D7
100
AcDbEntity
  8
1
 62
     2
100
AcDbMText
 10
626.3218659262211
 20
1462.912053425484
 30
0.0
 40
32.0
 41
0.0
 71
     7
 72
     1
  1
300
  7
CONVERTER_1
 11
0.965925826289068
 21
-0.2588190451025226
 31
0.0
 73
     1
 44
0.60024009603842
  0
ENDBLK
  5
2E1
330
2D7
100
AcDbEntity
  8
0
100
AcDbBlockEnd
  0
BLOCK
  5
2ED
330
2E4
100
AcDbEntity
  8
0
100
AcDbBlockBegin
  2
*D36
 70
     1
 71
     0
 10
0.0
 20
0.0
 30
0.0
  3
*D36
  1

  0
LINE
  5
2E5
330
2E4
100
AcDbEntity
  8
1
  6
Continuous
 62
     2
100
AcDbLine
 10
425.1845726511594
 20
1633.792837112656
 30
0.0
 11
502.8302861819158
 21
1923.570584999378
 31
0.0
  0
LINE
  5
2E6
330
2E4
100
AcDbEntity
  8
1
  6
Continuous
 62
     2
100
AcDbLine
 10
532.6631569183608
 20
1604.99403725462
 30
0.0
 11
415.5253143882687
 21
1636.381027563682
 31
0.0
  0
LINE
  5
2E7
330
2E4
100
AcDbEntity
  8
1
  6
Continuous
 62
     2
100
AcDbLine
 10
610.3088704491164
 20
1894.771785141342
 30
0.0
 11
493.1710279190251
 21
1926.158775450403
 31
0.0
  0
LINE
  5
2E8
330
2E4
100
AcDbEntity
  8
1
 62
     2
100
AcDbLine
 10
425.1845726511594
 20
1633.792837112656
 30
0.0
 11
425.1845726511599
 21
1666.921674885779
 31
0.0
  0
LINE
  5
2E9
330
2E4
100
AcDbEntity
  8
1
 62
     2
100
AcDbLine
 10
425.1845726511594
 20
1633.792837112656
 30
0.0
 11
441.7489915377211
 21
1662.483252222034
 31
0.0
  0
LINE
  5
2EA
330
2E4
100
AcDbEntity
  8
1
 62
     2
100
AcDbLine
 10
502.8302861819158
 20
1923.570584999378
 30
0.0
 11
502.8302861819154
 21
1890.441747226255
 31
0.0
  0
LINE
  5
2EB
330
2E4
100
AcDbEntity
  8
1
 62
     2
100
AcDbLine
 10
502.8302861819158
 20
1923.570584999378
 30
0.0
 11
486.2658672953542
 21
1894.88016989
 31
0.0
  0
MTEXT
  5
2EC
330
2E4
100
AcDbEntity
  8
1
 62
     2
100
AcDbMText
 10
444.2375259424406
 20
1731.945349966048
 30
0.0
 40
32.0
 41
0.0
 71
     7
 72
     1
  1
300
  7
CONVERTER_1
 11
0.2588190451025205
 21
0.9659258262890683
 31
0.0
 73
     1
 44
0.60024009603842
  0
ENDBLK
  5
2EE
330
2E4
100
AcDbEntity
  8
0
100
AcDbBlockEnd
  0
BLOCK
  5
2FC
330
2F1
100
AcDbEntity
  8
0
100
AcDbBlockBegin
  2
*D47
 70
     1
 71
     0
 10
0.0
 20
0.0
 30
0.0
  3
*D47
  1

  0
LINE
  5
2F2
330
2F1
100
AcDbEntity
  8
1
  6
Continuous
 62
     2
100
AcDbLine
 10
1364.881750226573
 20
1687.075017360592
 30
0.0
 11
1344.309624447171
 21
1626.471489072905
 31
0.0
  0
LINE
  5
2F3
330
2F1
100
AcDbEntity
  8
1
  6
Continuous
 62
     2
100
AcDbLine
 10
1388.019600098945
 20
1755.236925094041
 30
0.0
 11
1364.881750226573
 21
1687.075017360592
 31
0.0
  0
LINE
  5
2F4
330
2F1
100
AcDbEntity
  8
1
  6
Continuous
 62
     2
100
AcDbLine
 10
1408.591725878348
 20
1815.840453381728
 30
0.0
 11
1388.019600098945
 21
1755.236925094041
 31
0.0
  0
LINE
  5
2F5
330
2F1
100
AcDbEntity
  8
1
  6
Continuous
 62
     2
100
AcDbLine
 10
1590.684152730529
 20
1592.581425181139
 30
0.0
 11
1380.220755268017
 21
1761.496159815881
 31
0.0
  0
LINE
  5
2F6
330
2F1
100
AcDbEntity
  8
1
  6
Continuous
 62
     2
100
AcDbLine
 10
1567.546302858158
 20
1524.419517447689
 30
0.0
 11
1357.082905395645
 21
1693.334252082432
 31
0.0
  0
LINE
  5
2F7
330
2F1
100
AcDbEntity
  8
1
 62
     2
100
AcDbLine
 10
1388.019600098945
 20
1755.236925094041
 30
0.0
 11
1390.186329757068
 21
1788.294831482475
 31
0.0
  0
LINE
  5
2F8
330
2F1
100
AcDbEntity
  8
1
 62
     2
100
AcDbLine
 10
1388.019600098945
 20
1755.236925094041
 30
0.0
 11
1406.42499622023
 21
1782.782546993292
 31
0.0
  0
LINE
  5
2F9
330
2F1
100
AcDbEntity
  8
1
 62
     2
100
AcDbLine
 10
1364.881750226573
 20
1687.075017360592
 30
0.0
 11
1362.715020568451
 21
1654.017110972157
 31
0.0
  0
LINE
  5
2FA
330
2F1
100
AcDbEntity
  8
1
 62
     2
100
AcDbLine
 10
1364.881750226573
 20
1687.075017360592
 30
0.0
 11
1346.476354105289
 21
1659.529395461341
 31
0.0
  0
MTEXT
  5
2FB
330
2F1
100
AcDbEntity
  8
1
 62
     2
100
AcDbMText
 10
1276.225226908443
 20
1494.540762316246
 30
0.0
 40
32.0
 41
0.0
 71
     7
 72
     1
  1
相当ローラピッチ
  7
CONVERTER_3
 11
0.3214394653031647
 21
0.9469301294951048
 31
0.0
 73
     1
 44
0.60024009603842
  0
ENDBLK
  5
2FD
330
2F1
100
AcDbEntity
  8
0
100
AcDbBlockEnd
  0
BLOCK
  5
309
330
300
100
AcDbEntity
  8
0
100
AcDbBlockBegin
  2
*D58
 70
     1
 71
     0
 10
0.0
 20
0.0
 30
0.0
  3
*D58
  1

  0
LINE
  5
301
330
300
100
AcDbEntity
  8
1
  6
Continuous
 62
     2
100
AcDbLine
 10
1877.979516994543
 20
491.6883375480721
 30
0.0
 11
1877.979516994543
 21
611.6883375480721
 31
0.0
  0
LINE
  5
302
330
300
100
AcDbEntity
  8
1
  6
Continuous
 62
     2
100
AcDbLine
 10
1767.979516994542
 20
491.6883375480721
 30
0.0
 11
1887.979516994543
 21
491.6883375480721
 31
0.0
  0
LINE
  5
303
330
300
100
AcDbEntity
  8
1
  6
Continuous
 62
     2
100
AcDbLine
 10
1767.979516994542
 20
611.6883375480721
 30
0.0
 11
1887.979516994543
 21
611.6883375480721
 31
0.0
  0
LINE
  5
304
330
300
100
AcDbEntity
  8
1
 62
     2
100
AcDbLine
 10
1877.979516994543
 20
491.6883375480721
 30
0.0
 11
1869.405142836747
 21
523.6883375480721
 31
0.0
  0
LINE
  5
305
330
300
100
AcDbEntity
  8
1
 62
     2
100
AcDbLine
 10
1877.979516994543
 20
491.6883375480721
 30
0.0
 11
1886.553891152339
 21
523.6883375480721
 31
0.0
  0
LINE
  5
306
330
300
100
AcDbEntity
  8
1
 62
     2
100
AcDbLine
 10
1877.979516994543
 20
611.6883375480721
 30
0.0
 11
1886.553891152339
 21
579.6883375480721
 31
0.0
  0
LINE
  5
307
330
300
100
AcDbEntity
  8
1
 62
     2
100
AcDbLine
 10
1877.979516994543
 20
611.6883375480721
 30
0.0
 11
1869.405142836747
 21
579.6883375480721
 31
0.0
  0
MTEXT
  5
308
330
300
100
AcDbEntity
  8
1
 62
     2
100
AcDbMText
 10
1859.343738564503
 20
520.54299739827
 30
0.0
 40
32.0
 41
0.0
 71
     7
 72
     1
  1
120
  7
CONVERTER_1
 11
0.0
 21
1.0
 31
0.0
 73
     1
 44
0.60024009603842
  0
ENDBLK
  5
30A
330
300
100
AcDbEntity
  8
0
100
AcDbBlockEnd
  0
BLOCK
  5
318
330
30D
100
AcDbEntity
  8
0
100
AcDbBlockBegin
  2
*D69
 70
     1
 71
     0
 10
0.0
 20
0.0
 30
0.0
  3
*D69
  1

  0
LINE
  5
30E
330
30D
100
AcDbEntity
  8
1
  6
Continuous
 62
     2
100
AcDbLine
 10
1877.979516994544
 20
621.6983344245352
 30
0.0
 11
1877.979516994544
 21
685.6983344245352
 31
0.0
  0
LINE
  5
30F
330
30D
100
AcDbEntity
  8
1
  6
Continuous
 62
     2
100
AcDbLine
 10
1877.979516994544
 20
611.6883375480722
 30
0.0
 11
1877.979516994544
 21
621.6983344245352
 31
0.0
  0
LINE
  5
310
330
30D
100
AcDbEntity
  8
1
  6
Continuous
 62
     2
100
AcDbLine
 10
1877.979516994544
 20
547.6883375480722
 30
0.0
 11
1877.979516994544
 21
611.6883375480722
 31
0.0
  0
LINE
  5
311
330
30D
100
AcDbEntity
  8
1
  6
Continuous
 62
     2
100
AcDbLine
 10
1767.979516994543
 20
611.6883375480722
 30
0.0
 11
1887.979516994544
 21
611.6883375480722
 31
0.0
  0
LINE
  5
312
330
30D
100
AcDbEntity
  8
1
  6
Continuous
 62
     2
100
AcDbLine
 10
1733.085750398168
 20
621.6983344245352
 30
0.0
 11
1887.979516994544
 21
621.6983344245352
 31
0.0
  0
LINE
  5
313
330
30D
100
AcDbEntity
  8
1
 62
     2
100
AcDbLine
 10
1877.979516994544
 20
611.6883375480722
 30
0.0
 11
1886.55389115234
 21
579.6883375480722
 31
0.0
  0
LINE
  5
314
330
30D
100
AcDbEntity
  8
1
 62
     2
100
AcDbLine
 10
1877.979516994544
 20
611.6883375480722
 30
0.0
 11
1869.405142836748
 21
579.6883375480722
 31
0.0
  0
LINE
  5
315
330
30D
100
AcDbEntity
  8
1
 62
     2
100
AcDbLine
 10
1877.979516994544
 20
621.6983344245352
 30
0.0
 11
1869.405142836748
 21
653.6983344245352
 31
0.0
  0
LINE
  5
316
330
30D
100
AcDbEntity
  8
1
 62
     2
100
AcDbLine
 10
1877.979516994544
 20
621.6983344245352
 30
0.0
 11
1886.55389115234
 21
653.6983344245352
 31
0.0
  0
MTEXT
  5
317
330
30D
100
AcDbEntity
  8
1
 62
     2
100
AcDbMText
 10
1863.632997090634
 20
643.8901639620001
 30
0.0
 40
32.0
 41
0.0
 71
     7
 72
     1
  1
10
  7
CONVERTER_1
 11
0.0
 21
1.0
 31
0.0
 73
     1
 44
0.60024009603842
  0
ENDBLK
  5
319
330
30D
100
AcDbEntity
  8
0
100
AcDbBlockEnd
  0
BLOCK
  5
327
330
31C
100
AcDbEntity
  8
0
100
AcDbBlockBegin
  2
*D710
 70
     1
 71
     0
 10
0.0
 20
0.0
 30
0.0
  3
*D710
  1

  0
LINE
  5
31D
330
31C
100
AcDbEntity
  8
1
  6
Continuous
 62
     2
100
AcDbLine
 10
1382.979516994543
 20
765.6383375480737
 30
0.0
 11
1446.979516994543
 21
765.6383375480737
 31
0.0
  0
LINE
  5
31E
330
31C
100
AcDbEntity
  8
1
  6
Continuous
 62
     2
100
AcDbLine
 10
1297.979516994543
 20
765.6383375480737
 30
0.0
 11
1382.979516994543
 21
765.6383375480737
 31
0.0
  0
LINE
  5
31F
330
31C
100
AcDbEntity
  8
1
  6
Continuous
 62
     2
100
AcDbLine
 10
1233.979516994543
 20
765.6383375480737
 30
0.0
 11
1297.979516994543
 21
765.6383375480737
 31
0.0
  0
LINE
  5
320
330
31C
100
AcDbEntity
  8
1
  6
Continuous
 62
     2
100
AcDbLine
 10
1297.979516994543
 20
627.688337548072
 30
0.0
 11
1297.979516994543
 21
775.6383375480737
 31
0.0
  0
LINE
  5
321
330
31C
100
AcDbEntity
  8
1
  6
Continuous
 62
     2
100
AcDbLine
 10
1382.979516994543
 20
631.6983344245371
 30
0.0
 11
1382.979516994543
 21
775.6383375480737
 31
0.0
  0
LINE
  5
322
330
31C
100
AcDbEntity
  8
1
 62
     2
100
AcDbLine
 10
1297.979516994543
 20
765.6383375480737
 30
0.0
 11
1265.979516994543
 21
757.0639633902778
 31
0.0
  0
LINE
  5
323
330
31C
100
AcDbEntity
  8
1
 62
     2
100
AcDbLine
 10
1297.979516994543
 20
765.6383375480737
 30
0.0
 11
1265.979516994543
 21
774.2127117058695
 31
0.0
  0
LINE
  5
324
330
31C
100
AcDbEntity
  8
1
 62
     2
100
AcDbLine
 10
1382.979516994543
 20
765.6383375480737
 30
0.0
 11
1414.979516994543
 21
774.2127117058695
 31
0.0
  0
LINE
  5
325
330
31C
100
AcDbEntity
  8
1
 62
     2
100
AcDbLine
 10
1382.979516994543
 20
765.6383375480737
 30
0.0
 11
1414.979516994543
 21
757.0639633902778
 31
0.0
  0
MTEXT
  5
326
330
31C
100
AcDbEntity
  8
1
 62
     2
100
AcDbMText
 10
1320.537991875633
 20
778.5861033727401
 30
0.0
 40
32.0
 41
0.0
 71
     7
 72
     1
  1
85
  7
CONVERTER_1
 11
0.9999999999970621
 21
2.424068405545307E-6
 31
0.0
 73
     1
 44
0.60024009603842
  0
ENDBLK
  5
328
330
31C
100
AcDbEntity
  8
0
100
AcDbBlockEnd
  0
BLOCK
  5
336
330
32B
100
AcDbEntity
  8
0
100
AcDbBlockBegin
  2
*D811
 70
     1
 71
     0
 10
0.0
 20
0.0
 30
0.0
  3
*D811
  1

  0
LINE
  5
32C
330
32B
100
AcDbEntity
  8
1
  6
Continuous
 62
     2
100
AcDbLine
 10
1757.979516994541
 20
765.6383375480737
 30
0.0
 11
1824.076244387702
 21
765.6383375480737
 31
0.0
  0
LINE
  5
32D
330
32B
100
AcDbEntity
  8
1
  6
Continuous
 62
     2
100
AcDbLine
 10
1723.085750398167
 20
765.6383375480737
 30
0.0
 11
1757.979516994541
 21
765.6383375480737
 31
0.0
  0
LINE
  5
32E
330
32B
100
AcDbEntity
  8
1
  6
Continuous
 62
     2
100
AcDbLine
 10
1659.085750398167
 20
765.6383375480737
 30
0.0
 11
1723.085750398167
 21
765.6383375480737
 31
0.0
  0
LINE
  5
32F
330
32B
100
AcDbEntity
  8
1
  6
Continuous
 62
     2
100
AcDbLine
 10
1723.085750398167
 20
631.698334424535
 30
0.0
 11
1723.085750398167
 21
775.6383375480737
 31
0.0
  0
LINE
  5
330
330
32B
100
AcDbEntity
  8
1
  6
Continuous
 62
     2
100
AcDbLine
 10
1757.979516994541
 20
621.688337548072
 30
0.0
 11
1757.979516994541
 21
775.6383375480737
 31
0.0
  0
LINE
  5
331
330
32B
100
AcDbEntity
  8
1
 62
     2
100
AcDbLine
 10
1723.085750398167
 20
765.6383375480737
 30
0.0
 11
1691.085750398167
 21
757.0639633902778
 31
0.0
  0
LINE
  5
332
330
32B
100
AcDbEntity
  8
1
 62
     2
100
AcDbLine
 10
1723.085750398167
 20
765.6383375480737
 30
0.0
 11
1691.085750398167
 21
774.2127117058695
 31
0.0
  0
LINE
  5
333
330
32B
100
AcDbEntity
  8
1
 62
     2
100
AcDbLine
 10
1757.979516994541
 20
765.6383375480737
 30
0.0
 11
1789.979516994541
 21
774.2127117058695
 31
0.0
  0
LINE
  5
334
330
32B
100
AcDbEntity
  8
1
 62
     2
100
AcDbLine
 10
1757.979516994541
 20
765.6383375480737
 30
0.0
 11
1789.979516994541
 21
757.0639633902778
 31
0.0
  0
MTEXT
  5
335
330
32B
100
AcDbEntity
  8
1
 62
     2
100
AcDbMText
 10
1776.076244387702
 20
779.6917787429102
 30
0.0
 40
32.0
 41
0.0
 71
     7
 72
     1
  1
35
  7
CONVERTER_1
 11
0.9999999999970621
 21
2.424068405545307E-6
 31
0.0
 73
     1
 44
0.60024009603842
  0
ENDBLK
  5
337
330
32B
100
AcDbEntity
  8
0
100
AcDbBlockEnd
  0
BLOCK
  5
343
330
33A
100
AcDbEntity
  8
0
100
AcDbBlockBegin
  2
*D912
 70
     1
 71
     0
 10
0.0
 20
0.0
 30
0.0
  3
*D912
  1

  0
LINE
  5
33B
330
33A
100
AcDbEntity
  8
1
  6
Continuous
 62
     2
100
AcDbLine
 10
1382.979516994544
 20
765.6383375480741
 30
0.0
 11
1723.085750398168
 21
765.6383375480741
 31
0.0
  0
LINE
  5
33C
330
33A
100
AcDbEntity
  8
1
  6
Continuous
 62
     2
100
AcDbLine
 10
1723.085750398168
 20
631.6983344245355
 30
0.0
 11
1723.085750398168
 21
775.6383375480741
 31
0.0
  0
LINE
  5
33D
330
33A
100
AcDbEntity
  8
1
  6
Continuous
 62
     2
100
AcDbLine
 10
1382.979516994544
 20
631.6983344245375
 30
0.0
 11
1382.979516994544
 21
775.6383375480741
 31
0.0
  0
LINE
  5
33E
330
33A
100
AcDbEntity
  8
1
 62
     2
100
AcDbLine
 10
1382.979516994544
 20
765.6383375480741
 30
0.0
 11
1414.979516994544
 21
774.21271170587
 31
0.0
  0
LINE
  5
33F
330
33A
100
AcDbEntity
  8
1
 62
     2
100
AcDbLine
 10
1382.979516994544
 20
765.6383375480741
 30
0.0
 11
1414.979516994544
 21
757.0639633902782
 31
0.0
  0
LINE
  5
340
330
33A
100
AcDbEntity
  8
1
 62
     2
100
AcDbLine
 10
1723.085750398168
 20
765.6383375480741
 30
0.0
 11
1691.085750398168
 21
757.0639633902782
 31
0.0
  0
LINE
  5
341
330
33A
100
AcDbEntity
  8
1
 62
     2
100
AcDbLine
 10
1723.085750398168
 20
765.6383375480741
 30
0.0
 11
1691.085750398168
 21
774.21271170587
 31
0.0
  0
MTEXT
  5
342
330
33A
100
AcDbEntity
  8
1
 62
     2
100
AcDbMText
 10
1491.254855918578
 20
775.6383375480741
 30
0.0
 40
32.0
 41
0.0
 71
     7
 72
     1
  1
ローラ幅
  7
CONVERTER_3
 11
0.9999999999970621
 21
2.424068405545307E-6
 31
0.0
 73
     1
 44
0.60024009603842
  0
ENDBLK
  5
344
330
33A
100
AcDbEntity
  8
0
100
AcDbBlockEnd
  0
BLOCK
  5
353
330
347
100
AcDbEntity
  8
0
100
AcDbBlockBegin
  2
*D1013
 70
     1
 71
     0
 10
0.0
 20
0.0
 30
0.0
  3
*D1013
  1

  0
LINE
  5
348
330
347
100
AcDbEntity
  8
1
  6
Continuous
 62
     2
100
AcDbLine
 10
1327.979516994543
 20
865.6383375480739
 30
0.0
 11
1391.979516994543
 21
865.6383375480739
 31
0.0
  0
LINE
  5
349
330
347
100
AcDbEntity
  8
1
  6
Continuous
 62
     2
100
AcDbLine
 10
1297.979516994543
 20
865.6383375480739
 30
0.0
 11
1327.979516994543
 21
865.6383375480739
 31
0.0
  0
LINE
  5
34A
330
347
100
AcDbEntity
  8
1
  6
Continuous
 62
     2
100
AcDbLine
 10
1227.661260780943
 20
865.6383375480739
 30
0.0
 11
1297.979516994543
 21
865.6383375480739
 31
0.0
  0
LINE
  5
34B
330
347
100
AcDbEntity
  8
1
  6
Continuous
 62
     2
100
AcDbLine
 10
1297.979516994543
 20
627.688337548072
 30
0.0
 11
1297.979516994543
 21
875.6383375480739
 31
0.0
  0
LINE
  5
34C
330
347
100
AcDbEntity
  8
1
  6
Continuous
 62
     2
100
AcDbLine
 10
1327.979516994543
 20
615.2883375480731
 30
0.0
 11
1327.979516994543
 21
712.7661259797899
 31
0.0
  0
LINE
  5
34D
330
347
100
AcDbEntity
  8
1
  6
Continuous
 62
     2
100
AcDbLine
 10
1327.979516994543
 20
839.9187935499101
 30
0.0
 11
1327.979516994543
 21
875.6383375480739
 31
0.0
  0
LINE
  5
34E
330
347
100
AcDbEntity
  8
1
 62
     2
100
AcDbLine
 10
1297.979516994543
 20
865.6383375480739
 30
0.0
 11
1265.979516994543
 21
857.063963390278
 31
0.0
  0
LINE
  5
34F
330
347
100
AcDbEntity
  8
1
 62
     2
100
AcDbLine
 10
1297.979516994543
 20
865.6383375480739
 30
0.0
 11
1265.979516994543
 21
874.2127117058698
 31
0.0
  0
LINE
  5
350
330
347
100
AcDbEntity
  8
1
 62
     2
100
AcDbLine
 10
1327.979516994543
 20
865.6383375480739
 30
0.0
 11
1359.979516994543
 21
874.2127117058698
 31
0.0
  0
LINE
  5
351
330
347
100
AcDbEntity
  8
1
 62
     2
100
AcDbLine
 10
1327.979516994543
 20
865.6383375480739
 30
0.0
 11
1359.979516994543
 21
857.063963390278
 31
0.0
  0
MTEXT
  5
352
330
347
100
AcDbEntity
  8
1
 62
     2
100
AcDbMText
 10
1227.661260780943
 20
881.4139127990002
 30
0.0
 40
32.0
 41
0.0
 71
     7
 72
     1
  1
30
  7
CONVERTER_1
 11
0.9999999999970621
 21
2.424068405545307E-6
 31
0.0
 73
     1
 44
0.60024009603842
  0
ENDBLK
  5
354
330
347
100
AcDbEntity
  8
0
100
AcDbBlockEnd
  0
BLOCK
  5
363
330
357
100
AcDbEntity
  8
0
100
AcDbBlockBegin
  2
*D1114
 70
     1
 71
     0
 10
0.0
 20
0.0
 30
0.0
  3
*D1114
  1

  0
LINE
  5
358
330
357
100
AcDbEntity
  8
1
  6
Continuous
 62
     2
100
AcDbLine
 10
1757.979516994543
 20
865.6383375480739
 30
0.0
 11
1821.979516994543
 21
865.6383375480739
 31
0.0
  0
LINE
  5
359
330
357
100
AcDbEntity
  8
1
  6
Continuous
 62
     2
100
AcDbLine
 10
1727.979516994543
 20
865.6383375480739
 30
0.0
 11
1757.979516994543
 21
865.6383375480739
 31
0.0
  0
LINE
  5
35A
330
357
100
AcDbEntity
  8
1
  6
Continuous
 62
     2
100
AcDbLine
 10
1663.979516994543
 20
865.6383375480739
 30
0.0
 11
1727.979516994543
 21
865.6383375480739
 31
0.0
  0
LINE
  5
35B
330
357
100
AcDbEntity
  8
1
  6
Continuous
 62
     2
100
AcDbLine
 10
1727.979516994543
 20
615.2883375480731
 30
0.0
 11
1727.979516994543
 21
710.92333369617
 31
0.0
  0
LINE
  5
35C
330
357
100
AcDbEntity
  8
1
  6
Continuous
 62
     2
100
AcDbLine
 10
1727.979516994543
 20
836.2332089826605
 30
0.0
 11
1727.979516994543
 21
875.6383375480739
 31
0.0
  0
LINE
  5
35D
330
357
100
AcDbEntity
  8
1
  6
Continuous
 62
     2
100
AcDbLine
 10
1757.979516994543
 20
621.688337548072
 30
0.0
 11
1757.979516994543
 21
875.6383375480739
 31
0.0
  0
LINE
  5
35E
330
357
100
AcDbEntity
  8
1
 62
     2
100
AcDbLine
 10
1727.979516994543
 20
865.6383375480739
 30
0.0
 11
1695.979516994543
 21
857.063963390278
 31
0.0
  0
LINE
  5
35F
330
357
100
AcDbEntity
  8
1
 62
     2
100
AcDbLine
 10
1727.979516994543
 20
865.6383375480739
 30
0.0
 11
1695.979516994543
 21
874.2127117058698
 31
0.0
  0
LINE
  5
360
330
357
100
AcDbEntity
  8
1
 62
     2
100
AcDbLine
 10
1757.979516994543
 20
865.6383375480739
 30
0.0
 11
1789.979516994543
 21
874.2127117058698
 31
0.0
  0
LINE
  5
361
330
357
100
AcDbEntity
  8
1
 62
     2
100
AcDbLine
 10
1757.979516994543
 20
865.6383375480739
 30
0.0
 11
1789.979516994543
 21
857.063963390278
 31
0.0
  0
MTEXT
  5
362
330
357
100
AcDbEntity
  8
1
 62
     2
100
AcDbMText
 10
1773.864893647354
 20
883.62526353935
 30
0.0
 40
32.0
 41
0.0
 71
     7
 72
     1
  1
30
  7
CONVERTER_1
 11
0.9999999999970621
 21
2.424068405545307E-6
 31
0.0
 73
     1
 44
0.60024009603842
  0
ENDBLK
  5
364
330
357
100
AcDbEntity
  8
0
100
AcDbBlockEnd
  0
BLOCK
  5
372
330
367
100
AcDbEntity
  8
0
100
AcDbBlockBegin
  2
*D1215
 70
     1
 71
     0
 10
0.0
 20
0.0
 30
0.0
  3
*D1215
  1

  0
LINE
  5
368
330
367
100
AcDbEntity
  8
1
  6
Continuous
 62
     2
100
AcDbLine
 10
1327.979516994544
 20
865.6383375480741
 30
0.0
 11
1727.979516994544
 21
865.6383375480741
 31
0.0
  0
LINE
  5
369
330
367
100
AcDbEntity
  8
1
  6
Continuous
 62
     2
100
AcDbLine
 10
1327.979516994544
 20
839.9187935499103
 30
0.0
 11
1327.979516994544
 21
875.6383375480741
 31
0.0
  0
LINE
  5
36A
330
367
100
AcDbEntity
  8
1
  6
Continuous
 62
     2
100
AcDbLine
 10
1327.979516994544
 20
615.2883375480733
 30
0.0
 11
1327.979516994544
 21
712.7661259797901
 31
0.0
  0
LINE
  5
36B
330
367
100
AcDbEntity
  8
1
  6
Continuous
 62
     2
100
AcDbLine
 10
1727.979516994544
 20
836.2332089826607
 30
0.0
 11
1727.979516994544
 21
875.6383375480741
 31
0.0
  0
LINE
  5
36C
330
367
100
AcDbEntity
  8
1
  6
Continuous
 62
     2
100
AcDbLine
 10
1727.979516994544
 20
615.2883375480733
 30
0.0
 11
1727.979516994544
 21
710.9233336961702
 31
0.0
  0
LINE
  5
36D
330
367
100
AcDbEntity
  8
1
 62
     2
100
AcDbLine
 10
1327.979516994544
 20
865.6383375480741
 30
0.0
 11
1359.979516994544
 21
874.21271170587
 31
0.0
  0
LINE
  5
36E
330
367
100
AcDbEntity
  8
1
 62
     2
100
AcDbLine
 10
1327.979516994544
 20
865.6383375480741
 30
0.0
 11
1359.979516994544
 21
857.0639633902782
 31
0.0
  0
LINE
  5
36F
330
367
100
AcDbEntity
  8
1
 62
     2
100
AcDbLine
 10
1727.979516994544
 20
865.6383375480741
 30
0.0
 11
1695.979516994544
 21
857.0639633902782
 31
0.0
  0
LINE
  5
370
330
367
100
AcDbEntity
  8
1
 62
     2
100
AcDbLine
 10
1727.979516994544
 20
865.6383375480741
 30
0.0
 11
1695.979516994544
 21
874.21271170587
 31
0.0
  0
MTEXT
  5
371
330
367
100
AcDbEntity
  8
1
 62
     2
100
AcDbMText
 10
1402.379516994544
 20
875.6383375480741
 30
0.0
 40
32.0
 41
0.0
 71
     7
 72
     1
  1
\C2;400\C2;　(呼び幅）
  7
CONVERTER_3
 11
0.9999999999970621
 21
2.424068405545307E-6
 31
0.0
 73
     1
 44
0.60024009603842
  0
ENDBLK
  5
373
330
367
100
AcDbEntity
  8
0
100
AcDbBlockEnd
  0
BLOCK
  5
37B
330
376
100
AcDbEntity
  8
0
100
AcDbBlockBegin
  2
*D1316
 70
     1
 71
     0
 10
0.0
 20
0.0
 30
0.0
  3
*D1316
  1

  0
LINE
  5
377
330
376
100
AcDbEntity
  8
1
  6
Continuous
 62
     2
100
AcDbLine
 10
2627.979516994636
 20
1198.847137745974
 30
0.0
 11
1736.305935400095
 21
1320.987319039287
 31
0.0
  0
LINE
  5
378
330
376
100
AcDbEntity
  8
1
 62
     2
100
AcDbLine
 10
1736.305935400095
 20
1320.987319039287
 30
0.0
 11
1769.173524539134
 21
1325.139604721315
 31
0.0
  0
LINE
  5
379
330
376
100
AcDbEntity
  8
1
 62
     2
100
AcDbLine
 10
1736.305935400095
 20
1320.987319039287
 30
0.0
 11
1766.846245396666
 21
1308.149509354174
 31
0.0
  0
MTEXT
  5
37A
330
376
100
AcDbEntity
  8
1
 62
     2
100
AcDbMText
 10
2051.010316612928
 20
1292.817761598527
 30
0.0
 40
32.0
 41
0.0
 71
     7
 72
     1
  1
\C2;R\C2;900
  7
CONVERTER_1
 11
0.9907484239939345
 21
-0.1357113125481255
 31
0.0
 73
     1
 44
0.60024009603842
  0
ENDBLK
  5
37C
330
376
100
AcDbEntity
  8
0
100
AcDbBlockEnd
  0
BLOCK
  5
389
330
37E
100
AcDbEntity
  8
0
100
AcDbBlockBegin
  2
*D1417
 70
     1
 71
     0
 10
0.0
 20
0.0
 30
0.0
  3
*D1417
  1

  0
LINE
  5
37F
330
37E
100
AcDbEntity
  8
1
  6
Continuous
 62
     2
100
AcDbLine
 10
2275.1407699691
 20
1198.847137745968
 30
0.0
 11
2197.602208444166
 21
1198.847137745968
 31
0.0
  0
LINE
  5
380
330
37E
100
AcDbEntity
  8
1
  6
Continuous
 62
     2
100
AcDbLine
 10
2355.724938983897
 20
1356.03339164852
 30
0.0
 11
2255.261834577542
 21
1414.035792021154
 31
0.0
  0
LINE
  5
381
330
37E
100
AcDbEntity
  8
1
  6
Continuous
 62
     2
100
AcDbLine
 10
2197.602208444166
 20
1198.847137745968
 30
0.0
 11
2187.602208444166
 21
1198.847137745968
 31
0.0
  0
LINE
  5
382
330
37E
100
AcDbEntity
  8
1
  6
Continuous
 62
     2
100
AcDbLine
 10
2255.261834577542
 20
1414.035792021154
 30
0.0
 11
2246.601580539698
 21
1419.035792021154
 31
0.0
  0
ARC
  5
383
330
37E
100
AcDbEntity
  8
1
  6
Continuous
 62
     2
100
AcDbCircle
 10
2627.979516994537
 20
1198.847137745968
 30
0.0
 40
430.3773085503713
100
AcDbArc
 50
150.0
 51
180.0
  0
LINE
  5
384
330
37E
100
AcDbEntity
  8
1
 62
     2
100
AcDbLine
 10
2255.261834577542
 20
1414.035792021154
 30
0.0
 11
2247.882764862489
 21
1381.739209812842
 31
0.0
  0
LINE
  5
385
330
37E
100
AcDbEntity
  8
1
 62
     2
100
AcDbLine
 10
2255.261834577542
 20
1414.035792021154
 30
0.0
 11
2232.723081643854
 21
1389.75566623087
 31
0.0
  0
LINE
  5
386
330
37E
100
AcDbEntity
  8
1
 62
     2
100
AcDbLine
 10
2197.602208444166
 20
1198.847137745968
 30
0.0
 11
2190.22313872911
 21
1231.14371995428
 31
0.0
  0
LINE
  5
387
330
37E
100
AcDbEntity
  8
1
 62
     2
100
AcDbLine
 10
2197.602208444166
 20
1198.847137745968
 30
0.0
 11
2207.360037718786
 21
1230.506333251307
 31
0.0
  0
MTEXT
  5
388
330
37E
100
AcDbEntity
  8
1
 62
     2
100
AcDbMText
 10
2204.140797294975
 20
1323.474396279183
 30
0.0
 40
32.0
 41
0.0
 71
     7
 72
     1
  1
30{\Fgdt;~}
  7
CONVERTER_1
 11
0.3576456703243131
 21
0.9338573630369216
 31
0.0
 73
     1
 44
0.60024009603842
  0
ENDBLK
  5
38A
330
37E
100
AcDbEntity
  8
0
100
AcDbBlockEnd
  0
ENDSEC
  0
SECTION
  2
ENTITIES
  0
INSERT
  5
37
330
1F
100
AcDbEntity
  8
0
100
AcDbBlockReference
  2
Zuwaku-A3-web
 10
1969.999999999998
 20
1340.0
 30
0.0
 41
10.0
 42
10.0
 43
10.0
  0
POINT
  5
68
330
1F
100
AcDbEntity
  8
1
 62
     3
 60
     1
100
AcDbPoint
 10
1229.552507717225
 20
1445.42755003291
 30
0.0
  0
POINT
  5
69
330
1F
100
AcDbEntity
  8
1
 62
     3
 60
     1
100
AcDbPoint
 10
1170.464042536492
 20
1455.846440692926
 30
0.0
  0
POINT
  5
6A
330
1F
100
AcDbEntity
  8
1
 62
     3
 60
     1
100
AcDbPoint
 10
2627.979516994561
 20
1198.847137745868
 30
0.0
  0
POINT
  5
6B
330
1F
100
AcDbEntity
  8
1
 62
     3
 60
     1
100
AcDbPoint
 10
1575.345147689086
 20
1518.160282725848
 30
0.0
  0
POINT
  5
6C
330
1F
100
AcDbEntity
  8
1
 62
     3
 60
     1
100
AcDbPoint
 10
2627.979516994631
 20
1198.847137745989
 30
0.0
  0
POINT
  5
6D
330
1F
100
AcDbEntity
  8
1
 62
     3
 60
     1
100
AcDbPoint
 10
1389.075690744919
 20
1686.101844550937
 30
0.0
  0
POINT
  5
6E
330
1F
100
AcDbEntity
  8
1
 62
     3
 60
     1
100
AcDbPoint
 10
1311.429977214139
 20
1396.324096664221
 30
0.0
  0
POINT
  5
6F
330
1F
100
AcDbEntity
  8
1
 62
     3
 60
     1
100
AcDbPoint
 10
1390.317598063631
 20
1685.769076487815
 30
0.0
  0
POINT
  5
70
330
1F
100
AcDbEntity
  8
1
 62
     3
 60
     1
100
AcDbPoint
 10
1312.671884532878
 20
1395.99132860109
 30
0.0
  0
LINE
  5
71
330
1F
100
AcDbEntity
  8
1
  6
DASH_CENTER
 62
     3
100
AcDbLine
 10
845.5546752281041
 20
1748.839704977538
 30
0.0
 11
786.0887655566612
 21
1526.909908765412
 31
0.0
  0
LINE
  5
72
330
1F
100
AcDbEntity
  8
1
  6
Continuous
 62
     7
100
AcDbLine
 10
793.9321561510172
 20
1527.740286640072
 30
0.0
 11
779.7113789874748
 21
1531.550732396787
 31
0.0
  0
LINE
  5
73
330
1F
100
AcDbEntity
  8
1
  6
Continuous
 62
     7
100
AcDbLine
 10
793.3737599394779
 20
1535.136841716882
 30
0.0
 11
791.7585192937697
 21
1529.108681560649
 31
0.0
  0
LINE
  5
74
330
1F
100
AcDbEntity
  8
1
  6
Continuous
 62
     7
100
AcDbLine
 10
783.8932418304495
 20
1537.677138888024
 30
0.0
 11
782.2780011847414
 21
1531.648978731791
 31
0.0
  0
LINE
  5
75
330
1F
100
AcDbEntity
  8
1
  6
Continuous
 62
     7
100
AcDbLine
 10
798.1140189939922
 20
1533.86669313131
 30
0.0
 11
796.4987783482841
 21
1527.838532975077
 31
0.0
  0
LINE
  5
76
330
1F
100
AcDbEntity
  8
1
  6
Continuous
 62
     7
100
AcDbLine
 10
777.5377421302271
 20
1532.919127317363
 30
0.0
 11
779.1529827759352
 21
1538.947287473596
 31
0.0
  0
LINE
  5
77
330
1F
100
AcDbEntity
  8
1
  6
Continuous
 62
     7
100
AcDbLine
 10
807.8564203474685
 20
1421.91740309779
 30
0.0
 11
938.1407140380462
 21
1908.145006579249
 31
0.0
  0
LINE
  5
78
330
1F
100
AcDbEntity
  8
1
  6
DASH_CENTER
 62
     3
100
AcDbLine
 10
919.3822162508031
 20
1392.034156150253
 30
0.0
 11
1049.666509941381
 21
1878.261759631712
 31
0.0
  0
LINE
  5
79
330
1F
100
AcDbEntity
  8
1
  6
Continuous
 62
     7
100
AcDbLine
 10
917.5855942139061
 20
1392.515559574143
 30
0.0
 11
1047.869887904483
 21
1878.743163055603
 31
0.0
  0
LINE
  5
7A
330
1F
100
AcDbEntity
  8
1
  6
Continuous
 62
     7
100
AcDbLine
 10
920.6765568580323
 20
1391.687338629815
 30
0.0
 11
1050.960850548609
 21
1877.914942111275
 31
0.0
  0
LINE
  5
7B
330
1F
100
AcDbEntity
  8
1
  6
Continuous
 62
     7
100
AcDbLine
 10
926.4721118157665
 20
1390.1344243592
 30
0.0
 11
1056.756405506344
 21
1876.36202784066
 31
0.0
  0
LINE
  5
7C
330
1F
100
AcDbEntity
  8
1
  6
Continuous
 62
     7
100
AcDbLine
 10
928.6937412162309
 20
1389.539140555464
 30
0.0
 11
1058.978034906809
 21
1875.766744036924
 31
0.0
  0
LINE
  5
7D
330
1F
100
AcDbEntity
  8
1
  6
DASH_CENTER
 62
     3
100
AcDbLine
 10
1029.816734211141
 20
1883.580491008569
 30
0.0
 11
899.5324405205628
 21
1397.35288752711
 31
0.0
  0
LINE
  5
7E
330
1F
100
AcDbEntity
  8
1
  6
Continuous
 62
     7
100
AcDbLine
 10
935.0497513939207
 20
1908.973227523577
 30
0.0
 11
804.7654577033438
 21
1422.745624042118
 31
0.0
  0
LINE
  5
7F
330
1F
100
AcDbEntity
  8
1
  6
Continuous
 62
     4
100
AcDbLine
 10
1362.885918144531
 20
1774.727495241041
 30
0.0
 11
1335.581739752083
 21
1787.15656770496
 31
0.0
  0
LINE
  5
80
330
1F
100
AcDbEntity
  8
1
  6
Continuous
 62
     4
100
AcDbLine
 10
1253.66920457474
 20
1824.443785096723
 30
0.0
 11
1280.973382967188
 21
1812.014712632803
 31
0.0
  0
LINE
  5
81
330
1F
100
AcDbEntity
  8
1
  6
Continuous
 62
     4
100
AcDbLine
 10
1371.718045891716
 20
1922.937681961617
 30
0.0
 11
1362.885918144531
 21
1774.727495241041
 31
0.0
  0
LINE
  5
82
330
1F
100
AcDbEntity
  8
1
  6
Continuous
 62
     4
100
AcDbLine
 10
1371.718045891716
 20
1922.937681961617
 30
0.0
 11
1253.66920457474
 21
1824.443785096723
 31
0.0
  0
LINE
  5
83
330
1F
100
AcDbEntity
  8
1
  6
Continuous
 62
     4
100
AcDbLine
 10
1293.615995478582
 20
1684.515741268397
 30
0.0
 11
1237.234438231425
 21
1705.036949867933
 31
0.0
  0
LINE
  5
84
330
1F
100
AcDbEntity
  8
1
  6
Continuous
 62
     4
100
AcDbLine
 10
1170.464042536492
 20
1455.846440692926
 30
0.0
 11
1229.552507717225
 21
1445.42755003291
 31
0.0
  0
LINE
  5
85
330
1F
100
AcDbEntity
  8
1
  6
Continuous
 62
     7
100
AcDbLine
 10
1542.852796284001
 20
1825.345342053053
 30
0.0
 11
1480.50402706022
 21
1861.342420748047
 31
0.0
  0
LINE
  5
86
330
1F
100
AcDbEntity
  8
1
  6
Continuous
 62
     3
100
AcDbLine
 10
1545.447762263914
 20
1823.847137746015
 30
0.0
 11
1542.852783922158
 21
1825.345349190169
 31
0.0
  0
LINE
  5
87
330
1F
100
AcDbEntity
  8
1
  6
Continuous
 62
     7
100
AcDbLine
 10
1316.23431911553
 20
1418.447993484076
 30
0.0
 11
1311.429977214139
 21
1396.324096664221
 31
0.0
  0
LINE
  5
88
330
1F
100
AcDbEntity
  8
1
  6
Continuous
 62
     7
100
AcDbLine
 10
1389.075690744919
 20
1686.101844550937
 30
0.0
 11
1382.174424470226
 21
1664.539816924065
 31
0.0
  0
LINE
  5
89
330
1F
100
AcDbEntity
  8
1
  6
Continuous
 62
     7
100
AcDbLine
 10
1761.358227099611
 20
1275.766185455459
 30
0.0
 11
1839.003940630369
 21
1565.54393334218
 31
0.0
  0
LINE
  5
8A
330
1F
100
AcDbEntity
  8
1
  6
Continuous
 62
     7
100
AcDbLine
 10
1731.179516994542
 20
605.245476277181
 30
0.0
 11
1740.130424769425
 21
605.4692489715511
 31
0.0
  0
LINE
  5
8B
330
1F
100
AcDbEntity
  8
1
  6
DASH_CENTER
 62
     3
100
AcDbLine
 10
2364.385193021742
 20
1351.03339164852
 30
0.0
 11
2672.888864893273
 21
1172.918713647503
 31
0.0
  0
LINE
  5
8C
330
1F
100
AcDbEntity
  8
1
  6
Continuous
 62
     7
100
AcDbLine
 10
1727.979516994636
 20
1198.847137745968
 30
0.0
 11
1752.993802825542
 21
1198.847137745969
 31
0.0
  0
LINE
  5
8D
330
1F
100
AcDbEntity
  8
1
  6
DASH_CENTER
 62
     3
100
AcDbLine
 10
1326.62650825489
 20
1547.543625505605
 30
0.0
 11
1889.195986794119
 21
1396.803588044624
 31
0.0
  0
LINE
  5
8E
330
1F
100
AcDbEntity
  8
1
  6
DASH_CENTER
 62
     3
100
AcDbLine
 10
2683.283162262803
 20
1198.847137745969
 30
0.0
 11
2285.1407699691
 21
1198.847137745969
 31
0.0
  0
LINE
  5
8F
330
1F
100
AcDbEntity
  8
1
  6
Continuous
 62
     4
100
AcDbLine
 10
1124.993550080678
 20
1344.21970482763
 30
0.0
 11
1177.979897116061
 21
1199.897067366424
 31
0.0
  0
LINE
  5
90
330
1F
100
AcDbEntity
  8
1
  6
Continuous
 62
     4
100
AcDbLine
 10
1244.436143477807
 20
1332.666918039675
 30
0.0
 11
1177.979897116061
 21
1199.897067366424
 31
0.0
  0
LINE
  5
91
330
1F
100
AcDbEntity
  8
1
  6
Continuous
 62
     4
100
AcDbLine
 10
1154.85419842996
 20
1341.331508130641
 30
0.0
 11
1124.993550080678
 21
1344.21970482763
 31
0.0
  0
LINE
  5
92
330
1F
100
AcDbEntity
  8
1
  6
Continuous
 62
     4
100
AcDbLine
 10
1214.575495128526
 20
1335.555114736665
 30
0.0
 11
1244.436143477807
 21
1332.666918039675
 31
0.0
  0
LINE
  5
93
330
1F
100
AcDbEntity
  8
1
  6
Continuous
 62
     3
100
AcDbLine
 10
1407.614666591699
 20
407.550880182733
 30
0.0
 11
1677.894666591697
 21
407.550880182733
 31
0.0
  0
LINE
  5
94
330
1F
100
AcDbEntity
  8
1
  6
Continuous
 62
     2
100
AcDbLine
 10
3220.73458276949
 20
431.294367563379
 30
0.0
 11
3725.944582769491
 21
431.294367563379
 31
0.0
  0
LINE
  5
95
330
1F
100
AcDbEntity
  8
1
  6
Continuous
 62
     7
100
AcDbLine
 10
1327.979516994544
 20
515.588337548072
 30
0.0
 11
1727.979516994544
 21
515.588337548072
 31
0.0
  0
LINE
  5
96
330
1F
100
AcDbEntity
  8
1
  6
DASH_CENTER
 62
     3
100
AcDbLine
 10
1745.007429299203
 20
508.6883375480721
 30
0.0
 11
1314.122659158102
 21
508.6883375480721
 31
0.0
  0
LINE
  5
97
330
1F
100
AcDbEntity
  8
1
  6
Continuous
 62
     7
100
AcDbLine
 10
1727.979516994544
 20
501.788337548075
 30
0.0
 11
1327.979516994544
 21
501.788337548075
 31
0.0
  0
LINE
  5
98
330
1F
100
AcDbEntity
  8
1
  6
Continuous
 62
     7
100
AcDbLine
 10
1723.864257152808
 20
590.558064238924
 30
0.0
 11
1727.463132679876
 21
590.6480361271
 31
0.0
  0
LINE
  5
99
330
1F
100
AcDbEntity
  8
1
  6
DASH_CENTER
 62
     3
100
AcDbLine
 10
1311.039475220849
 20
588.7401005257151
 30
0.0
 11
1744.903913761973
 21
599.586711489242
 31
0.0
  0
LINE
  5
9A
330
1F
100
AcDbEntity
  8
1
  6
DASH_CENTER
 62
     3
100
AcDbLine
 10
1527.979516994541
 20
481.6883375480721
 30
0.0
 11
1527.979516994541
 21
631.688337548072
 31
0.0
  0
LINE
  5
9B
330
1F
100
AcDbEntity
  8
1
  6
Continuous
 62
     7
100
AcDbLine
 10
1727.979516994543
 20
498.088337548072
 30
0.0
 11
1727.979516994543
 21
605.2883375480732
 31
0.0
  0
LINE
  5
9C
330
1F
100
AcDbEntity
  8
1
  6
Continuous
 62
     7
100
AcDbLine
 10
1327.979516994544
 20
605.2883375480732
 30
0.0
 11
1327.979516994544
 21
498.088337548072
 31
0.0
  0
LINE
  5
9D
330
1F
100
AcDbEntity
  8
1
  6
Continuous
 62
     7
100
AcDbLine
 10
1740.430331063348
 20
593.472997214655
 30
0.0
 11
1740.130424769425
 21
605.4692489715511
 31
0.0
  0
LINE
  5
9E
330
1F
100
AcDbEntity
  8
1
  6
Continuous
 62
     7
100
AcDbLine
 10
1321.579516994542
 20
608.4883375480731
 30
0.0
 11
1297.979516994544
 21
608.4883375480731
 31
0.0
  0
LINE
  5
9F
330
1F
100
AcDbEntity
  8
1
  6
Continuous
 62
     7
100
AcDbLine
 10
1324.779516994543
 20
498.088337548072
 30
0.0
 11
1324.779516994543
 21
605.2883375480732
 31
0.0
  0
LINE
  5
A0
330
1F
100
AcDbEntity
  8
1
  6
Continuous
 62
     7
100
AcDbLine
 10
1297.979516994544
 20
494.8883375480722
 30
0.0
 11
1321.579516994542
 21
494.8883375480722
 31
0.0
  0
LINE
  5
A1
330
1F
100
AcDbEntity
  8
1
  6
Continuous
 62
     7
100
AcDbLine
 10
1297.979516994544
 20
491.6883375480721
 30
0.0
 11
1297.979516994544
 21
494.8883375480722
 31
0.0
  0
LINE
  5
A2
330
1F
100
AcDbEntity
  8
1
  6
Continuous
 62
     7
100
AcDbLine
 10
1321.579516994542
 20
491.6883375480721
 30
0.0
 11
1297.979516994544
 21
491.6883375480721
 31
0.0
  0
LINE
  5
A3
330
1F
100
AcDbEntity
  8
1
  6
Continuous
 62
     7
100
AcDbLine
 10
1297.979516994544
 20
611.688337548072
 30
0.0
 11
1330.979516994544
 21
611.688337548072
 31
0.0
  0
LINE
  5
A4
330
1F
100
AcDbEntity
  8
1
  6
Continuous
 62
     7
100
AcDbLine
 10
1297.979516994544
 20
608.4883375480731
 30
0.0
 11
1297.979516994544
 21
617.688337548072
 31
0.0
  0
LINE
  5
A5
330
1F
100
AcDbEntity
  8
1
  6
Continuous
 62
     7
100
AcDbLine
 10
1757.979516994543
 20
494.8883375480722
 30
0.0
 11
1757.979516994543
 21
491.6883375480721
 31
0.0
  0
LINE
  5
A6
330
1F
100
AcDbEntity
  8
1
  6
Continuous
 62
     7
100
AcDbLine
 10
1734.379516994542
 20
494.8883375480722
 30
0.0
 11
1757.979516994543
 21
494.8883375480722
 31
0.0
  0
LINE
  5
A7
330
1F
100
AcDbEntity
  8
1
  6
Continuous
 62
     7
100
AcDbLine
 10
1731.179516994542
 20
605.2883375480732
 30
0.0
 11
1731.179516994542
 21
498.088337548072
 31
0.0
  0
LINE
  5
A8
330
1F
100
AcDbEntity
  8
1
  6
Continuous
 62
     7
100
AcDbLine
 10
1757.979516994543
 20
608.4883375480731
 30
0.0
 11
1734.379516994542
 21
608.4883375480731
 31
0.0
  0
LINE
  5
A9
330
1F
100
AcDbEntity
  8
1
  6
Continuous
 62
     7
100
AcDbLine
 10
1757.979516994543
 20
611.688337548072
 30
0.0
 11
1757.979516994543
 21
608.4883375480731
 31
0.0
  0
LINE
  5
AA
330
1F
100
AcDbEntity
  8
1
  6
Continuous
 62
     7
100
AcDbLine
 10
1734.379516994542
 20
611.688337548072
 30
0.0
 11
1757.979516994543
 21
611.688337548072
 31
0.0
  0
LINE
  5
AB
330
1F
100
AcDbEntity
  8
1
  6
Continuous
 62
     7
100
AcDbLine
 10
1757.979516994543
 20
491.6883375480721
 30
0.0
 11
1734.379516994542
 21
491.6883375480721
 31
0.0
  0
LINE
  5
AC
330
1F
100
AcDbEntity
  8
1
  6
Continuous
 62
     7
100
AcDbLine
 10
1323.93446584707
 20
597.5651311264611
 30
0.0
 11
1324.359333096792
 21
580.5704411375222
 31
0.0
  0
LINE
  5
AD
330
1F
100
AcDbEntity
  8
1
  6
Continuous
 62
     7
100
AcDbLine
 10
1324.359333096792
 20
580.5704411375222
 30
0.0
 11
1322.75983286254
 21
580.530453631667
 31
0.0
  0
LINE
  5
AE
330
1F
100
AcDbEntity
  8
1
  6
Continuous
 62
     7
100
AcDbLine
 10
1322.334965612816
 20
597.525143620605
 30
0.0
 11
1323.93446584707
 21
597.5651311264611
 31
0.0
  0
LINE
  5
AF
330
1F
100
AcDbEntity
  8
1
  6
Continuous
 62
     7
100
AcDbLine
 10
1316.442224552869
 20
596.383067877582
 30
0.0
 11
1322.359819009856
 21
596.531007739006
 31
0.0
  0
LINE
  5
B0
330
1F
100
AcDbEntity
  8
1
  6
Continuous
 62
     7
100
AcDbLine
 10
1322.734979465502
 20
581.5245895132651
 30
0.0
 11
1316.817385008515
 21
581.37664965184
 31
0.0
  0
LINE
  5
B1
330
1F
100
AcDbEntity
  8
1
  6
Continuous
 62
     7
100
AcDbLine
 10
1322.453609123766
 20
592.77940318257
 30
0.0
 11
1316.53601466678
 21
592.631463321146
 31
0.0
  0
LINE
  5
B2
330
1F
100
AcDbEntity
  8
1
  6
Continuous
 62
     7
100
AcDbLine
 10
1322.641189351589
 20
585.2761940696991
 30
0.0
 11
1316.723594894603
 21
585.128254208276
 31
0.0
  0
LINE
  5
B3
330
1F
100
AcDbEntity
  8
1
  6
Continuous
 62
     7
100
AcDbLine
 10
1316.190114706892
 20
583.237942548942
 30
0.0
 11
1315.908744365159
 21
594.4927562182471
 31
0.0
  0
LINE
  5
B4
330
1F
100
AcDbEntity
  8
1
  6
Continuous
 62
     7
100
AcDbLine
 10
1297.979516994544
 20
617.688337548072
 30
0.0
 11
1377.979516994543
 21
617.688337548072
 31
0.0
  0
LINE
  5
B5
330
1F
100
AcDbEntity
  8
1
  6
Continuous
 62
     7
100
AcDbLine
 10
1330.979516994544
 20
617.688337548072
 30
0.0
 11
1330.979516994544
 21
611.688337548072
 31
0.0
  0
LINE
  5
B6
330
1F
100
AcDbEntity
  8
1
  6
Continuous
 62
     7
100
AcDbLine
 10
1321.979516994544
 20
619.9883375480731
 30
0.0
 11
1321.979516994544
 21
617.688337548072
 31
0.0
  0
LINE
  5
B7
330
1F
100
AcDbEntity
  8
1
  6
Continuous
 62
     7
100
AcDbLine
 10
1377.979516994543
 20
619.9883375480731
 30
0.0
 11
1377.979516994543
 21
617.688337548072
 31
0.0
  0
LINE
  5
B8
330
1F
100
AcDbEntity
  8
1
  6
Continuous
 62
     7
100
AcDbLine
 10
1377.979516994543
 20
619.9883375480731
 30
0.0
 11
1321.979516994544
 21
619.9883375480731
 31
0.0
  0
LINE
  5
B9
330
1F
100
AcDbEntity
  8
1
  6
Continuous
 62
     7
100
AcDbLine
 10
1327.979516994544
 20
550.588337548072
 30
0.0
 11
1727.979516994544
 21
550.588337548072
 31
0.0
  0
LINE
  5
BA
330
1F
100
AcDbEntity
  8
1
  6
DASH_CENTER
 62
     3
100
AcDbLine
 10
1745.007429299203
 20
543.6883375480721
 30
0.0
 11
1314.122659158102
 21
543.6883375480721
 31
0.0
  0
LINE
  5
BB
330
1F
100
AcDbEntity
  8
1
  6
Continuous
 62
     7
100
AcDbLine
 10
1727.979516994544
 20
536.7883375480732
 30
0.0
 11
1327.979516994544
 21
536.7883375480732
 31
0.0
  0
LINE
  5
BC
330
1F
100
AcDbEntity
  8
1
  6
Continuous
 62
     7
100
AcDbLine
 10
1740.430331063348
 20
593.472997214655
 30
0.0
 11
1731.179516994542
 21
593.241726862935
 31
0.0
  0
LINE
  5
BD
330
1F
100
AcDbEntity
  8
1
  6
Continuous
 62
     7
100
AcDbLine
 10
1727.463132679876
 20
590.6480361271
 30
0.0
 11
1727.038265430152
 21
607.642726116038
 31
0.0
  0
LINE
  5
BE
330
1F
100
AcDbEntity
  8
1
  6
Continuous
 62
     7
100
AcDbLine
 10
1327.991698003867
 20
580.5112033925221
 30
0.0
 11
1338.988262114353
 21
580.786117495284
 31
0.0
  0
LINE
  5
BF
330
1F
100
AcDbEntity
  8
1
  6
Continuous
 62
     7
100
AcDbLine
 10
1327.559333096795
 20
597.8057996753831
 30
0.0
 11
1338.555897207282
 21
598.080713778145
 31
0.0
  0
LINE
  5
C0
330
1F
100
AcDbEntity
  8
1
  6
Continuous
 62
     7
100
AcDbLine
 10
1727.038265430152
 20
607.642726116038
 30
0.0
 11
1723.439389903084
 21
607.552754227862
 31
0.0
  0
LINE
  5
C1
330
1F
100
AcDbEntity
  8
1
  6
Continuous
 62
     7
100
AcDbLine
 10
1322.75983286254
 20
580.530453631667
 30
0.0
 11
1322.334965612816
 21
597.525143620605
 31
0.0
  0
LINE
  5
C2
330
1F
100
AcDbEntity
  8
1
  6
Continuous
 62
     7
100
AcDbLine
 10
1327.991698003867
 20
580.5112033925221
 30
0.0
 11
1327.559333096795
 21
597.8057996753831
 31
0.0
  0
LINE
  5
C3
330
1F
100
AcDbEntity
  8
1
  6
DASH_CENTER
 62
     3
100
AcDbLine
 10
1310.479516994544
 20
625.6188504173001
 30
0.0
 11
1310.479516994544
 21
599.498850417301
 31
0.0
  0
LINE
  5
C4
330
1F
100
AcDbEntity
  8
1
  6
DASH_CENTER
 62
     3
100
AcDbLine
 10
1370.484395907699
 20
1470.952648523101
 30
0.0
 11
1402.904041609778
 21
1591.944413446643
 31
0.0
  0
LINE
  5
C5
330
1F
100
AcDbEntity
  8
1
  6
DASH_CENTER
 62
     3
100
AcDbLine
 10
1402.216400841794
 20
1505.756238321607
 30
0.0
 11
1378.07303424139
 21
1384.37933793853
 31
0.0
  0
LINE
  5
C6
330
1F
100
AcDbEntity
  8
1
  6
DASH_CENTER
 62
     3
100
AcDbLine
 10
1412.982969096456
 20
1545.937618071195
 30
0.0
 11
1452.762650479165
 21
1663.124780535753
 31
0.0
  0
LINE
  5
C7
330
1F
100
AcDbEntity
  8
1
  6
DASH_CENTER
 62
     3
100
AcDbLine
 10
1416.759337194182
 20
1632.760798048218
 30
0.0
 11
1464.694222698521
 21
1748.485848743597
 31
0.0
  0
LINE
  5
C8
330
1F
100
AcDbEntity
  8
1
  6
DASH_CENTER
 62
     3
100
AcDbLine
 10
956.6347966838048
 20
1689.860884881182
 30
0.0
 11
1009.966958480901
 21
1888.899222385426
 31
0.0
  0
LINE
  5
C9
330
1F
100
AcDbEntity
  8
1
  6
DASH_CENTER
 62
     3
100
AcDbLine
 10
935.0456571568346
 20
1609.289119274835
 30
0.0
 11
879.6826647903232
 21
1402.671618903966
 31
0.0
  0
LINE
  5
CA
330
1F
100
AcDbEntity
  8
1
  6
DASH_CENTER
 62
     3
100
AcDbLine
 10
872.6784496399901
 20
1453.657037986908
 30
0.0
 11
949.0133125006432
 21
1433.203173129057
 31
0.0
  0
LINE
  5
CB
330
1F
100
AcDbEntity
  8
1
  6
DASH_CENTER
 62
     3
100
AcDbLine
 10
894.221365162021
 20
1534.056293258293
 30
0.0
 11
970.5562280226735
 21
1513.602428400442
 31
0.0
  0
LINE
  5
CC
330
1F
100
AcDbEntity
  8
1
  6
DASH_CENTER
 62
     3
100
AcDbLine
 10
980.4392512550851
 20
1855.825824678789
 30
0.0
 11
1056.774114115738
 21
1835.371959820939
 31
0.0
  0
LINE
  5
CD
330
1F
100
AcDbEntity
  8
1
  6
DASH_CENTER
 62
     3
100
AcDbLine
 10
958.8963357330545
 20
1775.426569407407
 30
0.0
 11
1035.231198593707
 21
1754.972704549556
 31
0.0
  0
LINE
  5
CE
330
1F
100
AcDbEntity
  8
1
  6
DASH_CENTER
 62
     3
100
AcDbLine
 10
840.5863005443897
 20
1690.359456556417
 30
0.0
 11
974.2515433052486
 21
1704.970469171539
 31
0.0
  0
LINE
  5
CF
330
1F
100
AcDbEntity
  8
1
  6
DASH_CENTER
 62
     3
100
AcDbLine
 10
684.3928535051256
 20
1686.119789827182
 30
0.0
 11
947.5103173457078
 21
1584.793251291053
 31
0.0
  0
LINE
  5
D0
330
1F
100
AcDbEntity
  8
1
  6
DASH_CENTER
 62
     3
100
AcDbLine
 10
937.3534202110226
 20
1695.027314136025
 30
0.0
 11
1013.688283071676
 21
1674.573449278174
 31
0.0
  0
LINE
  5
D1
330
1F
100
AcDbEntity
  8
1
  6
DASH_CENTER
 62
     3
100
AcDbLine
 10
915.7642806840521
 20
1614.455548529678
 30
0.0
 11
992.0991435447053
 21
1594.001683671826
 31
0.0
  0
LINE
  5
D2
330
1F
100
AcDbEntity
  8
1
  6
DASHED
 62
     4
100
AcDbLine
 10
547.8337671025385
 20
1605.58782731892
 30
0.0
 11
554.3042432300967
 21
1629.735972976148
 31
0.0
  0
LINE
  5
D3
330
1F
100
AcDbEntity
  8
1
  6
DASHED
 62
     4
100
AcDbLine
 10
602.6005345445541
 20
1616.795020721032
 30
0.0
 11
554.3042432300967
 21
1629.735972976148
 31
0.0
  0
LINE
  5
D4
330
1F
100
AcDbEntity
  8
1
  6
DASHED
 62
     4
100
AcDbLine
 10
602.6005345445541
 20
1616.795020721032
 30
0.0
 11
596.1300584169948
 21
1592.646875063804
 31
0.0
  0
LINE
  5
D5
330
1F
100
AcDbEntity
  8
1
  6
DASHED
 62
     4
100
AcDbLine
 10
547.8337671025385
 20
1605.58782731892
 30
0.0
 11
596.1300584169948
 21
1592.646875063804
 31
0.0
  0
LINE
  5
D6
330
1F
100
AcDbEntity
  8
DETAIL
  6
DASHED
 62
     4
100
AcDbLine
 10
662.1287305287617
 20
1667.23274732058
 30
0.0
 11
610.4134666114749
 21
1668.200483782049
 31
0.0
  0
LINE
  5
D7
330
1F
100
AcDbEntity
  8
1
  6
DASH_CENTER
 62
     3
100
AcDbLine
 10
705.9426089609747
 20
1753.264029820191
 30
0.0
 11
686.0400254936874
 21
1678.986577118396
 31
0.0
  0
LINE
  5
D8
330
1F
100
AcDbEntity
  8
1
  6
DASH_CENTER
 62
     3
100
AcDbLine
 10
700.2063871282159
 20
1789.811708074197
 30
0.0
 11
663.1952636785559
 21
1651.684314914861
 31
0.0
  0
LINE
  5
D9
330
1F
100
AcDbEntity
  8
0
  6
DASH_CENTER
 62
     3
100
AcDbLine
 10
757.764809283586
 20
1699.96965834996
 30
0.0
 11
599.2563811895493
 21
1742.441863651284
 31
0.0
  0
LINE
  5
DA
330
1F
100
AcDbEntity
  8
1
  6
DASHED
 62
     4
100
AcDbLine
 10
671.446400541801
 20
1873.731290513929
 30
0.0
 11
623.1501092273469
 21
1886.672242769055
 31
0.0
  0
LINE
  5
DB
330
1F
100
AcDbEntity
  8
1
  6
DASHED
 62
     4
100
AcDbLine
 10
671.446400541801
 20
1873.731290513929
 30
0.0
 11
664.9759244142383
 21
1849.583144856701
 31
0.0
  0
LINE
  5
DC
330
1F
100
AcDbEntity
  8
1
  6
DASHED
 62
     4
100
AcDbLine
 10
616.679633099784
 20
1862.524097111827
 30
0.0
 11
664.9759244142383
 21
1849.583144856701
 31
0.0
  0
LINE
  5
DD
330
1F
100
AcDbEntity
  8
1
  6
DASHED
 62
     4
100
AcDbLine
 10
616.679633099784
 20
1862.524097111827
 30
0.0
 11
623.1501092273469
 21
1886.672242769055
 31
0.0
  0
LINE
  5
DE
330
1F
100
AcDbEntity
  8
1
  6
DASHED
 62
     4
100
AcDbLine
 10
582.7597902154516
 20
1621.954272580638
 30
0.0
 11
645.1744449753121
 21
1854.888935281304
 31
0.0
  0
LINE
  5
DF
330
1F
100
AcDbEntity
  8
1
  6
DASH_CENTER
 62
     3
100
AcDbLine
 10
825.5669556807083
 20
1692.79881945448
 30
0.0
 11
709.6860903052522
 21
1746.069921515872
 31
0.0
  0
LINE
  5
E0
330
1F
100
AcDbEntity
  8
DETAIL
  6
DASHED
 62
     4
100
AcDbLine
 10
646.0393905317471
 20
1801.158241919087
 30
0.0
 11
691.309991078266
 21
1776.138694320245
 31
0.0
  0
LINE
  5
E1
330
1F
100
AcDbEntity
  8
COLOR
  6
DASHED
 62
     4
100
AcDbLine
 10
638.569580193792
 20
1772.283694762204
 30
0.0
 11
698.9399443368586
 21
1756.107504443297
 31
0.0
  0
LINE
  5
E2
330
1F
100
AcDbEntity
  8
DETAIL
  6
DASHED
 62
     4
100
AcDbLine
 10
628.7060309542089
 20
1707.472170004657
 30
0.0
 11
603.8928072814591
 21
1700.823765988196
 31
0.0
  0
LINE
  5
E3
330
1F
100
AcDbEntity
  8
DETAIL
  6
DASHED
 62
     4
100
AcDbLine
 10
624.0806927994559
 20
1776.165980438743
 30
0.0
 11
642.2622926363772
 21
1757.983689593801
 31
0.0
  0
LINE
  5
E4
330
1F
100
AcDbEntity
  8
COLOR
  6
DASHED
 62
     4
100
AcDbLine
 10
678.7520588188619
 20
1680.76528999275
 30
0.0
 11
618.381694675795
 21
1696.941480311659
 31
0.0
  0
LINE
  5
E5
330
1F
100
AcDbEntity
  8
COLOR
  6
DASHED
 62
     4
100
AcDbLine
 10
661.0901693799779
 20
1760.037663994234
 30
0.0
 11
721.0807246573471
 21
1743.963243154168
 31
0.0
  0
LINE
  5
E6
330
1F
100
AcDbEntity
  8
COLOR
  6
DASHED
 62
     4
100
AcDbLine
 10
644.0081124032114
 20
1696.286559459155
 30
0.0
 11
703.9986676805805
 21
1680.212138619089
 31
0.0
  0
LINE
  5
E7
330
1F
100
AcDbEntity
  8
COLOR
  6
DASH_CENTER
 62
     3
100
AcDbLine
 10
598.7164263794084
 20
1681.505249462414
 30
0.0
 11
613.3984989390027
 21
1677.571199976856
 31
0.0
  0
LINE
  5
E8
330
1F
100
AcDbEntity
  8
COLOR
  6
DASH_CENTER
 62
     3
100
AcDbLine
 10
629.2570737015058
 20
1795.484496964524
 30
0.0
 11
643.5943107411148
 21
1791.642845878068
 31
0.0
  0
LINE
  5
E9
330
1F
100
AcDbEntity
  8
DETAIL
  6
DASHED
 62
     4
100
AcDbLine
 10
595.8694168832806
 20
1670.880065373236
 30
0.0
 11
600.8091615589232
 21
1669.556464776581
 31
0.0
  0
LINE
  5
EA
330
1F
100
AcDbEntity
  8
DETAIL
  6
DASHED
 62
     4
100
AcDbLine
 10
632.1040831976338
 20
1806.109681053704
 30
0.0
 11
637.0438278732762
 21
1804.78608045705
 31
0.0
  0
LINE
  5
EB
330
1F
100
AcDbEntity
  8
DETAIL
  6
DASHED
 62
     4
100
AcDbLine
 10
612.2579703188378
 20
1693.405946405724
 30
0.0
 11
606.1977223777611
 21
1670.788793183167
 31
0.0
  0
LINE
  5
EC
330
1F
100
AcDbEntity
  8
DETAIL
  6
DASHED
 62
     4
100
AcDbLine
 10
641.0966236003403
 20
1801.033265674158
 30
0.0
 11
635.0340462878587
 21
1778.407419119165
 31
0.0
  0
LINE
  5
ED
330
1F
100
AcDbEntity
  8
1
  6
DASHED
 62
     4
100
AcDbLine
 10
555.7531319695113
 20
1629.347744408508
 30
0.0
 11
618.1285218392181
 21
1862.135868544173
 31
0.0
  0
LINE
  5
EE
330
1F
100
AcDbEntity
  8
1
  6
DASH_CENTER
 62
     3
100
AcDbLine
 10
807.3345346287653
 20
1726.804442465576
 30
0.0
 11
867.097901027086
 21
1710.790896702182
 31
0.0
  0
LINE
  5
EF
330
1F
100
AcDbEntity
  8
1
  6
Continuous
 62
     7
100
AcDbLine
 10
622.2308704118037
 20
1888.264411101862
 30
0.0
 11
905.8266930102752
 21
1812.275139459761
 31
0.0
  0
LINE
  5
F0
330
1F
100
AcDbEntity
  8
1
  6
Continuous
 62
     7
100
AcDbLine
 10
546.2415987697042
 20
1604.668588503392
 30
0.0
 11
622.2308704118037
 21
1888.264411101862
 31
0.0
  0
LINE
  5
F1
330
1F
100
AcDbEntity
  8
1
  6
Continuous
 62
     7
100
AcDbLine
 10
829.8374213681755
 20
1528.679316861291
 30
0.0
 11
546.2415987697042
 21
1604.668588503392
 31
0.0
  0
LINE
  5
F2
330
1F
100
AcDbEntity
  8
1
  6
Continuous
 62
     7
100
AcDbLine
 10
905.8266930102752
 20
1812.275139459761
 30
0.0
 11
829.8374213681755
 21
1528.679316861291
 31
0.0
  0
LINE
  5
F3
330
1F
100
AcDbEntity
  8
1
  6
Continuous
 62
     7
100
AcDbLine
 10
619.9681287120072
 20
1892.183594690315
 30
0.0
 11
909.7458765987287
 21
1814.537881159558
 31
0.0
  0
LINE
  5
F4
330
1F
100
AcDbEntity
  8
1
  6
Continuous
 62
     7
100
AcDbLine
 10
542.3224151812514
 20
1602.405846803596
 30
0.0
 11
619.9681287120072
 21
1892.183594690315
 31
0.0
  0
LINE
  5
F5
330
1F
100
AcDbEntity
  8
1
  6
Continuous
 62
     7
100
AcDbLine
 10
832.1001630679723
 20
1524.760133272839
 30
0.0
 11
542.3224151812514
 21
1602.405846803596
 31
0.0
  0
LINE
  5
F6
330
1F
100
AcDbEntity
  8
1
  6
Continuous
 62
     7
100
AcDbLine
 10
946.1890207565872
 20
1486.901150125489
 30
0.0
 11
951.9845757143216
 21
1485.348235854873
 31
0.0
  0
LINE
  5
F7
330
1F
100
AcDbEntity
  8
1
  6
Continuous
 62
     7
100
AcDbLine
 10
938.7326067202969
 20
1459.073434099785
 30
0.0
 11
944.5281616780325
 21
1457.52051982917
 31
0.0
  0
LINE
  5
F8
330
1F
100
AcDbEntity
  8
1
  6
Continuous
 62
     7
100
AcDbLine
 10
1033.274772177185
 20
1788.727379211661
 30
0.0
 11
1027.47921721945
 21
1790.280293482276
 31
0.0
  0
LINE
  5
F9
330
1F
100
AcDbEntity
  8
1
  6
Continuous
 62
     7
100
AcDbLine
 10
1040.731186213469
 20
1816.555095237368
 30
0.0
 11
1034.935631255736
 21
1818.108009507982
 31
0.0
  0
LINE
  5
FA
330
1F
100
AcDbEntity
  8
1
  6
Continuous
 62
     7
100
AcDbLine
 10
1299.458818164299
 20
1234.538456903082
 30
0.0
 11
1322.456394521072
 21
1234.137032714583
 31
0.0
  0
LINE
  5
FB
330
1F
100
AcDbEntity
  8
1
  6
Continuous
 62
     7
100
AcDbLine
 10
1299.022508003367
 20
1209.542264524172
 30
0.0
 11
1322.020084360139
 21
1209.140840335673
 31
0.0
  0
LINE
  5
FC
330
1F
100
AcDbEntity
  8
1
  6
DASH_CENTER
 62
     3
100
AcDbLine
 10
1303.996963469055
 20
1221.957339181585
 30
0.0
 11
1316.82817280493
 21
1221.73336958952
 31
0.0
  0
LINE
  5
FD
330
1F
100
AcDbEntity
  8
1
  6
DASH_CENTER
 62
     3
100
AcDbLine
 10
1310.868242150012
 20
1229.249001540277
 30
0.0
 11
1310.634012790912
 21
1215.830010544615
 31
0.0
  0
LINE
  5
FE
330
1F
100
AcDbEntity
  8
1
  6
Continuous
 62
     7
100
AcDbLine
 10
1302.988950990477
 20
1198.847137745974
 30
0.0
 11
1374.983108380463
 21
1198.847137745974
 31
0.0
  0
LINE
  5
FF
330
1F
100
AcDbEntity
  8
1
  6
Continuous
 62
     3
100
AcDbLine
 10
1675.979516994541
 20
1210.847137745967
 30
0.0
 11
1379.979516994541
 21
1210.847137745967
 31
0.0
  0
LINE
  5
100
330
1F
100
AcDbEntity
  8
1
  6
Continuous
 62
     3
100
AcDbLine
 10
1677.979516994541
 20
1208.847137745967
 30
0.0
 11
1677.979516994541
 21
1198.847137745967
 31
0.0
  0
LINE
  5
101
330
1F
100
AcDbEntity
  8
1
  6
Continuous
 62
     3
100
AcDbLine
 10
1757.979516994541
 20
1197.647137745969
 30
0.0
 11
1297.979516994541
 21
1197.647137745969
 31
0.0
  0
LINE
  5
102
330
1F
100
AcDbEntity
  8
1
  6
Continuous
 62
     3
100
AcDbLine
 10
1677.979516994541
 20
1198.847137745967
 30
0.0
 11
1727.979516994636
 21
1198.847137745968
 31
0.0
  0
LINE
  5
103
330
1F
100
AcDbEntity
  8
1
  6
Continuous
 62
     3
100
AcDbLine
 10
1752.993802825542
 20
1198.847137745969
 30
0.0
 11
1757.979516994541
 21
1198.847137745969
 31
0.0
  0
LINE
  5
104
330
1F
100
AcDbEntity
  8
1
  6
Continuous
 62
     3
100
AcDbLine
 10
1757.979516994541
 20
1198.847137745969
 30
0.0
 11
1757.979516994541
 21
1197.647137745969
 31
0.0
  0
LINE
  5
105
330
1F
100
AcDbEntity
  8
1
  6
Continuous
 62
     3
100
AcDbLine
 10
1297.979516994541
 20
1198.84713774596
 30
0.0
 11
1297.979516994541
 21
1197.647137745969
 31
0.0
  0
LINE
  5
106
330
1F
100
AcDbEntity
  8
1
  6
Continuous
 62
     3
100
AcDbLine
 10
1297.979516994541
 20
1198.84713774596
 30
0.0
 11
1302.988950990477
 21
1198.84713774596
 31
0.0
  0
LINE
  5
107
330
1F
100
AcDbEntity
  8
1
  6
Continuous
 62
     3
100
AcDbLine
 10
1374.983094106234
 20
1198.847137745974
 30
0.0
 11
1377.979516994541
 21
1198.847137745974
 31
0.0
  0
LINE
  5
108
330
1F
100
AcDbEntity
  8
1
  6
Continuous
 62
     3
100
AcDbLine
 10
1377.979516994541
 20
1198.847137745974
 30
0.0
 11
1377.979516994541
 21
1201.700679989594
 31
0.0
  0
LINE
  5
109
330
1F
100
AcDbEntity
  8
1
  6
Continuous
 62
     3
100
AcDbLine
 10
1677.979516994541
 20
1208.847137745967
 30
0.0
 11
1675.979516994541
 21
1210.847137745967
 31
0.0
  0
LINE
  5
10A
330
1F
100
AcDbEntity
  8
1
  6
Continuous
 62
     3
100
AcDbLine
 10
1379.979516994541
 20
1210.847137745967
 30
0.0
 11
1377.979516994541
 21
1208.847137745967
 31
0.0
  0
LINE
  5
10B
330
1F
100
AcDbEntity
  8
1
  6
Continuous
 62
     3
100
AcDbLine
 10
1540.447762263917
 20
1815.186883708177
 30
0.0
 11
1541.179813071486
 21
1812.454832900607
 31
0.0
  0
LINE
  5
10C
330
1F
100
AcDbEntity
  8
1
  6
Continuous
 62
     3
100
AcDbLine
 10
1797.523332591679
 20
1664.454832900606
 30
0.0
 11
1800.255383399249
 21
1665.186883708175
 31
0.0
  0
LINE
  5
10D
330
1F
100
AcDbEntity
  8
1
  6
Continuous
 62
     3
100
AcDbLine
 10
1544.020991142103
 20
1821.375897672268
 30
0.0
 11
1545.447762263914
 21
1823.847137746015
 31
0.0
  0
LINE
  5
10E
330
1F
100
AcDbEntity
  8
1
  6
Continuous
 62
     3
100
AcDbLine
 10
1480.50402706022
 20
1861.342420748047
 30
0.0
 11
1476.165729961165
 21
1863.847137746027
 31
0.0
  0
LINE
  5
10F
330
1F
100
AcDbEntity
  8
1
  6
Continuous
 62
     3
100
AcDbLine
 10
1476.765729961161
 20
1864.886368230559
 30
0.0
 11
1476.165729961165
 21
1863.847137746027
 31
0.0
  0
LINE
  5
110
330
1F
100
AcDbEntity
  8
1
  6
Continuous
 62
     3
100
AcDbLine
 10
1875.137415702002
 20
1634.88636823056
 30
0.0
 11
1874.537415702003
 21
1633.847137746019
 31
0.0
  0
LINE
  5
111
330
1F
100
AcDbEntity
  8
1
  6
Continuous
 62
     3
100
AcDbLine
 10
1874.537415702003
 20
1633.847137746019
 30
0.0
 11
1870.219660575642
 21
1636.339994830519
 31
0.0
  0
LINE
  5
112
330
1F
100
AcDbEntity
  8
1
  6
Continuous
 62
     3
100
AcDbLine
 10
1848.556653588551
 20
1648.847137745971
 30
0.0
 11
1805.255383399249
 21
1673.84713774602
 31
0.0
  0
LINE
  5
113
330
1F
100
AcDbEntity
  8
1
  6
Continuous
 62
     3
100
AcDbLine
 10
1476.765729961161
 20
1864.886368230559
 30
0.0
 11
1875.137415702002
 21
1634.88636823056
 31
0.0
  0
LINE
  5
114
330
1F
100
AcDbEntity
  8
1
  6
Continuous
 62
     3
100
AcDbLine
 10
1805.255383399249
 20
1673.84713774602
 30
0.0
 11
1800.255383399249
 21
1665.186883708175
 31
0.0
  0
LINE
  5
115
330
1F
100
AcDbEntity
  8
1
  6
Continuous
 62
     3
100
AcDbLine
 10
1541.179813071486
 20
1812.454832900607
 30
0.0
 11
1797.523332591679
 21
1664.454832900606
 31
0.0
  0
LINE
  5
116
330
1F
100
AcDbEntity
  8
1
  6
DASH_CENTER
 62
     3
100
AcDbLine
 10
1478.633408393577
 20
1842.812290574967
 30
0.0
 11
1472.126761471038
 21
1831.073988800019
 31
0.0
  0
LINE
  5
117
330
1F
100
AcDbEntity
  8
1
  6
DASH_CENTER
 62
     3
100
AcDbLine
 10
1481.046028798372
 20
1834.602751667409
 30
0.0
 11
1469.821890756195
 21
1840.824392978944
 31
0.0
  0
LINE
  5
118
330
1F
100
AcDbEntity
  8
1
  6
Continuous
 62
     7
100
AcDbLine
 10
1491.838620726309
 20
1842.912246121534
 30
0.0
 11
1471.72142328162
 21
1854.063390754986
 31
0.0
  0
LINE
  5
119
330
1F
100
AcDbEntity
  8
1
  6
Continuous
 62
     7
100
AcDbLine
 10
1479.718380220149
 20
1821.04675344305
 30
0.0
 11
1459.601182775463
 21
1832.197898076502
 31
0.0
  0
LINE
  5
11A
330
1F
100
AcDbEntity
  8
1
  6
Continuous
 62
     7
100
AcDbLine
 10
1870.219660575642
 20
1636.339994830519
 30
0.0
 11
1848.556653588551
 21
1648.847137745971
 31
0.0
  0
LINE
  5
11B
330
1F
100
AcDbEntity
  8
1
  6
Continuous
 62
     7
100
AcDbLine
 10
1389.075690744919
 20
1686.101844550937
 30
0.0
 11
1390.317598063631
 21
1685.769076487815
 31
0.0
  0
LINE
  5
11C
330
1F
100
AcDbEntity
  8
1
  6
Continuous
 62
     7
100
AcDbLine
 10
1311.429977214139
 20
1396.324096664221
 30
0.0
 11
1312.671884532878
 21
1395.99132860109
 31
0.0
  0
LINE
  5
11D
330
1F
100
AcDbEntity
  8
1
  6
DASHED
 62
     4
100
AcDbLine
 10
1486.736171703073
 20
1734.134782264775
 30
0.0
 11
1473.054933665066
 21
1703.939646468634
 31
0.0
  0
LINE
  5
11E
330
1F
100
AcDbEntity
  8
1
  6
DASHED
 62
     4
100
AcDbLine
 10
1467.589750715537
 20
1706.415888647458
 30
0.0
 11
1481.270988753545
 21
1736.611024443596
 31
0.0
  0
LINE
  5
11F
330
1F
100
AcDbEntity
  8
1
  6
DASHED
 62
     4
100
AcDbLine
 10
1452.105065691875
 20
1713.43190815413
 30
0.0
 11
1465.786303729882
 21
1743.627043950269
 31
0.0
  0
LINE
  5
120
330
1F
100
AcDbEntity
  8
1
  6
DASH_CENTER
 62
     3
100
AcDbLine
 10
1483.580555522761
 20
1734.439267933642
 30
0.0
 11
1487.7076258208
 21
1743.547906182854
 31
0.0
  0
LINE
  5
121
330
1F
100
AcDbEntity
  8
1
  6
DASH_CENTER
 62
     3
100
AcDbLine
 10
1466.757757847613
 20
1753.040167868352
 30
0.0
 11
1462.630687549568
 21
1743.931529619136
 31
0.0
  0
LINE
  5
122
330
1F
100
AcDbEntity
  8
1
  6
DASH_CENTER
 62
     3
100
AcDbLine
 10
1466.618296597809
 20
1697.002764729377
 30
0.0
 11
1470.745366895852
 21
1706.111402978591
 31
0.0
  0
LINE
  5
123
330
1F
100
AcDbEntity
  8
1
  6
DASH_CENTER
 62
     3
100
AcDbLine
 10
1449.795498922661
 20
1715.603664664086
 30
0.0
 11
1445.668428624621
 21
1706.495026414872
 31
0.0
  0
LINE
  5
124
330
1F
100
AcDbEntity
  8
1
  6
Continuous
 62
     7
100
AcDbLine
 10
1483.69325138954
 20
1701.946474206758
 30
0.0
 11
1485.958883990788
 21
1700.91992943035
 31
0.0
  0
LINE
  5
125
330
1F
100
AcDbEntity
  8
1
  6
Continuous
 62
     7
100
AcDbLine
 10
1495.249048224054
 20
1727.450661304554
 30
0.0
 11
1497.514680825305
 21
1726.424116528149
 31
0.0
  0
LINE
  5
126
330
1F
100
AcDbEntity
  8
1
  6
DOT_CENTER
 62
     3
100
AcDbLine
 10
1451.25964110869
 20
1709.450975733563
 30
0.0
 11
1444.379136318927
 21
1712.568491895303
 31
0.0
  0
LINE
  5
127
330
1F
100
AcDbEntity
  8
1
  6
DASHED
 62
     4
100
AcDbLine
 10
1448.45147281797
 20
1708.033585811795
 30
0.0
 11
1444.990190283269
 21
1709.601872525052
 31
0.0
  0
LINE
  5
128
330
1F
100
AcDbEntity
  8
1
  6
DASHED
 62
     4
100
AcDbLine
 10
1446.639882742348
 20
1715.908150332953
 30
0.0
 11
1460.321120780354
 21
1746.103286129096
 31
0.0
  0
LINE
  5
129
330
1F
100
AcDbEntity
  8
1
  6
DOT_CENTER
 62
     3
100
AcDbLine
 10
1472.209509081879
 20
1699.958714048067
 30
0.0
 11
1465.329004292116
 21
1703.076230209807
 31
0.0
  0
LINE
  5
12A
330
1F
100
AcDbEntity
  8
1
  6
DASHED
 62
     4
100
AcDbLine
 10
1469.40134079116
 20
1698.541324126299
 30
0.0
 11
1465.940058256458
 21
1700.109610839555
 31
0.0
  0
LINE
  5
12B
330
1F
100
AcDbEntity
  8
1
  6
DOT_CENTER
 62
     3
100
AcDbLine
 10
1461.341395243879
 20
1750.004995099567
 30
0.0
 11
1468.221900033642
 21
1746.887478937828
 31
0.0
  0
LINE
  5
12C
330
1F
100
AcDbEntity
  8
1
  6
DASHED
 62
     4
100
AcDbLine
 10
1463.97471365426
 20
1751.501608471429
 30
0.0
 11
1467.435996188962
 21
1749.933321758173
 31
0.0
  0
LINE
  5
12D
330
1F
100
AcDbEntity
  8
1
  6
DOT_CENTER
 62
     3
100
AcDbLine
 10
1482.291263217069
 20
1740.512733414073
 30
0.0
 11
1489.17176800683
 21
1737.395217252332
 31
0.0
  0
LINE
  5
12E
330
1F
100
AcDbEntity
  8
1
  6
DASHED
 62
     4
100
AcDbLine
 10
1484.92458162745
 20
1742.009346785933
 30
0.0
 11
1488.385864162151
 21
1740.441060072678
 31
0.0
  0
LINE
  5
12F
330
1F
100
AcDbEntity
  8
1
  6
Continuous
 62
     7
100
AcDbLine
 10
1794.816433390962
 20
1551.485035561911
 30
0.0
 11
1481.613541689027
 21
1684.060475611801
 31
0.0
  0
LINE
  5
130
330
1F
100
AcDbEntity
  8
1
  6
Continuous
 62
     7
100
AcDbLine
 10
1507.325206076593
 20
1740.807328167875
 30
0.0
 11
1813.509715321135
 21
1592.741987950944
 31
0.0
  0
LINE
  5
131
330
1F
100
AcDbEntity
  8
1
  6
DASH_CENTER
 62
     3
100
AcDbLine
 10
1428.211982893502
 20
1742.454735179746
 30
0.0
 11
1823.526882909341
 21
1563.339884244743
 31
0.0
  0
LINE
  5
132
330
1F
100
AcDbEntity
  8
1
  6
Continuous
 62
     7
100
AcDbLine
 10
1507.325206076593
 20
1740.807328167875
 30
0.0
 11
1481.613541689027
 21
1684.060475611801
 31
0.0
  0
LINE
  5
133
330
1F
100
AcDbEntity
  8
1
  6
Continuous
 62
     7
100
AcDbLine
 10
1813.509715321135
 20
1592.741987950944
 30
0.0
 11
1794.816433390962
 21
1551.485035561911
 31
0.0
  0
LINE
  5
134
330
1F
100
AcDbEntity
  8
1
  6
Continuous
 62
     7
100
AcDbLine
 10
1841.015513477538
 20
1645.167502533552
 30
0.0
 11
1819.663921510148
 21
1605.221483580342
 31
0.0
  0
LINE
  5
135
330
1F
100
AcDbEntity
  8
1
  6
Continuous
 62
     7
100
AcDbLine
 10
1544.03072037176
 20
1810.808860803583
 30
0.0
 11
1515.802469879597
 21
1757.997518637706
 31
0.0
  0
LINE
  5
136
330
1F
100
AcDbEntity
  8
1
  6
DASH_CENTER
 62
     3
100
AcDbLine
 10
1466.334415225464
 20
1819.759380664497
 30
0.0
 11
1849.088243952666
 21
1615.173196882039
 31
0.0
  0
LINE
  5
137
330
1F
100
AcDbEntity
  8
1
  6
Continuous
 62
     7
100
AcDbLine
 10
1801.601834515826
 20
1667.519005451607
 30
0.0
 11
1841.015513477538
 21
1645.167502533552
 31
0.0
  0
LINE
  5
138
330
1F
100
AcDbEntity
  8
1
  6
Continuous
 62
     7
100
AcDbLine
 10
1819.663921510148
 20
1605.221483580342
 30
0.0
 11
1515.802469879597
 21
1757.997518637706
 31
0.0
  0
LINE
  5
139
330
1F
100
AcDbEntity
  8
1
  6
DASHED
 62
     4
100
AcDbLine
 10
1522.896458137506
 20
1815.605764457439
 30
0.0
 11
1526.247758942029
 21
1813.8144568575
 31
0.0
  0
LINE
  5
13A
330
1F
100
AcDbEntity
  8
1
  6
DOT_CENTER
 62
     3
100
AcDbLine
 10
1520.17089466621
 20
1814.284582713989
 30
0.0
 11
1526.832772454656
 21
1810.723734849721
 31
0.0
  0
LINE
  5
13B
330
1F
100
AcDbEntity
  8
1
  6
DASHED
 62
     4
100
AcDbLine
 10
1502.612269057493
 20
1826.447889404436
 30
0.0
 11
1505.963569862017
 21
1824.656581804496
 31
0.0
  0
LINE
  5
13C
330
1F
100
AcDbEntity
  8
1
  6
DOT_CENTER
 62
     3
100
AcDbLine
 10
1499.886705586199
 20
1825.126707660985
 30
0.0
 11
1506.548583374643
 21
1821.565859796717
 31
0.0
  0
LINE
  5
13D
330
1F
100
AcDbEntity
  8
1
  6
DASHED
 62
     4
100
AcDbLine
 10
1504.563509048037
 20
1773.246078697475
 30
0.0
 11
1501.212208243513
 21
1775.037386297415
 31
0.0
  0
LINE
  5
13E
330
1F
100
AcDbEntity
  8
1
  6
DOT_CENTER
 62
     3
100
AcDbLine
 10
1507.45836657111
 20
1774.476770885002
 30
0.0
 11
1500.796488782663
 21
1778.037618749269
 31
0.0
  0
LINE
  5
13F
330
1F
100
AcDbEntity
  8
1
  6
DASHED
 62
     4
100
AcDbLine
 10
1482.986629806823
 20
1792.064391778356
 30
0.0
 11
1498.613431632601
 21
1821.300081691507
 31
0.0
  0
LINE
  5
140
330
1F
100
AcDbEntity
  8
1
  6
DASHED
 62
     4
100
AcDbLine
 10
1484.279319968024
 20
1784.088203644473
 30
0.0
 11
1480.9280191635
 21
1785.879511244412
 31
0.0
  0
LINE
  5
141
330
1F
100
AcDbEntity
  8
1
  6
DOT_CENTER
 62
     3
100
AcDbLine
 10
1487.174177491098
 20
1785.318895831999
 30
0.0
 11
1480.512299702649
 21
1788.879743696266
 31
0.0
  0
LINE
  5
142
330
1F
100
AcDbEntity
  8
1
  6
Continuous
 62
     7
100
AcDbLine
 10
1532.246635670643
 20
1800.402997816168
 30
0.0
 11
1534.440278137907
 21
1799.230471489122
 31
0.0
  0
LINE
  5
143
330
1F
100
AcDbEntity
  8
1
  6
Continuous
 62
     7
100
AcDbLine
 10
1519.047527039517
 20
1775.709202414413
 30
0.0
 11
1521.241169506784
 21
1774.536676087364
 31
0.0
  0
LINE
  5
144
330
1F
100
AcDbEntity
  8
1
  6
DASH_CENTER
 62
     3
100
AcDbLine
 10
1486.115575255117
 20
1791.554170863839
 30
0.0
 11
1481.401607886857
 21
1782.734958220353
 31
0.0
  0
LINE
  5
145
330
1F
100
AcDbEntity
  8
1
  6
DASH_CENTER
 62
     3
100
AcDbLine
 10
1501.685796966869
 20
1771.892833273357
 30
0.0
 11
1506.399764335128
 21
1780.712045916841
 31
0.0
  0
LINE
  5
146
330
1F
100
AcDbEntity
  8
1
  6
DASH_CENTER
 62
     3
100
AcDbLine
 10
1505.489981138662
 20
1827.801134828557
 30
0.0
 11
1500.776013770402
 21
1818.981922185072
 31
0.0
  0
LINE
  5
147
330
1F
100
AcDbEntity
  8
1
  6
DASH_CENTER
 62
     3
100
AcDbLine
 10
1521.060202850415
 20
1808.139797238074
 30
0.0
 11
1525.774170218673
 21
1816.959009881557
 31
0.0
  0
LINE
  5
148
330
1F
100
AcDbEntity
  8
1
  6
DASHED
 62
     4
100
AcDbLine
 10
1488.278157392913
 20
1789.236011357403
 30
0.0
 11
1503.904959218693
 21
1818.471701270551
 31
0.0
  0
LINE
  5
149
330
1F
100
AcDbEntity
  8
1
  6
DASHED
 62
     4
100
AcDbLine
 10
1503.270818886837
 20
1781.222266831361
 30
0.0
 11
1518.897620712615
 21
1810.457956744508
 31
0.0
  0
LINE
  5
14A
330
1F
100
AcDbEntity
  8
1
  6
DASHED
 62
     4
100
AcDbLine
 10
1524.189148298706
 20
1807.629576323554
 30
0.0
 11
1508.562346472927
 21
1778.393886410407
 31
0.0
  0
LINE
  5
14B
330
1F
100
AcDbEntity
  8
1
  6
DASHED
 62
     4
100
AcDbLine
 10
1545.170505351187
 20
1812.941248517823
 30
0.0
 11
1801.601834515826
 21
1667.519005451607
 31
0.0
  0
LINE
  5
14C
330
1F
100
AcDbEntity
  8
1
  6
DASHED
 62
     4
100
AcDbLine
 10
1545.170505351187
 20
1812.941248517823
 30
0.0
 11
1544.03072037176
 21
1810.808860803583
 31
0.0
  0
LINE
  5
14D
330
1F
100
AcDbEntity
  8
1
  6
Continuous
 62
     7
100
AcDbLine
 10
1465.429907493397
 20
1651.35859594875
 30
0.0
 11
1463.101986544789
 21
1652.234763352182
 31
0.0
  0
LINE
  5
14E
330
1F
100
AcDbEntity
  8
1
  6
Continuous
 62
     7
100
AcDbLine
 10
1455.566906151601
 20
1625.153229999547
 30
0.0
 11
1453.238985202992
 21
1626.029397402979
 31
0.0
  0
LINE
  5
14F
330
1F
100
AcDbEntity
  8
1
  6
Continuous
 62
     7
100
AcDbLine
 10
1474.278720607442
 20
1666.352651079104
 30
0.0
 11
1789.491601895208
 21
1538.629755147562
 31
0.0
  0
LINE
  5
150
330
1F
100
AcDbEntity
  8
1
  6
Continuous
 62
     7
100
AcDbLine
 10
1773.536677505297
 20
1496.238537926723
 30
0.0
 11
1452.333528598101
 21
1608.045674581664
 31
0.0
  0
LINE
  5
151
330
1F
100
AcDbEntity
  8
1
  6
DASH_CENTER
 62
     3
100
AcDbLine
 10
1801.410311547003
 20
1509.945757708631
 30
0.0
 11
1395.227139334333
 21
1662.822278506473
 31
0.0
  0
LINE
  5
152
330
1F
100
AcDbEntity
  8
1
  6
Continuous
 62
     7
100
AcDbLine
 10
1474.278720607442
 20
1666.352651079104
 30
0.0
 11
1452.333528598101
 21
1608.045674581664
 31
0.0
  0
LINE
  5
153
330
1F
100
AcDbEntity
  8
1
  6
Continuous
 62
     7
100
AcDbLine
 10
1789.491601895208
 20
1538.629755147562
 30
0.0
 11
1773.536677505297
 21
1496.238537926723
 31
0.0
  0
LINE
  5
154
330
1F
100
AcDbEntity
  8
1
  6
Continuous
 62
     7
100
AcDbLine
 10
1438.323350067317
 20
1574.355351834668
 30
0.0
 11
1435.943109286238
 21
1575.077389981794
 31
0.0
  0
LINE
  5
155
330
1F
100
AcDbEntity
  8
1
  6
Continuous
 62
     7
100
AcDbLine
 10
1430.195379104188
 20
1547.561022434167
 30
0.0
 11
1427.815138323112
 21
1548.283060581292
 31
0.0
  0
LINE
  5
156
330
1F
100
AcDbEntity
  8
1
  6
Continuous
 62
     7
100
AcDbLine
 10
1446.172559067861
 20
1589.896043609653
 30
0.0
 11
1769.06402244887
 21
1483.062521012357
 31
0.0
  0
LINE
  5
157
330
1F
100
AcDbEntity
  8
1
  6
Continuous
 62
     7
100
AcDbLine
 10
1755.915777034918
 20
1439.718564659869
 30
0.0
 11
1428.087812118036
 21
1530.278622595653
 31
0.0
  0
LINE
  5
158
330
1F
100
AcDbEntity
  8
1
  6
DASH_CENTER
 62
     3
100
AcDbLine
 10
1782.833236419737
 20
1455.21945912138
 30
0.0
 11
1367.521130711968
 21
1581.203009049846
 31
0.0
  0
LINE
  5
159
330
1F
100
AcDbEntity
  8
1
  6
Continuous
 62
     7
100
AcDbLine
 10
1446.172559067861
 20
1589.896043609653
 30
0.0
 11
1428.087812118036
 21
1530.278622595653
 31
0.0
  0
LINE
  5
15A
330
1F
100
AcDbEntity
  8
1
  6
Continuous
 62
     7
100
AcDbLine
 10
1769.06402244887
 20
1483.062521012357
 30
0.0
 11
1755.915777034918
 21
1439.718564659869
 31
0.0
  0
LINE
  5
15B
330
1F
100
AcDbEntity
  8
1
  6
Continuous
 62
     7
100
AcDbLine
 10
1739.31461182476
 20
1368.520050066966
 30
0.0
 11
1731.936373051459
 21
1323.830716861422
 31
0.0
  0
LINE
  5
15C
330
1F
100
AcDbEntity
  8
1
  6
Continuous
 62
     7
100
AcDbLine
 10
1405.240956768111
 20
1432.293803853034
 30
0.0
 11
1395.0925622904
 21
1370.825884983721
 31
0.0
  0
LINE
  5
15D
330
1F
100
AcDbEntity
  8
1
  6
DASH_CENTER
 62
     3
100
AcDbLine
 10
1756.600277109713
 20
1342.712432499724
 30
0.0
 11
1328.397070984879
 21
1413.409067953005
 31
0.0
  0
LINE
  5
15E
330
1F
100
AcDbEntity
  8
1
  6
Continuous
 62
     7
100
AcDbLine
 10
1731.936373051459
 20
1323.830716861422
 30
0.0
 11
1395.0925622904
 21
1370.825884983721
 31
0.0
  0
LINE
  5
15F
330
1F
100
AcDbEntity
  8
1
  6
Continuous
 62
     7
100
AcDbLine
 10
1405.240956768111
 20
1432.293803853034
 30
0.0
 11
1739.31461182476
 21
1368.520050066966
 31
0.0
  0
LINE
  5
160
330
1F
100
AcDbEntity
  8
1
  6
Continuous
 62
     7
100
AcDbLine
 10
1394.926292905474
 20
1388.235524189374
 30
0.0
 11
1392.472170524262
 21
1388.640701434337
 31
0.0
  0
LINE
  5
161
330
1F
100
AcDbEntity
  8
1
  6
Continuous
 62
     7
100
AcDbLine
 10
1399.487366160526
 20
1415.86153748775
 30
0.0
 11
1397.033243779313
 21
1416.266714732713
 31
0.0
  0
LINE
  5
162
330
1F
100
AcDbEntity
  8
0
  6
DASHED
 62
     4
100
AcDbLine
 10
1665.50932041452
 20
1384.788555120147
 30
0.0
 11
1665.768139459623
 21
1385.754480946434
 31
0.0
  0
LINE
  5
163
330
1F
100
AcDbEntity
  8
0
  6
DASHED
 62
     4
100
AcDbLine
 10
1687.933665481532
 20
1391.203284133564
 30
0.0
 11
1683.988545430361
 21
1384.23512093474
 31
0.0
  0
LINE
  5
164
330
1F
100
AcDbEntity
  8
0
  6
DASHED
 62
     4
100
AcDbLine
 10
1680.601426927269
 20
1382.815189728789
 30
0.0
 11
1666.992884331013
 21
1386.46158772762
 31
0.0
  0
LINE
  5
165
330
1F
100
AcDbEntity
  8
0
  6
DASHED
 62
     4
100
AcDbLine
 10
1646.897910669925
 20
1388.740191150804
 30
0.0
 11
1683.391396029381
 21
1524.935732657563
 31
0.0
  0
LINE
  5
166
330
1F
100
AcDbEntity
  8
0
  6
DASHED
 62
     4
100
AcDbLine
 10
1689.865517134111
 20
1390.685646043359
 30
0.0
 11
1687.933665481532
 21
1391.203284133564
 31
0.0
  0
LINE
  5
167
330
1F
100
AcDbEntity
  8
0
  6
DASHED
 62
     4
100
AcDbLine
 10
1664.284575543127
 20
1384.081448338958
 30
0.0
 11
1646.897910669925
 21
1388.740191150804
 31
0.0
  0
LINE
  5
168
330
1F
100
AcDbEntity
  8
0
  6
DASHED
 62
     4
100
AcDbLine
 10
1648.709643985643
 20
1395.501671934827
 30
0.0
 11
1506.235584608006
 21
1433.677481087449
 31
0.0
  0
LINE
  5
169
330
1F
100
AcDbEntity
  8
0
  6
DASHED
 62
     4
100
AcDbLine
 10
1691.090262005501
 20
1391.392752824545
 30
0.0
 11
1720.336814102088
 21
1500.542371195211
 31
0.0
  0
LINE
  5
16A
330
1F
100
AcDbEntity
  8
0
  6
DASHED
 62
     4
100
AcDbLine
 10
1495.755902847055
 20
1423.544551097105
 30
0.0
 11
1490.926273715611
 21
1424.838646322618
 31
0.0
  0
LINE
  5
16B
330
1F
100
AcDbEntity
  8
0
  6
DASHED
 62
     4
100
AcDbLine
 10
1505.588536995249
 20
1431.262666521727
 30
0.0
 11
1502.207987856551
 21
1432.168481933415
 31
0.0
  0
LINE
  5
16C
330
1F
100
AcDbEntity
  8
0
  6
DASHED
 62
     4
100
AcDbLine
 10
1420.104101368666
 20
1454.168152013299
 30
0.0
 11
1421.375320294912
 21
1449.424707388562
 31
0.0
  0
LINE
  5
16D
330
1F
100
AcDbEntity
  8
0
  6
DASHED
 62
     4
100
AcDbLine
 10
1490.926273715611
 20
1424.838646322618
 30
0.0
 11
1426.830435166557
 21
1443.824807815749
 31
0.0
  0
LINE
  5
16E
330
1F
100
AcDbEntity
  8
0
  6
DASHED
 62
     4
100
AcDbLine
 10
1426.833250838144
 20
1484.939632753337
 30
0.0
 11
1425.990290156241
 21
1486.3999677401
 31
0.0
  0
LINE
  5
16F
330
1F
100
AcDbEntity
  8
0
  6
DASHED
 62
     4
100
AcDbLine
 10
1420.104101368666
 20
1454.168152013299
 30
0.0
 11
1454.268215322199
 21
1581.670361083457
 31
0.0
  0
LINE
  5
170
330
1F
100
AcDbEntity
  8
0
  6
DASHED
 62
     4
100
AcDbLine
 10
1425.190813626288
 20
1492.470537128011
 30
0.0
 11
1439.522244801686
 21
1545.956166419771
 31
0.0
  0
LINE
  5
171
330
1F
100
AcDbEntity
  8
0
  6
DASHED
 62
     4
100
AcDbLine
 10
1700.732935234628
 20
1516.244875255022
 30
0.0
 11
1666.261552863663
 21
1387.595924839451
 31
0.0
  0
LINE
  5
172
330
1F
100
AcDbEntity
  8
0
  6
DASHED
 62
     4
100
AcDbLine
 10
1539.752650948782
 20
1558.764875591885
 30
0.0
 11
1505.588536995249
 21
1431.262666521727
 31
0.0
  0
LINE
  5
173
330
1F
100
AcDbEntity
  8
1
  6
DASHED
 62
     4
100
AcDbLine
 10
1537.145211049256
 20
1425.395271644168
 30
0.0
 11
1532.227649192308
 21
1407.042680944677
 31
0.0
  0
LINE
  5
174
330
1F
100
AcDbEntity
  8
1
  6
DASHED
 62
     4
100
AcDbLine
 10
1526.10392483535
 20
1403.507147038743
 30
0.0
 11
1415.022454812106
 21
1433.271337225534
 31
0.0
  0
LINE
  5
175
330
1F
100
AcDbEntity
  8
1
  6
DASHED
 62
     4
100
AcDbLine
 10
1411.486920906173
 20
1439.395061582492
 30
0.0
 11
1424.953254811561
 21
1489.652103909087
 31
0.0
  0
LINE
  5
176
330
1F
100
AcDbEntity
  8
1
  6
DASH_CENTER
 62
     3
100
AcDbLine
 10
1526.528073362916
 20
1421.510829940488
 30
0.0
 11
1510.590297229144
 21
1425.781344184679
 31
0.0
  0
LINE
  5
177
330
1F
100
AcDbEntity
  8
1
  6
DASH_CENTER
 62
     3
100
AcDbLine
 10
1516.423928173934
 20
1415.677198995699
 30
0.0
 11
1520.694442418125
 21
1431.614975129469
 31
0.0
  0
LINE
  5
178
330
1F
100
AcDbEntity
  8
0
  6
DASHED
 62
     4
100
AcDbLine
 10
1701.22634863867
 20
1518.086319148039
 30
0.0
 11
1701.48516768377
 21
1519.052244974326
 31
0.0
  0
LINE
  5
179
330
1F
100
AcDbEntity
  8
0
  6
DASHED
 62
     4
100
AcDbLine
 10
1717.765363082439
 20
1510.291920530291
 30
0.0
 11
1717.697855668324
 21
1502.284754156809
 31
0.0
  0
LINE
  5
17A
330
1F
100
AcDbEntity
  8
0
  6
DASHED
 62
     4
100
AcDbLine
 10
1701.933455419856
 20
1516.861574276647
 30
0.0
 11
1715.54199801611
 21
1513.215176277815
 31
0.0
  0
LINE
  5
17B
330
1F
100
AcDbEntity
  8
0
  6
DASHED
 62
     4
100
AcDbLine
 10
1717.697855668324
 20
1502.284754156809
 30
0.0
 11
1719.629707320901
 21
1501.767116066603
 31
0.0
  0
LINE
  5
17C
330
1F
100
AcDbEntity
  8
0
  6
DASHED
 62
     4
100
AcDbLine
 10
1683.391396029381
 20
1524.935732657563
 30
0.0
 11
1700.778060902583
 21
1520.276989845718
 31
0.0
  0
LINE
  5
17D
330
1F
100
AcDbEntity
  8
0
  6
DASHED
 62
     4
100
AcDbLine
 10
1539.105603336025
 20
1556.350061026162
 30
0.0
 11
1681.579662713663
 21
1518.174251873539
 31
0.0
  0
LINE
  5
17E
330
1F
100
AcDbEntity
  8
0
  6
DASHED
 62
     4
100
AcDbLine
 10
1530.266768571195
 20
1571.659371918557
 30
0.0
 11
1535.096397702639
 21
1570.365276693045
 31
0.0
  0
LINE
  5
17F
330
1F
100
AcDbEntity
  8
0
  6
DASHED
 62
     4
100
AcDbLine
 10
1536.372101810084
 20
1559.670691003573
 30
0.0
 11
1539.752650948782
 21
1558.764875591885
 31
0.0
  0
LINE
  5
180
330
1F
100
AcDbEntity
  8
0
  6
DASHED
 62
     4
100
AcDbLine
 10
1457.74084551847
 20
1585.142695166803
 30
0.0
 11
1454.268215322199
 21
1581.670361083457
 31
0.0
  0
LINE
  5
181
330
1F
100
AcDbEntity
  8
0
  6
DASHED
 62
     4
100
AcDbLine
 10
1465.265063364281
 20
1587.264793019678
 30
0.0
 11
1530.266768571195
 21
1571.659371918557
 31
0.0
  0
LINE
  5
182
330
1F
100
AcDbEntity
  8
0
  6
DASHED
 62
     4
100
AcDbLine
 10
1443.249896480309
 20
1550.813695460163
 30
0.0
 11
1444.71008933861
 21
1551.656902315784
 31
0.0
  0
LINE
  5
183
330
1F
100
AcDbEntity
  8
1
  6
DASHED
 62
     4
100
AcDbLine
 10
1574.932791634223
 20
1566.420442282373
 30
0.0
 11
1570.015229777274
 21
1548.067851582881
 31
0.0
  0
LINE
  5
184
330
1F
100
AcDbEntity
  8
1
  6
DASHED
 62
     4
100
AcDbLine
 10
1460.315787705047
 20
1602.30835682612
 30
0.0
 11
1571.39725772829
 21
1572.544166639331
 31
0.0
  0
LINE
  5
185
330
1F
100
AcDbEntity
  8
1
  6
DASHED
 62
     4
100
AcDbLine
 10
1440.725729442703
 20
1548.515780593595
 30
0.0
 11
1454.192063348091
 21
1598.772822920188
 31
0.0
  0
LINE
  5
186
330
1F
100
AcDbEntity
  8
1
  6
DASH_CENTER
 62
     3
100
AcDbLine
 10
1546.824963543498
 20
1561.010959865151
 30
0.0
 11
1562.762739677268
 21
1556.740445620959
 31
0.0
  0
LINE
  5
187
330
1F
100
AcDbEntity
  8
1
  6
DASH_CENTER
 62
     3
100
AcDbLine
 10
1552.65859448829
 20
1550.90681467617
 30
0.0
 11
1556.929108732479
 21
1566.84459080994
 31
0.0
  0
LINE
  5
188
330
1F
100
AcDbEntity
  8
1
  6
DASHED
 62
     4
100
AcDbLine
 10
1498.205392589838
 20
1424.958764659478
 30
0.0
 11
1536.510611265012
 21
1567.915786950262
 31
0.0
  0
LINE
  5
189
330
1F
100
AcDbEntity
  8
1
  6
DASH_CENTER
 62
     3
100
AcDbLine
 10
1465.725270122271
 20
1574.200528735396
 30
0.0
 11
1469.995784366463
 21
1590.138304869165
 31
0.0
  0
LINE
  5
18A
330
1F
100
AcDbEntity
  8
1
  6
DASH_CENTER
 62
     3
100
AcDbLine
 10
1459.891639177482
 20
1584.304673924377
 30
0.0
 11
1475.829415311252
 21
1580.034159680186
 31
0.0
  0
LINE
  5
18B
330
1F
100
AcDbEntity
  8
1
  6
DASH_CENTER
 62
     3
100
AcDbLine
 10
1429.490603807918
 20
1438.970913054925
 30
0.0
 11
1433.76111805211
 21
1454.908689188696
 31
0.0
  0
LINE
  5
18C
330
1F
100
AcDbEntity
  8
1
  6
DASH_CENTER
 62
     3
100
AcDbLine
 10
1439.594748996897
 20
1444.804543999714
 30
0.0
 11
1423.656972863129
 21
1449.075058243907
 31
0.0
  0
LINE
  5
18D
330
1F
100
AcDbEntity
  8
1
  6
Continuous
 62
     7
100
AcDbLine
 10
1416.311082987355
 20
1495.744123898788
 30
0.0
 11
1413.888714930255
 21
1496.308940911413
 31
0.0
  0
LINE
  5
18E
330
1F
100
AcDbEntity
  8
1
  6
Continuous
 62
     7
100
AcDbLine
 10
1409.952947622389
 20
1468.475568479024
 30
0.0
 11
1407.53057956529
 21
1469.040385491649
 31
0.0
  0
LINE
  5
18F
330
1F
100
AcDbEntity
  8
1
  6
Continuous
 62
     7
100
AcDbLine
 10
1423.127076356428
 20
1511.764904690376
 30
0.0
 11
1752.314451013279
 21
1426.27823297247
 31
0.0
  0
LINE
  5
190
330
1F
100
AcDbEntity
  8
1
  6
Continuous
 62
     7
100
AcDbLine
 10
1742.029187380704
 20
1382.167142963715
 30
0.0
 11
1408.980216128981
 21
1451.092330109229
 31
0.0
  0
LINE
  5
191
330
1F
100
AcDbEntity
  8
1
  6
DASH_CENTER
 62
     3
100
AcDbLine
 10
1767.875207415112
 20
1399.395334895007
 30
0.0
 11
1345.212598408755
 21
1497.946433051954
 31
0.0
  0
LINE
  5
192
330
1F
100
AcDbEntity
  8
1
  6
Continuous
 62
     7
100
AcDbLine
 10
1423.127076356428
 20
1511.764904690376
 30
0.0
 11
1408.980216128981
 21
1451.092330109229
 31
0.0
  0
LINE
  5
193
330
1F
100
AcDbEntity
  8
1
  6
Continuous
 62
     7
100
AcDbLine
 10
1752.314451013279
 20
1426.27823297247
 30
0.0
 11
1742.029187380704
 21
1382.167142963715
 31
0.0
  0
LINE
  5
194
330
1F
100
AcDbEntity
  8
1
  6
Continuous
 62
     7
100
AcDbLine
 10
1730.120172190551
 20
1310.035301702216
 30
0.0
 11
1725.680553027678
 21
1264.959091885499
 31
0.0
  0
LINE
  5
195
330
1F
100
AcDbEntity
  8
1
  6
Continuous
 62
     7
100
AcDbLine
 10
1392.590791412978
 20
1351.82304855201
 30
0.0
 11
1386.484319668165
 21
1289.823000459855
 31
0.0
  0
LINE
  5
196
330
1F
100
AcDbEntity
  8
1
  6
DASH_CENTER
 62
     3
100
AcDbLine
 10
1749.056726486127
 20
1285.413476825675
 30
0.0
 11
1317.146555110397
 21
1327.952915728735
 31
0.0
  0
LINE
  5
197
330
1F
100
AcDbEntity
  8
1
  6
Continuous
 62
     7
100
AcDbLine
 10
1725.680553027678
 20
1264.959091885499
 30
0.0
 11
1386.484319668165
 21
1289.823000459855
 31
0.0
  0
LINE
  5
198
330
1F
100
AcDbEntity
  8
1
  6
Continuous
 62
     7
100
AcDbLine
 10
1392.590791412978
 20
1351.82304855201
 30
0.0
 11
1730.120172190551
 21
1310.035301702216
 31
0.0
  0
LINE
  5
199
330
1F
100
AcDbEntity
  8
1
  6
DASHED
 62
     4
100
AcDbLine
 10
1370.265502486896
 20
1299.609868892109
 30
0.0
 11
1366.483800525541
 21
1299.982334025362
 31
0.0
  0
LINE
  5
19A
330
1F
100
AcDbEntity
  8
1
  6
DOT_CENTER
 62
     3
100
AcDbLine
 10
1372.46903659149
 20
1301.854694228124
 30
0.0
 11
1364.951586571826
 21
1302.595098430227
 31
0.0
  0
LINE
  5
19B
330
1F
100
AcDbEntity
  8
1
  6
DASHED
 62
     4
100
AcDbLine
 10
1347.376253773435
 20
1301.864263119691
 30
0.0
 11
1343.594551812081
 21
1302.236728252944
 31
0.0
  0
LINE
  5
19C
330
1F
100
AcDbEntity
  8
1
  6
DOT_CENTER
 62
     3
100
AcDbLine
 10
1349.57978787803
 20
1304.109088455705
 30
0.0
 11
1342.062337858366
 21
1304.84949265781
 31
0.0
  0
LINE
  5
19D
330
1F
100
AcDbEntity
  8
1
  6
DASHED
 62
     4
100
AcDbLine
 10
1370.992588980702
 20
1345.760831452282
 30
0.0
 11
1374.774290942058
 21
1345.388366319029
 31
0.0
  0
LINE
  5
19E
330
1F
100
AcDbEntity
  8
1
  6
DOT_CENTER
 62
     3
100
AcDbLine
 10
1368.980091039375
 20
1343.497190696455
 30
0.0
 11
1376.497541059039
 21
1342.756786494351
 31
0.0
  0
LINE
  5
19F
330
1F
100
AcDbEntity
  8
1
  6
DASHED
 62
     4
100
AcDbLine
 10
1343.129608739357
 20
1308.738608976174
 30
0.0
 11
1346.378876941285
 21
1341.728982665358
 31
0.0
  0
LINE
  5
1A0
330
1F
100
AcDbEntity
  8
1
  6
DASHED
 62
     4
100
AcDbLine
 10
1348.103340267242
 20
1348.015225679864
 30
0.0
 11
1351.885042228597
 21
1347.642760546611
 31
0.0
  0
LINE
  5
1A1
330
1F
100
AcDbEntity
  8
1
  6
DOT_CENTER
 62
     3
100
AcDbLine
 10
1346.090842325914
 20
1345.751584924037
 30
0.0
 11
1353.608292345578
 21
1345.011180721933
 31
0.0
  0
LINE
  5
1A2
330
1F
100
AcDbEntity
  8
1
  6
Continuous
 62
     7
100
AcDbLine
 10
1385.179761395938
 20
1307.18448975351
 30
0.0
 11
1382.704393619411
 21
1307.428292199646
 31
0.0
  0
LINE
  5
1A3
330
1F
100
AcDbEntity
  8
1
  6
Continuous
 62
     7
100
AcDbLine
 10
1387.92424132517
 20
1335.049662100333
 30
0.0
 11
1385.448873548643
 21
1335.293464546467
 31
0.0
  0
LINE
  5
1A4
330
1F
100
AcDbEntity
  8
1
  6
DASH_CENTER
 62
     3
100
AcDbLine
 10
1350.244134955762
 20
1350.366714166252
 30
0.0
 11
1349.263963552463
 21
1340.414866899529
 31
0.0
  0
LINE
  5
1A5
330
1F
100
AcDbEntity
  8
1
  6
DASH_CENTER
 62
     3
100
AcDbLine
 10
1372.153212265925
 20
1338.160472671947
 30
0.0
 11
1373.133383669222
 21
1348.11231993867
 31
0.0
  0
LINE
  5
1A6
330
1F
100
AcDbEntity
  8
1
  6
DASH_CENTER
 62
     3
100
AcDbLine
 10
1346.215630488212
 20
1309.464621900025
 30
0.0
 11
1345.235459084916
 21
1299.512774633302
 31
0.0
  0
LINE
  5
1A7
330
1F
100
AcDbEntity
  8
1
  6
DASH_CENTER
 62
     3
100
AcDbLine
 10
1368.124707798377
 20
1297.258380405722
 30
0.0
 11
1369.104879201674
 21
1307.210227672443
 31
0.0
  0
LINE
  5
1A8
330
1F
100
AcDbEntity
  8
1
  6
DASHED
 62
     4
100
AcDbLine
 10
1349.10071709939
 20
1308.150506134197
 30
0.0
 11
1352.349985301318
 21
1341.140879823379
 31
0.0
  0
LINE
  5
1A9
330
1F
100
AcDbEntity
  8
1
  6
DASHED
 62
     4
100
AcDbLine
 10
1366.01885745282
 20
1306.484214748594
 30
0.0
 11
1369.268125654745
 21
1339.474588437776
 31
0.0
  0
LINE
  5
1AA
330
1F
100
AcDbEntity
  8
1
  6
DASHED
 62
     4
100
AcDbLine
 10
1375.239234014779
 20
1338.886485595797
 30
0.0
 11
1371.989965812852
 21
1305.896111906615
 31
0.0
  0
LINE
  5
1AB
330
1F
100
AcDbEntity
  8
1
  6
DASHED
 62
     4
100
AcDbLine
 10
1383.27146118873
 20
1210.847137745967
 30
0.0
 11
1383.192350078646
 21
1208.430543325005
 31
0.0
  0
LINE
  5
1AC
330
1F
100
AcDbEntity
  8
1
  6
DASHED
 62
     4
100
AcDbLine
 10
1677.979516994541
 20
1206.154235513345
 30
0.0
 11
1383.192350078646
 21
1208.430543325005
 31
0.0
  0
LINE
  5
1AD
330
1F
100
AcDbEntity
  8
1
  6
DASHED
 62
     4
100
AcDbLine
 10
1368.762435558006
 20
1256.653515982897
 30
0.0
 11
1367.67779796246
 21
1223.521264908057
 31
0.0
  0
LINE
  5
1AE
330
1F
100
AcDbEntity
  8
1
  6
DASHED
 62
     4
100
AcDbLine
 10
1361.681010437604
 20
1223.717579404989
 30
0.0
 11
1362.765648033148
 21
1256.84983047983
 31
0.0
  0
LINE
  5
1AF
330
1F
100
AcDbEntity
  8
1
  6
DASHED
 62
     4
100
AcDbLine
 10
1344.690112450503
 20
1224.27380381296
 30
0.0
 11
1345.774750046047
 21
1257.4060548878
 31
0.0
  0
LINE
  5
1B0
330
1F
100
AcDbEntity
  8
1
  6
DASH_CENTER
 62
     3
100
AcDbLine
 10
1364.385750431706
 20
1214.649227483922
 30
0.0
 11
1364.712941259924
 21
1224.643873358685
 31
0.0
  0
LINE
  5
1B1
330
1F
100
AcDbEntity
  8
1
  6
DASH_CENTER
 62
     3
100
AcDbLine
 10
1341.725255747967
 20
1225.396412263589
 30
0.0
 11
1341.39806491975
 21
1215.401766388823
 31
0.0
  0
LINE
  5
1B2
330
1F
100
AcDbEntity
  8
1
  6
DASH_CENTER
 62
     3
100
AcDbLine
 10
1365.730504735684
 20
1255.7272220292
 30
0.0
 11
1366.057695563903
 21
1265.721867903964
 31
0.0
  0
LINE
  5
1B3
330
1F
100
AcDbEntity
  8
1
  6
DASH_CENTER
 62
     3
100
AcDbLine
 10
1343.070010051948
 20
1266.474406808867
 30
0.0
 11
1342.742819223728
 21
1256.479760934102
 31
0.0
  0
LINE
  5
1B4
330
1F
100
AcDbEntity
  8
1
  6
Continuous
 62
     7
100
AcDbLine
 10
1381.671223556933
 20
1253.654546593463
 30
0.0
 11
1379.185210289937
 21
1253.735930241265
 31
0.0
  0
LINE
  5
1B5
330
1F
100
AcDbEntity
  8
1
  6
Continuous
 62
     7
100
AcDbLine
 10
1380.75508923792
 20
1225.669538144124
 30
0.0
 11
1378.269075970924
 21
1225.750921791927
 31
0.0
  0
LINE
  5
1B6
330
1F
100
AcDbEntity
  8
1
  6
DOT_CENTER
 62
     3
100
AcDbLine
 10
1339.227453834676
 20
1261.597520578023
 30
0.0
 11
1346.77723316851
 21
1261.350366393267
 31
0.0
  0
LINE
  5
1B7
330
1F
100
AcDbEntity
  8
1
  6
DASHED
 62
     4
100
AcDbLine
 10
1341.087593674545
 20
1263.987938368163
 30
0.0
 11
1344.885559106956
 21
1263.86360585344
 31
0.0
  0
LINE
  5
1B8
330
1F
100
AcDbEntity
  8
1
  6
DASHED
 62
     4
100
AcDbLine
 10
1338.693324925645
 20
1224.47011830989
 30
0.0
 11
1339.777962521191
 21
1257.602369384733
 31
0.0
  0
LINE
  5
1B9
330
1F
100
AcDbEntity
  8
1
  6
DOT_CENTER
 62
     3
100
AcDbLine
 10
1362.215139346631
 20
1260.84498167312
 30
0.0
 11
1369.764918680467
 21
1260.597827488365
 31
0.0
  0
LINE
  5
1BA
330
1F
100
AcDbEntity
  8
1
  6
DASHED
 62
     4
100
AcDbLine
 10
1364.075279186502
 20
1263.235399463261
 30
0.0
 11
1367.873244618912
 21
1263.111066948537
 31
0.0
  0
LINE
  5
1BB
330
1F
100
AcDbEntity
  8
1
  6
DOT_CENTER
 62
     3
100
AcDbLine
 10
1345.432478864533
 20
1220.272371847988
 30
0.0
 11
1337.882699530696
 21
1220.519526032744
 31
0.0
  0
LINE
  5
1BC
330
1F
100
AcDbEntity
  8
1
  6
DASHED
 62
     4
100
AcDbLine
 10
1343.380481297151
 20
1217.888234829528
 30
0.0
 11
1339.58251586474
 21
1218.012567344251
 31
0.0
  0
LINE
  5
1BD
330
1F
100
AcDbEntity
  8
1
  6
DOT_CENTER
 62
     3
100
AcDbLine
 10
1368.420164376489
 20
1219.519832943085
 30
0.0
 11
1360.870385042654
 21
1219.766987127841
 31
0.0
  0
LINE
  5
1BE
330
1F
100
AcDbEntity
  8
1
  6
DASHED
 62
     4
100
AcDbLine
 10
1366.368166809108
 20
1217.135695924625
 30
0.0
 11
1362.570201376696
 21
1217.260028439349
 31
0.0
  0
LINE
  5
1BF
330
1F
100
AcDbEntity
  8
1
  6
Continuous
 62
     7
100
AcDbLine
 10
1385.230750241065
 20
1270.69722691565
 30
0.0
 11
1724.770504112621
 21
1251.074428549514
 31
0.0
  0
LINE
  5
1C0
330
1F
100
AcDbEntity
  8
1
  6
Continuous
 62
     7
100
AcDbLine
 10
1723.288515691016
 20
1205.804365372286
 30
0.0
 11
1677.979516994541
 21
1206.154235513345
 31
0.0
  0
LINE
  5
1C1
330
1F
100
AcDbEntity
  8
1
  6
DASH_CENTER
 62
     3
100
AcDbLine
 10
1745.276858186137
 20
1227.743830797807
 30
0.0
 11
1311.509227221396
 21
1241.943912742488
 31
0.0
  0
LINE
  5
1C2
330
1F
100
AcDbEntity
  8
1
  6
Continuous
 62
     7
100
AcDbLine
 10
1385.230750241065
 20
1270.69722691565
 30
0.0
 11
1383.27146118873
 21
1210.847137745967
 31
0.0
  0
LINE
  5
1C3
330
1F
100
AcDbEntity
  8
1
  6
Continuous
 62
     7
100
AcDbLine
 10
1724.770504112621
 20
1251.074428549514
 30
0.0
 11
1723.288515691016
 21
1205.804365372286
 31
0.0
  0
LINE
  5
1C4
330
1F
100
AcDbEntity
  8
1
  6
Continuous
 62
     7
100
AcDbLine
 10
1384.536530503824
 20
559.4177940533109
 30
0.0
 11
1724.217896657724
 21
576.4124840422469
 31
0.0
  0
LINE
  5
1C5
330
1F
100
AcDbEntity
  8
1
  6
Continuous
 62
     7
100
AcDbLine
 10
1723.085750398167
 20
621.6983344245351
 30
0.0
 11
1382.979516994544
 21
621.6983344245369
 31
0.0
  0
LINE
  5
1C6
330
1F
100
AcDbEntity
  8
1
  6
Continuous
 62
     7
100
AcDbLine
 10
1723.085750398167
 20
621.6983344245351
 30
0.0
 11
1724.217896657724
 21
576.4124840422469
 31
0.0
  0
LINE
  5
1C7
330
1F
100
AcDbEntity
  8
1
  6
Continuous
 62
     7
100
AcDbLine
 10
1382.979516994544
 20
621.6983344245369
 30
0.0
 11
1384.536530503824
 21
559.4177940533109
 31
0.0
  0
LINE
  5
1C8
330
1F
100
AcDbEntity
  8
1
  6
Continuous
 62
     7
100
AcDbLine
 10
1338.988262114353
 20
580.786117495284
 30
0.0
 11
1339.111348655817
 21
575.8626558367239
 31
0.0
  0
LINE
  5
1C9
330
1F
100
AcDbEntity
  8
1
  6
DASH_CENTER
 62
     3
100
AcDbLine
 10
1364.375329894888
 20
605.6283555085249
 30
0.0
 11
1364.125407983287
 21
615.6252319726069
 31
0.0
  0
LINE
  5
1CA
330
1F
100
AcDbEntity
  8
1
  6
DASH_CENTER
 62
     3
100
AcDbLine
 10
1341.1325921159
 20
615.0504115759229
 30
0.0
 11
1341.382514027503
 21
605.0535351118399
 31
0.0
  0
LINE
  5
1CB
330
1F
100
AcDbEntity
  8
1
  6
DASH_CENTER
 62
     3
100
AcDbLine
 10
1365.402508951572
 20
564.541193241151
 30
0.0
 11
1365.152587039971
 21
574.5380697052349
 31
0.0
  0
LINE
  5
1CC
330
1F
100
AcDbEntity
  8
1
  6
DASH_CENTER
 62
     3
100
AcDbLine
 10
1342.159771172584
 20
573.9632493085489
 30
0.0
 11
1342.409693084187
 21
563.9663728444659
 31
0.0
  0
LINE
  5
1CD
330
1F
100
AcDbEntity
  8
1
  6
Continuous
 62
     7
100
AcDbLine
 10
1379.109476193386
 20
576.4374762334089
 30
0.0
 11
1381.108851486202
 21
576.4874606157289
 31
0.0
  0
LINE
  5
1CE
330
1F
100
AcDbEntity
  8
1
  6
Continuous
 62
     7
100
AcDbLine
 10
1378.409694840901
 20
604.4287303328349
 30
0.0
 11
1380.409070133715
 21
604.4787147151569
 31
0.0
  0
LINE
  5
1CF
330
1F
100
AcDbEntity
  8
1
  6
Continuous
 62
     7
100
AcDbLine
 10
1384.232875381229
 20
571.5639989571689
 30
0.0
 11
1384.182890998907
 21
573.5633742499849
 31
0.0
  0
LINE
  5
1D0
330
1F
100
AcDbEntity
  8
1
  6
Continuous
 62
     7
100
AcDbLine
 10
1383.283172117139
 20
609.5521295206779
 30
0.0
 11
1383.333156499461
 21
607.5527542278619
 31
0.0
  0
LINE
  5
1D1
330
1F
100
AcDbEntity
  8
1
  6
Continuous
 62
     7
100
AcDbLine
 10
1384.320348050288
 20
568.0650921947411
 30
0.0
 11
1384.232875381229
 21
571.5639989571689
 31
0.0
  0
LINE
  5
1D2
330
1F
100
AcDbEntity
  8
1
  6
Continuous
 62
     7
100
AcDbLine
 10
1383.195699448077
 20
613.051036283106
 30
0.0
 11
1383.283172117139
 21
609.5521295206779
 31
0.0
  0
LINE
  5
1D3
330
1F
100
AcDbEntity
  8
1
  6
Continuous
 62
     7
100
AcDbLine
 10
1367.912974553613
 20
604.166312325654
 30
0.0
 11
1378.409694840901
 21
604.4287303328349
 31
0.0
  0
LINE
  5
1D4
330
1F
100
AcDbEntity
  8
1
  6
Continuous
 62
     7
100
AcDbLine
 10
1368.612755906101
 20
576.175058226225
 30
0.0
 11
1379.109476193386
 21
576.4374762334089
 31
0.0
  0
LINE
  5
1D5
330
1F
100
AcDbEntity
  8
1
  6
Continuous
 62
     7
100
AcDbLine
 10
1345.184451107747
 20
573.0135460444599
 30
0.0
 11
1339.186325229297
 21
572.8635928974979
 31
0.0
  0
LINE
  5
1D6
330
1F
100
AcDbEntity
  8
1
  6
Continuous
 62
     7
100
AcDbLine
 10
1368.177266975134
 20
573.588366441146
 30
0.0
 11
1362.179141096684
 21
573.4384132941839
 31
0.0
  0
LINE
  5
1D7
330
1F
100
AcDbEntity
  8
1
  6
Continuous
 62
     7
100
AcDbLine
 10
1361.350649959727
 20
606.5780587726119
 30
0.0
 11
1367.348775838173
 21
606.7280119195739
 31
0.0
  0
LINE
  5
1D8
330
1F
100
AcDbEntity
  8
1
  6
Continuous
 62
     7
100
AcDbLine
 10
1338.357834092336
 20
606.003238375929
 30
0.0
 11
1344.355959970786
 21
606.1531915228889
 31
0.0
  0
LINE
  5
1D9
330
1F
100
AcDbEntity
  8
1
  6
Continuous
 62
     7
100
AcDbLine
 10
1361.614942381244
 20
576.0001128881049
 30
0.0
 11
1345.619940038715
 21
575.6002378295409
 31
0.0
  0
LINE
  5
1DA
330
1F
100
AcDbEntity
  8
1
  6
Continuous
 62
     7
100
AcDbLine
 10
1368.125408178476
 20
575.662718307442
 30
0.0
 11
1368.177266975134
 21
573.588366441146
 31
0.0
  0
LINE
  5
1DB
330
1F
100
AcDbEntity
  8
1
  6
Continuous
 62
     7
100
AcDbLine
 10
1362.12728230003
 20
575.5127651604801
 30
0.0
 11
1362.179141096684
 21
573.4384132941839
 31
0.0
  0
LINE
  5
1DC
330
1F
100
AcDbEntity
  8
1
  6
Continuous
 62
     7
100
AcDbLine
 10
1345.132592311089
 20
575.0878979107579
 30
0.0
 11
1345.184451107747
 21
573.0135460444599
 31
0.0
  0
LINE
  5
1DD
330
1F
100
AcDbEntity
  8
1
  6
DOT_CENTER
 62
     3
100
AcDbLine
 10
1346.156414542239
 20
569.0616031368529
 30
0.0
 11
1338.604950260547
 21
568.8728165298119
 31
0.0
  0
LINE
  5
1DE
330
1F
100
AcDbEntity
  8
1
  6
Continuous
 62
     7
100
AcDbLine
 10
1384.314100002498
 20
568.3150141063429
 30
0.0
 11
1384.320348050288
 21
568.0650921947411
 31
0.0
  0
LINE
  5
1DF
330
1F
100
AcDbEntity
  8
1
  6
Continuous
 62
     7
100
AcDbLine
 10
1344.245369524903
 20
566.563061506012
 30
0.0
 11
1340.446556468552
 21
566.468091179604
 31
0.0
  0
LINE
  5
1E0
330
1F
100
AcDbEntity
  8
1
  6
Continuous
 62
     7
100
AcDbLine
 10
1339.186325229297
 20
572.8635928974979
 30
0.0
 11
1339.111348655817
 21
575.8626558367239
 31
0.0
  0
LINE
  5
1E1
330
1F
100
AcDbEntity
  8
1
  6
DOT_CENTER
 62
     3
100
AcDbLine
 10
1369.149230409626
 20
569.6364235335379
 30
0.0
 11
1361.597766127934
 21
569.4476369264969
 31
0.0
  0
LINE
  5
1E2
330
1F
100
AcDbEntity
  8
1
  6
Continuous
 62
     7
100
AcDbLine
 10
1367.238185392288
 20
567.1378819026959
 30
0.0
 11
1363.439372335939
 21
567.0429115762879
 31
0.0
  0
LINE
  5
1E3
330
1F
100
AcDbEntity
  8
1
  6
Continuous
 62
     7
100
AcDbLine
 10
1344.92015868623
 20
603.5914919289689
 30
0.0
 11
1360.91516102876
 21
603.991366987533
 31
0.0
  0
LINE
  5
1E4
330
1F
100
AcDbEntity
  8
1
  6
Continuous
 62
     7
100
AcDbLine
 10
1367.348775838173
 20
606.7280119195739
 30
0.0
 11
1367.400634634829
 21
604.653660053277
 31
0.0
  0
LINE
  5
1E5
330
1F
100
AcDbEntity
  8
1
  6
Continuous
 62
     7
100
AcDbLine
 10
1361.350649959727
 20
606.5780587726119
 30
0.0
 11
1361.402508756381
 21
604.5037069063169
 31
0.0
  0
LINE
  5
1E6
330
1F
100
AcDbEntity
  8
1
  6
Continuous
 62
     7
100
AcDbLine
 10
1344.355959970786
 20
606.1531915228889
 30
0.0
 11
1344.407818767445
 21
604.0788396565929
 31
0.0
  0
LINE
  5
1E7
330
1F
100
AcDbEntity
  8
1
  6
DOT_CENTER
 62
     3
100
AcDbLine
 10
1337.577771203863
 20
609.9599787971849
 30
0.0
 11
1345.129235485555
 21
610.1487654042279
 31
0.0
  0
LINE
  5
1E8
330
1F
100
AcDbEntity
  8
1
  6
Continuous
 62
     7
100
AcDbLine
 10
1339.296915675182
 20
612.4537229143759
 30
0.0
 11
1343.095728731535
 21
612.5486932407849
 31
0.0
  0
LINE
  5
1E9
330
1F
100
AcDbEntity
  8
1
  6
Continuous
 62
     7
100
AcDbLine
 10
1338.432810665819
 20
603.0041754367051
 30
0.0
 11
1338.357834092336
 21
606.003238375929
 31
0.0
  0
LINE
  5
1EA
330
1F
100
AcDbEntity
  8
1
  6
DOT_CENTER
 62
     3
100
AcDbLine
 10
1360.57058707125
 20
610.534799193871
 30
0.0
 11
1368.12205135294
 21
610.7235858009119
 31
0.0
  0
LINE
  5
1EB
330
1F
100
AcDbEntity
  8
1
  6
Continuous
 62
     7
100
AcDbLine
 10
1362.289731542568
 20
613.028543311062
 30
0.0
 11
1366.08854459892
 21
613.12351363747
 31
0.0
  0
LINE
  5
1EC
330
1F
100
AcDbEntity
  8
1
  6
Continuous
 62
     7
100
AcDbLine
 10
1338.432810665819
 20
603.0041754367051
 30
0.0
 11
1338.988262114353
 21
580.786117495284
 31
0.0
  0
LINE
  5
1ED
330
1F
100
AcDbEntity
  8
1
  6
Continuous
 62
     7
100
AcDbLine
 10
1345.132592311089
 20
575.0878979107579
 30
0.0
 11
1344.407818767445
 21
604.0788396565929
 31
0.0
  0
LINE
  5
1EE
330
1F
100
AcDbEntity
  8
1
  6
Continuous
 62
     7
100
AcDbLine
 10
1362.12728230003
 20
575.5127651604801
 30
0.0
 11
1361.402508756386
 21
604.503706906316
 31
0.0
  0
LINE
  5
1EF
330
1F
100
AcDbEntity
  8
1
  6
Continuous
 62
     7
100
AcDbLine
 10
1368.125408178476
 20
575.662718307442
 30
0.0
 11
1367.400634634829
 21
604.653660053277
 31
0.0
  0
ARC
  5
1F0
330
1F
100
AcDbEntity
  8
1
  6
Continuous
 62
     7
100
AcDbCircle
 10
780.8359215129123
 20
1535.747582236991
 30
0.0
 40
4.344898672321058
100
AcDbArc
 50
-139.3842474680289
 51
-70.61575253197727
  0
ARC
  5
1F1
330
1F
100
AcDbEntity
  8
1
  6
Continuous
 62
     7
100
AcDbCircle
 10
791.025198665979
 20
1545.332927937553
 30
0.0
 40
16.24081062144515
100
AcDbArc
 50
-122.5879537739923
 51
-87.41204622600532
  0
ARC
  5
1F2
330
1F
100
AcDbEntity
  8
1
  6
Continuous
 62
     7
100
AcDbCircle
 10
795.0566986764544
 20
1531.937136480275
 30
0.0
 40
4.344898672319381
100
AcDbArc
 50
-139.3842474680455
 51
-70.61575253196125
  0
ARC
  5
1F3
330
1F
100
AcDbEntity
  8
1
  6
Continuous
 62
     4
100
AcDbCircle
 10
2627.97951699461
 20
1198.847137746048
 30
0.0
 40
1480.000000000002
100
AcDbArc
 50
155.5246060562765
 51
160.0000000000044
  0
ARC
  5
1F4
330
1F
100
AcDbEntity
  8
1
  6
Continuous
 62
     4
100
AcDbCircle
 10
2627.97951699461
 20
1198.847137746048
 30
0.0
 40
1420.000000000002
100
AcDbArc
 50
155.5246060562766
 51
160.0000000000044
  0
ARC
  5
1F5
330
1F
100
AcDbEntity
  8
1
  6
DASH_CENTER
 62
     3
100
AcDbCircle
 10
2627.979516994631
 20
1198.847137745989
 30
0.0
 40
1100.000000000096
100
AcDbArc
 50
163.1250000000042
 51
180.0
  0
ARC
  5
1F6
330
1F
100
AcDbEntity
  8
1
  6
Continuous
 62
     7
100
AcDbCircle
 10
2627.979516994636
 20
1198.847137745974
 30
0.0
 40
900.0000000000767
100
AcDbArc
 50
150.000000000003
 51
-179.9999999999996
  0
ARC
  5
1F7
330
1F
100
AcDbEntity
  8
1
  6
DASHED
 62
     4
100
AcDbCircle
 10
2627.979516994627
 20
1198.847137745983
 30
0.0
 40
1300.0
100
AcDbArc
 50
150.0000000000038
 51
-179.9999999999996
  0
ARC
  5
1F8
330
1F
100
AcDbEntity
  8
1
  6
Continuous
 62
     7
100
AcDbCircle
 10
2627.979516994636
 20
1198.847137745974
 30
0.0
 40
870.0000000000747
100
AcDbArc
 50
150.3274062361827
 51
179.6725937638208
  0
ARC
  5
1F9
330
1F
100
AcDbEntity
  8
1
  6
Continuous
 62
     7
100
AcDbCircle
 10
2627.979516994627
 20
1198.847137745983
 30
0.0
 40
1330.000000000073
100
AcDbArc
 50
150.2162110018718
 51
179.783788998131
  0
ARC
  5
1FA
330
1F
100
AcDbEntity
  8
1
  6
Continuous
 62
     4
100
AcDbCircle
 10
2627.979516994561
 20
1198.847137745868
 30
0.0
 40
1420.000000000001
100
AcDbArc
 50
170.0
 51
174.4753939437278
  0
ARC
  5
1FB
330
1F
100
AcDbEntity
  8
1
  6
Continuous
 62
     4
100
AcDbCircle
 10
2627.979516994561
 20
1198.847137745868
 30
0.0
 40
1480.000000000001
100
AcDbArc
 50
170.0
 51
174.4753939437279
  0
ARC
  5
1FC
330
1F
100
AcDbEntity
  8
1
  6
DASH_CENTER
 62
     3
100
AcDbCircle
 10
2627.979516994519
 20
1198.847137745944
 30
0.0
 40
1100.000000000001
100
AcDbArc
 50
150.0
 51
159.3750000000002
  0
ARC
  5
1FD
330
1F
100
AcDbEntity
  8
1
  6
DASH_CENTER
 62
     3
100
AcDbCircle
 10
2627.979516994519
 20
1198.847137745944
 30
0.0
 40
1100.000000000001
100
AcDbArc
 50
159.3750000000002
 51
163.1250000000003
  0
ARC
  5
1FE
330
1F
100
AcDbEntity
  8
1
  6
Continuous
 62
     7
100
AcDbCircle
 10
1319.511646463302
 20
583.320980842852
 30
0.0
 40
3.322569572950458
100
AcDbArc
 50
147.0478487161289
 51
-144.1836563477756
  0
ARC
  5
1FF
330
1F
100
AcDbEntity
  8
1
  6
Continuous
 62
     7
100
AcDbCircle
 10
1328.464993694663
 20
589.175738487561
 30
0.0
 40
12.41944341639877
100
AcDbArc
 50
163.8441424101748
 51
-160.9799500418373
  0
ARC
  5
200
330
1F
100
AcDbEntity
  8
1
  6
Continuous
 62
     7
100
AcDbCircle
 10
1319.230276121567
 20
594.5757945121571
 30
0.0
 40
3.322569572949999
100
AcDbArc
 50
147.0478487161051
 51
-144.1836563477883
  0
ARC
  5
201
330
1F
100
AcDbEntity
  8
1
  6
DASHED
 62
     4
100
AcDbCircle
 10
911.8096018430136
 20
1443.171877355209
 30
0.0
 40
31.89999999999871
100
AcDbArc
 50
-44.0383902454401
 51
-33.84515555572443
  0
ARC
  5
202
330
1F
100
AcDbEntity
  8
1
  6
Continuous
 62
     7
100
AcDbCircle
 10
911.8096018430136
 20
1443.171877355209
 30
0.0
 40
31.9
100
AcDbArc
 50
-33.84515555572443
 51
3.84515555572829
  0
ARC
  5
203
330
1F
100
AcDbEntity
  8
1
  6
DASHED
 62
     4
100
AcDbCircle
 10
933.3525173650435
 20
1523.571132626595
 30
0.0
 40
31.90000000000089
100
AcDbArc
 50
-44.03839024543915
 51
-33.84515555572747
  0
ARC
  5
204
330
1F
100
AcDbEntity
  8
1
  6
Continuous
 62
     7
100
AcDbCircle
 10
933.3525173650435
 20
1523.571132626595
 30
0.0
 40
31.89999999999966
100
AcDbArc
 50
14.03839024543811
 51
31.66940320518874
  0
ARC
  5
205
330
1F
100
AcDbEntity
  8
1
  6
Continuous
 62
     7
100
AcDbCircle
 10
933.3525173650435
 20
1523.571132626595
 30
0.0
 40
31.90000000000072
100
AcDbArc
 50
-33.84515555572747
 51
3.84515555572295
  0
ARC
  5
206
330
1F
100
AcDbEntity
  8
1
  6
DASHED
 62
     4
100
AcDbCircle
 10
1019.570403458108
 20
1845.340664047092
 30
0.0
 40
31.90000000000032
100
AcDbArc
 50
-44.03839024544015
 51
-33.8451555557285
  0
ARC
  5
207
330
1F
100
AcDbEntity
  8
1
  6
Continuous
 62
     7
100
AcDbCircle
 10
1019.570403458108
 20
1845.340664047092
 30
0.0
 40
31.90000000000028
100
AcDbArc
 50
-33.8451555557285
 51
3.84515555572454
  0
ARC
  5
208
330
1F
100
AcDbEntity
  8
1
  6
Continuous
 62
     7
100
AcDbCircle
 10
998.0274879360769
 20
1764.941408775709
 30
0.0
 40
31.89999999999933
100
AcDbArc
 50
-33.84515555572522
 51
3.84515555572669
  0
ARC
  5
209
330
1F
100
AcDbEntity
  8
1
  6
DASHED
 62
     4
100
AcDbCircle
 10
998.0274879360769
 20
1764.941408775709
 30
0.0
 40
31.89999999999975
100
AcDbArc
 50
-44.03839024544114
 51
-33.84515555572522
  0
ARC
  5
20A
330
1F
100
AcDbEntity
  8
1
  6
DASHED
 62
     4
100
AcDbCircle
 10
976.4845724140464
 20
1684.542153504326
 30
0.0
 40
31.89999999999942
100
AcDbArc
 50
-44.03839024544171
 51
-33.84515555572578
  0
ARC
  5
20B
330
1F
100
AcDbEntity
  8
1
  6
Continuous
 62
     7
100
AcDbCircle
 10
976.4845724140464
 20
1684.542153504326
 30
0.0
 40
31.89999999999886
100
AcDbArc
 50
-33.84515555572578
 51
3.84515555572513
  0
ARC
  5
20C
330
1F
100
AcDbEntity
  8
1
  6
Continuous
 62
     7
100
AcDbCircle
 10
954.8954328870759
 20
1603.970387897978
 30
0.0
 40
31.89999999999886
100
AcDbArc
 50
-33.84515555572578
 51
3.84515555572498
  0
ARC
  5
20D
330
1F
100
AcDbEntity
  8
1
  6
DASHED
 62
     4
100
AcDbCircle
 10
954.8954328870759
 20
1603.970387897978
 30
0.0
 40
31.90000000000103
100
AcDbArc
 50
-44.03839024544119
 51
-33.84515555572578
  0
ARC
  5
20E
330
1F
100
AcDbEntity
  8
1
  6
DASHED
 62
     4
100
AcDbCircle
 10
681.6015578806921
 20
1720.377540056293
 30
0.0
 40
56.59999999999968
100
AcDbArc
 50
-110.1233809281538
 51
80.12338092815625
  0
ARC
  5
20F
330
1F
100
AcDbEntity
  8
DETAIL
  6
DASHED
 62
     4
100
AcDbCircle
 10
681.6015578806921
 20
1720.377540056293
 30
0.0
 40
67.49999999999905
100
AcDbArc
 50
-128.6440000000006
 51
98.64399999999988
  0
ARC
  5
210
330
1F
100
AcDbEntity
  8
COLOR
  6
DASHED
 62
     4
100
AcDbCircle
 10
639.4167131977536
 20
1755.172386931605
 30
0.0
 40
4.000000000001529
100
AcDbArc
 50
-39.51700000002135
 51
44.9999999999977
  0
ARC
  5
211
330
1F
100
AcDbEntity
  8
COLOR
  6
DASHED
 62
     4
100
AcDbCircle
 10
627.6709872929105
 20
1711.336741082954
 30
0.0
 40
3.999999999998745
100
AcDbArc
 50
-74.99999999999734
 51
9.51699999999534
  0
ARC
  5
212
330
1F
100
AcDbEntity
  8
COLOR
  6
DASHED
 62
     4
100
AcDbCircle
 10
674.8697731423245
 20
1666.276402598413
 30
0.0
 40
14.99999999999995
100
AcDbArc
 50
14.5640000000041
 51
75.00000000000244
  0
ARC
  5
213
330
1F
100
AcDbEntity
  8
COLOR
  6
DASHED
 62
     4
100
AcDbCircle
 10
702.8222300133964
 20
1770.596391837635
 30
0.0
 40
15.00000000000191
100
AcDbArc
 50
-104.9999999999979
 51
-44.56400000000587
  0
ARC
  5
214
330
1F
100
AcDbEntity
  8
DETAIL
  6
DASHED
 62
     4
100
AcDbCircle
 10
603.7805784406332
 20
1671.427147463488
 30
0.0
 40
2.50000000000246
100
AcDbArc
 50
-101.3519999999893
 51
-14.99500000002793
  0
ARC
  5
215
330
1F
100
AcDbEntity
  8
DETAIL
  6
DASHED
 62
     4
100
AcDbCircle
 10
611.1619233630241
 20
1708.193497828144
 30
0.0
 40
40.00000000000038
100
AcDbArc
 50
-105.0000000000001
 51
-91.07200000000034
  0
ARC
  5
216
330
1F
100
AcDbEntity
  8
DETAIL
  6
DASHED
 62
     4
100
AcDbCircle
 10
638.6818090346178
 20
1801.680313286915
 30
0.0
 40
2.500000000000102
100
AcDbArc
 50
-15.00500000001701
 51
71.35199999999531
  0
ARC
  5
217
330
1F
100
AcDbEntity
  8
DETAIL
  6
DASHED
 62
     4
100
AcDbCircle
 10
626.6910660691749
 20
1766.149047405488
 30
0.0
 40
39.9999999999978
100
AcDbArc
 50
61.07199999999746
 51
74.99999999999906
  0
ARC
  5
218
330
1F
100
AcDbEntity
  8
DETAIL
  6
DASHED
 62
     4
100
AcDbCircle
 10
617.0875994502821
 20
1692.111851180214
 30
0.0
 40
4.999999999999742
100
AcDbArc
 50
74.99999999999666
 51
165.0000000000248
  0
ARC
  5
219
330
1F
100
AcDbEntity
  8
DETAIL
  6
DASHED
 62
     4
100
AcDbCircle
 10
639.8636754193045
 20
1777.113323893652
 30
0.0
 40
5.00000000000057
100
AcDbArc
 50
164.9999999999965
 51
-104.9999999999908
  0
ARC
  5
21A
330
1F
100
AcDbEntity
  8
COLOR
  6
DASHED
 62
     4
100
AcDbCircle
 10
681.6015578806921
 20
1720.377540056293
 30
0.0
 40
50.299999999999
100
AcDbArc
 50
-48.25066063402708
 51
18.25066063402904
  0
ARC
  5
21B
330
1F
100
AcDbEntity
  8
COLOR
  6
DASHED
 62
     4
100
AcDbCircle
 10
681.6015578806921
 20
1720.377540056293
 30
0.0
 40
48.68300000000117
100
AcDbArc
 50
130.0771953162932
 51
-160.0771953162939
  0
ARC
  5
21C
330
1F
100
AcDbEntity
  8
1
  6
Continuous
 62
     7
100
AcDbCircle
 10
911.8096018430136
 20
1443.171877355209
 30
0.0
 40
31.89999999999904
100
AcDbArc
 50
-61.66940320519361
 51
-44.0383902454401
  0
ARC
  5
21D
330
1F
100
AcDbEntity
  8
1
  6
DASHED
 62
     4
100
AcDbCircle
 10
911.8096018430136
 20
1443.171877355209
 30
0.0
 40
31.89999999999982
100
AcDbArc
 50
29.42174966942227
 51
-61.66940320519361
  0
ARC
  5
21E
330
1F
100
AcDbEntity
  8
1
  6
DASHED
 62
     4
100
AcDbCircle
 10
911.8096018430136
 20
1443.171877355209
 30
0.0
 40
31.89999999999973
100
AcDbArc
 50
3.84515555572829
 51
14.03839024544128
  0
ARC
  5
21F
330
1F
100
AcDbEntity
  8
1
  6
Continuous
 62
     7
100
AcDbCircle
 10
911.8096018430136
 20
1443.171877355209
 30
0.0
 40
31.90000000000011
100
AcDbArc
 50
14.03839024544128
 51
29.42174966942227
  0
ARC
  5
220
330
1F
100
AcDbEntity
  8
1
  6
DASHED
 62
     4
100
AcDbCircle
 10
933.3525173650435
 20
1523.571132626595
 30
0.0
 40
31.89999999999961
100
AcDbArc
 50
31.66940320518874
 51
-61.66940320519517
  0
ARC
  5
221
330
1F
100
AcDbEntity
  8
1
  6
Continuous
 62
     7
100
AcDbCircle
 10
933.3525173650435
 20
1523.571132626595
 30
0.0
 40
31.90000000000089
100
AcDbArc
 50
-61.66940320519517
 51
-44.03839024543915
  0
ARC
  5
222
330
1F
100
AcDbEntity
  8
1
  6
DASHED
 62
     4
100
AcDbCircle
 10
933.3525173650435
 20
1523.571132626595
 30
0.0
 40
31.89999999999986
100
AcDbArc
 50
3.84515555572295
 51
14.03839024543811
  0
ARC
  5
223
330
1F
100
AcDbEntity
  8
1
  6
DASHED
 62
     4
100
AcDbCircle
 10
954.8954328870759
 20
1603.970387897978
 30
0.0
 40
31.90000000000006
100
AcDbArc
 50
3.84515555572498
 51
14.03839024543999
  0
ARC
  5
224
330
1F
100
AcDbEntity
  8
1
  6
Continuous
 62
     7
100
AcDbCircle
 10
954.8954328870759
 20
1603.970387897978
 30
0.0
 40
31.89999999999922
100
AcDbArc
 50
14.03839024543999
 51
31.66940320519369
  0
ARC
  5
225
330
1F
100
AcDbEntity
  8
1
  6
Continuous
 62
     7
100
AcDbCircle
 10
954.8954328870759
 20
1603.970387897978
 30
0.0
 40
31.8999999999992
100
AcDbArc
 50
-61.66940320519308
 51
-44.03839024544119
  0
ARC
  5
226
330
1F
100
AcDbEntity
  8
1
  6
DASHED
 62
     4
100
AcDbCircle
 10
954.8954328870759
 20
1603.970387897978
 30
0.0
 40
31.89999999999904
100
AcDbArc
 50
31.66940320519369
 51
-61.66940320519308
  0
ARC
  5
227
330
1F
100
AcDbEntity
  8
1
  6
DASHED
 62
     4
100
AcDbCircle
 10
976.4845724140464
 20
1684.542153504326
 30
0.0
 40
31.89999999999881
100
AcDbArc
 50
3.84515555572513
 51
14.03839024543905
  0
ARC
  5
228
330
1F
100
AcDbEntity
  8
1
  6
Continuous
 62
     7
100
AcDbCircle
 10
976.4845724140464
 20
1684.542153504326
 30
0.0
 40
31.89999999999757
100
AcDbArc
 50
14.03839024543905
 51
31.66940320519476
  0
ARC
  5
229
330
1F
100
AcDbEntity
  8
1
  6
Continuous
 62
     7
100
AcDbCircle
 10
976.4845724140464
 20
1684.542153504326
 30
0.0
 40
31.9000000000002
100
AcDbArc
 50
-61.66940320519404
 51
-44.03839024544171
  0
ARC
  5
22A
330
1F
100
AcDbEntity
  8
1
  6
DASHED
 62
     4
100
AcDbCircle
 10
976.4845724140464
 20
1684.542153504326
 30
0.0
 40
31.8999999999998
100
AcDbArc
 50
31.66940320519476
 51
-61.66940320519404
  0
ARC
  5
22B
330
1F
100
AcDbEntity
  8
1
  6
Continuous
 62
     7
100
AcDbCircle
 10
998.0274879360769
 20
1764.941408775709
 30
0.0
 40
31.89999999999955
100
AcDbArc
 50
14.03839024544152
 51
31.66940320519205
  0
ARC
  5
22C
330
1F
100
AcDbEntity
  8
1
  6
DASHED
 62
     4
100
AcDbCircle
 10
998.0274879360769
 20
1764.941408775709
 30
0.0
 40
31.89999999999943
100
AcDbArc
 50
3.84515555572669
 51
14.03839024544152
  0
ARC
  5
22D
330
1F
100
AcDbEntity
  8
1
  6
Continuous
 62
     7
100
AcDbCircle
 10
998.0274879360769
 20
1764.941408775709
 30
0.0
 40
31.90000000000057
100
AcDbArc
 50
-61.66940320519279
 51
-44.03839024544114
  0
ARC
  5
22E
330
1F
100
AcDbEntity
  8
1
  6
DASHED
 62
     4
100
AcDbCircle
 10
998.0274879360769
 20
1764.941408775709
 30
0.0
 40
31.89999999999834
100
AcDbArc
 50
31.66940320519205
 51
-61.66940320519279
  0
ARC
  5
22F
330
1F
100
AcDbEntity
  8
1
  6
DASHED
 62
     4
100
AcDbCircle
 10
1019.570403458108
 20
1845.340664047092
 30
0.0
 40
31.90000000000027
100
AcDbArc
 50
3.84515555572454
 51
14.03839024543647
  0
ARC
  5
230
330
1F
100
AcDbEntity
  8
1
  6
Continuous
 62
     7
100
AcDbCircle
 10
1019.570403458108
 20
1845.340664047092
 30
0.0
 40
31.89999999999861
100
AcDbArc
 50
14.03839024543647
 51
31.66940320519227
  0
ARC
  5
231
330
1F
100
AcDbEntity
  8
1
  6
Continuous
 62
     7
100
AcDbCircle
 10
1019.570403458108
 20
1845.340664047092
 30
0.0
 40
31.89999999999991
100
AcDbArc
 50
-59.42174966931047
 51
-44.03839024544015
  0
ARC
  5
232
330
1F
100
AcDbEntity
  8
1
  6
DASHED
 62
     4
100
AcDbCircle
 10
1019.570403458108
 20
1845.340664047092
 30
0.0
 40
31.89999999999815
100
AcDbArc
 50
31.66940320519227
 51
-59.42174966931047
  0
ARC
  5
233
330
1F
100
AcDbEntity
  8
1
  6
Continuous
 62
     7
100
AcDbCircle
 10
2627.979516994627
 20
1198.847137745983
 30
0.0
 40
1306.000000000073
100
AcDbArc
 50
150.1319167232574
 51
179.8680832767455
  0
ARC
  5
234
330
1F
100
AcDbEntity
  8
1
  6
Continuous
 62
     7
100
AcDbCircle
 10
2627.979516994627
 20
1198.847137745983
 30
0.0
 40
1250.000000000072
100
AcDbArc
 50
150.1371807683684
 51
179.8628192316347
  0
ARC
  5
235
330
1F
100
AcDbEntity
  8
1
  6
DASHED
 62
     4
100
AcDbCircle
 10
1433.249131653041
 20
1722.25809353425
 30
0.0
 40
20.81940913765497
100
AcDbArc
 50
-43.09680192932523
 51
-25.08360270399876
  0
ARC
  5
236
330
1F
100
AcDbEntity
  8
1
  6
DASHED
 62
     4
100
AcDbCircle
 10
1465.708341457624
 20
1707.551016909052
 30
0.0
 40
20.81940913765511
100
AcDbArc
 50
156.3336027040358
 51
174.3468019293545
  0
ARC
  5
237
330
1F
100
AcDbEntity
  8
1
  6
DASHED
 62
     4
100
AcDbCircle
 10
1454.198999626233
 20
1712.765831848754
 30
0.0
 40
20.81940913765364
100
AcDbArc
 50
-43.09680192932865
 51
-25.08360270399982
  0
ARC
  5
238
330
1F
100
AcDbEntity
  8
1
  6
DASHED
 62
     4
100
AcDbCircle
 10
1446.717845014607
 20
1751.984177374171
 30
0.0
 40
20.81940913765443
100
AcDbArc
 50
-23.66639729596778
 51
-5.65319807063992
  0
ARC
  5
239
330
1F
100
AcDbEntity
  8
1
  6
DASHED
 62
     4
100
AcDbCircle
 10
1479.177054819188
 20
1737.277100748972
 30
0.0
 40
20.8194091376557
100
AcDbArc
 50
136.903198070669
 51
154.9163972959916
  0
ARC
  5
23A
330
1F
100
AcDbEntity
  8
1
  6
DASHED
 62
     4
100
AcDbCircle
 10
1467.667712987795
 20
1742.491915688675
 30
0.0
 40
20.81940913765632
100
AcDbArc
 50
-23.66639729595936
 51
-5.65319807063656
  0
ARC
  5
23B
330
1F
100
AcDbEntity
  8
1
  6
DASHED
 62
     4
100
AcDbCircle
 10
1500.126922792377
 20
1727.784839063476
 30
0.0
 40
20.81940913765504
100
AcDbArc
 50
136.9031980706673
 51
154.9163972959989
  0
ARC
  5
23C
330
1F
100
AcDbEntity
  8
1
  6
DASHED
 62
     4
100
AcDbCircle
 10
1486.658209430813
 20
1698.058755223558
 30
0.0
 40
20.81940913765444
100
AcDbArc
 50
156.3336027040384
 51
174.3468019293626
  0
ARC
  5
23D
330
1F
100
AcDbEntity
  8
1
  6
DASHED
 62
     4
100
AcDbCircle
 10
1521.751867890961
 20
1771.635889802048
 30
0.0
 40
20.81940913765242
100
AcDbArc
 50
152.5836027040236
 51
170.5968019293496
  0
ARC
  5
23E
330
1F
100
AcDbEntity
  8
1
  6
DASHED
 62
     4
100
AcDbCircle
 10
1537.135922606235
 20
1800.417431814096
 30
0.0
 40
20.81940913765398
100
AcDbArc
 50
133.1531980706551
 51
151.1663972959861
  0
ARC
  5
23F
330
1F
100
AcDbEntity
  8
1
  6
DASHED
 62
     4
100
AcDbCircle
 10
1505.708099294579
 20
1817.215953352868
 30
0.0
 40
20.81940913765577
100
AcDbArc
 50
-27.41639729597515
 51
-9.40319807065194
  0
ARC
  5
240
330
1F
100
AcDbEntity
  8
1
  6
DASHED
 62
     4
100
AcDbCircle
 10
1516.851733526222
 20
1811.259556761094
 30
0.0
 40
20.81940913765331
100
AcDbArc
 50
133.1531980706569
 51
151.1663972959846
  0
ARC
  5
241
330
1F
100
AcDbEntity
  8
1
  6
DASHED
 62
     4
100
AcDbCircle
 10
1485.423910214566
 20
1828.058078299865
 30
0.0
 40
20.81940913765577
100
AcDbArc
 50
-27.41639729597515
 51
-9.40319807065451
  0
ARC
  5
242
330
1F
100
AcDbEntity
  8
1
  6
DASHED
 62
     4
100
AcDbCircle
 10
1490.324044579306
 20
1788.434411340818
 30
0.0
 40
20.81940913765554
100
AcDbArc
 50
-46.8468019293412
 51
-28.83360270401046
  0
ARC
  5
243
330
1F
100
AcDbEntity
  8
1
  6
DASHED
 62
     4
100
AcDbCircle
 10
1501.46767881095
 20
1782.478014749045
 30
0.0
 40
20.8194091376543
100
AcDbArc
 50
152.5836027040326
 51
170.5968019293505
  0
ARC
  5
244
330
1F
100
AcDbEntity
  8
1
  6
DASHED
 62
     4
100
AcDbCircle
 10
1470.039855499293
 20
1799.276536287817
 30
0.0
 40
20.81940913765621
100
AcDbArc
 50
-46.84680192934292
 51
-28.83360270401879
  0
ARC
  5
245
330
1F
100
AcDbEntity
  8
0
  6
DASHED
 62
     4
100
AcDbCircle
 10
1690.124336179211
 20
1391.651571869647
 30
0.0
 40
0.9999999999996952
100
AcDbArc
 50
-104.9997019999223
 51
-14.99989299996834
  0
ARC
  5
246
330
1F
100
AcDbEntity
  8
0
  6
DASHED
 62
     4
100
AcDbCircle
 10
1664.543394588231
 20
1385.047374165248
 30
0.0
 40
0.9999999999983743
100
AcDbArc
 50
-104.99960299987
 51
-14.99969499996611
  0
ARC
  5
247
330
1F
100
AcDbEntity
  8
0
  6
DASHED
 62
     4
100
AcDbCircle
 10
1666.734065285911
 20
1385.495661901332
 30
0.0
 40
0.9999999999990638
100
AcDbArc
 50
75.00000000000465
 51
165.0000000000139
  0
ARC
  5
248
330
1F
100
AcDbEntity
  8
0
  6
DASHED
 62
     4
100
AcDbCircle
 10
1681.377884062579
 20
1385.712967207657
 30
0.0
 40
2.999999999999207
100
AcDbArc
 50
-104.9997019999982
 51
-29.5166930000211
  0
ARC
  5
249
330
1F
100
AcDbEntity
  8
0
  6
DASHED
 62
     4
100
AcDbCircle
 10
1501.690158513033
 20
1430.236681527009
 30
0.0
 40
1.999999999998449
100
AcDbArc
 50
75.00000000002061
 51
165.0000000000442
  0
ARC
  5
24A
330
1F
100
AcDbEntity
  8
0
  6
DASHED
 62
     4
100
AcDbCircle
 10
1496.273540937261
 20
1425.476402749684
 30
0.0
 40
2.000000000000955
100
AcDbArc
 50
-105.0000000000209
 51
-15.00000000003434
  0
ARC
  5
24B
330
1F
100
AcDbEntity
  8
0
  6
DASHED
 62
     4
100
AcDbCircle
 10
1429.102716057611
 20
1451.495262655991
 30
0.0
 40
7.999999999998134
100
AcDbArc
 50
-165.0000000000053
 51
-106.4999009999886
  0
ARC
  5
24C
330
1F
100
AcDbEntity
  8
0
  6
DASHED
 62
     4
100
AcDbCircle
 10
1432.918220236603
 20
1490.399984767192
 30
0.0
 40
8.000000000001588
100
AcDbArc
 50
165.000100000005
 51
-149.9998020000033
  0
ARC
  5
24D
330
1F
100
AcDbEntity
  8
0
  6
DASHED
 62
     4
100
AcDbCircle
 10
1422.503029606708
 20
1482.439590607165
 30
0.0
 40
4.999999999999813
100
AcDbArc
 50
-14.99969499998095
 51
30.00030500000528
  0
ARC
  5
24E
330
1F
100
AcDbEntity
  8
0
  6
DASHED
 62
     4
100
AcDbCircle
 10
1719.370888275795
 20
1500.801190240312
 30
0.0
 40
1.000000000002472
100
AcDbArc
 50
-15.00010699992326
 51
74.99970199994927
  0
ARC
  5
24F
330
1F
100
AcDbEntity
  8
0
  6
DASHED
 62
     4
100
AcDbCircle
 10
1700.519241857484
 20
1519.31106401943
 30
0.0
 40
0.9999999999972542
100
AcDbArc
 50
-15.00030500006766
 51
74.99960300006065
  0
ARC
  5
250
330
1F
100
AcDbEntity
  8
0
  6
DASHED
 62
     4
100
AcDbCircle
 10
1702.192274464956
 20
1517.827500102934
 30
0.0
 40
0.9999999999975736
100
AcDbArc
 50
164.9999999998199
 51
-104.9999999998864
  0
ARC
  5
251
330
1F
100
AcDbEntity
  8
0
  6
DASHED
 62
     4
100
AcDbCircle
 10
1714.765540880805
 20
1510.317398798949
 30
0.0
 40
2.999999999996937
100
AcDbArc
 50
-0.48330700005336
 51
74.99970200002971
  0
ARC
  5
252
330
1F
100
AcDbEntity
  8
0
  6
DASHED
 62
     4
100
AcDbCircle
 10
1536.889548646975
 20
1561.602593902322
 30
0.0
 40
1.999999999999782
100
AcDbArc
 50
165.0000000000039
 51
-104.999999999994
  0
ARC
  5
253
330
1F
100
AcDbEntity
  8
0
  6
DASHED
 62
     4
100
AcDbCircle
 10
1534.578759612433
 20
1568.433425040466
 30
0.0
 40
2.000000000000485
100
AcDbArc
 50
-14.99999999997052
 51
74.99999999997915
  0
ARC
  5
254
330
1F
100
AcDbEntity
  8
0
  6
DASHED
 62
     4
100
AcDbCircle
 10
1463.397688920348
 20
1579.48584382392
 30
0.0
 40
8.000000000000766
100
AcDbArc
 50
76.49990099998111
 51
134.9999999999851
  0
ARC
  5
255
330
1F
100
AcDbEntity
  8
0
  6
DASHED
 62
     4
100
AcDbCircle
 10
1447.249651411998
 20
1543.885614058951
 30
0.0
 40
7.999999999999366
100
AcDbArc
 50
119.9998019999902
 51
164.9999000000019
  0
ARC
  5
256
330
1F
100
AcDbEntity
  8
0
  6
DASHED
 62
     4
100
AcDbCircle
 10
1442.210028821266
 20
1555.987112940618
 30
0.0
 40
5.000000000000734
100
AcDbArc
 50
-60.00030500000005
 51
-15.00030500001106
  0
ARC
  5
257
330
1F
100
AcDbEntity
  8
1
  6
DASHED
 62
     4
100
AcDbCircle
 10
1389.960462025139
 20
1337.177848928057
 30
0.0
 40
20.81940913765383
100
AcDbArc
 50
155.6531980706508
 51
173.6663972959771
  0
ARC
  5
258
330
1F
100
AcDbEntity
  8
1
  6
DASHED
 62
     4
100
AcDbCircle
 10
1386.761668032591
 20
1304.699948486878
 30
0.0
 40
20.81940913765225
100
AcDbArc
 50
175.083602704015
 51
-166.9031980706551
  0
ARC
  5
259
330
1F
100
AcDbEntity
  8
1
  6
DASHED
 62
     4
100
AcDbCircle
 10
1351.297629442456
 20
1308.192851416336
 30
0.0
 40
20.81940913765757
100
AcDbArc
 50
-24.34680192935073
 51
-6.33360270402787
  0
ARC
  5
25A
330
1F
100
AcDbEntity
  8
1
  6
DASHED
 62
     4
100
AcDbCircle
 10
1363.872419319132
 20
1306.954342714459
 30
0.0
 40
20.81940913765601
100
AcDbArc
 50
175.083602704019
 51
-166.9031980706583
  0
ARC
  5
25B
330
1F
100
AcDbEntity
  8
1
  6
DASHED
 62
     4
100
AcDbCircle
 10
1328.408380728997
 20
1310.447245643917
 30
0.0
 40
20.81940913765554
100
AcDbArc
 50
-24.34680192935051
 51
-6.33360270402628
  0
ARC
  5
25C
330
1F
100
AcDbEntity
  8
1
  6
DASHED
 62
     4
100
AcDbCircle
 10
1354.496423435006
 20
1340.670751857514
 30
0.0
 40
20.81940913765437
100
AcDbArc
 50
-4.91639729598706
 51
13.09680192934104
  0
ARC
  5
25D
330
1F
100
AcDbEntity
  8
1
  6
DASHED
 62
     4
100
AcDbCircle
 10
1367.07121331168
 20
1339.432243155637
 30
0.0
 40
20.8194091376557
100
AcDbArc
 50
155.6531980706469
 51
173.6663972959718
  0
ARC
  5
25E
330
1F
100
AcDbEntity
  8
1
  6
DASHED
 62
     4
100
AcDbCircle
 10
1331.607174721544
 20
1342.925146085096
 30
0.0
 40
20.81940913765528
100
AcDbArc
 50
-4.91639729598684
 51
13.09680192934047
  0
ARC
  5
25F
330
1F
100
AcDbEntity
  8
1
  6
DASHED
 62
     4
100
AcDbCircle
 10
1324.959654819077
 20
1257.829856177542
 30
0.0
 40
20.81940913765367
100
AcDbArc
 50
-1.1663972959853
 51
16.84680192934078
  0
ARC
  5
260
330
1F
100
AcDbEntity
  8
1
  6
DASHED
 62
     4
100
AcDbCircle
 10
1360.576208962007
 20
1256.66389092031
 30
0.0
 40
20.81940913765579
100
AcDbArc
 50
159.4031980706516
 51
177.4163972959723
  0
ARC
  5
261
330
1F
100
AcDbEntity
  8
1
  6
DASHED
 62
     4
100
AcDbCircle
 10
1347.947340331035
 20
1257.077317272639
 30
0.0
 40
20.81940913765457
100
AcDbArc
 50
-1.16639729598525
 51
16.84680192934241
  0
ARC
  5
262
330
1F
100
AcDbEntity
  8
1
  6
DASHED
 62
     4
100
AcDbCircle
 10
1323.89186600969
 20
1225.212282277381
 30
0.0
 40
20.81940913765473
100
AcDbArc
 50
-20.59680192934949
 51
-2.5836027040225
  0
ARC
  5
263
330
1F
100
AcDbEntity
  8
1
  6
DASHED
 62
     4
100
AcDbCircle
 10
1359.508420152617
 20
1224.046317020149
 30
0.0
 40
20.81940913765569
100
AcDbArc
 50
178.8336027040173
 51
-163.1531980706578
  0
ARC
  5
264
330
1F
100
AcDbEntity
  8
1
  6
DASHED
 62
     4
100
AcDbCircle
 10
1346.879551521644
 20
1224.45974337248
 30
0.0
 40
20.81940913765822
100
AcDbArc
 50
-20.59680192935189
 51
-2.58360270402776
  0
ARC
  5
265
330
1F
100
AcDbEntity
  8
1
  6
DASHED
 62
     4
100
AcDbCircle
 10
1382.496105664573
 20
1223.293778115248
 30
0.0
 40
20.81940913765251
100
AcDbArc
 50
178.8336027040172
 51
-163.1531980706552
  0
ARC
  5
266
330
1F
100
AcDbEntity
  8
1
  6
DASHED
 62
     4
100
AcDbCircle
 10
1383.563894473962
 20
1255.911352015407
 30
0.0
 40
20.81940913765406
100
AcDbArc
 50
159.4031980706465
 51
177.416397295972
  0
ARC
  5
267
330
1F
100
AcDbEntity
  8
1
  6
Continuous
 62
     7
100
AcDbCircle
 10
1324.366701773346
 20
572.7506592033749
 30
0.0
 40
20.81940913765816
100
AcDbArc
 50
-17.28970574518326
 51
0.72349348013871
  0
ARC
  5
268
330
1F
100
AcDbEntity
  8
1
  6
Continuous
 62
     7
100
AcDbCircle
 10
1359.991204762709
 20
573.641271778107
 30
0.0
 40
20.81940913765648
100
AcDbArc
 50
-177.8593011118129
 51
-159.8461018864917
  0
ARC
  5
269
330
1F
100
AcDbEntity
  8
1
  6
Continuous
 62
     7
100
AcDbCircle
 10
1347.359517640738
 20
573.325479600059
 30
0.0
 40
20.8194091376515
100
AcDbArc
 50
-17.28970574518962
 51
0.72349348014451
  0
ARC
  5
26A
330
1F
100
AcDbEntity
  8
1
  6
Continuous
 62
     7
100
AcDbCircle
 10
1382.984020630096
 20
574.216092174792
 30
0.0
 40
20.81940913765645
100
AcDbArc
 50
-177.8593011118154
 51
-159.8461018864887
  0
ARC
  5
26B
330
1F
100
AcDbEntity
  8
1
  6
Continuous
 62
     7
100
AcDbCircle
 10
1323.551080437378
 20
605.3755126422809
 30
0.0
 40
20.81940913765235
100
AcDbArc
 50
2.14069888818443
 51
20.15389811351101
  0
ARC
  5
26C
330
1F
100
AcDbEntity
  8
1
  6
Continuous
 62
     7
100
AcDbCircle
 10
1359.175583426736
 20
606.266125217016
 30
0.0
 40
20.81940913765446
100
AcDbArc
 50
162.7102942548221
 51
-179.2765065198556
  0
ARC
  5
26D
330
1F
100
AcDbEntity
  8
1
  6
Continuous
 62
     7
100
AcDbCircle
 10
1346.543896304761
 20
605.9503330389659
 30
0.0
 40
20.81940913765644
100
AcDbArc
 50
2.14069888818401
 51
20.15389811350907
  0
ARC
  5
26E
330
1F
100
AcDbEntity
  8
1
  6
Continuous
 62
     7
100
AcDbCircle
 10
1382.168399294123
 20
606.8409456136999
 30
0.0
 40
20.81940913765597
100
AcDbArc
 50
162.7102942548172
 51
-179.276506519853
  0
CIRCLE
  5
26F
330
1F
100
AcDbEntity
  8
1
  6
DASH_CENTER
 62
     3
100
AcDbCircle
 10
911.8096018430136
 20
1443.171877355209
 30
0.0
 40
20.54999999999973
  0
CIRCLE
  5
270
330
1F
100
AcDbEntity
  8
1
  6
DASH_CENTER
 62
     3
100
AcDbCircle
 10
933.3525173650435
 20
1523.571132626595
 30
0.0
 40
20.54999999999947
  0
CIRCLE
  5
271
330
1F
100
AcDbEntity
  8
1
  6
DASH_CENTER
 62
     3
100
AcDbCircle
 10
1019.570403458108
 20
1845.340664047092
 30
0.0
 40
20.54999999999792
  0
CIRCLE
  5
272
330
1F
100
AcDbEntity
  8
1
  6
DASH_CENTER
 62
     3
100
AcDbCircle
 10
954.8954328870759
 20
1603.970387897978
 30
0.0
 40
20.54999999999878
  0
CIRCLE
  5
273
330
1F
100
AcDbEntity
  8
1
  6
DASH_CENTER
 62
     3
100
AcDbCircle
 10
976.4845724140464
 20
1684.542153504326
 30
0.0
 40
20.54999999999973
  0
CIRCLE
  5
274
330
1F
100
AcDbEntity
  8
1
  6
DASH_CENTER
 62
     3
100
AcDbCircle
 10
696.0904452750282
 20
1716.495254379756
 30
0.0
 40
32.54999999999978
  0
CIRCLE
  5
275
330
1F
100
AcDbEntity
  8
1
  6
DASH_CENTER
 62
     3
100
AcDbCircle
 10
837.4855956480641
 20
1718.725490014515
 30
0.0
 40
28.53499999999976
  0
XLINE
  5
276
330
1F
100
AcDbEntity
  8
1
  6
DOT_CENTER
 62
     3
 60
     1
100
AcDbXline
 10
2627.979516994631
 20
1198.847137745989
 30
0.0
 11
-0.95694033573223
 21
0.2902846772543926
 31
0.0
  0
ARC
  5
277
330
1F
100
AcDbEntity
  8
1
  6
Continuous
 62
     7
100
AcDbCircle
 10
1752.993802825542
 20
1203.847137745969
 30
0.0
 40
5.0
100
AcDbArc
 50
-90.0
 51
-0.32740623618529
  0
ARC
  5
278
330
1F
100
AcDbEntity
  8
1
  6
Continuous
 62
     7
100
AcDbCircle
 10
1321.579516994542
 20
605.2883375480732
 30
0.0
 40
3.200000000000955
100
AcDbArc
 50
0.0
 51
90.0
  0
ARC
  5
279
330
1F
100
AcDbEntity
  8
1
  6
Continuous
 62
     7
100
AcDbCircle
 10
1321.579516994542
 20
498.088337548072
 30
0.0
 40
3.199999999999818
100
AcDbArc
 50
-90.0
 51
0.0
  0
ARC
  5
27A
330
1F
100
AcDbEntity
  8
1
  6
Continuous
 62
     7
100
AcDbCircle
 10
1321.579516994542
 20
498.088337548072
 30
0.0
 40
6.399999999999864
100
AcDbArc
 50
-90.0
 51
0.0
  0
ARC
  5
27B
330
1F
100
AcDbEntity
  8
1
  6
Continuous
 62
     7
100
AcDbCircle
 10
1321.579516994542
 20
605.2883375480732
 30
0.0
 40
6.40000000000191
100
AcDbArc
 50
0.0
 51
90.0
  0
ARC
  5
27C
330
1F
100
AcDbEntity
  8
1
  6
Continuous
 62
     7
100
AcDbCircle
 10
1734.379516994542
 20
498.088337548072
 30
0.0
 40
3.200000000000046
100
AcDbArc
 50
180.0
 51
-90.0
  0
ARC
  5
27D
330
1F
100
AcDbEntity
  8
1
  6
Continuous
 62
     7
100
AcDbCircle
 10
1734.379516994542
 20
605.2883375480732
 30
0.0
 40
3.199999999999932
100
AcDbArc
 50
90.0
 51
180.0
  0
ARC
  5
27E
330
1F
100
AcDbEntity
  8
1
  6
Continuous
 62
     7
100
AcDbCircle
 10
1734.379516994542
 20
605.2883375480732
 30
0.0
 40
6.39999999999884
100
AcDbArc
 50
90.0
 51
180.0
  0
ARC
  5
27F
330
1F
100
AcDbEntity
  8
1
  6
Continuous
 62
     7
100
AcDbCircle
 10
1734.379516994542
 20
498.088337548072
 30
0.0
 40
6.399999999998954
100
AcDbArc
 50
180.0
 51
-90.0
  0
ARC
  5
280
330
1F
100
AcDbEntity
  8
1
  6
DASHED
 62
     4
100
AcDbCircle
 10
717.9748961161167
 20
1732.372133238701
 30
0.0
 40
11.99999999999948
100
AcDbArc
 50
18.25066063402203
 51
74.99999999999697
  0
ARC
  5
281
330
1F
100
AcDbEntity
  8
1
  6
DASHED
 62
     4
100
AcDbCircle
 10
707.104496221811
 20
1691.803248534558
 30
0.0
 40
12.00000000000015
100
AcDbArc
 50
-105.000000000001
 51
-48.25066063402671
  0
ARC
  5
282
330
1F
100
AcDbEntity
  8
1
  6
DASHED
 62
     4
100
AcDbCircle
 10
647.1139409444418
 20
1707.877669374625
 30
0.0
 40
12.00000000000045
100
AcDbArc
 50
-160.0771953162841
 51
-104.9999999999991
  0
ARC
  5
283
330
1F
100
AcDbEntity
  8
1
  6
DASHED
 62
     4
100
AcDbCircle
 10
657.9843408387478
 20
1748.446554078764
 30
0.0
 40
12.00000000000113
100
AcDbArc
 50
75.00000000000249
 51
130.0771953162883
  0
ARC
  5
284
330
1F
100
AcDbEntity
  8
1
  6
Continuous
 62
     7
100
AcDbCircle
 10
1324.982970567893
 20
1201.847137745982
 30
0.0
 40
3.00000000000112
100
AcDbArc
 50
179.868083276733
 51
-90.0
  0
ARC
  5
285
330
1F
100
AcDbEntity
  8
1
  6
Continuous
 62
     7
100
AcDbCircle
 10
1299.039960409805
 20
1210.542112219328
 30
0.0
 40
1.00000000000048
100
AcDbArc
 50
178.9999999999596
 51
-91.0000000000413
  0
ARC
  5
286
330
1F
100
AcDbEntity
  8
1
  6
Continuous
 62
     7
100
AcDbCircle
 10
1299.441365757862
 20
1233.538609207925
 30
0.0
 40
1.000000000000688
100
AcDbArc
 50
89.00000000002497
 51
178.9999999999599
  0
ARC
  5
287
330
1F
100
AcDbEntity
  8
1
  6
Continuous
 62
     7
100
AcDbCircle
 10
1302.988950990477
 20
1203.847137745974
 30
0.0
 40
5.000000000000206
100
AcDbArc
 50
179.7837889981318
 51
-90.0
  0
ARC
  5
288
330
1F
100
AcDbEntity
  8
1
  6
Continuous
 62
     7
100
AcDbCircle
 10
1374.983108380463
 20
1201.847137745974
 30
0.0
 40
3.0
100
AcDbArc
 50
-90.0
 51
-0.13718076836871
  0
ARC
  5
289
330
1F
100
AcDbEntity
  8
1
  6
Continuous
 62
     7
100
AcDbCircle
 10
1541.352796284002
 20
1822.747265841701
 30
0.0
 40
2.999999999999634
100
AcDbArc
 50
-29.86281923167585
 51
60.00000000000257
  0
ARC
  5
28A
330
1F
100
AcDbEntity
  8
1
  6
Continuous
 62
     7
100
AcDbCircle
 10
1478.00402706022
 20
1857.012293729125
 30
0.0
 40
4.99999999999982
100
AcDbArc
 50
59.99999999999881
 51
150.2162110018895
  0
ARC
  5
28B
330
1F
100
AcDbEntity
  8
1
  6
Continuous
 62
     7
100
AcDbCircle
 10
1460.085992395708
 20
1833.07251778364
 30
0.0
 40
1.000000000000323
100
AcDbArc
 50
150.9999999999069
 51
-118.9999999999703
  0
ARC
  5
28C
330
1F
100
AcDbEntity
  8
1
  6
Continuous
 62
     7
100
AcDbCircle
 10
1471.236613661376
 20
1853.188771047847
 30
0.0
 40
0.9999999999984494
100
AcDbArc
 50
61.00000000010056
 51
151.0000000000093
  0
ARC
  5
28D
330
1F
100
AcDbEntity
  8
1
  6
Continuous
 62
     7
100
AcDbCircle
 10
1498.05140674559
 20
1847.747334747977
 30
0.0
 40
2.999999999998868
100
AcDbArc
 50
59.99999999998752
 51
150.1319167232461
  0
ARC
  5
28E
330
1F
100
AcDbEntity
  8
1
  6
Continuous
 62
     7
100
AcDbCircle
 10
1867.71966057564
 20
1632.009867811596
 30
0.0
 40
5.000000000002578
100
AcDbArc
 50
-29.67259376381718
 51
59.99999999998596
  0
ARC
  5
28F
330
1F
100
AcDbEntity
  8
1
  6
Continuous
 62
     7
100
AcDbCircle
 10
1484.720762901375
 20
1698.187337955587
 30
0.0
 40
2.999999999999896
100
AcDbArc
 50
-24.37499999997736
 51
65.62499999999966
  0
ARC
  5
290
330
1F
100
AcDbEntity
  8
1
  6
Continuous
 62
     7
100
AcDbCircle
 10
1498.752801914717
 20
1729.156708002912
 30
0.0
 40
2.999999999999067
100
AcDbArc
 50
-114.3749999999845
 51
-24.37499999995041
  0
ARC
  5
291
330
1F
100
AcDbEntity
  8
1
  6
Continuous
 62
     7
100
AcDbCircle
 10
1535.854468348386
 20
1801.876235282165
 30
0.0
 40
2.999999999998686
100
AcDbArc
 50
-118.1250000000372
 51
-28.12499999994879
  0
ARC
  5
292
330
1F
100
AcDbEntity
  8
1
  6
Continuous
 62
     7
100
AcDbCircle
 10
1519.826979296304
 20
1771.890912294321
 30
0.0
 40
3.000000000000384
100
AcDbArc
 50
-28.12500000001495
 51
61.87499999994748
  0
ARC
  5
293
330
1F
100
AcDbEntity
  8
1
  6
Continuous
 62
     7
100
AcDbCircle
 10
1466.486657637162
 20
1654.166313729023
 30
0.0
 40
3.000000000001319
100
AcDbArc
 50
-110.6250000000156
 51
-20.62499999999782
  0
ARC
  5
294
330
1F
100
AcDbEntity
  8
1
  6
Continuous
 62
     7
100
AcDbCircle
 10
1454.510156007838
 20
1622.345512219274
 30
0.0
 40
2.999999999998763
100
AcDbArc
 50
-20.62499999999686
 51
69.37500000002098
  0
ARC
  5
295
330
1F
100
AcDbEntity
  8
1
  6
Continuous
 62
     7
100
AcDbCircle
 10
1439.194204099078
 20
1577.226172841865
 30
0.0
 40
2.999999999999679
100
AcDbArc
 50
-106.8749999999528
 51
-16.87500000000591
  0
ARC
  5
296
330
1F
100
AcDbEntity
  8
1
  6
Continuous
 62
     7
100
AcDbCircle
 10
1429.324525072425
 20
1544.69020142697
 30
0.0
 40
3.000000000000319
100
AcDbArc
 50
-16.87500000000806
 51
73.12500000000983
  0
ARC
  5
297
330
1F
100
AcDbEntity
  8
1
  6
Continuous
 62
     7
100
AcDbCircle
 10
1394.437606485291
 20
1385.275594193118
 30
0.0
 40
3.000000000001204
100
AcDbArc
 50
-9.3750000000001
 51
80.62500000002203
  0
ARC
  5
298
330
1F
100
AcDbEntity
  8
1
  6
Continuous
 62
     7
100
AcDbCircle
 10
1399.976052580709
 20
1418.821467484003
 30
0.0
 40
2.999999999998326
100
AcDbArc
 50
-99.37499999998717
 51
-9.37499999994369
  0
ARC
  5
299
330
1F
100
AcDbEntity
  8
1
  6
DASHED
 62
     4
100
AcDbCircle
 10
1527.398020060862
 20
1408.33677617019
 30
0.0
 40
5.000000000001543
100
AcDbArc
 50
-104.9999999999897
 51
-15.00000000000317
  0
ARC
  5
29A
330
1F
100
AcDbEntity
  8
1
  6
DASHED
 62
     4
100
AcDbCircle
 10
1416.316550037619
 20
1438.10096635698
 30
0.0
 40
5.000000000000386
100
AcDbArc
 50
165.0000000000094
 51
-105.0000000000025
  0
ARC
  5
29B
330
1F
100
AcDbEntity
  8
1
  6
DASHED
 62
     4
100
AcDbCircle
 10
1570.103162502777
 20
1567.714537507887
 30
0.0
 40
5.000000000000916
100
AcDbArc
 50
-15.00000000001324
 51
74.99999999999145
  0
ARC
  5
29C
330
1F
100
AcDbEntity
  8
1
  6
DASHED
 62
     4
100
AcDbCircle
 10
1459.021692479535
 20
1597.478727694675
 30
0.0
 40
4.999999999999507
100
AcDbArc
 50
75.00000000000672
 51
164.9999999999908
  0
ARC
  5
29D
330
1F
100
AcDbEntity
  8
1
  6
Continuous
 62
     7
100
AcDbCircle
 10
1416.992311776456
 20
1498.66575483662
 30
0.0
 40
2.999999999999437
100
AcDbArc
 50
-103.1249999999643
 51
-13.12499999996413
  0
ARC
  5
29E
330
1F
100
AcDbEntity
  8
1
  6
Continuous
 62
     7
100
AcDbCircle
 10
1409.271718833286
 20
1465.553937541191
 30
0.0
 40
3.000000000001843
100
AcDbArc
 50
-13.12499999998921
 51
76.87500000000685
  0
ARC
  5
29F
330
1F
100
AcDbEntity
  8
1
  6
Continuous
 62
     7
100
AcDbCircle
 10
1384.88570997495
 20
1304.198935573494
 30
0.0
 40
2.999999999999372
100
AcDbArc
 50
-5.62500000000797
 51
84.37500000001364
  0
ARC
  5
2A0
330
1F
100
AcDbEntity
  8
1
  6
Continuous
 62
     7
100
AcDbCircle
 10
1388.218292746158
 20
1338.035216280349
 30
0.0
 40
2.999999999999282
100
AcDbArc
 50
-95.62499999999068
 51
-5.62499999998636
  0
ARC
  5
2A1
330
1F
100
AcDbEntity
  8
1
  6
Continuous
 62
     7
100
AcDbCircle
 10
1381.769380805397
 20
1256.652940355892
 30
0.0
 40
2.999999999999894
100
AcDbArc
 50
-91.87499999997614
 51
-1.87499999999294
  0
ARC
  5
2A2
330
1F
100
AcDbEntity
  8
1
  6
Continuous
 62
     7
100
AcDbCircle
 10
1380.656931989454
 20
1222.671144381695
 30
0.0
 40
3.00000000000087
100
AcDbArc
 50
-1.87500000001464
 51
88.12499999998914
  0
ARC
  5
2A3
330
1F
100
AcDbEntity
  8
1
  6
Continuous
 62
     7
100
AcDbCircle
 10
1381.183828059684
 20
573.488397676505
 30
0.0
 40
2.99999999999861
100
AcDbArc
 50
1.4320961841526
 51
91.43209618419124
  0
ARC
  5
2A4
330
1F
100
AcDbEntity
  8
1
  6
Continuous
 62
     7
100
AcDbCircle
 10
1380.334093560236
 20
607.4777776543799
 30
0.0
 40
2.999999999998588
100
AcDbArc
 50
-88.56790381586477
 51
1.43209618419069
  0
ARC
  5
2A5
330
1F
100
AcDbEntity
  8
1
  6
Continuous
 62
     7
100
AcDbCircle
 10
1368.625252001681
 20
575.6752144030229
 30
0.0
 40
0.4999999999980636
100
AcDbArc
 50
91.43209618415749
 51
-178.5679038157468
  0
ARC
  5
2A6
330
1F
100
AcDbEntity
  8
1
  6
Continuous
 62
     7
100
AcDbCircle
 10
1361.627438476824
 20
575.5002690649001
 30
0.0
 40
0.5000000000019278
100
AcDbArc
 50
1.43209618414641
 51
91.43209618414967
  0
ARC
  5
2A7
330
1F
100
AcDbEntity
  8
1
  6
Continuous
 62
     7
100
AcDbCircle
 10
1345.632436134295
 20
575.1003940063379
 30
0.0
 40
0.4999999999989728
100
AcDbArc
 50
91.43209618415489
 51
-178.5679038158536
  0
ARC
  5
2A8
330
1F
100
AcDbEntity
  8
1
  6
Continuous
 62
     7
100
AcDbCircle
 10
1367.900478458033
 20
604.6661561488579
 30
0.0
 40
0.4999999999999047
100
AcDbArc
 50
-178.5679038157435
 51
-88.56790381584773
  0
ARC
  5
2A9
330
1F
100
AcDbEntity
  8
1
  6
Continuous
 62
     7
100
AcDbCircle
 10
1360.90266493318
 20
604.4912108107369
 30
0.0
 40
0.499999999999882
100
AcDbArc
 50
-88.56790381584773
 51
1.43209618416074
  0
ARC
  5
2AA
330
1F
100
AcDbEntity
  8
1
  6
Continuous
 62
     7
100
AcDbCircle
 10
1344.90766259065
 20
604.0913357521729
 30
0.0
 40
0.5000000000010185
100
AcDbArc
 50
-178.567903815851
 51
-88.56790381584773
  0
TEXT
  5
2AB
330
1F
100
AcDbEntity
  8
1
 62
     2
100
AcDbText
 10
1053.200552397037
 20
1366.102279390957
 30
0.0
 40
50.0
  1
L
 41
0.9
  7
CONVERTER_1
100
AcDbText
  0
TEXT
  5
2AC
330
1F
100
AcDbEntity
  8
1
 62
     2
100
AcDbText
 10
1187.350552397036
 20
1799.262279390957
 30
0.0
 40
50.0
  1
R
 41
0.9
  7
CONVERTER_1
100
AcDbText
  0
TEXT
  5
2AD
330
1F
100
AcDbEntity
  8
1
 62
     2
100
AcDbText
 10
3229.18706618962
 20
438.772530873582
 30
0.0
 40
32.0
  1
回転方向：本図はLタイプを示す。
 41
0.89
  7
CONVERTER_3
100
AcDbText
  0
MTEXT
  5
2AE
330
1F
100
AcDbEntity
  8
1
 62
     2
100
AcDbMText
 10
2972.900974184948
 20
148.3553215244791
 30
0.0
 40
32.0
 41
0.0
 71
     4
 72
     1
  1
本体組立図 30°カーブ 呼び幅 400 ～ 1000 mm
  7
CONVERTER_3
 73
     1
 44
1.32052821128451
  0
TEXT
  5
2AF
330
1F
100
AcDbEntity
  8
1
 62
     2
100
AcDbText
 10
2368.999149914949
 20
131.3494563701199
 30
0.0
 40
40.0
  1
マルチベヤシリーズ
 41
0.89
  7
CONVERTER_3
100
AcDbText
  0
MTEXT
  5
2B0
330
1F
100
AcDbEntity
  8
1
 62
     2
100
AcDbMText
 10
3454.593982759639
 20
58.40080606891947
 30
0.0
 40
32.0
 41
0.0
 71
     4
 72
     1
  1
W_MCC3_C_S_040
  7
CONVERTER_1
 73
     1
 44
1.32052821128451
  0
TEXT
  5
2B1
330
1F
100
AcDbEntity
  8
1
 62
     2
100
AcDbText
 10
1716.986544890392
 20
110.6975109384339
 30
0.0
 40
32.0
  1
2011.8.26
 41
0.9
  7
CONVERTER_1
100
AcDbText
  0
MTEXT
  5
2B2
330
1F
100
AcDbEntity
  8
1
 62
     2
100
AcDbMText
 10
2931.386404293382
 20
626.5819763118641
 30
0.0
 40
32.0
 41
0.0
 71
     1
 72
     1
  1
相当ローラピッチ 75 はローラ本数 8 本\P　　　　　　　　100 はローラ本数 6 本となります。
  7
CONVERTER_3
 73
     1
 44
1.08043217286915
  0
MTEXT
  5
2B3
330
1F
100
AcDbEntity
  8
1
 62
     3
100
AcDbMText
 10
1554.630359791257
 20
421.0858652260852
 30
0.0
 40
32.0
 41
0.0
 71
     8
 72
     1
  1
一 般 断 面 図 
  7
CONVERTER_3
 73
     1
 44
1.20048019207683
  0
TEXT
  5
2B4
330
1F
100
AcDbEntity
  8
1
 62
     2
100
AcDbText
 10
2400.156772692229
 20
24.71999999999969
 30
0.0
 40
32.0
  1
MCC3-C
 41
0.9
  7
CONVERTER_1
100
AcDbText
  0
DIMENSION
  5
2C7
330
1F
100
AcDbEntity
  8
1
100
AcDbDimension
  2
*D02
 10
1297.979516994544
 20
965.6383375480734
 30
0.0
 11
1521.446051103624
 21
988.99631926387
 31
0.0
 70
    32
  1
機 幅
 71
     5
 42
-1.0
 53
0.00013888888889
  3
ME10_DIM_0
100
AcDbAlignedDimension
 13
1757.979516994543
 23
611.688337548072
 33
0.0
 14
1297.979516994544
 24
617.688337548072
 34
0.0
100
AcDbRotatedDimension
  0
DIMENSION
  5
2D6
330
1F
100
AcDbEntity
  8
1
100
AcDbDimension
  2
*D14
 10
1651.429354445587
 20
660.7146125511233
 30
0.0
 11
1607.998325737985
 21
685.2421362631801
 31
0.0
 70
    33
  1
<>
 71
     5
 42
-1.0
 52
60.00000000000001
 53
-88.56790381583566
  3
ME10_DIM_1
100
AcDbAlignedDimension
 13
1724.217896657724
 23
576.4124840422469
 33
0.0
 14
1723.085750398167
 24
621.6983344245351
 34
0.0
  0
DIMENSION
  5
2E3
330
1F
100
AcDbEntity
  8
1
100
AcDbDimension
  2
*D25
 10
801.0418776556696
 20
1408.849034118151
 30
0.0
 11
667.5545223773617
 21
1468.428215314172
 31
0.0
 70
    32
  1
<>
 71
     5
 42
-1.0
 53
-15.0000000000001
  3
ME10_DIM_2
100
AcDbAlignedDimension
 13
542.3224151812514
 23
1602.405846803596
 33
0.0
 14
832.1001630679723
 24
1524.760133272839
 34
0.0
 50
-15.0000000000001
100
AcDbRotatedDimension
  0
DIMENSION
  5
2F0
330
1F
100
AcDbEntity
  8
1
100
AcDbDimension
  2
*D36
 10
425.1845726511594
 20
1633.792837112656
 30
0.0
 11
438.7213640537523
 21
1773.178006417189
 31
0.0
 70
    33
  1
<>
 71
     5
 42
-1.0
 53
75.0
  3
ME10_DIM_3
100
AcDbAlignedDimension
 13
619.9681287120072
 23
1892.183594690315
 33
0.0
 14
542.3224151812514
 24
1602.405846803596
 34
0.0
  0
DIMENSION
  5
2FF
330
1F
100
AcDbEntity
  8
1
100
AcDbDimension
  2
*D47
 10
1388.019600098945
 20
1755.236925094041
 30
0.0
 11
1301.69202756802
 21
1617.7841257565
 31
0.0
 70
    33
  1
相当ローラピッチ
 71
     5
 42
-1.0
 52
70.0
 53
71.24999999999936
  3
ME10_DIM_4
100
AcDbAlignedDimension
 13
1575.345147689086
 23
1518.160282725848
 33
0.0
 14
1598.482997561459
 24
1586.322190459298
 34
0.0
  0
DIMENSION
  5
30C
330
1F
100
AcDbEntity
  8
1
100
AcDbDimension
  2
*D58
 10
1877.979516994543
 20
491.6883375480721
 30
0.0
 11
1843.343738564503
 21
554.14299739827
 31
0.0
 70
    32
  1
<>
 71
     5
 42
-1.0
 53
90.0
  3
ME10_DIM_5
100
AcDbAlignedDimension
 13
1757.979516994543
 23
611.688337548072
 33
0.0
 14
1757.979516994543
 24
491.6883375480721
 34
0.0
 50
90.0
100
AcDbRotatedDimension
  0
DIMENSION
  5
31B
330
1F
100
AcDbEntity
  8
1
100
AcDbDimension
  2
*D69
 10
1877.979516994544
 20
611.6883375480722
 30
0.0
 11
1847.632997090634
 21
663.0901639620001
 31
0.0
 70
    32
  1
<>
 71
     5
 42
-1.0
 53
90.0
  3
ME10_DIM_6
100
AcDbAlignedDimension
 13
1723.085750398167
 23
621.6983344245351
 33
0.0
 14
1757.979516994543
 24
611.688337548072
 34
0.0
 50
90.0
100
AcDbRotatedDimension
  0
DIMENSION
  5
32A
330
1F
100
AcDbEntity
  8
1
100
AcDbDimension
  2
*D710
 10
1297.979516994543
 20
765.6383375480737
 30
0.0
 11
1344.537991875633
 21
794.5861033727401
 31
0.0
 70
    32
  1
<>
 71
     5
 42
-1.0
 53
0.00013888888889
  3
ME10_DIM_7
100
AcDbAlignedDimension
 13
1382.979516994544
 23
621.6983344245369
 33
0.0
 14
1297.979516994544
 24
617.688337548072
 34
0.0
100
AcDbRotatedDimension
  0
DIMENSION
  5
339
330
1F
100
AcDbEntity
  8
1
100
AcDbDimension
  2
*D811
 10
1723.085750398167
 20
765.6383375480737
 30
0.0
 11
1800.076244387702
 21
795.6917787429102
 31
0.0
 70
    32
  1
<>
 71
     5
 42
-1.0
 53
0.00013888888889
  3
ME10_DIM_8
100
AcDbAlignedDimension
 13
1757.979516994543
 23
611.688337548072
 33
0.0
 14
1723.085750398167
 24
621.6983344245351
 34
0.0
100
AcDbRotatedDimension
  0
DIMENSION
  5
346
330
1F
100
AcDbEntity
  8
1
100
AcDbDimension
  2
*D912
 10
1382.979516994544
 20
765.6383375480741
 30
0.0
 11
1553.032633696356
 21
791.1383375480741
 31
0.0
 70
    32
  1
ローラ幅
 71
     5
 42
-1.0
 53
0.00013888888889
  3
ME10_DIM_9
100
AcDbAlignedDimension
 13
1723.085750398167
 23
621.6983344245351
 33
0.0
 14
1382.979516994544
 24
621.6983344245369
 34
0.0
100
AcDbRotatedDimension
  0
DIMENSION
  5
356
330
1F
100
AcDbEntity
  8
1
100
AcDbDimension
  2
*D1013
 10
1297.979516994543
 20
865.6383375480739
 30
0.0
 11
1251.661260780943
 21
897.4139127990002
 31
0.0
 70
    32
  1
<>
 71
     5
 42
-1.0
 53
0.00013888888889
  3
ME10_DIM_10
100
AcDbAlignedDimension
 13
1327.979516994544
 23
605.2883375480732
 33
0.0
 14
1297.979516994544
 24
617.688337548072
 34
0.0
100
AcDbRotatedDimension
  0
DIMENSION
  5
366
330
1F
100
AcDbEntity
  8
1
100
AcDbDimension
  2
*D1114
 10
1727.979516994543
 20
865.6383375480739
 30
0.0
 11
1797.864893647354
 21
899.62526353935
 31
0.0
 70
    32
  1
<>
 71
     5
 42
-1.0
 53
0.00013888888889
  3
ME10_DIM_11
100
AcDbAlignedDimension
 13
1757.979516994543
 23
611.688337548072
 33
0.0
 14
1727.979516994543
 24
605.2883375480732
 34
0.0
100
AcDbRotatedDimension
  0
DIMENSION
  5
375
330
1F
100
AcDbEntity
  8
1
100
AcDbDimension
  2
*D1215
 10
1327.979516994544
 20
865.6383375480741
 30
0.0
 11
1527.979516994544
 21
891.6383375480741
 31
0.0
 70
    32
  1
<>
 71
     5
 42
-1.0
 53
0.00013888888889
  3
ME10_DIM_12
100
AcDbAlignedDimension
 13
1727.979516994543
 23
605.2883375480732
 33
0.0
 14
1327.979516994544
 24
605.2883375480732
 34
0.0
100
AcDbRotatedDimension
  0
INSERT
  5
37D
330
1F
100
AcDbEntity
  8
1
100
AcDbBlockReference
  2
*D1316
 10
0.0
 20
0.0
 30
0.0
  0
DIMENSION
  5
38C
330
1F
100
AcDbEntity
  8
1
100
AcDbDimension
  2
*D1417
 10
2212.266959616955
 20
1310.236981778769
 30
0.0
 11
2201.7882070818
 21
1362.068506183272
 31
0.0
 70
    37
  1
<>
 71
     5
 42
-1.0
  3
ME10_DIM_13
100
AcDb3PointAngularDimension
 13
2364.385193021742
 23
1351.03339164852
 33
0.0
 14
2285.1407699691
 24
1198.847137745969
 34
0.0
 15
2627.979516994537
 25
1198.847137745968
 35
0.0
  0
ENDSEC
  0
SECTION
  2
OBJECTS
  0
DICTIONARY
  5
C
330
0
100
AcDbDictionary
281
     1
  3
ACAD_GROUP
350
D
  3
ACAD_LAYOUT
350
1A
  3
ACAD_MLINESTYLE
350
17
  3
ACAD_PLOTSETTINGS
350
19
  3
ACAD_PLOTSTYLENAME
350
E
  0
DICTIONARY
  5
D
102
{ACAD_REACTORS
330
C
102
}
330
C
100
AcDbDictionary
281
     1
  0
DICTIONARY
  5
1A
102
{ACAD_REACTORS
330
C
102
}
330
C
100
AcDbDictionary
281
     1
  3
Layout1
350
1E
  3
Layout2
350
26
  3
Model
350
22
  0
DICTIONARY
  5
17
102
{ACAD_REACTORS
330
C
102
}
330
C
100
AcDbDictionary
281
     1
  3
Standard
350
18
  0
DICTIONARY
  5
19
102
{ACAD_REACTORS
330
C
102
}
330
C
100
AcDbDictionary
281
     1
  0
ACDBDICTIONARYWDFLT
  5
E
102
{ACAD_REACTORS
330
C
102
}
330
C
100
AcDbDictionary
281
     1
  3
Normal
350
F
100
AcDbDictionaryWithDefault
340
F
  0
LAYOUT
  5
1E
102
{ACAD_REACTORS
330
1A
102
}
330
1A
100
AcDbPlotSettings
  1

  2

  4

  6

 40
0.0
 41
0.0
 42
0.0
 43
0.0
 44
0.0
 45
0.0
 46
0.0
 47
0.0
 48
0.0
 49
0.0
140
0.0
141
0.0
142
1.0
143
1.0
 70
   688
 72
     0
 73
     0
 74
     5
  7

 75
    16
147
1.0
148
0.0
149
0.0
100
AcDbLayout
  1
Layout1
 70
     1
 71
     1
 10
0.0
 20
0.0
 11
0.0
 21
0.0
 12
0.0
 22
0.0
 32
0.0
 14
0.0
 24
0.0
 34
0.0
 15
0.0
 25
0.0
 35
0.0
146
0.0
 13
0.0
 23
0.0
 33
0.0
 16
1.0
 26
0.0
 36
0.0
 17
0.0
 27
1.0
 37
0.0
 76
     0
330
1B
  0
LAYOUT
  5
26
102
{ACAD_REACTORS
330
1A
102
}
330
1A
100
AcDbPlotSettings
  1

  2

  4

  6

 40
0.0
 41
0.0
 42
0.0
 43
0.0
 44
0.0
 45
0.0
 46
0.0
 47
0.0
 48
0.0
 49
0.0
140
0.0
141
0.0
142
1.0
143
1.0
 70
   688
 72
     0
 73
     0
 74
     5
  7

 75
    16
147
1.0
148
0.0
149
0.0
100
AcDbLayout
  1
Layout2
 70
     1
 71
     2
 10
0.0
 20
0.0
 11
0.0
 21
0.0
 12
0.0
 22
0.0
 32
0.0
 14
0.0
 24
0.0
 34
0.0
 15
0.0
 25
0.0
 35
0.0
146
0.0
 13
0.0
 23
0.0
 33
0.0
 16
1.0
 26
0.0
 36
0.0
 17
0.0
 27
1.0
 37
0.0
 76
     0
330
23
  0
LAYOUT
  5
22
102
{ACAD_REACTORS
330
1A
102
}
330
1A
100
AcDbPlotSettings
  1

  2

  4

  6

 40
0.0
 41
0.0
 42
0.0
 43
0.0
 44
0.0
 45
0.0
 46
0.0
 47
0.0
 48
0.0
 49
0.0
140
0.0
141
0.0
142
1.0
143
1.0
 70
  1712
 72
     0
 73
     0
 74
     0
  7

 75
     0
147
1.0
148
0.0
149
0.0
100
AcDbLayout
  1
Model
 70
     1
 71
     0
 10
0.0
 20
0.0
 11
0.0
 21
0.0
 12
0.0
 22
0.0
 32
0.0
 14
0.0
 24
-22.5615332095569
 34
0.0
 15
3940.0
 25
2680.0
 35
0.0
146
0.0
 13
0.0
 23
0.0
 33
0.0
 16
1.0
 26
0.0
 36
0.0
 17
0.0
 27
1.0
 37
0.0
 76
     0
330
1F
  0
MLINESTYLE
  5
18
102
{ACAD_REACTORS
330
17
102
}
330
17
100
AcDbMlineStyle
  2
Standard
 70
     0
  3

 62
   256
 51
90.0
 52
90.0
 71
     2
 49
0.5
 62
   256
  6
BYLAYER
 49
-0.5
 62
   256
  6
BYLAYER
  0
ACDBPLACEHOLDER
  5
F
102
{ACAD_REACTORS
330
E
102
}
330
E
  0
ENDSEC
  0
EOF
