  0
SECTION
  2
HEADER
  9
$ACADVER
  1
AC1015
  9
$ACADMAINTVER
 70
     6
  9
$DWGCODEPAGE
  3
DOS932
  9
$INSBASE
 10
0.0
 20
0.0
 30
0.0
  9
$EXTMIN
 10
0.0
 20
-22.5615332095569
 30
0.0
  9
$EXTMAX
 10
3940.0
 20
2680.0
 30
0.0
  9
$LIMMIN
 10
0.0
 20
0.0
  9
$LIMMAX
 10
12.0
 20
9.0
  9
$ORTHOMODE
 70
     0
  9
$REGENMODE
 70
     1
  9
$FILLMODE
 70
     1
  9
$QTEXTMODE
 70
     0
  9
$MIRRTEXT
 70
     1
  9
$LTSCALE
 40
1.0
  9
$ATTMODE
 70
     1
  9
$TEXTSIZE
 40
0.2
  9
$TRACEWID
 40
0.05
  9
$TEXTSTYLE
  7
Standard
  9
$CLAYER
  8
0
  9
$CELTYPE
  6
ByLayer
  9
$CECOLOR
 62
   256
  9
$CELTSCALE
 40
1.0
  9
$DISPSILH
 70
     0
  9
$DIMSCALE
 40
1.0
  9
$DIMASZ
 40
0.18
  9
$DIMEXO
 40
0.0625
  9
$DIMDLI
 40
0.38
  9
$DIMRND
 40
0.0
  9
$DIMDLE
 40
0.0
  9
$DIMEXE
 40
0.18
  9
$DIMTP
 40
0.0
  9
$DIMTM
 40
0.0
  9
$DIMTXT
 40
0.18
  9
$DIMCEN
 40
0.09
  9
$DIMTSZ
 40
0.0
  9
$DIMTOL
 70
     0
  9
$DIMLIM
 70
     0
  9
$DIMTIH
 70
     1
  9
$DIMTOH
 70
     1
  9
$DIMSE1
 70
     0
  9
$DIMSE2
 70
     0
  9
$DIMTAD
 70
     0
  9
$DIMZIN
 70
     0
  9
$DIMBLK
  1

  9
$DIMASO
 70
     1
  9
$DIMSHO
 70
     1
  9
$DIMPOST
  1

  9
$DIMAPOST
  1

  9
$DIMALT
 70
     0
  9
$DIMALTD
 70
     2
  9
$DIMALTF
 40
25.4
  9
$DIMLFAC
 40
1.0
  9
$DIMTOFL
 70
     0
  9
$DIMTVP
 40
0.0
  9
$DIMTIX
 70
     0
  9
$DIMSOXD
 70
     0
  9
$DIMSAH
 70
     0
  9
$DIMBLK1
  1

  9
$DIMBLK2
  1

  9
$DIMSTYLE
  2
Standard
  9
$DIMCLRD
 70
     0
  9
$DIMCLRE
 70
     0
  9
$DIMCLRT
 70
     0
  9
$DIMTFAC
 40
1.0
  9
$DIMGAP
 40
0.09
  9
$DIMJUST
 70
     0
  9
$DIMSD1
 70
     0
  9
$DIMSD2
 70
     0
  9
$DIMTOLJ
 70
     1
  9
$DIMTZIN
 70
     0
  9
$DIMALTZ
 70
     0
  9
$DIMALTTZ
 70
     0
  9
$DIMUPT
 70
     0
  9
$DIMDEC
 70
     4
  9
$DIMTDEC
 70
     4
  9
$DIMALTU
 70
     2
  9
$DIMALTTD
 70
     2
  9
$DIMTXSTY
  7
Standard
  9
$DIMAUNIT
 70
     0
  9
$DIMADEC
 70
     0
  9
$DIMALTRND
 40
0.0
  9
$DIMAZIN
 70
     0
  9
$DIMDSEP
 70
    46
  9
$DIMATFIT
 70
     3
  9
$DIMFRAC
 70
     0
  9
$DIMLDRBLK
  1

  9
$DIMLUNIT
 70
     2
  9
$DIMLWD
 70
    -2
  9
$DIMLWE
 70
    -2
  9
$DIMTMOVE
 70
     0
  9
$LUNITS
 70
     2
  9
$LUPREC
 70
     4
  9
$SKETCHINC
 40
0.1
  9
$FILLETRAD
 40
0.5
  9
$AUNITS
 70
     0
  9
$AUPREC
 70
     0
  9
$MENU
  1
.
  9
$ELEVATION
 40
0.0
  9
$PELEVATION
 40
0.0
  9
$THICKNESS
 40
0.0
  9
$LIMCHECK
 70
     0
  9
$CHAMFERA
 40
0.5
  9
$CHAMFERB
 40
0.5
  9
$CHAMFERC
 40
1.0
  9
$CHAMFERD
 40
0.0
  9
$SKPOLY
 70
     0
  9
$TDCREATE
 40
2455804.544642431
  9
$TDUCREATE
 40
2455804.169642431
  9
$TDUPDATE
 40
2455804.544642442
  9
$TDUUPDATE
 40
2455804.169642442
  9
$TDINDWG
 40
0.0000000116
  9
$TDUSRTIMER
 40
0.0000000116
  9
$USRTIMER
 70
     1
  9
$ANGBASE
 50
0.0
  9
$ANGDIR
 70
     0
  9
$PDMODE
 70
     0
  9
$PDSIZE
 40
0.0
  9
$PLINEWID
 40
0.0
  9
$SPLFRAME
 70
     0
  9
$SPLINETYPE
 70
     6
  9
$SPLINESEGS
 70
     8
  9
$HANDSEED
  5
3EE
  9
$SURFTAB1
 70
     6
  9
$SURFTAB2
 70
     6
  9
$SURFTYPE
 70
     6
  9
$SURFU
 70
     6
  9
$SURFV
 70
     6
  9
$UCSBASE
  2

  9
$UCSNAME
  2

  9
$UCSORG
 10
0.0
 20
0.0
 30
0.0
  9
$UCSXDIR
 10
1.0
 20
0.0
 30
0.0
  9
$UCSYDIR
 10
0.0
 20
1.0
 30
0.0
  9
$UCSORTHOREF
  2

  9
$UCSORTHOVIEW
 70
     0
  9
$UCSORGTOP
 10
0.0
 20
0.0
 30
0.0
  9
$UCSORGBOTTOM
 10
0.0
 20
0.0
 30
0.0
  9
$UCSORGLEFT
 10
0.0
 20
0.0
 30
0.0
  9
$UCSORGRIGHT
 10
0.0
 20
0.0
 30
0.0
  9
$UCSORGFRONT
 10
0.0
 20
0.0
 30
0.0
  9
$UCSORGBACK
 10
0.0
 20
0.0
 30
0.0
  9
$PUCSBASE
  2

  9
$PUCSNAME
  2

  9
$PUCSORG
 10
0.0
 20
0.0
 30
0.0
  9
$PUCSXDIR
 10
1.0
 20
0.0
 30
0.0
  9
$PUCSYDIR
 10
0.0
 20
1.0
 30
0.0
  9
$PUCSORTHOREF
  2

  9
$PUCSORTHOVIEW
 70
     0
  9
$PUCSORGTOP
 10
0.0
 20
0.0
 30
0.0
  9
$PUCSORGBOTTOM
 10
0.0
 20
0.0
 30
0.0
  9
$PUCSORGLEFT
 10
0.0
 20
0.0
 30
0.0
  9
$PUCSORGRIGHT
 10
0.0
 20
0.0
 30
0.0
  9
$PUCSORGFRONT
 10
0.0
 20
0.0
 30
0.0
  9
$PUCSORGBACK
 10
0.0
 20
0.0
 30
0.0
  9
$USERI1
 70
     0
  9
$USERI2
 70
     0
  9
$USERI3
 70
     0
  9
$USERI4
 70
     0
  9
$USERI5
 70
     0
  9
$USERR1
 40
14.0
  9
$USERR2
 40
0.0
  9
$USERR3
 40
0.0
  9
$USERR4
 40
0.0
  9
$USERR5
 40
0.0
  9
$WORLDVIEW
 70
     1
  9
$SHADEDGE
 70
     3
  9
$SHADEDIF
 70
    70
  9
$TILEMODE
 70
     1
  9
$MAXACTVP
 70
    64
  9
$PINSBASE
 10
0.0
 20
0.0
 30
0.0
  9
$PLIMCHECK
 70
     0
  9
$PEXTMIN
 10
1.00000000000000E+20
 20
1.00000000000000E+20
 30
1.00000000000000E+20
  9
$PEXTMAX
 10
-1.00000000000000E+20
 20
-1.00000000000000E+20
 30
-1.00000000000000E+20
  9
$PLIMMIN
 10
0.0
 20
0.0
  9
$PLIMMAX
 10
12.0
 20
9.0
  9
$UNITMODE
 70
     0
  9
$VISRETAIN
 70
     1
  9
$PLINEGEN
 70
     0
  9
$PSLTSCALE
 70
     1
  9
$TREEDEPTH
 70
  3020
  9
$CMLSTYLE
  2
Standard
  9
$CMLJUST
 70
     0
  9
$CMLSCALE
 40
1.0
  9
$PROXYGRAPHICS
 70
     1
  9
$MEASUREMENT
 70
     1
  9
$CELWEIGHT
370
    -1
  9
$ENDCAPS
280
     0
  9
$JOINSTYLE
280
     0
  9
$LWDISPLAY
290
     0
  9
$INSUNITS
 70
     1
  9
$HYPERLINKBASE
  1

  9
$STYLESHEET
  1

  9
$XEDIT
290
     1
  9
$CEPSNTYPE
380
     0
  9
$PSTYLEMODE
290
     1
  9
$FINGERPRINTGUID
  2
{ACFBA0DC-DF46-452A-B3D6-C189421E3302}
  9
$VERSIONGUID
  2
{FAEB1C32-E019-11D5-929B-00C0DF256EC4}
  9
$EXTNAMES
290
     1
  9
$PSVPSCALE
 40
0.0
  9
$OLESTARTUP
290
     0
  0
ENDSEC
  0
SECTION
  2
CLASSES
  0
CLASS
  1
ACDBDICTIONARYWDFLT
  2
AcDbDictionaryWithDefault
  3
ObjectDBX Classes
 90
        0
280
     0
281
     0
  0
CLASS
  1

  2
exOdDbCircle
  3

 90
        0
280
     0
281
     1
  0
CLASS
  1
ACDBPLACEHOLDER
  2
AcDbPlaceHolder
  3
ObjectDBX Classes
 90
        0
280
     0
281
     0
  0
CLASS
  1
LAYOUT
  2
AcDbLayout
  3
ObjectDBX Classes
 90
        0
280
     0
281
     0
  0
ENDSEC
  0
SECTION
  2
TABLES
  0
TABLE
  2
VPORT
  5
8
330
0
100
AcDbSymbolTable
 70
     1
  0
VPORT
  5
29
330
8
100
AcDbSymbolTableRecord
100
AcDbViewportTableRecord
  2
*Active
 70
     0
 10
0.0
 20
0.0
 11
1.0
 21
1.0
 12
1970.0
 22
1328.719233395222
 13
0.0
 23
0.0
 14
0.5
 24
0.5
 15
0.5
 25
0.5
 16
0.0
 26
0.0
 36
1.0
 17
0.0
 27
0.0
 37
0.0
 40
2972.817686530513
 41
1.60267857142857
 42
50.0
 43
0.0
 44
0.0
 50
0.0
 51
0.0
 71
     0
 72
   100
 73
     1
 74
     3
 75
     0
 76
     0
 77
     0
 78
     0
281
     0
 65
     1
110
0.0
120
0.0
130
0.0
111
1.0
121
0.0
131
0.0
112
0.0
122
1.0
132
0.0
 79
     0
146
0.0
  0
ENDTAB
  0
TABLE
  2
LTYPE
  5
5
330
0
100
AcDbSymbolTable
 70
     8
  0
LTYPE
  5
14
330
5
100
AcDbSymbolTableRecord
100
AcDbLinetypeTableRecord
  2
ByBlock
 70
     0
  3

 72
    65
 73
     0
 40
0.0
  0
LTYPE
  5
15
330
5
100
AcDbSymbolTableRecord
100
AcDbLinetypeTableRecord
  2
ByLayer
 70
     0
  3

 72
    65
 73
     0
 40
0.0
  0
LTYPE
  5
16
330
5
100
AcDbSymbolTableRecord
100
AcDbLinetypeTableRecord
  2
Continuous
 70
     0
  3
Solid line
 72
    65
 73
     0
 40
0.0
  0
LTYPE
  5
2A
330
5
100
AcDbSymbolTableRecord
100
AcDbLinetypeTableRecord
  2
DASHED
 70
     0
  3
Dashed
 72
    65
 73
     2
 40
15.0
 49
7.0
 74
     0
 49
-8.0
 74
     0
  0
LTYPE
  5
2B
330
5
100
AcDbSymbolTableRecord
100
AcDbLinetypeTableRecord
  2
DOTTED
 70
     0
  3
Dotted
 72
    65
 73
     2
 40
1.0
 49
0.0
 74
     0
 49
-1.0
 74
     0
  0
LTYPE
  5
2C
330
5
100
AcDbSymbolTableRecord
100
AcDbLinetypeTableRecord
  2
DOT_CENTER
 70
     0
  3
Dot_Center
 72
    65
 73
     4
 40
14.0
 49
12.0
 74
     0
 49
-1.0
 74
     0
 49
0.0
 74
     0
 49
-1.0
 74
     0
  0
LTYPE
  5
2D
330
5
100
AcDbSymbolTableRecord
100
AcDbLinetypeTableRecord
  2
LONG_DASHED
 70
     0
  3
Long_Dashed
 72
    65
 73
     2
 40
15.0
 49
10.0
 74
     0
 49
-5.0
 74
     0
  0
LTYPE
  5
2E
330
5
100
AcDbSymbolTableRecord
100
AcDbLinetypeTableRecord
  2
DASH_CENTER
 70
     0
  3
Dash_Center
 72
    65
 73
     4
 40
14.0
 49
11.0
 74
     0
 49
-1.0
 74
     0
 49
1.0
 74
     0
 49
-1.0
 74
     0
  0
LTYPE
  5
2F
330
5
100
AcDbSymbolTableRecord
100
AcDbLinetypeTableRecord
  2
PHANTOM
 70
     0
  3
Phantom
 72
    65
 73
     6
 40
13.0
 49
10.0
 74
     0
 49
-1.0
 74
     0
 49
0.0
 74
     0
 49
-1.0
 74
     0
 49
0.0
 74
     0
 49
-1.0
 74
     0
  0
LTYPE
  5
30
330
5
100
AcDbSymbolTableRecord
100
AcDbLinetypeTableRecord
  2
CENTER_DASH_DASH
 70
     0
  3
Center_Dash_Dash
 72
    65
 73
     6
 40
14.0
 49
9.0
 74
     0
 49
-1.0
 74
     0
 49
1.0
 74
     0
 49
-1.0
 74
     0
 49
1.0
 74
     0
 49
-1.0
 74
     0
  0
ENDTAB
  0
TABLE
  2
LAYER
  5
2
330
0
100
AcDbSymbolTable
 70
     4
  0
LAYER
  5
10
330
2
100
AcDbSymbolTableRecord
100
AcDbLayerTableRecord
  2
0
 70
     0
 62
     7
  6
Continuous
370
    -3
390
F
  0
LAYER
  5
31
330
2
100
AcDbSymbolTableRecord
100
AcDbLayerTableRecord
  2
1
 70
     0
 62
     7
  6
Continuous
370
    -3
390
F
  0
LAYER
  5
32
330
2
100
AcDbSymbolTableRecord
100
AcDbLayerTableRecord
  2
COLOR
 70
     0
 62
     7
  6
Continuous
370
    -3
390
F
  0
LAYER
  5
33
330
2
100
AcDbSymbolTableRecord
100
AcDbLayerTableRecord
  2
DETAIL
 70
     0
 62
     7
  6
Continuous
370
    -3
390
F
  0
ENDTAB
  0
TABLE
  2
STYLE
  5
3
330
0
100
AcDbSymbolTable
 70
     6
  0
STYLE
  5
11
330
3
100
AcDbSymbolTableRecord
100
AcDbTextStyleTableRecord
  2
Standard
 70
     0
 40
0.0
 41
1.0
 50
0.0
 71
     0
 42
0.2
  3
txt
  4

  0
STYLE
  5
52
330
3
100
AcDbSymbolTableRecord
100
AcDbTextStyleTableRecord
  2
CONVERTER_1
 70
     0
 40
0.0
 41
0.9
 50
0.0
 71
     0
 42
0.2
  3
txt.shx
  4

  0
STYLE
  5
55
330
3
100
AcDbSymbolTableRecord
100
AcDbTextStyleTableRecord
  2
CONVERTER_2
 70
     0
 40
0.0
 41
1.068
 50
0.0
 71
     0
 42
0.2
  3
msmincho.ttc
  4

1001
ACAD
1000
MS Mincho
1071
    32785
  0
STYLE
  5
58
330
3
100
AcDbSymbolTableRecord
100
AcDbTextStyleTableRecord
  2
CONVERTER_3
 70
     0
 40
0.0
 41
0.89
 50
0.0
 71
     0
 42
0.2
  3
MSMINCHO.TTC
  4

1001
ACAD
1000
MS Mincho
1071
    32785
  0
STYLE
  5
5B
330
3
100
AcDbSymbolTableRecord
100
AcDbTextStyleTableRecord
  2
CONVERTER_4
 70
     0
 40
0.0
 41
0.801
 50
0.0
 71
     0
 42
0.2
  3
msmincho.ttc
  4

1001
ACAD
1000
MS Mincho
1071
    32785
  0
STYLE
  5
5F
330
3
100
AcDbSymbolTableRecord
100
AcDbTextStyleTableRecord
  2
CONVERTER_5
 70
     0
 40
0.0
 41
0.9025
 50
0.0
 71
     0
 42
0.2
  3
complex.shx
  4

  0
ENDTAB
  0
TABLE
  2
VIEW
  5
6
330
0
100
AcDbSymbolTable
 70
     0
  0
ENDTAB
  0
TABLE
  2
UCS
  5
7
330
0
100
AcDbSymbolTable
 70
     0
  0
ENDTAB
  0
TABLE
  2
APPID
  5
9
330
0
100
AcDbSymbolTable
 70
     1
  0
APPID
  5
12
330
9
100
AcDbSymbolTableRecord
100
AcDbRegAppTableRecord
  2
ACAD
 70
     0
  0
ENDTAB
  0
TABLE
  2
DIMSTYLE
  5
A
330
0
100
AcDbSymbolTable
 70
    15
100
AcDbDimStyleTable
  0
DIMSTYLE
105
27
330
A
100
AcDbSymbolTableRecord
100
AcDbDimStyleTableRecord
  2
Standard
 70
     0
340
11
  0
DIMSTYLE
105
327
102
{ACAD_REACTORS
330
328
102
}
330
A
100
AcDbSymbolTableRecord
100
AcDbDimStyleTableRecord
  2
ME10_DIM_0
 70
     0
 41
32.0
 42
10.0
 44
10.0
 73
     0
 74
     0
 77
     1
 78
     8
140
32.0
147
10.0
172
     1
173
     1
176
     2
177
     2
178
     2
271
     2
340
58
343
321
344
321
  0
DIMSTYLE
105
336
102
{ACAD_REACTORS
330
337
102
}
330
A
100
AcDbSymbolTableRecord
100
AcDbDimStyleTableRecord
  2
ME10_DIM_1
 70
     0
  3
φ<>
 41
32.0
 42
10.0
 44
10.0
 73
     0
 74
     0
 77
     1
 78
     8
140
32.0
147
10.0
172
     1
173
     1
176
     2
177
     2
178
     2
271
     2
340
58
343
321
344
321
  0
DIMSTYLE
105
343
102
{ACAD_REACTORS
330
344
102
}
330
A
100
AcDbSymbolTableRecord
100
AcDbDimStyleTableRecord
  2
ME10_DIM_2
 70
     0
 41
32.0
 42
10.0
 44
10.0
 73
     0
 74
     0
 77
     1
 78
     8
140
32.0
147
7.0
172
     1
173
     1
176
     2
177
     2
178
     2
271
     2
340
52
343
321
344
321
  0
DIMSTYLE
105
350
102
{ACAD_REACTORS
330
351
102
}
330
A
100
AcDbSymbolTableRecord
100
AcDbDimStyleTableRecord
  2
ME10_DIM_3
 70
     0
 41
32.0
 42
10.0
 44
10.0
 73
     0
 74
     0
 77
     1
 78
     8
140
32.0
147
7.0
172
     1
173
     1
176
     2
177
     2
178
     2
271
     2
340
52
343
321
344
321
  0
DIMSTYLE
105
35F
102
{ACAD_REACTORS
330
360
102
}
330
A
100
AcDbSymbolTableRecord
100
AcDbDimStyleTableRecord
  2
ME10_DIM_4
 70
     0
 41
32.0
 42
10.0
 44
10.0
 73
     0
 74
     0
 77
     1
 78
     8
140
32.0
147
7.0
172
     1
173
     1
176
     2
177
     2
178
     2
271
     2
340
58
343
321
344
321
  0
DIMSTYLE
105
36C
102
{ACAD_REACTORS
330
36D
102
}
330
A
100
AcDbSymbolTableRecord
100
AcDbDimStyleTableRecord
  2
ME10_DIM_5
 70
     0
 41
32.0
 42
10.0
 44
10.0
 73
     0
 74
     0
 77
     1
 78
     8
140
32.0
147
10.0
172
     1
173
     1
176
     2
177
     2
178
     2
271
     0
340
52
343
321
344
321
  0
DIMSTYLE
105
37B
102
{ACAD_REACTORS
330
37C
102
}
330
A
100
AcDbSymbolTableRecord
100
AcDbDimStyleTableRecord
  2
ME10_DIM_6
 70
     0
 41
32.0
 42
10.0
 44
10.0
 73
     0
 74
     0
 77
     1
 78
     8
140
32.0
147
10.0
172
     1
173
     1
176
     2
177
     2
178
     2
271
     0
340
52
343
321
344
321
  0
DIMSTYLE
105
38A
102
{ACAD_REACTORS
330
38B
102
}
330
A
100
AcDbSymbolTableRecord
100
AcDbDimStyleTableRecord
  2
ME10_DIM_7
 70
     0
 41
32.0
 42
10.0
 44
10.0
 73
     0
 74
     0
 77
     1
 78
     8
140
32.0
147
10.0
172
     1
173
     1
176
     2
177
     2
178
     2
271
     0
340
52
343
321
344
321
  0
DIMSTYLE
105
399
102
{ACAD_REACTORS
330
39A
102
}
330
A
100
AcDbSymbolTableRecord
100
AcDbDimStyleTableRecord
  2
ME10_DIM_8
 70
     0
 41
32.0
 42
10.0
 44
10.0
 73
     0
 74
     0
 77
     1
 78
     8
140
32.0
147
10.0
172
     1
173
     1
176
     2
177
     2
178
     2
271
     0
340
52
343
321
344
321
  0
DIMSTYLE
105
3A6
102
{ACAD_REACTORS
330
3A7
102
}
330
A
100
AcDbSymbolTableRecord
100
AcDbDimStyleTableRecord
  2
ME10_DIM_9
 70
     0
 41
32.0
 42
10.0
 44
10.0
 73
     0
 74
     0
 77
     1
 78
     8
140
32.0
147
10.0
172
     1
173
     1
176
     2
177
     2
178
     2
271
     0
340
58
343
321
344
321
  0
DIMSTYLE
105
3B6
102
{ACAD_REACTORS
330
3B7
102
}
330
A
100
AcDbSymbolTableRecord
100
AcDbDimStyleTableRecord
  2
ME10_DIM_10
 70
     0
 41
32.0
 42
10.0
 44
10.0
 73
     0
 74
     0
 77
     1
 78
     8
140
32.0
147
10.0
172
     1
173
     1
176
     2
177
     2
178
     2
271
     2
340
52
343
321
344
321
  0
DIMSTYLE
105
3C6
102
{ACAD_REACTORS
330
3C7
102
}
330
A
100
AcDbSymbolTableRecord
100
AcDbDimStyleTableRecord
  2
ME10_DIM_11
 70
     0
 41
32.0
 42
10.0
 44
10.0
 73
     0
 74
     0
 77
     1
 78
     8
140
32.0
147
10.0
172
     1
173
     1
176
     2
177
     2
178
     2
271
     2
340
52
343
321
344
321
  0
DIMSTYLE
105
3D5
102
{ACAD_REACTORS
330
3D6
102
}
330
A
100
AcDbSymbolTableRecord
100
AcDbDimStyleTableRecord
  2
ME10_DIM_12
 70
     0
  3
　(呼び幅）
 41
32.0
 42
10.0
 44
10.0
 73
     0
 74
     0
 77
     1
 78
     8
140
32.0
147
10.0
172
     1
173
     1
176
     2
177
     2
178
     2
271
     2
340
58
343
321
344
321
  0
DIMSTYLE
105
3EC
102
{ACAD_REACTORS
330
3ED
102
}
330
A
100
AcDbSymbolTableRecord
100
AcDbDimStyleTableRecord
  2
ME10_DIM_13
 70
     0
 41
32.0
 42
10.0
 44
10.0
 73
     0
 74
     0
 77
     1
 78
     8
140
32.0
147
10.0
172
     1
173
     1
176
     2
177
     2
178
     2
271
     2
340
52
343
321
344
321
  0
ENDTAB
  0
TABLE
  2
BLOCK_RECORD
  5
1
330
0
100
AcDbSymbolTable
 70
    18
  0
BLOCK_RECORD
  5
1F
330
1
100
AcDbSymbolTableRecord
100
AcDbBlockTableRecord
  2
*Model_Space
340
22
  0
BLOCK_RECORD
  5
1B
330
1
100
AcDbSymbolTableRecord
100
AcDbBlockTableRecord
  2
*Paper_Space
340
1E
  0
BLOCK_RECORD
  5
23
330
1
100
AcDbSymbolTableRecord
100
AcDbBlockTableRecord
  2
*Paper_Space0
340
26
  0
BLOCK_RECORD
  5
34
330
1
100
AcDbSymbolTableRecord
100
AcDbBlockTableRecord
  2
Zuwaku-A3-web
340
0
102
{BLKREFS
331
37
102
}
  0
BLOCK_RECORD
  5
316
330
1
100
AcDbSymbolTableRecord
100
AcDbBlockTableRecord
  2
*D02
340
0
  0
BLOCK_RECORD
  5
321
330
1
100
AcDbSymbolTableRecord
100
AcDbBlockTableRecord
  2
_Open30
340
0
  0
BLOCK_RECORD
  5
329
330
1
100
AcDbSymbolTableRecord
100
AcDbBlockTableRecord
  2
*D14
340
0
  0
BLOCK_RECORD
  5
338
330
1
100
AcDbSymbolTableRecord
100
AcDbBlockTableRecord
  2
*D25
340
0
  0
BLOCK_RECORD
  5
345
330
1
100
AcDbSymbolTableRecord
100
AcDbBlockTableRecord
  2
*D36
340
0
  0
BLOCK_RECORD
  5
352
330
1
100
AcDbSymbolTableRecord
100
AcDbBlockTableRecord
  2
*D47
340
0
  0
BLOCK_RECORD
  5
361
330
1
100
AcDbSymbolTableRecord
100
AcDbBlockTableRecord
  2
*D58
340
0
  0
BLOCK_RECORD
  5
36E
330
1
100
AcDbSymbolTableRecord
100
AcDbBlockTableRecord
  2
*D69
340
0
  0
BLOCK_RECORD
  5
37D
330
1
100
AcDbSymbolTableRecord
100
AcDbBlockTableRecord
  2
*D710
340
0
  0
BLOCK_RECORD
  5
38C
330
1
100
AcDbSymbolTableRecord
100
AcDbBlockTableRecord
  2
*D811
340
0
  0
BLOCK_RECORD
  5
39B
330
1
100
AcDbSymbolTableRecord
100
AcDbBlockTableRecord
  2
*D912
340
0
  0
BLOCK_RECORD
  5
3A8
330
1
100
AcDbSymbolTableRecord
100
AcDbBlockTableRecord
  2
*D1013
340
0
  0
BLOCK_RECORD
  5
3B8
330
1
100
AcDbSymbolTableRecord
100
AcDbBlockTableRecord
  2
*D1114
340
0
  0
BLOCK_RECORD
  5
3C8
330
1
100
AcDbSymbolTableRecord
100
AcDbBlockTableRecord
  2
*D1215
340
0
  0
BLOCK_RECORD
  5
3D7
330
1
100
AcDbSymbolTableRecord
100
AcDbBlockTableRecord
  2
*D1316
340
0
102
{BLKREFS
331
3DE
102
}
  0
BLOCK_RECORD
  5
3DF
330
1
100
AcDbSymbolTableRecord
100
AcDbBlockTableRecord
  2
*D1417
340
0
  0
ENDTAB
  0
ENDSEC
  0
SECTION
  2
BLOCKS
  0
BLOCK
  5
20
330
1F
100
AcDbEntity
  8
0
100
AcDbBlockBegin
  2
*Model_Space
 70
     0
 71
     0
 10
0.0
 20
0.0
 30
0.0
  3
*Model_Space
  1

  0
ENDBLK
  5
21
330
1F
100
AcDbEntity
  8
0
100
AcDbBlockEnd
  0
BLOCK
  5
1C
330
1B
100
AcDbEntity
 67
     1
  8
0
100
AcDbBlockBegin
  2
*Paper_Space
 70
     0
 71
     0
 10
0.0
 20
0.0
 30
0.0
  3
*Paper_Space
  1

  0
ENDBLK
  5
1D
330
1B
100
AcDbEntity
 67
     1
  8
0
100
AcDbBlockEnd
  0
BLOCK
  5
24
330
23
100
AcDbEntity
  8
0
100
AcDbBlockBegin
  2
*Paper_Space0
 70
     0
 71
     0
 10
0.0
 20
0.0
 30
0.0
  3
*Paper_Space0
  1

  0
ENDBLK
  5
25
330
23
100
AcDbEntity
  8
0
100
AcDbBlockEnd
  0
BLOCK
  5
35
330
34
100
AcDbEntity
  8
0
100
AcDbBlockBegin
  2
Zuwaku-A3-web
 70
     0
 71
     0
 10
196.9999999999998
 20
134.0
 30
0.0
  3
Zuwaku-A3-web
  1

  0
POINT
  5
38
330
34
100
AcDbEntity
  8
1
 62
     3
 60
     1
100
AcDbPoint
 10
162.5
 20
20.0
 30
0.0
  0
POINT
  5
39
330
34
100
AcDbEntity
  8
1
 62
     3
 60
     1
100
AcDbPoint
 10
202.0
 20
15.0
 30
0.0
  0
POINT
  5
3A
330
34
100
AcDbEntity
  8
1
 62
     3
 60
     1
100
AcDbPoint
 10
162.5
 20
15.0
 30
0.0
  0
POINT
  5
3B
330
34
100
AcDbEntity
  8
1
 62
     3
 60
     1
100
AcDbPoint
 10
9.5
 20
12.5
 30
0.0
  0
POINT
  5
3C
330
34
100
AcDbEntity
  8
1
 62
     3
 60
     1
100
AcDbPoint
 10
2.5
 20
12.5
 30
0.0
  0
POINT
  5
3D
330
34
100
AcDbEntity
  8
1
 62
     3
 60
     1
100
AcDbPoint
 10
0.0
 20
0.0
 30
0.0
  0
LINE
  5
3E
330
34
100
AcDbEntity
  8
1
  6
Continuous
 62
     4
100
AcDbLine
 10
189.4945771572093
 20
2.13397584248199
 30
0.0
 11
195.2266254722454
 21
7.866024157518
 31
0.0
  0
LINE
  5
3F
330
34
100
AcDbEntity
  8
1
  6
Continuous
 62
     7
100
AcDbLine
 10
0.0
 20
0.0
 30
0.0
 11
394.0
 21
0.0
 31
0.0
  0
LINE
  5
40
330
34
100
AcDbEntity
  8
1
  6
Continuous
 62
     4
100
AcDbLine
 10
162.5
 20
15.0
 30
0.0
 11
202.0
 21
15.0
 31
0.0
  0
LINE
  5
41
330
34
100
AcDbEntity
  8
1
  6
Continuous
 62
     3
100
AcDbLine
 10
9.5
 20
12.5
 30
0.0
 11
6.0
 21
19.0
 31
0.0
  0
LINE
  5
42
330
34
100
AcDbEntity
  8
1
  6
Continuous
 62
     3
100
AcDbLine
 10
2.5
 20
12.5
 30
0.0
 11
9.5
 21
12.5
 31
0.0
  0
LINE
  5
43
330
34
100
AcDbEntity
  8
1
  6
Continuous
 62
     3
100
AcDbLine
 10
6.0
 20
19.0
 30
0.0
 11
2.5
 21
12.5
 31
0.0
  0
LINE
  5
44
330
34
100
AcDbEntity
  8
1
  6
Continuous
 62
     4
100
AcDbLine
 10
12.0
 20
20.0
 30
0.0
 11
12.0
 21
0.0
 31
0.0
  0
LINE
  5
45
330
34
100
AcDbEntity
  8
1
  6
Continuous
 62
     4
100
AcDbLine
 10
0.0
 20
10.0
 30
0.0
 11
394.0
 21
10.0
 31
0.0
  0
LINE
  5
46
330
34
100
AcDbEntity
  8
1
  6
Continuous
 62
     7
100
AcDbLine
 10
393.9999999999996
 20
268.0
 30
0.0
 11
0.0
 21
268.0
 31
0.0
  0
LINE
  5
47
330
34
100
AcDbEntity
  8
1
  6
Continuous
 62
     7
100
AcDbLine
 10
394.0
 20
0.0
 30
0.0
 11
393.9999999999996
 21
268.0
 31
0.0
  0
LINE
  5
48
330
34
100
AcDbEntity
  8
1
  6
Continuous
 62
     4
100
AcDbLine
 10
202.0
 20
0.0
 30
0.0
 11
202.0
 21
20.0
 31
0.0
  0
LINE
  5
49
330
34
100
AcDbEntity
  8
1
  6
Continuous
 62
     4
100
AcDbLine
 10
162.5
 20
0.0
 30
0.0
 11
162.5
 21
20.0
 31
0.0
  0
LINE
  5
4A
330
34
100
AcDbEntity
  8
1
  6
Continuous
 62
     4
100
AcDbLine
 10
283.0
 20
20.0
 30
0.0
 11
283.0
 21
0.0
 31
0.0
  0
LINE
  5
4B
330
34
100
AcDbEntity
  8
1
  6
Continuous
 62
     4
100
AcDbLine
 10
227.0
 20
20.0
 30
0.0
 11
227.0
 21
0.0
 31
0.0
  0
LINE
  5
4C
330
34
100
AcDbEntity
  8
1
  6
Continuous
 62
     4
100
AcDbLine
 10
170.5
 20
10.0
 30
0.0
 11
170.5
 21
0.0
 31
0.0
  0
LINE
  5
4D
330
34
100
AcDbEntity
  8
1
  6
Continuous
 62
     4
100
AcDbLine
 10
66.0
 20
20.0
 30
0.0
 11
66.0
 21
0.0
 31
0.0
  0
LINE
  5
4E
330
34
100
AcDbEntity
  8
1
  6
Continuous
 62
     7
100
AcDbLine
 10
0.0
 20
268.0
 30
0.0
 11
0.0
 21
0.0
 31
0.0
  0
LINE
  5
4F
330
34
100
AcDbEntity
  8
1
  6
Continuous
 62
     4
100
AcDbLine
 10
173.7445771572093
 20
2.13397584248199
 30
0.0
 11
179.4766254722454
 21
7.866024157518
 31
0.0
  0
LINE
  5
50
330
34
100
AcDbEntity
  8
1
  6
Continuous
 62
     4
100
AcDbLine
 10
394.0
 20
20.0
 30
0.0
 11
0.0
 21
20.0
 31
0.0
  0
LINE
  5
51
330
34
100
AcDbEntity
  8
1
  6
Continuous
 62
     4
100
AcDbLine
 10
295.0
 20
20.0
 30
0.0
 11
295.0
 21
0.0
 31
0.0
  0
MTEXT
  5
53
330
34
100
AcDbEntity
  8
1
 62
     2
100
AcDbMText
 10
180.9766254722454
 20
3.75
 30
0.0
 40
4.0
 41
0.0
 71
     5
 72
     1
  1
10
  7
CONVERTER_1
 73
     1
 44
0.60024009603842
  0
MTEXT
  5
54
330
34
100
AcDbEntity
  8
1
 62
     2
100
AcDbMText
 10
173.183432867907
 20
6.25
 30
0.0
 40
4.0
 41
0.0
 71
     5
 72
     1
  1
1
  7
CONVERTER_1
 73
     1
 44
0.60024009603842
  0
MTEXT
  5
56
330
34
100
AcDbEntity
  8
1
 62
     2
100
AcDbMText
 10
289.0
 20
2.75
 30
0.0
 40
3.5
 41
0.0
 71
     5
 72
     1
  1
番号
  7
CONVERTER_2
 73
     1
 44
0.78031212484994
  0
MTEXT
  5
57
330
34
100
AcDbEntity
  8
1
 62
     2
100
AcDbMText
 10
166.5
 20
2.75
 30
0.0
 40
3.5
 41
0.0
 71
     5
 72
     1
  1
度
  7
CONVERTER_2
 73
     1
 44
0.78031212484994
  0
MTEXT
  5
59
330
34
100
AcDbEntity
  8
1
 62
     2
100
AcDbMText
 10
5.67807803017169
 20
2.75
 30
0.0
 40
3.5
 41
0.0
 71
     5
 72
     1
  1
番号
  7
CONVERTER_3
 73
     1
 44
0.78031212484994
  0
MTEXT
  5
5A
330
34
100
AcDbEntity
  8
1
 62
     7
100
AcDbMText
 10
114.25
 20
15.0
 30
0.0
 40
5.0
 41
0.0
 71
     5
 72
     1
  1
技術情報サービス
  7
CONVERTER_3
 73
     1
 44
1.20048019207683
  0
MTEXT
  5
5C
330
34
100
AcDbEntity
  8
1
 62
     2
100
AcDbMText
 10
214.5
 20
15.0
 30
0.0
 40
4.0
 41
0.0
 71
     5
 72
     1
  1
シリーズ名
  7
CONVERTER_4
 73
     1
 44
1.32052821128451
  0
MTEXT
  5
5D
330
34
100
AcDbEntity
  8
1
 62
     2
100
AcDbMText
 10
214.5
 20
5.0
 30
0.0
 40
4.0
 41
0.0
 71
     5
 72
     1
  1
機　種
  7
CONVERTER_3
 73
     1
 44
1.32052821128451
  0
MTEXT
  5
5E
330
34
100
AcDbEntity
  8
1
 62
     2
100
AcDbMText
 10
189.75
 20
6.5
 30
0.0
 40
4.0
 41
0.0
 71
     5
 72
     1
  1
1
  7
CONVERTER_1
 73
     1
 44
1.32052821128451
  0
MTEXT
  5
60
330
34
100
AcDbEntity
  8
1
 62
     7
100
AcDbMText
 10
114.25
 20
5.0
 30
0.0
 40
4.0
 41
0.0
 71
     5
 72
     1
  1
MARUYASU KIKAI CO.,LTD.
  7
CONVERTER_5
 73
     1
 44
1.32052821128451
  0
MTEXT
  5
61
330
34
100
AcDbEntity
  8
1
 62
     2
100
AcDbMText
 10
6.0
 20
7.25
 30
0.0
 40
3.5
 41
0.0
 71
     5
 72
     1
  1
改訂
  7
CONVERTER_3
 73
     1
 44
0.78031212484994
  0
MTEXT
  5
62
330
34
100
AcDbEntity
  8
1
 62
     2
100
AcDbMText
 10
39.0
 20
5.0
 30
0.0
 40
3.5
 41
0.0
 71
     5
 72
     1
  1
改　 訂　 記　 事
  7
CONVERTER_3
 73
     1
 44
1.32052821128451
  0
MTEXT
  5
63
330
34
100
AcDbEntity
  8
1
 62
     2
100
AcDbMText
 10
166.5
 20
7.25
 30
0.0
 40
3.5
 41
0.0
 71
     5
 72
     1
  1
尺
  7
CONVERTER_2
 73
     1
 44
0.78031212484994
  0
MTEXT
  5
64
330
34
100
AcDbEntity
  8
1
 62
     2
100
AcDbMText
 10
182.25
 20
17.5
 30
0.0
 40
3.5
 41
0.0
 71
     5
 72
     1
  1
年　　月　　日
  7
CONVERTER_3
 73
     1
 44
0.78031212484994
  0
MTEXT
  5
65
330
34
100
AcDbEntity
  8
1
 62
     2
100
AcDbMText
 10
289.0
 20
7.25
 30
0.0
 40
3.5
 41
0.0
 71
     5
 72
     1
  1
図面
  7
CONVERTER_2
 73
     1
 44
0.78031212484994
  0
MTEXT
  5
66
330
34
100
AcDbEntity
  8
1
 62
     2
100
AcDbMText
 10
289.0
 20
15.0
 30
0.0
 40
4.0
 41
0.0
 71
     5
 72
     1
  1
図名
  7
CONVERTER_3
 73
     1
 44
1.32052821128451
  0
MTEXT
  5
67
330
34
100
AcDbEntity
  8
1
 62
     4
100
AcDbMText
 10
393.4565543923691
 20
-0.25615332095569
 30
0.0
 40
2.0
 41
0.0
 71
     3
 72
     1
  1
A3
  7
CONVERTER_1
 73
     1
 44
1.32052821128451
  0
ENDBLK
  5
36
330
34
100
AcDbEntity
  8
0
100
AcDbBlockEnd
  0
BLOCK
  5
31F
330
316
100
AcDbEntity
  8
0
100
AcDbBlockBegin
  2
*D02
 70
     1
 71
     0
 10
0.0
 20
0.0
 30
0.0
  3
*D02
  1

  0
LINE
  5
317
330
316
100
AcDbEntity
  8
1
  6
Continuous
 62
     2
100
AcDbLine
 10
1297.979516994544
 20
965.6383375480734
 30
0.0
 11
1757.979516994543
 21
965.6383375480734
 31
0.0
  0
LINE
  5
318
330
316
100
AcDbEntity
  8
1
  6
Continuous
 62
     2
100
AcDbLine
 10
1757.979516994543
 20
621.688337548072
 30
0.0
 11
1757.979516994543
 21
975.6383375480734
 31
0.0
  0
LINE
  5
319
330
316
100
AcDbEntity
  8
1
  6
Continuous
 62
     2
100
AcDbLine
 10
1297.979516994544
 20
627.688337548072
 30
0.0
 11
1297.979516994544
 21
975.6383375480734
 31
0.0
  0
LINE
  5
31A
330
316
100
AcDbEntity
  8
1
 62
     2
100
AcDbLine
 10
1297.979516994544
 20
965.6383375480734
 30
0.0
 11
1329.979516994544
 21
974.2127117058693
 31
0.0
  0
LINE
  5
31B
330
316
100
AcDbEntity
  8
1
 62
     2
100
AcDbLine
 10
1297.979516994544
 20
965.6383375480734
 30
0.0
 11
1329.979516994544
 21
957.0639633902775
 31
0.0
  0
LINE
  5
31C
330
316
100
AcDbEntity
  8
1
 62
     2
100
AcDbLine
 10
1757.979516994543
 20
965.6383375480734
 30
0.0
 11
1725.979516994543
 21
957.0639633902775
 31
0.0
  0
LINE
  5
31D
330
316
100
AcDbEntity
  8
1
 62
     2
100
AcDbLine
 10
1757.979516994543
 20
965.6383375480734
 30
0.0
 11
1725.979516994543
 21
974.2127117058693
 31
0.0
  0
MTEXT
  5
31E
330
316
100
AcDbEntity
  8
1
 62
     2
100
AcDbMText
 10
1478.868273325846
 20
972.99631926387
 30
0.0
 40
32.0
 41
0.0
 71
     7
 72
     1
  1
機 幅
  7
CONVERTER_3
 11
0.9999999999970621
 21
2.424068405545307E-6
 31
0.0
 73
     1
 44
0.60024009603842
  0
ENDBLK
  5
320
330
316
100
AcDbEntity
  8
0
100
AcDbBlockEnd
  0
BLOCK
  5
322
330
321
100
AcDbEntity
  8
0
100
AcDbBlockBegin
  2
_Open30
 70
     0
 71
     0
 10
0.0
 20
0.0
 30
0.0
  3
_Open30
  1

  0
LINE
  5
324
330
321
100
AcDbEntity
  8
0
  6
ByBlock
 62
     0
370
    -2
100
AcDbLine
 10
-1.0
 20
0.267949
 30
0.0
 11
0.0
 21
0.0
 31
0.0
  0
LINE
  5
325
330
321
100
AcDbEntity
  8
0
  6
ByBlock
 62
     0
370
    -2
100
AcDbLine
 10
0.0
 20
0.0
 30
0.0
 11
-1.0
 21
-0.267949
 31
0.0
  0
LINE
  5
326
330
321
100
AcDbEntity
  8
0
  6
ByBlock
 62
     0
370
    -2
100
AcDbLine
 10
0.0
 20
0.0
 30
0.0
 11
-1.0
 21
0.0
 31
0.0
  0
ENDBLK
  5
323
330
321
100
AcDbEntity
  8
0
100
AcDbBlockEnd
  0
BLOCK
  5
334
330
329
100
AcDbEntity
  8
0
100
AcDbBlockBegin
  2
*D14
 70
     1
 71
     0
 10
0.0
 20
0.0
 30
0.0
  3
*D14
  1

  0
LINE
  5
32A
330
329
100
AcDbEntity
  8
1
  6
Continuous
 62
     2
100
AcDbLine
 10
1652.561500705144
 20
615.4287621688352
 30
0.0
 11
1654.161000939397
 21
551.4487527987153
 31
0.0
  0
LINE
  5
32B
330
329
100
AcDbEntity
  8
1
  6
Continuous
 62
     2
100
AcDbLine
 10
1651.429354445587
 20
660.7146125511233
 30
0.0
 11
1652.561500705144
 21
615.4287621688352
 31
0.0
  0
LINE
  5
32C
330
329
100
AcDbEntity
  8
1
  6
Continuous
 62
     2
100
AcDbLine
 10
1649.829854211334
 20
724.6946219212432
 30
0.0
 11
1651.429354445587
 21
660.7146125511233
 31
0.0
  0
LINE
  5
32D
330
329
100
AcDbEntity
  8
1
  6
Continuous
 62
     2
100
AcDbLine
 10
1714.303240465978
 20
626.4803339321661
 30
0.0
 11
1642.646844513397
 21
665.4966120587542
 31
0.0
  0
LINE
  5
32E
330
329
100
AcDbEntity
  8
1
  6
Continuous
 62
     2
100
AcDbLine
 10
1715.435386725535
 20
581.194483549878
 30
0.0
 11
1643.778990772954
 21
620.2107616764661
 31
0.0
  0
LINE
  5
32F
330
329
100
AcDbEntity
  8
1
 62
     2
100
AcDbLine
 10
1651.429354445587
 20
660.7146125511233
 30
0.0
 11
1642.057908407231
 21
692.4903248381525
 31
0.0
  0
LINE
  5
330
330
329
100
AcDbEntity
  8
1
 62
     2
100
AcDbLine
 10
1651.429354445587
 20
660.7146125511233
 30
0.0
 11
1659.20130024969
 21
692.9189096342141
 31
0.0
  0
LINE
  5
331
330
329
100
AcDbEntity
  8
1
 62
     2
100
AcDbLine
 10
1652.561500705144
 20
615.4287621688352
 30
0.0
 11
1661.9329467435
 21
583.6530498818061
 31
0.0
  0
LINE
  5
332
330
329
100
AcDbEntity
  8
1
 62
     2
100
AcDbLine
 10
1652.561500705144
 20
615.4287621688352
 30
0.0
 11
1644.789554901041
 21
583.2244650857444
 31
0.0
  0
MTEXT
  5
333
330
329
100
AcDbEntity
  8
1
 62
     2
100
AcDbMText
 10
1625.939164546046
 20
607.80855270051
 30
0.0
 40
32.0
 41
0.0
 71
     7
 72
     1
  1
\C2;φ\C2;45.3
  7
CONVERTER_3
 11
-0.02499219116020139
 21
0.9996876464081228
 31
0.0
 73
     1
 44
0.60024009603842
  0
ENDBLK
  5
335
330
329
100
AcDbEntity
  8
0
100
AcDbBlockEnd
  0
BLOCK
  5
341
330
338
100
AcDbEntity
  8
0
100
AcDbBlockBegin
  2
*D25
 70
     1
 71
     0
 10
0.0
 20
0.0
 30
0.0
  3
*D25
  1

  0
LINE
  5
339
330
338
100
AcDbEntity
  8
1
  6
Continuous
 62
     2
100
AcDbLine
 10
844.082330314071
 20
1645.515652269314
 30
0.0
 11
566.9184705606847
 21
1760.320681978841
 31
0.0
  0
LINE
  5
33A
330
338
100
AcDbEntity
  8
1
  6
Continuous
 62
     2
100
AcDbLine
 10
886.1775078742307
 20
1747.142400845555
 30
0.0
 11
840.2554959904201
 21
1636.276856944201
 31
0.0
  0
LINE
  5
33B
330
338
100
AcDbEntity
  8
1
  6
Continuous
 62
     2
100
AcDbLine
 10
609.0136481208447
 20
1861.947430555082
 30
0.0
 11
563.0916362370338
 21
1751.081886653728
 31
0.0
  0
LINE
  5
33C
330
338
100
AcDbEntity
  8
1
 62
     2
100
AcDbLine
 10
844.082330314071
 20
1645.515652269314
 30
0.0
 11
811.2369143406224
 21
1649.839833316519
 31
0.0
  0
LINE
  5
33D
330
338
100
AcDbEntity
  8
1
 62
     2
100
AcDbLine
 10
844.082330314071
 20
1645.515652269314
 30
0.0
 11
817.7994562067997
 21
1665.683210893481
 31
0.0
  0
LINE
  5
33E
330
338
100
AcDbEntity
  8
1
 62
     2
100
AcDbLine
 10
566.9184705606847
 20
1760.320681978841
 30
0.0
 11
599.7638865341332
 21
1755.996500931637
 31
0.0
  0
LINE
  5
33F
330
338
100
AcDbEntity
  8
1
 62
     2
100
AcDbLine
 10
566.9184705606847
 20
1760.320681978841
 30
0.0
 11
593.2013446679559
 21
1740.153123354674
 31
0.0
  0
MTEXT
  5
340
330
338
100
AcDbEntity
  8
1
 62
     2
100
AcDbMText
 10
677.9137125558426
 20
1721.92169278761
 30
0.0
 40
32.0
 41
0.0
 71
     7
 72
     1
  1
300
  7
CONVERTER_1
 11
0.9238795325112866
 21
-0.3826834323650907
 31
0.0
 73
     1
 44
0.60024009603842
  0
ENDBLK
  5
342
330
338
100
AcDbEntity
  8
0
100
AcDbBlockEnd
  0
BLOCK
  5
34E
330
345
100
AcDbEntity
  8
0
100
AcDbBlockBegin
  2
*D36
 70
     1
 71
     0
 10
0.0
 20
0.0
 30
0.0
  3
*D36
  1

  0
LINE
  5
346
330
345
100
AcDbEntity
  8
1
  6
Continuous
 62
     2
100
AcDbLine
 10
500.8015947259108
 20
1917.594252686428
 30
0.0
 11
615.6066244354378
 21
2194.758112439815
 31
0.0
  0
LINE
  5
347
330
345
100
AcDbEntity
  8
1
  6
Continuous
 62
     2
100
AcDbLine
 10
603.6016871193828
 20
1875.013060203846
 30
0.0
 11
491.5627994007979
 21
1921.421087010079
 31
0.0
  0
LINE
  5
348
330
345
100
AcDbEntity
  8
1
  6
Continuous
 62
     2
100
AcDbLine
 10
718.4067168289091
 20
2152.176919957233
 30
0.0
 11
606.3678291103247
 21
2198.584946763466
 31
0.0
  0
LINE
  5
349
330
345
100
AcDbEntity
  8
1
 62
     2
100
AcDbLine
 10
500.8015947259108
 20
1917.594252686428
 30
0.0
 11
505.1257757731108
 21
1950.439668659877
 31
0.0
  0
LINE
  5
34A
330
345
100
AcDbEntity
  8
1
 62
     2
100
AcDbLine
 10
500.8015947259108
 20
1917.594252686428
 30
0.0
 11
520.9691533500738
 21
1943.877126793702
 31
0.0
  0
LINE
  5
34B
330
345
100
AcDbEntity
  8
1
 62
     2
100
AcDbLine
 10
615.6066244354378
 20
2194.758112439815
 30
0.0
 11
611.2824433882378
 21
2161.912696466366
 31
0.0
  0
LINE
  5
34C
330
345
100
AcDbEntity
  8
1
 62
     2
100
AcDbLine
 10
615.6066244354378
 20
2194.758112439815
 30
0.0
 11
595.4390658112748
 21
2168.475238332541
 31
0.0
  0
MTEXT
  5
34D
330
345
100
AcDbEntity
  8
1
 62
     2
100
AcDbMText
 10
532.5030211201297
 20
2012.420147742193
 30
0.0
 40
32.0
 41
0.0
 71
     7
 72
     1
  1
300
  7
CONVERTER_1
 11
0.3826834323650885
 21
0.9238795325112875
 31
0.0
 73
     1
 44
0.60024009603842
  0
ENDBLK
  5
34F
330
345
100
AcDbEntity
  8
0
100
AcDbBlockEnd
  0
BLOCK
  5
35D
330
352
100
AcDbEntity
  8
0
100
AcDbBlockBegin
  2
*D47
 70
     1
 71
     0
 10
0.0
 20
0.0
 30
0.0
  3
*D47
  1

  0
LINE
  5
353
330
352
100
AcDbEntity
  8
1
  6
Continuous
 62
     2
100
AcDbLine
 10
1432.617910953473
 20
1854.865053361754
 30
0.0
 11
1404.311434779456
 21
1797.465197903662
 31
0.0
  0
LINE
  5
354
330
352
100
AcDbEntity
  8
1
  6
Continuous
 62
     2
100
AcDbLine
 10
1464.454727583576
 20
1919.423731085517
 30
0.0
 11
1432.617910953473
 21
1854.865053361754
 31
0.0
  0
LINE
  5
355
330
352
100
AcDbEntity
  8
1
  6
Continuous
 62
     2
100
AcDbLine
 10
1492.761203757592
 20
1976.823586543609
 30
0.0
 11
1464.454727583576
 21
1919.423731085517
 31
0.0
  0
LINE
  5
356
330
352
100
AcDbEntity
  8
1
  6
Continuous
 62
     2
100
AcDbLine
 10
1650.950995653503
 20
1724.607187875137
 30
0.0
 11
1457.539597025753
 21
1926.647370706115
 31
0.0
  0
LINE
  5
357
330
352
100
AcDbEntity
  8
1
  6
Continuous
 62
     2
100
AcDbLine
 10
1619.1141790234
 20
1660.048510151372
 30
0.0
 11
1425.70278039565
 21
1862.088692982351
 31
0.0
  0
LINE
  5
358
330
352
100
AcDbEntity
  8
1
 62
     2
100
AcDbLine
 10
1464.454727583576
 20
1919.423731085517
 30
0.0
 11
1470.917843212752
 21
1951.916007530263
 31
0.0
  0
LINE
  5
359
330
352
100
AcDbEntity
  8
1
 62
     2
100
AcDbLine
 10
1464.454727583576
 20
1919.423731085517
 30
0.0
 11
1486.298088128412
 21
1944.331310098866
 31
0.0
  0
LINE
  5
35A
330
352
100
AcDbEntity
  8
1
 62
     2
100
AcDbLine
 10
1432.617910953473
 20
1854.865053361754
 30
0.0
 11
1426.154795324296
 21
1822.372776917008
 31
0.0
  0
LINE
  5
35B
330
352
100
AcDbEntity
  8
1
 62
     2
100
AcDbLine
 10
1432.617910953473
 20
1854.865053361754
 30
0.0
 11
1410.774550408637
 21
1829.957474348405
 31
0.0
  0
MTEXT
  5
35C
330
352
100
AcDbEntity
  8
1
 62
     2
100
AcDbMText
 10
1317.741834261413
 20
1670.396995135607
 30
0.0
 40
32.0
 41
0.0
 71
     7
 72
     1
  1
相当ローラピッチ
  7
CONVERTER_3
 11
0.4422886902190052
 21
0.8968727415326864
 31
0.0
 73
     1
 44
0.60024009603842
  0
ENDBLK
  5
35E
330
352
100
AcDbEntity
  8
0
100
AcDbBlockEnd
  0
BLOCK
  5
36A
330
361
100
AcDbEntity
  8
0
100
AcDbBlockBegin
  2
*D58
 70
     1
 71
     0
 10
0.0
 20
0.0
 30
0.0
  3
*D58
  1

  0
LINE
  5
362
330
361
100
AcDbEntity
  8
1
  6
Continuous
 62
     2
100
AcDbLine
 10
1877.979516994543
 20
491.6883375480721
 30
0.0
 11
1877.979516994543
 21
611.6883375480721
 31
0.0
  0
LINE
  5
363
330
361
100
AcDbEntity
  8
1
  6
Continuous
 62
     2
100
AcDbLine
 10
1767.979516994542
 20
491.6883375480721
 30
0.0
 11
1887.979516994543
 21
491.6883375480721
 31
0.0
  0
LINE
  5
364
330
361
100
AcDbEntity
  8
1
  6
Continuous
 62
     2
100
AcDbLine
 10
1767.979516994542
 20
611.6883375480721
 30
0.0
 11
1887.979516994543
 21
611.6883375480721
 31
0.0
  0
LINE
  5
365
330
361
100
AcDbEntity
  8
1
 62
     2
100
AcDbLine
 10
1877.979516994543
 20
491.6883375480721
 30
0.0
 11
1869.405142836747
 21
523.6883375480721
 31
0.0
  0
LINE
  5
366
330
361
100
AcDbEntity
  8
1
 62
     2
100
AcDbLine
 10
1877.979516994543
 20
491.6883375480721
 30
0.0
 11
1886.553891152339
 21
523.6883375480721
 31
0.0
  0
LINE
  5
367
330
361
100
AcDbEntity
  8
1
 62
     2
100
AcDbLine
 10
1877.979516994543
 20
611.6883375480721
 30
0.0
 11
1886.553891152339
 21
579.6883375480721
 31
0.0
  0
LINE
  5
368
330
361
100
AcDbEntity
  8
1
 62
     2
100
AcDbLine
 10
1877.979516994543
 20
611.6883375480721
 30
0.0
 11
1869.405142836747
 21
579.6883375480721
 31
0.0
  0
MTEXT
  5
369
330
361
100
AcDbEntity
  8
1
 62
     2
100
AcDbMText
 10
1859.343738564503
 20
520.54299739827
 30
0.0
 40
32.0
 41
0.0
 71
     7
 72
     1
  1
120
  7
CONVERTER_1
 11
0.0
 21
1.0
 31
0.0
 73
     1
 44
0.60024009603842
  0
ENDBLK
  5
36B
330
361
100
AcDbEntity
  8
0
100
AcDbBlockEnd
  0
BLOCK
  5
379
330
36E
100
AcDbEntity
  8
0
100
AcDbBlockBegin
  2
*D69
 70
     1
 71
     0
 10
0.0
 20
0.0
 30
0.0
  3
*D69
  1

  0
LINE
  5
36F
330
36E
100
AcDbEntity
  8
1
  6
Continuous
 62
     2
100
AcDbLine
 10
1877.979516994544
 20
621.6983344245352
 30
0.0
 11
1877.979516994544
 21
685.6983344245352
 31
0.0
  0
LINE
  5
370
330
36E
100
AcDbEntity
  8
1
  6
Continuous
 62
     2
100
AcDbLine
 10
1877.979516994544
 20
611.6883375480722
 30
0.0
 11
1877.979516994544
 21
621.6983344245352
 31
0.0
  0
LINE
  5
371
330
36E
100
AcDbEntity
  8
1
  6
Continuous
 62
     2
100
AcDbLine
 10
1877.979516994544
 20
547.6883375480722
 30
0.0
 11
1877.979516994544
 21
611.6883375480722
 31
0.0
  0
LINE
  5
372
330
36E
100
AcDbEntity
  8
1
  6
Continuous
 62
     2
100
AcDbLine
 10
1767.979516994543
 20
611.6883375480722
 30
0.0
 11
1887.979516994544
 21
611.6883375480722
 31
0.0
  0
LINE
  5
373
330
36E
100
AcDbEntity
  8
1
  6
Continuous
 62
     2
100
AcDbLine
 10
1733.085750398168
 20
621.6983344245352
 30
0.0
 11
1887.979516994544
 21
621.6983344245352
 31
0.0
  0
LINE
  5
374
330
36E
100
AcDbEntity
  8
1
 62
     2
100
AcDbLine
 10
1877.979516994544
 20
611.6883375480722
 30
0.0
 11
1886.55389115234
 21
579.6883375480722
 31
0.0
  0
LINE
  5
375
330
36E
100
AcDbEntity
  8
1
 62
     2
100
AcDbLine
 10
1877.979516994544
 20
611.6883375480722
 30
0.0
 11
1869.405142836748
 21
579.6883375480722
 31
0.0
  0
LINE
  5
376
330
36E
100
AcDbEntity
  8
1
 62
     2
100
AcDbLine
 10
1877.979516994544
 20
621.6983344245352
 30
0.0
 11
1869.405142836748
 21
653.6983344245352
 31
0.0
  0
LINE
  5
377
330
36E
100
AcDbEntity
  8
1
 62
     2
100
AcDbLine
 10
1877.979516994544
 20
621.6983344245352
 30
0.0
 11
1886.55389115234
 21
653.6983344245352
 31
0.0
  0
MTEXT
  5
378
330
36E
100
AcDbEntity
  8
1
 62
     2
100
AcDbMText
 10
1863.632997090634
 20
643.8901639620001
 30
0.0
 40
32.0
 41
0.0
 71
     7
 72
     1
  1
10
  7
CONVERTER_1
 11
0.0
 21
1.0
 31
0.0
 73
     1
 44
0.60024009603842
  0
ENDBLK
  5
37A
330
36E
100
AcDbEntity
  8
0
100
AcDbBlockEnd
  0
BLOCK
  5
388
330
37D
100
AcDbEntity
  8
0
100
AcDbBlockBegin
  2
*D710
 70
     1
 71
     0
 10
0.0
 20
0.0
 30
0.0
  3
*D710
  1

  0
LINE
  5
37E
330
37D
100
AcDbEntity
  8
1
  6
Continuous
 62
     2
100
AcDbLine
 10
1382.979516994543
 20
765.6383375480737
 30
0.0
 11
1446.979516994543
 21
765.6383375480737
 31
0.0
  0
LINE
  5
37F
330
37D
100
AcDbEntity
  8
1
  6
Continuous
 62
     2
100
AcDbLine
 10
1297.979516994543
 20
765.6383375480737
 30
0.0
 11
1382.979516994543
 21
765.6383375480737
 31
0.0
  0
LINE
  5
380
330
37D
100
AcDbEntity
  8
1
  6
Continuous
 62
     2
100
AcDbLine
 10
1233.979516994543
 20
765.6383375480737
 30
0.0
 11
1297.979516994543
 21
765.6383375480737
 31
0.0
  0
LINE
  5
381
330
37D
100
AcDbEntity
  8
1
  6
Continuous
 62
     2
100
AcDbLine
 10
1297.979516994543
 20
627.688337548072
 30
0.0
 11
1297.979516994543
 21
775.6383375480737
 31
0.0
  0
LINE
  5
382
330
37D
100
AcDbEntity
  8
1
  6
Continuous
 62
     2
100
AcDbLine
 10
1382.979516994543
 20
631.6983344245371
 30
0.0
 11
1382.979516994543
 21
775.6383375480737
 31
0.0
  0
LINE
  5
383
330
37D
100
AcDbEntity
  8
1
 62
     2
100
AcDbLine
 10
1297.979516994543
 20
765.6383375480737
 30
0.0
 11
1265.979516994543
 21
757.0639633902778
 31
0.0
  0
LINE
  5
384
330
37D
100
AcDbEntity
  8
1
 62
     2
100
AcDbLine
 10
1297.979516994543
 20
765.6383375480737
 30
0.0
 11
1265.979516994543
 21
774.2127117058695
 31
0.0
  0
LINE
  5
385
330
37D
100
AcDbEntity
  8
1
 62
     2
100
AcDbLine
 10
1382.979516994543
 20
765.6383375480737
 30
0.0
 11
1414.979516994543
 21
774.2127117058695
 31
0.0
  0
LINE
  5
386
330
37D
100
AcDbEntity
  8
1
 62
     2
100
AcDbLine
 10
1382.979516994543
 20
765.6383375480737
 30
0.0
 11
1414.979516994543
 21
757.0639633902778
 31
0.0
  0
MTEXT
  5
387
330
37D
100
AcDbEntity
  8
1
 62
     2
100
AcDbMText
 10
1320.537991875633
 20
778.5861033727401
 30
0.0
 40
32.0
 41
0.0
 71
     7
 72
     1
  1
85
  7
CONVERTER_1
 11
0.9999999999970621
 21
2.424068405545307E-6
 31
0.0
 73
     1
 44
0.60024009603842
  0
ENDBLK
  5
389
330
37D
100
AcDbEntity
  8
0
100
AcDbBlockEnd
  0
BLOCK
  5
397
330
38C
100
AcDbEntity
  8
0
100
AcDbBlockBegin
  2
*D811
 70
     1
 71
     0
 10
0.0
 20
0.0
 30
0.0
  3
*D811
  1

  0
LINE
  5
38D
330
38C
100
AcDbEntity
  8
1
  6
Continuous
 62
     2
100
AcDbLine
 10
1757.979516994541
 20
765.6383375480737
 30
0.0
 11
1824.076244387702
 21
765.6383375480737
 31
0.0
  0
LINE
  5
38E
330
38C
100
AcDbEntity
  8
1
  6
Continuous
 62
     2
100
AcDbLine
 10
1723.085750398167
 20
765.6383375480737
 30
0.0
 11
1757.979516994541
 21
765.6383375480737
 31
0.0
  0
LINE
  5
38F
330
38C
100
AcDbEntity
  8
1
  6
Continuous
 62
     2
100
AcDbLine
 10
1659.085750398167
 20
765.6383375480737
 30
0.0
 11
1723.085750398167
 21
765.6383375480737
 31
0.0
  0
LINE
  5
390
330
38C
100
AcDbEntity
  8
1
  6
Continuous
 62
     2
100
AcDbLine
 10
1723.085750398167
 20
631.698334424535
 30
0.0
 11
1723.085750398167
 21
775.6383375480737
 31
0.0
  0
LINE
  5
391
330
38C
100
AcDbEntity
  8
1
  6
Continuous
 62
     2
100
AcDbLine
 10
1757.979516994541
 20
621.688337548072
 30
0.0
 11
1757.979516994541
 21
775.6383375480737
 31
0.0
  0
LINE
  5
392
330
38C
100
AcDbEntity
  8
1
 62
     2
100
AcDbLine
 10
1723.085750398167
 20
765.6383375480737
 30
0.0
 11
1691.085750398167
 21
757.0639633902778
 31
0.0
  0
LINE
  5
393
330
38C
100
AcDbEntity
  8
1
 62
     2
100
AcDbLine
 10
1723.085750398167
 20
765.6383375480737
 30
0.0
 11
1691.085750398167
 21
774.2127117058695
 31
0.0
  0
LINE
  5
394
330
38C
100
AcDbEntity
  8
1
 62
     2
100
AcDbLine
 10
1757.979516994541
 20
765.6383375480737
 30
0.0
 11
1789.979516994541
 21
774.2127117058695
 31
0.0
  0
LINE
  5
395
330
38C
100
AcDbEntity
  8
1
 62
     2
100
AcDbLine
 10
1757.979516994541
 20
765.6383375480737
 30
0.0
 11
1789.979516994541
 21
757.0639633902778
 31
0.0
  0
MTEXT
  5
396
330
38C
100
AcDbEntity
  8
1
 62
     2
100
AcDbMText
 10
1776.076244387702
 20
779.6917787429102
 30
0.0
 40
32.0
 41
0.0
 71
     7
 72
     1
  1
35
  7
CONVERTER_1
 11
0.9999999999970621
 21
2.424068405545307E-6
 31
0.0
 73
     1
 44
0.60024009603842
  0
ENDBLK
  5
398
330
38C
100
AcDbEntity
  8
0
100
AcDbBlockEnd
  0
BLOCK
  5
3A4
330
39B
100
AcDbEntity
  8
0
100
AcDbBlockBegin
  2
*D912
 70
     1
 71
     0
 10
0.0
 20
0.0
 30
0.0
  3
*D912
  1

  0
LINE
  5
39C
330
39B
100
AcDbEntity
  8
1
  6
Continuous
 62
     2
100
AcDbLine
 10
1382.979516994544
 20
765.6383375480741
 30
0.0
 11
1723.085750398168
 21
765.6383375480741
 31
0.0
  0
LINE
  5
39D
330
39B
100
AcDbEntity
  8
1
  6
Continuous
 62
     2
100
AcDbLine
 10
1723.085750398168
 20
631.6983344245355
 30
0.0
 11
1723.085750398168
 21
775.6383375480741
 31
0.0
  0
LINE
  5
39E
330
39B
100
AcDbEntity
  8
1
  6
Continuous
 62
     2
100
AcDbLine
 10
1382.979516994544
 20
631.6983344245375
 30
0.0
 11
1382.979516994544
 21
775.6383375480741
 31
0.0
  0
LINE
  5
39F
330
39B
100
AcDbEntity
  8
1
 62
     2
100
AcDbLine
 10
1382.979516994544
 20
765.6383375480741
 30
0.0
 11
1414.979516994544
 21
774.21271170587
 31
0.0
  0
LINE
  5
3A0
330
39B
100
AcDbEntity
  8
1
 62
     2
100
AcDbLine
 10
1382.979516994544
 20
765.6383375480741
 30
0.0
 11
1414.979516994544
 21
757.0639633902782
 31
0.0
  0
LINE
  5
3A1
330
39B
100
AcDbEntity
  8
1
 62
     2
100
AcDbLine
 10
1723.085750398168
 20
765.6383375480741
 30
0.0
 11
1691.085750398168
 21
757.0639633902782
 31
0.0
  0
LINE
  5
3A2
330
39B
100
AcDbEntity
  8
1
 62
     2
100
AcDbLine
 10
1723.085750398168
 20
765.6383375480741
 30
0.0
 11
1691.085750398168
 21
774.21271170587
 31
0.0
  0
MTEXT
  5
3A3
330
39B
100
AcDbEntity
  8
1
 62
     2
100
AcDbMText
 10
1491.254855918578
 20
775.6383375480741
 30
0.0
 40
32.0
 41
0.0
 71
     7
 72
     1
  1
ローラ幅
  7
CONVERTER_3
 11
0.9999999999970621
 21
2.424068405545307E-6
 31
0.0
 73
     1
 44
0.60024009603842
  0
ENDBLK
  5
3A5
330
39B
100
AcDbEntity
  8
0
100
AcDbBlockEnd
  0
BLOCK
  5
3B4
330
3A8
100
AcDbEntity
  8
0
100
AcDbBlockBegin
  2
*D1013
 70
     1
 71
     0
 10
0.0
 20
0.0
 30
0.0
  3
*D1013
  1

  0
LINE
  5
3A9
330
3A8
100
AcDbEntity
  8
1
  6
Continuous
 62
     2
100
AcDbLine
 10
1327.979516994543
 20
865.6383375480739
 30
0.0
 11
1391.979516994543
 21
865.6383375480739
 31
0.0
  0
LINE
  5
3AA
330
3A8
100
AcDbEntity
  8
1
  6
Continuous
 62
     2
100
AcDbLine
 10
1297.979516994543
 20
865.6383375480739
 30
0.0
 11
1327.979516994543
 21
865.6383375480739
 31
0.0
  0
LINE
  5
3AB
330
3A8
100
AcDbEntity
  8
1
  6
Continuous
 62
     2
100
AcDbLine
 10
1227.661260780943
 20
865.6383375480739
 30
0.0
 11
1297.979516994543
 21
865.6383375480739
 31
0.0
  0
LINE
  5
3AC
330
3A8
100
AcDbEntity
  8
1
  6
Continuous
 62
     2
100
AcDbLine
 10
1297.979516994543
 20
627.688337548072
 30
0.0
 11
1297.979516994543
 21
875.6383375480739
 31
0.0
  0
LINE
  5
3AD
330
3A8
100
AcDbEntity
  8
1
  6
Continuous
 62
     2
100
AcDbLine
 10
1327.979516994543
 20
615.2883375480731
 30
0.0
 11
1327.979516994543
 21
712.7661259797899
 31
0.0
  0
LINE
  5
3AE
330
3A8
100
AcDbEntity
  8
1
  6
Continuous
 62
     2
100
AcDbLine
 10
1327.979516994543
 20
839.9187935499101
 30
0.0
 11
1327.979516994543
 21
875.6383375480739
 31
0.0
  0
LINE
  5
3AF
330
3A8
100
AcDbEntity
  8
1
 62
     2
100
AcDbLine
 10
1297.979516994543
 20
865.6383375480739
 30
0.0
 11
1265.979516994543
 21
857.063963390278
 31
0.0
  0
LINE
  5
3B0
330
3A8
100
AcDbEntity
  8
1
 62
     2
100
AcDbLine
 10
1297.979516994543
 20
865.6383375480739
 30
0.0
 11
1265.979516994543
 21
874.2127117058698
 31
0.0
  0
LINE
  5
3B1
330
3A8
100
AcDbEntity
  8
1
 62
     2
100
AcDbLine
 10
1327.979516994543
 20
865.6383375480739
 30
0.0
 11
1359.979516994543
 21
874.2127117058698
 31
0.0
  0
LINE
  5
3B2
330
3A8
100
AcDbEntity
  8
1
 62
     2
100
AcDbLine
 10
1327.979516994543
 20
865.6383375480739
 30
0.0
 11
1359.979516994543
 21
857.063963390278
 31
0.0
  0
MTEXT
  5
3B3
330
3A8
100
AcDbEntity
  8
1
 62
     2
100
AcDbMText
 10
1227.661260780943
 20
881.4139127990002
 30
0.0
 40
32.0
 41
0.0
 71
     7
 72
     1
  1
30
  7
CONVERTER_1
 11
0.9999999999970621
 21
2.424068405545307E-6
 31
0.0
 73
     1
 44
0.60024009603842
  0
ENDBLK
  5
3B5
330
3A8
100
AcDbEntity
  8
0
100
AcDbBlockEnd
  0
BLOCK
  5
3C4
330
3B8
100
AcDbEntity
  8
0
100
AcDbBlockBegin
  2
*D1114
 70
     1
 71
     0
 10
0.0
 20
0.0
 30
0.0
  3
*D1114
  1

  0
LINE
  5
3B9
330
3B8
100
AcDbEntity
  8
1
  6
Continuous
 62
     2
100
AcDbLine
 10
1757.979516994543
 20
865.6383375480739
 30
0.0
 11
1821.979516994543
 21
865.6383375480739
 31
0.0
  0
LINE
  5
3BA
330
3B8
100
AcDbEntity
  8
1
  6
Continuous
 62
     2
100
AcDbLine
 10
1727.979516994543
 20
865.6383375480739
 30
0.0
 11
1757.979516994543
 21
865.6383375480739
 31
0.0
  0
LINE
  5
3BB
330
3B8
100
AcDbEntity
  8
1
  6
Continuous
 62
     2
100
AcDbLine
 10
1663.979516994543
 20
865.6383375480739
 30
0.0
 11
1727.979516994543
 21
865.6383375480739
 31
0.0
  0
LINE
  5
3BC
330
3B8
100
AcDbEntity
  8
1
  6
Continuous
 62
     2
100
AcDbLine
 10
1727.979516994543
 20
615.2883375480731
 30
0.0
 11
1727.979516994543
 21
710.92333369617
 31
0.0
  0
LINE
  5
3BD
330
3B8
100
AcDbEntity
  8
1
  6
Continuous
 62
     2
100
AcDbLine
 10
1727.979516994543
 20
836.2332089826605
 30
0.0
 11
1727.979516994543
 21
875.6383375480739
 31
0.0
  0
LINE
  5
3BE
330
3B8
100
AcDbEntity
  8
1
  6
Continuous
 62
     2
100
AcDbLine
 10
1757.979516994543
 20
621.688337548072
 30
0.0
 11
1757.979516994543
 21
875.6383375480739
 31
0.0
  0
LINE
  5
3BF
330
3B8
100
AcDbEntity
  8
1
 62
     2
100
AcDbLine
 10
1727.979516994543
 20
865.6383375480739
 30
0.0
 11
1695.979516994543
 21
857.063963390278
 31
0.0
  0
LINE
  5
3C0
330
3B8
100
AcDbEntity
  8
1
 62
     2
100
AcDbLine
 10
1727.979516994543
 20
865.6383375480739
 30
0.0
 11
1695.979516994543
 21
874.2127117058698
 31
0.0
  0
LINE
  5
3C1
330
3B8
100
AcDbEntity
  8
1
 62
     2
100
AcDbLine
 10
1757.979516994543
 20
865.6383375480739
 30
0.0
 11
1789.979516994543
 21
874.2127117058698
 31
0.0
  0
LINE
  5
3C2
330
3B8
100
AcDbEntity
  8
1
 62
     2
100
AcDbLine
 10
1757.979516994543
 20
865.6383375480739
 30
0.0
 11
1789.979516994543
 21
857.063963390278
 31
0.0
  0
MTEXT
  5
3C3
330
3B8
100
AcDbEntity
  8
1
 62
     2
100
AcDbMText
 10
1773.864893647354
 20
883.62526353935
 30
0.0
 40
32.0
 41
0.0
 71
     7
 72
     1
  1
30
  7
CONVERTER_1
 11
0.9999999999970621
 21
2.424068405545307E-6
 31
0.0
 73
     1
 44
0.60024009603842
  0
ENDBLK
  5
3C5
330
3B8
100
AcDbEntity
  8
0
100
AcDbBlockEnd
  0
BLOCK
  5
3D3
330
3C8
100
AcDbEntity
  8
0
100
AcDbBlockBegin
  2
*D1215
 70
     1
 71
     0
 10
0.0
 20
0.0
 30
0.0
  3
*D1215
  1

  0
LINE
  5
3C9
330
3C8
100
AcDbEntity
  8
1
  6
Continuous
 62
     2
100
AcDbLine
 10
1327.979516994544
 20
865.6383375480741
 30
0.0
 11
1727.979516994544
 21
865.6383375480741
 31
0.0
  0
LINE
  5
3CA
330
3C8
100
AcDbEntity
  8
1
  6
Continuous
 62
     2
100
AcDbLine
 10
1327.979516994544
 20
839.9187935499103
 30
0.0
 11
1327.979516994544
 21
875.6383375480741
 31
0.0
  0
LINE
  5
3CB
330
3C8
100
AcDbEntity
  8
1
  6
Continuous
 62
     2
100
AcDbLine
 10
1327.979516994544
 20
615.2883375480733
 30
0.0
 11
1327.979516994544
 21
712.7661259797901
 31
0.0
  0
LINE
  5
3CC
330
3C8
100
AcDbEntity
  8
1
  6
Continuous
 62
     2
100
AcDbLine
 10
1727.979516994544
 20
836.2332089826607
 30
0.0
 11
1727.979516994544
 21
875.6383375480741
 31
0.0
  0
LINE
  5
3CD
330
3C8
100
AcDbEntity
  8
1
  6
Continuous
 62
     2
100
AcDbLine
 10
1727.979516994544
 20
615.2883375480733
 30
0.0
 11
1727.979516994544
 21
710.9233336961702
 31
0.0
  0
LINE
  5
3CE
330
3C8
100
AcDbEntity
  8
1
 62
     2
100
AcDbLine
 10
1327.979516994544
 20
865.6383375480741
 30
0.0
 11
1359.979516994544
 21
874.21271170587
 31
0.0
  0
LINE
  5
3CF
330
3C8
100
AcDbEntity
  8
1
 62
     2
100
AcDbLine
 10
1327.979516994544
 20
865.6383375480741
 30
0.0
 11
1359.979516994544
 21
857.0639633902782
 31
0.0
  0
LINE
  5
3D0
330
3C8
100
AcDbEntity
  8
1
 62
     2
100
AcDbLine
 10
1727.979516994544
 20
865.6383375480741
 30
0.0
 11
1695.979516994544
 21
857.0639633902782
 31
0.0
  0
LINE
  5
3D1
330
3C8
100
AcDbEntity
  8
1
 62
     2
100
AcDbLine
 10
1727.979516994544
 20
865.6383375480741
 30
0.0
 11
1695.979516994544
 21
874.21271170587
 31
0.0
  0
MTEXT
  5
3D2
330
3C8
100
AcDbEntity
  8
1
 62
     2
100
AcDbMText
 10
1402.379516994544
 20
875.6383375480741
 30
0.0
 40
32.0
 41
0.0
 71
     7
 72
     1
  1
\C2;400\C2;　(呼び幅）
  7
CONVERTER_3
 11
0.9999999999970621
 21
2.424068405545307E-6
 31
0.0
 73
     1
 44
0.60024009603842
  0
ENDBLK
  5
3D4
330
3C8
100
AcDbEntity
  8
0
100
AcDbBlockEnd
  0
BLOCK
  5
3DC
330
3D7
100
AcDbEntity
  8
0
100
AcDbBlockBegin
  2
*D1316
 70
     1
 71
     0
 10
0.0
 20
0.0
 30
0.0
  3
*D1316
  1

  0
LINE
  5
3D8
330
3D7
100
AcDbEntity
  8
1
  6
Continuous
 62
     2
100
AcDbLine
 10
2627.979516994636
 20
1198.847137745974
 30
0.0
 11
1745.054184203783
 21
1373.325952265563
 31
0.0
  0
LINE
  5
3D9
330
3D7
100
AcDbEntity
  8
1
 62
     2
100
AcDbLine
 10
1745.054184203783
 20
1373.325952265563
 30
0.0
 11
1778.109358967791
 21
1375.533963479027
 31
0.0
  0
LINE
  5
3DA
330
3D7
100
AcDbEntity
  8
1
 62
     2
100
AcDbLine
 10
1745.054184203783
 20
1373.325952265563
 30
0.0
 11
1774.78481088268
 21
1358.71055868626
 31
0.0
  0
MTEXT
  5
3DB
330
3D7
100
AcDbEntity
  8
1
 62
     2
100
AcDbMText
 10
2010.676836460359
 20
1335.921288191778
 30
0.0
 40
32.0
 41
0.0
 71
     7
 72
     1
  1
\C2;R\C2;900
  7
CONVERTER_1
 11
0.9810281475453924
 21
-0.1938653494662102
 31
0.0
 73
     1
 44
0.60024009603842
  0
ENDBLK
  5
3DD
330
3D7
100
AcDbEntity
  8
0
100
AcDbBlockEnd
  0
BLOCK
  5
3EA
330
3DF
100
AcDbEntity
  8
0
100
AcDbBlockBegin
  2
*D1417
 70
     1
 71
     0
 10
0.0
 20
0.0
 30
0.0
  3
*D1417
  1

  0
LINE
  5
3E0
330
3DF
100
AcDbEntity
  8
1
  6
Continuous
 62
     2
100
AcDbLine
 10
2275.1407699691
 20
1198.847137745969
 30
0.0
 11
2246.255604654508
 21
1198.847137745969
 31
0.0
  0
LINE
  5
3E1
330
3DF
100
AcDbEntity
  8
1
  6
Continuous
 62
     2
100
AcDbLine
 10
2405.684584906926
 20
1421.142069833602
 30
0.0
 11
2358.059950037849
 21
1468.766704702679
 31
0.0
  0
LINE
  5
3E2
330
3DF
100
AcDbEntity
  8
1
  6
Continuous
 62
     2
100
AcDbLine
 10
2246.255604654508
 20
1198.847137745969
 30
0.0
 11
2236.255604654508
 21
1198.847137745969
 31
0.0
  0
LINE
  5
3E3
330
3DF
100
AcDbEntity
  8
1
  6
Continuous
 62
     2
100
AcDbLine
 10
2358.059950037849
 20
1468.766704702679
 30
0.0
 11
2350.988882225984
 21
1475.837772514544
 31
0.0
  0
ARC
  5
3E4
330
3DF
100
AcDbEntity
  8
1
  6
Continuous
 62
     2
100
AcDbCircle
 10
2627.97951699456
 20
1198.847137745969
 30
0.0
 40
381.7239123400522
100
AcDbArc
 50
135.0000000000001
 51
180.0
  0
LINE
  5
3E5
330
3DF
100
AcDbEntity
  8
1
 62
     2
100
AcDbLine
 10
2358.059950037849
 20
1468.766704702679
 30
0.0
 11
2342.712289667796
 21
1439.407392494056
 31
0.0
  0
LINE
  5
3E6
330
3DF
100
AcDbEntity
  8
1
 62
     2
100
AcDbLine
 10
2358.059950037849
 20
1468.766704702679
 30
0.0
 11
2330.088830164416
 21
1451.0146246774
 31
0.0
  0
LINE
  5
3E7
330
3DF
100
AcDbEntity
  8
1
 62
     2
100
AcDbLine
 10
2246.255604654508
 20
1198.847137745969
 30
0.0
 11
2239.02965228065
 21
1231.178322451894
 31
0.0
  0
LINE
  5
3E8
330
3DF
100
AcDbEntity
  8
1
 62
     2
100
AcDbLine
 10
2246.255604654508
 20
1198.847137745969
 30
0.0
 11
2256.163338685173
 21
1230.459741222676
 31
0.0
  0
MTEXT
  5
3E9
330
3DF
100
AcDbEntity
  8
1
 62
     2
100
AcDbMText
 10
2254.846353642637
 20
1334.869067575476
 30
0.0
 40
32.0
 41
0.0
 71
     7
 72
     1
  1
45{\Fgdt;~}
  7
CONVERTER_1
 11
0.4244153750316755
 21
0.9054676081653736
 31
0.0
 73
     1
 44
0.60024009603842
  0
ENDBLK
  5
3EB
330
3DF
100
AcDbEntity
  8
0
100
AcDbBlockEnd
  0
ENDSEC
  0
SECTION
  2
ENTITIES
  0
INSERT
  5
37
330
1F
100
AcDbEntity
  8
0
100
AcDbBlockReference
  2
Zuwaku-A3-web
 10
1969.999999999998
 20
1340.0
 30
0.0
 41
10.0
 42
10.0
 43
10.0
  0
POINT
  5
68
330
1F
100
AcDbEntity
  8
1
 62
     3
 60
     1
100
AcDbPoint
 10
1527.97951699454
 20
1198.847137745974
 30
0.0
  0
POINT
  5
69
330
1F
100
AcDbEntity
  8
1
 62
     3
 60
     1
100
AcDbPoint
 10
1626.029309581222
 20
1652.824870530774
 30
0.0
  0
POINT
  5
6A
330
1F
100
AcDbEntity
  8
1
 62
     3
 60
     1
100
AcDbPoint
 10
2627.979516994636
 20
1198.847137745974
 30
0.0
  0
POINT
  5
6B
330
1F
100
AcDbEntity
  8
1
 62
     3
 60
     1
100
AcDbPoint
 10
1463.27418624356
 20
1843.642711955155
 30
0.0
  0
POINT
  5
6C
330
1F
100
AcDbEntity
  8
1
 62
     3
 60
     1
100
AcDbPoint
 10
1348.46915653401
 20
1566.478852201776
 30
0.0
  0
POINT
  5
6D
330
1F
100
AcDbEntity
  8
1
 62
     3
 60
     1
100
AcDbPoint
 10
1464.462033924827
 20
1843.150689335542
 30
0.0
  0
POINT
  5
6E
330
1F
100
AcDbEntity
  8
1
 62
     3
 60
     1
100
AcDbPoint
 10
1349.657004215303
 20
1565.98682958215
 30
0.0
  0
LINE
  5
6F
330
1F
100
AcDbEntity
  8
1
  6
DASH_CENTER
 62
     3
100
AcDbLine
 10
932.5920023902504
 20
1976.787569835696
 30
0.0
 11
844.6671805798384
 21
1764.518272551762
 31
0.0
  0
LINE
  5
70
330
1F
100
AcDbEntity
  8
1
  6
Continuous
 62
     7
100
AcDbLine
 10
852.5518559424437
 20
1764.317778520216
 30
0.0
 11
838.9501024741923
 21
1769.951809278821
 31
0.0
  0
LINE
  5
71
330
1F
100
AcDbEntity
  8
1
  6
Continuous
 62
     7
100
AcDbLine
 10
852.9636810576239
 20
1771.723940374229
 30
0.0
 11
850.5754262282688
 21
1765.958183174797
 31
0.0
  0
LINE
  5
72
330
1F
100
AcDbEntity
  8
1
  6
Continuous
 62
     7
100
AcDbLine
 10
843.895845412123
 20
1775.479960879966
 30
0.0
 11
841.5075905827679
 21
1769.714203680534
 31
0.0
  0
LINE
  5
73
330
1F
100
AcDbEntity
  8
1
  6
Continuous
 62
     7
100
AcDbLine
 10
857.4975988803744
 20
1769.845930121361
 30
0.0
 11
855.1093440510193
 21
1764.080172921929
 31
0.0
  0
LINE
  5
74
330
1F
100
AcDbEntity
  8
1
  6
Continuous
 62
     7
100
AcDbLine
 10
836.9736727600174
 20
1771.592213933402
 30
0.0
 11
839.3619275893725
 21
1777.357971132834
 31
0.0
  0
LINE
  5
75
330
1F
100
AcDbEntity
  8
1
  6
Continuous
 62
     4
100
AcDbLine
 10
1358.125364726914
 20
1959.025032694594
 30
0.0
 11
1409.605938467496
 21
1928.207009926408
 31
0.0
  0
LINE
  5
76
330
1F
100
AcDbEntity
  8
1
  6
Continuous
 62
     4
100
AcDbLine
 10
1539.782672415247
 20
2063.675229014725
 30
0.0
 11
1516.296409582599
 21
2082.340583502538
 31
0.0
  0
LINE
  5
77
330
1F
100
AcDbEntity
  8
1
  6
Continuous
 62
     4
100
AcDbLine
 10
1445.837621084654
 20
2138.336646965981
 30
0.0
 11
1469.323883917302
 21
2119.671292478168
 31
0.0
  0
LINE
  5
78
330
1F
100
AcDbEntity
  8
1
  6
Continuous
 62
     4
100
AcDbLine
 10
1584.207737540917
 20
2205.346254693481
 30
0.0
 11
1539.782672415247
 21
2063.675229014725
 31
0.0
  0
LINE
  5
79
330
1F
100
AcDbEntity
  8
1
  6
Continuous
 62
     4
100
AcDbLine
 10
1584.207737540917
 20
2205.346254693481
 30
0.0
 11
1445.837621084654
 21
2138.336646965981
 31
0.0
  0
LINE
  5
7A
330
1F
100
AcDbEntity
  8
1
  6
DASH_CENTER
 62
     3
100
AcDbLine
 10
1370.48439590769
 20
1470.952648523095
 30
0.0
 11
1402.904041609768
 21
1591.944413446636
 31
0.0
  0
LINE
  5
7B
330
1F
100
AcDbEntity
  8
1
  6
Continuous
 62
     7
100
AcDbLine
 10
1741.977259661067
 20
2084.849395079462
 30
0.0
 11
1691.069702764798
 21
2135.756951975733
 31
0.0
  0
LINE
  5
7C
330
1F
100
AcDbEntity
  8
1
  6
Continuous
 62
     3
100
AcDbLine
 10
1744.09604051129
 20
2082.730614229242
 30
0.0
 11
1741.977249567665
 21
2084.849405172867
 31
0.0
  0
LINE
  5
7D
330
1F
100
AcDbEntity
  8
1
  6
Continuous
 62
     7
100
AcDbLine
 10
1356.120144633392
 20
1587.786383562874
 30
0.0
 11
1348.46915653401
 21
1566.478852201776
 31
0.0
  0
LINE
  5
7E
330
1F
100
AcDbEntity
  8
1
  6
Continuous
 62
     7
100
AcDbLine
 10
1463.27418624356
 20
1843.642711955155
 30
0.0
 11
1453.617551895864
 21
1823.165946472025
 31
0.0
  0
LINE
  5
7F
330
1F
100
AcDbEntity
  8
1
  6
Continuous
 62
     7
100
AcDbLine
 10
1810.795745951454
 20
1497.443327178241
 30
0.0
 11
1960.795745951455
 21
1757.250948313572
 31
0.0
  0
LINE
  5
80
330
1F
100
AcDbEntity
  8
1
  6
Continuous
 62
     7
100
AcDbLine
 10
1731.179516994542
 20
605.245476277181
 30
0.0
 11
1740.130424769425
 21
605.4692489715511
 31
0.0
  0
LINE
  5
81
330
1F
100
AcDbEntity
  8
1
  6
DASH_CENTER
 62
     3
100
AcDbLine
 10
2412.755652718792
 20
1414.071002021737
 30
0.0
 11
2664.647846005547
 21
1162.178808734982
 31
0.0
  0
LINE
  5
82
330
1F
100
AcDbEntity
  8
1
  6
Continuous
 62
     7
100
AcDbLine
 10
1727.979516994636
 20
1198.847137745968
 30
0.0
 11
1752.993802825542
 21
1198.847137745969
 31
0.0
  0
LINE
  5
83
330
1F
100
AcDbEntity
  8
1
  6
DASH_CENTER
 62
     3
100
AcDbLine
 10
1383.273788434041
 20
1714.421131679247
 30
0.0
 11
1921.354883992614
 21
1491.540644242316
 31
0.0
  0
LINE
  5
84
330
1F
100
AcDbEntity
  8
1
  6
DASH_CENTER
 62
     3
100
AcDbLine
 10
2683.283162262803
 20
1198.847137745969
 30
0.0
 11
2285.1407699691
 21
1198.847137745969
 31
0.0
  0
LINE
  5
85
330
1F
100
AcDbEntity
  8
1
  6
Continuous
 62
     4
100
AcDbLine
 10
1127.759563248857
 20
1370.42828584565
 30
0.0
 11
1178.219062879868
 21
1225.202890157083
 31
0.0
  0
LINE
  5
86
330
1F
100
AcDbEntity
  8
1
  6
Continuous
 62
     4
100
AcDbLine
 10
1246.982341029972
 20
1356.79269791719
 30
0.0
 11
1178.219062879868
 21
1225.202890157083
 31
0.0
  0
LINE
  5
87
330
1F
100
AcDbEntity
  8
1
  6
Continuous
 62
     4
100
AcDbLine
 10
1157.565257694135
 20
1367.019388863535
 30
0.0
 11
1127.759563248857
 21
1370.42828584565
 31
0.0
  0
LINE
  5
88
330
1F
100
AcDbEntity
  8
1
  6
Continuous
 62
     4
100
AcDbLine
 10
1217.176646584694
 20
1360.201594899306
 30
0.0
 11
1246.982341029972
 21
1356.79269791719
 31
0.0
  0
LINE
  5
89
330
1F
100
AcDbEntity
  8
1
  6
Continuous
 62
     4
100
AcDbLine
 10
1250.723986055439
 20
1544.632045596975
 30
0.0
 11
1192.530090381955
 21
1559.242675506177
 31
0.0
  0
LINE
  5
8A
330
1F
100
AcDbEntity
  8
1
  6
Continuous
 62
     3
100
AcDbLine
 10
1407.614666591699
 20
407.550880182733
 30
0.0
 11
1677.894666591697
 21
407.550880182733
 31
0.0
  0
LINE
  5
8B
330
1F
100
AcDbEntity
  8
1
  6
Continuous
 62
     2
100
AcDbLine
 10
3236.24084395017
 20
458.4303246295681
 30
0.0
 11
3741.450843950171
 21
458.4303246295681
 31
0.0
  0
LINE
  5
8C
330
1F
100
AcDbEntity
  8
1
  6
Continuous
 62
     7
100
AcDbLine
 10
1327.979516994544
 20
515.588337548072
 30
0.0
 11
1727.979516994544
 21
515.588337548072
 31
0.0
  0
LINE
  5
8D
330
1F
100
AcDbEntity
  8
1
  6
DASH_CENTER
 62
     3
100
AcDbLine
 10
1745.007429299203
 20
508.6883375480721
 30
0.0
 11
1314.122659158102
 21
508.6883375480721
 31
0.0
  0
LINE
  5
8E
330
1F
100
AcDbEntity
  8
1
  6
Continuous
 62
     7
100
AcDbLine
 10
1727.979516994544
 20
501.788337548075
 30
0.0
 11
1327.979516994544
 21
501.788337548075
 31
0.0
  0
LINE
  5
8F
330
1F
100
AcDbEntity
  8
1
  6
Continuous
 62
     7
100
AcDbLine
 10
1723.864257152808
 20
590.558064238924
 30
0.0
 11
1727.463132679876
 21
590.6480361271
 31
0.0
  0
LINE
  5
90
330
1F
100
AcDbEntity
  8
1
  6
DASH_CENTER
 62
     3
100
AcDbLine
 10
1311.039475220849
 20
588.7401005257151
 30
0.0
 11
1744.903913761973
 21
599.586711489242
 31
0.0
  0
LINE
  5
91
330
1F
100
AcDbEntity
  8
1
  6
DASH_CENTER
 62
     3
100
AcDbLine
 10
1527.979516994541
 20
481.6883375480721
 30
0.0
 11
1527.979516994541
 21
631.688337548072
 31
0.0
  0
LINE
  5
92
330
1F
100
AcDbEntity
  8
1
  6
Continuous
 62
     7
100
AcDbLine
 10
1727.979516994543
 20
498.088337548072
 30
0.0
 11
1727.979516994543
 21
605.2883375480732
 31
0.0
  0
LINE
  5
93
330
1F
100
AcDbEntity
  8
1
  6
Continuous
 62
     7
100
AcDbLine
 10
1327.979516994544
 20
605.2883375480732
 30
0.0
 11
1327.979516994544
 21
498.088337548072
 31
0.0
  0
LINE
  5
94
330
1F
100
AcDbEntity
  8
1
  6
Continuous
 62
     7
100
AcDbLine
 10
1740.430331063348
 20
593.472997214655
 30
0.0
 11
1740.130424769425
 21
605.4692489715511
 31
0.0
  0
LINE
  5
95
330
1F
100
AcDbEntity
  8
1
  6
Continuous
 62
     7
100
AcDbLine
 10
1321.579516994542
 20
608.4883375480731
 30
0.0
 11
1297.979516994544
 21
608.4883375480731
 31
0.0
  0
LINE
  5
96
330
1F
100
AcDbEntity
  8
1
  6
Continuous
 62
     7
100
AcDbLine
 10
1324.779516994543
 20
498.088337548072
 30
0.0
 11
1324.779516994543
 21
605.2883375480732
 31
0.0
  0
LINE
  5
97
330
1F
100
AcDbEntity
  8
1
  6
Continuous
 62
     7
100
AcDbLine
 10
1297.979516994544
 20
494.8883375480722
 30
0.0
 11
1321.579516994542
 21
494.8883375480722
 31
0.0
  0
LINE
  5
98
330
1F
100
AcDbEntity
  8
1
  6
Continuous
 62
     7
100
AcDbLine
 10
1297.979516994544
 20
491.6883375480721
 30
0.0
 11
1297.979516994544
 21
494.8883375480722
 31
0.0
  0
LINE
  5
99
330
1F
100
AcDbEntity
  8
1
  6
Continuous
 62
     7
100
AcDbLine
 10
1321.579516994542
 20
491.6883375480721
 30
0.0
 11
1297.979516994544
 21
491.6883375480721
 31
0.0
  0
LINE
  5
9A
330
1F
100
AcDbEntity
  8
1
  6
Continuous
 62
     7
100
AcDbLine
 10
1297.979516994544
 20
611.688337548072
 30
0.0
 11
1330.979516994544
 21
611.688337548072
 31
0.0
  0
LINE
  5
9B
330
1F
100
AcDbEntity
  8
1
  6
Continuous
 62
     7
100
AcDbLine
 10
1297.979516994544
 20
608.4883375480731
 30
0.0
 11
1297.979516994544
 21
617.688337548072
 31
0.0
  0
LINE
  5
9C
330
1F
100
AcDbEntity
  8
1
  6
Continuous
 62
     7
100
AcDbLine
 10
1757.979516994543
 20
494.8883375480722
 30
0.0
 11
1757.979516994543
 21
491.6883375480721
 31
0.0
  0
LINE
  5
9D
330
1F
100
AcDbEntity
  8
1
  6
Continuous
 62
     7
100
AcDbLine
 10
1734.379516994542
 20
494.8883375480722
 30
0.0
 11
1757.979516994543
 21
494.8883375480722
 31
0.0
  0
LINE
  5
9E
330
1F
100
AcDbEntity
  8
1
  6
Continuous
 62
     7
100
AcDbLine
 10
1731.179516994542
 20
605.2883375480732
 30
0.0
 11
1731.179516994542
 21
498.088337548072
 31
0.0
  0
LINE
  5
9F
330
1F
100
AcDbEntity
  8
1
  6
Continuous
 62
     7
100
AcDbLine
 10
1757.979516994543
 20
608.4883375480731
 30
0.0
 11
1734.379516994542
 21
608.4883375480731
 31
0.0
  0
LINE
  5
A0
330
1F
100
AcDbEntity
  8
1
  6
Continuous
 62
     7
100
AcDbLine
 10
1757.979516994543
 20
611.688337548072
 30
0.0
 11
1757.979516994543
 21
608.4883375480731
 31
0.0
  0
LINE
  5
A1
330
1F
100
AcDbEntity
  8
1
  6
Continuous
 62
     7
100
AcDbLine
 10
1734.379516994542
 20
611.688337548072
 30
0.0
 11
1757.979516994543
 21
611.688337548072
 31
0.0
  0
LINE
  5
A2
330
1F
100
AcDbEntity
  8
1
  6
Continuous
 62
     7
100
AcDbLine
 10
1757.979516994543
 20
491.6883375480721
 30
0.0
 11
1734.379516994542
 21
491.6883375480721
 31
0.0
  0
LINE
  5
A3
330
1F
100
AcDbEntity
  8
1
  6
Continuous
 62
     7
100
AcDbLine
 10
1323.93446584707
 20
597.5651311264611
 30
0.0
 11
1324.359333096792
 21
580.5704411375222
 31
0.0
  0
LINE
  5
A4
330
1F
100
AcDbEntity
  8
1
  6
Continuous
 62
     7
100
AcDbLine
 10
1324.359333096792
 20
580.5704411375222
 30
0.0
 11
1322.75983286254
 21
580.530453631667
 31
0.0
  0
LINE
  5
A5
330
1F
100
AcDbEntity
  8
1
  6
Continuous
 62
     7
100
AcDbLine
 10
1322.334965612816
 20
597.525143620605
 30
0.0
 11
1323.93446584707
 21
597.5651311264611
 31
0.0
  0
LINE
  5
A6
330
1F
100
AcDbEntity
  8
1
  6
Continuous
 62
     7
100
AcDbLine
 10
1316.442224552869
 20
596.383067877582
 30
0.0
 11
1322.359819009856
 21
596.531007739006
 31
0.0
  0
LINE
  5
A7
330
1F
100
AcDbEntity
  8
1
  6
Continuous
 62
     7
100
AcDbLine
 10
1322.734979465502
 20
581.5245895132651
 30
0.0
 11
1316.817385008515
 21
581.37664965184
 31
0.0
  0
LINE
  5
A8
330
1F
100
AcDbEntity
  8
1
  6
Continuous
 62
     7
100
AcDbLine
 10
1322.453609123766
 20
592.77940318257
 30
0.0
 11
1316.53601466678
 21
592.631463321146
 31
0.0
  0
LINE
  5
A9
330
1F
100
AcDbEntity
  8
1
  6
Continuous
 62
     7
100
AcDbLine
 10
1322.641189351589
 20
585.2761940696991
 30
0.0
 11
1316.723594894603
 21
585.128254208276
 31
0.0
  0
LINE
  5
AA
330
1F
100
AcDbEntity
  8
1
  6
Continuous
 62
     7
100
AcDbLine
 10
1316.190114706892
 20
583.237942548942
 30
0.0
 11
1315.908744365159
 21
594.4927562182471
 31
0.0
  0
LINE
  5
AB
330
1F
100
AcDbEntity
  8
1
  6
Continuous
 62
     7
100
AcDbLine
 10
1297.979516994544
 20
617.688337548072
 30
0.0
 11
1377.979516994543
 21
617.688337548072
 31
0.0
  0
LINE
  5
AC
330
1F
100
AcDbEntity
  8
1
  6
Continuous
 62
     7
100
AcDbLine
 10
1330.979516994544
 20
617.688337548072
 30
0.0
 11
1330.979516994544
 21
611.688337548072
 31
0.0
  0
LINE
  5
AD
330
1F
100
AcDbEntity
  8
1
  6
Continuous
 62
     7
100
AcDbLine
 10
1321.979516994544
 20
619.9883375480731
 30
0.0
 11
1321.979516994544
 21
617.688337548072
 31
0.0
  0
LINE
  5
AE
330
1F
100
AcDbEntity
  8
1
  6
Continuous
 62
     7
100
AcDbLine
 10
1377.979516994543
 20
619.9883375480731
 30
0.0
 11
1377.979516994543
 21
617.688337548072
 31
0.0
  0
LINE
  5
AF
330
1F
100
AcDbEntity
  8
1
  6
Continuous
 62
     7
100
AcDbLine
 10
1377.979516994543
 20
619.9883375480731
 30
0.0
 11
1321.979516994544
 21
619.9883375480731
 31
0.0
  0
LINE
  5
B0
330
1F
100
AcDbEntity
  8
1
  6
Continuous
 62
     7
100
AcDbLine
 10
1327.979516994544
 20
550.588337548072
 30
0.0
 11
1727.979516994544
 21
550.588337548072
 31
0.0
  0
LINE
  5
B1
330
1F
100
AcDbEntity
  8
1
  6
DASH_CENTER
 62
     3
100
AcDbLine
 10
1745.007429299203
 20
543.6883375480721
 30
0.0
 11
1314.122659158102
 21
543.6883375480721
 31
0.0
  0
LINE
  5
B2
330
1F
100
AcDbEntity
  8
1
  6
Continuous
 62
     7
100
AcDbLine
 10
1727.979516994544
 20
536.7883375480732
 30
0.0
 11
1327.979516994544
 21
536.7883375480732
 31
0.0
  0
LINE
  5
B3
330
1F
100
AcDbEntity
  8
1
  6
Continuous
 62
     7
100
AcDbLine
 10
1740.430331063348
 20
593.472997214655
 30
0.0
 11
1731.179516994542
 21
593.241726862935
 31
0.0
  0
LINE
  5
B4
330
1F
100
AcDbEntity
  8
1
  6
Continuous
 62
     7
100
AcDbLine
 10
1727.463132679876
 20
590.6480361271
 30
0.0
 11
1727.038265430152
 21
607.642726116038
 31
0.0
  0
LINE
  5
B5
330
1F
100
AcDbEntity
  8
1
  6
Continuous
 62
     7
100
AcDbLine
 10
1327.991698003867
 20
580.5112033925221
 30
0.0
 11
1338.988262114353
 21
580.786117495284
 31
0.0
  0
LINE
  5
B6
330
1F
100
AcDbEntity
  8
1
  6
Continuous
 62
     7
100
AcDbLine
 10
1327.559333096795
 20
597.8057996753831
 30
0.0
 11
1338.555897207282
 21
598.080713778145
 31
0.0
  0
LINE
  5
B7
330
1F
100
AcDbEntity
  8
1
  6
Continuous
 62
     7
100
AcDbLine
 10
1727.038265430152
 20
607.642726116038
 30
0.0
 11
1723.439389903084
 21
607.552754227862
 31
0.0
  0
LINE
  5
B8
330
1F
100
AcDbEntity
  8
1
  6
Continuous
 62
     7
100
AcDbLine
 10
1322.75983286254
 20
580.530453631667
 30
0.0
 11
1322.334965612816
 21
597.525143620605
 31
0.0
  0
LINE
  5
B9
330
1F
100
AcDbEntity
  8
1
  6
Continuous
 62
     7
100
AcDbLine
 10
1327.991698003867
 20
580.5112033925221
 30
0.0
 11
1327.559333096795
 21
597.8057996753831
 31
0.0
  0
LINE
  5
BA
330
1F
100
AcDbEntity
  8
1
  6
DASH_CENTER
 62
     3
100
AcDbLine
 10
1310.479516994544
 20
625.6188504173001
 30
0.0
 11
1310.479516994544
 21
599.498850417301
 31
0.0
  0
LINE
  5
BB
330
1F
100
AcDbEntity
  8
1
  6
DASH_CENTER
 62
     3
100
AcDbLine
 10
1416.759337194188
 20
1632.760798048208
 30
0.0
 11
1464.694222698528
 21
1748.485848743586
 31
0.0
  0
LINE
  5
BC
330
1F
100
AcDbEntity
  8
1
  6
DASH_CENTER
 62
     3
100
AcDbLine
 10
1452.762650479173
 20
1663.124780535743
 30
0.0
 11
1412.982969096463
 21
1545.937618071184
 31
0.0
  0
LINE
  5
BD
330
1F
100
AcDbEntity
  8
1
  6
DASH_CENTER
 62
     3
100
AcDbLine
 10
1468.68183174675
 20
1701.557083853824
 30
0.0
 11
1523.417186534295
 21
1812.549403559676
 31
0.0
  0
LINE
  5
BE
330
1F
100
AcDbEntity
  8
1
  6
DASH_CENTER
 62
     3
100
AcDbLine
 10
1483.758591570733
 20
1787.144564541959
 30
0.0
 11
1546.388537696292
 21
1895.62281330673
 31
0.0
  0
LINE
  5
BF
330
1F
100
AcDbEntity
  8
1
  6
DASH_CENTER
 62
     3
100
AcDbLine
 10
1612.971090306118
 20
1951.473410665233
 30
0.0
 11
1544.216599209678
 21
1848.575043081125
 31
0.0
  0
LINE
  5
C0
330
1F
100
AcDbEntity
  8
1
  6
DASH_CENTER
 62
     3
100
AcDbLine
 10
1035.023537199475
 20
1903.81445643632
 30
0.0
 11
1125.781623248354
 21
2122.923858670547
 31
0.0
  0
LINE
  5
C1
330
1F
100
AcDbEntity
  8
1
  6
DASH_CENTER
 62
     3
100
AcDbLine
 10
1003.102369988935
 20
1826.749941629855
 30
0.0
 11
905.578126374518
 21
1591.305590035751
 31
0.0
  0
LINE
  5
C2
330
1F
100
AcDbEntity
  8
1
  6
DASH_CENTER
 62
     3
100
AcDbLine
 10
944.4929426827323
 20
1577.854791631464
 30
0.0
 11
1166.580460871702
 21
2114.021490077054
 31
0.0
  0
LINE
  5
C3
330
1F
100
AcDbEntity
  8
1
  6
DASH_CENTER
 62
     3
100
AcDbLine
 10
920.9546596203307
 20
1680.5898684886
 30
0.0
 11
993.9667020511211
 21
1650.347290297208
 31
0.0
  0
LINE
  5
C4
330
1F
100
AcDbEntity
  8
1
  6
DASH_CENTER
 62
     3
100
AcDbLine
 10
952.8074811615602
 20
1757.489382253287
 30
0.0
 11
1025.81952359235
 21
1727.246804061895
 31
0.0
  0
LINE
  5
C5
330
1F
100
AcDbEntity
  8
1
  6
DASH_CENTER
 62
     3
100
AcDbLine
 10
1080.287112995789
 20
2065.252438353807
 30
0.0
 11
1153.299155426579
 21
2035.009860162416
 31
0.0
  0
LINE
  5
C6
330
1F
100
AcDbEntity
  8
1
  6
DASH_CENTER
 62
     3
100
AcDbLine
 10
1048.43429145456
 20
1988.352924589123
 30
0.0
 11
1121.446333885349
 21
1958.110346397731
 31
0.0
  0
LINE
  5
C7
330
1F
100
AcDbEntity
  8
1
  6
DASH_CENTER
 62
     3
100
AcDbLine
 10
920.0329286942106
 20
1919.4561310757
 30
0.0
 11
1054.461766614878
 21
1916.495329282686
 31
0.0
  0
LINE
  5
C8
330
1F
100
AcDbEntity
  8
1
  6
DASH_CENTER
 62
     3
100
AcDbLine
 10
764.6223506924206
 20
1935.640071174821
 30
0.0
 11
1012.263040908916
 21
1800.836674560673
 31
0.0
  0
LINE
  5
C9
330
1F
100
AcDbEntity
  8
1
  6
DASH_CENTER
 62
     3
100
AcDbLine
 10
1016.58146991333
 20
1911.453410824439
 30
0.0
 11
1089.59351234412
 21
1881.210832633047
 31
0.0
  0
LINE
  5
CA
330
1F
100
AcDbEntity
  8
1
  6
DASH_CENTER
 62
     3
100
AcDbLine
 10
984.6603027027899
 20
1834.388896017974
 30
0.0
 11
1057.67234513358
 21
1804.146317826581
 31
0.0
  0
LINE
  5
CB
330
1F
100
AcDbEntity
  8
1
  6
DASHED
 62
     4
100
AcDbLine
 10
618.7200157864619
 20
1873.621608330835
 30
0.0
 11
628.2871015955847
 21
1896.718596643619
 31
0.0
  0
LINE
  5
CC
330
1F
100
AcDbEntity
  8
1
  6
DASHED
 62
     4
100
AcDbLine
 10
674.4810782211542
 20
1877.584425025374
 30
0.0
 11
628.2871015955847
 21
1896.718596643619
 31
0.0
  0
LINE
  5
CD
330
1F
100
AcDbEntity
  8
1
  6
DASHED
 62
     4
100
AcDbLine
 10
674.4810782211542
 20
1877.584425025374
 30
0.0
 11
664.9139924120304
 21
1854.48743671259
 31
0.0
  0
LINE
  5
CE
330
1F
100
AcDbEntity
  8
1
  6
DASHED
 62
     4
100
AcDbLine
 10
618.7200157864619
 20
1873.621608330835
 30
0.0
 11
664.9139924120304
 21
1854.48743671259
 31
0.0
  0
LINE
  5
CF
330
1F
100
AcDbEntity
  8
DETAIL
  6
DASHED
 62
     4
100
AcDbLine
 10
740.083446633825
 20
1919.820661130326
 30
0.0
 11
688.9369289238287
 21
1927.530314950992
 31
0.0
  0
LINE
  5
D0
330
1F
100
AcDbEntity
  8
1
  6
DASH_CENTER
 62
     3
100
AcDbLine
 10
794.7518269787811
 20
1999.397075363815
 30
0.0
 11
765.3243598031055
 21
1928.352885002011
 31
0.0
  0
LINE
  5
D1
330
1F
100
AcDbEntity
  8
1
  6
DASH_CENTER
 62
     3
100
AcDbLine
 10
793.8351085959712
 20
2036.380810357452
 30
0.0
 11
739.1113777677639
 21
1904.266037208338
 31
0.0
  0
LINE
  5
D2
330
1F
100
AcDbEntity
  8
0
  6
DASH_CENTER
 62
     3
100
AcDbLine
 10
839.1743698189482
 20
1939.794490148932
 30
0.0
 11
687.5657385338454
 21
2002.592841400043
 31
0.0
  0
LINE
  5
D3
330
1F
100
AcDbEntity
  8
1
  6
DASHED
 62
     4
100
AcDbLine
 10
776.2748712302454
 20
2123.336380673384
 30
0.0
 11
730.0808946046803
 21
2142.470552291639
 31
0.0
  0
LINE
  5
D4
330
1F
100
AcDbEntity
  8
1
  6
DASHED
 62
     4
100
AcDbLine
 10
776.2748712302454
 20
2123.336380673384
 30
0.0
 11
766.7077854211183
 21
2100.239392360601
 31
0.0
  0
LINE
  5
D5
330
1F
100
AcDbEntity
  8
1
  6
DASHED
 62
     4
100
AcDbLine
 10
720.5138087955533
 20
2119.373563978856
 30
0.0
 11
766.7077854211183
 21
2100.239392360601
 31
0.0
  0
LINE
  5
D6
330
1F
100
AcDbEntity
  8
1
  6
DASHED
 62
     4
100
AcDbLine
 10
720.5138087955533
 20
2119.373563978856
 30
0.0
 11
730.0808946046803
 21
2142.470552291639
 31
0.0
  0
LINE
  5
D7
330
1F
100
AcDbEntity
  8
1
  6
DASHED
 62
     4
100
AcDbLine
 10
655.4834917101725
 20
1885.289275578203
 30
0.0
 11
747.7682550046367
 21
2108.084402724086
 31
0.0
  0
LINE
  5
D8
330
1F
100
AcDbEntity
  8
1
  6
DASH_CENTER
 62
     3
100
AcDbLine
 10
905.4604771584394
 20
1923.835042780706
 30
0.0
 11
797.5242627578324
 21
1991.775891287816
 31
0.0
  0
LINE
  5
D9
330
1F
100
AcDbEntity
  8
DETAIL
  6
DASHED
 62
     4
100
AcDbLine
 10
741.612538022019
 20
2054.700484842105
 30
0.0
 11
783.2301360260262
 21
2023.985983832484
 31
0.0
  0
LINE
  5
DA
330
1F
100
AcDbEntity
  8
1
  6
Continuous
 62
     7
100
AcDbLine
 10
944.4817086919345
 20
1552.637136415701
 30
0.0
 11
1180.912225006658
 21
2123.430895461578
 31
0.0
  0
LINE
  5
DB
330
1F
100
AcDbEntity
  8
1
  6
Continuous
 62
     7
100
AcDbLine
 10
942.3567857671588
 20
1553.51730831014
 30
0.0
 11
1178.787302081882
 21
2124.311067356018
 31
0.0
  0
LINE
  5
DC
330
1F
100
AcDbEntity
  8
COLOR
  6
DASHED
 62
     4
100
AcDbLine
 10
730.4377482545502
 20
2027.047969338938
 30
0.0
 11
788.1802190365055
 21
2003.13025481612
 31
0.0
  0
LINE
  5
DD
330
1F
100
AcDbEntity
  8
DETAIL
  6
DASHED
 62
     4
100
AcDbLine
 10
712.1989815074797
 20
1964.078367684284
 30
0.0
 11
686.7302475424037
 21
1960.725617288535
 31
0.0
  0
LINE
  5
DE
330
1F
100
AcDbEntity
  8
DETAIL
  6
DASHED
 62
     4
100
AcDbLine
 10
716.5795552668809
 20
2032.788220824415
 30
0.0
 11
732.2323438069236
 21
2012.388307003011
 31
0.0
  0
LINE
  5
DF
330
1F
100
AcDbEntity
  8
COLOR
  6
DASHED
 62
     4
100
AcDbLine
 10
758.3309113120284
 20
1931.06765128024
 30
0.0
 11
700.5884405300729
 21
1954.985365803059
 31
0.0
  0
LINE
  5
E0
330
1F
100
AcDbEntity
  8
COLOR
  6
DASHED
 62
     4
100
AcDbLine
 10
751.167242912352
 20
2011.967178308783
 30
0.0
 11
808.5464377286647
 21
1988.199937617818
 31
0.0
  0
LINE
  5
E1
330
1F
100
AcDbEntity
  8
COLOR
  6
DASHED
 62
     4
100
AcDbLine
 10
725.910136376256
 20
1950.991129163038
 30
0.0
 11
783.2893311925686
 21
1927.223888472073
 31
0.0
  0
LINE
  5
E2
330
1F
100
AcDbEntity
  8
COLOR
  6
DASH_CENTER
 62
     3
100
AcDbLine
 10
679.0765788951017
 20
1942.248026638309
 30
0.0
 11
693.1195477892737
 21
1936.43123846636
 31
0.0
  0
LINE
  5
E3
330
1F
100
AcDbEntity
  8
COLOR
  6
DASH_CENTER
 62
     3
100
AcDbLine
 10
724.2332239141822
 20
2051.265811474641
 30
0.0
 11
737.9463678152476
 21
2045.585641288046
 31
0.0
  0
LINE
  5
E4
330
1F
100
AcDbEntity
  8
DETAIL
  6
DASHED
 62
     4
100
AcDbLine
 10
674.8670611390858
 20
1932.085351780686
 30
0.0
 11
679.5917810683486
 21
1930.12830870757
 31
0.0
  0
LINE
  5
E5
330
1F
100
AcDbEntity
  8
DETAIL
  6
DASHED
 62
     4
100
AcDbLine
 10
728.4427416701985
 20
2061.428486332265
 30
0.0
 11
733.1674615994613
 21
2059.47144325915
 31
0.0
  0
LINE
  5
E6
330
1F
100
AcDbEntity
  8
DETAIL
  6
DASHED
 62
     4
100
AcDbLine
 10
694.0556257056916
 20
1952.279385302326
 30
0.0
 11
685.0950931368622
 21
1930.646746048576
 31
0.0
  0
LINE
  5
E7
330
1F
100
AcDbEntity
  8
DETAIL
  6
DASHED
 62
     4
100
AcDbLine
 10
736.6957444735389
 20
2055.221738332865
 30
0.0
 11
727.731767753819
 21
2033.580784163322
 31
0.0
  0
LINE
  5
E8
330
1F
100
AcDbEntity
  8
1
  6
Continuous
 62
     7
100
AcDbLine
 10
828.9043791747723
 20
1600.510833804573
 30
0.0
 11
1065.334895489496
 21
2171.304592850451
 31
0.0
  0
LINE
  5
E9
330
1F
100
AcDbEntity
  8
1
  6
Continuous
 62
     7
100
AcDbLine
 10
933.8570940680545
 20
1557.0379958879
 30
0.0
 11
1170.287610382777
 21
2127.831754933776
 31
0.0
  0
LINE
  5
EA
330
1F
100
AcDbEntity
  8
1
  6
DASH_CENTER
 62
     3
100
AcDbLine
 10
1153.020301920142
 20
2134.98410828468
 30
0.0
 11
924.8621851604481
 21
1584.161688437927
 31
0.0
  0
LINE
  5
EB
330
1F
100
AcDbEntity
  8
1
  6
Continuous
 62
     7
100
AcDbLine
 10
936.813508572091
 20
1555.81340890433
 30
0.0
 11
1173.244024886814
 21
2126.607167950208
 31
0.0
  0
LINE
  5
EC
330
1F
100
AcDbEntity
  8
1
  6
DASHED
 62
     4
100
AcDbLine
 10
629.6729208943345
 20
1896.144571495088
 30
0.0
 11
721.8996280943205
 21
2118.799538830308
 31
0.0
  0
LINE
  5
ED
330
1F
100
AcDbEntity
  8
1
  6
DASH_CENTER
 62
     3
100
AcDbLine
 10
891.8226614817958
 20
1959.929551467735
 30
0.0
 11
948.9845568433738
 21
1936.252319158019
 31
0.0
  0
LINE
  5
EE
330
1F
100
AcDbEntity
  8
1
  6
Continuous
 62
     7
100
AcDbLine
 10
729.3773396744892
 20
2144.169084145976
 30
0.0
 11
1000.628370419804
 21
2031.813228403585
 31
0.0
  0
LINE
  5
EF
330
1F
100
AcDbEntity
  8
1
  6
Continuous
 62
     7
100
AcDbLine
 10
617.0214839320995
 20
1872.918053400663
 30
0.0
 11
729.3773396744892
 21
2144.169084145976
 31
0.0
  0
LINE
  5
F0
330
1F
100
AcDbEntity
  8
1
  6
Continuous
 62
     7
100
AcDbLine
 10
888.2725146774142
 20
1760.562197658272
 30
0.0
 11
617.0214839320995
 21
1872.918053400663
 31
0.0
  0
LINE
  5
F1
330
1F
100
AcDbEntity
  8
1
  6
Continuous
 62
     7
100
AcDbLine
 10
1000.628370419804
 20
2031.813228403585
 30
0.0
 11
888.2725146774142
 21
1760.562197658272
 31
0.0
  0
LINE
  5
F2
330
1F
100
AcDbEntity
  8
1
  6
Continuous
 62
     7
100
AcDbLine
 10
727.645512154022
 20
2148.350085633581
 30
0.0
 11
1004.809371907409
 21
2033.545055924053
 31
0.0
  0
LINE
  5
F3
330
1F
100
AcDbEntity
  8
1
  6
Continuous
 62
     7
100
AcDbLine
 10
612.8404824444956
 20
1871.186225880196
 30
0.0
 11
727.645512154022
 21
2148.350085633581
 31
0.0
  0
LINE
  5
F4
330
1F
100
AcDbEntity
  8
1
  6
Continuous
 62
     7
100
AcDbLine
 10
890.0043421978819
 20
1756.381196170668
 30
0.0
 11
612.8404824444956
 21
1871.186225880196
 31
0.0
  0
LINE
  5
F5
330
1F
100
AcDbEntity
  8
1
  6
Continuous
 62
     7
100
AcDbLine
 10
1061.88654508191
 20
2171.341541503852
 30
0.0
 11
828.4076441884834
 21
1607.673612438977
 31
0.0
  0
LINE
  5
F6
330
1F
100
AcDbEntity
  8
1
  6
Continuous
 62
     7
100
AcDbLine
 10
998.1755649817204
 20
1703.95451770356
 30
0.0
 11
1003.718842176788
 21
1701.658417109369
 31
0.0
  0
LINE
  5
F7
330
1F
100
AcDbEntity
  8
1
  6
Continuous
 62
     7
100
AcDbLine
 10
987.1506957901487
 20
1677.338128977879
 30
0.0
 11
992.6939729852178
 21
1675.042028383689
 31
0.0
  0
LINE
  5
F8
330
1F
100
AcDbEntity
  8
1
  6
Continuous
 62
     7
100
AcDbLine
 10
1123.912514121304
 20
1991.831610029328
 30
0.0
 11
1118.369236926236
 21
1994.127710623518
 31
0.0
  0
LINE
  5
F9
330
1F
100
AcDbEntity
  8
1
  6
Continuous
 62
     7
100
AcDbLine
 10
1134.93738331287
 20
2018.447998755012
 30
0.0
 11
1129.394106117803
 21
2020.744099349201
 31
0.0
  0
LINE
  5
FA
330
1F
100
AcDbEntity
  8
1
  6
Continuous
 62
     7
100
AcDbLine
 10
1299.458818164299
 20
1234.538456903082
 30
0.0
 11
1322.456394521072
 21
1234.137032714583
 31
0.0
  0
LINE
  5
FB
330
1F
100
AcDbEntity
  8
1
  6
Continuous
 62
     7
100
AcDbLine
 10
1299.022508003367
 20
1209.542264524172
 30
0.0
 11
1322.020084360139
 21
1209.140840335673
 31
0.0
  0
LINE
  5
FC
330
1F
100
AcDbEntity
  8
1
  6
DASH_CENTER
 62
     3
100
AcDbLine
 10
1303.996963469055
 20
1221.957339181585
 30
0.0
 11
1316.82817280493
 21
1221.73336958952
 31
0.0
  0
LINE
  5
FD
330
1F
100
AcDbEntity
  8
1
  6
DASH_CENTER
 62
     3
100
AcDbLine
 10
1310.868242150012
 20
1229.249001540277
 30
0.0
 11
1310.634012790912
 21
1215.830010544615
 31
0.0
  0
LINE
  5
FE
330
1F
100
AcDbEntity
  8
1
  6
Continuous
 62
     7
100
AcDbLine
 10
1302.988950990477
 20
1198.847137745974
 30
0.0
 11
1374.983108380463
 21
1198.847137745974
 31
0.0
  0
LINE
  5
FF
330
1F
100
AcDbEntity
  8
1
  6
Continuous
 62
     3
100
AcDbLine
 10
1675.979516994541
 20
1210.847137745967
 30
0.0
 11
1379.979516994541
 21
1210.847137745967
 31
0.0
  0
LINE
  5
100
330
1F
100
AcDbEntity
  8
1
  6
Continuous
 62
     3
100
AcDbLine
 10
1677.979516994541
 20
1208.847137745967
 30
0.0
 11
1677.979516994541
 21
1198.847137745967
 31
0.0
  0
LINE
  5
101
330
1F
100
AcDbEntity
  8
1
  6
Continuous
 62
     3
100
AcDbLine
 10
1757.979516994541
 20
1197.647137745969
 30
0.0
 11
1297.979516994541
 21
1197.647137745969
 31
0.0
  0
LINE
  5
102
330
1F
100
AcDbEntity
  8
1
  6
Continuous
 62
     3
100
AcDbLine
 10
1677.979516994541
 20
1198.847137745967
 30
0.0
 11
1727.979516994636
 21
1198.847137745968
 31
0.0
  0
LINE
  5
103
330
1F
100
AcDbEntity
  8
1
  6
Continuous
 62
     3
100
AcDbLine
 10
1752.993802825542
 20
1198.847137745969
 30
0.0
 11
1757.979516994541
 21
1198.847137745969
 31
0.0
  0
LINE
  5
104
330
1F
100
AcDbEntity
  8
1
  6
Continuous
 62
     3
100
AcDbLine
 10
1757.979516994541
 20
1198.847137745969
 30
0.0
 11
1757.979516994541
 21
1197.647137745969
 31
0.0
  0
LINE
  5
105
330
1F
100
AcDbEntity
  8
1
  6
Continuous
 62
     3
100
AcDbLine
 10
1297.979516994541
 20
1198.84713774596
 30
0.0
 11
1297.979516994541
 21
1197.647137745969
 31
0.0
  0
LINE
  5
106
330
1F
100
AcDbEntity
  8
1
  6
Continuous
 62
     3
100
AcDbLine
 10
1297.979516994541
 20
1198.84713774596
 30
0.0
 11
1302.988950990477
 21
1198.84713774596
 31
0.0
  0
LINE
  5
107
330
1F
100
AcDbEntity
  8
1
  6
Continuous
 62
     3
100
AcDbLine
 10
1374.983094106234
 20
1198.847137745974
 30
0.0
 11
1377.979516994541
 21
1198.847137745974
 31
0.0
  0
LINE
  5
108
330
1F
100
AcDbEntity
  8
1
  6
Continuous
 62
     3
100
AcDbLine
 10
1377.979516994541
 20
1198.847137745974
 30
0.0
 11
1377.979516994541
 21
1201.700679989594
 31
0.0
  0
LINE
  5
109
330
1F
100
AcDbEntity
  8
1
  6
Continuous
 62
     3
100
AcDbLine
 10
1677.979516994541
 20
1208.847137745967
 30
0.0
 11
1675.979516994541
 21
1210.847137745967
 31
0.0
  0
LINE
  5
10A
330
1F
100
AcDbEntity
  8
1
  6
Continuous
 62
     3
100
AcDbLine
 10
1379.979516994541
 20
1210.847137745967
 30
0.0
 11
1377.979516994541
 21
1208.847137745967
 31
0.0
  0
LINE
  5
10B
330
1F
100
AcDbEntity
  8
1
  6
Continuous
 62
     3
100
AcDbLine
 10
1737.024972699429
 20
2075.659546417382
 30
0.0
 11
1737.024972699429
 21
2072.831119292635
 31
0.0
  0
LINE
  5
10C
330
1F
100
AcDbEntity
  8
1
  6
Continuous
 62
     3
100
AcDbLine
 10
1946.328579930646
 20
1863.527512061416
 30
0.0
 11
1949.157007055393
 21
1863.527512061416
 31
0.0
  0
LINE
  5
10D
330
1F
100
AcDbEntity
  8
1
  6
Continuous
 62
     3
100
AcDbLine
 10
1742.078281440423
 20
2080.712855158376
 30
0.0
 11
1744.09604051129
 21
2082.730614229242
 31
0.0
  0
LINE
  5
10E
330
1F
100
AcDbEntity
  8
1
  6
Continuous
 62
     3
100
AcDbLine
 10
1691.069702764798
 20
2135.756951975733
 30
0.0
 11
1687.527498016375
 21
2139.299156724176
 31
0.0
  0
LINE
  5
10F
330
1F
100
AcDbEntity
  8
1
  6
Continuous
 62
     3
100
AcDbLine
 10
1688.376026153793
 20
2140.147684861592
 30
0.0
 11
1687.527498016375
 21
2139.299156724176
 31
0.0
  0
LINE
  5
110
330
1F
100
AcDbEntity
  8
1
  6
Continuous
 62
     3
100
AcDbLine
 10
2013.645145499604
 20
1814.878565515781
 30
0.0
 11
2012.796617362181
 21
1814.030037378357
 31
0.0
  0
LINE
  5
111
330
1F
100
AcDbEntity
  8
1
  6
Continuous
 62
     3
100
AcDbLine
 10
2012.796617362181
 20
1814.030037378357
 30
0.0
 11
2009.271185064224
 21
1817.555469676315
 31
0.0
  0
LINE
  5
112
330
1F
100
AcDbEntity
  8
1
  6
Continuous
 62
     3
100
AcDbLine
 10
1991.583413926651
 20
1835.243240813886
 30
0.0
 11
1956.228074867259
 21
1870.598579873281
 31
0.0
  0
LINE
  5
113
330
1F
100
AcDbEntity
  8
1
  6
Continuous
 62
     3
100
AcDbLine
 10
1688.376026153793
 20
2140.147684861592
 30
0.0
 11
2013.645145499604
 21
1814.878565515781
 31
0.0
  0
LINE
  5
114
330
1F
100
AcDbEntity
  8
1
  6
Continuous
 62
     3
100
AcDbLine
 10
1956.228074867259
 20
1870.598579873281
 30
0.0
 11
1949.157007055393
 21
1863.527512061416
 31
0.0
  0
LINE
  5
115
330
1F
100
AcDbEntity
  8
1
  6
Continuous
 62
     3
100
AcDbLine
 10
1737.024972699429
 20
2072.831119292635
 30
0.0
 11
1946.328579930646
 21
1863.527512061416
 31
0.0
  0
LINE
  5
116
330
1F
100
AcDbEntity
  8
1
  6
DASH_CENTER
 62
     3
100
AcDbLine
 10
1684.466873286528
 20
2118.342372414109
 30
0.0
 11
1675.143838924985
 21
2108.688087716222
 31
0.0
  0
LINE
  5
117
330
1F
100
AcDbEntity
  8
1
  6
DASH_CENTER
 62
     3
100
AcDbLine
 10
1684.672500623764
 20
2109.788134652009
 30
0.0
 11
1675.441095074214
 21
2118.702799366903
 31
0.0
  0
LINE
  5
118
330
1F
100
AcDbEntity
  8
1
  6
Continuous
 62
     7
100
AcDbLine
 10
1697.247999319459
 20
2115.021161611685
 30
0.0
 11
1680.702407360908
 21
2130.999054038594
 31
0.0
  0
LINE
  5
119
330
1F
100
AcDbEntity
  8
1
  6
Continuous
 62
     7
100
AcDbLine
 10
1679.881540057983
 20
2097.03766660322
 30
0.0
 11
1663.335948099434
 21
2113.015559030128
 31
0.0
  0
LINE
  5
11A
330
1F
100
AcDbEntity
  8
1
  6
Continuous
 62
     7
100
AcDbLine
 10
2009.271185064224
 20
1817.555469676315
 30
0.0
 11
1991.583413926651
 21
1835.243240813886
 31
0.0
  0
LINE
  5
11B
330
1F
100
AcDbEntity
  8
1
  6
Continuous
 62
     7
100
AcDbLine
 10
1463.27418624356
 20
1843.642711955155
 30
0.0
 11
1464.462033924827
 21
1843.150689335542
 31
0.0
  0
LINE
  5
11C
330
1F
100
AcDbEntity
  8
1
  6
Continuous
 62
     7
100
AcDbLine
 10
1348.46915653401
 20
1566.478852201776
 30
0.0
 11
1349.657004215303
 21
1565.98682958215
 31
0.0
  0
LINE
  5
11D
330
1F
100
AcDbEntity
  8
1
  6
DASH_CENTER
 62
     3
100
AcDbLine
 10
1357.346952501843
 20
1546.983992582514
 30
0.0
 11
1353.873333017034
 21
1534.020268179045
 31
0.0
  0
LINE
  5
11E
330
1F
100
AcDbEntity
  8
1
  6
DASH_CENTER
 62
     3
100
AcDbLine
 10
1348.915767383771
 20
1541.571236522118
 30
0.0
 11
1361.311651817054
 21
1538.24976929875
 31
0.0
  0
LINE
  5
11F
330
1F
100
AcDbEntity
  8
1
  6
Continuous
 62
     7
100
AcDbLine
 10
1341.085596109731
 20
1530.728372336468
 30
0.0
 11
1363.302932862791
 21
1524.775254895515
 31
0.0
  0
LINE
  5
120
330
1F
100
AcDbEntity
  8
1
  6
Continuous
 62
     7
100
AcDbLine
 10
1347.556072237294
 20
1554.876517993695
 30
0.0
 11
1369.773408990355
 21
1548.923400552742
 31
0.0
  0
LINE
  5
121
330
1F
100
AcDbEntity
  8
1
  6
Continuous
 62
     7
100
AcDbLine
 10
1483.332627341687
 20
1874.143084343892
 30
0.0
 11
1503.25214653138
 21
1862.642544577594
 31
0.0
  0
LINE
  5
122
330
1F
100
AcDbEntity
  8
1
  6
Continuous
 62
     7
100
AcDbLine
 10
1470.832627341687
 20
1852.49244924928
 30
0.0
 11
1490.752146531379
 21
1840.991909482984
 31
0.0
  0
LINE
  5
123
330
1F
100
AcDbEntity
  8
1
  6
DASH_CENTER
 62
     3
100
AcDbLine
 10
1481.202331754255
 20
1860.939254345008
 30
0.0
 11
1492.316177692967
 21
1854.522672400561
 31
0.0
  0
LINE
  5
124
330
1F
100
AcDbEntity
  8
1
  6
DASH_CENTER
 62
     3
100
AcDbLine
 10
1490.74715556095
 20
1863.985423933805
 30
0.0
 11
1484.036638018794
 21
1852.362466605709
 31
0.0
  0
LINE
  5
125
330
1F
100
AcDbEntity
  8
1
  6
Continuous
 62
     7
100
AcDbLine
 10
1952.38402766695
 20
1800.582084093485
 30
0.0
 11
1698.41775143141
 21
2026.797532747922
 31
0.0
  0
LINE
  5
126
330
1F
100
AcDbEntity
  8
1
  6
Continuous
 62
     7
100
AcDbLine
 10
1983.346872261755
 20
1833.640776813405
 30
0.0
 11
1952.38402766695
 21
1800.582084093485
 31
0.0
  0
LINE
  5
127
330
1F
100
AcDbEntity
  8
1
  6
Continuous
 62
     7
100
AcDbLine
 10
1739.352728762702
 20
2070.503363229635
 30
0.0
 11
1698.41775143141
 21
2026.797532747922
 31
0.0
  0
LINE
  5
128
330
1F
100
AcDbEntity
  8
1
  6
DASH_CENTER
 62
     3
100
AcDbLine
 10
1666.620426018232
 20
2099.258185027964
 30
0.0
 11
1983.381433569114
 21
1802.579125950058
 31
0.0
  0
LINE
  5
129
330
1F
100
AcDbEntity
  8
1
  6
Continuous
 62
     7
100
AcDbLine
 10
1951.061176485428
 20
1865.431681491177
 30
0.0
 11
1983.346872261755
 21
1833.640776813405
 31
0.0
  0
LINE
  5
12A
330
1F
100
AcDbEntity
  8
1
  6
DASHED
 62
     4
100
AcDbLine
 10
1720.18012907421
 20
2080.606765925531
 30
0.0
 11
1722.953612550462
 21
2078.009115177844
 31
0.0
  0
LINE
  5
12B
330
1F
100
AcDbEntity
  8
1
  6
DOT_CENTER
 62
     3
100
AcDbLine
 10
1717.205489928849
 20
2080.036030093318
 30
0.0
 11
1722.718754492305
 21
2074.87229432994
 31
0.0
  0
LINE
  5
12C
330
1F
100
AcDbEntity
  8
1
  6
DASHED
 62
     4
100
AcDbLine
 10
1703.393255402159
 20
2096.329388872057
 30
0.0
 11
1706.166738878411
 21
2093.731738124368
 31
0.0
  0
LINE
  5
12D
330
1F
100
AcDbEntity
  8
1
  6
DOT_CENTER
 62
     3
100
AcDbLine
 10
1700.418616256799
 20
2095.758653039842
 30
0.0
 11
1705.931880820254
 21
2090.594917276464
 31
0.0
  0
LINE
  5
12E
330
1F
100
AcDbEntity
  8
1
  6
DASHED
 62
     4
100
AcDbLine
 10
1691.508366657413
 20
2044.435367833742
 30
0.0
 11
1688.734883181161
 21
2047.03301858143
 31
0.0
  0
LINE
  5
12F
330
1F
100
AcDbEntity
  8
1
  6
DOT_CENTER
 62
     3
100
AcDbLine
 10
1694.623110879167
 20
2044.874880942057
 30
0.0
 11
1689.10984631571
 21
2050.038616705434
 31
0.0
  0
LINE
  5
130
330
1F
100
AcDbEntity
  8
1
  6
DASHED
 62
     4
100
AcDbLine
 10
1675.537239569638
 20
2068.196969727262
 30
0.0
 11
1698.198324381693
 21
2092.391963737199
 31
0.0
  0
LINE
  5
131
330
1F
100
AcDbEntity
  8
1
  6
DASHED
 62
     4
100
AcDbLine
 10
1674.721492985362
 20
2060.157990780268
 30
0.0
 11
1671.94800950911
 21
2062.755641527955
 31
0.0
  0
LINE
  5
132
330
1F
100
AcDbEntity
  8
1
  6
DOT_CENTER
 62
     3
100
AcDbLine
 10
1677.836237207117
 20
2060.597503888582
 30
0.0
 11
1672.322972643658
 21
2065.76123965196
 31
0.0
  0
LINE
  5
133
330
1F
100
AcDbEntity
  8
1
  6
Continuous
 62
     7
100
AcDbLine
 10
1725.276941488845
 20
2063.502016975016
 30
0.0
 11
1727.092365257296
 21
2061.801687065045
 31
0.0
  0
LINE
  5
134
330
1F
100
AcDbEntity
  8
1
  6
Continuous
 62
     7
100
AcDbLine
 10
1706.136357032206
 20
2043.065822939475
 30
0.0
 11
1707.95178080066
 21
2041.3654930295
 31
0.0
  0
LINE
  5
135
330
1F
100
AcDbEntity
  8
1
  6
DASH_CENTER
 62
     3
100
AcDbLine
 10
1678.427513897308
 20
2066.894303495711
 30
0.0
 11
1671.591590877078
 21
2059.595662768731
 31
0.0
  0
LINE
  5
136
330
1F
100
AcDbEntity
  8
1
  6
DASH_CENTER
 62
     3
100
AcDbLine
 10
1688.378464549129
 20
2043.873039822207
 30
0.0
 11
1695.214387569357
 21
2051.171680549186
 31
0.0
  0
LINE
  5
137
330
1F
100
AcDbEntity
  8
1
  6
DASH_CENTER
 62
     3
100
AcDbLine
 10
1706.523157510445
 20
2096.891716883594
 30
0.0
 11
1699.687234490215
 21
2089.593076156614
 31
0.0
  0
LINE
  5
138
330
1F
100
AcDbEntity
  8
1
  6
DASH_CENTER
 62
     3
100
AcDbLine
 10
1716.474108162267
 20
2073.870453210088
 30
0.0
 11
1723.310031182493
 21
2081.169093937067
 31
0.0
  0
LINE
  5
139
330
1F
100
AcDbEntity
  8
1
  6
DASHED
 62
     4
100
AcDbLine
 10
1679.916424005825
 20
2064.095415915127
 30
0.0
 11
1702.577508817882
 21
2088.290409925061
 31
0.0
  0
LINE
  5
13A
330
1F
100
AcDbEntity
  8
1
  6
DASHED
 62
     4
100
AcDbLine
 10
1692.32411324169
 20
2052.474346780738
 30
0.0
 11
1714.985198053745
 21
2076.669340790671
 31
0.0
  0
LINE
  5
13B
330
1F
100
AcDbEntity
  8
1
  6
DASHED
 62
     4
100
AcDbLine
 10
1719.364382489933
 20
2072.567786978536
 30
0.0
 11
1696.703297677878
 21
2048.372792968603
 31
0.0
  0
LINE
  5
13C
330
1F
100
AcDbEntity
  8
1
  6
DASHED
 62
     4
100
AcDbLine
 10
1741.005579062735
 20
2072.268093534484
 30
0.0
 11
1951.061176485428
 21
1865.431681491177
 31
0.0
  0
LINE
  5
13D
330
1F
100
AcDbEntity
  8
1
  6
DASHED
 62
     4
100
AcDbLine
 10
1741.005579062735
 20
2072.268093534484
 30
0.0
 11
1739.352728762702
 21
2070.503363229635
 31
0.0
  0
LINE
  5
13E
330
1F
100
AcDbEntity
  8
1
  6
DASHED
 62
     4
100
AcDbLine
 10
1664.165732706511
 20
2011.270810938093
 30
0.0
 11
1643.135595336494
 21
1985.645514409113
 31
0.0
  0
LINE
  5
13F
330
1F
100
AcDbEntity
  8
1
  6
DASHED
 62
     4
100
AcDbLine
 10
1638.497532616315
 20
1989.451874114093
 30
0.0
 11
1659.527669986333
 21
2015.077170643071
 31
0.0
  0
LINE
  5
140
330
1F
100
AcDbEntity
  8
1
  6
DASHED
 62
     4
100
AcDbLine
 10
1625.356354909146
 20
2000.236559944873
 30
0.0
 11
1646.386492279163
 21
2025.861856473852
 31
0.0
  0
LINE
  5
141
330
1F
100
AcDbEntity
  8
1
  6
DASH_CENTER
 62
     3
100
AcDbLine
 10
1661.196448230156
 20
2012.381655075885
 30
0.0
 11
1667.540381071788
 21
2020.111759609514
 31
0.0
  0
LINE
  5
142
330
1F
100
AcDbEntity
  8
1
  6
DASH_CENTER
 62
     3
100
AcDbLine
 10
1649.761140644444
 20
2034.702805145275
 30
0.0
 11
1643.417207802806
 21
2026.972700611644
 31
0.0
  0
LINE
  5
143
330
1F
100
AcDbEntity
  8
1
  6
DASH_CENTER
 62
     3
100
AcDbLine
 10
1635.122884251038
 20
1980.61092544267
 30
0.0
 11
1641.466817092674
 21
1988.3410299763
 31
0.0
  0
LINE
  5
144
330
1F
100
AcDbEntity
  8
1
  6
DASH_CENTER
 62
     3
100
AcDbLine
 10
1623.687576665325
 20
2002.932075512059
 30
0.0
 11
1617.343643823692
 21
1995.201970978428
 31
0.0
  0
LINE
  5
145
330
1F
100
AcDbEntity
  8
1
  6
Continuous
 62
     7
100
AcDbLine
 10
1652.895550233288
 20
1980.966858610178
 30
0.0
 11
1654.818293936932
 21
1979.388903632395
 31
0.0
  0
LINE
  5
146
330
1F
100
AcDbEntity
  8
1
  6
Continuous
 62
     7
100
AcDbLine
 10
1670.658562189863
 20
2002.61115130434
 30
0.0
 11
1672.581305893509
 21
2001.033196326559
 31
0.0
  0
LINE
  5
147
330
1F
100
AcDbEntity
  8
1
  6
DOT_CENTER
 62
     3
100
AcDbLine
 10
1623.509396342359
 20
1996.610086490462
 30
0.0
 11
1617.670211624095
 21
2001.402181544469
 31
0.0
  0
LINE
  5
148
330
1F
100
AcDbEntity
  8
1
  6
DASHED
 62
     4
100
AcDbLine
 10
1620.430066559697
 20
1995.967800394595
 30
0.0
 11
1617.492626836918
 21
1998.378494874417
 31
0.0
  0
LINE
  5
149
330
1F
100
AcDbEntity
  8
1
  6
DASHED
 62
     4
100
AcDbLine
 10
1620.718292188969
 20
2004.042919649851
 30
0.0
 11
1641.748429558986
 21
2029.668216178834
 31
0.0
  0
LINE
  5
14A
330
1F
100
AcDbEntity
  8
1
  6
DOT_CENTER
 62
     3
100
AcDbLine
 10
1641.288636769705
 20
1982.019040954702
 30
0.0
 11
1635.449452051441
 21
1986.81113600871
 31
0.0
  0
LINE
  5
14B
330
1F
100
AcDbEntity
  8
1
  6
DASHED
 62
     4
100
AcDbLine
 10
1638.209306987044
 20
1981.376754858836
 30
0.0
 11
1635.271867264264
 21
1983.787449338657
 31
0.0
  0
LINE
  5
14C
330
1F
100
AcDbEntity
  8
1
  6
DOT_CENTER
 62
     3
100
AcDbLine
 10
1643.743775603213
 20
2033.172911177684
 30
0.0
 11
1649.582960321478
 21
2028.380816123677
 31
0.0
  0
LINE
  5
14D
330
1F
100
AcDbEntity
  8
1
  6
DASHED
 62
     4
100
AcDbLine
 10
1646.674717908436
 20
2033.936975729109
 30
0.0
 11
1649.612157631216
 21
2031.526281249288
 31
0.0
  0
LINE
  5
14E
330
1F
100
AcDbEntity
  8
1
  6
DOT_CENTER
 62
     3
100
AcDbLine
 10
1661.52301603056
 20
2018.581865641926
 30
0.0
 11
1667.362200748823
 21
2013.789770587918
 31
0.0
  0
LINE
  5
14F
330
1F
100
AcDbEntity
  8
1
  6
DASHED
 62
     4
100
AcDbLine
 10
1664.453958335783
 20
2019.34593019335
 30
0.0
 11
1667.391398058562
 21
2016.935235713529
 31
0.0
  0
LINE
  5
150
330
1F
100
AcDbEntity
  8
1
  6
Continuous
 62
     7
100
AcDbLine
 10
1914.475181010886
 20
1755.107664287646
 30
0.0
 11
1646.257467845327
 21
1964.228579117116
 31
0.0
  0
LINE
  5
151
330
1F
100
AcDbEntity
  8
1
  6
Continuous
 62
     7
100
AcDbLine
 10
1685.780194705291
 20
2012.38716113686
 30
0.0
 11
1943.209589826512
 21
1790.120642735193
 31
0.0
  0
LINE
  5
152
330
1F
100
AcDbEntity
  8
1
  6
DASH_CENTER
 62
     3
100
AcDbLine
 10
1609.78906954148
 20
2034.454442995265
 30
0.0
 11
1945.275606300982
 21
1759.127757668332
 31
0.0
  0
LINE
  5
153
330
1F
100
AcDbEntity
  8
1
  6
Continuous
 62
     7
100
AcDbLine
 10
1685.780194705291
 20
2012.38716113686
 30
0.0
 11
1646.257467845327
 21
1964.228579117116
 31
0.0
  0
LINE
  5
154
330
1F
100
AcDbEntity
  8
1
  6
Continuous
 62
     7
100
AcDbLine
 10
1943.209589826512
 20
1790.120642735193
 30
0.0
 11
1914.475181010886
 21
1755.107664287646
 31
0.0
  0
LINE
  5
155
330
1F
100
AcDbEntity
  8
1
  6
DASHED
 62
     4
100
AcDbLine
 10
1613.09428151497
 20
1946.494912003412
 30
0.0
 11
1593.785145863811
 21
1919.549044409196
 31
0.0
  0
LINE
  5
156
330
1F
100
AcDbEntity
  8
1
  6
DASHED
 62
     4
100
AcDbLine
 10
1588.90806575626
 20
1923.043910590401
 30
0.0
 11
1608.21720140742
 21
1949.989778184617
 31
0.0
  0
LINE
  5
157
330
1F
100
AcDbEntity
  8
1
  6
DASHED
 62
     4
100
AcDbLine
 10
1575.089672118198
 20
1932.94603143715
 30
0.0
 11
1594.398807769359
 21
1959.891899031366
 31
0.0
  0
LINE
  5
158
330
1F
100
AcDbEntity
  8
1
  6
DASH_CENTER
 62
     3
100
AcDbLine
 10
1610.058701821905
 20
1947.409177242309
 30
0.0
 11
1615.883478790581
 21
1955.537644088226
 31
0.0
  0
LINE
  5
159
330
1F
100
AcDbEntity
  8
1
  6
DASH_CENTER
 62
     3
100
AcDbLine
 10
1597.188005044972
 20
1968.934631116181
 30
0.0
 11
1591.363228076294
 21
1960.806164270262
 31
0.0
  0
LINE
  5
15A
330
1F
100
AcDbEntity
  8
1
  6
DASH_CENTER
 62
     3
100
AcDbLine
 10
1586.118868480647
 20
1914.001178505586
 30
0.0
 11
1591.943645449325
 21
1922.129645351505
 31
0.0
  0
LINE
  5
15B
330
1F
100
AcDbEntity
  8
1
  6
DASH_CENTER
 62
     3
100
AcDbLine
 10
1573.248171703715
 20
1935.52663237946
 30
0.0
 11
1567.423394735038
 21
1927.398165533541
 31
0.0
  0
LINE
  5
15C
330
1F
100
AcDbEntity
  8
1
  6
Continuous
 62
     7
100
AcDbLine
 10
1603.830202677822
 20
1915.518737562861
 30
0.0
 11
1605.852032832937
 21
1914.069914562739
 31
0.0
  0
LINE
  5
15D
330
1F
100
AcDbEntity
  8
1
  6
Continuous
 62
     7
100
AcDbLine
 10
1620.139578190116
 20
1938.27844473143
 30
0.0
 11
1622.161408345229
 21
1936.829621731311
 31
0.0
  0
LINE
  5
15E
330
1F
100
AcDbEntity
  8
1
  6
DOT_CENTER
 62
     3
100
AcDbLine
 10
1573.483850743467
 20
1929.206525670952
 30
0.0
 11
1567.343750155809
 21
1933.606459528874
 31
0.0
  0
LINE
  5
15F
330
1F
100
AcDbEntity
  8
1
  6
DASHED
 62
     4
100
AcDbLine
 10
1570.453121562775
 20
1928.364216955202
 30
0.0
 11
1567.364304161324
 21
1930.577632203299
 31
0.0
  0
LINE
  5
160
330
1F
100
AcDbEntity
  8
1
  6
DASHED
 62
     4
100
AcDbLine
 10
1570.212592010649
 20
1936.440897618355
 30
0.0
 11
1589.521727661808
 21
1963.386765212573
 31
0.0
  0
LINE
  5
161
330
1F
100
AcDbEntity
  8
1
  6
DOT_CENTER
 62
     3
100
AcDbLine
 10
1592.179324489077
 20
1915.809538642997
 30
0.0
 11
1586.03922390142
 21
1920.20947250092
 31
0.0
  0
LINE
  5
162
330
1F
100
AcDbEntity
  8
1
  6
DASHED
 62
     4
100
AcDbLine
 10
1589.148595308384
 20
1914.967229927247
 30
0.0
 11
1586.059777906937
 21
1917.180645175344
 31
0.0
  0
LINE
  5
163
330
1F
100
AcDbEntity
  8
1
  6
DOT_CENTER
 62
     3
100
AcDbLine
 10
1591.283583497067
 20
1967.014458265596
 30
0.0
 11
1597.423684084726
 21
1962.614524407673
 31
0.0
  0
LINE
  5
164
330
1F
100
AcDbEntity
  8
1
  6
DASHED
 62
     4
100
AcDbLine
 10
1594.158278217235
 20
1967.96857969452
 30
0.0
 11
1597.247095618682
 21
1965.755164446422
 31
0.0
  0
LINE
  5
165
330
1F
100
AcDbEntity
  8
1
  6
DOT_CENTER
 62
     3
100
AcDbLine
 10
1609.979057242678
 20
1953.617471237641
 30
0.0
 11
1616.119157830336
 21
1949.217537379719
 31
0.0
  0
LINE
  5
166
330
1F
100
AcDbEntity
  8
1
  6
DASHED
 62
     4
100
AcDbLine
 10
1612.853751962845
 20
1954.571592666565
 30
0.0
 11
1615.942569364294
 21
1952.358177418469
 31
0.0
  0
LINE
  5
167
330
1F
100
AcDbEntity
  8
1
  6
Continuous
 62
     7
100
AcDbLine
 10
1879.6216694608
 20
1707.251251508361
 30
0.0
 11
1598.301068790579
 21
1898.382144650786
 31
0.0
  0
LINE
  5
168
330
1F
100
AcDbEntity
  8
1
  6
Continuous
 62
     7
100
AcDbLine
 10
1634.589452495139
 20
1949.022525462056
 30
0.0
 11
1906.004597347323
 21
1744.068584734527
 31
0.0
  0
LINE
  5
169
330
1F
100
AcDbEntity
  8
1
  6
DASH_CENTER
 62
     3
100
AcDbLine
 10
1557.317760876345
 20
1966.072502196655
 30
0.0
 11
1910.093221989175
 21
1713.277181756123
 31
0.0
  0
LINE
  5
16A
330
1F
100
AcDbEntity
  8
1
  6
Continuous
 62
     7
100
AcDbLine
 10
1634.589452495139
 20
1949.022525462056
 30
0.0
 11
1598.301068790579
 21
1898.382144650786
 31
0.0
  0
LINE
  5
16B
330
1F
100
AcDbEntity
  8
1
  6
Continuous
 62
     7
100
AcDbLine
 10
1906.004597347323
 20
1744.068584734527
 30
0.0
 11
1879.6216694608
 21
1707.251251508361
 31
0.0
  0
LINE
  5
16C
330
1F
100
AcDbEntity
  8
1
  6
Continuous
 62
     7
100
AcDbLine
 10
1576.048578354065
 20
1869.465892842361
 30
0.0
 11
1573.936319534604
 21
1870.779379782308
 31
0.0
  0
LINE
  5
16D
330
1F
100
AcDbEntity
  8
1
  6
Continuous
 62
     7
100
AcDbLine
 10
1561.262678535852
 20
1845.688231759617
 30
0.0
 11
1559.15041971639
 21
1847.001718699565
 31
0.0
  0
LINE
  5
16E
330
1F
100
AcDbEntity
  8
1
  6
Continuous
 62
     7
100
AcDbLine
 10
1587.652559049067
 20
1882.445523607885
 30
0.0
 11
1871.891212313483
 21
1695.681804793694
 31
0.0
  0
LINE
  5
16F
330
1F
100
AcDbEntity
  8
1
  6
Continuous
 62
     7
100
AcDbLine
 10
1847.972741103642
 20
1657.217774262091
 30
0.0
 11
1554.753910930011
 21
1829.540193890188
 31
0.0
  0
LINE
  5
170
330
1F
100
AcDbEntity
  8
1
  6
DASH_CENTER
 62
     3
100
AcDbLine
 10
1877.984937004291
 20
1665.223737418482
 30
0.0
 11
1509.431190221772
 21
1894.405184600768
 31
0.0
  0
LINE
  5
171
330
1F
100
AcDbEntity
  8
1
  6
Continuous
 62
     7
100
AcDbLine
 10
1587.652559049067
 20
1882.445523607885
 30
0.0
 11
1554.753910930011
 21
1829.540193890188
 31
0.0
  0
LINE
  5
172
330
1F
100
AcDbEntity
  8
1
  6
Continuous
 62
     7
100
AcDbLine
 10
1871.891212313483
 20
1695.681804793694
 30
0.0
 11
1847.972741103642
 21
1657.217774262091
 31
0.0
  0
LINE
  5
173
330
1F
100
AcDbEntity
  8
1
  6
Continuous
 62
     7
100
AcDbLine
 10
1534.440278137657
 20
1799.230471488975
 30
0.0
 11
1532.246635670392
 21
1800.402997816022
 31
0.0
  0
LINE
  5
174
330
1F
100
AcDbEntity
  8
1
  6
Continuous
 62
     7
100
AcDbLine
 10
1521.241169506527
 20
1774.536676087223
 30
0.0
 11
1519.047527039262
 21
1775.709202414271
 31
0.0
  0
LINE
  5
175
330
1F
100
AcDbEntity
  8
1
  6
Continuous
 62
     7
100
AcDbLine
 10
1545.170505350936
 20
1812.941248517677
 30
0.0
 11
1841.015513477263
 21
1645.167502533364
 31
0.0
  0
LINE
  5
176
330
1F
100
AcDbEntity
  8
1
  6
Continuous
 62
     7
100
AcDbLine
 10
1819.663921509869
 20
1605.221483580157
 30
0.0
 11
1515.802469879339
 21
1757.997518637564
 31
0.0
  0
LINE
  5
177
330
1F
100
AcDbEntity
  8
1
  6
DASH_CENTER
 62
     3
100
AcDbLine
 10
1849.088243952388
 20
1615.173196881852
 30
0.0
 11
1466.334415225215
 21
1819.75938066436
 31
0.0
  0
LINE
  5
178
330
1F
100
AcDbEntity
  8
1
  6
Continuous
 62
     7
100
AcDbLine
 10
1545.170505350936
 20
1812.941248517677
 30
0.0
 11
1515.802469879339
 21
1757.997518637564
 31
0.0
  0
LINE
  5
179
330
1F
100
AcDbEntity
  8
1
  6
Continuous
 62
     7
100
AcDbLine
 10
1841.015513477263
 20
1645.167502533364
 30
0.0
 11
1819.663921509869
 21
1605.221483580157
 31
0.0
  0
LINE
  5
17A
330
1F
100
AcDbEntity
  8
0
  6
DASHED
 62
     4
100
AcDbLine
 10
1698.013611555691
 20
1508.825370403032
 30
0.0
 11
1698.396294988057
 21
1509.749249935542
 31
0.0
  0
LINE
  5
17B
330
1F
100
AcDbEntity
  8
0
  6
DASHED
 62
     4
100
AcDbLine
 10
1721.083403394299
 20
1512.258256145864
 30
0.0
 11
1716.262506582952
 21
1505.864648047307
 31
0.0
  0
LINE
  5
17C
330
1F
100
AcDbEntity
  8
0
  6
DASHED
 62
     4
100
AcDbLine
 10
1712.71902713467
 20
1504.898972230469
 30
0.0
 11
1699.702857952932
 21
1510.290446035687
 31
0.0
  0
LINE
  5
17D
330
1F
100
AcDbEntity
  8
0
  6
DASHED
 62
     4
100
AcDbLine
 10
1680.077217005612
 20
1515.172476085456
 30
0.0
 11
1734.03558096909
 21
1645.439490169548
 31
0.0
  0
LINE
  5
17E
330
1F
100
AcDbEntity
  8
0
  6
DASHED
 62
     4
100
AcDbLine
 10
1722.931162459322
 20
1511.492889281134
 30
0.0
 11
1721.083403394299
 21
1512.258256145864
 31
0.0
  0
LINE
  5
17F
330
1F
100
AcDbEntity
  8
0
  6
DASHED
 62
     4
100
AcDbLine
 10
1696.707048590814
 20
1508.284174302884
 30
0.0
 11
1680.077217005612
 21
1515.172476085456
 31
0.0
  0
LINE
  5
180
330
1F
100
AcDbEntity
  8
0
  6
DASHED
 62
     4
100
AcDbLine
 10
1682.756001032168
 20
1521.639632813034
 30
0.0
 11
1546.483769986753
 21
1578.085439086885
 31
0.0
  0
LINE
  5
181
330
1F
100
AcDbEntity
  8
0
  6
DASHED
 62
     4
100
AcDbLine
 10
1724.237725424197
 20
1512.03408538128
 30
0.0
 11
1767.480953281454
 21
1616.432472555057
 31
0.0
  0
LINE
  5
182
330
1F
100
AcDbEntity
  8
0
  6
DASHED
 62
     4
100
AcDbLine
 10
1534.771130588354
 20
1569.407070673233
 30
0.0
 11
1530.151732925799
 21
1571.320487835058
 31
0.0
  0
LINE
  5
183
330
1F
100
AcDbEntity
  8
0
  6
DASHED
 62
     4
100
AcDbLine
 10
1545.52706140584
 20
1575.775740255608
 30
0.0
 11
1542.293665970198
 21
1577.115056497566
 31
0.0
  0
LINE
  5
184
330
1F
100
AcDbEntity
  8
0
  6
DASHED
 62
     4
100
AcDbLine
 10
1463.763722778591
 20
1609.643224019917
 30
0.0
 11
1464.404922485825
 21
1604.774432855589
 31
0.0
  0
LINE
  5
185
330
1F
100
AcDbEntity
  8
0
  6
DASHED
 62
     4
100
AcDbLine
 10
1530.151732925799
 20
1571.320487835058
 30
0.0
 11
1469.082434525467
 21
1598.510405827596
 31
0.0
  0
LINE
  5
186
330
1F
100
AcDbEntity
  8
0
  6
DASHED
 62
     4
100
AcDbLine
 10
1474.451787651491
 20
1639.27312021936
 30
0.0
 11
1473.806650580265
 21
1640.830990285871
 31
0.0
  0
LINE
  5
187
330
1F
100
AcDbEntity
  8
0
  6
DASHED
 62
     4
100
AcDbLine
 10
1463.763722778591
 20
1609.643224019917
 30
0.0
 11
1514.277935850783
 21
1731.595322311408
 31
0.0
  0
LINE
  5
188
330
1F
100
AcDbEntity
  8
0
  6
DASHED
 62
     4
100
AcDbLine
 10
1473.806381989667
 20
1646.953977738353
 30
0.0
 11
1494.996481314594
 21
1698.111402916624
 31
0.0
  0
LINE
  5
189
330
1F
100
AcDbEntity
  8
0
  6
DASHED
 62
     4
100
AcDbLine
 10
1750.094376378563
 20
1634.55945917717
 30
0.0
 11
1699.125843831568
 21
1511.510536647961
 31
0.0
  0
LINE
  5
18A
330
1F
100
AcDbEntity
  8
0
  6
DASHED
 62
     4
100
AcDbLine
 10
1596.041274478032
 20
1697.727838547099
 30
0.0
 11
1545.52706140584
 21
1575.775740255608
 31
0.0
  0
LINE
  5
18B
330
1F
100
AcDbEntity
  8
1
  6
DASHED
 62
     4
100
AcDbLine
 10
1576.047915027114
 20
1565.839569251202
 30
0.0
 11
1568.776929812178
 21
1548.285858133489
 31
0.0
  0
LINE
  5
18C
330
1F
100
AcDbEntity
  8
1
  6
DASHED
 62
     4
100
AcDbLine
 10
1562.244114987795
 20
1545.579877632757
 30
0.0
 11
1455.997968748997
 21
1589.588472354743
 31
0.0
  0
LINE
  5
18D
330
1F
100
AcDbEntity
  8
1
  6
DASHED
 62
     4
100
AcDbLine
 10
1453.291988248265
 20
1596.121287179125
 30
0.0
 11
1473.202976167439
 21
1644.19066425384
 31
0.0
  0
LINE
  5
18E
330
1F
100
AcDbEntity
  8
1
  6
DASH_CENTER
 62
     3
100
AcDbLine
 10
1565.014587041012
 20
1563.374174039256
 30
0.0
 11
1549.770574754574
 21
1569.68845067328
 31
0.0
  0
LINE
  5
18F
330
1F
100
AcDbEntity
  8
1
  6
DASH_CENTER
 62
     3
100
AcDbLine
 10
1554.235442580781
 20
1558.90930621305
 30
0.0
 11
1560.549719214804
 21
1574.153318499487
 31
0.0
  0
LINE
  5
190
330
1F
100
AcDbEntity
  8
0
  6
DASHED
 62
     4
100
AcDbLine
 10
1750.823925222076
 20
1636.32074588959
 30
0.0
 11
1751.206608654439
 21
1637.2446254221
 31
0.0
  0
LINE
  5
191
330
1F
100
AcDbEntity
  8
0
  6
DASHED
 62
     4
100
AcDbLine
 10
1766.204072932318
 20
1626.434254854107
 30
0.0
 11
1765.091998116286
 21
1618.504402384664
 31
0.0
  0
LINE
  5
192
330
1F
100
AcDbEntity
  8
0
  6
DASHED
 62
     4
100
AcDbLine
 10
1751.365121322222
 20
1635.014182924713
 30
0.0
 11
1764.381290503958
 21
1629.622709119494
 31
0.0
  0
LINE
  5
193
330
1F
100
AcDbEntity
  8
0
  6
DASHED
 62
     4
100
AcDbLine
 10
1765.091998116286
 20
1618.504402384664
 30
0.0
 11
1766.939757181308
 21
1617.739035519933
 31
0.0
  0
LINE
  5
194
330
1F
100
AcDbEntity
  8
0
  6
DASHED
 62
     4
100
AcDbLine
 10
1734.03558096909
 20
1645.439490169548
 30
0.0
 11
1750.665412554292
 21
1638.551188386976
 31
0.0
  0
LINE
  5
195
330
1F
100
AcDbEntity
  8
0
  6
DASHED
 62
     4
100
AcDbLine
 10
1595.084565897119
 20
1695.41813971582
 30
0.0
 11
1731.356796942534
 21
1638.972333441968
 31
0.0
  0
LINE
  5
196
330
1F
100
AcDbEntity
  8
0
  6
DASHED
 62
     4
100
AcDbLine
 10
1588.319614645293
 20
1711.750176776775
 30
0.0
 11
1592.939012307848
 21
1709.83675961495
 31
0.0
  0
LINE
  5
197
330
1F
100
AcDbEntity
  8
0
  6
DASHED
 62
     4
100
AcDbLine
 10
1592.80787904239
 20
1699.067154789057
 30
0.0
 11
1596.041274478032
 21
1697.727838547099
 31
0.0
  0
LINE
  5
198
330
1F
100
AcDbEntity
  8
0
  6
DASHED
 62
     4
100
AcDbLine
 10
1518.174087760342
 20
1734.584680898807
 30
0.0
 11
1514.277935850783
 21
1731.595322311408
 31
0.0
  0
LINE
  5
199
330
1F
100
AcDbEntity
  8
0
  6
DASHED
 62
     4
100
AcDbLine
 10
1525.910924231683
 20
1735.706516405524
 30
0.0
 11
1588.319614645293
 21
1711.750176776775
 31
0.0
  0
LINE
  5
19A
330
1F
100
AcDbEntity
  8
0
  6
DASHED
 62
     4
100
AcDbLine
 10
1499.326277185597
 20
1702.440818943161
 30
0.0
 11
1500.884038471692
 21
1703.086218633541
 31
0.0
  0
LINE
  5
19B
330
1F
100
AcDbEntity
  8
1
  6
DASHED
 62
     4
100
AcDbLine
 10
1631.919696152417
 20
1700.725980997851
 30
0.0
 11
1624.648710937479
 21
1683.172269880137
 31
0.0
  0
LINE
  5
19C
330
1F
100
AcDbEntity
  8
1
  6
DASHED
 62
     4
100
AcDbLine
 10
1522.967569412887
 20
1751.267390544218
 30
0.0
 11
1629.213715651685
 21
1707.258795822233
 31
0.0
  0
LINE
  5
19D
330
1F
100
AcDbEntity
  8
1
  6
DASHED
 62
     4
100
AcDbLine
 10
1496.523766669334
 20
1700.492032968774
 30
0.0
 11
1516.434754588507
 21
1748.561410043487
 31
0.0
  0
LINE
  5
19E
330
1F
100
AcDbEntity
  8
1
  6
DASH_CENTER
 62
     3
100
AcDbLine
 10
1603.346255285688
 20
1699.031585224863
 30
0.0
 11
1618.590267572124
 21
1692.717308590838
 31
0.0
  0
LINE
  5
19F
330
1F
100
AcDbEntity
  8
1
  6
DASH_CENTER
 62
     3
100
AcDbLine
 10
1607.811123111896
 20
1688.252440764632
 30
0.0
 11
1614.125399745918
 21
1703.496453051068
 31
0.0
  0
LINE
  5
1A0
330
1F
100
AcDbEntity
  8
1
  6
DASHED
 62
     4
100
AcDbLine
 10
1537.384256518106
 20
1570.489462873525
 30
0.0
 11
1594.021404508141
 21
1707.223633685197
 31
0.0
  0
LINE
  5
1A1
330
1F
100
AcDbEntity
  8
1
  6
DASH_CENTER
 62
     3
100
AcDbLine
 10
1524.661965185878
 20
1722.693949677489
 30
0.0
 11
1530.976241819902
 21
1737.937961963925
 31
0.0
  0
LINE
  5
1A2
330
1F
100
AcDbEntity
  8
1
  6
DASH_CENTER
 62
     3
100
AcDbLine
 10
1520.197097359672
 20
1733.47309413772
 30
0.0
 11
1535.441109646108
 21
1727.158817503696
 31
0.0
  0
LINE
  5
1A3
330
1F
100
AcDbEntity
  8
1
  6
DASH_CENTER
 62
     3
100
AcDbLine
 10
1471.086284654765
 20
1593.350815125908
 30
0.0
 11
1477.40056128879
 21
1608.594827412345
 31
0.0
  0
LINE
  5
1A4
330
1F
100
AcDbEntity
  8
1
  6
DASH_CENTER
 62
     3
100
AcDbLine
 10
1481.865429114994
 20
1597.815682952114
 30
0.0
 11
1466.621416828559
 21
1604.129959586139
 31
0.0
  0
LINE
  5
1A5
330
1F
100
AcDbEntity
  8
1
  6
Continuous
 62
     7
100
AcDbLine
 10
1497.514680825233
 20
1726.424116527976
 30
0.0
 11
1495.249048223982
 21
1727.450661304381
 31
0.0
  0
LINE
  5
1A6
330
1F
100
AcDbEntity
  8
1
  6
Continuous
 62
     7
100
AcDbLine
 10
1485.958883990706
 20
1700.919929430184
 30
0.0
 11
1483.693251389458
 21
1701.946474206588
 31
0.0
  0
LINE
  5
1A7
330
1F
100
AcDbEntity
  8
1
  6
Continuous
 62
     7
100
AcDbLine
 10
1507.325206076526
 20
1740.807328167698
 30
0.0
 11
1813.509715321017
 21
1592.741987950663
 31
0.0
  0
LINE
  5
1A8
330
1F
100
AcDbEntity
  8
1
  6
Continuous
 62
     7
100
AcDbLine
 10
1794.81643339083
 20
1551.485035561636
 30
0.0
 11
1481.613541688939
 21
1684.060475611633
 31
0.0
  0
LINE
  5
1A9
330
1F
100
AcDbEntity
  8
1
  6
DASH_CENTER
 62
     3
100
AcDbLine
 10
1823.526882909213
 20
1563.339884244461
 30
0.0
 11
1428.211982893437
 21
1742.454735179596
 31
0.0
  0
LINE
  5
1AA
330
1F
100
AcDbEntity
  8
1
  6
Continuous
 62
     7
100
AcDbLine
 10
1507.325206076526
 20
1740.807328167698
 30
0.0
 11
1481.613541688939
 21
1684.060475611633
 31
0.0
  0
LINE
  5
1AB
330
1F
100
AcDbEntity
  8
1
  6
Continuous
 62
     7
100
AcDbLine
 10
1813.509715321017
 20
1592.741987950663
 30
0.0
 11
1794.81643339083
 21
1551.485035561636
 31
0.0
  0
LINE
  5
1AC
330
1F
100
AcDbEntity
  8
1
  6
Continuous
 62
     7
100
AcDbLine
 10
1465.429907493404
 20
1651.358595948741
 30
0.0
 11
1463.101986544795
 21
1652.234763352173
 31
0.0
  0
LINE
  5
1AD
330
1F
100
AcDbEntity
  8
1
  6
Continuous
 62
     7
100
AcDbLine
 10
1455.566906151606
 20
1625.153229999537
 30
0.0
 11
1453.238985202998
 21
1626.029397402969
 31
0.0
  0
LINE
  5
1AE
330
1F
100
AcDbEntity
  8
1
  6
Continuous
 62
     7
100
AcDbLine
 10
1474.278720607448
 20
1666.352651079094
 30
0.0
 11
1789.491601895214
 21
1538.629755147552
 31
0.0
  0
LINE
  5
1AF
330
1F
100
AcDbEntity
  8
1
  6
Continuous
 62
     7
100
AcDbLine
 10
1773.536677505304
 20
1496.238537926714
 30
0.0
 11
1452.333528598108
 21
1608.045674581655
 31
0.0
  0
LINE
  5
1B0
330
1F
100
AcDbEntity
  8
1
  6
DASH_CENTER
 62
     3
100
AcDbLine
 10
1801.41031154701
 20
1509.945757708621
 30
0.0
 11
1395.22713933434
 21
1662.822278506464
 31
0.0
  0
LINE
  5
1B1
330
1F
100
AcDbEntity
  8
1
  6
Continuous
 62
     7
100
AcDbLine
 10
1474.278720607448
 20
1666.352651079094
 30
0.0
 11
1452.333528598108
 21
1608.045674581655
 31
0.0
  0
LINE
  5
1B2
330
1F
100
AcDbEntity
  8
1
  6
Continuous
 62
     7
100
AcDbLine
 10
1789.491601895214
 20
1538.629755147552
 30
0.0
 11
1773.536677505304
 21
1496.238537926714
 31
0.0
  0
LINE
  5
1B3
330
1F
100
AcDbEntity
  8
1
  6
Continuous
 62
     7
100
AcDbLine
 10
1438.323350067322
 20
1574.355351834658
 30
0.0
 11
1435.943109286245
 21
1575.077389981784
 31
0.0
  0
LINE
  5
1B4
330
1F
100
AcDbEntity
  8
1
  6
Continuous
 62
     7
100
AcDbLine
 10
1430.195379104194
 20
1547.561022434157
 30
0.0
 11
1427.815138323117
 21
1548.283060581284
 31
0.0
  0
LINE
  5
1B5
330
1F
100
AcDbEntity
  8
1
  6
Continuous
 62
     7
100
AcDbLine
 10
1446.172559067868
 20
1589.896043609644
 30
0.0
 11
1769.064022448876
 21
1483.062521012348
 31
0.0
  0
LINE
  5
1B6
330
1F
100
AcDbEntity
  8
1
  6
Continuous
 62
     7
100
AcDbLine
 10
1755.915777034924
 20
1439.718564659859
 30
0.0
 11
1428.087812118043
 21
1530.278622595644
 31
0.0
  0
LINE
  5
1B7
330
1F
100
AcDbEntity
  8
1
  6
DASH_CENTER
 62
     3
100
AcDbLine
 10
1782.833236419744
 20
1455.219459121371
 30
0.0
 11
1367.521130711973
 21
1581.203009049837
 31
0.0
  0
LINE
  5
1B8
330
1F
100
AcDbEntity
  8
1
  6
Continuous
 62
     7
100
AcDbLine
 10
1446.172559067868
 20
1589.896043609644
 30
0.0
 11
1428.087812118043
 21
1530.278622595644
 31
0.0
  0
LINE
  5
1B9
330
1F
100
AcDbEntity
  8
1
  6
Continuous
 62
     7
100
AcDbLine
 10
1769.064022448876
 20
1483.062521012348
 30
0.0
 11
1755.915777034924
 21
1439.718564659859
 31
0.0
  0
LINE
  5
1BA
330
1F
100
AcDbEntity
  8
1
  6
Continuous
 62
     7
100
AcDbLine
 10
1752.314451013286
 20
1426.278232972457
 30
0.0
 11
1742.029187380711
 21
1382.167142963703
 31
0.0
  0
LINE
  5
1BB
330
1F
100
AcDbEntity
  8
1
  6
Continuous
 62
     7
100
AcDbLine
 10
1423.127076356434
 20
1511.764904690363
 30
0.0
 11
1408.980216128985
 21
1451.092330109217
 31
0.0
  0
LINE
  5
1BC
330
1F
100
AcDbEntity
  8
1
  6
DASH_CENTER
 62
     3
100
AcDbLine
 10
1767.875207415117
 20
1399.395334894995
 30
0.0
 11
1345.21259840876
 21
1497.946433051943
 31
0.0
  0
LINE
  5
1BD
330
1F
100
AcDbEntity
  8
1
  6
Continuous
 62
     7
100
AcDbLine
 10
1742.029187380711
 20
1382.167142963703
 30
0.0
 11
1408.980216128985
 21
1451.092330109217
 31
0.0
  0
LINE
  5
1BE
330
1F
100
AcDbEntity
  8
1
  6
Continuous
 62
     7
100
AcDbLine
 10
1423.127076356434
 20
1511.764904690363
 30
0.0
 11
1752.314451013286
 21
1426.278232972457
 31
0.0
  0
LINE
  5
1BF
330
1F
100
AcDbEntity
  8
1
  6
Continuous
 62
     7
100
AcDbLine
 10
1409.952947622394
 20
1468.475568479011
 30
0.0
 11
1407.530579565294
 21
1469.040385491637
 31
0.0
  0
LINE
  5
1C0
330
1F
100
AcDbEntity
  8
1
  6
Continuous
 62
     7
100
AcDbLine
 10
1416.31108298736
 20
1495.744123898776
 30
0.0
 11
1413.88871493026
 21
1496.308940911401
 31
0.0
  0
LINE
  5
1C1
330
1F
100
AcDbEntity
  8
1
  6
Continuous
 62
     7
100
AcDbLine
 10
1739.314611824806
 20
1368.52005006694
 30
0.0
 11
1731.936373051506
 21
1323.830716861396
 31
0.0
  0
LINE
  5
1C2
330
1F
100
AcDbEntity
  8
1
  6
Continuous
 62
     7
100
AcDbLine
 10
1405.240956768158
 20
1432.293803853009
 30
0.0
 11
1395.092562290445
 21
1370.825884983696
 31
0.0
  0
LINE
  5
1C3
330
1F
100
AcDbEntity
  8
1
  6
DASH_CENTER
 62
     3
100
AcDbLine
 10
1756.600277109757
 20
1342.712432499698
 30
0.0
 11
1328.397070984925
 21
1413.40906795298
 31
0.0
  0
LINE
  5
1C4
330
1F
100
AcDbEntity
  8
1
  6
Continuous
 62
     7
100
AcDbLine
 10
1731.936373051506
 20
1323.830716861396
 30
0.0
 11
1395.092562290445
 21
1370.825884983696
 31
0.0
  0
LINE
  5
1C5
330
1F
100
AcDbEntity
  8
1
  6
Continuous
 62
     7
100
AcDbLine
 10
1405.240956768158
 20
1432.293803853009
 30
0.0
 11
1739.314611824806
 21
1368.52005006694
 31
0.0
  0
LINE
  5
1C6
330
1F
100
AcDbEntity
  8
1
  6
DASHED
 62
     4
100
AcDbLine
 10
1379.548562662572
 20
1381.652560375449
 30
0.0
 11
1375.799318000651
 21
1382.271563174349
 31
0.0
  0
LINE
  5
1C7
330
1F
100
AcDbEntity
  8
1
  6
DOT_CENTER
 62
     3
100
AcDbLine
 10
1381.894197433056
 20
1383.748461342297
 30
0.0
 11
1374.441267602645
 21
1384.978945037287
 31
0.0
  0
LINE
  5
1C8
330
1F
100
AcDbEntity
  8
1
  6
DASHED
 62
     4
100
AcDbLine
 10
1356.855766024622
 20
1385.399156263527
 30
0.0
 11
1353.106521362699
 21
1386.018159062426
 31
0.0
  0
LINE
  5
1C9
330
1F
100
AcDbEntity
  8
1
  6
DOT_CENTER
 62
     3
100
AcDbLine
 10
1359.201400795103
 20
1387.495057230374
 30
0.0
 11
1351.748470964693
 21
1388.725540925365
 31
0.0
  0
LINE
  5
1CA
330
1F
100
AcDbEntity
  8
1
  6
DASHED
 62
     4
100
AcDbLine
 10
1383.292509776803
 20
1427.657156450253
 30
0.0
 11
1387.041754438727
 21
1427.038153651353
 31
0.0
  0
LINE
  5
1CB
330
1F
100
AcDbEntity
  8
1
  6
DOT_CENTER
 62
     3
100
AcDbLine
 10
1381.136271559165
 20
1425.529985985976
 30
0.0
 11
1388.589201389576
 21
1424.299502290986
 31
0.0
  0
LINE
  5
1CC
330
1F
100
AcDbEntity
  8
1
  6
DASHED
 62
     4
100
AcDbLine
 10
1353.067817113963
 20
1392.536527491805
 30
0.0
 11
1358.467802056999
 21
1425.243753950419
 31
0.0
  0
LINE
  5
1CD
330
1F
100
AcDbEntity
  8
1
  6
DASHED
 62
     4
100
AcDbLine
 10
1360.599713138852
 20
1431.403752338329
 30
0.0
 11
1364.348957800774
 21
1430.784749539429
 31
0.0
  0
LINE
  5
1CE
330
1F
100
AcDbEntity
  8
1
  6
DOT_CENTER
 62
     3
100
AcDbLine
 10
1358.443474921215
 20
1429.276581874054
 30
0.0
 11
1365.896404751623
 21
1428.046098179063
 31
0.0
  0
LINE
  5
1CF
330
1F
100
AcDbEntity
  8
1
  6
Continuous
 62
     7
100
AcDbLine
 10
1394.92629290552
 20
1388.235524189348
 30
0.0
 11
1392.472170524306
 21
1388.640701434312
 31
0.0
  0
LINE
  5
1D0
330
1F
100
AcDbEntity
  8
1
  6
Continuous
 62
     7
100
AcDbLine
 10
1399.487366160573
 20
1415.861537487725
 30
0.0
 11
1397.033243779359
 21
1416.266714732688
 31
0.0
  0
LINE
  5
1D1
330
1F
100
AcDbEntity
  8
1
  6
DASH_CENTER
 62
     3
100
AcDbLine
 10
1362.889718926972
 20
1433.610191435696
 30
0.0
 11
1361.260764193024
 21
1423.743758114847
 31
0.0
  0
LINE
  5
1D2
330
1F
100
AcDbEntity
  8
1
  6
DASH_CENTER
 62
     3
100
AcDbLine
 10
1383.953560830976
 20
1419.99716222677
 30
0.0
 11
1385.582515564923
 21
1429.863595547619
 31
0.0
  0
LINE
  5
1D3
330
1F
100
AcDbEntity
  8
1
  6
DASH_CENTER
 62
     3
100
AcDbLine
 10
1356.19471497045
 20
1393.059150487009
 30
0.0
 11
1354.565760236503
 21
1383.192717166159
 31
0.0
  0
LINE
  5
1D4
330
1F
100
AcDbEntity
  8
1
  6
DASH_CENTER
 62
     3
100
AcDbLine
 10
1377.258556874454
 20
1379.446121278083
 30
0.0
 11
1378.887511608401
 21
1389.312554598931
 31
0.0
  0
LINE
  5
1D5
330
1F
100
AcDbEntity
  8
1
  6
DASHED
 62
     4
100
AcDbLine
 10
1358.987677106474
 20
1391.559154651438
 30
0.0
 11
1364.387662049507
 21
1424.26638111005
 31
0.0
  0
LINE
  5
1D6
330
1F
100
AcDbEntity
  8
1
  6
DASHED
 62
     4
100
AcDbLine
 10
1375.760613751918
 20
1388.789931603729
 30
0.0
 11
1381.16059869495
 21
1421.497158062342
 31
0.0
  0
LINE
  5
1D7
330
1F
100
AcDbEntity
  8
1
  6
DASHED
 62
     4
100
AcDbLine
 10
1387.08045868746
 20
1420.519785221973
 30
0.0
 11
1381.680473744425
 21
1387.81255876336
 31
0.0
  0
LINE
  5
1D8
330
1F
100
AcDbEntity
  8
1
  6
Continuous
 62
     7
100
AcDbLine
 10
1730.120172190551
 20
1310.035301702216
 30
0.0
 11
1725.680553027678
 21
1264.959091885499
 31
0.0
  0
LINE
  5
1D9
330
1F
100
AcDbEntity
  8
1
  6
Continuous
 62
     7
100
AcDbLine
 10
1392.590791412978
 20
1351.82304855201
 30
0.0
 11
1386.484319668165
 21
1289.823000459855
 31
0.0
  0
LINE
  5
1DA
330
1F
100
AcDbEntity
  8
1
  6
DASH_CENTER
 62
     3
100
AcDbLine
 10
1749.056726486127
 20
1285.413476825675
 30
0.0
 11
1317.146555110397
 21
1327.952915728735
 31
0.0
  0
LINE
  5
1DB
330
1F
100
AcDbEntity
  8
1
  6
Continuous
 62
     7
100
AcDbLine
 10
1725.680553027678
 20
1264.959091885499
 30
0.0
 11
1386.484319668165
 21
1289.823000459855
 31
0.0
  0
LINE
  5
1DC
330
1F
100
AcDbEntity
  8
1
  6
Continuous
 62
     7
100
AcDbLine
 10
1392.590791412978
 20
1351.82304855201
 30
0.0
 11
1730.120172190551
 21
1310.035301702216
 31
0.0
  0
LINE
  5
1DD
330
1F
100
AcDbEntity
  8
1
  6
DASHED
 62
     4
100
AcDbLine
 10
1370.265502486896
 20
1299.609868892109
 30
0.0
 11
1366.483800525541
 21
1299.982334025362
 31
0.0
  0
LINE
  5
1DE
330
1F
100
AcDbEntity
  8
1
  6
DOT_CENTER
 62
     3
100
AcDbLine
 10
1372.46903659149
 20
1301.854694228124
 30
0.0
 11
1364.951586571826
 21
1302.595098430227
 31
0.0
  0
LINE
  5
1DF
330
1F
100
AcDbEntity
  8
1
  6
DASHED
 62
     4
100
AcDbLine
 10
1347.376253773435
 20
1301.864263119691
 30
0.0
 11
1343.594551812081
 21
1302.236728252944
 31
0.0
  0
LINE
  5
1E0
330
1F
100
AcDbEntity
  8
1
  6
DOT_CENTER
 62
     3
100
AcDbLine
 10
1349.57978787803
 20
1304.109088455705
 30
0.0
 11
1342.062337858366
 21
1304.84949265781
 31
0.0
  0
LINE
  5
1E1
330
1F
100
AcDbEntity
  8
1
  6
DASHED
 62
     4
100
AcDbLine
 10
1370.992588980702
 20
1345.760831452282
 30
0.0
 11
1374.774290942058
 21
1345.388366319029
 31
0.0
  0
LINE
  5
1E2
330
1F
100
AcDbEntity
  8
1
  6
DOT_CENTER
 62
     3
100
AcDbLine
 10
1368.980091039375
 20
1343.497190696455
 30
0.0
 11
1376.497541059039
 21
1342.756786494351
 31
0.0
  0
LINE
  5
1E3
330
1F
100
AcDbEntity
  8
1
  6
DASHED
 62
     4
100
AcDbLine
 10
1343.129608739357
 20
1308.738608976174
 30
0.0
 11
1346.378876941285
 21
1341.728982665358
 31
0.0
  0
LINE
  5
1E4
330
1F
100
AcDbEntity
  8
1
  6
DASHED
 62
     4
100
AcDbLine
 10
1348.103340267242
 20
1348.015225679864
 30
0.0
 11
1351.885042228597
 21
1347.642760546611
 31
0.0
  0
LINE
  5
1E5
330
1F
100
AcDbEntity
  8
1
  6
DOT_CENTER
 62
     3
100
AcDbLine
 10
1346.090842325914
 20
1345.751584924037
 30
0.0
 11
1353.608292345578
 21
1345.011180721933
 31
0.0
  0
LINE
  5
1E6
330
1F
100
AcDbEntity
  8
1
  6
Continuous
 62
     7
100
AcDbLine
 10
1385.179761395938
 20
1307.18448975351
 30
0.0
 11
1382.704393619411
 21
1307.428292199646
 31
0.0
  0
LINE
  5
1E7
330
1F
100
AcDbEntity
  8
1
  6
Continuous
 62
     7
100
AcDbLine
 10
1387.92424132517
 20
1335.049662100333
 30
0.0
 11
1385.448873548643
 21
1335.293464546467
 31
0.0
  0
LINE
  5
1E8
330
1F
100
AcDbEntity
  8
1
  6
DASH_CENTER
 62
     3
100
AcDbLine
 10
1350.244134955762
 20
1350.366714166252
 30
0.0
 11
1349.263963552463
 21
1340.414866899529
 31
0.0
  0
LINE
  5
1E9
330
1F
100
AcDbEntity
  8
1
  6
DASH_CENTER
 62
     3
100
AcDbLine
 10
1372.153212265925
 20
1338.160472671947
 30
0.0
 11
1373.133383669222
 21
1348.11231993867
 31
0.0
  0
LINE
  5
1EA
330
1F
100
AcDbEntity
  8
1
  6
DASH_CENTER
 62
     3
100
AcDbLine
 10
1346.215630488212
 20
1309.464621900025
 30
0.0
 11
1345.235459084916
 21
1299.512774633302
 31
0.0
  0
LINE
  5
1EB
330
1F
100
AcDbEntity
  8
1
  6
DASH_CENTER
 62
     3
100
AcDbLine
 10
1368.124707798377
 20
1297.258380405722
 30
0.0
 11
1369.104879201674
 21
1307.210227672443
 31
0.0
  0
LINE
  5
1EC
330
1F
100
AcDbEntity
  8
1
  6
DASHED
 62
     4
100
AcDbLine
 10
1349.10071709939
 20
1308.150506134197
 30
0.0
 11
1352.349985301318
 21
1341.140879823379
 31
0.0
  0
LINE
  5
1ED
330
1F
100
AcDbEntity
  8
1
  6
DASHED
 62
     4
100
AcDbLine
 10
1366.01885745282
 20
1306.484214748594
 30
0.0
 11
1369.268125654745
 21
1339.474588437776
 31
0.0
  0
LINE
  5
1EE
330
1F
100
AcDbEntity
  8
1
  6
DASHED
 62
     4
100
AcDbLine
 10
1375.239234014779
 20
1338.886485595797
 30
0.0
 11
1371.989965812852
 21
1305.896111906615
 31
0.0
  0
LINE
  5
1EF
330
1F
100
AcDbEntity
  8
1
  6
DASHED
 62
     4
100
AcDbLine
 10
1383.27146118873
 20
1210.847137745967
 30
0.0
 11
1383.192350078646
 21
1208.430543325005
 31
0.0
  0
LINE
  5
1F0
330
1F
100
AcDbEntity
  8
1
  6
DASHED
 62
     4
100
AcDbLine
 10
1677.979516994541
 20
1206.154235513345
 30
0.0
 11
1383.192350078646
 21
1208.430543325005
 31
0.0
  0
LINE
  5
1F1
330
1F
100
AcDbEntity
  8
1
  6
DASHED
 62
     4
100
AcDbLine
 10
1368.762435558006
 20
1256.653515982897
 30
0.0
 11
1367.67779796246
 21
1223.521264908057
 31
0.0
  0
LINE
  5
1F2
330
1F
100
AcDbEntity
  8
1
  6
DASHED
 62
     4
100
AcDbLine
 10
1361.681010437604
 20
1223.717579404989
 30
0.0
 11
1362.765648033148
 21
1256.84983047983
 31
0.0
  0
LINE
  5
1F3
330
1F
100
AcDbEntity
  8
1
  6
DASHED
 62
     4
100
AcDbLine
 10
1344.690112450503
 20
1224.27380381296
 30
0.0
 11
1345.774750046047
 21
1257.4060548878
 31
0.0
  0
LINE
  5
1F4
330
1F
100
AcDbEntity
  8
1
  6
DASH_CENTER
 62
     3
100
AcDbLine
 10
1364.385750431706
 20
1214.649227483922
 30
0.0
 11
1364.712941259924
 21
1224.643873358685
 31
0.0
  0
LINE
  5
1F5
330
1F
100
AcDbEntity
  8
1
  6
DASH_CENTER
 62
     3
100
AcDbLine
 10
1341.725255747967
 20
1225.396412263589
 30
0.0
 11
1341.39806491975
 21
1215.401766388823
 31
0.0
  0
LINE
  5
1F6
330
1F
100
AcDbEntity
  8
1
  6
DASH_CENTER
 62
     3
100
AcDbLine
 10
1365.730504735684
 20
1255.7272220292
 30
0.0
 11
1366.057695563903
 21
1265.721867903964
 31
0.0
  0
LINE
  5
1F7
330
1F
100
AcDbEntity
  8
1
  6
DASH_CENTER
 62
     3
100
AcDbLine
 10
1343.070010051948
 20
1266.474406808867
 30
0.0
 11
1342.742819223728
 21
1256.479760934102
 31
0.0
  0
LINE
  5
1F8
330
1F
100
AcDbEntity
  8
1
  6
Continuous
 62
     7
100
AcDbLine
 10
1381.671223556933
 20
1253.654546593463
 30
0.0
 11
1379.185210289937
 21
1253.735930241265
 31
0.0
  0
LINE
  5
1F9
330
1F
100
AcDbEntity
  8
1
  6
Continuous
 62
     7
100
AcDbLine
 10
1380.75508923792
 20
1225.669538144124
 30
0.0
 11
1378.269075970924
 21
1225.750921791927
 31
0.0
  0
LINE
  5
1FA
330
1F
100
AcDbEntity
  8
1
  6
DOT_CENTER
 62
     3
100
AcDbLine
 10
1339.227453834676
 20
1261.597520578023
 30
0.0
 11
1346.77723316851
 21
1261.350366393267
 31
0.0
  0
LINE
  5
1FB
330
1F
100
AcDbEntity
  8
1
  6
DASHED
 62
     4
100
AcDbLine
 10
1341.087593674545
 20
1263.987938368163
 30
0.0
 11
1344.885559106956
 21
1263.86360585344
 31
0.0
  0
LINE
  5
1FC
330
1F
100
AcDbEntity
  8
1
  6
DASHED
 62
     4
100
AcDbLine
 10
1338.693324925645
 20
1224.47011830989
 30
0.0
 11
1339.777962521191
 21
1257.602369384733
 31
0.0
  0
LINE
  5
1FD
330
1F
100
AcDbEntity
  8
1
  6
DOT_CENTER
 62
     3
100
AcDbLine
 10
1362.215139346631
 20
1260.84498167312
 30
0.0
 11
1369.764918680467
 21
1260.597827488365
 31
0.0
  0
LINE
  5
1FE
330
1F
100
AcDbEntity
  8
1
  6
DASHED
 62
     4
100
AcDbLine
 10
1364.075279186502
 20
1263.235399463261
 30
0.0
 11
1367.873244618912
 21
1263.111066948537
 31
0.0
  0
LINE
  5
1FF
330
1F
100
AcDbEntity
  8
1
  6
DOT_CENTER
 62
     3
100
AcDbLine
 10
1345.432478864533
 20
1220.272371847988
 30
0.0
 11
1337.882699530696
 21
1220.519526032744
 31
0.0
  0
LINE
  5
200
330
1F
100
AcDbEntity
  8
1
  6
DASHED
 62
     4
100
AcDbLine
 10
1343.380481297151
 20
1217.888234829528
 30
0.0
 11
1339.58251586474
 21
1218.012567344251
 31
0.0
  0
LINE
  5
201
330
1F
100
AcDbEntity
  8
1
  6
DOT_CENTER
 62
     3
100
AcDbLine
 10
1368.420164376489
 20
1219.519832943085
 30
0.0
 11
1360.870385042654
 21
1219.766987127841
 31
0.0
  0
LINE
  5
202
330
1F
100
AcDbEntity
  8
1
  6
DASHED
 62
     4
100
AcDbLine
 10
1366.368166809108
 20
1217.135695924625
 30
0.0
 11
1362.570201376696
 21
1217.260028439349
 31
0.0
  0
LINE
  5
203
330
1F
100
AcDbEntity
  8
1
  6
Continuous
 62
     7
100
AcDbLine
 10
1385.230750241065
 20
1270.69722691565
 30
0.0
 11
1724.770504112621
 21
1251.074428549514
 31
0.0
  0
LINE
  5
204
330
1F
100
AcDbEntity
  8
1
  6
Continuous
 62
     7
100
AcDbLine
 10
1723.288515691016
 20
1205.804365372286
 30
0.0
 11
1677.979516994541
 21
1206.154235513345
 31
0.0
  0
LINE
  5
205
330
1F
100
AcDbEntity
  8
1
  6
DASH_CENTER
 62
     3
100
AcDbLine
 10
1745.276858186137
 20
1227.743830797807
 30
0.0
 11
1311.509227221396
 21
1241.943912742488
 31
0.0
  0
LINE
  5
206
330
1F
100
AcDbEntity
  8
1
  6
Continuous
 62
     7
100
AcDbLine
 10
1385.230750241065
 20
1270.69722691565
 30
0.0
 11
1383.27146118873
 21
1210.847137745967
 31
0.0
  0
LINE
  5
207
330
1F
100
AcDbEntity
  8
1
  6
Continuous
 62
     7
100
AcDbLine
 10
1724.770504112621
 20
1251.074428549514
 30
0.0
 11
1723.288515691016
 21
1205.804365372286
 31
0.0
  0
LINE
  5
208
330
1F
100
AcDbEntity
  8
1
  6
Continuous
 62
     7
100
AcDbLine
 10
1384.536530503824
 20
559.4177940533109
 30
0.0
 11
1724.217896657724
 21
576.4124840422469
 31
0.0
  0
LINE
  5
209
330
1F
100
AcDbEntity
  8
1
  6
Continuous
 62
     7
100
AcDbLine
 10
1723.085750398167
 20
621.6983344245351
 30
0.0
 11
1382.979516994544
 21
621.6983344245369
 31
0.0
  0
LINE
  5
20A
330
1F
100
AcDbEntity
  8
1
  6
Continuous
 62
     7
100
AcDbLine
 10
1723.085750398167
 20
621.6983344245351
 30
0.0
 11
1724.217896657724
 21
576.4124840422469
 31
0.0
  0
LINE
  5
20B
330
1F
100
AcDbEntity
  8
1
  6
Continuous
 62
     7
100
AcDbLine
 10
1382.979516994544
 20
621.6983344245369
 30
0.0
 11
1384.536530503824
 21
559.4177940533109
 31
0.0
  0
LINE
  5
20C
330
1F
100
AcDbEntity
  8
1
  6
Continuous
 62
     7
100
AcDbLine
 10
1338.988262114353
 20
580.786117495284
 30
0.0
 11
1339.111348655817
 21
575.8626558367239
 31
0.0
  0
LINE
  5
20D
330
1F
100
AcDbEntity
  8
1
  6
DASH_CENTER
 62
     3
100
AcDbLine
 10
1364.375329894888
 20
605.6283555085249
 30
0.0
 11
1364.125407983287
 21
615.6252319726069
 31
0.0
  0
LINE
  5
20E
330
1F
100
AcDbEntity
  8
1
  6
DASH_CENTER
 62
     3
100
AcDbLine
 10
1341.1325921159
 20
615.0504115759229
 30
0.0
 11
1341.382514027503
 21
605.0535351118399
 31
0.0
  0
LINE
  5
20F
330
1F
100
AcDbEntity
  8
1
  6
DASH_CENTER
 62
     3
100
AcDbLine
 10
1365.402508951572
 20
564.541193241151
 30
0.0
 11
1365.152587039971
 21
574.5380697052349
 31
0.0
  0
LINE
  5
210
330
1F
100
AcDbEntity
  8
1
  6
DASH_CENTER
 62
     3
100
AcDbLine
 10
1342.159771172584
 20
573.9632493085489
 30
0.0
 11
1342.409693084187
 21
563.9663728444659
 31
0.0
  0
LINE
  5
211
330
1F
100
AcDbEntity
  8
1
  6
Continuous
 62
     7
100
AcDbLine
 10
1379.109476193386
 20
576.4374762334089
 30
0.0
 11
1381.108851486202
 21
576.4874606157289
 31
0.0
  0
LINE
  5
212
330
1F
100
AcDbEntity
  8
1
  6
Continuous
 62
     7
100
AcDbLine
 10
1378.409694840901
 20
604.4287303328349
 30
0.0
 11
1380.409070133715
 21
604.4787147151569
 31
0.0
  0
LINE
  5
213
330
1F
100
AcDbEntity
  8
1
  6
Continuous
 62
     7
100
AcDbLine
 10
1384.232875381229
 20
571.5639989571689
 30
0.0
 11
1384.182890998907
 21
573.5633742499849
 31
0.0
  0
LINE
  5
214
330
1F
100
AcDbEntity
  8
1
  6
Continuous
 62
     7
100
AcDbLine
 10
1383.283172117139
 20
609.5521295206779
 30
0.0
 11
1383.333156499461
 21
607.5527542278619
 31
0.0
  0
LINE
  5
215
330
1F
100
AcDbEntity
  8
1
  6
Continuous
 62
     7
100
AcDbLine
 10
1384.320348050288
 20
568.0650921947411
 30
0.0
 11
1384.232875381229
 21
571.5639989571689
 31
0.0
  0
LINE
  5
216
330
1F
100
AcDbEntity
  8
1
  6
Continuous
 62
     7
100
AcDbLine
 10
1383.195699448077
 20
613.051036283106
 30
0.0
 11
1383.283172117139
 21
609.5521295206779
 31
0.0
  0
LINE
  5
217
330
1F
100
AcDbEntity
  8
1
  6
Continuous
 62
     7
100
AcDbLine
 10
1367.912974553613
 20
604.166312325654
 30
0.0
 11
1378.409694840901
 21
604.4287303328349
 31
0.0
  0
LINE
  5
218
330
1F
100
AcDbEntity
  8
1
  6
Continuous
 62
     7
100
AcDbLine
 10
1368.612755906101
 20
576.175058226225
 30
0.0
 11
1379.109476193386
 21
576.4374762334089
 31
0.0
  0
LINE
  5
219
330
1F
100
AcDbEntity
  8
1
  6
Continuous
 62
     7
100
AcDbLine
 10
1345.184451107747
 20
573.0135460444599
 30
0.0
 11
1339.186325229297
 21
572.8635928974979
 31
0.0
  0
LINE
  5
21A
330
1F
100
AcDbEntity
  8
1
  6
Continuous
 62
     7
100
AcDbLine
 10
1368.177266975134
 20
573.588366441146
 30
0.0
 11
1362.179141096684
 21
573.4384132941839
 31
0.0
  0
LINE
  5
21B
330
1F
100
AcDbEntity
  8
1
  6
Continuous
 62
     7
100
AcDbLine
 10
1361.350649959727
 20
606.5780587726119
 30
0.0
 11
1367.348775838173
 21
606.7280119195739
 31
0.0
  0
LINE
  5
21C
330
1F
100
AcDbEntity
  8
1
  6
Continuous
 62
     7
100
AcDbLine
 10
1338.357834092336
 20
606.003238375929
 30
0.0
 11
1344.355959970786
 21
606.1531915228889
 31
0.0
  0
LINE
  5
21D
330
1F
100
AcDbEntity
  8
1
  6
Continuous
 62
     7
100
AcDbLine
 10
1361.614942381244
 20
576.0001128881049
 30
0.0
 11
1345.619940038715
 21
575.6002378295409
 31
0.0
  0
LINE
  5
21E
330
1F
100
AcDbEntity
  8
1
  6
Continuous
 62
     7
100
AcDbLine
 10
1368.125408178476
 20
575.662718307442
 30
0.0
 11
1368.177266975134
 21
573.588366441146
 31
0.0
  0
LINE
  5
21F
330
1F
100
AcDbEntity
  8
1
  6
Continuous
 62
     7
100
AcDbLine
 10
1362.12728230003
 20
575.5127651604801
 30
0.0
 11
1362.179141096684
 21
573.4384132941839
 31
0.0
  0
LINE
  5
220
330
1F
100
AcDbEntity
  8
1
  6
Continuous
 62
     7
100
AcDbLine
 10
1345.132592311089
 20
575.0878979107579
 30
0.0
 11
1345.184451107747
 21
573.0135460444599
 31
0.0
  0
LINE
  5
221
330
1F
100
AcDbEntity
  8
1
  6
DOT_CENTER
 62
     3
100
AcDbLine
 10
1346.156414542239
 20
569.0616031368529
 30
0.0
 11
1338.604950260547
 21
568.8728165298119
 31
0.0
  0
LINE
  5
222
330
1F
100
AcDbEntity
  8
1
  6
Continuous
 62
     7
100
AcDbLine
 10
1384.314100002498
 20
568.3150141063429
 30
0.0
 11
1384.320348050288
 21
568.0650921947411
 31
0.0
  0
LINE
  5
223
330
1F
100
AcDbEntity
  8
1
  6
Continuous
 62
     7
100
AcDbLine
 10
1344.245369524903
 20
566.563061506012
 30
0.0
 11
1340.446556468552
 21
566.468091179604
 31
0.0
  0
LINE
  5
224
330
1F
100
AcDbEntity
  8
1
  6
Continuous
 62
     7
100
AcDbLine
 10
1339.186325229297
 20
572.8635928974979
 30
0.0
 11
1339.111348655817
 21
575.8626558367239
 31
0.0
  0
LINE
  5
225
330
1F
100
AcDbEntity
  8
1
  6
DOT_CENTER
 62
     3
100
AcDbLine
 10
1369.149230409626
 20
569.6364235335379
 30
0.0
 11
1361.597766127934
 21
569.4476369264969
 31
0.0
  0
LINE
  5
226
330
1F
100
AcDbEntity
  8
1
  6
Continuous
 62
     7
100
AcDbLine
 10
1367.238185392288
 20
567.1378819026959
 30
0.0
 11
1363.439372335939
 21
567.0429115762879
 31
0.0
  0
LINE
  5
227
330
1F
100
AcDbEntity
  8
1
  6
Continuous
 62
     7
100
AcDbLine
 10
1344.92015868623
 20
603.5914919289689
 30
0.0
 11
1360.91516102876
 21
603.991366987533
 31
0.0
  0
LINE
  5
228
330
1F
100
AcDbEntity
  8
1
  6
Continuous
 62
     7
100
AcDbLine
 10
1367.348775838173
 20
606.7280119195739
 30
0.0
 11
1367.400634634829
 21
604.653660053277
 31
0.0
  0
LINE
  5
229
330
1F
100
AcDbEntity
  8
1
  6
Continuous
 62
     7
100
AcDbLine
 10
1361.350649959727
 20
606.5780587726119
 30
0.0
 11
1361.402508756381
 21
604.5037069063169
 31
0.0
  0
LINE
  5
22A
330
1F
100
AcDbEntity
  8
1
  6
Continuous
 62
     7
100
AcDbLine
 10
1344.355959970786
 20
606.1531915228889
 30
0.0
 11
1344.407818767445
 21
604.0788396565929
 31
0.0
  0
LINE
  5
22B
330
1F
100
AcDbEntity
  8
1
  6
DOT_CENTER
 62
     3
100
AcDbLine
 10
1337.577771203863
 20
609.9599787971849
 30
0.0
 11
1345.129235485555
 21
610.1487654042279
 31
0.0
  0
LINE
  5
22C
330
1F
100
AcDbEntity
  8
1
  6
Continuous
 62
     7
100
AcDbLine
 10
1339.296915675182
 20
612.4537229143759
 30
0.0
 11
1343.095728731535
 21
612.5486932407849
 31
0.0
  0
LINE
  5
22D
330
1F
100
AcDbEntity
  8
1
  6
Continuous
 62
     7
100
AcDbLine
 10
1338.432810665819
 20
603.0041754367051
 30
0.0
 11
1338.357834092336
 21
606.003238375929
 31
0.0
  0
LINE
  5
22E
330
1F
100
AcDbEntity
  8
1
  6
DOT_CENTER
 62
     3
100
AcDbLine
 10
1360.57058707125
 20
610.534799193871
 30
0.0
 11
1368.12205135294
 21
610.7235858009119
 31
0.0
  0
LINE
  5
22F
330
1F
100
AcDbEntity
  8
1
  6
Continuous
 62
     7
100
AcDbLine
 10
1362.289731542568
 20
613.028543311062
 30
0.0
 11
1366.08854459892
 21
613.12351363747
 31
0.0
  0
LINE
  5
230
330
1F
100
AcDbEntity
  8
1
  6
Continuous
 62
     7
100
AcDbLine
 10
1338.432810665819
 20
603.0041754367051
 30
0.0
 11
1338.988262114353
 21
580.786117495284
 31
0.0
  0
LINE
  5
231
330
1F
100
AcDbEntity
  8
1
  6
Continuous
 62
     7
100
AcDbLine
 10
1345.132592311089
 20
575.0878979107579
 30
0.0
 11
1344.407818767445
 21
604.0788396565929
 31
0.0
  0
LINE
  5
232
330
1F
100
AcDbEntity
  8
1
  6
Continuous
 62
     7
100
AcDbLine
 10
1362.12728230003
 20
575.5127651604801
 30
0.0
 11
1361.402508756386
 21
604.503706906316
 31
0.0
  0
LINE
  5
233
330
1F
100
AcDbEntity
  8
1
  6
Continuous
 62
     7
100
AcDbLine
 10
1368.125408178476
 20
575.662718307442
 30
0.0
 11
1367.400634634829
 21
604.653660053277
 31
0.0
  0
ARC
  5
234
330
1F
100
AcDbEntity
  8
1
  6
Continuous
 62
     7
100
AcDbCircle
 10
840.6128232113936
 20
1773.965972233012
 30
0.0
 40
4.344898672318931
100
AcDbArc
 50
-146.8842474680436
 51
-78.11575253195296
  0
ARC
  5
235
330
1F
100
AcDbEntity
  8
1
  6
Continuous
 62
     7
100
AcDbCircle
 10
851.966068361324
 20
1782.139346424064
 30
0.0
 40
16.24081062144519
100
AcDbArc
 50
-130.087953773994
 51
-94.91204622600662
  0
ARC
  5
236
330
1F
100
AcDbEntity
  8
1
  6
Continuous
 62
     7
100
AcDbCircle
 10
854.2145766796447
 20
1768.331941474406
 30
0.0
 40
4.344898672318023
100
AcDbArc
 50
-146.8842474680537
 51
-78.11575253194546
  0
ARC
  5
237
330
1F
100
AcDbEntity
  8
1
  6
Continuous
 62
     4
100
AcDbCircle
 10
2627.979516994615
 20
1198.847137745998
 30
0.0
 40
1480.000000000002
100
AcDbArc
 50
141.5246060562646
 51
149.0938258967791
  0
ARC
  5
238
330
1F
100
AcDbEntity
  8
1
  6
Continuous
 62
     4
100
AcDbCircle
 10
2627.979516994615
 20
1198.847137745998
 30
0.0
 40
1420.0
100
AcDbArc
 50
141.5246060562646
 51
149.0938258967791
  0
ARC
  5
239
330
1F
100
AcDbEntity
  8
1
  6
DASH_CENTER
 62
     3
100
AcDbCircle
 10
2627.979516994636
 20
1198.847137745974
 30
0.0
 40
1100.000000000096
100
AcDbArc
 50
155.6250000000042
 51
180.0
  0
ARC
  5
23A
330
1F
100
AcDbEntity
  8
1
  6
Continuous
 62
     7
100
AcDbCircle
 10
2627.979516994636
 20
1198.847137745974
 30
0.0
 40
900.0000000000788
100
AcDbArc
 50
135.0000000000033
 51
-179.9999999999996
  0
ARC
  5
23B
330
1F
100
AcDbEntity
  8
1
  6
DASHED
 62
     4
100
AcDbCircle
 10
2627.979516994627
 20
1198.847137745983
 30
0.0
 40
1300.000000000001
100
AcDbArc
 50
135.0000000000025
 51
-179.9999999999996
  0
ARC
  5
23C
330
1F
100
AcDbEntity
  8
1
  6
Continuous
 62
     7
100
AcDbCircle
 10
2627.979516994636
 20
1198.847137745974
 30
0.0
 40
870.0000000000771
100
AcDbArc
 50
135.327406236183
 51
179.6725937638208
  0
ARC
  5
23D
330
1F
100
AcDbEntity
  8
1
  6
Continuous
 62
     7
100
AcDbCircle
 10
2627.979516994627
 20
1198.847137745983
 30
0.0
 40
1330.000000000075
100
AcDbArc
 50
135.2162110018719
 51
179.783788998131
  0
ARC
  5
23E
330
1F
100
AcDbEntity
  8
1
  6
Continuous
 62
     4
100
AcDbCircle
 10
2627.979516994561
 20
1198.847137745868
 30
0.0
 40
1420.000000000001
100
AcDbArc
 50
165.9061741032133
 51
173.4753939437278
  0
ARC
  5
23F
330
1F
100
AcDbEntity
  8
1
  6
Continuous
 62
     4
100
AcDbCircle
 10
2627.979516994561
 20
1198.847137745868
 30
0.0
 40
1480.000000000001
100
AcDbArc
 50
165.9061741032133
 51
173.4753939437279
  0
ARC
  5
240
330
1F
100
AcDbEntity
  8
1
  6
DASH_CENTER
 62
     3
100
AcDbCircle
 10
2627.979516994519
 20
1198.847137745944
 30
0.0
 40
1100.000000000002
100
AcDbArc
 50
134.9999999999745
 51
151.8750000000002
  0
ARC
  5
241
330
1F
100
AcDbEntity
  8
1
  6
DASH_CENTER
 62
     3
100
AcDbCircle
 10
2627.979516994519
 20
1198.847137745944
 30
0.0
 40
1100.000000000001
100
AcDbArc
 50
151.8750000000002
 51
155.6250000000003
  0
ARC
  5
242
330
1F
100
AcDbEntity
  8
1
  6
Continuous
 62
     7
100
AcDbCircle
 10
1319.511646463302
 20
583.320980842852
 30
0.0
 40
3.322569572950458
100
AcDbArc
 50
147.0478487161289
 51
-144.1836563477756
  0
ARC
  5
243
330
1F
100
AcDbEntity
  8
1
  6
Continuous
 62
     7
100
AcDbCircle
 10
1328.464993694663
 20
589.175738487561
 30
0.0
 40
12.41944341639877
100
AcDbArc
 50
163.8441424101748
 51
-160.9799500418373
  0
ARC
  5
244
330
1F
100
AcDbEntity
  8
1
  6
Continuous
 62
     7
100
AcDbCircle
 10
1319.230276121567
 20
594.5757945121571
 30
0.0
 40
3.322569572949999
100
AcDbArc
 50
147.0478487161051
 51
-144.1836563477883
  0
ARC
  5
245
330
1F
100
AcDbEntity
  8
1
  6
DASHED
 62
     4
100
AcDbCircle
 10
958.3824512995836
 20
1665.086769565379
 30
0.0
 40
31.89999999999853
100
AcDbArc
 50
-51.53839024543954
 51
-41.34515555572385
  0
ARC
  5
246
330
1F
100
AcDbEntity
  8
1
  6
Continuous
 62
     7
100
AcDbCircle
 10
958.3824512995836
 20
1665.086769565379
 30
0.0
 40
31.89999999999978
100
AcDbArc
 50
-41.34515555572385
 51
-3.65484444427158
  0
ARC
  5
247
330
1F
100
AcDbEntity
  8
1
  6
DASHED
 62
     4
100
AcDbCircle
 10
990.2352728408122
 20
1741.986283330067
 30
0.0
 40
31.90000000000094
100
AcDbArc
 50
-51.53839024543934
 51
-41.34515555572728
  0
ARC
  5
248
330
1F
100
AcDbEntity
  8
1
  6
Continuous
 62
     7
100
AcDbCircle
 10
990.2352728408122
 20
1741.986283330067
 30
0.0
 40
31.89999999999981
100
AcDbArc
 50
6.53839024543929
 51
24.16940320518863
  0
ARC
  5
249
330
1F
100
AcDbEntity
  8
1
  6
Continuous
 62
     7
100
AcDbCircle
 10
990.2352728408122
 20
1741.986283330067
 30
0.0
 40
31.9000000000007
100
AcDbArc
 50
-41.34515555572728
 51
-3.65484444427729
  0
ARC
  5
24A
330
1F
100
AcDbEntity
  8
1
  6
DASHED
 62
     4
100
AcDbCircle
 10
1117.714904675041
 20
2049.749339430588
 30
0.0
 40
31.89999999999967
100
AcDbArc
 50
-51.53839024543959
 51
-41.34515555572836
  0
ARC
  5
24B
330
1F
100
AcDbEntity
  8
1
  6
Continuous
 62
     7
100
AcDbCircle
 10
1117.714904675041
 20
2049.749339430588
 30
0.0
 40
31.90000000000002
100
AcDbArc
 50
-41.34515555572836
 51
-3.65484444427523
  0
ARC
  5
24C
330
1F
100
AcDbEntity
  8
1
  6
Continuous
 62
     7
100
AcDbCircle
 10
1085.862083133812
 20
1972.849825665903
 30
0.0
 40
31.89999999999884
100
AcDbArc
 50
-41.34515555572533
 51
-3.6548444442737
  0
ARC
  5
24D
330
1F
100
AcDbEntity
  8
1
  6
DASHED
 62
     4
100
AcDbCircle
 10
1085.862083133812
 20
1972.849825665903
 30
0.0
 40
31.89999999999981
100
AcDbArc
 50
-51.5383902454419
 51
-41.34515555572533
  0
ARC
  5
24E
330
1F
100
AcDbEntity
  8
1
  6
DASHED
 62
     4
100
AcDbCircle
 10
1054.009261592583
 20
1895.950311901218
 30
0.0
 40
31.8999999999991
100
AcDbArc
 50
-51.53839024544087
 51
-41.3451555557256
  0
ARC
  5
24F
330
1F
100
AcDbEntity
  8
1
  6
Continuous
 62
     7
100
AcDbCircle
 10
1054.009261592583
 20
1895.950311901218
 30
0.0
 40
31.89999999999867
100
AcDbArc
 50
-41.3451555557256
 51
-3.65484444427536
  0
ARC
  5
250
330
1F
100
AcDbEntity
  8
1
  6
Continuous
 62
     7
100
AcDbCircle
 10
1022.088094382043
 20
1818.885797094752
 30
0.0
 40
31.89999999999867
100
AcDbArc
 50
-41.3451555557256
 51
-3.65484444427523
  0
ARC
  5
251
330
1F
100
AcDbEntity
  8
1
  6
DASHED
 62
     4
100
AcDbCircle
 10
1022.088094382043
 20
1818.885797094752
 30
0.0
 40
31.90000000000055
100
AcDbArc
 50
-51.53839024544087
 51
-41.3451555557256
  0
ARC
  5
252
330
1F
100
AcDbEntity
  8
1
  6
DASHED
 62
     4
100
AcDbCircle
 10
766.3264686804323
 20
1969.969078790919
 30
0.0
 40
56.59999999999987
100
AcDbArc
 50
-117.6233809281537
 51
72.62338092815624
  0
ARC
  5
253
330
1F
100
AcDbEntity
  8
DETAIL
  6
DASHED
 62
     4
100
AcDbCircle
 10
766.3264686804323
 20
1969.969078790919
 30
0.0
 40
67.49999999999963
100
AcDbArc
 50
-136.1440000000002
 51
91.14399999999996
  0
ARC
  5
254
330
1F
100
AcDbEntity
  8
COLOR
  6
DASHED
 62
     4
100
AcDbCircle
 10
729.0441600631947
 20
2009.972478073593
 30
0.0
 40
4.000000000001013
100
AcDbArc
 50
-47.01700000001171
 51
37.50000000000068
  0
ARC
  5
255
330
1F
100
AcDbEntity
  8
COLOR
  6
DASHED
 62
     4
100
AcDbCircle
 10
711.6772205356017
 20
1968.044977129166
 30
0.0
 40
3.999999999998809
100
AcDbArc
 50
-82.49999999999727
 51
2.01699999999665
  0
ARC
  5
256
330
1F
100
AcDbEntity
  8
COLOR
  6
DASHED
 62
     4
100
AcDbCircle
 10
752.5906598265523
 20
1917.20945829257
 30
0.0
 40
14.9999999999999
100
AcDbArc
 50
7.06400000000202
 51
67.50000000000168
  0
ARC
  5
257
330
1F
100
AcDbEntity
  8
COLOR
  6
DASHED
 62
     4
100
AcDbCircle
 10
793.920470521982
 20
2016.988447803791
 30
0.0
 40
15.00000000000155
100
AcDbArc
 50
-112.4999999999982
 51
-52.06400000000466
  0
ARC
  5
258
330
1F
100
AcDbEntity
  8
DETAIL
  6
DASHED
 62
     4
100
AcDbCircle
 10
682.7819501546935
 20
1931.595139713697
 30
0.0
 40
2.500000000002361
100
AcDbArc
 50
-108.851999999991
 51
-22.49500000001554
  0
ARC
  5
259
330
1F
100
AcDbEntity
  8
DETAIL
  6
DASHED
 62
     4
100
AcDbCircle
 10
694.8991183629524
 20
1967.083490008022
 30
0.0
 40
40.00000000000043
100
AcDbArc
 50
-112.5000000000001
 51
-98.57200000000053
  0
ARC
  5
25A
330
1F
100
AcDbEntity
  8
DETAIL
  6
DASHED
 62
     4
100
AcDbCircle
 10
734.3860456422608
 20
2056.178446913778
 30
0.0
 40
2.500000000000039
100
AcDbArc
 50
-22.50500000001414
 51
63.85199999999492
  0
ARC
  5
25B
330
1F
100
AcDbEntity
  8
DETAIL
  6
DASHED
 62
     4
100
AcDbCircle
 10
717.8601243048573
 20
2022.516261958699
 30
0.0
 40
39.99999999999816
100
AcDbArc
 50
53.57199999999794
 51
67.49999999999925
  0
ARC
  5
25C
330
1F
100
AcDbEntity
  8
DETAIL
  6
DASHED
 62
     4
100
AcDbCircle
 10
698.6750233682473
 20
1950.365968140503
 30
0.0
 40
4.999999999999821
100
AcDbArc
 50
67.49999999999615
 51
157.5000000000206
  0
ARC
  5
25D
330
1F
100
AcDbEntity
  8
DETAIL
  6
DASHED
 62
     4
100
AcDbCircle
 10
732.3511654163757
 20
2031.667367001496
 30
0.0
 40
5.00000000000052
100
AcDbArc
 50
157.4999999999938
 51
-112.4999999999935
  0
ARC
  5
25E
330
1F
100
AcDbEntity
  8
COLOR
  6
DASHED
 62
     4
100
AcDbCircle
 10
766.3264686804323
 20
1969.969078790919
 30
0.0
 40
50.29999999999927
100
AcDbArc
 50
-55.75066063402732
 51
10.75066063402838
  0
ARC
  5
25F
330
1F
100
AcDbEntity
  8
COLOR
  6
DASHED
 62
     4
100
AcDbCircle
 10
766.3264686804323
 20
1969.969078790919
 30
0.0
 40
48.68300000000059
100
AcDbArc
 50
122.5771953162938
 51
-167.5771953162938
  0
ARC
  5
260
330
1F
100
AcDbEntity
  8
1
  6
Continuous
 62
     7
100
AcDbCircle
 10
958.3824512995836
 20
1665.086769565379
 30
0.0
 40
31.89999999999943
100
AcDbArc
 50
-69.16940320519375
 51
-51.53839024543954
  0
ARC
  5
261
330
1F
100
AcDbEntity
  8
1
  6
DASHED
 62
     4
100
AcDbCircle
 10
958.3824512995836
 20
1665.086769565379
 30
0.0
 40
31.9000000000002
100
AcDbArc
 50
21.9217496694233
 51
-69.16940320519375
  0
ARC
  5
262
330
1F
100
AcDbEntity
  8
1
  6
DASHED
 62
     4
100
AcDbCircle
 10
958.3824512995836
 20
1665.086769565379
 30
0.0
 40
31.8999999999998
100
AcDbArc
 50
-3.65484444427158
 51
6.53839024544087
  0
ARC
  5
263
330
1F
100
AcDbEntity
  8
1
  6
Continuous
 62
     7
100
AcDbCircle
 10
958.3824512995836
 20
1665.086769565379
 30
0.0
 40
31.90000000000014
100
AcDbArc
 50
6.53839024544087
 51
21.9217496694233
  0
ARC
  5
264
330
1F
100
AcDbEntity
  8
1
  6
DASHED
 62
     4
100
AcDbCircle
 10
990.2352728408122
 20
1741.986283330067
 30
0.0
 40
31.89999999999963
100
AcDbArc
 50
24.16940320518863
 51
-69.16940320519466
  0
ARC
  5
265
330
1F
100
AcDbEntity
  8
1
  6
Continuous
 62
     7
100
AcDbCircle
 10
990.2352728408122
 20
1741.986283330067
 30
0.0
 40
31.90000000000045
100
AcDbArc
 50
-69.16940320519466
 51
-51.53839024543934
  0
ARC
  5
266
330
1F
100
AcDbEntity
  8
1
  6
DASHED
 62
     4
100
AcDbCircle
 10
990.2352728408122
 20
1741.986283330067
 30
0.0
 40
31.89999999999989
100
AcDbArc
 50
-3.65484444427729
 51
6.53839024543929
  0
ARC
  5
267
330
1F
100
AcDbEntity
  8
1
  6
DASHED
 62
     4
100
AcDbCircle
 10
1022.088094382043
 20
1818.885797094752
 30
0.0
 40
31.90000000000005
100
AcDbArc
 50
-3.65484444427523
 51
6.53839024543945
  0
ARC
  5
268
330
1F
100
AcDbEntity
  8
1
  6
Continuous
 62
     7
100
AcDbCircle
 10
1022.088094382043
 20
1818.885797094752
 30
0.0
 40
31.89999999999902
100
AcDbArc
 50
6.53839024543945
 51
24.16940320519332
  0
ARC
  5
269
330
1F
100
AcDbEntity
  8
1
  6
Continuous
 62
     7
100
AcDbCircle
 10
1022.088094382043
 20
1818.885797094752
 30
0.0
 40
31.89999999999947
100
AcDbArc
 50
-69.16940320519355
 51
-51.53839024544087
  0
ARC
  5
26A
330
1F
100
AcDbEntity
  8
1
  6
DASHED
 62
     4
100
AcDbCircle
 10
1022.088094382043
 20
1818.885797094752
 30
0.0
 40
31.89999999999881
100
AcDbArc
 50
24.16940320519332
 51
-69.16940320519355
  0
ARC
  5
26B
330
1F
100
AcDbEntity
  8
1
  6
DASHED
 62
     4
100
AcDbCircle
 10
1054.009261592583
 20
1895.950311901218
 30
0.0
 40
31.89999999999892
100
AcDbArc
 50
-3.65484444427536
 51
6.53839024543964
  0
ARC
  5
26C
330
1F
100
AcDbEntity
  8
1
  6
Continuous
 62
     7
100
AcDbCircle
 10
1054.009261592583
 20
1895.950311901218
 30
0.0
 40
31.89999999999812
100
AcDbArc
 50
6.53839024543964
 51
24.16940320519451
  0
ARC
  5
26D
330
1F
100
AcDbEntity
  8
1
  6
Continuous
 62
     7
100
AcDbCircle
 10
1054.009261592583
 20
1895.950311901218
 30
0.0
 40
31.90000000000053
100
AcDbArc
 50
-69.16940320519427
 51
-51.53839024544087
  0
ARC
  5
26E
330
1F
100
AcDbEntity
  8
1
  6
DASHED
 62
     4
100
AcDbCircle
 10
1054.009261592583
 20
1895.950311901218
 30
0.0
 40
31.9000000000001
100
AcDbArc
 50
24.16940320519451
 51
-69.16940320519427
  0
ARC
  5
26F
330
1F
100
AcDbEntity
  8
1
  6
Continuous
 62
     7
100
AcDbCircle
 10
1085.862083133812
 20
1972.849825665903
 30
0.0
 40
31.89999999999935
100
AcDbArc
 50
6.53839024544103
 51
24.16940320519315
  0
ARC
  5
270
330
1F
100
AcDbEntity
  8
1
  6
DASHED
 62
     4
100
AcDbCircle
 10
1085.862083133812
 20
1972.849825665903
 30
0.0
 40
31.89999999999908
100
AcDbArc
 50
-3.6548444442737
 51
6.53839024544103
  0
ARC
  5
271
330
1F
100
AcDbEntity
  8
1
  6
Continuous
 62
     7
100
AcDbCircle
 10
1085.862083133812
 20
1972.849825665903
 30
0.0
 40
31.89999999999987
100
AcDbArc
 50
-69.16940320519164
 51
-51.5383902454419
  0
ARC
  5
272
330
1F
100
AcDbEntity
  8
1
  6
DASHED
 62
     4
100
AcDbCircle
 10
1085.862083133812
 20
1972.849825665903
 30
0.0
 40
31.89999999999901
100
AcDbArc
 50
24.16940320519315
 51
-69.16940320519164
  0
ARC
  5
273
330
1F
100
AcDbEntity
  8
1
  6
DASHED
 62
     4
100
AcDbCircle
 10
1117.714904675041
 20
2049.749339430588
 30
0.0
 40
31.90000000000005
100
AcDbArc
 50
-3.65484444427523
 51
6.53839024543783
  0
ARC
  5
274
330
1F
100
AcDbEntity
  8
1
  6
Continuous
 62
     7
100
AcDbCircle
 10
1117.714904675041
 20
2049.749339430588
 30
0.0
 40
31.89999999999892
100
AcDbArc
 50
6.53839024543783
 51
24.16940320519295
  0
ARC
  5
275
330
1F
100
AcDbEntity
  8
1
  6
Continuous
 62
     7
100
AcDbCircle
 10
1117.714904675041
 20
2049.749339430588
 30
0.0
 40
31.90000000000021
100
AcDbArc
 50
-66.92174966931033
 51
-51.53839024543959
  0
ARC
  5
276
330
1F
100
AcDbEntity
  8
1
  6
DASHED
 62
     4
100
AcDbCircle
 10
1117.714904675041
 20
2049.749339430588
 30
0.0
 40
31.89999999999871
100
AcDbArc
 50
24.16940320519295
 51
-66.92174966931033
  0
ARC
  5
277
330
1F
100
AcDbEntity
  8
1
  6
Continuous
 62
     7
100
AcDbCircle
 10
2627.979516994627
 20
1198.847137745983
 30
0.0
 40
1306.000000000074
100
AcDbArc
 50
135.1319167232574
 51
179.8680832767455
  0
ARC
  5
278
330
1F
100
AcDbEntity
  8
1
  6
Continuous
 62
     7
100
AcDbCircle
 10
2627.979516994627
 20
1198.847137745983
 30
0.0
 40
1250.000000000074
100
AcDbArc
 50
135.1371807683684
 51
179.8628192316347
  0
ARC
  5
279
330
1F
100
AcDbEntity
  8
1
  6
DASHED
 62
     4
100
AcDbCircle
 10
1707.694298822968
 20
2038.43137017184
 30
0.0
 40
20.8194091376529
100
AcDbArc
 50
137.583602704024
 51
155.5968019293493
  0
ARC
  5
27A
330
1F
100
AcDbEntity
  8
1
  6
DASHED
 62
     4
100
AcDbCircle
 10
1730.003365805632
 20
2062.250518570489
 30
0.0
 40
20.81940913765422
100
AcDbArc
 50
118.1531980706563
 51
136.1663972959867
  0
ARC
  5
27B
330
1F
100
AcDbEntity
  8
1
  6
DASHED
 62
     4
100
AcDbCircle
 10
1703.994196908653
 20
2086.610763587435
 30
0.0
 40
20.81940913765501
100
AcDbArc
 50
-42.41639729597491
 51
-24.40319807065151
  0
ARC
  5
27C
330
1F
100
AcDbEntity
  8
1
  6
DASHED
 62
     4
100
AcDbCircle
 10
1713.216492133581
 20
2077.973141517015
 30
0.0
 40
20.81940913765422
100
AcDbArc
 50
118.1531980706563
 51
136.1663972959839
  0
ARC
  5
27D
330
1F
100
AcDbEntity
  8
1
  6
DASHED
 62
     4
100
AcDbCircle
 10
1687.207323236602
 20
2102.333386533961
 30
0.0
 40
20.81940913765579
100
AcDbArc
 50
-42.41639729597634
 51
-24.40319807065581
  0
ARC
  5
27E
330
1F
100
AcDbEntity
  8
1
  6
DASHED
 62
     4
100
AcDbCircle
 10
1681.68512992599
 20
2062.791615188785
 30
0.0
 40
20.81940913765555
100
AcDbArc
 50
-61.84680192934211
 51
-43.83360270401114
  0
ARC
  5
27F
330
1F
100
AcDbEntity
  8
1
  6
DASHED
 62
     4
100
AcDbCircle
 10
1690.907425150919
 20
2054.153993118365
 30
0.0
 40
20.81940913765431
100
AcDbArc
 50
137.5836027040318
 51
155.5968019293519
  0
ARC
  5
280
330
1F
100
AcDbEntity
  8
1
  6
DASHED
 62
     4
100
AcDbCircle
 10
1664.898256253939
 20
2078.514238135311
 30
0.0
 40
20.81940913765585
100
AcDbArc
 50
-61.84680192934324
 51
-43.83360270401956
  0
ARC
  5
281
330
1F
100
AcDbEntity
  8
1
  6
DASHED
 62
     4
100
AcDbCircle
 10
1609.427306114214
 20
2013.642275193593
 30
0.0
 40
20.81940913765558
100
AcDbArc
 50
-58.09680192932593
 51
-40.08360270399903
  0
ARC
  5
282
330
1F
100
AcDbEntity
  8
1
  6
DASHED
 62
     4
100
AcDbCircle
 10
1636.974023637012
 20
1991.035268365697
 30
0.0
 40
20.81940913765439
100
AcDbArc
 50
141.3336027040353
 51
159.346801929356
  0
ARC
  5
283
330
1F
100
AcDbEntity
  8
1
  6
DASHED
 62
     4
100
AcDbCircle
 10
1627.206546541563
 20
1999.051229657833
 30
0.0
 40
20.81940913765373
100
AcDbArc
 50
-58.09680192932937
 51
-40.08360270400105
  0
ARC
  5
284
330
1F
100
AcDbEntity
  8
1
  6
DASHED
 62
     4
100
AcDbCircle
 10
1630.130760831121
 20
2038.869507758006
 30
0.0
 40
20.8194091376535
100
AcDbArc
 50
-38.66639729596672
 51
-20.65319807063789
  0
ARC
  5
285
330
1F
100
AcDbEntity
  8
1
  6
DASHED
 62
     4
100
AcDbCircle
 10
1657.677478353917
 20
2016.262500930111
 30
0.0
 40
20.8194091376547
100
AcDbArc
 50
121.903198070669
 51
139.9163972959927
  0
ARC
  5
286
330
1F
100
AcDbEntity
  8
1
  6
DASHED
 62
     4
100
AcDbCircle
 10
1647.910001258466
 20
2024.278462222247
 30
0.0
 40
20.81940913765599
100
AcDbArc
 50
-38.66639729596125
 51
-20.65319807063759
  0
ARC
  5
287
330
1F
100
AcDbEntity
  8
1
  6
DASHED
 62
     4
100
AcDbCircle
 10
1675.456718781263
 20
2001.671455394351
 30
0.0
 40
20.81940913765487
100
AcDbArc
 50
121.903198070665
 51
139.9163972959969
  0
ARC
  5
288
330
1F
100
AcDbEntity
  8
1
  6
DASHED
 62
     4
100
AcDbCircle
 10
1654.753264064359
 20
1976.44422282994
 30
0.0
 40
20.81940913765453
100
AcDbArc
 50
141.3336027040388
 51
159.3468019293639
  0
ARC
  5
289
330
1F
100
AcDbEntity
  8
1
  6
DASHED
 62
     4
100
AcDbCircle
 10
1558.31795291264
 20
1945.281234383635
 30
0.0
 40
20.81940913765622
100
AcDbArc
 50
-54.34680192932985
 51
-36.33360270400827
  0
ARC
  5
28A
330
1F
100
AcDbEntity
  8
1
  6
DASHED
 62
     4
100
AcDbCircle
 10
1587.284259787768
 20
1924.524272418713
 30
0.0
 40
20.81940913765481
100
AcDbArc
 50
145.0836027040375
 51
163.0968019293638
  0
ARC
  5
28B
330
1F
100
AcDbEntity
  8
1
  6
DASHED
 62
     4
100
AcDbCircle
 10
1577.013426658253
 20
1931.884247355678
 30
0.0
 40
20.81940913765249
100
AcDbArc
 50
-54.34680192933558
 51
-36.33360270400134
  0
ARC
  5
28C
330
1F
100
AcDbEntity
  8
1
  6
DASHED
 62
     4
100
AcDbCircle
 10
1577.327139992241
 20
1971.808524231008
 30
0.0
 40
20.8194091376542
100
AcDbArc
 50
-34.91639729596449
 51
-16.90319807063917
  0
ARC
  5
28D
330
1F
100
AcDbEntity
  8
1
  6
DASHED
 62
     4
100
AcDbCircle
 10
1606.293446867368
 20
1951.051562266089
 30
0.0
 40
20.81940913765355
100
AcDbArc
 50
125.6531980706685
 51
143.6663972959971
  0
ARC
  5
28E
330
1F
100
AcDbEntity
  8
1
  6
DASHED
 62
     4
100
AcDbCircle
 10
1596.022613737852
 20
1958.411537203056
 30
0.0
 40
20.81940913765505
100
AcDbArc
 50
-34.91639729596896
 51
-16.90319807064066
  0
ARC
  5
28F
330
1F
100
AcDbEntity
  8
1
  6
DASHED
 62
     4
100
AcDbCircle
 10
1624.988920612978
 20
1937.654575238134
 30
0.0
 40
20.81940913765355
100
AcDbArc
 50
125.6531980706685
 51
143.6663972959961
  0
ARC
  5
290
330
1F
100
AcDbEntity
  8
1
  6
DASHED
 62
     4
100
AcDbCircle
 10
1605.979733533378
 20
1911.127285390758
 30
0.0
 40
20.81940913765472
100
AcDbArc
 50
145.0836027040335
 51
163.0968019293616
  0
ARC
  5
291
330
1F
100
AcDbEntity
  8
0
  6
DASHED
 62
     4
100
AcDbCircle
 10
1723.313845891684
 20
1512.416768813645
 30
0.0
 40
0.999999999999826
100
AcDbArc
 50
-112.4997019999064
 51
-22.49989299995606
  0
ARC
  5
292
330
1F
100
AcDbEntity
  8
0
  6
DASHED
 62
     4
100
AcDbCircle
 10
1697.08973202318
 20
1509.208053835396
 30
0.0
 40
0.9999999999988082
100
AcDbArc
 50
-112.4996029998856
 51
-22.49969499996
  0
ARC
  5
293
330
1F
100
AcDbEntity
  8
0
  6
DASHED
 62
     4
100
AcDbCircle
 10
1699.320174520567
 20
1509.366566503177
 30
0.0
 40
0.9999999999987601
100
AcDbArc
 50
67.49999999997885
 51
157.4999999999789
  0
ARC
  5
294
330
1F
100
AcDbEntity
  8
0
  6
DASHED
 62
     4
100
AcDbCircle
 10
1713.867077431768
 20
1507.670610828003
 30
0.0
 40
2.999999999998821
100
AcDbArc
 50
-112.4997020000009
 51
-37.01669300001485
  0
ARC
  5
295
330
1F
100
AcDbEntity
  8
0
  6
DASHED
 62
     4
100
AcDbCircle
 10
1541.528116177321
 20
1575.267373203864
 30
0.0
 40
1.999999999999063
100
AcDbArc
 50
67.50000000002535
 51
157.5000000000453
  0
ARC
  5
296
330
1F
100
AcDbEntity
  8
0
  6
DASHED
 62
     4
100
AcDbCircle
 10
1535.536497453085
 20
1571.254829738256
 30
0.0
 40
2.000000000000686
100
AcDbArc
 50
-112.5000000000188
 51
-22.50000000003526
  0
ARC
  5
297
330
1F
100
AcDbEntity
  8
0
  6
DASHED
 62
     4
100
AcDbCircle
 10
1472.336471001393
 20
1605.81864669099
 30
0.0
 40
7.999999999998431
100
AcDbArc
 50
-172.500000000003
 51
-113.9999009999851
  0
ARC
  5
298
330
1F
100
AcDbEntity
  8
0
  6
DASHED
 62
     4
100
AcDbCircle
 10
1481.197418249759
 20
1643.892510279433
 30
0.0
 40
8.000000000001165
100
AcDbArc
 50
157.5001000000051
 51
-157.4998020000031
  0
ARC
  5
299
330
1F
100
AcDbEntity
  8
0
  6
DASHED
 62
     4
100
AcDbCircle
 10
1469.832291081242
 20
1637.35967356913
 30
0.0
 40
4.999999999999731
100
AcDbArc
 50
-22.49969499998768
 51
22.50030500000609
  0
ARC
  5
29A
330
1F
100
AcDbEntity
  8
0
  6
DASHED
 62
     4
100
AcDbCircle
 10
1766.557073748939
 20
1616.815155987421
 30
0.0
 40
1.000000000002074
100
AcDbArc
 50
-22.50010699991312
 51
67.49970199991004
  0
ARC
  5
29B
330
1F
100
AcDbEntity
  8
0
  6
DASHED
 62
     4
100
AcDbCircle
 10
1750.28272912193
 20
1637.627308854466
 30
0.0
 40
0.9999999999982928
100
AcDbArc
 50
-22.50030500008119
 51
67.49960300004034
  0
ARC
  5
29C
330
1F
100
AcDbEntity
  8
0
  6
DASHED
 62
     4
100
AcDbCircle
 10
1751.747804754584
 20
1635.938062457223
 30
0.0
 40
0.9999999999976527
100
AcDbArc
 50
157.4999999998257
 51
-112.4999999998647
  0
ARC
  5
29D
330
1F
100
AcDbEntity
  8
0
  6
DASHED
 62
     4
100
AcDbCircle
 10
1763.233240206865
 20
1626.851070521961
 30
0.0
 40
2.9999999999972
100
AcDbArc
 50
-7.9833070000531
 51
67.4997020000167
  0
ARC
  5
29E
330
1F
100
AcDbEntity
  8
0
  6
DASHED
 62
     4
100
AcDbCircle
 10
1593.573062978973
 20
1700.914989625399
 30
0.0
 40
2.000000000000338
100
AcDbArc
 50
157.5000000000052
 51
-112.4999999999888
  0
ARC
  5
29F
330
1F
100
AcDbEntity
  8
0
  6
DASHED
 62
     4
100
AcDbCircle
 10
1592.173645443117
 20
1707.989000549927
 30
0.0
 40
2.000000000001091
100
AcDbArc
 50
-22.49999999997878
 51
67.49999999998366
  0
ARC
  5
2A0
330
1F
100
AcDbEntity
  8
0
  6
DASHED
 62
     4
100
AcDbCircle
 10
1523.044168816989
 20
1728.237858474118
 30
0.0
 40
8.000000000000462
100
AcDbArc
 50
68.99990099998139
 51
127.4999999999842
  0
ARC
  5
2A1
330
1F
100
AcDbEntity
  8
0
  6
DASHED
 62
     4
100
AcDbCircle
 10
1502.387517574684
 20
1695.049935457704
 30
0.0
 40
7.999999999999161
100
AcDbArc
 50
112.4998019999894
 51
157.4999000000072
  0
ARC
  5
2A2
330
1F
100
AcDbEntity
  8
0
  6
DASHED
 62
     4
100
AcDbCircle
 10
1498.970572223018
 20
1707.705707085848
 30
0.0
 40
5.000000000001267
100
AcDbArc
 50
-67.50030499999706
 51
-22.50030500001108
  0
ARC
  5
2A3
330
1F
100
AcDbEntity
  8
1
  6
DASHED
 62
     4
100
AcDbCircle
 10
1401.658417233839
 20
1417.851992498507
 30
0.0
 40
20.81940913765403
100
AcDbArc
 50
151.9031980706477
 51
169.9163972959741
  0
ARC
  5
2A4
330
1F
100
AcDbEntity
  8
1
  6
DASHED
 62
     4
100
AcDbCircle
 10
1396.342315785097
 20
1385.652840872097
 30
0.0
 40
20.81940913765461
100
AcDbArc
 50
171.3336027040162
 51
-170.6531980706557
  0
ARC
  5
2A5
330
1F
100
AcDbEntity
  8
1
  6
DASHED
 62
     4
100
AcDbCircle
 10
1361.182655205535
 20
1391.457724327196
 30
0.0
 40
20.81940913765547
100
AcDbArc
 50
-28.09680192935308
 51
-10.08360270402844
  0
ARC
  5
2A6
330
1F
100
AcDbEntity
  8
1
  6
DASHED
 62
     4
100
AcDbCircle
 10
1373.649519147145
 20
1389.399436760174
 30
0.0
 40
20.81940913765736
100
AcDbArc
 50
171.3336027040205
 51
-170.6531980706557
  0
ARC
  5
2A7
330
1F
100
AcDbEntity
  8
1
  6
DASHED
 62
     4
100
AcDbCircle
 10
1338.489858567583
 20
1395.204320215272
 30
0.0
 40
20.81940913765611
100
AcDbArc
 50
-28.09680192934575
 51
-10.08360270402246
  0
ARC
  5
2A8
330
1F
100
AcDbEntity
  8
1
  6
DASHED
 62
     4
100
AcDbCircle
 10
1366.498756654281
 20
1423.656875953605
 30
0.0
 40
20.81940913765461
100
AcDbArc
 50
-8.66639729598384
 51
9.34680192934432
  0
ARC
  5
2A9
330
1F
100
AcDbEntity
  8
1
  6
DASHED
 62
     4
100
AcDbCircle
 10
1378.96562059589
 20
1421.598588386583
 30
0.0
 40
20.81940913765573
100
AcDbArc
 50
151.9031980706509
 51
169.9163972959726
  0
ARC
  5
2AA
330
1F
100
AcDbEntity
  8
1
  6
DASHED
 62
     4
100
AcDbCircle
 10
1343.805960016327
 20
1427.403471841683
 30
0.0
 40
20.8194091376559
100
AcDbArc
 50
-8.66639729598646
 51
9.34680192933825
  0
ARC
  5
2AB
330
1F
100
AcDbEntity
  8
1
  6
DASHED
 62
     4
100
AcDbCircle
 10
1389.960462025139
 20
1337.177848928057
 30
0.0
 40
20.81940913765383
100
AcDbArc
 50
155.6531980706508
 51
173.6663972959771
  0
ARC
  5
2AC
330
1F
100
AcDbEntity
  8
1
  6
DASHED
 62
     4
100
AcDbCircle
 10
1386.761668032591
 20
1304.699948486878
 30
0.0
 40
20.81940913765225
100
AcDbArc
 50
175.083602704015
 51
-166.9031980706551
  0
ARC
  5
2AD
330
1F
100
AcDbEntity
  8
1
  6
DASHED
 62
     4
100
AcDbCircle
 10
1351.297629442456
 20
1308.192851416336
 30
0.0
 40
20.81940913765757
100
AcDbArc
 50
-24.34680192935073
 51
-6.33360270402787
  0
ARC
  5
2AE
330
1F
100
AcDbEntity
  8
1
  6
DASHED
 62
     4
100
AcDbCircle
 10
1363.872419319132
 20
1306.954342714459
 30
0.0
 40
20.81940913765601
100
AcDbArc
 50
175.083602704019
 51
-166.9031980706583
  0
ARC
  5
2AF
330
1F
100
AcDbEntity
  8
1
  6
DASHED
 62
     4
100
AcDbCircle
 10
1328.408380728997
 20
1310.447245643917
 30
0.0
 40
20.81940913765554
100
AcDbArc
 50
-24.34680192935051
 51
-6.33360270402628
  0
ARC
  5
2B0
330
1F
100
AcDbEntity
  8
1
  6
DASHED
 62
     4
100
AcDbCircle
 10
1354.496423435006
 20
1340.670751857514
 30
0.0
 40
20.81940913765437
100
AcDbArc
 50
-4.91639729598706
 51
13.09680192934104
  0
ARC
  5
2B1
330
1F
100
AcDbEntity
  8
1
  6
DASHED
 62
     4
100
AcDbCircle
 10
1367.07121331168
 20
1339.432243155637
 30
0.0
 40
20.8194091376557
100
AcDbArc
 50
155.6531980706469
 51
173.6663972959718
  0
ARC
  5
2B2
330
1F
100
AcDbEntity
  8
1
  6
DASHED
 62
     4
100
AcDbCircle
 10
1331.607174721544
 20
1342.925146085096
 30
0.0
 40
20.81940913765528
100
AcDbArc
 50
-4.91639729598684
 51
13.09680192934047
  0
ARC
  5
2B3
330
1F
100
AcDbEntity
  8
1
  6
DASHED
 62
     4
100
AcDbCircle
 10
1324.959654819077
 20
1257.829856177542
 30
0.0
 40
20.81940913765367
100
AcDbArc
 50
-1.1663972959853
 51
16.84680192934078
  0
ARC
  5
2B4
330
1F
100
AcDbEntity
  8
1
  6
DASHED
 62
     4
100
AcDbCircle
 10
1360.576208962007
 20
1256.66389092031
 30
0.0
 40
20.81940913765579
100
AcDbArc
 50
159.4031980706516
 51
177.4163972959723
  0
ARC
  5
2B5
330
1F
100
AcDbEntity
  8
1
  6
DASHED
 62
     4
100
AcDbCircle
 10
1347.947340331035
 20
1257.077317272639
 30
0.0
 40
20.81940913765457
100
AcDbArc
 50
-1.16639729598525
 51
16.84680192934241
  0
ARC
  5
2B6
330
1F
100
AcDbEntity
  8
1
  6
DASHED
 62
     4
100
AcDbCircle
 10
1323.89186600969
 20
1225.212282277381
 30
0.0
 40
20.81940913765473
100
AcDbArc
 50
-20.59680192934949
 51
-2.5836027040225
  0
ARC
  5
2B7
330
1F
100
AcDbEntity
  8
1
  6
DASHED
 62
     4
100
AcDbCircle
 10
1359.508420152617
 20
1224.046317020149
 30
0.0
 40
20.81940913765569
100
AcDbArc
 50
178.8336027040173
 51
-163.1531980706578
  0
ARC
  5
2B8
330
1F
100
AcDbEntity
  8
1
  6
DASHED
 62
     4
100
AcDbCircle
 10
1346.879551521644
 20
1224.45974337248
 30
0.0
 40
20.81940913765822
100
AcDbArc
 50
-20.59680192935189
 51
-2.58360270402776
  0
ARC
  5
2B9
330
1F
100
AcDbEntity
  8
1
  6
DASHED
 62
     4
100
AcDbCircle
 10
1382.496105664573
 20
1223.293778115248
 30
0.0
 40
20.81940913765251
100
AcDbArc
 50
178.8336027040172
 51
-163.1531980706552
  0
ARC
  5
2BA
330
1F
100
AcDbEntity
  8
1
  6
DASHED
 62
     4
100
AcDbCircle
 10
1383.563894473962
 20
1255.911352015407
 30
0.0
 40
20.81940913765406
100
AcDbArc
 50
159.4031980706465
 51
177.416397295972
  0
ARC
  5
2BB
330
1F
100
AcDbEntity
  8
1
  6
Continuous
 62
     7
100
AcDbCircle
 10
1324.366701773346
 20
572.7506592033749
 30
0.0
 40
20.81940913765816
100
AcDbArc
 50
-17.28970574518326
 51
0.72349348013871
  0
ARC
  5
2BC
330
1F
100
AcDbEntity
  8
1
  6
Continuous
 62
     7
100
AcDbCircle
 10
1359.991204762709
 20
573.641271778107
 30
0.0
 40
20.81940913765648
100
AcDbArc
 50
-177.8593011118129
 51
-159.8461018864917
  0
ARC
  5
2BD
330
1F
100
AcDbEntity
  8
1
  6
Continuous
 62
     7
100
AcDbCircle
 10
1347.359517640738
 20
573.325479600059
 30
0.0
 40
20.8194091376515
100
AcDbArc
 50
-17.28970574518962
 51
0.72349348014451
  0
ARC
  5
2BE
330
1F
100
AcDbEntity
  8
1
  6
Continuous
 62
     7
100
AcDbCircle
 10
1382.984020630096
 20
574.216092174792
 30
0.0
 40
20.81940913765645
100
AcDbArc
 50
-177.8593011118154
 51
-159.8461018864887
  0
ARC
  5
2BF
330
1F
100
AcDbEntity
  8
1
  6
Continuous
 62
     7
100
AcDbCircle
 10
1323.551080437378
 20
605.3755126422809
 30
0.0
 40
20.81940913765235
100
AcDbArc
 50
2.14069888818443
 51
20.15389811351101
  0
ARC
  5
2C0
330
1F
100
AcDbEntity
  8
1
  6
Continuous
 62
     7
100
AcDbCircle
 10
1359.175583426736
 20
606.266125217016
 30
0.0
 40
20.81940913765446
100
AcDbArc
 50
162.7102942548221
 51
-179.2765065198556
  0
ARC
  5
2C1
330
1F
100
AcDbEntity
  8
1
  6
Continuous
 62
     7
100
AcDbCircle
 10
1346.543896304761
 20
605.9503330389659
 30
0.0
 40
20.81940913765644
100
AcDbArc
 50
2.14069888818401
 51
20.15389811350907
  0
ARC
  5
2C2
330
1F
100
AcDbEntity
  8
1
  6
Continuous
 62
     7
100
AcDbCircle
 10
1382.168399294123
 20
606.8409456136999
 30
0.0
 40
20.81940913765597
100
AcDbArc
 50
162.7102942548172
 51
-179.276506519853
  0
CIRCLE
  5
2C3
330
1F
100
AcDbEntity
  8
1
  6
DASH_CENTER
 62
     3
100
AcDbCircle
 10
958.3824512995836
 20
1665.086769565379
 30
0.0
 40
20.54999999999989
  0
CIRCLE
  5
2C4
330
1F
100
AcDbEntity
  8
1
  6
DASH_CENTER
 62
     3
100
AcDbCircle
 10
990.2352728408122
 20
1741.986283330067
 30
0.0
 40
20.54999999999965
  0
CIRCLE
  5
2C5
330
1F
100
AcDbEntity
  8
1
  6
DASH_CENTER
 62
     3
100
AcDbCircle
 10
1117.714904675041
 20
2049.749339430588
 30
0.0
 40
20.54999999999848
  0
CIRCLE
  5
2C6
330
1F
100
AcDbEntity
  8
1
  6
DASH_CENTER
 62
     3
100
AcDbCircle
 10
1022.088094382043
 20
1818.885797094752
 30
0.0
 40
20.54999999999892
  0
CIRCLE
  5
2C7
330
1F
100
AcDbEntity
  8
1
  6
DASH_CENTER
 62
     3
100
AcDbCircle
 10
1054.009261592583
 20
1895.950311901218
 30
0.0
 40
20.55000000000019
  0
CIRCLE
  5
2C8
330
1F
100
AcDbEntity
  8
1
  6
DASH_CENTER
 62
     3
100
AcDbCircle
 10
780.1846616681016
 20
1964.228827305443
 30
0.0
 40
32.54999999999957
  0
CIRCLE
  5
2C9
330
1F
100
AcDbEntity
  8
1
  6
DASH_CENTER
 62
     3
100
AcDbCircle
 10
920.661261093784
 20
1947.984212388604
 30
0.0
 40
28.53499999999987
  0
XLINE
  5
2CA
330
1F
100
AcDbEntity
  8
1
  6
DOT_CENTER
 62
     3
 60
     1
100
AcDbXline
 10
2627.979516994636
 20
1198.847137745974
 30
0.0
 11
-0.910863824921206
 21
0.4127070298043283
 31
0.0
  0
XLINE
  5
2CB
330
1F
100
AcDbEntity
  8
1
  6
DOT_CENTER
 62
     3
 60
     1
100
AcDbXline
 10
2627.979516994636
 20
1198.847137745974
 30
0.0
 11
-1.0
 21
0.0
 31
0.0
  0
ARC
  5
2CC
330
1F
100
AcDbEntity
  8
1
  6
Continuous
 62
     7
100
AcDbCircle
 10
1752.993802825542
 20
1203.847137745969
 30
0.0
 40
5.0
100
AcDbArc
 50
-90.0
 51
-0.32740623618529
  0
ARC
  5
2CD
330
1F
100
AcDbEntity
  8
1
  6
Continuous
 62
     7
100
AcDbCircle
 10
1321.579516994542
 20
605.2883375480732
 30
0.0
 40
3.200000000000955
100
AcDbArc
 50
0.0
 51
90.0
  0
ARC
  5
2CE
330
1F
100
AcDbEntity
  8
1
  6
Continuous
 62
     7
100
AcDbCircle
 10
1321.579516994542
 20
498.088337548072
 30
0.0
 40
3.199999999999818
100
AcDbArc
 50
-90.0
 51
0.0
  0
ARC
  5
2CF
330
1F
100
AcDbEntity
  8
1
  6
Continuous
 62
     7
100
AcDbCircle
 10
1321.579516994542
 20
498.088337548072
 30
0.0
 40
6.399999999999864
100
AcDbArc
 50
-90.0
 51
0.0
  0
ARC
  5
2D0
330
1F
100
AcDbEntity
  8
1
  6
Continuous
 62
     7
100
AcDbCircle
 10
1321.579516994542
 20
605.2883375480732
 30
0.0
 40
6.40000000000191
100
AcDbArc
 50
0.0
 51
90.0
  0
ARC
  5
2D1
330
1F
100
AcDbEntity
  8
1
  6
Continuous
 62
     7
100
AcDbCircle
 10
1734.379516994542
 20
498.088337548072
 30
0.0
 40
3.200000000000046
100
AcDbArc
 50
180.0
 51
-90.0
  0
ARC
  5
2D2
330
1F
100
AcDbEntity
  8
1
  6
Continuous
 62
     7
100
AcDbCircle
 10
1734.379516994542
 20
605.2883375480732
 30
0.0
 40
3.199999999999932
100
AcDbArc
 50
90.0
 51
180.0
  0
ARC
  5
2D3
330
1F
100
AcDbEntity
  8
1
  6
Continuous
 62
     7
100
AcDbCircle
 10
1734.379516994542
 20
605.2883375480732
 30
0.0
 40
6.39999999999884
100
AcDbArc
 50
90.0
 51
180.0
  0
ARC
  5
2D4
330
1F
100
AcDbEntity
  8
1
  6
Continuous
 62
     7
100
AcDbCircle
 10
1734.379516994542
 20
498.088337548072
 30
0.0
 40
6.399999999998954
100
AcDbArc
 50
180.0
 51
-90.0
  0
ARC
  5
2D5
330
1F
100
AcDbEntity
  8
1
  6
DASHED
 62
     4
100
AcDbCircle
 10
803.9542365402837
 20
1977.113383227684
 30
0.0
 40
11.99999999999969
100
AcDbArc
 50
10.7506606340235
 51
67.49999999999758
  0
ARC
  5
2D6
330
1F
100
AcDbEntity
  8
1
  6
DASHED
 62
     4
100
AcDbCircle
 10
787.8815323809499
 20
1938.310442862208
 30
0.0
 40
11.99999999999968
100
AcDbArc
 50
-112.5000000000018
 51
-55.75066063402573
  0
ARC
  5
2D7
330
1F
100
AcDbEntity
  8
1
  6
DASHED
 62
     4
100
AcDbCircle
 10
730.5023375646372
 20
1962.077683553174
 30
0.0
 40
12.00000000000029
100
AcDbArc
 50
-167.5771953162863
 51
-112.4999999999996
  0
ARC
  5
2D8
330
1F
100
AcDbEntity
  8
1
  6
DASHED
 62
     4
100
AcDbCircle
 10
746.575041723971
 20
2000.880623918647
 30
0.0
 40
12.0000000000006
100
AcDbArc
 50
67.50000000000183
 51
122.5771953162911
  0
ARC
  5
2D9
330
1F
100
AcDbEntity
  8
1
  6
Continuous
 62
     7
100
AcDbCircle
 10
1324.982970567893
 20
1201.847137745982
 30
0.0
 40
3.00000000000112
100
AcDbArc
 50
179.868083276733
 51
-90.0
  0
ARC
  5
2DA
330
1F
100
AcDbEntity
  8
1
  6
Continuous
 62
     7
100
AcDbCircle
 10
1299.039960409805
 20
1210.542112219328
 30
0.0
 40
1.00000000000048
100
AcDbArc
 50
178.9999999999596
 51
-91.0000000000413
  0
ARC
  5
2DB
330
1F
100
AcDbEntity
  8
1
  6
Continuous
 62
     7
100
AcDbCircle
 10
1299.441365757862
 20
1233.538609207925
 30
0.0
 40
1.000000000000688
100
AcDbArc
 50
89.00000000002497
 51
178.9999999999599
  0
ARC
  5
2DC
330
1F
100
AcDbEntity
  8
1
  6
Continuous
 62
     7
100
AcDbCircle
 10
1302.988950990477
 20
1203.847137745974
 30
0.0
 40
5.000000000000206
100
AcDbArc
 50
179.7837889981318
 51
-90.0
  0
ARC
  5
2DD
330
1F
100
AcDbEntity
  8
1
  6
Continuous
 62
     7
100
AcDbCircle
 10
1374.983108380463
 20
1201.847137745974
 30
0.0
 40
3.0
100
AcDbArc
 50
-90.0
 51
-0.13718076836871
  0
ARC
  5
2DE
330
1F
100
AcDbEntity
  8
1
  6
Continuous
 62
     7
100
AcDbCircle
 10
1739.855939317508
 20
2082.728074735903
 30
0.0
 40
2.999999999999728
100
AcDbArc
 50
-44.86281923167254
 51
44.99999999999693
  0
ARC
  5
2DF
330
1F
100
AcDbEntity
  8
1
  6
Continuous
 62
     7
100
AcDbCircle
 10
1687.534168858865
 20
2132.221418069801
 30
0.0
 40
4.999999999999558
100
AcDbArc
 50
44.99999999999263
 51
135.2162110018901
  0
ARC
  5
2E0
330
1F
100
AcDbEntity
  8
1
  6
Continuous
 62
     7
100
AcDbCircle
 10
1664.030606469892
 20
2113.734898830466
 30
0.0
 40
1.000000000000137
100
AcDbArc
 50
135.9999999999421
 51
-133.9999999999739
  0
ARC
  5
2E1
330
1F
100
AcDbEntity
  8
1
  6
Continuous
 62
     7
100
AcDbCircle
 10
1680.007748990451
 20
2130.279714238255
 30
0.0
 40
0.9999999999985748
100
AcDbArc
 50
46.00000000009107
 51
136.0000000000236
  0
ARC
  5
2E2
330
1F
100
AcDbEntity
  8
1
  6
Continuous
 62
     7
100
AcDbCircle
 10
1704.500502809972
 20
2118.083511243426
 30
0.0
 40
2.999999999998899
100
AcDbArc
 50
44.9999999999693
 51
135.1319167232512
  0
ARC
  5
2E3
330
1F
100
AcDbEntity
  8
1
  6
Continuous
 62
     7
100
AcDbCircle
 10
2005.73565115829
 20
1814.019935770382
 30
0.0
 40
5.000000000002897
100
AcDbArc
 50
-44.67259376382064
 51
44.99999999999079
  0
ARC
  5
2E4
330
1F
100
AcDbEntity
  8
1
  6
Continuous
 62
     7
100
AcDbCircle
 10
1347.297253192191
 20
1553.910592167405
 30
0.0
 40
1.000000000001056
100
AcDbArc
 50
74.99999999998128
 51
164.9999999999141
  0
ARC
  5
2E5
330
1F
100
AcDbEntity
  8
1
  6
Continuous
 62
     7
100
AcDbCircle
 10
1341.344415154834
 20
1531.694298162756
 30
0.0
 40
1.000000000001291
100
AcDbArc
 50
164.999999999931
 51
-105.0000000000491
  0
ARC
  5
2E6
330
1F
100
AcDbEntity
  8
1
  6
Continuous
 62
     7
100
AcDbCircle
 10
1471.332627341687
 20
1853.358474653064
 30
0.0
 40
1.00000000000006
100
AcDbArc
 50
149.9999999999268
 51
-120.0000000000168
  0
ARC
  5
2E7
330
1F
100
AcDbEntity
  8
1
  6
Continuous
 62
     7
100
AcDbCircle
 10
1482.832627341687
 20
1873.277058940106
 30
0.0
 40
1.00000000000146
100
AcDbArc
 50
60.00000000004832
 51
149.9999999999268
  0
ARC
  5
2E8
330
1F
100
AcDbEntity
  8
1
  6
Continuous
 62
     7
100
AcDbCircle
 10
1729.143142163365
 20
2063.991279283136
 30
0.0
 40
2.999999999998436
100
AcDbArc
 50
-133.1250000000356
 51
-43.12499999994174
  0
ARC
  5
2E9
330
1F
100
AcDbEntity
  8
1
  6
Continuous
 62
     7
100
AcDbCircle
 10
1705.90100389459
 20
2039.175900811409
 30
0.0
 40
3.000000000000541
100
AcDbArc
 50
-43.12500000002767
 51
46.87499999994879
  0
ARC
  5
2EA
330
1F
100
AcDbEntity
  8
1
  6
Continuous
 62
     7
100
AcDbCircle
 10
1652.915114084441
 20
1977.069872272308
 30
0.0
 40
2.999999999999972
100
AcDbArc
 50
-39.3749999999769
 51
50.62499999998764
  0
ARC
  5
2EB
330
1F
100
AcDbEntity
  8
1
  6
Continuous
 62
     7
100
AcDbCircle
 10
1674.484485745999
 20
2003.352227686647
 30
0.0
 40
2.999999999999413
100
AcDbArc
 50
-129.3749999999913
 51
-39.37499999995246
  0
ARC
  5
2EC
330
1F
100
AcDbEntity
  8
1
  6
Continuous
 62
     7
100
AcDbCircle
 10
1604.104599742334
 20
1911.631374508965
 30
0.0
 40
3.000000000000826
100
AcDbArc
 50
-35.6249999999834
 51
54.37499999999384
  0
ARC
  5
2ED
330
1F
100
AcDbEntity
  8
1
  6
Continuous
 62
     7
100
AcDbCircle
 10
1623.908841435832
 20
1939.268161785085
 30
0.0
 40
2.999999999999348
100
AcDbArc
 50
-125.6250000000036
 51
-35.62499999996575
  0
ARC
  5
2EE
330
1F
100
AcDbEntity
  8
1
  6
Continuous
 62
     7
100
AcDbCircle
 10
1577.632781906017
 20
1872.013499386941
 30
0.0
 40
3.000000000000731
100
AcDbArc
 50
-121.8750000000112
 51
-31.87499999998725
  0
ARC
  5
2EF
330
1F
100
AcDbEntity
  8
1
  6
Continuous
 62
     7
100
AcDbCircle
 10
1559.678474983902
 20
1843.140625215038
 30
0.0
 40
3.000000000000538
100
AcDbArc
 50
-31.87500000001347
 51
58.12500000001285
  0
ARC
  5
2F0
330
1F
100
AcDbEntity
  8
1
  6
Continuous
 62
     7
100
AcDbCircle
 10
1535.854468348136
 20
1801.876235282021
 30
0.0
 40
3.000000000001386
100
AcDbArc
 50
-118.1250000000047
 51
-28.12499999999323
  0
ARC
  5
2F1
330
1F
100
AcDbEntity
  8
1
  6
Continuous
 62
     7
100
AcDbCircle
 10
1519.82697929605
 20
1771.890912294177
 30
0.0
 40
2.999999999998524
100
AcDbArc
 50
-28.12499999999455
 51
61.87500000002389
  0
ARC
  5
2F2
330
1F
100
AcDbEntity
  8
1
  6
DASHED
 62
     4
100
AcDbCircle
 10
1564.157532149621
 20
1550.199275295315
 30
0.0
 40
5.000000000001588
100
AcDbArc
 50
-112.4999999999983
 51
-22.50000000000228
  0
ARC
  5
2F3
330
1F
100
AcDbEntity
  8
1
  6
DASHED
 62
     4
100
AcDbCircle
 10
1457.911385910822
 20
1594.2078700173
 30
0.0
 40
5.0000000000004
100
AcDbArc
 50
157.5000000000074
 51
-112.4999999999937
  0
ARC
  5
2F4
330
1F
100
AcDbEntity
  8
1
  6
DASHED
 62
     4
100
AcDbCircle
 10
1627.30029848986
 20
1702.639398159678
 30
0.0
 40
5.000000000000973
100
AcDbArc
 50
-22.50000000001532
 51
67.49999999999838
  0
ARC
  5
2F5
330
1F
100
AcDbEntity
  8
1
  6
DASHED
 62
     4
100
AcDbCircle
 10
1521.054152251062
 20
1746.647992881661
 30
0.0
 40
5.0000000000004
100
AcDbArc
 50
67.50000000000735
 51
157.4999999999863
  0
ARC
  5
2F6
330
1F
100
AcDbEntity
  8
1
  6
Continuous
 62
     7
100
AcDbCircle
 10
1498.752801914644
 20
1729.15670800274
 30
0.0
 40
2.999999999999634
100
AcDbArc
 50
-114.3749999999558
 51
-24.375000000004
  0
ARC
  5
2F7
330
1F
100
AcDbEntity
  8
1
  6
Continuous
 62
     7
100
AcDbCircle
 10
1484.720762901294
 20
1698.18733795542
 30
0.0
 40
2.999999999999818
100
AcDbArc
 50
-24.37500000001617
 51
65.62500000002444
  0
ARC
  5
2F8
330
1F
100
AcDbEntity
  8
1
  6
Continuous
 62
     7
100
AcDbCircle
 10
1466.486657637166
 20
1654.166313729012
 30
0.0
 40
2.999999999998575
100
AcDbArc
 50
-110.624999999975
 51
-20.624999999949
  0
ARC
  5
2F9
330
1F
100
AcDbEntity
  8
1
  6
Continuous
 62
     7
100
AcDbCircle
 10
1454.510156007843
 20
1622.345512219264
 30
0.0
 40
3.000000000000999
100
AcDbArc
 50
-20.62499999999935
 51
69.37500000002098
  0
ARC
  5
2FA
330
1F
100
AcDbEntity
  8
1
  6
Continuous
 62
     7
100
AcDbCircle
 10
1439.194204099086
 20
1577.226172841854
 30
0.0
 40
2.999999999999449
100
AcDbArc
 50
-106.8750000000131
 51
-16.87499999995277
  0
ARC
  5
2FB
330
1F
100
AcDbEntity
  8
1
  6
Continuous
 62
     7
100
AcDbCircle
 10
1429.324525072432
 20
1544.69020142696
 30
0.0
 40
3.000000000000273
100
AcDbArc
 50
-16.87499999999018
 51
73.12500000002646
  0
ARC
  5
2FC
330
1F
100
AcDbEntity
  8
1
  6
Continuous
 62
     7
100
AcDbCircle
 10
1409.271718833292
 20
1465.553937541179
 30
0.0
 40
3.000000000000958
100
AcDbArc
 50
-13.12499999999316
 51
76.87500000001883
  0
ARC
  5
2FD
330
1F
100
AcDbEntity
  8
1
  6
Continuous
 62
     7
100
AcDbCircle
 10
1416.992311776464
 20
1498.665754836607
 30
0.0
 40
2.999999999999223
100
AcDbArc
 50
-103.1250000000232
 51
-13.12499999996003
  0
ARC
  5
2FE
330
1F
100
AcDbEntity
  8
1
  6
Continuous
 62
     7
100
AcDbCircle
 10
1394.437606485338
 20
1385.275594193093
 30
0.0
 40
2.999999999999409
100
AcDbArc
 50
-9.37500000000575
 51
80.62500000003206
  0
ARC
  5
2FF
330
1F
100
AcDbEntity
  8
1
  6
Continuous
 62
     7
100
AcDbCircle
 10
1399.976052580756
 20
1418.821467483979
 30
0.0
 40
2.999999999999261
100
AcDbArc
 50
-99.37499999998862
 51
-9.37499999998579
  0
ARC
  5
300
330
1F
100
AcDbEntity
  8
1
  6
Continuous
 62
     7
100
AcDbCircle
 10
1384.88570997495
 20
1304.198935573494
 30
0.0
 40
2.999999999999372
100
AcDbArc
 50
-5.62500000000797
 51
84.37500000001364
  0
ARC
  5
301
330
1F
100
AcDbEntity
  8
1
  6
Continuous
 62
     7
100
AcDbCircle
 10
1388.218292746158
 20
1338.035216280349
 30
0.0
 40
2.999999999999282
100
AcDbArc
 50
-95.62499999999068
 51
-5.62499999998636
  0
ARC
  5
302
330
1F
100
AcDbEntity
  8
1
  6
Continuous
 62
     7
100
AcDbCircle
 10
1381.769380805397
 20
1256.652940355892
 30
0.0
 40
2.999999999999894
100
AcDbArc
 50
-91.87499999997614
 51
-1.87499999999294
  0
ARC
  5
303
330
1F
100
AcDbEntity
  8
1
  6
Continuous
 62
     7
100
AcDbCircle
 10
1380.656931989454
 20
1222.671144381695
 30
0.0
 40
3.00000000000087
100
AcDbArc
 50
-1.87500000001464
 51
88.12499999998914
  0
ARC
  5
304
330
1F
100
AcDbEntity
  8
1
  6
Continuous
 62
     7
100
AcDbCircle
 10
1381.183828059684
 20
573.488397676505
 30
0.0
 40
2.99999999999861
100
AcDbArc
 50
1.4320961841526
 51
91.43209618419124
  0
ARC
  5
305
330
1F
100
AcDbEntity
  8
1
  6
Continuous
 62
     7
100
AcDbCircle
 10
1380.334093560236
 20
607.4777776543799
 30
0.0
 40
2.999999999998588
100
AcDbArc
 50
-88.56790381586477
 51
1.43209618419069
  0
ARC
  5
306
330
1F
100
AcDbEntity
  8
1
  6
Continuous
 62
     7
100
AcDbCircle
 10
1368.625252001681
 20
575.6752144030229
 30
0.0
 40
0.4999999999980636
100
AcDbArc
 50
91.43209618415749
 51
-178.5679038157468
  0
ARC
  5
307
330
1F
100
AcDbEntity
  8
1
  6
Continuous
 62
     7
100
AcDbCircle
 10
1361.627438476824
 20
575.5002690649001
 30
0.0
 40
0.5000000000019278
100
AcDbArc
 50
1.43209618414641
 51
91.43209618414967
  0
ARC
  5
308
330
1F
100
AcDbEntity
  8
1
  6
Continuous
 62
     7
100
AcDbCircle
 10
1345.632436134295
 20
575.1003940063379
 30
0.0
 40
0.4999999999989728
100
AcDbArc
 50
91.43209618415489
 51
-178.5679038158536
  0
ARC
  5
309
330
1F
100
AcDbEntity
  8
1
  6
Continuous
 62
     7
100
AcDbCircle
 10
1367.900478458033
 20
604.6661561488579
 30
0.0
 40
0.4999999999999047
100
AcDbArc
 50
-178.5679038157435
 51
-88.56790381584773
  0
ARC
  5
30A
330
1F
100
AcDbEntity
  8
1
  6
Continuous
 62
     7
100
AcDbCircle
 10
1360.90266493318
 20
604.4912108107369
 30
0.0
 40
0.499999999999882
100
AcDbArc
 50
-88.56790381584773
 51
1.43209618416074
  0
ARC
  5
30B
330
1F
100
AcDbEntity
  8
1
  6
Continuous
 62
     7
100
AcDbCircle
 10
1344.90766259065
 20
604.0913357521729
 30
0.0
 40
0.5000000000010185
100
AcDbArc
 50
-178.567903815851
 51
-88.56790381584773
  0
TEXT
  5
30C
330
1F
100
AcDbEntity
  8
1
 62
     2
100
AcDbText
 10
1069.790552397037
 20
1448.502279390957
 30
0.0
 40
50.0
  1
L
 41
0.9
  7
CONVERTER_1
100
AcDbText
  0
TEXT
  5
30D
330
1F
100
AcDbEntity
  8
1
 62
     2
100
AcDbText
 10
1342.410552397036
 20
2113.262279390957
 30
0.0
 40
50.0
  1
R
 41
0.9
  7
CONVERTER_1
100
AcDbText
  0
TEXT
  5
30E
330
1F
100
AcDbEntity
  8
1
 62
     2
100
AcDbText
 10
3244.6933273703
 20
465.9084879397711
 30
0.0
 40
32.0
  1
回転方向：本図はLタイプを示す。
 41
0.89
  7
CONVERTER_3
100
AcDbText
  0
MTEXT
  5
30F
330
1F
100
AcDbEntity
  8
1
 62
     2
100
AcDbMText
 10
2972.900974184948
 20
148.3553215244791
 30
0.0
 40
32.0
 41
0.0
 71
     4
 72
     1
  1
本体組立図 45°カーブ 呼び幅 400 ～ 1000 mm
  7
CONVERTER_3
 73
     1
 44
1.32052821128451
  0
TEXT
  5
310
330
1F
100
AcDbEntity
  8
1
 62
     2
100
AcDbText
 10
2368.999149914949
 20
131.3494563701199
 30
0.0
 40
40.0
  1
マルチベヤシリーズ
 41
0.89
  7
CONVERTER_3
100
AcDbText
  0
MTEXT
  5
311
330
1F
100
AcDbEntity
  8
1
 62
     2
100
AcDbMText
 10
3489.483070416168
 20
54.52424077374957
 30
0.0
 40
32.0
 41
0.0
 71
     4
 72
     1
  1
W_MCC3_C_S_030
  7
CONVERTER_1
 73
     1
 44
1.32052821128451
  0
TEXT
  5
312
330
1F
100
AcDbEntity
  8
1
 62
     2
100
AcDbText
 10
1716.986544890392
 20
110.6975109384339
 30
0.0
 40
32.0
  1
2011.8.26
 41
0.9
  7
CONVERTER_1
100
AcDbText
  0
MTEXT
  5
313
330
1F
100
AcDbEntity
  8
1
 62
     2
100
AcDbMText
 10
2946.892665474062
 20
653.7179333780532
 30
0.0
 40
32.0
 41
0.0
 71
     1
 72
     1
  1
相当ローラピッチ 75 はローラ本数 12 本\P　　　　　　　　100 はローラ本数 9 本となります。
  7
CONVERTER_3
 73
     1
 44
1.08043217286915
  0
MTEXT
  5
314
330
1F
100
AcDbEntity
  8
1
 62
     3
100
AcDbMText
 10
1554.630359791257
 20
421.0858652260852
 30
0.0
 40
32.0
 41
0.0
 71
     8
 72
     1
  1
一 般 断 面 図 
  7
CONVERTER_3
 73
     1
 44
1.20048019207683
  0
TEXT
  5
315
330
1F
100
AcDbEntity
  8
1
 62
     2
100
AcDbText
 10
2400.156772692229
 20
24.71999999999969
 30
0.0
 40
32.0
  1
MCC3-C
 41
0.9
  7
CONVERTER_1
100
AcDbText
  0
DIMENSION
  5
328
330
1F
100
AcDbEntity
  8
1
100
AcDbDimension
  2
*D02
 10
1297.979516994544
 20
965.6383375480734
 30
0.0
 11
1521.446051103624
 21
988.99631926387
 31
0.0
 70
    32
  1
機 幅
 71
     5
 42
-1.0
 53
0.00013888888889
  3
ME10_DIM_0
100
AcDbAlignedDimension
 13
1757.979516994543
 23
611.688337548072
 33
0.0
 14
1297.979516994544
 24
617.688337548072
 34
0.0
100
AcDbRotatedDimension
  0
DIMENSION
  5
337
330
1F
100
AcDbEntity
  8
1
100
AcDbDimension
  2
*D14
 10
1651.429354445587
 20
660.7146125511233
 30
0.0
 11
1607.998325737985
 21
685.2421362631801
 31
0.0
 70
    33
  1
<>
 71
     5
 42
-1.0
 52
60.00000000000001
 53
-88.56790381583566
  3
ME10_DIM_1
100
AcDbAlignedDimension
 13
1724.217896657724
 23
576.4124840422469
 33
0.0
 14
1723.085750398167
 24
621.6983344245351
 34
0.0
  0
DIMENSION
  5
344
330
1F
100
AcDbEntity
  8
1
100
AcDbDimension
  2
*D25
 10
844.082330314071
 20
1645.515652269314
 30
0.0
 11
719.5136215221174
 21
1722.008721504971
 31
0.0
 70
    32
  1
<>
 71
     5
 42
-1.0
 53
-22.50000000000014
  3
ME10_DIM_2
100
AcDbAlignedDimension
 13
612.8404824444956
 23
1871.186225880196
 33
0.0
 14
890.0043421978819
 24
1756.381196170668
 34
0.0
 50
-22.50000000000014
100
AcDbRotatedDimension
  0
DIMENSION
  5
351
330
1F
100
AcDbEntity
  8
1
100
AcDbDimension
  2
*D36
 10
500.8015947259108
 20
1917.594252686428
 30
0.0
 11
532.4159924027684
 21
2054.020056708468
 31
0.0
 70
    33
  1
<>
 71
     5
 42
-1.0
 53
67.50000000000003
  3
ME10_DIM_3
100
AcDbAlignedDimension
 13
727.645512154022
 23
2148.350085633581
 33
0.0
 14
612.8404824444956
 24
1871.186225880196
 34
0.0
  0
DIMENSION
  5
360
330
1F
100
AcDbEntity
  8
1
100
AcDbDimension
  2
*D47
 10
1464.454727583576
 20
1919.423731085517
 30
0.0
 11
1359.07724985723
 21
1789.26190999875
 31
0.0
 70
    33
  1
相当ローラピッチ
 71
     5
 42
-1.0
 52
70.0
 53
63.74999999999975
  3
ME10_DIM_4
100
AcDbAlignedDimension
 13
1626.029309581222
 23
1652.824870530774
 33
0.0
 14
1657.866126211326
 24
1717.383548254539
 34
0.0
  0
DIMENSION
  5
36D
330
1F
100
AcDbEntity
  8
1
100
AcDbDimension
  2
*D58
 10
1877.979516994543
 20
491.6883375480721
 30
0.0
 11
1843.343738564503
 21
554.14299739827
 31
0.0
 70
    32
  1
<>
 71
     5
 42
-1.0
 53
90.0
  3
ME10_DIM_5
100
AcDbAlignedDimension
 13
1757.979516994543
 23
611.688337548072
 33
0.0
 14
1757.979516994543
 24
491.6883375480721
 34
0.0
 50
90.0
100
AcDbRotatedDimension
  0
DIMENSION
  5
37C
330
1F
100
AcDbEntity
  8
1
100
AcDbDimension
  2
*D69
 10
1877.979516994544
 20
611.6883375480722
 30
0.0
 11
1847.632997090634
 21
663.0901639620001
 31
0.0
 70
    32
  1
<>
 71
     5
 42
-1.0
 53
90.0
  3
ME10_DIM_6
100
AcDbAlignedDimension
 13
1723.085750398167
 23
621.6983344245351
 33
0.0
 14
1757.979516994543
 24
611.688337548072
 34
0.0
 50
90.0
100
AcDbRotatedDimension
  0
DIMENSION
  5
38B
330
1F
100
AcDbEntity
  8
1
100
AcDbDimension
  2
*D710
 10
1297.979516994543
 20
765.6383375480737
 30
0.0
 11
1344.537991875633
 21
794.5861033727401
 31
0.0
 70
    32
  1
<>
 71
     5
 42
-1.0
 53
0.00013888888889
  3
ME10_DIM_7
100
AcDbAlignedDimension
 13
1382.979516994544
 23
621.6983344245369
 33
0.0
 14
1297.979516994544
 24
617.688337548072
 34
0.0
100
AcDbRotatedDimension
  0
DIMENSION
  5
39A
330
1F
100
AcDbEntity
  8
1
100
AcDbDimension
  2
*D811
 10
1723.085750398167
 20
765.6383375480737
 30
0.0
 11
1800.076244387702
 21
795.6917787429102
 31
0.0
 70
    32
  1
<>
 71
     5
 42
-1.0
 53
0.00013888888889
  3
ME10_DIM_8
100
AcDbAlignedDimension
 13
1757.979516994543
 23
611.688337548072
 33
0.0
 14
1723.085750398167
 24
621.6983344245351
 34
0.0
100
AcDbRotatedDimension
  0
DIMENSION
  5
3A7
330
1F
100
AcDbEntity
  8
1
100
AcDbDimension
  2
*D912
 10
1382.979516994544
 20
765.6383375480741
 30
0.0
 11
1553.032633696356
 21
791.1383375480741
 31
0.0
 70
    32
  1
ローラ幅
 71
     5
 42
-1.0
 53
0.00013888888889
  3
ME10_DIM_9
100
AcDbAlignedDimension
 13
1723.085750398167
 23
621.6983344245351
 33
0.0
 14
1382.979516994544
 24
621.6983344245369
 34
0.0
100
AcDbRotatedDimension
  0
DIMENSION
  5
3B7
330
1F
100
AcDbEntity
  8
1
100
AcDbDimension
  2
*D1013
 10
1297.979516994543
 20
865.6383375480739
 30
0.0
 11
1251.661260780943
 21
897.4139127990002
 31
0.0
 70
    32
  1
<>
 71
     5
 42
-1.0
 53
0.00013888888889
  3
ME10_DIM_10
100
AcDbAlignedDimension
 13
1327.979516994544
 23
605.2883375480732
 33
0.0
 14
1297.979516994544
 24
617.688337548072
 34
0.0
100
AcDbRotatedDimension
  0
DIMENSION
  5
3C7
330
1F
100
AcDbEntity
  8
1
100
AcDbDimension
  2
*D1114
 10
1727.979516994543
 20
865.6383375480739
 30
0.0
 11
1797.864893647354
 21
899.62526353935
 31
0.0
 70
    32
  1
<>
 71
     5
 42
-1.0
 53
0.00013888888889
  3
ME10_DIM_11
100
AcDbAlignedDimension
 13
1757.979516994543
 23
611.688337548072
 33
0.0
 14
1727.979516994543
 24
605.2883375480732
 34
0.0
100
AcDbRotatedDimension
  0
DIMENSION
  5
3D6
330
1F
100
AcDbEntity
  8
1
100
AcDbDimension
  2
*D1215
 10
1327.979516994544
 20
865.6383375480741
 30
0.0
 11
1527.979516994544
 21
891.6383375480741
 31
0.0
 70
    32
  1
<>
 71
     5
 42
-1.0
 53
0.00013888888889
  3
ME10_DIM_12
100
AcDbAlignedDimension
 13
1727.979516994543
 23
605.2883375480732
 33
0.0
 14
1327.979516994544
 24
605.2883375480732
 34
0.0
100
AcDbRotatedDimension
  0
INSERT
  5
3DE
330
1F
100
AcDbEntity
  8
1
100
AcDbBlockReference
  2
*D1316
 10
0.0
 20
0.0
 30
0.0
  0
DIMENSION
  5
3ED
330
1F
100
AcDbEntity
  8
1
100
AcDbDimension
  2
*D1417
 10
2275.312607313453
 20
1344.926554736091
 30
0.0
 11
2255.298293113106
 21
1373.532173383404
 31
0.0
 70
    37
  1
<>
 71
     5
 42
-1.0
  3
ME10_DIM_13
100
AcDb3PointAngularDimension
 13
2412.755652718792
 23
1414.071002021737
 33
0.0
 14
2285.1407699691
 24
1198.847137745969
 34
0.0
 15
2627.97951699456
 25
1198.847137745969
 35
0.0
  0
ENDSEC
  0
SECTION
  2
OBJECTS
  0
DICTIONARY
  5
C
330
0
100
AcDbDictionary
281
     1
  3
ACAD_GROUP
350
D
  3
ACAD_LAYOUT
350
1A
  3
ACAD_MLINESTYLE
350
17
  3
ACAD_PLOTSETTINGS
350
19
  3
ACAD_PLOTSTYLENAME
350
E
  0
DICTIONARY
  5
D
102
{ACAD_REACTORS
330
C
102
}
330
C
100
AcDbDictionary
281
     1
  0
DICTIONARY
  5
1A
102
{ACAD_REACTORS
330
C
102
}
330
C
100
AcDbDictionary
281
     1
  3
Layout1
350
1E
  3
Layout2
350
26
  3
Model
350
22
  0
DICTIONARY
  5
17
102
{ACAD_REACTORS
330
C
102
}
330
C
100
AcDbDictionary
281
     1
  3
Standard
350
18
  0
DICTIONARY
  5
19
102
{ACAD_REACTORS
330
C
102
}
330
C
100
AcDbDictionary
281
     1
  0
ACDBDICTIONARYWDFLT
  5
E
102
{ACAD_REACTORS
330
C
102
}
330
C
100
AcDbDictionary
281
     1
  3
Normal
350
F
100
AcDbDictionaryWithDefault
340
F
  0
LAYOUT
  5
1E
102
{ACAD_REACTORS
330
1A
102
}
330
1A
100
AcDbPlotSettings
  1

  2

  4

  6

 40
0.0
 41
0.0
 42
0.0
 43
0.0
 44
0.0
 45
0.0
 46
0.0
 47
0.0
 48
0.0
 49
0.0
140
0.0
141
0.0
142
1.0
143
1.0
 70
   688
 72
     0
 73
     0
 74
     5
  7

 75
    16
147
1.0
148
0.0
149
0.0
100
AcDbLayout
  1
Layout1
 70
     1
 71
     1
 10
0.0
 20
0.0
 11
0.0
 21
0.0
 12
0.0
 22
0.0
 32
0.0
 14
0.0
 24
0.0
 34
0.0
 15
0.0
 25
0.0
 35
0.0
146
0.0
 13
0.0
 23
0.0
 33
0.0
 16
1.0
 26
0.0
 36
0.0
 17
0.0
 27
1.0
 37
0.0
 76
     0
330
1B
  0
LAYOUT
  5
26
102
{ACAD_REACTORS
330
1A
102
}
330
1A
100
AcDbPlotSettings
  1

  2

  4

  6

 40
0.0
 41
0.0
 42
0.0
 43
0.0
 44
0.0
 45
0.0
 46
0.0
 47
0.0
 48
0.0
 49
0.0
140
0.0
141
0.0
142
1.0
143
1.0
 70
   688
 72
     0
 73
     0
 74
     5
  7

 75
    16
147
1.0
148
0.0
149
0.0
100
AcDbLayout
  1
Layout2
 70
     1
 71
     2
 10
0.0
 20
0.0
 11
0.0
 21
0.0
 12
0.0
 22
0.0
 32
0.0
 14
0.0
 24
0.0
 34
0.0
 15
0.0
 25
0.0
 35
0.0
146
0.0
 13
0.0
 23
0.0
 33
0.0
 16
1.0
 26
0.0
 36
0.0
 17
0.0
 27
1.0
 37
0.0
 76
     0
330
23
  0
LAYOUT
  5
22
102
{ACAD_REACTORS
330
1A
102
}
330
1A
100
AcDbPlotSettings
  1

  2

  4

  6

 40
0.0
 41
0.0
 42
0.0
 43
0.0
 44
0.0
 45
0.0
 46
0.0
 47
0.0
 48
0.0
 49
0.0
140
0.0
141
0.0
142
1.0
143
1.0
 70
  1712
 72
     0
 73
     0
 74
     0
  7

 75
     0
147
1.0
148
0.0
149
0.0
100
AcDbLayout
  1
Model
 70
     1
 71
     0
 10
0.0
 20
0.0
 11
0.0
 21
0.0
 12
0.0
 22
0.0
 32
0.0
 14
0.0
 24
-22.5615332095569
 34
0.0
 15
3940.0
 25
2680.0
 35
0.0
146
0.0
 13
0.0
 23
0.0
 33
0.0
 16
1.0
 26
0.0
 36
0.0
 17
0.0
 27
1.0
 37
0.0
 76
     0
330
1F
  0
MLINESTYLE
  5
18
102
{ACAD_REACTORS
330
17
102
}
330
17
100
AcDbMlineStyle
  2
Standard
 70
     0
  3

 62
   256
 51
90.0
 52
90.0
 71
     2
 49
0.5
 62
   256
  6
BYLAYER
 49
-0.5
 62
   256
  6
BYLAYER
  0
ACDBPLACEHOLDER
  5
F
102
{ACAD_REACTORS
330
E
102
}
330
E
  0
ENDSEC
  0
EOF
