  0
SECTION
  2
HEADER
  9
$ACADVER
  1
AC1015
  9
$ACADMAINTVER
 70
     6
  9
$DWGCODEPAGE
  3
DOS932
  9
$INSBASE
 10
0.0
 20
0.0
 30
0.0
  9
$EXTMIN
 10
0.0
 20
-22.5615332095569
 30
0.0
  9
$EXTMAX
 10
3940.0
 20
2680.0
 30
0.0
  9
$LIMMIN
 10
0.0
 20
0.0
  9
$LIMMAX
 10
12.0
 20
9.0
  9
$ORTHOMODE
 70
     0
  9
$REGENMODE
 70
     1
  9
$FILLMODE
 70
     1
  9
$QTEXTMODE
 70
     0
  9
$MIRRTEXT
 70
     1
  9
$LTSCALE
 40
1.0
  9
$ATTMODE
 70
     1
  9
$TEXTSIZE
 40
0.2
  9
$TRACEWID
 40
0.05
  9
$TEXTSTYLE
  7
Standard
  9
$CLAYER
  8
0
  9
$CELTYPE
  6
ByLayer
  9
$CECOLOR
 62
   256
  9
$CELTSCALE
 40
1.0
  9
$DISPSILH
 70
     0
  9
$DIMSCALE
 40
1.0
  9
$DIMASZ
 40
0.18
  9
$DIMEXO
 40
0.0625
  9
$DIMDLI
 40
0.38
  9
$DIMRND
 40
0.0
  9
$DIMDLE
 40
0.0
  9
$DIMEXE
 40
0.18
  9
$DIMTP
 40
0.0
  9
$DIMTM
 40
0.0
  9
$DIMTXT
 40
0.18
  9
$DIMCEN
 40
0.09
  9
$DIMTSZ
 40
0.0
  9
$DIMTOL
 70
     0
  9
$DIMLIM
 70
     0
  9
$DIMTIH
 70
     1
  9
$DIMTOH
 70
     1
  9
$DIMSE1
 70
     0
  9
$DIMSE2
 70
     0
  9
$DIMTAD
 70
     0
  9
$DIMZIN
 70
     0
  9
$DIMBLK
  1

  9
$DIMASO
 70
     1
  9
$DIMSHO
 70
     1
  9
$DIMPOST
  1

  9
$DIMAPOST
  1

  9
$DIMALT
 70
     0
  9
$DIMALTD
 70
     2
  9
$DIMALTF
 40
25.4
  9
$DIMLFAC
 40
1.0
  9
$DIMTOFL
 70
     0
  9
$DIMTVP
 40
0.0
  9
$DIMTIX
 70
     0
  9
$DIMSOXD
 70
     0
  9
$DIMSAH
 70
     0
  9
$DIMBLK1
  1

  9
$DIMBLK2
  1

  9
$DIMSTYLE
  2
Standard
  9
$DIMCLRD
 70
     0
  9
$DIMCLRE
 70
     0
  9
$DIMCLRT
 70
     0
  9
$DIMTFAC
 40
1.0
  9
$DIMGAP
 40
0.09
  9
$DIMJUST
 70
     0
  9
$DIMSD1
 70
     0
  9
$DIMSD2
 70
     0
  9
$DIMTOLJ
 70
     1
  9
$DIMTZIN
 70
     0
  9
$DIMALTZ
 70
     0
  9
$DIMALTTZ
 70
     0
  9
$DIMUPT
 70
     0
  9
$DIMDEC
 70
     4
  9
$DIMTDEC
 70
     4
  9
$DIMALTU
 70
     2
  9
$DIMALTTD
 70
     2
  9
$DIMTXSTY
  7
Standard
  9
$DIMAUNIT
 70
     0
  9
$DIMADEC
 70
     0
  9
$DIMALTRND
 40
0.0
  9
$DIMAZIN
 70
     0
  9
$DIMDSEP
 70
    46
  9
$DIMATFIT
 70
     3
  9
$DIMFRAC
 70
     0
  9
$DIMLDRBLK
  1

  9
$DIMLUNIT
 70
     2
  9
$DIMLWD
 70
    -2
  9
$DIMLWE
 70
    -2
  9
$DIMTMOVE
 70
     0
  9
$LUNITS
 70
     2
  9
$LUPREC
 70
     4
  9
$SKETCHINC
 40
0.1
  9
$FILLETRAD
 40
0.5
  9
$AUNITS
 70
     0
  9
$AUPREC
 70
     0
  9
$MENU
  1
.
  9
$ELEVATION
 40
0.0
  9
$PELEVATION
 40
0.0
  9
$THICKNESS
 40
0.0
  9
$LIMCHECK
 70
     0
  9
$CHAMFERA
 40
0.5
  9
$CHAMFERB
 40
0.5
  9
$CHAMFERC
 40
1.0
  9
$CHAMFERD
 40
0.0
  9
$SKPOLY
 70
     0
  9
$TDCREATE
 40
2455804.544637546
  9
$TDUCREATE
 40
2455804.169637546
  9
$TDUPDATE
 40
2455804.544637558
  9
$TDUUPDATE
 40
2455804.169637558
  9
$TDINDWG
 40
0.0000000116
  9
$TDUSRTIMER
 40
0.0000000116
  9
$USRTIMER
 70
     1
  9
$ANGBASE
 50
0.0
  9
$ANGDIR
 70
     0
  9
$PDMODE
 70
     0
  9
$PDSIZE
 40
0.0
  9
$PLINEWID
 40
0.0
  9
$SPLFRAME
 70
     0
  9
$SPLINETYPE
 70
     6
  9
$SPLINESEGS
 70
     8
  9
$HANDSEED
  5
41B
  9
$SURFTAB1
 70
     6
  9
$SURFTAB2
 70
     6
  9
$SURFTYPE
 70
     6
  9
$SURFU
 70
     6
  9
$SURFV
 70
     6
  9
$UCSBASE
  2

  9
$UCSNAME
  2

  9
$UCSORG
 10
0.0
 20
0.0
 30
0.0
  9
$UCSXDIR
 10
1.0
 20
0.0
 30
0.0
  9
$UCSYDIR
 10
0.0
 20
1.0
 30
0.0
  9
$UCSORTHOREF
  2

  9
$UCSORTHOVIEW
 70
     0
  9
$UCSORGTOP
 10
0.0
 20
0.0
 30
0.0
  9
$UCSORGBOTTOM
 10
0.0
 20
0.0
 30
0.0
  9
$UCSORGLEFT
 10
0.0
 20
0.0
 30
0.0
  9
$UCSORGRIGHT
 10
0.0
 20
0.0
 30
0.0
  9
$UCSORGFRONT
 10
0.0
 20
0.0
 30
0.0
  9
$UCSORGBACK
 10
0.0
 20
0.0
 30
0.0
  9
$PUCSBASE
  2

  9
$PUCSNAME
  2

  9
$PUCSORG
 10
0.0
 20
0.0
 30
0.0
  9
$PUCSXDIR
 10
1.0
 20
0.0
 30
0.0
  9
$PUCSYDIR
 10
0.0
 20
1.0
 30
0.0
  9
$PUCSORTHOREF
  2

  9
$PUCSORTHOVIEW
 70
     0
  9
$PUCSORGTOP
 10
0.0
 20
0.0
 30
0.0
  9
$PUCSORGBOTTOM
 10
0.0
 20
0.0
 30
0.0
  9
$PUCSORGLEFT
 10
0.0
 20
0.0
 30
0.0
  9
$PUCSORGRIGHT
 10
0.0
 20
0.0
 30
0.0
  9
$PUCSORGFRONT
 10
0.0
 20
0.0
 30
0.0
  9
$PUCSORGBACK
 10
0.0
 20
0.0
 30
0.0
  9
$USERI1
 70
     0
  9
$USERI2
 70
     0
  9
$USERI3
 70
     0
  9
$USERI4
 70
     0
  9
$USERI5
 70
     0
  9
$USERR1
 40
14.0
  9
$USERR2
 40
0.0
  9
$USERR3
 40
0.0
  9
$USERR4
 40
0.0
  9
$USERR5
 40
0.0
  9
$WORLDVIEW
 70
     1
  9
$SHADEDGE
 70
     3
  9
$SHADEDIF
 70
    70
  9
$TILEMODE
 70
     1
  9
$MAXACTVP
 70
    64
  9
$PINSBASE
 10
0.0
 20
0.0
 30
0.0
  9
$PLIMCHECK
 70
     0
  9
$PEXTMIN
 10
1.00000000000000E+20
 20
1.00000000000000E+20
 30
1.00000000000000E+20
  9
$PEXTMAX
 10
-1.00000000000000E+20
 20
-1.00000000000000E+20
 30
-1.00000000000000E+20
  9
$PLIMMIN
 10
0.0
 20
0.0
  9
$PLIMMAX
 10
12.0
 20
9.0
  9
$UNITMODE
 70
     0
  9
$VISRETAIN
 70
     1
  9
$PLINEGEN
 70
     0
  9
$PSLTSCALE
 70
     1
  9
$TREEDEPTH
 70
  3020
  9
$CMLSTYLE
  2
Standard
  9
$CMLJUST
 70
     0
  9
$CMLSCALE
 40
1.0
  9
$PROXYGRAPHICS
 70
     1
  9
$MEASUREMENT
 70
     1
  9
$CELWEIGHT
370
    -1
  9
$ENDCAPS
280
     0
  9
$JOINSTYLE
280
     0
  9
$LWDISPLAY
290
     0
  9
$INSUNITS
 70
     1
  9
$HYPERLINKBASE
  1

  9
$STYLESHEET
  1

  9
$XEDIT
290
     1
  9
$CEPSNTYPE
380
     0
  9
$PSTYLEMODE
290
     1
  9
$FINGERPRINTGUID
  2
{D0B11044-C85C-4B59-8137-E1AACB139369}
  9
$VERSIONGUID
  2
{FAEB1C32-E019-11D5-929B-00C0DF256EC4}
  9
$EXTNAMES
290
     1
  9
$PSVPSCALE
 40
0.0
  9
$OLESTARTUP
290
     0
  0
ENDSEC
  0
SECTION
  2
CLASSES
  0
CLASS
  1
ACDBDICTIONARYWDFLT
  2
AcDbDictionaryWithDefault
  3
ObjectDBX Classes
 90
        0
280
     0
281
     0
  0
CLASS
  1

  2
exOdDbCircle
  3

 90
        0
280
     0
281
     1
  0
CLASS
  1
ACDBPLACEHOLDER
  2
AcDbPlaceHolder
  3
ObjectDBX Classes
 90
        0
280
     0
281
     0
  0
CLASS
  1
LAYOUT
  2
AcDbLayout
  3
ObjectDBX Classes
 90
        0
280
     0
281
     0
  0
ENDSEC
  0
SECTION
  2
TABLES
  0
TABLE
  2
VPORT
  5
8
330
0
100
AcDbSymbolTable
 70
     1
  0
VPORT
  5
29
330
8
100
AcDbSymbolTableRecord
100
AcDbViewportTableRecord
  2
*Active
 70
     0
 10
0.0
 20
0.0
 11
1.0
 21
1.0
 12
1970.0
 22
1328.719233395222
 13
0.0
 23
0.0
 14
0.5
 24
0.5
 15
0.5
 25
0.5
 16
0.0
 26
0.0
 36
1.0
 17
0.0
 27
0.0
 37
0.0
 40
2972.817686530513
 41
1.60267857142857
 42
50.0
 43
0.0
 44
0.0
 50
0.0
 51
0.0
 71
     0
 72
   100
 73
     1
 74
     3
 75
     0
 76
     0
 77
     0
 78
     0
281
     0
 65
     1
110
0.0
120
0.0
130
0.0
111
1.0
121
0.0
131
0.0
112
0.0
122
1.0
132
0.0
 79
     0
146
0.0
  0
ENDTAB
  0
TABLE
  2
LTYPE
  5
5
330
0
100
AcDbSymbolTable
 70
     8
  0
LTYPE
  5
14
330
5
100
AcDbSymbolTableRecord
100
AcDbLinetypeTableRecord
  2
ByBlock
 70
     0
  3

 72
    65
 73
     0
 40
0.0
  0
LTYPE
  5
15
330
5
100
AcDbSymbolTableRecord
100
AcDbLinetypeTableRecord
  2
ByLayer
 70
     0
  3

 72
    65
 73
     0
 40
0.0
  0
LTYPE
  5
16
330
5
100
AcDbSymbolTableRecord
100
AcDbLinetypeTableRecord
  2
Continuous
 70
     0
  3
Solid line
 72
    65
 73
     0
 40
0.0
  0
LTYPE
  5
2A
330
5
100
AcDbSymbolTableRecord
100
AcDbLinetypeTableRecord
  2
DASHED
 70
     0
  3
Dashed
 72
    65
 73
     2
 40
15.0
 49
7.0
 74
     0
 49
-8.0
 74
     0
  0
LTYPE
  5
2B
330
5
100
AcDbSymbolTableRecord
100
AcDbLinetypeTableRecord
  2
DOTTED
 70
     0
  3
Dotted
 72
    65
 73
     2
 40
1.0
 49
0.0
 74
     0
 49
-1.0
 74
     0
  0
LTYPE
  5
2C
330
5
100
AcDbSymbolTableRecord
100
AcDbLinetypeTableRecord
  2
DOT_CENTER
 70
     0
  3
Dot_Center
 72
    65
 73
     4
 40
14.0
 49
12.0
 74
     0
 49
-1.0
 74
     0
 49
0.0
 74
     0
 49
-1.0
 74
     0
  0
LTYPE
  5
2D
330
5
100
AcDbSymbolTableRecord
100
AcDbLinetypeTableRecord
  2
LONG_DASHED
 70
     0
  3
Long_Dashed
 72
    65
 73
     2
 40
15.0
 49
10.0
 74
     0
 49
-5.0
 74
     0
  0
LTYPE
  5
2E
330
5
100
AcDbSymbolTableRecord
100
AcDbLinetypeTableRecord
  2
DASH_CENTER
 70
     0
  3
Dash_Center
 72
    65
 73
     4
 40
14.0
 49
11.0
 74
     0
 49
-1.0
 74
     0
 49
1.0
 74
     0
 49
-1.0
 74
     0
  0
LTYPE
  5
2F
330
5
100
AcDbSymbolTableRecord
100
AcDbLinetypeTableRecord
  2
PHANTOM
 70
     0
  3
Phantom
 72
    65
 73
     6
 40
13.0
 49
10.0
 74
     0
 49
-1.0
 74
     0
 49
0.0
 74
     0
 49
-1.0
 74
     0
 49
0.0
 74
     0
 49
-1.0
 74
     0
  0
LTYPE
  5
30
330
5
100
AcDbSymbolTableRecord
100
AcDbLinetypeTableRecord
  2
CENTER_DASH_DASH
 70
     0
  3
Center_Dash_Dash
 72
    65
 73
     6
 40
14.0
 49
9.0
 74
     0
 49
-1.0
 74
     0
 49
1.0
 74
     0
 49
-1.0
 74
     0
 49
1.0
 74
     0
 49
-1.0
 74
     0
  0
ENDTAB
  0
TABLE
  2
LAYER
  5
2
330
0
100
AcDbSymbolTable
 70
     4
  0
LAYER
  5
10
330
2
100
AcDbSymbolTableRecord
100
AcDbLayerTableRecord
  2
0
 70
     0
 62
     7
  6
Continuous
370
    -3
390
F
  0
LAYER
  5
31
330
2
100
AcDbSymbolTableRecord
100
AcDbLayerTableRecord
  2
1
 70
     0
 62
     7
  6
Continuous
370
    -3
390
F
  0
LAYER
  5
32
330
2
100
AcDbSymbolTableRecord
100
AcDbLayerTableRecord
  2
COLOR
 70
     0
 62
     7
  6
Continuous
370
    -3
390
F
  0
LAYER
  5
33
330
2
100
AcDbSymbolTableRecord
100
AcDbLayerTableRecord
  2
DETAIL
 70
     0
 62
     7
  6
Continuous
370
    -3
390
F
  0
ENDTAB
  0
TABLE
  2
STYLE
  5
3
330
0
100
AcDbSymbolTable
 70
     6
  0
STYLE
  5
11
330
3
100
AcDbSymbolTableRecord
100
AcDbTextStyleTableRecord
  2
Standard
 70
     0
 40
0.0
 41
1.0
 50
0.0
 71
     0
 42
0.2
  3
txt
  4

  0
STYLE
  5
52
330
3
100
AcDbSymbolTableRecord
100
AcDbTextStyleTableRecord
  2
CONVERTER_1
 70
     0
 40
0.0
 41
0.9
 50
0.0
 71
     0
 42
0.2
  3
txt.shx
  4

  0
STYLE
  5
55
330
3
100
AcDbSymbolTableRecord
100
AcDbTextStyleTableRecord
  2
CONVERTER_2
 70
     0
 40
0.0
 41
1.068
 50
0.0
 71
     0
 42
0.2
  3
msmincho.ttc
  4

1001
ACAD
1000
MS Mincho
1071
    32785
  0
STYLE
  5
58
330
3
100
AcDbSymbolTableRecord
100
AcDbTextStyleTableRecord
  2
CONVERTER_3
 70
     0
 40
0.0
 41
0.89
 50
0.0
 71
     0
 42
0.2
  3
MSMINCHO.TTC
  4

1001
ACAD
1000
MS Mincho
1071
    32785
  0
STYLE
  5
5B
330
3
100
AcDbSymbolTableRecord
100
AcDbTextStyleTableRecord
  2
CONVERTER_4
 70
     0
 40
0.0
 41
0.801
 50
0.0
 71
     0
 42
0.2
  3
msmincho.ttc
  4

1001
ACAD
1000
MS Mincho
1071
    32785
  0
STYLE
  5
5F
330
3
100
AcDbSymbolTableRecord
100
AcDbTextStyleTableRecord
  2
CONVERTER_5
 70
     0
 40
0.0
 41
0.9025
 50
0.0
 71
     0
 42
0.2
  3
complex.shx
  4

  0
ENDTAB
  0
TABLE
  2
VIEW
  5
6
330
0
100
AcDbSymbolTable
 70
     0
  0
ENDTAB
  0
TABLE
  2
UCS
  5
7
330
0
100
AcDbSymbolTable
 70
     0
  0
ENDTAB
  0
TABLE
  2
APPID
  5
9
330
0
100
AcDbSymbolTable
 70
     1
  0
APPID
  5
12
330
9
100
AcDbSymbolTableRecord
100
AcDbRegAppTableRecord
  2
ACAD
 70
     0
  0
ENDTAB
  0
TABLE
  2
DIMSTYLE
  5
A
330
0
100
AcDbSymbolTable
 70
    15
100
AcDbDimStyleTable
  0
DIMSTYLE
105
27
330
A
100
AcDbSymbolTableRecord
100
AcDbDimStyleTableRecord
  2
Standard
 70
     0
340
11
  0
DIMSTYLE
105
354
102
{ACAD_REACTORS
330
355
102
}
330
A
100
AcDbSymbolTableRecord
100
AcDbDimStyleTableRecord
  2
ME10_DIM_0
 70
     0
 41
32.0
 42
10.0
 44
10.0
 73
     0
 74
     0
 77
     1
 78
     8
140
32.0
147
7.0
172
     1
173
     1
176
     2
177
     2
178
     2
271
     2
340
52
343
34E
344
34E
  0
DIMSTYLE
105
361
102
{ACAD_REACTORS
330
362
102
}
330
A
100
AcDbSymbolTableRecord
100
AcDbDimStyleTableRecord
  2
ME10_DIM_1
 70
     0
 41
32.0
 42
10.0
 44
10.0
 73
     0
 74
     0
 77
     1
 78
     8
140
32.0
147
10.0
172
     1
173
     1
176
     2
177
     2
178
     2
271
     2
340
58
343
34E
344
34E
  0
DIMSTYLE
105
370
102
{ACAD_REACTORS
330
371
102
}
330
A
100
AcDbSymbolTableRecord
100
AcDbDimStyleTableRecord
  2
ME10_DIM_2
 70
     0
  3
φ<>
 41
32.0
 42
10.0
 44
10.0
 73
     0
 74
     0
 77
     1
 78
     8
140
32.0
147
10.0
172
     1
173
     1
176
     2
177
     2
178
     2
271
     2
340
58
343
34E
344
34E
  0
DIMSTYLE
105
37D
102
{ACAD_REACTORS
330
37E
102
}
330
A
100
AcDbSymbolTableRecord
100
AcDbDimStyleTableRecord
  2
ME10_DIM_3
 70
     0
 41
32.0
 42
10.0
 44
10.0
 73
     0
 74
     0
 77
     1
 78
     8
140
32.0
147
7.0
172
     1
173
     1
176
     2
177
     2
178
     2
271
     2
340
52
343
34E
344
34E
  0
DIMSTYLE
105
38C
102
{ACAD_REACTORS
330
38D
102
}
330
A
100
AcDbSymbolTableRecord
100
AcDbDimStyleTableRecord
  2
ME10_DIM_4
 70
     0
 41
32.0
 42
10.0
 44
10.0
 73
     0
 74
     0
 77
     1
 78
     8
140
32.0
147
7.0
172
     1
173
     1
176
     2
177
     2
178
     2
271
     2
340
58
343
34E
344
34E
  0
DIMSTYLE
105
399
102
{ACAD_REACTORS
330
39A
102
}
330
A
100
AcDbSymbolTableRecord
100
AcDbDimStyleTableRecord
  2
ME10_DIM_5
 70
     0
 41
32.0
 42
10.0
 44
10.0
 73
     0
 74
     0
 77
     1
 78
     8
140
32.0
147
10.0
172
     1
173
     1
176
     2
177
     2
178
     2
271
     0
340
52
343
34E
344
34E
  0
DIMSTYLE
105
3A8
102
{ACAD_REACTORS
330
3A9
102
}
330
A
100
AcDbSymbolTableRecord
100
AcDbDimStyleTableRecord
  2
ME10_DIM_6
 70
     0
 41
32.0
 42
10.0
 44
10.0
 73
     0
 74
     0
 77
     1
 78
     8
140
32.0
147
10.0
172
     1
173
     1
176
     2
177
     2
178
     2
271
     0
340
52
343
34E
344
34E
  0
DIMSTYLE
105
3B7
102
{ACAD_REACTORS
330
3B8
102
}
330
A
100
AcDbSymbolTableRecord
100
AcDbDimStyleTableRecord
  2
ME10_DIM_7
 70
     0
 41
32.0
 42
10.0
 44
10.0
 73
     0
 74
     0
 77
     1
 78
     8
140
32.0
147
10.0
172
     1
173
     1
176
     2
177
     2
178
     2
271
     0
340
52
343
34E
344
34E
  0
DIMSTYLE
105
3C6
102
{ACAD_REACTORS
330
3C7
102
}
330
A
100
AcDbSymbolTableRecord
100
AcDbDimStyleTableRecord
  2
ME10_DIM_8
 70
     0
 41
32.0
 42
10.0
 44
10.0
 73
     0
 74
     0
 77
     1
 78
     8
140
32.0
147
10.0
172
     1
173
     1
176
     2
177
     2
178
     2
271
     0
340
52
343
34E
344
34E
  0
DIMSTYLE
105
3D3
102
{ACAD_REACTORS
330
3D4
102
}
330
A
100
AcDbSymbolTableRecord
100
AcDbDimStyleTableRecord
  2
ME10_DIM_9
 70
     0
 41
32.0
 42
10.0
 44
10.0
 73
     0
 74
     0
 77
     1
 78
     8
140
32.0
147
10.0
172
     1
173
     1
176
     2
177
     2
178
     2
271
     0
340
58
343
34E
344
34E
  0
DIMSTYLE
105
3E3
102
{ACAD_REACTORS
330
3E4
102
}
330
A
100
AcDbSymbolTableRecord
100
AcDbDimStyleTableRecord
  2
ME10_DIM_10
 70
     0
 41
32.0
 42
10.0
 44
10.0
 73
     0
 74
     0
 77
     1
 78
     8
140
32.0
147
10.0
172
     1
173
     1
176
     2
177
     2
178
     2
271
     2
340
52
343
34E
344
34E
  0
DIMSTYLE
105
3F3
102
{ACAD_REACTORS
330
3F4
102
}
330
A
100
AcDbSymbolTableRecord
100
AcDbDimStyleTableRecord
  2
ME10_DIM_11
 70
     0
 41
32.0
 42
10.0
 44
10.0
 73
     0
 74
     0
 77
     1
 78
     8
140
32.0
147
10.0
172
     1
173
     1
176
     2
177
     2
178
     2
271
     2
340
52
343
34E
344
34E
  0
DIMSTYLE
105
402
102
{ACAD_REACTORS
330
403
102
}
330
A
100
AcDbSymbolTableRecord
100
AcDbDimStyleTableRecord
  2
ME10_DIM_12
 70
     0
  3
　(呼び幅）
 41
32.0
 42
10.0
 44
10.0
 73
     0
 74
     0
 77
     1
 78
     8
140
32.0
147
10.0
172
     1
173
     1
176
     2
177
     2
178
     2
271
     2
340
58
343
34E
344
34E
  0
DIMSTYLE
105
419
102
{ACAD_REACTORS
330
41A
102
}
330
A
100
AcDbSymbolTableRecord
100
AcDbDimStyleTableRecord
  2
ME10_DIM_13
 70
     0
 41
32.0
 42
10.0
 44
10.0
 73
     0
 74
     0
 77
     1
 78
     8
140
32.0
147
10.0
172
     1
173
     1
176
     2
177
     2
178
     2
271
     2
340
52
343
34E
344
34E
  0
ENDTAB
  0
TABLE
  2
BLOCK_RECORD
  5
1
330
0
100
AcDbSymbolTable
 70
    18
  0
BLOCK_RECORD
  5
1F
330
1
100
AcDbSymbolTableRecord
100
AcDbBlockTableRecord
  2
*Model_Space
340
22
  0
BLOCK_RECORD
  5
1B
330
1
100
AcDbSymbolTableRecord
100
AcDbBlockTableRecord
  2
*Paper_Space
340
1E
  0
BLOCK_RECORD
  5
23
330
1
100
AcDbSymbolTableRecord
100
AcDbBlockTableRecord
  2
*Paper_Space0
340
26
  0
BLOCK_RECORD
  5
34
330
1
100
AcDbSymbolTableRecord
100
AcDbBlockTableRecord
  2
Zuwaku-A3-web
340
0
102
{BLKREFS
331
37
102
}
  0
BLOCK_RECORD
  5
343
330
1
100
AcDbSymbolTableRecord
100
AcDbBlockTableRecord
  2
*D02
340
0
  0
BLOCK_RECORD
  5
34E
330
1
100
AcDbSymbolTableRecord
100
AcDbBlockTableRecord
  2
_Open30
340
0
  0
BLOCK_RECORD
  5
356
330
1
100
AcDbSymbolTableRecord
100
AcDbBlockTableRecord
  2
*D14
340
0
  0
BLOCK_RECORD
  5
363
330
1
100
AcDbSymbolTableRecord
100
AcDbBlockTableRecord
  2
*D25
340
0
  0
BLOCK_RECORD
  5
372
330
1
100
AcDbSymbolTableRecord
100
AcDbBlockTableRecord
  2
*D36
340
0
  0
BLOCK_RECORD
  5
37F
330
1
100
AcDbSymbolTableRecord
100
AcDbBlockTableRecord
  2
*D47
340
0
  0
BLOCK_RECORD
  5
38E
330
1
100
AcDbSymbolTableRecord
100
AcDbBlockTableRecord
  2
*D58
340
0
  0
BLOCK_RECORD
  5
39B
330
1
100
AcDbSymbolTableRecord
100
AcDbBlockTableRecord
  2
*D69
340
0
  0
BLOCK_RECORD
  5
3AA
330
1
100
AcDbSymbolTableRecord
100
AcDbBlockTableRecord
  2
*D710
340
0
  0
BLOCK_RECORD
  5
3B9
330
1
100
AcDbSymbolTableRecord
100
AcDbBlockTableRecord
  2
*D811
340
0
  0
BLOCK_RECORD
  5
3C8
330
1
100
AcDbSymbolTableRecord
100
AcDbBlockTableRecord
  2
*D912
340
0
  0
BLOCK_RECORD
  5
3D5
330
1
100
AcDbSymbolTableRecord
100
AcDbBlockTableRecord
  2
*D1013
340
0
  0
BLOCK_RECORD
  5
3E5
330
1
100
AcDbSymbolTableRecord
100
AcDbBlockTableRecord
  2
*D1114
340
0
  0
BLOCK_RECORD
  5
3F5
330
1
100
AcDbSymbolTableRecord
100
AcDbBlockTableRecord
  2
*D1215
340
0
  0
BLOCK_RECORD
  5
404
330
1
100
AcDbSymbolTableRecord
100
AcDbBlockTableRecord
  2
*D1316
340
0
102
{BLKREFS
331
40B
102
}
  0
BLOCK_RECORD
  5
40C
330
1
100
AcDbSymbolTableRecord
100
AcDbBlockTableRecord
  2
*D1417
340
0
  0
ENDTAB
  0
ENDSEC
  0
SECTION
  2
BLOCKS
  0
BLOCK
  5
20
330
1F
100
AcDbEntity
  8
0
100
AcDbBlockBegin
  2
*Model_Space
 70
     0
 71
     0
 10
0.0
 20
0.0
 30
0.0
  3
*Model_Space
  1

  0
ENDBLK
  5
21
330
1F
100
AcDbEntity
  8
0
100
AcDbBlockEnd
  0
BLOCK
  5
1C
330
1B
100
AcDbEntity
 67
     1
  8
0
100
AcDbBlockBegin
  2
*Paper_Space
 70
     0
 71
     0
 10
0.0
 20
0.0
 30
0.0
  3
*Paper_Space
  1

  0
ENDBLK
  5
1D
330
1B
100
AcDbEntity
 67
     1
  8
0
100
AcDbBlockEnd
  0
BLOCK
  5
24
330
23
100
AcDbEntity
  8
0
100
AcDbBlockBegin
  2
*Paper_Space0
 70
     0
 71
     0
 10
0.0
 20
0.0
 30
0.0
  3
*Paper_Space0
  1

  0
ENDBLK
  5
25
330
23
100
AcDbEntity
  8
0
100
AcDbBlockEnd
  0
BLOCK
  5
35
330
34
100
AcDbEntity
  8
0
100
AcDbBlockBegin
  2
Zuwaku-A3-web
 70
     0
 71
     0
 10
196.9999999999998
 20
134.0
 30
0.0
  3
Zuwaku-A3-web
  1

  0
POINT
  5
38
330
34
100
AcDbEntity
  8
1
 62
     3
 60
     1
100
AcDbPoint
 10
162.5
 20
20.0
 30
0.0
  0
POINT
  5
39
330
34
100
AcDbEntity
  8
1
 62
     3
 60
     1
100
AcDbPoint
 10
202.0
 20
15.0
 30
0.0
  0
POINT
  5
3A
330
34
100
AcDbEntity
  8
1
 62
     3
 60
     1
100
AcDbPoint
 10
162.5
 20
15.0
 30
0.0
  0
POINT
  5
3B
330
34
100
AcDbEntity
  8
1
 62
     3
 60
     1
100
AcDbPoint
 10
9.5
 20
12.5
 30
0.0
  0
POINT
  5
3C
330
34
100
AcDbEntity
  8
1
 62
     3
 60
     1
100
AcDbPoint
 10
2.5
 20
12.5
 30
0.0
  0
POINT
  5
3D
330
34
100
AcDbEntity
  8
1
 62
     3
 60
     1
100
AcDbPoint
 10
0.0
 20
0.0
 30
0.0
  0
LINE
  5
3E
330
34
100
AcDbEntity
  8
1
  6
Continuous
 62
     4
100
AcDbLine
 10
189.4945771572093
 20
2.13397584248199
 30
0.0
 11
195.2266254722454
 21
7.866024157518
 31
0.0
  0
LINE
  5
3F
330
34
100
AcDbEntity
  8
1
  6
Continuous
 62
     7
100
AcDbLine
 10
0.0
 20
0.0
 30
0.0
 11
394.0
 21
0.0
 31
0.0
  0
LINE
  5
40
330
34
100
AcDbEntity
  8
1
  6
Continuous
 62
     4
100
AcDbLine
 10
162.5
 20
15.0
 30
0.0
 11
202.0
 21
15.0
 31
0.0
  0
LINE
  5
41
330
34
100
AcDbEntity
  8
1
  6
Continuous
 62
     3
100
AcDbLine
 10
9.5
 20
12.5
 30
0.0
 11
6.0
 21
19.0
 31
0.0
  0
LINE
  5
42
330
34
100
AcDbEntity
  8
1
  6
Continuous
 62
     3
100
AcDbLine
 10
2.5
 20
12.5
 30
0.0
 11
9.5
 21
12.5
 31
0.0
  0
LINE
  5
43
330
34
100
AcDbEntity
  8
1
  6
Continuous
 62
     3
100
AcDbLine
 10
6.0
 20
19.0
 30
0.0
 11
2.5
 21
12.5
 31
0.0
  0
LINE
  5
44
330
34
100
AcDbEntity
  8
1
  6
Continuous
 62
     4
100
AcDbLine
 10
12.0
 20
20.0
 30
0.0
 11
12.0
 21
0.0
 31
0.0
  0
LINE
  5
45
330
34
100
AcDbEntity
  8
1
  6
Continuous
 62
     4
100
AcDbLine
 10
0.0
 20
10.0
 30
0.0
 11
394.0
 21
10.0
 31
0.0
  0
LINE
  5
46
330
34
100
AcDbEntity
  8
1
  6
Continuous
 62
     7
100
AcDbLine
 10
393.9999999999997
 20
268.0
 30
0.0
 11
0.0
 21
268.0
 31
0.0
  0
LINE
  5
47
330
34
100
AcDbEntity
  8
1
  6
Continuous
 62
     7
100
AcDbLine
 10
394.0
 20
0.0
 30
0.0
 11
393.9999999999997
 21
268.0
 31
0.0
  0
LINE
  5
48
330
34
100
AcDbEntity
  8
1
  6
Continuous
 62
     4
100
AcDbLine
 10
202.0
 20
0.0
 30
0.0
 11
202.0
 21
20.0
 31
0.0
  0
LINE
  5
49
330
34
100
AcDbEntity
  8
1
  6
Continuous
 62
     4
100
AcDbLine
 10
162.5
 20
0.0
 30
0.0
 11
162.5
 21
20.0
 31
0.0
  0
LINE
  5
4A
330
34
100
AcDbEntity
  8
1
  6
Continuous
 62
     4
100
AcDbLine
 10
283.0
 20
20.0
 30
0.0
 11
283.0
 21
0.0
 31
0.0
  0
LINE
  5
4B
330
34
100
AcDbEntity
  8
1
  6
Continuous
 62
     4
100
AcDbLine
 10
227.0
 20
20.0
 30
0.0
 11
227.0
 21
0.0
 31
0.0
  0
LINE
  5
4C
330
34
100
AcDbEntity
  8
1
  6
Continuous
 62
     4
100
AcDbLine
 10
170.5
 20
10.0
 30
0.0
 11
170.5
 21
0.0
 31
0.0
  0
LINE
  5
4D
330
34
100
AcDbEntity
  8
1
  6
Continuous
 62
     4
100
AcDbLine
 10
66.0
 20
20.0
 30
0.0
 11
66.0
 21
0.0
 31
0.0
  0
LINE
  5
4E
330
34
100
AcDbEntity
  8
1
  6
Continuous
 62
     7
100
AcDbLine
 10
0.0
 20
268.0
 30
0.0
 11
0.0
 21
0.0
 31
0.0
  0
LINE
  5
4F
330
34
100
AcDbEntity
  8
1
  6
Continuous
 62
     4
100
AcDbLine
 10
173.7445771572093
 20
2.13397584248199
 30
0.0
 11
179.4766254722454
 21
7.866024157518
 31
0.0
  0
LINE
  5
50
330
34
100
AcDbEntity
  8
1
  6
Continuous
 62
     4
100
AcDbLine
 10
394.0
 20
20.0
 30
0.0
 11
0.0
 21
20.0
 31
0.0
  0
LINE
  5
51
330
34
100
AcDbEntity
  8
1
  6
Continuous
 62
     4
100
AcDbLine
 10
295.0
 20
20.0
 30
0.0
 11
295.0
 21
0.0
 31
0.0
  0
MTEXT
  5
53
330
34
100
AcDbEntity
  8
1
 62
     2
100
AcDbMText
 10
180.9766254722454
 20
3.75
 30
0.0
 40
4.0
 41
0.0
 71
     5
 72
     1
  1
10
  7
CONVERTER_1
 73
     1
 44
0.60024009603842
  0
MTEXT
  5
54
330
34
100
AcDbEntity
  8
1
 62
     2
100
AcDbMText
 10
173.183432867907
 20
6.25
 30
0.0
 40
4.0
 41
0.0
 71
     5
 72
     1
  1
1
  7
CONVERTER_1
 73
     1
 44
0.60024009603842
  0
MTEXT
  5
56
330
34
100
AcDbEntity
  8
1
 62
     2
100
AcDbMText
 10
289.0
 20
2.75
 30
0.0
 40
3.5
 41
0.0
 71
     5
 72
     1
  1
番号
  7
CONVERTER_2
 73
     1
 44
0.78031212484994
  0
MTEXT
  5
57
330
34
100
AcDbEntity
  8
1
 62
     2
100
AcDbMText
 10
166.5
 20
2.75
 30
0.0
 40
3.5
 41
0.0
 71
     5
 72
     1
  1
度
  7
CONVERTER_2
 73
     1
 44
0.78031212484994
  0
MTEXT
  5
59
330
34
100
AcDbEntity
  8
1
 62
     2
100
AcDbMText
 10
5.67807803017169
 20
2.75
 30
0.0
 40
3.5
 41
0.0
 71
     5
 72
     1
  1
番号
  7
CONVERTER_3
 73
     1
 44
0.78031212484994
  0
MTEXT
  5
5A
330
34
100
AcDbEntity
  8
1
 62
     7
100
AcDbMText
 10
114.25
 20
15.0
 30
0.0
 40
5.0
 41
0.0
 71
     5
 72
     1
  1
技術情報サービス
  7
CONVERTER_3
 73
     1
 44
1.20048019207683
  0
MTEXT
  5
5C
330
34
100
AcDbEntity
  8
1
 62
     2
100
AcDbMText
 10
214.5
 20
15.0
 30
0.0
 40
4.0
 41
0.0
 71
     5
 72
     1
  1
シリーズ名
  7
CONVERTER_4
 73
     1
 44
1.32052821128451
  0
MTEXT
  5
5D
330
34
100
AcDbEntity
  8
1
 62
     2
100
AcDbMText
 10
214.5
 20
5.0
 30
0.0
 40
4.0
 41
0.0
 71
     5
 72
     1
  1
機　種
  7
CONVERTER_3
 73
     1
 44
1.32052821128451
  0
MTEXT
  5
5E
330
34
100
AcDbEntity
  8
1
 62
     2
100
AcDbMText
 10
189.75
 20
6.5
 30
0.0
 40
4.0
 41
0.0
 71
     5
 72
     1
  1
1
  7
CONVERTER_1
 73
     1
 44
1.32052821128451
  0
MTEXT
  5
60
330
34
100
AcDbEntity
  8
1
 62
     7
100
AcDbMText
 10
114.25
 20
5.0
 30
0.0
 40
4.0
 41
0.0
 71
     5
 72
     1
  1
MARUYASU KIKAI CO.,LTD.
  7
CONVERTER_5
 73
     1
 44
1.32052821128451
  0
MTEXT
  5
61
330
34
100
AcDbEntity
  8
1
 62
     2
100
AcDbMText
 10
6.0
 20
7.25
 30
0.0
 40
3.5
 41
0.0
 71
     5
 72
     1
  1
改訂
  7
CONVERTER_3
 73
     1
 44
0.78031212484994
  0
MTEXT
  5
62
330
34
100
AcDbEntity
  8
1
 62
     2
100
AcDbMText
 10
39.0
 20
5.0
 30
0.0
 40
3.5
 41
0.0
 71
     5
 72
     1
  1
改　 訂　 記　 事
  7
CONVERTER_3
 73
     1
 44
1.32052821128451
  0
MTEXT
  5
63
330
34
100
AcDbEntity
  8
1
 62
     2
100
AcDbMText
 10
166.5
 20
7.25
 30
0.0
 40
3.5
 41
0.0
 71
     5
 72
     1
  1
尺
  7
CONVERTER_2
 73
     1
 44
0.78031212484994
  0
MTEXT
  5
64
330
34
100
AcDbEntity
  8
1
 62
     2
100
AcDbMText
 10
182.25
 20
17.5
 30
0.0
 40
3.5
 41
0.0
 71
     5
 72
     1
  1
年　　月　　日
  7
CONVERTER_3
 73
     1
 44
0.78031212484994
  0
MTEXT
  5
65
330
34
100
AcDbEntity
  8
1
 62
     2
100
AcDbMText
 10
289.0
 20
7.25
 30
0.0
 40
3.5
 41
0.0
 71
     5
 72
     1
  1
図面
  7
CONVERTER_2
 73
     1
 44
0.78031212484994
  0
MTEXT
  5
66
330
34
100
AcDbEntity
  8
1
 62
     2
100
AcDbMText
 10
289.0
 20
15.0
 30
0.0
 40
4.0
 41
0.0
 71
     5
 72
     1
  1
図名
  7
CONVERTER_3
 73
     1
 44
1.32052821128451
  0
MTEXT
  5
67
330
34
100
AcDbEntity
  8
1
 62
     4
100
AcDbMText
 10
393.4565543923691
 20
-0.25615332095569
 30
0.0
 40
2.0
 41
0.0
 71
     3
 72
     1
  1
A3
  7
CONVERTER_1
 73
     1
 44
1.32052821128451
  0
ENDBLK
  5
36
330
34
100
AcDbEntity
  8
0
100
AcDbBlockEnd
  0
BLOCK
  5
34C
330
343
100
AcDbEntity
  8
0
100
AcDbBlockBegin
  2
*D02
 70
     1
 71
     0
 10
0.0
 20
0.0
 30
0.0
  3
*D02
  1

  0
LINE
  5
344
330
343
100
AcDbEntity
  8
1
  6
Continuous
 62
     2
100
AcDbLine
 10
917.6457584263113
 20
1874.53964829709
 30
0.0
 11
657.8381372909794
 21
2024.53964829709
 31
0.0
  0
LINE
  5
345
330
343
100
AcDbEntity
  8
1
  6
Continuous
 62
     2
100
AcDbLine
 10
972.6457584263112
 20
1969.802442713378
 30
0.0
 11
912.6457584263113
 21
1865.879394259245
 31
0.0
  0
LINE
  5
346
330
343
100
AcDbEntity
  8
1
  6
Continuous
 62
     2
100
AcDbLine
 10
712.8381372909795
 20
2119.802442713378
 30
0.0
 11
652.8381372909795
 21
2015.879394259246
 31
0.0
  0
LINE
  5
347
330
343
100
AcDbEntity
  8
1
 62
     2
100
AcDbLine
 10
917.6457584263113
 20
1874.53964829709
 30
0.0
 11
885.6457584263114
 21
1883.114022454886
 31
0.0
  0
LINE
  5
348
330
343
100
AcDbEntity
  8
1
 62
     2
100
AcDbLine
 10
917.6457584263113
 20
1874.53964829709
 30
0.0
 11
894.2201325841074
 21
1897.965274139294
 31
0.0
  0
LINE
  5
349
330
343
100
AcDbEntity
  8
1
 62
     2
100
AcDbLine
 10
657.8381372909794
 20
2024.53964829709
 30
0.0
 11
689.8381372909793
 21
2015.965274139294
 31
0.0
  0
LINE
  5
34A
330
343
100
AcDbEntity
  8
1
 62
     2
100
AcDbLine
 10
657.8381372909794
 20
2024.53964829709
 30
0.0
 11
681.2637631331833
 21
2001.114022454886
 31
0.0
  0
MTEXT
  5
34B
330
343
100
AcDbEntity
  8
1
 62
     2
100
AcDbMText
 10
762.8717257597909
 20
1971.981381489324
 30
0.0
 40
32.0
 41
0.0
 71
     7
 72
     1
  1
300
  7
CONVERTER_1
 11
0.8660254037844388
 21
-0.5000000000000001
 31
0.0
 73
     1
 44
0.60024009603842
  0
ENDBLK
  5
34D
330
343
100
AcDbEntity
  8
0
100
AcDbBlockEnd
  0
BLOCK
  5
34F
330
34E
100
AcDbEntity
  8
0
100
AcDbBlockBegin
  2
_Open30
 70
     0
 71
     0
 10
0.0
 20
0.0
 30
0.0
  3
_Open30
  1

  0
LINE
  5
351
330
34E
100
AcDbEntity
  8
0
  6
ByBlock
 62
     0
370
    -2
100
AcDbLine
 10
-1.0
 20
0.267949
 30
0.0
 11
0.0
 21
0.0
 31
0.0
  0
LINE
  5
352
330
34E
100
AcDbEntity
  8
0
  6
ByBlock
 62
     0
370
    -2
100
AcDbLine
 10
0.0
 20
0.0
 30
0.0
 11
-1.0
 21
-0.267949
 31
0.0
  0
LINE
  5
353
330
34E
100
AcDbEntity
  8
0
  6
ByBlock
 62
     0
370
    -2
100
AcDbLine
 10
0.0
 20
0.0
 30
0.0
 11
-1.0
 21
0.0
 31
0.0
  0
ENDBLK
  5
350
330
34E
100
AcDbEntity
  8
0
100
AcDbBlockEnd
  0
BLOCK
  5
35F
330
356
100
AcDbEntity
  8
0
100
AcDbBlockBegin
  2
*D14
 70
     1
 71
     0
 10
0.0
 20
0.0
 30
0.0
  3
*D14
  1

  0
LINE
  5
357
330
356
100
AcDbEntity
  8
1
  6
Continuous
 62
     2
100
AcDbLine
 10
1297.979516994544
 20
965.6383375480734
 30
0.0
 11
1757.979516994543
 21
965.6383375480734
 31
0.0
  0
LINE
  5
358
330
356
100
AcDbEntity
  8
1
  6
Continuous
 62
     2
100
AcDbLine
 10
1757.979516994543
 20
621.688337548072
 30
0.0
 11
1757.979516994543
 21
975.6383375480734
 31
0.0
  0
LINE
  5
359
330
356
100
AcDbEntity
  8
1
  6
Continuous
 62
     2
100
AcDbLine
 10
1297.979516994544
 20
627.688337548072
 30
0.0
 11
1297.979516994544
 21
975.6383375480734
 31
0.0
  0
LINE
  5
35A
330
356
100
AcDbEntity
  8
1
 62
     2
100
AcDbLine
 10
1297.979516994544
 20
965.6383375480734
 30
0.0
 11
1329.979516994544
 21
974.2127117058693
 31
0.0
  0
LINE
  5
35B
330
356
100
AcDbEntity
  8
1
 62
     2
100
AcDbLine
 10
1297.979516994544
 20
965.6383375480734
 30
0.0
 11
1329.979516994544
 21
957.0639633902775
 31
0.0
  0
LINE
  5
35C
330
356
100
AcDbEntity
  8
1
 62
     2
100
AcDbLine
 10
1757.979516994543
 20
965.6383375480734
 30
0.0
 11
1725.979516994543
 21
957.0639633902775
 31
0.0
  0
LINE
  5
35D
330
356
100
AcDbEntity
  8
1
 62
     2
100
AcDbLine
 10
1757.979516994543
 20
965.6383375480734
 30
0.0
 11
1725.979516994543
 21
974.2127117058693
 31
0.0
  0
MTEXT
  5
35E
330
356
100
AcDbEntity
  8
1
 62
     2
100
AcDbMText
 10
1478.868273325846
 20
972.99631926387
 30
0.0
 40
32.0
 41
0.0
 71
     7
 72
     1
  1
機 幅
  7
CONVERTER_3
 11
0.9999999999970621
 21
2.424068405545307E-6
 31
0.0
 73
     1
 44
0.60024009603842
  0
ENDBLK
  5
360
330
356
100
AcDbEntity
  8
0
100
AcDbBlockEnd
  0
BLOCK
  5
36E
330
363
100
AcDbEntity
  8
0
100
AcDbBlockBegin
  2
*D25
 70
     1
 71
     0
 10
0.0
 20
0.0
 30
0.0
  3
*D25
  1

  0
LINE
  5
364
330
363
100
AcDbEntity
  8
1
  6
Continuous
 62
     2
100
AcDbLine
 10
1652.561500705144
 20
615.4287621688352
 30
0.0
 11
1654.161000939397
 21
551.4487527987153
 31
0.0
  0
LINE
  5
365
330
363
100
AcDbEntity
  8
1
  6
Continuous
 62
     2
100
AcDbLine
 10
1651.429354445587
 20
660.7146125511233
 30
0.0
 11
1652.561500705144
 21
615.4287621688352
 31
0.0
  0
LINE
  5
366
330
363
100
AcDbEntity
  8
1
  6
Continuous
 62
     2
100
AcDbLine
 10
1649.829854211334
 20
724.6946219212432
 30
0.0
 11
1651.429354445587
 21
660.7146125511233
 31
0.0
  0
LINE
  5
367
330
363
100
AcDbEntity
  8
1
  6
Continuous
 62
     2
100
AcDbLine
 10
1714.303240465978
 20
626.4803339321661
 30
0.0
 11
1642.646844513397
 21
665.4966120587542
 31
0.0
  0
LINE
  5
368
330
363
100
AcDbEntity
  8
1
  6
Continuous
 62
     2
100
AcDbLine
 10
1715.435386725535
 20
581.194483549878
 30
0.0
 11
1643.778990772954
 21
620.2107616764661
 31
0.0
  0
LINE
  5
369
330
363
100
AcDbEntity
  8
1
 62
     2
100
AcDbLine
 10
1651.429354445587
 20
660.7146125511233
 30
0.0
 11
1642.057908407231
 21
692.4903248381525
 31
0.0
  0
LINE
  5
36A
330
363
100
AcDbEntity
  8
1
 62
     2
100
AcDbLine
 10
1651.429354445587
 20
660.7146125511233
 30
0.0
 11
1659.20130024969
 21
692.9189096342141
 31
0.0
  0
LINE
  5
36B
330
363
100
AcDbEntity
  8
1
 62
     2
100
AcDbLine
 10
1652.561500705144
 20
615.4287621688352
 30
0.0
 11
1661.9329467435
 21
583.6530498818061
 31
0.0
  0
LINE
  5
36C
330
363
100
AcDbEntity
  8
1
 62
     2
100
AcDbLine
 10
1652.561500705144
 20
615.4287621688352
 30
0.0
 11
1644.789554901041
 21
583.2244650857444
 31
0.0
  0
MTEXT
  5
36D
330
363
100
AcDbEntity
  8
1
 62
     2
100
AcDbMText
 10
1625.939164546046
 20
607.80855270051
 30
0.0
 40
32.0
 41
0.0
 71
     7
 72
     1
  1
\C2;φ\C2;45.3
  7
CONVERTER_3
 11
-0.02499219116020139
 21
0.9996876464081228
 31
0.0
 73
     1
 44
0.60024009603842
  0
ENDBLK
  5
36F
330
363
100
AcDbEntity
  8
0
100
AcDbBlockEnd
  0
BLOCK
  5
37B
330
372
100
AcDbEntity
  8
0
100
AcDbBlockBegin
  2
*D36
 70
     1
 71
     0
 10
0.0
 20
0.0
 30
0.0
  3
*D36
  1

  0
LINE
  5
373
330
372
100
AcDbEntity
  8
1
  6
Continuous
 62
     2
100
AcDbLine
 10
612.8152208158152
 20
2189.097705849236
 30
0.0
 11
762.8152208158144
 21
2448.905326984568
 31
0.0
  0
LINE
  5
374
330
372
100
AcDbEntity
  8
1
  6
Continuous
 62
     2
100
AcDbLine
 10
859.1778832531345
 20
2393.270317886553
 30
0.0
 11
754.15496677797
 21
2453.905326984568
 31
0.0
  0
LINE
  5
375
330
372
100
AcDbEntity
  8
1
  6
Continuous
 62
     2
100
AcDbLine
 10
709.177883253135
 20
2133.462696751221
 30
0.0
 11
604.1549667779709
 21
2194.097705849236
 31
0.0
  0
LINE
  5
376
330
372
100
AcDbEntity
  8
1
 62
     2
100
AcDbLine
 10
612.8152208158152
 20
2189.097705849236
 30
0.0
 11
621.3895949736096
 21
2221.097705849237
 31
0.0
  0
LINE
  5
377
330
372
100
AcDbEntity
  8
1
 62
     2
100
AcDbLine
 10
612.8152208158152
 20
2189.097705849236
 30
0.0
 11
636.2408466580182
 21
2212.523331691441
 31
0.0
  0
LINE
  5
378
330
372
100
AcDbEntity
  8
1
 62
     2
100
AcDbLine
 10
762.8152208158144
 20
2448.905326984568
 30
0.0
 11
754.24084665802
 21
2416.905326984568
 31
0.0
  0
LINE
  5
379
330
372
100
AcDbEntity
  8
1
 62
     2
100
AcDbLine
 10
762.8152208158144
 20
2448.905326984568
 30
0.0
 11
739.3895949736115
 21
2425.479701142363
 31
0.0
  0
MTEXT
  5
37A
330
372
100
AcDbEntity
  8
1
 62
     2
100
AcDbMText
 10
656.6227001180704
 20
2278.974485752265
 30
0.0
 40
32.0
 41
0.0
 71
     7
 72
     1
  1
300
  7
CONVERTER_1
 11
0.499999999999998
 21
0.8660254037844398
 31
0.0
 73
     1
 44
0.60024009603842
  0
ENDBLK
  5
37C
330
372
100
AcDbEntity
  8
0
100
AcDbBlockEnd
  0
BLOCK
  5
38A
330
37F
100
AcDbEntity
  8
0
100
AcDbBlockBegin
  2
*D47
 70
     1
 71
     0
 10
0.0
 20
0.0
 30
0.0
  3
*D47
  1

  0
LINE
  5
380
330
37F
100
AcDbEntity
  8
1
  6
Continuous
 62
     2
100
AcDbLine
 10
1582.5506937478
 20
2147.623312949091
 30
0.0
 11
1546.994198834546
 21
2094.409257761728
 31
0.0
  0
LINE
  5
381
330
37F
100
AcDbEntity
  8
1
  6
Continuous
 62
     2
100
AcDbLine
 10
1546.994198834546
 20
2094.409257761728
 30
0.0
 11
1507.003152206086
 21
2034.558426922549
 31
0.0
  0
LINE
  5
382
330
37F
100
AcDbEntity
  8
1
  6
Continuous
 62
     2
100
AcDbLine
 10
1507.003152206086
 20
2034.558426922549
 30
0.0
 11
1471.446657292832
 21
1981.344371735185
 31
0.0
  0
LINE
  5
383
330
37F
100
AcDbEntity
  8
1
  6
Continuous
 62
     2
100
AcDbLine
 10
1687.94402083164
 20
1787.786219504035
 30
0.0
 11
1501.09005572245
 21
2042.622872965224
 31
0.0
  0
LINE
  5
384
330
37F
100
AcDbEntity
  8
1
  6
Continuous
 62
     2
100
AcDbLine
 10
1727.9350674601
 20
1847.637050343215
 30
0.0
 11
1541.08110235091
 21
2102.473703804402
 31
0.0
  0
LINE
  5
385
330
37F
100
AcDbEntity
  8
1
 62
     2
100
AcDbLine
 10
1546.994198834546
 20
2094.409257761728
 30
0.0
 11
1557.643114734454
 21
2125.779952404253
 31
0.0
  0
LINE
  5
386
330
37F
100
AcDbEntity
  8
1
 62
     2
100
AcDbLine
 10
1546.994198834546
 20
2094.409257761728
 30
0.0
 11
1571.901777847893
 21
2116.252618306565
 31
0.0
  0
LINE
  5
387
330
37F
100
AcDbEntity
  8
1
 62
     2
100
AcDbLine
 10
1507.003152206086
 20
2034.558426922549
 30
0.0
 11
1496.354236306178
 21
2003.187732280024
 31
0.0
  0
LINE
  5
388
330
37F
100
AcDbEntity
  8
1
 62
     2
100
AcDbLine
 10
1507.003152206086
 20
2034.558426922549
 30
0.0
 11
1482.095573192739
 21
2012.715066377711
 31
0.0
  0
MTEXT
  5
389
330
37F
100
AcDbEntity
  8
1
 62
     2
100
AcDbMText
 10
1442.026033516414
 20
1949.912963774095
 30
0.0
 40
32.0
 41
0.0
 71
     7
 72
     1
  1
相当ローラピッチ
  7
CONVERTER_3
 11
0.5555702330195935
 21
0.8314696123025511
 31
0.0
 73
     1
 44
0.60024009603842
  0
ENDBLK
  5
38B
330
37F
100
AcDbEntity
  8
0
100
AcDbBlockEnd
  0
BLOCK
  5
397
330
38E
100
AcDbEntity
  8
0
100
AcDbBlockBegin
  2
*D58
 70
     1
 71
     0
 10
0.0
 20
0.0
 30
0.0
  3
*D58
  1

  0
LINE
  5
38F
330
38E
100
AcDbEntity
  8
1
  6
Continuous
 62
     2
100
AcDbLine
 10
1877.979516994543
 20
491.6883375480721
 30
0.0
 11
1877.979516994543
 21
611.6883375480721
 31
0.0
  0
LINE
  5
390
330
38E
100
AcDbEntity
  8
1
  6
Continuous
 62
     2
100
AcDbLine
 10
1767.979516994542
 20
491.6883375480721
 30
0.0
 11
1887.979516994543
 21
491.6883375480721
 31
0.0
  0
LINE
  5
391
330
38E
100
AcDbEntity
  8
1
  6
Continuous
 62
     2
100
AcDbLine
 10
1767.979516994542
 20
611.6883375480721
 30
0.0
 11
1887.979516994543
 21
611.6883375480721
 31
0.0
  0
LINE
  5
392
330
38E
100
AcDbEntity
  8
1
 62
     2
100
AcDbLine
 10
1877.979516994543
 20
491.6883375480721
 30
0.0
 11
1869.405142836747
 21
523.6883375480721
 31
0.0
  0
LINE
  5
393
330
38E
100
AcDbEntity
  8
1
 62
     2
100
AcDbLine
 10
1877.979516994543
 20
491.6883375480721
 30
0.0
 11
1886.553891152339
 21
523.6883375480721
 31
0.0
  0
LINE
  5
394
330
38E
100
AcDbEntity
  8
1
 62
     2
100
AcDbLine
 10
1877.979516994543
 20
611.6883375480721
 30
0.0
 11
1886.553891152339
 21
579.6883375480721
 31
0.0
  0
LINE
  5
395
330
38E
100
AcDbEntity
  8
1
 62
     2
100
AcDbLine
 10
1877.979516994543
 20
611.6883375480721
 30
0.0
 11
1869.405142836747
 21
579.6883375480721
 31
0.0
  0
MTEXT
  5
396
330
38E
100
AcDbEntity
  8
1
 62
     2
100
AcDbMText
 10
1859.343738564503
 20
520.54299739827
 30
0.0
 40
32.0
 41
0.0
 71
     7
 72
     1
  1
120
  7
CONVERTER_1
 11
0.0
 21
1.0
 31
0.0
 73
     1
 44
0.60024009603842
  0
ENDBLK
  5
398
330
38E
100
AcDbEntity
  8
0
100
AcDbBlockEnd
  0
BLOCK
  5
3A6
330
39B
100
AcDbEntity
  8
0
100
AcDbBlockBegin
  2
*D69
 70
     1
 71
     0
 10
0.0
 20
0.0
 30
0.0
  3
*D69
  1

  0
LINE
  5
39C
330
39B
100
AcDbEntity
  8
1
  6
Continuous
 62
     2
100
AcDbLine
 10
1877.979516994544
 20
621.6983344245352
 30
0.0
 11
1877.979516994544
 21
685.6983344245352
 31
0.0
  0
LINE
  5
39D
330
39B
100
AcDbEntity
  8
1
  6
Continuous
 62
     2
100
AcDbLine
 10
1877.979516994544
 20
611.6883375480722
 30
0.0
 11
1877.979516994544
 21
621.6983344245352
 31
0.0
  0
LINE
  5
39E
330
39B
100
AcDbEntity
  8
1
  6
Continuous
 62
     2
100
AcDbLine
 10
1877.979516994544
 20
547.6883375480722
 30
0.0
 11
1877.979516994544
 21
611.6883375480722
 31
0.0
  0
LINE
  5
39F
330
39B
100
AcDbEntity
  8
1
  6
Continuous
 62
     2
100
AcDbLine
 10
1767.979516994543
 20
611.6883375480722
 30
0.0
 11
1887.979516994544
 21
611.6883375480722
 31
0.0
  0
LINE
  5
3A0
330
39B
100
AcDbEntity
  8
1
  6
Continuous
 62
     2
100
AcDbLine
 10
1733.085750398168
 20
621.6983344245352
 30
0.0
 11
1887.979516994544
 21
621.6983344245352
 31
0.0
  0
LINE
  5
3A1
330
39B
100
AcDbEntity
  8
1
 62
     2
100
AcDbLine
 10
1877.979516994544
 20
611.6883375480722
 30
0.0
 11
1886.55389115234
 21
579.6883375480722
 31
0.0
  0
LINE
  5
3A2
330
39B
100
AcDbEntity
  8
1
 62
     2
100
AcDbLine
 10
1877.979516994544
 20
611.6883375480722
 30
0.0
 11
1869.405142836748
 21
579.6883375480722
 31
0.0
  0
LINE
  5
3A3
330
39B
100
AcDbEntity
  8
1
 62
     2
100
AcDbLine
 10
1877.979516994544
 20
621.6983344245352
 30
0.0
 11
1869.405142836748
 21
653.6983344245352
 31
0.0
  0
LINE
  5
3A4
330
39B
100
AcDbEntity
  8
1
 62
     2
100
AcDbLine
 10
1877.979516994544
 20
621.6983344245352
 30
0.0
 11
1886.55389115234
 21
653.6983344245352
 31
0.0
  0
MTEXT
  5
3A5
330
39B
100
AcDbEntity
  8
1
 62
     2
100
AcDbMText
 10
1863.632997090634
 20
643.8901639620001
 30
0.0
 40
32.0
 41
0.0
 71
     7
 72
     1
  1
10
  7
CONVERTER_1
 11
0.0
 21
1.0
 31
0.0
 73
     1
 44
0.60024009603842
  0
ENDBLK
  5
3A7
330
39B
100
AcDbEntity
  8
0
100
AcDbBlockEnd
  0
BLOCK
  5
3B5
330
3AA
100
AcDbEntity
  8
0
100
AcDbBlockBegin
  2
*D710
 70
     1
 71
     0
 10
0.0
 20
0.0
 30
0.0
  3
*D710
  1

  0
LINE
  5
3AB
330
3AA
100
AcDbEntity
  8
1
  6
Continuous
 62
     2
100
AcDbLine
 10
1382.979516994543
 20
765.6383375480737
 30
0.0
 11
1446.979516994543
 21
765.6383375480737
 31
0.0
  0
LINE
  5
3AC
330
3AA
100
AcDbEntity
  8
1
  6
Continuous
 62
     2
100
AcDbLine
 10
1297.979516994543
 20
765.6383375480737
 30
0.0
 11
1382.979516994543
 21
765.6383375480737
 31
0.0
  0
LINE
  5
3AD
330
3AA
100
AcDbEntity
  8
1
  6
Continuous
 62
     2
100
AcDbLine
 10
1233.979516994543
 20
765.6383375480737
 30
0.0
 11
1297.979516994543
 21
765.6383375480737
 31
0.0
  0
LINE
  5
3AE
330
3AA
100
AcDbEntity
  8
1
  6
Continuous
 62
     2
100
AcDbLine
 10
1297.979516994543
 20
627.688337548072
 30
0.0
 11
1297.979516994543
 21
775.6383375480737
 31
0.0
  0
LINE
  5
3AF
330
3AA
100
AcDbEntity
  8
1
  6
Continuous
 62
     2
100
AcDbLine
 10
1382.979516994543
 20
631.6983344245371
 30
0.0
 11
1382.979516994543
 21
775.6383375480737
 31
0.0
  0
LINE
  5
3B0
330
3AA
100
AcDbEntity
  8
1
 62
     2
100
AcDbLine
 10
1297.979516994543
 20
765.6383375480737
 30
0.0
 11
1265.979516994543
 21
757.0639633902778
 31
0.0
  0
LINE
  5
3B1
330
3AA
100
AcDbEntity
  8
1
 62
     2
100
AcDbLine
 10
1297.979516994543
 20
765.6383375480737
 30
0.0
 11
1265.979516994543
 21
774.2127117058695
 31
0.0
  0
LINE
  5
3B2
330
3AA
100
AcDbEntity
  8
1
 62
     2
100
AcDbLine
 10
1382.979516994543
 20
765.6383375480737
 30
0.0
 11
1414.979516994543
 21
774.2127117058695
 31
0.0
  0
LINE
  5
3B3
330
3AA
100
AcDbEntity
  8
1
 62
     2
100
AcDbLine
 10
1382.979516994543
 20
765.6383375480737
 30
0.0
 11
1414.979516994543
 21
757.0639633902778
 31
0.0
  0
MTEXT
  5
3B4
330
3AA
100
AcDbEntity
  8
1
 62
     2
100
AcDbMText
 10
1320.537991875633
 20
778.5861033727401
 30
0.0
 40
32.0
 41
0.0
 71
     7
 72
     1
  1
85
  7
CONVERTER_1
 11
0.9999999999970621
 21
2.424068405545307E-6
 31
0.0
 73
     1
 44
0.60024009603842
  0
ENDBLK
  5
3B6
330
3AA
100
AcDbEntity
  8
0
100
AcDbBlockEnd
  0
BLOCK
  5
3C4
330
3B9
100
AcDbEntity
  8
0
100
AcDbBlockBegin
  2
*D811
 70
     1
 71
     0
 10
0.0
 20
0.0
 30
0.0
  3
*D811
  1

  0
LINE
  5
3BA
330
3B9
100
AcDbEntity
  8
1
  6
Continuous
 62
     2
100
AcDbLine
 10
1757.979516994541
 20
765.6383375480737
 30
0.0
 11
1824.076244387702
 21
765.6383375480737
 31
0.0
  0
LINE
  5
3BB
330
3B9
100
AcDbEntity
  8
1
  6
Continuous
 62
     2
100
AcDbLine
 10
1723.085750398167
 20
765.6383375480737
 30
0.0
 11
1757.979516994541
 21
765.6383375480737
 31
0.0
  0
LINE
  5
3BC
330
3B9
100
AcDbEntity
  8
1
  6
Continuous
 62
     2
100
AcDbLine
 10
1659.085750398167
 20
765.6383375480737
 30
0.0
 11
1723.085750398167
 21
765.6383375480737
 31
0.0
  0
LINE
  5
3BD
330
3B9
100
AcDbEntity
  8
1
  6
Continuous
 62
     2
100
AcDbLine
 10
1723.085750398167
 20
631.698334424535
 30
0.0
 11
1723.085750398167
 21
775.6383375480737
 31
0.0
  0
LINE
  5
3BE
330
3B9
100
AcDbEntity
  8
1
  6
Continuous
 62
     2
100
AcDbLine
 10
1757.979516994541
 20
621.688337548072
 30
0.0
 11
1757.979516994541
 21
775.6383375480737
 31
0.0
  0
LINE
  5
3BF
330
3B9
100
AcDbEntity
  8
1
 62
     2
100
AcDbLine
 10
1723.085750398167
 20
765.6383375480737
 30
0.0
 11
1691.085750398167
 21
757.0639633902778
 31
0.0
  0
LINE
  5
3C0
330
3B9
100
AcDbEntity
  8
1
 62
     2
100
AcDbLine
 10
1723.085750398167
 20
765.6383375480737
 30
0.0
 11
1691.085750398167
 21
774.2127117058695
 31
0.0
  0
LINE
  5
3C1
330
3B9
100
AcDbEntity
  8
1
 62
     2
100
AcDbLine
 10
1757.979516994541
 20
765.6383375480737
 30
0.0
 11
1789.979516994541
 21
774.2127117058695
 31
0.0
  0
LINE
  5
3C2
330
3B9
100
AcDbEntity
  8
1
 62
     2
100
AcDbLine
 10
1757.979516994541
 20
765.6383375480737
 30
0.0
 11
1789.979516994541
 21
757.0639633902778
 31
0.0
  0
MTEXT
  5
3C3
330
3B9
100
AcDbEntity
  8
1
 62
     2
100
AcDbMText
 10
1776.076244387702
 20
779.6917787429102
 30
0.0
 40
32.0
 41
0.0
 71
     7
 72
     1
  1
35
  7
CONVERTER_1
 11
0.9999999999970621
 21
2.424068405545307E-6
 31
0.0
 73
     1
 44
0.60024009603842
  0
ENDBLK
  5
3C5
330
3B9
100
AcDbEntity
  8
0
100
AcDbBlockEnd
  0
BLOCK
  5
3D1
330
3C8
100
AcDbEntity
  8
0
100
AcDbBlockBegin
  2
*D912
 70
     1
 71
     0
 10
0.0
 20
0.0
 30
0.0
  3
*D912
  1

  0
LINE
  5
3C9
330
3C8
100
AcDbEntity
  8
1
  6
Continuous
 62
     2
100
AcDbLine
 10
1382.979516994544
 20
765.6383375480741
 30
0.0
 11
1723.085750398168
 21
765.6383375480741
 31
0.0
  0
LINE
  5
3CA
330
3C8
100
AcDbEntity
  8
1
  6
Continuous
 62
     2
100
AcDbLine
 10
1723.085750398168
 20
631.6983344245355
 30
0.0
 11
1723.085750398168
 21
775.6383375480741
 31
0.0
  0
LINE
  5
3CB
330
3C8
100
AcDbEntity
  8
1
  6
Continuous
 62
     2
100
AcDbLine
 10
1382.979516994544
 20
631.6983344245375
 30
0.0
 11
1382.979516994544
 21
775.6383375480741
 31
0.0
  0
LINE
  5
3CC
330
3C8
100
AcDbEntity
  8
1
 62
     2
100
AcDbLine
 10
1382.979516994544
 20
765.6383375480741
 30
0.0
 11
1414.979516994544
 21
774.21271170587
 31
0.0
  0
LINE
  5
3CD
330
3C8
100
AcDbEntity
  8
1
 62
     2
100
AcDbLine
 10
1382.979516994544
 20
765.6383375480741
 30
0.0
 11
1414.979516994544
 21
757.0639633902782
 31
0.0
  0
LINE
  5
3CE
330
3C8
100
AcDbEntity
  8
1
 62
     2
100
AcDbLine
 10
1723.085750398168
 20
765.6383375480741
 30
0.0
 11
1691.085750398168
 21
757.0639633902782
 31
0.0
  0
LINE
  5
3CF
330
3C8
100
AcDbEntity
  8
1
 62
     2
100
AcDbLine
 10
1723.085750398168
 20
765.6383375480741
 30
0.0
 11
1691.085750398168
 21
774.21271170587
 31
0.0
  0
MTEXT
  5
3D0
330
3C8
100
AcDbEntity
  8
1
 62
     2
100
AcDbMText
 10
1491.254855918578
 20
775.6383375480741
 30
0.0
 40
32.0
 41
0.0
 71
     7
 72
     1
  1
ローラ幅
  7
CONVERTER_3
 11
0.9999999999970621
 21
2.424068405545307E-6
 31
0.0
 73
     1
 44
0.60024009603842
  0
ENDBLK
  5
3D2
330
3C8
100
AcDbEntity
  8
0
100
AcDbBlockEnd
  0
BLOCK
  5
3E1
330
3D5
100
AcDbEntity
  8
0
100
AcDbBlockBegin
  2
*D1013
 70
     1
 71
     0
 10
0.0
 20
0.0
 30
0.0
  3
*D1013
  1

  0
LINE
  5
3D6
330
3D5
100
AcDbEntity
  8
1
  6
Continuous
 62
     2
100
AcDbLine
 10
1327.979516994543
 20
865.6383375480739
 30
0.0
 11
1391.979516994543
 21
865.6383375480739
 31
0.0
  0
LINE
  5
3D7
330
3D5
100
AcDbEntity
  8
1
  6
Continuous
 62
     2
100
AcDbLine
 10
1297.979516994543
 20
865.6383375480739
 30
0.0
 11
1327.979516994543
 21
865.6383375480739
 31
0.0
  0
LINE
  5
3D8
330
3D5
100
AcDbEntity
  8
1
  6
Continuous
 62
     2
100
AcDbLine
 10
1227.661260780943
 20
865.6383375480739
 30
0.0
 11
1297.979516994543
 21
865.6383375480739
 31
0.0
  0
LINE
  5
3D9
330
3D5
100
AcDbEntity
  8
1
  6
Continuous
 62
     2
100
AcDbLine
 10
1297.979516994543
 20
627.688337548072
 30
0.0
 11
1297.979516994543
 21
875.6383375480739
 31
0.0
  0
LINE
  5
3DA
330
3D5
100
AcDbEntity
  8
1
  6
Continuous
 62
     2
100
AcDbLine
 10
1327.979516994543
 20
615.2883375480731
 30
0.0
 11
1327.979516994543
 21
712.7661259797899
 31
0.0
  0
LINE
  5
3DB
330
3D5
100
AcDbEntity
  8
1
  6
Continuous
 62
     2
100
AcDbLine
 10
1327.979516994543
 20
839.9187935499101
 30
0.0
 11
1327.979516994543
 21
875.6383375480739
 31
0.0
  0
LINE
  5
3DC
330
3D5
100
AcDbEntity
  8
1
 62
     2
100
AcDbLine
 10
1297.979516994543
 20
865.6383375480739
 30
0.0
 11
1265.979516994543
 21
857.063963390278
 31
0.0
  0
LINE
  5
3DD
330
3D5
100
AcDbEntity
  8
1
 62
     2
100
AcDbLine
 10
1297.979516994543
 20
865.6383375480739
 30
0.0
 11
1265.979516994543
 21
874.2127117058698
 31
0.0
  0
LINE
  5
3DE
330
3D5
100
AcDbEntity
  8
1
 62
     2
100
AcDbLine
 10
1327.979516994543
 20
865.6383375480739
 30
0.0
 11
1359.979516994543
 21
874.2127117058698
 31
0.0
  0
LINE
  5
3DF
330
3D5
100
AcDbEntity
  8
1
 62
     2
100
AcDbLine
 10
1327.979516994543
 20
865.6383375480739
 30
0.0
 11
1359.979516994543
 21
857.063963390278
 31
0.0
  0
MTEXT
  5
3E0
330
3D5
100
AcDbEntity
  8
1
 62
     2
100
AcDbMText
 10
1227.661260780943
 20
881.4139127990002
 30
0.0
 40
32.0
 41
0.0
 71
     7
 72
     1
  1
30
  7
CONVERTER_1
 11
0.9999999999970621
 21
2.424068405545307E-6
 31
0.0
 73
     1
 44
0.60024009603842
  0
ENDBLK
  5
3E2
330
3D5
100
AcDbEntity
  8
0
100
AcDbBlockEnd
  0
BLOCK
  5
3F1
330
3E5
100
AcDbEntity
  8
0
100
AcDbBlockBegin
  2
*D1114
 70
     1
 71
     0
 10
0.0
 20
0.0
 30
0.0
  3
*D1114
  1

  0
LINE
  5
3E6
330
3E5
100
AcDbEntity
  8
1
  6
Continuous
 62
     2
100
AcDbLine
 10
1757.979516994543
 20
865.6383375480739
 30
0.0
 11
1821.979516994543
 21
865.6383375480739
 31
0.0
  0
LINE
  5
3E7
330
3E5
100
AcDbEntity
  8
1
  6
Continuous
 62
     2
100
AcDbLine
 10
1727.979516994543
 20
865.6383375480739
 30
0.0
 11
1757.979516994543
 21
865.6383375480739
 31
0.0
  0
LINE
  5
3E8
330
3E5
100
AcDbEntity
  8
1
  6
Continuous
 62
     2
100
AcDbLine
 10
1663.979516994543
 20
865.6383375480739
 30
0.0
 11
1727.979516994543
 21
865.6383375480739
 31
0.0
  0
LINE
  5
3E9
330
3E5
100
AcDbEntity
  8
1
  6
Continuous
 62
     2
100
AcDbLine
 10
1727.979516994543
 20
615.2883375480731
 30
0.0
 11
1727.979516994543
 21
710.92333369617
 31
0.0
  0
LINE
  5
3EA
330
3E5
100
AcDbEntity
  8
1
  6
Continuous
 62
     2
100
AcDbLine
 10
1727.979516994543
 20
836.2332089826605
 30
0.0
 11
1727.979516994543
 21
875.6383375480739
 31
0.0
  0
LINE
  5
3EB
330
3E5
100
AcDbEntity
  8
1
  6
Continuous
 62
     2
100
AcDbLine
 10
1757.979516994543
 20
621.688337548072
 30
0.0
 11
1757.979516994543
 21
875.6383375480739
 31
0.0
  0
LINE
  5
3EC
330
3E5
100
AcDbEntity
  8
1
 62
     2
100
AcDbLine
 10
1727.979516994543
 20
865.6383375480739
 30
0.0
 11
1695.979516994543
 21
857.063963390278
 31
0.0
  0
LINE
  5
3ED
330
3E5
100
AcDbEntity
  8
1
 62
     2
100
AcDbLine
 10
1727.979516994543
 20
865.6383375480739
 30
0.0
 11
1695.979516994543
 21
874.2127117058698
 31
0.0
  0
LINE
  5
3EE
330
3E5
100
AcDbEntity
  8
1
 62
     2
100
AcDbLine
 10
1757.979516994543
 20
865.6383375480739
 30
0.0
 11
1789.979516994543
 21
874.2127117058698
 31
0.0
  0
LINE
  5
3EF
330
3E5
100
AcDbEntity
  8
1
 62
     2
100
AcDbLine
 10
1757.979516994543
 20
865.6383375480739
 30
0.0
 11
1789.979516994543
 21
857.063963390278
 31
0.0
  0
MTEXT
  5
3F0
330
3E5
100
AcDbEntity
  8
1
 62
     2
100
AcDbMText
 10
1773.864893647354
 20
883.62526353935
 30
0.0
 40
32.0
 41
0.0
 71
     7
 72
     1
  1
30
  7
CONVERTER_1
 11
0.9999999999970621
 21
2.424068405545307E-6
 31
0.0
 73
     1
 44
0.60024009603842
  0
ENDBLK
  5
3F2
330
3E5
100
AcDbEntity
  8
0
100
AcDbBlockEnd
  0
BLOCK
  5
400
330
3F5
100
AcDbEntity
  8
0
100
AcDbBlockBegin
  2
*D1215
 70
     1
 71
     0
 10
0.0
 20
0.0
 30
0.0
  3
*D1215
  1

  0
LINE
  5
3F6
330
3F5
100
AcDbEntity
  8
1
  6
Continuous
 62
     2
100
AcDbLine
 10
1327.979516994544
 20
865.6383375480741
 30
0.0
 11
1727.979516994544
 21
865.6383375480741
 31
0.0
  0
LINE
  5
3F7
330
3F5
100
AcDbEntity
  8
1
  6
Continuous
 62
     2
100
AcDbLine
 10
1327.979516994544
 20
839.9187935499103
 30
0.0
 11
1327.979516994544
 21
875.6383375480741
 31
0.0
  0
LINE
  5
3F8
330
3F5
100
AcDbEntity
  8
1
  6
Continuous
 62
     2
100
AcDbLine
 10
1327.979516994544
 20
615.2883375480733
 30
0.0
 11
1327.979516994544
 21
712.7661259797901
 31
0.0
  0
LINE
  5
3F9
330
3F5
100
AcDbEntity
  8
1
  6
Continuous
 62
     2
100
AcDbLine
 10
1727.979516994544
 20
836.2332089826607
 30
0.0
 11
1727.979516994544
 21
875.6383375480741
 31
0.0
  0
LINE
  5
3FA
330
3F5
100
AcDbEntity
  8
1
  6
Continuous
 62
     2
100
AcDbLine
 10
1727.979516994544
 20
615.2883375480733
 30
0.0
 11
1727.979516994544
 21
710.9233336961702
 31
0.0
  0
LINE
  5
3FB
330
3F5
100
AcDbEntity
  8
1
 62
     2
100
AcDbLine
 10
1327.979516994544
 20
865.6383375480741
 30
0.0
 11
1359.979516994544
 21
874.21271170587
 31
0.0
  0
LINE
  5
3FC
330
3F5
100
AcDbEntity
  8
1
 62
     2
100
AcDbLine
 10
1327.979516994544
 20
865.6383375480741
 30
0.0
 11
1359.979516994544
 21
857.0639633902782
 31
0.0
  0
LINE
  5
3FD
330
3F5
100
AcDbEntity
  8
1
 62
     2
100
AcDbLine
 10
1727.979516994544
 20
865.6383375480741
 30
0.0
 11
1695.979516994544
 21
857.0639633902782
 31
0.0
  0
LINE
  5
3FE
330
3F5
100
AcDbEntity
  8
1
 62
     2
100
AcDbLine
 10
1727.979516994544
 20
865.6383375480741
 30
0.0
 11
1695.979516994544
 21
874.21271170587
 31
0.0
  0
MTEXT
  5
3FF
330
3F5
100
AcDbEntity
  8
1
 62
     2
100
AcDbMText
 10
1402.379516994544
 20
875.6383375480741
 30
0.0
 40
32.0
 41
0.0
 71
     7
 72
     1
  1
\C2;400\C2;　(呼び幅）
  7
CONVERTER_3
 11
0.9999999999970621
 21
2.424068405545307E-6
 31
0.0
 73
     1
 44
0.60024009603842
  0
ENDBLK
  5
401
330
3F5
100
AcDbEntity
  8
0
100
AcDbBlockEnd
  0
BLOCK
  5
409
330
404
100
AcDbEntity
  8
0
100
AcDbBlockBegin
  2
*D1316
 70
     1
 71
     0
 10
0.0
 20
0.0
 30
0.0
  3
*D1316
  1

  0
LINE
  5
405
330
404
100
AcDbEntity
  8
1
  6
Continuous
 62
     2
100
AcDbLine
 10
2627.979516994637
 20
1198.847137745974
 30
0.0
 11
1745.054184203784
 21
1373.325952265563
 31
0.0
  0
LINE
  5
406
330
404
100
AcDbEntity
  8
1
 62
     2
100
AcDbLine
 10
1745.054184203784
 20
1373.325952265563
 30
0.0
 11
1778.109358967791
 21
1375.533963479027
 31
0.0
  0
LINE
  5
407
330
404
100
AcDbEntity
  8
1
 62
     2
100
AcDbLine
 10
1745.054184203784
 20
1373.325952265563
 30
0.0
 11
1774.78481088268
 21
1358.710558686259
 31
0.0
  0
MTEXT
  5
408
330
404
100
AcDbEntity
  8
1
 62
     2
100
AcDbMText
 10
2010.676836460359
 20
1335.921288191778
 30
0.0
 40
32.0
 41
0.0
 71
     7
 72
     1
  1
\C2;R\C2;900
  7
CONVERTER_1
 11
0.9810281475453925
 21
-0.1938653494662101
 31
0.0
 73
     1
 44
0.60024009603842
  0
ENDBLK
  5
40A
330
404
100
AcDbEntity
  8
0
100
AcDbBlockEnd
  0
BLOCK
  5
417
330
40C
100
AcDbEntity
  8
0
100
AcDbBlockBegin
  2
*D1417
 70
     1
 71
     0
 10
0.0
 20
0.0
 30
0.0
  3
*D1417
  1

  0
LINE
  5
40D
330
40C
100
AcDbEntity
  8
1
  6
Continuous
 62
     2
100
AcDbLine
 10
2275.140769969101
 20
1198.847137745968
 30
0.0
 11
2248.655604654531
 21
1198.847137745968
 31
0.0
  0
LINE
  5
40E
330
40C
100
AcDbEntity
  8
1
  6
Continuous
 62
     2
100
AcDbLine
 10
2470.793263092016
 20
1471.101715756636
 30
0.0
 11
2438.317560824557
 21
1527.351282095355
 31
0.0
  0
LINE
  5
40F
330
40C
100
AcDbEntity
  8
1
  6
Continuous
 62
     2
100
AcDbLine
 10
2248.655604654531
 20
1198.847137745968
 30
0.0
 11
2238.655604654531
 21
1198.847137745968
 31
0.0
  0
LINE
  5
410
330
40C
100
AcDbEntity
  8
1
  6
Continuous
 62
     2
100
AcDbLine
 10
2438.317560824557
 20
1527.351282095355
 30
0.0
 11
2433.317560824557
 21
1536.011536133199
 31
0.0
  0
ARC
  5
411
330
40C
100
AcDbEntity
  8
1
  6
Continuous
 62
     2
100
AcDbCircle
 10
2627.979516994583
 20
1198.847137745968
 30
0.0
 40
379.3239123400521
100
AcDbArc
 50
120.0
 51
180.0
  0
LINE
  5
412
330
40C
100
AcDbEntity
  8
1
 62
     2
100
AcDbLine
 10
2438.317560824557
 20
1527.351282095355
 30
0.0
 11
2415.900578249585
 21
1502.958685176796
 31
0.0
  0
LINE
  5
413
330
40C
100
AcDbEntity
  8
1
 62
     2
100
AcDbLine
 10
2438.317560824557
 20
1527.351282095355
 30
0.0
 11
2406.707585979159
 21
1517.435164787095
 31
0.0
  0
LINE
  5
414
330
40C
100
AcDbEntity
  8
1
 62
     2
100
AcDbLine
 10
2248.655604654531
 20
1198.847137745968
 30
0.0
 11
2241.438226727692
 21
1231.1802376292
 31
0.0
  0
LINE
  5
415
330
40C
100
AcDbEntity
  8
1
 62
     2
100
AcDbLine
 10
2248.655604654531
 20
1198.847137745968
 30
0.0
 11
2258.571721962791
 21
1230.457112591367
 31
0.0
  0
MTEXT
  5
416
330
40C
100
AcDbEntity
  8
1
 62
     2
100
AcDbMText
 10
2276.493464625785
 20
1387.123529960026
 30
0.0
 40
32.0
 41
0.0
 71
     7
 72
     1
  1
60{\Fgdt;~}
  7
CONVERTER_1
 11
0.5481574493294281
 21
0.836375161482367
 31
0.0
 73
     1
 44
0.60024009603842
  0
ENDBLK
  5
418
330
40C
100
AcDbEntity
  8
0
100
AcDbBlockEnd
  0
ENDSEC
  0
SECTION
  2
ENTITIES
  0
INSERT
  5
37
330
1F
100
AcDbEntity
  8
0
100
AcDbBlockReference
  2
Zuwaku-A3-web
 10
1969.999999999998
 20
1340.0
 30
0.0
 41
10.0
 42
10.0
 43
10.0
  0
POINT
  5
68
330
1F
100
AcDbEntity
  8
1
 62
     3
 60
     1
100
AcDbPoint
 10
2627.979516994636
 20
1198.847137745974
 30
0.0
  0
POINT
  5
69
330
1F
100
AcDbEntity
  8
1
 62
     3
 60
     1
100
AcDbPoint
 10
1693.857117315275
 20
1779.721773461361
 30
0.0
  0
POINT
  5
6A
330
1F
100
AcDbEntity
  8
1
 62
     3
 60
     1
100
AcDbPoint
 10
1527.979516994541
 20
1198.847137745974
 30
0.0
  0
POINT
  5
6B
330
1F
100
AcDbEntity
  8
1
 62
     3
 60
     1
100
AcDbPoint
 10
1557.401112868663
 20
1990.150948313576
 30
0.0
  0
POINT
  5
6C
330
1F
100
AcDbEntity
  8
1
 62
     3
 60
     1
100
AcDbPoint
 10
1407.401112868641
 20
1730.343327178254
 30
0.0
  0
POINT
  5
6D
330
1F
100
AcDbEntity
  8
1
 62
     3
 60
     1
100
AcDbPoint
 10
1558.514576509326
 20
1989.508089780907
 30
0.0
  0
POINT
  5
6E
330
1F
100
AcDbEntity
  8
1
 62
     3
 60
     1
100
AcDbPoint
 10
1408.514576509328
 20
1729.70046864557
 30
0.0
  0
LINE
  5
6F
330
1F
100
AcDbEntity
  8
1
  6
Continuous
 62
     7
100
AcDbLine
 10
977.6457584263113
 20
1978.462696751222
 30
0.0
 11
717.8381372909795
 21
2128.462696751222
 31
0.0
  0
LINE
  5
70
330
1F
100
AcDbEntity
  8
1
  6
Continuous
 62
     7
100
AcDbLine
 10
941.5496152560113
 20
1991.219910958648
 30
0.0
 11
928.7996152560112
 21
1998.581126890815
 31
0.0
  0
LINE
  5
71
330
1F
100
AcDbEntity
  8
1
  6
Continuous
 62
     7
100
AcDbLine
 10
942.9246152560113
 20
1998.508958107167
 30
0.0
 11
939.8042099452886
 21
1993.104257568788
 31
0.0
  0
LINE
  5
72
330
1F
100
AcDbEntity
  8
1
  6
Continuous
 62
     7
100
AcDbLine
 10
934.4246152560112
 20
2003.416435395278
 30
0.0
 11
931.3042099452887
 21
1998.011734856899
 31
0.0
  0
LINE
  5
73
330
1F
100
AcDbEntity
  8
1
  6
Continuous
 62
     7
100
AcDbLine
 10
947.1746152560113
 20
1996.055219463111
 30
0.0
 11
944.0542099452887
 21
1990.650518924731
 31
0.0
  0
LINE
  5
74
330
1F
100
AcDbEntity
  8
1
  6
Continuous
 62
     7
100
AcDbLine
 10
927.0542099452887
 20
2000.465473500955
 30
0.0
 11
930.1746152560112
 21
2005.870174039335
 31
0.0
  0
LINE
  5
75
330
1F
100
AcDbEntity
  8
1
  6
DASH_CENTER
 62
     3
100
AcDbLine
 10
1402.904041609831
 20
1591.94441344661
 30
0.0
 11
1370.484395907753
 21
1470.952648523068
 31
0.0
  0
LINE
  5
76
330
1F
100
AcDbEntity
  8
1
  6
DASH_CENTER
 62
     3
100
AcDbLine
 10
1452.762650479222
 20
1663.124780535721
 30
0.0
 11
1412.982969096512
 21
1545.937618071162
 31
0.0
  0
LINE
  5
77
330
1F
100
AcDbEntity
  8
1
  6
Continuous
 62
     7
100
AcDbLine
 10
2001.481312687485
 20
2283.973858456532
 30
0.0
 11
1965.484233992492
 21
2346.322627680315
 31
0.0
  0
LINE
  5
78
330
1F
100
AcDbEntity
  8
1
  6
Continuous
 62
     3
100
AcDbLine
 10
2002.979516994525
 20
2281.378892476621
 30
0.0
 11
2001.481305550371
 21
2283.973870818377
 31
0.0
  0
LINE
  5
79
330
1F
100
AcDbEntity
  8
1
  6
Continuous
 62
     7
100
AcDbLine
 10
1417.767836638379
 20
1750.469915311443
 30
0.0
 11
1407.401112868641
 21
1730.343327178254
 31
0.0
  0
LINE
  5
7A
330
1F
100
AcDbEntity
  8
1
  6
Continuous
 62
     7
100
AcDbLine
 10
1557.401112868663
 20
1990.150948313576
 30
0.0
 11
1545.154338138978
 21
1971.109808108836
 31
0.0
  0
LINE
  5
7B
330
1F
100
AcDbEntity
  8
1
  6
Continuous
 62
     7
100
AcDbLine
 10
1810.795745951454
 20
1497.443327178241
 30
0.0
 11
1960.795745951455
 21
1757.250948313572
 31
0.0
  0
LINE
  5
7C
330
1F
100
AcDbEntity
  8
1
  6
Continuous
 62
     7
100
AcDbLine
 10
1731.179516994542
 20
605.245476277181
 30
0.0
 11
1740.130424769425
 21
605.4692489715511
 31
0.0
  0
LINE
  5
7D
330
1F
100
AcDbEntity
  8
1
  6
DASH_CENTER
 62
     3
100
AcDbLine
 10
2475.793263092017
 20
1462.441461718792
 30
0.0
 11
2653.907941093034
 21
1153.93778984726
 31
0.0
  0
LINE
  5
7E
330
1F
100
AcDbEntity
  8
1
  6
Continuous
 62
     7
100
AcDbLine
 10
1727.979516994636
 20
1198.847137745968
 30
0.0
 11
1752.993802825542
 21
1198.847137745969
 31
0.0
  0
LINE
  5
7F
330
1F
100
AcDbEntity
  8
1
  6
DASH_CENTER
 62
     3
100
AcDbLine
 10
1461.218328726483
 20
1872.477023872589
 30
0.0
 11
1965.604324575129
 21
1581.2696333939
 31
0.0
  0
LINE
  5
80
330
1F
100
AcDbEntity
  8
1
  6
DASH_CENTER
 62
     3
100
AcDbLine
 10
2683.283162262803
 20
1198.847137745969
 30
0.0
 11
2285.1407699691
 21
1198.847137745969
 31
0.0
  0
LINE
  5
81
330
1F
100
AcDbEntity
  8
1
  6
Continuous
 62
     4
100
AcDbLine
 10
1127.759563248857
 20
1370.42828584565
 30
0.0
 11
1178.219062879868
 21
1225.202890157083
 31
0.0
  0
LINE
  5
82
330
1F
100
AcDbEntity
  8
1
  6
Continuous
 62
     4
100
AcDbLine
 10
1246.982341029972
 20
1356.79269791719
 30
0.0
 11
1178.219062879868
 21
1225.202890157083
 31
0.0
  0
LINE
  5
83
330
1F
100
AcDbEntity
  8
1
  6
Continuous
 62
     4
100
AcDbLine
 10
1157.565257694135
 20
1367.019388863535
 30
0.0
 11
1127.759563248857
 21
1370.42828584565
 31
0.0
  0
LINE
  5
84
330
1F
100
AcDbEntity
  8
1
  6
Continuous
 62
     4
100
AcDbLine
 10
1217.176646584694
 20
1360.201594899306
 30
0.0
 11
1246.982341029972
 21
1356.79269791719
 31
0.0
  0
LINE
  5
85
330
1F
100
AcDbEntity
  8
1
  6
Continuous
 62
     4
100
AcDbLine
 10
1250.723986055439
 20
1544.632045596975
 30
0.0
 11
1192.530090381955
 21
1559.242675506177
 31
0.0
  0
LINE
  5
86
330
1F
100
AcDbEntity
  8
1
  6
Continuous
 62
     3
100
AcDbLine
 10
1407.614666591699
 20
407.550880182733
 30
0.0
 11
1677.894666591697
 21
407.550880182733
 31
0.0
  0
LINE
  5
87
330
1F
100
AcDbEntity
  8
1
  6
Continuous
 62
     2
100
AcDbLine
 10
3255.623670426019
 20
454.553759334398
 30
0.0
 11
3760.83367042602
 21
454.553759334398
 31
0.0
  0
LINE
  5
88
330
1F
100
AcDbEntity
  8
1
  6
Continuous
 62
     7
100
AcDbLine
 10
1327.979516994544
 20
515.588337548072
 30
0.0
 11
1727.979516994544
 21
515.588337548072
 31
0.0
  0
LINE
  5
89
330
1F
100
AcDbEntity
  8
1
  6
DASH_CENTER
 62
     3
100
AcDbLine
 10
1745.007429299203
 20
508.6883375480721
 30
0.0
 11
1314.122659158102
 21
508.6883375480721
 31
0.0
  0
LINE
  5
8A
330
1F
100
AcDbEntity
  8
1
  6
Continuous
 62
     7
100
AcDbLine
 10
1727.979516994544
 20
501.788337548075
 30
0.0
 11
1327.979516994544
 21
501.788337548075
 31
0.0
  0
LINE
  5
8B
330
1F
100
AcDbEntity
  8
1
  6
Continuous
 62
     7
100
AcDbLine
 10
1723.864257152808
 20
590.558064238924
 30
0.0
 11
1727.463132679876
 21
590.6480361271
 31
0.0
  0
LINE
  5
8C
330
1F
100
AcDbEntity
  8
1
  6
DASH_CENTER
 62
     3
100
AcDbLine
 10
1311.039475220849
 20
588.7401005257151
 30
0.0
 11
1744.903913761973
 21
599.586711489242
 31
0.0
  0
LINE
  5
8D
330
1F
100
AcDbEntity
  8
1
  6
DASH_CENTER
 62
     3
100
AcDbLine
 10
1527.979516994541
 20
481.6883375480721
 30
0.0
 11
1527.979516994541
 21
631.688337548072
 31
0.0
  0
LINE
  5
8E
330
1F
100
AcDbEntity
  8
1
  6
Continuous
 62
     7
100
AcDbLine
 10
1727.979516994543
 20
498.088337548072
 30
0.0
 11
1727.979516994543
 21
605.2883375480732
 31
0.0
  0
LINE
  5
8F
330
1F
100
AcDbEntity
  8
1
  6
Continuous
 62
     7
100
AcDbLine
 10
1327.979516994544
 20
605.2883375480732
 30
0.0
 11
1327.979516994544
 21
498.088337548072
 31
0.0
  0
LINE
  5
90
330
1F
100
AcDbEntity
  8
1
  6
Continuous
 62
     7
100
AcDbLine
 10
1740.430331063348
 20
593.472997214655
 30
0.0
 11
1740.130424769425
 21
605.4692489715511
 31
0.0
  0
LINE
  5
91
330
1F
100
AcDbEntity
  8
1
  6
Continuous
 62
     7
100
AcDbLine
 10
1321.579516994542
 20
608.4883375480731
 30
0.0
 11
1297.979516994544
 21
608.4883375480731
 31
0.0
  0
LINE
  5
92
330
1F
100
AcDbEntity
  8
1
  6
Continuous
 62
     7
100
AcDbLine
 10
1324.779516994543
 20
498.088337548072
 30
0.0
 11
1324.779516994543
 21
605.2883375480732
 31
0.0
  0
LINE
  5
93
330
1F
100
AcDbEntity
  8
1
  6
Continuous
 62
     7
100
AcDbLine
 10
1297.979516994544
 20
494.8883375480722
 30
0.0
 11
1321.579516994542
 21
494.8883375480722
 31
0.0
  0
LINE
  5
94
330
1F
100
AcDbEntity
  8
1
  6
Continuous
 62
     7
100
AcDbLine
 10
1297.979516994544
 20
491.6883375480721
 30
0.0
 11
1297.979516994544
 21
494.8883375480722
 31
0.0
  0
LINE
  5
95
330
1F
100
AcDbEntity
  8
1
  6
Continuous
 62
     7
100
AcDbLine
 10
1321.579516994542
 20
491.6883375480721
 30
0.0
 11
1297.979516994544
 21
491.6883375480721
 31
0.0
  0
LINE
  5
96
330
1F
100
AcDbEntity
  8
1
  6
Continuous
 62
     7
100
AcDbLine
 10
1297.979516994544
 20
611.688337548072
 30
0.0
 11
1330.979516994544
 21
611.688337548072
 31
0.0
  0
LINE
  5
97
330
1F
100
AcDbEntity
  8
1
  6
Continuous
 62
     7
100
AcDbLine
 10
1297.979516994544
 20
608.4883375480731
 30
0.0
 11
1297.979516994544
 21
617.688337548072
 31
0.0
  0
LINE
  5
98
330
1F
100
AcDbEntity
  8
1
  6
Continuous
 62
     7
100
AcDbLine
 10
1757.979516994543
 20
494.8883375480722
 30
0.0
 11
1757.979516994543
 21
491.6883375480721
 31
0.0
  0
LINE
  5
99
330
1F
100
AcDbEntity
  8
1
  6
Continuous
 62
     7
100
AcDbLine
 10
1734.379516994542
 20
494.8883375480722
 30
0.0
 11
1757.979516994543
 21
494.8883375480722
 31
0.0
  0
LINE
  5
9A
330
1F
100
AcDbEntity
  8
1
  6
Continuous
 62
     7
100
AcDbLine
 10
1731.179516994542
 20
605.2883375480732
 30
0.0
 11
1731.179516994542
 21
498.088337548072
 31
0.0
  0
LINE
  5
9B
330
1F
100
AcDbEntity
  8
1
  6
Continuous
 62
     7
100
AcDbLine
 10
1757.979516994543
 20
608.4883375480731
 30
0.0
 11
1734.379516994542
 21
608.4883375480731
 31
0.0
  0
LINE
  5
9C
330
1F
100
AcDbEntity
  8
1
  6
Continuous
 62
     7
100
AcDbLine
 10
1757.979516994543
 20
611.688337548072
 30
0.0
 11
1757.979516994543
 21
608.4883375480731
 31
0.0
  0
LINE
  5
9D
330
1F
100
AcDbEntity
  8
1
  6
Continuous
 62
     7
100
AcDbLine
 10
1734.379516994542
 20
611.688337548072
 30
0.0
 11
1757.979516994543
 21
611.688337548072
 31
0.0
  0
LINE
  5
9E
330
1F
100
AcDbEntity
  8
1
  6
Continuous
 62
     7
100
AcDbLine
 10
1757.979516994543
 20
491.6883375480721
 30
0.0
 11
1734.379516994542
 21
491.6883375480721
 31
0.0
  0
LINE
  5
9F
330
1F
100
AcDbEntity
  8
1
  6
Continuous
 62
     7
100
AcDbLine
 10
1323.93446584707
 20
597.5651311264611
 30
0.0
 11
1324.359333096792
 21
580.5704411375222
 31
0.0
  0
LINE
  5
A0
330
1F
100
AcDbEntity
  8
1
  6
Continuous
 62
     7
100
AcDbLine
 10
1324.359333096792
 20
580.5704411375222
 30
0.0
 11
1322.75983286254
 21
580.530453631667
 31
0.0
  0
LINE
  5
A1
330
1F
100
AcDbEntity
  8
1
  6
Continuous
 62
     7
100
AcDbLine
 10
1322.334965612816
 20
597.525143620605
 30
0.0
 11
1323.93446584707
 21
597.5651311264611
 31
0.0
  0
LINE
  5
A2
330
1F
100
AcDbEntity
  8
1
  6
Continuous
 62
     7
100
AcDbLine
 10
1316.442224552869
 20
596.383067877582
 30
0.0
 11
1322.359819009856
 21
596.531007739006
 31
0.0
  0
LINE
  5
A3
330
1F
100
AcDbEntity
  8
1
  6
Continuous
 62
     7
100
AcDbLine
 10
1322.734979465502
 20
581.5245895132651
 30
0.0
 11
1316.817385008515
 21
581.37664965184
 31
0.0
  0
LINE
  5
A4
330
1F
100
AcDbEntity
  8
1
  6
Continuous
 62
     7
100
AcDbLine
 10
1322.453609123766
 20
592.77940318257
 30
0.0
 11
1316.53601466678
 21
592.631463321146
 31
0.0
  0
LINE
  5
A5
330
1F
100
AcDbEntity
  8
1
  6
Continuous
 62
     7
100
AcDbLine
 10
1322.641189351589
 20
585.2761940696991
 30
0.0
 11
1316.723594894603
 21
585.128254208276
 31
0.0
  0
LINE
  5
A6
330
1F
100
AcDbEntity
  8
1
  6
Continuous
 62
     7
100
AcDbLine
 10
1316.190114706892
 20
583.237942548942
 30
0.0
 11
1315.908744365159
 21
594.4927562182471
 31
0.0
  0
LINE
  5
A7
330
1F
100
AcDbEntity
  8
1
  6
Continuous
 62
     7
100
AcDbLine
 10
1297.979516994544
 20
617.688337548072
 30
0.0
 11
1377.979516994543
 21
617.688337548072
 31
0.0
  0
LINE
  5
A8
330
1F
100
AcDbEntity
  8
1
  6
Continuous
 62
     7
100
AcDbLine
 10
1330.979516994544
 20
617.688337548072
 30
0.0
 11
1330.979516994544
 21
611.688337548072
 31
0.0
  0
LINE
  5
A9
330
1F
100
AcDbEntity
  8
1
  6
Continuous
 62
     7
100
AcDbLine
 10
1321.979516994544
 20
619.9883375480731
 30
0.0
 11
1321.979516994544
 21
617.688337548072
 31
0.0
  0
LINE
  5
AA
330
1F
100
AcDbEntity
  8
1
  6
Continuous
 62
     7
100
AcDbLine
 10
1377.979516994543
 20
619.9883375480731
 30
0.0
 11
1377.979516994543
 21
617.688337548072
 31
0.0
  0
LINE
  5
AB
330
1F
100
AcDbEntity
  8
1
  6
Continuous
 62
     7
100
AcDbLine
 10
1377.979516994543
 20
619.9883375480731
 30
0.0
 11
1321.979516994544
 21
619.9883375480731
 31
0.0
  0
LINE
  5
AC
330
1F
100
AcDbEntity
  8
1
  6
Continuous
 62
     7
100
AcDbLine
 10
1327.979516994544
 20
550.588337548072
 30
0.0
 11
1727.979516994544
 21
550.588337548072
 31
0.0
  0
LINE
  5
AD
330
1F
100
AcDbEntity
  8
1
  6
DASH_CENTER
 62
     3
100
AcDbLine
 10
1745.007429299203
 20
543.6883375480721
 30
0.0
 11
1314.122659158102
 21
543.6883375480721
 31
0.0
  0
LINE
  5
AE
330
1F
100
AcDbEntity
  8
1
  6
Continuous
 62
     7
100
AcDbLine
 10
1727.979516994544
 20
536.7883375480732
 30
0.0
 11
1327.979516994544
 21
536.7883375480732
 31
0.0
  0
LINE
  5
AF
330
1F
100
AcDbEntity
  8
1
  6
Continuous
 62
     7
100
AcDbLine
 10
1740.430331063348
 20
593.472997214655
 30
0.0
 11
1731.179516994542
 21
593.241726862935
 31
0.0
  0
LINE
  5
B0
330
1F
100
AcDbEntity
  8
1
  6
Continuous
 62
     7
100
AcDbLine
 10
1727.463132679876
 20
590.6480361271
 30
0.0
 11
1727.038265430152
 21
607.642726116038
 31
0.0
  0
LINE
  5
B1
330
1F
100
AcDbEntity
  8
1
  6
Continuous
 62
     7
100
AcDbLine
 10
1327.991698003867
 20
580.5112033925221
 30
0.0
 11
1338.988262114353
 21
580.786117495284
 31
0.0
  0
LINE
  5
B2
330
1F
100
AcDbEntity
  8
1
  6
Continuous
 62
     7
100
AcDbLine
 10
1327.559333096795
 20
597.8057996753831
 30
0.0
 11
1338.555897207282
 21
598.080713778145
 31
0.0
  0
LINE
  5
B3
330
1F
100
AcDbEntity
  8
1
  6
Continuous
 62
     7
100
AcDbLine
 10
1727.038265430152
 20
607.642726116038
 30
0.0
 11
1723.439389903084
 21
607.552754227862
 31
0.0
  0
LINE
  5
B4
330
1F
100
AcDbEntity
  8
1
  6
Continuous
 62
     7
100
AcDbLine
 10
1322.75983286254
 20
580.530453631667
 30
0.0
 11
1322.334965612816
 21
597.525143620605
 31
0.0
  0
LINE
  5
B5
330
1F
100
AcDbEntity
  8
1
  6
Continuous
 62
     7
100
AcDbLine
 10
1327.991698003867
 20
580.5112033925221
 30
0.0
 11
1327.559333096795
 21
597.8057996753831
 31
0.0
  0
LINE
  5
B6
330
1F
100
AcDbEntity
  8
1
  6
DASH_CENTER
 62
     3
100
AcDbLine
 10
1310.479516994544
 20
625.6188504173001
 30
0.0
 11
1310.479516994544
 21
599.498850417301
 31
0.0
  0
LINE
  5
B7
330
1F
100
AcDbEntity
  8
1
  6
DASH_CENTER
 62
     3
100
AcDbLine
 10
1483.758591570735
 20
1787.144564541964
 30
0.0
 11
1546.388537696294
 21
1895.622813306734
 31
0.0
  0
LINE
  5
B8
330
1F
100
AcDbEntity
  8
1
  6
DASH_CENTER
 62
     3
100
AcDbLine
 10
1523.417186534299
 20
1812.54940355968
 30
0.0
 11
1468.681831746752
 21
1701.557083853827
 31
0.0
  0
LINE
  5
B9
330
1F
100
AcDbEntity
  8
1
  6
DASH_CENTER
 62
     3
100
AcDbLine
 10
1464.694222698528
 20
1748.485848743589
 30
0.0
 11
1416.759337194189
 21
1632.760798048211
 31
0.0
  0
LINE
  5
BA
330
1F
100
AcDbEntity
  8
1
  6
DASH_CENTER
 62
     3
100
AcDbLine
 10
1544.216599209671
 20
1848.575043081033
 30
0.0
 11
1612.971090306131
 21
1951.473410665128
 31
0.0
  0
LINE
  5
BB
330
1F
100
AcDbEntity
  8
1
  6
DASH_CENTER
 62
     3
100
AcDbLine
 10
1570.335783219256
 20
1931.462398956375
 30
0.0
 11
1646.589174223525
 21
2030.83775287832
 31
0.0
  0
LINE
  5
BC
330
1F
100
AcDbEntity
  8
1
  6
DASH_CENTER
 62
     3
100
AcDbLine
 10
1763.581671608367
 20
2151.817102353727
 30
0.0
 11
1675.009552386923
 21
2063.244983132246
 31
0.0
  0
LINE
  5
BD
330
1F
100
AcDbEntity
  8
1
  6
DASH_CENTER
 62
     3
100
AcDbLine
 10
1719.892069672109
 20
2077.519773573614
 30
0.0
 11
1638.294850671759
 21
1984.475977709442
 31
0.0
  0
LINE
  5
BE
330
1F
100
AcDbEntity
  8
1
  6
DASH_CENTER
 62
     3
100
AcDbLine
 10
1140.668196180271
 20
2105.705841714815
 30
0.0
 11
1259.249350174799
 21
2311.094425253486
 31
0.0
  0
LINE
  5
BF
330
1F
100
AcDbEntity
  8
1
  6
DASH_CENTER
 62
     3
100
AcDbLine
 10
1098.961181307353
 20
2033.467172922891
 30
0.0
 11
971.5396164231742
 21
1812.766548563558
 31
0.0
  0
LINE
  5
C0
330
1F
100
AcDbEntity
  8
1
  6
DASH_CENTER
 62
     3
100
AcDbLine
 10
1008.365829585228
 20
1794.351420810599
 30
0.0
 11
1298.537155812244
 21
2296.942900735432
 31
0.0
  0
LINE
  5
C1
330
1F
100
AcDbEntity
  8
1
  6
DASH_CENTER
 62
     3
100
AcDbLine
 10
998.438538187044
 20
1899.279947302983
 30
0.0
 11
1066.878503899218
 21
1859.766114675731
 31
0.0
  0
LINE
  5
C2
330
1F
100
AcDbEntity
  8
1
  6
DASH_CENTER
 62
     3
100
AcDbLine
 10
1040.056255139631
 20
1971.363947559885
 30
0.0
 11
1108.496220851805
 21
1931.850114932633
 31
0.0
  0
LINE
  5
C3
330
1F
100
AcDbEntity
  8
1
  6
DASH_CENTER
 62
     3
100
AcDbLine
 10
1206.616420870309
 20
2259.854617122509
 30
0.0
 11
1275.056386582483
 21
2220.340784495259
 31
0.0
  0
LINE
  5
C4
330
1F
100
AcDbEntity
  8
1
  6
DASH_CENTER
 62
     3
100
AcDbLine
 10
1164.998703917723
 20
2187.77061686561
 30
0.0
 11
1233.438669629896
 21
2148.256784238359
 31
0.0
  0
LINE
  5
C5
330
1F
100
AcDbEntity
  8
1
  6
DASH_CENTER
 62
     3
100
AcDbLine
 10
1028.702996502102
 20
2136.222985928568
 30
0.0
 11
1161.59531489504
 21
2115.741029866986
 31
0.0
  0
LINE
  5
C6
330
1F
100
AcDbEntity
  8
1
  6
DASH_CENTER
 62
     3
100
AcDbLine
 10
876.7344056153492
 20
2172.553621153914
 30
0.0
 11
1104.661121339183
 21
2006.579889952377
 31
0.0
  0
LINE
  5
C7
330
1F
100
AcDbEntity
  8
1
  6
DASH_CENTER
 62
     3
100
AcDbLine
 10
1123.380986965136
 20
2115.686616608711
 30
0.0
 11
1191.82095267731
 21
2076.172783981459
 31
0.0
  0
LINE
  5
C8
330
1F
100
AcDbEntity
  8
1
  6
DASH_CENTER
 62
     3
100
AcDbLine
 10
1081.673972092218
 20
2043.447947816786
 30
0.0
 11
1150.113937804392
 21
2003.934115189534
 31
0.0
  0
LINE
  5
C9
330
1F
100
AcDbEntity
  8
1
  6
DASHED
 62
     4
100
AcDbLine
 10
723.9852516080294
 20
2130.109811068231
 30
0.0
 11
736.4852516080252
 21
2151.760446162845
 31
0.0
  0
LINE
  5
CA
330
1F
100
AcDbEntity
  8
1
  6
DASHED
 62
     4
100
AcDbLine
 10
779.7865217972536
 20
2126.760446162853
 30
0.0
 11
736.4852516080252
 21
2151.760446162845
 31
0.0
  0
LINE
  5
CB
330
1F
100
AcDbEntity
  8
1
  6
DASHED
 62
     4
100
AcDbLine
 10
779.7865217972536
 20
2126.760446162853
 30
0.0
 11
767.2865217972568
 21
2105.10981106824
 31
0.0
  0
LINE
  5
CC
330
1F
100
AcDbEntity
  8
1
  6
DASHED
 62
     4
100
AcDbLine
 10
723.9852516080294
 20
2130.109811068231
 30
0.0
 11
767.2865217972568
 21
2105.10981106824
 31
0.0
  0
LINE
  5
CD
330
1F
100
AcDbEntity
  8
DETAIL
  6
DASHED
 62
     4
100
AcDbLine
 10
850.3405879264341
 20
2160.072518063356
 30
0.0
 11
800.6379475222399
 21
2174.392174928827
 31
0.0
  0
LINE
  5
CE
330
1F
100
AcDbEntity
  8
1
  6
DASH_CENTER
 62
     3
100
AcDbLine
 10
914.9280790394927
 20
2231.832489520438
 30
0.0
 11
876.4792402776399
 21
2165.237147292886
 31
0.0
  0
LINE
  5
CF
330
1F
100
AcDbEntity
  8
1
  6
DASH_CENTER
 62
     3
100
AcDbLine
 10
918.8465494123237
 20
2268.619479294136
 30
0.0
 11
847.3465494123242
 21
2144.777846552961
 31
0.0
  0
LINE
  5
D0
330
1F
100
AcDbEntity
  8
0
  6
DASH_CENTER
 62
     3
100
AcDbLine
 10
951.1908823729644
 20
2166.941507318888
 30
0.0
 11
809.0761136119373
 21
2248.991507318887
 31
0.0
  0
LINE
  5
D1
330
1F
100
AcDbEntity
  8
1
  6
DASHED
 62
     4
100
AcDbLine
 10
912.786521797232
 20
2357.123203569524
 30
0.0
 11
869.4852516080094
 21
2382.123203569525
 31
0.0
  0
LINE
  5
D2
330
1F
100
AcDbEntity
  8
1
  6
DASHED
 62
     4
100
AcDbLine
 10
912.786521797232
 20
2357.123203569524
 30
0.0
 11
900.286521797232
 21
2335.472568474912
 31
0.0
  0
LINE
  5
D3
330
1F
100
AcDbEntity
  8
1
  6
DASHED
 62
     4
100
AcDbLine
 10
856.9852516080094
 20
2360.472568474913
 30
0.0
 11
900.286521797232
 21
2335.472568474912
 31
0.0
  0
LINE
  5
D4
330
1F
100
AcDbEntity
  8
1
  6
DASHED
 62
     4
100
AcDbLine
 10
856.9852516080094
 20
2360.472568474913
 30
0.0
 11
869.4852516080094
 21
2382.123203569525
 31
0.0
  0
LINE
  5
D5
330
1F
100
AcDbEntity
  8
1
  6
DASHED
 62
     4
100
AcDbLine
 10
761.9571470767218
 20
2136.879063279758
 30
0.0
 11
882.5330010196509
 21
2345.722568474913
 31
0.0
  0
LINE
  5
D6
330
1F
100
AcDbEntity
  8
1
  6
DASH_CENTER
 62
     3
100
AcDbLine
 10
1014.826776980265
 20
2142.466522047181
 30
0.0
 11
916.6820321084737
 21
2223.914630245291
 31
0.0
  0
LINE
  5
D7
330
1F
100
AcDbEntity
  8
DETAIL
  6
DASHED
 62
     4
100
AcDbLine
 10
869.4619475222402
 20
2293.598839708947
 30
0.0
 11
906.7144543433095
 21
2257.71491891649
 31
0.0
  0
LINE
  5
D8
330
1F
100
AcDbEntity
  8
1
  6
Continuous
 62
     7
100
AcDbLine
 10
1005.063127190747
 20
1769.350972461076
 30
0.0
 11
1313.974483574164
 21
2304.40113675217
 31
0.0
  0
LINE
  5
D9
330
1F
100
AcDbEntity
  8
1
  6
Continuous
 62
     7
100
AcDbLine
 10
1003.071268762043
 20
1770.500972461075
 30
0.0
 11
1311.98262514546
 21
2305.55113675217
 31
0.0
  0
LINE
  5
DA
330
1F
100
AcDbEntity
  8
COLOR
  6
DASHED
 62
     4
100
AcDbLine
 10
854.7733820764164
 20
2267.64149806648
 30
0.0
 11
908.8999698129436
 21
2236.39149806648
 31
0.0
  0
LINE
  5
DB
330
1F
100
AcDbEntity
  8
DETAIL
  6
DASHED
 62
     4
100
AcDbLine
 10
828.4714681776424
 20
2207.591246857502
 30
0.0
 11
802.7830010196498
 21
2207.591516571295
 31
0.0
  0
LINE
  5
DC
330
1F
100
AcDbEntity
  8
DETAIL
  6
DASHED
 62
     4
100
AcDbLine
 10
841.7830010196498
 20
2275.14149806648
 30
0.0
 11
854.639154711121
 21
2252.873009450024
 31
0.0
  0
LINE
  5
DD
330
1F
100
AcDbEntity
  8
COLOR
  6
DASHED
 62
     4
100
AcDbLine
 10
869.8999698129438
 20
2168.841516571295
 30
0.0
 11
815.7733820764162
 21
2200.091516571295
 31
0.0
  0
LINE
  5
DE
330
1F
100
AcDbEntity
  8
COLOR
  6
DASHED
 62
     4
100
AcDbLine
 10
873.3570948049375
 20
2249.983983289852
 30
0.0
 11
927.1431552283683
 21
2218.930586825734
 31
0.0
  0
LINE
  5
DF
330
1F
100
AcDbEntity
  8
COLOR
  6
DASHED
 62
     4
100
AcDbLine
 10
840.3570948049375
 20
2192.826306640079
 30
0.0
 11
894.1431552283681
 21
2161.772910175961
 31
0.0
  0
LINE
  5
E0
330
1F
100
AcDbEntity
  8
COLOR
  6
DASH_CENTER
 62
     3
100
AcDbLine
 10
792.7830010196495
 20
2190.271008495606
 30
0.0
 11
805.9465871571734
 21
2182.671008495606
 31
0.0
  0
LINE
  5
E1
330
1F
100
AcDbEntity
  8
COLOR
  6
DASH_CENTER
 62
     3
100
AcDbLine
 10
851.7830010196493
 20
2292.462006142169
 30
0.0
 11
864.6374160880222
 21
2285.040506142169
 31
0.0
  0
LINE
  5
E2
330
1F
100
AcDbEntity
  8
DETAIL
  6
DASHED
 62
     4
100
AcDbLine
 10
787.2830010196498
 20
2180.744729053978
 30
0.0
 11
791.7118549346034
 21
2178.187729053977
 31
0.0
  0
LINE
  5
E3
330
1F
100
AcDbEntity
  8
DETAIL
  6
DASHED
 62
     4
100
AcDbLine
 10
857.2830010196498
 20
2301.988285583798
 30
0.0
 11
861.7118549346034
 21
2299.431285583798
 31
0.0
  0
LINE
  5
E4
330
1F
100
AcDbEntity
  8
DETAIL
  6
DASHED
 62
     4
100
AcDbLine
 10
808.9432550574944
 20
2198.261389552371
 30
0.0
 11
797.2357550574938
 21
2177.98340472276
 31
0.0
  0
LINE
  5
E5
330
1F
100
AcDbEntity
  8
DETAIL
  6
DASHED
 62
     4
100
AcDbLine
 10
864.655255057494
 20
2294.757404143649
 30
0.0
 11
852.9432550574942
 21
2274.471625085404
 31
0.0
  0
LINE
  5
E6
330
1F
100
AcDbEntity
  8
1
  6
Continuous
 62
     7
100
AcDbLine
 10
896.7233491773135
 20
1831.900972461076
 30
0.0
 11
1205.634705560731
 21
2366.95113675217
 31
0.0
  0
LINE
  5
E7
330
1F
100
AcDbEntity
  8
1
  6
Continuous
 62
     7
100
AcDbLine
 10
995.1038350472257
 20
1775.100972461076
 30
0.0
 11
1304.015191430642
 21
2310.15113675217
 31
0.0
  0
LINE
  5
E8
330
1F
100
AcDbEntity
  8
1
  6
DASH_CENTER
 62
     3
100
AcDbLine
 10
1287.829176633912
 20
2319.49613675217
 30
0.0
 11
989.7262311397564
 21
1803.16668927036
 31
0.0
  0
LINE
  5
E9
330
1F
100
AcDbEntity
  8
1
  6
Continuous
 62
     7
100
AcDbLine
 10
997.8751163393362
 20
1773.500972461075
 30
0.0
 11
1306.786472722753
 21
2308.55113675217
 31
0.0
  0
LINE
  5
EA
330
1F
100
AcDbEntity
  8
1
  6
DASHED
 62
     4
100
AcDbLine
 10
737.7842897136871
 20
2151.010446162863
 30
0.0
 11
858.2842897136865
 21
2359.722568474913
 31
0.0
  0
LINE
  5
EB
330
1F
100
AcDbEntity
  8
1
  6
DASH_CENTER
 62
     3
100
AcDbLine
 10
1006.016913486265
 20
2180.03232935922
 30
0.0
 11
1059.599281933192
 21
2149.09653451257
 31
0.0
  0
LINE
  5
EC
330
1F
100
AcDbEntity
  8
1
  6
DASH_CENTER
 62
     3
100
AcDbLine
 10
1048.637879977495
 20
2191.424658214978
 30
0.0
 11
933.7585641066561
 21
1992.447846387932
 31
0.0
  0
LINE
  5
ED
330
1F
100
AcDbEntity
  8
1
  6
Continuous
 62
     7
100
AcDbLine
 10
869.0094185830884
 20
2383.899036594443
 30
0.0
 11
1123.2744771342
 21
2237.099036594442
 31
0.0
  0
LINE
  5
EE
330
1F
100
AcDbEntity
  8
1
  6
Continuous
 62
     7
100
AcDbLine
 10
722.2094185830891
 20
2129.633978043332
 30
0.0
 11
869.0094185830884
 21
2383.899036594443
 31
0.0
  0
LINE
  5
EF
330
1F
100
AcDbEntity
  8
1
  6
Continuous
 62
     7
100
AcDbLine
 10
976.474477134201
 20
1982.833978043331
 30
0.0
 11
722.2094185830891
 21
2129.633978043332
 31
0.0
  0
LINE
  5
F0
330
1F
100
AcDbEntity
  8
1
  6
Continuous
 62
     7
100
AcDbLine
 10
1123.2744771342
 20
2237.099036594442
 30
0.0
 11
976.474477134201
 21
1982.833978043331
 31
0.0
  0
LINE
  5
F1
330
1F
100
AcDbEntity
  8
1
  6
Continuous
 62
     7
100
AcDbLine
 10
867.8381372909788
 20
2388.270317886553
 30
0.0
 11
1127.645758426311
 21
2238.270317886552
 31
0.0
  0
LINE
  5
F2
330
1F
100
AcDbEntity
  8
1
  6
Continuous
 62
     7
100
AcDbLine
 10
717.8381372909795
 20
2128.462696751222
 30
0.0
 11
867.8381372909788
 21
2388.270317886553
 31
0.0
  0
LINE
  5
F3
330
1F
100
AcDbEntity
  8
1
  6
Continuous
 62
     7
100
AcDbLine
 10
1202.22067903595
 20
2367.437869352862
 30
0.0
 11
897.1657940485565
 21
1839.067309457616
 31
0.0
  0
LINE
  5
F4
330
1F
100
AcDbEntity
  8
1
  6
Continuous
 62
     7
100
AcDbLine
 10
1078.048506692813
 20
1912.365357968349
 30
0.0
 11
1083.244659115519
 21
1909.365357968349
 31
0.0
  0
LINE
  5
F5
330
1F
100
AcDbEntity
  8
1
  6
Continuous
 62
     7
100
AcDbLine
 10
1063.643820914499
 20
1887.415710333245
 30
0.0
 11
1068.839973337207
 21
1884.415710333245
 31
0.0
  0
LINE
  5
F6
330
1F
100
AcDbEntity
  8
1
  6
Continuous
 62
     7
100
AcDbLine
 10
1240.285259490736
 20
2181.367656669409
 30
0.0
 11
1235.089107068029
 21
2184.367656669409
 31
0.0
  0
LINE
  5
F7
330
1F
100
AcDbEntity
  8
1
  6
Continuous
 62
     7
100
AcDbLine
 10
1254.689945269045
 20
2206.317304304517
 30
0.0
 11
1249.493792846338
 21
2209.317304304516
 31
0.0
  0
LINE
  5
F8
330
1F
100
AcDbEntity
  8
1
  6
Continuous
 62
     7
100
AcDbLine
 10
1299.458818164299
 20
1234.538456903082
 30
0.0
 11
1322.456394521072
 21
1234.137032714583
 31
0.0
  0
LINE
  5
F9
330
1F
100
AcDbEntity
  8
1
  6
Continuous
 62
     7
100
AcDbLine
 10
1299.022508003367
 20
1209.542264524172
 30
0.0
 11
1322.020084360139
 21
1209.140840335673
 31
0.0
  0
LINE
  5
FA
330
1F
100
AcDbEntity
  8
1
  6
DASH_CENTER
 62
     3
100
AcDbLine
 10
1303.996963469055
 20
1221.957339181585
 30
0.0
 11
1316.82817280493
 21
1221.73336958952
 31
0.0
  0
LINE
  5
FB
330
1F
100
AcDbEntity
  8
1
  6
DASH_CENTER
 62
     3
100
AcDbLine
 10
1310.868242150012
 20
1229.249001540277
 30
0.0
 11
1310.634012790912
 21
1215.830010544615
 31
0.0
  0
LINE
  5
FC
330
1F
100
AcDbEntity
  8
1
  6
Continuous
 62
     7
100
AcDbLine
 10
1302.988950990477
 20
1198.847137745974
 30
0.0
 11
1374.983108380463
 21
1198.847137745974
 31
0.0
  0
LINE
  5
FD
330
1F
100
AcDbEntity
  8
1
  6
Continuous
 62
     3
100
AcDbLine
 10
1675.979516994541
 20
1210.847137745967
 30
0.0
 11
1379.979516994541
 21
1210.847137745967
 31
0.0
  0
LINE
  5
FE
330
1F
100
AcDbEntity
  8
1
  6
Continuous
 62
     3
100
AcDbLine
 10
1677.979516994541
 20
1208.847137745967
 30
0.0
 11
1677.979516994541
 21
1198.847137745967
 31
0.0
  0
LINE
  5
FF
330
1F
100
AcDbEntity
  8
1
  6
Continuous
 62
     3
100
AcDbLine
 10
1757.979516994541
 20
1197.647137745969
 30
0.0
 11
1297.979516994541
 21
1197.647137745969
 31
0.0
  0
LINE
  5
100
330
1F
100
AcDbEntity
  8
1
  6
Continuous
 62
     3
100
AcDbLine
 10
1677.979516994541
 20
1198.847137745967
 30
0.0
 11
1727.979516994636
 21
1198.847137745968
 31
0.0
  0
LINE
  5
101
330
1F
100
AcDbEntity
  8
1
  6
Continuous
 62
     3
100
AcDbLine
 10
1752.993802825542
 20
1198.847137745969
 30
0.0
 11
1757.979516994541
 21
1198.847137745969
 31
0.0
  0
LINE
  5
102
330
1F
100
AcDbEntity
  8
1
  6
Continuous
 62
     3
100
AcDbLine
 10
1757.979516994541
 20
1198.847137745969
 30
0.0
 11
1757.979516994541
 21
1197.647137745969
 31
0.0
  0
LINE
  5
103
330
1F
100
AcDbEntity
  8
1
  6
Continuous
 62
     3
100
AcDbLine
 10
1297.979516994541
 20
1198.84713774596
 30
0.0
 11
1297.979516994541
 21
1197.647137745969
 31
0.0
  0
LINE
  5
104
330
1F
100
AcDbEntity
  8
1
  6
Continuous
 62
     3
100
AcDbLine
 10
1297.979516994541
 20
1198.84713774596
 30
0.0
 11
1302.988950990477
 21
1198.84713774596
 31
0.0
  0
LINE
  5
105
330
1F
100
AcDbEntity
  8
1
  6
Continuous
 62
     3
100
AcDbLine
 10
1374.983094106234
 20
1198.847137745974
 30
0.0
 11
1377.979516994541
 21
1198.847137745974
 31
0.0
  0
LINE
  5
106
330
1F
100
AcDbEntity
  8
1
  6
Continuous
 62
     3
100
AcDbLine
 10
1377.979516994541
 20
1198.847137745974
 30
0.0
 11
1377.979516994541
 21
1201.700679989594
 31
0.0
  0
LINE
  5
107
330
1F
100
AcDbEntity
  8
1
  6
Continuous
 62
     3
100
AcDbLine
 10
1677.979516994541
 20
1208.847137745967
 30
0.0
 11
1675.979516994541
 21
1210.847137745967
 31
0.0
  0
LINE
  5
108
330
1F
100
AcDbEntity
  8
1
  6
Continuous
 62
     3
100
AcDbLine
 10
1379.979516994541
 20
1210.847137745967
 30
0.0
 11
1377.979516994541
 21
1208.847137745967
 31
0.0
  0
LINE
  5
109
330
1F
100
AcDbEntity
  8
1
  6
Continuous
 62
     3
100
AcDbLine
 10
1994.319262956686
 20
2276.378892476624
 30
0.0
 11
1993.587212149117
 21
2273.646841669055
 31
0.0
  0
LINE
  5
10A
330
1F
100
AcDbEntity
  8
1
  6
Continuous
 62
     3
100
AcDbLine
 10
2141.587212149117
 20
2017.303322148861
 30
0.0
 11
2144.319262956686
 21
2016.571271341292
 31
0.0
  0
LINE
  5
10B
330
1F
100
AcDbEntity
  8
1
  6
Continuous
 62
     3
100
AcDbLine
 10
2000.508276920777
 20
2279.952121354811
 30
0.0
 11
2002.979516994525
 21
2281.378892476621
 31
0.0
  0
LINE
  5
10C
330
1F
100
AcDbEntity
  8
1
  6
Continuous
 62
     3
100
AcDbLine
 10
1965.484233992492
 20
2346.322627680315
 30
0.0
 11
1962.979516994536
 21
2350.660924779383
 31
0.0
  0
LINE
  5
10D
330
1F
100
AcDbEntity
  8
1
  6
Continuous
 62
     3
100
AcDbLine
 10
1964.01874747907
 20
2351.260924779378
 30
0.0
 11
1962.979516994536
 21
2350.660924779383
 31
0.0
  0
LINE
  5
10E
330
1F
100
AcDbEntity
  8
1
  6
Continuous
 62
     3
100
AcDbLine
 10
2194.01874747907
 20
1952.889239038537
 30
0.0
 11
2192.979516994529
 21
1952.289239038537
 31
0.0
  0
LINE
  5
10F
330
1F
100
AcDbEntity
  8
1
  6
Continuous
 62
     3
100
AcDbLine
 10
2192.979516994529
 20
1952.289239038537
 30
0.0
 11
2190.48665991003
 21
1956.606994164898
 31
0.0
  0
LINE
  5
110
330
1F
100
AcDbEntity
  8
1
  6
Continuous
 62
     3
100
AcDbLine
 10
2177.979516994576
 20
1978.270001151988
 30
0.0
 11
2152.979516994531
 21
2021.571271341292
 31
0.0
  0
LINE
  5
111
330
1F
100
AcDbEntity
  8
1
  6
Continuous
 62
     3
100
AcDbLine
 10
1964.01874747907
 20
2351.260924779378
 30
0.0
 11
2194.01874747907
 21
1952.889239038537
 31
0.0
  0
LINE
  5
112
330
1F
100
AcDbEntity
  8
1
  6
Continuous
 62
     3
100
AcDbLine
 10
2152.979516994531
 20
2021.571271341292
 30
0.0
 11
2144.319262956686
 21
2016.571271341292
 31
0.0
  0
LINE
  5
113
330
1F
100
AcDbEntity
  8
1
  6
Continuous
 62
     3
100
AcDbLine
 10
1993.587212149117
 20
2273.646841669055
 30
0.0
 11
2141.587212149117
 21
2017.303322148861
 31
0.0
  0
LINE
  5
114
330
1F
100
AcDbEntity
  8
1
  6
DASH_CENTER
 62
     3
100
AcDbLine
 10
1954.599165619847
 20
2331.210373548316
 30
0.0
 11
1943.095093203997
 21
2324.298029475192
 31
0.0
  0
LINE
  5
115
330
1F
100
AcDbEntity
  8
1
  6
DASH_CENTER
 62
     3
100
AcDbLine
 10
1952.583786726308
 20
2322.894394098617
 30
0.0
 11
1945.974218701967
 21
2333.894562548729
 31
0.0
  0
LINE
  5
116
330
1F
100
AcDbEntity
  8
1
  6
Continuous
 62
     7
100
AcDbLine
 10
1966.085192735643
 20
2324.694331424527
 30
0.0
 11
1954.238761012321
 21
2344.410104680715
 31
0.0
  0
LINE
  5
117
330
1F
100
AcDbEntity
  8
1
  6
Continuous
 62
     7
100
AcDbLine
 10
1944.65601021809
 20
2311.818379551776
 30
0.0
 11
1932.80957849477
 21
2331.534152807964
 31
0.0
  0
LINE
  5
118
330
1F
100
AcDbEntity
  8
1
  6
Continuous
 62
     7
100
AcDbLine
 10
2190.48665991003
 20
1956.606994164898
 30
0.0
 11
2177.979516994576
 21
1978.270001151988
 31
0.0
  0
LINE
  5
119
330
1F
100
AcDbEntity
  8
1
  6
Continuous
 62
     4
100
AcDbLine
 10
1598.143112577156
 20
2261.785038160123
 30
0.0
 11
1639.893237080576
 21
2218.69296111632
 31
0.0
  0
LINE
  5
11A
330
1F
100
AcDbEntity
  8
1
  6
Continuous
 62
     4
100
AcDbLine
 10
1800.696061488799
 20
2315.852994600269
 30
0.0
 11
1782.841022880754
 21
2339.961034676252
 31
0.0
  0
LINE
  5
11B
330
1F
100
AcDbEntity
  8
1
  6
Continuous
 62
     4
100
AcDbLine
 10
1729.275907056624
 20
2412.285154904206
 30
0.0
 11
1747.130945664666
 21
2388.177114828222
 31
0.0
  0
LINE
  5
11C
330
1F
100
AcDbEntity
  8
1
  6
Continuous
 62
     4
100
AcDbLine
 10
1880.274538813064
 20
2441.198644205837
 30
0.0
 11
1800.696061488799
 21
2315.852994600269
 31
0.0
  0
LINE
  5
11D
330
1F
100
AcDbEntity
  8
1
  6
Continuous
 62
     4
100
AcDbLine
 10
1880.274538813064
 20
2441.198644205837
 30
0.0
 11
1729.275907056624
 21
2412.285154904206
 31
0.0
  0
LINE
  5
11E
330
1F
100
AcDbEntity
  8
1
  6
DASH_CENTER
 62
     3
100
AcDbLine
 10
1357.346952501871
 20
1546.983992582497
 30
0.0
 11
1353.873333017063
 21
1534.020268179027
 31
0.0
  0
LINE
  5
11F
330
1F
100
AcDbEntity
  8
1
  6
DASH_CENTER
 62
     3
100
AcDbLine
 10
1348.9157673838
 20
1541.5712365221
 30
0.0
 11
1361.311651817084
 21
1538.249769298733
 31
0.0
  0
LINE
  5
120
330
1F
100
AcDbEntity
  8
1
  6
Continuous
 62
     7
100
AcDbLine
 10
1341.08559610976
 20
1530.72837233645
 30
0.0
 11
1363.302932862821
 21
1524.775254895497
 31
0.0
  0
LINE
  5
121
330
1F
100
AcDbEntity
  8
1
  6
Continuous
 62
     7
100
AcDbLine
 10
1347.556072237323
 20
1554.876517993677
 30
0.0
 11
1369.773408990384
 21
1548.923400552724
 31
0.0
  0
LINE
  5
122
330
1F
100
AcDbEntity
  8
1
  6
Continuous
 62
     7
100
AcDbLine
 10
1483.332627341712
 20
1874.143084343866
 30
0.0
 11
1503.252146531404
 21
1862.64254457757
 31
0.0
  0
LINE
  5
123
330
1F
100
AcDbEntity
  8
1
  6
Continuous
 62
     7
100
AcDbLine
 10
1470.832627341712
 20
1852.492449249255
 30
0.0
 11
1490.752146531404
 21
1840.991909482959
 31
0.0
  0
LINE
  5
124
330
1F
100
AcDbEntity
  8
1
  6
DASH_CENTER
 62
     3
100
AcDbLine
 10
1481.202331754279
 20
1860.939254344983
 30
0.0
 11
1492.316177692991
 21
1854.522672400536
 31
0.0
  0
LINE
  5
125
330
1F
100
AcDbEntity
  8
1
  6
DASH_CENTER
 62
     3
100
AcDbLine
 10
1490.747155560974
 20
1863.985423933781
 30
0.0
 11
1484.036638018818
 21
1852.362466605684
 31
0.0
  0
LINE
  5
126
330
1F
100
AcDbEntity
  8
1
  6
Continuous
 62
     7
100
AcDbLine
 10
1697.114976357516
 20
2147.389347912719
 30
0.0
 11
1713.379195669625
 21
2131.125128600611
 31
0.0
  0
LINE
  5
127
330
1F
100
AcDbEntity
  8
1
  6
Continuous
 62
     7
100
AcDbLine
 10
1679.437306827853
 20
2129.711678383055
 30
0.0
 11
1695.701526139962
 21
2113.447459070947
 31
0.0
  0
LINE
  5
128
330
1F
100
AcDbEntity
  8
1
  6
DASH_CENTER
 62
     3
100
AcDbLine
 10
1691.639866159981
 20
2135.186788580592
 30
0.0
 11
1700.714283369895
 21
2126.112371370677
 31
0.0
  0
LINE
  5
129
330
1F
100
AcDbEntity
  8
1
  6
DASH_CENTER
 62
     3
100
AcDbLine
 10
1701.647864686438
 20
2135.658780274348
 30
0.0
 11
1692.157759767777
 21
2126.168675355688
 31
0.0
  0
LINE
  5
12A
330
1F
100
AcDbEntity
  8
1
  6
Continuous
 62
     7
100
AcDbLine
 10
1557.401112868663
 20
1990.150948313576
 30
0.0
 11
1558.514576509326
 21
1989.508089780907
 31
0.0
  0
LINE
  5
12B
330
1F
100
AcDbEntity
  8
1
  6
Continuous
 62
     7
100
AcDbLine
 10
1407.401112868641
 20
1730.343327178254
 30
0.0
 11
1408.514576509328
 21
1729.70046864557
 31
0.0
  0
LINE
  5
12C
330
1F
100
AcDbEntity
  8
1
  6
Continuous
 62
     7
100
AcDbLine
 10
2169.608880478731
 20
1978.85391363688
 30
0.0
 11
2131.144849947127
 21
1954.93544242704
 31
0.0
  0
LINE
  5
12D
330
1F
100
AcDbEntity
  8
1
  6
Continuous
 62
     7
100
AcDbLine
 10
1995.233184246477
 20
2270.795934368976
 30
0.0
 11
1944.381131132935
 21
2239.174095691455
 31
0.0
  0
LINE
  5
12E
330
1F
100
AcDbEntity
  8
1
  6
DASH_CENTER
 62
     3
100
AcDbLine
 10
1932.421470140055
 20
2317.395464518752
 30
0.0
 11
2161.60291732234
 21
1948.841717736231
 31
0.0
  0
LINE
  5
12F
330
1F
100
AcDbEntity
  8
1
  6
Continuous
 62
     7
100
AcDbLine
 10
2146.651384700311
 20
2017.917722457534
 30
0.0
 11
2169.608880478731
 21
1978.85391363688
 31
0.0
  0
LINE
  5
130
330
1F
100
AcDbEntity
  8
1
  6
Continuous
 62
     7
100
AcDbLine
 10
2131.144849947127
 20
1954.93544242704
 30
0.0
 11
1944.381131132935
 21
2239.174095691455
 31
0.0
  0
LINE
  5
131
330
1F
100
AcDbEntity
  8
1
  6
DASHED
 62
     4
100
AcDbLine
 10
1979.328828088299
 20
2285.517305909848
 30
0.0
 11
1981.335485920771
 21
2282.290337620047
 31
0.0
  0
LINE
  5
132
330
1F
100
AcDbEntity
  8
1
  6
DOT_CENTER
 62
     3
100
AcDbLine
 10
1976.307830010805
 20
2285.735910692652
 30
0.0
 11
1980.296761480372
 21
2279.321187088962
 31
0.0
  0
LINE
  5
133
330
1F
100
AcDbEntity
  8
1
  6
DASHED
 62
     4
100
AcDbLine
 10
1967.18326752334
 20
2305.048956084959
 30
0.0
 11
1969.189925355811
 21
2301.821987795157
 31
0.0
  0
LINE
  5
134
330
1F
100
AcDbEntity
  8
1
  6
DOT_CENTER
 62
     3
100
AcDbLine
 10
1964.162269445846
 20
2305.267560867762
 30
0.0
 11
1968.151200915413
 21
2298.852837264071
 31
0.0
  0
LINE
  5
135
330
1F
100
AcDbEntity
  8
1
  6
DASHED
 62
     4
100
AcDbLine
 10
1942.27218557055
 20
2257.999216490128
 30
0.0
 11
1940.265527738079
 21
2261.22618477993
 31
0.0
  0
LINE
  5
136
330
1F
100
AcDbEntity
  8
1
  6
DOT_CENTER
 62
     3
100
AcDbLine
 10
1945.394551819632
 20
2257.617598427229
 30
0.0
 11
1941.405620350063
 21
2264.032322030919
 31
0.0
  0
LINE
  5
137
330
1F
100
AcDbEntity
  8
1
  6
DASHED
 62
     4
100
AcDbLine
 10
1932.995216553711
 20
2285.084793295147
 30
0.0
 11
1961.146268871315
 21
2302.590242544211
 31
0.0
  0
LINE
  5
138
330
1F
100
AcDbEntity
  8
1
  6
DASHED
 62
     4
100
AcDbLine
 10
1930.126625005591
 20
2277.53086666524
 30
0.0
 11
1928.11996717312
 21
2280.757834955041
 31
0.0
  0
LINE
  5
139
330
1F
100
AcDbEntity
  8
1
  6
DOT_CENTER
 62
     3
100
AcDbLine
 10
1933.248991254673
 20
2277.149248602339
 30
0.0
 11
1929.260059785103
 21
2283.56397220603
 31
0.0
  0
LINE
  5
13A
330
1F
100
AcDbEntity
  8
1
  6
Continuous
 62
     7
100
AcDbLine
 10
1979.824936041255
 20
2267.676235024132
 30
0.0
 11
1981.138422981203
 21
2265.563976204672
 31
0.0
  0
LINE
  5
13B
330
1F
100
AcDbEntity
  8
1
  6
Continuous
 62
     7
100
AcDbLine
 10
1956.047274958512
 20
2252.89033520592
 30
0.0
 11
1957.360761898461
 21
2250.778076386456
 31
0.0
  0
LINE
  5
13C
330
1F
100
AcDbEntity
  8
1
  6
DASH_CENTER
 62
     3
100
AcDbLine
 10
1935.44985234173
 20
2283.078456297485
 30
0.0
 11
1926.957830526463
 21
2277.79777779098
 31
0.0
  0
LINE
  5
13D
330
1F
100
AcDbEntity
  8
1
  6
DASH_CENTER
 62
     3
100
AcDbLine
 10
1939.103391091423
 20
2258.26612761587
 30
0.0
 11
1947.595412906688
 21
2263.546806122375
 31
0.0
  0
LINE
  5
13E
330
1F
100
AcDbEntity
  8
1
  6
DASH_CENTER
 62
     3
100
AcDbLine
 10
1970.35206200247
 20
2304.782044959218
 30
0.0
 11
1961.860040187203
 21
2299.501366452713
 31
0.0
  0
LINE
  5
13F
330
1F
100
AcDbEntity
  8
1
  6
DASH_CENTER
 62
     3
100
AcDbLine
 10
1974.005600752163
 20
2279.969716277602
 30
0.0
 11
1982.497622567426
 21
2285.250394784107
 31
0.0
  0
LINE
  5
140
330
1F
100
AcDbEntity
  8
1
  6
DASHED
 62
     4
100
AcDbLine
 10
1936.163623657614
 20
2279.98958020599
 30
0.0
 11
1964.314675975219
 21
2297.495029455051
 31
0.0
  0
LINE
  5
141
330
1F
100
AcDbEntity
  8
1
  6
DASHED
 62
     4
100
AcDbLine
 10
1945.140777118671
 20
2265.553143120037
 30
0.0
 11
1973.291829436275
 21
2283.058592369098
 31
0.0
  0
LINE
  5
142
330
1F
100
AcDbEntity
  8
1
  6
DASHED
 62
     4
100
AcDbLine
 10
1976.460236540178
 20
2277.96337927994
 30
0.0
 11
1948.309184222575
 21
2260.457930030879
 31
0.0
  0
LINE
  5
143
330
1F
100
AcDbEntity
  8
1
  6
DASHED
 62
     4
100
AcDbLine
 10
1997.286460850633
 20
2272.072743810512
 30
0.0
 11
2146.651384700311
 21
2017.917722457534
 31
0.0
  0
LINE
  5
144
330
1F
100
AcDbEntity
  8
1
  6
DASHED
 62
     4
100
AcDbLine
 10
1997.286460850633
 20
2272.072743810512
 30
0.0
 11
1995.233184246477
 21
2270.795934368976
 31
0.0
  0
LINE
  5
145
330
1F
100
AcDbEntity
  8
1
  6
DASHED
 62
     4
100
AcDbLine
 10
1907.277610331626
 20
2233.041508876948
 30
0.0
 11
1880.33174273742
 21
2213.732373225773
 31
0.0
  0
LINE
  5
146
330
1F
100
AcDbEntity
  8
1
  6
DASHED
 62
     4
100
AcDbLine
 10
1876.83687655621
 20
2218.609453333321
 30
0.0
 11
1903.782744150417
 21
2237.918588984494
 31
0.0
  0
LINE
  5
147
330
1F
100
AcDbEntity
  8
1
  6
DASHED
 62
     4
100
AcDbLine
 10
1866.934755709454
 20
2232.427846971377
 30
0.0
 11
1893.88062330366
 21
2251.736982622551
 31
0.0
  0
LINE
  5
148
330
1F
100
AcDbEntity
  8
1
  6
DASH_CENTER
 62
     3
100
AcDbLine
 10
1904.697009389316
 20
2234.883009291431
 30
0.0
 11
1912.825476235229
 21
2240.707786260111
 31
0.0
  0
LINE
  5
149
330
1F
100
AcDbEntity
  8
1
  6
DASH_CENTER
 62
     3
100
AcDbLine
 10
1899.428489207267
 20
2259.403260005716
 30
0.0
 11
1891.300022361349
 21
2253.578483037035
 31
0.0
  0
LINE
  5
14A
330
1F
100
AcDbEntity
  8
1
  6
DASH_CENTER
 62
     3
100
AcDbLine
 10
1871.289010652607
 20
2210.943175950155
 30
0.0
 11
1879.417477498523
 21
2216.767952918837
 31
0.0
  0
LINE
  5
14B
330
1F
100
AcDbEntity
  8
1
  6
DASH_CENTER
 62
     3
100
AcDbLine
 10
1866.020490470557
 20
2235.46342666444
 30
0.0
 11
1857.892023624643
 21
2229.638649695758
 31
0.0
  0
LINE
  5
14C
330
1F
100
AcDbEntity
  8
1
  6
Continuous
 62
     7
100
AcDbLine
 10
1888.548210009406
 20
2206.687076550632
 30
0.0
 11
1889.997033009526
 21
2204.665246395517
 31
0.0
  0
LINE
  5
14D
330
1F
100
AcDbEntity
  8
1
  6
Continuous
 62
     7
100
AcDbLine
 10
1911.307917177966
 20
2222.996452062938
 30
0.0
 11
1912.756740178088
 21
2220.974621907824
 31
0.0
  0
LINE
  5
14E
330
1F
100
AcDbEntity
  8
1
  6
DOT_CENTER
 62
     3
100
AcDbLine
 10
1864.212130333149
 20
2229.40297065601
 30
0.0
 11
1859.812196475224
 21
2235.543071243665
 31
0.0
  0
LINE
  5
14F
330
1F
100
AcDbEntity
  8
1
  6
DASHED
 62
     4
100
AcDbLine
 10
1861.0714902944
 20
2229.57955912205
 30
0.0
 11
1858.858075046302
 21
2232.668376523498
 31
0.0
  0
LINE
  5
150
330
1F
100
AcDbEntity
  8
1
  6
DASHED
 62
     4
100
AcDbLine
 10
1863.439889528246
 20
2237.304927078924
 30
0.0
 11
1890.385757122453
 21
2256.614062730102
 31
0.0
  0
LINE
  5
151
330
1F
100
AcDbEntity
  8
1
  6
DOT_CENTER
 62
     3
100
AcDbLine
 10
1877.609117361113
 20
2210.707496910406
 30
0.0
 11
1873.209183503188
 21
2216.847597498062
 31
0.0
  0
LINE
  5
152
330
1F
100
AcDbEntity
  8
1
  6
DASHED
 62
     4
100
AcDbLine
 10
1874.468477322364
 20
2210.884085376446
 30
0.0
 11
1872.255062074265
 21
2213.972902777894
 31
0.0
  0
LINE
  5
153
330
1F
100
AcDbEntity
  8
1
  6
DOT_CENTER
 62
     3
100
AcDbLine
 10
1893.220195211933
 20
2259.482904584941
 30
0.0
 11
1897.620129069859
 21
2253.342803997285
 31
0.0
  0
LINE
  5
154
330
1F
100
AcDbEntity
  8
1
  6
DASHED
 62
     4
100
AcDbLine
 10
1896.249022537508
 20
2259.462350579426
 30
0.0
 11
1898.462437785607
 21
2256.373533177978
 31
0.0
  0
LINE
  5
155
330
1F
100
AcDbEntity
  8
1
  6
DOT_CENTER
 62
     3
100
AcDbLine
 10
1906.617182239898
 20
2240.787430839338
 30
0.0
 11
1911.017116097822
 21
2234.647330251681
 31
0.0
  0
LINE
  5
156
330
1F
100
AcDbEntity
  8
1
  6
DASHED
 62
     4
100
AcDbLine
 10
1909.646009565473
 20
2240.766876833822
 30
0.0
 11
1911.859424813571
 21
2237.678059432374
 31
0.0
  0
LINE
  5
157
330
1F
100
AcDbEntity
  8
1
  6
Continuous
 62
     7
100
AcDbLine
 10
2082.758070006464
 20
1920.82205739353
 30
0.0
 11
1877.804129278787
 21
2192.237202245603
 31
0.0
  0
LINE
  5
158
330
1F
100
AcDbEntity
  8
1
  6
Continuous
 62
     7
100
AcDbLine
 10
1928.444510090036
 20
2228.52558595019
 30
0.0
 11
2119.575403232615
 21
1947.204985280072
 31
0.0
  0
LINE
  5
159
330
1F
100
AcDbEntity
  8
1
  6
DASH_CENTER
 62
     3
100
AcDbLine
 10
1860.754152544146
 20
2269.508893864388
 30
0.0
 11
2113.549472984867
 21
1916.733432751694
 31
0.0
  0
LINE
  5
15A
330
1F
100
AcDbEntity
  8
1
  6
Continuous
 62
     7
100
AcDbLine
 10
1928.444510090036
 20
2228.52558595019
 30
0.0
 11
1877.804129278787
 21
2192.237202245603
 31
0.0
  0
LINE
  5
15B
330
1F
100
AcDbEntity
  8
1
  6
Continuous
 62
     7
100
AcDbLine
 10
2119.575403232615
 20
1947.204985280072
 30
0.0
 11
2082.758070006464
 21
1920.82205739353
 31
0.0
  0
LINE
  5
15C
330
1F
100
AcDbEntity
  8
1
  6
DASHED
 62
     4
100
AcDbLine
 10
1841.181140331723
 20
2183.691059404243
 30
0.0
 11
1815.555843802756
 21
2162.660922034212
 31
0.0
  0
LINE
  5
15D
330
1F
100
AcDbEntity
  8
1
  6
DASHED
 62
     4
100
AcDbLine
 10
1811.749484097772
 20
2167.298984754387
 30
0.0
 11
1837.374780626741
 21
2188.329122124418
 31
0.0
  0
LINE
  5
15E
330
1F
100
AcDbEntity
  8
1
  6
DASHED
 62
     4
100
AcDbLine
 10
1800.964798266985
 20
2180.440162461552
 30
0.0
 11
1826.590094795954
 21
2201.470299831582
 31
0.0
  0
LINE
  5
15F
330
1F
100
AcDbEntity
  8
1
  6
DASH_CENTER
 62
     3
100
AcDbLine
 10
1838.485624764535
 20
2185.359837648063
 30
0.0
 11
1846.215729298161
 21
2191.703770489701
 31
0.0
  0
LINE
  5
160
330
1F
100
AcDbEntity
  8
1
  6
DASH_CENTER
 62
     3
100
AcDbLine
 10
1831.624683762394
 20
2209.483010917041
 30
0.0
 11
1823.894579228766
 21
2203.139078075402
 31
0.0
  0
LINE
  5
161
330
1F
100
AcDbEntity
  8
1
  6
DASH_CENTER
 62
     3
100
AcDbLine
 10
1806.714895131333
 20
2159.286273668928
 30
0.0
 11
1814.444999664961
 21
2165.630206510568
 31
0.0
  0
LINE
  5
162
330
1F
100
AcDbEntity
  8
1
  6
DASH_CENTER
 62
     3
100
AcDbLine
 10
1799.853954129193
 20
2183.409446937907
 30
0.0
 11
1792.123849595566
 21
2177.065514096267
 31
0.0
  0
LINE
  5
163
330
1F
100
AcDbEntity
  8
1
  6
Continuous
 62
     7
100
AcDbLine
 10
1824.215503436512
 20
2156.168092550865
 30
0.0
 11
1825.793458414293
 21
2154.245348847219
 31
0.0
  0
LINE
  5
164
330
1F
100
AcDbEntity
  8
1
  6
Continuous
 62
     7
100
AcDbLine
 10
1845.859796130665
 20
2173.931104507452
 30
0.0
 11
1847.437751108445
 21
2172.008360803809
 31
0.0
  0
LINE
  5
165
330
1F
100
AcDbEntity
  8
1
  6
DOT_CENTER
 62
     3
100
AcDbLine
 10
1798.445838617162
 20
2177.243694419237
 30
0.0
 11
1793.653743563153
 21
2183.082879137498
 31
0.0
  0
LINE
  5
166
330
1F
100
AcDbEntity
  8
1
  6
DASHED
 62
     4
100
AcDbLine
 10
1795.300373491552
 20
2177.214497109497
 30
0.0
 11
1792.889679011728
 21
2180.151936832275
 31
0.0
  0
LINE
  5
167
330
1F
100
AcDbEntity
  8
1
  6
DASHED
 62
     4
100
AcDbLine
 10
1797.158438562003
 20
2185.078225181726
 30
0.0
 11
1822.783735090971
 21
2206.108362551759
 31
0.0
  0
LINE
  5
168
330
1F
100
AcDbEntity
  8
1
  6
DOT_CENTER
 62
     3
100
AcDbLine
 10
1813.03688415293
 20
2159.464453991898
 30
0.0
 11
1808.244789098922
 21
2165.30363871016
 31
0.0
  0
LINE
  5
169
330
1F
100
AcDbEntity
  8
1
  6
DASHED
 62
     4
100
AcDbLine
 10
1809.891419027319
 20
2159.435256682158
 30
0.0
 11
1807.480724547498
 21
2162.372696404935
 31
0.0
  0
LINE
  5
16A
330
1F
100
AcDbEntity
  8
1
  6
DOT_CENTER
 62
     3
100
AcDbLine
 10
1825.424473196355
 20
2209.156443116633
 30
0.0
 11
1830.216568250365
 21
2203.317258398371
 31
0.0
  0
LINE
  5
16B
330
1F
100
AcDbEntity
  8
1
  6
DASHED
 62
     4
100
AcDbLine
 10
1828.448159866407
 20
2209.334027903811
 30
0.0
 11
1830.858854346228
 21
2206.396588181033
 31
0.0
  0
LINE
  5
16C
330
1F
100
AcDbEntity
  8
1
  6
DOT_CENTER
 62
     3
100
AcDbLine
 10
1840.015518732123
 20
2191.377202689294
 30
0.0
 11
1844.807613786133
 21
2185.538017971032
 31
0.0
  0
LINE
  5
16D
330
1F
100
AcDbEntity
  8
1
  6
DASHED
 62
     4
100
AcDbLine
 10
1843.039205402175
 20
2191.554787476472
 30
0.0
 11
1845.449899881998
 21
2188.617347753695
 31
0.0
  0
LINE
  5
16E
330
1F
100
AcDbEntity
  8
1
  6
Continuous
 62
     7
100
AcDbLine
 10
2036.706012005805
 20
1883.617064914331
 30
0.0
 11
1814.439493604
 21
2141.04646003543
 31
0.0
  0
LINE
  5
16F
330
1F
100
AcDbEntity
  8
1
  6
Continuous
 62
     7
100
AcDbLine
 10
1862.598075623723
 20
2180.569186895421
 30
0.0
 11
2071.718990453338
 21
1912.351473729977
 31
0.0
  0
LINE
  5
170
330
1F
100
AcDbEntity
  8
1
  6
DASH_CENTER
 62
     3
100
AcDbLine
 10
1792.372211745554
 20
2217.03758519923
 30
0.0
 11
2067.698897072667
 21
1881.551048439876
 31
0.0
  0
LINE
  5
171
330
1F
100
AcDbEntity
  8
1
  6
Continuous
 62
     7
100
AcDbLine
 10
1862.598075623723
 20
2180.569186895421
 30
0.0
 11
1814.439493604
 21
2141.04646003543
 31
0.0
  0
LINE
  5
172
330
1F
100
AcDbEntity
  8
1
  6
Continuous
 62
     7
100
AcDbLine
 10
2071.718990453338
 20
1912.351473729977
 30
0.0
 11
2036.706012005805
 21
1883.617064914331
 31
0.0
  0
LINE
  5
173
330
1F
100
AcDbEntity
  8
1
  6
Continuous
 62
     7
100
AcDbLine
 10
1763.324637765589
 20
2101.549713252086
 30
0.0
 11
1765.024967675562
 21
2099.734289483633
 31
0.0
  0
LINE
  5
174
330
1F
100
AcDbEntity
  8
1
  6
Continuous
 62
     7
100
AcDbLine
 10
1783.760831801123
 20
2120.690297708732
 30
0.0
 11
1785.461161711096
 21
2118.874873940281
 31
0.0
  0
LINE
  5
175
330
1F
100
AcDbEntity
  8
1
  6
Continuous
 62
     7
100
AcDbLine
 10
1993.185877927288
 20
1843.479782479256
 30
0.0
 11
1754.558561206125
 21
2085.821075678194
 31
0.0
  0
LINE
  5
176
330
1F
100
AcDbEntity
  8
1
  6
Continuous
 62
     7
100
AcDbLine
 10
1800.029121992672
 20
2128.408903309534
 30
0.0
 11
2026.244570647198
 21
1874.442627074071
 31
0.0
  0
LINE
  5
177
330
1F
100
AcDbEntity
  8
1
  6
DASH_CENTER
 62
     3
100
AcDbLine
 10
1727.56846971262
 20
2160.206228722687
 30
0.0
 11
2024.247528790634
 21
1843.445221171906
 31
0.0
  0
LINE
  5
178
330
1F
100
AcDbEntity
  8
1
  6
Continuous
 62
     7
100
AcDbLine
 10
1800.029121992672
 20
2128.408903309534
 30
0.0
 11
1754.558561206125
 21
2085.821075678194
 31
0.0
  0
LINE
  5
179
330
1F
100
AcDbEntity
  8
1
  6
Continuous
 62
     7
100
AcDbLine
 10
2026.244570647198
 20
1874.442627074071
 30
0.0
 11
1993.185877927288
 21
1843.479782479256
 31
0.0
  0
LINE
  5
17A
330
1F
100
AcDbEntity
  8
1
  6
Continuous
 62
     7
100
AcDbLine
 10
1983.346872261538
 20
1833.640776813499
 30
0.0
 11
1952.384027666741
 21
1800.582084093573
 31
0.0
  0
LINE
  5
17B
330
1F
100
AcDbEntity
  8
1
  6
Continuous
 62
     7
100
AcDbLine
 10
1741.005579062468
 20
2072.26809353453
 30
0.0
 11
1698.417751431154
 21
2026.79753274796
 31
0.0
  0
LINE
  5
17C
330
1F
100
AcDbEntity
  8
1
  6
DASH_CENTER
 62
     3
100
AcDbLine
 10
1666.620426017961
 20
2099.258185027993
 30
0.0
 11
1983.381433568903
 21
1802.579125950153
 31
0.0
  0
LINE
  5
17D
330
1F
100
AcDbEntity
  8
1
  6
Continuous
 62
     7
100
AcDbLine
 10
1741.005579062468
 20
2072.26809353453
 30
0.0
 11
1983.346872261538
 21
1833.640776813499
 31
0.0
  0
LINE
  5
17E
330
1F
100
AcDbEntity
  8
1
  6
Continuous
 62
     7
100
AcDbLine
 10
1952.384027666741
 20
1800.582084093573
 30
0.0
 11
1698.417751431154
 21
2026.79753274796
 31
0.0
  0
LINE
  5
17F
330
1F
100
AcDbEntity
  8
1
  6
Continuous
 62
     7
100
AcDbLine
 10
1725.276941488582
 20
2063.502016975058
 30
0.0
 11
1727.092365257035
 21
2061.801687065086
 31
0.0
  0
LINE
  5
180
330
1F
100
AcDbEntity
  8
1
  6
Continuous
 62
     7
100
AcDbLine
 10
1706.136357031948
 20
2043.065822939514
 30
0.0
 11
1707.951780800399
 21
2041.36549302954
 31
0.0
  0
LINE
  5
181
330
1F
100
AcDbEntity
  8
1
  6
Continuous
 62
     7
100
AcDbLine
 10
1672.581305893395
 20
2001.033196326407
 30
0.0
 11
1670.658562189751
 21
2002.611151304187
 31
0.0
  0
LINE
  5
182
330
1F
100
AcDbEntity
  8
1
  6
Continuous
 62
     7
100
AcDbLine
 10
1654.81829393681
 20
1979.388903632251
 30
0.0
 11
1652.895550233166
 21
1980.966858610032
 31
0.0
  0
LINE
  5
183
330
1F
100
AcDbEntity
  8
1
  6
Continuous
 62
     7
100
AcDbLine
 10
1685.780194705182
 20
2012.387161136702
 30
0.0
 11
1943.209589826327
 21
1790.120642734949
 31
0.0
  0
LINE
  5
184
330
1F
100
AcDbEntity
  8
1
  6
Continuous
 62
     7
100
AcDbLine
 10
1914.475181010687
 20
1755.107664287411
 30
0.0
 11
1646.257467845201
 21
1964.228579116972
 31
0.0
  0
LINE
  5
185
330
1F
100
AcDbEntity
  8
1
  6
DASH_CENTER
 62
     3
100
AcDbLine
 10
1945.275606300787
 20
1759.127757668089
 30
0.0
 11
1609.789069541379
 21
2034.454442995135
 31
0.0
  0
LINE
  5
186
330
1F
100
AcDbEntity
  8
1
  6
Continuous
 62
     7
100
AcDbLine
 10
1685.780194705182
 20
2012.387161136702
 30
0.0
 11
1646.257467845201
 21
1964.228579116972
 31
0.0
  0
LINE
  5
187
330
1F
100
AcDbEntity
  8
1
  6
Continuous
 62
     7
100
AcDbLine
 10
1943.209589826327
 20
1790.120642734949
 30
0.0
 11
1914.475181010687
 21
1755.107664287411
 31
0.0
  0
LINE
  5
188
330
1F
100
AcDbEntity
  8
1
  6
Continuous
 62
     7
100
AcDbLine
 10
1622.16140834511
 20
1936.829621731165
 30
0.0
 11
1620.139578189996
 21
1938.278444731285
 31
0.0
  0
LINE
  5
189
330
1F
100
AcDbEntity
  8
1
  6
Continuous
 62
     7
100
AcDbLine
 10
1605.85203283281
 20
1914.069914562602
 30
0.0
 11
1603.830202677696
 21
1915.518737562723
 31
0.0
  0
LINE
  5
18A
330
1F
100
AcDbEntity
  8
1
  6
Continuous
 62
     7
100
AcDbLine
 10
1634.589452495024
 20
1949.022525461908
 30
0.0
 11
1906.004597347137
 21
1744.068584734286
 31
0.0
  0
LINE
  5
18B
330
1F
100
AcDbEntity
  8
1
  6
Continuous
 62
     7
100
AcDbLine
 10
1879.621669460602
 20
1707.251251508128
 30
0.0
 11
1598.301068790447
 21
1898.38214465065
 31
0.0
  0
LINE
  5
18C
330
1F
100
AcDbEntity
  8
1
  6
DASH_CENTER
 62
     3
100
AcDbLine
 10
1910.09322198898
 20
1713.277181755882
 30
0.0
 11
1557.317760876235
 21
1966.072502196532
 31
0.0
  0
LINE
  5
18D
330
1F
100
AcDbEntity
  8
1
  6
Continuous
 62
     7
100
AcDbLine
 10
1634.589452495024
 20
1949.022525461908
 30
0.0
 11
1598.301068790447
 21
1898.38214465065
 31
0.0
  0
LINE
  5
18E
330
1F
100
AcDbEntity
  8
1
  6
Continuous
 62
     7
100
AcDbLine
 10
1906.004597347137
 20
1744.068584734286
 30
0.0
 11
1879.621669460602
 21
1707.251251508128
 31
0.0
  0
LINE
  5
18F
330
1F
100
AcDbEntity
  8
0
  6
DASHED
 62
     4
100
AcDbLine
 10
1746.429877174178
 20
1627.558372182967
 30
0.0
 11
1746.929877174178
 21
1628.424397586751
 31
0.0
  0
LINE
  5
190
330
1F
100
AcDbEntity
  8
0
  6
DASHED
 62
     4
100
AcDbLine
 10
1769.750385249868
 20
1627.950677028379
 30
0.0
 11
1764.136198559392
 21
1622.241020437298
 31
0.0
  0
LINE
  5
191
330
1F
100
AcDbEntity
  8
0
  6
DASHED
 62
     4
100
AcDbLine
 10
1760.496988081719
 20
1621.746122990535
 30
0.0
 11
1748.295902577961
 21
1628.790422990534
 31
0.0
  0
LINE
  5
192
330
1F
100
AcDbEntity
  8
0
  6
DASHED
 62
     4
100
AcDbLine
 10
1729.475394502274
 20
1636.192346779182
 30
0.0
 11
1799.975394502274
 21
1758.301928712788
 31
0.0
  0
LINE
  5
193
330
1F
100
AcDbEntity
  8
0
  6
DASHED
 62
     4
100
AcDbLine
 10
1771.482436057437
 20
1626.950677028379
 30
0.0
 11
1769.750385249868
 21
1627.950677028379
 31
0.0
  0
LINE
  5
194
330
1F
100
AcDbEntity
  8
0
  6
DASHED
 62
     4
100
AcDbLine
 10
1745.063851770393
 20
1627.192346779182
 30
0.0
 11
1729.475394502274
 21
1636.192346779182
 31
0.0
  0
LINE
  5
195
330
1F
100
AcDbEntity
  8
0
  6
DASHED
 62
     4
100
AcDbLine
 10
1732.975394502274
 20
1642.254524605672
 30
0.0
 11
1605.236647444069
 21
1716.004524605672
 31
0.0
  0
LINE
  5
196
330
1F
100
AcDbEntity
  8
0
  6
DASHED
 62
     4
100
AcDbLine
 10
1772.84846146122
 20
1627.316702432164
 30
0.0
 11
1829.348461461222
 21
1725.177573059806
 31
0.0
  0
LINE
  5
197
330
1F
100
AcDbEntity
  8
0
  6
DASHED
 62
     4
100
AcDbLine
 10
1592.491456915685
 20
1708.929207058367
 30
0.0
 11
1588.161329896764
 21
1711.429207058367
 31
0.0
  0
LINE
  5
198
330
1F
100
AcDbEntity
  8
0
  6
DASHED
 62
     4
100
AcDbLine
 10
1603.986647444069
 20
1713.839461096212
 30
0.0
 11
1600.955730003854
 21
1715.589362096212
 31
0.0
  0
LINE
  5
199
330
1F
100
AcDbEntity
  8
0
  6
DASHED
 62
     4
100
AcDbLine
 10
1527.343399209146
 20
1758.089461096211
 30
0.0
 11
1527.343608592604
 21
1753.178629758998
 31
0.0
  0
LINE
  5
19A
330
1F
100
AcDbEntity
  8
0
  6
DASHED
 62
     4
100
AcDbLine
 10
1588.161329896764
 20
1711.429207058367
 30
0.0
 11
1531.163484272393
 21
1746.357654514989
 31
0.0
  0
LINE
  5
19B
330
1F
100
AcDbEntity
  8
0
  6
DASHED
 62
     4
100
AcDbLine
 10
1541.807503732201
 20
1786.070797016127
 30
0.0
 11
1541.371228745808
 21
1787.699546573625
 31
0.0
  0
LINE
  5
19C
330
1F
100
AcDbEntity
  8
0
  6
DASHED
 62
     4
100
AcDbLine
 10
1527.343399209146
 20
1758.089461096211
 30
0.0
 11
1593.343399209146
 21
1872.404814395758
 31
0.0
  0
LINE
  5
19D
330
1F
100
AcDbEntity
  8
0
  6
DASHED
 62
     4
100
AcDbLine
 10
1542.170172690223
 20
1793.770186077753
 30
0.0
 11
1569.856371690225
 21
1841.724089414217
 31
0.0
  0
LINE
  5
19E
330
1F
100
AcDbEntity
  8
0
  6
DASHED
 62
     4
100
AcDbLine
 10
1814.476675674178
 20
1745.418884477368
 30
0.0
 11
1747.883078674179
 21
1630.075391014602
 31
0.0
  0
LINE
  5
19F
330
1F
100
AcDbEntity
  8
0
  6
DASHED
 62
     4
100
AcDbLine
 10
1669.98664744407
 20
1828.154814395759
 30
0.0
 11
1603.986647444069
 21
1713.839461096212
 31
0.0
  0
LINE
  5
1A0
330
1F
100
AcDbEntity
  8
1
  6
DASHED
 62
     4
100
AcDbLine
 10
1632.949460365171
 20
1700.004524605672
 30
0.0
 11
1623.449460365172
 21
1683.550041933769
 31
0.0
  0
LINE
  5
1A1
330
1F
100
AcDbEntity
  8
1
  6
DASHED
 62
     4
100
AcDbLine
 10
1616.619333346248
 20
1681.719914914846
 30
0.0
 11
1517.026411911038
 21
1739.219914914846
 31
0.0
  0
LINE
  5
1A2
330
1F
100
AcDbEntity
  8
1
  6
DASHED
 62
     4
100
AcDbLine
 10
1515.196284892115
 20
1746.050041933769
 30
0.0
 11
1541.211244301408
 21
1791.109273387506
 31
0.0
  0
LINE
  5
1A3
330
1F
100
AcDbEntity
  8
1
  6
DASH_CENTER
 62
     3
100
AcDbLine
 10
1621.688725380165
 20
1699.000359481073
 30
0.0
 11
1607.399306217721
 21
1707.250359481074
 31
0.0
  0
LINE
  5
1A4
330
1F
100
AcDbEntity
  8
1
  6
DASH_CENTER
 62
     3
100
AcDbLine
 10
1610.419015798943
 20
1695.980649899852
 30
0.0
 11
1618.669015798942
 21
1710.270069062296
 31
0.0
  0
LINE
  5
1A5
330
1F
100
AcDbEntity
  8
0
  6
DASHED
 62
     4
100
AcDbLine
 10
1815.42987717418
 20
1747.06987790522
 30
0.0
 11
1815.929877174178
 21
1747.935903309004
 31
0.0
  0
LINE
  5
1A6
330
1F
100
AcDbEntity
  8
0
  6
DASHED
 62
     4
100
AcDbLine
 10
1829.387999559391
 20
1735.260455054672
 30
0.0
 11
1827.250385249869
 21
1727.543598463591
 31
0.0
  0
LINE
  5
1A7
330
1F
100
AcDbEntity
  8
0
  6
DASHED
 62
     4
100
AcDbLine
 10
1815.795902577965
 20
1745.703852501435
 30
0.0
 11
1827.996988081719
 21
1738.659552501435
 31
0.0
  0
LINE
  5
1A8
330
1F
100
AcDbEntity
  8
0
  6
DASHED
 62
     4
100
AcDbLine
 10
1827.250385249869
 20
1727.543598463591
 30
0.0
 11
1828.982436057438
 21
1726.543598463591
 31
0.0
  0
LINE
  5
1A9
330
1F
100
AcDbEntity
  8
0
  6
DASHED
 62
     4
100
AcDbLine
 10
1799.975394502274
 20
1758.301928712788
 30
0.0
 11
1815.563851770393
 21
1749.301928712788
 31
0.0
  0
LINE
  5
1AA
330
1F
100
AcDbEntity
  8
0
  6
DASHED
 62
     4
100
AcDbLine
 10
1668.736647444069
 20
1825.989750886297
 30
0.0
 11
1796.475394502273
 21
1752.239750886296
 31
0.0
  0
LINE
  5
1AB
330
1F
100
AcDbEntity
  8
0
  6
DASHED
 62
     4
100
AcDbLine
 10
1664.161329896765
 20
1843.065068433603
 30
0.0
 11
1668.491456915686
 21
1840.565068433603
 31
0.0
  0
LINE
  5
1AC
330
1F
100
AcDbEntity
  8
0
  6
DASHED
 62
     4
100
AcDbLine
 10
1666.955730003854
 20
1829.904715395759
 30
0.0
 11
1669.98664744407
 21
1828.154814395759
 31
0.0
  0
LINE
  5
1AD
330
1F
100
AcDbEntity
  8
0
  6
DASHED
 62
     4
100
AcDbLine
 10
1597.596408592604
 20
1874.860048732972
 30
0.0
 11
1593.343399209146
 21
1872.404814395758
 31
0.0
  0
LINE
  5
1AE
330
1F
100
AcDbEntity
  8
0
  6
DASHED
 62
     4
100
AcDbLine
 10
1605.413484272393
 20
1874.96242697698
 30
0.0
 11
1664.161329896765
 21
1843.065068433603
 31
0.0
  0
LINE
  5
1AF
330
1F
100
AcDbEntity
  8
0
  6
DASHED
 62
     4
100
AcDbLine
 10
1574.714227745808
 20
1845.451314918345
 30
0.0
 11
1576.3429037322
 21
1845.887864475842
 31
0.0
  0
LINE
  5
1B0
330
1F
100
AcDbEntity
  8
1
  6
DASHED
 62
     4
100
AcDbLine
 10
1705.949460365171
 20
1826.444233558201
 30
0.0
 11
1696.44946036517
 21
1809.989750886297
 31
0.0
  0
LINE
  5
1B1
330
1F
100
AcDbEntity
  8
1
  6
DASHED
 62
     4
100
AcDbLine
 10
1604.526411911038
 20
1890.774360577123
 30
0.0
 11
1704.119333346248
 21
1833.274360577123
 31
0.0
  0
LINE
  5
1B2
330
1F
100
AcDbEntity
  8
1
  6
DASHED
 62
     4
100
AcDbLine
 10
1571.681325482825
 20
1843.885002104465
 30
0.0
 11
1597.696284892117
 21
1888.944233558201
 31
0.0
  0
LINE
  5
1B3
330
1F
100
AcDbEntity
  8
1
  6
DASH_CENTER
 62
     3
100
AcDbLine
 10
1677.399306217722
 20
1828.493916010897
 30
0.0
 11
1691.688725380165
 21
1820.243916010896
 31
0.0
  0
LINE
  5
1B4
330
1F
100
AcDbEntity
  8
1
  6
DASH_CENTER
 62
     3
100
AcDbLine
 10
1680.419015798945
 20
1817.224206429675
 30
0.0
 11
1688.669015798943
 21
1831.513625592118
 31
0.0
  0
LINE
  5
1B5
330
1F
100
AcDbEntity
  8
1
  6
DASHED
 62
     4
100
AcDbLine
 10
1595.223507723254
 20
1709.661257865936
 30
0.0
 11
1669.223507723255
 21
1837.833017626034
 31
0.0
  0
LINE
  5
1B6
330
1F
100
AcDbEntity
  8
1
  6
DASH_CENTER
 62
     3
100
AcDbLine
 10
1602.476729458344
 20
1862.224206429674
 30
0.0
 11
1610.726729458344
 21
1876.513625592117
 31
0.0
  0
LINE
  5
1B7
330
1F
100
AcDbEntity
  8
1
  6
DASH_CENTER
 62
     3
100
AcDbLine
 10
1599.457019877123
 20
1873.493916010897
 30
0.0
 11
1613.746439039565
 21
1865.243916010896
 31
0.0
  0
LINE
  5
1B8
330
1F
100
AcDbEntity
  8
1
  6
DASH_CENTER
 62
     3
100
AcDbLine
 10
1532.476729458344
 20
1740.980649899852
 30
0.0
 11
1540.726729458344
 21
1755.270069062296
 31
0.0
  0
LINE
  5
1B9
330
1F
100
AcDbEntity
  8
1
  6
DASH_CENTER
 62
     3
100
AcDbLine
 10
1543.746439039564
 20
1744.000359481073
 30
0.0
 11
1529.457019877122
 21
1752.250359481074
 31
0.0
  0
LINE
  5
1BA
330
1F
100
AcDbEntity
  8
1
  6
Continuous
 62
     7
100
AcDbLine
 10
1534.440278137659
 20
1799.230471488981
 30
0.0
 11
1532.246635670394
 21
1800.402997816028
 31
0.0
  0
LINE
  5
1BB
330
1F
100
AcDbEntity
  8
1
  6
Continuous
 62
     7
100
AcDbLine
 10
1521.241169506528
 20
1774.536676087228
 30
0.0
 11
1519.047527039264
 21
1775.709202414275
 31
0.0
  0
LINE
  5
1BC
330
1F
100
AcDbEntity
  8
1
  6
Continuous
 62
     7
100
AcDbLine
 10
1545.170505350938
 20
1812.941248517682
 30
0.0
 11
1841.015513477265
 21
1645.167502533369
 31
0.0
  0
LINE
  5
1BD
330
1F
100
AcDbEntity
  8
1
  6
Continuous
 62
     7
100
AcDbLine
 10
1819.663921509872
 20
1605.221483580162
 30
0.0
 11
1515.802469879341
 21
1757.997518637569
 31
0.0
  0
LINE
  5
1BE
330
1F
100
AcDbEntity
  8
1
  6
DASH_CENTER
 62
     3
100
AcDbLine
 10
1849.088243952391
 20
1615.173196881856
 30
0.0
 11
1466.334415225218
 21
1819.759380664365
 31
0.0
  0
LINE
  5
1BF
330
1F
100
AcDbEntity
  8
1
  6
Continuous
 62
     7
100
AcDbLine
 10
1545.170505350938
 20
1812.941248517682
 30
0.0
 11
1515.802469879341
 21
1757.997518637569
 31
0.0
  0
LINE
  5
1C0
330
1F
100
AcDbEntity
  8
1
  6
Continuous
 62
     7
100
AcDbLine
 10
1841.015513477265
 20
1645.167502533369
 30
0.0
 11
1819.663921509872
 21
1605.221483580162
 31
0.0
  0
LINE
  5
1C1
330
1F
100
AcDbEntity
  8
1
  6
Continuous
 62
     7
100
AcDbLine
 10
1576.048578354068
 20
1869.465892842366
 30
0.0
 11
1573.936319534605
 21
1870.779379782314
 31
0.0
  0
LINE
  5
1C2
330
1F
100
AcDbEntity
  8
1
  6
Continuous
 62
     7
100
AcDbLine
 10
1561.262678535854
 20
1845.688231759623
 30
0.0
 11
1559.150419716393
 21
1847.00171869957
 31
0.0
  0
LINE
  5
1C3
330
1F
100
AcDbEntity
  8
1
  6
Continuous
 62
     7
100
AcDbLine
 10
1587.652559049069
 20
1882.445523607891
 30
0.0
 11
1871.891212313485
 21
1695.681804793698
 31
0.0
  0
LINE
  5
1C4
330
1F
100
AcDbEntity
  8
1
  6
Continuous
 62
     7
100
AcDbLine
 10
1847.972741103646
 20
1657.217774262096
 30
0.0
 11
1554.753910930012
 21
1829.540193890194
 31
0.0
  0
LINE
  5
1C5
330
1F
100
AcDbEntity
  8
1
  6
DASH_CENTER
 62
     3
100
AcDbLine
 10
1877.984937004293
 20
1665.223737418487
 30
0.0
 11
1509.431190221775
 21
1894.405184600772
 31
0.0
  0
LINE
  5
1C6
330
1F
100
AcDbEntity
  8
1
  6
Continuous
 62
     7
100
AcDbLine
 10
1587.652559049069
 20
1882.445523607891
 30
0.0
 11
1554.753910930012
 21
1829.540193890194
 31
0.0
  0
LINE
  5
1C7
330
1F
100
AcDbEntity
  8
1
  6
Continuous
 62
     7
100
AcDbLine
 10
1871.891212313485
 20
1695.681804793698
 30
0.0
 11
1847.972741103646
 21
1657.217774262096
 31
0.0
  0
LINE
  5
1C8
330
1F
100
AcDbEntity
  8
1
  6
Continuous
 62
     7
100
AcDbLine
 10
1497.514680825234
 20
1726.424116527981
 30
0.0
 11
1495.249048223985
 21
1727.450661304386
 31
0.0
  0
LINE
  5
1C9
330
1F
100
AcDbEntity
  8
1
  6
Continuous
 62
     7
100
AcDbLine
 10
1485.958883990708
 20
1700.919929430189
 30
0.0
 11
1483.693251389459
 21
1701.946474206595
 31
0.0
  0
LINE
  5
1CA
330
1F
100
AcDbEntity
  8
1
  6
Continuous
 62
     7
100
AcDbLine
 10
1507.325206076529
 20
1740.807328167704
 30
0.0
 11
1813.509715321019
 21
1592.741987950669
 31
0.0
  0
LINE
  5
1CB
330
1F
100
AcDbEntity
  8
1
  6
Continuous
 62
     7
100
AcDbLine
 10
1794.816433390832
 20
1551.485035561641
 30
0.0
 11
1481.613541688942
 21
1684.060475611639
 31
0.0
  0
LINE
  5
1CC
330
1F
100
AcDbEntity
  8
1
  6
DASH_CENTER
 62
     3
100
AcDbLine
 10
1823.526882909216
 20
1563.339884244467
 30
0.0
 11
1428.211982893437
 21
1742.454735179602
 31
0.0
  0
LINE
  5
1CD
330
1F
100
AcDbEntity
  8
1
  6
Continuous
 62
     7
100
AcDbLine
 10
1507.325206076529
 20
1740.807328167704
 30
0.0
 11
1481.613541688942
 21
1684.060475611639
 31
0.0
  0
LINE
  5
1CE
330
1F
100
AcDbEntity
  8
1
  6
Continuous
 62
     7
100
AcDbLine
 10
1813.509715321019
 20
1592.741987950669
 30
0.0
 11
1794.816433390832
 21
1551.485035561641
 31
0.0
  0
LINE
  5
1CF
330
1F
100
AcDbEntity
  8
1
  6
Continuous
 62
     7
100
AcDbLine
 10
1789.491601895215
 20
1538.629755147561
 30
0.0
 11
1773.536677505304
 21
1496.238537926724
 31
0.0
  0
LINE
  5
1D0
330
1F
100
AcDbEntity
  8
1
  6
Continuous
 62
     7
100
AcDbLine
 10
1474.278720607449
 20
1666.352651079104
 30
0.0
 11
1452.333528598108
 21
1608.045674581666
 31
0.0
  0
LINE
  5
1D1
330
1F
100
AcDbEntity
  8
1
  6
DASH_CENTER
 62
     3
100
AcDbLine
 10
1801.410311547008
 20
1509.945757708631
 30
0.0
 11
1395.227139334339
 21
1662.822278506476
 31
0.0
  0
LINE
  5
1D2
330
1F
100
AcDbEntity
  8
1
  6
Continuous
 62
     7
100
AcDbLine
 10
1773.536677505304
 20
1496.238537926724
 30
0.0
 11
1452.333528598108
 21
1608.045674581666
 31
0.0
  0
LINE
  5
1D3
330
1F
100
AcDbEntity
  8
1
  6
Continuous
 62
     7
100
AcDbLine
 10
1474.278720607449
 20
1666.352651079104
 30
0.0
 11
1789.491601895215
 21
1538.629755147561
 31
0.0
  0
LINE
  5
1D4
330
1F
100
AcDbEntity
  8
1
  6
Continuous
 62
     7
100
AcDbLine
 10
1455.566906151606
 20
1625.153229999547
 30
0.0
 11
1453.238985202998
 21
1626.02939740298
 31
0.0
  0
LINE
  5
1D5
330
1F
100
AcDbEntity
  8
1
  6
Continuous
 62
     7
100
AcDbLine
 10
1465.429907493405
 20
1651.358595948751
 30
0.0
 11
1463.101986544794
 21
1652.234763352184
 31
0.0
  0
LINE
  5
1D6
330
1F
100
AcDbEntity
  8
1
  6
Continuous
 62
     7
100
AcDbLine
 10
1438.323350067321
 20
1574.355351834673
 30
0.0
 11
1435.943109286242
 21
1575.077389981799
 31
0.0
  0
LINE
  5
1D7
330
1F
100
AcDbEntity
  8
1
  6
Continuous
 62
     7
100
AcDbLine
 10
1430.195379104192
 20
1547.561022434171
 30
0.0
 11
1427.815138323116
 21
1548.283060581298
 31
0.0
  0
LINE
  5
1D8
330
1F
100
AcDbEntity
  8
1
  6
Continuous
 62
     7
100
AcDbLine
 10
1446.172559067866
 20
1589.896043609658
 30
0.0
 11
1769.064022448873
 21
1483.062521012363
 31
0.0
  0
LINE
  5
1D9
330
1F
100
AcDbEntity
  8
1
  6
Continuous
 62
     7
100
AcDbLine
 10
1755.915777034922
 20
1439.718564659873
 30
0.0
 11
1428.08781211804
 21
1530.278622595658
 31
0.0
  0
LINE
  5
1DA
330
1F
100
AcDbEntity
  8
1
  6
DASH_CENTER
 62
     3
100
AcDbLine
 10
1782.833236419743
 20
1455.219459121385
 30
0.0
 11
1367.521130711972
 21
1581.203009049851
 31
0.0
  0
LINE
  5
1DB
330
1F
100
AcDbEntity
  8
1
  6
Continuous
 62
     7
100
AcDbLine
 10
1446.172559067866
 20
1589.896043609658
 30
0.0
 11
1428.08781211804
 21
1530.278622595658
 31
0.0
  0
LINE
  5
1DC
330
1F
100
AcDbEntity
  8
1
  6
Continuous
 62
     7
100
AcDbLine
 10
1769.064022448873
 20
1483.062521012363
 30
0.0
 11
1755.915777034922
 21
1439.718564659873
 31
0.0
  0
LINE
  5
1DD
330
1F
100
AcDbEntity
  8
1
  6
Continuous
 62
     7
100
AcDbLine
 10
1752.314451013277
 20
1426.278232972477
 30
0.0
 11
1742.029187380701
 21
1382.167142963722
 31
0.0
  0
LINE
  5
1DE
330
1F
100
AcDbEntity
  8
1
  6
Continuous
 62
     7
100
AcDbLine
 10
1423.127076356424
 20
1511.764904690383
 30
0.0
 11
1408.980216128976
 21
1451.092330109237
 31
0.0
  0
LINE
  5
1DF
330
1F
100
AcDbEntity
  8
1
  6
DASH_CENTER
 62
     3
100
AcDbLine
 10
1767.875207415108
 20
1399.395334895015
 30
0.0
 11
1345.212598408751
 21
1497.946433051962
 31
0.0
  0
LINE
  5
1E0
330
1F
100
AcDbEntity
  8
1
  6
Continuous
 62
     7
100
AcDbLine
 10
1742.029187380701
 20
1382.167142963722
 30
0.0
 11
1408.980216128976
 21
1451.092330109237
 31
0.0
  0
LINE
  5
1E1
330
1F
100
AcDbEntity
  8
1
  6
Continuous
 62
     7
100
AcDbLine
 10
1423.127076356424
 20
1511.764904690383
 30
0.0
 11
1752.314451013277
 21
1426.278232972477
 31
0.0
  0
LINE
  5
1E2
330
1F
100
AcDbEntity
  8
1
  6
Continuous
 62
     7
100
AcDbLine
 10
1409.952947622386
 20
1468.47556847903
 30
0.0
 11
1407.530579565285
 21
1469.040385491656
 31
0.0
  0
LINE
  5
1E3
330
1F
100
AcDbEntity
  8
1
  6
Continuous
 62
     7
100
AcDbLine
 10
1416.311082987352
 20
1495.744123898797
 30
0.0
 11
1413.88871493025
 21
1496.308940911421
 31
0.0
  0
LINE
  5
1E4
330
1F
100
AcDbEntity
  8
1
  6
Continuous
 62
     7
100
AcDbLine
 10
1739.314611824806
 20
1368.52005006694
 30
0.0
 11
1731.936373051506
 21
1323.830716861396
 31
0.0
  0
LINE
  5
1E5
330
1F
100
AcDbEntity
  8
1
  6
Continuous
 62
     7
100
AcDbLine
 10
1405.240956768158
 20
1432.293803853009
 30
0.0
 11
1395.092562290445
 21
1370.825884983696
 31
0.0
  0
LINE
  5
1E6
330
1F
100
AcDbEntity
  8
1
  6
DASH_CENTER
 62
     3
100
AcDbLine
 10
1756.600277109757
 20
1342.712432499698
 30
0.0
 11
1328.397070984925
 21
1413.40906795298
 31
0.0
  0
LINE
  5
1E7
330
1F
100
AcDbEntity
  8
1
  6
Continuous
 62
     7
100
AcDbLine
 10
1731.936373051506
 20
1323.830716861396
 30
0.0
 11
1395.092562290445
 21
1370.825884983696
 31
0.0
  0
LINE
  5
1E8
330
1F
100
AcDbEntity
  8
1
  6
Continuous
 62
     7
100
AcDbLine
 10
1405.240956768158
 20
1432.293803853009
 30
0.0
 11
1739.314611824806
 21
1368.52005006694
 31
0.0
  0
LINE
  5
1E9
330
1F
100
AcDbEntity
  8
1
  6
DASHED
 62
     4
100
AcDbLine
 10
1379.548562662572
 20
1381.652560375449
 30
0.0
 11
1375.799318000651
 21
1382.271563174349
 31
0.0
  0
LINE
  5
1EA
330
1F
100
AcDbEntity
  8
1
  6
DOT_CENTER
 62
     3
100
AcDbLine
 10
1381.894197433056
 20
1383.748461342297
 30
0.0
 11
1374.441267602645
 21
1384.978945037287
 31
0.0
  0
LINE
  5
1EB
330
1F
100
AcDbEntity
  8
1
  6
DASHED
 62
     4
100
AcDbLine
 10
1356.855766024622
 20
1385.399156263527
 30
0.0
 11
1353.106521362699
 21
1386.018159062426
 31
0.0
  0
LINE
  5
1EC
330
1F
100
AcDbEntity
  8
1
  6
DOT_CENTER
 62
     3
100
AcDbLine
 10
1359.201400795103
 20
1387.495057230374
 30
0.0
 11
1351.748470964693
 21
1388.725540925365
 31
0.0
  0
LINE
  5
1ED
330
1F
100
AcDbEntity
  8
1
  6
DASHED
 62
     4
100
AcDbLine
 10
1383.292509776803
 20
1427.657156450253
 30
0.0
 11
1387.041754438727
 21
1427.038153651353
 31
0.0
  0
LINE
  5
1EE
330
1F
100
AcDbEntity
  8
1
  6
DOT_CENTER
 62
     3
100
AcDbLine
 10
1381.136271559165
 20
1425.529985985976
 30
0.0
 11
1388.589201389576
 21
1424.299502290986
 31
0.0
  0
LINE
  5
1EF
330
1F
100
AcDbEntity
  8
1
  6
DASHED
 62
     4
100
AcDbLine
 10
1353.067817113963
 20
1392.536527491805
 30
0.0
 11
1358.467802056999
 21
1425.243753950419
 31
0.0
  0
LINE
  5
1F0
330
1F
100
AcDbEntity
  8
1
  6
DASHED
 62
     4
100
AcDbLine
 10
1360.599713138852
 20
1431.403752338329
 30
0.0
 11
1364.348957800774
 21
1430.784749539429
 31
0.0
  0
LINE
  5
1F1
330
1F
100
AcDbEntity
  8
1
  6
DOT_CENTER
 62
     3
100
AcDbLine
 10
1358.443474921215
 20
1429.276581874054
 30
0.0
 11
1365.896404751623
 21
1428.046098179063
 31
0.0
  0
LINE
  5
1F2
330
1F
100
AcDbEntity
  8
1
  6
Continuous
 62
     7
100
AcDbLine
 10
1394.92629290552
 20
1388.235524189348
 30
0.0
 11
1392.472170524306
 21
1388.640701434312
 31
0.0
  0
LINE
  5
1F3
330
1F
100
AcDbEntity
  8
1
  6
Continuous
 62
     7
100
AcDbLine
 10
1399.487366160573
 20
1415.861537487725
 30
0.0
 11
1397.033243779359
 21
1416.266714732688
 31
0.0
  0
LINE
  5
1F4
330
1F
100
AcDbEntity
  8
1
  6
DASH_CENTER
 62
     3
100
AcDbLine
 10
1362.889718926972
 20
1433.610191435696
 30
0.0
 11
1361.260764193024
 21
1423.743758114847
 31
0.0
  0
LINE
  5
1F5
330
1F
100
AcDbEntity
  8
1
  6
DASH_CENTER
 62
     3
100
AcDbLine
 10
1383.953560830976
 20
1419.99716222677
 30
0.0
 11
1385.582515564923
 21
1429.863595547619
 31
0.0
  0
LINE
  5
1F6
330
1F
100
AcDbEntity
  8
1
  6
DASH_CENTER
 62
     3
100
AcDbLine
 10
1356.19471497045
 20
1393.059150487009
 30
0.0
 11
1354.565760236503
 21
1383.192717166159
 31
0.0
  0
LINE
  5
1F7
330
1F
100
AcDbEntity
  8
1
  6
DASH_CENTER
 62
     3
100
AcDbLine
 10
1377.258556874454
 20
1379.446121278083
 30
0.0
 11
1378.887511608401
 21
1389.312554598931
 31
0.0
  0
LINE
  5
1F8
330
1F
100
AcDbEntity
  8
1
  6
DASHED
 62
     4
100
AcDbLine
 10
1358.987677106474
 20
1391.559154651438
 30
0.0
 11
1364.387662049507
 21
1424.26638111005
 31
0.0
  0
LINE
  5
1F9
330
1F
100
AcDbEntity
  8
1
  6
DASHED
 62
     4
100
AcDbLine
 10
1375.760613751918
 20
1388.789931603729
 30
0.0
 11
1381.16059869495
 21
1421.497158062342
 31
0.0
  0
LINE
  5
1FA
330
1F
100
AcDbEntity
  8
1
  6
DASHED
 62
     4
100
AcDbLine
 10
1387.08045868746
 20
1420.519785221973
 30
0.0
 11
1381.680473744425
 21
1387.81255876336
 31
0.0
  0
LINE
  5
1FB
330
1F
100
AcDbEntity
  8
1
  6
Continuous
 62
     7
100
AcDbLine
 10
1730.120172190551
 20
1310.035301702216
 30
0.0
 11
1725.680553027678
 21
1264.959091885499
 31
0.0
  0
LINE
  5
1FC
330
1F
100
AcDbEntity
  8
1
  6
Continuous
 62
     7
100
AcDbLine
 10
1392.590791412978
 20
1351.82304855201
 30
0.0
 11
1386.484319668165
 21
1289.823000459855
 31
0.0
  0
LINE
  5
1FD
330
1F
100
AcDbEntity
  8
1
  6
DASH_CENTER
 62
     3
100
AcDbLine
 10
1749.056726486127
 20
1285.413476825675
 30
0.0
 11
1317.146555110397
 21
1327.952915728735
 31
0.0
  0
LINE
  5
1FE
330
1F
100
AcDbEntity
  8
1
  6
Continuous
 62
     7
100
AcDbLine
 10
1725.680553027678
 20
1264.959091885499
 30
0.0
 11
1386.484319668165
 21
1289.823000459855
 31
0.0
  0
LINE
  5
1FF
330
1F
100
AcDbEntity
  8
1
  6
Continuous
 62
     7
100
AcDbLine
 10
1392.590791412978
 20
1351.82304855201
 30
0.0
 11
1730.120172190551
 21
1310.035301702216
 31
0.0
  0
LINE
  5
200
330
1F
100
AcDbEntity
  8
1
  6
DASHED
 62
     4
100
AcDbLine
 10
1370.265502486896
 20
1299.609868892109
 30
0.0
 11
1366.483800525541
 21
1299.982334025362
 31
0.0
  0
LINE
  5
201
330
1F
100
AcDbEntity
  8
1
  6
DOT_CENTER
 62
     3
100
AcDbLine
 10
1372.46903659149
 20
1301.854694228124
 30
0.0
 11
1364.951586571826
 21
1302.595098430227
 31
0.0
  0
LINE
  5
202
330
1F
100
AcDbEntity
  8
1
  6
DASHED
 62
     4
100
AcDbLine
 10
1347.376253773435
 20
1301.864263119691
 30
0.0
 11
1343.594551812081
 21
1302.236728252944
 31
0.0
  0
LINE
  5
203
330
1F
100
AcDbEntity
  8
1
  6
DOT_CENTER
 62
     3
100
AcDbLine
 10
1349.57978787803
 20
1304.109088455705
 30
0.0
 11
1342.062337858366
 21
1304.84949265781
 31
0.0
  0
LINE
  5
204
330
1F
100
AcDbEntity
  8
1
  6
DASHED
 62
     4
100
AcDbLine
 10
1370.992588980702
 20
1345.760831452282
 30
0.0
 11
1374.774290942058
 21
1345.388366319029
 31
0.0
  0
LINE
  5
205
330
1F
100
AcDbEntity
  8
1
  6
DOT_CENTER
 62
     3
100
AcDbLine
 10
1368.980091039375
 20
1343.497190696455
 30
0.0
 11
1376.497541059039
 21
1342.756786494351
 31
0.0
  0
LINE
  5
206
330
1F
100
AcDbEntity
  8
1
  6
DASHED
 62
     4
100
AcDbLine
 10
1343.129608739357
 20
1308.738608976174
 30
0.0
 11
1346.378876941285
 21
1341.728982665358
 31
0.0
  0
LINE
  5
207
330
1F
100
AcDbEntity
  8
1
  6
DASHED
 62
     4
100
AcDbLine
 10
1348.103340267242
 20
1348.015225679864
 30
0.0
 11
1351.885042228597
 21
1347.642760546611
 31
0.0
  0
LINE
  5
208
330
1F
100
AcDbEntity
  8
1
  6
DOT_CENTER
 62
     3
100
AcDbLine
 10
1346.090842325914
 20
1345.751584924037
 30
0.0
 11
1353.608292345578
 21
1345.011180721933
 31
0.0
  0
LINE
  5
209
330
1F
100
AcDbEntity
  8
1
  6
Continuous
 62
     7
100
AcDbLine
 10
1385.179761395938
 20
1307.18448975351
 30
0.0
 11
1382.704393619411
 21
1307.428292199646
 31
0.0
  0
LINE
  5
20A
330
1F
100
AcDbEntity
  8
1
  6
Continuous
 62
     7
100
AcDbLine
 10
1387.92424132517
 20
1335.049662100333
 30
0.0
 11
1385.448873548643
 21
1335.293464546467
 31
0.0
  0
LINE
  5
20B
330
1F
100
AcDbEntity
  8
1
  6
DASH_CENTER
 62
     3
100
AcDbLine
 10
1350.244134955762
 20
1350.366714166252
 30
0.0
 11
1349.263963552463
 21
1340.414866899529
 31
0.0
  0
LINE
  5
20C
330
1F
100
AcDbEntity
  8
1
  6
DASH_CENTER
 62
     3
100
AcDbLine
 10
1372.153212265925
 20
1338.160472671947
 30
0.0
 11
1373.133383669222
 21
1348.11231993867
 31
0.0
  0
LINE
  5
20D
330
1F
100
AcDbEntity
  8
1
  6
DASH_CENTER
 62
     3
100
AcDbLine
 10
1346.215630488212
 20
1309.464621900025
 30
0.0
 11
1345.235459084916
 21
1299.512774633302
 31
0.0
  0
LINE
  5
20E
330
1F
100
AcDbEntity
  8
1
  6
DASH_CENTER
 62
     3
100
AcDbLine
 10
1368.124707798377
 20
1297.258380405722
 30
0.0
 11
1369.104879201674
 21
1307.210227672443
 31
0.0
  0
LINE
  5
20F
330
1F
100
AcDbEntity
  8
1
  6
DASHED
 62
     4
100
AcDbLine
 10
1349.10071709939
 20
1308.150506134197
 30
0.0
 11
1352.349985301318
 21
1341.140879823379
 31
0.0
  0
LINE
  5
210
330
1F
100
AcDbEntity
  8
1
  6
DASHED
 62
     4
100
AcDbLine
 10
1366.01885745282
 20
1306.484214748594
 30
0.0
 11
1369.268125654745
 21
1339.474588437776
 31
0.0
  0
LINE
  5
211
330
1F
100
AcDbEntity
  8
1
  6
DASHED
 62
     4
100
AcDbLine
 10
1375.239234014779
 20
1338.886485595797
 30
0.0
 11
1371.989965812852
 21
1305.896111906615
 31
0.0
  0
LINE
  5
212
330
1F
100
AcDbEntity
  8
1
  6
DASHED
 62
     4
100
AcDbLine
 10
1383.27146118873
 20
1210.847137745967
 30
0.0
 11
1383.192350078646
 21
1208.430543325005
 31
0.0
  0
LINE
  5
213
330
1F
100
AcDbEntity
  8
1
  6
DASHED
 62
     4
100
AcDbLine
 10
1677.979516994541
 20
1206.154235513345
 30
0.0
 11
1383.192350078646
 21
1208.430543325005
 31
0.0
  0
LINE
  5
214
330
1F
100
AcDbEntity
  8
1
  6
DASHED
 62
     4
100
AcDbLine
 10
1368.762435558006
 20
1256.653515982897
 30
0.0
 11
1367.67779796246
 21
1223.521264908057
 31
0.0
  0
LINE
  5
215
330
1F
100
AcDbEntity
  8
1
  6
DASHED
 62
     4
100
AcDbLine
 10
1361.681010437604
 20
1223.717579404989
 30
0.0
 11
1362.765648033148
 21
1256.84983047983
 31
0.0
  0
LINE
  5
216
330
1F
100
AcDbEntity
  8
1
  6
DASHED
 62
     4
100
AcDbLine
 10
1344.690112450503
 20
1224.27380381296
 30
0.0
 11
1345.774750046047
 21
1257.4060548878
 31
0.0
  0
LINE
  5
217
330
1F
100
AcDbEntity
  8
1
  6
DASH_CENTER
 62
     3
100
AcDbLine
 10
1364.385750431706
 20
1214.649227483922
 30
0.0
 11
1364.712941259924
 21
1224.643873358685
 31
0.0
  0
LINE
  5
218
330
1F
100
AcDbEntity
  8
1
  6
DASH_CENTER
 62
     3
100
AcDbLine
 10
1341.725255747967
 20
1225.396412263589
 30
0.0
 11
1341.39806491975
 21
1215.401766388823
 31
0.0
  0
LINE
  5
219
330
1F
100
AcDbEntity
  8
1
  6
DASH_CENTER
 62
     3
100
AcDbLine
 10
1365.730504735684
 20
1255.7272220292
 30
0.0
 11
1366.057695563903
 21
1265.721867903964
 31
0.0
  0
LINE
  5
21A
330
1F
100
AcDbEntity
  8
1
  6
DASH_CENTER
 62
     3
100
AcDbLine
 10
1343.070010051948
 20
1266.474406808867
 30
0.0
 11
1342.742819223728
 21
1256.479760934102
 31
0.0
  0
LINE
  5
21B
330
1F
100
AcDbEntity
  8
1
  6
Continuous
 62
     7
100
AcDbLine
 10
1381.671223556933
 20
1253.654546593463
 30
0.0
 11
1379.185210289937
 21
1253.735930241265
 31
0.0
  0
LINE
  5
21C
330
1F
100
AcDbEntity
  8
1
  6
Continuous
 62
     7
100
AcDbLine
 10
1380.75508923792
 20
1225.669538144124
 30
0.0
 11
1378.269075970924
 21
1225.750921791927
 31
0.0
  0
LINE
  5
21D
330
1F
100
AcDbEntity
  8
1
  6
DOT_CENTER
 62
     3
100
AcDbLine
 10
1339.227453834676
 20
1261.597520578023
 30
0.0
 11
1346.77723316851
 21
1261.350366393267
 31
0.0
  0
LINE
  5
21E
330
1F
100
AcDbEntity
  8
1
  6
DASHED
 62
     4
100
AcDbLine
 10
1341.087593674545
 20
1263.987938368163
 30
0.0
 11
1344.885559106956
 21
1263.86360585344
 31
0.0
  0
LINE
  5
21F
330
1F
100
AcDbEntity
  8
1
  6
DASHED
 62
     4
100
AcDbLine
 10
1338.693324925645
 20
1224.47011830989
 30
0.0
 11
1339.777962521191
 21
1257.602369384733
 31
0.0
  0
LINE
  5
220
330
1F
100
AcDbEntity
  8
1
  6
DOT_CENTER
 62
     3
100
AcDbLine
 10
1362.215139346631
 20
1260.84498167312
 30
0.0
 11
1369.764918680467
 21
1260.597827488365
 31
0.0
  0
LINE
  5
221
330
1F
100
AcDbEntity
  8
1
  6
DASHED
 62
     4
100
AcDbLine
 10
1364.075279186502
 20
1263.235399463261
 30
0.0
 11
1367.873244618912
 21
1263.111066948537
 31
0.0
  0
LINE
  5
222
330
1F
100
AcDbEntity
  8
1
  6
DOT_CENTER
 62
     3
100
AcDbLine
 10
1345.432478864533
 20
1220.272371847988
 30
0.0
 11
1337.882699530696
 21
1220.519526032744
 31
0.0
  0
LINE
  5
223
330
1F
100
AcDbEntity
  8
1
  6
DASHED
 62
     4
100
AcDbLine
 10
1343.380481297151
 20
1217.888234829528
 30
0.0
 11
1339.58251586474
 21
1218.012567344251
 31
0.0
  0
LINE
  5
224
330
1F
100
AcDbEntity
  8
1
  6
DOT_CENTER
 62
     3
100
AcDbLine
 10
1368.420164376489
 20
1219.519832943085
 30
0.0
 11
1360.870385042654
 21
1219.766987127841
 31
0.0
  0
LINE
  5
225
330
1F
100
AcDbEntity
  8
1
  6
DASHED
 62
     4
100
AcDbLine
 10
1366.368166809108
 20
1217.135695924625
 30
0.0
 11
1362.570201376696
 21
1217.260028439349
 31
0.0
  0
LINE
  5
226
330
1F
100
AcDbEntity
  8
1
  6
Continuous
 62
     7
100
AcDbLine
 10
1385.230750241065
 20
1270.69722691565
 30
0.0
 11
1724.770504112621
 21
1251.074428549514
 31
0.0
  0
LINE
  5
227
330
1F
100
AcDbEntity
  8
1
  6
Continuous
 62
     7
100
AcDbLine
 10
1723.288515691016
 20
1205.804365372286
 30
0.0
 11
1677.979516994541
 21
1206.154235513345
 31
0.0
  0
LINE
  5
228
330
1F
100
AcDbEntity
  8
1
  6
DASH_CENTER
 62
     3
100
AcDbLine
 10
1745.276858186137
 20
1227.743830797807
 30
0.0
 11
1311.509227221396
 21
1241.943912742488
 31
0.0
  0
LINE
  5
229
330
1F
100
AcDbEntity
  8
1
  6
Continuous
 62
     7
100
AcDbLine
 10
1385.230750241065
 20
1270.69722691565
 30
0.0
 11
1383.27146118873
 21
1210.847137745967
 31
0.0
  0
LINE
  5
22A
330
1F
100
AcDbEntity
  8
1
  6
Continuous
 62
     7
100
AcDbLine
 10
1724.770504112621
 20
1251.074428549514
 30
0.0
 11
1723.288515691016
 21
1205.804365372286
 31
0.0
  0
LINE
  5
22B
330
1F
100
AcDbEntity
  8
1
  6
Continuous
 62
     7
100
AcDbLine
 10
1384.536530503824
 20
559.4177940533109
 30
0.0
 11
1724.217896657724
 21
576.4124840422469
 31
0.0
  0
LINE
  5
22C
330
1F
100
AcDbEntity
  8
1
  6
Continuous
 62
     7
100
AcDbLine
 10
1723.085750398167
 20
621.6983344245351
 30
0.0
 11
1382.979516994544
 21
621.6983344245369
 31
0.0
  0
LINE
  5
22D
330
1F
100
AcDbEntity
  8
1
  6
Continuous
 62
     7
100
AcDbLine
 10
1723.085750398167
 20
621.6983344245351
 30
0.0
 11
1724.217896657724
 21
576.4124840422469
 31
0.0
  0
LINE
  5
22E
330
1F
100
AcDbEntity
  8
1
  6
Continuous
 62
     7
100
AcDbLine
 10
1382.979516994544
 20
621.6983344245369
 30
0.0
 11
1384.536530503824
 21
559.4177940533109
 31
0.0
  0
LINE
  5
22F
330
1F
100
AcDbEntity
  8
1
  6
Continuous
 62
     7
100
AcDbLine
 10
1338.988262114353
 20
580.786117495284
 30
0.0
 11
1339.111348655817
 21
575.8626558367239
 31
0.0
  0
LINE
  5
230
330
1F
100
AcDbEntity
  8
1
  6
DASH_CENTER
 62
     3
100
AcDbLine
 10
1364.375329894888
 20
605.6283555085249
 30
0.0
 11
1364.125407983287
 21
615.6252319726069
 31
0.0
  0
LINE
  5
231
330
1F
100
AcDbEntity
  8
1
  6
DASH_CENTER
 62
     3
100
AcDbLine
 10
1341.1325921159
 20
615.0504115759229
 30
0.0
 11
1341.382514027503
 21
605.0535351118399
 31
0.0
  0
LINE
  5
232
330
1F
100
AcDbEntity
  8
1
  6
DASH_CENTER
 62
     3
100
AcDbLine
 10
1365.402508951572
 20
564.541193241151
 30
0.0
 11
1365.152587039971
 21
574.5380697052349
 31
0.0
  0
LINE
  5
233
330
1F
100
AcDbEntity
  8
1
  6
DASH_CENTER
 62
     3
100
AcDbLine
 10
1342.159771172584
 20
573.9632493085489
 30
0.0
 11
1342.409693084187
 21
563.9663728444659
 31
0.0
  0
LINE
  5
234
330
1F
100
AcDbEntity
  8
1
  6
Continuous
 62
     7
100
AcDbLine
 10
1379.109476193386
 20
576.4374762334089
 30
0.0
 11
1381.108851486202
 21
576.4874606157289
 31
0.0
  0
LINE
  5
235
330
1F
100
AcDbEntity
  8
1
  6
Continuous
 62
     7
100
AcDbLine
 10
1378.409694840901
 20
604.4287303328349
 30
0.0
 11
1380.409070133715
 21
604.4787147151569
 31
0.0
  0
LINE
  5
236
330
1F
100
AcDbEntity
  8
1
  6
Continuous
 62
     7
100
AcDbLine
 10
1384.232875381229
 20
571.5639989571689
 30
0.0
 11
1384.182890998907
 21
573.5633742499849
 31
0.0
  0
LINE
  5
237
330
1F
100
AcDbEntity
  8
1
  6
Continuous
 62
     7
100
AcDbLine
 10
1383.283172117139
 20
609.5521295206779
 30
0.0
 11
1383.333156499461
 21
607.5527542278619
 31
0.0
  0
LINE
  5
238
330
1F
100
AcDbEntity
  8
1
  6
Continuous
 62
     7
100
AcDbLine
 10
1384.320348050288
 20
568.0650921947411
 30
0.0
 11
1384.232875381229
 21
571.5639989571689
 31
0.0
  0
LINE
  5
239
330
1F
100
AcDbEntity
  8
1
  6
Continuous
 62
     7
100
AcDbLine
 10
1383.195699448077
 20
613.051036283106
 30
0.0
 11
1383.283172117139
 21
609.5521295206779
 31
0.0
  0
LINE
  5
23A
330
1F
100
AcDbEntity
  8
1
  6
Continuous
 62
     7
100
AcDbLine
 10
1367.912974553613
 20
604.166312325654
 30
0.0
 11
1378.409694840901
 21
604.4287303328349
 31
0.0
  0
LINE
  5
23B
330
1F
100
AcDbEntity
  8
1
  6
Continuous
 62
     7
100
AcDbLine
 10
1368.612755906101
 20
576.175058226225
 30
0.0
 11
1379.109476193386
 21
576.4374762334089
 31
0.0
  0
LINE
  5
23C
330
1F
100
AcDbEntity
  8
1
  6
Continuous
 62
     7
100
AcDbLine
 10
1345.184451107747
 20
573.0135460444599
 30
0.0
 11
1339.186325229297
 21
572.8635928974979
 31
0.0
  0
LINE
  5
23D
330
1F
100
AcDbEntity
  8
1
  6
Continuous
 62
     7
100
AcDbLine
 10
1368.177266975134
 20
573.588366441146
 30
0.0
 11
1362.179141096684
 21
573.4384132941839
 31
0.0
  0
LINE
  5
23E
330
1F
100
AcDbEntity
  8
1
  6
Continuous
 62
     7
100
AcDbLine
 10
1361.350649959727
 20
606.5780587726119
 30
0.0
 11
1367.348775838173
 21
606.7280119195739
 31
0.0
  0
LINE
  5
23F
330
1F
100
AcDbEntity
  8
1
  6
Continuous
 62
     7
100
AcDbLine
 10
1338.357834092336
 20
606.003238375929
 30
0.0
 11
1344.355959970786
 21
606.1531915228889
 31
0.0
  0
LINE
  5
240
330
1F
100
AcDbEntity
  8
1
  6
Continuous
 62
     7
100
AcDbLine
 10
1361.614942381244
 20
576.0001128881049
 30
0.0
 11
1345.619940038715
 21
575.6002378295409
 31
0.0
  0
LINE
  5
241
330
1F
100
AcDbEntity
  8
1
  6
Continuous
 62
     7
100
AcDbLine
 10
1368.125408178476
 20
575.662718307442
 30
0.0
 11
1368.177266975134
 21
573.588366441146
 31
0.0
  0
LINE
  5
242
330
1F
100
AcDbEntity
  8
1
  6
Continuous
 62
     7
100
AcDbLine
 10
1362.12728230003
 20
575.5127651604801
 30
0.0
 11
1362.179141096684
 21
573.4384132941839
 31
0.0
  0
LINE
  5
243
330
1F
100
AcDbEntity
  8
1
  6
Continuous
 62
     7
100
AcDbLine
 10
1345.132592311089
 20
575.0878979107579
 30
0.0
 11
1345.184451107747
 21
573.0135460444599
 31
0.0
  0
LINE
  5
244
330
1F
100
AcDbEntity
  8
1
  6
DOT_CENTER
 62
     3
100
AcDbLine
 10
1346.156414542239
 20
569.0616031368529
 30
0.0
 11
1338.604950260547
 21
568.8728165298119
 31
0.0
  0
LINE
  5
245
330
1F
100
AcDbEntity
  8
1
  6
Continuous
 62
     7
100
AcDbLine
 10
1384.314100002498
 20
568.3150141063429
 30
0.0
 11
1384.320348050288
 21
568.0650921947411
 31
0.0
  0
LINE
  5
246
330
1F
100
AcDbEntity
  8
1
  6
Continuous
 62
     7
100
AcDbLine
 10
1344.245369524903
 20
566.563061506012
 30
0.0
 11
1340.446556468552
 21
566.468091179604
 31
0.0
  0
LINE
  5
247
330
1F
100
AcDbEntity
  8
1
  6
Continuous
 62
     7
100
AcDbLine
 10
1339.186325229297
 20
572.8635928974979
 30
0.0
 11
1339.111348655817
 21
575.8626558367239
 31
0.0
  0
LINE
  5
248
330
1F
100
AcDbEntity
  8
1
  6
DOT_CENTER
 62
     3
100
AcDbLine
 10
1369.149230409626
 20
569.6364235335379
 30
0.0
 11
1361.597766127934
 21
569.4476369264969
 31
0.0
  0
LINE
  5
249
330
1F
100
AcDbEntity
  8
1
  6
Continuous
 62
     7
100
AcDbLine
 10
1367.238185392288
 20
567.1378819026959
 30
0.0
 11
1363.439372335939
 21
567.0429115762879
 31
0.0
  0
LINE
  5
24A
330
1F
100
AcDbEntity
  8
1
  6
Continuous
 62
     7
100
AcDbLine
 10
1344.92015868623
 20
603.5914919289689
 30
0.0
 11
1360.91516102876
 21
603.991366987533
 31
0.0
  0
LINE
  5
24B
330
1F
100
AcDbEntity
  8
1
  6
Continuous
 62
     7
100
AcDbLine
 10
1367.348775838173
 20
606.7280119195739
 30
0.0
 11
1367.400634634829
 21
604.653660053277
 31
0.0
  0
LINE
  5
24C
330
1F
100
AcDbEntity
  8
1
  6
Continuous
 62
     7
100
AcDbLine
 10
1361.350649959727
 20
606.5780587726119
 30
0.0
 11
1361.402508756381
 21
604.5037069063169
 31
0.0
  0
LINE
  5
24D
330
1F
100
AcDbEntity
  8
1
  6
Continuous
 62
     7
100
AcDbLine
 10
1344.355959970786
 20
606.1531915228889
 30
0.0
 11
1344.407818767445
 21
604.0788396565929
 31
0.0
  0
LINE
  5
24E
330
1F
100
AcDbEntity
  8
1
  6
DOT_CENTER
 62
     3
100
AcDbLine
 10
1337.577771203863
 20
609.9599787971849
 30
0.0
 11
1345.129235485555
 21
610.1487654042279
 31
0.0
  0
LINE
  5
24F
330
1F
100
AcDbEntity
  8
1
  6
Continuous
 62
     7
100
AcDbLine
 10
1339.296915675182
 20
612.4537229143759
 30
0.0
 11
1343.095728731535
 21
612.5486932407849
 31
0.0
  0
LINE
  5
250
330
1F
100
AcDbEntity
  8
1
  6
Continuous
 62
     7
100
AcDbLine
 10
1338.432810665819
 20
603.0041754367051
 30
0.0
 11
1338.357834092336
 21
606.003238375929
 31
0.0
  0
LINE
  5
251
330
1F
100
AcDbEntity
  8
1
  6
DOT_CENTER
 62
     3
100
AcDbLine
 10
1360.57058707125
 20
610.534799193871
 30
0.0
 11
1368.12205135294
 21
610.7235858009119
 31
0.0
  0
LINE
  5
252
330
1F
100
AcDbEntity
  8
1
  6
Continuous
 62
     7
100
AcDbLine
 10
1362.289731542568
 20
613.028543311062
 30
0.0
 11
1366.08854459892
 21
613.12351363747
 31
0.0
  0
LINE
  5
253
330
1F
100
AcDbEntity
  8
1
  6
Continuous
 62
     7
100
AcDbLine
 10
1338.432810665819
 20
603.0041754367051
 30
0.0
 11
1338.988262114353
 21
580.786117495284
 31
0.0
  0
LINE
  5
254
330
1F
100
AcDbEntity
  8
1
  6
Continuous
 62
     7
100
AcDbLine
 10
1345.132592311089
 20
575.0878979107579
 30
0.0
 11
1344.407818767445
 21
604.0788396565929
 31
0.0
  0
LINE
  5
255
330
1F
100
AcDbEntity
  8
1
  6
Continuous
 62
     7
100
AcDbLine
 10
1362.12728230003
 20
575.5127651604801
 30
0.0
 11
1361.402508756386
 21
604.503706906316
 31
0.0
  0
LINE
  5
256
330
1F
100
AcDbEntity
  8
1
  6
Continuous
 62
     7
100
AcDbLine
 10
1368.125408178476
 20
575.662718307442
 30
0.0
 11
1367.400634634829
 21
604.653660053277
 31
0.0
  0
ARC
  5
257
330
1F
100
AcDbEntity
  8
1
  6
Continuous
 62
     7
100
AcDbCircle
 10
930.972064592171
 20
2002.343919517913
 30
0.0
 40
4.344898672319377
100
AcDbArc
 50
-154.3842474680442
 51
-85.61575253195932
  0
ARC
  5
258
330
1F
100
AcDbEntity
  8
1
  6
Continuous
 62
     7
100
AcDbCircle
 10
943.2950205667352
 20
2008.965473500958
 30
0.0
 40
16.24081062144826
100
AcDbArc
 50
-137.5879537739888
 51
-102.4120462260094
  0
ARC
  5
259
330
1F
100
AcDbEntity
  8
1
  6
Continuous
 62
     7
100
AcDbCircle
 10
943.7220645921719
 20
1994.982703585747
 30
0.0
 40
4.344898672320791
100
AcDbArc
 50
-154.3842474680365
 51
-85.61575253197333
  0
ARC
  5
25A
330
1F
100
AcDbEntity
  8
1
  6
Continuous
 62
     7
100
AcDbCircle
 10
2627.979516994636
 20
1198.847137745974
 30
0.0
 40
900.0000000000467
100
AcDbArc
 50
120.0000000000027
 51
-179.9999999999996
  0
ARC
  5
25B
330
1F
100
AcDbEntity
  8
1
  6
DASHED
 62
     4
100
AcDbCircle
 10
2627.979516994627
 20
1198.847137745983
 30
0.0
 40
1300.0
100
AcDbArc
 50
120.0000000000024
 51
-179.9999999999996
  0
ARC
  5
25C
330
1F
100
AcDbEntity
  8
1
  6
Continuous
 62
     7
100
AcDbCircle
 10
2627.979516994636
 20
1198.847137745974
 30
0.0
 40
870.0000000000447
100
AcDbArc
 50
120.3274062361823
 51
179.6725937638208
  0
ARC
  5
25D
330
1F
100
AcDbEntity
  8
1
  6
Continuous
 62
     7
100
AcDbCircle
 10
2627.979516994627
 20
1198.847137745983
 30
0.0
 40
1330.000000000043
100
AcDbArc
 50
120.2162110018713
 51
179.783788998131
  0
ARC
  5
25E
330
1F
100
AcDbEntity
  8
1
  6
Continuous
 62
     4
100
AcDbCircle
 10
2627.979516994561
 20
1198.847137745868
 30
0.0
 40
1420.000000000001
100
AcDbArc
 50
165.9061741032133
 51
173.4753939437278
  0
ARC
  5
25F
330
1F
100
AcDbEntity
  8
1
  6
Continuous
 62
     4
100
AcDbCircle
 10
2627.979516994561
 20
1198.847137745868
 30
0.0
 40
1480.000000000001
100
AcDbArc
 50
165.9061741032133
 51
173.4753939437279
  0
ARC
  5
260
330
1F
100
AcDbEntity
  8
1
  6
DASH_CENTER
 62
     3
100
AcDbCircle
 10
2627.979516994516
 20
1198.84713774596
 30
0.0
 40
1100.000000000002
100
AcDbArc
 50
120.0000000000009
 51
144.3750000000002
  0
ARC
  5
261
330
1F
100
AcDbEntity
  8
1
  6
DASH_CENTER
 62
     3
100
AcDbCircle
 10
2627.979516994516
 20
1198.84713774596
 30
0.0
 40
1100.000000000001
100
AcDbArc
 50
144.3750000000002
 51
148.1250000000003
  0
ARC
  5
262
330
1F
100
AcDbEntity
  8
1
  6
Continuous
 62
     7
100
AcDbCircle
 10
1319.511646463302
 20
583.320980842852
 30
0.0
 40
3.322569572950458
100
AcDbArc
 50
147.0478487161289
 51
-144.1836563477756
  0
ARC
  5
263
330
1F
100
AcDbEntity
  8
1
  6
Continuous
 62
     7
100
AcDbCircle
 10
1328.464993694663
 20
589.175738487561
 30
0.0
 40
12.41944341639877
100
AcDbArc
 50
163.8441424101748
 51
-160.9799500418373
  0
ARC
  5
264
330
1F
100
AcDbEntity
  8
1
  6
Continuous
 62
     7
100
AcDbCircle
 10
1319.230276121567
 20
594.5757945121571
 30
0.0
 40
3.322569572949999
100
AcDbArc
 50
147.0478487161051
 51
-144.1836563477883
  0
ARC
  5
265
330
1F
100
AcDbEntity
  8
1
  6
DASHED
 62
     4
100
AcDbCircle
 10
1033.52256944995
 20
1879.024172409087
 30
0.0
 40
31.89999999999835
100
AcDbArc
 50
-59.03839024543944
 51
-48.84515555572412
  0
ARC
  5
266
330
1F
100
AcDbEntity
  8
1
  6
Continuous
 62
     7
100
AcDbCircle
 10
1033.52256944995
 20
1879.024172409087
 30
0.0
 40
31.89999999999956
100
AcDbArc
 50
-48.84515555572412
 51
-11.15484444427202
  0
ARC
  5
267
330
1F
100
AcDbEntity
  8
1
  6
DASHED
 62
     4
100
AcDbCircle
 10
1075.140286402536
 20
1951.10817266599
 30
0.0
 40
31.90000000000069
100
AcDbArc
 50
-59.03839024543957
 51
-48.84515555572685
  0
ARC
  5
268
330
1F
100
AcDbEntity
  8
1
  6
Continuous
 62
     7
100
AcDbCircle
 10
1075.140286402536
 20
1951.10817266599
 30
0.0
 40
31.90000000000015
100
AcDbArc
 50
-0.96160975456063
 51
16.66940320518895
  0
ARC
  5
269
330
1F
100
AcDbEntity
  8
1
  6
Continuous
 62
     7
100
AcDbCircle
 10
1075.140286402536
 20
1951.10817266599
 30
0.0
 40
31.90000000000095
100
AcDbArc
 50
-48.84515555572685
 51
-11.15484444427722
  0
ARC
  5
26A
330
1F
100
AcDbEntity
  8
1
  6
DASHED
 62
     4
100
AcDbCircle
 10
1241.700452133214
 20
2239.598842228615
 30
0.0
 40
31.89999999999971
100
AcDbArc
 50
-59.03839024543854
 51
-48.84515555572781
  0
ARC
  5
26B
330
1F
100
AcDbEntity
  8
1
  6
Continuous
 62
     7
100
AcDbCircle
 10
1241.700452133214
 20
2239.598842228615
 30
0.0
 40
31.90000000000018
100
AcDbArc
 50
-48.84515555572781
 51
-11.15484444427562
  0
ARC
  5
26C
330
1F
100
AcDbEntity
  8
1
  6
Continuous
 62
     7
100
AcDbCircle
 10
1200.082735180628
 20
2167.514841971715
 30
0.0
 40
31.89999999999915
100
AcDbArc
 50
-48.84515555572619
 51
-11.15484444427441
  0
ARC
  5
26D
330
1F
100
AcDbEntity
  8
1
  6
DASHED
 62
     4
100
AcDbCircle
 10
1200.082735180628
 20
2167.514841971715
 30
0.0
 40
31.9000000000003
100
AcDbArc
 50
-59.03839024544155
 51
-48.84515555572619
  0
ARC
  5
26E
330
1F
100
AcDbEntity
  8
1
  6
DASHED
 62
     4
100
AcDbCircle
 10
1158.465018228042
 20
2095.430841714815
 30
0.0
 40
31.89999999999913
100
AcDbArc
 50
-59.03839024544029
 51
-48.84515555572566
  0
ARC
  5
26F
330
1F
100
AcDbEntity
  8
1
  6
Continuous
 62
     7
100
AcDbCircle
 10
1158.465018228042
 20
2095.430841714815
 30
0.0
 40
31.89999999999881
100
AcDbArc
 50
-48.84515555572566
 51
-11.15484444427441
  0
ARC
  5
270
330
1F
100
AcDbEntity
  8
1
  6
Continuous
 62
     7
100
AcDbCircle
 10
1116.758003355124
 20
2023.19217292289
 30
0.0
 40
31.89999999999881
100
AcDbArc
 50
-48.84515555572566
 51
-11.15484444427562
  0
ARC
  5
271
330
1F
100
AcDbEntity
  8
1
  6
DASHED
 62
     4
100
AcDbCircle
 10
1116.758003355124
 20
2023.19217292289
 30
0.0
 40
31.90000000000069
100
AcDbArc
 50
-59.03839024543957
 51
-48.84515555572566
  0
ARC
  5
272
330
1F
100
AcDbEntity
  8
1
  6
DASHED
 62
     4
100
AcDbCircle
 10
882.9047792845605
 20
2206.366507318888
 30
0.0
 40
56.60000000000017
100
AcDbArc
 50
-125.1233809281536
 51
65.12338092815629
  0
ARC
  5
273
330
1F
100
AcDbEntity
  8
DETAIL
  6
DASHED
 62
     4
100
AcDbCircle
 10
882.9047792845605
 20
2206.366507318888
 30
0.0
 40
67.49999999999992
100
AcDbArc
 50
-143.644
 51
83.64399999999998
  0
ARC
  5
274
330
1F
100
AcDbEntity
  8
COLOR
  6
DASHED
 62
     4
100
AcDbCircle
 10
851.1629173700734
 20
2250.89398975616
 30
0.0
 40
4.000000000000356
100
AcDbArc
 50
-54.51700000000263
 51
30.00000000000054
  0
ARC
  5
275
330
1F
100
AcDbEntity
  8
COLOR
  6
DASHED
 62
     4
100
AcDbCircle
 10
828.4719173700729
 20
2211.592024881615
 30
0.0
 40
3.999999999999091
100
AcDbArc
 50
-89.99999999999675
 51
-5.48300000000125
  0
ARC
  5
276
330
1F
100
AcDbEntity
  8
COLOR
  6
DASHED
 62
     4
100
AcDbCircle
 10
862.3999698129438
 20
2155.851135514527
 30
0.0
 40
14.99999999999985
100
AcDbArc
 50
-0.43599999999601
 51
60.00000000000272
  0
ARC
  5
277
330
1F
100
AcDbEntity
  8
COLOR
  6
DASHED
 62
     4
100
AcDbCircle
 10
916.3999698129441
 20
2249.381879123248
 30
0.0
 40
15.00000000000146
100
AcDbArc
 50
-119.9999999999988
 51
-59.56400000000449
  0
ARC
  5
278
330
1F
100
AcDbEntity
  8
DETAIL
  6
DASHED
 62
     4
100
AcDbCircle
 10
795.0661915480335
 20
2179.225610494126
 30
0.0
 40
2.500000000001285
100
AcDbArc
 50
-116.3519999999978
 51
-29.99500000001153
  0
ARC
  5
279
330
1F
100
AcDbEntity
  8
DETAIL
  6
DASHED
 62
     4
100
AcDbCircle
 10
811.7118549346036
 20
2212.828745205355
 30
0.0
 40
40.00000000000064
100
AcDbArc
 50
-119.9999999999999
 51
-106.0720000000005
  0
ARC
  5
27A
330
1F
100
AcDbEntity
  8
DETAIL
  6
DASHED
 62
     4
100
AcDbCircle
 10
862.4901915480331
 20
2296.007404143649
 30
0.0
 40
2.499999999999976
100
AcDbArc
 50
-30.00500000000499
 51
56.35199999999612
  0
ARC
  5
27B
330
1F
100
AcDbEntity
  8
DETAIL
  6
DASHED
 62
     4
100
AcDbCircle
 10
841.7118549346031
 20
2264.790269432421
 30
0.0
 40
39.99999999999833
100
AcDbArc
 50
46.07199999999818
 51
59.99999999999918
  0
ARC
  5
27C
330
1F
100
AcDbEntity
  8
DETAIL
  6
DASHED
 62
     4
100
AcDbCircle
 10
813.2733820764162
 20
2195.761389552373
 30
0.0
 40
4.999999999999623
100
AcDbArc
 50
59.9999999999975
 51
150.0000000000201
  0
ARC
  5
27D
330
1F
100
AcDbEntity
  8
DETAIL
  6
DASHED
 62
     4
100
AcDbCircle
 10
857.2733820764166
 20
2271.971625085404
 30
0.0
 40
5.000000000000213
100
AcDbArc
 50
150.0000000000014
 51
-119.9999999999917
  0
ARC
  5
27E
330
1F
100
AcDbEntity
  8
COLOR
  6
DASHED
 62
     4
100
AcDbCircle
 10
882.9047792845605
 20
2206.366507318888
 30
0.0
 40
50.29999999999931
100
AcDbArc
 50
-63.25066063402747
 51
3.25066063402853
  0
ARC
  5
27F
330
1F
100
AcDbEntity
  8
COLOR
  6
DASHED
 62
     4
100
AcDbCircle
 10
882.9047792845605
 20
2206.366507318888
 30
0.0
 40
48.68299999999981
100
AcDbArc
 50
115.0771953162945
 51
-175.0771953162941
  0
ARC
  5
280
330
1F
100
AcDbEntity
  8
1
  6
Continuous
 62
     7
100
AcDbCircle
 10
1033.52256944995
 20
1879.024172409087
 30
0.0
 40
31.89999999999944
100
AcDbArc
 50
-76.6694032051939
 51
-59.03839024543944
  0
ARC
  5
281
330
1F
100
AcDbEntity
  8
1
  6
DASHED
 62
     4
100
AcDbCircle
 10
1033.52256944995
 20
1879.024172409087
 30
0.0
 40
31.90000000000025
100
AcDbArc
 50
14.42174966942392
 51
-76.6694032051939
  0
ARC
  5
282
330
1F
100
AcDbEntity
  8
1
  6
DASHED
 62
     4
100
AcDbCircle
 10
1033.52256944995
 20
1879.024172409087
 30
0.0
 40
31.89999999999972
100
AcDbArc
 50
-11.15484444427202
 51
-0.961609754559
  0
ARC
  5
283
330
1F
100
AcDbEntity
  8
1
  6
Continuous
 62
     7
100
AcDbCircle
 10
1033.52256944995
 20
1879.024172409087
 30
0.0
 40
31.90000000000013
100
AcDbArc
 50
-0.961609754559
 51
14.42174966942392
  0
ARC
  5
284
330
1F
100
AcDbEntity
  8
1
  6
DASHED
 62
     4
100
AcDbCircle
 10
1075.140286402536
 20
1951.10817266599
 30
0.0
 40
31.89999999999956
100
AcDbArc
 50
16.66940320518895
 51
-76.66940320519429
  0
ARC
  5
285
330
1F
100
AcDbEntity
  8
1
  6
Continuous
 62
     7
100
AcDbCircle
 10
1075.140286402536
 20
1951.10817266599
 30
0.0
 40
31.90000000000032
100
AcDbArc
 50
-76.66940320519429
 51
-59.03839024543957
  0
ARC
  5
286
330
1F
100
AcDbEntity
  8
1
  6
DASHED
 62
     4
100
AcDbCircle
 10
1075.140286402536
 20
1951.10817266599
 30
0.0
 40
31.90000000000029
100
AcDbArc
 50
-11.15484444427722
 51
-0.96160975456063
  0
ARC
  5
287
330
1F
100
AcDbEntity
  8
1
  6
DASHED
 62
     4
100
AcDbCircle
 10
1116.758003355124
 20
2023.19217292289
 30
0.0
 40
31.90000000000012
100
AcDbArc
 50
-11.15484444427562
 51
-0.96160975456066
  0
ARC
  5
288
330
1F
100
AcDbEntity
  8
1
  6
Continuous
 62
     7
100
AcDbCircle
 10
1116.758003355124
 20
2023.19217292289
 30
0.0
 40
31.89999999999924
100
AcDbArc
 50
-0.96160975456066
 51
16.66940320519294
  0
ARC
  5
289
330
1F
100
AcDbEntity
  8
1
  6
Continuous
 62
     7
100
AcDbCircle
 10
1116.758003355124
 20
2023.19217292289
 30
0.0
 40
31.89999999999949
100
AcDbArc
 50
-76.6694032051935
 51
-59.03839024543957
  0
ARC
  5
28A
330
1F
100
AcDbEntity
  8
1
  6
DASHED
 62
     4
100
AcDbCircle
 10
1116.758003355124
 20
2023.19217292289
 30
0.0
 40
31.89999999999927
100
AcDbArc
 50
16.66940320519294
 51
-76.6694032051935
  0
ARC
  5
28B
330
1F
100
AcDbEntity
  8
1
  6
DASHED
 62
     4
100
AcDbCircle
 10
1158.465018228042
 20
2095.430841714815
 30
0.0
 40
31.89999999999883
100
AcDbArc
 50
-11.15484444427441
 51
-0.9616097545607
  0
ARC
  5
28C
330
1F
100
AcDbEntity
  8
1
  6
Continuous
 62
     7
100
AcDbCircle
 10
1158.465018228042
 20
2095.430841714815
 30
0.0
 40
31.8999999999981
100
AcDbArc
 50
-0.9616097545607
 51
16.6694032051949
  0
ARC
  5
28D
330
1F
100
AcDbEntity
  8
1
  6
Continuous
 62
     7
100
AcDbCircle
 10
1158.465018228042
 20
2095.430841714815
 30
0.0
 40
31.90000000000032
100
AcDbArc
 50
-76.66940320519429
 51
-59.03839024544029
  0
ARC
  5
28E
330
1F
100
AcDbEntity
  8
1
  6
DASHED
 62
     4
100
AcDbCircle
 10
1158.465018228042
 20
2095.430841714815
 30
0.0
 40
31.8999999999996
100
AcDbArc
 50
16.6694032051949
 51
-76.66940320519429
  0
ARC
  5
28F
330
1F
100
AcDbEntity
  8
1
  6
Continuous
 62
     7
100
AcDbCircle
 10
1200.082735180628
 20
2167.514841971715
 30
0.0
 40
31.899999999999
100
AcDbArc
 50
-0.96160975455904
 51
16.66940320519255
  0
ARC
  5
290
330
1F
100
AcDbEntity
  8
1
  6
DASHED
 62
     4
100
AcDbCircle
 10
1200.082735180628
 20
2167.514841971715
 30
0.0
 40
31.89999999999883
100
AcDbArc
 50
-11.15484444427441
 51
-0.96160975455904
  0
ARC
  5
291
330
1F
100
AcDbEntity
  8
1
  6
Continuous
 62
     7
100
AcDbCircle
 10
1200.082735180628
 20
2167.514841971715
 30
0.0
 40
31.89999999999965
100
AcDbArc
 50
-76.66940320519231
 51
-59.03839024544155
  0
ARC
  5
292
330
1F
100
AcDbEntity
  8
1
  6
DASHED
 62
     4
100
AcDbCircle
 10
1200.082735180628
 20
2167.514841971715
 30
0.0
 40
31.89999999999921
100
AcDbArc
 50
16.66940320519255
 51
-76.66940320519231
  0
ARC
  5
293
330
1F
100
AcDbEntity
  8
1
  6
DASHED
 62
     4
100
AcDbCircle
 10
1241.700452133214
 20
2239.598842228615
 30
0.0
 40
31.90000000000012
100
AcDbArc
 50
-11.15484444427562
 51
-0.96160975456227
  0
ARC
  5
294
330
1F
100
AcDbEntity
  8
1
  6
Continuous
 62
     7
100
AcDbCircle
 10
1241.700452133214
 20
2239.598842228615
 30
0.0
 40
31.90000000000017
100
AcDbArc
 50
-0.96160975456227
 51
16.66940320519333
  0
ARC
  5
295
330
1F
100
AcDbEntity
  8
1
  6
Continuous
 62
     7
100
AcDbCircle
 10
1241.700452133214
 20
2239.598842228615
 30
0.0
 40
31.90000000000032
100
AcDbArc
 50
-74.42174966930877
 51
-59.03839024543854
  0
ARC
  5
296
330
1F
100
AcDbEntity
  8
1
  6
DASHED
 62
     4
100
AcDbCircle
 10
1241.700452133214
 20
2239.598842228615
 30
0.0
 40
31.89999999999934
100
AcDbArc
 50
16.66940320519333
 51
-74.42174966930877
  0
ARC
  5
297
330
1F
100
AcDbEntity
  8
1
  6
Continuous
 62
     7
100
AcDbCircle
 10
2627.979516994627
 20
1198.847137745983
 30
0.0
 40
1306.000000000043
100
AcDbArc
 50
120.1319167232568
 51
179.8680832767455
  0
ARC
  5
298
330
1F
100
AcDbEntity
  8
1
  6
Continuous
 62
     7
100
AcDbCircle
 10
2627.979516994627
 20
1198.847137745983
 30
0.0
 40
1250.000000000042
100
AcDbArc
 50
120.1371807683678
 51
179.8628192316347
  0
ARC
  5
299
330
1F
100
AcDbEntity
  8
1
  6
DASH_CENTER
 62
     3
100
AcDbCircle
 10
2627.979516994636
 20
1198.847137745974
 30
0.0
 40
1100.000000000096
100
AcDbArc
 50
148.1250000000042
 51
180.0
  0
ARC
  5
29A
330
1F
100
AcDbEntity
  8
1
  6
Continuous
 62
     4
100
AcDbCircle
 10
2627.979516994827
 20
1198.847137746328
 30
0.0
 40
1480.000000000001
100
AcDbArc
 50
126.524606056293
 51
134.0938258968075
  0
ARC
  5
29B
330
1F
100
AcDbEntity
  8
1
  6
Continuous
 62
     4
100
AcDbCircle
 10
2627.979516994827
 20
1198.847137746328
 30
0.0
 40
1420.0
100
AcDbArc
 50
126.524606056293
 51
134.0938258968075
  0
ARC
  5
29C
330
1F
100
AcDbEntity
  8
1
  6
DASHED
 62
     4
100
AcDbCircle
 10
1956.352646530172
 20
2248.010572580334
 30
0.0
 40
20.81940913765337
100
AcDbArc
 50
122.5836027040257
 51
140.5968019293495
  0
ARC
  5
29D
330
1F
100
AcDbEntity
  8
1
  6
DASHED
 62
     4
100
AcDbCircle
 10
1984.066399732833
 20
2265.24409176522
 30
0.0
 40
20.81940913765384
100
AcDbArc
 50
103.1531980706558
 51
121.1663972959841
  0
ARC
  5
29E
330
1F
100
AcDbEntity
  8
1
  6
DASHED
 62
     4
100
AcDbCircle
 10
1965.248367128676
 20
2295.505949819644
 30
0.0
 40
20.81940913765462
100
AcDbArc
 50
-57.41639729597355
 51
-39.40319807064891
  0
ARC
  5
29F
330
1F
100
AcDbEntity
  8
1
  6
DASHED
 62
     4
100
AcDbCircle
 10
1971.920839167874
 20
2284.775741940332
 30
0.0
 40
20.8194091376534
100
AcDbArc
 50
103.1531980706561
 51
121.1663972959848
  0
ARC
  5
2A0
330
1F
100
AcDbEntity
  8
1
  6
DASHED
 62
     4
100
AcDbCircle
 10
1953.102806563717
 20
2315.037599994755
 30
0.0
 40
20.81940913765501
100
AcDbArc
 50
-57.41639729597422
 51
-39.4031980706534
  0
ARC
  5
2A1
330
1F
100
AcDbEntity
  8
1
  6
DASHED
 62
     4
100
AcDbCircle
 10
1937.534613926016
 20
2278.272430634757
 30
0.0
 40
20.81940913765472
100
AcDbArc
 50
-76.84680192934476
 51
-58.83360270401325
  0
ARC
  5
2A2
330
1F
100
AcDbEntity
  8
1
  6
DASHED
 62
     4
100
AcDbCircle
 10
1944.207085965214
 20
2267.542222755444
 30
0.0
 40
20.81940913765435
100
AcDbArc
 50
122.5836027040299
 51
140.5968019293495
  0
ARC
  5
2A3
330
1F
100
AcDbEntity
  8
1
  6
DASHED
 62
     4
100
AcDbCircle
 10
1925.389053361056
 20
2297.804080809869
 30
0.0
 40
20.81940913765537
100
AcDbArc
 50
-76.8468019293426
 51
-58.83360270401786
  0
ARC
  5
2A4
330
1F
100
AcDbEntity
  8
1
  6
DASHED
 62
     4
100
AcDbCircle
 10
1855.018130509801
 20
2249.499514748489
 30
0.0
 40
20.81940913765597
100
AcDbArc
 50
-73.09680192932544
 51
-55.08360270400122
  0
ARC
  5
2A5
330
1F
100
AcDbEntity
  8
1
  6
DASHED
 62
     4
100
AcDbCircle
 10
1875.775092474739
 20
2220.533207873372
 30
0.0
 40
20.81940913765446
100
AcDbArc
 50
126.3336027040355
 51
144.3468019293563
  0
ARC
  5
2A6
330
1F
100
AcDbEntity
  8
1
  6
DASHED
 62
     4
100
AcDbCircle
 10
1868.415117537767
 20
2230.804041002884
 30
0.0
 40
20.81940913765407
100
AcDbArc
 50
-73.09680192932974
 51
-55.08360270399977
  0
ARC
  5
2A7
330
1F
100
AcDbEntity
  8
1
  6
DASHED
 62
     4
100
AcDbCircle
 10
1881.545420357168
 20
2268.508701828103
 30
0.0
 40
20.81940913765392
100
AcDbArc
 50
-53.66639729596647
 51
-35.65319807063742
  0
ARC
  5
2A8
330
1F
100
AcDbEntity
  8
1
  6
DASHED
 62
     4
100
AcDbCircle
 10
1902.302382322105
 20
2239.542394952987
 30
0.0
 40
20.81940913765537
100
AcDbArc
 50
106.9031980706692
 51
124.9163972959912
  0
ARC
  5
2A9
330
1F
100
AcDbEntity
  8
1
  6
DASHED
 62
     4
100
AcDbCircle
 10
1894.942407385131
 20
2249.8132280825
 30
0.0
 40
20.81940913765568
100
AcDbArc
 50
-53.66639729595992
 51
-35.653198070638
  0
ARC
  5
2AA
330
1F
100
AcDbEntity
  8
1
  6
DASHED
 62
     4
100
AcDbCircle
 10
1915.699369350068
 20
2220.846921207383
 30
0.0
 40
20.81940913765484
100
AcDbArc
 50
106.9031980706644
 51
124.9163972959956
  0
ARC
  5
2AB
330
1F
100
AcDbEntity
  8
1
  6
DASHED
 62
     4
100
AcDbCircle
 10
1889.172079502704
 20
2201.83773412777
 30
0.0
 40
20.8194091376544
100
AcDbArc
 50
126.3336027040396
 51
144.3468019293646
  0
ARC
  5
2AC
330
1F
100
AcDbEntity
  8
1
  6
DASHED
 62
     4
100
AcDbCircle
 10
1787.957146982823
 20
2196.695893909588
 30
0.0
 40
20.81940913765539
100
AcDbArc
 50
-69.34680192932945
 51
-51.33360270400553
  0
ARC
  5
2AD
330
1F
100
AcDbEntity
  8
1
  6
DASHED
 62
     4
100
AcDbCircle
 10
1810.564153810733
 20
2169.149176386803
 30
0.0
 40
20.81940913765476
100
AcDbArc
 50
130.0836027040362
 51
148.0968019293617
  0
ARC
  5
2AE
330
1F
100
AcDbEntity
  8
1
  6
DASHED
 62
     4
100
AcDbCircle
 10
1802.548192518593
 20
2178.916653482247
 30
0.0
 40
20.81940913765264
100
AcDbArc
 50
-69.3468019293353
 51
-51.33360270400201
  0
ARC
  5
2AF
330
1F
100
AcDbEntity
  8
1
  6
DASHED
 62
     4
100
AcDbCircle
 10
1813.184379547225
 20
2217.399348626505
 30
0.0
 40
20.81940913765417
100
AcDbArc
 50
-49.9163972959657
 51
-31.90319807063992
  0
ARC
  5
2B0
330
1F
100
AcDbEntity
  8
1
  6
DASHED
 62
     4
100
AcDbCircle
 10
1835.791386375135
 20
2189.852631103722
 30
0.0
 40
20.81940913765337
100
AcDbArc
 50
110.65319807067
 51
128.6663972959968
  0
ARC
  5
2B1
330
1F
100
AcDbEntity
  8
1
  6
DASHED
 62
     4
100
AcDbCircle
 10
1827.775425082994
 20
2199.620108199167
 30
0.0
 40
20.81940913765536
100
AcDbArc
 50
-49.91639729596763
 51
-31.90319807063965
  0
ARC
  5
2B2
330
1F
100
AcDbEntity
  8
1
  6
DASHED
 62
     4
100
AcDbCircle
 10
1850.382431910903
 20
2172.073390676382
 30
0.0
 40
20.81940913765422
100
AcDbArc
 50
110.6531980706691
 51
128.666397295994
  0
ARC
  5
2B3
330
1F
100
AcDbEntity
  8
1
  6
DASHED
 62
     4
100
AcDbCircle
 10
1825.155199346501
 20
2151.369935959464
 30
0.0
 40
20.81940913765452
100
AcDbArc
 50
130.0836027040335
 51
148.0968019293608
  0
ARC
  5
2B4
330
1F
100
AcDbEntity
  8
0
  6
DASHED
 62
     4
100
AcDbCircle
 10
1771.982436057434
 20
1627.816702432164
 30
0.0
 40
1.000000000000204
100
AcDbArc
 50
-119.9997019999295
 51
-29.99989299998424
  0
ARC
  5
2B5
330
1F
100
AcDbEntity
  8
0
  6
DASHED
 62
     4
100
AcDbCircle
 10
1745.563851770393
 20
1628.058372182966
 30
0.0
 40
0.9999999999982449
100
AcDbArc
 50
-119.9996029998523
 51
-29.99969499989446
  0
ARC
  5
2B6
330
1F
100
AcDbEntity
  8
0
  6
DASHED
 62
     4
100
AcDbCircle
 10
1747.795902577962
 20
1627.924397586751
 30
0.0
 40
0.999999999998249
100
AcDbArc
 50
60.00000000000225
 51
149.9999999999832
  0
ARC
  5
2B7
330
1F
100
AcDbEntity
  8
0
  6
DASHED
 62
     4
100
AcDbCircle
 10
1761.996988081721
 20
1624.344199201888
 30
0.0
 40
2.999999999998795
100
AcDbArc
 50
-119.9997019999996
 51
-44.51669300001024
  0
ARC
  5
2B8
330
1F
100
AcDbEntity
  8
0
  6
DASHED
 62
     4
100
AcDbCircle
 10
1599.955558530824
 20
1713.857410288644
 30
0.0
 40
1.999999999998922
100
AcDbArc
 50
60.00000000001226
 51
150.0000000000383
  0
ARC
  5
2B9
330
1F
100
AcDbEntity
  8
0
  6
DASHED
 62
     4
100
AcDbCircle
 10
1593.491456915686
 20
1710.661257865937
 30
0.0
 40
2.00000000000152
100
AcDbArc
 50
-120.0000000000125
 51
-30.00000000003614
  0
ARC
  5
2BA
330
1F
100
AcDbEntity
  8
0
  6
DASHED
 62
     4
100
AcDbCircle
 10
1535.343598866899
 20
1753.178635374135
 30
0.0
 40
7.999999999998863
100
AcDbArc
 50
179.9999999999918
 51
-121.4999009999912
  0
ARC
  5
2BB
330
1F
100
AcDbEntity
  8
0
  6
DASHED
 62
     4
100
AcDbCircle
 10
1549.098375920501
 20
1789.770186077753
 30
0.0
 40
8.000000000001689
100
AcDbArc
 50
150.0001000000078
 51
-164.9998020000033
  0
ARC
  5
2BC
330
1F
100
AcDbEntity
  8
0
  6
DASHED
 62
     4
100
AcDbCircle
 10
1536.977772690223
 20
1784.776685464532
 30
0.0
 40
5.000000000000165
100
AcDbArc
 50
-29.99969499998868
 51
15.00030500000517
  0
ARC
  5
2BD
330
1F
100
AcDbEntity
  8
0
  6
DASHED
 62
     4
100
AcDbCircle
 10
1828.482436057434
 20
1725.677573059806
 30
0.0
 40
1.000000000001718
100
AcDbArc
 50
-30.00010699990879
 51
59.99970199992006
  0
ARC
  5
2BE
330
1F
100
AcDbEntity
  8
0
  6
DASHED
 62
     4
100
AcDbCircle
 10
1815.063851770396
 20
1748.435903309004
 30
0.0
 40
0.9999999999981536
100
AcDbArc
 50
-30.00030500004595
 51
59.99960300004044
  0
ARC
  5
2BF
330
1F
100
AcDbEntity
  8
0
  6
DASHED
 62
     4
100
AcDbCircle
 10
1816.295902577962
 20
1746.569877905219
 30
0.0
 40
0.9999999999981739
100
AcDbArc
 50
149.9999999998794
 51
-119.9999999998524
  0
ARC
  5
2C0
330
1F
100
AcDbEntity
  8
0
  6
DASHED
 62
     4
100
AcDbCircle
 10
1826.496988081722
 20
1736.061476290082
 30
0.0
 40
2.999999999996819
100
AcDbArc
 50
-15.48330700003714
 51
59.99970200001408
  0
ARC
  5
2C1
330
1F
100
AcDbEntity
  8
0
  6
DASHED
 62
     4
100
AcDbCircle
 10
1667.955558530824
 20
1831.636865203328
 30
0.0
 40
1.999999999999709
100
AcDbArc
 50
150.0000000000253
 51
-119.9999999999843
  0
ARC
  5
2C2
330
1F
100
AcDbEntity
  8
0
  6
DASHED
 62
     4
100
AcDbCircle
 10
1667.491456915685
 20
1838.833017626034
 30
0.0
 40
2.000000000000952
100
AcDbArc
 50
-29.99999999998426
 51
59.99999999997451
  0
ARC
  5
2C3
330
1F
100
AcDbEntity
  8
0
  6
DASHED
 62
     4
100
AcDbCircle
 10
1601.596398866899
 20
1867.931851117835
 30
0.0
 40
8.000000000000833
100
AcDbArc
 50
61.49990099998667
 51
119.9999999999876
  0
ARC
  5
2C4
330
1F
100
AcDbEntity
  8
0
  6
DASHED
 62
     4
100
AcDbCircle
 10
1576.7845749205
 20
1837.724089414218
 30
0.0
 40
7.9999999999988
100
AcDbArc
 50
104.9998019999907
 51
149.9999000000077
  0
ARC
  5
2C5
330
1F
100
AcDbEntity
  8
0
  6
DASHED
 62
     4
100
AcDbCircle
 10
1575.048771690224
 20
1850.717590027438
 30
0.0
 40
5.000000000000342
100
AcDbArc
 50
-75.0003049999964
 51
-30.0003050000118
  0
ARC
  5
2C6
330
1F
100
AcDbEntity
  8
1
  6
DASHED
 62
     4
100
AcDbCircle
 10
1401.658417233839
 20
1417.851992498507
 30
0.0
 40
20.81940913765403
100
AcDbArc
 50
151.9031980706477
 51
169.9163972959741
  0
ARC
  5
2C7
330
1F
100
AcDbEntity
  8
1
  6
DASHED
 62
     4
100
AcDbCircle
 10
1396.342315785097
 20
1385.652840872097
 30
0.0
 40
20.81940913765461
100
AcDbArc
 50
171.3336027040162
 51
-170.6531980706557
  0
ARC
  5
2C8
330
1F
100
AcDbEntity
  8
1
  6
DASHED
 62
     4
100
AcDbCircle
 10
1361.182655205535
 20
1391.457724327196
 30
0.0
 40
20.81940913765547
100
AcDbArc
 50
-28.09680192935308
 51
-10.08360270402844
  0
ARC
  5
2C9
330
1F
100
AcDbEntity
  8
1
  6
DASHED
 62
     4
100
AcDbCircle
 10
1373.649519147145
 20
1389.399436760174
 30
0.0
 40
20.81940913765736
100
AcDbArc
 50
171.3336027040205
 51
-170.6531980706557
  0
ARC
  5
2CA
330
1F
100
AcDbEntity
  8
1
  6
DASHED
 62
     4
100
AcDbCircle
 10
1338.489858567583
 20
1395.204320215272
 30
0.0
 40
20.81940913765611
100
AcDbArc
 50
-28.09680192934575
 51
-10.08360270402246
  0
ARC
  5
2CB
330
1F
100
AcDbEntity
  8
1
  6
DASHED
 62
     4
100
AcDbCircle
 10
1366.498756654281
 20
1423.656875953605
 30
0.0
 40
20.81940913765461
100
AcDbArc
 50
-8.66639729598384
 51
9.34680192934432
  0
ARC
  5
2CC
330
1F
100
AcDbEntity
  8
1
  6
DASHED
 62
     4
100
AcDbCircle
 10
1378.96562059589
 20
1421.598588386583
 30
0.0
 40
20.81940913765573
100
AcDbArc
 50
151.9031980706509
 51
169.9163972959726
  0
ARC
  5
2CD
330
1F
100
AcDbEntity
  8
1
  6
DASHED
 62
     4
100
AcDbCircle
 10
1343.805960016327
 20
1427.403471841683
 30
0.0
 40
20.8194091376559
100
AcDbArc
 50
-8.66639729598646
 51
9.34680192933825
  0
ARC
  5
2CE
330
1F
100
AcDbEntity
  8
1
  6
DASHED
 62
     4
100
AcDbCircle
 10
1389.960462025139
 20
1337.177848928057
 30
0.0
 40
20.81940913765383
100
AcDbArc
 50
155.6531980706508
 51
173.6663972959771
  0
ARC
  5
2CF
330
1F
100
AcDbEntity
  8
1
  6
DASHED
 62
     4
100
AcDbCircle
 10
1386.761668032591
 20
1304.699948486878
 30
0.0
 40
20.81940913765225
100
AcDbArc
 50
175.083602704015
 51
-166.9031980706551
  0
ARC
  5
2D0
330
1F
100
AcDbEntity
  8
1
  6
DASHED
 62
     4
100
AcDbCircle
 10
1351.297629442456
 20
1308.192851416336
 30
0.0
 40
20.81940913765757
100
AcDbArc
 50
-24.34680192935073
 51
-6.33360270402787
  0
ARC
  5
2D1
330
1F
100
AcDbEntity
  8
1
  6
DASHED
 62
     4
100
AcDbCircle
 10
1363.872419319132
 20
1306.954342714459
 30
0.0
 40
20.81940913765601
100
AcDbArc
 50
175.083602704019
 51
-166.9031980706583
  0
ARC
  5
2D2
330
1F
100
AcDbEntity
  8
1
  6
DASHED
 62
     4
100
AcDbCircle
 10
1328.408380728997
 20
1310.447245643917
 30
0.0
 40
20.81940913765554
100
AcDbArc
 50
-24.34680192935051
 51
-6.33360270402628
  0
ARC
  5
2D3
330
1F
100
AcDbEntity
  8
1
  6
DASHED
 62
     4
100
AcDbCircle
 10
1354.496423435006
 20
1340.670751857514
 30
0.0
 40
20.81940913765437
100
AcDbArc
 50
-4.91639729598706
 51
13.09680192934104
  0
ARC
  5
2D4
330
1F
100
AcDbEntity
  8
1
  6
DASHED
 62
     4
100
AcDbCircle
 10
1367.07121331168
 20
1339.432243155637
 30
0.0
 40
20.8194091376557
100
AcDbArc
 50
155.6531980706469
 51
173.6663972959718
  0
ARC
  5
2D5
330
1F
100
AcDbEntity
  8
1
  6
DASHED
 62
     4
100
AcDbCircle
 10
1331.607174721544
 20
1342.925146085096
 30
0.0
 40
20.81940913765528
100
AcDbArc
 50
-4.91639729598684
 51
13.09680192934047
  0
ARC
  5
2D6
330
1F
100
AcDbEntity
  8
1
  6
DASHED
 62
     4
100
AcDbCircle
 10
1324.959654819077
 20
1257.829856177542
 30
0.0
 40
20.81940913765367
100
AcDbArc
 50
-1.1663972959853
 51
16.84680192934078
  0
ARC
  5
2D7
330
1F
100
AcDbEntity
  8
1
  6
DASHED
 62
     4
100
AcDbCircle
 10
1360.576208962007
 20
1256.66389092031
 30
0.0
 40
20.81940913765579
100
AcDbArc
 50
159.4031980706516
 51
177.4163972959723
  0
ARC
  5
2D8
330
1F
100
AcDbEntity
  8
1
  6
DASHED
 62
     4
100
AcDbCircle
 10
1347.947340331035
 20
1257.077317272639
 30
0.0
 40
20.81940913765457
100
AcDbArc
 50
-1.16639729598525
 51
16.84680192934241
  0
ARC
  5
2D9
330
1F
100
AcDbEntity
  8
1
  6
DASHED
 62
     4
100
AcDbCircle
 10
1323.89186600969
 20
1225.212282277381
 30
0.0
 40
20.81940913765473
100
AcDbArc
 50
-20.59680192934949
 51
-2.5836027040225
  0
ARC
  5
2DA
330
1F
100
AcDbEntity
  8
1
  6
DASHED
 62
     4
100
AcDbCircle
 10
1359.508420152617
 20
1224.046317020149
 30
0.0
 40
20.81940913765569
100
AcDbArc
 50
178.8336027040173
 51
-163.1531980706578
  0
ARC
  5
2DB
330
1F
100
AcDbEntity
  8
1
  6
DASHED
 62
     4
100
AcDbCircle
 10
1346.879551521644
 20
1224.45974337248
 30
0.0
 40
20.81940913765822
100
AcDbArc
 50
-20.59680192935189
 51
-2.58360270402776
  0
ARC
  5
2DC
330
1F
100
AcDbEntity
  8
1
  6
DASHED
 62
     4
100
AcDbCircle
 10
1382.496105664573
 20
1223.293778115248
 30
0.0
 40
20.81940913765251
100
AcDbArc
 50
178.8336027040172
 51
-163.1531980706552
  0
ARC
  5
2DD
330
1F
100
AcDbEntity
  8
1
  6
DASHED
 62
     4
100
AcDbCircle
 10
1383.563894473962
 20
1255.911352015407
 30
0.0
 40
20.81940913765406
100
AcDbArc
 50
159.4031980706465
 51
177.416397295972
  0
ARC
  5
2DE
330
1F
100
AcDbEntity
  8
1
  6
Continuous
 62
     7
100
AcDbCircle
 10
1324.366701773346
 20
572.7506592033749
 30
0.0
 40
20.81940913765816
100
AcDbArc
 50
-17.28970574518326
 51
0.72349348013871
  0
ARC
  5
2DF
330
1F
100
AcDbEntity
  8
1
  6
Continuous
 62
     7
100
AcDbCircle
 10
1359.991204762709
 20
573.641271778107
 30
0.0
 40
20.81940913765648
100
AcDbArc
 50
-177.8593011118129
 51
-159.8461018864917
  0
ARC
  5
2E0
330
1F
100
AcDbEntity
  8
1
  6
Continuous
 62
     7
100
AcDbCircle
 10
1347.359517640738
 20
573.325479600059
 30
0.0
 40
20.8194091376515
100
AcDbArc
 50
-17.28970574518962
 51
0.72349348014451
  0
ARC
  5
2E1
330
1F
100
AcDbEntity
  8
1
  6
Continuous
 62
     7
100
AcDbCircle
 10
1382.984020630096
 20
574.216092174792
 30
0.0
 40
20.81940913765645
100
AcDbArc
 50
-177.8593011118154
 51
-159.8461018864887
  0
ARC
  5
2E2
330
1F
100
AcDbEntity
  8
1
  6
Continuous
 62
     7
100
AcDbCircle
 10
1323.551080437378
 20
605.3755126422809
 30
0.0
 40
20.81940913765235
100
AcDbArc
 50
2.14069888818443
 51
20.15389811351101
  0
ARC
  5
2E3
330
1F
100
AcDbEntity
  8
1
  6
Continuous
 62
     7
100
AcDbCircle
 10
1359.175583426736
 20
606.266125217016
 30
0.0
 40
20.81940913765446
100
AcDbArc
 50
162.7102942548221
 51
-179.2765065198556
  0
ARC
  5
2E4
330
1F
100
AcDbEntity
  8
1
  6
Continuous
 62
     7
100
AcDbCircle
 10
1346.543896304761
 20
605.9503330389659
 30
0.0
 40
20.81940913765644
100
AcDbArc
 50
2.14069888818401
 51
20.15389811350907
  0
ARC
  5
2E5
330
1F
100
AcDbEntity
  8
1
  6
Continuous
 62
     7
100
AcDbCircle
 10
1382.168399294123
 20
606.8409456136999
 30
0.0
 40
20.81940913765597
100
AcDbArc
 50
162.7102942548172
 51
-179.276506519853
  0
CIRCLE
  5
2E6
330
1F
100
AcDbEntity
  8
1
  6
DASH_CENTER
 62
     3
100
AcDbCircle
 10
1033.52256944995
 20
1879.024172409087
 30
0.0
 40
20.54999999999972
  0
CIRCLE
  5
2E7
330
1F
100
AcDbEntity
  8
1
  6
DASH_CENTER
 62
     3
100
AcDbCircle
 10
1075.140286402536
 20
1951.10817266599
 30
0.0
 40
20.54999999999948
  0
CIRCLE
  5
2E8
330
1F
100
AcDbEntity
  8
1
  6
DASH_CENTER
 62
     3
100
AcDbCircle
 10
1241.700452133214
 20
2239.598842228615
 30
0.0
 40
20.54999999999943
  0
CIRCLE
  5
2E9
330
1F
100
AcDbEntity
  8
1
  6
DASH_CENTER
 62
     3
100
AcDbCircle
 10
1116.758003355124
 20
2023.19217292289
 30
0.0
 40
20.54999999999972
  0
CIRCLE
  5
2EA
330
1F
100
AcDbEntity
  8
1
  6
DASH_CENTER
 62
     3
100
AcDbCircle
 10
1158.465018228042
 20
2095.430841714815
 30
0.0
 40
20.54999999999978
  0
CIRCLE
  5
2EB
330
1F
100
AcDbEntity
  8
1
  6
DASH_CENTER
 62
     3
100
AcDbCircle
 10
895.8951603413271
 20
2198.866507318888
 30
0.0
 40
32.54999999999974
  0
CIRCLE
  5
2EC
330
1F
100
AcDbEntity
  8
1
  6
DASH_CENTER
 62
     3
100
AcDbCircle
 10
1033.049615256011
 20
2164.424991715536
 30
0.0
 40
28.53500000000008
  0
XLINE
  5
2ED
330
1F
100
AcDbEntity
  8
1
  6
DOT_CENTER
 62
     3
 60
     1
100
AcDbXline
 10
2627.979516994636
 20
1198.847137745974
 30
0.0
 11
-1.0
 21
0.0
 31
0.0
  0
XLINE
  5
2EE
330
1F
100
AcDbEntity
  8
1
  6
DOT_CENTER
 62
     3
 60
     1
100
AcDbXline
 10
2627.979516994636
 20
1198.847137745974
 30
0.0
 11
-0.8492021815266175
 21
0.5280678506503059
 31
0.0
  0
ARC
  5
2EF
330
1F
100
AcDbEntity
  8
1
  6
Continuous
 62
     7
100
AcDbCircle
 10
1752.993802825542
 20
1203.847137745969
 30
0.0
 40
5.0
100
AcDbArc
 50
-90.0
 51
-0.32740623618529
  0
ARC
  5
2F0
330
1F
100
AcDbEntity
  8
1
  6
Continuous
 62
     7
100
AcDbCircle
 10
1321.579516994542
 20
605.2883375480732
 30
0.0
 40
3.200000000000955
100
AcDbArc
 50
0.0
 51
90.0
  0
ARC
  5
2F1
330
1F
100
AcDbEntity
  8
1
  6
Continuous
 62
     7
100
AcDbCircle
 10
1321.579516994542
 20
498.088337548072
 30
0.0
 40
3.199999999999818
100
AcDbArc
 50
-90.0
 51
0.0
  0
ARC
  5
2F2
330
1F
100
AcDbEntity
  8
1
  6
Continuous
 62
     7
100
AcDbCircle
 10
1321.579516994542
 20
498.088337548072
 30
0.0
 40
6.399999999999864
100
AcDbArc
 50
-90.0
 51
0.0
  0
ARC
  5
2F3
330
1F
100
AcDbEntity
  8
1
  6
Continuous
 62
     7
100
AcDbCircle
 10
1321.579516994542
 20
605.2883375480732
 30
0.0
 40
6.40000000000191
100
AcDbArc
 50
0.0
 51
90.0
  0
ARC
  5
2F4
330
1F
100
AcDbEntity
  8
1
  6
Continuous
 62
     7
100
AcDbCircle
 10
1734.379516994542
 20
498.088337548072
 30
0.0
 40
3.200000000000046
100
AcDbArc
 50
180.0
 51
-90.0
  0
ARC
  5
2F5
330
1F
100
AcDbEntity
  8
1
  6
Continuous
 62
     7
100
AcDbCircle
 10
1734.379516994542
 20
605.2883375480732
 30
0.0
 40
3.199999999999932
100
AcDbArc
 50
90.0
 51
180.0
  0
ARC
  5
2F6
330
1F
100
AcDbEntity
  8
1
  6
Continuous
 62
     7
100
AcDbCircle
 10
1734.379516994542
 20
605.2883375480732
 30
0.0
 40
6.39999999999884
100
AcDbArc
 50
90.0
 51
180.0
  0
ARC
  5
2F7
330
1F
100
AcDbEntity
  8
1
  6
Continuous
 62
     7
100
AcDbCircle
 10
1734.379516994542
 20
498.088337548072
 30
0.0
 40
6.399999999998954
100
AcDbArc
 50
180.0
 51
-90.0
  0
ARC
  5
2F8
330
1F
100
AcDbEntity
  8
1
  6
DASHED
 62
     4
100
AcDbCircle
 10
921.1431552283685
 20
2208.538281980322
 30
0.0
 40
11.99999999999969
100
AcDbArc
 50
3.25066063402544
 51
59.99999999999714
  0
ARC
  5
2F9
330
1F
100
AcDbEntity
  8
1
  6
DASHED
 62
     4
100
AcDbCircle
 10
900.1431552283683
 20
2172.165215021374
 30
0.0
 40
11.99999999999992
100
AcDbArc
 50
-120.0000000000015
 51
-63.25066063402615
  0
ARC
  5
2FA
330
1F
100
AcDbEntity
  8
1
  6
DASHED
 62
     4
100
AcDbCircle
 10
846.3570948049375
 20
2203.218611485492
 30
0.0
 40
12.00000000000012
100
AcDbArc
 50
-175.0771953162903
 51
-120.0000000000006
  0
ARC
  5
2FB
330
1F
100
AcDbEntity
  8
1
  6
DASHED
 62
     4
100
AcDbCircle
 10
867.3570948049375
 20
2239.591678444438
 30
0.0
 40
12.00000000000059
100
AcDbArc
 50
60.00000000000163
 51
115.0771953162938
  0
ARC
  5
2FC
330
1F
100
AcDbEntity
  8
1
  6
Continuous
 62
     7
100
AcDbCircle
 10
1324.982970567893
 20
1201.847137745982
 30
0.0
 40
3.00000000000112
100
AcDbArc
 50
179.868083276733
 51
-90.0
  0
ARC
  5
2FD
330
1F
100
AcDbEntity
  8
1
  6
Continuous
 62
     7
100
AcDbCircle
 10
1299.039960409805
 20
1210.542112219328
 30
0.0
 40
1.00000000000048
100
AcDbArc
 50
178.9999999999596
 51
-91.0000000000413
  0
ARC
  5
2FE
330
1F
100
AcDbEntity
  8
1
  6
Continuous
 62
     7
100
AcDbCircle
 10
1299.441365757862
 20
1233.538609207925
 30
0.0
 40
1.000000000000688
100
AcDbArc
 50
89.00000000002497
 51
178.9999999999599
  0
ARC
  5
2FF
330
1F
100
AcDbEntity
  8
1
  6
Continuous
 62
     7
100
AcDbCircle
 10
1302.988950990477
 20
1203.847137745974
 30
0.0
 40
5.000000000000206
100
AcDbArc
 50
179.7837889981318
 51
-90.0
  0
ARC
  5
300
330
1F
100
AcDbEntity
  8
1
  6
Continuous
 62
     7
100
AcDbCircle
 10
1374.983108380463
 20
1201.847137745974
 30
0.0
 40
3.0
100
AcDbArc
 50
-90.0
 51
-0.13718076836871
  0
ARC
  5
301
330
1F
100
AcDbEntity
  8
1
  6
Continuous
 62
     7
100
AcDbCircle
 10
1998.883236476132
 20
2282.473858456532
 30
0.0
 40
2.999999999999657
100
AcDbArc
 50
-59.86281923166413
 51
30.0000000000038
  0
ARC
  5
302
330
1F
100
AcDbEntity
  8
1
  6
Continuous
 62
     7
100
AcDbCircle
 10
1961.15410697357
 20
2343.822627680315
 30
0.0
 40
4.99999999999982
100
AcDbArc
 50
30.00000000000119
 51
120.216211001867
  0
ARC
  5
303
330
1F
100
AcDbEntity
  8
1
  6
Continuous
 62
     7
100
AcDbCircle
 10
1933.666745795471
 20
2332.049190882873
 30
0.0
 40
1.000000000000411
100
AcDbArc
 50
120.9999999999724
 51
-149.0000000000074
  0
ARC
  5
304
330
1F
100
AcDbEntity
  8
1
  6
Continuous
 62
     7
100
AcDbCircle
 10
1953.381593711621
 20
2343.895066605804
 30
0.0
 40
0.9999999999986581
100
AcDbArc
 50
31.00000000010875
 51
121.0000000000148
  0
ARC
  5
305
330
1F
100
AcDbEntity
  8
1
  6
Continuous
 62
     7
100
AcDbCircle
 10
1973.883167569839
 20
2325.775247994935
 30
0.0
 40
2.999999999999201
100
AcDbArc
 50
29.99999999998876
 51
120.1319167232454
  0
ARC
  5
306
330
1F
100
AcDbEntity
  8
1
  6
Continuous
 62
     7
100
AcDbCircle
 10
2186.156532891107
 20
1954.106994164899
 30
0.0
 40
5.000000000002662
100
AcDbArc
 50
-59.67259376381619
 51
29.9999999999834
  0
ARC
  5
307
330
1F
100
AcDbEntity
  8
1
  6
Continuous
 62
     7
100
AcDbCircle
 10
1347.297253192221
 20
1553.910592167388
 30
0.0
 40
0.9999999999998834
100
AcDbArc
 50
75.00000000003071
 51
164.9999999999813
  0
ARC
  5
308
330
1F
100
AcDbEntity
  8
1
  6
Continuous
 62
     7
100
AcDbCircle
 10
1341.344415154863
 20
1531.694298162739
 30
0.0
 40
0.9999999999992991
100
AcDbArc
 50
164.9999999999543
 51
-105.0000000000356
  0
ARC
  5
309
330
1F
100
AcDbEntity
  8
1
  6
Continuous
 62
     7
100
AcDbCircle
 10
1471.332627341712
 20
1853.358474653039
 30
0.0
 40
1.000000000000476
100
AcDbArc
 50
150.0000000000158
 51
-120.0000000000168
  0
ARC
  5
30A
330
1F
100
AcDbEntity
  8
1
  6
Continuous
 62
     7
100
AcDbCircle
 10
1482.832627341712
 20
1873.277058940082
 30
0.0
 40
0.9999999999994913
100
AcDbArc
 50
59.99999999998317
 51
150.0000000000158
  0
ARC
  5
30B
330
1F
100
AcDbEntity
  8
1
  6
Continuous
 62
     7
100
AcDbCircle
 10
1680.14441360904
 20
2130.418785164241
 30
0.0
 40
1.000000000000651
100
AcDbArc
 50
134.9999999999908
 51
-135.000000000046
  0
ARC
  5
30C
330
1F
100
AcDbEntity
  8
1
  6
Continuous
 62
     7
100
AcDbCircle
 10
1696.407869576331
 20
2146.682241131532
 30
0.0
 40
0.999999999999365
100
AcDbArc
 50
45.00000000008291
 51
135.0000000000368
  0
ARC
  5
30D
330
1F
100
AcDbEntity
  8
1
  6
Continuous
 62
     7
100
AcDbCircle
 10
1983.686029525783
 20
2267.148179756621
 30
0.0
 40
2.99999999999917
100
AcDbArc
 50
-148.1250000000368
 51
-58.12499999996122
  0
ARC
  5
30E
330
1F
100
AcDbEntity
  8
1
  6
Continuous
 62
     7
100
AcDbCircle
 10
1954.813155353881
 20
2249.193872834508
 30
0.0
 40
3.000000000001195
100
AcDbArc
 50
-58.12500000004037
 51
31.87499999994848
  0
ARC
  5
30F
330
1F
100
AcDbEntity
  8
1
  6
Continuous
 62
     7
100
AcDbCircle
 10
1887.558492955751
 20
2202.917813304914
 30
0.0
 40
3.000000000000962
100
AcDbArc
 50
-54.37499999997571
 51
35.62499999999252
  0
ARC
  5
310
330
1F
100
AcDbEntity
  8
1
  6
Continuous
 62
     7
100
AcDbCircle
 10
1915.195280231862
 20
2222.722054998427
 30
0.0
 40
2.999999999999295
100
AcDbArc
 50
-144.3749999999903
 51
-54.37499999995301
  0
ARC
  5
311
330
1F
100
AcDbEntity
  8
1
  6
Continuous
 62
     7
100
AcDbCircle
 10
1823.474427054206
 20
2152.342168994729
 30
0.0
 40
3.000000000000693
100
AcDbArc
 50
-50.62500000000632
 51
39.37499999999834
  0
ARC
  5
312
330
1F
100
AcDbEntity
  8
1
  6
Continuous
 62
     7
100
AcDbCircle
 10
1849.756782468533
 20
2173.911540656299
 30
0.0
 40
2.999999999999413
100
AcDbArc
 50
-140.6250000000087
 51
-50.62499999997085
  0
ARC
  5
313
330
1F
100
AcDbEntity
  8
1
  6
Continuous
 62
     7
100
AcDbCircle
 10
1762.835375457469
 20
2097.683512577566
 30
0.0
 40
2.999999999999806
100
AcDbArc
 50
-46.87500000001274
 51
43.12499999998033
  0
ARC
  5
314
330
1F
100
AcDbEntity
  8
1
  6
Continuous
 62
     7
100
AcDbCircle
 10
1787.650753929191
 20
2120.925650846349
 30
0.0
 40
3.000000000000792
100
AcDbArc
 50
-136.8750000000244
 51
-46.87499999998899
  0
ARC
  5
315
330
1F
100
AcDbEntity
  8
1
  6
Continuous
 62
     7
100
AcDbCircle
 10
1729.143142163104
 20
2063.991279283179
 30
0.0
 40
3.000000000000096
100
AcDbArc
 50
-133.1250000000059
 51
-43.12499999997479
  0
ARC
  5
316
330
1F
100
AcDbEntity
  8
1
  6
Continuous
 62
     7
100
AcDbCircle
 10
1705.901003894331
 20
2039.175900811447
 30
0.0
 40
3.000000000000583
100
AcDbArc
 50
-43.12500000000311
 51
46.87500000000086
  0
ARC
  5
317
330
1F
100
AcDbEntity
  8
1
  6
Continuous
 62
     7
100
AcDbCircle
 10
1674.484485745887
 20
2003.352227686495
 30
0.0
 40
3.000000000000568
100
AcDbArc
 50
-129.3750000000181
 51
-39.37499999999369
  0
ARC
  5
318
330
1F
100
AcDbEntity
  8
1
  6
Continuous
 62
     7
100
AcDbCircle
 10
1652.915114084321
 20
1977.069872272163
 30
0.0
 40
2.999999999999846
100
AcDbArc
 50
-39.37500000000135
 51
50.62500000002551
  0
ARC
  5
319
330
1F
100
AcDbEntity
  8
1
  6
Continuous
 62
     7
100
AcDbCircle
 10
1623.908841435714
 20
1939.26816178494
 30
0.0
 40
3.000000000000616
100
AcDbArc
 50
-125.6250000000076
 51
-35.62499999997987
  0
ARC
  5
31A
330
1F
100
AcDbEntity
  8
1
  6
Continuous
 62
     7
100
AcDbCircle
 10
1604.104599742207
 20
1911.631374508826
 30
0.0
 40
2.99999999999903
100
AcDbArc
 50
-35.62500000000264
 51
54.37500000002014
  0
ARC
  5
31B
330
1F
100
AcDbEntity
  8
1
  6
DASHED
 62
     4
100
AcDbCircle
 10
1619.119333346249
 20
1686.050041933769
 30
0.0
 40
5.000000000001373
100
AcDbArc
 50
-120.000000000006
 51
-29.99999999999599
  0
ARC
  5
31C
330
1F
100
AcDbEntity
  8
1
  6
DASHED
 62
     4
100
AcDbCircle
 10
1519.526411911038
 20
1743.550041933769
 30
0.0
 40
5.000000000000608
100
AcDbArc
 50
150.000000000004
 51
-119.9999999999947
  0
ARC
  5
31D
330
1F
100
AcDbEntity
  8
1
  6
DASHED
 62
     4
100
AcDbCircle
 10
1701.619333346249
 20
1828.944233558202
 30
0.0
 40
5.000000000000388
100
AcDbArc
 50
-30.00000000001248
 51
60.00000000000358
  0
ARC
  5
31E
330
1F
100
AcDbEntity
  8
1
  6
DASHED
 62
     4
100
AcDbCircle
 10
1602.026411911038
 20
1886.444233558201
 30
0.0
 40
4.99999999999982
100
AcDbArc
 50
59.99999999999881
 51
149.9999999999923
  0
ARC
  5
31F
330
1F
100
AcDbEntity
  8
1
  6
Continuous
 62
     7
100
AcDbCircle
 10
1535.854468348136
 20
1801.876235282025
 30
0.0
 40
2.999999999998417
100
AcDbArc
 50
-118.1249999999907
 51
-28.1249999999577
  0
ARC
  5
320
330
1F
100
AcDbEntity
  8
1
  6
Continuous
 62
     7
100
AcDbCircle
 10
1519.826979296051
 20
1771.890912294182
 30
0.0
 40
3.000000000000958
100
AcDbArc
 50
-28.1249999999894
 51
61.87500000002389
  0
ARC
  5
321
330
1F
100
AcDbEntity
  8
1
  6
Continuous
 62
     7
100
AcDbCircle
 10
1577.632781906018
 20
1872.013499386946
 30
0.0
 40
2.999999999999651
100
AcDbArc
 50
-121.874999999978
 51
-31.87499999998725
  0
ARC
  5
322
330
1F
100
AcDbEntity
  8
1
  6
Continuous
 62
     7
100
AcDbCircle
 10
1559.678474983904
 20
1843.140625215043
 30
0.0
 40
2.999999999999959
100
AcDbArc
 50
-31.87500000002035
 51
58.12500000001833
  0
ARC
  5
323
330
1F
100
AcDbEntity
  8
1
  6
Continuous
 62
     7
100
AcDbCircle
 10
1498.752801914648
 20
1729.156708002744
 30
0.0
 40
2.999999999999818
100
AcDbArc
 50
-114.3750000000162
 51
-24.3749999999734
  0
ARC
  5
324
330
1F
100
AcDbEntity
  8
1
  6
Continuous
 62
     7
100
AcDbCircle
 10
1484.720762901296
 20
1698.187337955425
 30
0.0
 40
3.000000000000271
100
AcDbArc
 50
-24.37499999999318
 51
65.62500000002444
  0
ARC
  5
325
330
1F
100
AcDbEntity
  8
1
  6
Continuous
 62
     7
100
AcDbCircle
 10
1454.510156007843
 20
1622.345512219274
 30
0.0
 40
2.999999999999827
100
AcDbArc
 50
-20.62499999998921
 51
69.37500000002098
  0
ARC
  5
326
330
1F
100
AcDbEntity
  8
1
  6
Continuous
 62
     7
100
AcDbCircle
 10
1466.486657637168
 20
1654.166313729023
 30
0.0
 40
2.999999999999827
100
AcDbArc
 50
-110.6249999999892
 51
-20.62499999998515
  0
ARC
  5
327
330
1F
100
AcDbEntity
  8
1
  6
Continuous
 62
     7
100
AcDbCircle
 10
1439.194204099083
 20
1577.226172841869
 30
0.0
 40
2.999999999998921
100
AcDbArc
 50
-106.8749999999799
 51
-16.87499999998514
  0
ARC
  5
328
330
1F
100
AcDbEntity
  8
1
  6
Continuous
 62
     7
100
AcDbCircle
 10
1429.324525072429
 20
1544.690201426974
 30
0.0
 40
2.999999999999733
100
AcDbArc
 50
-16.87500000001599
 51
73.12500000000983
  0
ARC
  5
329
330
1F
100
AcDbEntity
  8
1
  6
Continuous
 62
     7
100
AcDbCircle
 10
1409.271718833284
 20
1465.553937541199
 30
0.0
 40
2.999999999998337
100
AcDbArc
 50
-13.12500000002712
 51
76.87500000001489
  0
ARC
  5
32A
330
1F
100
AcDbEntity
  8
1
  6
Continuous
 62
     7
100
AcDbCircle
 10
1416.992311776455
 20
1498.665754836628
 30
0.0
 40
2.999999999998965
100
AcDbArc
 50
-103.125000000002
 51
-13.12500000000203
  0
ARC
  5
32B
330
1F
100
AcDbEntity
  8
1
  6
Continuous
 62
     7
100
AcDbCircle
 10
1394.437606485338
 20
1385.275594193093
 30
0.0
 40
2.999999999999409
100
AcDbArc
 50
-9.37500000000575
 51
80.62500000003206
  0
ARC
  5
32C
330
1F
100
AcDbEntity
  8
1
  6
Continuous
 62
     7
100
AcDbCircle
 10
1399.976052580756
 20
1418.821467483979
 30
0.0
 40
2.999999999999261
100
AcDbArc
 50
-99.37499999998862
 51
-9.37499999998579
  0
ARC
  5
32D
330
1F
100
AcDbEntity
  8
1
  6
Continuous
 62
     7
100
AcDbCircle
 10
1384.88570997495
 20
1304.198935573494
 30
0.0
 40
2.999999999999372
100
AcDbArc
 50
-5.62500000000797
 51
84.37500000001364
  0
ARC
  5
32E
330
1F
100
AcDbEntity
  8
1
  6
Continuous
 62
     7
100
AcDbCircle
 10
1388.218292746158
 20
1338.035216280349
 30
0.0
 40
2.999999999999282
100
AcDbArc
 50
-95.62499999999068
 51
-5.62499999998636
  0
ARC
  5
32F
330
1F
100
AcDbEntity
  8
1
  6
Continuous
 62
     7
100
AcDbCircle
 10
1381.769380805397
 20
1256.652940355892
 30
0.0
 40
2.999999999999894
100
AcDbArc
 50
-91.87499999997614
 51
-1.87499999999294
  0
ARC
  5
330
330
1F
100
AcDbEntity
  8
1
  6
Continuous
 62
     7
100
AcDbCircle
 10
1380.656931989454
 20
1222.671144381695
 30
0.0
 40
3.00000000000087
100
AcDbArc
 50
-1.87500000001464
 51
88.12499999998914
  0
ARC
  5
331
330
1F
100
AcDbEntity
  8
1
  6
Continuous
 62
     7
100
AcDbCircle
 10
1381.183828059684
 20
573.488397676505
 30
0.0
 40
2.99999999999861
100
AcDbArc
 50
1.4320961841526
 51
91.43209618419124
  0
ARC
  5
332
330
1F
100
AcDbEntity
  8
1
  6
Continuous
 62
     7
100
AcDbCircle
 10
1380.334093560236
 20
607.4777776543799
 30
0.0
 40
2.999999999998588
100
AcDbArc
 50
-88.56790381586477
 51
1.43209618419069
  0
ARC
  5
333
330
1F
100
AcDbEntity
  8
1
  6
Continuous
 62
     7
100
AcDbCircle
 10
1368.625252001681
 20
575.6752144030229
 30
0.0
 40
0.4999999999980636
100
AcDbArc
 50
91.43209618415749
 51
-178.5679038157468
  0
ARC
  5
334
330
1F
100
AcDbEntity
  8
1
  6
Continuous
 62
     7
100
AcDbCircle
 10
1361.627438476824
 20
575.5002690649001
 30
0.0
 40
0.5000000000019278
100
AcDbArc
 50
1.43209618414641
 51
91.43209618414967
  0
ARC
  5
335
330
1F
100
AcDbEntity
  8
1
  6
Continuous
 62
     7
100
AcDbCircle
 10
1345.632436134295
 20
575.1003940063379
 30
0.0
 40
0.4999999999989728
100
AcDbArc
 50
91.43209618415489
 51
-178.5679038158536
  0
ARC
  5
336
330
1F
100
AcDbEntity
  8
1
  6
Continuous
 62
     7
100
AcDbCircle
 10
1367.900478458033
 20
604.6661561488579
 30
0.0
 40
0.4999999999999047
100
AcDbArc
 50
-178.5679038157435
 51
-88.56790381584773
  0
ARC
  5
337
330
1F
100
AcDbEntity
  8
1
  6
Continuous
 62
     7
100
AcDbCircle
 10
1360.90266493318
 20
604.4912108107369
 30
0.0
 40
0.499999999999882
100
AcDbArc
 50
-88.56790381584773
 51
1.43209618416074
  0
ARC
  5
338
330
1F
100
AcDbEntity
  8
1
  6
Continuous
 62
     7
100
AcDbCircle
 10
1344.90766259065
 20
604.0913357521729
 30
0.0
 40
0.5000000000010185
100
AcDbArc
 50
-178.567903815851
 51
-88.56790381584773
  0
TEXT
  5
339
330
1F
100
AcDbEntity
  8
1
 62
     2
100
AcDbText
 10
1069.790552397037
 20
1448.502279390957
 30
0.0
 40
50.0
  1
L
 41
0.9
  7
CONVERTER_1
100
AcDbText
  0
TEXT
  5
33A
330
1F
100
AcDbEntity
  8
1
 62
     2
100
AcDbText
 10
1559.980552397036
 20
2341.412279390957
 30
0.0
 40
50.0
  1
R
 41
0.9
  7
CONVERTER_1
100
AcDbText
  0
TEXT
  5
33B
330
1F
100
AcDbEntity
  8
1
 62
     2
100
AcDbText
 10
3264.076153846149
 20
462.031922644601
 30
0.0
 40
32.0
  1
回転方向：本図はLタイプを示す。
 41
0.89
  7
CONVERTER_3
100
AcDbText
  0
MTEXT
  5
33C
330
1F
100
AcDbEntity
  8
1
 62
     2
100
AcDbMText
 10
2972.900974184948
 20
148.3553215244791
 30
0.0
 40
32.0
 41
0.0
 71
     4
 72
     1
  1
本体組立図 60°カーブ 呼び幅 400 ～ 1000 mm
  7
CONVERTER_3
 73
     1
 44
1.32052821128451
  0
TEXT
  5
33D
330
1F
100
AcDbEntity
  8
1
 62
     2
100
AcDbText
 10
2368.999149914949
 20
131.3494563701199
 30
0.0
 40
40.0
  1
マルチベヤシリーズ
 41
0.89
  7
CONVERTER_3
100
AcDbText
  0
MTEXT
  5
33E
330
1F
100
AcDbEntity
  8
1
 62
     2
100
AcDbMText
 10
3489.483070416168
 20
54.52424077374957
 30
0.0
 40
32.0
 41
0.0
 71
     4
 72
     1
  1
W_MCC3_C_S_020
  7
CONVERTER_1
 73
     1
 44
1.32052821128451
  0
TEXT
  5
33F
330
1F
100
AcDbEntity
  8
1
 62
     2
100
AcDbText
 10
1716.986544890392
 20
110.6975109384339
 30
0.0
 40
32.0
  1
2011.8.26
 41
0.9
  7
CONVERTER_1
100
AcDbText
  0
MTEXT
  5
340
330
1F
100
AcDbEntity
  8
1
 62
     2
100
AcDbMText
 10
2966.275491949911
 20
649.8413680828832
 30
0.0
 40
32.0
 41
0.0
 71
     1
 72
     1
  1
相当ローラピッチ 75 はローラ本数 16 本\P　　　　　　　　100 はローラ本数 12 本となります。
  7
CONVERTER_3
 73
     1
 44
1.08043217286915
  0
MTEXT
  5
341
330
1F
100
AcDbEntity
  8
1
 62
     3
100
AcDbMText
 10
1554.630359791257
 20
421.0858652260852
 30
0.0
 40
32.0
 41
0.0
 71
     8
 72
     1
  1
一 般 断 面 図 
  7
CONVERTER_3
 73
     1
 44
1.20048019207683
  0
TEXT
  5
342
330
1F
100
AcDbEntity
  8
1
 62
     2
100
AcDbText
 10
2400.156772692229
 20
24.71999999999969
 30
0.0
 40
32.0
  1
MCC3-C
 41
0.9
  7
CONVERTER_1
100
AcDbText
  0
DIMENSION
  5
355
330
1F
100
AcDbEntity
  8
1
100
AcDbDimension
  2
*D02
 10
917.6457584263113
 20
1874.53964829709
 30
0.0
 11
804.1271012651133
 21
1966.637787949875
 31
0.0
 70
    32
  1
<>
 71
     5
 42
-1.0
 53
-30.00000000000002
  3
ME10_DIM_0
100
AcDbAlignedDimension
 13
717.8381372909795
 23
2128.462696751222
 33
0.0
 14
977.6457584263113
 24
1978.462696751222
 34
0.0
 50
-30.00000000000002
100
AcDbRotatedDimension
  0
DIMENSION
  5
362
330
1F
100
AcDbEntity
  8
1
100
AcDbDimension
  2
*D14
 10
1297.979516994544
 20
965.6383375480734
 30
0.0
 11
1521.446051103624
 21
988.99631926387
 31
0.0
 70
    32
  1
機 幅
 71
     5
 42
-1.0
 53
0.00013888888889
  3
ME10_DIM_1
100
AcDbAlignedDimension
 13
1757.979516994543
 23
611.688337548072
 33
0.0
 14
1297.979516994544
 24
617.688337548072
 34
0.0
100
AcDbRotatedDimension
  0
DIMENSION
  5
371
330
1F
100
AcDbEntity
  8
1
100
AcDbDimension
  2
*D25
 10
1651.429354445587
 20
660.7146125511233
 30
0.0
 11
1607.998325737985
 21
685.2421362631801
 31
0.0
 70
    33
  1
<>
 71
     5
 42
-1.0
 52
60.00000000000001
 53
-88.56790381583566
  3
ME10_DIM_2
100
AcDbAlignedDimension
 13
1724.217896657724
 23
576.4124840422469
 33
0.0
 14
1723.085750398167
 24
621.6983344245351
 34
0.0
  0
DIMENSION
  5
37E
330
1F
100
AcDbEntity
  8
1
100
AcDbDimension
  2
*D36
 10
612.8152208158152
 20
2189.097705849236
 30
0.0
 11
661.9662936575193
 21
2320.229861257587
 31
0.0
 70
    33
  1
<>
 71
     5
 42
-1.0
 53
60.00000000000005
  3
ME10_DIM_3
100
AcDbAlignedDimension
 13
867.8381372909788
 23
2388.270317886553
 33
0.0
 14
717.8381372909795
 24
2128.462696751222
 34
0.0
  0
DIMENSION
  5
38D
330
1F
100
AcDbEntity
  8
1
100
AcDbDimension
  2
*D47
 10
1546.994198834546
 20
2094.409257761728
 30
0.0
 11
1498.522803627283
 21
2062.365618411239
 31
0.0
 70
    33
  1
相当ローラピッチ
 71
     5
 42
-1.0
 52
70.0
 53
56.25000000000004
  3
ME10_DIM_4
100
AcDbAlignedDimension
 13
1693.857117315275
 23
1779.721773461361
 33
0.0
 14
1733.848163943736
 24
1839.57260430054
 34
0.0
  0
DIMENSION
  5
39A
330
1F
100
AcDbEntity
  8
1
100
AcDbDimension
  2
*D58
 10
1877.979516994543
 20
491.6883375480721
 30
0.0
 11
1843.343738564503
 21
554.14299739827
 31
0.0
 70
    32
  1
<>
 71
     5
 42
-1.0
 53
90.0
  3
ME10_DIM_5
100
AcDbAlignedDimension
 13
1757.979516994543
 23
611.688337548072
 33
0.0
 14
1757.979516994543
 24
491.6883375480721
 34
0.0
 50
90.0
100
AcDbRotatedDimension
  0
DIMENSION
  5
3A9
330
1F
100
AcDbEntity
  8
1
100
AcDbDimension
  2
*D69
 10
1877.979516994544
 20
611.6883375480722
 30
0.0
 11
1847.632997090634
 21
663.0901639620001
 31
0.0
 70
    32
  1
<>
 71
     5
 42
-1.0
 53
90.0
  3
ME10_DIM_6
100
AcDbAlignedDimension
 13
1723.085750398167
 23
621.6983344245351
 33
0.0
 14
1757.979516994543
 24
611.688337548072
 34
0.0
 50
90.0
100
AcDbRotatedDimension
  0
DIMENSION
  5
3B8
330
1F
100
AcDbEntity
  8
1
100
AcDbDimension
  2
*D710
 10
1297.979516994543
 20
765.6383375480737
 30
0.0
 11
1344.537991875633
 21
794.5861033727401
 31
0.0
 70
    32
  1
<>
 71
     5
 42
-1.0
 53
0.00013888888889
  3
ME10_DIM_7
100
AcDbAlignedDimension
 13
1382.979516994544
 23
621.6983344245369
 33
0.0
 14
1297.979516994544
 24
617.688337548072
 34
0.0
100
AcDbRotatedDimension
  0
DIMENSION
  5
3C7
330
1F
100
AcDbEntity
  8
1
100
AcDbDimension
  2
*D811
 10
1723.085750398167
 20
765.6383375480737
 30
0.0
 11
1800.076244387702
 21
795.6917787429102
 31
0.0
 70
    32
  1
<>
 71
     5
 42
-1.0
 53
0.00013888888889
  3
ME10_DIM_8
100
AcDbAlignedDimension
 13
1757.979516994543
 23
611.688337548072
 33
0.0
 14
1723.085750398167
 24
621.6983344245351
 34
0.0
100
AcDbRotatedDimension
  0
DIMENSION
  5
3D4
330
1F
100
AcDbEntity
  8
1
100
AcDbDimension
  2
*D912
 10
1382.979516994544
 20
765.6383375480741
 30
0.0
 11
1553.032633696356
 21
791.1383375480741
 31
0.0
 70
    32
  1
ローラ幅
 71
     5
 42
-1.0
 53
0.00013888888889
  3
ME10_DIM_9
100
AcDbAlignedDimension
 13
1723.085750398167
 23
621.6983344245351
 33
0.0
 14
1382.979516994544
 24
621.6983344245369
 34
0.0
100
AcDbRotatedDimension
  0
DIMENSION
  5
3E4
330
1F
100
AcDbEntity
  8
1
100
AcDbDimension
  2
*D1013
 10
1297.979516994543
 20
865.6383375480739
 30
0.0
 11
1251.661260780943
 21
897.4139127990002
 31
0.0
 70
    32
  1
<>
 71
     5
 42
-1.0
 53
0.00013888888889
  3
ME10_DIM_10
100
AcDbAlignedDimension
 13
1327.979516994544
 23
605.2883375480732
 33
0.0
 14
1297.979516994544
 24
617.688337548072
 34
0.0
100
AcDbRotatedDimension
  0
DIMENSION
  5
3F4
330
1F
100
AcDbEntity
  8
1
100
AcDbDimension
  2
*D1114
 10
1727.979516994543
 20
865.6383375480739
 30
0.0
 11
1797.864893647354
 21
899.62526353935
 31
0.0
 70
    32
  1
<>
 71
     5
 42
-1.0
 53
0.00013888888889
  3
ME10_DIM_11
100
AcDbAlignedDimension
 13
1757.979516994543
 23
611.688337548072
 33
0.0
 14
1727.979516994543
 24
605.2883375480732
 34
0.0
100
AcDbRotatedDimension
  0
DIMENSION
  5
403
330
1F
100
AcDbEntity
  8
1
100
AcDbDimension
  2
*D1215
 10
1327.979516994544
 20
865.6383375480741
 30
0.0
 11
1527.979516994544
 21
891.6383375480741
 31
0.0
 70
    32
  1
<>
 71
     5
 42
-1.0
 53
0.00013888888889
  3
ME10_DIM_12
100
AcDbAlignedDimension
 13
1727.979516994543
 23
605.2883375480732
 33
0.0
 14
1327.979516994544
 24
605.2883375480732
 34
0.0
100
AcDbRotatedDimension
  0
INSERT
  5
40B
330
1F
100
AcDbEntity
  8
1
100
AcDbBlockReference
  2
*D1316
 10
0.0
 20
0.0
 30
0.0
  0
DIMENSION
  5
41A
330
1F
100
AcDbEntity
  8
1
100
AcDbDimension
  2
*D1417
 10
2299.475372645197
 20
1388.509093915995
 30
0.0
 11
2284.413904646021
 21
1424.018876955086
 31
0.0
 70
    37
  1
<>
 71
     5
 42
-1.0
  3
ME10_DIM_13
100
AcDb3PointAngularDimension
 13
2475.793263092017
 23
1462.441461718792
 33
0.0
 14
2285.1407699691
 24
1198.847137745969
 34
0.0
 15
2627.979516994583
 25
1198.847137745968
 35
0.0
  0
ENDSEC
  0
SECTION
  2
OBJECTS
  0
DICTIONARY
  5
C
330
0
100
AcDbDictionary
281
     1
  3
ACAD_GROUP
350
D
  3
ACAD_LAYOUT
350
1A
  3
ACAD_MLINESTYLE
350
17
  3
ACAD_PLOTSETTINGS
350
19
  3
ACAD_PLOTSTYLENAME
350
E
  0
DICTIONARY
  5
D
102
{ACAD_REACTORS
330
C
102
}
330
C
100
AcDbDictionary
281
     1
  0
DICTIONARY
  5
1A
102
{ACAD_REACTORS
330
C
102
}
330
C
100
AcDbDictionary
281
     1
  3
Layout1
350
1E
  3
Layout2
350
26
  3
Model
350
22
  0
DICTIONARY
  5
17
102
{ACAD_REACTORS
330
C
102
}
330
C
100
AcDbDictionary
281
     1
  3
Standard
350
18
  0
DICTIONARY
  5
19
102
{ACAD_REACTORS
330
C
102
}
330
C
100
AcDbDictionary
281
     1
  0
ACDBDICTIONARYWDFLT
  5
E
102
{ACAD_REACTORS
330
C
102
}
330
C
100
AcDbDictionary
281
     1
  3
Normal
350
F
100
AcDbDictionaryWithDefault
340
F
  0
LAYOUT
  5
1E
102
{ACAD_REACTORS
330
1A
102
}
330
1A
100
AcDbPlotSettings
  1

  2

  4

  6

 40
0.0
 41
0.0
 42
0.0
 43
0.0
 44
0.0
 45
0.0
 46
0.0
 47
0.0
 48
0.0
 49
0.0
140
0.0
141
0.0
142
1.0
143
1.0
 70
   688
 72
     0
 73
     0
 74
     5
  7

 75
    16
147
1.0
148
0.0
149
0.0
100
AcDbLayout
  1
Layout1
 70
     1
 71
     1
 10
0.0
 20
0.0
 11
0.0
 21
0.0
 12
0.0
 22
0.0
 32
0.0
 14
0.0
 24
0.0
 34
0.0
 15
0.0
 25
0.0
 35
0.0
146
0.0
 13
0.0
 23
0.0
 33
0.0
 16
1.0
 26
0.0
 36
0.0
 17
0.0
 27
1.0
 37
0.0
 76
     0
330
1B
  0
LAYOUT
  5
26
102
{ACAD_REACTORS
330
1A
102
}
330
1A
100
AcDbPlotSettings
  1

  2

  4

  6

 40
0.0
 41
0.0
 42
0.0
 43
0.0
 44
0.0
 45
0.0
 46
0.0
 47
0.0
 48
0.0
 49
0.0
140
0.0
141
0.0
142
1.0
143
1.0
 70
   688
 72
     0
 73
     0
 74
     5
  7

 75
    16
147
1.0
148
0.0
149
0.0
100
AcDbLayout
  1
Layout2
 70
     1
 71
     2
 10
0.0
 20
0.0
 11
0.0
 21
0.0
 12
0.0
 22
0.0
 32
0.0
 14
0.0
 24
0.0
 34
0.0
 15
0.0
 25
0.0
 35
0.0
146
0.0
 13
0.0
 23
0.0
 33
0.0
 16
1.0
 26
0.0
 36
0.0
 17
0.0
 27
1.0
 37
0.0
 76
     0
330
23
  0
LAYOUT
  5
22
102
{ACAD_REACTORS
330
1A
102
}
330
1A
100
AcDbPlotSettings
  1

  2

  4

  6

 40
0.0
 41
0.0
 42
0.0
 43
0.0
 44
0.0
 45
0.0
 46
0.0
 47
0.0
 48
0.0
 49
0.0
140
0.0
141
0.0
142
1.0
143
1.0
 70
  1712
 72
     0
 73
     0
 74
     0
  7

 75
     0
147
1.0
148
0.0
149
0.0
100
AcDbLayout
  1
Model
 70
     1
 71
     0
 10
0.0
 20
0.0
 11
0.0
 21
0.0
 12
0.0
 22
0.0
 32
0.0
 14
0.0
 24
-22.5615332095569
 34
0.0
 15
3940.0
 25
2680.0
 35
0.0
146
0.0
 13
0.0
 23
0.0
 33
0.0
 16
1.0
 26
0.0
 36
0.0
 17
0.0
 27
1.0
 37
0.0
 76
     0
330
1F
  0
MLINESTYLE
  5
18
102
{ACAD_REACTORS
330
17
102
}
330
17
100
AcDbMlineStyle
  2
Standard
 70
     0
  3

 62
   256
 51
90.0
 52
90.0
 71
     2
 49
0.5
 62
   256
  6
BYLAYER
 49
-0.5
 62
   256
  6
BYLAYER
  0
ACDBPLACEHOLDER
  5
F
102
{ACAD_REACTORS
330
E
102
}
330
E
  0
ENDSEC
  0
EOF
