  0
SECTION
  2
HEADER
  9
$ACADVER
  1
AC1015
  9
$ACADMAINTVER
 70
     6
  9
$DWGCODEPAGE
  3
DOS932
  9
$INSBASE
 10
0.0
 20
0.0
 30
0.0
  9
$EXTMIN
 10
0.0
 20
-22.5615332095569
 30
0.0
  9
$EXTMAX
 10
3940.0
 20
2680.0
 30
0.0
  9
$LIMMIN
 10
0.0
 20
0.0
  9
$LIMMAX
 10
12.0
 20
9.0
  9
$ORTHOMODE
 70
     0
  9
$REGENMODE
 70
     1
  9
$FILLMODE
 70
     1
  9
$QTEXTMODE
 70
     0
  9
$MIRRTEXT
 70
     1
  9
$LTSCALE
 40
1.0
  9
$ATTMODE
 70
     1
  9
$TEXTSIZE
 40
0.2
  9
$TRACEWID
 40
0.05
  9
$TEXTSTYLE
  7
Standard
  9
$CLAYER
  8
0
  9
$CELTYPE
  6
ByLayer
  9
$CECOLOR
 62
   256
  9
$CELTSCALE
 40
1.0
  9
$DISPSILH
 70
     0
  9
$DIMSCALE
 40
1.0
  9
$DIMASZ
 40
0.18
  9
$DIMEXO
 40
0.0625
  9
$DIMDLI
 40
0.38
  9
$DIMRND
 40
0.0
  9
$DIMDLE
 40
0.0
  9
$DIMEXE
 40
0.18
  9
$DIMTP
 40
0.0
  9
$DIMTM
 40
0.0
  9
$DIMTXT
 40
0.18
  9
$DIMCEN
 40
0.09
  9
$DIMTSZ
 40
0.0
  9
$DIMTOL
 70
     0
  9
$DIMLIM
 70
     0
  9
$DIMTIH
 70
     1
  9
$DIMTOH
 70
     1
  9
$DIMSE1
 70
     0
  9
$DIMSE2
 70
     0
  9
$DIMTAD
 70
     0
  9
$DIMZIN
 70
     0
  9
$DIMBLK
  1

  9
$DIMASO
 70
     1
  9
$DIMSHO
 70
     1
  9
$DIMPOST
  1

  9
$DIMAPOST
  1

  9
$DIMALT
 70
     0
  9
$DIMALTD
 70
     2
  9
$DIMALTF
 40
25.4
  9
$DIMLFAC
 40
1.0
  9
$DIMTOFL
 70
     0
  9
$DIMTVP
 40
0.0
  9
$DIMTIX
 70
     0
  9
$DIMSOXD
 70
     0
  9
$DIMSAH
 70
     0
  9
$DIMBLK1
  1

  9
$DIMBLK2
  1

  9
$DIMSTYLE
  2
Standard
  9
$DIMCLRD
 70
     0
  9
$DIMCLRE
 70
     0
  9
$DIMCLRT
 70
     0
  9
$DIMTFAC
 40
1.0
  9
$DIMGAP
 40
0.09
  9
$DIMJUST
 70
     0
  9
$DIMSD1
 70
     0
  9
$DIMSD2
 70
     0
  9
$DIMTOLJ
 70
     1
  9
$DIMTZIN
 70
     0
  9
$DIMALTZ
 70
     0
  9
$DIMALTTZ
 70
     0
  9
$DIMUPT
 70
     0
  9
$DIMDEC
 70
     4
  9
$DIMTDEC
 70
     4
  9
$DIMALTU
 70
     2
  9
$DIMALTTD
 70
     2
  9
$DIMTXSTY
  7
Standard
  9
$DIMAUNIT
 70
     0
  9
$DIMADEC
 70
     0
  9
$DIMALTRND
 40
0.0
  9
$DIMAZIN
 70
     0
  9
$DIMDSEP
 70
    46
  9
$DIMATFIT
 70
     3
  9
$DIMFRAC
 70
     0
  9
$DIMLDRBLK
  1

  9
$DIMLUNIT
 70
     2
  9
$DIMLWD
 70
    -2
  9
$DIMLWE
 70
    -2
  9
$DIMTMOVE
 70
     0
  9
$LUNITS
 70
     2
  9
$LUPREC
 70
     4
  9
$SKETCHINC
 40
0.1
  9
$FILLETRAD
 40
0.5
  9
$AUNITS
 70
     0
  9
$AUPREC
 70
     0
  9
$MENU
  1
.
  9
$ELEVATION
 40
0.0
  9
$PELEVATION
 40
0.0
  9
$THICKNESS
 40
0.0
  9
$LIMCHECK
 70
     0
  9
$CHAMFERA
 40
0.5
  9
$CHAMFERB
 40
0.5
  9
$CHAMFERC
 40
1.0
  9
$CHAMFERD
 40
0.0
  9
$SKPOLY
 70
     0
  9
$TDCREATE
 40
2455804.544632303
  9
$TDUCREATE
 40
2455804.169632303
  9
$TDUPDATE
 40
2455804.544632315
  9
$TDUUPDATE
 40
2455804.169632315
  9
$TDINDWG
 40
0.0000000116
  9
$TDUSRTIMER
 40
0.0000000116
  9
$USRTIMER
 70
     1
  9
$ANGBASE
 50
0.0
  9
$ANGDIR
 70
     0
  9
$PDMODE
 70
     0
  9
$PDSIZE
 40
0.0
  9
$PLINEWID
 40
0.0
  9
$SPLFRAME
 70
     0
  9
$SPLINETYPE
 70
     6
  9
$SPLINESEGS
 70
     8
  9
$HANDSEED
  5
4AE
  9
$SURFTAB1
 70
     6
  9
$SURFTAB2
 70
     6
  9
$SURFTYPE
 70
     6
  9
$SURFU
 70
     6
  9
$SURFV
 70
     6
  9
$UCSBASE
  2

  9
$UCSNAME
  2

  9
$UCSORG
 10
0.0
 20
0.0
 30
0.0
  9
$UCSXDIR
 10
1.0
 20
0.0
 30
0.0
  9
$UCSYDIR
 10
0.0
 20
1.0
 30
0.0
  9
$UCSORTHOREF
  2

  9
$UCSORTHOVIEW
 70
     0
  9
$UCSORGTOP
 10
0.0
 20
0.0
 30
0.0
  9
$UCSORGBOTTOM
 10
0.0
 20
0.0
 30
0.0
  9
$UCSORGLEFT
 10
0.0
 20
0.0
 30
0.0
  9
$UCSORGRIGHT
 10
0.0
 20
0.0
 30
0.0
  9
$UCSORGFRONT
 10
0.0
 20
0.0
 30
0.0
  9
$UCSORGBACK
 10
0.0
 20
0.0
 30
0.0
  9
$PUCSBASE
  2

  9
$PUCSNAME
  2

  9
$PUCSORG
 10
0.0
 20
0.0
 30
0.0
  9
$PUCSXDIR
 10
1.0
 20
0.0
 30
0.0
  9
$PUCSYDIR
 10
0.0
 20
1.0
 30
0.0
  9
$PUCSORTHOREF
  2

  9
$PUCSORTHOVIEW
 70
     0
  9
$PUCSORGTOP
 10
0.0
 20
0.0
 30
0.0
  9
$PUCSORGBOTTOM
 10
0.0
 20
0.0
 30
0.0
  9
$PUCSORGLEFT
 10
0.0
 20
0.0
 30
0.0
  9
$PUCSORGRIGHT
 10
0.0
 20
0.0
 30
0.0
  9
$PUCSORGFRONT
 10
0.0
 20
0.0
 30
0.0
  9
$PUCSORGBACK
 10
0.0
 20
0.0
 30
0.0
  9
$USERI1
 70
     0
  9
$USERI2
 70
     0
  9
$USERI3
 70
     0
  9
$USERI4
 70
     0
  9
$USERI5
 70
     0
  9
$USERR1
 40
14.0
  9
$USERR2
 40
0.0
  9
$USERR3
 40
0.0
  9
$USERR4
 40
0.0
  9
$USERR5
 40
0.0
  9
$WORLDVIEW
 70
     1
  9
$SHADEDGE
 70
     3
  9
$SHADEDIF
 70
    70
  9
$TILEMODE
 70
     1
  9
$MAXACTVP
 70
    64
  9
$PINSBASE
 10
0.0
 20
0.0
 30
0.0
  9
$PLIMCHECK
 70
     0
  9
$PEXTMIN
 10
1.00000000000000E+20
 20
1.00000000000000E+20
 30
1.00000000000000E+20
  9
$PEXTMAX
 10
-1.00000000000000E+20
 20
-1.00000000000000E+20
 30
-1.00000000000000E+20
  9
$PLIMMIN
 10
0.0
 20
0.0
  9
$PLIMMAX
 10
12.0
 20
9.0
  9
$UNITMODE
 70
     0
  9
$VISRETAIN
 70
     1
  9
$PLINEGEN
 70
     0
  9
$PSLTSCALE
 70
     1
  9
$TREEDEPTH
 70
  3020
  9
$CMLSTYLE
  2
Standard
  9
$CMLJUST
 70
     0
  9
$CMLSCALE
 40
1.0
  9
$PROXYGRAPHICS
 70
     1
  9
$MEASUREMENT
 70
     1
  9
$CELWEIGHT
370
    -1
  9
$ENDCAPS
280
     0
  9
$JOINSTYLE
280
     0
  9
$LWDISPLAY
290
     0
  9
$INSUNITS
 70
     1
  9
$HYPERLINKBASE
  1

  9
$STYLESHEET
  1

  9
$XEDIT
290
     1
  9
$CEPSNTYPE
380
     0
  9
$PSTYLEMODE
290
     1
  9
$FINGERPRINTGUID
  2
{97EE284F-B4E8-49A9-8B86-B153327B6CC6}
  9
$VERSIONGUID
  2
{FAEB1C32-E019-11D5-929B-00C0DF256EC4}
  9
$EXTNAMES
290
     1
  9
$PSVPSCALE
 40
0.0
  9
$OLESTARTUP
290
     0
  0
ENDSEC
  0
SECTION
  2
CLASSES
  0
CLASS
  1
ACDBDICTIONARYWDFLT
  2
AcDbDictionaryWithDefault
  3
ObjectDBX Classes
 90
        0
280
     0
281
     0
  0
CLASS
  1

  2
exOdDbCircle
  3

 90
        0
280
     0
281
     1
  0
CLASS
  1
ACDBPLACEHOLDER
  2
AcDbPlaceHolder
  3
ObjectDBX Classes
 90
        0
280
     0
281
     0
  0
CLASS
  1
LAYOUT
  2
AcDbLayout
  3
ObjectDBX Classes
 90
        0
280
     0
281
     0
  0
ENDSEC
  0
SECTION
  2
TABLES
  0
TABLE
  2
VPORT
  5
8
330
0
100
AcDbSymbolTable
 70
     1
  0
VPORT
  5
29
330
8
100
AcDbSymbolTableRecord
100
AcDbViewportTableRecord
  2
*Active
 70
     0
 10
0.0
 20
0.0
 11
1.0
 21
1.0
 12
1970.0
 22
1328.719233395222
 13
0.0
 23
0.0
 14
0.5
 24
0.5
 15
0.5
 25
0.5
 16
0.0
 26
0.0
 36
1.0
 17
0.0
 27
0.0
 37
0.0
 40
2972.817686530513
 41
1.60267857142857
 42
50.0
 43
0.0
 44
0.0
 50
0.0
 51
0.0
 71
     0
 72
   100
 73
     1
 74
     3
 75
     0
 76
     0
 77
     0
 78
     0
281
     0
 65
     1
110
0.0
120
0.0
130
0.0
111
1.0
121
0.0
131
0.0
112
0.0
122
1.0
132
0.0
 79
     0
146
0.0
  0
ENDTAB
  0
TABLE
  2
LTYPE
  5
5
330
0
100
AcDbSymbolTable
 70
     8
  0
LTYPE
  5
14
330
5
100
AcDbSymbolTableRecord
100
AcDbLinetypeTableRecord
  2
ByBlock
 70
     0
  3

 72
    65
 73
     0
 40
0.0
  0
LTYPE
  5
15
330
5
100
AcDbSymbolTableRecord
100
AcDbLinetypeTableRecord
  2
ByLayer
 70
     0
  3

 72
    65
 73
     0
 40
0.0
  0
LTYPE
  5
16
330
5
100
AcDbSymbolTableRecord
100
AcDbLinetypeTableRecord
  2
Continuous
 70
     0
  3
Solid line
 72
    65
 73
     0
 40
0.0
  0
LTYPE
  5
2A
330
5
100
AcDbSymbolTableRecord
100
AcDbLinetypeTableRecord
  2
DASHED
 70
     0
  3
Dashed
 72
    65
 73
     2
 40
15.0
 49
7.0
 74
     0
 49
-8.0
 74
     0
  0
LTYPE
  5
2B
330
5
100
AcDbSymbolTableRecord
100
AcDbLinetypeTableRecord
  2
DOTTED
 70
     0
  3
Dotted
 72
    65
 73
     2
 40
1.0
 49
0.0
 74
     0
 49
-1.0
 74
     0
  0
LTYPE
  5
2C
330
5
100
AcDbSymbolTableRecord
100
AcDbLinetypeTableRecord
  2
DOT_CENTER
 70
     0
  3
Dot_Center
 72
    65
 73
     4
 40
14.0
 49
12.0
 74
     0
 49
-1.0
 74
     0
 49
0.0
 74
     0
 49
-1.0
 74
     0
  0
LTYPE
  5
2D
330
5
100
AcDbSymbolTableRecord
100
AcDbLinetypeTableRecord
  2
LONG_DASHED
 70
     0
  3
Long_Dashed
 72
    65
 73
     2
 40
15.0
 49
10.0
 74
     0
 49
-5.0
 74
     0
  0
LTYPE
  5
2E
330
5
100
AcDbSymbolTableRecord
100
AcDbLinetypeTableRecord
  2
DASH_CENTER
 70
     0
  3
Dash_Center
 72
    65
 73
     4
 40
14.0
 49
11.0
 74
     0
 49
-1.0
 74
     0
 49
1.0
 74
     0
 49
-1.0
 74
     0
  0
LTYPE
  5
2F
330
5
100
AcDbSymbolTableRecord
100
AcDbLinetypeTableRecord
  2
PHANTOM
 70
     0
  3
Phantom
 72
    65
 73
     6
 40
13.0
 49
10.0
 74
     0
 49
-1.0
 74
     0
 49
0.0
 74
     0
 49
-1.0
 74
     0
 49
0.0
 74
     0
 49
-1.0
 74
     0
  0
LTYPE
  5
30
330
5
100
AcDbSymbolTableRecord
100
AcDbLinetypeTableRecord
  2
CENTER_DASH_DASH
 70
     0
  3
Center_Dash_Dash
 72
    65
 73
     6
 40
14.0
 49
9.0
 74
     0
 49
-1.0
 74
     0
 49
1.0
 74
     0
 49
-1.0
 74
     0
 49
1.0
 74
     0
 49
-1.0
 74
     0
  0
ENDTAB
  0
TABLE
  2
LAYER
  5
2
330
0
100
AcDbSymbolTable
 70
     4
  0
LAYER
  5
10
330
2
100
AcDbSymbolTableRecord
100
AcDbLayerTableRecord
  2
0
 70
     0
 62
     7
  6
Continuous
370
    -3
390
F
  0
LAYER
  5
31
330
2
100
AcDbSymbolTableRecord
100
AcDbLayerTableRecord
  2
1
 70
     0
 62
     7
  6
Continuous
370
    -3
390
F
  0
LAYER
  5
32
330
2
100
AcDbSymbolTableRecord
100
AcDbLayerTableRecord
  2
COLOR
 70
     0
 62
     7
  6
Continuous
370
    -3
390
F
  0
LAYER
  5
33
330
2
100
AcDbSymbolTableRecord
100
AcDbLayerTableRecord
  2
DETAIL
 70
     0
 62
     7
  6
Continuous
370
    -3
390
F
  0
ENDTAB
  0
TABLE
  2
STYLE
  5
3
330
0
100
AcDbSymbolTable
 70
     6
  0
STYLE
  5
11
330
3
100
AcDbSymbolTableRecord
100
AcDbTextStyleTableRecord
  2
Standard
 70
     0
 40
0.0
 41
1.0
 50
0.0
 71
     0
 42
0.2
  3
txt
  4

  0
STYLE
  5
52
330
3
100
AcDbSymbolTableRecord
100
AcDbTextStyleTableRecord
  2
CONVERTER_1
 70
     0
 40
0.0
 41
0.9
 50
0.0
 71
     0
 42
0.2
  3
txt.shx
  4

  0
STYLE
  5
55
330
3
100
AcDbSymbolTableRecord
100
AcDbTextStyleTableRecord
  2
CONVERTER_2
 70
     0
 40
0.0
 41
1.068
 50
0.0
 71
     0
 42
0.2
  3
msmincho.ttc
  4

1001
ACAD
1000
MS Mincho
1071
    32785
  0
STYLE
  5
58
330
3
100
AcDbSymbolTableRecord
100
AcDbTextStyleTableRecord
  2
CONVERTER_3
 70
     0
 40
0.0
 41
0.89
 50
0.0
 71
     0
 42
0.2
  3
MSMINCHO.TTC
  4

1001
ACAD
1000
MS Mincho
1071
    32785
  0
STYLE
  5
5B
330
3
100
AcDbSymbolTableRecord
100
AcDbTextStyleTableRecord
  2
CONVERTER_4
 70
     0
 40
0.0
 41
0.801
 50
0.0
 71
     0
 42
0.2
  3
msmincho.ttc
  4

1001
ACAD
1000
MS Mincho
1071
    32785
  0
STYLE
  5
5F
330
3
100
AcDbSymbolTableRecord
100
AcDbTextStyleTableRecord
  2
CONVERTER_5
 70
     0
 40
0.0
 41
0.9025
 50
0.0
 71
     0
 42
0.2
  3
complex.shx
  4

  0
ENDTAB
  0
TABLE
  2
VIEW
  5
6
330
0
100
AcDbSymbolTable
 70
     0
  0
ENDTAB
  0
TABLE
  2
UCS
  5
7
330
0
100
AcDbSymbolTable
 70
     0
  0
ENDTAB
  0
TABLE
  2
APPID
  5
9
330
0
100
AcDbSymbolTable
 70
     1
  0
APPID
  5
12
330
9
100
AcDbSymbolTableRecord
100
AcDbRegAppTableRecord
  2
ACAD
 70
     0
  0
ENDTAB
  0
TABLE
  2
DIMSTYLE
  5
A
330
0
100
AcDbSymbolTable
 70
    20
100
AcDbDimStyleTable
  0
DIMSTYLE
105
27
330
A
100
AcDbSymbolTableRecord
100
AcDbDimStyleTableRecord
  2
Standard
 70
     0
340
11
  0
DIMSTYLE
105
3A2
102
{ACAD_REACTORS
330
3A3
102
}
330
A
100
AcDbSymbolTableRecord
100
AcDbDimStyleTableRecord
  2
ME10_DIM_0
 70
     0
 41
32.0
 42
10.0
 44
10.0
 73
     0
 74
     0
 77
     1
 78
     8
140
32.0
147
7.0
172
     1
173
     1
176
     2
177
     2
178
     2
271
     2
340
58
343
39C
344
39C
  0
DIMSTYLE
105
3AF
102
{ACAD_REACTORS
330
3B0
102
}
330
A
100
AcDbSymbolTableRecord
100
AcDbDimStyleTableRecord
  2
ME10_DIM_1
 70
     0
 41
32.0
 42
10.0
 44
10.0
 73
     0
 74
     0
 77
     1
 78
     8
140
32.0
147
7.0
172
     1
173
     1
176
     2
177
     2
178
     2
271
     2
340
58
343
39C
344
39C
  0
DIMSTYLE
105
3BC
102
{ACAD_REACTORS
330
3BD
102
}
330
A
100
AcDbSymbolTableRecord
100
AcDbDimStyleTableRecord
  2
ME10_DIM_2
 70
     0
 41
32.0
 42
10.0
 44
10.0
 73
     0
 74
     0
 77
     1
 78
     8
140
32.0
147
7.0
172
     1
173
     1
176
     2
177
     2
178
     2
271
     2
340
52
343
39C
344
39C
  0
DIMSTYLE
105
3C9
102
{ACAD_REACTORS
330
3CA
102
}
330
A
100
AcDbSymbolTableRecord
100
AcDbDimStyleTableRecord
  2
ME10_DIM_3
 70
     0
 41
32.0
 42
10.0
 44
10.0
 73
     0
 74
     0
 77
     1
 78
     8
140
32.0
147
7.0
172
     1
173
     1
176
     2
177
     2
178
     2
271
     2
340
52
343
39C
344
39C
  0
DIMSTYLE
105
3D8
102
{ACAD_REACTORS
330
3D9
102
}
330
A
100
AcDbSymbolTableRecord
100
AcDbDimStyleTableRecord
  2
ME10_DIM_4
 70
     0
  3
φ<>
 41
32.0
 42
10.0
 44
10.0
 73
     0
 74
     0
 77
     1
 78
     8
140
32.0
147
10.0
172
     1
173
     1
176
     2
177
     2
178
     2
271
     2
340
58
343
39C
344
39C
  0
DIMSTYLE
105
3E7
102
{ACAD_REACTORS
330
3E8
102
}
330
A
100
AcDbSymbolTableRecord
100
AcDbDimStyleTableRecord
  2
ME10_DIM_5
 70
     0
 41
32.0
 42
10.0
 44
10.0
 73
     0
 74
     0
 77
     1
 78
     8
140
32.0
147
7.0
172
     1
173
     1
176
     2
177
     2
178
     2
271
     2
340
58
343
39C
344
39C
  0
DIMSTYLE
105
3F4
102
{ACAD_REACTORS
330
3F5
102
}
330
A
100
AcDbSymbolTableRecord
100
AcDbDimStyleTableRecord
  2
ME10_DIM_6
 70
     0
 41
32.0
 42
10.0
 44
10.0
 73
     0
 74
     0
 77
     1
 78
     8
140
32.0
147
10.0
172
     1
173
     1
176
     2
177
     2
178
     2
271
     2
340
58
343
39C
344
39C
  0
DIMSTYLE
105
403
102
{ACAD_REACTORS
330
404
102
}
330
A
100
AcDbSymbolTableRecord
100
AcDbDimStyleTableRecord
  2
ME10_DIM_7
 70
     0
 41
32.0
 42
10.0
 44
10.0
 73
     0
 74
     0
 77
     1
 78
     8
140
32.0
147
7.0
172
     1
173
     1
176
     2
177
     2
178
     2
271
     2
340
52
343
39C
344
39C
  0
DIMSTYLE
105
412
102
{ACAD_REACTORS
330
413
102
}
330
A
100
AcDbSymbolTableRecord
100
AcDbDimStyleTableRecord
  2
ME10_DIM_8
 70
     0
 41
32.0
 42
10.0
 44
10.0
 73
     0
 74
     0
 77
     1
 78
     8
140
32.0
147
7.0
172
     1
173
     1
176
     2
177
     2
178
     2
271
     2
340
52
343
39C
344
39C
  0
DIMSTYLE
105
41F
102
{ACAD_REACTORS
330
420
102
}
330
A
100
AcDbSymbolTableRecord
100
AcDbDimStyleTableRecord
  2
ME10_DIM_9
 70
     0
  3
　(呼び幅）
 41
32.0
 42
10.0
 44
10.0
 73
     0
 74
     0
 77
     1
 78
     8
140
32.0
147
7.0
172
     1
173
     1
176
     2
177
     2
178
     2
271
     2
340
58
343
39C
344
39C
  0
DIMSTYLE
105
42F
102
{ACAD_REACTORS
330
430
102
}
330
A
100
AcDbSymbolTableRecord
100
AcDbDimStyleTableRecord
  2
ME10_DIM_10
 70
     0
 41
32.0
 42
10.0
 44
10.0
 73
     0
 74
     0
 77
     1
 78
     8
140
32.0
147
10.0
172
     1
173
     1
176
     2
177
     2
178
     2
271
     2
340
52
343
39C
344
39C
  0
DIMSTYLE
105
43F
102
{ACAD_REACTORS
330
440
102
}
330
A
100
AcDbSymbolTableRecord
100
AcDbDimStyleTableRecord
  2
ME10_DIM_11
 70
     0
 41
32.0
 42
10.0
 44
10.0
 73
     0
 74
     0
 77
     1
 78
     8
140
32.0
147
10.0
172
     1
173
     1
176
     2
177
     2
178
     2
271
     2
340
52
343
39C
344
39C
  0
DIMSTYLE
105
44E
102
{ACAD_REACTORS
330
44F
102
}
330
A
100
AcDbSymbolTableRecord
100
AcDbDimStyleTableRecord
  2
ME10_DIM_12
 70
     0
 41
32.0
 42
10.0
 44
10.0
 73
     0
 74
     0
 77
     1
 78
     8
140
32.0
147
10.0
172
     1
173
     1
176
     2
177
     2
178
     2
271
     2
340
58
343
39C
344
39C
  0
DIMSTYLE
105
45D
102
{ACAD_REACTORS
330
45E
102
}
330
A
100
AcDbSymbolTableRecord
100
AcDbDimStyleTableRecord
  2
ME10_DIM_13
 70
     0
 41
32.0
 42
10.0
 44
10.0
 73
     0
 74
     0
 77
     1
 78
     8
140
32.0
147
10.0
172
     1
173
     1
176
     2
177
     2
178
     2
271
     0
340
52
343
39C
344
39C
  0
DIMSTYLE
105
46C
102
{ACAD_REACTORS
330
46D
102
}
330
A
100
AcDbSymbolTableRecord
100
AcDbDimStyleTableRecord
  2
ME10_DIM_14
 70
     0
 41
32.0
 42
10.0
 44
10.0
 73
     0
 74
     0
 77
     1
 78
     8
140
32.0
147
10.0
172
     1
173
     1
176
     2
177
     2
178
     2
271
     0
340
52
343
39C
344
39C
  0
DIMSTYLE
105
479
102
{ACAD_REACTORS
330
47A
102
}
330
A
100
AcDbSymbolTableRecord
100
AcDbDimStyleTableRecord
  2
ME10_DIM_15
 70
     0
 41
32.0
 42
10.0
 44
10.0
 73
     0
 74
     0
 77
     1
 78
     8
140
32.0
147
10.0
172
     1
173
     1
176
     2
177
     2
178
     2
271
     0
340
58
343
39C
344
39C
  0
DIMSTYLE
105
486
102
{ACAD_REACTORS
330
487
102
}
330
A
100
AcDbSymbolTableRecord
100
AcDbDimStyleTableRecord
  2
ME10_DIM_16
 70
     0
 41
32.0
 42
10.0
 44
10.0
 73
     0
 74
     0
 77
     1
 78
     8
140
32.0
147
10.0
172
     1
173
     1
176
     2
177
     2
178
     2
271
     0
340
52
343
39C
344
39C
  0
DIMSTYLE
105
495
102
{ACAD_REACTORS
330
496
102
}
330
A
100
AcDbSymbolTableRecord
100
AcDbDimStyleTableRecord
  2
ME10_DIM_17
 70
     0
 41
32.0
 42
10.0
 44
10.0
 73
     0
 74
     0
 77
     1
 78
     8
140
32.0
147
10.0
172
     1
173
     1
176
     2
177
     2
178
     2
271
     0
340
52
343
39C
344
39C
  0
DIMSTYLE
105
4AC
102
{ACAD_REACTORS
330
4AD
102
}
330
A
100
AcDbSymbolTableRecord
100
AcDbDimStyleTableRecord
  2
ME10_DIM_18
 70
     0
 41
32.0
 42
10.0
 44
10.0
 73
     0
 74
     0
 77
     1
 78
     8
140
32.0
147
10.0
172
     1
173
     1
176
     2
177
     2
178
     2
271
     2
340
52
343
39C
344
39C
  0
ENDTAB
  0
TABLE
  2
BLOCK_RECORD
  5
1
330
0
100
AcDbSymbolTable
 70
    23
  0
BLOCK_RECORD
  5
1F
330
1
100
AcDbSymbolTableRecord
100
AcDbBlockTableRecord
  2
*Model_Space
340
22
  0
BLOCK_RECORD
  5
1B
330
1
100
AcDbSymbolTableRecord
100
AcDbBlockTableRecord
  2
*Paper_Space
340
1E
  0
BLOCK_RECORD
  5
23
330
1
100
AcDbSymbolTableRecord
100
AcDbBlockTableRecord
  2
*Paper_Space0
340
26
  0
BLOCK_RECORD
  5
34
330
1
100
AcDbSymbolTableRecord
100
AcDbBlockTableRecord
  2
Zuwaku-A3-web
340
0
102
{BLKREFS
331
37
102
}
  0
BLOCK_RECORD
  5
391
330
1
100
AcDbSymbolTableRecord
100
AcDbBlockTableRecord
  2
*D02
340
0
  0
BLOCK_RECORD
  5
39C
330
1
100
AcDbSymbolTableRecord
100
AcDbBlockTableRecord
  2
_Open30
340
0
  0
BLOCK_RECORD
  5
3A4
330
1
100
AcDbSymbolTableRecord
100
AcDbBlockTableRecord
  2
*D14
340
0
  0
BLOCK_RECORD
  5
3B1
330
1
100
AcDbSymbolTableRecord
100
AcDbBlockTableRecord
  2
*D25
340
0
  0
BLOCK_RECORD
  5
3BE
330
1
100
AcDbSymbolTableRecord
100
AcDbBlockTableRecord
  2
*D36
340
0
  0
BLOCK_RECORD
  5
3CB
330
1
100
AcDbSymbolTableRecord
100
AcDbBlockTableRecord
  2
*D47
340
0
  0
BLOCK_RECORD
  5
3DA
330
1
100
AcDbSymbolTableRecord
100
AcDbBlockTableRecord
  2
*D58
340
0
  0
BLOCK_RECORD
  5
3E9
330
1
100
AcDbSymbolTableRecord
100
AcDbBlockTableRecord
  2
*D69
340
0
  0
BLOCK_RECORD
  5
3F6
330
1
100
AcDbSymbolTableRecord
100
AcDbBlockTableRecord
  2
*D710
340
0
  0
BLOCK_RECORD
  5
405
330
1
100
AcDbSymbolTableRecord
100
AcDbBlockTableRecord
  2
*D811
340
0
  0
BLOCK_RECORD
  5
414
330
1
100
AcDbSymbolTableRecord
100
AcDbBlockTableRecord
  2
*D912
340
0
  0
BLOCK_RECORD
  5
421
330
1
100
AcDbSymbolTableRecord
100
AcDbBlockTableRecord
  2
*D1013
340
0
  0
BLOCK_RECORD
  5
431
330
1
100
AcDbSymbolTableRecord
100
AcDbBlockTableRecord
  2
*D1114
340
0
  0
BLOCK_RECORD
  5
441
330
1
100
AcDbSymbolTableRecord
100
AcDbBlockTableRecord
  2
*D1215
340
0
  0
BLOCK_RECORD
  5
450
330
1
100
AcDbSymbolTableRecord
100
AcDbBlockTableRecord
  2
*D1316
340
0
  0
BLOCK_RECORD
  5
45F
330
1
100
AcDbSymbolTableRecord
100
AcDbBlockTableRecord
  2
*D1417
340
0
  0
BLOCK_RECORD
  5
46E
330
1
100
AcDbSymbolTableRecord
100
AcDbBlockTableRecord
  2
*D1518
340
0
  0
BLOCK_RECORD
  5
47B
330
1
100
AcDbSymbolTableRecord
100
AcDbBlockTableRecord
  2
*D1619
340
0
  0
BLOCK_RECORD
  5
488
330
1
100
AcDbSymbolTableRecord
100
AcDbBlockTableRecord
  2
*D1720
340
0
  0
BLOCK_RECORD
  5
497
330
1
100
AcDbSymbolTableRecord
100
AcDbBlockTableRecord
  2
*D1821
340
0
102
{BLKREFS
331
49E
102
}
  0
BLOCK_RECORD
  5
49F
330
1
100
AcDbSymbolTableRecord
100
AcDbBlockTableRecord
  2
*D1922
340
0
  0
ENDTAB
  0
ENDSEC
  0
SECTION
  2
BLOCKS
  0
BLOCK
  5
20
330
1F
100
AcDbEntity
  8
0
100
AcDbBlockBegin
  2
*Model_Space
 70
     0
 71
     0
 10
0.0
 20
0.0
 30
0.0
  3
*Model_Space
  1

  0
ENDBLK
  5
21
330
1F
100
AcDbEntity
  8
0
100
AcDbBlockEnd
  0
BLOCK
  5
1C
330
1B
100
AcDbEntity
 67
     1
  8
0
100
AcDbBlockBegin
  2
*Paper_Space
 70
     0
 71
     0
 10
0.0
 20
0.0
 30
0.0
  3
*Paper_Space
  1

  0
ENDBLK
  5
1D
330
1B
100
AcDbEntity
 67
     1
  8
0
100
AcDbBlockEnd
  0
BLOCK
  5
24
330
23
100
AcDbEntity
  8
0
100
AcDbBlockBegin
  2
*Paper_Space0
 70
     0
 71
     0
 10
0.0
 20
0.0
 30
0.0
  3
*Paper_Space0
  1

  0
ENDBLK
  5
25
330
23
100
AcDbEntity
  8
0
100
AcDbBlockEnd
  0
BLOCK
  5
35
330
34
100
AcDbEntity
  8
0
100
AcDbBlockBegin
  2
Zuwaku-A3-web
 70
     0
 71
     0
 10
196.9999999999998
 20
134.0
 30
0.0
  3
Zuwaku-A3-web
  1

  0
POINT
  5
38
330
34
100
AcDbEntity
  8
1
 62
     3
 60
     1
100
AcDbPoint
 10
162.5
 20
20.0
 30
0.0
  0
POINT
  5
39
330
34
100
AcDbEntity
  8
1
 62
     3
 60
     1
100
AcDbPoint
 10
202.0
 20
15.0
 30
0.0
  0
POINT
  5
3A
330
34
100
AcDbEntity
  8
1
 62
     3
 60
     1
100
AcDbPoint
 10
162.5
 20
15.0
 30
0.0
  0
POINT
  5
3B
330
34
100
AcDbEntity
  8
1
 62
     3
 60
     1
100
AcDbPoint
 10
9.5
 20
12.5
 30
0.0
  0
POINT
  5
3C
330
34
100
AcDbEntity
  8
1
 62
     3
 60
     1
100
AcDbPoint
 10
2.5
 20
12.5
 30
0.0
  0
POINT
  5
3D
330
34
100
AcDbEntity
  8
1
 62
     3
 60
     1
100
AcDbPoint
 10
0.0
 20
0.0
 30
0.0
  0
LINE
  5
3E
330
34
100
AcDbEntity
  8
1
  6
Continuous
 62
     4
100
AcDbLine
 10
189.4945771572093
 20
2.13397584248199
 30
0.0
 11
195.2266254722454
 21
7.866024157518
 31
0.0
  0
LINE
  5
3F
330
34
100
AcDbEntity
  8
1
  6
Continuous
 62
     7
100
AcDbLine
 10
0.0
 20
0.0
 30
0.0
 11
394.0
 21
0.0
 31
0.0
  0
LINE
  5
40
330
34
100
AcDbEntity
  8
1
  6
Continuous
 62
     4
100
AcDbLine
 10
162.5
 20
15.0
 30
0.0
 11
202.0
 21
15.0
 31
0.0
  0
LINE
  5
41
330
34
100
AcDbEntity
  8
1
  6
Continuous
 62
     3
100
AcDbLine
 10
9.5
 20
12.5
 30
0.0
 11
6.0
 21
19.0
 31
0.0
  0
LINE
  5
42
330
34
100
AcDbEntity
  8
1
  6
Continuous
 62
     3
100
AcDbLine
 10
2.5
 20
12.5
 30
0.0
 11
9.5
 21
12.5
 31
0.0
  0
LINE
  5
43
330
34
100
AcDbEntity
  8
1
  6
Continuous
 62
     3
100
AcDbLine
 10
6.0
 20
19.0
 30
0.0
 11
2.5
 21
12.5
 31
0.0
  0
LINE
  5
44
330
34
100
AcDbEntity
  8
1
  6
Continuous
 62
     4
100
AcDbLine
 10
12.0
 20
20.0
 30
0.0
 11
12.0
 21
0.0
 31
0.0
  0
LINE
  5
45
330
34
100
AcDbEntity
  8
1
  6
Continuous
 62
     4
100
AcDbLine
 10
0.0
 20
10.0
 30
0.0
 11
394.0
 21
10.0
 31
0.0
  0
LINE
  5
46
330
34
100
AcDbEntity
  8
1
  6
Continuous
 62
     7
100
AcDbLine
 10
393.9999999999996
 20
268.0
 30
0.0
 11
0.0
 21
268.0
 31
0.0
  0
LINE
  5
47
330
34
100
AcDbEntity
  8
1
  6
Continuous
 62
     7
100
AcDbLine
 10
394.0
 20
0.0
 30
0.0
 11
393.9999999999996
 21
268.0
 31
0.0
  0
LINE
  5
48
330
34
100
AcDbEntity
  8
1
  6
Continuous
 62
     4
100
AcDbLine
 10
202.0
 20
0.0
 30
0.0
 11
202.0
 21
20.0
 31
0.0
  0
LINE
  5
49
330
34
100
AcDbEntity
  8
1
  6
Continuous
 62
     4
100
AcDbLine
 10
162.5
 20
0.0
 30
0.0
 11
162.5
 21
20.0
 31
0.0
  0
LINE
  5
4A
330
34
100
AcDbEntity
  8
1
  6
Continuous
 62
     4
100
AcDbLine
 10
283.0
 20
20.0
 30
0.0
 11
283.0
 21
0.0
 31
0.0
  0
LINE
  5
4B
330
34
100
AcDbEntity
  8
1
  6
Continuous
 62
     4
100
AcDbLine
 10
227.0
 20
20.0
 30
0.0
 11
227.0
 21
0.0
 31
0.0
  0
LINE
  5
4C
330
34
100
AcDbEntity
  8
1
  6
Continuous
 62
     4
100
AcDbLine
 10
170.5
 20
10.0
 30
0.0
 11
170.5
 21
0.0
 31
0.0
  0
LINE
  5
4D
330
34
100
AcDbEntity
  8
1
  6
Continuous
 62
     4
100
AcDbLine
 10
66.0
 20
20.0
 30
0.0
 11
66.0
 21
0.0
 31
0.0
  0
LINE
  5
4E
330
34
100
AcDbEntity
  8
1
  6
Continuous
 62
     7
100
AcDbLine
 10
0.0
 20
268.0
 30
0.0
 11
0.0
 21
0.0
 31
0.0
  0
LINE
  5
4F
330
34
100
AcDbEntity
  8
1
  6
Continuous
 62
     4
100
AcDbLine
 10
173.7445771572093
 20
2.13397584248199
 30
0.0
 11
179.4766254722454
 21
7.866024157518
 31
0.0
  0
LINE
  5
50
330
34
100
AcDbEntity
  8
1
  6
Continuous
 62
     4
100
AcDbLine
 10
394.0
 20
20.0
 30
0.0
 11
0.0
 21
20.0
 31
0.0
  0
LINE
  5
51
330
34
100
AcDbEntity
  8
1
  6
Continuous
 62
     4
100
AcDbLine
 10
295.0
 20
20.0
 30
0.0
 11
295.0
 21
0.0
 31
0.0
  0
MTEXT
  5
53
330
34
100
AcDbEntity
  8
1
 62
     2
100
AcDbMText
 10
180.9766254722454
 20
3.75
 30
0.0
 40
4.0
 41
0.0
 71
     5
 72
     1
  1
10
  7
CONVERTER_1
 73
     1
 44
0.60024009603842
  0
MTEXT
  5
54
330
34
100
AcDbEntity
  8
1
 62
     2
100
AcDbMText
 10
173.183432867907
 20
6.25
 30
0.0
 40
4.0
 41
0.0
 71
     5
 72
     1
  1
1
  7
CONVERTER_1
 73
     1
 44
0.60024009603842
  0
MTEXT
  5
56
330
34
100
AcDbEntity
  8
1
 62
     2
100
AcDbMText
 10
289.0
 20
2.75
 30
0.0
 40
3.5
 41
0.0
 71
     5
 72
     1
  1
番号
  7
CONVERTER_2
 73
     1
 44
0.78031212484994
  0
MTEXT
  5
57
330
34
100
AcDbEntity
  8
1
 62
     2
100
AcDbMText
 10
166.5
 20
2.75
 30
0.0
 40
3.5
 41
0.0
 71
     5
 72
     1
  1
度
  7
CONVERTER_2
 73
     1
 44
0.78031212484994
  0
MTEXT
  5
59
330
34
100
AcDbEntity
  8
1
 62
     2
100
AcDbMText
 10
5.67807803017169
 20
2.75
 30
0.0
 40
3.5
 41
0.0
 71
     5
 72
     1
  1
番号
  7
CONVERTER_3
 73
     1
 44
0.78031212484994
  0
MTEXT
  5
5A
330
34
100
AcDbEntity
  8
1
 62
     7
100
AcDbMText
 10
114.25
 20
15.0
 30
0.0
 40
5.0
 41
0.0
 71
     5
 72
     1
  1
技術情報サービス
  7
CONVERTER_3
 73
     1
 44
1.20048019207683
  0
MTEXT
  5
5C
330
34
100
AcDbEntity
  8
1
 62
     2
100
AcDbMText
 10
214.5
 20
15.0
 30
0.0
 40
4.0
 41
0.0
 71
     5
 72
     1
  1
シリーズ名
  7
CONVERTER_4
 73
     1
 44
1.32052821128451
  0
MTEXT
  5
5D
330
34
100
AcDbEntity
  8
1
 62
     2
100
AcDbMText
 10
214.5
 20
5.0
 30
0.0
 40
4.0
 41
0.0
 71
     5
 72
     1
  1
機　種
  7
CONVERTER_3
 73
     1
 44
1.32052821128451
  0
MTEXT
  5
5E
330
34
100
AcDbEntity
  8
1
 62
     2
100
AcDbMText
 10
189.75
 20
6.5
 30
0.0
 40
4.0
 41
0.0
 71
     5
 72
     1
  1
1
  7
CONVERTER_1
 73
     1
 44
1.32052821128451
  0
MTEXT
  5
60
330
34
100
AcDbEntity
  8
1
 62
     7
100
AcDbMText
 10
114.25
 20
5.0
 30
0.0
 40
4.0
 41
0.0
 71
     5
 72
     1
  1
MARUYASU KIKAI CO.,LTD.
  7
CONVERTER_5
 73
     1
 44
1.32052821128451
  0
MTEXT
  5
61
330
34
100
AcDbEntity
  8
1
 62
     2
100
AcDbMText
 10
6.0
 20
7.25
 30
0.0
 40
3.5
 41
0.0
 71
     5
 72
     1
  1
改訂
  7
CONVERTER_3
 73
     1
 44
0.78031212484994
  0
MTEXT
  5
62
330
34
100
AcDbEntity
  8
1
 62
     2
100
AcDbMText
 10
39.0
 20
5.0
 30
0.0
 40
3.5
 41
0.0
 71
     5
 72
     1
  1
改　 訂　 記　 事
  7
CONVERTER_3
 73
     1
 44
1.32052821128451
  0
MTEXT
  5
63
330
34
100
AcDbEntity
  8
1
 62
     2
100
AcDbMText
 10
166.5
 20
7.25
 30
0.0
 40
3.5
 41
0.0
 71
     5
 72
     1
  1
尺
  7
CONVERTER_2
 73
     1
 44
0.78031212484994
  0
MTEXT
  5
64
330
34
100
AcDbEntity
  8
1
 62
     2
100
AcDbMText
 10
182.25
 20
17.5
 30
0.0
 40
3.5
 41
0.0
 71
     5
 72
     1
  1
年　　月　　日
  7
CONVERTER_3
 73
     1
 44
0.78031212484994
  0
MTEXT
  5
65
330
34
100
AcDbEntity
  8
1
 62
     2
100
AcDbMText
 10
289.0
 20
7.25
 30
0.0
 40
3.5
 41
0.0
 71
     5
 72
     1
  1
図面
  7
CONVERTER_2
 73
     1
 44
0.78031212484994
  0
MTEXT
  5
66
330
34
100
AcDbEntity
  8
1
 62
     2
100
AcDbMText
 10
289.0
 20
15.0
 30
0.0
 40
4.0
 41
0.0
 71
     5
 72
     1
  1
図名
  7
CONVERTER_3
 73
     1
 44
1.32052821128451
  0
MTEXT
  5
67
330
34
100
AcDbEntity
  8
1
 62
     4
100
AcDbMText
 10
393.4565543923691
 20
-0.25615332095569
 30
0.0
 40
2.0
 41
0.0
 71
     3
 72
     1
  1
A3
  7
CONVERTER_1
 73
     1
 44
1.32052821128451
  0
ENDBLK
  5
36
330
34
100
AcDbEntity
  8
0
100
AcDbBlockEnd
  0
BLOCK
  5
39A
330
391
100
AcDbEntity
  8
0
100
AcDbBlockBegin
  2
*D02
 70
     1
 71
     0
 10
0.0
 20
0.0
 30
0.0
  3
*D02
  1

  0
LINE
  5
392
330
391
100
AcDbEntity
  8
1
  6
Continuous
 62
     2
100
AcDbLine
 10
2826.159516994635
 20
1828.157137746063
 30
0.0
 11
2826.159516994635
 21
2288.157137746063
 31
0.0
  0
LINE
  5
393
330
391
100
AcDbEntity
  8
1
  6
Continuous
 62
     2
100
AcDbLine
 10
2516.159516994635
 20
1828.157137746063
 30
0.0
 11
2836.159516994635
 21
1828.157137746063
 31
0.0
  0
LINE
  5
394
330
391
100
AcDbEntity
  8
1
  6
Continuous
 62
     2
100
AcDbLine
 10
2516.159516994635
 20
2288.157137746063
 30
0.0
 11
2836.159516994635
 21
2288.157137746063
 31
0.0
  0
LINE
  5
395
330
391
100
AcDbEntity
  8
1
 62
     2
100
AcDbLine
 10
2826.159516994635
 20
1828.157137746063
 30
0.0
 11
2817.58514283684
 21
1860.157137746063
 31
0.0
  0
LINE
  5
396
330
391
100
AcDbEntity
  8
1
 62
     2
100
AcDbLine
 10
2826.159516994635
 20
1828.157137746063
 30
0.0
 11
2834.733891152431
 21
1860.157137746063
 31
0.0
  0
LINE
  5
397
330
391
100
AcDbEntity
  8
1
 62
     2
100
AcDbLine
 10
2826.159516994635
 20
2288.157137746063
 30
0.0
 11
2834.733891152431
 21
2256.157137746063
 31
0.0
  0
LINE
  5
398
330
391
100
AcDbEntity
  8
1
 62
     2
100
AcDbLine
 10
2826.159516994635
 20
2288.157137746063
 30
0.0
 11
2817.58514283684
 21
2256.157137746063
 31
0.0
  0
MTEXT
  5
399
330
391
100
AcDbEntity
  8
1
 62
     2
100
AcDbMText
 10
2821.764549110691
 20
2026.159965265373
 30
0.0
 40
32.0
 41
0.0
 71
     7
 72
     1
  1
機 幅
  7
CONVERTER_3
 11
0.0
 21
1.0
 31
0.0
 73
     1
 44
0.60024009603842
  0
ENDBLK
  5
39B
330
391
100
AcDbEntity
  8
0
100
AcDbBlockEnd
  0
BLOCK
  5
39D
330
39C
100
AcDbEntity
  8
0
100
AcDbBlockBegin
  2
_Open30
 70
     0
 71
     0
 10
0.0
 20
0.0
 30
0.0
  3
_Open30
  1

  0
LINE
  5
39F
330
39C
100
AcDbEntity
  8
0
  6
ByBlock
 62
     0
370
    -2
100
AcDbLine
 10
-1.0
 20
0.267949
 30
0.0
 11
0.0
 21
0.0
 31
0.0
  0
LINE
  5
3A0
330
39C
100
AcDbEntity
  8
0
  6
ByBlock
 62
     0
370
    -2
100
AcDbLine
 10
0.0
 20
0.0
 30
0.0
 11
-1.0
 21
-0.267949
 31
0.0
  0
LINE
  5
3A1
330
39C
100
AcDbEntity
  8
0
  6
ByBlock
 62
     0
370
    -2
100
AcDbLine
 10
0.0
 20
0.0
 30
0.0
 11
-1.0
 21
0.0
 31
0.0
  0
ENDBLK
  5
39E
330
39C
100
AcDbEntity
  8
0
100
AcDbBlockEnd
  0
BLOCK
  5
3AD
330
3A4
100
AcDbEntity
  8
0
100
AcDbBlockBegin
  2
*D14
 70
     1
 71
     0
 10
0.0
 20
0.0
 30
0.0
  3
*D14
  1

  0
LINE
  5
3A5
330
3A4
100
AcDbEntity
  8
1
  6
Continuous
 62
     2
100
AcDbLine
 10
2626.159516994635
 20
1862.848139049589
 30
0.0
 11
2626.159516994635
 21
2202.865193551874
 31
0.0
  0
LINE
  5
3A6
330
3A4
100
AcDbEntity
  8
1
  6
Continuous
 62
     2
100
AcDbLine
 10
2508.002289368318
 20
1862.848139049589
 30
0.0
 11
2636.159516994635
 21
1862.848139049589
 31
0.0
  0
LINE
  5
3A7
330
3A4
100
AcDbEntity
  8
1
  6
Continuous
 62
     2
100
AcDbLine
 10
2502.959516994636
 20
2202.865193551874
 30
0.0
 11
2636.159516994635
 21
2202.865193551874
 31
0.0
  0
LINE
  5
3A8
330
3A4
100
AcDbEntity
  8
1
 62
     2
100
AcDbLine
 10
2626.159516994635
 20
1862.848139049589
 30
0.0
 11
2617.585142836839
 21
1894.848139049589
 31
0.0
  0
LINE
  5
3A9
330
3A4
100
AcDbEntity
  8
1
 62
     2
100
AcDbLine
 10
2626.159516994635
 20
1862.848139049589
 30
0.0
 11
2634.733891152431
 21
1894.848139049589
 31
0.0
  0
LINE
  5
3AA
330
3A4
100
AcDbEntity
  8
1
 62
     2
100
AcDbLine
 10
2626.159516994635
 20
2202.865193551874
 30
0.0
 11
2634.733891152431
 21
2170.865193551874
 31
0.0
  0
LINE
  5
3AB
330
3A4
100
AcDbEntity
  8
1
 62
     2
100
AcDbLine
 10
2626.159516994635
 20
2202.865193551874
 30
0.0
 11
2617.585142836839
 21
2170.865193551874
 31
0.0
  0
MTEXT
  5
3AC
330
3A4
100
AcDbEntity
  8
1
 62
     2
100
AcDbMText
 10
2619.159516994635
 20
1996.014019931243
 30
0.0
 40
32.0
 41
0.0
 71
     7
 72
     1
  1
ローラ幅
  7
CONVERTER_3
 11
0.0
 21
1.0
 31
0.0
 73
     1
 44
0.60024009603842
  0
ENDBLK
  5
3AE
330
3A4
100
AcDbEntity
  8
0
100
AcDbBlockEnd
  0
BLOCK
  5
3BA
330
3B1
100
AcDbEntity
  8
0
100
AcDbBlockBegin
  2
*D25
 70
     1
 71
     0
 10
0.0
 20
0.0
 30
0.0
  3
*D25
  1

  0
LINE
  5
3B2
330
3B1
100
AcDbEntity
  8
1
  6
Continuous
 62
     2
100
AcDbLine
 10
905.7396823497201
 20
2345.244938034909
 30
0.0
 11
1117.871716705684
 21
2557.376972390874
 31
0.0
  0
LINE
  5
3B3
330
3B1
100
AcDbEntity
  8
1
  6
Continuous
 62
     2
100
AcDbLine
 10
984.4194667588841
 20
2266.565153625745
 30
0.0
 11
898.6686145378545
 21
2352.316005846774
 31
0.0
  0
LINE
  5
3B4
330
3B1
100
AcDbEntity
  8
1
  6
Continuous
 62
     2
100
AcDbLine
 10
1196.551501114848
 20
2478.69718798171
 30
0.0
 11
1110.800648893818
 21
2564.448040202739
 31
0.0
  0
LINE
  5
3B5
330
3B1
100
AcDbEntity
  8
1
 62
     2
100
AcDbLine
 10
905.7396823497201
 20
2345.244938034909
 30
0.0
 11
922.3041012362791
 21
2373.935353144288
 31
0.0
  0
LINE
  5
3B6
330
3B1
100
AcDbEntity
  8
1
 62
     2
100
AcDbLine
 10
905.7396823497201
 20
2345.244938034909
 30
0.0
 11
934.4300974590965
 21
2361.809356921472
 31
0.0
  0
LINE
  5
3B7
330
3B1
100
AcDbEntity
  8
1
 62
     2
100
AcDbLine
 10
1117.871716705684
 20
2557.376972390874
 30
0.0
 11
1101.307297819127
 21
2528.686557281493
 31
0.0
  0
LINE
  5
3B8
330
3B1
100
AcDbEntity
  8
1
 62
     2
100
AcDbLine
 10
1117.871716705684
 20
2557.376972390874
 30
0.0
 11
1089.181301596309
 21
2540.812553504308
 31
0.0
  0
MTEXT
  5
3B9
330
3B1
100
AcDbEntity
  8
1
 62
     2
100
AcDbMText
 10
971.316280343783
 20
2420.721030965584
 30
0.0
 40
32.0
 41
0.0
 71
     7
 72
     1
  1
300
  7
CONVERTER_1
 11
0.7071067811865455
 21
0.7071067811865496
 31
0.0
 73
     1
 44
0.60024009603842
  0
ENDBLK
  5
3BB
330
3B1
100
AcDbEntity
  8
0
100
AcDbBlockEnd
  0
BLOCK
  5
3C7
330
3BE
100
AcDbEntity
  8
0
100
AcDbBlockBegin
  2
*D36
 70
     1
 71
     0
 10
0.0
 20
0.0
 30
0.0
  3
*D36
  1

  0
LINE
  5
3BF
330
3BE
100
AcDbEntity
  8
1
  6
Continuous
 62
     2
100
AcDbLine
 10
1118.769755184329
 20
1962.509237715529
 30
0.0
 11
906.6377208283648
 21
2174.641272071493
 31
0.0
  0
LINE
  5
3C0
330
3BE
100
AcDbEntity
  8
1
  6
Continuous
 62
     2
100
AcDbLine
 10
1196.551501114849
 20
2040.290983646049
 30
0.0
 11
1111.698687372464
 21
1955.438169903663
 31
0.0
  0
LINE
  5
3C1
330
3BE
100
AcDbEntity
  8
1
  6
Continuous
 62
     2
100
AcDbLine
 10
984.4194667588847
 20
2252.423018002013
 30
0.0
 11
899.5666530164992
 21
2167.570204259627
 31
0.0
  0
LINE
  5
3C2
330
3BE
100
AcDbEntity
  8
1
 62
     2
100
AcDbLine
 10
1118.769755184329
 20
1962.509237715529
 30
0.0
 11
1090.079340074952
 21
1979.07365660209
 31
0.0
  0
LINE
  5
3C3
330
3BE
100
AcDbEntity
  8
1
 62
     2
100
AcDbLine
 10
1118.769755184329
 20
1962.509237715529
 30
0.0
 11
1102.205336297768
 21
1991.199652824907
 31
0.0
  0
LINE
  5
3C4
330
3BE
100
AcDbEntity
  8
1
 62
     2
100
AcDbLine
 10
906.6377208283648
 20
2174.641272071493
 30
0.0
 11
935.3281359377411
 21
2158.076853184929
 31
0.0
  0
LINE
  5
3C5
330
3BE
100
AcDbEntity
  8
1
 62
     2
100
AcDbLine
 10
906.6377208283648
 20
2174.641272071493
 30
0.0
 11
923.2021397149238
 21
2145.950856962113
 31
0.0
  0
MTEXT
  5
3C6
330
3BE
100
AcDbEntity
  8
1
 62
     2
100
AcDbMText
 10
994.4892961307778
 20
2096.689191705691
 30
0.0
 40
32.0
 41
0.0
 71
     7
 72
     1
  1
300
  7
CONVERTER_1
 11
0.7071067811865487
 21
-0.7071067811865464
 31
0.0
 73
     1
 44
0.60024009603842
  0
ENDBLK
  5
3C8
330
3BE
100
AcDbEntity
  8
0
100
AcDbBlockEnd
  0
BLOCK
  5
3D6
330
3CB
100
AcDbEntity
  8
0
100
AcDbBlockBegin
  2
*D47
 70
     1
 71
     0
 10
0.0
 20
0.0
 30
0.0
  3
*D47
  1

  0
LINE
  5
3CC
330
3CB
100
AcDbEntity
  8
1
  6
Continuous
 62
     2
100
AcDbLine
 10
1526.809854211334
 20
586.3256966592692
 30
0.0
 11
1528.409354445587
 21
522.3456872891493
 31
0.0
  0
LINE
  5
3CD
330
3CB
100
AcDbEntity
  8
1
  6
Continuous
 62
     2
100
AcDbLine
 10
1528.409354445587
 20
522.3456872891493
 30
0.0
 11
1529.541500705144
 21
477.0598369068612
 31
0.0
  0
LINE
  5
3CE
330
3CB
100
AcDbEntity
  8
1
  6
Continuous
 62
     2
100
AcDbLine
 10
1529.541500705144
 20
477.0598369068612
 30
0.0
 11
1531.141000939397
 21
413.0798275367413
 31
0.0
  0
LINE
  5
3CF
330
3CB
100
AcDbEntity
  8
1
  6
Continuous
 62
     2
100
AcDbLine
 10
1592.415386725535
 20
442.825558287904
 30
0.0
 11
1520.758990772954
 21
481.841836414492
 31
0.0
  0
LINE
  5
3D0
330
3CB
100
AcDbEntity
  8
1
  6
Continuous
 62
     2
100
AcDbLine
 10
1591.283240465979
 20
488.1114086701921
 30
0.0
 11
1519.626844513397
 21
527.1276867967802
 31
0.0
  0
LINE
  5
3D1
330
3CB
100
AcDbEntity
  8
1
 62
     2
100
AcDbLine
 10
1528.409354445587
 20
522.3456872891493
 30
0.0
 11
1519.037908407231
 21
554.1213995761784
 31
0.0
  0
LINE
  5
3D2
330
3CB
100
AcDbEntity
  8
1
 62
     2
100
AcDbLine
 10
1528.409354445587
 20
522.3456872891493
 30
0.0
 11
1536.18130024969
 21
554.54998437224
 31
0.0
  0
LINE
  5
3D3
330
3CB
100
AcDbEntity
  8
1
 62
     2
100
AcDbLine
 10
1529.541500705144
 20
477.0598369068612
 30
0.0
 11
1538.9129467435
 21
445.284124619832
 31
0.0
  0
LINE
  5
3D4
330
3CB
100
AcDbEntity
  8
1
 62
     2
100
AcDbLine
 10
1529.541500705144
 20
477.0598369068612
 30
0.0
 11
1521.769554901041
 21
444.8555398237705
 31
0.0
  0
MTEXT
  5
3D5
330
3CB
100
AcDbEntity
  8
1
 62
     2
100
AcDbMText
 10
1502.919164546046
 20
469.4396274385359
 30
0.0
 40
32.0
 41
0.0
 71
     7
 72
     1
  1
\C2;φ\C2;45.3
  7
CONVERTER_3
 11
-0.02499219116020117
 21
0.9996876464081228
 31
0.0
 73
     1
 44
0.60024009603842
  0
ENDBLK
  5
3D7
330
3CB
100
AcDbEntity
  8
0
100
AcDbBlockEnd
  0
BLOCK
  5
3E5
330
3DA
100
AcDbEntity
  8
0
100
AcDbBlockBegin
  2
*D58
 70
     1
 71
     0
 10
0.0
 20
0.0
 30
0.0
  3
*D58
  1

  0
LINE
  5
3DB
330
3DA
100
AcDbEntity
  8
1
  6
Continuous
 62
     2
100
AcDbLine
 10
1700.201551648622
 20
2083.426724938034
 30
0.0
 11
1748.319299327276
 21
2125.624857104438
 31
0.0
  0
LINE
  5
3DC
330
3DA
100
AcDbEntity
  8
1
  6
Continuous
 62
     2
100
AcDbLine
 10
1646.082632003475
 20
2035.965706206642
 30
0.0
 11
1700.201551648622
 21
2083.426724938034
 31
0.0
  0
LINE
  5
3DD
330
3DA
100
AcDbEntity
  8
1
  6
Continuous
 62
     2
100
AcDbLine
 10
1597.964884324821
 20
1993.767574040237
 30
0.0
 11
1646.082632003475
 21
2035.965706206642
 31
0.0
  0
LINE
  5
3DE
330
3DA
100
AcDbEntity
  8
1
  6
Continuous
 62
     2
100
AcDbLine
 10
1749.38360438654
 20
1770.327696406414
 30
0.0
 11
1642.458251620638
 21
2045.28578489947
 31
0.0
  0
LINE
  5
3DF
330
3DA
100
AcDbEntity
  8
1
  6
Continuous
 62
     2
100
AcDbLine
 10
1803.50252403169
 20
1817.788715137806
 30
0.0
 11
1696.577171265784
 21
2092.746803630862
 31
0.0
  0
LINE
  5
3E0
330
3DA
100
AcDbEntity
  8
1
 62
     2
100
AcDbLine
 10
1646.082632003475
 20
2035.965706206642
 30
0.0
 11
1627.677235882193
 21
2008.42008430739
 31
0.0
  0
LINE
  5
3E1
330
3DA
100
AcDbEntity
  8
1
 62
     2
100
AcDbLine
 10
1646.082632003475
 20
2035.965706206642
 30
0.0
 11
1616.370280446103
 21
2021.313195939489
 31
0.0
  0
LINE
  5
3E2
330
3DA
100
AcDbEntity
  8
1
 62
     2
100
AcDbLine
 10
1700.201551648622
 20
2083.426724938034
 30
0.0
 11
1718.606947769903
 21
2110.972346837286
 31
0.0
  0
LINE
  5
3E3
330
3DA
100
AcDbEntity
  8
1
 62
     2
100
AcDbLine
 10
1700.201551648622
 20
2083.426724938034
 30
0.0
 11
1729.913903205993
 21
2098.079235205187
 31
0.0
  0
MTEXT
  5
3E4
330
3DA
100
AcDbEntity
  8
1
 62
     2
100
AcDbMText
 10
1576.225671333519
 20
2006.448770363374
 30
0.0
 40
32.0
 41
0.0
 71
     7
 72
     1
  1
相当ローラピッチ
  7
CONVERTER_3
 11
0.7518398074789695
 21
0.6593458151000782
 31
0.0
 73
     1
 44
0.60024009603842
  0
ENDBLK
  5
3E6
330
3DA
100
AcDbEntity
  8
0
100
AcDbBlockEnd
  0
BLOCK
  5
3F2
330
3E9
100
AcDbEntity
  8
0
100
AcDbBlockBegin
  2
*D69
 70
     1
 71
     0
 10
0.0
 20
0.0
 30
0.0
  3
*D69
  1

  0
LINE
  5
3EA
330
3E9
100
AcDbEntity
  8
1
  6
Continuous
 62
     2
100
AcDbLine
 10
1174.959516994544
 20
827.2694122860994
 30
0.0
 11
1634.959516994543
 21
827.2694122860994
 31
0.0
  0
LINE
  5
3EB
330
3E9
100
AcDbEntity
  8
1
  6
Continuous
 62
     2
100
AcDbLine
 10
1174.959516994544
 20
489.3194122860979
 30
0.0
 11
1174.959516994544
 21
837.2694122860994
 31
0.0
  0
LINE
  5
3EC
330
3E9
100
AcDbEntity
  8
1
  6
Continuous
 62
     2
100
AcDbLine
 10
1634.959516994543
 20
483.3194122860979
 30
0.0
 11
1634.959516994543
 21
837.2694122860994
 31
0.0
  0
LINE
  5
3ED
330
3E9
100
AcDbEntity
  8
1
 62
     2
100
AcDbLine
 10
1174.959516994544
 20
827.2694122860994
 30
0.0
 11
1206.959516994544
 21
835.8437864438953
 31
0.0
  0
LINE
  5
3EE
330
3E9
100
AcDbEntity
  8
1
 62
     2
100
AcDbLine
 10
1174.959516994544
 20
827.2694122860994
 30
0.0
 11
1206.959516994544
 21
818.6950381283035
 31
0.0
  0
LINE
  5
3EF
330
3E9
100
AcDbEntity
  8
1
 62
     2
100
AcDbLine
 10
1634.959516994543
 20
827.2694122860994
 30
0.0
 11
1602.959516994543
 21
818.6950381283035
 31
0.0
  0
LINE
  5
3F0
330
3E9
100
AcDbEntity
  8
1
 62
     2
100
AcDbLine
 10
1634.959516994543
 20
827.2694122860994
 30
0.0
 11
1602.959516994543
 21
835.8437864438953
 31
0.0
  0
MTEXT
  5
3F1
330
3E9
100
AcDbEntity
  8
1
 62
     2
100
AcDbMText
 10
1355.848273325846
 20
834.6273940018959
 30
0.0
 40
32.0
 41
0.0
 71
     7
 72
     1
  1
機 幅
  7
CONVERTER_3
 11
0.9999999999970621
 21
2.424068405545307E-6
 31
0.0
 73
     1
 44
0.60024009603842
  0
ENDBLK
  5
3F3
330
3E9
100
AcDbEntity
  8
0
100
AcDbBlockEnd
  0
BLOCK
  5
401
330
3F6
100
AcDbEntity
  8
0
100
AcDbBlockBegin
  2
*D710
 70
     1
 71
     0
 10
0.0
 20
0.0
 30
0.0
  3
*D710
  1

  0
LINE
  5
3F7
330
3F6
100
AcDbEntity
  8
1
  6
Continuous
 62
     2
100
AcDbLine
 10
2726.159516994636
 20
1858.157137745974
 30
0.0
 11
2726.159516994636
 21
1922.157137745974
 31
0.0
  0
LINE
  5
3F8
330
3F6
100
AcDbEntity
  8
1
  6
Continuous
 62
     2
100
AcDbLine
 10
2726.159516994636
 20
1828.157137746063
 30
0.0
 11
2726.159516994636
 21
1858.157137745974
 31
0.0
  0
LINE
  5
3F9
330
3F6
100
AcDbEntity
  8
1
  6
Continuous
 62
     2
100
AcDbLine
 10
2726.159516994636
 20
1759.13295136017
 30
0.0
 11
2726.159516994636
 21
1828.157137746063
 31
0.0
  0
LINE
  5
3FA
330
3F6
100
AcDbEntity
  8
1
  6
Continuous
 62
     2
100
AcDbLine
 10
2516.159516994636
 20
1828.157137746063
 30
0.0
 11
2736.159516994636
 21
1828.157137746063
 31
0.0
  0
LINE
  5
3FB
330
3F6
100
AcDbEntity
  8
1
  6
Continuous
 62
     2
100
AcDbLine
 10
2514.95951699463
 20
1858.157137745974
 30
0.0
 11
2736.159516994636
 21
1858.157137745974
 31
0.0
  0
LINE
  5
3FC
330
3F6
100
AcDbEntity
  8
1
 62
     2
100
AcDbLine
 10
2726.159516994636
 20
1828.157137746063
 30
0.0
 11
2734.733891152432
 21
1796.157137746063
 31
0.0
  0
LINE
  5
3FD
330
3F6
100
AcDbEntity
  8
1
 62
     2
100
AcDbLine
 10
2726.159516994636
 20
1828.157137746063
 30
0.0
 11
2717.58514283684
 21
1796.157137746063
 31
0.0
  0
LINE
  5
3FE
330
3F6
100
AcDbEntity
  8
1
 62
     2
100
AcDbLine
 10
2726.159516994636
 20
1858.157137745974
 30
0.0
 11
2717.58514283684
 21
1890.157137745974
 31
0.0
  0
LINE
  5
3FF
330
3F6
100
AcDbEntity
  8
1
 62
     2
100
AcDbLine
 10
2726.159516994636
 20
1858.157137745974
 30
0.0
 11
2734.733891152432
 21
1890.157137745974
 31
0.0
  0
MTEXT
  5
400
330
3F6
100
AcDbEntity
  8
1
 62
     2
100
AcDbMText
 10
2702.345919185031
 20
1759.13295136017
 30
0.0
 40
32.0
 41
0.0
 71
     7
 72
     1
  1
30
  7
CONVERTER_1
 11
0.0
 21
1.0
 31
0.0
 73
     1
 44
0.60024009603842
  0
ENDBLK
  5
402
330
3F6
100
AcDbEntity
  8
0
100
AcDbBlockEnd
  0
BLOCK
  5
410
330
405
100
AcDbEntity
  8
0
100
AcDbBlockBegin
  2
*D811
 70
     1
 71
     0
 10
0.0
 20
0.0
 30
0.0
  3
*D811
  1

  0
LINE
  5
406
330
405
100
AcDbEntity
  8
1
  6
Continuous
 62
     2
100
AcDbLine
 10
2726.159516994635
 20
2288.157137746063
 30
0.0
 11
2726.159516994635
 21
2352.558768810311
 31
0.0
  0
LINE
  5
407
330
405
100
AcDbEntity
  8
1
  6
Continuous
 62
     2
100
AcDbLine
 10
2726.159516994635
 20
2258.157137745985
 30
0.0
 11
2726.159516994635
 21
2288.157137746063
 31
0.0
  0
LINE
  5
408
330
405
100
AcDbEntity
  8
1
  6
Continuous
 62
     2
100
AcDbLine
 10
2726.159516994635
 20
2194.157137745985
 30
0.0
 11
2726.159516994635
 21
2258.157137745985
 31
0.0
  0
LINE
  5
409
330
405
100
AcDbEntity
  8
1
  6
Continuous
 62
     2
100
AcDbLine
 10
2514.95951699462
 20
2258.157137745985
 30
0.0
 11
2736.159516994635
 21
2258.157137745985
 31
0.0
  0
LINE
  5
40A
330
405
100
AcDbEntity
  8
1
  6
Continuous
 62
     2
100
AcDbLine
 10
2516.159516994635
 20
2288.157137746063
 30
0.0
 11
2736.159516994635
 21
2288.157137746063
 31
0.0
  0
LINE
  5
40B
330
405
100
AcDbEntity
  8
1
 62
     2
100
AcDbLine
 10
2726.159516994635
 20
2258.157137745985
 30
0.0
 11
2734.733891152431
 21
2226.157137745985
 31
0.0
  0
LINE
  5
40C
330
405
100
AcDbEntity
  8
1
 62
     2
100
AcDbLine
 10
2726.159516994635
 20
2258.157137745985
 30
0.0
 11
2717.58514283684
 21
2226.157137745985
 31
0.0
  0
LINE
  5
40D
330
405
100
AcDbEntity
  8
1
 62
     2
100
AcDbLine
 10
2726.159516994635
 20
2288.157137746063
 30
0.0
 11
2717.58514283684
 21
2320.157137746063
 31
0.0
  0
LINE
  5
40E
330
405
100
AcDbEntity
  8
1
 62
     2
100
AcDbLine
 10
2726.159516994635
 20
2288.157137746063
 30
0.0
 11
2734.733891152431
 21
2320.157137746063
 31
0.0
  0
MTEXT
  5
40F
330
405
100
AcDbEntity
  8
1
 62
     2
100
AcDbMText
 10
2704.329285793941
 20
2304.558768810311
 30
0.0
 40
32.0
 41
0.0
 71
     7
 72
     1
  1
30
  7
CONVERTER_1
 11
0.0
 21
1.0
 31
0.0
 73
     1
 44
0.60024009603842
  0
ENDBLK
  5
411
330
405
100
AcDbEntity
  8
0
100
AcDbBlockEnd
  0
BLOCK
  5
41D
330
414
100
AcDbEntity
  8
0
100
AcDbBlockBegin
  2
*D912
 70
     1
 71
     0
 10
0.0
 20
0.0
 30
0.0
  3
*D912
  1

  0
LINE
  5
415
330
414
100
AcDbEntity
  8
1
  6
Continuous
 62
     2
100
AcDbLine
 10
2726.159516994634
 20
1858.157137745975
 30
0.0
 11
2726.159516994634
 21
2258.157137745985
 31
0.0
  0
LINE
  5
416
330
414
100
AcDbEntity
  8
1
  6
Continuous
 62
     2
100
AcDbLine
 10
2514.959516994629
 20
1858.157137745975
 30
0.0
 11
2736.159516994634
 21
1858.157137745975
 31
0.0
  0
LINE
  5
417
330
414
100
AcDbEntity
  8
1
  6
Continuous
 62
     2
100
AcDbLine
 10
2514.959516994619
 20
2258.157137745985
 30
0.0
 11
2736.159516994634
 21
2258.157137745985
 31
0.0
  0
LINE
  5
418
330
414
100
AcDbEntity
  8
1
 62
     2
100
AcDbLine
 10
2726.159516994634
 20
1858.157137745975
 30
0.0
 11
2717.585142836838
 21
1890.157137745975
 31
0.0
  0
LINE
  5
419
330
414
100
AcDbEntity
  8
1
 62
     2
100
AcDbLine
 10
2726.159516994634
 20
1858.157137745975
 30
0.0
 11
2734.73389115243
 21
1890.157137745975
 31
0.0
  0
LINE
  5
41A
330
414
100
AcDbEntity
  8
1
 62
     2
100
AcDbLine
 10
2726.159516994634
 20
2258.157137745985
 30
0.0
 11
2734.73389115243
 21
2226.157137745985
 31
0.0
  0
LINE
  5
41B
330
414
100
AcDbEntity
  8
1
 62
     2
100
AcDbLine
 10
2726.159516994634
 20
2258.157137745985
 30
0.0
 11
2717.585142836838
 21
2226.157137745985
 31
0.0
  0
MTEXT
  5
41C
330
414
100
AcDbEntity
  8
1
 62
     2
100
AcDbMText
 10
2710.27938562067
 20
1935.204276607521
 30
0.0
 40
32.0
 41
0.0
 71
     7
 72
     1
  1
\C2;400\C2;　(呼び幅）
  7
CONVERTER_3
 11
0.0
 21
1.0
 31
0.0
 73
     1
 44
0.60024009603842
  0
ENDBLK
  5
41E
330
414
100
AcDbEntity
  8
0
100
AcDbBlockEnd
  0
BLOCK
  5
42D
330
421
100
AcDbEntity
  8
0
100
AcDbBlockBegin
  2
*D1013
 70
     1
 71
     0
 10
0.0
 20
0.0
 30
0.0
  3
*D1013
  1

  0
LINE
  5
422
330
421
100
AcDbEntity
  8
1
  6
Continuous
 62
     2
100
AcDbLine
 10
1104.641260780943
 20
727.2694122860999
 30
0.0
 11
1174.959516994543
 21
727.2694122860999
 31
0.0
  0
LINE
  5
423
330
421
100
AcDbEntity
  8
1
  6
Continuous
 62
     2
100
AcDbLine
 10
1174.959516994543
 20
727.2694122860999
 30
0.0
 11
1204.959516994543
 21
727.2694122860999
 31
0.0
  0
LINE
  5
424
330
421
100
AcDbEntity
  8
1
  6
Continuous
 62
     2
100
AcDbLine
 10
1204.959516994543
 20
727.2694122860999
 30
0.0
 11
1268.959516994543
 21
727.2694122860999
 31
0.0
  0
LINE
  5
425
330
421
100
AcDbEntity
  8
1
  6
Continuous
 62
     2
100
AcDbLine
 10
1204.959516994543
 20
701.5498682879361
 30
0.0
 11
1204.959516994543
 21
737.2694122860999
 31
0.0
  0
LINE
  5
426
330
421
100
AcDbEntity
  8
1
  6
Continuous
 62
     2
100
AcDbLine
 10
1204.959516994543
 20
476.919412286099
 30
0.0
 11
1204.959516994543
 21
574.3972007178159
 31
0.0
  0
LINE
  5
427
330
421
100
AcDbEntity
  8
1
  6
Continuous
 62
     2
100
AcDbLine
 10
1174.959516994543
 20
489.3194122860979
 30
0.0
 11
1174.959516994543
 21
737.2694122860999
 31
0.0
  0
LINE
  5
428
330
421
100
AcDbEntity
  8
1
 62
     2
100
AcDbLine
 10
1174.959516994543
 20
727.2694122860999
 30
0.0
 11
1142.959516994543
 21
718.695038128304
 31
0.0
  0
LINE
  5
429
330
421
100
AcDbEntity
  8
1
 62
     2
100
AcDbLine
 10
1174.959516994543
 20
727.2694122860999
 30
0.0
 11
1142.959516994543
 21
735.8437864438957
 31
0.0
  0
LINE
  5
42A
330
421
100
AcDbEntity
  8
1
 62
     2
100
AcDbLine
 10
1204.959516994543
 20
727.2694122860999
 30
0.0
 11
1236.959516994543
 21
735.8437864438957
 31
0.0
  0
LINE
  5
42B
330
421
100
AcDbEntity
  8
1
 62
     2
100
AcDbLine
 10
1204.959516994543
 20
727.2694122860999
 30
0.0
 11
1236.959516994543
 21
718.695038128304
 31
0.0
  0
MTEXT
  5
42C
330
421
100
AcDbEntity
  8
1
 62
     2
100
AcDbMText
 10
1104.641260780943
 20
743.0449875370262
 30
0.0
 40
32.0
 41
0.0
 71
     7
 72
     1
  1
30
  7
CONVERTER_1
 11
0.9999999999970621
 21
2.424068405545307E-6
 31
0.0
 73
     1
 44
0.60024009603842
  0
ENDBLK
  5
42E
330
421
100
AcDbEntity
  8
0
100
AcDbBlockEnd
  0
BLOCK
  5
43D
330
431
100
AcDbEntity
  8
0
100
AcDbBlockBegin
  2
*D1114
 70
     1
 71
     0
 10
0.0
 20
0.0
 30
0.0
  3
*D1114
  1

  0
LINE
  5
432
330
431
100
AcDbEntity
  8
1
  6
Continuous
 62
     2
100
AcDbLine
 10
1540.959516994543
 20
727.2694122860999
 30
0.0
 11
1604.959516994543
 21
727.2694122860999
 31
0.0
  0
LINE
  5
433
330
431
100
AcDbEntity
  8
1
  6
Continuous
 62
     2
100
AcDbLine
 10
1604.959516994543
 20
727.2694122860999
 30
0.0
 11
1634.959516994543
 21
727.2694122860999
 31
0.0
  0
LINE
  5
434
330
431
100
AcDbEntity
  8
1
  6
Continuous
 62
     2
100
AcDbLine
 10
1634.959516994543
 20
727.2694122860999
 30
0.0
 11
1698.959516994543
 21
727.2694122860999
 31
0.0
  0
LINE
  5
435
330
431
100
AcDbEntity
  8
1
  6
Continuous
 62
     2
100
AcDbLine
 10
1634.959516994543
 20
483.319412286098
 30
0.0
 11
1634.959516994543
 21
737.2694122860999
 31
0.0
  0
LINE
  5
436
330
431
100
AcDbEntity
  8
1
  6
Continuous
 62
     2
100
AcDbLine
 10
1604.959516994543
 20
697.8642837206864
 30
0.0
 11
1604.959516994543
 21
737.2694122860999
 31
0.0
  0
LINE
  5
437
330
431
100
AcDbEntity
  8
1
  6
Continuous
 62
     2
100
AcDbLine
 10
1604.959516994543
 20
476.919412286099
 30
0.0
 11
1604.959516994543
 21
572.5544084341959
 31
0.0
  0
LINE
  5
438
330
431
100
AcDbEntity
  8
1
 62
     2
100
AcDbLine
 10
1604.959516994543
 20
727.2694122860999
 30
0.0
 11
1572.959516994543
 21
718.695038128304
 31
0.0
  0
LINE
  5
439
330
431
100
AcDbEntity
  8
1
 62
     2
100
AcDbLine
 10
1604.959516994543
 20
727.2694122860999
 30
0.0
 11
1572.959516994543
 21
735.8437864438957
 31
0.0
  0
LINE
  5
43A
330
431
100
AcDbEntity
  8
1
 62
     2
100
AcDbLine
 10
1634.959516994543
 20
727.2694122860999
 30
0.0
 11
1666.959516994543
 21
735.8437864438957
 31
0.0
  0
LINE
  5
43B
330
431
100
AcDbEntity
  8
1
 62
     2
100
AcDbLine
 10
1634.959516994543
 20
727.2694122860999
 30
0.0
 11
1666.959516994543
 21
718.695038128304
 31
0.0
  0
MTEXT
  5
43C
330
431
100
AcDbEntity
  8
1
 62
     2
100
AcDbMText
 10
1650.844893647354
 20
745.256338277376
 30
0.0
 40
32.0
 41
0.0
 71
     7
 72
     1
  1
30
  7
CONVERTER_1
 11
0.9999999999970621
 21
2.424068405545307E-6
 31
0.0
 73
     1
 44
0.60024009603842
  0
ENDBLK
  5
43E
330
431
100
AcDbEntity
  8
0
100
AcDbBlockEnd
  0
BLOCK
  5
44C
330
441
100
AcDbEntity
  8
0
100
AcDbBlockBegin
  2
*D1215
 70
     1
 71
     0
 10
0.0
 20
0.0
 30
0.0
  3
*D1215
  1

  0
LINE
  5
442
330
441
100
AcDbEntity
  8
1
  6
Continuous
 62
     2
100
AcDbLine
 10
1204.959516994544
 20
727.2694122861001
 30
0.0
 11
1604.959516994544
 21
727.2694122861001
 31
0.0
  0
LINE
  5
443
330
441
100
AcDbEntity
  8
1
  6
Continuous
 62
     2
100
AcDbLine
 10
1204.959516994544
 20
701.5498682879363
 30
0.0
 11
1204.959516994544
 21
737.2694122861001
 31
0.0
  0
LINE
  5
444
330
441
100
AcDbEntity
  8
1
  6
Continuous
 62
     2
100
AcDbLine
 10
1204.959516994544
 20
476.9194122860993
 30
0.0
 11
1204.959516994544
 21
574.3972007178161
 31
0.0
  0
LINE
  5
445
330
441
100
AcDbEntity
  8
1
  6
Continuous
 62
     2
100
AcDbLine
 10
1604.959516994544
 20
697.8642837206867
 30
0.0
 11
1604.959516994544
 21
737.2694122861001
 31
0.0
  0
LINE
  5
446
330
441
100
AcDbEntity
  8
1
  6
Continuous
 62
     2
100
AcDbLine
 10
1604.959516994544
 20
476.9194122860993
 30
0.0
 11
1604.959516994544
 21
572.5544084341962
 31
0.0
  0
LINE
  5
447
330
441
100
AcDbEntity
  8
1
 62
     2
100
AcDbLine
 10
1204.959516994544
 20
727.2694122861001
 30
0.0
 11
1236.959516994544
 21
735.843786443896
 31
0.0
  0
LINE
  5
448
330
441
100
AcDbEntity
  8
1
 62
     2
100
AcDbLine
 10
1204.959516994544
 20
727.2694122861001
 30
0.0
 11
1236.959516994544
 21
718.6950381283042
 31
0.0
  0
LINE
  5
449
330
441
100
AcDbEntity
  8
1
 62
     2
100
AcDbLine
 10
1604.959516994544
 20
727.2694122861001
 30
0.0
 11
1572.959516994544
 21
718.6950381283042
 31
0.0
  0
LINE
  5
44A
330
441
100
AcDbEntity
  8
1
 62
     2
100
AcDbLine
 10
1604.959516994544
 20
727.2694122861001
 30
0.0
 11
1572.959516994544
 21
735.843786443896
 31
0.0
  0
MTEXT
  5
44B
330
441
100
AcDbEntity
  8
1
 62
     2
100
AcDbMText
 10
1359.181739216766
 20
737.2694122861001
 30
0.0
 40
32.0
 41
0.0
 71
     7
 72
     1
  1
呼び幅
  7
CONVERTER_3
 11
0.9999999999970621
 21
2.424068405545307E-6
 31
0.0
 73
     1
 44
0.60024009603842
  0
ENDBLK
  5
44D
330
441
100
AcDbEntity
  8
0
100
AcDbBlockEnd
  0
BLOCK
  5
45B
330
450
100
AcDbEntity
  8
0
100
AcDbBlockBegin
  2
*D1316
 70
     1
 71
     0
 10
0.0
 20
0.0
 30
0.0
  3
*D1316
  1

  0
LINE
  5
451
330
450
100
AcDbEntity
  8
1
  6
Continuous
 62
     2
100
AcDbLine
 10
1110.959516994543
 20
627.2694122860996
 30
0.0
 11
1174.959516994543
 21
627.2694122860996
 31
0.0
  0
LINE
  5
452
330
450
100
AcDbEntity
  8
1
  6
Continuous
 62
     2
100
AcDbLine
 10
1174.959516994543
 20
627.2694122860996
 30
0.0
 11
1259.959516994543
 21
627.2694122860996
 31
0.0
  0
LINE
  5
453
330
450
100
AcDbEntity
  8
1
  6
Continuous
 62
     2
100
AcDbLine
 10
1259.959516994543
 20
627.2694122860996
 30
0.0
 11
1323.959516994543
 21
627.2694122860996
 31
0.0
  0
LINE
  5
454
330
450
100
AcDbEntity
  8
1
  6
Continuous
 62
     2
100
AcDbLine
 10
1259.959516994543
 20
493.329409162563
 30
0.0
 11
1259.959516994543
 21
637.2694122860996
 31
0.0
  0
LINE
  5
455
330
450
100
AcDbEntity
  8
1
  6
Continuous
 62
     2
100
AcDbLine
 10
1174.959516994543
 20
489.319412286098
 30
0.0
 11
1174.959516994543
 21
637.2694122860996
 31
0.0
  0
LINE
  5
456
330
450
100
AcDbEntity
  8
1
 62
     2
100
AcDbLine
 10
1174.959516994543
 20
627.2694122860996
 30
0.0
 11
1142.959516994543
 21
618.6950381283037
 31
0.0
  0
LINE
  5
457
330
450
100
AcDbEntity
  8
1
 62
     2
100
AcDbLine
 10
1174.959516994543
 20
627.2694122860996
 30
0.0
 11
1142.959516994543
 21
635.8437864438955
 31
0.0
  0
LINE
  5
458
330
450
100
AcDbEntity
  8
1
 62
     2
100
AcDbLine
 10
1259.959516994543
 20
627.2694122860996
 30
0.0
 11
1291.959516994543
 21
635.8437864438955
 31
0.0
  0
LINE
  5
459
330
450
100
AcDbEntity
  8
1
 62
     2
100
AcDbLine
 10
1259.959516994543
 20
627.2694122860996
 30
0.0
 11
1291.959516994543
 21
618.6950381283037
 31
0.0
  0
MTEXT
  5
45A
330
450
100
AcDbEntity
  8
1
 62
     2
100
AcDbMText
 10
1197.517991875633
 20
640.2171781107661
 30
0.0
 40
32.0
 41
0.0
 71
     7
 72
     1
  1
85
  7
CONVERTER_1
 11
0.9999999999970621
 21
2.424068405545307E-6
 31
0.0
 73
     1
 44
0.60024009603842
  0
ENDBLK
  5
45C
330
450
100
AcDbEntity
  8
0
100
AcDbBlockEnd
  0
BLOCK
  5
46A
330
45F
100
AcDbEntity
  8
0
100
AcDbBlockBegin
  2
*D1417
 70
     1
 71
     0
 10
0.0
 20
0.0
 30
0.0
  3
*D1417
  1

  0
LINE
  5
460
330
45F
100
AcDbEntity
  8
1
  6
Continuous
 62
     2
100
AcDbLine
 10
1536.065750398167
 20
627.2694122860996
 30
0.0
 11
1600.065750398167
 21
627.2694122860996
 31
0.0
  0
LINE
  5
461
330
45F
100
AcDbEntity
  8
1
  6
Continuous
 62
     2
100
AcDbLine
 10
1600.065750398167
 20
627.2694122860996
 30
0.0
 11
1634.959516994542
 21
627.2694122860996
 31
0.0
  0
LINE
  5
462
330
45F
100
AcDbEntity
  8
1
  6
Continuous
 62
     2
100
AcDbLine
 10
1634.959516994542
 20
627.2694122860996
 30
0.0
 11
1701.056244387703
 21
627.2694122860996
 31
0.0
  0
LINE
  5
463
330
45F
100
AcDbEntity
  8
1
  6
Continuous
 62
     2
100
AcDbLine
 10
1634.959516994542
 20
483.319412286098
 30
0.0
 11
1634.959516994542
 21
637.2694122860996
 31
0.0
  0
LINE
  5
464
330
45F
100
AcDbEntity
  8
1
  6
Continuous
 62
     2
100
AcDbLine
 10
1600.065750398167
 20
493.329409162561
 30
0.0
 11
1600.065750398167
 21
637.2694122860996
 31
0.0
  0
LINE
  5
465
330
45F
100
AcDbEntity
  8
1
 62
     2
100
AcDbLine
 10
1600.065750398167
 20
627.2694122860996
 30
0.0
 11
1568.065750398167
 21
618.6950381283037
 31
0.0
  0
LINE
  5
466
330
45F
100
AcDbEntity
  8
1
 62
     2
100
AcDbLine
 10
1600.065750398167
 20
627.2694122860996
 30
0.0
 11
1568.065750398167
 21
635.8437864438955
 31
0.0
  0
LINE
  5
467
330
45F
100
AcDbEntity
  8
1
 62
     2
100
AcDbLine
 10
1634.959516994542
 20
627.2694122860996
 30
0.0
 11
1666.959516994542
 21
635.8437864438955
 31
0.0
  0
LINE
  5
468
330
45F
100
AcDbEntity
  8
1
 62
     2
100
AcDbLine
 10
1634.959516994542
 20
627.2694122860996
 30
0.0
 11
1666.959516994542
 21
618.6950381283037
 31
0.0
  0
MTEXT
  5
469
330
45F
100
AcDbEntity
  8
1
 62
     2
100
AcDbMText
 10
1653.056244387703
 20
641.3228534809362
 30
0.0
 40
32.0
 41
0.0
 71
     7
 72
     1
  1
35
  7
CONVERTER_1
 11
0.9999999999970621
 21
2.424068405545307E-6
 31
0.0
 73
     1
 44
0.60024009603842
  0
ENDBLK
  5
46B
330
45F
100
AcDbEntity
  8
0
100
AcDbBlockEnd
  0
BLOCK
  5
477
330
46E
100
AcDbEntity
  8
0
100
AcDbBlockBegin
  2
*D1518
 70
     1
 71
     0
 10
0.0
 20
0.0
 30
0.0
  3
*D1518
  1

  0
LINE
  5
46F
330
46E
100
AcDbEntity
  8
1
  6
Continuous
 62
     2
100
AcDbLine
 10
1259.959516994545
 20
627.2694122861001
 30
0.0
 11
1600.065750398169
 21
627.2694122861001
 31
0.0
  0
LINE
  5
470
330
46E
100
AcDbEntity
  8
1
  6
Continuous
 62
     2
100
AcDbLine
 10
1259.959516994545
 20
493.3294091625635
 30
0.0
 11
1259.959516994545
 21
637.2694122861001
 31
0.0
  0
LINE
  5
471
330
46E
100
AcDbEntity
  8
1
  6
Continuous
 62
     2
100
AcDbLine
 10
1600.065750398169
 20
493.3294091625614
 30
0.0
 11
1600.065750398169
 21
637.2694122861001
 31
0.0
  0
LINE
  5
472
330
46E
100
AcDbEntity
  8
1
 62
     2
100
AcDbLine
 10
1259.959516994545
 20
627.2694122861001
 30
0.0
 11
1291.959516994545
 21
635.843786443896
 31
0.0
  0
LINE
  5
473
330
46E
100
AcDbEntity
  8
1
 62
     2
100
AcDbLine
 10
1259.959516994545
 20
627.2694122861001
 30
0.0
 11
1291.959516994545
 21
618.6950381283042
 31
0.0
  0
LINE
  5
474
330
46E
100
AcDbEntity
  8
1
 62
     2
100
AcDbLine
 10
1600.065750398169
 20
627.2694122861001
 30
0.0
 11
1568.065750398169
 21
618.6950381283042
 31
0.0
  0
LINE
  5
475
330
46E
100
AcDbEntity
  8
1
 62
     2
100
AcDbLine
 10
1600.065750398169
 20
627.2694122861001
 30
0.0
 11
1568.065750398169
 21
635.843786443896
 31
0.0
  0
MTEXT
  5
476
330
46E
100
AcDbEntity
  8
1
 62
     2
100
AcDbMText
 10
1368.234855918579
 20
637.2694122861001
 30
0.0
 40
32.0
 41
0.0
 71
     7
 72
     1
  1
ローラ幅
  7
CONVERTER_3
 11
0.9999999999970621
 21
2.424068405545307E-6
 31
0.0
 73
     1
 44
0.60024009603842
  0
ENDBLK
  5
478
330
46E
100
AcDbEntity
  8
0
100
AcDbBlockEnd
  0
BLOCK
  5
484
330
47B
100
AcDbEntity
  8
0
100
AcDbBlockBegin
  2
*D1619
 70
     1
 71
     0
 10
0.0
 20
0.0
 30
0.0
  3
*D1619
  1

  0
LINE
  5
47C
330
47B
100
AcDbEntity
  8
1
  6
Continuous
 62
     2
100
AcDbLine
 10
1754.959516994543
 20
353.3194122860981
 30
0.0
 11
1754.959516994543
 21
473.3194122860981
 31
0.0
  0
LINE
  5
47D
330
47B
100
AcDbEntity
  8
1
  6
Continuous
 62
     2
100
AcDbLine
 10
1644.959516994542
 20
473.3194122860981
 30
0.0
 11
1764.959516994543
 21
473.3194122860981
 31
0.0
  0
LINE
  5
47E
330
47B
100
AcDbEntity
  8
1
  6
Continuous
 62
     2
100
AcDbLine
 10
1644.959516994542
 20
353.3194122860981
 30
0.0
 11
1764.959516994543
 21
353.3194122860981
 31
0.0
  0
LINE
  5
47F
330
47B
100
AcDbEntity
  8
1
 62
     2
100
AcDbLine
 10
1754.959516994543
 20
353.3194122860981
 30
0.0
 11
1746.385142836747
 21
385.3194122860981
 31
0.0
  0
LINE
  5
480
330
47B
100
AcDbEntity
  8
1
 62
     2
100
AcDbLine
 10
1754.959516994543
 20
353.3194122860981
 30
0.0
 11
1763.533891152339
 21
385.3194122860981
 31
0.0
  0
LINE
  5
481
330
47B
100
AcDbEntity
  8
1
 62
     2
100
AcDbLine
 10
1754.959516994543
 20
473.3194122860981
 30
0.0
 11
1763.533891152339
 21
441.3194122860981
 31
0.0
  0
LINE
  5
482
330
47B
100
AcDbEntity
  8
1
 62
     2
100
AcDbLine
 10
1754.959516994543
 20
473.3194122860981
 30
0.0
 11
1746.385142836747
 21
441.3194122860981
 31
0.0
  0
MTEXT
  5
483
330
47B
100
AcDbEntity
  8
1
 62
     2
100
AcDbMText
 10
1736.323738564503
 20
382.174072136296
 30
0.0
 40
32.0
 41
0.0
 71
     7
 72
     1
  1
120
  7
CONVERTER_1
 11
0.0
 21
1.0
 31
0.0
 73
     1
 44
0.60024009603842
  0
ENDBLK
  5
485
330
47B
100
AcDbEntity
  8
0
100
AcDbBlockEnd
  0
BLOCK
  5
493
330
488
100
AcDbEntity
  8
0
100
AcDbBlockBegin
  2
*D1720
 70
     1
 71
     0
 10
0.0
 20
0.0
 30
0.0
  3
*D1720
  1

  0
LINE
  5
489
330
488
100
AcDbEntity
  8
1
  6
Continuous
 62
     2
100
AcDbLine
 10
1754.959516994544
 20
409.3194122860982
 30
0.0
 11
1754.959516994544
 21
473.3194122860982
 31
0.0
  0
LINE
  5
48A
330
488
100
AcDbEntity
  8
1
  6
Continuous
 62
     2
100
AcDbLine
 10
1754.959516994544
 20
473.3194122860982
 30
0.0
 11
1754.959516994544
 21
483.3294091625612
 31
0.0
  0
LINE
  5
48B
330
488
100
AcDbEntity
  8
1
  6
Continuous
 62
     2
100
AcDbLine
 10
1754.959516994544
 20
483.3294091625612
 30
0.0
 11
1754.959516994544
 21
547.3294091625612
 31
0.0
  0
LINE
  5
48C
330
488
100
AcDbEntity
  8
1
  6
Continuous
 62
     2
100
AcDbLine
 10
1610.065750398168
 20
483.3294091625612
 30
0.0
 11
1764.959516994544
 21
483.3294091625612
 31
0.0
  0
LINE
  5
48D
330
488
100
AcDbEntity
  8
1
  6
Continuous
 62
     2
100
AcDbLine
 10
1644.959516994543
 20
473.3194122860982
 30
0.0
 11
1764.959516994544
 21
473.3194122860982
 31
0.0
  0
LINE
  5
48E
330
488
100
AcDbEntity
  8
1
 62
     2
100
AcDbLine
 10
1754.959516994544
 20
473.3194122860982
 30
0.0
 11
1763.53389115234
 21
441.3194122860982
 31
0.0
  0
LINE
  5
48F
330
488
100
AcDbEntity
  8
1
 62
     2
100
AcDbLine
 10
1754.959516994544
 20
473.3194122860982
 30
0.0
 11
1746.385142836748
 21
441.3194122860982
 31
0.0
  0
LINE
  5
490
330
488
100
AcDbEntity
  8
1
 62
     2
100
AcDbLine
 10
1754.959516994544
 20
483.3294091625612
 30
0.0
 11
1746.385142836748
 21
515.3294091625612
 31
0.0
  0
LINE
  5
491
330
488
100
AcDbEntity
  8
1
 62
     2
100
AcDbLine
 10
1754.959516994544
 20
483.3294091625612
 30
0.0
 11
1763.53389115234
 21
515.3294091625612
 31
0.0
  0
MTEXT
  5
492
330
488
100
AcDbEntity
  8
1
 62
     2
100
AcDbMText
 10
1740.612997090634
 20
505.5212387000261
 30
0.0
 40
32.0
 41
0.0
 71
     7
 72
     1
  1
10
  7
CONVERTER_1
 11
0.0
 21
1.0
 31
0.0
 73
     1
 44
0.60024009603842
  0
ENDBLK
  5
494
330
488
100
AcDbEntity
  8
0
100
AcDbBlockEnd
  0
BLOCK
  5
49C
330
497
100
AcDbEntity
  8
0
100
AcDbBlockBegin
  2
*D1821
 70
     1
 71
     0
 10
0.0
 20
0.0
 30
0.0
  3
*D1821
  1

  0
LINE
  5
498
330
497
100
AcDbEntity
  8
1
  6
Continuous
 62
     2
100
AcDbLine
 10
2504.959516994635
 20
958.1571377459742
 30
0.0
 11
1733.69218654038
 21
1421.996231585601
 31
0.0
  0
LINE
  5
499
330
497
100
AcDbEntity
  8
1
 62
     2
100
AcDbLine
 10
1733.69218654038
 20
1421.996231585601
 30
0.0
 11
1765.534058222746
 21
1412.852102323523
 31
0.0
  0
LINE
  5
49A
330
497
100
AcDbEntity
  8
1
 62
     2
100
AcDbLine
 10
1733.69218654038
 20
1421.996231585601
 30
0.0
 11
1756.695991690314
 21
1398.15624750797
 31
0.0
  0
MTEXT
  5
49B
330
497
100
AcDbEntity
  8
1
 62
     2
100
AcDbMText
 10
1919.297825444205
 20
1327.643536369255
 30
0.0
 40
32.0
 41
0.0
 71
     7
 72
     1
  1
\C2;R\C2;900
  7
CONVERTER_1
 11
0.8569637005047286
 21
-0.5153767709329185
 31
0.0
 73
     1
 44
0.60024009603842
  0
ENDBLK
  5
49D
330
497
100
AcDbEntity
  8
0
100
AcDbBlockEnd
  0
BLOCK
  5
4AA
330
49F
100
AcDbEntity
  8
0
100
AcDbBlockBegin
  2
*D1922
 70
     1
 71
     0
 10
0.0
 20
0.0
 30
0.0
  3
*D1922
  1

  0
LINE
  5
4A0
330
49F
100
AcDbEntity
  8
1
  6
Continuous
 62
     2
100
AcDbLine
 10
2504.959516994629
 20
1337.481050086021
 30
0.0
 11
2504.959516994629
 21
1347.481050086021
 31
0.0
  0
LINE
  5
4A1
330
49F
100
AcDbEntity
  8
1
  6
Continuous
 62
     2
100
AcDbLine
 10
2125.635604654577
 20
958.1571377459695
 30
0.0
 11
2115.635604654577
 21
958.1571377459695
 31
0.0
  0
LINE
  5
4A2
330
49F
100
AcDbEntity
  8
1
  6
Continuous
 62
     2
100
AcDbLine
 10
2504.959516994629
 20
1272.529645551078
 30
0.0
 11
2504.959516994629
 21
1337.481050086021
 31
0.0
  0
LINE
  5
4A3
330
49F
100
AcDbEntity
  8
1
  6
Continuous
 62
     2
100
AcDbLine
 10
2152.1207699691
 20
958.1571377459695
 30
0.0
 11
2125.635604654577
 21
958.1571377459695
 31
0.0
  0
ARC
  5
4A4
330
49F
100
AcDbEntity
  8
1
  6
Continuous
 62
     2
100
AcDbCircle
 10
2504.959516994629
 20
958.1571377459695
 30
0.0
 40
379.3239123400517
100
AcDbArc
 50
90.0
 51
180.0
  0
LINE
  5
4A5
330
49F
100
AcDbEntity
  8
1
 62
     2
100
AcDbLine
 10
2504.959516994629
 20
1337.481050086021
 30
0.0
 11
2473.34954214923
 21
1327.564932777762
 31
0.0
  0
LINE
  5
4A6
330
49F
100
AcDbEntity
  8
1
 62
     2
100
AcDbLine
 10
2504.959516994629
 20
1337.481050086021
 30
0.0
 11
2472.626417111397
 21
1344.698428012861
 31
0.0
  0
LINE
  5
4A7
330
49F
100
AcDbEntity
  8
1
 62
     2
100
AcDbLine
 10
2125.635604654577
 20
958.1571377459695
 30
0.0
 11
2118.418226727737
 21
990.4902376292013
 31
0.0
  0
LINE
  5
4A8
330
49F
100
AcDbEntity
  8
1
 62
     2
100
AcDbLine
 10
2125.635604654577
 20
958.1571377459695
 30
0.0
 11
2135.551721962836
 21
989.7671125913679
 31
0.0
  0
MTEXT
  5
4A9
330
49F
100
AcDbEntity
  8
1
 62
     2
100
AcDbMText
 10
2216.996980264165
 20
1229.542980630203
 30
0.0
 40
32.0
 41
0.0
 71
     7
 72
     1
  1
90{\Fgdt;~}
  7
CONVERTER_1
 11
0.7478694097490095
 21
0.6638458751560246
 31
0.0
 73
     1
 44
0.60024009603842
  0
ENDBLK
  5
4AB
330
49F
100
AcDbEntity
  8
0
100
AcDbBlockEnd
  0
ENDSEC
  0
SECTION
  2
ENTITIES
  0
INSERT
  5
37
330
1F
100
AcDbEntity
  8
0
100
AcDbBlockReference
  2
Zuwaku-A3-web
 10
1969.999999999998
 20
1340.0
 30
0.0
 41
10.0
 42
10.0
 43
10.0
  0
LINE
  5
68
330
1F
100
AcDbEntity
  8
1
  6
Continuous
 62
     7
100
AcDbLine
 10
1172.058182008427
 20
2069.02694343959
 30
0.0
 11
1161.647850601599
 21
2079.437274846418
 31
0.0
  0
LINE
  5
69
330
1F
100
AcDbEntity
  8
1
  6
Continuous
 62
     7
100
AcDbLine
 10
1175.272874242262
 20
2075.711746142367
 30
0.0
 11
1170.859954731737
 21
2071.298826631842
 31
0.0
  0
LINE
  5
6A
330
1F
100
AcDbEntity
  8
1
  6
Continuous
 62
     7
100
AcDbLine
 10
1168.332653304376
 20
2082.651967080253
 30
0.0
 11
1163.919733793851
 21
2078.239047569728
 31
0.0
  0
LINE
  5
6B
330
1F
100
AcDbEntity
  8
1
  6
Continuous
 62
     7
100
AcDbLine
 10
1178.742984711205
 20
2072.241635673424
 30
0.0
 11
1174.33006520068
 21
2067.828716162899
 31
0.0
  0
LINE
  5
6C
330
1F
100
AcDbEntity
  8
1
  6
Continuous
 62
     7
100
AcDbLine
 10
1160.449623324908
 20
2081.709158038671
 30
0.0
 11
1164.862542835433
 21
2086.122077549196
 31
0.0
  0
LINE
  5
6D
330
1F
100
AcDbEntity
  8
1
  6
Continuous
 62
     3
100
AcDbLine
 10
2502.105974751009
 20
2208.157137746064
 30
0.0
 11
2504.959516994631
 21
2208.157137746064
 31
0.0
  0
LINE
  5
6E
330
1F
100
AcDbEntity
  8
1
  6
Continuous
 62
     7
100
AcDbLine
 10
2504.959516994635
 20
1833.142851915063
 30
0.0
 11
2504.959516994636
 21
1858.157137745968
 31
0.0
  0
LINE
  5
6F
330
1F
100
AcDbEntity
  8
1
  6
Continuous
 62
     7
100
AcDbLine
 10
2469.669622026021
 20
2263.680260219534
 30
0.0
 11
2469.268197837522
 21
2286.677836576306
 31
0.0
  0
LINE
  5
70
330
1F
100
AcDbEntity
  8
1
  6
Continuous
 62
     7
100
AcDbLine
 10
2494.665814404932
 20
2264.116570380465
 30
0.0
 11
2494.264390216431
 21
2287.114146737238
 31
0.0
  0
LINE
  5
71
330
1F
100
AcDbEntity
  8
1
  6
DASH_CENTER
 62
     3
100
AcDbLine
 10
2482.073285151084
 20
2269.308481935675
 30
0.0
 11
2481.84931555902
 21
2282.13969127155
 31
0.0
  0
LINE
  5
72
330
1F
100
AcDbEntity
  8
1
  6
DASH_CENTER
 62
     3
100
AcDbLine
 10
2487.976644195989
 20
2275.502641949694
 30
0.0
 11
2474.557653200326
 21
2275.268412590594
 31
0.0
  0
LINE
  5
73
330
1F
100
AcDbEntity
  8
1
  6
Continuous
 62
     7
100
AcDbLine
 10
2504.959516994631
 20
2211.153546360149
 30
0.0
 11
2504.959516994631
 21
2283.147703750129
 31
0.0
  0
LINE
  5
74
330
1F
100
AcDbEntity
  8
1
  6
Continuous
 62
     3
100
AcDbLine
 10
2492.959516994636
 20
2206.157137746064
 30
0.0
 11
2492.959516994636
 21
1910.157137746063
 31
0.0
  0
LINE
  5
75
330
1F
100
AcDbEntity
  8
1
  6
Continuous
 62
     3
100
AcDbLine
 10
2504.959516994637
 20
1908.157137746063
 30
0.0
 11
2494.959516994636
 21
1908.157137746063
 31
0.0
  0
LINE
  5
76
330
1F
100
AcDbEntity
  8
1
  6
Continuous
 62
     3
100
AcDbLine
 10
2506.159516994635
 20
2288.157137746064
 30
0.0
 11
2506.159516994635
 21
1828.157137746063
 31
0.0
  0
LINE
  5
77
330
1F
100
AcDbEntity
  8
1
  6
Continuous
 62
     3
100
AcDbLine
 10
2504.959516994636
 20
1858.157137745968
 30
0.0
 11
2504.959516994637
 21
1908.157137746063
 31
0.0
  0
LINE
  5
78
330
1F
100
AcDbEntity
  8
1
  6
Continuous
 62
     3
100
AcDbLine
 10
2504.959516994635
 20
1828.157137746063
 30
0.0
 11
2504.959516994635
 21
1833.142851915063
 31
0.0
  0
LINE
  5
79
330
1F
100
AcDbEntity
  8
1
  6
Continuous
 62
     3
100
AcDbLine
 10
2506.159516994635
 20
1828.157137746063
 30
0.0
 11
2504.959516994635
 21
1828.157137746063
 31
0.0
  0
LINE
  5
7A
330
1F
100
AcDbEntity
  8
1
  6
Continuous
 62
     3
100
AcDbLine
 10
2506.159516994635
 20
2288.157137746064
 30
0.0
 11
2504.959516994643
 21
2288.157137746064
 31
0.0
  0
LINE
  5
7B
330
1F
100
AcDbEntity
  8
1
  6
Continuous
 62
     3
100
AcDbLine
 10
2504.959516994643
 20
2283.147703750129
 30
0.0
 11
2504.959516994643
 21
2288.157137746064
 31
0.0
  0
LINE
  5
7C
330
1F
100
AcDbEntity
  8
1
  6
Continuous
 62
     3
100
AcDbLine
 10
2504.959516994631
 20
2208.157137746064
 30
0.0
 11
2504.959516994631
 21
2211.153560634372
 31
0.0
  0
LINE
  5
7D
330
1F
100
AcDbEntity
  8
1
  6
Continuous
 62
     3
100
AcDbLine
 10
2492.959516994636
 20
1910.157137746063
 30
0.0
 11
2494.959516994636
 21
1908.157137746063
 31
0.0
  0
LINE
  5
7E
330
1F
100
AcDbEntity
  8
1
  6
Continuous
 62
     3
100
AcDbLine
 10
2494.959516994636
 20
2208.157137746064
 30
0.0
 11
2492.959516994636
 21
2206.157137746064
 31
0.0
  0
LINE
  5
7F
330
1F
100
AcDbEntity
  8
1
  6
Continuous
 62
     3
100
AcDbLine
 10
1256.959516994541
 20
970.1571377459677
 30
0.0
 11
1254.959516994541
 21
968.1571377459677
 31
0.0
  0
LINE
  5
80
330
1F
100
AcDbEntity
  8
1
  6
Continuous
 62
     3
100
AcDbLine
 10
1554.959516994541
 20
968.1571377459677
 30
0.0
 11
1552.959516994541
 21
970.1571377459677
 31
0.0
  0
LINE
  5
81
330
1F
100
AcDbEntity
  8
1
  6
Continuous
 62
     3
100
AcDbLine
 10
1254.959516994541
 20
958.1571377459745
 30
0.0
 11
1254.959516994541
 21
961.0106799895946
 31
0.0
  0
LINE
  5
82
330
1F
100
AcDbEntity
  8
1
  6
Continuous
 62
     3
100
AcDbLine
 10
1251.963094106233
 20
958.1571377459745
 30
0.0
 11
1254.959516994541
 21
958.1571377459745
 31
0.0
  0
LINE
  5
83
330
1F
100
AcDbEntity
  8
1
  6
Continuous
 62
     3
100
AcDbLine
 10
1174.959516994541
 20
958.1571377459607
 30
0.0
 11
1179.968950990476
 21
958.1571377459607
 31
0.0
  0
LINE
  5
84
330
1F
100
AcDbEntity
  8
1
  6
Continuous
 62
     3
100
AcDbLine
 10
1174.959516994541
 20
958.1571377459607
 30
0.0
 11
1174.959516994541
 21
956.9571377459693
 31
0.0
  0
LINE
  5
85
330
1F
100
AcDbEntity
  8
1
  6
Continuous
 62
     3
100
AcDbLine
 10
1634.959516994541
 20
958.1571377459691
 30
0.0
 11
1634.959516994541
 21
956.9571377459693
 31
0.0
  0
LINE
  5
86
330
1F
100
AcDbEntity
  8
1
  6
Continuous
 62
     3
100
AcDbLine
 10
1629.973802825541
 20
958.1571377459691
 30
0.0
 11
1634.959516994541
 21
958.1571377459691
 31
0.0
  0
LINE
  5
87
330
1F
100
AcDbEntity
  8
1
  6
Continuous
 62
     3
100
AcDbLine
 10
1554.959516994541
 20
958.1571377459677
 30
0.0
 11
1604.959516994635
 21
958.1571377459686
 31
0.0
  0
LINE
  5
88
330
1F
100
AcDbEntity
  8
1
  6
Continuous
 62
     3
100
AcDbLine
 10
1634.959516994541
 20
956.9571377459693
 30
0.0
 11
1174.959516994541
 21
956.9571377459693
 31
0.0
  0
LINE
  5
89
330
1F
100
AcDbEntity
  8
1
  6
Continuous
 62
     3
100
AcDbLine
 10
1554.959516994541
 20
968.1571377459677
 30
0.0
 11
1554.959516994541
 21
958.1571377459677
 31
0.0
  0
LINE
  5
8A
330
1F
100
AcDbEntity
  8
1
  6
Continuous
 62
     3
100
AcDbLine
 10
1552.959516994541
 20
970.1571377459677
 30
0.0
 11
1256.959516994541
 21
970.1571377459677
 31
0.0
  0
LINE
  5
8B
330
1F
100
AcDbEntity
  8
1
  6
Continuous
 62
     7
100
AcDbLine
 10
1179.968950990476
 20
958.1571377459745
 30
0.0
 11
1251.963108380462
 21
958.1571377459745
 31
0.0
  0
LINE
  5
8C
330
1F
100
AcDbEntity
  8
1
  6
Continuous
 62
     7
100
AcDbLine
 10
1700.036590935475
 20
1986.619622771176
 30
0.0
 11
1686.034420890469
 21
2004.867606048663
 31
0.0
  0
LINE
  5
8D
330
1F
100
AcDbEntity
  8
1
  6
Continuous
 62
     7
100
AcDbLine
 10
1719.870424442755
 20
2001.838658496394
 30
0.0
 11
1705.868254397751
 21
2020.086641773881
 31
0.0
  0
LINE
  5
8E
330
1F
100
AcDbEntity
  8
1
  6
DASH_CENTER
 62
     3
100
AcDbLine
 10
1706.659566109692
 20
1998.521888876745
 30
0.0
 11
1698.847230921986
 21
2008.703122314505
 31
0.0
  0
LINE
  5
8F
330
1F
100
AcDbEntity
  8
1
  6
DASH_CENTER
 62
     3
100
AcDbLine
 10
1707.720594257502
 20
2007.012559378059
 30
0.0
 11
1697.072971243198
 21
1998.842350881357
 31
0.0
  0
LINE
  5
90
330
1F
100
AcDbEntity
  8
1
  6
DASH_CENTER
 62
     3
100
AcDbLine
 10
2087.173486558413
 20
2207.613991017113
 30
0.0
 11
2074.464704068068
 21
2203.299940675796
 31
0.0
  0
LINE
  5
91
330
1F
100
AcDbEntity
  8
1
  6
DASH_CENTER
 62
     3
100
AcDbLine
 10
2083.439530451001
 20
2199.914975620307
 30
0.0
 11
2079.314445112407
 21
2212.067085163449
 31
0.0
  0
LINE
  5
92
330
1F
100
AcDbEntity
  8
1
  6
Continuous
 62
     7
100
AcDbLine
 10
2097.015430896144
 20
2198.80923346697
 30
0.0
 11
2089.621976189791
 21
2220.589648687295
 31
0.0
  0
LINE
  5
93
330
1F
100
AcDbEntity
  8
1
  6
Continuous
 62
     7
100
AcDbLine
 10
2073.342177658767
 20
2190.773246834391
 30
0.0
 11
2065.948722952413
 21
2212.553662054717
 31
0.0
  0
LINE
  5
94
330
1F
100
AcDbEntity
  8
1
  6
DASH_CENTER
 62
     3
100
AcDbLine
 10
1464.274303859069
 20
1766.043683497228
 30
0.0
 11
1456.104095362366
 21
1755.396060482924
 31
0.0
  0
LINE
  5
95
330
1F
100
AcDbEntity
  8
1
  6
DASH_CENTER
 62
     3
100
AcDbLine
 10
1454.413532425922
 20
1764.26942381844
 30
0.0
 11
1464.59476586368
 21
1756.457088630735
 31
0.0
  0
LINE
  5
96
330
1F
100
AcDbEntity
  8
1
  6
Continuous
 62
     7
100
AcDbLine
 10
1443.030012966545
 20
1757.248400342676
 30
0.0
 11
1461.277996244033
 21
1743.246230297671
 31
0.0
  0
LINE
  5
97
330
1F
100
AcDbEntity
  8
1
  6
Continuous
 62
     7
100
AcDbLine
 10
1458.249048691763
 20
1777.082233849957
 30
0.0
 11
1476.497031969251
 21
1763.080063804951
 31
0.0
  0
LINE
  5
98
330
1F
100
AcDbEntity
  8
1
  6
Continuous
 62
     7
100
AcDbLine
 10
1250.56299268571
 20
1397.167931788013
 30
0.0
 11
1272.343407906036
 21
1389.774477081661
 31
0.0
  0
LINE
  5
99
330
1F
100
AcDbEntity
  8
1
  6
Continuous
 62
     7
100
AcDbLine
 10
1242.527006053131
 20
1373.494678550635
 30
0.0
 11
1264.307421273457
 21
1366.101223844283
 31
0.0
  0
LINE
  5
9A
330
1F
100
AcDbEntity
  8
1
  6
DASH_CENTER
 62
     3
100
AcDbLine
 10
1251.049569576977
 20
1383.80220962802
 30
0.0
 11
1263.201679120119
 21
1379.677124289425
 31
0.0
  0
LINE
  5
9B
330
1F
100
AcDbEntity
  8
1
  6
DASH_CENTER
 62
     3
100
AcDbLine
 10
1259.81671406463
 20
1388.651950672359
 30
0.0
 11
1255.502663723314
 21
1375.943168182014
 31
0.0
  0
LINE
  5
9C
330
1F
100
AcDbEntity
  8
1
  6
DASH_CENTER
 62
     3
100
AcDbLine
 10
1187.848242150011
 20
988.5590015402779
 30
0.0
 11
1187.614012790911
 21
975.1400105446151
 31
0.0
  0
LINE
  5
9D
330
1F
100
AcDbEntity
  8
1
  6
DASH_CENTER
 62
     3
100
AcDbLine
 10
1180.976963469055
 20
981.2673391815854
 30
0.0
 11
1193.808172804929
 21
981.0433695895201
 31
0.0
  0
LINE
  5
9E
330
1F
100
AcDbEntity
  8
1
  6
Continuous
 62
     7
100
AcDbLine
 10
1176.002508003367
 20
968.8522645241724
 30
0.0
 11
1199.000084360139
 21
968.4508403356733
 31
0.0
  0
LINE
  5
9F
330
1F
100
AcDbEntity
  8
1
  6
Continuous
 62
     7
100
AcDbLine
 10
1176.438818164299
 20
993.8484569030823
 30
0.0
 11
1199.436394521071
 21
993.4470327145832
 31
0.0
  0
LINE
  5
A0
330
1F
100
AcDbEntity
  8
1
  6
Continuous
 62
     7
100
AcDbLine
 10
1530.199815970518
 20
2195.748389642762
 30
0.0
 11
1525.957175283398
 21
2199.99103032988
 31
0.0
  0
LINE
  5
A1
330
1F
100
AcDbEntity
  8
1
  6
Continuous
 62
     7
100
AcDbLine
 10
1509.828513981108
 20
2175.377087653344
 30
0.0
 11
1505.585873293988
 21
2179.619728340462
 31
0.0
  0
LINE
  5
A2
330
1F
100
AcDbEntity
  8
1
  6
Continuous
 62
     7
100
AcDbLine
 10
1263.125624410713
 20
1937.159479457142
 30
0.0
 11
1267.368265097833
 21
1932.916838770022
 31
0.0
  0
LINE
  5
A3
330
1F
100
AcDbEntity
  8
1
  6
Continuous
 62
     7
100
AcDbLine
 10
1283.496926400127
 20
1957.530781446556
 30
0.0
 11
1287.739567087246
 21
1953.288140759436
 31
0.0
  0
LINE
  5
A4
330
1F
100
AcDbEntity
  8
1
  6
Continuous
 62
     7
100
AcDbLine
 10
1521.219467421725
 20
2364.958949952927
 30
0.0
 11
1089.80671180439
 21
1933.54619433559
 31
0.0
  0
LINE
  5
A5
330
1F
100
AcDbEntity
  8
1
  6
Continuous
 62
     7
100
AcDbLine
 10
1203.622568926714
 20
2047.362051457915
 30
0.0
 11
991.4905345707497
 21
2259.494085813879
 31
0.0
  0
LINE
  5
A6
330
1F
100
AcDbEntity
  8
1
  6
Continuous
 62
     7
100
AcDbLine
 10
991.4905345707497
 20
2259.494085813879
 30
0.0
 11
1203.622568926714
 21
2471.626120169844
 31
0.0
  0
LINE
  5
A7
330
1F
100
AcDbEntity
  8
1
  6
Continuous
 62
     7
100
AcDbLine
 10
1203.622568926714
 20
2471.626120169844
 30
0.0
 11
1415.754603282678
 21
2259.494085813879
 31
0.0
  0
LINE
  5
A8
330
1F
100
AcDbEntity
  8
1
  6
Continuous
 62
     7
100
AcDbLine
 10
1411.229119883083
 20
2259.494085813879
 30
0.0
 11
1203.622568926714
 21
2051.887534857508
 31
0.0
  0
LINE
  5
A9
330
1F
100
AcDbEntity
  8
1
  6
Continuous
 62
     7
100
AcDbLine
 10
1203.622568926714
 20
2051.887534857508
 30
0.0
 11
996.0160179703429
 21
2259.494085813879
 31
0.0
  0
LINE
  5
AA
330
1F
100
AcDbEntity
  8
1
  6
Continuous
 62
     7
100
AcDbLine
 10
996.0160179703429
 20
2259.494085813879
 30
0.0
 11
1203.622568926713
 21
2467.10063677025
 31
0.0
  0
LINE
  5
AB
330
1F
100
AcDbEntity
  8
1
  6
Continuous
 62
     7
100
AcDbLine
 10
1203.622568926713
 20
2467.10063677025
 30
0.0
 11
1411.229119883083
 21
2259.494085813879
 31
0.0
  0
LINE
  5
AC
330
1F
100
AcDbEntity
  8
1
  6
DASH_CENTER
 62
     3
100
AcDbLine
 10
1327.314304105264
 20
2234.693396943254
 30
0.0
 11
1164.850417564581
 21
2072.229510402572
 31
0.0
  0
LINE
  5
AD
330
1F
100
AcDbEntity
  8
1
  6
DASH_CENTER
 62
     3
100
AcDbLine
 10
1283.197060154043
 20
2234.720370128507
 30
0.0
 11
1326.946880788969
 21
2190.970549493582
 31
0.0
  0
LINE
  5
AE
330
1F
100
AcDbEntity
  8
1
  6
DASHED
 62
     4
100
AcDbLine
 10
1016.592825302873
 20
2276.111095171763
 30
0.0
 11
1187.005559568831
 21
2446.523829437722
 31
0.0
  0
LINE
  5
AF
330
1F
100
AcDbEntity
  8
1
  6
Continuous
 62
     7
100
AcDbLine
 10
1170.114630420808
 20
1844.148485467237
 30
0.0
 11
1606.981260189305
 21
2281.015115235734
 31
0.0
  0
LINE
  5
B0
330
1F
100
AcDbEntity
  8
1
  6
DASH_CENTER
 62
     3
100
AcDbLine
 10
1591.502692749132
 20
2296.493682675908
 30
0.0
 11
1169.92146424793
 21
1874.912454174707
 31
0.0
  0
LINE
  5
B1
330
1F
100
AcDbEntity
  8
1
  6
Continuous
 62
     7
100
AcDbLine
 10
1167.851888721011
 20
1846.411227167034
 30
0.0
 11
1604.718518489507
 21
2283.277856935531
 31
0.0
  0
LINE
  5
B2
330
1F
100
AcDbEntity
  8
1
  6
Continuous
 62
     7
100
AcDbLine
 10
1087.524558378219
 20
1926.738557509825
 30
0.0
 11
1524.391188146716
 21
2363.605187278323
 31
0.0
  0
LINE
  5
B3
330
1F
100
AcDbEntity
  8
DETAIL
  6
DASHED
 62
     4
100
AcDbLine
 10
1176.345217735661
 20
2382.123372234375
 30
0.0
 11
1159.781948493147
 21
2365.560102991862
 31
0.0
  0
LINE
  5
B4
330
1F
100
AcDbEntity
  8
DETAIL
  6
DASHED
 62
     4
100
AcDbLine
 10
1097.556551748731
 20
2303.334706247445
 30
0.0
 11
1080.999646467248
 21
2286.777800965963
 31
0.0
  0
LINE
  5
B5
330
1F
100
AcDbEntity
  8
DETAIL
  6
DASHED
 62
     4
100
AcDbLine
 10
1171.095656992132
 20
2391.015947114577
 30
0.0
 11
1174.71180107112
 21
2387.399803035589
 31
0.0
  0
LINE
  5
B6
330
1F
100
AcDbEntity
  8
DETAIL
  6
DASHED
 62
     4
100
AcDbLine
 10
1072.100707626016
 20
2292.020997748461
 30
0.0
 11
1075.716851705003
 21
2288.404853669472
 31
0.0
  0
LINE
  5
B7
330
1F
100
AcDbEntity
  8
COLOR
  6
DASH_CENTER
 62
     3
100
AcDbLine
 10
1163.317482399079
 20
2383.237772521525
 30
0.0
 11
1173.813068352232
 21
2372.742186568373
 31
0.0
  0
LINE
  5
B8
330
1F
100
AcDbEntity
  8
COLOR
  6
DASH_CENTER
 62
     3
100
AcDbLine
 10
1079.878882219067
 20
2299.799172341513
 30
0.0
 11
1090.626905293103
 21
2289.051149267477
 31
0.0
  0
LINE
  5
B9
330
1F
100
AcDbEntity
  8
COLOR
  6
DASHED
 62
     4
100
AcDbLine
 10
1126.49328789428
 20
2289.954319288001
 30
0.0
 11
1170.409422331583
 21
2246.038184850698
 31
0.0
  0
LINE
  5
BA
330
1F
100
AcDbEntity
  8
COLOR
  6
DASHED
 62
     4
100
AcDbLine
 10
1173.162335452592
 20
2336.623366846314
 30
0.0
 11
1217.078469889895
 21
2292.70723240901
 31
0.0
  0
LINE
  5
BB
330
1F
100
AcDbEntity
  8
COLOR
  6
DASHED
 62
     4
100
AcDbLine
 10
1148.821793384756
 20
2259.140532423286
 30
0.0
 11
1104.627619560597
 21
2303.334706247446
 31
0.0
  0
LINE
  5
BC
330
1F
100
AcDbEntity
  8
DETAIL
  6
DASHED
 62
     4
100
AcDbLine
 10
1149.175346775349
 20
2369.095636897794
 30
0.0
 11
1155.829928693095
 21
2344.258511208617
 31
0.0
  0
LINE
  5
BD
330
1F
100
AcDbEntity
  8
DETAIL
  6
DASHED
 62
     4
100
AcDbLine
 10
1118.834101901416
 20
2307.292382901746
 30
0.0
 11
1094.021017842798
 21
2313.941307965244
 31
0.0
  0
LINE
  5
BE
330
1F
100
AcDbEntity
  8
COLOR
  6
DASHED
 62
     4
100
AcDbLine
 10
1159.781948493147
 20
2358.489035179996
 30
0.0
 11
1203.976122317306
 21
2314.294861355837
 31
0.0
  0
LINE
  5
BF
330
1F
100
AcDbEntity
  8
1
  6
Continuous
 62
     7
100
AcDbLine
 10
1174.357271107927
 20
1839.905844780117
 30
0.0
 11
1611.223900876424
 21
2276.772474548615
 31
0.0
  0
LINE
  5
C0
330
1F
100
AcDbEntity
  8
1
  6
Continuous
 62
     7
100
AcDbLine
 10
1175.983616704657
 20
1838.279499183389
 30
0.0
 11
1612.850246473153
 21
2275.146128951886
 31
0.0
  0
LINE
  5
C1
330
1F
100
AcDbEntity
  8
DETAIL
  6
DASHED
 62
     4
100
AcDbLine
 10
1180.688267585709
 20
2379.760221371649
 30
0.0
 11
1207.383983904152
 21
2335.4573572866
 31
0.0
  0
LINE
  5
C2
330
1F
100
AcDbEntity
  8
1
  6
DASH_CENTER
 62
     3
100
AcDbLine
 10
1281.983988451972
 20
2196.154426203409
 30
0.0
 11
1208.263766254999
 21
2300.228986563898
 31
0.0
  0
LINE
  5
C3
330
1F
100
AcDbEntity
  8
1
  6
DASHED
 62
     4
100
AcDbLine
 10
1036.284541501247
 20
2256.204831623692
 30
0.0
 11
1206.804549442054
 21
2426.724839564498
 31
0.0
  0
LINE
  5
C4
330
1F
100
AcDbEntity
  8
1
  6
DASHED
 62
     4
100
AcDbLine
 10
1185.94489939705
 20
2447.584489609502
 30
0.0
 11
1203.622568926714
 21
2465.262159139166
 31
0.0
  0
LINE
  5
C5
330
1F
100
AcDbEntity
  8
1
  6
DASHED
 62
     4
100
AcDbLine
 10
1185.94489939705
 20
2447.584489609502
 30
0.0
 11
1221.300238456378
 21
2412.229150550174
 31
0.0
  0
LINE
  5
C6
330
1F
100
AcDbEntity
  8
1
  6
DASHED
 62
     4
100
AcDbLine
 10
1238.977907986042
 20
2429.906820079838
 30
0.0
 11
1221.300238456378
 21
2412.229150550174
 31
0.0
  0
LINE
  5
C7
330
1F
100
AcDbEntity
  8
1
  6
DASHED
 62
     4
100
AcDbLine
 10
1238.977907986042
 20
2429.906820079838
 30
0.0
 11
1203.622568926714
 21
2465.262159139166
 31
0.0
  0
LINE
  5
C8
330
1F
100
AcDbEntity
  8
0
  6
DASH_CENTER
 62
     3
100
AcDbLine
 10
1226.851026688692
 20
2236.265628051901
 30
0.0
 11
1110.814803895979
 21
2352.301850844614
 31
0.0
  0
LINE
  5
C9
330
1F
100
AcDbEntity
  8
1
  6
DASH_CENTER
 62
     3
100
AcDbLine
 10
1221.924995762511
 20
2342.85033651884
 30
0.0
 11
1120.808726052836
 21
2241.734066809164
 31
0.0
  0
LINE
  5
CA
330
1F
100
AcDbEntity
  8
1
  6
DASH_CENTER
 62
     3
100
AcDbLine
 10
1208.618870464421
 20
2308.331007785153
 30
0.0
 11
1154.244001229912
 21
2253.956138550644
 31
0.0
  0
LINE
  5
CB
330
1F
100
AcDbEntity
  8
DETAIL
  6
DASHED
 62
     4
100
AcDbLine
 10
1127.659297453995
 20
2255.73267083644
 30
0.0
 11
1083.356433368943
 21
2282.428387154884
 31
0.0
  0
LINE
  5
CC
330
1F
100
AcDbEntity
  8
1
  6
DASHED
 62
     4
100
AcDbLine
 10
997.8544956014425
 20
2259.494085813854
 30
0.0
 11
1033.209834660777
 21
2224.138746754533
 31
0.0
  0
LINE
  5
CD
330
1F
100
AcDbEntity
  8
1
  6
DASHED
 62
     4
100
AcDbLine
 10
1050.887504190438
 20
2241.8164162842
 30
0.0
 11
1033.209834660777
 21
2224.138746754533
 31
0.0
  0
LINE
  5
CE
330
1F
100
AcDbEntity
  8
1
  6
DASHED
 62
     4
100
AcDbLine
 10
1050.887504190438
 20
2241.8164162842
 30
0.0
 11
1015.532165131103
 21
2277.171755343521
 31
0.0
  0
LINE
  5
CF
330
1F
100
AcDbEntity
  8
1
  6
DASHED
 62
     4
100
AcDbLine
 10
997.8544956014425
 20
2259.494085813854
 30
0.0
 11
1015.532165131103
 21
2277.171755343521
 31
0.0
  0
LINE
  5
D0
330
1F
100
AcDbEntity
  8
1
  6
DASH_CENTER
 62
     3
100
AcDbLine
 10
1320.925527795867
 20
2083.208500865291
 30
0.0
 11
1376.806525798668
 21
2027.327502862491
 31
0.0
  0
LINE
  5
D1
330
1F
100
AcDbEntity
  8
1
  6
DASH_CENTER
 62
     3
100
AcDbLine
 10
1379.908153875244
 20
2142.191126944668
 30
0.0
 11
1435.789151878045
 21
2086.310128941867
 31
0.0
  0
LINE
  5
D2
330
1F
100
AcDbEntity
  8
1
  6
DASH_CENTER
 62
     3
100
AcDbLine
 10
1156.384114797808
 20
2260.957267961331
 30
0.0
 11
1333.587253395021
 21
2041.647179591209
 31
0.0
  0
LINE
  5
D3
330
1F
100
AcDbEntity
  8
1
  6
DASH_CENTER
 62
     3
100
AcDbLine
 10
1293.771441203088
 20
2186.532203532797
 30
0.0
 11
1416.834443344566
 21
2132.353090252076
 31
0.0
  0
LINE
  5
D4
330
1F
100
AcDbEntity
  8
1
  6
DASH_CENTER
 62
     3
100
AcDbLine
 10
1438.764493624597
 20
2201.04746669402
 30
0.0
 11
1494.645491627397
 21
2145.16646869122
 31
0.0
  0
LINE
  5
D5
330
1F
100
AcDbEntity
  8
1
  6
DASH_CENTER
 62
     3
100
AcDbLine
 10
1497.620833373949
 20
2259.903806443372
 30
0.0
 11
1553.50183137675
 21
2204.022808440573
 31
0.0
  0
LINE
  5
D6
330
1F
100
AcDbEntity
  8
1
  6
DASH_CENTER
 62
     3
100
AcDbLine
 10
1262.069188046514
 20
2024.352161115937
 30
0.0
 11
1317.950186049315
 21
1968.471163113137
 31
0.0
  0
LINE
  5
D7
330
1F
100
AcDbEntity
  8
1
  6
DASH_CENTER
 62
     3
100
AcDbLine
 10
1203.212848297161
 20
1965.495821366585
 30
0.0
 11
1259.093846299962
 21
1909.614823363784
 31
0.0
  0
LINE
  5
D8
330
1F
100
AcDbEntity
  8
1
  6
DASH_CENTER
 62
     3
100
AcDbLine
 10
1185.644374412991
 20
1861.573275633001
 30
0.0
 11
1596.008599375024
 21
2271.937500595034
 31
0.0
  0
LINE
  5
D9
330
1F
100
AcDbEntity
  8
1
  6
DASH_CENTER
 62
     3
100
AcDbLine
 10
1335.040475013807
 20
2069.093553647352
 30
0.0
 11
1154.839169815798
 21
1888.892248449341
 31
0.0
  0
LINE
  5
DA
330
1F
100
AcDbEntity
  8
1
  6
DASH_CENTER
 62
     3
100
AcDbLine
 10
1394.023101093184
 20
2128.076179726728
 30
0.0
 11
1561.722177314098
 21
2295.775255947642
 31
0.0
  0
LINE
  5
DB
330
1F
100
AcDbEntity
  8
1
  6
DASH_CENTER
 62
     3
100
AcDbLine
 10
1855.231611659543
 20
2041.920055530959
 30
0.0
 11
1752.333244075461
 21
1973.165564434479
 31
0.0
  0
LINE
  5
DC
330
1F
100
AcDbEntity
  8
1
  6
DASH_CENTER
 62
     3
100
AcDbLine
 10
1916.6620901986
 20
2102.37806316991
 30
0.0
 11
1808.183841433842
 21
2039.748117044328
 31
0.0
  0
LINE
  5
DD
330
1F
100
AcDbEntity
  8
1
  6
DASH_CENTER
 62
     3
100
AcDbLine
 10
2002.249570886722
 20
2117.454822993911
 30
0.0
 11
1891.257251180879
 21
2062.719468206344
 31
0.0
  0
LINE
  5
DE
330
1F
100
AcDbEntity
  8
1
  6
DASH_CENTER
 62
     3
100
AcDbLine
 10
2071.045856692327
 20
2169.377317546488
 30
0.0
 11
1955.320805996958
 21
2121.442432042124
 31
0.0
  0
LINE
  5
DF
330
1F
100
AcDbEntity
  8
1
  6
DASH_CENTER
 62
     3
100
AcDbLine
 10
2157.869036669338
 20
2173.153685644235
 30
0.0
 11
2040.681874204787
 21
2133.374004261503
 31
0.0
  0
LINE
  5
E0
330
1F
100
AcDbEntity
  8
1
  6
DASH_CENTER
 62
     3
100
AcDbLine
 10
2232.854006217423
 20
2215.652258833008
 30
0.0
 11
2111.862241293889
 21
2183.232613130905
 31
0.0
  0
LINE
  5
E1
330
1F
100
AcDbEntity
  8
1
  6
DASH_CENTER
 62
     3
100
AcDbLine
 10
1279.884041609806
 20
1351.254413446656
 30
0.0
 11
1247.464395907727
 21
1230.262648523113
 31
0.0
  0
LINE
  5
E2
330
1F
100
AcDbEntity
  8
1
  6
DASH_CENTER
 62
     3
100
AcDbLine
 10
1329.742650479194
 20
1422.434780535767
 30
0.0
 11
1289.962969096485
 21
1305.247618071207
 31
0.0
  0
LINE
  5
E3
330
1F
100
AcDbEntity
  8
1
  6
DASH_CENTER
 62
     3
100
AcDbLine
 10
1341.674222698554
 20
1507.795848743597
 30
0.0
 11
1293.739337194215
 21
1392.07079804822
 31
0.0
  0
LINE
  5
E4
330
1F
100
AcDbEntity
  8
1
  6
DASH_CENTER
 62
     3
100
AcDbLine
 10
1400.397186534322
 20
1571.859403559688
 30
0.0
 11
1345.661831746777
 21
1460.867083853834
 31
0.0
  0
LINE
  5
E5
330
1F
100
AcDbEntity
  8
1
  6
DASH_CENTER
 62
     3
100
AcDbLine
 10
1489.951090306159
 20
1710.783410665124
 30
0.0
 11
1421.196599209699
 21
1607.885043081029
 31
0.0
  0
LINE
  5
E6
330
1F
100
AcDbEntity
  8
1
  6
DASH_CENTER
 62
     3
100
AcDbLine
 10
1423.368537696322
 20
1654.93281330673
 30
0.0
 11
1360.738591570762
 21
1546.454564541959
 31
0.0
  0
LINE
  5
E7
330
1F
100
AcDbEntity
  8
1
  6
DASH_CENTER
 62
     3
100
AcDbLine
 10
1672.96890186223
 20
1939.547480516997
 30
0.0
 11
1772.344255784176
 21
2015.800871521266
 31
0.0
  0
LINE
  5
E8
330
1F
100
AcDbEntity
  8
1
  6
DASH_CENTER
 62
     3
100
AcDbLine
 10
1626.286881167047
 20
1866.244585068409
 30
0.0
 11
1719.330677031204
 21
1947.841804068778
 31
0.0
  0
LINE
  5
E9
330
1F
100
AcDbEntity
  8
1
  6
DASH_CENTER
 62
     3
100
AcDbLine
 10
1523.569174223554
 20
1790.147752878304
 30
0.0
 11
1447.315783219285
 21
1690.772398956359
 31
0.0
  0
LINE
  5
EA
330
1F
100
AcDbEntity
  8
1
  6
DASH_CENTER
 62
     3
100
AcDbLine
 10
1596.872069672136
 20
1836.829773573488
 30
0.0
 11
1515.274850671768
 21
1743.785977709332
 31
0.0
  0
LINE
  5
EB
330
1F
100
AcDbEntity
  8
1
  6
DASH_CENTER
 62
     3
100
AcDbLine
 10
1551.989552386944
 20
1822.554983132136
 30
0.0
 11
1640.561671608407
 21
1911.127102353599
 31
0.0
  0
LINE
  5
EC
330
1F
100
AcDbEntity
  8
1
  6
DASH_CENTER
 62
     3
100
AcDbLine
 10
1187.459516994544
 20
487.2499251553261
 30
0.0
 11
1187.459516994544
 21
461.129925155327
 31
0.0
  0
LINE
  5
ED
330
1F
100
AcDbEntity
  8
1
  6
Continuous
 62
     7
100
AcDbLine
 10
1204.971698003867
 20
442.1422781305481
 30
0.0
 11
1204.539333096795
 21
459.4368744134091
 31
0.0
  0
LINE
  5
EE
330
1F
100
AcDbEntity
  8
1
  6
Continuous
 62
     7
100
AcDbLine
 10
1199.73983286254
 20
442.161528369693
 30
0.0
 11
1199.314965612816
 21
459.156218358631
 31
0.0
  0
LINE
  5
EF
330
1F
100
AcDbEntity
  8
1
  6
Continuous
 62
     7
100
AcDbLine
 10
1604.018265430152
 20
469.273800854064
 30
0.0
 11
1600.419389903085
 21
469.183828965888
 31
0.0
  0
LINE
  5
F0
330
1F
100
AcDbEntity
  8
1
  6
Continuous
 62
     7
100
AcDbLine
 10
1204.539333096795
 20
459.4368744134091
 30
0.0
 11
1215.535897207283
 21
459.7117885161709
 31
0.0
  0
LINE
  5
F1
330
1F
100
AcDbEntity
  8
1
  6
Continuous
 62
     7
100
AcDbLine
 10
1204.971698003867
 20
442.1422781305481
 30
0.0
 11
1215.968262114354
 21
442.41719223331
 31
0.0
  0
LINE
  5
F2
330
1F
100
AcDbEntity
  8
1
  6
Continuous
 62
     7
100
AcDbLine
 10
1604.443132679877
 20
452.279110865126
 30
0.0
 11
1604.018265430152
 21
469.273800854064
 31
0.0
  0
LINE
  5
F3
330
1F
100
AcDbEntity
  8
1
  6
Continuous
 62
     7
100
AcDbLine
 10
1617.410331063348
 20
455.104071952681
 30
0.0
 11
1608.159516994542
 21
454.872801600961
 31
0.0
  0
LINE
  5
F4
330
1F
100
AcDbEntity
  8
1
  6
Continuous
 62
     7
100
AcDbLine
 10
1604.959516994544
 20
398.4194122860992
 30
0.0
 11
1204.959516994544
 21
398.4194122860992
 31
0.0
  0
LINE
  5
F5
330
1F
100
AcDbEntity
  8
1
  6
DASH_CENTER
 62
     3
100
AcDbLine
 10
1621.987429299203
 20
405.3194122860981
 30
0.0
 11
1191.102659158102
 21
405.3194122860981
 31
0.0
  0
LINE
  5
F6
330
1F
100
AcDbEntity
  8
1
  6
Continuous
 62
     7
100
AcDbLine
 10
1204.959516994544
 20
412.219412286098
 30
0.0
 11
1604.959516994544
 21
412.219412286098
 31
0.0
  0
LINE
  5
F7
330
1F
100
AcDbEntity
  8
1
  6
Continuous
 62
     7
100
AcDbLine
 10
1254.959516994544
 20
481.6194122860991
 30
0.0
 11
1198.959516994544
 21
481.6194122860991
 31
0.0
  0
LINE
  5
F8
330
1F
100
AcDbEntity
  8
1
  6
Continuous
 62
     7
100
AcDbLine
 10
1254.959516994544
 20
481.6194122860991
 30
0.0
 11
1254.959516994544
 21
479.319412286098
 31
0.0
  0
LINE
  5
F9
330
1F
100
AcDbEntity
  8
1
  6
Continuous
 62
     7
100
AcDbLine
 10
1198.959516994544
 20
481.6194122860991
 30
0.0
 11
1198.959516994544
 21
479.319412286098
 31
0.0
  0
LINE
  5
FA
330
1F
100
AcDbEntity
  8
1
  6
Continuous
 62
     7
100
AcDbLine
 10
1207.959516994544
 20
479.319412286098
 30
0.0
 11
1207.959516994544
 21
473.319412286098
 31
0.0
  0
LINE
  5
FB
330
1F
100
AcDbEntity
  8
1
  6
Continuous
 62
     7
100
AcDbLine
 10
1174.959516994544
 20
479.319412286098
 30
0.0
 11
1254.959516994544
 21
479.319412286098
 31
0.0
  0
LINE
  5
FC
330
1F
100
AcDbEntity
  8
1
  6
Continuous
 62
     7
100
AcDbLine
 10
1193.170114706892
 20
444.869017286968
 30
0.0
 11
1192.88874436516
 21
456.1238309562731
 31
0.0
  0
LINE
  5
FD
330
1F
100
AcDbEntity
  8
1
  6
Continuous
 62
     7
100
AcDbLine
 10
1199.62118935159
 20
446.907268807725
 30
0.0
 11
1193.703594894603
 21
446.7593289463019
 31
0.0
  0
LINE
  5
FE
330
1F
100
AcDbEntity
  8
1
  6
Continuous
 62
     7
100
AcDbLine
 10
1199.433609123766
 20
454.410477920596
 30
0.0
 11
1193.51601466678
 21
454.262538059172
 31
0.0
  0
LINE
  5
FF
330
1F
100
AcDbEntity
  8
1
  6
Continuous
 62
     7
100
AcDbLine
 10
1199.714979465502
 20
443.1556642512911
 30
0.0
 11
1193.797385008515
 21
443.007724389866
 31
0.0
  0
LINE
  5
100
330
1F
100
AcDbEntity
  8
1
  6
Continuous
 62
     7
100
AcDbLine
 10
1193.422224552869
 20
458.014142615608
 30
0.0
 11
1199.339819009856
 21
458.162082477032
 31
0.0
  0
LINE
  5
101
330
1F
100
AcDbEntity
  8
1
  6
Continuous
 62
     7
100
AcDbLine
 10
1199.314965612816
 20
459.156218358631
 30
0.0
 11
1200.91446584707
 21
459.1962058644871
 31
0.0
  0
LINE
  5
102
330
1F
100
AcDbEntity
  8
1
  6
Continuous
 62
     7
100
AcDbLine
 10
1201.339333096792
 20
442.2015158755481
 30
0.0
 11
1199.73983286254
 21
442.161528369693
 31
0.0
  0
LINE
  5
103
330
1F
100
AcDbEntity
  8
1
  6
Continuous
 62
     7
100
AcDbLine
 10
1200.91446584707
 20
459.1962058644871
 30
0.0
 11
1201.339333096792
 21
442.2015158755481
 31
0.0
  0
LINE
  5
104
330
1F
100
AcDbEntity
  8
1
  6
Continuous
 62
     7
100
AcDbLine
 10
1634.959516994544
 20
353.3194122860981
 30
0.0
 11
1611.359516994542
 21
353.3194122860981
 31
0.0
  0
LINE
  5
105
330
1F
100
AcDbEntity
  8
1
  6
Continuous
 62
     7
100
AcDbLine
 10
1611.359516994542
 20
473.319412286098
 30
0.0
 11
1634.959516994544
 21
473.319412286098
 31
0.0
  0
LINE
  5
106
330
1F
100
AcDbEntity
  8
1
  6
Continuous
 62
     7
100
AcDbLine
 10
1634.959516994544
 20
473.319412286098
 30
0.0
 11
1634.959516994544
 21
470.1194122860991
 31
0.0
  0
LINE
  5
107
330
1F
100
AcDbEntity
  8
1
  6
Continuous
 62
     7
100
AcDbLine
 10
1634.959516994544
 20
470.1194122860991
 30
0.0
 11
1611.359516994542
 21
470.1194122860991
 31
0.0
  0
LINE
  5
108
330
1F
100
AcDbEntity
  8
1
  6
Continuous
 62
     7
100
AcDbLine
 10
1608.159516994542
 20
466.9194122860992
 30
0.0
 11
1608.159516994542
 21
359.719412286098
 31
0.0
  0
LINE
  5
109
330
1F
100
AcDbEntity
  8
1
  6
Continuous
 62
     7
100
AcDbLine
 10
1611.359516994542
 20
356.5194122860982
 30
0.0
 11
1634.959516994544
 21
356.5194122860982
 31
0.0
  0
LINE
  5
10A
330
1F
100
AcDbEntity
  8
1
  6
Continuous
 62
     7
100
AcDbLine
 10
1634.959516994544
 20
356.5194122860982
 30
0.0
 11
1634.959516994544
 21
353.3194122860981
 31
0.0
  0
LINE
  5
10B
330
1F
100
AcDbEntity
  8
1
  6
Continuous
 62
     7
100
AcDbLine
 10
1174.959516994544
 20
470.1194122860991
 30
0.0
 11
1174.959516994544
 21
479.319412286098
 31
0.0
  0
LINE
  5
10C
330
1F
100
AcDbEntity
  8
1
  6
Continuous
 62
     7
100
AcDbLine
 10
1174.959516994544
 20
473.319412286098
 30
0.0
 11
1207.959516994544
 21
473.319412286098
 31
0.0
  0
LINE
  5
10D
330
1F
100
AcDbEntity
  8
1
  6
Continuous
 62
     7
100
AcDbLine
 10
1198.559516994543
 20
353.3194122860981
 30
0.0
 11
1174.959516994544
 21
353.3194122860981
 31
0.0
  0
LINE
  5
10E
330
1F
100
AcDbEntity
  8
1
  6
Continuous
 62
     7
100
AcDbLine
 10
1174.959516994544
 20
353.3194122860981
 30
0.0
 11
1174.959516994544
 21
356.5194122860982
 31
0.0
  0
LINE
  5
10F
330
1F
100
AcDbEntity
  8
1
  6
Continuous
 62
     7
100
AcDbLine
 10
1174.959516994544
 20
356.5194122860982
 30
0.0
 11
1198.559516994543
 21
356.5194122860982
 31
0.0
  0
LINE
  5
110
330
1F
100
AcDbEntity
  8
1
  6
Continuous
 62
     7
100
AcDbLine
 10
1201.759516994543
 20
359.719412286098
 30
0.0
 11
1201.759516994543
 21
466.9194122860992
 31
0.0
  0
LINE
  5
111
330
1F
100
AcDbEntity
  8
1
  6
Continuous
 62
     7
100
AcDbLine
 10
1198.559516994543
 20
470.1194122860991
 30
0.0
 11
1174.959516994544
 21
470.1194122860991
 31
0.0
  0
LINE
  5
112
330
1F
100
AcDbEntity
  8
1
  6
Continuous
 62
     7
100
AcDbLine
 10
1617.410331063348
 20
455.104071952681
 30
0.0
 11
1617.110424769425
 21
467.1003237095771
 31
0.0
  0
LINE
  5
113
330
1F
100
AcDbEntity
  8
1
  6
Continuous
 62
     7
100
AcDbLine
 10
1204.959516994544
 20
466.9194122860992
 30
0.0
 11
1204.959516994544
 21
359.719412286098
 31
0.0
  0
LINE
  5
114
330
1F
100
AcDbEntity
  8
1
  6
Continuous
 62
     7
100
AcDbLine
 10
1604.959516994544
 20
359.719412286098
 30
0.0
 11
1604.959516994544
 21
466.9194122860992
 31
0.0
  0
LINE
  5
115
330
1F
100
AcDbEntity
  8
1
  6
DASH_CENTER
 62
     3
100
AcDbLine
 10
1404.959516994541
 20
343.3194122860981
 30
0.0
 11
1404.959516994541
 21
493.319412286098
 31
0.0
  0
LINE
  5
116
330
1F
100
AcDbEntity
  8
1
  6
DASH_CENTER
 62
     3
100
AcDbLine
 10
1188.019475220849
 20
450.3711752637411
 30
0.0
 11
1621.883913761973
 21
461.217786227268
 31
0.0
  0
LINE
  5
117
330
1F
100
AcDbEntity
  8
1
  6
Continuous
 62
     7
100
AcDbLine
 10
1600.844257152808
 20
452.18913897695
 30
0.0
 11
1604.443132679877
 21
452.279110865126
 31
0.0
  0
LINE
  5
118
330
1F
100
AcDbEntity
  8
1
  6
Continuous
 62
     7
100
AcDbLine
 10
1604.959516994544
 20
363.419412286101
 30
0.0
 11
1204.959516994544
 21
363.419412286101
 31
0.0
  0
LINE
  5
119
330
1F
100
AcDbEntity
  8
1
  6
DASH_CENTER
 62
     3
100
AcDbLine
 10
1621.987429299203
 20
370.3194122860981
 30
0.0
 11
1191.102659158102
 21
370.3194122860981
 31
0.0
  0
LINE
  5
11A
330
1F
100
AcDbEntity
  8
1
  6
Continuous
 62
     7
100
AcDbLine
 10
1204.959516994544
 20
377.219412286098
 30
0.0
 11
1604.959516994544
 21
377.219412286098
 31
0.0
  0
LINE
  5
11B
330
1F
100
AcDbEntity
  8
1
  6
Continuous
 62
     3
100
AcDbLine
 10
1284.594666591699
 20
252.971954920759
 30
0.0
 11
1554.874666591697
 21
252.971954920759
 31
0.0
  0
LINE
  5
11C
330
1F
100
AcDbEntity
  8
1
  6
Continuous
 62
     4
100
AcDbLine
 10
2227.25590677321
 20
2381.315844591411
 30
0.0
 11
2075.474611007937
 21
2405.790625728893
 31
0.0
  0
LINE
  5
11D
330
1F
100
AcDbEntity
  8
1
  6
Continuous
 62
     4
100
AcDbLine
 10
2227.25590677321
 20
2381.315844591411
 30
0.0
 11
2109.605861814827
 21
2290.746904829588
 31
0.0
  0
LINE
  5
11E
330
1F
100
AcDbEntity
  8
1
  6
Continuous
 62
     3
100
AcDbLine
 10
2075.474611007937
 20
2405.790625728893
 30
0.0
 11
2084.007423709661
 21
2377.029695504067
 31
0.0
  0
LINE
  5
11F
330
1F
100
AcDbEntity
  8
1
  6
Continuous
 62
     4
100
AcDbLine
 10
2109.605861814827
 20
2290.746904829588
 30
0.0
 11
2101.073049113104
 21
2319.507835054414
 31
0.0
  0
LINE
  5
120
330
1F
100
AcDbEntity
  8
1
  6
Continuous
 62
     4
100
AcDbLine
 10
1900.776020193157
 20
2309.216833759712
 30
0.0
 11
1925.269945739162
 21
2254.444143380777
 31
0.0
  0
LINE
  5
121
330
1F
100
AcDbEntity
  8
1
  6
Continuous
 62
     4
100
AcDbLine
 10
1208.672511359823
 20
1537.846709001545
 30
0.0
 11
1153.899820980891
 21
1562.340634547559
 31
0.0
  0
LINE
  5
122
330
1F
100
AcDbEntity
  8
1
  6
Continuous
 62
     4
100
AcDbLine
 10
1143.60881968616
 20
1362.043605627612
 30
0.0
 11
1172.369749910984
 21
1353.510792925885
 31
0.0
  0
LINE
  5
123
330
1F
100
AcDbEntity
  8
1
  6
Continuous
 62
     4
100
AcDbLine
 10
1086.086959236509
 20
1379.109231031066
 30
0.0
 11
1057.326029011684
 21
1387.642043732792
 31
0.0
  0
LINE
  5
124
330
1F
100
AcDbEntity
  8
1
  6
Continuous
 62
     4
100
AcDbLine
 10
1172.369749910984
 20
1353.510792925885
 30
0.0
 11
1081.800810149142
 21
1235.860747967516
 31
0.0
  0
LINE
  5
125
330
1F
100
AcDbEntity
  8
1
  6
Continuous
 62
     4
100
AcDbLine
 10
1057.326029011684
 20
1387.642043732792
 30
0.0
 11
1081.800810149142
 21
1235.860747967516
 31
0.0
  0
LINE
  5
126
330
1F
100
AcDbEntity
  8
1
  6
DASH_CENTER
 62
     3
100
AcDbLine
 10
2560.263162262802
 20
958.1571377459691
 30
0.0
 11
2162.1207699691
 21
958.1571377459691
 31
0.0
  0
LINE
  5
127
330
1F
100
AcDbEntity
  8
1
  6
DASH_CENTER
 62
     3
100
AcDbLine
 10
1552.302996014539
 20
1910.813658726059
 30
0.0
 11
1964.132437092787
 21
1498.984217647816
 31
0.0
  0
LINE
  5
128
330
1F
100
AcDbEntity
  8
1
  6
Continuous
 62
     7
100
AcDbLine
 10
1604.959516994635
 20
958.1571377459686
 30
0.0
 11
1629.973802825541
 21
958.1571377459691
 31
0.0
  0
LINE
  5
129
330
1F
100
AcDbEntity
  8
1
  6
DASH_CENTER
 62
     3
100
AcDbLine
 10
2504.95951699463
 20
1262.529645551078
 30
0.0
 11
2504.95951699463
 21
906.3002895490447
 31
0.0
  0
LINE
  5
12A
330
1F
100
AcDbEntity
  8
1
  6
Continuous
 62
     7
100
AcDbLine
 10
1608.159516994542
 20
466.8765510152069
 30
0.0
 11
1617.110424769425
 21
467.1003237095771
 31
0.0
  0
LINE
  5
12B
330
1F
100
AcDbEntity
  8
1
  6
Continuous
 62
     7
100
AcDbLine
 10
1792.902988339758
 20
1458.081632044838
 30
0.0
 11
2005.035022695723
 21
1670.213666400802
 31
0.0
  0
LINE
  5
12C
330
1F
100
AcDbEntity
  8
1
  6
Continuous
 62
     7
100
AcDbLine
 10
1463.532649663056
 20
1787.45197072154
 30
0.0
 11
1464.441788918729
 21
1786.542831465868
 31
0.0
  0
LINE
  5
12D
330
1F
100
AcDbEntity
  8
1
  6
Continuous
 62
     7
100
AcDbLine
 10
1675.664684019031
 20
1999.584005077499
 30
0.0
 11
1658.90699829343
 21
1984.361374532872
 31
0.0
  0
LINE
  5
12E
330
1F
100
AcDbEntity
  8
1
  6
Continuous
 62
     7
100
AcDbLine
 10
1676.57382327469
 20
1998.674865821839
 30
0.0
 11
1675.66468401904
 21
1999.584005077489
 31
0.0
  0
LINE
  5
12F
330
1F
100
AcDbEntity
  8
1
  6
Continuous
 62
     7
100
AcDbLine
 10
1478.755280208046
 20
1804.209656447556
 30
0.0
 11
1463.532649663047
 21
1787.45197072155
 31
0.0
  0
LINE
  5
130
330
1F
100
AcDbEntity
  8
1
  6
DASHED
 62
     4
100
AcDbLine
 10
2495.3761114156
 20
2202.944304661959
 30
0.0
 11
2492.959516994636
 21
2202.865193551874
 31
0.0
  0
LINE
  5
131
330
1F
100
AcDbEntity
  8
1
  6
DASHED
 62
     4
100
AcDbLine
 10
2495.3761114156
 20
2202.944304661959
 30
0.0
 11
2497.652419227259
 21
1908.157137746063
 31
0.0
  0
LINE
  5
132
330
1F
100
AcDbEntity
  8
1
  6
DASHED
 62
     4
100
AcDbLine
 10
2480.285389832548
 20
2218.458856778144
 30
0.0
 11
2447.153138757706
 21
2217.3742191826
 31
0.0
  0
LINE
  5
133
330
1F
100
AcDbEntity
  8
1
  6
DASHED
 62
     4
100
AcDbLine
 10
2446.956824260774
 20
2223.371006707458
 30
0.0
 11
2480.089075335615
 21
2224.455644303001
 31
0.0
  0
LINE
  5
134
330
1F
100
AcDbEntity
  8
1
  6
DASHED
 62
     4
100
AcDbLine
 10
2446.400599852804
 20
2240.361904694557
 30
0.0
 11
2479.532850927644
 21
2241.446542290101
 31
0.0
  0
LINE
  5
135
330
1F
100
AcDbEntity
  8
1
  6
DASH_CENTER
 62
     3
100
AcDbLine
 10
2479.162781381919
 20
2221.42371348068
 30
0.0
 11
2489.157427256681
 21
2221.750904308899
 31
0.0
  0
LINE
  5
136
330
1F
100
AcDbEntity
  8
1
  6
DASH_CENTER
 62
     3
100
AcDbLine
 10
2488.40488835178
 20
2244.738589820855
 30
0.0
 11
2478.410242477015
 21
2244.411398992637
 31
0.0
  0
LINE
  5
137
330
1F
100
AcDbEntity
  8
1
  6
DASH_CENTER
 62
     3
100
AcDbLine
 10
2438.08478683664
 20
2220.078959176702
 30
0.0
 11
2448.079432711405
 21
2220.406150004921
 31
0.0
  0
LINE
  5
138
330
1F
100
AcDbEntity
  8
1
  6
DASH_CENTER
 62
     3
100
AcDbLine
 10
2447.326893806502
 20
2243.393835516877
 30
0.0
 11
2437.332247931738
 21
2243.066644688658
 31
0.0
  0
LINE
  5
139
330
1F
100
AcDbEntity
  8
1
  6
Continuous
 62
     7
100
AcDbLine
 10
2450.070724499338
 20
2206.951444450669
 30
0.0
 11
2450.15210814714
 21
2204.465431183672
 31
0.0
  0
LINE
  5
13A
330
1F
100
AcDbEntity
  8
1
  6
Continuous
 62
     7
100
AcDbLine
 10
2478.055732948677
 20
2207.867578769681
 30
0.0
 11
2478.13711659648
 21
2205.381565502686
 31
0.0
  0
LINE
  5
13B
330
1F
100
AcDbEntity
  8
1
  6
DOT_CENTER
 62
     3
100
AcDbLine
 10
2442.456288347337
 20
2239.359421572095
 30
0.0
 11
2442.209134162581
 21
2246.90920090593
 31
0.0
  0
LINE
  5
13C
330
1F
100
AcDbEntity
  8
1
  6
DASHED
 62
     4
100
AcDbLine
 10
2439.943048887164
 20
2241.25109563365
 30
0.0
 11
2439.818716372442
 21
2245.04906106606
 31
0.0
  0
LINE
  5
13D
330
1F
100
AcDbEntity
  8
1
  6
DASHED
 62
     4
100
AcDbLine
 10
2446.204285355871
 20
2246.358692219414
 30
0.0
 11
2479.336536430715
 21
2247.44332981496
 31
0.0
  0
LINE
  5
13E
330
1F
100
AcDbEntity
  8
1
  6
DOT_CENTER
 62
     3
100
AcDbLine
 10
2443.20882725224
 20
2216.371736060139
 30
0.0
 11
2442.961673067483
 21
2223.921515393974
 31
0.0
  0
LINE
  5
13F
330
1F
100
AcDbEntity
  8
1
  6
DASHED
 62
     4
100
AcDbLine
 10
2440.695587792066
 20
2218.263410121693
 30
0.0
 11
2440.571255277343
 21
2222.061375554104
 31
0.0
  0
LINE
  5
140
330
1F
100
AcDbEntity
  8
1
  6
DOT_CENTER
 62
     3
100
AcDbLine
 10
2483.287128707861
 20
2248.253955209908
 30
0.0
 11
2483.534282892615
 21
2240.704175876072
 31
0.0
  0
LINE
  5
141
330
1F
100
AcDbEntity
  8
1
  6
DASHED
 62
     4
100
AcDbLine
 10
2485.794087396354
 20
2246.554138875864
 30
0.0
 11
2485.918419911075
 21
2242.756173443454
 31
0.0
  0
LINE
  5
142
330
1F
100
AcDbEntity
  8
1
  6
DOT_CENTER
 62
     3
100
AcDbLine
 10
2484.039667612763
 20
2225.266269697952
 30
0.0
 11
2484.286821797518
 21
2217.716490364117
 31
0.0
  0
LINE
  5
143
330
1F
100
AcDbEntity
  8
1
  6
DASHED
 62
     4
100
AcDbLine
 10
2486.546626301255
 20
2223.566453363908
 30
0.0
 11
2486.670958815978
 21
2219.768487931498
 31
0.0
  0
LINE
  5
144
330
1F
100
AcDbEntity
  8
1
  6
Continuous
 62
     7
100
AcDbLine
 10
2452.73222619109
 20
1861.366150627983
 30
0.0
 11
2433.109427824953
 21
2200.90590449954
 31
0.0
  0
LINE
  5
145
330
1F
100
AcDbEntity
  8
1
  6
Continuous
 62
     7
100
AcDbLine
 10
2497.652419227259
 20
1908.157137746063
 30
0.0
 11
2498.002289368318
 21
1862.848139049589
 31
0.0
  0
LINE
  5
146
330
1F
100
AcDbEntity
  8
1
  6
DASH_CENTER
 62
     3
100
AcDbLine
 10
2461.862741998117
 20
2274.62742751921
 30
0.0
 11
2476.062823942797
 21
1840.859796554468
 31
0.0
  0
LINE
  5
147
330
1F
100
AcDbEntity
  8
1
  6
Continuous
 62
     7
100
AcDbLine
 10
2492.959516994636
 20
2202.865193551874
 30
0.0
 11
2433.109427824953
 21
2200.90590449954
 31
0.0
  0
LINE
  5
148
330
1F
100
AcDbEntity
  8
1
  6
Continuous
 62
     7
100
AcDbLine
 10
2498.002289368318
 20
1862.848139049589
 30
0.0
 11
2452.73222619109
 21
1861.366150627983
 31
0.0
  0
LINE
  5
149
330
1F
100
AcDbEntity
  8
1
  6
Continuous
 62
     7
100
AcDbLine
 10
2438.847562855109
 20
1860.456101713098
 30
0.0
 11
2393.771353038394
 21
1856.016482550215
 31
0.0
  0
LINE
  5
14A
330
1F
100
AcDbEntity
  8
1
  6
Continuous
 62
     7
100
AcDbLine
 10
2413.983654280685
 20
2199.652335072608
 30
0.0
 11
2351.983606188532
 21
2193.545863327783
 31
0.0
  0
LINE
  5
14B
330
1F
100
AcDbEntity
  8
1
  6
DASH_CENTER
 62
     3
100
AcDbLine
 10
2375.853739011791
 20
2268.990099630368
 30
0.0
 11
2418.393177914937
 21
1837.079928254645
 31
0.0
  0
LINE
  5
14C
330
1F
100
AcDbEntity
  8
1
  6
Continuous
 62
     7
100
AcDbLine
 10
2413.983654280685
 20
2199.652335072608
 30
0.0
 11
2438.847562855109
 21
1860.456101713098
 31
0.0
  0
LINE
  5
14D
330
1F
100
AcDbEntity
  8
1
  6
Continuous
 62
     7
100
AcDbLine
 10
2393.771353038394
 20
1856.016482550215
 30
0.0
 11
2351.983606188532
 21
2193.545863327783
 31
0.0
  0
LINE
  5
14E
330
1F
100
AcDbEntity
  8
1
  6
DASHED
 62
     4
100
AcDbLine
 10
2403.824320715175
 20
2219.65285421523
 30
0.0
 11
2404.196785848428
 21
2215.871152253875
 31
0.0
  0
LINE
  5
14F
330
1F
100
AcDbEntity
  8
1
  6
DOT_CENTER
 62
     3
100
AcDbLine
 10
2401.211556310308
 20
2221.185068168943
 30
0.0
 11
2401.951960512413
 21
2213.667618149279
 31
0.0
  0
LINE
  5
150
330
1F
100
AcDbEntity
  8
1
  6
DASHED
 62
     4
100
AcDbLine
 10
2401.569926487588
 20
2242.54210292869
 30
0.0
 11
2401.942391620842
 21
2238.760400967335
 31
0.0
  0
LINE
  5
151
330
1F
100
AcDbEntity
  8
1
  6
DOT_CENTER
 62
     3
100
AcDbLine
 10
2398.957162082721
 20
2244.074316882403
 30
0.0
 11
2399.697566284827
 21
2236.556866862738
 31
0.0
  0
LINE
  5
152
330
1F
100
AcDbEntity
  8
1
  6
DASHED
 62
     4
100
AcDbLine
 10
2358.418288421508
 20
2211.362363798704
 30
0.0
 11
2358.045823288254
 21
2215.144065760058
 31
0.0
  0
LINE
  5
153
330
1F
100
AcDbEntity
  8
1
  6
DOT_CENTER
 62
     3
100
AcDbLine
 10
2361.049868246187
 20
2209.639113681723
 30
0.0
 11
2360.309464044081
 21
2217.156563701387
 31
0.0
  0
LINE
  5
154
330
1F
100
AcDbEntity
  8
1
  6
DASHED
 62
     4
100
AcDbLine
 10
2362.077672075173
 20
2239.757777799476
 30
0.0
 11
2395.068045764358
 21
2243.007046001412
 31
0.0
  0
LINE
  5
155
330
1F
100
AcDbEntity
  8
1
  6
DASHED
 62
     4
100
AcDbLine
 10
2356.163894193923
 20
2234.251612512164
 30
0.0
 11
2355.79142906067
 21
2238.033314473519
 31
0.0
  0
LINE
  5
156
330
1F
100
AcDbEntity
  8
1
  6
DOT_CENTER
 62
     3
100
AcDbLine
 10
2358.795474018602
 20
2232.528362395183
 30
0.0
 11
2358.055069816494
 21
2240.045812414847
 31
0.0
  0
LINE
  5
157
330
1F
100
AcDbEntity
  8
1
  6
Continuous
 62
     7
100
AcDbLine
 10
2396.378362540893
 20
2203.432261121357
 30
0.0
 11
2396.62216498703
 21
2200.95689334483
 31
0.0
  0
LINE
  5
158
330
1F
100
AcDbEntity
  8
1
  6
Continuous
 62
     7
100
AcDbLine
 10
2368.513190194073
 20
2200.687781192121
 30
0.0
 11
2368.756992640208
 21
2198.212413415594
 31
0.0
  0
LINE
  5
159
330
1F
100
AcDbEntity
  8
1
  6
DASH_CENTER
 62
     3
100
AcDbLine
 10
2363.391787841003
 20
2236.872691188298
 30
0.0
 11
2353.439940574282
 21
2235.892519784998
 31
0.0
  0
LINE
  5
15A
330
1F
100
AcDbEntity
  8
1
  6
DASH_CENTER
 62
     3
100
AcDbLine
 10
2355.694334801868
 20
2213.003271071539
 30
0.0
 11
2365.64618206859
 21
2213.983442474838
 31
0.0
  0
LINE
  5
15B
330
1F
100
AcDbEntity
  8
1
  6
DASH_CENTER
 62
     3
100
AcDbLine
 10
2404.293880107231
 20
2240.901195655854
 30
0.0
 11
2394.342032840506
 21
2239.921024252556
 31
0.0
  0
LINE
  5
15C
330
1F
100
AcDbEntity
  8
1
  6
DASH_CENTER
 62
     3
100
AcDbLine
 10
2396.596427068093
 20
2217.031775539095
 30
0.0
 11
2406.548274334814
 21
2218.011946942394
 31
0.0
  0
LINE
  5
15D
330
1F
100
AcDbEntity
  8
1
  6
DASHED
 62
     4
100
AcDbLine
 10
2362.665774917155
 20
2233.786669439444
 30
0.0
 11
2395.656148606336
 21
2237.035937641378
 31
0.0
  0
LINE
  5
15E
330
1F
100
AcDbEntity
  8
1
  6
DASHED
 62
     4
100
AcDbLine
 10
2364.33206630276
 20
2216.868529086017
 30
0.0
 11
2397.322439991943
 21
2220.117797287949
 31
0.0
  0
LINE
  5
15F
330
1F
100
AcDbEntity
  8
1
  6
DASHED
 62
     4
100
AcDbLine
 10
2397.910542833923
 20
2214.146688927918
 30
0.0
 11
2364.920169144741
 21
2210.897420725984
 31
0.0
  0
LINE
  5
160
330
1F
100
AcDbEntity
  8
1
  6
Continuous
 62
     7
100
AcDbLine
 10
2379.975937879213
 20
1854.20028168926
 30
0.0
 11
2335.28660467367
 21
1846.822042915949
 31
0.0
  0
LINE
  5
161
330
1F
100
AcDbEntity
  8
1
  6
Continuous
 62
     7
100
AcDbLine
 10
2332.980769756847
 20
2191.044092450311
 30
0.0
 11
2271.512850887535
 21
2180.895697972586
 31
0.0
  0
LINE
  5
162
330
1F
100
AcDbEntity
  8
1
  6
DASH_CENTER
 62
     3
100
AcDbLine
 10
2290.397586787548
 20
2257.739583755823
 30
0.0
 11
2361.094222240915
 21
1829.536377631004
 31
0.0
  0
LINE
  5
163
330
1F
100
AcDbEntity
  8
1
  6
Continuous
 62
     7
100
AcDbLine
 10
2332.980769756847
 20
2191.044092450311
 30
0.0
 11
2379.975937879213
 21
1854.20028168926
 31
0.0
  0
LINE
  5
164
330
1F
100
AcDbEntity
  8
1
  6
Continuous
 62
     7
100
AcDbLine
 10
2335.28660467367
 20
1846.822042915949
 30
0.0
 11
2271.512850887535
 21
2180.895697972586
 31
0.0
  0
LINE
  5
165
330
1F
100
AcDbEntity
  8
1
  6
DASHED
 62
     4
100
AcDbLine
 10
2321.535091566188
 20
2210.337336740103
 30
0.0
 11
2322.154094365089
 21
2206.588092078181
 31
0.0
  0
LINE
  5
166
330
1F
100
AcDbEntity
  8
1
  6
DOT_CENTER
 62
     3
100
AcDbLine
 10
2318.827709703251
 20
2211.695387138108
 30
0.0
 11
2320.058193398241
 21
2204.242457307698
 31
0.0
  0
LINE
  5
167
330
1F
100
AcDbEntity
  8
1
  6
DASHED
 62
     4
100
AcDbLine
 10
2317.788495678107
 20
2233.030133378054
 30
0.0
 11
2318.407498477007
 21
2229.280888716132
 31
0.0
  0
LINE
  5
168
330
1F
100
AcDbEntity
  8
1
  6
DOT_CENTER
 62
     3
100
AcDbLine
 10
2315.081113815169
 20
2234.388183776059
 30
0.0
 11
2316.31159751016
 21
2226.935253945649
 31
0.0
  0
LINE
  5
169
330
1F
100
AcDbEntity
  8
1
  6
DASHED
 62
     4
100
AcDbLine
 10
2276.768501089187
 20
2199.094900302018
 30
0.0
 11
2276.149498290286
 21
2202.84414496394
 31
0.0
  0
LINE
  5
16A
330
1F
100
AcDbEntity
  8
1
  6
DOT_CENTER
 62
     3
100
AcDbLine
 10
2279.507152449554
 20
2197.54745335117
 30
0.0
 11
2278.276668754564
 21
2205.000383181579
 31
0.0
  0
LINE
  5
16B
330
1F
100
AcDbEntity
  8
1
  6
DASHED
 62
     4
100
AcDbLine
 10
2278.562900790115
 20
2227.668852683747
 30
0.0
 11
2311.270127248728
 21
2233.068837626788
 31
0.0
  0
LINE
  5
16C
330
1F
100
AcDbEntity
  8
1
  6
DASHED
 62
     4
100
AcDbLine
 10
2273.021905201106
 20
2221.787696939969
 30
0.0
 11
2272.402902402206
 21
2225.536941601892
 31
0.0
  0
LINE
  5
16D
330
1F
100
AcDbEntity
  8
1
  6
DOT_CENTER
 62
     3
100
AcDbLine
 10
2275.760556561473
 20
2220.240249989121
 30
0.0
 11
2274.530072866482
 21
2227.69317981953
 31
0.0
  0
LINE
  5
16E
330
1F
100
AcDbEntity
  8
1
  6
Continuous
 62
     7
100
AcDbLine
 10
2315.165953306229
 20
2193.664484216445
 30
0.0
 11
2315.571130551194
 21
2191.210361835232
 31
0.0
  0
LINE
  5
16F
330
1F
100
AcDbEntity
  8
1
  6
Continuous
 62
     7
100
AcDbLine
 10
2287.539940007854
 20
2189.103410961389
 30
0.0
 11
2287.945117252817
 21
2186.649288580175
 31
0.0
  0
LINE
  5
170
330
1F
100
AcDbEntity
  8
1
  6
DASH_CENTER
 62
     3
100
AcDbLine
 10
2280.062896625688
 20
2224.875890547722
 30
0.0
 11
2270.196463304839
 21
2223.246935813772
 31
0.0
  0
LINE
  5
171
330
1F
100
AcDbEntity
  8
1
  6
DASH_CENTER
 62
     3
100
AcDbLine
 10
2273.94305919292
 20
2200.554139175822
 30
0.0
 11
2283.80949251377
 21
2202.183093909771
 31
0.0
  0
LINE
  5
172
330
1F
100
AcDbEntity
  8
1
  6
DASH_CENTER
 62
     3
100
AcDbLine
 10
2320.613937574375
 20
2231.570894504251
 30
0.0
 11
2310.747504253525
 21
2229.941939770302
 31
0.0
  0
LINE
  5
173
330
1F
100
AcDbEntity
  8
1
  6
DASH_CENTER
 62
     3
100
AcDbLine
 10
2314.494100141607
 20
2207.249143132351
 30
0.0
 11
2324.360533462455
 21
2208.878097866299
 31
0.0
  0
LINE
  5
174
330
1F
100
AcDbEntity
  8
1
  6
DASHED
 62
     4
100
AcDbLine
 10
2279.540273630485
 20
2221.748992691239
 30
0.0
 11
2312.247500089096
 21
2227.148977634278
 31
0.0
  0
LINE
  5
175
330
1F
100
AcDbEntity
  8
1
  6
DASHED
 62
     4
100
AcDbLine
 10
2282.309496678197
 20
2204.976056045796
 30
0.0
 11
2315.01672313681
 21
2210.376040988834
 31
0.0
  0
LINE
  5
176
330
1F
100
AcDbEntity
  8
1
  6
DASHED
 62
     4
100
AcDbLine
 10
2315.994095977178
 20
2204.456180996326
 30
0.0
 11
2283.286869518567
 21
2199.056196053287
 31
0.0
  0
LINE
  5
177
330
1F
100
AcDbEntity
  8
1
  6
Continuous
 62
     7
100
AcDbLine
 10
2321.639511776889
 20
1844.107467360052
 30
0.0
 11
2277.528421768137
 21
1833.822203727468
 31
0.0
  0
LINE
  5
178
330
1F
100
AcDbEntity
  8
1
  6
Continuous
 62
     7
100
AcDbLine
 10
2252.714324631307
 20
2177.156438611763
 30
0.0
 11
2192.041750050164
 21
2163.009578384303
 31
0.0
  0
LINE
  5
179
330
1F
100
AcDbEntity
  8
1
  6
DASH_CENTER
 62
     3
100
AcDbLine
 10
2205.860221688569
 20
2240.92405633198
 30
0.0
 11
2304.411319845603
 21
1818.261447325642
 31
0.0
  0
LINE
  5
17A
330
1F
100
AcDbEntity
  8
1
  6
Continuous
 62
     7
100
AcDbLine
 10
2252.714324631307
 20
2177.156438611763
 30
0.0
 11
2321.639511776889
 21
1844.107467360052
 31
0.0
  0
LINE
  5
17B
330
1F
100
AcDbEntity
  8
1
  6
Continuous
 62
     7
100
AcDbLine
 10
2277.528421768137
 20
1833.822203727468
 30
0.0
 11
2192.041750050164
 21
2163.009578384303
 31
0.0
  0
LINE
  5
17C
330
1F
100
AcDbEntity
  8
1
  6
Continuous
 62
     7
100
AcDbLine
 10
2234.766269248888
 20
2178.606075175451
 30
0.0
 11
2235.331086261514
 21
2176.183707118351
 31
0.0
  0
LINE
  5
17D
330
1F
100
AcDbEntity
  8
1
  6
Continuous
 62
     7
100
AcDbLine
 10
2207.497713829124
 20
2172.24793981048
 30
0.0
 11
2208.062530841749
 21
2169.82557175338
 31
0.0
  0
LINE
  5
17E
330
1F
100
AcDbEntity
  8
1
  6
Continuous
 62
     7
100
AcDbLine
 10
2128.729264758751
 20
2150.193545454472
 30
0.0
 11
2129.451302905877
 21
2147.813304673395
 31
0.0
  0
LINE
  5
17F
330
1F
100
AcDbEntity
  8
1
  6
Continuous
 62
     7
100
AcDbLine
 10
2155.52359415925
 20
2158.321516417605
 30
0.0
 11
2156.245632306378
 21
2155.941275636528
 31
0.0
  0
LINE
  5
180
330
1F
100
AcDbEntity
  8
1
  6
Continuous
 62
     7
100
AcDbLine
 10
2220.744133728254
 20
1817.07263229186
 30
0.0
 11
2113.910611130894
 21
2139.964095672846
 31
0.0
  0
LINE
  5
181
330
1F
100
AcDbEntity
  8
1
  6
Continuous
 62
     7
100
AcDbLine
 10
2173.52803214489
 20
2158.048842622683
 30
0.0
 11
2264.088090080742
 21
1830.22087770582
 31
0.0
  0
LINE
  5
182
330
1F
100
AcDbEntity
  8
1
  6
DASH_CENTER
 62
     3
100
AcDbLine
 10
2122.603645690685
 20
2218.615524028743
 30
0.0
 11
2248.587195619234
 21
1803.303418320996
 31
0.0
  0
LINE
  5
183
330
1F
100
AcDbEntity
  8
1
  6
Continuous
 62
     7
100
AcDbLine
 10
2173.52803214489
 20
2158.048842622683
 30
0.0
 11
2113.910611130894
 21
2139.964095672846
 31
0.0
  0
LINE
  5
184
330
1F
100
AcDbEntity
  8
1
  6
Continuous
 62
     7
100
AcDbLine
 10
2264.088090080742
 20
1830.22087770582
 30
0.0
 11
2220.744133728254
 21
1817.07263229186
 31
0.0
  0
LINE
  5
185
330
1F
100
AcDbEntity
  8
1
  6
Continuous
 62
     7
100
AcDbLine
 10
2207.568116813894
 20
1812.599977235421
 30
0.0
 11
2165.176899593059
 21
1796.645052845501
 31
0.0
  0
LINE
  5
186
330
1F
100
AcDbEntity
  8
1
  6
Continuous
 62
     7
100
AcDbLine
 10
2095.760980158887
 20
2133.803126142596
 30
0.0
 11
2037.454003661454
 21
2111.857934133243
 31
0.0
  0
LINE
  5
187
330
1F
100
AcDbEntity
  8
1
  6
DASH_CENTER
 62
     3
100
AcDbLine
 10
2040.984376234066
 20
2190.909515406352
 30
0.0
 11
2193.860897031992
 21
1784.726343193712
 31
0.0
  0
LINE
  5
188
330
1F
100
AcDbEntity
  8
1
  6
Continuous
 62
     7
100
AcDbLine
 10
2095.760980158887
 20
2133.803126142596
 30
0.0
 11
2207.568116813894
 21
1812.599977235421
 31
0.0
  0
LINE
  5
189
330
1F
100
AcDbEntity
  8
1
  6
Continuous
 62
     7
100
AcDbLine
 10
2165.176899593059
 20
1796.645052845501
 30
0.0
 11
2037.454003661454
 21
2111.857934133243
 31
0.0
  0
LINE
  5
18A
330
1F
100
AcDbEntity
  8
1
  6
Continuous
 62
     7
100
AcDbLine
 10
2077.777257337574
 20
2132.897669537701
 30
0.0
 11
2078.653424741007
 21
2130.569748589093
 31
0.0
  0
LINE
  5
18B
330
1F
100
AcDbEntity
  8
1
  6
Continuous
 62
     7
100
AcDbLine
 10
2051.571891388372
 20
2123.034668195899
 30
0.0
 11
2052.448058791803
 21
2120.70674724729
 31
0.0
  0
LINE
  5
18C
330
1F
100
AcDbEntity
  8
1
  6
Continuous
 62
     7
100
AcDbLine
 10
1976.355993436174
 20
2090.887606516689
 30
0.0
 11
1977.382538212579
 21
2088.621973915439
 31
0.0
  0
LINE
  5
18D
330
1F
100
AcDbEntity
  8
1
  6
Continuous
 62
     7
100
AcDbLine
 10
2001.860180533963
 20
2102.443403351218
 30
0.0
 11
2002.886725310369
 21
2100.17777074997
 31
0.0
  0
LINE
  5
18E
330
1F
100
AcDbEntity
  8
1
  6
Continuous
 62
     7
100
AcDbLine
 10
2111.064666789956
 20
1772.62693941968
 30
0.0
 11
1962.999326572859
 21
2078.811448664142
 31
0.0
  0
LINE
  5
18F
330
1F
100
AcDbEntity
  8
1
  6
Continuous
 62
     7
100
AcDbLine
 10
2019.746179128919
 20
2104.52311305174
 30
0.0
 11
2152.32161917898
 21
1791.320221349876
 31
0.0
  0
LINE
  5
190
330
1F
100
AcDbEntity
  8
1
  6
DASH_CENTER
 62
     3
100
AcDbLine
 10
1961.351919560945
 20
2157.924671847233
 30
0.0
 11
2140.46677049616
 21
1762.60977183149
 31
0.0
  0
LINE
  5
191
330
1F
100
AcDbEntity
  8
1
  6
Continuous
 62
     7
100
AcDbLine
 10
2019.746179128919
 20
2104.52311305174
 30
0.0
 11
1962.999326572859
 21
2078.811448664142
 31
0.0
  0
LINE
  5
192
330
1F
100
AcDbEntity
  8
1
  6
Continuous
 62
     7
100
AcDbLine
 10
2152.32161917898
 20
1791.320221349876
 30
0.0
 11
2111.064666789956
 21
1772.62693941968
 31
0.0
  0
LINE
  5
193
330
1F
100
AcDbEntity
  8
1
  6
Continuous
 62
     7
100
AcDbLine
 10
2098.585171160468
 20
1766.472733230818
 30
0.0
 11
2058.639152207266
 21
1745.121141263416
 31
0.0
  0
LINE
  5
194
330
1F
100
AcDbEntity
  8
1
  6
Continuous
 62
     7
100
AcDbLine
 10
1945.809136103
 20
2070.33418486132
 30
0.0
 11
1890.865406222894
 21
2040.96614938971
 31
0.0
  0
LINE
  5
195
330
1F
100
AcDbEntity
  8
1
  6
DASH_CENTER
 62
     3
100
AcDbLine
 10
1884.047274076193
 20
2119.802239515429
 30
0.0
 11
2088.63345785878
 21
1737.048410788299
 31
0.0
  0
LINE
  5
196
330
1F
100
AcDbEntity
  8
1
  6
Continuous
 62
     7
100
AcDbLine
 10
1945.809136103
 20
2070.33418486132
 30
0.0
 11
2098.585171160468
 21
1766.472733230818
 31
0.0
  0
LINE
  5
197
330
1F
100
AcDbEntity
  8
1
  6
Continuous
 62
     7
100
AcDbLine
 10
2058.639152207266
 20
1745.121141263416
 30
0.0
 11
1890.865406222894
 21
2040.96614938971
 31
0.0
  0
LINE
  5
198
330
1F
100
AcDbEntity
  8
1
  6
Continuous
 62
     7
100
AcDbLine
 10
1928.097452326294
 20
2067.089127701393
 30
0.0
 11
1929.269978653343
 21
2064.895485234128
 31
0.0
  0
LINE
  5
199
330
1F
100
AcDbEntity
  8
1
  6
Continuous
 62
     7
100
AcDbLine
 10
1903.403656924545
 20
2053.890019070258
 30
0.0
 11
1904.576183251592
 21
2051.696376602992
 31
0.0
  0
LINE
  5
19A
330
1F
100
AcDbEntity
  8
1
  6
Continuous
 62
     7
100
AcDbLine
 10
1833.027274958272
 20
2012.200335206024
 30
0.0
 11
1834.34076189822
 21
2010.088076386563
 31
0.0
  0
LINE
  5
19B
330
1F
100
AcDbEntity
  8
1
  6
Continuous
 62
     7
100
AcDbLine
 10
1856.804936041011
 20
2026.986235024242
 30
0.0
 11
1858.118422980961
 21
2024.873976204781
 31
0.0
  0
LINE
  5
19C
330
1F
100
AcDbEntity
  8
1
  6
Continuous
 62
     7
100
AcDbLine
 10
2008.124849946947
 20
1714.245442427181
 30
0.0
 11
1821.361131132697
 21
1998.484095691558
 31
0.0
  0
LINE
  5
19D
330
1F
100
AcDbEntity
  8
1
  6
Continuous
 62
     7
100
AcDbLine
 10
1874.266460850387
 20
2031.382743810626
 30
0.0
 11
2046.588880478545
 21
1738.163913637028
 31
0.0
  0
LINE
  5
19E
330
1F
100
AcDbEntity
  8
1
  6
DASH_CENTER
 62
     3
100
AcDbLine
 10
1809.4014701398
 20
2076.705464518851
 30
0.0
 11
2038.58291732216
 21
1708.151717736377
 31
0.0
  0
LINE
  5
19F
330
1F
100
AcDbEntity
  8
1
  6
Continuous
 62
     7
100
AcDbLine
 10
1874.266460850387
 20
2031.382743810626
 30
0.0
 11
1821.361131132697
 21
1998.484095691558
 31
0.0
  0
LINE
  5
1A0
330
1F
100
AcDbEntity
  8
1
  6
Continuous
 62
     7
100
AcDbLine
 10
2046.588880478545
 20
1738.163913637028
 30
0.0
 11
2008.124849946947
 21
1714.245442427181
 31
0.0
  0
LINE
  5
1A1
330
1F
100
AcDbEntity
  8
1
  6
Continuous
 62
     7
100
AcDbLine
 10
1996.555403232372
 20
1706.514985279885
 30
0.0
 11
1959.738070006211
 21
1680.132057393354
 31
0.0
  0
LINE
  5
1A2
330
1F
100
AcDbEntity
  8
1
  6
Continuous
 62
     7
100
AcDbLine
 10
1805.424510089889
 20
1987.835585950066
 30
0.0
 11
1754.784129278627
 21
1951.547202245497
 31
0.0
  0
LINE
  5
1A3
330
1F
100
AcDbEntity
  8
1
  6
DASH_CENTER
 62
     3
100
AcDbLine
 10
1990.529472984616
 20
1676.04343275151
 30
0.0
 11
1737.734152544014
 21
2028.818893864288
 31
0.0
  0
LINE
  5
1A4
330
1F
100
AcDbEntity
  8
1
  6
Continuous
 62
     7
100
AcDbLine
 10
1959.738070006211
 20
1680.132057393354
 30
0.0
 11
1754.784129278627
 21
1951.547202245497
 31
0.0
  0
LINE
  5
1A5
330
1F
100
AcDbEntity
  8
1
  6
Continuous
 62
     7
100
AcDbLine
 10
1805.424510089889
 20
1987.835585950066
 30
0.0
 11
1996.555403232372
 21
1706.514985279885
 31
0.0
  0
LINE
  5
1A6
330
1F
100
AcDbEntity
  8
1
  6
Continuous
 62
     7
100
AcDbLine
 10
1766.977033009371
 20
1963.975246395409
 30
0.0
 11
1765.52821000925
 21
1965.997076550523
 31
0.0
  0
LINE
  5
1A7
330
1F
100
AcDbEntity
  8
1
  6
Continuous
 62
     7
100
AcDbLine
 10
1789.736740177939
 20
1980.284621907706
 30
0.0
 11
1788.287917177817
 21
1982.30645206282
 31
0.0
  0
LINE
  5
1A8
330
1F
100
AcDbEntity
  8
1
  6
Continuous
 62
     7
100
AcDbLine
 10
1948.698990453096
 20
1671.661473729793
 30
0.0
 11
1913.686012005554
 21
1642.927064914157
 31
0.0
  0
LINE
  5
1A9
330
1F
100
AcDbEntity
  8
1
  6
Continuous
 62
     7
100
AcDbLine
 10
1739.578075623572
 20
1939.879186895307
 30
0.0
 11
1691.419493603836
 21
1900.356460035333
 31
0.0
  0
LINE
  5
1AA
330
1F
100
AcDbEntity
  8
1
  6
DASH_CENTER
 62
     3
100
AcDbLine
 10
1944.678897072415
 20
1640.861048439693
 30
0.0
 11
1669.352211745416
 21
1976.34758519914
 31
0.0
  0
LINE
  5
1AB
330
1F
100
AcDbEntity
  8
1
  6
Continuous
 62
     7
100
AcDbLine
 10
1913.686012005554
 20
1642.927064914157
 30
0.0
 11
1691.419493603836
 21
1900.356460035333
 31
0.0
  0
LINE
  5
1AC
330
1F
100
AcDbEntity
  8
1
  6
Continuous
 62
     7
100
AcDbLine
 10
1739.578075623572
 20
1939.879186895307
 30
0.0
 11
1948.698990453096
 21
1671.661473729793
 31
0.0
  0
LINE
  5
1AD
330
1F
100
AcDbEntity
  8
1
  6
Continuous
 62
     7
100
AcDbLine
 10
1702.773458414134
 20
1913.555348847119
 30
0.0
 11
1701.195503436353
 21
1915.478092550764
 31
0.0
  0
LINE
  5
1AE
330
1F
100
AcDbEntity
  8
1
  6
Continuous
 62
     7
100
AcDbLine
 10
1724.417751108293
 20
1931.3183608037
 30
0.0
 11
1722.839796130511
 21
1933.241104507343
 31
0.0
  0
LINE
  5
1AF
330
1F
100
AcDbEntity
  8
1
  6
Continuous
 62
     7
100
AcDbLine
 10
1903.224570647139
 20
1633.752627073837
 30
0.0
 11
1870.16587792722
 21
1602.789782479035
 31
0.0
  0
LINE
  5
1B0
330
1F
100
AcDbEntity
  8
1
  6
Continuous
 62
     7
100
AcDbLine
 10
1677.009121992701
 20
1887.718903309378
 30
0.0
 11
1631.53856120614
 21
1845.131075678055
 31
0.0
  0
LINE
  5
1B1
330
1F
100
AcDbEntity
  8
1
  6
DASH_CENTER
 62
     3
100
AcDbLine
 10
1901.227528790566
 20
1602.755221171675
 30
0.0
 11
1604.548469712662
 21
1919.516228722556
 31
0.0
  0
LINE
  5
1B2
330
1F
100
AcDbEntity
  8
1
  6
Continuous
 62
     7
100
AcDbLine
 10
1870.16587792722
 20
1602.789782479035
 30
0.0
 11
1631.53856120614
 21
1845.131075678055
 31
0.0
  0
LINE
  5
1B3
330
1F
100
AcDbEntity
  8
1
  6
Continuous
 62
     7
100
AcDbLine
 10
1677.009121992701
 20
1887.718903309378
 30
0.0
 11
1903.224570647139
 21
1633.752627073837
 31
0.0
  0
LINE
  5
1B4
330
1F
100
AcDbEntity
  8
1
  6
Continuous
 62
     7
100
AcDbLine
 10
1642.004967675581
 20
1859.044289483491
 30
0.0
 11
1640.304637765608
 21
1860.859713251942
 31
0.0
  0
LINE
  5
1B5
330
1F
100
AcDbEntity
  8
1
  6
Continuous
 62
     7
100
AcDbLine
 10
1662.441161711123
 20
1878.184873940131
 30
0.0
 11
1660.740831801149
 21
1880.000297708582
 31
0.0
  0
LINE
  5
1B6
330
1F
100
AcDbEntity
  8
1
  6
DASH_CENTER
 62
     3
100
AcDbLine
 10
1598.766821565009
 20
1765.354883809473
 30
0.0
 11
1587.099559675431
 21
1777.022145699051
 31
0.0
  0
LINE
  5
1B7
330
1F
100
AcDbEntity
  8
1
  6
DASH_CENTER
 62
     3
100
AcDbLine
 10
1587.099559675432
 20
1765.354883809473
 30
0.0
 11
1598.76682156501
 21
1777.022145699051
 31
0.0
  0
LINE
  5
1B8
330
1F
100
AcDbEntity
  8
1
  6
DASH_CENTER
 62
     3
100
AcDbLine
 10
1686.094509041549
 20
1876.01709506517
 30
0.0
 11
1697.761770931127
 21
1864.34983317559
 31
0.0
  0
LINE
  5
1B9
330
1F
100
AcDbEntity
  8
1
  6
DASH_CENTER
 62
     3
100
AcDbLine
 10
1686.094509041549
 20
1864.34983317559
 30
0.0
 11
1697.761770931127
 21
1876.017095065168
 31
0.0
  0
LINE
  5
1BA
330
1F
100
AcDbEntity
  8
1
  6
DASHED
 62
     4
100
AcDbLine
 10
1639.602238178533
 20
1718.862612946457
 30
0.0
 11
1744.254041794143
 21
1823.514416562068
 31
0.0
  0
LINE
  5
1BB
330
1F
100
AcDbEntity
  8
1
  6
DASH_CENTER
 62
     3
100
AcDbLine
 10
1749.734119348339
 20
1800.710222868801
 30
0.0
 11
1761.401381237916
 21
1812.37748475838
 31
0.0
  0
LINE
  5
1BC
330
1F
100
AcDbEntity
  8
1
  6
DASH_CENTER
 62
     3
100
AcDbLine
 10
1749.734119348339
 20
1812.37748475838
 30
0.0
 11
1761.401381237916
 21
1800.710222868801
 31
0.0
  0
LINE
  5
1BD
330
1F
100
AcDbEntity
  8
1
  6
DASHED
 62
     4
100
AcDbLine
 10
1651.6018976592
 20
1854.605959134769
 30
0.0
 11
1688.392606080405
 21
1891.396667555976
 31
0.0
  0
LINE
  5
1BE
330
1F
100
AcDbEntity
  8
1
  6
DASHED
 62
     4
100
AcDbLine
 10
1695.46367389227
 20
1891.396667555976
 30
0.0
 11
1776.780953728723
 21
1810.079387719522
 31
0.0
  0
LINE
  5
1BF
330
1F
100
AcDbEntity
  8
1
  6
DASHED
 62
     4
100
AcDbLine
 10
1776.780953728723
 20
1803.008319907658
 30
0.0
 11
1763.345924886178
 21
1789.573291065113
 31
0.0
  0
LINE
  5
1C0
330
1F
100
AcDbEntity
  8
0
  6
DASHED
 62
     4
100
AcDbLine
 10
1654.936847870446
 20
1855.333928266148
 30
0.0
 11
1656.62301540797
 21
1855.334070394611
 31
0.0
  0
LINE
  5
1C1
330
1F
100
AcDbEntity
  8
0
  6
DASHED
 62
     4
100
AcDbLine
 10
1692.228090440277
 20
1875.893921306526
 30
0.0
 11
1740.71850788821
 21
1829.878377592746
 31
0.0
  0
LINE
  5
1C2
330
1F
100
AcDbEntity
  8
0
  6
DASHED
 62
     4
100
AcDbLine
 10
1684.650877715759
 20
1877.818239579526
 30
0.0
 11
1679.907324706167
 21
1876.547425151058
 31
0.0
  0
LINE
  5
1C3
330
1F
100
AcDbEntity
  8
0
  6
DASHED
 62
     4
100
AcDbLine
 10
1740.011541114166
 20
1816.443208743059
 30
0.0
 11
1742.486274841177
 21
1813.96847501605
 31
0.0
  0
LINE
  5
1C4
330
1F
100
AcDbEntity
  8
0
  6
DASHED
 62
     4
100
AcDbLine
 10
1740.71850788821
 20
1829.878377592746
 30
0.0
 11
1744.254041794143
 21
1826.342843686814
 31
0.0
  0
LINE
  5
1C5
330
1F
100
AcDbEntity
  8
0
  6
DASHED
 62
     4
100
AcDbLine
 10
1740.718507888209
 20
1812.200708063082
 30
0.0
 11
1845.016758113224
 21
1707.902457838067
 31
0.0
  0
LINE
  5
1C6
330
1F
100
AcDbEntity
  8
0
  6
DASHED
 62
     4
100
AcDbLine
 10
1849.966505581531
 20
1712.852205306373
 30
0.0
 11
1862.694427642889
 21
1700.124283245014
 31
0.0
  0
LINE
  5
1C7
330
1F
100
AcDbEntity
  8
0
  6
DASHED
 62
     4
100
AcDbLine
 10
1868.351281892383
 20
1676.082652684672
 30
0.0
 11
1869.765495454756
 21
1674.668439122299
 31
0.0
  0
LINE
  5
1C8
330
1F
100
AcDbEntity
  8
0
  6
DASHED
 62
     4
100
AcDbLine
 10
1861.987320861704
 20
1696.588749339082
 30
0.0
 11
1871.949465459127
 21
1686.626604741658
 31
0.0
  0
LINE
  5
1C9
330
1F
100
AcDbEntity
  8
0
  6
DASHED
 62
     4
100
AcDbLine
 10
1872.413328214692
 20
1682.983308469379
 30
0.0
 11
1868.351281892383
 21
1676.082652684672
 31
0.0
  0
LINE
  5
1CA
330
1F
100
AcDbEntity
  8
0
  6
DASHED
 62
     4
100
AcDbLine
 10
1861.987320861704
 20
1698.002962901456
 30
0.0
 11
1862.694427642889
 21
1698.710069682642
 31
0.0
  0
LINE
  5
1CB
330
1F
100
AcDbEntity
  8
1
  6
DASH_CENTER
 62
     3
100
AcDbLine
 10
1650.739169982221
 20
1701.715273502683
 30
0.0
 11
1662.406431871799
 21
1713.382535392263
 31
0.0
  0
LINE
  5
1CC
330
1F
100
AcDbEntity
  8
1
  6
DASH_CENTER
 62
     3
100
AcDbLine
 10
1662.406431871799
 20
1701.715273502683
 30
0.0
 11
1650.73916998222
 21
1713.382535392263
 31
0.0
  0
LINE
  5
1CD
330
1F
100
AcDbEntity
  8
1
  6
DASHED
 62
     4
100
AcDbLine
 10
1571.719987184624
 20
1774.724048660195
 30
0.0
 11
1608.510695605832
 21
1811.514757081402
 31
0.0
  0
LINE
  5
1CE
330
1F
100
AcDbEntity
  8
1
  6
DASHED
 62
     4
100
AcDbLine
 10
1653.037267021077
 20
1686.335701011876
 30
0.0
 11
1571.719987184624
 21
1767.652980848329
 31
0.0
  0
LINE
  5
1CF
330
1F
100
AcDbEntity
  8
1
  6
DASHED
 62
     4
100
AcDbLine
 10
1673.543363675487
 20
1699.770729854421
 30
0.0
 11
1660.108334832944
 21
1686.335701011876
 31
0.0
  0
LINE
  5
1D0
330
1F
100
AcDbEntity
  8
0
  6
DASHED
 62
     4
100
AcDbLine
 10
1742.486274841177
 20
1813.96847501605
 30
0.0
 11
1649.148179724551
 21
1720.630379899425
 31
0.0
  0
LINE
  5
1D1
330
1F
100
AcDbEntity
  8
0
  6
DASHED
 62
     4
100
AcDbLine
 10
1860.639290372728
 20
1696.654932412481
 30
0.0
 11
1766.46172232812
 21
1602.477364367873
 31
0.0
  0
LINE
  5
1D2
330
1F
100
AcDbEntity
  8
0
  6
DASHED
 62
     4
100
AcDbLine
 10
1610.125644183741
 20
1813.836812440499
 30
0.0
 11
1649.279842300102
 21
1852.99101055686
 31
0.0
  0
LINE
  5
1D3
330
1F
100
AcDbEntity
  8
0
  6
DASHED
 62
     4
100
AcDbLine
 10
1586.569229589542
 20
1783.209330034433
 30
0.0
 11
1679.907324706167
 21
1876.547425151058
 31
0.0
  0
LINE
  5
1D4
330
1F
100
AcDbEntity
  8
0
  6
DASHED
 62
     4
100
AcDbLine
 10
1607.78258434599
 20
1806.49363933263
 30
0.0
 11
1607.782726474452
 21
1808.179806870154
 31
0.0
  0
LINE
  5
1D5
330
1F
100
AcDbEntity
  8
0
  6
DASHED
 62
     4
100
AcDbLine
 10
1633.238277147854
 20
1722.398146852391
 30
0.0
 11
1587.222733434073
 21
1770.888564300323
 31
0.0
  0
LINE
  5
1D6
330
1F
100
AcDbEntity
  8
0
  6
DASHED
 62
     4
100
AcDbLine
 10
1586.569229589542
 20
1783.209330034433
 30
0.0
 11
1585.298415161074
 21
1778.465777024843
 31
0.0
  0
LINE
  5
1D7
330
1F
100
AcDbEntity
  8
0
  6
DASHED
 62
     4
100
AcDbLine
 10
1649.148179724551
 20
1720.630379899425
 30
0.0
 11
1646.673445997541
 21
1723.105113626435
 31
0.0
  0
LINE
  5
1D8
330
1F
100
AcDbEntity
  8
0
  6
DASHED
 62
     4
100
AcDbLine
 10
1636.773811053787
 20
1718.862612946457
 30
0.0
 11
1633.238277147854
 21
1722.398146852391
 31
0.0
  0
LINE
  5
1D9
330
1F
100
AcDbEntity
  8
0
  6
DASHED
 62
     4
100
AcDbLine
 10
1789.862429180675
 20
1593.351159285845
 30
0.0
 11
1869.765495454756
 21
1673.254225559926
 31
0.0
  0
LINE
  5
1DA
330
1F
100
AcDbEntity
  8
0
  6
DASHED
 62
     4
100
AcDbLine
 10
1755.214196902534
 20
1618.099896627374
 30
0.0
 11
1650.915946677517
 21
1722.398146852391
 31
0.0
  0
LINE
  5
1DB
330
1F
100
AcDbEntity
  8
0
  6
DASHED
 62
     4
100
AcDbLine
 10
1762.992371495586
 20
1600.422227097711
 30
0.0
 11
1750.264449434229
 21
1613.150149159068
 31
0.0
  0
LINE
  5
1DC
330
1F
100
AcDbEntity
  8
0
  6
DASHED
 62
     4
100
AcDbLine
 10
1788.448215618302
 20
1593.351159285845
 30
0.0
 11
1787.034002055929
 21
1594.765372848219
 31
0.0
  0
LINE
  5
1DD
330
1F
100
AcDbEntity
  8
0
  6
DASHED
 62
     4
100
AcDbLine
 10
1750.264449434229
 20
1613.150149159068
 30
0.0
 11
1849.966505581531
 21
1712.852205306373
 31
0.0
  0
LINE
  5
1DE
330
1F
100
AcDbEntity
  8
0
  6
DASHED
 62
     4
100
AcDbLine
 10
1776.490049998943
 20
1591.167189281473
 30
0.0
 11
1766.527905401517
 21
1601.129333878897
 31
0.0
  0
LINE
  5
1DF
330
1F
100
AcDbEntity
  8
0
  6
DASHED
 62
     4
100
AcDbLine
 10
1787.034002055929
 20
1594.765372848219
 30
0.0
 11
1780.133346271223
 21
1590.703326525907
 31
0.0
  0
LINE
  5
1E0
330
1F
100
AcDbEntity
  8
0
  6
DASHED
 62
     4
100
AcDbLine
 10
1764.406585057959
 20
1600.422227097711
 30
0.0
 11
1765.113691839146
 21
1601.129333878897
 31
0.0
  0
LINE
  5
1E1
330
1F
100
AcDbEntity
  8
1
  6
Continuous
 62
     7
100
AcDbLine
 10
1860.326872261473
 20
1592.950776813276
 30
0.0
 11
1829.364027666665
 21
1559.89208409336
 31
0.0
  0
LINE
  5
1E2
330
1F
100
AcDbEntity
  8
1
  6
Continuous
 62
     7
100
AcDbLine
 10
1617.985579062486
 20
1831.578093534389
 30
0.0
 11
1575.397751431155
 21
1786.107532747835
 31
0.0
  0
LINE
  5
1E3
330
1F
100
AcDbEntity
  8
1
  6
DASH_CENTER
 62
     3
100
AcDbLine
 10
1860.361433568829
 20
1561.889125949931
 30
0.0
 11
1543.600426017988
 21
1858.568185027878
 31
0.0
  0
LINE
  5
1E4
330
1F
100
AcDbEntity
  8
1
  6
Continuous
 62
     7
100
AcDbLine
 10
1829.364027666665
 20
1559.89208409336
 30
0.0
 11
1575.397751431155
 21
1786.107532747835
 31
0.0
  0
LINE
  5
1E5
330
1F
100
AcDbEntity
  8
1
  6
Continuous
 62
     7
100
AcDbLine
 10
1617.985579062486
 20
1831.578093534389
 30
0.0
 11
1860.326872261473
 21
1592.950776813276
 31
0.0
  0
LINE
  5
1E6
330
1F
100
AcDbEntity
  8
1
  6
Continuous
 62
     7
100
AcDbLine
 10
1584.931780800406
 20
1800.675493029412
 30
0.0
 11
1583.116357031954
 21
1802.375822939385
 31
0.0
  0
LINE
  5
1E7
330
1F
100
AcDbEntity
  8
1
  6
Continuous
 62
     7
100
AcDbLine
 10
1604.072365257049
 20
1821.111687064951
 30
0.0
 11
1602.256941488597
 21
1822.812016974923
 31
0.0
  0
LINE
  5
1E8
330
1F
100
AcDbEntity
  8
1
  6
Continuous
 62
     7
100
AcDbLine
 10
1820.189589826357
 20
1549.430642734935
 30
0.0
 11
1791.455181010718
 21
1514.417664287397
 31
0.0
  0
LINE
  5
1E9
330
1F
100
AcDbEntity
  8
1
  6
Continuous
 62
     7
100
AcDbLine
 10
1562.760194705213
 20
1771.697161136689
 30
0.0
 11
1523.237467845232
 21
1723.53857911696
 31
0.0
  0
LINE
  5
1EA
330
1F
100
AcDbEntity
  8
1
  6
DASH_CENTER
 62
     3
100
AcDbLine
 10
1822.255606300818
 20
1518.437757668075
 30
0.0
 11
1486.769069541409
 21
1793.764442995122
 31
0.0
  0
LINE
  5
1EB
330
1F
100
AcDbEntity
  8
1
  6
Continuous
 62
     7
100
AcDbLine
 10
1791.455181010718
 20
1514.417664287397
 30
0.0
 11
1523.237467845232
 21
1723.53857911696
 31
0.0
  0
LINE
  5
1EC
330
1F
100
AcDbEntity
  8
1
  6
Continuous
 62
     7
100
AcDbLine
 10
1562.760194705213
 20
1771.697161136689
 30
0.0
 11
1820.189589826357
 21
1549.430642734935
 31
0.0
  0
LINE
  5
1ED
330
1F
100
AcDbEntity
  8
1
  6
Continuous
 62
     7
100
AcDbLine
 10
1531.798293936842
 20
1738.698903632238
 30
0.0
 11
1529.875550233197
 21
1740.276858610019
 31
0.0
  0
LINE
  5
1EE
330
1F
100
AcDbEntity
  8
1
  6
Continuous
 62
     7
100
AcDbLine
 10
1549.561305893427
 20
1760.343196326393
 30
0.0
 11
1547.638562189781
 21
1761.921151304174
 31
0.0
  0
LINE
  5
1EF
330
1F
100
AcDbEntity
  8
1
  6
Continuous
 62
     7
100
AcDbLine
 10
1499.141408345142
 20
1696.139621731152
 30
0.0
 11
1497.119578190027
 21
1697.588444731272
 31
0.0
  0
LINE
  5
1F0
330
1F
100
AcDbEntity
  8
1
  6
Continuous
 62
     7
100
AcDbLine
 10
1482.83203283284
 20
1673.379914562587
 30
0.0
 11
1480.810202677726
 21
1674.828737562709
 31
0.0
  0
LINE
  5
1F1
330
1F
100
AcDbEntity
  8
1
  6
Continuous
 62
     7
100
AcDbLine
 10
1511.569452495054
 20
1708.332525461894
 30
0.0
 11
1782.984597347168
 21
1503.378584734272
 31
0.0
  0
LINE
  5
1F2
330
1F
100
AcDbEntity
  8
1
  6
Continuous
 62
     7
100
AcDbLine
 10
1756.601669460633
 20
1466.561251508115
 30
0.0
 11
1475.281068790477
 21
1657.692144650637
 31
0.0
  0
LINE
  5
1F3
330
1F
100
AcDbEntity
  8
1
  6
DASH_CENTER
 62
     3
100
AcDbLine
 10
1787.07322198901
 20
1472.587181755868
 30
0.0
 11
1434.297760876266
 21
1725.382502196519
 31
0.0
  0
LINE
  5
1F4
330
1F
100
AcDbEntity
  8
1
  6
Continuous
 62
     7
100
AcDbLine
 10
1511.569452495054
 20
1708.332525461894
 30
0.0
 11
1475.281068790477
 21
1657.692144650637
 31
0.0
  0
LINE
  5
1F5
330
1F
100
AcDbEntity
  8
1
  6
Continuous
 62
     7
100
AcDbLine
 10
1782.984597347168
 20
1503.378584734272
 30
0.0
 11
1756.601669460633
 21
1466.561251508115
 31
0.0
  0
LINE
  5
1F6
330
1F
100
AcDbEntity
  8
1
  6
Continuous
 62
     7
100
AcDbLine
 10
1748.871212313509
 20
1454.99180479369
 30
0.0
 11
1724.95274110367
 21
1416.527774262087
 31
0.0
  0
LINE
  5
1F7
330
1F
100
AcDbEntity
  8
1
  6
Continuous
 62
     7
100
AcDbLine
 10
1464.632559049094
 20
1641.755523607882
 30
0.0
 11
1431.733910930037
 21
1588.850193890186
 31
0.0
  0
LINE
  5
1F8
330
1F
100
AcDbEntity
  8
1
  6
DASH_CENTER
 62
     3
100
AcDbLine
 10
1754.964937004318
 20
1424.533737418479
 30
0.0
 11
1386.411190221798
 21
1653.715184600764
 31
0.0
  0
LINE
  5
1F9
330
1F
100
AcDbEntity
  8
1
  6
Continuous
 62
     7
100
AcDbLine
 10
1724.95274110367
 20
1416.527774262087
 30
0.0
 11
1431.733910930037
 21
1588.850193890186
 31
0.0
  0
LINE
  5
1FA
330
1F
100
AcDbEntity
  8
1
  6
Continuous
 62
     7
100
AcDbLine
 10
1464.632559049094
 20
1641.755523607882
 30
0.0
 11
1748.871212313509
 21
1454.99180479369
 31
0.0
  0
LINE
  5
1FB
330
1F
100
AcDbEntity
  8
1
  6
Continuous
 62
     7
100
AcDbLine
 10
1438.242678535879
 20
1604.998231759615
 30
0.0
 11
1436.130419716417
 21
1606.311718699564
 31
0.0
  0
LINE
  5
1FC
330
1F
100
AcDbEntity
  8
1
  6
Continuous
 62
     7
100
AcDbLine
 10
1453.028578354092
 20
1628.775892842358
 30
0.0
 11
1450.91631953463
 21
1630.089379782306
 31
0.0
  0
LINE
  5
1FD
330
1F
100
AcDbEntity
  8
1
  6
Continuous
 62
     7
100
AcDbLine
 10
1411.420278137677
 20
1558.540471488977
 30
0.0
 11
1409.226635670411
 21
1559.712997816024
 31
0.0
  0
LINE
  5
1FE
330
1F
100
AcDbEntity
  8
1
  6
Continuous
 62
     7
100
AcDbLine
 10
1398.221169506546
 20
1533.846676087225
 30
0.0
 11
1396.027527039281
 21
1535.019202414273
 31
0.0
  0
LINE
  5
1FF
330
1F
100
AcDbEntity
  8
1
  6
Continuous
 62
     7
100
AcDbLine
 10
1422.150505350955
 20
1572.251248517679
 30
0.0
 11
1717.995513477283
 21
1404.477502533365
 31
0.0
  0
LINE
  5
200
330
1F
100
AcDbEntity
  8
1
  6
Continuous
 62
     7
100
AcDbLine
 10
1696.643921509889
 20
1364.531483580159
 30
0.0
 11
1392.782469879358
 21
1517.307518637567
 31
0.0
  0
LINE
  5
201
330
1F
100
AcDbEntity
  8
1
  6
DASH_CENTER
 62
     3
100
AcDbLine
 10
1726.068243952408
 20
1374.483196881852
 30
0.0
 11
1343.314415225235
 21
1579.069380664364
 31
0.0
  0
LINE
  5
202
330
1F
100
AcDbEntity
  8
1
  6
Continuous
 62
     7
100
AcDbLine
 10
1422.150505350955
 20
1572.251248517679
 30
0.0
 11
1392.782469879358
 21
1517.307518637567
 31
0.0
  0
LINE
  5
203
330
1F
100
AcDbEntity
  8
1
  6
Continuous
 62
     7
100
AcDbLine
 10
1717.995513477283
 20
1404.477502533365
 30
0.0
 11
1696.643921509889
 21
1364.531483580159
 31
0.0
  0
LINE
  5
204
330
1F
100
AcDbEntity
  8
1
  6
Continuous
 62
     7
100
AcDbLine
 10
1690.489715321029
 20
1352.051987950671
 30
0.0
 11
1671.796433390842
 21
1310.795035561642
 31
0.0
  0
LINE
  5
205
330
1F
100
AcDbEntity
  8
1
  6
Continuous
 62
     7
100
AcDbLine
 10
1384.305206076539
 20
1500.117328167705
 30
0.0
 11
1358.593541688952
 21
1443.37047561164
 31
0.0
  0
LINE
  5
206
330
1F
100
AcDbEntity
  8
1
  6
DASH_CENTER
 62
     3
100
AcDbLine
 10
1700.506882909227
 20
1322.649884244468
 30
0.0
 11
1305.191982893448
 21
1501.764735179603
 31
0.0
  0
LINE
  5
207
330
1F
100
AcDbEntity
  8
1
  6
Continuous
 62
     7
100
AcDbLine
 10
1671.796433390842
 20
1310.795035561642
 30
0.0
 11
1358.593541688952
 21
1443.37047561164
 31
0.0
  0
LINE
  5
208
330
1F
100
AcDbEntity
  8
1
  6
Continuous
 62
     7
100
AcDbLine
 10
1384.305206076539
 20
1500.117328167705
 30
0.0
 11
1690.489715321029
 21
1352.051987950671
 31
0.0
  0
LINE
  5
209
330
1F
100
AcDbEntity
  8
1
  6
Continuous
 62
     7
100
AcDbLine
 10
1362.938883990719
 20
1460.22992943019
 30
0.0
 11
1360.67325138947
 21
1461.256474206597
 31
0.0
  0
LINE
  5
20A
330
1F
100
AcDbEntity
  8
1
  6
Continuous
 62
     7
100
AcDbLine
 10
1374.494680825245
 20
1485.734116527983
 30
0.0
 11
1372.229048223995
 21
1486.760661304387
 31
0.0
  0
LINE
  5
20B
330
1F
100
AcDbEntity
  8
1
  6
Continuous
 62
     7
100
AcDbLine
 10
1342.409907493409
 20
1410.668595948753
 30
0.0
 11
1340.0819865448
 21
1411.544763352184
 31
0.0
  0
LINE
  5
20C
330
1F
100
AcDbEntity
  8
1
  6
Continuous
 62
     7
100
AcDbLine
 10
1332.546906151611
 20
1384.463229999547
 30
0.0
 11
1330.218985203003
 21
1385.33939740298
 31
0.0
  0
LINE
  5
20D
330
1F
100
AcDbEntity
  8
1
  6
Continuous
 62
     7
100
AcDbLine
 10
1351.258720607453
 20
1425.662651079105
 30
0.0
 11
1666.47160189522
 21
1297.939755147562
 31
0.0
  0
LINE
  5
20E
330
1F
100
AcDbEntity
  8
1
  6
Continuous
 62
     7
100
AcDbLine
 10
1650.516677505309
 20
1255.548537926724
 30
0.0
 11
1329.313528598112
 21
1367.355674581665
 31
0.0
  0
LINE
  5
20F
330
1F
100
AcDbEntity
  8
1
  6
DASH_CENTER
 62
     3
100
AcDbLine
 10
1678.390311547014
 20
1269.255757708632
 30
0.0
 11
1272.207139334345
 21
1422.132278506475
 31
0.0
  0
LINE
  5
210
330
1F
100
AcDbEntity
  8
1
  6
Continuous
 62
     7
100
AcDbLine
 10
1351.258720607453
 20
1425.662651079105
 30
0.0
 11
1329.313528598112
 21
1367.355674581665
 31
0.0
  0
LINE
  5
211
330
1F
100
AcDbEntity
  8
1
  6
Continuous
 62
     7
100
AcDbLine
 10
1666.47160189522
 20
1297.939755147562
 30
0.0
 11
1650.516677505309
 21
1255.548537926724
 31
0.0
  0
LINE
  5
212
330
1F
100
AcDbEntity
  8
1
  6
Continuous
 62
     7
100
AcDbLine
 10
1646.044022448873
 20
1242.372521012363
 30
0.0
 11
1632.895777034921
 21
1199.028564659873
 31
0.0
  0
LINE
  5
213
330
1F
100
AcDbEntity
  8
1
  6
Continuous
 62
     7
100
AcDbLine
 10
1323.152559067865
 20
1349.206043609659
 30
0.0
 11
1305.06781211804
 21
1289.588622595659
 31
0.0
  0
LINE
  5
214
330
1F
100
AcDbEntity
  8
1
  6
DASH_CENTER
 62
     3
100
AcDbLine
 10
1659.813236419742
 20
1214.529459121386
 30
0.0
 11
1244.501130711971
 21
1340.513009049852
 31
0.0
  0
LINE
  5
215
330
1F
100
AcDbEntity
  8
1
  6
Continuous
 62
     7
100
AcDbLine
 10
1632.895777034921
 20
1199.028564659873
 30
0.0
 11
1305.06781211804
 21
1289.588622595659
 31
0.0
  0
LINE
  5
216
330
1F
100
AcDbEntity
  8
1
  6
Continuous
 62
     7
100
AcDbLine
 10
1323.152559067865
 20
1349.206043609659
 30
0.0
 11
1646.044022448873
 21
1242.372521012363
 31
0.0
  0
LINE
  5
217
330
1F
100
AcDbEntity
  8
1
  6
Continuous
 62
     7
100
AcDbLine
 10
1307.175379104192
 20
1306.871022434171
 30
0.0
 11
1304.795138323115
 21
1307.593060581299
 31
0.0
  0
LINE
  5
218
330
1F
100
AcDbEntity
  8
1
  6
Continuous
 62
     7
100
AcDbLine
 10
1315.30335006732
 20
1333.665351834674
 30
0.0
 11
1312.923109286242
 21
1334.3873899818
 31
0.0
  0
LINE
  5
219
330
1F
100
AcDbEntity
  8
1
  6
Continuous
 62
     7
100
AcDbLine
 10
1293.291082987351
 20
1255.054123898797
 30
0.0
 11
1290.86871493025
 21
1255.618940911422
 31
0.0
  0
LINE
  5
21A
330
1F
100
AcDbEntity
  8
1
  6
Continuous
 62
     7
100
AcDbLine
 10
1286.932947622385
 20
1227.785568479031
 30
0.0
 11
1284.510579565285
 21
1228.350385491657
 31
0.0
  0
LINE
  5
21B
330
1F
100
AcDbEntity
  8
1
  6
Continuous
 62
     7
100
AcDbLine
 10
1300.107076356424
 20
1271.074904690383
 30
0.0
 11
1629.294451013276
 21
1185.588232972477
 31
0.0
  0
LINE
  5
21C
330
1F
100
AcDbEntity
  8
1
  6
Continuous
 62
     7
100
AcDbLine
 10
1619.009187380701
 20
1141.477142963723
 30
0.0
 11
1285.960216128976
 21
1210.402330109238
 31
0.0
  0
LINE
  5
21D
330
1F
100
AcDbEntity
  8
1
  6
DASH_CENTER
 62
     3
100
AcDbLine
 10
1644.855207415108
 20
1158.705334895015
 30
0.0
 11
1222.19259840875
 21
1257.256433051963
 31
0.0
  0
LINE
  5
21E
330
1F
100
AcDbEntity
  8
1
  6
Continuous
 62
     7
100
AcDbLine
 10
1300.107076356424
 20
1271.074904690383
 30
0.0
 11
1285.960216128976
 21
1210.402330109238
 31
0.0
  0
LINE
  5
21F
330
1F
100
AcDbEntity
  8
1
  6
Continuous
 62
     7
100
AcDbLine
 10
1629.294451013276
 20
1185.588232972477
 30
0.0
 11
1619.009187380701
 21
1141.477142963723
 31
0.0
  0
LINE
  5
220
330
1F
100
AcDbEntity
  8
1
  6
DASHED
 62
     4
100
AcDbLine
 10
1264.060458687459
 20
1179.829785221973
 30
0.0
 11
1258.660473744425
 21
1147.122558763361
 31
0.0
  0
LINE
  5
221
330
1F
100
AcDbEntity
  8
1
  6
DASHED
 62
     4
100
AcDbLine
 10
1252.740613751918
 20
1148.099931603729
 30
0.0
 11
1258.14059869495
 21
1180.807158062342
 31
0.0
  0
LINE
  5
222
330
1F
100
AcDbEntity
  8
1
  6
DASHED
 62
     4
100
AcDbLine
 10
1235.967677106473
 20
1150.869154651438
 30
0.0
 11
1241.367662049506
 21
1183.576381110051
 31
0.0
  0
LINE
  5
223
330
1F
100
AcDbEntity
  8
1
  6
DASH_CENTER
 62
     3
100
AcDbLine
 10
1254.238556874454
 20
1138.756121278083
 30
0.0
 11
1255.867511608401
 21
1148.622554598931
 31
0.0
  0
LINE
  5
224
330
1F
100
AcDbEntity
  8
1
  6
DASH_CENTER
 62
     3
100
AcDbLine
 10
1233.174714970449
 20
1152.369150487009
 30
0.0
 11
1231.545760236502
 21
1142.502717166159
 31
0.0
  0
LINE
  5
225
330
1F
100
AcDbEntity
  8
1
  6
DASH_CENTER
 62
     3
100
AcDbLine
 10
1260.933560830975
 20
1179.30716222677
 30
0.0
 11
1262.562515564922
 21
1189.17359554762
 31
0.0
  0
LINE
  5
226
330
1F
100
AcDbEntity
  8
1
  6
DASH_CENTER
 62
     3
100
AcDbLine
 10
1239.869718926971
 20
1192.920191435697
 30
0.0
 11
1238.240764193023
 21
1183.053758114847
 31
0.0
  0
LINE
  5
227
330
1F
100
AcDbEntity
  8
1
  6
Continuous
 62
     7
100
AcDbLine
 10
1276.467366160572
 20
1175.171537487726
 30
0.0
 11
1274.013243779358
 21
1175.576714732688
 31
0.0
  0
LINE
  5
228
330
1F
100
AcDbEntity
  8
1
  6
Continuous
 62
     7
100
AcDbLine
 10
1271.90629290552
 20
1147.545524189348
 30
0.0
 11
1269.452170524306
 21
1147.950701434312
 31
0.0
  0
LINE
  5
229
330
1F
100
AcDbEntity
  8
1
  6
DOT_CENTER
 62
     3
100
AcDbLine
 10
1235.423474921214
 20
1188.586581874054
 30
0.0
 11
1242.876404751623
 21
1187.356098179063
 31
0.0
  0
LINE
  5
22A
330
1F
100
AcDbEntity
  8
1
  6
DASHED
 62
     4
100
AcDbLine
 10
1237.579713138851
 20
1190.71375233833
 30
0.0
 11
1241.328957800774
 21
1190.09474953943
 31
0.0
  0
LINE
  5
22B
330
1F
100
AcDbEntity
  8
1
  6
DASHED
 62
     4
100
AcDbLine
 10
1230.047817113963
 20
1151.846527491805
 30
0.0
 11
1235.447802056998
 21
1184.55375395042
 31
0.0
  0
LINE
  5
22C
330
1F
100
AcDbEntity
  8
1
  6
DOT_CENTER
 62
     3
100
AcDbLine
 10
1258.116271559165
 20
1184.839985985977
 30
0.0
 11
1265.569201389575
 21
1183.609502290987
 31
0.0
  0
LINE
  5
22D
330
1F
100
AcDbEntity
  8
1
  6
DASHED
 62
     4
100
AcDbLine
 10
1260.272509776803
 20
1186.967156450253
 30
0.0
 11
1264.021754438726
 21
1186.348153651353
 31
0.0
  0
LINE
  5
22E
330
1F
100
AcDbEntity
  8
1
  6
DOT_CENTER
 62
     3
100
AcDbLine
 10
1236.181400795103
 20
1146.805057230375
 30
0.0
 11
1228.728470964693
 21
1148.035540925366
 31
0.0
  0
LINE
  5
22F
330
1F
100
AcDbEntity
  8
1
  6
DASHED
 62
     4
100
AcDbLine
 10
1233.835766024621
 20
1144.709156263527
 30
0.0
 11
1230.086521362698
 21
1145.328159062427
 31
0.0
  0
LINE
  5
230
330
1F
100
AcDbEntity
  8
1
  6
DOT_CENTER
 62
     3
100
AcDbLine
 10
1258.874197433055
 20
1143.058461342298
 30
0.0
 11
1251.421267602645
 21
1144.288945037288
 31
0.0
  0
LINE
  5
231
330
1F
100
AcDbEntity
  8
1
  6
DASHED
 62
     4
100
AcDbLine
 10
1256.528562662572
 20
1140.96256037545
 30
0.0
 11
1252.77931800065
 21
1141.581563174349
 31
0.0
  0
LINE
  5
232
330
1F
100
AcDbEntity
  8
1
  6
Continuous
 62
     7
100
AcDbLine
 10
1282.220956768157
 20
1191.603803853009
 30
0.0
 11
1616.294611824806
 21
1127.830050066941
 31
0.0
  0
LINE
  5
233
330
1F
100
AcDbEntity
  8
1
  6
Continuous
 62
     7
100
AcDbLine
 10
1608.916373051505
 20
1083.140716861396
 30
0.0
 11
1272.072562290444
 21
1130.135884983696
 31
0.0
  0
LINE
  5
234
330
1F
100
AcDbEntity
  8
1
  6
DASH_CENTER
 62
     3
100
AcDbLine
 10
1633.580277109757
 20
1102.022432499699
 30
0.0
 11
1205.377070984924
 21
1172.71906795298
 31
0.0
  0
LINE
  5
235
330
1F
100
AcDbEntity
  8
1
  6
Continuous
 62
     7
100
AcDbLine
 10
1282.220956768157
 20
1191.603803853009
 30
0.0
 11
1272.072562290444
 21
1130.135884983696
 31
0.0
  0
LINE
  5
236
330
1F
100
AcDbEntity
  8
1
  6
Continuous
 62
     7
100
AcDbLine
 10
1616.294611824806
 20
1127.830050066941
 30
0.0
 11
1608.916373051505
 21
1083.140716861396
 31
0.0
  0
LINE
  5
237
330
1F
100
AcDbEntity
  8
1
  6
DASHED
 62
     4
100
AcDbLine
 10
1252.219234014778
 20
1098.196485595798
 30
0.0
 11
1248.969965812851
 21
1065.206111906616
 31
0.0
  0
LINE
  5
238
330
1F
100
AcDbEntity
  8
1
  6
DASHED
 62
     4
100
AcDbLine
 10
1242.998857452819
 20
1065.794214748594
 30
0.0
 11
1246.248125654745
 21
1098.784588437777
 31
0.0
  0
LINE
  5
239
330
1F
100
AcDbEntity
  8
1
  6
DASHED
 62
     4
100
AcDbLine
 10
1226.08071709939
 20
1067.460506134197
 30
0.0
 11
1229.329985301317
 21
1100.45087982338
 31
0.0
  0
LINE
  5
23A
330
1F
100
AcDbEntity
  8
1
  6
DASH_CENTER
 62
     3
100
AcDbLine
 10
1245.104707798376
 20
1056.568380405722
 30
0.0
 11
1246.084879201673
 21
1066.520227672443
 31
0.0
  0
LINE
  5
23B
330
1F
100
AcDbEntity
  8
1
  6
DASH_CENTER
 62
     3
100
AcDbLine
 10
1223.195630488212
 20
1068.774621900026
 30
0.0
 11
1222.215459084916
 21
1058.822774633302
 31
0.0
  0
LINE
  5
23C
330
1F
100
AcDbEntity
  8
1
  6
DASH_CENTER
 62
     3
100
AcDbLine
 10
1249.133212265924
 20
1097.470472671948
 30
0.0
 11
1250.113383669221
 21
1107.42231993867
 31
0.0
  0
LINE
  5
23D
330
1F
100
AcDbEntity
  8
1
  6
DASH_CENTER
 62
     3
100
AcDbLine
 10
1227.224134955761
 20
1109.676714166252
 30
0.0
 11
1226.243963552463
 21
1099.724866899529
 31
0.0
  0
LINE
  5
23E
330
1F
100
AcDbEntity
  8
1
  6
Continuous
 62
     7
100
AcDbLine
 10
1264.904241325169
 20
1094.359662100333
 30
0.0
 11
1262.428873548642
 21
1094.603464546467
 31
0.0
  0
LINE
  5
23F
330
1F
100
AcDbEntity
  8
1
  6
Continuous
 62
     7
100
AcDbLine
 10
1262.159761395938
 20
1066.494489753511
 30
0.0
 11
1259.684393619411
 21
1066.738292199647
 31
0.0
  0
LINE
  5
240
330
1F
100
AcDbEntity
  8
1
  6
DOT_CENTER
 62
     3
100
AcDbLine
 10
1223.070842325914
 20
1105.061584924038
 30
0.0
 11
1230.588292345578
 21
1104.321180721933
 31
0.0
  0
LINE
  5
241
330
1F
100
AcDbEntity
  8
1
  6
DASHED
 62
     4
100
AcDbLine
 10
1225.083340267242
 20
1107.325225679864
 30
0.0
 11
1228.865042228597
 21
1106.952760546611
 31
0.0
  0
LINE
  5
242
330
1F
100
AcDbEntity
  8
1
  6
DASHED
 62
     4
100
AcDbLine
 10
1220.109608739356
 20
1068.048608976175
 30
0.0
 11
1223.358876941285
 21
1101.038982665359
 31
0.0
  0
LINE
  5
243
330
1F
100
AcDbEntity
  8
1
  6
DOT_CENTER
 62
     3
100
AcDbLine
 10
1245.960091039374
 20
1102.807190696456
 30
0.0
 11
1253.477541059038
 21
1102.066786494352
 31
0.0
  0
LINE
  5
244
330
1F
100
AcDbEntity
  8
1
  6
DASHED
 62
     4
100
AcDbLine
 10
1247.972588980702
 20
1105.070831452283
 30
0.0
 11
1251.754290942057
 21
1104.69836631903
 31
0.0
  0
LINE
  5
245
330
1F
100
AcDbEntity
  8
1
  6
DOT_CENTER
 62
     3
100
AcDbLine
 10
1226.55978787803
 20
1063.419088455706
 30
0.0
 11
1219.042337858366
 21
1064.15949265781
 31
0.0
  0
LINE
  5
246
330
1F
100
AcDbEntity
  8
1
  6
DASHED
 62
     4
100
AcDbLine
 10
1224.356253773434
 20
1061.174263119692
 30
0.0
 11
1220.57455181208
 21
1061.546728252944
 31
0.0
  0
LINE
  5
247
330
1F
100
AcDbEntity
  8
1
  6
DOT_CENTER
 62
     3
100
AcDbLine
 10
1249.44903659149
 20
1061.164694228124
 30
0.0
 11
1241.931586571826
 21
1061.905098430228
 31
0.0
  0
LINE
  5
248
330
1F
100
AcDbEntity
  8
1
  6
DASHED
 62
     4
100
AcDbLine
 10
1247.245502486895
 20
1058.91986889211
 30
0.0
 11
1243.46380052554
 21
1059.292334025362
 31
0.0
  0
LINE
  5
249
330
1F
100
AcDbEntity
  8
1
  6
Continuous
 62
     7
100
AcDbLine
 10
1269.570791412977
 20
1111.13304855201
 30
0.0
 11
1607.100172190551
 21
1069.345301702217
 31
0.0
  0
LINE
  5
24A
330
1F
100
AcDbEntity
  8
1
  6
Continuous
 62
     7
100
AcDbLine
 10
1602.660553027678
 20
1024.2690918855
 30
0.0
 11
1263.464319668164
 21
1049.133000459856
 31
0.0
  0
LINE
  5
24B
330
1F
100
AcDbEntity
  8
1
  6
DASH_CENTER
 62
     3
100
AcDbLine
 10
1626.036726486127
 20
1044.723476825676
 30
0.0
 11
1194.126555110397
 21
1087.262915728735
 31
0.0
  0
LINE
  5
24C
330
1F
100
AcDbEntity
  8
1
  6
Continuous
 62
     7
100
AcDbLine
 10
1269.570791412977
 20
1111.13304855201
 30
0.0
 11
1263.464319668164
 21
1049.133000459856
 31
0.0
  0
LINE
  5
24D
330
1F
100
AcDbEntity
  8
1
  6
Continuous
 62
     7
100
AcDbLine
 10
1607.100172190551
 20
1069.345301702217
 30
0.0
 11
1602.660553027678
 21
1024.2690918855
 31
0.0
  0
LINE
  5
24E
330
1F
100
AcDbEntity
  8
1
  6
Continuous
 62
     7
100
AcDbLine
 10
1601.750504112621
 20
1010.384428549514
 30
0.0
 11
1600.268515691015
 21
965.1143653722861
 31
0.0
  0
LINE
  5
24F
330
1F
100
AcDbEntity
  8
1
  6
Continuous
 62
     7
100
AcDbLine
 10
1262.210750241065
 20
1030.007226915651
 30
0.0
 11
1260.25146118873
 21
970.1571377459677
 31
0.0
  0
LINE
  5
250
330
1F
100
AcDbEntity
  8
1
  6
DASH_CENTER
 62
     3
100
AcDbLine
 10
1622.256858186137
 20
987.053830797807
 30
0.0
 11
1188.489227221395
 21
1001.253912742488
 31
0.0
  0
LINE
  5
251
330
1F
100
AcDbEntity
  8
1
  6
Continuous
 62
     7
100
AcDbLine
 10
1600.268515691015
 20
965.1143653722861
 30
0.0
 11
1554.959516994541
 21
965.4642355133451
 31
0.0
  0
LINE
  5
252
330
1F
100
AcDbEntity
  8
1
  6
Continuous
 62
     7
100
AcDbLine
 10
1262.210750241065
 20
1030.007226915651
 30
0.0
 11
1601.750504112621
 21
1010.384428549514
 31
0.0
  0
LINE
  5
253
330
1F
100
AcDbEntity
  8
1
  6
DASHED
 62
     4
100
AcDbLine
 10
1243.348166809107
 20
976.4456959246259
 30
0.0
 11
1239.550201376696
 21
976.570028439349
 31
0.0
  0
LINE
  5
254
330
1F
100
AcDbEntity
  8
1
  6
DOT_CENTER
 62
     3
100
AcDbLine
 10
1245.400164376488
 20
978.8298329430859
 30
0.0
 11
1237.850385042653
 21
979.076987127841
 31
0.0
  0
LINE
  5
255
330
1F
100
AcDbEntity
  8
1
  6
DASHED
 62
     4
100
AcDbLine
 10
1220.36048129715
 20
977.1982348295287
 30
0.0
 11
1216.56251586474
 21
977.3225673442516
 31
0.0
  0
LINE
  5
256
330
1F
100
AcDbEntity
  8
1
  6
DOT_CENTER
 62
     3
100
AcDbLine
 10
1222.412478864532
 20
979.5823718479883
 30
0.0
 11
1214.862699530696
 21
979.8295260327443
 31
0.0
  0
LINE
  5
257
330
1F
100
AcDbEntity
  8
1
  6
DASHED
 62
     4
100
AcDbLine
 10
1241.055279186501
 20
1022.545399463261
 30
0.0
 11
1244.853244618911
 21
1022.421066948538
 31
0.0
  0
LINE
  5
258
330
1F
100
AcDbEntity
  8
1
  6
DOT_CENTER
 62
     3
100
AcDbLine
 10
1239.19513934663
 20
1020.15498167312
 30
0.0
 11
1246.744918680466
 21
1019.907827488365
 31
0.0
  0
LINE
  5
259
330
1F
100
AcDbEntity
  8
1
  6
DASHED
 62
     4
100
AcDbLine
 10
1215.673324925645
 20
983.7801183098902
 30
0.0
 11
1216.75796252119
 21
1016.912369384733
 31
0.0
  0
LINE
  5
25A
330
1F
100
AcDbEntity
  8
1
  6
DASHED
 62
     4
100
AcDbLine
 10
1218.067593674544
 20
1023.297938368163
 30
0.0
 11
1221.865559106955
 21
1023.17360585344
 31
0.0
  0
LINE
  5
25B
330
1F
100
AcDbEntity
  8
1
  6
DOT_CENTER
 62
     3
100
AcDbLine
 10
1216.207453834675
 20
1020.907520578023
 30
0.0
 11
1223.757233168509
 21
1020.660366393267
 31
0.0
  0
LINE
  5
25C
330
1F
100
AcDbEntity
  8
1
  6
Continuous
 62
     7
100
AcDbLine
 10
1257.735089237919
 20
984.9795381441243
 30
0.0
 11
1255.249075970923
 21
985.0609217919277
 31
0.0
  0
LINE
  5
25D
330
1F
100
AcDbEntity
  8
1
  6
Continuous
 62
     7
100
AcDbLine
 10
1258.651223556932
 20
1012.964546593464
 30
0.0
 11
1256.165210289936
 21
1013.045930241266
 31
0.0
  0
LINE
  5
25E
330
1F
100
AcDbEntity
  8
1
  6
DASH_CENTER
 62
     3
100
AcDbLine
 10
1220.050010051947
 20
1025.784406808867
 30
0.0
 11
1219.722819223727
 21
1015.789760934102
 31
0.0
  0
LINE
  5
25F
330
1F
100
AcDbEntity
  8
1
  6
DASH_CENTER
 62
     3
100
AcDbLine
 10
1242.710504735683
 20
1015.0372220292
 30
0.0
 11
1243.037695563902
 21
1025.031867903964
 31
0.0
  0
LINE
  5
260
330
1F
100
AcDbEntity
  8
1
  6
DASH_CENTER
 62
     3
100
AcDbLine
 10
1218.705255747967
 20
984.7064122635891
 30
0.0
 11
1218.378064919749
 21
974.7117663888239
 31
0.0
  0
LINE
  5
261
330
1F
100
AcDbEntity
  8
1
  6
DASH_CENTER
 62
     3
100
AcDbLine
 10
1241.365750431705
 20
973.9592274839229
 30
0.0
 11
1241.692941259924
 21
983.9538733586858
 31
0.0
  0
LINE
  5
262
330
1F
100
AcDbEntity
  8
1
  6
DASHED
 62
     4
100
AcDbLine
 10
1221.670112450503
 20
983.58380381296
 30
0.0
 11
1222.754750046047
 21
1016.716054887801
 31
0.0
  0
LINE
  5
263
330
1F
100
AcDbEntity
  8
1
  6
DASHED
 62
     4
100
AcDbLine
 10
1238.661010437603
 20
983.027579404989
 30
0.0
 11
1239.745648033147
 21
1016.15983047983
 31
0.0
  0
LINE
  5
264
330
1F
100
AcDbEntity
  8
1
  6
DASHED
 62
     4
100
AcDbLine
 10
1245.742435558005
 20
1015.963515982898
 30
0.0
 11
1244.65779796246
 21
982.8312649080572
 31
0.0
  0
LINE
  5
265
330
1F
100
AcDbEntity
  8
1
  6
DASHED
 62
     4
100
AcDbLine
 10
1554.959516994541
 20
965.4642355133451
 30
0.0
 11
1260.172350078645
 21
967.7405433250056
 31
0.0
  0
LINE
  5
266
330
1F
100
AcDbEntity
  8
1
  6
DASHED
 62
     4
100
AcDbLine
 10
1260.25146118873
 20
970.1571377459677
 30
0.0
 11
1260.172350078645
 21
967.7405433250056
 31
0.0
  0
LINE
  5
267
330
1F
100
AcDbEntity
  8
1
  6
Continuous
 62
     7
100
AcDbLine
 10
1259.959516994544
 20
483.329409162563
 30
0.0
 11
1261.516530503824
 21
421.048868791337
 31
0.0
  0
LINE
  5
268
330
1F
100
AcDbEntity
  8
1
  6
Continuous
 62
     7
100
AcDbLine
 10
1600.065750398167
 20
483.3294091625611
 30
0.0
 11
1601.197896657724
 21
438.043558780273
 31
0.0
  0
LINE
  5
269
330
1F
100
AcDbEntity
  8
1
  6
Continuous
 62
     7
100
AcDbLine
 10
1600.065750398167
 20
483.3294091625611
 30
0.0
 11
1259.959516994544
 21
483.329409162563
 31
0.0
  0
LINE
  5
26A
330
1F
100
AcDbEntity
  8
1
  6
Continuous
 62
     7
100
AcDbLine
 10
1261.516530503824
 20
421.048868791337
 30
0.0
 11
1601.197896657724
 21
438.043558780273
 31
0.0
  0
LINE
  5
26B
330
1F
100
AcDbEntity
  8
1
  6
Continuous
 62
     7
100
AcDbLine
 10
1245.105408178476
 20
437.2937930454681
 30
0.0
 11
1244.380634634829
 21
466.2847347913031
 31
0.0
  0
LINE
  5
26C
330
1F
100
AcDbEntity
  8
1
  6
Continuous
 62
     7
100
AcDbLine
 10
1239.10728230003
 20
437.1438398985061
 30
0.0
 11
1238.382508756386
 21
466.1347816443421
 31
0.0
  0
LINE
  5
26D
330
1F
100
AcDbEntity
  8
1
  6
Continuous
 62
     7
100
AcDbLine
 10
1222.112592311089
 20
436.718972648784
 30
0.0
 11
1221.387818767445
 21
465.709914394619
 31
0.0
  0
LINE
  5
26E
330
1F
100
AcDbEntity
  8
1
  6
Continuous
 62
     7
100
AcDbLine
 10
1215.412810665819
 20
464.6352501747311
 30
0.0
 11
1215.968262114354
 21
442.41719223331
 31
0.0
  0
LINE
  5
26F
330
1F
100
AcDbEntity
  8
1
  6
Continuous
 62
     7
100
AcDbLine
 10
1239.269731542568
 20
474.6596180490881
 30
0.0
 11
1243.06854459892
 21
474.754588375496
 31
0.0
  0
LINE
  5
270
330
1F
100
AcDbEntity
  8
1
  6
DOT_CENTER
 62
     3
100
AcDbLine
 10
1237.55058707125
 20
472.1658739318971
 30
0.0
 11
1245.10205135294
 21
472.354660538938
 31
0.0
  0
LINE
  5
271
330
1F
100
AcDbEntity
  8
1
  6
Continuous
 62
     7
100
AcDbLine
 10
1215.412810665819
 20
464.6352501747311
 30
0.0
 11
1215.337834092336
 21
467.6343131139551
 31
0.0
  0
LINE
  5
272
330
1F
100
AcDbEntity
  8
1
  6
Continuous
 62
     7
100
AcDbLine
 10
1216.276915675182
 20
474.084797652402
 30
0.0
 11
1220.075728731535
 21
474.179767978811
 31
0.0
  0
LINE
  5
273
330
1F
100
AcDbEntity
  8
1
  6
DOT_CENTER
 62
     3
100
AcDbLine
 10
1214.557771203863
 20
471.591053535211
 30
0.0
 11
1222.109235485555
 21
471.779840142254
 31
0.0
  0
LINE
  5
274
330
1F
100
AcDbEntity
  8
1
  6
Continuous
 62
     7
100
AcDbLine
 10
1221.335959970786
 20
467.7842662609149
 30
0.0
 11
1221.387818767445
 21
465.709914394619
 31
0.0
  0
LINE
  5
275
330
1F
100
AcDbEntity
  8
1
  6
Continuous
 62
     7
100
AcDbLine
 10
1238.330649959727
 20
468.209133510638
 30
0.0
 11
1238.382508756381
 21
466.134781644343
 31
0.0
  0
LINE
  5
276
330
1F
100
AcDbEntity
  8
1
  6
Continuous
 62
     7
100
AcDbLine
 10
1244.328775838173
 20
468.3590866576
 30
0.0
 11
1244.380634634829
 21
466.2847347913031
 31
0.0
  0
LINE
  5
277
330
1F
100
AcDbEntity
  8
1
  6
Continuous
 62
     7
100
AcDbLine
 10
1221.90015868623
 20
465.222566666995
 30
0.0
 11
1237.89516102876
 21
465.622441725559
 31
0.0
  0
LINE
  5
278
330
1F
100
AcDbEntity
  8
1
  6
Continuous
 62
     7
100
AcDbLine
 10
1244.218185392288
 20
428.768956640722
 30
0.0
 11
1240.419372335939
 21
428.673986314314
 31
0.0
  0
LINE
  5
279
330
1F
100
AcDbEntity
  8
1
  6
DOT_CENTER
 62
     3
100
AcDbLine
 10
1246.129230409626
 20
431.267498271564
 30
0.0
 11
1238.577766127934
 21
431.078711664523
 31
0.0
  0
LINE
  5
27A
330
1F
100
AcDbEntity
  8
1
  6
Continuous
 62
     7
100
AcDbLine
 10
1216.166325229297
 20
434.494667635524
 30
0.0
 11
1216.091348655817
 21
437.49373057475
 31
0.0
  0
LINE
  5
27B
330
1F
100
AcDbEntity
  8
1
  6
Continuous
 62
     7
100
AcDbLine
 10
1221.225369524904
 20
428.1941362440381
 30
0.0
 11
1217.426556468552
 21
428.0991659176301
 31
0.0
  0
LINE
  5
27C
330
1F
100
AcDbEntity
  8
1
  6
Continuous
 62
     7
100
AcDbLine
 10
1261.294100002498
 20
429.946088844369
 30
0.0
 11
1261.300348050288
 21
429.6961669327671
 31
0.0
  0
LINE
  5
27D
330
1F
100
AcDbEntity
  8
1
  6
DOT_CENTER
 62
     3
100
AcDbLine
 10
1223.136414542239
 20
430.692677874879
 30
0.0
 11
1215.584950260547
 21
430.503891267838
 31
0.0
  0
LINE
  5
27E
330
1F
100
AcDbEntity
  8
1
  6
Continuous
 62
     7
100
AcDbLine
 10
1222.112592311089
 20
436.718972648784
 30
0.0
 11
1222.164451107747
 21
434.644620782486
 31
0.0
  0
LINE
  5
27F
330
1F
100
AcDbEntity
  8
1
  6
Continuous
 62
     7
100
AcDbLine
 10
1239.10728230003
 20
437.1438398985061
 30
0.0
 11
1239.159141096684
 21
435.06948803221
 31
0.0
  0
LINE
  5
280
330
1F
100
AcDbEntity
  8
1
  6
Continuous
 62
     7
100
AcDbLine
 10
1245.105408178476
 20
437.2937930454681
 30
0.0
 11
1245.157266975134
 21
435.2194411791721
 31
0.0
  0
LINE
  5
281
330
1F
100
AcDbEntity
  8
1
  6
Continuous
 62
     7
100
AcDbLine
 10
1238.594942381244
 20
437.631187626131
 30
0.0
 11
1222.599940038715
 21
437.231312567567
 31
0.0
  0
LINE
  5
282
330
1F
100
AcDbEntity
  8
1
  6
Continuous
 62
     7
100
AcDbLine
 10
1215.337834092336
 20
467.6343131139551
 30
0.0
 11
1221.335959970786
 21
467.7842662609149
 31
0.0
  0
LINE
  5
283
330
1F
100
AcDbEntity
  8
1
  6
Continuous
 62
     7
100
AcDbLine
 10
1238.330649959727
 20
468.209133510638
 30
0.0
 11
1244.328775838173
 21
468.3590866576
 31
0.0
  0
LINE
  5
284
330
1F
100
AcDbEntity
  8
1
  6
Continuous
 62
     7
100
AcDbLine
 10
1245.157266975134
 20
435.2194411791721
 30
0.0
 11
1239.159141096684
 21
435.06948803221
 31
0.0
  0
LINE
  5
285
330
1F
100
AcDbEntity
  8
1
  6
Continuous
 62
     7
100
AcDbLine
 10
1222.164451107747
 20
434.644620782486
 30
0.0
 11
1216.166325229297
 21
434.494667635524
 31
0.0
  0
LINE
  5
286
330
1F
100
AcDbEntity
  8
1
  6
Continuous
 62
     7
100
AcDbLine
 10
1245.592755906101
 20
437.8061329642511
 30
0.0
 11
1256.089476193386
 21
438.068550971435
 31
0.0
  0
LINE
  5
287
330
1F
100
AcDbEntity
  8
1
  6
Continuous
 62
     7
100
AcDbLine
 10
1244.892974553613
 20
465.7973870636801
 30
0.0
 11
1255.389694840901
 21
466.059805070861
 31
0.0
  0
LINE
  5
288
330
1F
100
AcDbEntity
  8
1
  6
Continuous
 62
     7
100
AcDbLine
 10
1260.175699448078
 20
474.6821110211321
 30
0.0
 11
1260.263172117139
 21
471.183204258704
 31
0.0
  0
LINE
  5
289
330
1F
100
AcDbEntity
  8
1
  6
Continuous
 62
     7
100
AcDbLine
 10
1261.300348050288
 20
429.6961669327671
 30
0.0
 11
1261.212875381229
 21
433.195073695195
 31
0.0
  0
LINE
  5
28A
330
1F
100
AcDbEntity
  8
1
  6
Continuous
 62
     7
100
AcDbLine
 10
1260.263172117139
 20
471.183204258704
 30
0.0
 11
1260.313156499461
 21
469.183828965888
 31
0.0
  0
LINE
  5
28B
330
1F
100
AcDbEntity
  8
1
  6
Continuous
 62
     7
100
AcDbLine
 10
1261.212875381229
 20
433.195073695195
 30
0.0
 11
1261.162890998907
 21
435.194448988011
 31
0.0
  0
LINE
  5
28C
330
1F
100
AcDbEntity
  8
1
  6
Continuous
 62
     7
100
AcDbLine
 10
1255.389694840901
 20
466.059805070861
 30
0.0
 11
1257.389070133715
 21
466.109789453183
 31
0.0
  0
LINE
  5
28D
330
1F
100
AcDbEntity
  8
1
  6
Continuous
 62
     7
100
AcDbLine
 10
1256.089476193386
 20
438.068550971435
 30
0.0
 11
1258.088851486202
 21
438.118535353755
 31
0.0
  0
LINE
  5
28E
330
1F
100
AcDbEntity
  8
1
  6
DASH_CENTER
 62
     3
100
AcDbLine
 10
1219.139771172584
 20
435.594324046575
 30
0.0
 11
1219.389693084187
 21
425.597447582492
 31
0.0
  0
LINE
  5
28F
330
1F
100
AcDbEntity
  8
1
  6
DASH_CENTER
 62
     3
100
AcDbLine
 10
1242.382508951572
 20
426.172267979177
 30
0.0
 11
1242.132587039971
 21
436.169144443261
 31
0.0
  0
LINE
  5
290
330
1F
100
AcDbEntity
  8
1
  6
DASH_CENTER
 62
     3
100
AcDbLine
 10
1218.1125921159
 20
476.681486313949
 30
0.0
 11
1218.362514027503
 21
466.684609849866
 31
0.0
  0
LINE
  5
291
330
1F
100
AcDbEntity
  8
1
  6
DASH_CENTER
 62
     3
100
AcDbLine
 10
1241.355329894888
 20
467.259430246551
 30
0.0
 11
1241.105407983287
 21
477.256306710633
 31
0.0
  0
LINE
  5
292
330
1F
100
AcDbEntity
  8
1
  6
Continuous
 62
     7
100
AcDbLine
 10
1215.968262114354
 20
442.41719223331
 30
0.0
 11
1216.091348655817
 21
437.49373057475
 31
0.0
  0
LINE
  5
293
330
1F
100
AcDbEntity
  8
1
  6
Continuous
 62
     2
100
AcDbLine
 10
3236.24084395017
 20
418.2015530903849
 30
0.0
 11
3741.450843950171
 21
418.2015530903849
 31
0.0
  0
ARC
  5
294
330
1F
100
AcDbEntity
  8
1
  6
Continuous
 62
     7
100
AcDbCircle
 10
1164.720157916365
 20
2082.509582161184
 30
0.0
 40
4.344898672320311
100
AcDbArc
 50
-169.3842474680449
 51
-100.6157525319691
  0
ARC
  5
295
330
1F
100
AcDbEntity
  8
1
  6
Continuous
 62
     7
100
AcDbCircle
 10
1178.337003627404
 20
2085.716096465395
 30
0.0
 40
16.24081062144601
100
AcDbArc
 50
-152.587953773994
 51
-117.4120462260071
  0
ARC
  5
296
330
1F
100
AcDbEntity
  8
1
  6
Continuous
 62
     7
100
AcDbCircle
 10
1175.130489323192
 20
2072.099250754355
 30
0.0
 40
4.344898672318523
100
AcDbArc
 50
-169.3842474680405
 51
-100.6157525319426
  0
ARC
  5
297
330
1F
100
AcDbEntity
  8
1
  6
Continuous
 62
     7
100
AcDbCircle
 10
2504.959516994627
 20
958.1571377459836
 30
0.0
 40
1249.999999999998
100
AcDbArc
 50
90.13718076836561
 51
179.8628192316347
  0
ARC
  5
298
330
1F
100
AcDbEntity
  8
1
  6
Continuous
 62
     7
100
AcDbCircle
 10
2504.959516994627
 20
958.1571377459836
 30
0.0
 40
1306.000000000001
100
AcDbArc
 50
90.13191672325455
 51
179.8680832767455
  0
ARC
  5
299
330
1F
100
AcDbEntity
  8
1
  6
DASHED
 62
     4
100
AcDbCircle
 10
1526.266824945272
 20
2231.257814872049
 30
0.0
 40
31.90000000000011
100
AcDbArc
 50
1.66940320519441
 51
-89.42174966930736
  0
ARC
  5
29A
330
1F
100
AcDbEntity
  8
1
  6
Continuous
 62
     7
100
AcDbCircle
 10
1526.266824945272
 20
2231.257814872049
 30
0.0
 40
31.90000000000055
100
AcDbArc
 50
-89.42174966930736
 51
-74.03839024543841
  0
ARC
  5
29B
330
1F
100
AcDbEntity
  8
1
  6
Continuous
 62
     7
100
AcDbCircle
 10
1526.266824945272
 20
2231.257814872049
 30
0.0
 40
31.90000000000006
100
AcDbArc
 50
-15.96160975455974
 51
1.66940320519441
  0
ARC
  5
29C
330
1F
100
AcDbEntity
  8
1
  6
DASHED
 62
     4
100
AcDbCircle
 10
1526.266824945272
 20
2231.257814872049
 30
0.0
 40
31.90000000000004
100
AcDbArc
 50
-26.15484444427448
 51
-15.96160975455974
  0
ARC
  5
29D
330
1F
100
AcDbEntity
  8
1
  6
DASHED
 62
     4
100
AcDbCircle
 10
1467.41048519592
 20
2172.401475122697
 30
0.0
 40
31.90000000000008
100
AcDbArc
 50
1.66940320519278
 51
-91.66940320519238
  0
ARC
  5
29E
330
1F
100
AcDbEntity
  8
1
  6
Continuous
 62
     7
100
AcDbCircle
 10
1467.41048519592
 20
2172.401475122697
 30
0.0
 40
31.89999999999985
100
AcDbArc
 50
-91.66940320519238
 51
-74.03839024544016
  0
ARC
  5
29F
330
1F
100
AcDbEntity
  8
1
  6
DASHED
 62
     4
100
AcDbCircle
 10
1467.41048519592
 20
2172.401475122697
 30
0.0
 40
31.89999999999984
100
AcDbArc
 50
-26.15484444427375
 51
-15.96160975455974
  0
ARC
  5
2A0
330
1F
100
AcDbEntity
  8
1
  6
Continuous
 62
     7
100
AcDbCircle
 10
1467.41048519592
 20
2172.401475122697
 30
0.0
 40
31.90000000000006
100
AcDbArc
 50
-15.96160975455974
 51
1.66940320519278
  0
ARC
  5
2A1
330
1F
100
AcDbEntity
  8
1
  6
DASHED
 62
     4
100
AcDbCircle
 10
1408.554145446568
 20
2113.545135373345
 30
0.0
 40
31.90000000000007
100
AcDbArc
 50
1.66940320519196
 51
-91.66940320519237
  0
ARC
  5
2A2
330
1F
100
AcDbEntity
  8
1
  6
Continuous
 62
     7
100
AcDbCircle
 10
1408.554145446568
 20
2113.545135373345
 30
0.0
 40
31.9000000000003
100
AcDbArc
 50
-91.66940320519237
 51
-74.03839024544037
  0
ARC
  5
2A3
330
1F
100
AcDbEntity
  8
1
  6
Continuous
 62
     7
100
AcDbCircle
 10
1408.554145446568
 20
2113.545135373345
 30
0.0
 40
31.89999999999933
100
AcDbArc
 50
-15.96160975456266
 51
1.66940320519196
  0
ARC
  5
2A4
330
1F
100
AcDbEntity
  8
1
  6
DASHED
 62
     4
100
AcDbCircle
 10
1408.554145446568
 20
2113.545135373345
 30
0.0
 40
31.90000000000004
100
AcDbArc
 50
-26.15484444427448
 51
-15.96160975456266
  0
ARC
  5
2A5
330
1F
100
AcDbEntity
  8
1
  6
DASHED
 62
     4
100
AcDbCircle
 10
1349.571519367191
 20
2054.562509293968
 30
0.0
 40
31.90000000000007
100
AcDbArc
 50
1.66940320519196
 51
-91.66940320519237
  0
ARC
  5
2A6
330
1F
100
AcDbEntity
  8
1
  6
Continuous
 62
     7
100
AcDbCircle
 10
1349.571519367191
 20
2054.562509293968
 30
0.0
 40
31.9000000000003
100
AcDbArc
 50
-91.66940320519237
 51
-74.03839024543841
  0
ARC
  5
2A7
330
1F
100
AcDbEntity
  8
1
  6
Continuous
 62
     7
100
AcDbCircle
 10
1349.571519367191
 20
2054.562509293968
 30
0.0
 40
31.89999999999959
100
AcDbArc
 50
-15.96160975456423
 51
1.66940320519196
  0
ARC
  5
2A8
330
1F
100
AcDbEntity
  8
1
  6
DASHED
 62
     4
100
AcDbCircle
 10
1349.571519367191
 20
2054.562509293968
 30
0.0
 40
31.90000000000004
100
AcDbArc
 50
-26.15484444427448
 51
-15.96160975456423
  0
ARC
  5
2A9
330
1F
100
AcDbEntity
  8
1
  6
DASHED
 62
     4
100
AcDbCircle
 10
1290.715179617838
 20
1995.706169544614
 30
0.0
 40
31.90000000000004
100
AcDbArc
 50
-26.15484444427448
 51
-15.96160975455856
  0
ARC
  5
2AA
330
1F
100
AcDbEntity
  8
1
  6
Continuous
 62
     7
100
AcDbCircle
 10
1290.715179617838
 20
1995.706169544614
 30
0.0
 40
31.90000000000033
100
AcDbArc
 50
-91.669403205194
 51
-74.03839024543998
  0
ARC
  5
2AB
330
1F
100
AcDbEntity
  8
1
  6
DASHED
 62
     4
100
AcDbCircle
 10
1290.715179617838
 20
1995.706169544614
 30
0.0
 40
31.89999999999916
100
AcDbArc
 50
1.66940320519201
 51
-91.669403205194
  0
ARC
  5
2AC
330
1F
100
AcDbEntity
  8
1
  6
Continuous
 62
     7
100
AcDbCircle
 10
1231.858839868485
 20
1936.84982979526
 30
0.0
 40
31.90000000000002
100
AcDbArc
 50
-15.96160975455806
 51
-0.57825033057586
  0
ARC
  5
2AD
330
1F
100
AcDbEntity
  8
1
  6
DASHED
 62
     4
100
AcDbCircle
 10
1231.858839868485
 20
1936.84982979526
 30
0.0
 40
31.89999999999944
100
AcDbArc
 50
-26.15484444427228
 51
-15.96160975455806
  0
ARC
  5
2AE
330
1F
100
AcDbEntity
  8
1
  6
DASHED
 62
     4
100
AcDbCircle
 10
1231.858839868485
 20
1936.84982979526
 30
0.0
 40
31.89999999999967
100
AcDbArc
 50
-0.57825033057586
 51
-91.66940320519402
  0
ARC
  5
2AF
330
1F
100
AcDbEntity
  8
1
  6
Continuous
 62
     7
100
AcDbCircle
 10
1231.858839868485
 20
1936.84982979526
 30
0.0
 40
31.9000000000001
100
AcDbArc
 50
-91.66940320519402
 51
-74.03839024543886
  0
ARC
  5
2B0
330
1F
100
AcDbEntity
  8
COLOR
  6
DASHED
 62
     4
100
AcDbCircle
 10
1171.095656992132
 20
2292.020997748461
 30
0.0
 40
48.68299999999993
100
AcDbArc
 50
100.0771953162945
 51
169.9228046837057
  0
ARC
  5
2B1
330
1F
100
AcDbEntity
  8
COLOR
  6
DASHED
 62
     4
100
AcDbCircle
 10
1171.095656992132
 20
2292.020997748461
 30
0.0
 40
50.30000000000022
100
AcDbArc
 50
-78.25066063402704
 51
-11.7493393659717
  0
ARC
  5
2B2
330
1F
100
AcDbEntity
  8
DETAIL
  6
DASHED
 62
     4
100
AcDbCircle
 10
1163.31748239908
 20
2362.024569085929
 30
0.0
 40
5.000000000000362
100
AcDbArc
 50
135.0000000000019
 51
-134.9999999999982
  0
ARC
  5
2B3
330
1F
100
AcDbEntity
  8
DETAIL
  6
DASHED
 62
     4
100
AcDbCircle
 10
1101.092085654664
 20
2299.799172341513
 30
0.0
 40
5.000000000000201
100
AcDbArc
 50
45.0
 51
135.0000000000092
  0
ARC
  5
2B4
330
1F
100
AcDbEntity
  8
DETAIL
  6
DASHED
 62
     4
100
AcDbCircle
 10
1146.427529823659
 20
2359.115531788128
 30
0.0
 40
39.99999999999807
100
AcDbArc
 50
31.07199999999918
 51
44.99999999999977
  0
ARC
  5
2B5
330
1F
100
AcDbEntity
  8
DETAIL
  6
DASHED
 62
     4
100
AcDbCircle
 10
1174.577450782695
 20
2383.891139187342
 30
0.0
 40
2.499999999999922
100
AcDbArc
 50
-45.00500000001889
 51
41.35199999998739
  0
ARC
  5
2B6
330
1F
100
AcDbEntity
  8
DETAIL
  6
DASHED
 62
     4
100
AcDbCircle
 10
1104.001122952466
 20
2316.689124916934
 30
0.0
 40
40.00000000000097
100
AcDbArc
 50
-135.0000000000009
 51
-121.0720000000023
  0
ARC
  5
2B7
330
1F
100
AcDbEntity
  8
DETAIL
  6
DASHED
 62
     4
100
AcDbCircle
 10
1079.225515553252
 20
2288.539203957898
 30
0.0
 40
2.500000000000848
100
AcDbArc
 50
-131.3520000000226
 51
-44.99500000001428
  0
ARC
  5
2B8
330
1F
100
AcDbEntity
  8
COLOR
  6
DASHED
 62
     4
100
AcDbCircle
 10
1214.582724035105
 20
2324.901463073636
 30
0.0
 40
15.00000000000125
100
AcDbArc
 50
-135.0
 51
-74.56400000000528
  0
ARC
  5
2B9
330
1F
100
AcDbEntity
  8
COLOR
  6
DASHED
 62
     4
100
AcDbCircle
 10
1138.215191666958
 20
2248.533930705488
 30
0.0
 40
15.00000000000004
100
AcDbArc
 50
-15.43599999999984
 51
45.00000000000062
  0
ARC
  5
2BA
330
1F
100
AcDbEntity
  8
COLOR
  6
DASHED
 62
     4
100
AcDbCircle
 10
1119.870013335853
 20
2311.156721460931
 30
0.0
 40
3.999999999999389
100
AcDbArc
 50
-104.9999999999867
 51
-20.48299999998877
  0
ARC
  5
2BB
330
1F
100
AcDbEntity
  8
COLOR
  6
DASHED
 62
     4
100
AcDbCircle
 10
1151.959933279662
 20
2343.246641404739
 30
0.0
 40
4.000000000000398
100
AcDbArc
 50
-69.51700000000056
 51
15.00000000000243
  0
ARC
  5
2BC
330
1F
100
AcDbEntity
  8
DETAIL
  6
DASHED
 62
     4
100
AcDbCircle
 10
1171.095656992132
 20
2292.020997748461
 30
0.0
 40
67.4999999999995
100
AcDbArc
 50
-158.6439999999998
 51
68.64399999999968
  0
ARC
  5
2BD
330
1F
100
AcDbEntity
  8
1
  6
DASHED
 62
     4
100
AcDbCircle
 10
1171.095656992132
 20
2292.020997748461
 30
0.0
 40
56.60000000000031
100
AcDbArc
 50
-140.1233809281538
 51
50.12338092815606
  0
ARC
  5
2BE
330
1F
100
AcDbEntity
  8
1
  6
DASHED
 62
     4
100
AcDbCircle
 10
1349.571519367191
 20
2054.562509293968
 30
0.0
 40
31.90000000000058
100
AcDbArc
 50
-74.03839024543841
 51
-63.84515555572679
  0
ARC
  5
2BF
330
1F
100
AcDbEntity
  8
1
  6
Continuous
 62
     7
100
AcDbCircle
 10
1349.571519367191
 20
2054.562509293968
 30
0.0
 40
31.90000000000097
100
AcDbArc
 50
-63.84515555572679
 51
-26.15484444427448
  0
ARC
  5
2C0
330
1F
100
AcDbEntity
  8
1
  6
Continuous
 62
     7
100
AcDbCircle
 10
1408.554145446568
 20
2113.545135373345
 30
0.0
 40
31.90000000000015
100
AcDbArc
 50
-63.84515555572607
 51
-26.15484444427448
  0
ARC
  5
2C1
330
1F
100
AcDbEntity
  8
1
  6
DASHED
 62
     4
100
AcDbCircle
 10
1408.554145446568
 20
2113.545135373345
 30
0.0
 40
31.90000000000027
100
AcDbArc
 50
-74.03839024544037
 51
-63.84515555572607
  0
ARC
  5
2C2
330
1F
100
AcDbEntity
  8
1
  6
DASHED
 62
     4
100
AcDbCircle
 10
1467.41048519592
 20
2172.401475122697
 30
0.0
 40
31.89999999999984
100
AcDbArc
 50
-74.03839024544016
 51
-63.84515555572571
  0
ARC
  5
2C3
330
1F
100
AcDbEntity
  8
1
  6
Continuous
 62
     7
100
AcDbCircle
 10
1467.41048519592
 20
2172.401475122697
 30
0.0
 40
31.89999999999974
100
AcDbArc
 50
-63.84515555572571
 51
-26.15484444427375
  0
ARC
  5
2C4
330
1F
100
AcDbEntity
  8
1
  6
Continuous
 62
     7
100
AcDbCircle
 10
1526.266824945272
 20
2231.257814872049
 30
0.0
 40
31.90000000000015
100
AcDbArc
 50
-63.84515555572607
 51
-26.15484444427448
  0
ARC
  5
2C5
330
1F
100
AcDbEntity
  8
1
  6
DASHED
 62
     4
100
AcDbCircle
 10
1526.266824945272
 20
2231.257814872049
 30
0.0
 40
31.90000000000058
100
AcDbArc
 50
-74.03839024543841
 51
-63.84515555572607
  0
ARC
  5
2C6
330
1F
100
AcDbEntity
  8
1
  6
Continuous
 62
     7
100
AcDbCircle
 10
1290.715179617838
 20
1995.706169544614
 30
0.0
 40
31.89999999999913
100
AcDbArc
 50
-63.84515555572516
 51
-26.15484444427448
  0
ARC
  5
2C7
330
1F
100
AcDbEntity
  8
1
  6
Continuous
 62
     7
100
AcDbCircle
 10
1290.715179617838
 20
1995.706169544614
 30
0.0
 40
31.89999999999987
100
AcDbArc
 50
-15.96160975455856
 51
1.66940320519201
  0
ARC
  5
2C8
330
1F
100
AcDbEntity
  8
1
  6
DASHED
 62
     4
100
AcDbCircle
 10
1290.715179617838
 20
1995.706169544614
 30
0.0
 40
31.90000000000033
100
AcDbArc
 50
-74.03839024543998
 51
-63.84515555572516
  0
ARC
  5
2C9
330
1F
100
AcDbEntity
  8
1
  6
Continuous
 62
     7
100
AcDbCircle
 10
1231.858839868485
 20
1936.84982979526
 30
0.0
 40
31.89999999999984
100
AcDbArc
 50
-63.84515555572534
 51
-26.15484444427228
  0
ARC
  5
2CA
330
1F
100
AcDbEntity
  8
1
  6
DASHED
 62
     4
100
AcDbCircle
 10
1231.858839868485
 20
1936.84982979526
 30
0.0
 40
31.89999999999815
100
AcDbArc
 50
-74.03839024543886
 51
-63.84515555572534
  0
ARC
  5
2CB
330
1F
100
AcDbEntity
  8
1
  6
Continuous
 62
     7
100
AcDbCircle
 10
1196.210276121567
 20
456.2068692501831
 30
0.0
 40
3.32256957295003
100
AcDbArc
 50
147.0478487161043
 51
-144.1836563477883
  0
ARC
  5
2CC
330
1F
100
AcDbEntity
  8
1
  6
Continuous
 62
     7
100
AcDbCircle
 10
1205.444993694663
 20
450.806813225587
 30
0.0
 40
12.41944341639877
100
AcDbArc
 50
163.8441424101748
 51
-160.9799500418371
  0
ARC
  5
2CD
330
1F
100
AcDbEntity
  8
1
  6
Continuous
 62
     7
100
AcDbCircle
 10
1196.491646463302
 20
444.952055580878
 30
0.0
 40
3.322569572950428
100
AcDbArc
 50
147.0478487161298
 51
-144.1836563477756
  0
ARC
  5
2CE
330
1F
100
AcDbEntity
  8
1
  6
DASH_CENTER
 62
     3
100
AcDbCircle
 10
2504.959516994542
 20
958.1571377459691
 30
0.0
 40
1100.000000000001
100
AcDbArc
 50
133.1250000000003
 51
180.0
  0
ARC
  5
2CF
330
1F
100
AcDbEntity
  8
1
  6
DASH_CENTER
 62
     3
100
AcDbCircle
 10
2504.959516994542
 20
958.1571377459691
 30
0.0
 40
1100.000000000001
100
AcDbArc
 50
129.3750000000003
 51
133.1250000000003
  0
ARC
  5
2D0
330
1F
100
AcDbEntity
  8
1
  6
DASH_CENTER
 62
     3
100
AcDbCircle
 10
2504.959516994542
 20
958.1571377459691
 30
0.0
 40
1100.000000000001
100
AcDbArc
 50
90.00000000000006
 51
129.3750000000003
  0
ARC
  5
2D1
330
1F
100
AcDbEntity
  8
1
  6
Continuous
 62
     4
100
AcDbCircle
 10
2504.95951699463
 20
958.1571377459691
 30
0.0
 40
1420.000000000002
100
AcDbArc
 50
106.5246060562636
 51
114.0938258967781
  0
ARC
  5
2D2
330
1F
100
AcDbEntity
  8
1
  6
Continuous
 62
     4
100
AcDbCircle
 10
2504.95951699463
 20
958.1571377459691
 30
0.0
 40
1480.000000000002
100
AcDbArc
 50
106.5246060562635
 51
114.0938258967781
  0
ARC
  5
2D3
330
1F
100
AcDbEntity
  8
1
  6
Continuous
 62
     4
100
AcDbCircle
 10
2504.959516994542
 20
958.1571377458829
 30
0.0
 40
1480.0
100
AcDbArc
 50
155.9061741032133
 51
163.4753939437278
  0
ARC
  5
2D4
330
1F
100
AcDbEntity
  8
1
  6
Continuous
 62
     4
100
AcDbCircle
 10
2504.959516994542
 20
958.1571377458829
 30
0.0
 40
1420.0
100
AcDbArc
 50
155.9061741032133
 51
163.4753939437278
  0
ARC
  5
2D5
330
1F
100
AcDbEntity
  8
1
  6
Continuous
 62
     7
100
AcDbCircle
 10
2504.959516994627
 20
958.1571377459836
 30
0.0
 40
1330.000000000001
100
AcDbArc
 50
90.21621100186982
 51
179.783788998131
  0
ARC
  5
2D6
330
1F
100
AcDbEntity
  8
1
  6
Continuous
 62
     7
100
AcDbCircle
 10
2504.959516994635
 20
958.1571377459745
 30
0.0
 40
869.9999999999988
100
AcDbArc
 50
90.3274062361799
 51
179.6725937638208
  0
ARC
  5
2D7
330
1F
100
AcDbEntity
  8
1
  6
DASHED
 62
     4
100
AcDbCircle
 10
2504.959516994627
 20
958.1571377459836
 30
0.0
 40
1300.000000000001
100
AcDbArc
 50
90.0000000000003
 51
-179.9999999999996
  0
ARC
  5
2D8
330
1F
100
AcDbEntity
  8
1
  6
Continuous
 62
     7
100
AcDbCircle
 10
2504.959516994635
 20
958.1571377459745
 30
0.0
 40
900.0000000000005
100
AcDbArc
 50
90.00000000000031
 51
-179.9999999999996
  0
ARC
  5
2D9
330
1F
100
AcDbEntity
  8
1
  6
DASHED
 62
     4
100
AcDbCircle
 10
2445.976798563062
 20
2261.176999921529
 30
0.0
 40
20.81940913765589
100
AcDbArc
 50
-106.8468019293408
 51
-88.8336027040142
  0
ARC
  5
2DA
330
1F
100
AcDbEntity
  8
1
  6
DASHED
 62
     4
100
AcDbCircle
 10
2447.142763820294
 20
2225.560445778599
 30
0.0
 40
20.81940913765478
100
AcDbArc
 50
92.58360270402788
 51
110.5968019293472
  0
ARC
  5
2DB
330
1F
100
AcDbEntity
  8
1
  6
DASHED
 62
     4
100
AcDbCircle
 10
2446.729337467964
 20
2238.18931440957
 30
0.0
 40
20.81940913765415
100
AcDbArc
 50
-106.8468019293422
 51
-88.83360270401408
  0
ARC
  5
2DC
330
1F
100
AcDbEntity
  8
1
  6
DASHED
 62
     4
100
AcDbCircle
 10
2478.594372463223
 20
2262.244788730916
 30
0.0
 40
20.81940913765425
100
AcDbArc
 50
-87.41639729597708
 51
-69.40319807065374
  0
ARC
  5
2DD
330
1F
100
AcDbEntity
  8
1
  6
DASHED
 62
     4
100
AcDbCircle
 10
2479.760337720455
 20
2226.628234587988
 30
0.0
 40
20.8194091376531
100
AcDbArc
 50
73.1531980706543
 51
91.16639729597956
  0
ARC
  5
2DE
330
1F
100
AcDbEntity
  8
1
  6
DASHED
 62
     4
100
AcDbCircle
 10
2479.346911368124
 20
2239.25710321896
 30
0.0
 40
20.81940913765573
100
AcDbArc
 50
-87.41639729596975
 51
-69.40319807064905
  0
ARC
  5
2DF
330
1F
100
AcDbEntity
  8
1
  6
DASHED
 62
     4
100
AcDbCircle
 10
2480.512876625357
 20
2203.640549076031
 30
0.0
 40
20.81940913765371
100
AcDbArc
 50
73.15319807065741
 51
91.16639729598595
  0
ARC
  5
2E0
330
1F
100
AcDbEntity
  8
1
  6
DASHED
 62
     4
100
AcDbCircle
 10
2447.895302725196
 20
2202.572760266644
 30
0.0
 40
20.81940913765383
100
AcDbArc
 50
92.58360270402548
 51
110.5968019293504
  0
ARC
  5
2E1
330
1F
100
AcDbEntity
  8
1
  6
DASHED
 62
     4
100
AcDbCircle
 10
2366.628805812485
 20
2196.176192715623
 30
0.0
 40
20.81940913765484
100
AcDbArc
 50
96.3336027040403
 51
114.3468019293675
  0
ARC
  5
2E2
330
1F
100
AcDbEntity
  8
1
  6
DASHED
 62
     4
100
AcDbCircle
 10
2399.106706253661
 20
2199.374986708177
 30
0.0
 40
20.81940913765534
100
AcDbArc
 50
76.90319807066197
 51
94.91639729598916
  0
ARC
  5
2E3
330
1F
100
AcDbEntity
  8
1
  6
DASHED
 62
     4
100
AcDbCircle
 10
2395.613803324197
 20
2234.839025298313
 30
0.0
 40
20.81940913765585
100
AcDbArc
 50
-83.66639729595748
 51
-65.65319807063612
  0
ARC
  5
2E4
330
1F
100
AcDbEntity
  8
1
  6
DASHED
 62
     4
100
AcDbCircle
 10
2396.852312026076
 20
2222.264235421637
 30
0.0
 40
20.81940913765483
100
AcDbArc
 50
76.90319807066807
 51
94.91639729598964
  0
ARC
  5
2E5
330
1F
100
AcDbEntity
  8
1
  6
DASHED
 62
     4
100
AcDbCircle
 10
2393.359409096612
 20
2257.728274011772
 30
0.0
 40
20.81940913765469
100
AcDbArc
 50
-83.66639729596342
 51
-65.65319807063851
  0
ARC
  5
2E6
330
1F
100
AcDbEntity
  8
1
  6
DASHED
 62
     4
100
AcDbCircle
 10
2363.135902883019
 20
2231.640231305756
 30
0.0
 40
20.81940913765373
100
AcDbArc
 50
-103.0968019293301
 51
-85.0836027039984
  0
ARC
  5
2E7
330
1F
100
AcDbEntity
  8
1
  6
DASHED
 62
     4
100
AcDbCircle
 10
2364.374411584899
 20
2219.065441429082
 30
0.0
 40
20.81940913765494
100
AcDbArc
 50
96.33360270404279
 51
114.3468019293592
  0
ARC
  5
2E8
330
1F
100
AcDbEntity
  8
1
  6
DASHED
 62
     4
100
AcDbCircle
 10
2360.881508655433
 20
2254.529480019218
 30
0.0
 40
20.81940913765574
100
AcDbArc
 50
-103.0968019293262
 51
-85.08360270400017
  0
ARC
  5
2E9
330
1F
100
AcDbEntity
  8
1
  6
DASHED
 62
     4
100
AcDbCircle
 10
2285.954662242037
 20
2184.478237506906
 30
0.0
 40
20.81940913765491
100
AcDbArc
 50
100.0836027040395
 51
118.0968019293674
  0
ARC
  5
2EA
330
1F
100
AcDbEntity
  8
1
  6
DASHED
 62
     4
100
AcDbCircle
 10
2318.153813868446
 20
2189.794338955657
 30
0.0
 40
20.81940913765329
100
AcDbArc
 50
80.65319807067174
 51
98.6663972959952
  0
ARC
  5
2EB
330
1F
100
AcDbEntity
  8
1
  6
DASHED
 62
     4
100
AcDbCircle
 10
2312.348930413339
 20
2224.953999535217
 30
0.0
 40
20.81940913765557
100
AcDbArc
 50
-79.91639729596462
 51
-61.90319807063882
  0
ARC
  5
2EC
330
1F
100
AcDbEntity
  8
1
  6
DASHED
 62
     4
100
AcDbCircle
 10
2314.407217980364
 20
2212.487135593608
 30
0.0
 40
20.81940913765352
100
AcDbArc
 50
80.65319807066804
 51
98.66639729599389
  0
ARC
  5
2ED
330
1F
100
AcDbEntity
  8
1
  6
DASHED
 62
     4
100
AcDbCircle
 10
2308.602334525257
 20
2247.646796173168
 30
0.0
 40
20.81940913765467
100
AcDbArc
 50
-79.91639729596417
 51
-61.90319807063882
  0
ARC
  5
2EE
330
1F
100
AcDbEntity
  8
1
  6
DASHED
 62
     4
100
AcDbCircle
 10
2280.14977878693
 20
2219.637898086464
 30
0.0
 40
20.81940913765344
100
AcDbArc
 50
-99.34680192933074
 51
-81.33360270400108
  0
ARC
  5
2EF
330
1F
100
AcDbEntity
  8
1
  6
DASHED
 62
     4
100
AcDbCircle
 10
2282.208066353956
 20
2207.171034144856
 30
0.0
 40
20.81940913765596
100
AcDbArc
 50
100.0836027040416
 51
118.0968019293612
  0
ARC
  5
2F0
330
1F
100
AcDbEntity
  8
1
  6
DASHED
 62
     4
100
AcDbCircle
 10
2276.403182898848
 20
2242.330694724418
 30
0.0
 40
20.81940913765643
100
AcDbArc
 50
-99.34680192932684
 51
-81.33360270400327
  0
ARC
  5
2F1
330
1F
100
AcDbEntity
  8
0
  6
DASHED
 62
     4
100
AcDbCircle
 10
1656.623004801369
 20
1860.334173058126
 30
0.0
 40
4.999999999999902
100
AcDbArc
 50
-90.00030500000986
 51
-45.00030500001952
  0
ARC
  5
2F2
330
1F
100
AcDbEntity
  8
0
  6
DASHED
 62
     4
100
AcDbCircle
 10
1654.936696549595
 20
1847.334156307368
 30
0.0
 40
7.999999999999793
100
AcDbArc
 50
89.99980199999408
 51
134.9999000000015
  0
ARC
  5
2F3
330
1F
100
AcDbEntity
  8
0
  6
DASHED
 62
     4
100
AcDbCircle
 10
1686.721422135574
 20
1870.090840910219
 30
0.0
 40
8.000000000000485
100
AcDbArc
 50
46.49990099998489
 51
104.9999999999909
  0
ARC
  5
2F4
330
1F
100
AcDbEntity
  8
0
  6
DASHED
 62
     4
100
AcDbCircle
 10
1742.839828231769
 20
1824.92863012444
 30
0.0
 40
1.999999999999855
100
AcDbArc
 50
-44.99999999995855
 51
45.0
  0
ARC
  5
2F5
330
1F
100
AcDbEntity
  8
0
  6
DASHED
 62
     4
100
AcDbCircle
 10
1741.425614669396
 20
1817.857562312576
 30
0.0
 40
1.999999999998408
100
AcDbArc
 50
135.0
 51
-134.9999999999586
  0
ARC
  5
2F6
330
1F
100
AcDbEntity
  8
0
  6
DASHED
 62
     4
100
AcDbCircle
 10
1869.828145115569
 20
1684.505284398098
 30
0.0
 40
2.999999999997976
100
AcDbArc
 50
-30.48330700004032
 51
44.99970200001996
  0
ARC
  5
2F7
330
1F
100
AcDbEntity
  8
0
  6
DASHED
 62
     4
100
AcDbCircle
 10
1862.694427642889
 20
1697.295856120268
 30
0.0
 40
1.000000000000008
100
AcDbArc
 50
134.9999999998803
 51
-134.9999999999632
  0
ARC
  5
2F8
330
1F
100
AcDbEntity
  8
0
  6
DASHED
 62
     4
100
AcDbCircle
 10
1861.987320861704
 20
1699.417176463828
 30
0.0
 40
0.9999999999998673
100
AcDbArc
 50
-45.00030500001584
 51
44.99960300000331
  0
ARC
  5
2F9
330
1F
100
AcDbEntity
  8
0
  6
DASHED
 62
     4
100
AcDbCircle
 10
1869.058388673567
 20
1673.961332341112
 30
0.0
 40
1.000000000001752
100
AcDbArc
 50
-45.00010699991806
 51
44.9997019999739
  0
ARC
  5
2FA
330
1F
100
AcDbEntity
  8
0
  6
DASHED
 62
     4
100
AcDbCircle
 10
1602.782481682475
 20
1806.493649939232
 30
0.0
 40
4.99999999999982
100
AcDbArc
 50
-44.99969500000444
 51
0.00030500000985
  0
ARC
  5
2FB
330
1F
100
AcDbEntity
  8
0
  6
DASHED
 62
     4
100
AcDbCircle
 10
1615.782498433235
 20
1808.179958191005
 30
0.0
 40
8.000000000002443
100
AcDbArc
 50
135.0001000000032
 51
-179.9998020000022
  0
ARC
  5
2FC
330
1F
100
AcDbEntity
  8
0
  6
DASHED
 62
     4
100
AcDbCircle
 10
1593.025813830382
 20
1776.395232605026
 30
0.0
 40
7.999999999998663
100
AcDbArc
 50
164.9999999999912
 51
-136.4999009999964
  0
ARC
  5
2FD
330
1F
100
AcDbEntity
  8
0
  6
DASHED
 62
     4
100
AcDbCircle
 10
1638.188024616161
 20
1720.276826508831
 30
0.0
 40
2.000000000001302
100
AcDbArc
 50
-135.0
 51
-45.00000000004145
  0
ARC
  5
2FE
330
1F
100
AcDbEntity
  8
0
  6
DASHED
 62
     4
100
AcDbCircle
 10
1645.259092428026
 20
1721.691040071205
 30
0.0
 40
1.999999999998408
100
AcDbArc
 50
45.0
 51
135.0000000000414
  0
ARC
  5
2FF
330
1F
100
AcDbEntity
  8
0
  6
DASHED
 62
     4
100
AcDbCircle
 10
1778.611370342503
 20
1593.288509625033
 30
0.0
 40
2.999999999998638
100
AcDbArc
 50
-134.99970199998
 51
-59.51669300000704
  0
ARC
  5
300
330
1F
100
AcDbEntity
  8
0
  6
DASHED
 62
     4
100
AcDbCircle
 10
1765.820798620332
 20
1600.422227097711
 30
0.0
 40
0.999999999998561
100
AcDbArc
 50
45.00000000003685
 51
135.0
  0
ARC
  5
301
330
1F
100
AcDbEntity
  8
0
  6
DASHED
 62
     4
100
AcDbCircle
 10
1763.699478276772
 20
1601.129333878897
 30
0.0
 40
0.9999999999984497
100
AcDbArc
 50
-134.9996029999296
 51
-44.99969499989205
  0
ARC
  5
302
330
1F
100
AcDbEntity
  8
0
  6
DASHED
 62
     4
100
AcDbCircle
 10
1789.155322399487
 20
1594.058266067033
 30
0.0
 40
1.000000000000672
100
AcDbArc
 50
-134.99970200002
 51
-44.99989299999903
  0
ARC
  5
303
330
1F
100
AcDbEntity
  8
1
  6
DASHED
 62
     4
100
AcDbCircle
 10
1220.785960016326
 20
1186.713471841683
 30
0.0
 40
20.81940913765551
100
AcDbArc
 50
-8.66639729598346
 51
9.34680192934093
  0
ARC
  5
304
330
1F
100
AcDbEntity
  8
1
  6
DASHED
 62
     4
100
AcDbCircle
 10
1255.945620595889
 20
1180.908588386584
 30
0.0
 40
20.81940913765584
100
AcDbArc
 50
151.9031980706503
 51
169.9163972959721
  0
ARC
  5
305
330
1F
100
AcDbEntity
  8
1
  6
DASHED
 62
     4
100
AcDbCircle
 10
1243.478756654281
 20
1182.966875953606
 30
0.0
 40
20.81940913765385
100
AcDbArc
 50
-8.66639729598669
 51
9.34680192934225
  0
ARC
  5
306
330
1F
100
AcDbEntity
  8
1
  6
DASHED
 62
     4
100
AcDbCircle
 10
1215.469858567583
 20
1154.514320215273
 30
0.0
 40
20.81940913765584
100
AcDbArc
 50
-28.09680192934969
 51
-10.08360270402536
  0
ARC
  5
307
330
1F
100
AcDbEntity
  8
1
  6
DASHED
 62
     4
100
AcDbCircle
 10
1250.629519147144
 20
1148.709436760174
 30
0.0
 40
20.81940913765649
100
AcDbArc
 50
171.3336027040195
 51
-170.6531980706582
  0
ARC
  5
308
330
1F
100
AcDbEntity
  8
1
  6
DASHED
 62
     4
100
AcDbCircle
 10
1238.162655205534
 20
1150.767724327197
 30
0.0
 40
20.81940913765616
100
AcDbArc
 50
-28.09680192935135
 51
-10.08360270402739
  0
ARC
  5
309
330
1F
100
AcDbEntity
  8
1
  6
DASHED
 62
     4
100
AcDbCircle
 10
1273.322315785096
 20
1144.962840872098
 30
0.0
 40
20.81940913765331
100
AcDbArc
 50
171.3336027040188
 51
-170.6531980706526
  0
ARC
  5
30A
330
1F
100
AcDbEntity
  8
1
  6
DASHED
 62
     4
100
AcDbCircle
 10
1278.638417233839
 20
1177.161992498507
 30
0.0
 40
20.81940913765393
100
AcDbArc
 50
151.9031980706482
 51
169.9163972959741
  0
ARC
  5
30B
330
1F
100
AcDbEntity
  8
1
  6
DASHED
 62
     4
100
AcDbCircle
 10
1208.587174721543
 20
1102.235146085096
 30
0.0
 40
20.81940913765518
100
AcDbArc
 50
-4.91639729598373
 51
13.0968019293399
  0
ARC
  5
30C
330
1F
100
AcDbEntity
  8
1
  6
DASHED
 62
     4
100
AcDbCircle
 10
1244.05121331168
 20
1098.742243155638
 30
0.0
 40
20.81940913765524
100
AcDbArc
 50
155.6531980706498
 51
173.6663972959718
  0
ARC
  5
30D
330
1F
100
AcDbEntity
  8
1
  6
DASHED
 62
     4
100
AcDbCircle
 10
1231.476423435006
 20
1099.980751857514
 30
0.0
 40
20.81940913765337
100
AcDbArc
 50
-4.91639729598416
 51
13.09680192934419
  0
ARC
  5
30E
330
1F
100
AcDbEntity
  8
1
  6
DASHED
 62
     4
100
AcDbCircle
 10
1205.388380728996
 20
1069.757245643917
 30
0.0
 40
20.81940913765495
100
AcDbArc
 50
-24.34680192934849
 51
-6.333602704026
  0
ARC
  5
30F
330
1F
100
AcDbEntity
  8
1
  6
DASHED
 62
     4
100
AcDbCircle
 10
1240.852419319131
 20
1066.264342714459
 30
0.0
 40
20.81940913765633
100
AcDbArc
 50
175.0836027040159
 51
-166.9031980706583
  0
ARC
  5
310
330
1F
100
AcDbEntity
  8
1
  6
DASHED
 62
     4
100
AcDbCircle
 10
1228.277629442455
 20
1067.502851416336
 30
0.0
 40
20.81940913765719
100
AcDbArc
 50
-24.34680192934845
 51
-6.33360270402545
  0
ARC
  5
311
330
1F
100
AcDbEntity
  8
1
  6
DASHED
 62
     4
100
AcDbCircle
 10
1263.741668032591
 20
1064.009948486879
 30
0.0
 40
20.81940913765306
100
AcDbArc
 50
175.0836027040183
 51
-166.9031980706528
  0
ARC
  5
312
330
1F
100
AcDbEntity
  8
1
  6
DASHED
 62
     4
100
AcDbCircle
 10
1266.940462025139
 20
1096.487848928057
 30
0.0
 40
20.81940913765429
100
AcDbArc
 50
155.6531980706479
 51
173.6663972959739
  0
ARC
  5
313
330
1F
100
AcDbEntity
  8
1
  6
DASHED
 62
     4
100
AcDbCircle
 10
1260.543894473961
 20
1015.221352015408
 30
0.0
 40
20.81940913765387
100
AcDbArc
 50
159.4031980706496
 51
177.4163972959748
  0
ARC
  5
314
330
1F
100
AcDbEntity
  8
1
  6
DASHED
 62
     4
100
AcDbCircle
 10
1259.476105664573
 20
982.6037781152479
 30
0.0
 40
20.81940913765365
100
AcDbArc
 50
178.8336027040172
 51
-163.1531980706554
  0
ARC
  5
315
330
1F
100
AcDbEntity
  8
1
  6
DASHED
 62
     4
100
AcDbCircle
 10
1223.859551521644
 20
983.76974337248
 30
0.0
 40
20.81940913765683
100
AcDbArc
 50
-20.59680192935065
 51
-2.58360270402713
  0
ARC
  5
316
330
1F
100
AcDbEntity
  8
1
  6
DASHED
 62
     4
100
AcDbCircle
 10
1236.488420152617
 20
983.3563170201496
 30
0.0
 40
20.81940913765568
100
AcDbArc
 50
178.8336027040186
 51
-163.1531980706578
  0
ARC
  5
317
330
1F
100
AcDbEntity
  8
1
  6
DASHED
 62
     4
100
AcDbCircle
 10
1200.871866009689
 20
984.5222822773817
 30
0.0
 40
20.81940913765473
100
AcDbArc
 50
-20.59680192934949
 51
-2.58360270402426
  0
ARC
  5
318
330
1F
100
AcDbEntity
  8
1
  6
DASHED
 62
     4
100
AcDbCircle
 10
1224.927340331035
 20
1016.38731727264
 30
0.0
 40
20.81940913765344
100
AcDbArc
 50
-1.16639729598531
 51
16.84680192934343
  0
ARC
  5
319
330
1F
100
AcDbEntity
  8
1
  6
DASHED
 62
     4
100
AcDbCircle
 10
1237.556208962006
 20
1015.97389092031
 30
0.0
 40
20.81940913765558
100
AcDbArc
 50
159.4031980706514
 51
177.4163972959726
  0
ARC
  5
31A
330
1F
100
AcDbEntity
  8
1
  6
DASHED
 62
     4
100
AcDbCircle
 10
1201.939654819076
 20
1017.139856177543
 30
0.0
 40
20.8194091376548
100
AcDbArc
 50
-1.16639729598555
 51
16.8468019293379
  0
ARC
  5
31B
330
1F
100
AcDbEntity
  8
1
  6
Continuous
 62
     7
100
AcDbCircle
 10
1259.148399294123
 20
468.472020351726
 30
0.0
 40
20.81940913765599
100
AcDbArc
 50
162.710294254817
 51
-179.276506519853
  0
ARC
  5
31C
330
1F
100
AcDbEntity
  8
1
  6
Continuous
 62
     7
100
AcDbCircle
 10
1223.523896304762
 20
467.581407776992
 30
0.0
 40
20.8194091376553
100
AcDbArc
 50
2.14069888818429
 51
20.15389811351
  0
ARC
  5
31D
330
1F
100
AcDbEntity
  8
1
  6
Continuous
 62
     7
100
AcDbCircle
 10
1236.155583426736
 20
467.8971999550421
 30
0.0
 40
20.81940913765446
100
AcDbArc
 50
162.7102942548221
 51
-179.2765065198558
  0
ARC
  5
31E
330
1F
100
AcDbEntity
  8
1
  6
Continuous
 62
     7
100
AcDbCircle
 10
1200.531080437378
 20
467.006587380307
 30
0.0
 40
20.81940913765234
100
AcDbArc
 50
2.14069888818428
 51
20.15389811351101
  0
ARC
  5
31F
330
1F
100
AcDbEntity
  8
1
  6
Continuous
 62
     7
100
AcDbCircle
 10
1259.964020630096
 20
435.8471669128181
 30
0.0
 40
20.81940913765644
100
AcDbArc
 50
-177.8593011118155
 51
-159.8461018864887
  0
ARC
  5
320
330
1F
100
AcDbEntity
  8
1
  6
Continuous
 62
     7
100
AcDbCircle
 10
1224.339517640738
 20
434.9565543380851
 30
0.0
 40
20.81940913765148
100
AcDbArc
 50
-17.28970574518947
 51
0.72349348014451
  0
ARC
  5
321
330
1F
100
AcDbEntity
  8
1
  6
Continuous
 62
     7
100
AcDbCircle
 10
1236.971204762709
 20
435.2723465161331
 30
0.0
 40
20.81940913765648
100
AcDbArc
 50
-177.8593011118129
 51
-159.8461018864917
  0
ARC
  5
322
330
1F
100
AcDbEntity
  8
1
  6
Continuous
 62
     7
100
AcDbCircle
 10
1201.346701773347
 20
434.381733941401
 30
0.0
 40
20.81940913765818
100
AcDbArc
 50
-17.2897057451834
 51
0.72349348013874
  0
CIRCLE
  5
323
330
1F
100
AcDbEntity
  8
1
  6
DASH_CENTER
 62
     3
100
AcDbCircle
 10
1305.26916872228
 20
2212.648261560271
 30
0.0
 40
28.53499999999946
  0
CIRCLE
  5
324
330
1F
100
AcDbEntity
  8
1
  6
DASH_CENTER
 62
     3
100
AcDbCircle
 10
1181.70225870993
 20
2281.414396030663
 30
0.0
 40
32.54999999999961
  0
CIRCLE
  5
325
330
1F
100
AcDbEntity
  8
1
  6
DASH_CENTER
 62
     3
100
AcDbCircle
 10
1408.554145446568
 20
2113.545135373345
 30
0.0
 40
20.54999999999996
  0
CIRCLE
  5
326
330
1F
100
AcDbEntity
  8
1
  6
DASH_CENTER
 62
     3
100
AcDbCircle
 10
1349.571519367191
 20
2054.562509293968
 30
0.0
 40
20.54999999999996
  0
CIRCLE
  5
327
330
1F
100
AcDbEntity
  8
1
  6
DASH_CENTER
 62
     3
100
AcDbCircle
 10
1467.41048519592
 20
2172.401475122697
 30
0.0
 40
20.54999999999996
  0
CIRCLE
  5
328
330
1F
100
AcDbEntity
  8
1
  6
DASH_CENTER
 62
     3
100
AcDbCircle
 10
1526.266824945272
 20
2231.257814872049
 30
0.0
 40
20.54999999999996
  0
CIRCLE
  5
329
330
1F
100
AcDbEntity
  8
1
  6
DASH_CENTER
 62
     3
100
AcDbCircle
 10
1290.715179617838
 20
1995.706169544614
 30
0.0
 40
20.54999999999905
  0
CIRCLE
  5
32A
330
1F
100
AcDbEntity
  8
1
  6
DASH_CENTER
 62
     3
100
AcDbCircle
 10
1231.858839868485
 20
1936.84982979526
 30
0.0
 40
20.55000000000018
  0
ARC
  5
32B
330
1F
100
AcDbEntity
  8
1
  6
Continuous
 62
     7
100
AcDbCircle
 10
2501.959516994631
 20
2211.153546360149
 30
0.0
 40
3.000000000000179
100
AcDbArc
 50
-89.86281923164866
 51
0.0
  0
ARC
  5
32C
330
1F
100
AcDbEntity
  8
1
  6
Continuous
 62
     7
100
AcDbCircle
 10
2499.959516994635
 20
1833.142851915063
 30
0.0
 40
5.000000000000423
100
AcDbArc
 50
-89.67259376381477
 51
0.0
  0
ARC
  5
32D
330
1F
100
AcDbEntity
  8
1
  6
Continuous
 62
     7
100
AcDbCircle
 10
2501.959516994622
 20
2261.153684172712
 30
0.0
 40
2.999999999999091
100
AcDbArc
 50
0.0
 51
90.13191672326707
  0
ARC
  5
32E
330
1F
100
AcDbEntity
  8
1
  6
Continuous
 62
     7
100
AcDbCircle
 10
2493.264542521275
 20
2287.0966943308
 30
0.0
 40
0.9999999999995748
100
AcDbArc
 50
1.00000000005432
 51
90.9999999999748
  0
ARC
  5
32F
330
1F
100
AcDbEntity
  8
1
  6
Continuous
 62
     7
100
AcDbCircle
 10
2470.268045532678
 20
2286.695288982743
 30
0.0
 40
1.000000000000468
100
AcDbArc
 50
91.00000000000131
 51
-179.0000000000239
  0
ARC
  5
330
330
1F
100
AcDbEntity
  8
1
  6
Continuous
 62
     7
100
AcDbCircle
 10
2499.959516994631
 20
2283.147703750129
 30
0.0
 40
5.0
100
AcDbArc
 50
0.0
 51
90.21621100189165
  0
ARC
  5
331
330
1F
100
AcDbEntity
  8
1
  6
Continuous
 62
     7
100
AcDbCircle
 10
1251.963108380462
 20
961.1571377459745
 30
0.0
 40
3.0
100
AcDbArc
 50
-90.0
 51
-0.13718076836436
  0
ARC
  5
332
330
1F
100
AcDbEntity
  8
1
  6
Continuous
 62
     7
100
AcDbCircle
 10
1179.968950990476
 20
963.1571377459745
 30
0.0
 40
5.000000000000433
100
AcDbArc
 50
179.7837889981319
 51
-90.0
  0
ARC
  5
333
330
1F
100
AcDbEntity
  8
1
  6
Continuous
 62
     7
100
AcDbCircle
 10
1705.07490105746
 20
2019.477880344871
 30
0.0
 40
1.000000000000479
100
AcDbArc
 50
37.50000000006942
 51
127.4999999999567
  0
ARC
  5
334
330
1F
100
AcDbEntity
  8
1
  6
Continuous
 62
     7
100
AcDbCircle
 10
1686.827774230761
 20
2005.476367477671
 30
0.0
 40
1.000000000000135
100
AcDbArc
 50
127.4999999999368
 51
-142.5000000000633
  0
ARC
  5
335
330
1F
100
AcDbEntity
  8
1
  6
Continuous
 62
     7
100
AcDbCircle
 10
2066.89565308191
 20
2212.87510152002
 30
0.0
 40
1.000000000000346
100
AcDbArc
 50
108.7500000001074
 51
-161.2500000000332
  0
ARC
  5
336
330
1F
100
AcDbEntity
  8
1
  6
Continuous
 62
     7
100
AcDbCircle
 10
2088.675046060296
 20
2220.268209221992
 30
0.0
 40
0.9999999999996152
100
AcDbArc
 50
18.74999999998403
 51
108.750000000058
  0
ARC
  5
337
330
1F
100
AcDbEntity
  8
1
  6
Continuous
 62
     7
100
AcDbCircle
 10
1457.640287262755
 20
1776.288880509665
 30
0.0
 40
1.000000000000135
100
AcDbArc
 50
52.50000000006326
 51
142.5000000000633
  0
ARC
  5
338
330
1F
100
AcDbEntity
  8
1
  6
Continuous
 62
     7
100
AcDbCircle
 10
1443.638774395554
 20
1758.041753682966
 30
0.0
 40
1.000000000000106
100
AcDbArc
 50
142.4999999999799
 51
-127.5000000000598
  0
ARC
  5
339
330
1F
100
AcDbEntity
  8
1
  6
Continuous
 62
     7
100
AcDbCircle
 10
1242.848445518434
 20
1374.441608680131
 30
0.0
 40
0.9999999999996883
100
AcDbArc
 50
161.2500000000036
 51
-108.7499999999754
  0
ARC
  5
33A
330
1F
100
AcDbEntity
  8
1
  6
Continuous
 62
     7
100
AcDbCircle
 10
1250.241553220407
 20
1396.221001658518
 30
0.0
 40
0.9999999999999036
100
AcDbArc
 50
71.25000000000783
 51
161.2500000000078
  0
ARC
  5
33B
330
1F
100
AcDbEntity
  8
1
  6
Continuous
 62
     7
100
AcDbCircle
 10
1176.421365757861
 20
992.8486092079259
 30
0.0
 40
1.000000000000026
100
AcDbArc
 50
88.99999999995916
 51
178.9999999999978
  0
ARC
  5
33C
330
1F
100
AcDbEntity
  8
1
  6
Continuous
 62
     7
100
AcDbCircle
 10
1176.019960409804
 20
969.8521122193288
 30
0.0
 40
0.9999999999997863
100
AcDbArc
 50
178.999999999998
 51
-90.99999999998875
  0
ARC
  5
33D
330
1F
100
AcDbEntity
  8
1
  6
Continuous
 62
     7
100
AcDbCircle
 10
1201.962970567892
 20
961.1571377459823
 30
0.0
 40
2.999999999999985
100
AcDbArc
 50
179.8680832767242
 51
-90.0
  0
ARC
  5
33E
330
1F
100
AcDbEntity
  8
1
  6
DASHED
 62
     4
100
AcDbCircle
 10
1164.677054078354
 20
2328.138085472075
 30
0.0
 40
11.99999999999994
100
AcDbArc
 50
45.00000000000384
 51
100.0771953162989
  0
ARC
  5
33F
330
1F
100
AcDbEntity
  8
1
  6
DASHED
 62
     4
100
AcDbCircle
 10
1134.978569268518
 20
2298.43960066224
 30
0.0
 40
11.99999999999979
100
AcDbArc
 50
169.9228046837075
 51
-134.9999999999962
  0
ARC
  5
340
330
1F
100
AcDbEntity
  8
1
  6
DASHED
 62
     4
100
AcDbCircle
 10
1178.894703705822
 20
2254.523466224936
 30
0.0
 40
11.99999999999962
100
AcDbArc
 50
-135.0000000000038
 51
-78.2506606340267
  0
ARC
  5
341
330
1F
100
AcDbEntity
  8
1
  6
DASHED
 62
     4
100
AcDbCircle
 10
1208.593188515657
 20
2284.221951034772
 30
0.0
 40
11.99999999999931
100
AcDbArc
 50
-11.74933936597096
 51
45.00000000000077
  0
ARC
  5
342
330
1F
100
AcDbEntity
  8
1
  6
Continuous
 62
     7
100
AcDbCircle
 10
1611.359516994542
 20
359.719412286098
 30
0.0
 40
6.399999999998045
100
AcDbArc
 50
180.0
 51
-90.0
  0
ARC
  5
343
330
1F
100
AcDbEntity
  8
1
  6
Continuous
 62
     7
100
AcDbCircle
 10
1611.359516994542
 20
466.9194122860992
 30
0.0
 40
6.399999999998784
100
AcDbArc
 50
90.0
 51
180.0
  0
ARC
  5
344
330
1F
100
AcDbEntity
  8
1
  6
Continuous
 62
     7
100
AcDbCircle
 10
1611.359516994542
 20
466.9194122860992
 30
0.0
 40
3.199999999999875
100
AcDbArc
 50
90.0
 51
180.0
  0
ARC
  5
345
330
1F
100
AcDbEntity
  8
1
  6
Continuous
 62
     7
100
AcDbCircle
 10
1611.359516994542
 20
359.719412286098
 30
0.0
 40
3.200000000000046
100
AcDbArc
 50
180.0
 51
-90.0
  0
ARC
  5
346
330
1F
100
AcDbEntity
  8
1
  6
Continuous
 62
     7
100
AcDbCircle
 10
1198.559516994543
 20
466.9194122860992
 30
0.0
 40
6.400000000001
100
AcDbArc
 50
0.0
 51
90.0
  0
ARC
  5
347
330
1F
100
AcDbEntity
  8
1
  6
Continuous
 62
     7
100
AcDbCircle
 10
1198.559516994543
 20
359.719412286098
 30
0.0
 40
6.39999999999992
100
AcDbArc
 50
-90.0
 51
0.0
  0
ARC
  5
348
330
1F
100
AcDbEntity
  8
1
  6
Continuous
 62
     7
100
AcDbCircle
 10
1198.559516994543
 20
359.719412286098
 30
0.0
 40
3.199999999999818
100
AcDbArc
 50
-90.0
 51
0.0
  0
ARC
  5
349
330
1F
100
AcDbEntity
  8
1
  6
Continuous
 62
     7
100
AcDbCircle
 10
1198.559516994543
 20
466.9194122860992
 30
0.0
 40
3.200000000000046
100
AcDbArc
 50
0.0
 51
90.0
  0
ARC
  5
34A
330
1F
100
AcDbEntity
  8
1
  6
Continuous
 62
     7
100
AcDbCircle
 10
1629.973802825541
 20
963.1571377459693
 30
0.0
 40
5.000000000000227
100
AcDbArc
 50
-90.0
 51
-0.32740623619044
  0
ARC
  5
34B
330
1F
100
AcDbEntity
  8
1
  6
Continuous
 62
     7
100
AcDbCircle
 10
2447.153714384713
 20
2204.367273935208
 30
0.0
 40
3.000000000000568
100
AcDbArc
 50
-88.12500000002862
 51
1.87499999998176
  0
ARC
  5
34C
330
1F
100
AcDbEntity
  8
1
  6
Continuous
 62
     7
100
AcDbCircle
 10
2481.135510358909
 20
2205.47972275115
 30
0.0
 40
2.999999999999659
100
AcDbArc
 50
-178.1250000000281
 51
-88.12499999996729
  0
ARC
  5
34D
330
1F
100
AcDbEntity
  8
1
  6
Continuous
 62
     7
100
AcDbCircle
 10
2399.607719167046
 20
2201.250944765819
 30
0.0
 40
2.999999999999598
100
AcDbArc
 50
-174.3749999999925
 51
-84.37499999997688
  0
ARC
  5
34E
330
1F
100
AcDbEntity
  8
1
  6
Continuous
 62
     7
100
AcDbCircle
 10
2365.771438460191
 20
2197.918361994605
 30
0.0
 40
3.000000000000503
100
AcDbArc
 50
-84.37499999999417
 51
5.62499999999719
  0
ARC
  5
34F
330
1F
100
AcDbEntity
  8
1
  6
Continuous
 62
     7
100
AcDbCircle
 10
2318.531060547448
 20
2191.699048255416
 30
0.0
 40
2.999999999999184
100
AcDbArc
 50
-170.6249999999936
 51
-80.62499999997209
  0
ARC
  5
350
330
1F
100
AcDbEntity
  8
1
  6
Continuous
 62
     7
100
AcDbCircle
 10
2284.985187256563
 20
2186.160602159991
 30
0.0
 40
3.000000000000679
100
AcDbArc
 50
-80.62499999998065
 51
9.37500000000646
  0
ARC
  5
351
330
1F
100
AcDbEntity
  8
1
  6
Continuous
 62
     7
100
AcDbCircle
 10
2238.252717199346
 20
2176.864935907454
 30
0.0
 40
3.000000000000072
100
AcDbArc
 50
-166.8750000000029
 51
-76.87499999998401
  0
ARC
  5
352
330
1F
100
AcDbEntity
  8
1
  6
Continuous
 62
     7
100
AcDbCircle
 10
2205.140899903919
 20
2169.144342964276
 30
0.0
 40
2.999999999999865
100
AcDbArc
 50
-76.87500000001982
 51
13.12500000002388
  0
ARC
  5
353
330
1F
100
AcDbEntity
  8
1
  6
Continuous
 62
     7
100
AcDbCircle
 10
2126.580481898681
 20
2146.942450641631
 30
0.0
 40
3.000000000000187
100
AcDbArc
 50
-73.12500000000026
 51
16.87500000001889
  0
ARC
  5
354
330
1F
100
AcDbEntity
  8
1
  6
Continuous
 62
     7
100
AcDbCircle
 10
2159.116453313574
 20
2156.812129668291
 30
0.0
 40
2.999999999999185
100
AcDbArc
 50
-163.1250000000035
 51
-73.12499999996449
  0
ARC
  5
355
330
1F
100
AcDbEntity
  8
1
  6
Continuous
 62
     7
100
AcDbCircle
 10
2081.461142521279
 20
2131.626498732856
 30
0.0
 40
2.999999999999827
100
AcDbArc
 50
-159.3750000000108
 51
-69.37499999996403
  0
ARC
  5
356
330
1F
100
AcDbEntity
  8
1
  6
Continuous
 62
     7
100
AcDbCircle
 10
2049.640341011534
 20
2119.649997103526
 30
0.0
 40
2.999999999999507
100
AcDbArc
 50
-69.37500000002704
 51
20.62500000002688
  0
ARC
  5
357
330
1F
100
AcDbEntity
  8
1
  6
Continuous
 62
     7
100
AcDbCircle
 10
1974.649946737817
 20
2087.383852826024
 30
0.0
 40
2.999999999999067
100
AcDbArc
 50
-65.62500000001548
 51
24.37500000004312
  0
ARC
  5
358
330
1F
100
AcDbEntity
  8
1
  6
Continuous
 62
     7
100
AcDbCircle
 10
2005.619316785133
 20
2101.415891839383
 30
0.0
 40
3.000000000000365
100
AcDbArc
 50
-155.6250000000029
 51
-65.62499999997988
  0
ARC
  5
359
330
1F
100
AcDbEntity
  8
1
  6
Continuous
 62
     7
100
AcDbCircle
 10
1931.915742446387
 20
2066.309675444606
 30
0.0
 40
2.999999999998952
100
AcDbArc
 50
-151.8749999999901
 51
-61.87499999995567
  0
ARC
  5
35A
330
1F
100
AcDbEntity
  8
1
  6
Continuous
 62
     7
100
AcDbCircle
 10
1901.930419458547
 20
2050.282186392514
 30
0.0
 40
3.000000000000156
100
AcDbArc
 50
-61.87500000000242
 51
28.12499999999963
  0
ARC
  5
35B
330
1F
100
AcDbEntity
  8
1
  6
Continuous
 62
     7
100
AcDbCircle
 10
1831.79315535364
 20
2008.503872834612
 30
0.0
 40
3.000000000001503
100
AcDbArc
 50
-58.124999999998
 51
31.87499999999642
  0
ARC
  5
35C
330
1F
100
AcDbEntity
  8
1
  6
Continuous
 62
     7
100
AcDbCircle
 10
1860.66602952554
 20
2026.458179756731
 30
0.0
 40
2.999999999998685
100
AcDbArc
 50
-148.1250000000105
 51
-58.1249999999645
  0
ARC
  5
35D
330
1F
100
AcDbEntity
  8
1
  6
Continuous
 62
     7
100
AcDbCircle
 10
1764.538492955597
 20
1962.227813304806
 30
0.0
 40
3.000000000000826
100
AcDbArc
 50
-54.37500000001661
 51
35.62500000000011
  0
ARC
  5
35E
330
1F
100
AcDbEntity
  8
1
  6
Continuous
 62
     7
100
AcDbCircle
 10
1792.175280231714
 20
1982.032054998309
 30
0.0
 40
2.99999999999977
100
AcDbArc
 50
-144.3750000000075
 51
-54.37499999997971
  0
ARC
  5
35F
330
1F
100
AcDbEntity
  8
1
  6
Continuous
 62
     7
100
AcDbCircle
 10
1700.454427054046
 20
1911.652168994627
 30
0.0
 40
2.999999999998391
100
AcDbArc
 50
-50.62499999999831
 51
39.37500000001813
  0
ARC
  5
360
330
1F
100
AcDbEntity
  8
1
  6
Continuous
 62
     7
100
AcDbCircle
 10
1726.736782468381
 20
1933.22154065619
 30
0.0
 40
2.99999999999927
100
AcDbArc
 50
-140.6250000000121
 51
-50.62499999999865
  0
ARC
  5
361
330
1F
100
AcDbEntity
  8
1
  6
Continuous
 62
     7
100
AcDbCircle
 10
1639.815375457488
 20
1856.993512577423
 30
0.0
 40
2.999999999999972
100
AcDbArc
 50
-46.8750000000157
 51
43.12499999999914
  0
ARC
  5
362
330
1F
100
AcDbEntity
  8
1
  6
Continuous
 62
     7
100
AcDbCircle
 10
1664.630753929217
 20
1880.235650846199
 30
0.0
 40
2.999999999999972
100
AcDbArc
 50
-136.8750000000157
 51
-46.87500000000303
  0
ARC
  5
363
330
1F
100
AcDbEntity
  8
1
  6
DASHED
 62
     4
100
AcDbCircle
 10
1691.928139986338
 20
1887.861133650042
 30
0.0
 40
5.000000000000362
100
AcDbArc
 50
45.00000000001658
 51
134.9999999999926
  0
ARC
  5
364
330
1F
100
AcDbEntity
  8
1
  6
DASHED
 62
     4
100
AcDbCircle
 10
1773.245419822791
 20
1806.54385381359
 30
0.0
 40
4.999999999998915
100
AcDbArc
 50
-45.0
 51
45.0
  0
ARC
  5
365
330
1F
100
AcDbEntity
  8
1
  6
DASHED
 62
     4
100
AcDbCircle
 10
1575.255521090558
 20
1771.188514754263
 30
0.0
 40
5.000000000000362
100
AcDbArc
 50
135.0000000000166
 51
-135.0
  0
ARC
  5
366
330
1F
100
AcDbEntity
  8
1
  6
DASHED
 62
     4
100
AcDbCircle
 10
1656.572800927011
 20
1689.87123491781
 30
0.0
 40
5.000000000001809
100
AcDbArc
 50
-135.0
 51
-45.00000000000921
  0
ARC
  5
367
330
1F
100
AcDbEntity
  8
1
  6
Continuous
 62
     7
100
AcDbCircle
 10
1582.881003894338
 20
1798.485900811319
 30
0.0
 40
3.000000000000707
100
AcDbArc
 50
-43.1250000000247
 51
46.87500000000384
  0
ARC
  5
368
330
1F
100
AcDbEntity
  8
1
  6
Continuous
 62
     7
100
AcDbCircle
 10
1606.123142163117
 20
1823.301279283043
 30
0.0
 40
2.999999999998634
100
AcDbArc
 50
-133.1250000000142
 51
-43.12499999997242
  0
ARC
  5
369
330
1F
100
AcDbEntity
  8
1
  6
Continuous
 62
     7
100
AcDbCircle
 10
1529.895114084351
 20
1736.379872272149
 30
0.0
 40
2.999999999999972
100
AcDbArc
 50
-39.3749999999769
 51
50.62500000000967
  0
ARC
  5
36A
330
1F
100
AcDbEntity
  8
1
  6
Continuous
 62
     7
100
AcDbCircle
 10
1551.464485745918
 20
1762.662227686481
 30
0.0
 40
2.999999999999846
100
AcDbArc
 50
-129.3750000000013
 51
-39.37499999998793
  0
ARC
  5
36B
330
1F
100
AcDbEntity
  8
1
  6
Continuous
 62
     7
100
AcDbCircle
 10
1500.888841435745
 20
1698.578161784926
 30
0.0
 40
2.99999999999903
100
AcDbArc
 50
-125.6250000000026
 51
-35.62499999999252
  0
ARC
  5
36C
330
1F
100
AcDbEntity
  8
1
  6
Continuous
 62
     7
100
AcDbCircle
 10
1481.084599742237
 20
1670.941374508811
 30
0.0
 40
2.99999999999977
100
AcDbArc
 50
-35.62499999999252
 51
54.37500000002014
  0
ARC
  5
36D
330
1F
100
AcDbEntity
  8
1
  6
Continuous
 62
     7
100
AcDbCircle
 10
1436.658474983929
 20
1602.450625215035
 30
0.0
 40
2.999999999999959
100
AcDbArc
 50
-31.87500000002035
 51
58.12500000002202
  0
ARC
  5
36E
330
1F
100
AcDbEntity
  8
1
  6
Continuous
 62
     7
100
AcDbCircle
 10
1454.612781906043
 20
1631.323499386938
 30
0.0
 40
3.000000000000251
100
AcDbArc
 50
-121.8749999999964
 51
-31.87499999999642
  0
ARC
  5
36F
330
1F
100
AcDbEntity
  8
1
  6
Continuous
 62
     7
100
AcDbCircle
 10
1412.834468348155
 20
1561.186235282022
 30
0.0
 40
2.999999999999955
100
AcDbArc
 50
-118.1249999999996
 51
-28.12499999999963
  0
ARC
  5
370
330
1F
100
AcDbEntity
  8
1
  6
Continuous
 62
     7
100
AcDbCircle
 10
1396.806979296069
 20
1531.20091229418
 30
0.0
 40
3.000000000000118
100
AcDbArc
 50
-28.12500000004228
 51
61.8750000000157
  0
ARC
  5
371
330
1F
100
AcDbEntity
  8
1
  6
Continuous
 62
     7
100
AcDbCircle
 10
1361.700762901306
 20
1457.497337955427
 30
0.0
 40
3.000000000000287
100
AcDbArc
 50
-24.37500000003595
 51
65.62499999999966
  0
ARC
  5
372
330
1F
100
AcDbEntity
  8
1
  6
Continuous
 62
     7
100
AcDbCircle
 10
1375.732801914658
 20
1488.466708002746
 30
0.0
 40
2.999999999999443
100
AcDbArc
 50
-114.3750000000004
 51
-24.37499999999318
  0
ARC
  5
373
330
1F
100
AcDbEntity
  8
1
  6
Continuous
 62
     7
100
AcDbCircle
 10
1343.466657637172
 20
1413.476313729024
 30
0.0
 40
2.999999999998896
100
AcDbArc
 50
-110.6249999999913
 51
-20.62499999999782
  0
ARC
  5
374
330
1F
100
AcDbEntity
  8
1
  6
Continuous
 62
     7
100
AcDbCircle
 10
1331.490156007848
 20
1381.655512219274
 30
0.0
 40
2.999999999999935
100
AcDbArc
 50
-20.625000000007
 51
69.37500000002098
  0
ARC
  5
375
330
1F
100
AcDbEntity
  8
1
  6
Continuous
 62
     7
100
AcDbCircle
 10
1306.304525072429
 20
1304.000201426975
 30
0.0
 40
2.999999999999515
100
AcDbArc
 50
-16.87500000001726
 51
73.12500000000352
  0
ARC
  5
376
330
1F
100
AcDbEntity
  8
1
  6
Continuous
 62
     7
100
AcDbCircle
 10
1316.174204099083
 20
1336.53617284187
 30
0.0
 40
2.999999999999185
100
AcDbArc
 50
-106.8749999999965
 51
-16.87499999999018
  0
ARC
  5
377
330
1F
100
AcDbEntity
  8
1
  6
Continuous
 62
     7
100
AcDbCircle
 10
1293.972311776454
 20
1257.975754836628
 30
0.0
 40
2.999999999999186
100
AcDbArc
 50
-103.1250000000011
 51
-13.12499999998117
  0
ARC
  5
378
330
1F
100
AcDbEntity
  8
1
  6
Continuous
 62
     7
100
AcDbCircle
 10
1286.251718833283
 20
1224.863937541199
 30
0.0
 40
2.999999999999393
100
AcDbArc
 50
-13.12500000001796
 51
76.87500000001982
  0
ARC
  5
379
330
1F
100
AcDbEntity
  8
1
  6
Continuous
 62
     7
100
AcDbCircle
 10
1276.956052580755
 20
1178.13146748398
 30
0.0
 40
2.999999999999261
100
AcDbArc
 50
-99.37499999998862
 51
-9.37499999998579
  0
ARC
  5
37A
330
1F
100
AcDbEntity
  8
1
  6
Continuous
 62
     7
100
AcDbCircle
 10
1271.417606485337
 20
1144.585594193094
 30
0.0
 40
3.000000000000491
100
AcDbArc
 50
-9.37500000002435
 51
80.62500000001138
  0
ARC
  5
37B
330
1F
100
AcDbEntity
  8
1
  6
Continuous
 62
     7
100
AcDbCircle
 10
1265.198292746157
 20
1097.34521628035
 30
0.0
 40
3.000000000000392
100
AcDbArc
 50
-95.62499999998423
 51
-5.62500000000584
  0
ARC
  5
37C
330
1F
100
AcDbEntity
  8
1
  6
Continuous
 62
     7
100
AcDbCircle
 10
1261.86570997495
 20
1063.508935573495
 30
0.0
 40
2.999999999999461
100
AcDbArc
 50
-5.62500000002525
 51
84.37500000001408
  0
ARC
  5
37D
330
1F
100
AcDbEntity
  8
1
  6
Continuous
 62
     7
100
AcDbCircle
 10
1257.636931989454
 20
981.9811443816955
 30
0.0
 40
3.00000000000087
100
AcDbArc
 50
-1.87500000001464
 51
88.12500000000637
  0
ARC
  5
37E
330
1F
100
AcDbEntity
  8
1
  6
Continuous
 62
     7
100
AcDbCircle
 10
1258.749380805397
 20
1015.962940355892
 30
0.0
 40
2.999999999998901
100
AcDbArc
 50
-91.87499999999415
 51
-1.87499999997411
  0
ARC
  5
37F
330
1F
100
AcDbEntity
  8
1
  6
Continuous
 62
     7
100
AcDbCircle
 10
1221.88766259065
 20
465.722410490199
 30
0.0
 40
0.50000000000102
100
AcDbArc
 50
-178.5679038158445
 51
-88.56790381584789
  0
ARC
  5
380
330
1F
100
AcDbEntity
  8
1
  6
Continuous
 62
     7
100
AcDbCircle
 10
1237.88266493318
 20
466.122285548763
 30
0.0
 40
0.4999999999999388
100
AcDbArc
 50
-88.56790381584789
 51
1.43209618416074
  0
ARC
  5
381
330
1F
100
AcDbEntity
  8
1
  6
Continuous
 62
     7
100
AcDbCircle
 10
1244.880478458033
 20
466.297230886884
 30
0.0
 40
0.4999999999999047
100
AcDbArc
 50
-178.5679038157435
 51
-88.56790381584757
  0
ARC
  5
382
330
1F
100
AcDbEntity
  8
1
  6
Continuous
 62
     7
100
AcDbCircle
 10
1222.612436134295
 20
436.731468744364
 30
0.0
 40
0.499999999998916
100
AcDbArc
 50
91.43209618415506
 51
-178.5679038158536
  0
ARC
  5
383
330
1F
100
AcDbEntity
  8
1
  6
Continuous
 62
     7
100
AcDbCircle
 10
1238.607438476824
 20
437.1313438029262
 30
0.0
 40
0.5000000000019249
100
AcDbArc
 50
1.43209618413339
 51
91.43209618414983
  0
ARC
  5
384
330
1F
100
AcDbEntity
  8
1
  6
Continuous
 62
     7
100
AcDbCircle
 10
1245.605252001681
 20
437.306289141049
 30
0.0
 40
0.4999999999980636
100
AcDbArc
 50
91.43209618415749
 51
-178.5679038157468
  0
ARC
  5
385
330
1F
100
AcDbEntity
  8
1
  6
Continuous
 62
     7
100
AcDbCircle
 10
1257.314093560236
 20
469.108852392406
 30
0.0
 40
2.999999999998588
100
AcDbArc
 50
-88.56790381586477
 51
1.43209618419069
  0
ARC
  5
386
330
1F
100
AcDbEntity
  8
1
  6
Continuous
 62
     7
100
AcDbCircle
 10
1258.163828059684
 20
435.1194724145311
 30
0.0
 40
2.999999999998609
100
AcDbArc
 50
1.43209618415151
 51
91.43209618419124
  0
TEXT
  5
387
330
1F
100
AcDbEntity
  8
1
 62
     2
100
AcDbText
 10
2400.156772692229
 20
24.71999999999969
 30
0.0
 40
32.0
  1
MCC3-C
 41
0.9
  7
CONVERTER_1
100
AcDbText
  0
MTEXT
  5
388
330
1F
100
AcDbEntity
  8
1
 62
     3
100
AcDbMText
 10
1431.610359791257
 20
266.5069399641112
 30
0.0
 40
32.0
 41
0.0
 71
     8
 72
     1
  1
一 般 断 面 図 
  7
CONVERTER_3
 73
     1
 44
1.20048019207683
  0
TEXT
  5
389
330
1F
100
AcDbEntity
  8
1
 62
     2
100
AcDbText
 10
1716.986544890392
 20
110.6975109384339
 30
0.0
 40
32.0
  1
2011.8.26
 41
0.9
  7
CONVERTER_1
100
AcDbText
  0
MTEXT
  5
38A
330
1F
100
AcDbEntity
  8
1
 62
     2
100
AcDbMText
 10
3477.853374530669
 20
50.64767547857957
 30
0.0
 40
32.0
 41
0.0
 71
     4
 72
     1
  1
W_MCC3_C_S_010
  7
CONVERTER_1
 73
     1
 44
1.32052821128451
  0
TEXT
  5
38B
330
1F
100
AcDbEntity
  8
1
 62
     2
100
AcDbText
 10
2368.999149914949
 20
131.3494563701199
 30
0.0
 40
40.0
  1
マルチベヤシリーズ
 41
0.89
  7
CONVERTER_3
100
AcDbText
  0
MTEXT
  5
38C
330
1F
100
AcDbEntity
  8
1
 62
     2
100
AcDbMText
 10
2972.900974184948
 20
148.3553215244791
 30
0.0
 40
32.0
 41
0.0
 71
     4
 72
     1
  1
本体組立図 90°カーブ 呼び幅 400 ～ 1000 mm
  7
CONVERTER_3
 73
     1
 44
1.32052821128451
  0
TEXT
  5
38D
330
1F
100
AcDbEntity
  8
1
 62
     2
100
AcDbText
 10
2020.730552397036
 20
2421.222279390958
 30
0.0
 40
50.0
  1
R
 41
0.9
  7
CONVERTER_1
100
AcDbText
  0
TEXT
  5
38E
330
1F
100
AcDbEntity
  8
1
 62
     2
100
AcDbText
 10
1026.360552397036
 20
1472.052279390957
 30
0.0
 40
50.0
  1
L
 41
0.9
  7
CONVERTER_1
100
AcDbText
  0
MTEXT
  5
38F
330
1F
100
AcDbEntity
  8
1
 62
     2
100
AcDbMText
 10
2946.892665474062
 20
613.48916183887
 30
0.0
 40
32.0
 41
0.0
 71
     1
 72
     1
  1
相当ローラピッチ 75 はローラ本数 24 本\P　　　　　　　　100 はローラ本数 18 本となります。
  7
CONVERTER_3
 73
     1
 44
1.08043217286915
  0
TEXT
  5
390
330
1F
100
AcDbEntity
  8
1
 62
     2
100
AcDbText
 10
3244.6933273703
 20
425.6797164005879
 30
0.0
 40
32.0
  1
回転方向：本図はLタイプを示す。
 41
0.89
  7
CONVERTER_3
100
AcDbText
  0
DIMENSION
  5
3A3
330
1F
100
AcDbEntity
  8
1
100
AcDbDimension
  2
*D02
 10
2826.159516994635
 20
1828.157137746063
 30
0.0
 11
2805.764549110691
 21
2068.737743043151
 31
0.0
 70
    32
  1
機 幅
 71
     5
 42
-1.0
 53
90.0
  3
ME10_DIM_0
100
AcDbAlignedDimension
 13
2506.159516994635
 23
2288.157137746064
 33
0.0
 14
2506.159516994635
 24
1828.157137746063
 34
0.0
 50
90.0
100
AcDbRotatedDimension
  0
DIMENSION
  5
3B0
330
1F
100
AcDbEntity
  8
1
100
AcDbDimension
  2
*D14
 10
2626.159516994635
 20
1862.848139049589
 30
0.0
 11
2603.659516994635
 21
2057.791797709021
 31
0.0
 70
    32
  1
ローラ幅
 71
     5
 42
-1.0
 53
90.0
  3
ME10_DIM_1
100
AcDbAlignedDimension
 13
2492.959516994636
 23
2202.865193551874
 33
0.0
 14
2498.002289368318
 24
1862.848139049589
 34
0.0
 50
90.0
100
AcDbRotatedDimension
  0
DIMENSION
  5
3BD
330
1F
100
AcDbEntity
  8
1
100
AcDbDimension
  2
*D25
 10
905.7396823497201
 20
2345.244938034909
 30
0.0
 11
987.1554722423616
 21
2459.187639862132
 31
0.0
 70
    33
  1
<>
 71
     5
 42
-1.0
 53
45.00000000000011
  3
ME10_DIM_2
100
AcDbAlignedDimension
 13
1203.622568926714
 23
2471.626120169844
 33
0.0
 14
991.4905345707497
 24
2259.494085813879
 34
0.0
  0
DIMENSION
  5
3CA
330
1F
100
AcDbEntity
  8
1
100
AcDbDimension
  2
*D36
 10
1118.769755184329
 20
1962.509237715529
 30
0.0
 11
1032.955905027326
 21
2080.849999807113
 31
0.0
 70
    32
  1
<>
 71
     5
 42
-1.0
 53
-44.99999999999996
  3
ME10_DIM_3
100
AcDbAlignedDimension
 13
991.4905345707497
 23
2259.494085813879
 33
0.0
 14
1203.622568926714
 24
2047.362051457915
 34
0.0
 50
-44.99999999999996
100
AcDbRotatedDimension
  0
DIMENSION
  5
3D9
330
1F
100
AcDbEntity
  8
1
100
AcDbDimension
  2
*D47
 10
1528.409354445587
 20
522.3456872891493
 30
0.0
 11
1484.978325737985
 21
546.8732110012061
 31
0.0
 70
    33
  1
<>
 71
     5
 42
-1.0
 52
60.00000000000001
 53
-88.56790381583564
  3
ME10_DIM_4
100
AcDbAlignedDimension
 13
1601.197896657724
 23
438.043558780273
 33
0.0
 14
1600.065750398167
 24
483.3294091625611
 34
0.0
  0
DIMENSION
  5
3E8
330
1F
100
AcDbEntity
  8
1
100
AcDbDimension
  2
*D58
 10
1646.082632003475
 20
2035.965706206642
 30
0.0
 11
1659.902249377953
 21
2100.447253620685
 31
0.0
 70
    33
  1
相当ローラピッチ
 71
     5
 42
-1.0
 52
70.0
 53
41.25000000000001
  3
ME10_DIM_5
100
AcDbAlignedDimension
 13
1807.126904414527
 23
1808.468636444977
 33
0.0
 14
1753.007984769378
 24
1761.007617713585
 34
0.0
  0
DIMENSION
  5
3F5
330
1F
100
AcDbEntity
  8
1
100
AcDbDimension
  2
*D69
 10
1174.959516994544
 20
827.2694122860994
 30
0.0
 11
1398.426051103624
 21
850.6273940018959
 31
0.0
 70
    32
  1
機 幅
 71
     5
 42
-1.0
 53
0.00013888888889
  3
ME10_DIM_6
100
AcDbAlignedDimension
 13
1634.959516994544
 23
473.319412286098
 33
0.0
 14
1174.959516994544
 24
479.319412286098
 34
0.0
100
AcDbRotatedDimension
  0
DIMENSION
  5
404
330
1F
100
AcDbEntity
  8
1
100
AcDbDimension
  2
*D710
 10
2726.159516994636
 20
1828.157137746063
 30
0.0
 11
2686.345919185031
 21
1783.13295136017
 31
0.0
 70
    32
  1
<>
 71
     5
 42
-1.0
 53
90.0
  3
ME10_DIM_7
100
AcDbAlignedDimension
 13
2504.95951699463
 23
1858.157137745975
 33
0.0
 14
2506.159516994635
 24
1828.157137746063
 34
0.0
 50
90.0
100
AcDbRotatedDimension
  0
DIMENSION
  5
413
330
1F
100
AcDbEntity
  8
1
100
AcDbDimension
  2
*D811
 10
2726.159516994635
 20
2258.157137745985
 30
0.0
 11
2688.329285793941
 21
2328.558768810311
 31
0.0
 70
    32
  1
<>
 71
     5
 42
-1.0
 53
90.0
  3
ME10_DIM_8
100
AcDbAlignedDimension
 13
2506.159516994635
 23
2288.157137746064
 33
0.0
 14
2504.95951699462
 24
2258.157137745985
 34
0.0
 50
90.0
100
AcDbRotatedDimension
  0
DIMENSION
  5
420
330
1F
100
AcDbEntity
  8
1
100
AcDbDimension
  2
*D912
 10
2726.159516994634
 20
1858.157137745975
 30
0.0
 11
2694.27938562067
 21
2060.804276607521
 31
0.0
 70
    32
  1
<>
 71
     5
 42
-1.0
 53
90.0
  3
ME10_DIM_9
100
AcDbAlignedDimension
 13
2504.95951699462
 23
2258.157137745985
 33
0.0
 14
2504.95951699463
 24
1858.157137745975
 34
0.0
 50
90.0
100
AcDbRotatedDimension
  0
DIMENSION
  5
430
330
1F
100
AcDbEntity
  8
1
100
AcDbDimension
  2
*D1013
 10
1174.959516994543
 20
727.2694122860999
 30
0.0
 11
1128.641260780943
 21
759.0449875370262
 31
0.0
 70
    32
  1
<>
 71
     5
 42
-1.0
 53
0.00013888888889
  3
ME10_DIM_10
100
AcDbAlignedDimension
 13
1204.959516994544
 23
466.9194122860992
 33
0.0
 14
1174.959516994544
 24
479.319412286098
 34
0.0
100
AcDbRotatedDimension
  0
DIMENSION
  5
440
330
1F
100
AcDbEntity
  8
1
100
AcDbDimension
  2
*D1114
 10
1604.959516994543
 20
727.2694122860999
 30
0.0
 11
1674.844893647354
 21
761.256338277376
 31
0.0
 70
    32
  1
<>
 71
     5
 42
-1.0
 53
0.00013888888889
  3
ME10_DIM_11
100
AcDbAlignedDimension
 13
1634.959516994544
 23
473.319412286098
 33
0.0
 14
1604.959516994544
 24
466.9194122860992
 34
0.0
100
AcDbRotatedDimension
  0
DIMENSION
  5
44F
330
1F
100
AcDbEntity
  8
1
100
AcDbDimension
  2
*D1215
 10
1204.959516994544
 20
727.2694122861001
 30
0.0
 11
1404.959516994544
 21
752.7694122861001
 31
0.0
 70
    32
  1
呼び幅
 71
     5
 42
-1.0
 53
0.00013888888889
  3
ME10_DIM_12
100
AcDbAlignedDimension
 13
1604.959516994544
 23
466.9194122860992
 33
0.0
 14
1204.959516994544
 24
466.9194122860992
 34
0.0
100
AcDbRotatedDimension
  0
DIMENSION
  5
45E
330
1F
100
AcDbEntity
  8
1
100
AcDbDimension
  2
*D1316
 10
1174.959516994543
 20
627.2694122860996
 30
0.0
 11
1221.517991875633
 21
656.2171781107661
 31
0.0
 70
    32
  1
<>
 71
     5
 42
-1.0
 53
0.00013888888889
  3
ME10_DIM_13
100
AcDbAlignedDimension
 13
1259.959516994544
 23
483.329409162563
 33
0.0
 14
1174.959516994544
 24
479.319412286098
 34
0.0
100
AcDbRotatedDimension
  0
DIMENSION
  5
46D
330
1F
100
AcDbEntity
  8
1
100
AcDbDimension
  2
*D1417
 10
1600.065750398167
 20
627.2694122860996
 30
0.0
 11
1677.056244387703
 21
657.3228534809362
 31
0.0
 70
    32
  1
<>
 71
     5
 42
-1.0
 53
0.00013888888889
  3
ME10_DIM_14
100
AcDbAlignedDimension
 13
1634.959516994544
 23
473.319412286098
 33
0.0
 14
1600.065750398167
 24
483.3294091625611
 34
0.0
100
AcDbRotatedDimension
  0
DIMENSION
  5
47A
330
1F
100
AcDbEntity
  8
1
100
AcDbDimension
  2
*D1518
 10
1259.959516994545
 20
627.2694122861001
 30
0.0
 11
1430.012633696357
 21
652.7694122861001
 31
0.0
 70
    32
  1
ローラ幅
 71
     5
 42
-1.0
 53
0.00013888888889
  3
ME10_DIM_15
100
AcDbAlignedDimension
 13
1600.065750398167
 23
483.3294091625611
 33
0.0
 14
1259.959516994544
 24
483.329409162563
 34
0.0
100
AcDbRotatedDimension
  0
DIMENSION
  5
487
330
1F
100
AcDbEntity
  8
1
100
AcDbDimension
  2
*D1619
 10
1754.959516994543
 20
353.3194122860981
 30
0.0
 11
1720.323738564503
 21
415.774072136296
 31
0.0
 70
    32
  1
<>
 71
     5
 42
-1.0
 53
90.0
  3
ME10_DIM_16
100
AcDbAlignedDimension
 13
1634.959516994544
 23
473.319412286098
 33
0.0
 14
1634.959516994544
 24
353.3194122860981
 34
0.0
 50
90.0
100
AcDbRotatedDimension
  0
DIMENSION
  5
496
330
1F
100
AcDbEntity
  8
1
100
AcDbDimension
  2
*D1720
 10
1754.959516994544
 20
473.3194122860982
 30
0.0
 11
1724.612997090634
 21
524.7212387000261
 31
0.0
 70
    32
  1
<>
 71
     5
 42
-1.0
 53
90.0
  3
ME10_DIM_17
100
AcDbAlignedDimension
 13
1600.065750398167
 23
483.3294091625611
 33
0.0
 14
1634.959516994544
 24
473.319412286098
 34
0.0
 50
90.0
100
AcDbRotatedDimension
  0
INSERT
  5
49E
330
1F
100
AcDbEntity
  8
1
100
AcDbBlockReference
  2
*D1821
 10
0.0
 20
0.0
 30
0.0
  0
DIMENSION
  5
4AD
330
1F
100
AcDbEntity
  8
1
100
AcDbDimension
  2
*D1922
 10
2236.737006312767
 20
1226.379648427832
 30
0.0
 11
2234.293679585209
 21
1263.081379408281
 31
0.0
 70
    37
  1
<>
 71
     5
 42
-1.0
  3
ME10_DIM_18
100
AcDb3PointAngularDimension
 13
2504.95951699463
 23
1262.529645551078
 33
0.0
 14
2162.1207699691
 24
958.1571377459691
 34
0.0
 15
2504.959516994629
 25
958.1571377459695
 35
0.0
  0
ENDSEC
  0
SECTION
  2
OBJECTS
  0
DICTIONARY
  5
C
330
0
100
AcDbDictionary
281
     1
  3
ACAD_GROUP
350
D
  3
ACAD_LAYOUT
350
1A
  3
ACAD_MLINESTYLE
350
17
  3
ACAD_PLOTSETTINGS
350
19
  3
ACAD_PLOTSTYLENAME
350
E
  0
DICTIONARY
  5
D
102
{ACAD_REACTORS
330
C
102
}
330
C
100
AcDbDictionary
281
     1
  0
DICTIONARY
  5
1A
102
{ACAD_REACTORS
330
C
102
}
330
C
100
AcDbDictionary
281
     1
  3
Layout1
350
1E
  3
Layout2
350
26
  3
Model
350
22
  0
DICTIONARY
  5
17
102
{ACAD_REACTORS
330
C
102
}
330
C
100
AcDbDictionary
281
     1
  3
Standard
350
18
  0
DICTIONARY
  5
19
102
{ACAD_REACTORS
330
C
102
}
330
C
100
AcDbDictionary
281
     1
  0
ACDBDICTIONARYWDFLT
  5
E
102
{ACAD_REACTORS
330
C
102
}
330
C
100
AcDbDictionary
281
     1
  3
Normal
350
F
100
AcDbDictionaryWithDefault
340
F
  0
LAYOUT
  5
1E
102
{ACAD_REACTORS
330
1A
102
}
330
1A
100
AcDbPlotSettings
  1

  2

  4

  6

 40
0.0
 41
0.0
 42
0.0
 43
0.0
 44
0.0
 45
0.0
 46
0.0
 47
0.0
 48
0.0
 49
0.0
140
0.0
141
0.0
142
1.0
143
1.0
 70
   688
 72
     0
 73
     0
 74
     5
  7

 75
    16
147
1.0
148
0.0
149
0.0
100
AcDbLayout
  1
Layout1
 70
     1
 71
     1
 10
0.0
 20
0.0
 11
0.0
 21
0.0
 12
0.0
 22
0.0
 32
0.0
 14
0.0
 24
0.0
 34
0.0
 15
0.0
 25
0.0
 35
0.0
146
0.0
 13
0.0
 23
0.0
 33
0.0
 16
1.0
 26
0.0
 36
0.0
 17
0.0
 27
1.0
 37
0.0
 76
     0
330
1B
  0
LAYOUT
  5
26
102
{ACAD_REACTORS
330
1A
102
}
330
1A
100
AcDbPlotSettings
  1

  2

  4

  6

 40
0.0
 41
0.0
 42
0.0
 43
0.0
 44
0.0
 45
0.0
 46
0.0
 47
0.0
 48
0.0
 49
0.0
140
0.0
141
0.0
142
1.0
143
1.0
 70
   688
 72
     0
 73
     0
 74
     5
  7

 75
    16
147
1.0
148
0.0
149
0.0
100
AcDbLayout
  1
Layout2
 70
     1
 71
     2
 10
0.0
 20
0.0
 11
0.0
 21
0.0
 12
0.0
 22
0.0
 32
0.0
 14
0.0
 24
0.0
 34
0.0
 15
0.0
 25
0.0
 35
0.0
146
0.0
 13
0.0
 23
0.0
 33
0.0
 16
1.0
 26
0.0
 36
0.0
 17
0.0
 27
1.0
 37
0.0
 76
     0
330
23
  0
LAYOUT
  5
22
102
{ACAD_REACTORS
330
1A
102
}
330
1A
100
AcDbPlotSettings
  1

  2

  4

  6

 40
0.0
 41
0.0
 42
0.0
 43
0.0
 44
0.0
 45
0.0
 46
0.0
 47
0.0
 48
0.0
 49
0.0
140
0.0
141
0.0
142
1.0
143
1.0
 70
  1712
 72
     0
 73
     0
 74
     0
  7

 75
     0
147
1.0
148
0.0
149
0.0
100
AcDbLayout
  1
Model
 70
     1
 71
     0
 10
0.0
 20
0.0
 11
0.0
 21
0.0
 12
0.0
 22
0.0
 32
0.0
 14
0.0
 24
-22.5615332095569
 34
0.0
 15
3940.0
 25
2680.0
 35
0.0
146
0.0
 13
0.0
 23
0.0
 33
0.0
 16
1.0
 26
0.0
 36
0.0
 17
0.0
 27
1.0
 37
0.0
 76
     0
330
1F
  0
MLINESTYLE
  5
18
102
{ACAD_REACTORS
330
17
102
}
330
17
100
AcDbMlineStyle
  2
Standard
 70
     0
  3

 62
   256
 51
90.0
 52
90.0
 71
     2
 49
0.5
 62
   256
  6
BYLAYER
 49
-0.5
 62
   256
  6
BYLAYER
  0
ACDBPLACEHOLDER
  5
F
102
{ACAD_REACTORS
330
E
102
}
330
E
  0
ENDSEC
  0
EOF
