  0
SECTION
  2
HEADER
  9
$ACADVER
  1
AC1015
  9
$ACADMAINTVER
 70
     6
  9
$DWGCODEPAGE
  3
DOS932
  9
$INSBASE
 10
0.0
 20
0.0
 30
0.0
  9
$EXTMIN
 10
0.0
 20
-22.5615332095569
 30
0.0
  9
$EXTMAX
 10
3940.0
 20
2680.0
 30
0.0
  9
$LIMMIN
 10
0.0
 20
0.0
  9
$LIMMAX
 10
12.0
 20
9.0
  9
$ORTHOMODE
 70
     0
  9
$REGENMODE
 70
     1
  9
$FILLMODE
 70
     1
  9
$QTEXTMODE
 70
     0
  9
$MIRRTEXT
 70
     1
  9
$LTSCALE
 40
1.0
  9
$ATTMODE
 70
     1
  9
$TEXTSIZE
 40
0.2
  9
$TRACEWID
 40
0.05
  9
$TEXTSTYLE
  7
Standard
  9
$CLAYER
  8
0
  9
$CELTYPE
  6
ByLayer
  9
$CECOLOR
 62
   256
  9
$CELTSCALE
 40
1.0
  9
$DISPSILH
 70
     0
  9
$DIMSCALE
 40
1.0
  9
$DIMASZ
 40
0.18
  9
$DIMEXO
 40
0.0625
  9
$DIMDLI
 40
0.38
  9
$DIMRND
 40
0.0
  9
$DIMDLE
 40
0.0
  9
$DIMEXE
 40
0.18
  9
$DIMTP
 40
0.0
  9
$DIMTM
 40
0.0
  9
$DIMTXT
 40
0.18
  9
$DIMCEN
 40
0.09
  9
$DIMTSZ
 40
0.0
  9
$DIMTOL
 70
     0
  9
$DIMLIM
 70
     0
  9
$DIMTIH
 70
     1
  9
$DIMTOH
 70
     1
  9
$DIMSE1
 70
     0
  9
$DIMSE2
 70
     0
  9
$DIMTAD
 70
     0
  9
$DIMZIN
 70
     0
  9
$DIMBLK
  1

  9
$DIMASO
 70
     1
  9
$DIMSHO
 70
     1
  9
$DIMPOST
  1

  9
$DIMAPOST
  1

  9
$DIMALT
 70
     0
  9
$DIMALTD
 70
     2
  9
$DIMALTF
 40
25.4
  9
$DIMLFAC
 40
1.0
  9
$DIMTOFL
 70
     0
  9
$DIMTVP
 40
0.0
  9
$DIMTIX
 70
     0
  9
$DIMSOXD
 70
     0
  9
$DIMSAH
 70
     0
  9
$DIMBLK1
  1

  9
$DIMBLK2
  1

  9
$DIMSTYLE
  2
Standard
  9
$DIMCLRD
 70
     0
  9
$DIMCLRE
 70
     0
  9
$DIMCLRT
 70
     0
  9
$DIMTFAC
 40
1.0
  9
$DIMGAP
 40
0.09
  9
$DIMJUST
 70
     0
  9
$DIMSD1
 70
     0
  9
$DIMSD2
 70
     0
  9
$DIMTOLJ
 70
     1
  9
$DIMTZIN
 70
     0
  9
$DIMALTZ
 70
     0
  9
$DIMALTTZ
 70
     0
  9
$DIMUPT
 70
     0
  9
$DIMDEC
 70
     4
  9
$DIMTDEC
 70
     4
  9
$DIMALTU
 70
     2
  9
$DIMALTTD
 70
     2
  9
$DIMTXSTY
  7
Standard
  9
$DIMAUNIT
 70
     0
  9
$DIMADEC
 70
     0
  9
$DIMALTRND
 40
0.0
  9
$DIMAZIN
 70
     0
  9
$DIMDSEP
 70
    46
  9
$DIMATFIT
 70
     3
  9
$DIMFRAC
 70
     0
  9
$DIMLDRBLK
  1

  9
$DIMLUNIT
 70
     2
  9
$DIMLWD
 70
    -2
  9
$DIMLWE
 70
    -2
  9
$DIMTMOVE
 70
     0
  9
$LUNITS
 70
     2
  9
$LUPREC
 70
     4
  9
$SKETCHINC
 40
0.1
  9
$FILLETRAD
 40
0.5
  9
$AUNITS
 70
     0
  9
$AUPREC
 70
     0
  9
$MENU
  1
.
  9
$ELEVATION
 40
0.0
  9
$PELEVATION
 40
0.0
  9
$THICKNESS
 40
0.0
  9
$LIMCHECK
 70
     0
  9
$CHAMFERA
 40
0.5
  9
$CHAMFERB
 40
0.5
  9
$CHAMFERC
 40
1.0
  9
$CHAMFERD
 40
0.0
  9
$SKPOLY
 70
     0
  9
$TDCREATE
 40
2455804.544600116
  9
$TDUCREATE
 40
2455804.169600116
  9
$TDUPDATE
 40
2455804.544600127
  9
$TDUUPDATE
 40
2455804.169600127
  9
$TDINDWG
 40
0.0000000116
  9
$TDUSRTIMER
 40
0.0000000116
  9
$USRTIMER
 70
     1
  9
$ANGBASE
 50
0.0
  9
$ANGDIR
 70
     0
  9
$PDMODE
 70
     0
  9
$PDSIZE
 40
0.0
  9
$PLINEWID
 40
0.0
  9
$SPLFRAME
 70
     0
  9
$SPLINETYPE
 70
     6
  9
$SPLINESEGS
 70
     8
  9
$HANDSEED
  5
4BF
  9
$SURFTAB1
 70
     6
  9
$SURFTAB2
 70
     6
  9
$SURFTYPE
 70
     6
  9
$SURFU
 70
     6
  9
$SURFV
 70
     6
  9
$UCSBASE
  2

  9
$UCSNAME
  2

  9
$UCSORG
 10
0.0
 20
0.0
 30
0.0
  9
$UCSXDIR
 10
1.0
 20
0.0
 30
0.0
  9
$UCSYDIR
 10
0.0
 20
1.0
 30
0.0
  9
$UCSORTHOREF
  2

  9
$UCSORTHOVIEW
 70
     0
  9
$UCSORGTOP
 10
0.0
 20
0.0
 30
0.0
  9
$UCSORGBOTTOM
 10
0.0
 20
0.0
 30
0.0
  9
$UCSORGLEFT
 10
0.0
 20
0.0
 30
0.0
  9
$UCSORGRIGHT
 10
0.0
 20
0.0
 30
0.0
  9
$UCSORGFRONT
 10
0.0
 20
0.0
 30
0.0
  9
$UCSORGBACK
 10
0.0
 20
0.0
 30
0.0
  9
$PUCSBASE
  2

  9
$PUCSNAME
  2

  9
$PUCSORG
 10
0.0
 20
0.0
 30
0.0
  9
$PUCSXDIR
 10
1.0
 20
0.0
 30
0.0
  9
$PUCSYDIR
 10
0.0
 20
1.0
 30
0.0
  9
$PUCSORTHOREF
  2

  9
$PUCSORTHOVIEW
 70
     0
  9
$PUCSORGTOP
 10
0.0
 20
0.0
 30
0.0
  9
$PUCSORGBOTTOM
 10
0.0
 20
0.0
 30
0.0
  9
$PUCSORGLEFT
 10
0.0
 20
0.0
 30
0.0
  9
$PUCSORGRIGHT
 10
0.0
 20
0.0
 30
0.0
  9
$PUCSORGFRONT
 10
0.0
 20
0.0
 30
0.0
  9
$PUCSORGBACK
 10
0.0
 20
0.0
 30
0.0
  9
$USERI1
 70
     0
  9
$USERI2
 70
     0
  9
$USERI3
 70
     0
  9
$USERI4
 70
     0
  9
$USERI5
 70
     0
  9
$USERR1
 40
14.0
  9
$USERR2
 40
0.0
  9
$USERR3
 40
0.0
  9
$USERR4
 40
0.0
  9
$USERR5
 40
0.0
  9
$WORLDVIEW
 70
     1
  9
$SHADEDGE
 70
     3
  9
$SHADEDIF
 70
    70
  9
$TILEMODE
 70
     1
  9
$MAXACTVP
 70
    64
  9
$PINSBASE
 10
0.0
 20
0.0
 30
0.0
  9
$PLIMCHECK
 70
     0
  9
$PEXTMIN
 10
1.00000000000000E+20
 20
1.00000000000000E+20
 30
1.00000000000000E+20
  9
$PEXTMAX
 10
-1.00000000000000E+20
 20
-1.00000000000000E+20
 30
-1.00000000000000E+20
  9
$PLIMMIN
 10
0.0
 20
0.0
  9
$PLIMMAX
 10
12.0
 20
9.0
  9
$UNITMODE
 70
     0
  9
$VISRETAIN
 70
     1
  9
$PLINEGEN
 70
     0
  9
$PSLTSCALE
 70
     1
  9
$TREEDEPTH
 70
  3020
  9
$CMLSTYLE
  2
Standard
  9
$CMLJUST
 70
     0
  9
$CMLSCALE
 40
1.0
  9
$PROXYGRAPHICS
 70
     1
  9
$MEASUREMENT
 70
     1
  9
$CELWEIGHT
370
    -1
  9
$ENDCAPS
280
     0
  9
$JOINSTYLE
280
     0
  9
$LWDISPLAY
290
     0
  9
$INSUNITS
 70
     1
  9
$HYPERLINKBASE
  1

  9
$STYLESHEET
  1

  9
$XEDIT
290
     1
  9
$CEPSNTYPE
380
     0
  9
$PSTYLEMODE
290
     1
  9
$FINGERPRINTGUID
  2
{E217D5EE-EBA1-4D63-B5C0-47DB262D254A}
  9
$VERSIONGUID
  2
{FAEB1C32-E019-11D5-929B-00C0DF256EC4}
  9
$EXTNAMES
290
     1
  9
$PSVPSCALE
 40
0.0
  9
$OLESTARTUP
290
     0
  0
ENDSEC
  0
SECTION
  2
CLASSES
  0
CLASS
  1
ACDBDICTIONARYWDFLT
  2
AcDbDictionaryWithDefault
  3
ObjectDBX Classes
 90
        0
280
     0
281
     0
  0
CLASS
  1

  2
exOdDbCircle
  3

 90
        0
280
     0
281
     1
  0
CLASS
  1
ACDBPLACEHOLDER
  2
AcDbPlaceHolder
  3
ObjectDBX Classes
 90
        0
280
     0
281
     0
  0
CLASS
  1
LAYOUT
  2
AcDbLayout
  3
ObjectDBX Classes
 90
        0
280
     0
281
     0
  0
ENDSEC
  0
SECTION
  2
TABLES
  0
TABLE
  2
VPORT
  5
8
330
0
100
AcDbSymbolTable
 70
     1
  0
VPORT
  5
29
330
8
100
AcDbSymbolTableRecord
100
AcDbViewportTableRecord
  2
*Active
 70
     0
 10
0.0
 20
0.0
 11
1.0
 21
1.0
 12
1970.0
 22
1328.719233395222
 13
0.0
 23
0.0
 14
0.5
 24
0.5
 15
0.5
 25
0.5
 16
0.0
 26
0.0
 36
1.0
 17
0.0
 27
0.0
 37
0.0
 40
2972.817686530513
 41
1.60267857142857
 42
50.0
 43
0.0
 44
0.0
 50
0.0
 51
0.0
 71
     0
 72
   100
 73
     1
 74
     3
 75
     0
 76
     0
 77
     0
 78
     0
281
     0
 65
     1
110
0.0
120
0.0
130
0.0
111
1.0
121
0.0
131
0.0
112
0.0
122
1.0
132
0.0
 79
     0
146
0.0
  0
ENDTAB
  0
TABLE
  2
LTYPE
  5
5
330
0
100
AcDbSymbolTable
 70
     8
  0
LTYPE
  5
14
330
5
100
AcDbSymbolTableRecord
100
AcDbLinetypeTableRecord
  2
ByBlock
 70
     0
  3

 72
    65
 73
     0
 40
0.0
  0
LTYPE
  5
15
330
5
100
AcDbSymbolTableRecord
100
AcDbLinetypeTableRecord
  2
ByLayer
 70
     0
  3

 72
    65
 73
     0
 40
0.0
  0
LTYPE
  5
16
330
5
100
AcDbSymbolTableRecord
100
AcDbLinetypeTableRecord
  2
Continuous
 70
     0
  3
Solid line
 72
    65
 73
     0
 40
0.0
  0
LTYPE
  5
2A
330
5
100
AcDbSymbolTableRecord
100
AcDbLinetypeTableRecord
  2
DASHED
 70
     0
  3
Dashed
 72
    65
 73
     2
 40
15.0
 49
7.0
 74
     0
 49
-8.0
 74
     0
  0
LTYPE
  5
2B
330
5
100
AcDbSymbolTableRecord
100
AcDbLinetypeTableRecord
  2
DOTTED
 70
     0
  3
Dotted
 72
    65
 73
     2
 40
1.0
 49
0.0
 74
     0
 49
-1.0
 74
     0
  0
LTYPE
  5
2C
330
5
100
AcDbSymbolTableRecord
100
AcDbLinetypeTableRecord
  2
DOT_CENTER
 70
     0
  3
Dot_Center
 72
    65
 73
     4
 40
14.0
 49
12.0
 74
     0
 49
-1.0
 74
     0
 49
0.0
 74
     0
 49
-1.0
 74
     0
  0
LTYPE
  5
2D
330
5
100
AcDbSymbolTableRecord
100
AcDbLinetypeTableRecord
  2
LONG_DASHED
 70
     0
  3
Long_Dashed
 72
    65
 73
     2
 40
15.0
 49
10.0
 74
     0
 49
-5.0
 74
     0
  0
LTYPE
  5
2E
330
5
100
AcDbSymbolTableRecord
100
AcDbLinetypeTableRecord
  2
DASH_CENTER
 70
     0
  3
Dash_Center
 72
    65
 73
     4
 40
14.0
 49
11.0
 74
     0
 49
-1.0
 74
     0
 49
1.0
 74
     0
 49
-1.0
 74
     0
  0
LTYPE
  5
2F
330
5
100
AcDbSymbolTableRecord
100
AcDbLinetypeTableRecord
  2
PHANTOM
 70
     0
  3
Phantom
 72
    65
 73
     6
 40
13.0
 49
10.0
 74
     0
 49
-1.0
 74
     0
 49
0.0
 74
     0
 49
-1.0
 74
     0
 49
0.0
 74
     0
 49
-1.0
 74
     0
  0
LTYPE
  5
30
330
5
100
AcDbSymbolTableRecord
100
AcDbLinetypeTableRecord
  2
CENTER_DASH_DASH
 70
     0
  3
Center_Dash_Dash
 72
    65
 73
     6
 40
14.0
 49
9.0
 74
     0
 49
-1.0
 74
     0
 49
1.0
 74
     0
 49
-1.0
 74
     0
 49
1.0
 74
     0
 49
-1.0
 74
     0
  0
ENDTAB
  0
TABLE
  2
LAYER
  5
2
330
0
100
AcDbSymbolTable
 70
     2
  0
LAYER
  5
10
330
2
100
AcDbSymbolTableRecord
100
AcDbLayerTableRecord
  2
0
 70
     0
 62
     7
  6
Continuous
370
    -3
390
F
  0
LAYER
  5
31
330
2
100
AcDbSymbolTableRecord
100
AcDbLayerTableRecord
  2
1
 70
     0
 62
     7
  6
Continuous
370
    -3
390
F
  0
ENDTAB
  0
TABLE
  2
STYLE
  5
3
330
0
100
AcDbSymbolTable
 70
     6
  0
STYLE
  5
11
330
3
100
AcDbSymbolTableRecord
100
AcDbTextStyleTableRecord
  2
Standard
 70
     0
 40
0.0
 41
1.0
 50
0.0
 71
     0
 42
0.2
  3
txt
  4

  0
STYLE
  5
4A
330
3
100
AcDbSymbolTableRecord
100
AcDbTextStyleTableRecord
  2
CONVERTER_1
 70
     0
 40
0.0
 41
0.9
 50
0.0
 71
     0
 42
0.2
  3
txt.shx
  4

  0
STYLE
  5
4D
330
3
100
AcDbSymbolTableRecord
100
AcDbTextStyleTableRecord
  2
CONVERTER_2
 70
     0
 40
0.0
 41
1.068
 50
0.0
 71
     0
 42
0.2
  3
msmincho.ttc
  4

1001
ACAD
1000
MS Mincho
1071
    32785
  0
STYLE
  5
50
330
3
100
AcDbSymbolTableRecord
100
AcDbTextStyleTableRecord
  2
CONVERTER_3
 70
     0
 40
0.0
 41
0.89
 50
0.0
 71
     0
 42
0.2
  3
MSMINCHO.TTC
  4

1001
ACAD
1000
MS Mincho
1071
    32785
  0
STYLE
  5
53
330
3
100
AcDbSymbolTableRecord
100
AcDbTextStyleTableRecord
  2
CONVERTER_4
 70
     0
 40
0.0
 41
0.801
 50
0.0
 71
     0
 42
0.2
  3
msmincho.ttc
  4

1001
ACAD
1000
MS Mincho
1071
    32785
  0
STYLE
  5
57
330
3
100
AcDbSymbolTableRecord
100
AcDbTextStyleTableRecord
  2
CONVERTER_5
 70
     0
 40
0.0
 41
0.9025
 50
0.0
 71
     0
 42
0.2
  3
complex.shx
  4

  0
ENDTAB
  0
TABLE
  2
VIEW
  5
6
330
0
100
AcDbSymbolTable
 70
     0
  0
ENDTAB
  0
TABLE
  2
UCS
  5
7
330
0
100
AcDbSymbolTable
 70
     0
  0
ENDTAB
  0
TABLE
  2
APPID
  5
9
330
0
100
AcDbSymbolTable
 70
     1
  0
APPID
  5
12
330
9
100
AcDbSymbolTableRecord
100
AcDbRegAppTableRecord
  2
ACAD
 70
     0
  0
ENDTAB
  0
TABLE
  2
DIMSTYLE
  5
A
330
0
100
AcDbSymbolTable
 70
    19
100
AcDbDimStyleTable
  0
DIMSTYLE
105
27
330
A
100
AcDbSymbolTableRecord
100
AcDbDimStyleTableRecord
  2
Standard
 70
     0
340
11
  0
DIMSTYLE
105
3C2
102
{ACAD_REACTORS
330
3C3
102
}
330
A
100
AcDbSymbolTableRecord
100
AcDbDimStyleTableRecord
  2
ME10_DIM_0
 70
     0
 41
32.0
 42
10.0
 44
10.0
 73
     0
 74
     0
 77
     1
 78
     8
140
32.0
147
10.0
172
     1
173
     1
176
     2
177
     2
178
     2
271
     2
340
50
343
3BC
344
3BC
  0
DIMSTYLE
105
3CF
102
{ACAD_REACTORS
330
3D0
102
}
330
A
100
AcDbSymbolTableRecord
100
AcDbDimStyleTableRecord
  2
ME10_DIM_1
 70
     0
 41
32.0
 42
10.0
 44
10.0
 73
     0
 74
     0
 77
     1
 78
     8
140
32.0
147
7.0
172
     1
173
     1
176
     2
177
     2
178
     2
271
     2
340
50
343
3BC
344
3BC
  0
DIMSTYLE
105
3DC
102
{ACAD_REACTORS
330
3DD
102
}
330
A
100
AcDbSymbolTableRecord
100
AcDbDimStyleTableRecord
  2
ME10_DIM_2
 70
     0
 41
32.0
 42
10.0
 44
10.0
 73
     0
 74
     0
 77
     1
 78
     8
140
32.0
147
10.0
172
     1
173
     1
176
     2
177
     2
178
     2
271
     2
340
50
343
3BC
344
3BC
  0
DIMSTYLE
105
3EB
102
{ACAD_REACTORS
330
3EC
102
}
330
A
100
AcDbSymbolTableRecord
100
AcDbDimStyleTableRecord
  2
ME10_DIM_3
 70
     0
 41
32.0
 42
10.0
 44
10.0
 73
     0
 74
     0
 77
     1
 78
     8
140
32.0
147
7.0
172
     1
173
     1
176
     2
177
     2
178
     2
271
     2
340
50
343
3BC
344
3BC
  0
DIMSTYLE
105
3F8
102
{ACAD_REACTORS
330
3F9
102
}
330
A
100
AcDbSymbolTableRecord
100
AcDbDimStyleTableRecord
  2
ME10_DIM_4
 70
     0
 41
25.00000000000002
 42
10.0
 44
10.0
 73
     0
 74
     0
 77
     1
 78
     8
140
32.0
147
10.0
172
     1
173
     1
176
     2
177
     2
178
     2
271
     2
340
4A
343
3BC
344
3BC
  0
DIMSTYLE
105
407
102
{ACAD_REACTORS
330
408
102
}
330
A
100
AcDbSymbolTableRecord
100
AcDbDimStyleTableRecord
  2
ME10_DIM_5
 70
     0
 41
32.0
 42
10.0
 44
10.0
 73
     0
 74
     0
 77
     1
 78
     8
140
32.0
147
10.0
172
     1
173
     1
176
     2
177
     2
178
     2
271
     0
340
4A
343
3BC
344
3BC
  0
DIMSTYLE
105
416
102
{ACAD_REACTORS
330
417
102
}
330
A
100
AcDbSymbolTableRecord
100
AcDbDimStyleTableRecord
  2
ME10_DIM_6
 70
     0
 41
32.0
 42
10.0
 44
10.0
 73
     0
 74
     0
 77
     1
 78
     8
140
32.0
147
10.0
172
     1
173
     1
176
     2
177
     2
178
     2
271
     0
340
4A
343
3BC
344
3BC
  0
DIMSTYLE
105
423
102
{ACAD_REACTORS
330
424
102
}
330
A
100
AcDbSymbolTableRecord
100
AcDbDimStyleTableRecord
  2
ME10_DIM_7
 70
     0
 41
32.0
 42
10.0
 44
10.0
 73
     0
 74
     0
 77
     1
 78
     8
140
32.0
147
10.0
172
     1
173
     1
176
     2
177
     2
178
     2
271
     0
340
50
343
3BC
344
3BC
  0
DIMSTYLE
105
433
102
{ACAD_REACTORS
330
434
102
}
330
A
100
AcDbSymbolTableRecord
100
AcDbDimStyleTableRecord
  2
ME10_DIM_8
 70
     0
 41
32.0
 42
10.0
 44
10.0
 73
     0
 74
     0
 77
     1
 78
     8
140
32.0
147
10.0
172
     1
173
     1
176
     2
177
     2
178
     2
271
     2
340
4A
343
3BC
344
3BC
  0
DIMSTYLE
105
443
102
{ACAD_REACTORS
330
444
102
}
330
A
100
AcDbSymbolTableRecord
100
AcDbDimStyleTableRecord
  2
ME10_DIM_9
 70
     0
 41
32.0
 42
10.0
 44
10.0
 73
     0
 74
     0
 77
     1
 78
     8
140
32.0
147
10.0
172
     1
173
     1
176
     2
177
     2
178
     2
271
     2
340
4A
343
3BC
344
3BC
  0
DIMSTYLE
105
452
102
{ACAD_REACTORS
330
453
102
}
330
A
100
AcDbSymbolTableRecord
100
AcDbDimStyleTableRecord
  2
ME10_DIM_10
 70
     0
 41
32.0
 42
10.0
 44
10.0
 73
     0
 74
     0
 77
     1
 78
     8
140
32.0
147
10.0
172
     1
173
     1
176
     2
177
     2
178
     2
271
     2
340
50
343
3BC
344
3BC
  0
DIMSTYLE
105
461
102
{ACAD_REACTORS
330
462
102
}
330
A
100
AcDbSymbolTableRecord
100
AcDbDimStyleTableRecord
  2
ME10_DIM_11
 70
     0
 41
32.0
 42
10.0
 44
10.0
 73
     0
 74
     0
 77
     1
 78
     8
140
32.0
147
10.0
172
     1
173
     1
176
     2
177
     2
178
     2
271
     2
340
4A
343
3BC
344
3BC
  0
DIMSTYLE
105
470
102
{ACAD_REACTORS
330
471
102
}
330
A
100
AcDbSymbolTableRecord
100
AcDbDimStyleTableRecord
  2
ME10_DIM_12
 70
     0
 41
32.0
 42
10.0
 44
10.0
 73
     0
 74
     0
 77
     1
 78
     8
140
32.0
147
10.0
172
     1
173
     1
176
     2
177
     2
178
     2
271
     2
340
4A
343
3BC
344
3BC
  0
DIMSTYLE
105
47D
102
{ACAD_REACTORS
330
47E
102
}
330
A
100
AcDbSymbolTableRecord
100
AcDbDimStyleTableRecord
  2
ME10_DIM_13
 70
     0
  3
　(呼び幅）
 41
32.0
 42
10.0
 44
10.0
 73
     0
 74
     0
 77
     1
 78
     8
140
32.0
147
10.0
172
     1
173
     1
176
     2
177
     2
178
     2
271
     2
340
50
343
3BC
344
3BC
  0
DIMSTYLE
105
48A
102
{ACAD_REACTORS
330
48B
102
}
330
A
100
AcDbSymbolTableRecord
100
AcDbDimStyleTableRecord
  2
ME10_DIM_14
 70
     0
 41
25.00000000000002
 42
10.0
 44
10.0
 73
     0
 74
     0
 77
     1
 78
     8
140
32.0
147
10.0
172
     1
173
     1
176
     2
177
     2
178
     2
271
     2
340
4A
343
3BC
344
3BC
  0
DIMSTYLE
105
497
102
{ACAD_REACTORS
330
498
102
}
330
A
100
AcDbSymbolTableRecord
100
AcDbDimStyleTableRecord
  2
ME10_DIM_15
 70
     0
 41
32.0
 42
10.0
 44
10.0
 73
     0
 74
     0
 77
     1
 78
     8
140
32.0
147
7.0
172
     1
173
     1
176
     2
177
     2
178
     2
271
     2
340
4A
343
3BC
344
3BC
  0
DIMSTYLE
105
4A6
102
{ACAD_REACTORS
330
4A7
102
}
330
A
100
AcDbSymbolTableRecord
100
AcDbDimStyleTableRecord
  2
ME10_DIM_16
 70
     0
 41
32.0
 42
10.0
 44
10.0
 73
     0
 74
     0
 77
     1
 78
     8
140
32.0
147
7.0
172
     1
173
     1
176
     2
177
     2
178
     2
271
     2
340
4A
343
3BC
344
3BC
  0
DIMSTYLE
105
4BD
102
{ACAD_REACTORS
330
4BE
102
}
330
A
100
AcDbSymbolTableRecord
100
AcDbDimStyleTableRecord
  2
ME10_DIM_17
 70
     0
 41
25.0
 42
10.0
 44
10.0
 73
     0
 74
     0
 77
     1
 78
     8
140
31.99999999999998
147
10.0
172
     1
173
     1
176
     2
177
     2
178
     2
271
     2
340
4A
343
3BC
344
3BC
  0
ENDTAB
  0
TABLE
  2
BLOCK_RECORD
  5
1
330
0
100
AcDbSymbolTable
 70
    22
  0
BLOCK_RECORD
  5
1F
330
1
100
AcDbSymbolTableRecord
100
AcDbBlockTableRecord
  2
*Model_Space
340
22
  0
BLOCK_RECORD
  5
1B
330
1
100
AcDbSymbolTableRecord
100
AcDbBlockTableRecord
  2
*Paper_Space
340
1E
  0
BLOCK_RECORD
  5
23
330
1
100
AcDbSymbolTableRecord
100
AcDbBlockTableRecord
  2
*Paper_Space0
340
26
  0
BLOCK_RECORD
  5
32
330
1
100
AcDbSymbolTableRecord
100
AcDbBlockTableRecord
  2
Zuwaku-A3-web
340
0
102
{BLKREFS
331
35
102
}
  0
BLOCK_RECORD
  5
3B1
330
1
100
AcDbSymbolTableRecord
100
AcDbBlockTableRecord
  2
*D02
340
0
  0
BLOCK_RECORD
  5
3BC
330
1
100
AcDbSymbolTableRecord
100
AcDbBlockTableRecord
  2
_Open30
340
0
  0
BLOCK_RECORD
  5
3C4
330
1
100
AcDbSymbolTableRecord
100
AcDbBlockTableRecord
  2
*D14
340
0
  0
BLOCK_RECORD
  5
3D1
330
1
100
AcDbSymbolTableRecord
100
AcDbBlockTableRecord
  2
*D25
340
0
  0
BLOCK_RECORD
  5
3DE
330
1
100
AcDbSymbolTableRecord
100
AcDbBlockTableRecord
  2
*D36
340
0
  0
BLOCK_RECORD
  5
3ED
330
1
100
AcDbSymbolTableRecord
100
AcDbBlockTableRecord
  2
*D47
340
0
  0
BLOCK_RECORD
  5
3FA
330
1
100
AcDbSymbolTableRecord
100
AcDbBlockTableRecord
  2
*D58
340
0
  0
BLOCK_RECORD
  5
409
330
1
100
AcDbSymbolTableRecord
100
AcDbBlockTableRecord
  2
*D69
340
0
  0
BLOCK_RECORD
  5
418
330
1
100
AcDbSymbolTableRecord
100
AcDbBlockTableRecord
  2
*D710
340
0
  0
BLOCK_RECORD
  5
425
330
1
100
AcDbSymbolTableRecord
100
AcDbBlockTableRecord
  2
*D811
340
0
  0
BLOCK_RECORD
  5
435
330
1
100
AcDbSymbolTableRecord
100
AcDbBlockTableRecord
  2
*D912
340
0
  0
BLOCK_RECORD
  5
445
330
1
100
AcDbSymbolTableRecord
100
AcDbBlockTableRecord
  2
*D1013
340
0
  0
BLOCK_RECORD
  5
454
330
1
100
AcDbSymbolTableRecord
100
AcDbBlockTableRecord
  2
*D1114
340
0
  0
BLOCK_RECORD
  5
463
330
1
100
AcDbSymbolTableRecord
100
AcDbBlockTableRecord
  2
*D1215
340
0
  0
BLOCK_RECORD
  5
472
330
1
100
AcDbSymbolTableRecord
100
AcDbBlockTableRecord
  2
*D1316
340
0
  0
BLOCK_RECORD
  5
47F
330
1
100
AcDbSymbolTableRecord
100
AcDbBlockTableRecord
  2
*D1417
340
0
  0
BLOCK_RECORD
  5
48C
330
1
100
AcDbSymbolTableRecord
100
AcDbBlockTableRecord
  2
*D1518
340
0
  0
BLOCK_RECORD
  5
499
330
1
100
AcDbSymbolTableRecord
100
AcDbBlockTableRecord
  2
*D1619
340
0
  0
BLOCK_RECORD
  5
4A8
330
1
100
AcDbSymbolTableRecord
100
AcDbBlockTableRecord
  2
*D1720
340
0
102
{BLKREFS
331
4AF
102
}
  0
BLOCK_RECORD
  5
4B0
330
1
100
AcDbSymbolTableRecord
100
AcDbBlockTableRecord
  2
*D1821
340
0
  0
ENDTAB
  0
ENDSEC
  0
SECTION
  2
BLOCKS
  0
BLOCK
  5
20
330
1F
100
AcDbEntity
  8
0
100
AcDbBlockBegin
  2
*Model_Space
 70
     0
 71
     0
 10
0.0
 20
0.0
 30
0.0
  3
*Model_Space
  1

  0
ENDBLK
  5
21
330
1F
100
AcDbEntity
  8
0
100
AcDbBlockEnd
  0
BLOCK
  5
1C
330
1B
100
AcDbEntity
 67
     1
  8
0
100
AcDbBlockBegin
  2
*Paper_Space
 70
     0
 71
     0
 10
0.0
 20
0.0
 30
0.0
  3
*Paper_Space
  1

  0
ENDBLK
  5
1D
330
1B
100
AcDbEntity
 67
     1
  8
0
100
AcDbBlockEnd
  0
BLOCK
  5
24
330
23
100
AcDbEntity
  8
0
100
AcDbBlockBegin
  2
*Paper_Space0
 70
     0
 71
     0
 10
0.0
 20
0.0
 30
0.0
  3
*Paper_Space0
  1

  0
ENDBLK
  5
25
330
23
100
AcDbEntity
  8
0
100
AcDbBlockEnd
  0
BLOCK
  5
33
330
32
100
AcDbEntity
  8
0
100
AcDbBlockBegin
  2
Zuwaku-A3-web
 70
     0
 71
     0
 10
196.9999999999998
 20
134.0
 30
0.0
  3
Zuwaku-A3-web
  1

  0
LINE
  5
36
330
32
100
AcDbEntity
  8
1
  6
Continuous
 62
     4
100
AcDbLine
 10
189.4945771572093
 20
2.13397584248199
 30
0.0
 11
195.2266254722454
 21
7.866024157518
 31
0.0
  0
LINE
  5
37
330
32
100
AcDbEntity
  8
1
  6
Continuous
 62
     7
100
AcDbLine
 10
0.0
 20
0.0
 30
0.0
 11
394.0
 21
0.0
 31
0.0
  0
LINE
  5
38
330
32
100
AcDbEntity
  8
1
  6
Continuous
 62
     4
100
AcDbLine
 10
162.5
 20
15.0
 30
0.0
 11
202.0
 21
15.0
 31
0.0
  0
LINE
  5
39
330
32
100
AcDbEntity
  8
1
  6
Continuous
 62
     3
100
AcDbLine
 10
9.5
 20
12.5
 30
0.0
 11
6.0
 21
19.0
 31
0.0
  0
LINE
  5
3A
330
32
100
AcDbEntity
  8
1
  6
Continuous
 62
     3
100
AcDbLine
 10
2.5
 20
12.5
 30
0.0
 11
9.5
 21
12.5
 31
0.0
  0
LINE
  5
3B
330
32
100
AcDbEntity
  8
1
  6
Continuous
 62
     3
100
AcDbLine
 10
6.0
 20
19.0
 30
0.0
 11
2.5
 21
12.5
 31
0.0
  0
LINE
  5
3C
330
32
100
AcDbEntity
  8
1
  6
Continuous
 62
     4
100
AcDbLine
 10
12.0
 20
20.0
 30
0.0
 11
12.0
 21
0.0
 31
0.0
  0
LINE
  5
3D
330
32
100
AcDbEntity
  8
1
  6
Continuous
 62
     4
100
AcDbLine
 10
0.0
 20
10.0
 30
0.0
 11
394.0
 21
10.0
 31
0.0
  0
LINE
  5
3E
330
32
100
AcDbEntity
  8
1
  6
Continuous
 62
     7
100
AcDbLine
 10
393.9999999999996
 20
268.0
 30
0.0
 11
0.0
 21
268.0
 31
0.0
  0
LINE
  5
3F
330
32
100
AcDbEntity
  8
1
  6
Continuous
 62
     7
100
AcDbLine
 10
394.0
 20
0.0
 30
0.0
 11
393.9999999999996
 21
268.0
 31
0.0
  0
LINE
  5
40
330
32
100
AcDbEntity
  8
1
  6
Continuous
 62
     4
100
AcDbLine
 10
202.0
 20
0.0
 30
0.0
 11
202.0
 21
20.0
 31
0.0
  0
LINE
  5
41
330
32
100
AcDbEntity
  8
1
  6
Continuous
 62
     4
100
AcDbLine
 10
162.5
 20
0.0
 30
0.0
 11
162.5
 21
20.0
 31
0.0
  0
LINE
  5
42
330
32
100
AcDbEntity
  8
1
  6
Continuous
 62
     4
100
AcDbLine
 10
283.0
 20
20.0
 30
0.0
 11
283.0
 21
0.0
 31
0.0
  0
LINE
  5
43
330
32
100
AcDbEntity
  8
1
  6
Continuous
 62
     4
100
AcDbLine
 10
227.0
 20
20.0
 30
0.0
 11
227.0
 21
0.0
 31
0.0
  0
LINE
  5
44
330
32
100
AcDbEntity
  8
1
  6
Continuous
 62
     4
100
AcDbLine
 10
170.5
 20
10.0
 30
0.0
 11
170.5
 21
0.0
 31
0.0
  0
LINE
  5
45
330
32
100
AcDbEntity
  8
1
  6
Continuous
 62
     4
100
AcDbLine
 10
66.0
 20
20.0
 30
0.0
 11
66.0
 21
0.0
 31
0.0
  0
LINE
  5
46
330
32
100
AcDbEntity
  8
1
  6
Continuous
 62
     7
100
AcDbLine
 10
0.0
 20
268.0
 30
0.0
 11
0.0
 21
0.0
 31
0.0
  0
LINE
  5
47
330
32
100
AcDbEntity
  8
1
  6
Continuous
 62
     4
100
AcDbLine
 10
173.7445771572093
 20
2.13397584248199
 30
0.0
 11
179.4766254722454
 21
7.866024157518
 31
0.0
  0
LINE
  5
48
330
32
100
AcDbEntity
  8
1
  6
Continuous
 62
     4
100
AcDbLine
 10
394.0
 20
20.0
 30
0.0
 11
0.0
 21
20.0
 31
0.0
  0
LINE
  5
49
330
32
100
AcDbEntity
  8
1
  6
Continuous
 62
     4
100
AcDbLine
 10
295.0
 20
20.0
 30
0.0
 11
295.0
 21
0.0
 31
0.0
  0
MTEXT
  5
4B
330
32
100
AcDbEntity
  8
1
 62
     2
100
AcDbMText
 10
180.9766254722454
 20
3.75
 30
0.0
 40
4.0
 41
0.0
 71
     5
 72
     1
  1
10
  7
CONVERTER_1
 73
     1
 44
0.60024009603842
  0
MTEXT
  5
4C
330
32
100
AcDbEntity
  8
1
 62
     2
100
AcDbMText
 10
173.183432867907
 20
6.25
 30
0.0
 40
4.0
 41
0.0
 71
     5
 72
     1
  1
1
  7
CONVERTER_1
 73
     1
 44
0.60024009603842
  0
MTEXT
  5
4E
330
32
100
AcDbEntity
  8
1
 62
     2
100
AcDbMText
 10
289.0
 20
2.75
 30
0.0
 40
3.5
 41
0.0
 71
     5
 72
     1
  1
番号
  7
CONVERTER_2
 73
     1
 44
0.78031212484994
  0
MTEXT
  5
4F
330
32
100
AcDbEntity
  8
1
 62
     2
100
AcDbMText
 10
166.5
 20
2.75
 30
0.0
 40
3.5
 41
0.0
 71
     5
 72
     1
  1
度
  7
CONVERTER_2
 73
     1
 44
0.78031212484994
  0
MTEXT
  5
51
330
32
100
AcDbEntity
  8
1
 62
     2
100
AcDbMText
 10
5.67807803017169
 20
2.75
 30
0.0
 40
3.5
 41
0.0
 71
     5
 72
     1
  1
番号
  7
CONVERTER_3
 73
     1
 44
0.78031212484994
  0
MTEXT
  5
52
330
32
100
AcDbEntity
  8
1
 62
     7
100
AcDbMText
 10
114.25
 20
15.0
 30
0.0
 40
5.0
 41
0.0
 71
     5
 72
     1
  1
技術情報サービス
  7
CONVERTER_3
 73
     1
 44
1.20048019207683
  0
MTEXT
  5
54
330
32
100
AcDbEntity
  8
1
 62
     2
100
AcDbMText
 10
214.5
 20
15.0
 30
0.0
 40
4.0
 41
0.0
 71
     5
 72
     1
  1
シリーズ名
  7
CONVERTER_4
 73
     1
 44
1.32052821128451
  0
MTEXT
  5
55
330
32
100
AcDbEntity
  8
1
 62
     2
100
AcDbMText
 10
214.5
 20
5.0
 30
0.0
 40
4.0
 41
0.0
 71
     5
 72
     1
  1
機　種
  7
CONVERTER_3
 73
     1
 44
1.32052821128451
  0
MTEXT
  5
56
330
32
100
AcDbEntity
  8
1
 62
     2
100
AcDbMText
 10
189.75
 20
6.5
 30
0.0
 40
4.0
 41
0.0
 71
     5
 72
     1
  1
1
  7
CONVERTER_1
 73
     1
 44
1.32052821128451
  0
MTEXT
  5
58
330
32
100
AcDbEntity
  8
1
 62
     7
100
AcDbMText
 10
114.25
 20
5.0
 30
0.0
 40
4.0
 41
0.0
 71
     5
 72
     1
  1
MARUYASU KIKAI CO.,LTD.
  7
CONVERTER_5
 73
     1
 44
1.32052821128451
  0
MTEXT
  5
59
330
32
100
AcDbEntity
  8
1
 62
     2
100
AcDbMText
 10
6.0
 20
7.25
 30
0.0
 40
3.5
 41
0.0
 71
     5
 72
     1
  1
改訂
  7
CONVERTER_3
 73
     1
 44
0.78031212484994
  0
MTEXT
  5
5A
330
32
100
AcDbEntity
  8
1
 62
     2
100
AcDbMText
 10
39.0
 20
5.0
 30
0.0
 40
3.5
 41
0.0
 71
     5
 72
     1
  1
改　 訂　 記　 事
  7
CONVERTER_3
 73
     1
 44
1.32052821128451
  0
MTEXT
  5
5B
330
32
100
AcDbEntity
  8
1
 62
     2
100
AcDbMText
 10
166.5
 20
7.25
 30
0.0
 40
3.5
 41
0.0
 71
     5
 72
     1
  1
尺
  7
CONVERTER_2
 73
     1
 44
0.78031212484994
  0
MTEXT
  5
5C
330
32
100
AcDbEntity
  8
1
 62
     2
100
AcDbMText
 10
182.25
 20
17.5
 30
0.0
 40
3.5
 41
0.0
 71
     5
 72
     1
  1
年　　月　　日
  7
CONVERTER_3
 73
     1
 44
0.78031212484994
  0
MTEXT
  5
5D
330
32
100
AcDbEntity
  8
1
 62
     2
100
AcDbMText
 10
289.0
 20
7.25
 30
0.0
 40
3.5
 41
0.0
 71
     5
 72
     1
  1
図面
  7
CONVERTER_2
 73
     1
 44
0.78031212484994
  0
MTEXT
  5
5E
330
32
100
AcDbEntity
  8
1
 62
     2
100
AcDbMText
 10
289.0
 20
15.0
 30
0.0
 40
4.0
 41
0.0
 71
     5
 72
     1
  1
図名
  7
CONVERTER_3
 73
     1
 44
1.32052821128451
  0
MTEXT
  5
5F
330
32
100
AcDbEntity
  8
1
 62
     4
100
AcDbMText
 10
393.4565543923691
 20
-0.25615332095569
 30
0.0
 40
2.0
 41
0.0
 71
     3
 72
     1
  1
A3
  7
CONVERTER_1
 73
     1
 44
1.32052821128451
  0
ENDBLK
  5
34
330
32
100
AcDbEntity
  8
0
100
AcDbBlockEnd
  0
BLOCK
  5
3BA
330
3B1
100
AcDbEntity
  8
0
100
AcDbBlockBegin
  2
*D02
 70
     1
 71
     0
 10
0.0
 20
0.0
 30
0.0
  3
*D02
  1

  0
LINE
  5
3B2
330
3B1
100
AcDbEntity
  8
1
  6
Continuous
 62
     2
100
AcDbLine
 10
2612.18200309864
 20
1544.466424335823
 30
0.0
 11
2612.18200309864
 21
2004.466424335823
 31
0.0
  0
LINE
  5
3B3
330
3B1
100
AcDbEntity
  8
1
  6
Continuous
 62
     2
100
AcDbLine
 10
2302.18200309864
 20
1544.466424335823
 30
0.0
 11
2622.18200309864
 21
1544.466424335823
 31
0.0
  0
LINE
  5
3B4
330
3B1
100
AcDbEntity
  8
1
  6
Continuous
 62
     2
100
AcDbLine
 10
2302.18200309864
 20
2004.466424335823
 30
0.0
 11
2622.18200309864
 21
2004.466424335823
 31
0.0
  0
LINE
  5
3B5
330
3B1
100
AcDbEntity
  8
1
 62
     2
100
AcDbLine
 10
2612.18200309864
 20
1544.466424335823
 30
0.0
 11
2603.607628940844
 21
1576.466424335823
 31
0.0
  0
LINE
  5
3B6
330
3B1
100
AcDbEntity
  8
1
 62
     2
100
AcDbLine
 10
2612.18200309864
 20
1544.466424335823
 30
0.0
 11
2620.756377256436
 21
1576.466424335823
 31
0.0
  0
LINE
  5
3B7
330
3B1
100
AcDbEntity
  8
1
 62
     2
100
AcDbLine
 10
2612.18200309864
 20
2004.466424335823
 30
0.0
 11
2620.756377256436
 21
1972.466424335823
 31
0.0
  0
LINE
  5
3B8
330
3B1
100
AcDbEntity
  8
1
 62
     2
100
AcDbLine
 10
2612.18200309864
 20
2004.466424335823
 30
0.0
 11
2603.607628940844
 21
1972.466424335823
 31
0.0
  0
MTEXT
  5
3B9
330
3B1
100
AcDbEntity
  8
1
 62
     2
100
AcDbMText
 10
2607.596328229037
 20
1720.541751266165
 30
0.0
 40
32.0
 41
0.0
 71
     7
 72
     1
  1
機 幅
  7
CONVERTER_3
 11
0.0
 21
1.0
 31
0.0
 73
     1
 44
0.60024009603842
  0
ENDBLK
  5
3BB
330
3B1
100
AcDbEntity
  8
0
100
AcDbBlockEnd
  0
BLOCK
  5
3BD
330
3BC
100
AcDbEntity
  8
0
100
AcDbBlockBegin
  2
_Open30
 70
     0
 71
     0
 10
0.0
 20
0.0
 30
0.0
  3
_Open30
  1

  0
LINE
  5
3BF
330
3BC
100
AcDbEntity
  8
0
  6
ByBlock
 62
     0
370
    -2
100
AcDbLine
 10
-1.0
 20
0.267949
 30
0.0
 11
0.0
 21
0.0
 31
0.0
  0
LINE
  5
3C0
330
3BC
100
AcDbEntity
  8
0
  6
ByBlock
 62
     0
370
    -2
100
AcDbLine
 10
0.0
 20
0.0
 30
0.0
 11
-1.0
 21
-0.267949
 31
0.0
  0
LINE
  5
3C1
330
3BC
100
AcDbEntity
  8
0
  6
ByBlock
 62
     0
370
    -2
100
AcDbLine
 10
0.0
 20
0.0
 30
0.0
 11
-1.0
 21
0.0
 31
0.0
  0
ENDBLK
  5
3BE
330
3BC
100
AcDbEntity
  8
0
100
AcDbBlockEnd
  0
BLOCK
  5
3CD
330
3C4
100
AcDbEntity
  8
0
100
AcDbBlockBegin
  2
*D14
 70
     1
 71
     0
 10
0.0
 20
0.0
 30
0.0
  3
*D14
  1

  0
LINE
  5
3C5
330
3C4
100
AcDbEntity
  8
1
  6
Continuous
 62
     2
100
AcDbLine
 10
3409.485190606893
 20
1401.872603594035
 30
0.0
 11
2949.485190606893
 21
1401.872603594035
 31
0.0
  0
LINE
  5
3C6
330
3C4
100
AcDbEntity
  8
1
  6
Continuous
 62
     2
100
AcDbLine
 10
3409.485190606893
 20
1086.872603594034
 30
0.0
 11
3409.485190606893
 21
1411.872603594035
 31
0.0
  0
LINE
  5
3C7
330
3C4
100
AcDbEntity
  8
1
  6
Continuous
 62
     2
100
AcDbLine
 10
2949.485190606893
 20
1089.172603594034
 30
0.0
 11
2949.485190606893
 21
1411.872603594035
 31
0.0
  0
LINE
  5
3C8
330
3C4
100
AcDbEntity
  8
1
 62
     2
100
AcDbLine
 10
3409.485190606893
 20
1401.872603594035
 30
0.0
 11
3377.485190606893
 21
1393.298229436239
 31
0.0
  0
LINE
  5
3C9
330
3C4
100
AcDbEntity
  8
1
 62
     2
100
AcDbLine
 10
3409.485190606893
 20
1401.872603594035
 30
0.0
 11
3377.485190606893
 21
1410.446977751831
 31
0.0
  0
LINE
  5
3CA
330
3C4
100
AcDbEntity
  8
1
 62
     2
100
AcDbLine
 10
2949.485190606893
 20
1401.872603594035
 30
0.0
 11
2981.485190606893
 21
1410.446977751831
 31
0.0
  0
LINE
  5
3CB
330
3C4
100
AcDbEntity
  8
1
 62
     2
100
AcDbLine
 10
2949.485190606893
 20
1401.872603594035
 30
0.0
 11
2981.485190606893
 21
1393.298229436239
 31
0.0
  0
MTEXT
  5
3CC
330
3C4
100
AcDbEntity
  8
1
 62
     2
100
AcDbMText
 10
3133.273425901011
 20
1408.872603594035
 30
0.0
 40
32.0
 41
0.0
 71
     7
 72
     1
  1
機 幅
  7
CONVERTER_3
 11
0.9999999999970621
 21
2.424068405545307E-6
 31
0.0
 73
     1
 44
0.60024009603842
  0
ENDBLK
  5
3CE
330
3C4
100
AcDbEntity
  8
0
100
AcDbBlockEnd
  0
BLOCK
  5
3DA
330
3D1
100
AcDbEntity
  8
0
100
AcDbBlockBegin
  2
*D25
 70
     1
 71
     0
 10
0.0
 20
0.0
 30
0.0
  3
*D25
  1

  0
LINE
  5
3D2
330
3D1
100
AcDbEntity
  8
1
  6
Continuous
 62
     2
100
AcDbLine
 10
2412.18200309864
 20
1579.722963227849
 30
0.0
 11
2412.18200309864
 21
1939.824686464737
 31
0.0
  0
LINE
  5
3D3
330
3D1
100
AcDbEntity
  8
1
  6
Continuous
 62
     2
100
AcDbLine
 10
2295.209106051285
 20
1579.722963227849
 30
0.0
 11
2422.18200309864
 21
1579.722963227849
 31
0.0
  0
LINE
  5
3D4
330
3D1
100
AcDbEntity
  8
1
  6
Continuous
 62
     2
100
AcDbLine
 10
2292.425417522738
 20
1939.824686464737
 30
0.0
 11
2422.18200309864
 21
1939.824686464737
 31
0.0
  0
LINE
  5
3D5
330
3D1
100
AcDbEntity
  8
1
 62
     2
100
AcDbLine
 10
2412.18200309864
 20
1579.722963227849
 30
0.0
 11
2403.607628940844
 21
1611.722963227849
 31
0.0
  0
LINE
  5
3D6
330
3D1
100
AcDbEntity
  8
1
 62
     2
100
AcDbLine
 10
2412.18200309864
 20
1579.722963227849
 30
0.0
 11
2420.756377256436
 21
1611.722963227849
 31
0.0
  0
LINE
  5
3D7
330
3D1
100
AcDbEntity
  8
1
 62
     2
100
AcDbLine
 10
2412.18200309864
 20
1939.824686464737
 30
0.0
 11
2420.756377256436
 21
1907.824686464737
 31
0.0
  0
LINE
  5
3D8
330
3D1
100
AcDbEntity
  8
1
 62
     2
100
AcDbLine
 10
2412.18200309864
 20
1939.824686464737
 30
0.0
 11
2403.607628940844
 21
1907.824686464737
 31
0.0
  0
MTEXT
  5
3D9
330
3D1
100
AcDbEntity
  8
1
 62
     2
100
AcDbMText
 10
2402.18200309864
 20
1735.648876953206
 30
0.0
 40
32.0
 41
0.0
 71
     7
 72
     1
  1
ローラ幅
  7
CONVERTER_3
 11
0.0
 21
1.0
 31
0.0
 73
     1
 44
0.60024009603842
  0
ENDBLK
  5
3DB
330
3D1
100
AcDbEntity
  8
0
100
AcDbBlockEnd
  0
BLOCK
  5
3E9
330
3DE
100
AcDbEntity
  8
0
100
AcDbBlockBegin
  2
*D36
 70
     1
 71
     0
 10
0.0
 20
0.0
 30
0.0
  3
*D36
  1

  0
LINE
  5
3DF
330
3DE
100
AcDbEntity
  8
1
  6
Continuous
 62
     2
100
AcDbLine
 10
1487.424037752719
 20
1799.736011527887
 30
0.0
 11
1535.541785431373
 21
1841.934143694292
 31
0.0
  0
LINE
  5
3E0
330
3DE
100
AcDbEntity
  8
1
  6
Continuous
 62
     2
100
AcDbLine
 10
1433.305118107572
 20
1752.274992796496
 30
0.0
 11
1487.424037752719
 21
1799.736011527887
 31
0.0
  0
LINE
  5
3E1
330
3DE
100
AcDbEntity
  8
1
  6
Continuous
 62
     2
100
AcDbLine
 10
1385.187370428917
 20
1710.076860630092
 30
0.0
 11
1433.305118107572
 21
1752.274992796496
 31
0.0
  0
LINE
  5
3E2
330
3DE
100
AcDbEntity
  8
1
  6
Continuous
 62
     2
100
AcDbLine
 10
1536.606090490639
 20
1486.636982996268
 30
0.0
 11
1429.680737724735
 21
1761.595071489324
 31
0.0
  0
LINE
  5
3E3
330
3DE
100
AcDbEntity
  8
1
  6
Continuous
 62
     2
100
AcDbLine
 10
1590.725010135786
 20
1534.098001727659
 30
0.0
 11
1483.799657369882
 21
1809.056090220715
 31
0.0
  0
LINE
  5
3E4
330
3DE
100
AcDbEntity
  8
1
 62
     2
100
AcDbLine
 10
1433.305118107572
 20
1752.274992796496
 30
0.0
 11
1414.89972198629
 21
1724.729370897244
 31
0.0
  0
LINE
  5
3E5
330
3DE
100
AcDbEntity
  8
1
 62
     2
100
AcDbLine
 10
1433.305118107572
 20
1752.274992796496
 30
0.0
 11
1403.5927665502
 21
1737.622482529343
 31
0.0
  0
LINE
  5
3E6
330
3DE
100
AcDbEntity
  8
1
 62
     2
100
AcDbLine
 10
1487.424037752719
 20
1799.736011527887
 30
0.0
 11
1505.829433874001
 21
1827.28163342714
 31
0.0
  0
LINE
  5
3E7
330
3DE
100
AcDbEntity
  8
1
 62
     2
100
AcDbLine
 10
1487.424037752719
 20
1799.736011527887
 30
0.0
 11
1517.136389310091
 21
1814.38852179504
 31
0.0
  0
MTEXT
  5
3E8
330
3DE
100
AcDbEntity
  8
1
 62
     2
100
AcDbMText
 10
1363.448157437616
 20
1722.758056953229
 30
0.0
 40
32.0
 41
0.0
 71
     7
 72
     1
  1
相当ローラピッチ
  7
CONVERTER_3
 11
0.7518398074789735
 21
0.6593458151000733
 31
0.0
 73
     1
 44
0.60024009603842
  0
ENDBLK
  5
3EA
330
3DE
100
AcDbEntity
  8
0
100
AcDbBlockEnd
  0
BLOCK
  5
3F6
330
3ED
100
AcDbEntity
  8
0
100
AcDbBlockBegin
  2
*D47
 70
     1
 71
     0
 10
0.0
 20
0.0
 30
0.0
  3
*D47
  1

  0
LINE
  5
3EE
330
3ED
100
AcDbEntity
  8
1
  6
Continuous
 62
     2
100
AcDbLine
 10
587.5377359284862
 20
2166.978657150092
 30
0.0
 11
799.669770284449
 21
2379.110691506057
 31
0.0
  0
LINE
  5
3EF
330
3ED
100
AcDbEntity
  8
1
  6
Continuous
 62
     2
100
AcDbLine
 10
863.3093805912386
 20
2315.471081199268
 30
0.0
 11
792.5987024725837
 21
2386.181759317922
 31
0.0
  0
LINE
  5
3F0
330
3ED
100
AcDbEntity
  8
1
  6
Continuous
 62
     2
100
AcDbLine
 10
651.1773462352758
 20
2103.339046843304
 30
0.0
 11
580.4666681166209
 21
2174.049724961958
 31
0.0
  0
LINE
  5
3F1
330
3ED
100
AcDbEntity
  8
1
 62
     2
100
AcDbLine
 10
587.5377359284862
 20
2166.978657150092
 30
0.0
 11
600.4786881836104
 21
2189.393043954295
 31
0.0
  0
LINE
  5
3F2
330
3ED
100
AcDbEntity
  8
1
 62
     2
100
AcDbLine
 10
587.5377359284862
 20
2166.978657150092
 30
0.0
 11
609.9521227326865
 21
2179.91960940522
 31
0.0
  0
LINE
  5
3F3
330
3ED
100
AcDbEntity
  8
1
 62
     2
100
AcDbLine
 10
799.669770284449
 20
2379.110691506057
 30
0.0
 11
786.7288180293248
 21
2356.696304701854
 31
0.0
  0
LINE
  5
3F4
330
3ED
100
AcDbEntity
  8
1
 62
     2
100
AcDbLine
 10
799.669770284449
 20
2379.110691506057
 30
0.0
 11
777.2553834802486
 21
2366.169739250929
 31
0.0
  0
MTEXT
  5
3F5
330
3ED
100
AcDbEntity
  8
1
 62
     2
100
AcDbMText
 10
664.8672987033165
 20
2258.450355548654
 30
0.0
 40
32.0
 41
0.0
 71
     7
 72
     1
  1
300
  7
CONVERTER_1
 11
0.7071067811865445
 21
0.7071067811865506
 31
0.0
 73
     1
 44
0.60024009603842
  0
ENDBLK
  5
3F7
330
3ED
100
AcDbEntity
  8
0
100
AcDbBlockEnd
  0
BLOCK
  5
405
330
3FA
100
AcDbEntity
  8
0
100
AcDbBlockBegin
  2
*D58
 70
     1
 71
     0
 10
0.0
 20
0.0
 30
0.0
  3
*D58
  1

  0
LINE
  5
3FB
330
3FA
100
AcDbEntity
  8
1
  6
Continuous
 62
     2
100
AcDbLine
 10
2877.553477899368
 20
1201.872603594035
 30
0.0
 11
2949.485190606893
 21
1201.872603594035
 31
0.0
  0
LINE
  5
3FC
330
3FA
100
AcDbEntity
  8
1
  6
Continuous
 62
     2
100
AcDbLine
 10
2949.485190606893
 20
1201.872603594035
 30
0.0
 11
3014.372708179526
 21
1201.872603594035
 31
0.0
  0
LINE
  5
3FD
330
3FA
100
AcDbEntity
  8
1
  6
Continuous
 62
     2
100
AcDbLine
 10
3014.372708179526
 20
1201.872603594035
 30
0.0
 11
3078.372708179526
 21
1201.872603594035
 31
0.0
  0
LINE
  5
3FE
330
3FA
100
AcDbEntity
  8
1
  6
Continuous
 62
     2
100
AcDbLine
 10
3014.372708179526
 20
1091.872603594035
 30
0.0
 11
3014.372708179526
 21
1211.872603594035
 31
0.0
  0
LINE
  5
3FF
330
3FA
100
AcDbEntity
  8
1
  6
Continuous
 62
     2
100
AcDbLine
 10
2949.485190606893
 20
1089.172603594034
 30
0.0
 11
2949.485190606893
 21
1211.872603594035
 31
0.0
  0
LINE
  5
400
330
3FA
100
AcDbEntity
  8
1
 62
     2
100
AcDbLine
 10
2949.485190606893
 20
1201.872603594035
 30
0.0
 11
2917.485190606893
 21
1193.298229436239
 31
0.0
  0
LINE
  5
401
330
3FA
100
AcDbEntity
  8
1
 62
     2
100
AcDbLine
 10
2949.485190606893
 20
1201.872603594035
 30
0.0
 11
2917.485190606893
 21
1210.446977751831
 31
0.0
  0
LINE
  5
402
330
3FA
100
AcDbEntity
  8
1
 62
     2
100
AcDbLine
 10
3014.372708179526
 20
1201.872603594035
 30
0.0
 11
3046.372708179526
 21
1210.446977751831
 31
0.0
  0
LINE
  5
403
330
3FA
100
AcDbEntity
  8
1
 62
     2
100
AcDbLine
 10
3014.372708179526
 20
1201.872603594035
 30
0.0
 11
3046.372708179526
 21
1193.298229436239
 31
0.0
  0
MTEXT
  5
404
330
3FA
100
AcDbEntity
  8
1
 62
     2
100
AcDbMText
 10
2877.553477899368
 20
1223.302995091011
 30
0.0
 40
32.0
 41
0.0
 71
     7
 72
     1
  1
65
  7
CONVERTER_1
 11
0.9999999999970621
 21
2.424068405545307E-6
 31
0.0
 73
     1
 44
0.60024009603842
  0
ENDBLK
  5
406
330
3FA
100
AcDbEntity
  8
0
100
AcDbBlockEnd
  0
BLOCK
  5
414
330
409
100
AcDbEntity
  8
0
100
AcDbBlockBegin
  2
*D69
 70
     1
 71
     0
 10
0.0
 20
0.0
 30
0.0
  3
*D69
  1

  0
LINE
  5
40A
330
409
100
AcDbEntity
  8
1
  6
Continuous
 62
     2
100
AcDbLine
 10
3310.485190606893
 20
1201.872603594035
 30
0.0
 11
3374.485190606893
 21
1201.872603594035
 31
0.0
  0
LINE
  5
40B
330
409
100
AcDbEntity
  8
1
  6
Continuous
 62
     2
100
AcDbLine
 10
3374.485190606893
 20
1201.872603594035
 30
0.0
 11
3409.485190606893
 21
1201.872603594035
 31
0.0
  0
LINE
  5
40C
330
409
100
AcDbEntity
  8
1
  6
Continuous
 62
     2
100
AcDbLine
 10
3409.485190606893
 20
1201.872603594035
 30
0.0
 11
3487.433577130722
 21
1201.872603594035
 31
0.0
  0
LINE
  5
40D
330
409
100
AcDbEntity
  8
1
  6
Continuous
 62
     2
100
AcDbLine
 10
3409.485190606893
 20
1086.872603594034
 30
0.0
 11
3409.485190606893
 21
1211.872603594035
 31
0.0
  0
LINE
  5
40E
330
409
100
AcDbEntity
  8
1
  6
Continuous
 62
     2
100
AcDbLine
 10
3374.485190606893
 20
1091.872603594034
 30
0.0
 11
3374.485190606893
 21
1211.872603594035
 31
0.0
  0
LINE
  5
40F
330
409
100
AcDbEntity
  8
1
 62
     2
100
AcDbLine
 10
3374.485190606893
 20
1201.872603594035
 30
0.0
 11
3342.485190606893
 21
1193.298229436239
 31
0.0
  0
LINE
  5
410
330
409
100
AcDbEntity
  8
1
 62
     2
100
AcDbLine
 10
3374.485190606893
 20
1201.872603594035
 30
0.0
 11
3342.485190606893
 21
1210.446977751831
 31
0.0
  0
LINE
  5
411
330
409
100
AcDbEntity
  8
1
 62
     2
100
AcDbLine
 10
3409.485190606893
 20
1201.872603594035
 30
0.0
 11
3441.485190606893
 21
1210.446977751831
 31
0.0
  0
LINE
  5
412
330
409
100
AcDbEntity
  8
1
 62
     2
100
AcDbLine
 10
3409.485190606893
 20
1201.872603594035
 30
0.0
 11
3441.485190606893
 21
1193.298229436239
 31
0.0
  0
MTEXT
  5
413
330
409
100
AcDbEntity
  8
1
 62
     2
100
AcDbMText
 10
3439.433577130722
 20
1218.383353390422
 30
0.0
 40
32.0
 41
0.0
 71
     7
 72
     1
  1
35
  7
CONVERTER_1
 11
0.9999999999970621
 21
2.424068405545307E-6
 31
0.0
 73
     1
 44
0.60024009603842
  0
ENDBLK
  5
415
330
409
100
AcDbEntity
  8
0
100
AcDbBlockEnd
  0
BLOCK
  5
421
330
418
100
AcDbEntity
  8
0
100
AcDbBlockBegin
  2
*D710
 70
     1
 71
     0
 10
0.0
 20
0.0
 30
0.0
  3
*D710
  1

  0
LINE
  5
419
330
418
100
AcDbEntity
  8
1
  6
Continuous
 62
     2
100
AcDbLine
 10
3014.372708179527
 20
1201.872603594035
 30
0.0
 11
3374.485190606893
 21
1201.872603594035
 31
0.0
  0
LINE
  5
41A
330
418
100
AcDbEntity
  8
1
  6
Continuous
 62
     2
100
AcDbLine
 10
3374.485190606893
 20
1091.872603594034
 30
0.0
 11
3374.485190606893
 21
1211.872603594035
 31
0.0
  0
LINE
  5
41B
330
418
100
AcDbEntity
  8
1
  6
Continuous
 62
     2
100
AcDbLine
 10
3014.372708179527
 20
1091.872603594035
 30
0.0
 11
3014.372708179527
 21
1211.872603594035
 31
0.0
  0
LINE
  5
41C
330
418
100
AcDbEntity
  8
1
 62
     2
100
AcDbLine
 10
3014.372708179527
 20
1201.872603594035
 30
0.0
 11
3046.372708179527
 21
1210.446977751831
 31
0.0
  0
LINE
  5
41D
330
418
100
AcDbEntity
  8
1
 62
     2
100
AcDbLine
 10
3014.372708179527
 20
1201.872603594035
 30
0.0
 11
3046.372708179527
 21
1193.298229436239
 31
0.0
  0
LINE
  5
41E
330
418
100
AcDbEntity
  8
1
 62
     2
100
AcDbLine
 10
3374.485190606893
 20
1201.872603594035
 30
0.0
 11
3342.485190606893
 21
1193.298229436239
 31
0.0
  0
LINE
  5
41F
330
418
100
AcDbEntity
  8
1
 62
     2
100
AcDbLine
 10
3374.485190606893
 20
1201.872603594035
 30
0.0
 11
3342.485190606893
 21
1210.446977751831
 31
0.0
  0
MTEXT
  5
420
330
418
100
AcDbEntity
  8
1
 62
     2
100
AcDbMText
 10
3106.857720384028
 20
1211.872603594035
 30
0.0
 40
32.0
 41
0.0
 71
     7
 72
     1
  1
ローラ幅
  7
CONVERTER_3
 11
0.9999999999970621
 21
2.424068405545307E-6
 31
0.0
 73
     1
 44
0.60024009603842
  0
ENDBLK
  5
422
330
418
100
AcDbEntity
  8
0
100
AcDbBlockEnd
  0
BLOCK
  5
431
330
425
100
AcDbEntity
  8
0
100
AcDbBlockBegin
  2
*D811
 70
     1
 71
     0
 10
0.0
 20
0.0
 30
0.0
  3
*D811
  1

  0
LINE
  5
426
330
425
100
AcDbEntity
  8
1
  6
Continuous
 62
     2
100
AcDbLine
 10
2875.033836198779
 20
1301.872603594035
 30
0.0
 11
2949.485190606893
 21
1301.872603594035
 31
0.0
  0
LINE
  5
427
330
425
100
AcDbEntity
  8
1
  6
Continuous
 62
     2
100
AcDbLine
 10
2949.485190606893
 20
1301.872603594035
 30
0.0
 11
2979.485190606893
 21
1301.872603594035
 31
0.0
  0
LINE
  5
428
330
425
100
AcDbEntity
  8
1
  6
Continuous
 62
     2
100
AcDbLine
 10
2979.485190606893
 20
1301.872603594035
 30
0.0
 11
3043.485190606893
 21
1301.872603594035
 31
0.0
  0
LINE
  5
429
330
425
100
AcDbEntity
  8
1
  6
Continuous
 62
     2
100
AcDbLine
 10
2979.485190606893
 20
1262.099412096901
 30
0.0
 11
2979.485190606893
 21
1311.872603594035
 31
0.0
  0
LINE
  5
42A
330
425
100
AcDbEntity
  8
1
  6
Continuous
 62
     2
100
AcDbLine
 10
2979.485190606893
 20
1081.672603594034
 30
0.0
 11
2979.485190606893
 21
1144.936073019511
 31
0.0
  0
LINE
  5
42B
330
425
100
AcDbEntity
  8
1
  6
Continuous
 62
     2
100
AcDbLine
 10
2949.485190606893
 20
1089.172603594034
 30
0.0
 11
2949.485190606893
 21
1311.872603594035
 31
0.0
  0
LINE
  5
42C
330
425
100
AcDbEntity
  8
1
 62
     2
100
AcDbLine
 10
2949.485190606893
 20
1301.872603594035
 30
0.0
 11
2917.485190606893
 21
1293.298229436239
 31
0.0
  0
LINE
  5
42D
330
425
100
AcDbEntity
  8
1
 62
     2
100
AcDbLine
 10
2949.485190606893
 20
1301.872603594035
 30
0.0
 11
2917.485190606893
 21
1310.446977751831
 31
0.0
  0
LINE
  5
42E
330
425
100
AcDbEntity
  8
1
 62
     2
100
AcDbLine
 10
2979.485190606893
 20
1301.872603594035
 30
0.0
 11
3011.485190606893
 21
1310.446977751831
 31
0.0
  0
LINE
  5
42F
330
425
100
AcDbEntity
  8
1
 62
     2
100
AcDbLine
 10
2979.485190606893
 20
1301.872603594035
 30
0.0
 11
3011.485190606893
 21
1293.298229436239
 31
0.0
  0
MTEXT
  5
430
330
425
100
AcDbEntity
  8
1
 62
     2
100
AcDbMText
 10
2875.033836198779
 20
1324.208304815161
 30
0.0
 40
32.0
 41
0.0
 71
     7
 72
     1
  1
30
  7
CONVERTER_1
 11
0.9999999999970621
 21
2.424068405545307E-6
 31
0.0
 73
     1
 44
0.60024009603842
  0
ENDBLK
  5
432
330
425
100
AcDbEntity
  8
0
100
AcDbBlockEnd
  0
BLOCK
  5
441
330
435
100
AcDbEntity
  8
0
100
AcDbBlockBegin
  2
*D912
 70
     1
 71
     0
 10
0.0
 20
0.0
 30
0.0
  3
*D912
  1

  0
LINE
  5
436
330
435
100
AcDbEntity
  8
1
  6
Continuous
 62
     2
100
AcDbLine
 10
3315.485190606893
 20
1301.872603594035
 30
0.0
 11
3379.485190606893
 21
1301.872603594035
 31
0.0
  0
LINE
  5
437
330
435
100
AcDbEntity
  8
1
  6
Continuous
 62
     2
100
AcDbLine
 10
3379.485190606893
 20
1301.872603594035
 30
0.0
 11
3409.485190606893
 21
1301.872603594035
 31
0.0
  0
LINE
  5
438
330
435
100
AcDbEntity
  8
1
  6
Continuous
 62
     2
100
AcDbLine
 10
3409.485190606893
 20
1301.872603594035
 30
0.0
 11
3476.095189478072
 21
1301.872603594035
 31
0.0
  0
LINE
  5
439
330
435
100
AcDbEntity
  8
1
  6
Continuous
 62
     2
100
AcDbLine
 10
3409.485190606893
 20
1086.872603594034
 30
0.0
 11
3409.485190606893
 21
1311.872603594035
 31
0.0
  0
LINE
  5
43A
330
435
100
AcDbEntity
  8
1
  6
Continuous
 62
     2
100
AcDbLine
 10
3379.485190606893
 20
1278.47708315073
 30
0.0
 11
3379.485190606893
 21
1311.872603594035
 31
0.0
  0
LINE
  5
43B
330
435
100
AcDbEntity
  8
1
  6
Continuous
 62
     2
100
AcDbLine
 10
3379.485190606893
 20
1081.672603594034
 30
0.0
 11
3379.485190606893
 21
1151.235177270983
 31
0.0
  0
LINE
  5
43C
330
435
100
AcDbEntity
  8
1
 62
     2
100
AcDbLine
 10
3379.485190606893
 20
1301.872603594035
 30
0.0
 11
3347.485190606893
 21
1293.298229436239
 31
0.0
  0
LINE
  5
43D
330
435
100
AcDbEntity
  8
1
 62
     2
100
AcDbLine
 10
3379.485190606893
 20
1301.872603594035
 30
0.0
 11
3347.485190606893
 21
1310.446977751831
 31
0.0
  0
LINE
  5
43E
330
435
100
AcDbEntity
  8
1
 62
     2
100
AcDbLine
 10
3409.485190606893
 20
1301.872603594035
 30
0.0
 11
3441.485190606893
 21
1310.446977751831
 31
0.0
  0
LINE
  5
43F
330
435
100
AcDbEntity
  8
1
 62
     2
100
AcDbLine
 10
3409.485190606893
 20
1301.872603594035
 30
0.0
 11
3441.485190606893
 21
1293.298229436239
 31
0.0
  0
MTEXT
  5
440
330
435
100
AcDbEntity
  8
1
 62
     2
100
AcDbMText
 10
3428.095189478072
 20
1320.428842264277
 30
0.0
 40
32.0
 41
0.0
 71
     7
 72
     1
  1
30
  7
CONVERTER_1
 11
0.9999999999970621
 21
2.424068405545307E-6
 31
0.0
 73
     1
 44
0.60024009603842
  0
ENDBLK
  5
442
330
435
100
AcDbEntity
  8
0
100
AcDbBlockEnd
  0
BLOCK
  5
450
330
445
100
AcDbEntity
  8
0
100
AcDbBlockBegin
  2
*D1013
 70
     1
 71
     0
 10
0.0
 20
0.0
 30
0.0
  3
*D1013
  1

  0
LINE
  5
446
330
445
100
AcDbEntity
  8
1
  6
Continuous
 62
     2
100
AcDbLine
 10
2979.485190606893
 20
1301.872603594035
 30
0.0
 11
3379.485190606893
 21
1301.872603594035
 31
0.0
  0
LINE
  5
447
330
445
100
AcDbEntity
  8
1
  6
Continuous
 62
     2
100
AcDbLine
 10
3379.485190606893
 20
1278.47708315073
 30
0.0
 11
3379.485190606893
 21
1311.872603594035
 31
0.0
  0
LINE
  5
448
330
445
100
AcDbEntity
  8
1
  6
Continuous
 62
     2
100
AcDbLine
 10
3379.485190606893
 20
1081.672603594034
 30
0.0
 11
3379.485190606893
 21
1151.235177270983
 31
0.0
  0
LINE
  5
449
330
445
100
AcDbEntity
  8
1
  6
Continuous
 62
     2
100
AcDbLine
 10
2979.485190606893
 20
1262.099412096901
 30
0.0
 11
2979.485190606893
 21
1311.872603594035
 31
0.0
  0
LINE
  5
44A
330
445
100
AcDbEntity
  8
1
  6
Continuous
 62
     2
100
AcDbLine
 10
2979.485190606893
 20
1081.672603594034
 30
0.0
 11
2979.485190606893
 21
1144.936073019511
 31
0.0
  0
LINE
  5
44B
330
445
100
AcDbEntity
  8
1
 62
     2
100
AcDbLine
 10
2979.485190606893
 20
1301.872603594035
 30
0.0
 11
3011.485190606893
 21
1310.446977751831
 31
0.0
  0
LINE
  5
44C
330
445
100
AcDbEntity
  8
1
 62
     2
100
AcDbLine
 10
2979.485190606893
 20
1301.872603594035
 30
0.0
 11
3011.485190606893
 21
1293.298229436239
 31
0.0
  0
LINE
  5
44D
330
445
100
AcDbEntity
  8
1
 62
     2
100
AcDbLine
 10
3379.485190606893
 20
1301.872603594035
 30
0.0
 11
3347.485190606893
 21
1293.298229436239
 31
0.0
  0
LINE
  5
44E
330
445
100
AcDbEntity
  8
1
 62
     2
100
AcDbLine
 10
3379.485190606893
 20
1301.872603594035
 30
0.0
 11
3347.485190606893
 21
1310.446977751831
 31
0.0
  0
MTEXT
  5
44F
330
445
100
AcDbEntity
  8
1
 62
     2
100
AcDbMText
 10
3130.416645485795
 20
1311.872603594035
 30
0.0
 40
32.0
 41
0.0
 71
     7
 72
     1
  1
呼び幅
  7
CONVERTER_3
 11
0.9999999999970621
 21
2.424068405545307E-6
 31
0.0
 73
     1
 44
0.60024009603842
  0
ENDBLK
  5
451
330
445
100
AcDbEntity
  8
0
100
AcDbBlockEnd
  0
BLOCK
  5
45F
330
454
100
AcDbEntity
  8
0
100
AcDbBlockBegin
  2
*D1114
 70
     1
 71
     0
 10
0.0
 20
0.0
 30
0.0
  3
*D1114
  1

  0
LINE
  5
455
330
454
100
AcDbEntity
  8
1
  6
Continuous
 62
     2
100
AcDbLine
 10
2512.18200309864
 20
1574.466424335823
 30
0.0
 11
2512.18200309864
 21
1638.466424335823
 31
0.0
  0
LINE
  5
456
330
454
100
AcDbEntity
  8
1
  6
Continuous
 62
     2
100
AcDbLine
 10
2512.18200309864
 20
1544.466424335823
 30
0.0
 11
2512.18200309864
 21
1574.466424335823
 31
0.0
  0
LINE
  5
457
330
454
100
AcDbEntity
  8
1
  6
Continuous
 62
     2
100
AcDbLine
 10
2512.18200309864
 20
1477.301990906007
 30
0.0
 11
2512.18200309864
 21
1544.466424335823
 31
0.0
  0
LINE
  5
458
330
454
100
AcDbEntity
  8
1
  6
Continuous
 62
     2
100
AcDbLine
 10
2302.18200309864
 20
1544.466424335823
 30
0.0
 11
2522.18200309864
 21
1544.466424335823
 31
0.0
  0
LINE
  5
459
330
454
100
AcDbEntity
  8
1
  6
Continuous
 62
     2
100
AcDbLine
 10
2302.18200309864
 20
1574.466424335823
 30
0.0
 11
2522.18200309864
 21
1574.466424335823
 31
0.0
  0
LINE
  5
45A
330
454
100
AcDbEntity
  8
1
 62
     2
100
AcDbLine
 10
2512.18200309864
 20
1544.466424335823
 30
0.0
 11
2520.756377256435
 21
1512.466424335823
 31
0.0
  0
LINE
  5
45B
330
454
100
AcDbEntity
  8
1
 62
     2
100
AcDbLine
 10
2512.18200309864
 20
1544.466424335823
 30
0.0
 11
2503.607628940844
 21
1512.466424335823
 31
0.0
  0
LINE
  5
45C
330
454
100
AcDbEntity
  8
1
 62
     2
100
AcDbLine
 10
2512.18200309864
 20
1574.466424335823
 30
0.0
 11
2503.607628940844
 21
1606.466424335823
 31
0.0
  0
LINE
  5
45D
330
454
100
AcDbEntity
  8
1
 62
     2
100
AcDbLine
 10
2512.18200309864
 20
1574.466424335823
 30
0.0
 11
2520.756377256435
 21
1606.466424335823
 31
0.0
  0
MTEXT
  5
45E
330
454
100
AcDbEntity
  8
1
 62
     2
100
AcDbMText
 10
2492.343941100616
 20
1477.301990906007
 30
0.0
 40
32.0
 41
0.0
 71
     7
 72
     1
  1
30
  7
CONVERTER_1
 11
0.0
 21
1.0
 31
0.0
 73
     1
 44
0.60024009603842
  0
ENDBLK
  5
460
330
454
100
AcDbEntity
  8
0
100
AcDbBlockEnd
  0
BLOCK
  5
46E
330
463
100
AcDbEntity
  8
0
100
AcDbBlockBegin
  2
*D1215
 70
     1
 71
     0
 10
0.0
 20
0.0
 30
0.0
  3
*D1215
  1

  0
LINE
  5
464
330
463
100
AcDbEntity
  8
1
  6
Continuous
 62
     2
100
AcDbLine
 10
2512.18200309864
 20
2004.466424335823
 30
0.0
 11
2512.18200309864
 21
2068.466424335823
 31
0.0
  0
LINE
  5
465
330
463
100
AcDbEntity
  8
1
  6
Continuous
 62
     2
100
AcDbLine
 10
2512.18200309864
 20
1974.466424335823
 30
0.0
 11
2512.18200309864
 21
2004.466424335823
 31
0.0
  0
LINE
  5
466
330
463
100
AcDbEntity
  8
1
  6
Continuous
 62
     2
100
AcDbLine
 10
2512.18200309864
 20
1910.466424335823
 30
0.0
 11
2512.18200309864
 21
1974.466424335823
 31
0.0
  0
LINE
  5
467
330
463
100
AcDbEntity
  8
1
  6
Continuous
 62
     2
100
AcDbLine
 10
2302.18200309864
 20
1974.466424335823
 30
0.0
 11
2522.18200309864
 21
1974.466424335823
 31
0.0
  0
LINE
  5
468
330
463
100
AcDbEntity
  8
1
  6
Continuous
 62
     2
100
AcDbLine
 10
2302.18200309864
 20
2004.466424335823
 30
0.0
 11
2522.18200309864
 21
2004.466424335823
 31
0.0
  0
LINE
  5
469
330
463
100
AcDbEntity
  8
1
 62
     2
100
AcDbLine
 10
2512.18200309864
 20
1974.466424335823
 30
0.0
 11
2520.756377256435
 21
1942.466424335823
 31
0.0
  0
LINE
  5
46A
330
463
100
AcDbEntity
  8
1
 62
     2
100
AcDbLine
 10
2512.18200309864
 20
1974.466424335823
 30
0.0
 11
2503.607628940844
 21
1942.466424335823
 31
0.0
  0
LINE
  5
46B
330
463
100
AcDbEntity
  8
1
 62
     2
100
AcDbLine
 10
2512.18200309864
 20
2004.466424335823
 30
0.0
 11
2503.607628940844
 21
2036.466424335823
 31
0.0
  0
LINE
  5
46C
330
463
100
AcDbEntity
  8
1
 62
     2
100
AcDbLine
 10
2512.18200309864
 20
2004.466424335823
 30
0.0
 11
2520.756377256435
 21
2036.466424335823
 31
0.0
  0
MTEXT
  5
46D
330
463
100
AcDbEntity
  8
1
 62
     2
100
AcDbMText
 10
2485.121388324397
 20
2018.993449122431
 30
0.0
 40
32.0
 41
0.0
 71
     7
 72
     1
  1
30
  7
CONVERTER_1
 11
0.0
 21
1.0
 31
0.0
 73
     1
 44
0.60024009603842
  0
ENDBLK
  5
46F
330
463
100
AcDbEntity
  8
0
100
AcDbBlockEnd
  0
BLOCK
  5
47B
330
472
100
AcDbEntity
  8
0
100
AcDbBlockBegin
  2
*D1316
 70
     1
 71
     0
 10
0.0
 20
0.0
 30
0.0
  3
*D1316
  1

  0
LINE
  5
473
330
472
100
AcDbEntity
  8
1
  6
Continuous
 62
     2
100
AcDbLine
 10
2512.18200309864
 20
1574.466424335823
 30
0.0
 11
2512.18200309864
 21
1974.466424335823
 31
0.0
  0
LINE
  5
474
330
472
100
AcDbEntity
  8
1
  6
Continuous
 62
     2
100
AcDbLine
 10
2302.18200309864
 20
1574.466424335823
 30
0.0
 11
2522.18200309864
 21
1574.466424335823
 31
0.0
  0
LINE
  5
475
330
472
100
AcDbEntity
  8
1
  6
Continuous
 62
     2
100
AcDbLine
 10
2302.18200309864
 20
1974.466424335823
 30
0.0
 11
2522.18200309864
 21
1974.466424335823
 31
0.0
  0
LINE
  5
476
330
472
100
AcDbEntity
  8
1
 62
     2
100
AcDbLine
 10
2512.18200309864
 20
1574.466424335823
 30
0.0
 11
2503.607628940844
 21
1606.466424335823
 31
0.0
  0
LINE
  5
477
330
472
100
AcDbEntity
  8
1
 62
     2
100
AcDbLine
 10
2512.18200309864
 20
1574.466424335823
 30
0.0
 11
2520.756377256436
 21
1606.466424335823
 31
0.0
  0
LINE
  5
478
330
472
100
AcDbEntity
  8
1
 62
     2
100
AcDbLine
 10
2512.18200309864
 20
1974.466424335823
 30
0.0
 11
2520.756377256436
 21
1942.466424335823
 31
0.0
  0
LINE
  5
479
330
472
100
AcDbEntity
  8
1
 62
     2
100
AcDbLine
 10
2512.18200309864
 20
1974.466424335823
 30
0.0
 11
2503.607628940844
 21
1942.466424335823
 31
0.0
  0
MTEXT
  5
47A
330
472
100
AcDbEntity
  8
1
 62
     2
100
AcDbMText
 10
2502.18200309864
 20
1648.866424335823
 30
0.0
 40
32.0
 41
0.0
 71
     7
 72
     1
  1
\C2;400\C2;　(呼び幅）
  7
CONVERTER_3
 11
0.0
 21
1.0
 31
0.0
 73
     1
 44
0.60024009603842
  0
ENDBLK
  5
47C
330
472
100
AcDbEntity
  8
0
100
AcDbBlockEnd
  0
BLOCK
  5
488
330
47F
100
AcDbEntity
  8
0
100
AcDbBlockBegin
  2
*D1417
 70
     1
 71
     0
 10
0.0
 20
0.0
 30
0.0
  3
*D1417
  1

  0
LINE
  5
480
330
47F
100
AcDbEntity
  8
1
  6
Continuous
 62
     2
100
AcDbLine
 10
467.3295831267733
 20
1905.349148111069
 30
0.0
 11
679.4616174827379
 21
1693.217113755105
 31
0.0
  0
LINE
  5
481
330
47F
100
AcDbEntity
  8
1
  6
Continuous
 62
     2
100
AcDbLine
 10
743.101227789527
 20
1756.856724061895
 30
0.0
 11
672.3905496708726
 21
1686.14604594324
 31
0.0
  0
LINE
  5
482
330
47F
100
AcDbEntity
  8
1
  6
Continuous
 62
     2
100
AcDbLine
 10
651.1773462352758
 20
2089.196911219573
 30
0.0
 11
460.258515314908
 21
1898.278080299203
 31
0.0
  0
LINE
  5
483
330
47F
100
AcDbEntity
  8
1
 62
     2
100
AcDbLine
 10
467.3295831267733
 20
1905.349148111069
 30
0.0
 11
489.7439699309757
 21
1892.408195855945
 31
0.0
  0
LINE
  5
484
330
47F
100
AcDbEntity
  8
1
 62
     2
100
AcDbLine
 10
467.3295831267733
 20
1905.349148111069
 30
0.0
 11
480.2705353819011
 21
1882.934761306869
 31
0.0
  0
LINE
  5
485
330
47F
100
AcDbEntity
  8
1
 62
     2
100
AcDbLine
 10
679.4616174827379
 20
1693.217113755105
 30
0.0
 11
657.0472306785355
 21
1706.15806601023
 31
0.0
  0
LINE
  5
486
330
47F
100
AcDbEntity
  8
1
 62
     2
100
AcDbLine
 10
679.4616174827379
 20
1693.217113755105
 30
0.0
 11
666.52066522761
 21
1715.631500559306
 31
0.0
  0
MTEXT
  5
487
330
47F
100
AcDbEntity
  8
1
 62
     2
100
AcDbMText
 10
552.5089316385388
 20
1834.311935223034
 30
0.0
 40
32.0
 41
0.0
 71
     7
 72
     1
  1
300
  7
CONVERTER_1
 11
0.7071067811865492
 21
-0.7071067811865459
 31
0.0
 73
     1
 44
0.60024009603842
  0
ENDBLK
  5
489
330
47F
100
AcDbEntity
  8
0
100
AcDbBlockEnd
  0
BLOCK
  5
495
330
48C
100
AcDbEntity
  8
0
100
AcDbBlockBegin
  2
*D1518
 70
     1
 71
     0
 10
0.0
 20
0.0
 30
0.0
  3
*D1518
  1

  0
LINE
  5
48D
330
48C
100
AcDbEntity
  8
1
  6
Continuous
 62
     2
100
AcDbLine
 10
3509.485190606893
 20
956.8726035940339
 30
0.0
 11
3509.485190606893
 21
1076.872603594034
 31
0.0
  0
LINE
  5
48E
330
48C
100
AcDbEntity
  8
1
  6
Continuous
 62
     2
100
AcDbLine
 10
3419.485190606893
 20
956.8726035940339
 30
0.0
 11
3519.485190606893
 21
956.8726035940339
 31
0.0
  0
LINE
  5
48F
330
48C
100
AcDbEntity
  8
1
  6
Continuous
 62
     2
100
AcDbLine
 10
3419.485190606893
 20
1076.872603594034
 30
0.0
 11
3519.485190606893
 21
1076.872603594034
 31
0.0
  0
LINE
  5
490
330
48C
100
AcDbEntity
  8
1
 62
     2
100
AcDbLine
 10
3509.485190606893
 20
956.8726035940339
 30
0.0
 11
3500.910816449097
 21
988.8726035940339
 31
0.0
  0
LINE
  5
491
330
48C
100
AcDbEntity
  8
1
 62
     2
100
AcDbLine
 10
3509.485190606893
 20
956.8726035940339
 30
0.0
 11
3518.059564764689
 21
988.8726035940339
 31
0.0
  0
LINE
  5
492
330
48C
100
AcDbEntity
  8
1
 62
     2
100
AcDbLine
 10
3509.485190606893
 20
1076.872603594034
 30
0.0
 11
3518.059564764689
 21
1044.872603594034
 31
0.0
  0
LINE
  5
493
330
48C
100
AcDbEntity
  8
1
 62
     2
100
AcDbLine
 10
3509.485190606893
 20
1076.872603594034
 30
0.0
 11
3500.910816449097
 21
1044.872603594034
 31
0.0
  0
MTEXT
  5
494
330
48C
100
AcDbEntity
  8
1
 62
     2
100
AcDbMText
 10
3502.485190606893
 20
982.093857895748
 30
0.0
 40
32.0
 41
0.0
 71
     7
 72
     1
  1
120
  7
CONVERTER_1
 11
0.0
 21
1.0
 31
0.0
 73
     1
 44
0.60024009603842
  0
ENDBLK
  5
496
330
48C
100
AcDbEntity
  8
0
100
AcDbBlockEnd
  0
BLOCK
  5
4A4
330
499
100
AcDbEntity
  8
0
100
AcDbBlockBegin
  2
*D1619
 70
     1
 71
     0
 10
0.0
 20
0.0
 30
0.0
  3
*D1619
  1

  0
LINE
  5
49A
330
499
100
AcDbEntity
  8
1
  6
Continuous
 62
     2
100
AcDbLine
 10
3509.485190606893
 20
1081.872603594034
 30
0.0
 11
3509.485190606893
 21
1148.094171128838
 31
0.0
  0
LINE
  5
49B
330
499
100
AcDbEntity
  8
1
  6
Continuous
 62
     2
100
AcDbLine
 10
3509.485190606893
 20
1076.872603594034
 30
0.0
 11
3509.485190606893
 21
1081.872603594034
 31
0.0
  0
LINE
  5
49C
330
499
100
AcDbEntity
  8
1
  6
Continuous
 62
     2
100
AcDbLine
 10
3509.485190606893
 20
1012.872603594034
 30
0.0
 11
3509.485190606893
 21
1076.872603594034
 31
0.0
  0
LINE
  5
49D
330
499
100
AcDbEntity
  8
1
  6
Continuous
 62
     2
100
AcDbLine
 10
3419.485190606893
 20
1076.872603594034
 30
0.0
 11
3519.485190606893
 21
1076.872603594034
 31
0.0
  0
LINE
  5
49E
330
499
100
AcDbEntity
  8
1
  6
Continuous
 62
     2
100
AcDbLine
 10
3384.485190606893
 20
1081.872603594034
 30
0.0
 11
3519.485190606893
 21
1081.872603594034
 31
0.0
  0
LINE
  5
49F
330
499
100
AcDbEntity
  8
1
 62
     2
100
AcDbLine
 10
3509.485190606893
 20
1076.872603594034
 30
0.0
 11
3518.059564764689
 21
1044.872603594034
 31
0.0
  0
LINE
  5
4A0
330
499
100
AcDbEntity
  8
1
 62
     2
100
AcDbLine
 10
3509.485190606893
 20
1076.872603594034
 30
0.0
 11
3500.910816449097
 21
1044.872603594034
 31
0.0
  0
LINE
  5
4A1
330
499
100
AcDbEntity
  8
1
 62
     2
100
AcDbLine
 10
3509.485190606893
 20
1081.872603594034
 30
0.0
 11
3500.910816449097
 21
1113.872603594034
 31
0.0
  0
LINE
  5
4A2
330
499
100
AcDbEntity
  8
1
 62
     2
100
AcDbLine
 10
3509.485190606893
 20
1081.872603594034
 30
0.0
 11
3518.059564764689
 21
1113.872603594034
 31
0.0
  0
MTEXT
  5
4A3
330
499
100
AcDbEntity
  8
1
 62
     2
100
AcDbMText
 10
3502.485190606893
 20
1128.894171128838
 30
0.0
 40
32.0
 41
0.0
 71
     7
 72
     1
  1
5
  7
CONVERTER_1
 11
0.0
 21
1.0
 31
0.0
 73
     1
 44
0.60024009603842
  0
ENDBLK
  5
4A5
330
499
100
AcDbEntity
  8
0
100
AcDbBlockEnd
  0
BLOCK
  5
4AD
330
4A8
100
AcDbEntity
  8
0
100
AcDbBlockBegin
  2
*D1720
 70
     1
 71
     0
 10
0.0
 20
0.0
 30
0.0
  3
*D1720
  1

  0
LINE
  5
4A9
330
4A8
100
AcDbEntity
  8
1
  6
Continuous
 62
     2
100
AcDbLine
 10
2292.18200309864
 20
674.4664243358229
 30
0.0
 11
1436.726114845188
 21
954.1005124804867
 31
0.0
  0
LINE
  5
4AA
330
4A8
100
AcDbEntity
  8
1
 62
     2
100
AcDbLine
 10
1436.726114845188
 20
954.1005124804867
 30
0.0
 11
1462.570104188189
 21
952.7000854325238
 31
0.0
  0
LINE
  5
4AB
330
4A8
100
AcDbEntity
  8
1
 62
     2
100
AcDbLine
 10
1436.726114845188
 20
954.1005124804867
 30
0.0
 11
1458.40745262738
 21
939.9657124093036
 31
0.0
  0
MTEXT
  5
4AC
330
4A8
100
AcDbEntity
  8
1
 62
     2
100
AcDbMText
 10
1727.353164169828
 20
874.6700814540561
 30
0.0
 40
31.99999999999998
 41
0.0
 71
     7
 72
     1
  1
\C2;R\C2;900
  7
CONVERTER_1
 11
0.9505065425038355
 21
-0.3107045423829597
 31
0.0
 73
     1
 44
0.60024009603842
  0
ENDBLK
  5
4AE
330
4A8
100
AcDbEntity
  8
0
100
AcDbBlockEnd
  0
BLOCK
  5
4BB
330
4B0
100
AcDbEntity
  8
0
100
AcDbBlockBegin
  2
*D1821
 70
     1
 71
     0
 10
0.0
 20
0.0
 30
0.0
  3
*D1821
  1

  0
LINE
  5
4B1
330
4B0
100
AcDbEntity
  8
1
  6
Continuous
 62
     2
100
AcDbLine
 10
2292.18200309864
 20
974.466424335823
 30
0.0
 11
2292.18200309864
 21
984.466424335823
 31
0.0
  0
LINE
  5
4B2
330
4B0
100
AcDbEntity
  8
1
  6
Continuous
 62
     2
100
AcDbLine
 10
1992.18200309864
 20
674.4664243358232
 30
0.0
 11
1982.18200309864
 21
674.4664243358232
 31
0.0
  0
LINE
  5
4B3
330
4B0
100
AcDbEntity
  8
1
  6
Continuous
 62
     2
100
AcDbLine
 10
2292.18200309864
 20
759.4664243358232
 30
0.0
 11
2292.18200309864
 21
974.466424335823
 31
0.0
  0
LINE
  5
4B4
330
4B0
100
AcDbEntity
  8
1
  6
Continuous
 62
     2
100
AcDbLine
 10
2207.18200309864
 20
674.4664243358232
 30
0.0
 11
1992.18200309864
 21
674.4664243358232
 31
0.0
  0
ARC
  5
4B5
330
4B0
100
AcDbEntity
  8
1
  6
Continuous
 62
     2
100
AcDbCircle
 10
2292.18200309864
 20
674.4664243358232
 30
0.0
 40
299.9999999999999
100
AcDbArc
 50
90.0
 51
180.0
  0
LINE
  5
4B6
330
4B0
100
AcDbEntity
  8
1
 62
     2
100
AcDbLine
 10
2292.18200309864
 20
974.466424335823
 30
0.0
 11
2267.48273433509
 21
966.7321432687998
 31
0.0
  0
LINE
  5
4B7
330
4B0
100
AcDbEntity
  8
1
 62
     2
100
AcDbLine
 10
2292.18200309864
 20
974.466424335823
 30
0.0
 11
2266.924668360995
 21
980.117974833547
 31
0.0
  0
LINE
  5
4B8
330
4B0
100
AcDbEntity
  8
1
 62
     2
100
AcDbLine
 10
1992.18200309864
 20
674.4664243358232
 30
0.0
 11
1986.530452600919
 21
699.7237590734694
 31
0.0
  0
LINE
  5
4B9
330
4B0
100
AcDbEntity
  8
1
 62
     2
100
AcDbLine
 10
1992.18200309864
 20
674.4664243358232
 30
0.0
 11
1999.916284165666
 21
699.1656930993727
 31
0.0
  0
MTEXT
  5
4BA
330
4B0
100
AcDbEntity
  8
1
 62
     2
100
AcDbMText
 10
2044.100903191119
 20
871.4279633952917
 30
0.0
 40
31.99999999999998
 41
0.0
 71
     7
 72
     1
  1
90{\Fgdt;~}
  7
CONVERTER_1
 11
0.7049760889650818
 21
0.7092310723505401
 31
0.0
 73
     1
 44
0.60024009603842
  0
ENDBLK
  5
4BC
330
4B0
100
AcDbEntity
  8
0
100
AcDbBlockEnd
  0
ENDSEC
  0
SECTION
  2
ENTITIES
  0
INSERT
  5
35
330
1F
100
AcDbEntity
  8
0
100
AcDbBlockReference
  2
Zuwaku-A3-web
 10
1969.999999999998
 20
1340.0
 30
0.0
 41
10.0
 42
10.0
 43
10.0
  0
LINE
  5
60
330
1F
100
AcDbEntity
  8
1
  6
Continuous
 62
     3
100
AcDbLine
 10
2292.18200309864
 20
1544.466424335823
 30
0.0
 11
2292.18200309864
 21
1549.452138504917
 31
0.0
  0
LINE
  5
61
330
1F
100
AcDbEntity
  8
1
  6
Continuous
 62
     3
100
AcDbLine
 10
2292.18200309864
 20
2004.466424335823
 30
0.0
 11
2292.18200309864
 21
1999.456990339973
 31
0.0
  0
LINE
  5
62
330
1F
100
AcDbEntity
  8
1
  6
Continuous
 62
     3
100
AcDbLine
 10
2293.382003098588
 20
2004.46642433557
 30
0.0
 11
2292.182003098588
 21
2004.46642433557
 31
0.0
  0
LINE
  5
63
330
1F
100
AcDbEntity
  8
1
  6
Continuous
 62
     3
100
AcDbLine
 10
2293.382003098519
 20
1544.46642433557
 30
0.0
 11
2293.382003098588
 21
2004.46642433557
 31
0.0
  0
LINE
  5
64
330
1F
100
AcDbEntity
  8
1
  6
Continuous
 62
     3
100
AcDbLine
 10
2293.382003098519
 20
1544.46642433557
 30
0.0
 11
2292.182003098519
 21
1544.466424335571
 31
0.0
  0
LINE
  5
65
330
1F
100
AcDbEntity
  8
1
  6
Continuous
 62
     3
100
AcDbLine
 10
2292.182003098523
 20
1576.466424335571
 30
0.0
 11
2279.382003098524
 21
1576.466424335572
 31
0.0
  0
LINE
  5
66
330
1F
100
AcDbEntity
  8
1
  6
Continuous
 62
     3
100
AcDbLine
 10
2292.182003098523
 20
1574.466424335571
 30
0.0
 11
2292.182003098523
 21
1576.466424335571
 31
0.0
  0
LINE
  5
67
330
1F
100
AcDbEntity
  8
1
  6
Continuous
 62
     3
100
AcDbLine
 10
2270.14441519231
 20
1942.274905423814
 30
0.0
 11
2279.382003098524
 21
1576.466424335572
 31
0.0
  0
LINE
  5
68
330
1F
100
AcDbEntity
  8
1
  6
Continuous
 62
     3
100
AcDbLine
 10
1390.18200309864
 20
687.266424335823
 30
0.0
 11
1024.373522010399
 21
696.5040122420917
 31
0.0
  0
LINE
  5
69
330
1F
100
AcDbEntity
  8
1
  6
Continuous
 62
     3
100
AcDbLine
 10
1390.18200309864
 20
674.466424335823
 30
0.0
 11
1392.18200309864
 21
674.466424335823
 31
0.0
  0
LINE
  5
6A
330
1F
100
AcDbEntity
  8
1
  6
Continuous
 62
     3
100
AcDbLine
 10
1422.18200309864
 20
674.466424335823
 30
0.0
 11
1417.196288929546
 21
674.466424335823
 31
0.0
  0
LINE
  5
6B
330
1F
100
AcDbEntity
  8
1
  6
Continuous
 62
     3
100
AcDbLine
 10
1422.18200309864
 20
674.466424335823
 30
0.0
 11
1422.18200309864
 21
673.2664243358229
 31
0.0
  0
LINE
  5
6C
330
1F
100
AcDbEntity
  8
1
  6
Continuous
 62
     3
100
AcDbLine
 10
1390.18200309864
 20
687.266424335823
 30
0.0
 11
1390.18200309864
 21
674.466424335823
 31
0.0
  0
LINE
  5
6D
330
1F
100
AcDbEntity
  8
1
  6
Continuous
 62
     3
100
AcDbLine
 10
962.1820030986401
 20
674.466424335823
 30
0.0
 11
962.1820030986401
 21
673.2664243358229
 31
0.0
  0
LINE
  5
6E
330
1F
100
AcDbEntity
  8
1
  6
Continuous
 62
     3
100
AcDbLine
 10
962.1820030986401
 20
674.466424335823
 30
0.0
 11
967.191437094489
 21
674.466424335823
 31
0.0
  0
LINE
  5
6F
330
1F
100
AcDbEntity
  8
1
  6
Continuous
 62
     3
100
AcDbLine
 10
962.1820030986401
 20
673.2664243358229
 30
0.0
 11
1422.18200309864
 21
673.2664243358229
 31
0.0
  0
LINE
  5
70
330
1F
100
AcDbEntity
  8
1
  6
DASH_CENTER
 62
     3
100
AcDbLine
 10
811.688450880175
 20
1693.603887800312
 30
0.0
 11
1273.646535463188
 21
2155.561972383323
 31
0.0
  0
LINE
  5
71
330
1F
100
AcDbEntity
  8
1
  6
DASH_CENTER
 62
     3
100
AcDbLine
 10
1218.307928451856
 20
2043.973020928605
 30
0.0
 11
1165.438489850423
 21
2096.842459530035
 31
0.0
  0
LINE
  5
72
330
1F
100
AcDbEntity
  8
1
  6
DASH_CENTER
 62
     3
100
AcDbLine
 10
1159.43537409572
 20
1985.100466572469
 30
0.0
 11
1106.565935494287
 21
2037.969905173901
 31
0.0
  0
LINE
  5
73
330
1F
100
AcDbEntity
  8
1
  6
DASH_CENTER
 62
     3
100
AcDbLine
 10
1100.181949132461
 20
1925.847041609208
 30
0.0
 11
1047.312510531029
 21
1978.71648021064
 31
0.0
  0
LINE
  5
74
330
1F
100
AcDbEntity
  8
1
  6
DASH_CENTER
 62
     3
100
AcDbLine
 10
1276.547510885591
 20
2102.21260336234
 30
0.0
 11
1223.678072284158
 21
2155.082041963771
 31
0.0
  0
LINE
  5
75
330
1F
100
AcDbEntity
  8
1
  6
DASH_CENTER
 62
     3
100
AcDbLine
 10
864.435824072151
 20
1690.100916548896
 30
0.0
 11
811.5663854707179
 21
1742.970355150327
 31
0.0
  0
LINE
  5
76
330
1F
100
AcDbEntity
  8
1
  6
Continuous
 62
     7
100
AcDbLine
 10
1142.20313710248
 20
1983.00031469662
 30
0.0
 11
1140.576791505751
 21
1984.626660293349
 31
0.0
  0
LINE
  5
77
330
1F
100
AcDbEntity
  8
1
  6
Continuous
 62
     7
100
AcDbLine
 10
1162.586157483367
 20
2003.383335077506
 30
0.0
 11
1160.959811886637
 21
2005.009680674235
 31
0.0
  0
LINE
  5
78
330
1F
100
AcDbEntity
  8
1
  6
Continuous
 62
     7
100
AcDbLine
 10
961.6387467600571
 20
1805.688615547654
 30
0.0
 11
963.2650923567849
 21
1804.062269950925
 31
0.0
  0
LINE
  5
79
330
1F
100
AcDbEntity
  8
1
  6
Continuous
 62
     7
100
AcDbLine
 10
982.021767140943
 20
1826.07163592854
 30
0.0
 11
983.6481127376719
 21
1824.445290331811
 31
0.0
  0
LINE
  5
7A
330
1F
100
AcDbEntity
  8
1
  6
DASH_CENTER
 62
     3
100
AcDbLine
 10
1047.514630850188
 20
1106.544557266548
 30
0.0
 11
1042.208974019629
 21
1090.914596257005
 31
0.0
  0
LINE
  5
7B
330
1F
100
AcDbEntity
  8
1
  6
Continuous
 62
     7
100
AcDbLine
 10
1230.245340703417
 20
1473.563179740851
 30
0.0
 11
1248.500482347967
 21
1459.555516887609
 31
0.0
  0
LINE
  5
7C
330
1F
100
AcDbEntity
  8
1
  6
DASH_CENTER
 62
     3
100
AcDbLine
 10
1252.455931135521
 20
1483.699441319752
 30
0.0
 11
1242.407758516287
 21
1470.604407811678
 31
0.0
  0
LINE
  5
7D
330
1F
100
AcDbEntity
  8
1
  6
DASH_CENTER
 62
     3
100
AcDbLine
 10
1239.951092675489
 20
1481.871599489178
 30
0.0
 11
1253.704687436634
 21
1471.318095047226
 31
0.0
  0
LINE
  5
7E
330
1F
100
AcDbEntity
  8
1
  6
DASH_CENTER
 62
     3
100
AcDbLine
 10
1495.330332387316
 20
1712.943739997872
 30
0.0
 11
1484.776827945366
 21
1726.697334759018
 31
0.0
  0
LINE
  5
7F
330
1F
100
AcDbEntity
  8
1
  6
DASH_CENTER
 62
     3
100
AcDbLine
 10
1496.044019622866
 20
1724.240668918219
 30
0.0
 11
1482.948986114791
 21
1714.192496298987
 31
0.0
  0
LINE
  5
80
330
1F
100
AcDbEntity
  8
1
  6
Continuous
 62
     7
100
AcDbLine
 10
1507.092910546934
 20
1718.147945086537
 30
0.0
 11
1493.085247693695
 21
1736.403086731089
 31
0.0
  0
LINE
  5
81
330
1F
100
AcDbEntity
  8
1
  6
Continuous
 62
     7
100
AcDbLine
 10
1473.251414186411
 20
1721.184051005874
 30
0.0
 11
1487.259077039651
 21
1702.928909361321
 31
0.0
  0
LINE
  5
82
330
1F
100
AcDbEntity
  8
1
  6
Continuous
 62
     7
100
AcDbLine
 10
1507.092910546915
 20
1718.147945086523
 30
0.0
 11
1493.085247693672
 21
1736.403086731074
 31
0.0
  0
LINE
  5
83
330
1F
100
AcDbEntity
  8
1
  6
Continuous
 62
     7
100
AcDbLine
 10
1473.251414186391
 20
1721.184051005856
 30
0.0
 11
1487.259077039633
 21
1702.928909361306
 31
0.0
  0
LINE
  5
84
330
1F
100
AcDbEntity
  8
1
  6
DASH_CENTER
 62
     3
100
AcDbLine
 10
1497.32865464465
 20
1725.226404040137
 30
0.0
 11
1484.233621136575
 21
1715.178231420904
 31
0.0
  0
LINE
  5
85
330
1F
100
AcDbEntity
  8
1
  6
DASH_CENTER
 62
     3
100
AcDbLine
 10
1484.776827945345
 20
1726.697334759002
 30
0.0
 11
1495.330332387297
 21
1712.943739997857
 31
0.0
  0
LINE
  5
86
330
1F
100
AcDbEntity
  8
1
  6
Continuous
 62
     7
100
AcDbLine
 10
1853.168308732717
 20
1928.871492723625
 30
0.0
 11
1860.564663763
 21
1907.082533424504
 31
0.0
  0
LINE
  5
87
330
1F
100
AcDbEntity
  8
1
  6
Continuous
 62
     7
100
AcDbLine
 10
1884.237917000378
 20
1915.118520057081
 30
0.0
 11
1876.841561970095
 21
1936.9074793562
 31
0.0
  0
LINE
  5
88
330
1F
100
AcDbEntity
  8
1
  6
DASH_CENTER
 62
     3
100
AcDbLine
 10
1875.733831177569
 20
1924.439453414819
 30
0.0
 11
1860.103870168025
 21
1919.133796584263
 31
0.0
  0
LINE
  5
89
330
1F
100
AcDbEntity
  8
1
  6
DASH_CENTER
 62
     3
100
AcDbLine
 10
1871.426740439467
 20
1913.971458292766
 30
0.0
 11
1865.854257257643
 21
1930.387464385857
 31
0.0
  0
LINE
  5
8A
330
1F
100
AcDbEntity
  8
1
  6
DASH_CENTER
 62
     3
100
AcDbLine
 10
2269.337291583233
 20
1983.239070526022
 30
0.0
 11
2269.034736197691
 21
2000.572456955073
 31
0.0
  0
LINE
  5
8B
330
1F
100
AcDbEntity
  8
1
  6
DASH_CENTER
 62
     3
100
AcDbLine
 10
2276.630664705998
 20
1991.89566691223
 30
0.0
 11
2260.127250141389
 21
1991.60759873947
 31
0.0
  0
LINE
  5
8C
330
1F
100
AcDbEntity
  8
1
  6
Continuous
 62
     7
100
AcDbLine
 10
2281.888300509054
 20
1980.425856970321
 30
0.0
 11
2281.486718848817
 21
2003.43245487707
 31
0.0
  0
LINE
  5
8D
330
1F
100
AcDbEntity
  8
1
  6
Continuous
 62
     7
100
AcDbLine
 10
2256.490526469907
 20
2002.996144716142
 30
0.0
 11
2256.892108130144
 21
1979.989546809391
 31
0.0
  0
LINE
  5
8E
330
1F
100
AcDbEntity
  8
1
  6
Continuous
 62
     7
100
AcDbLine
 10
1263.719518073186
 20
1479.389350394889
 30
0.0
 11
1245.464376428635
 21
1493.397013248132
 31
0.0
  0
LINE
  5
8F
330
1F
100
AcDbEntity
  8
1
  6
DASH_CENTER
 62
     3
100
AcDbLine
 10
1036.260963048593
 20
1100.794170176932
 30
0.0
 11
1052.676969141683
 21
1095.221686995105
 31
0.0
  0
LINE
  5
90
330
1F
100
AcDbEntity
  8
1
  6
Continuous
 62
     7
100
AcDbLine
 10
1029.740948078248
 20
1089.806865464481
 30
0.0
 11
1051.529907377366
 21
1082.410510434194
 31
0.0
  0
LINE
  5
91
330
1F
100
AcDbEntity
  8
1
  6
Continuous
 62
     7
100
AcDbLine
 10
1059.565894009947
 20
1106.083763671571
 30
0.0
 11
1037.776934710827
 21
1113.480118701858
 31
0.0
  0
LINE
  5
92
330
1F
100
AcDbEntity
  8
1
  6
Continuous
 62
     7
100
AcDbLine
 10
986.658880624999
 20
709.7563193044387
 30
0.0
 11
963.6522827182489
 21
710.1579009646783
 31
0.0
  0
LINE
  5
93
330
1F
100
AcDbEntity
  8
1
  6
Continuous
 62
     7
100
AcDbLine
 10
963.215972557317
 20
685.1617085857686
 30
0.0
 11
986.222570464065
 21
684.7601269255289
 31
0.0
  0
LINE
  5
94
330
1F
100
AcDbEntity
  8
1
  6
DASH_CENTER
 62
     3
100
AcDbLine
 10
975.04082869492
 20
706.521177293195
 30
0.0
 11
974.7527605221569
 21
690.0177627285865
 31
0.0
  0
LINE
  5
95
330
1F
100
AcDbEntity
  8
1
  6
DASH_CENTER
 62
     3
100
AcDbLine
 10
966.0759704793159
 20
697.6136912368945
 30
0.0
 11
983.409356908367
 21
697.3111358513495
 31
0.0
  0
LINE
  5
96
330
1F
100
AcDbEntity
  8
1
  6
DASH_CENTER
 62
     3
100
AcDbLine
 10
743.5355906139751
 20
2223.112836820316
 30
0.0
 11
1096.173649267012
 21
1870.474778167279
 31
0.0
  0
LINE
  5
97
330
1F
100
AcDbEntity
  8
1
  6
DASH_CENTER
 62
     3
100
AcDbLine
 10
1309.88966184242
 20
1656.758765591871
 30
0.0
 11
1725.065166797745
 21
1241.583260636546
 31
0.0
  0
LINE
  5
98
330
1F
100
AcDbEntity
  8
1
  6
Continuous
 62
     7
100
AcDbLine
 10
1290.826140496628
 20
2128.370626897307
 30
0.0
 11
838.2778005372379
 21
1675.822286937916
 31
0.0
  0
LINE
  5
99
330
1F
100
AcDbEntity
  8
1
  6
Continuous
 62
     7
100
AcDbLine
 10
1289.199794899899
 20
2129.996972494036
 30
0.0
 11
836.651454940509
 21
1677.448632534645
 31
0.0
  0
LINE
  5
9A
330
1F
100
AcDbEntity
  8
1
  6
Continuous
 62
     4
100
AcDbLine
 10
844.548515115695
 20
1103.951330322647
 30
0.0
 11
869.0232962531529
 21
952.17003455737
 31
0.0
  0
LINE
  5
9B
330
1F
100
AcDbEntity
  8
1
  6
Continuous
 62
     4
100
AcDbLine
 10
959.592236014995
 20
1069.82007951574
 30
0.0
 11
869.0232962531529
 21
952.17003455737
 31
0.0
  0
LINE
  5
9C
330
1F
100
AcDbEntity
  8
1
  6
Continuous
 62
     4
100
AcDbLine
 10
873.3094453405199
 20
1095.41851762092
 30
0.0
 11
844.548515115695
 21
1103.951330322647
 31
0.0
  0
LINE
  5
9D
330
1F
100
AcDbEntity
  8
1
  6
Continuous
 62
     4
100
AcDbLine
 10
930.831305790171
 20
1078.352892217466
 30
0.0
 11
959.592236014995
 21
1069.82007951574
 31
0.0
  0
LINE
  5
9E
330
1F
100
AcDbEntity
  8
1
  6
Continuous
 62
     4
100
AcDbLine
 10
995.894997463834
 20
1254.155995591399
 30
0.0
 11
941.1223070849019
 21
1278.649921137413
 31
0.0
  0
LINE
  5
9F
330
1F
100
AcDbEntity
  8
1
  6
Continuous
 62
     4
100
AcDbLine
 10
1687.998506297168
 20
2025.526120349565
 30
0.0
 11
1712.492431843173
 21
1970.75342997063
 31
0.0
  0
LINE
  5
A0
330
1F
100
AcDbEntity
  8
1
  6
Continuous
 62
     4
100
AcDbLine
 10
1896.828347918838
 20
2007.056191419441
 30
0.0
 11
1888.295535217116
 21
2035.817121644267
 31
0.0
  0
LINE
  5
A1
330
1F
100
AcDbEntity
  8
1
  6
Continuous
 62
     3
100
AcDbLine
 10
1862.697097111948
 20
2122.099912318746
 30
0.0
 11
1871.229909813671
 21
2093.33898209392
 31
0.0
  0
LINE
  5
A2
330
1F
100
AcDbEntity
  8
1
  6
Continuous
 62
     4
100
AcDbLine
 10
2014.478392877221
 20
2097.625131181265
 30
0.0
 11
1896.828347918838
 21
2007.056191419441
 31
0.0
  0
LINE
  5
A3
330
1F
100
AcDbEntity
  8
1
  6
Continuous
 62
     4
100
AcDbLine
 10
2014.478392877221
 20
2097.625131181265
 30
0.0
 11
1862.697097111948
 21
2122.099912318746
 31
0.0
  0
LINE
  5
A4
330
1F
100
AcDbEntity
  8
1
  6
DASH_CENTER
 62
     3
100
AcDbLine
 10
1160.028644742426
 20
2114.042007554295
 30
0.0
 11
1239.865065175215
 21
2193.878427987086
 31
0.0
  0
LINE
  5
A5
330
1F
100
AcDbEntity
  8
1
  6
DASH_CENTER
 62
     3
100
AcDbLine
 10
1260.210142737753
 20
2171.187668364658
 30
0.0
 11
799.1296321989059
 21
1710.107157825811
 31
0.0
  0
LINE
  5
A6
330
1F
100
AcDbEntity
  8
1
  6
DASH_CENTER
 62
     3
100
AcDbLine
 10
995.6780022624089
 20
2030.646701970376
 30
0.0
 11
1056.209878265884
 21
2091.17857797385
 31
0.0
  0
LINE
  5
A7
330
1F
100
AcDbEntity
  8
1
  6
DASH_CENTER
 62
     3
100
AcDbLine
 10
995.67800226241
 20
2091.17857797385
 30
0.0
 11
1056.209878265884
 21
2030.646701970374
 31
0.0
  0
LINE
  5
A8
330
1F
100
AcDbEntity
  8
1
  6
DASH_CENTER
 62
     3
100
AcDbLine
 10
780.11077345951
 20
1734.124136271369
 30
0.0
 11
889.9416579269
 21
1843.955020738773
 31
0.0
  0
LINE
  5
A9
330
1F
100
AcDbEntity
  8
1
  6
DASH_CENTER
 62
     3
100
AcDbLine
 10
1160.028644742426
 20
2114.042007554295
 30
0.0
 11
1122.693406695777
 21
2076.706769507645
 31
0.0
  0
LINE
  5
AA
330
1F
100
AcDbEntity
  8
1
  6
DASH_CENTER
 62
     3
100
AcDbLine
 10
875.4698494606951
 20
1910.438549168661
 30
0.0
 11
936.0017254641689
 21
1970.970425172136
 31
0.0
  0
LINE
  5
AB
330
1F
100
AcDbEntity
  8
1
  6
DASH_CENTER
 62
     3
100
AcDbLine
 10
936.0017254641709
 20
1910.438549168662
 30
0.0
 11
875.4698494606951
 21
1970.970425172135
 31
0.0
  0
LINE
  5
AC
330
1F
100
AcDbEntity
  8
1
  6
DASH_CENTER
 62
     3
100
AcDbLine
 10
900.4890551460289
 20
2134.8618671486
 30
0.0
 11
831.7865602859449
 21
2066.159372288516
 31
0.0
  0
LINE
  5
AD
330
1F
100
AcDbEntity
  8
1
  6
DASH_CENTER
 62
     3
100
AcDbLine
 10
1008.386190434508
 20
2038.418826468845
 30
0.0
 11
889.8763038935749
 21
2130.922791611184
 31
0.0
  0
LINE
  5
AE
330
1F
100
AcDbEntity
  8
1
  6
DASH_CENTER
 62
     3
100
AcDbLine
 10
857.7921799310309
 20
1984.684761193246
 30
0.0
 11
918.324055934504
 21
2045.216637196722
 31
0.0
  0
LINE
  5
AF
330
1F
100
AcDbEntity
  8
1
  6
DASH_CENTER
 62
     3
100
AcDbLine
 10
931.4062321905899
 20
1928.243568566274
 30
0.0
 11
891.668434866139
 21
1846.380668868132
 31
0.0
  0
LINE
  5
B0
330
1F
100
AcDbEntity
  8
1
  6
DASH_CENTER
 62
     3
100
AcDbLine
 10
1038.404858868271
 20
2035.242195243955
 30
0.0
 11
1120.267758566413
 21
2074.979992568407
 31
0.0
  0
LINE
  5
B1
330
1F
100
AcDbEntity
  8
1
  6
DASH_CENTER
 62
     3
100
AcDbLine
 10
933.494812798479
 20
1947.313778917076
 30
0.0
 11
915.817143268815
 21
2021.559990941662
 31
0.0
  0
LINE
  5
B2
330
1F
100
AcDbEntity
  8
1
  6
DASH_CENTER
 62
     3
100
AcDbLine
 10
900.645969281717
 20
2040.559139667156
 30
0.0
 11
849.11873271888
 21
2065.887397941218
 31
0.0
  0
LINE
  5
B3
330
1F
100
AcDbEntity
  8
1
  6
DASH_CENTER
 62
     3
100
AcDbLine
 10
913.4464373689059
 20
1989.562379758848
 30
0.0
 11
864.1900170271119
 21
2038.818800100641
 31
0.0
  0
LINE
  5
B4
330
1F
100
AcDbEntity
  8
1
  6
DASHED
 62
     4
100
AcDbLine
 10
873.562428918445
 20
2263.498732782056
 30
0.0
 11
703.1496946524881
 21
2093.085998516097
 31
0.0
  0
LINE
  5
B5
330
1F
100
AcDbEntity
  8
1
  6
Continuous
 62
     7
100
AcDbLine
 10
1265.977766312069
 20
1520.518943037405
 30
0.0
 11
1250.75513576706
 21
1503.761257311389
 31
0.0
  0
LINE
  5
B6
330
1F
100
AcDbEntity
  8
1
  6
Continuous
 62
     7
100
AcDbLine
 10
1250.75513576706
 20
1503.761257311389
 30
0.0
 11
1251.664275022743
 21
1502.852118055706
 31
0.0
  0
LINE
  5
B7
330
1F
100
AcDbEntity
  8
1
  6
Continuous
 62
     7
100
AcDbLine
 10
1462.887170123043
 20
1715.893291667338
 30
0.0
 11
1463.796309378703
 21
1714.984152411678
 31
0.0
  0
LINE
  5
B8
330
1F
100
AcDbEntity
  8
1
  6
Continuous
 62
     7
100
AcDbLine
 10
1462.887170123043
 20
1715.893291667338
 30
0.0
 11
1446.12948439743
 21
1700.670661122701
 31
0.0
  0
LINE
  5
B9
330
1F
100
AcDbEntity
  8
1
  6
Continuous
 62
     7
100
AcDbLine
 10
1580.125474443762
 20
1174.390918634687
 30
0.0
 11
1792.257508799726
 21
1386.522952990651
 31
0.0
  0
LINE
  5
BA
330
1F
100
AcDbEntity
  8
1
  6
Continuous
 62
     3
100
AcDbLine
 10
3032.469497407334
 20
836.7601667725871
 30
0.0
 11
3302.749497407334
 21
836.7601667725871
 31
0.0
  0
LINE
  5
BB
330
1F
100
AcDbEntity
  8
1
  6
Continuous
 62
     7
100
AcDbLine
 10
3011.485190606893
 20
1079.172603594034
 30
0.0
 11
2949.485190606893
 21
1079.172603594034
 31
0.0
  0
LINE
  5
BC
330
1F
100
AcDbEntity
  8
1
  6
Continuous
 62
     7
100
AcDbLine
 10
3374.485190606893
 20
1081.872603594034
 30
0.0
 11
3014.372708179527
 21
1081.872603594035
 31
0.0
  0
LINE
  5
BD
330
1F
100
AcDbEntity
  8
1
  6
Continuous
 62
     7
100
AcDbLine
 10
3382.685190606893
 20
1053.418651867523
 30
0.0
 11
3392.345860019532
 21
1053.660168602837
 31
0.0
  0
LINE
  5
BE
330
1F
100
AcDbEntity
  8
1
  6
Continuous
 62
     7
100
AcDbLine
 10
2967.228688384478
 20
1053.035363823832
 30
0.0
 11
2967.47861029608
 21
1043.038487359753
 31
0.0
  0
LINE
  5
BF
330
1F
100
AcDbEntity
  8
1
  6
Continuous
 62
     7
100
AcDbLine
 10
2967.228688384478
 20
1053.035363823832
 30
0.0
 11
2976.285190606893
 21
1053.261776379394
 31
0.0
  0
LINE
  5
C0
330
1F
100
AcDbEntity
  8
1
  6
Continuous
 62
     7
100
AcDbLine
 10
3392.04595372561
 20
1065.656420359736
 30
0.0
 11
3382.685190606893
 21
1065.422401281768
 31
0.0
  0
LINE
  5
C1
330
1F
100
AcDbEntity
  8
1
  6
Continuous
 62
     7
100
AcDbLine
 10
3392.345860019532
 20
1053.660168602837
 30
0.0
 11
3392.04595372561
 21
1065.656420359736
 31
0.0
  0
LINE
  5
C2
330
1F
100
AcDbEntity
  8
1
  6
Continuous
 62
     7
100
AcDbLine
 10
2967.47861029608
 20
1043.038487359753
 30
0.0
 11
2976.285190606893
 21
1043.258651867524
 31
0.0
  0
LINE
  5
C3
330
1F
100
AcDbEntity
  8
1
  6
Continuous
 62
     7
100
AcDbLine
 10
3375.61733686645
 20
1036.586753211747
 30
0.0
 11
3374.485190606893
 21
1081.872603594034
 31
0.0
  0
LINE
  5
C4
330
1F
100
AcDbEntity
  8
1
  6
Continuous
 62
     7
100
AcDbLine
 10
3015.954713879968
 20
1018.592375576399
 30
0.0
 11
3375.61733686645
 21
1036.586753211747
 31
0.0
  0
LINE
  5
C5
330
1F
100
AcDbEntity
  8
1
  6
DASH_CENTER
 62
     3
100
AcDbLine
 10
2962.330218917078
 20
1048.9116522824
 30
0.0
 11
3397.194345104612
 21
1059.783255437087
 31
0.0
  0
LINE
  5
C6
330
1F
100
AcDbEntity
  8
1
  6
Continuous
 62
     7
100
AcDbLine
 10
3374.83883011181
 20
1067.72702339736
 30
0.0
 11
3379.485190606893
 21
1067.843182409737
 31
0.0
  0
LINE
  5
C7
330
1F
100
AcDbEntity
  8
1
  6
Continuous
 62
     7
100
AcDbLine
 10
3375.263697361534
 20
1050.732333408421
 30
0.0
 11
3379.485190606893
 21
1050.837870739554
 31
0.0
  0
LINE
  5
C8
330
1F
100
AcDbEntity
  8
1
  6
Continuous
 62
     7
100
AcDbLine
 10
3014.372708179527
 20
1081.872603594035
 30
0.0
 11
3015.954713879968
 21
1018.592375576399
 31
0.0
  0
LINE
  5
C9
330
1F
100
AcDbEntity
  8
1
  6
Continuous
 62
     7
100
AcDbLine
 10
2989.68417214192
 20
1041.092845277931
 30
0.0
 11
2979.485190606893
 21
1040.837870739555
 31
0.0
  0
LINE
  5
CA
330
1F
100
AcDbEntity
  8
1
  6
Continuous
 62
     7
100
AcDbLine
 10
2989.259304892196
 20
1058.087535266869
 30
0.0
 11
2979.485190606893
 21
1057.843182409737
 31
0.0
  0
LINE
  5
CB
330
1F
100
AcDbEntity
  8
1
  6
Continuous
 62
     7
100
AcDbLine
 10
2989.234312701032
 20
1059.087222913277
 30
0.0
 11
2989.709164333076
 21
1040.093157631522
 31
0.0
  0
LINE
  5
CC
330
1F
100
AcDbEntity
  8
1
  6
Continuous
 62
     7
100
AcDbLine
 10
2989.709164333076
 20
1040.093157631522
 30
0.0
 11
2993.507977389427
 21
1040.188127957931
 31
0.0
  0
LINE
  5
CD
330
1F
100
AcDbEntity
  8
1
  6
Continuous
 62
     7
100
AcDbLine
 10
2989.234312701032
 20
1059.087222913277
 30
0.0
 11
2993.033125757384
 21
1059.182193239686
 31
0.0
  0
LINE
  5
CE
330
1F
100
AcDbEntity
  8
1
  6
Continuous
 62
     7
100
AcDbLine
 10
2994.295231410974
 20
1072.717963972051
 30
0.0
 11
2998.293981996607
 21
1072.817932736692
 31
0.0
  0
LINE
  5
CF
330
1F
100
AcDbEntity
  8
1
  6
Continuous
 62
     7
100
AcDbLine
 10
3008.178393600466
 20
1073.565199252382
 30
0.0
 11
3009.353026584995
 21
1026.5798798712
 31
0.0
  0
LINE
  5
D0
330
1F
100
AcDbEntity
  8
1
  6
Continuous
 62
     7
100
AcDbLine
 10
3002.705103736381
 20
1040.418056116605
 30
0.0
 11
3007.003760615936
 21
1040.525522538594
 31
0.0
  0
LINE
  5
D1
330
1F
100
AcDbEntity
  8
1
  6
Continuous
 62
     7
100
AcDbLine
 10
3002.230252104338
 20
1059.412121398359
 30
0.0
 11
3006.528908983893
 21
1059.519587820348
 31
0.0
  0
LINE
  5
D2
330
1F
100
AcDbEntity
  8
1
  6
DASH_CENTER
 62
     3
100
AcDbLine
 10
2997.485190606893
 20
992.3499746560567
 30
0.0
 11
2997.485190606893
 21
1003.646671286501
 31
0.0
  0
LINE
  5
D3
330
1F
100
AcDbEntity
  8
1
  6
DASH_CENTER
 62
     3
100
AcDbLine
 10
2997.548838473187
 20
1022.598677578511
 30
0.0
 11
2996.29460670379
 21
1072.767948354372
 31
0.0
  0
LINE
  5
D4
330
1F
100
AcDbEntity
  8
1
  6
Continuous
 62
     7
100
AcDbLine
 10
2993.510190606893
 20
993.1166712865006
 30
0.0
 11
2993.510190606893
 21
1005.116671286501
 31
0.0
  0
LINE
  5
D5
330
1F
100
AcDbEntity
  8
1
  6
Continuous
 62
     7
100
AcDbLine
 10
2990.010190606893
 20
993.9166712865006
 30
0.0
 11
2990.010190606893
 21
1004.316671286501
 31
0.0
  0
LINE
  5
D6
330
1F
100
AcDbEntity
  8
1
  6
Continuous
 62
     7
100
AcDbLine
 10
2991.510190606893
 20
993.9166712865006
 30
0.0
 11
2991.510190606893
 21
1004.316671286501
 31
0.0
  0
LINE
  5
D7
330
1F
100
AcDbEntity
  8
1
  6
Continuous
 62
     7
100
AcDbLine
 10
2992.010190606893
 20
993.1166712865006
 30
0.0
 11
2992.010190606893
 21
1005.116671286502
 31
0.0
  0
LINE
  5
D8
330
1F
100
AcDbEntity
  8
1
  6
Continuous
 62
     7
100
AcDbLine
 10
3001.460190606892
 20
1005.116671286501
 30
0.0
 11
3001.460190606892
 21
993.1166712865006
 31
0.0
  0
LINE
  5
D9
330
1F
100
AcDbEntity
  8
1
  6
Continuous
 62
     7
100
AcDbLine
 10
3002.960190606892
 20
993.1166712865006
 30
0.0
 11
3002.960190606892
 21
1005.116671286501
 31
0.0
  0
LINE
  5
DA
330
1F
100
AcDbEntity
  8
1
  6
Continuous
 62
     7
100
AcDbLine
 10
3003.460190606892
 20
1004.316671286501
 30
0.0
 11
3003.460190606892
 21
993.9166712865006
 31
0.0
  0
LINE
  5
DB
330
1F
100
AcDbEntity
  8
1
  6
Continuous
 62
     7
100
AcDbLine
 10
3004.960190606892
 20
993.9166712865006
 30
0.0
 11
3004.960190606892
 21
1004.316671286501
 31
0.0
  0
LINE
  5
DC
330
1F
100
AcDbEntity
  8
1
  6
Continuous
 62
     7
100
AcDbLine
 10
2991.510190606893
 20
1004.316671286501
 30
0.0
 11
2990.010190606893
 21
1004.316671286501
 31
0.0
  0
LINE
  5
DD
330
1F
100
AcDbEntity
  8
1
  6
Continuous
 62
     7
100
AcDbLine
 10
2992.010190606893
 20
993.1166712865006
 30
0.0
 11
2993.510190606893
 21
993.1166712865006
 31
0.0
  0
LINE
  5
DE
330
1F
100
AcDbEntity
  8
1
  6
Continuous
 62
     7
100
AcDbLine
 10
3001.460190606892
 20
993.1166712865006
 30
0.0
 11
3002.960190606892
 21
993.1166712865006
 31
0.0
  0
LINE
  5
DF
330
1F
100
AcDbEntity
  8
1
  6
Continuous
 62
     7
100
AcDbLine
 10
3004.960190606892
 20
1004.316671286501
 30
0.0
 11
3003.460190606892
 21
1004.316671286501
 31
0.0
  0
LINE
  5
E0
330
1F
100
AcDbEntity
  8
1
  6
DASH_CENTER
 62
     3
100
AcDbLine
 10
3005.976157845607
 20
999.1166712865006
 30
0.0
 11
2988.994223368179
 21
999.1166712865006
 31
0.0
  0
LINE
  5
E1
330
1F
100
AcDbEntity
  8
1
  6
Continuous
 62
     7
100
AcDbLine
 10
2993.510190606893
 20
1005.116671286501
 30
0.0
 11
2992.010190606893
 21
1005.116671286502
 31
0.0
  0
LINE
  5
E2
330
1F
100
AcDbEntity
  8
1
  6
Continuous
 62
     7
100
AcDbLine
 10
3002.960190606892
 20
1005.116671286501
 30
0.0
 11
3001.460190606892
 21
1005.116671286501
 31
0.0
  0
LINE
  5
E3
330
1F
100
AcDbEntity
  8
1
  6
Continuous
 62
     7
100
AcDbLine
 10
3003.460190606892
 20
993.9166712865006
 30
0.0
 11
3004.960190606892
 21
993.9166712865006
 31
0.0
  0
LINE
  5
E4
330
1F
100
AcDbEntity
  8
1
  6
Continuous
 62
     7
100
AcDbLine
 10
2990.010190606893
 20
993.9166712865006
 30
0.0
 11
2991.510190606893
 21
993.9166712865006
 31
0.0
  0
LINE
  5
E5
330
1F
100
AcDbEntity
  8
1
  6
Continuous
 62
     7
100
AcDbLine
 10
2993.510190606893
 20
1003.086671286501
 30
0.0
 11
3001.460190606892
 21
1003.086671286501
 31
0.0
  0
LINE
  5
E6
330
1F
100
AcDbEntity
  8
1
  6
Continuous
 62
     7
100
AcDbLine
 10
3001.460190606892
 20
995.1466712865007
 30
0.0
 11
2993.510190606893
 21
995.1466712865007
 31
0.0
  0
LINE
  5
E7
330
1F
100
AcDbEntity
  8
1
  6
Continuous
 62
     7
100
AcDbLine
 10
3001.460190606892
 20
1025.646671286503
 30
0.0
 11
2993.510190606893
 21
1025.646671286503
 31
0.0
  0
LINE
  5
E8
330
1F
100
AcDbEntity
  8
1
  6
Continuous
 62
     7
100
AcDbLine
 10
2993.510190606893
 20
1033.586671286503
 30
0.0
 11
3001.460190606892
 21
1033.586671286503
 31
0.0
  0
LINE
  5
E9
330
1F
100
AcDbEntity
  8
1
  6
DASH_CENTER
 62
     3
100
AcDbLine
 10
2991.869584336811
 20
1070.206557289789
 30
0.0
 11
3000.536544734885
 21
1070.423231299741
 31
0.0
  0
LINE
  5
EA
330
1F
100
AcDbEntity
  8
1
  6
Continuous
 62
     7
100
AcDbLine
 10
3009.353026584995
 20
1026.5798798712
 30
0.0
 11
3015.751027522013
 21
1026.739829894625
 31
0.0
  0
LINE
  5
EB
330
1F
100
AcDbEntity
  8
1
  6
Continuous
 62
     7
100
AcDbLine
 10
3008.178393600466
 20
1073.565199252382
 30
0.0
 11
3014.576394537482
 21
1073.725149275807
 31
0.0
  0
LINE
  5
EC
330
1F
100
AcDbEntity
  8
1
  6
Continuous
 62
     7
100
AcDbLine
 10
3000.055206699857
 20
1066.388941482641
 30
0.0
 11
2992.857455645718
 21
1066.208997706288
 31
0.0
  0
LINE
  5
ED
330
1F
100
AcDbEntity
  8
1
  6
Continuous
 62
     7
100
AcDbLine
 10
2990.010190606893
 20
1024.416671286503
 30
0.0
 11
2991.510190606893
 21
1024.416671286503
 31
0.0
  0
LINE
  5
EE
330
1F
100
AcDbEntity
  8
1
  6
Continuous
 62
     7
100
AcDbLine
 10
3003.460190606892
 20
1024.416671286503
 30
0.0
 11
3004.960190606892
 21
1024.416671286503
 31
0.0
  0
LINE
  5
EF
330
1F
100
AcDbEntity
  8
1
  6
Continuous
 62
     7
100
AcDbLine
 10
3002.960190606892
 20
1035.616671286504
 30
0.0
 11
3001.460190606892
 21
1035.616671286504
 31
0.0
  0
LINE
  5
F0
330
1F
100
AcDbEntity
  8
1
  6
Continuous
 62
     7
100
AcDbLine
 10
2993.510190606893
 20
1035.616671286504
 30
0.0
 11
2992.010190606893
 21
1035.616671286504
 31
0.0
  0
LINE
  5
F1
330
1F
100
AcDbEntity
  8
1
  6
DASH_CENTER
 62
     3
100
AcDbLine
 10
3005.976157845607
 20
1029.616671286503
 30
0.0
 11
2988.994223368179
 21
1029.616671286503
 31
0.0
  0
LINE
  5
F2
330
1F
100
AcDbEntity
  8
1
  6
Continuous
 62
     7
100
AcDbLine
 10
3004.960190606892
 20
1034.816671286503
 30
0.0
 11
3003.460190606892
 21
1034.816671286503
 31
0.0
  0
LINE
  5
F3
330
1F
100
AcDbEntity
  8
1
  6
Continuous
 62
     7
100
AcDbLine
 10
3001.460190606892
 20
1023.616671286503
 30
0.0
 11
3002.960190606892
 21
1023.616671286503
 31
0.0
  0
LINE
  5
F4
330
1F
100
AcDbEntity
  8
1
  6
Continuous
 62
     7
100
AcDbLine
 10
2992.010190606893
 20
1023.616671286503
 30
0.0
 11
2993.510190606893
 21
1023.616671286503
 31
0.0
  0
LINE
  5
F5
330
1F
100
AcDbEntity
  8
1
  6
Continuous
 62
     7
100
AcDbLine
 10
2991.510190606893
 20
1034.816671286503
 30
0.0
 11
2990.010190606893
 21
1034.816671286503
 31
0.0
  0
LINE
  5
F6
330
1F
100
AcDbEntity
  8
1
  6
Continuous
 62
     7
100
AcDbLine
 10
3004.960190606892
 20
1024.416671286503
 30
0.0
 11
3004.960190606892
 21
1034.816671286503
 31
0.0
  0
LINE
  5
F7
330
1F
100
AcDbEntity
  8
1
  6
Continuous
 62
     7
100
AcDbLine
 10
3003.460190606892
 20
1034.816671286503
 30
0.0
 11
3003.460190606892
 21
1024.416671286503
 31
0.0
  0
LINE
  5
F8
330
1F
100
AcDbEntity
  8
1
  6
Continuous
 62
     7
100
AcDbLine
 10
3002.960190606892
 20
1023.616671286503
 30
0.0
 11
3002.960190606892
 21
1035.616671286504
 31
0.0
  0
LINE
  5
F9
330
1F
100
AcDbEntity
  8
1
  6
Continuous
 62
     7
100
AcDbLine
 10
3001.460190606892
 20
1035.616671286504
 30
0.0
 11
3001.460190606892
 21
1023.616671286503
 31
0.0
  0
LINE
  5
FA
330
1F
100
AcDbEntity
  8
1
  6
Continuous
 62
     7
100
AcDbLine
 10
2992.010190606893
 20
1023.616671286503
 30
0.0
 11
2992.010190606893
 21
1035.616671286504
 31
0.0
  0
LINE
  5
FB
330
1F
100
AcDbEntity
  8
1
  6
Continuous
 62
     7
100
AcDbLine
 10
2991.510190606893
 20
1024.416671286503
 30
0.0
 11
2991.510190606893
 21
1034.816671286503
 31
0.0
  0
LINE
  5
FC
330
1F
100
AcDbEntity
  8
1
  6
Continuous
 62
     7
100
AcDbLine
 10
2990.010190606893
 20
1024.416671286503
 30
0.0
 11
2990.010190606893
 21
1034.816671286503
 31
0.0
  0
LINE
  5
FD
330
1F
100
AcDbEntity
  8
1
  6
Continuous
 62
     7
100
AcDbLine
 10
2993.510190606893
 20
1023.616671286503
 30
0.0
 11
2993.510190606893
 21
1035.616671286504
 31
0.0
  0
LINE
  5
FE
330
1F
100
AcDbEntity
  8
1
  6
Continuous
 62
     7
100
AcDbLine
 10
3011.677300362895
 20
1073.652671921443
 30
0.0
 11
3012.851933347424
 21
1026.667352540261
 31
0.0
  0
LINE
  5
FF
330
1F
100
AcDbEntity
  8
1
  6
DASH_CENTER
 62
     3
100
AcDbLine
 10
3006.044702477352
 20
1070.010763395149
 30
0.0
 11
3014.131398125177
 21
1070.212930786345
 31
0.0
  0
LINE
  5
100
330
1F
100
AcDbEntity
  8
1
  6
Continuous
 62
     7
100
AcDbLine
 10
3000.894669408735
 20
1032.810433127439
 30
0.0
 11
3000.052806224393
 21
1066.484960501182
 31
0.0
  0
LINE
  5
101
330
1F
100
AcDbEntity
  8
1
  6
Continuous
 62
     7
100
AcDbLine
 10
2993.696918354598
 20
1032.630489351086
 30
0.0
 11
2992.855055170255
 21
1066.305016724829
 31
0.0
  0
LINE
  5
102
330
1F
100
AcDbEntity
  8
1
  6
Continuous
 62
     2
100
AcDbLine
 10
3209.10488688398
 20
477.813151105418
 30
0.0
 11
3714.31488688398
 21
477.813151105418
 31
0.0
  0
LINE
  5
103
330
1F
100
AcDbEntity
  8
1
  6
DASH_CENTER
 62
     3
100
AcDbLine
 10
2292.18200309864
 20
749.466424335823
 30
0.0
 11
2292.18200309864
 21
599.466424335823
 31
0.0
  0
LINE
  5
104
330
1F
100
AcDbEntity
  8
1
  6
DASH_CENTER
 62
     3
100
AcDbLine
 10
2217.18200309864
 20
674.466424335823
 30
0.0
 11
2367.18200309864
 21
674.466424335823
 31
0.0
  0
LINE
  5
105
330
1F
100
AcDbEntity
  8
1
  6
Continuous
 62
     7
100
AcDbLine
 10
1021.185543622847
 20
674.466424335823
 30
0.0
 11
967.191437094489
 21
674.466424335823
 31
0.0
  0
LINE
  5
106
330
1F
100
AcDbEntity
  8
1
  6
Continuous
 62
     7
100
AcDbLine
 10
2292.18200309864
 20
1999.456990339973
 30
0.0
 11
2292.18200309864
 21
1945.462883811615
 31
0.0
  0
LINE
  5
107
330
1F
100
AcDbEntity
  8
1
  6
Continuous
 62
     7
100
AcDbLine
 10
2292.18200309864
 20
1549.452138504917
 30
0.0
 11
2292.18200309864
 21
1574.466424335823
 31
0.0
  0
LINE
  5
108
330
1F
100
AcDbEntity
  8
1
  6
Continuous
 62
     7
100
AcDbLine
 10
1392.18200309864
 20
674.466424335823
 30
0.0
 11
1417.196288929546
 21
674.466424335823
 31
0.0
  0
LINE
  5
109
330
1F
100
AcDbEntity
  8
1
  6
Continuous
 62
     7
100
AcDbLine
 10
1082.512482759071
 20
2096.267979031439
 30
0.0
 11
870.3804484031039
 21
2308.400013387402
 31
0.0
  0
LINE
  5
10A
330
1F
100
AcDbEntity
  8
1
  6
Continuous
 62
     7
100
AcDbLine
 10
870.3804484031039
 20
2308.400013387402
 30
0.0
 11
658.2484140471411
 21
2096.267979031438
 31
0.0
  0
LINE
  5
10B
330
1F
100
AcDbEntity
  8
1
  6
Continuous
 62
     7
100
AcDbLine
 10
658.2484140471411
 20
2096.267979031438
 30
0.0
 11
870.380448403107
 21
1884.135944675474
 31
0.0
  0
LINE
  5
10C
330
1F
100
AcDbEntity
  8
1
  6
Continuous
 62
     7
100
AcDbLine
 10
870.380448403105
 20
1888.661428075068
 30
0.0
 11
1077.986999359477
 21
2096.267979031439
 31
0.0
  0
LINE
  5
10D
330
1F
100
AcDbEntity
  8
1
  6
Continuous
 62
     7
100
AcDbLine
 10
1077.986999359477
 20
2096.267979031439
 30
0.0
 11
870.380448403105
 21
2303.874529987809
 31
0.0
  0
LINE
  5
10E
330
1F
100
AcDbEntity
  8
1
  6
Continuous
 62
     7
100
AcDbLine
 10
870.380448403105
 20
2303.874529987809
 30
0.0
 11
662.7738974467341
 21
2096.267979031438
 31
0.0
  0
LINE
  5
10F
330
1F
100
AcDbEntity
  8
1
  6
Continuous
 62
     7
100
AcDbLine
 10
662.7738974467341
 20
2096.267979031438
 30
0.0
 11
870.380448403105
 21
1888.661428075068
 31
0.0
  0
LINE
  5
110
330
1F
100
AcDbEntity
  8
1
  6
DASHED
 62
     4
100
AcDbLine
 10
870.3804484031039
 20
2302.036052356724
 30
0.0
 11
852.702778873442
 21
2284.35838282706
 31
0.0
  0
LINE
  5
111
330
1F
100
AcDbEntity
  8
1
  6
DASHED
 62
     4
100
AcDbLine
 10
852.702778873442
 20
2284.35838282706
 30
0.0
 11
888.0581179327689
 21
2249.003043767732
 31
0.0
  0
LINE
  5
112
330
1F
100
AcDbEntity
  8
1
  6
DASHED
 62
     4
100
AcDbLine
 10
888.0581179327689
 20
2249.003043767732
 30
0.0
 11
905.7357874624329
 21
2266.680713297396
 31
0.0
  0
LINE
  5
113
330
1F
100
AcDbEntity
  8
1
  6
DASHED
 62
     4
100
AcDbLine
 10
905.7357874624329
 20
2266.680713297396
 30
0.0
 11
870.3804484031039
 21
2302.036052356724
 31
0.0
  0
LINE
  5
114
330
1F
100
AcDbEntity
  8
1
  6
DASHED
 62
     4
100
AcDbLine
 10
682.290044607483
 20
2113.945648561101
 30
0.0
 11
664.612375077822
 21
2096.267979031438
 31
0.0
  0
LINE
  5
115
330
1F
100
AcDbEntity
  8
1
  6
DASHED
 62
     4
100
AcDbLine
 10
717.645383666812
 20
2078.590309501774
 30
0.0
 11
682.290044607483
 21
2113.945648561101
 31
0.0
  0
LINE
  5
116
330
1F
100
AcDbEntity
  8
1
  6
DASHED
 62
     4
100
AcDbLine
 10
699.9677141371469
 20
2060.912639972109
 30
0.0
 11
717.645383666812
 21
2078.590309501774
 31
0.0
  0
LINE
  5
117
330
1F
100
AcDbEntity
  8
1
  6
DASHED
 62
     4
100
AcDbLine
 10
664.612375077822
 20
2096.267979031438
 30
0.0
 11
699.9677141371469
 21
2060.912639972109
 31
0.0
  0
LINE
  5
118
330
1F
100
AcDbEntity
  8
1
  6
DASHED
 62
     4
100
AcDbLine
 10
683.350704779263
 20
2112.884988389321
 30
0.0
 11
853.7634390452211
 21
2283.29772265528
 31
0.0
  0
LINE
  5
119
330
1F
100
AcDbEntity
  8
1
  6
Continuous
 62
     7
100
AcDbLine
 10
1037.297080712556
 20
2150.309220099002
 30
0.0
 11
1032.884161202033
 21
2145.896300588475
 31
0.0
  0
LINE
  5
11A
330
1F
100
AcDbEntity
  8
1
  6
Continuous
 62
     7
100
AcDbLine
 10
1019.00371932626
 20
2159.776742464248
 30
0.0
 11
1023.416638836786
 21
2164.189661974773
 31
0.0
  0
LINE
  5
11B
330
1F
100
AcDbEntity
  8
1
  6
Continuous
 62
     7
100
AcDbLine
 10
1029.414050733088
 20
2149.366411057421
 30
0.0
 11
1033.826970243613
 21
2153.779330567944
 31
0.0
  0
LINE
  5
11C
330
1F
100
AcDbEntity
  8
1
  6
Continuous
 62
     7
100
AcDbLine
 10
1022.473829795204
 20
2156.306631995306
 30
0.0
 11
1026.886749305727
 21
2160.719551505831
 31
0.0
  0
LINE
  5
11D
330
1F
100
AcDbEntity
  8
1
  6
Continuous
 62
     7
100
AcDbLine
 10
1025.688522029037
 20
2162.991434698083
 30
0.0
 11
1036.098853435866
 21
2152.581103291254
 31
0.0
  0
LINE
  5
11E
330
1F
100
AcDbEntity
  8
1
  6
DASH_CENTER
 62
     3
100
AcDbLine
 10
848.0111253802691
 20
1974.903706642484
 30
0.0
 11
1034.429221638384
 21
2161.321802900599
 31
0.0
  0
LINE
  5
11F
330
1F
100
AcDbEntity
  8
1
  6
DASH_CENTER
 62
     3
100
AcDbLine
 10
922.67540650569
 20
1748.340498982435
 30
0.0
 11
869.8059679042569
 21
1801.209937583866
 31
0.0
  0
LINE
  5
120
330
1F
100
AcDbEntity
  8
1
  6
DASH_CENTER
 62
     3
100
AcDbLine
 10
981.547960862076
 20
1807.213053338823
 30
0.0
 11
928.6785222606429
 21
1860.082491940254
 31
0.0
  0
LINE
  5
121
330
1F
100
AcDbEntity
  8
1
  6
DASH_CENTER
 62
     3
100
AcDbLine
 10
1040.801385825083
 20
1866.466478301829
 30
0.0
 11
987.93194722365
 21
1919.335916903259
 31
0.0
  0
LINE
  5
122
330
1F
100
AcDbEntity
  8
1
  6
Continuous
 62
     7
100
AcDbLine
 10
1202.720635560783
 20
2216.476131833153
 30
0.0
 11
750.172295601393
 21
1763.927791873761
 31
0.0
  0
LINE
  5
123
330
1F
100
AcDbEntity
  8
1
  6
Continuous
 62
     7
100
AcDbLine
 10
1204.983377260579
 20
2214.213390133356
 30
0.0
 11
752.435037301191
 21
1761.665050173963
 31
0.0
  0
LINE
  5
124
330
1F
100
AcDbEntity
  8
1
  6
Continuous
 62
     7
100
AcDbLine
 10
1287.57344930317
 20
2131.623318090765
 30
0.0
 11
835.0251093437801
 21
1679.074978131374
 31
0.0
  0
LINE
  5
125
330
1F
100
AcDbEntity
  8
1
  6
Continuous
 62
     7
100
AcDbLine
 10
1285.310707603372
 20
2133.886059790563
 30
0.0
 11
832.7623676439819
 21
1681.337719831171
 31
0.0
  0
LINE
  5
126
330
1F
100
AcDbEntity
  8
1
  6
DASH_CENTER
 62
     3
100
AcDbLine
 10
3394.485190606893
 20
965.072603594034
 30
0.0
 11
3394.485190606893
 21
951.8726035940341
 31
0.0
  0
LINE
  5
127
330
1F
100
AcDbEntity
  8
1
  6
DASH_CENTER
 62
     3
100
AcDbLine
 10
3179.485190606893
 20
946.872603594034
 30
0.0
 11
3179.485190606893
 21
1096.872603594034
 31
0.0
  0
LINE
  5
128
330
1F
100
AcDbEntity
  8
1
  6
Continuous
 62
     7
100
AcDbLine
 10
3409.485190606893
 20
1076.872603594034
 30
0.0
 11
3384.685190606893
 21
1076.872603594034
 31
0.0
  0
LINE
  5
129
330
1F
100
AcDbEntity
  8
1
  6
Continuous
 62
     7
100
AcDbLine
 10
3379.485190606893
 20
1059.372603594034
 30
0.0
 11
3379.485190606893
 21
962.072603594034
 31
0.0
  0
LINE
  5
12A
330
1F
100
AcDbEntity
  8
1
  6
Continuous
 62
     7
100
AcDbLine
 10
3382.685190606893
 20
962.072603594034
 30
0.0
 11
3382.685190606893
 21
1071.672603594034
 31
0.0
  0
LINE
  5
12B
330
1F
100
AcDbEntity
  8
1
  6
Continuous
 62
     7
100
AcDbLine
 10
3384.685190606893
 20
1073.672603594034
 30
0.0
 11
3409.485190606893
 21
1073.672603594033
 31
0.0
  0
LINE
  5
12C
330
1F
100
AcDbEntity
  8
1
  6
Continuous
 62
     7
100
AcDbLine
 10
3409.485190606893
 20
1073.672603594033
 30
0.0
 11
3409.485190606893
 21
1076.872603594034
 31
0.0
  0
LINE
  5
12D
330
1F
100
AcDbEntity
  8
1
  6
Continuous
 62
     7
100
AcDbLine
 10
2979.485190606893
 20
962.072603594034
 30
0.0
 11
2979.485190606893
 21
1071.672603594034
 31
0.0
  0
LINE
  5
12E
330
1F
100
AcDbEntity
  8
1
  6
Continuous
 62
     7
100
AcDbLine
 10
2949.485190606893
 20
956.8726035940341
 30
0.0
 11
2974.285190606893
 21
956.8726035940341
 31
0.0
  0
LINE
  5
12F
330
1F
100
AcDbEntity
  8
1
  6
Continuous
 62
     7
100
AcDbLine
 10
2949.485190606893
 20
960.072603594034
 30
0.0
 11
2949.485190606893
 21
956.8726035940341
 31
0.0
  0
LINE
  5
130
330
1F
100
AcDbEntity
  8
1
  6
Continuous
 62
     7
100
AcDbLine
 10
2974.285190606893
 20
960.072603594034
 30
0.0
 11
2949.485190606893
 21
960.072603594034
 31
0.0
  0
LINE
  5
131
330
1F
100
AcDbEntity
  8
1
  6
Continuous
 62
     7
100
AcDbLine
 10
2976.285190606893
 20
1071.672603594034
 30
0.0
 11
2976.285190606893
 21
962.072603594034
 31
0.0
  0
LINE
  5
132
330
1F
100
AcDbEntity
  8
1
  6
Continuous
 62
     7
100
AcDbLine
 10
2949.485190606893
 20
1073.672603594033
 30
0.0
 11
2974.285190606893
 21
1073.672603594034
 31
0.0
  0
LINE
  5
133
330
1F
100
AcDbEntity
  8
1
  6
Continuous
 62
     7
100
AcDbLine
 10
2979.485190606893
 20
991.6466712865019
 30
0.0
 11
2994.485190606893
 21
991.6466712865019
 31
0.0
  0
LINE
  5
134
330
1F
100
AcDbEntity
  8
1
  6
Continuous
 62
     7
100
AcDbLine
 10
2994.485190606893
 20
976.6466712865019
 30
0.0
 11
2979.485190606893
 21
976.6466712865019
 31
0.0
  0
LINE
  5
135
330
1F
100
AcDbEntity
  8
1
  6
Continuous
 62
     7
100
AcDbLine
 10
2979.485190606893
 20
1007.146671286502
 30
0.0
 11
2994.485190606893
 21
1007.146671286502
 31
0.0
  0
LINE
  5
136
330
1F
100
AcDbEntity
  8
1
  6
Continuous
 62
     7
100
AcDbLine
 10
2994.485190606893
 20
1022.146671286502
 30
0.0
 11
2979.485190606893
 21
1022.146671286502
 31
0.0
  0
LINE
  5
137
330
1F
100
AcDbEntity
  8
1
  6
Continuous
 62
     7
100
AcDbLine
 10
3000.485190606893
 20
973.1466712865019
 30
0.0
 11
2994.485190606893
 21
973.1466712865019
 31
0.0
  0
LINE
  5
138
330
1F
100
AcDbEntity
  8
1
  6
Continuous
 62
     7
100
AcDbLine
 10
2994.485190606893
 20
973.1466712865019
 30
0.0
 11
2994.485190606893
 21
995.1466712865019
 31
0.0
  0
LINE
  5
139
330
1F
100
AcDbEntity
  8
1
  6
Continuous
 62
     7
100
AcDbLine
 10
3000.485190606893
 20
995.1466712865019
 30
0.0
 11
3000.485190606893
 21
973.1466712865019
 31
0.0
  0
LINE
  5
13A
330
1F
100
AcDbEntity
  8
1
  6
Continuous
 62
     7
100
AcDbLine
 10
3000.485190606893
 20
1003.646671286502
 30
0.0
 11
2994.485190606893
 21
1003.646671286502
 31
0.0
  0
LINE
  5
13B
330
1F
100
AcDbEntity
  8
1
  6
Continuous
 62
     7
100
AcDbLine
 10
2994.485190606893
 20
1003.646671286502
 30
0.0
 11
2994.485190606893
 21
1025.646671286502
 31
0.0
  0
LINE
  5
13C
330
1F
100
AcDbEntity
  8
1
  6
Continuous
 62
     7
100
AcDbLine
 10
2994.485190606893
 20
1025.646671286502
 30
0.0
 11
3000.485190606893
 21
1025.646671286502
 31
0.0
  0
LINE
  5
13D
330
1F
100
AcDbEntity
  8
1
  6
Continuous
 62
     7
100
AcDbLine
 10
3000.485190606893
 20
1025.646671286502
 30
0.0
 11
3000.485190606893
 21
1003.646671286502
 31
0.0
  0
LINE
  5
13E
330
1F
100
AcDbEntity
  8
1
  6
DASH_CENTER
 62
     3
100
AcDbLine
 10
2971.285190606893
 20
984.1466712865019
 30
0.0
 11
3005.485190606893
 21
984.1466712865019
 31
0.0
  0
LINE
  5
13F
330
1F
100
AcDbEntity
  8
1
  6
DASH_CENTER
 62
     3
100
AcDbLine
 10
3005.485190606893
 20
1014.646671286502
 30
0.0
 11
2971.285190606893
 21
1014.646671286502
 31
0.0
  0
LINE
  5
140
330
1F
100
AcDbEntity
  8
1
  6
DASH_CENTER
 62
     3
100
AcDbLine
 10
2964.485190606893
 20
951.8726035940341
 30
0.0
 11
2964.485190606893
 21
965.072603594034
 31
0.0
  0
LINE
  5
141
330
1F
100
AcDbEntity
  8
1
  6
Continuous
 62
     7
100
AcDbLine
 10
3384.685190606893
 20
956.8726035940341
 30
0.0
 11
3409.485190606893
 21
956.8726035940341
 31
0.0
  0
LINE
  5
142
330
1F
100
AcDbEntity
  8
1
  6
Continuous
 62
     7
100
AcDbLine
 10
3409.485190606893
 20
956.8726035940341
 30
0.0
 11
3409.485190606893
 21
960.072603594034
 31
0.0
  0
LINE
  5
143
330
1F
100
AcDbEntity
  8
1
  6
Continuous
 62
     7
100
AcDbLine
 10
3409.485190606893
 20
960.072603594034
 30
0.0
 11
3384.685190606893
 21
960.072603594034
 31
0.0
  0
LINE
  5
144
330
1F
100
AcDbEntity
  8
1
  6
Continuous
 62
     7
100
AcDbLine
 10
2949.485190606893
 20
1073.672603594033
 30
0.0
 11
2949.485190606893
 21
1079.172603594034
 31
0.0
  0
LINE
  5
145
330
1F
100
AcDbEntity
  8
1
  6
Continuous
 62
     7
100
AcDbLine
 10
2982.485190606893
 20
1079.172603594034
 30
0.0
 11
2982.485190606893
 21
1076.872603594034
 31
0.0
  0
LINE
  5
146
330
1F
100
AcDbEntity
  8
1
  6
Continuous
 62
     7
100
AcDbLine
 10
2982.485190606893
 20
1076.872603594034
 30
0.0
 11
2949.485190606893
 21
1076.872603594034
 31
0.0
  0
LINE
  5
147
330
1F
100
AcDbEntity
  8
1
  6
Continuous
 62
     7
100
AcDbLine
 10
2973.485190606893
 20
1079.172603594034
 30
0.0
 11
2973.485190606893
 21
1081.472603594033
 31
0.0
  0
LINE
  5
148
330
1F
100
AcDbEntity
  8
1
  6
Continuous
 62
     7
100
AcDbLine
 10
2973.485190606893
 20
1081.472603594033
 30
0.0
 11
3011.485190606893
 21
1081.472603594033
 31
0.0
  0
LINE
  5
149
330
1F
100
AcDbEntity
  8
1
  6
Continuous
 62
     7
100
AcDbLine
 10
3011.485190606893
 20
1081.472603594033
 30
0.0
 11
3011.485190606893
 21
1079.172603594034
 31
0.0
  0
LINE
  5
14A
330
1F
100
AcDbEntity
  8
1
  6
DASH_CENTER
 62
     3
100
AcDbLine
 10
2961.985190606893
 20
1068.672603594033
 30
0.0
 11
2961.985190606893
 21
1084.172603594034
 31
0.0
  0
LINE
  5
14B
330
1F
100
AcDbEntity
  8
1
  6
Continuous
 62
     7
100
AcDbLine
 10
3379.485190606893
 20
1071.672603594034
 30
0.0
 11
3379.485190606893
 21
1059.372603594034
 31
0.0
  0
LINE
  5
14C
330
1F
100
AcDbEntity
  8
1
  6
DASHED
 62
     4
100
AcDbLine
 10
2274.279781134806
 20
1939.558025939737
 30
0.0
 11
2274.184895794622
 21
1942.45647324342
 31
0.0
  0
LINE
  5
14D
330
1F
100
AcDbEntity
  8
1
  6
Continuous
 62
     7
100
AcDbLine
 10
2227.304945523416
 20
1938.020229047116
 30
0.0
 11
2227.210060183233
 21
1940.918676350797
 31
0.0
  0
LINE
  5
14E
330
1F
100
AcDbEntity
  8
1
  6
DASHED
 62
     4
100
AcDbLine
 10
2285.209106051284
 20
1579.722963227849
 30
0.0
 11
2282.425417522738
 21
1939.824686464736
 31
0.0
  0
LINE
  5
14F
330
1F
100
AcDbEntity
  8
1
  6
Continuous
 62
     7
100
AcDbLine
 10
2219.159309135484
 20
1937.753568522119
 30
0.0
 11
2239.933360238606
 21
1578.240788776023
 31
0.0
  0
LINE
  5
150
330
1F
100
AcDbEntity
  8
1
  6
DASH_CENTER
 62
     3
100
AcDbLine
 10
2249.370064798849
 20
1982.235853111025
 30
0.0
 11
2263.295960829447
 21
1556.843735389334
 31
0.0
  0
LINE
  5
151
330
1F
100
AcDbEntity
  8
1
  6
Continuous
 62
     7
100
AcDbLine
 10
2239.933360238606
 20
1578.240788776023
 30
0.0
 11
2279.304648377269
 21
1579.529671297275
 31
0.0
  0
LINE
  5
152
330
1F
100
AcDbEntity
  8
1
  6
Continuous
 62
     7
100
AcDbLine
 10
2219.159309135484
 20
1937.753568522119
 30
0.0
 11
2270.216382399013
 21
1939.425004038373
 31
0.0
  0
LINE
  5
153
330
1F
100
AcDbEntity
  8
1
  6
DASHED
 62
     4
100
AcDbLine
 10
2273.115851459767
 20
1959.830797524099
 30
0.0
 11
2273.246727791054
 21
1955.832939174192
 31
0.0
  0
LINE
  5
154
330
1F
100
AcDbEntity
  8
1
  6
DASHED
 62
     4
100
AcDbLine
 10
2266.927540571958
 20
1954.025213285124
 30
0.0
 11
2233.695245051267
 21
1952.937300573534
 31
0.0
  0
LINE
  5
155
330
1F
100
AcDbEntity
  8
1
  6
DASHED
 62
     4
100
AcDbLine
 10
2266.691963175641
 20
1961.221358314954
 30
0.0
 11
2233.45966765495
 21
1960.133445603364
 31
0.0
  0
LINE
  5
156
330
1F
100
AcDbEntity
  8
1
  6
DASHED
 62
     4
100
AcDbLine
 10
2227.271356767141
 20
1954.32786136439
 30
0.0
 11
2227.140480435854
 21
1958.325719714297
 31
0.0
  0
LINE
  5
157
330
1F
100
AcDbEntity
  8
1
  6
DASH_CENTER
 62
     3
100
AcDbLine
 10
2229.801438795469
 20
1951.921700068458
 30
0.0
 11
2229.517775197047
 21
1960.586726619561
 31
0.0
  0
LINE
  5
158
330
1F
100
AcDbEntity
  8
1
  6
DASH_CENTER
 62
     3
100
AcDbLine
 10
2270.595769742326
 20
1961.931480923536
 30
0.0
 11
2270.879433340748
 21
1953.266454372433
 31
0.0
  0
LINE
  5
159
330
1F
100
AcDbEntity
  8
1
  6
DASHED
 62
     4
100
AcDbLine
 10
2279.304648377269
 20
1579.529671297275
 30
0.0
 11
2285.209106051284
 21
1579.722963227849
 31
0.0
  0
LINE
  5
15A
330
1F
100
AcDbEntity
  8
1
  6
DASHED
 62
     4
100
AcDbLine
 10
2270.216382399013
 20
1939.425004038373
 30
0.0
 11
2282.425417522738
 21
1939.824686464736
 31
0.0
  0
LINE
  5
15B
330
1F
100
AcDbEntity
  8
1
  6
DASH_CENTER
 62
     3
100
AcDbLine
 10
2186.437744049632
 20
1957.763112199971
 30
0.0
 11
2187.287520153819
 21
1949.135190622839
 31
0.0
  0
LINE
  5
15C
330
1F
100
AcDbEntity
  8
1
  6
DASH_CENTER
 62
     3
100
AcDbLine
 10
2146.385427887592
 20
1945.106686155295
 30
0.0
 11
2145.535651783404
 21
1953.734607732426
 31
0.0
  0
LINE
  5
15D
330
1F
100
AcDbEntity
  8
1
  6
DASHED
 62
     4
100
AcDbLine
 10
2143.703392480913
 20
1947.34222039333
 30
0.0
 11
2143.311323919594
 21
1951.32295930002
 31
0.0
  0
LINE
  5
15E
330
1F
100
AcDbEntity
  8
1
  6
DASHED
 62
     4
100
AcDbLine
 10
2182.588740073206
 20
1956.799188853034
 30
0.0
 11
2149.498750343849
 21
1953.540109327515
 31
0.0
  0
LINE
  5
15F
330
1F
100
AcDbEntity
  8
1
  6
DASHED
 62
     4
100
AcDbLine
 10
2183.294463483579
 20
1949.633858820994
 30
0.0
 11
2150.204473754222
 21
1946.374779295475
 31
0.0
  0
LINE
  5
160
330
1F
100
AcDbEntity
  8
1
  6
DASHED
 62
     4
100
AcDbLine
 10
2189.089821346515
 20
1955.83174775518
 30
0.0
 11
2189.481889907834
 21
1951.85100884849
 31
0.0
  0
LINE
  5
161
330
1F
100
AcDbEntity
  8
1
  6
Continuous
 62
     7
100
AcDbLine
 10
2136.692723982588
 20
1930.272861084725
 30
0.0
 11
2199.687917180938
 21
1936.477346067586
 31
0.0
  0
LINE
  5
162
330
1F
100
AcDbEntity
  8
1
  6
Continuous
 62
     7
100
AcDbLine
 10
2180.935557041275
 20
1572.8885137457
 30
0.0
 11
2226.017425159525
 21
1577.328690202628
 31
0.0
  0
LINE
  5
163
330
1F
100
AcDbEntity
  8
1
  6
DASH_CENTER
 62
     3
100
AcDbLine
 10
2163.929515491638
 20
1976.635783644596
 30
0.0
 11
2205.647570758699
 21
1553.065260278375
 31
0.0
  0
LINE
  5
164
330
1F
100
AcDbEntity
  8
1
  6
Continuous
 62
     7
100
AcDbLine
 10
2136.692723982588
 20
1930.272861084725
 30
0.0
 11
2180.935557041275
 21
1572.8885137457
 31
0.0
  0
LINE
  5
165
330
1F
100
AcDbEntity
  8
1
  6
Continuous
 62
     7
100
AcDbLine
 10
2226.017425159525
 20
1577.328690202628
 30
0.0
 11
2199.687917180938
 21
1936.477346067586
 31
0.0
  0
LINE
  5
166
330
1F
100
AcDbEntity
  8
1
  6
Continuous
 62
     7
100
AcDbLine
 10
2144.803479504966
 20
1931.071700778412
 30
0.0
 11
2144.519229798011
 21
1933.95773648576
 31
0.0
  0
LINE
  5
167
330
1F
100
AcDbEntity
  8
1
  6
Continuous
 62
     7
100
AcDbLine
 10
2191.57716165856
 20
1935.678506373899
 30
0.0
 11
2191.292911951604
 21
1938.564542081249
 31
0.0
  0
LINE
  5
168
330
1F
100
AcDbEntity
  8
1
  6
DASH_CENTER
 62
     3
100
AcDbLine
 10
2102.732531508339
 20
1948.09947004368
 30
0.0
 11
2104.144781246554
 21
1939.545599525295
 31
0.0
  0
LINE
  5
169
330
1F
100
AcDbEntity
  8
1
  6
DASH_CENTER
 62
     3
100
AcDbLine
 10
2063.593740297865
 20
1932.850595568778
 30
0.0
 11
2062.18149055965
 21
1941.404466087163
 31
0.0
  0
LINE
  5
16A
330
1F
100
AcDbEntity
  8
1
  6
DASHED
 62
     4
100
AcDbLine
 10
2060.771236400201
 20
1934.905929848104
 30
0.0
 11
2060.119654506622
 21
1938.852503176444
 31
0.0
  0
LINE
  5
16B
330
1F
100
AcDbEntity
  8
1
  6
DASHED
 62
     4
100
AcDbLine
 10
2098.95481214811
 20
1946.885873626143
 30
0.0
 11
2066.148824626176
 21
1941.469583165567
 31
0.0
  0
LINE
  5
16C
330
1F
100
AcDbEntity
  8
1
  6
DASHED
 62
     4
100
AcDbLine
 10
2100.127659556551
 20
1939.782041635131
 30
0.0
 11
2067.321672034617
 21
1934.365751174556
 31
0.0
  0
LINE
  5
16D
330
1F
100
AcDbEntity
  8
1
  6
DASHED
 62
     4
100
AcDbLine
 10
2105.505247782526
 20
1946.345694952596
 30
0.0
 11
2106.156829676105
 21
1942.399121624255
 31
0.0
  0
LINE
  5
16E
330
1F
100
AcDbEntity
  8
1
  6
Continuous
 62
     7
100
AcDbLine
 10
2054.891967794016
 20
1917.414597690261
 30
0.0
 11
2117.346490714989
 21
1927.725881156138
 31
0.0
  0
LINE
  5
16F
330
1F
100
AcDbEntity
  8
1
  6
Continuous
 62
     7
100
AcDbLine
 10
2122.414128204827
 20
1563.689057400255
 30
0.0
 11
2167.109071148272
 21
1571.068222345029
 31
0.0
  0
LINE
  5
170
330
1F
100
AcDbEntity
  8
1
  6
DASH_CENTER
 62
     3
100
AcDbLine
 10
2079.03816302604
 20
1965.459625068929
 30
0.0
 11
2148.369734412239
 21
1545.524490066962
 31
0.0
  0
LINE
  5
171
330
1F
100
AcDbEntity
  8
1
  6
Continuous
 62
     7
100
AcDbLine
 10
2054.891967794016
 20
1917.414597690261
 30
0.0
 11
2122.414128204827
 21
1563.689057400255
 31
0.0
  0
LINE
  5
172
330
1F
100
AcDbEntity
  8
1
  6
Continuous
 62
     7
100
AcDbLine
 10
2167.109071148272
 20
1571.068222345029
 30
0.0
 11
2117.346490714989
 21
1927.725881156138
 31
0.0
  0
LINE
  5
173
330
1F
100
AcDbEntity
  8
1
  6
Continuous
 62
     7
100
AcDbLine
 10
2062.933110950507
 20
1918.742195798427
 30
0.0
 11
2062.460714077663
 21
1921.603461461473
 31
0.0
  0
LINE
  5
174
330
1F
100
AcDbEntity
  8
1
  6
Continuous
 62
     7
100
AcDbLine
 10
2109.305347558498
 20
1926.39828304797
 30
0.0
 11
2108.832950685653
 21
1929.259548711018
 31
0.0
  0
LINE
  5
175
330
1F
100
AcDbEntity
  8
1
  6
DASH_CENTER
 62
     3
100
AcDbLine
 10
2019.838570689209
 20
1932.981935653966
 30
0.0
 11
2021.80724659126
 21
1924.538745181101
 31
0.0
  0
LINE
  5
176
330
1F
100
AcDbEntity
  8
1
  6
DASH_CENTER
 62
     3
100
AcDbLine
 10
1981.780902742961
 20
1915.205910770389
 30
0.0
 11
1979.81222684091
 21
1923.649101243253
 31
0.0
  0
LINE
  5
177
330
1F
100
AcDbEntity
  8
1
  6
DASHED
 62
     4
100
AcDbLine
 10
1978.830016749318
 20
1917.072243834081
 30
0.0
 11
1977.92171169718
 21
1920.967751751191
 31
0.0
  0
LINE
  5
178
330
1F
100
AcDbEntity
  8
1
  6
DASHED
 62
     4
100
AcDbLine
 10
2016.148312719442
 20
1931.523862972003
 30
0.0
 11
1983.766807679967
 21
1923.973554963646
 31
0.0
  0
LINE
  5
179
330
1F
100
AcDbEntity
  8
1
  6
DASHED
 62
     4
100
AcDbLine
 10
2017.783261813289
 20
1924.511948721206
 30
0.0
 11
1985.401756773814
 21
1916.961640712849
 31
0.0
  0
LINE
  5
17A
330
1F
100
AcDbEntity
  8
1
  6
DASHED
 62
     4
100
AcDbLine
 10
2022.720052743938
 20
1931.413259850773
 30
0.0
 11
2023.628357796076
 21
1927.517751933662
 31
0.0
  0
LINE
  5
17B
330
1F
100
AcDbEntity
  8
1
  6
Continuous
 62
     7
100
AcDbLine
 10
1974.107323966047
 20
1899.233839396618
 30
0.0
 11
2035.753736754302
 21
1913.607766846693
 31
0.0
  0
LINE
  5
17C
330
1F
100
AcDbEntity
  8
1
  6
Continuous
 62
     7
100
AcDbLine
 10
2064.619671471913
 20
1550.681813224086
 30
0.0
 11
2108.736298633176
 21
1560.968367939543
 31
0.0
  0
LINE
  5
17D
330
1F
100
AcDbEntity
  8
1
  6
DASH_CENTER
 62
     3
100
AcDbLine
 10
1995.059525206071
 20
1948.755235410841
 30
0.0
 11
2091.707724278755
 21
1534.253715490821
 31
0.0
  0
LINE
  5
17E
330
1F
100
AcDbEntity
  8
1
  6
Continuous
 62
     7
100
AcDbLine
 10
1974.107323966047
 20
1899.233839396618
 30
0.0
 11
2064.619671471913
 21
1550.681813224086
 31
0.0
  0
LINE
  5
17F
330
1F
100
AcDbEntity
  8
1
  6
Continuous
 62
     7
100
AcDbLine
 10
2108.736298633176
 20
1560.968367939543
 30
0.0
 11
2035.753736754302
 21
1913.607766846693
 31
0.0
  0
LINE
  5
180
330
1F
100
AcDbEntity
  8
1
  6
Continuous
 62
     7
100
AcDbLine
 10
1982.044421347157
 20
1901.084510940349
 30
0.0
 11
1981.385900184358
 21
1903.908754180252
 31
0.0
  0
LINE
  5
181
330
1F
100
AcDbEntity
  8
1
  6
Continuous
 62
     7
100
AcDbLine
 10
2027.816639373193
 20
1911.757095302962
 30
0.0
 11
2027.158118210393
 21
1914.581338542867
 31
0.0
  0
LINE
  5
182
330
1F
100
AcDbEntity
  8
1
  6
DASH_CENTER
 62
     3
100
AcDbLine
 10
1938.110826258579
 20
1912.475244633971
 30
0.0
 11
1940.627498152017
 21
1904.178889244454
 31
0.0
  0
LINE
  5
183
330
1F
100
AcDbEntity
  8
1
  6
DASH_CENTER
 62
     3
100
AcDbLine
 10
1901.297250353423
 20
1892.248189009296
 30
0.0
 11
1898.780578459985
 21
1900.544544398812
 31
0.0
  0
LINE
  5
184
330
1F
100
AcDbEntity
  8
1
  6
DASHED
 62
     4
100
AcDbLine
 10
1898.230618410656
 20
1893.91752893265
 30
0.0
 11
1897.069479701637
 21
1897.745290275581
 31
0.0
  0
LINE
  5
185
330
1F
100
AcDbEntity
  8
1
  6
DASHED
 62
     4
100
AcDbLine
 10
1934.52383193044
 20
1910.778939378655
 30
0.0
 11
1902.705471949303
 21
1901.126945400553
 31
0.0
  0
LINE
  5
186
330
1F
100
AcDbEntity
  8
1
  6
DASHED
 62
     4
100
AcDbLine
 10
1936.613881606672
 20
1903.888968961383
 30
0.0
 11
1904.795521625535
 21
1894.236974983281
 31
0.0
  0
LINE
  5
187
330
1F
100
AcDbEntity
  8
1
  6
DASHED
 62
     4
100
AcDbLine
 10
1941.088735145319
 20
1911.098385429286
 30
0.0
 11
1942.249873854337
 21
1907.270624086356
 31
0.0
  0
LINE
  5
188
330
1F
100
AcDbEntity
  8
1
  6
Continuous
 62
     7
100
AcDbLine
 10
1894.684724745837
 20
1875.808439001971
 30
0.0
 11
1955.259047997686
 21
1894.183459072177
 31
0.0
  0
LINE
  5
189
330
1F
100
AcDbEntity
  8
1
  6
Continuous
 62
     7
100
AcDbLine
 10
2007.799671579028
 20
1533.922480233664
 30
0.0
 11
2051.149068787698
 21
1547.07237611329
 31
0.0
  0
LINE
  5
18A
330
1F
100
AcDbEntity
  8
1
  6
DASH_CENTER
 62
     3
100
AcDbLine
 10
1912.353211451511
 20
1926.594145431353
 30
0.0
 11
2035.904175784549
 21
1519.301199737009
 31
0.0
  0
LINE
  5
18B
330
1F
100
AcDbEntity
  8
1
  6
Continuous
 62
     7
100
AcDbLine
 10
1894.684724745837
 20
1875.808439001971
 30
0.0
 11
2007.799671579028
 21
1533.922480233664
 31
0.0
  0
LINE
  5
18C
330
1F
100
AcDbEntity
  8
1
  6
Continuous
 62
     7
100
AcDbLine
 10
2051.149068787698
 20
1547.07237611329
 30
0.0
 11
1955.259047997686
 21
1894.183459072177
 31
0.0
  0
LINE
  5
18D
330
1F
100
AcDbEntity
  8
1
  6
Continuous
 62
     7
100
AcDbLine
 10
1902.483788482054
 20
1878.174259121595
 30
0.0
 11
1901.641962918016
 21
1880.949386095218
 31
0.0
  0
LINE
  5
18E
330
1F
100
AcDbEntity
  8
1
  6
Continuous
 62
     7
100
AcDbLine
 10
1947.459984261469
 20
1891.817638952552
 30
0.0
 11
1946.618158697431
 21
1894.592765926177
 31
0.0
  0
LINE
  5
18F
330
1F
100
AcDbEntity
  8
1
  6
DASH_CENTER
 62
     3
100
AcDbLine
 10
1857.899268965175
 20
1886.667209782887
 30
0.0
 11
1860.953160074586
 21
1878.553215744175
 31
0.0
  0
LINE
  5
190
330
1F
100
AcDbEntity
  8
1
  6
DASH_CENTER
 62
     3
100
AcDbLine
 10
1822.487426484859
 20
1864.075738774613
 30
0.0
 11
1819.433535375449
 21
1872.189732813324
 31
0.0
  0
LINE
  5
191
330
1F
100
AcDbEntity
  8
1
  6
DASHED
 62
     4
100
AcDbLine
 10
1819.318180381744
 20
1865.540937187797
 30
0.0
 11
1817.909180190059
 21
1869.284560894827
 31
0.0
  0
LINE
  5
192
330
1F
100
AcDbEntity
  8
1
  6
DASHED
 62
     4
100
AcDbLine
 10
1854.430898339062
 20
1884.739935793743
 30
0.0
 11
1823.311934518545
 21
1873.02758716591
 31
0.0
  0
LINE
  5
193
330
1F
100
AcDbEntity
  8
1
  6
DASHED
 62
     4
100
AcDbLine
 10
1856.967098684095
 20
1878.00141312109
 30
0.0
 11
1825.848134863578
 21
1866.289064493257
 31
0.0
  0
LINE
  5
194
330
1F
100
AcDbEntity
  8
1
  6
DASHED
 62
     4
100
AcDbLine
 10
1860.960852820896
 20
1885.488063099204
 30
0.0
 11
1862.369853012581
 21
1881.744439392173
 31
0.0
  0
LINE
  5
195
330
1F
100
AcDbEntity
  8
1
  6
Continuous
 62
     7
100
AcDbLine
 10
1816.964269896426
 20
1847.238707667141
 30
0.0
 11
1876.207115060165
 21
1869.536135700554
 31
0.0
  0
LINE
  5
196
330
1F
100
AcDbEntity
  8
1
  6
Continuous
 62
     7
100
AcDbLine
 10
1952.197440488881
 20
1513.482824465793
 30
0.0
 11
1994.593978970988
 21
1529.439751636624
 31
0.0
  0
LINE
  5
197
330
1F
100
AcDbEntity
  8
1
  6
DASH_CENTER
 62
     3
100
AcDbLine
 10
1831.27338289516
 20
1899.071252319989
 30
0.0
 11
1981.19804829139
 21
1500.730971773533
 31
0.0
  0
LINE
  5
198
330
1F
100
AcDbEntity
  8
1
  6
Continuous
 62
     7
100
AcDbLine
 10
1816.964269896426
 20
1847.238707667141
 30
0.0
 11
1952.197440488881
 21
1513.482824465793
 31
0.0
  0
LINE
  5
199
330
1F
100
AcDbEntity
  8
1
  6
Continuous
 62
     7
100
AcDbLine
 10
1994.593978970988
 20
1529.439751636624
 30
0.0
 11
1876.207115060165
 21
1869.536135700554
 31
0.0
  0
LINE
  5
19A
330
1F
100
AcDbEntity
  8
1
  6
Continuous
 62
     7
100
AcDbLine
 10
1824.591903199498
 20
1850.109545557699
 30
0.0
 11
1823.570378060527
 21
1852.823672745295
 31
0.0
  0
LINE
  5
19B
330
1F
100
AcDbEntity
  8
1
  6
Continuous
 62
     7
100
AcDbLine
 10
1868.579481757093
 20
1866.665297809995
 30
0.0
 11
1867.557956618121
 21
1869.379424997593
 31
0.0
  0
LINE
  5
19C
330
1F
100
AcDbEntity
  8
1
  6
DASH_CENTER
 62
     3
100
AcDbLine
 10
1779.547377011629
 20
1855.668345068069
 30
0.0
 11
1783.125410106439
 21
1847.77145774832
 31
0.0
  0
LINE
  5
19D
330
1F
100
AcDbEntity
  8
1
  6
DASH_CENTER
 62
     3
100
AcDbLine
 10
1745.688906902179
 20
1830.809198823359
 30
0.0
 11
1742.110873807368
 21
1838.706086143109
 31
0.0
  0
LINE
  5
19E
330
1F
100
AcDbEntity
  8
1
  6
DASHED
 62
     4
100
AcDbLine
 10
1742.430617837081
 20
1832.063981521825
 30
0.0
 11
1740.779789717863
 21
1835.707436821511
 31
0.0
  0
LINE
  5
19F
330
1F
100
AcDbEntity
  8
1
  6
DASHED
 62
     4
100
AcDbLine
 10
1776.212482183037
 20
1853.518355228198
 30
0.0
 11
1745.926170703688
 21
1839.795806025574
 31
0.0
  0
LINE
  5
1A0
330
1F
100
AcDbEntity
  8
1
  6
DASHED
 62
     4
100
AcDbLine
 10
1779.183972797629
 20
1846.960135688766
 30
0.0
 11
1748.897661318281
 21
1833.23758648614
 31
0.0
  0
LINE
  5
1A1
330
1F
100
AcDbEntity
  8
1
  6
DASHED
 62
     4
100
AcDbLine
 10
1782.679525664237
 20
1854.691960192514
 30
0.0
 11
1784.330353783455
 21
1851.048504892828
 31
0.0
  0
LINE
  5
1A2
330
1F
100
AcDbEntity
  8
1
  6
Continuous
 62
     7
100
AcDbLine
 10
1741.27877033734
 20
1813.64698536781
 30
0.0
 11
1798.936450454851
 21
1839.771340354428
 31
0.0
  0
LINE
  5
1A3
330
1F
100
AcDbEntity
  8
1
  6
Continuous
 62
     7
100
AcDbLine
 10
1898.051075491209
 20
1489.450371664425
 30
0.0
 11
1939.313206760138
 21
1508.146000114563
 31
0.0
  0
LINE
  5
1A4
330
1F
100
AcDbEntity
  8
1
  6
DASH_CENTER
 62
     3
100
AcDbLine
 10
1752.1672358105
 20
1866.304413330443
 30
0.0
 11
1927.82360183584
 21
1478.622552167489
 31
0.0
  0
LINE
  5
1A5
330
1F
100
AcDbEntity
  8
1
  6
Continuous
 62
     7
100
AcDbLine
 10
1741.27877033734
 20
1813.64698536781
 30
0.0
 11
1898.051075491209
 21
1489.450371664425
 31
0.0
  0
LINE
  5
1A6
330
1F
100
AcDbEntity
  8
1
  6
Continuous
 62
     7
100
AcDbLine
 10
1939.313206760138
 20
1508.146000114563
 30
0.0
 11
1798.936450454851
 21
1839.771340354428
 31
0.0
  0
LINE
  5
1A7
330
1F
100
AcDbEntity
  8
1
  6
Continuous
 62
     7
100
AcDbLine
 10
1748.702310510448
 20
1817.010547660717
 30
0.0
 11
1747.505460124015
 21
1819.652052752988
 31
0.0
  0
LINE
  5
1A8
330
1F
100
AcDbEntity
  8
1
  6
Continuous
 62
     7
100
AcDbLine
 10
1791.512910281745
 20
1836.407778061521
 30
0.0
 11
1790.316059895311
 21
1839.049283153794
 31
0.0
  0
LINE
  5
1A9
330
1F
100
AcDbEntity
  8
1
  6
DASH_CENTER
 62
     3
100
AcDbLine
 10
1703.390665228087
 20
1819.611392387258
 30
0.0
 11
1707.477518621276
 21
1811.965427470325
 31
0.0
  0
LINE
  5
1AA
330
1F
100
AcDbEntity
  8
1
  6
DASH_CENTER
 62
     3
100
AcDbLine
 10
1671.230554656558
 20
1792.591021586776
 30
0.0
 11
1667.143701263369
 21
1800.236986503709
 31
0.0
  0
LINE
  5
1AB
330
1F
100
AcDbEntity
  8
1
  6
DASHED
 62
     4
100
AcDbLine
 10
1667.897175123476
 20
1793.630015398373
 30
0.0
 11
1666.011588176171
 21
1797.157700455768
 31
0.0
  0
LINE
  5
1AC
330
1F
100
AcDbEntity
  8
1
  6
DASHED
 62
     4
100
AcDbLine
 10
1700.203526728655
 20
1817.247893283226
 30
0.0
 11
1670.87955822587
 21
1801.573905568218
 31
0.0
  0
LINE
  5
1AD
330
1F
100
AcDbEntity
  8
1
  6
DASHED
 62
     4
100
AcDbLine
 10
1703.597583233802
 20
1810.898060179918
 30
0.0
 11
1674.273614731018
 21
1795.224072464909
 31
0.0
  0
LINE
  5
1AE
330
1F
100
AcDbEntity
  8
1
  6
DASHED
 62
     4
100
AcDbLine
 10
1706.579966336196
 20
1818.841950349764
 30
0.0
 11
1708.4655532835
 21
1815.314265292369
 31
0.0
  0
LINE
  5
1AF
330
1F
100
AcDbEntity
  8
1
  6
Continuous
 62
     7
100
AcDbLine
 10
1667.952322997142
 20
1775.177117015959
 30
0.0
 11
1723.777939030394
 21
1805.016530457044
 31
0.0
  0
LINE
  5
1B0
330
1F
100
AcDbEntity
  8
1
  6
Continuous
 62
     7
100
AcDbLine
 10
1845.592439633632
 20
1461.928032481983
 30
0.0
 11
1885.543472908613
 21
1483.2823046602
 31
0.0
  0
LINE
  5
1B1
330
1F
100
AcDbEntity
  8
1
  6
DASH_CENTER
 62
     3
100
AcDbLine
 10
1675.373514863942
 20
1828.433941097725
 30
0.0
 11
1876.009393991818
 21
1453.070612565775
 31
0.0
  0
LINE
  5
1B2
330
1F
100
AcDbEntity
  8
1
  6
Continuous
 62
     7
100
AcDbLine
 10
1667.952322997142
 20
1775.177117015959
 30
0.0
 11
1845.592439633632
 21
1461.928032481983
 31
0.0
  0
LINE
  5
1B3
330
1F
100
AcDbEntity
  8
1
  6
Continuous
 62
     7
100
AcDbLine
 10
1885.543472908613
 20
1483.2823046602
 30
0.0
 11
1723.777939030394
 21
1805.016530457044
 31
0.0
  0
LINE
  5
1B4
330
1F
100
AcDbEntity
  8
1
  6
Continuous
 62
     7
100
AcDbLine
 10
1675.139981301581
 20
1779.019000421091
 30
0.0
 11
1673.772930764786
 21
1781.576572087701
 31
0.0
  0
LINE
  5
1B5
330
1F
100
AcDbEntity
  8
1
  6
Continuous
 62
     7
100
AcDbLine
 10
1716.590280725955
 20
1801.174647051911
 30
0.0
 11
1715.223230189159
 21
1803.732218718523
 31
0.0
  0
LINE
  5
1B6
330
1F
100
AcDbEntity
  8
1
  6
DASH_CENTER
 62
     3
100
AcDbLine
 10
1629.755248346197
 20
1778.650753147396
 30
0.0
 11
1634.33342150411
 21
1771.288451828885
 31
0.0
  0
LINE
  5
1B7
330
1F
100
AcDbEntity
  8
1
  6
DASH_CENTER
 62
     3
100
AcDbLine
 10
1599.431211843368
 20
1749.584863167155
 30
0.0
 11
1594.853038685454
 21
1756.947164485665
 31
0.0
  0
LINE
  5
1B8
330
1F
100
AcDbEntity
  8
1
  6
DASHED
 62
     4
100
AcDbLine
 10
1596.037015885211
 20
1750.403618960871
 30
0.0
 11
1593.924744482609
 21
1753.800427686978
 31
0.0
  0
LINE
  5
1B9
330
1F
100
AcDbEntity
  8
1
  6
DASHED
 62
     4
100
AcDbLine
 10
1626.729513992278
 20
1776.083865645219
 30
0.0
 11
1598.493458201083
 21
1758.525557839537
 31
0.0
  0
LINE
  5
1BA
330
1F
100
AcDbEntity
  8
1
  6
DASHED
 62
     4
100
AcDbLine
 10
1630.531602516961
 20
1769.969609938228
 30
0.0
 11
1602.295546725766
 21
1752.411302132546
 31
0.0
  0
LINE
  5
1BB
330
1F
100
AcDbEntity
  8
1
  6
DASHED
 62
     4
100
AcDbLine
 10
1632.988044832832
 20
1778.091548816895
 30
0.0
 11
1635.100316235434
 21
1774.694740090788
 31
0.0
  0
LINE
  5
1BC
330
1F
100
AcDbEntity
  8
1
  6
Continuous
 62
     7
100
AcDbLine
 10
1597.298922980622
 20
1731.993836493872
 30
0.0
 11
1651.053421071255
 21
1765.42053144004
 31
0.0
  0
LINE
  5
1BD
330
1F
100
AcDbEntity
  8
1
  6
Continuous
 62
     7
100
AcDbLine
 10
1795.04616884849
 20
1431.033661800155
 30
0.0
 11
1833.515027671644
 21
1454.955135434615
 31
0.0
  0
LINE
  5
1BE
330
1F
100
AcDbEntity
  8
1
  6
DASH_CENTER
 62
     3
100
AcDbLine
 10
1601.221062558168
 20
1785.622002797917
 30
0.0
 11
1825.977301151972
 21
1424.184570296571
 31
0.0
  0
LINE
  5
1BF
330
1F
100
AcDbEntity
  8
1
  6
Continuous
 62
     7
100
AcDbLine
 10
1597.298922980622
 20
1731.993836493872
 30
0.0
 11
1795.04616884849
 21
1431.033661800155
 31
0.0
  0
LINE
  5
1C0
330
1F
100
AcDbEntity
  8
1
  6
Continuous
 62
     7
100
AcDbLine
 10
1833.515027671644
 20
1454.955135434615
 30
0.0
 11
1651.053421071255
 21
1765.42053144004
 31
0.0
  0
LINE
  5
1C1
330
1F
100
AcDbEntity
  8
1
  6
Continuous
 62
     7
100
AcDbLine
 10
1604.219920760064
 20
1736.297589476673
 30
0.0
 11
1602.688523993178
 21
1738.760275803099
 31
0.0
  0
LINE
  5
1C2
330
1F
100
AcDbEntity
  8
1
  6
Continuous
 62
     7
100
AcDbLine
 10
1644.132423291814
 20
1761.116778457238
 30
0.0
 11
1642.601026524927
 21
1763.579464783667
 31
0.0
  0
LINE
  5
1C3
330
1F
100
AcDbEntity
  8
1
  6
DASH_CENTER
 62
     3
100
AcDbLine
 10
1558.956444525762
 20
1732.961827094101
 30
0.0
 11
1564.006333008084
 21
1725.914715878538
 31
0.0
  0
LINE
  5
1C4
330
1F
100
AcDbEntity
  8
1
  6
DASH_CENTER
 62
     3
100
AcDbLine
 10
1530.598334271368
 20
1701.974882537271
 30
0.0
 11
1525.548445789047
 21
1709.021993752834
 31
0.0
  0
LINE
  5
1C5
330
1F
100
AcDbEntity
  8
1
  6
DASHED
 62
     4
100
AcDbLine
 10
1527.157856356317
 20
1702.569894275101
 30
0.0
 11
1524.827945568845
 21
1705.821281013468
 31
0.0
  0
LINE
  5
1C6
330
1F
100
AcDbEntity
  8
1
  6
DASHED
 62
     4
100
AcDbLine
 10
1556.105070976378
 20
1730.20254300014
 30
0.0
 11
1529.077839022549
 21
1710.835102473408
 31
0.0
  0
LINE
  5
1C7
330
1F
100
AcDbEntity
  8
1
  6
DASHED
 62
     4
100
AcDbLine
 10
1560.298910393828
 20
1724.350046871079
 30
0.0
 11
1533.271678439998
 21
1704.982606344348
 31
0.0
  0
LINE
  5
1C8
330
1F
100
AcDbEntity
  8
1
  6
DASHED
 62
     4
100
AcDbLine
 10
1562.218893060059
 20
1732.615255069387
 30
0.0
 11
1564.548803847531
 21
1729.363868331019
 31
0.0
  0
LINE
  5
1C9
330
1F
100
AcDbEntity
  8
1
  6
Continuous
 62
     7
100
AcDbLine
 10
1529.621118993559
 20
1684.282061238362
 30
0.0
 11
1581.074314128209
 21
1721.152899450093
 31
0.0
  0
LINE
  5
1CA
330
1F
100
AcDbEntity
  8
1
  6
Continuous
 62
     7
100
AcDbLine
 10
1746.628710027288
 20
1396.899554057188
 30
0.0
 11
1783.450664839289
 21
1423.285793725299
 31
0.0
  0
LINE
  5
1CB
330
1F
100
AcDbEntity
  8
1
  6
DASH_CENTER
 62
     3
100
AcDbLine
 10
1530.027411078041
 20
1738.051925723426
 30
0.0
 11
1777.94156841891
 21
1392.088119827539
 31
0.0
  0
LINE
  5
1CC
330
1F
100
AcDbEntity
  8
1
  6
Continuous
 62
     7
100
AcDbLine
 10
1529.621118993559
 20
1684.282061238362
 30
0.0
 11
1746.628710027288
 21
1396.899554057188
 31
0.0
  0
LINE
  5
1CD
330
1F
100
AcDbEntity
  8
1
  6
Continuous
 62
     7
100
AcDbLine
 10
1783.450664839289
 20
1423.285793725299
 30
0.0
 11
1581.074314128209
 21
1721.152899450093
 31
0.0
  0
LINE
  5
1CE
330
1F
100
AcDbEntity
  8
1
  6
Continuous
 62
     7
100
AcDbLine
 10
1536.24581947298
 20
1689.029254467835
 30
0.0
 11
1534.556634152064
 21
1691.38650985315
 31
0.0
  0
LINE
  5
1CF
330
1F
100
AcDbEntity
  8
1
  6
Continuous
 62
     7
100
AcDbLine
 10
1574.449613648788
 20
1716.40570622062
 30
0.0
 11
1572.76042832787
 21
1718.762961605937
 31
0.0
  0
LINE
  5
1D0
330
1F
100
AcDbEntity
  8
1
  6
DASH_CENTER
 62
     3
100
AcDbLine
 10
1491.297425113973
 20
1682.740261223024
 30
0.0
 11
1496.797404522948
 21
1676.038516922527
 31
0.0
  0
LINE
  5
1D1
330
1F
100
AcDbEntity
  8
1
  6
DASH_CENTER
 62
     3
100
AcDbLine
 10
1465.026674889739
 20
1649.964952943401
 30
0.0
 11
1459.526695480764
 21
1656.666697243898
 31
0.0
  0
LINE
  5
1D2
330
1F
100
AcDbEntity
  8
1
  6
DASHED
 62
     4
100
AcDbLine
 10
1461.554647672417
 20
1650.333672693735
 30
0.0
 11
1459.017074535762
 21
1653.425714507187
 31
0.0
  0
LINE
  5
1D3
330
1F
100
AcDbEntity
  8
1
  6
DASHED
 62
     4
100
AcDbLine
 10
1488.632622388414
 20
1679.80039621538
 30
0.0
 11
1462.929949028473
 21
1658.706757321279
 31
0.0
  0
LINE
  5
1D4
330
1F
100
AcDbEntity
  8
1
  6
DASHED
 62
     4
100
AcDbLine
 10
1493.200254034393
 20
1674.234720951169
 30
0.0
 11
1467.497580674451
 21
1653.141082057068
 31
0.0
  0
LINE
  5
1D5
330
1F
100
AcDbEntity
  8
1
  6
DASHED
 62
     4
100
AcDbLine
 10
1494.575555390448
 20
1682.607805578714
 30
0.0
 11
1497.113128527103
 21
1679.515763765262
 31
0.0
  0
LINE
  5
1D6
330
1F
100
AcDbEntity
  8
1
  6
Continuous
 62
     7
100
AcDbLine
 10
1465.20871778271
 20
1632.246100395918
 30
0.0
 11
1514.140279480572
 21
1672.403195283477
 31
0.0
  0
LINE
  5
1D7
330
1F
100
AcDbEntity
  8
1
  6
Continuous
 62
     7
100
AcDbLine
 10
1700.547394161883
 20
1359.671876742803
 30
0.0
 11
1735.564767699216
 21
1388.409892515415
 31
0.0
  0
LINE
  5
1D8
330
1F
100
AcDbEntity
  8
1
  6
DASH_CENTER
 62
     3
100
AcDbLine
 10
1462.097422569048
 20
1685.927412247376
 30
0.0
 11
1732.107892174774
 21
1356.918703087124
 31
0.0
  0
LINE
  5
1D9
330
1F
100
AcDbEntity
  8
1
  6
Continuous
 62
     7
100
AcDbLine
 10
1465.20871778271
 20
1632.246100395918
 30
0.0
 11
1700.547394161883
 21
1359.671876742803
 31
0.0
  0
LINE
  5
1DA
330
1F
100
AcDbEntity
  8
1
  6
Continuous
 62
     7
100
AcDbLine
 10
1735.564767699216
 20
1388.409892515415
 30
0.0
 11
1514.140279480572
 21
1672.403195283477
 31
0.0
  0
LINE
  5
1DB
330
1F
100
AcDbEntity
  8
1
  6
Continuous
 62
     7
100
AcDbLine
 10
1471.508752977616
 20
1637.416405661852
 30
0.0
 11
1469.669012453542
 21
1639.658135976604
 31
0.0
  0
LINE
  5
1DC
330
1F
100
AcDbEntity
  8
1
  6
Continuous
 62
     7
100
AcDbLine
 10
1507.840244285667
 20
1667.232890017542
 30
0.0
 11
1506.000503761591
 21
1669.474620332295
 31
0.0
  0
LINE
  5
1DD
330
1F
100
AcDbEntity
  8
1
  6
DASH_CENTER
 62
     3
100
AcDbLine
 10
1427.067916419151
 20
1628.201111989381
 30
0.0
 11
1432.994434998578
 21
1621.873432501915
 31
0.0
  0
LINE
  5
1DE
330
1F
100
AcDbEntity
  8
1
  6
DASH_CENTER
 62
     3
100
AcDbLine
 10
1402.997021610696
 20
1593.777788888775
 30
0.0
 11
1397.070503031269
 21
1600.105468376241
 31
0.0
  0
LINE
  5
1DF
330
1F
100
AcDbEntity
  8
1
  6
DASHED
 62
     4
100
AcDbLine
 10
1399.508312844684
 20
1593.918637737034
 30
0.0
 11
1396.773943636591
 21
1596.838094027827
 31
0.0
  0
LINE
  5
1E0
330
1F
100
AcDbEntity
  8
1
  6
DASHED
 62
     4
100
AcDbLine
 10
1424.601095611796
 20
1625.093255021354
 30
0.0
 11
1400.333043639016
 21
1602.363743959983
 31
0.0
  0
LINE
  5
1E1
330
1F
100
AcDbEntity
  8
1
  6
DASHED
 62
     4
100
AcDbLine
 10
1429.522960186361
 20
1619.83823369793
 30
0.0
 11
1405.254908213581
 21
1597.108722636558
 31
0.0
  0
LINE
  5
1E2
330
1F
100
AcDbEntity
  8
1
  6
DASHED
 62
     4
100
AcDbLine
 10
1430.347690980692
 20
1628.283339920879
 30
0.0
 11
1433.082060188784
 21
1625.363883630086
 31
0.0
  0
LINE
  5
1E3
330
1F
100
AcDbEntity
  8
1
  6
Continuous
 62
     7
100
AcDbLine
 10
1404.337543138833
 20
1576.108779939575
 30
0.0
 11
1450.537938940607
 21
1619.380172657622
 31
0.0
  0
LINE
  5
1E4
330
1F
100
AcDbEntity
  8
1
  6
Continuous
 62
     7
100
AcDbLine
 10
1656.999548521344
 20
1319.510044486557
 30
0.0
 11
1690.062391014556
 21
1350.476775768192
 31
0.0
  0
LINE
  5
1E5
330
1F
100
AcDbEntity
  8
1
  6
DASH_CENTER
 62
     3
100
AcDbLine
 10
1397.721983670786
 20
1629.471667538774
 30
0.0
 11
1688.672539257756
 21
1318.826920917117
 31
0.0
  0
LINE
  5
1E6
330
1F
100
AcDbEntity
  8
1
  6
Continuous
 62
     7
100
AcDbLine
 10
1404.337543138833
 20
1576.108779939575
 30
0.0
 11
1656.999548521344
 21
1319.510044486557
 31
0.0
  0
LINE
  5
1E7
330
1F
100
AcDbEntity
  8
1
  6
Continuous
 62
     7
100
AcDbLine
 10
1690.062391014556
 20
1350.476775768192
 30
0.0
 11
1450.537938940607
 21
1619.380172657622
 31
0.0
  0
LINE
  5
1E8
330
1F
100
AcDbEntity
  8
1
  6
Continuous
 62
     7
100
AcDbLine
 10
1410.28593533132
 20
1581.680057201061
 30
0.0
 11
1408.303517655454
 21
1583.796663011884
 31
0.0
  0
LINE
  5
1E9
330
1F
100
AcDbEntity
  8
1
  6
Continuous
 62
     7
100
AcDbLine
 10
1444.58954674812
 20
1613.808895396135
 30
0.0
 11
1442.607129072253
 21
1615.92550120696
 31
0.0
  0
LINE
  5
1EA
330
1F
100
AcDbEntity
  8
1
  6
DASH_CENTER
 62
     3
100
AcDbLine
 10
1385.989307669013
 20
1481.664170399321
 30
0.0
 11
1374.322045779435
 21
1493.3314322889
 31
0.0
  0
LINE
  5
1EB
330
1F
100
AcDbEntity
  8
1
  6
DASH_CENTER
 62
     3
100
AcDbLine
 10
1374.322045779436
 20
1481.664170399321
 30
0.0
 11
1385.989307669014
 21
1493.3314322889
 31
0.0
  0
LINE
  5
1EC
330
1F
100
AcDbEntity
  8
1
  6
DASH_CENTER
 62
     3
100
AcDbLine
 10
1473.316995145553
 20
1592.326381655018
 30
0.0
 11
1484.984257035131
 21
1580.659119765439
 31
0.0
  0
LINE
  5
1ED
330
1F
100
AcDbEntity
  8
1
  6
DASH_CENTER
 62
     3
100
AcDbLine
 10
1473.316995145553
 20
1580.659119765439
 30
0.0
 11
1484.984257035131
 21
1592.326381655017
 31
0.0
  0
LINE
  5
1EE
330
1F
100
AcDbEntity
  8
1
  6
DASHED
 62
     4
100
AcDbLine
 10
1426.824724282537
 20
1435.171899536306
 30
0.0
 11
1531.476527898146
 21
1539.823703151916
 31
0.0
  0
LINE
  5
1EF
330
1F
100
AcDbEntity
  8
1
  6
DASH_CENTER
 62
     3
100
AcDbLine
 10
1536.956605452342
 20
1517.01950945865
 30
0.0
 11
1548.62386734192
 21
1528.686771348228
 31
0.0
  0
LINE
  5
1F0
330
1F
100
AcDbEntity
  8
1
  6
DASH_CENTER
 62
     3
100
AcDbLine
 10
1536.956605452342
 20
1528.686771348228
 30
0.0
 11
1548.62386734192
 21
1517.01950945865
 31
0.0
  0
LINE
  5
1F1
330
1F
100
AcDbEntity
  8
1
  6
DASHED
 62
     4
100
AcDbLine
 10
1438.824383763202
 20
1570.915245724617
 30
0.0
 11
1475.615092184409
 21
1607.705954145824
 31
0.0
  0
LINE
  5
1F2
330
1F
100
AcDbEntity
  8
1
  6
DASHED
 62
     4
100
AcDbLine
 10
1482.686159996274
 20
1607.705954145824
 30
0.0
 11
1564.003439832727
 21
1526.388674309371
 31
0.0
  0
LINE
  5
1F3
330
1F
100
AcDbEntity
  8
1
  6
DASHED
 62
     4
100
AcDbLine
 10
1564.003439832728
 20
1519.317606497506
 30
0.0
 11
1550.568410990183
 21
1505.882577654962
 31
0.0
  0
LINE
  5
1F4
330
1F
100
AcDbEntity
  8
0
  6
DASHED
 62
     4
100
AcDbLine
 10
1442.15933397445
 20
1571.643214855997
 30
0.0
 11
1443.845501511974
 21
1571.643356984459
 31
0.0
  0
LINE
  5
1F5
330
1F
100
AcDbEntity
  8
0
  6
DASHED
 62
     4
100
AcDbLine
 10
1479.450576544281
 20
1592.203207896375
 30
0.0
 11
1527.940993992214
 21
1546.187664182595
 31
0.0
  0
LINE
  5
1F6
330
1F
100
AcDbEntity
  8
0
  6
DASHED
 62
     4
100
AcDbLine
 10
1471.873363819762
 20
1594.127526169375
 30
0.0
 11
1467.129810810171
 21
1592.856711740907
 31
0.0
  0
LINE
  5
1F7
330
1F
100
AcDbEntity
  8
0
  6
DASHED
 62
     4
100
AcDbLine
 10
1527.23402721817
 20
1532.752495332908
 30
0.0
 11
1529.70876094518
 21
1530.277761605898
 31
0.0
  0
LINE
  5
1F8
330
1F
100
AcDbEntity
  8
0
  6
DASHED
 62
     4
100
AcDbLine
 10
1527.940993992214
 20
1546.187664182595
 30
0.0
 11
1531.476527898146
 21
1542.652130276662
 31
0.0
  0
LINE
  5
1F9
330
1F
100
AcDbEntity
  8
0
  6
DASHED
 62
     4
100
AcDbLine
 10
1527.940993992213
 20
1528.509994652931
 30
0.0
 11
1632.239244217229
 21
1424.211744427915
 31
0.0
  0
LINE
  5
1FA
330
1F
100
AcDbEntity
  8
0
  6
DASHED
 62
     4
100
AcDbLine
 10
1637.188991685535
 20
1429.161491896221
 30
0.0
 11
1649.916913746893
 21
1416.433569834863
 31
0.0
  0
LINE
  5
1FB
330
1F
100
AcDbEntity
  8
0
  6
DASHED
 62
     4
100
AcDbLine
 10
1655.573767996385
 20
1392.391939274521
 30
0.0
 11
1656.987981558759
 21
1390.977725712148
 31
0.0
  0
LINE
  5
1FC
330
1F
100
AcDbEntity
  8
0
  6
DASHED
 62
     4
100
AcDbLine
 10
1649.209806965707
 20
1412.898035928931
 30
0.0
 11
1659.171951563131
 21
1402.935891331506
 31
0.0
  0
LINE
  5
1FD
330
1F
100
AcDbEntity
  8
0
  6
DASHED
 62
     4
100
AcDbLine
 10
1659.635814318696
 20
1399.292595059227
 30
0.0
 11
1655.573767996385
 21
1392.391939274521
 31
0.0
  0
LINE
  5
1FE
330
1F
100
AcDbEntity
  8
0
  6
DASHED
 62
     4
100
AcDbLine
 10
1649.209806965707
 20
1414.312249491304
 30
0.0
 11
1649.916913746893
 21
1415.019356272491
 31
0.0
  0
LINE
  5
1FF
330
1F
100
AcDbEntity
  8
1
  6
DASH_CENTER
 62
     3
100
AcDbLine
 10
1437.961656086225
 20
1418.024560092532
 30
0.0
 11
1449.628917975803
 21
1429.691821982111
 31
0.0
  0
LINE
  5
200
330
1F
100
AcDbEntity
  8
1
  6
DASH_CENTER
 62
     3
100
AcDbLine
 10
1449.628917975803
 20
1418.024560092532
 30
0.0
 11
1437.961656086224
 21
1429.691821982111
 31
0.0
  0
LINE
  5
201
330
1F
100
AcDbEntity
  8
1
  6
DASHED
 62
     4
100
AcDbLine
 10
1358.942473288628
 20
1491.033335250044
 30
0.0
 11
1395.733181709835
 21
1527.824043671251
 31
0.0
  0
LINE
  5
202
330
1F
100
AcDbEntity
  8
1
  6
DASHED
 62
     4
100
AcDbLine
 10
1440.259753125081
 20
1402.644987601726
 30
0.0
 11
1358.942473288628
 21
1483.962267438178
 31
0.0
  0
LINE
  5
203
330
1F
100
AcDbEntity
  8
1
  6
DASHED
 62
     4
100
AcDbLine
 10
1460.765849779491
 20
1416.08001644427
 30
0.0
 11
1447.330820936947
 21
1402.644987601725
 31
0.0
  0
LINE
  5
204
330
1F
100
AcDbEntity
  8
0
  6
DASHED
 62
     4
100
AcDbLine
 10
1529.70876094518
 20
1530.277761605898
 30
0.0
 11
1436.370665828555
 21
1436.939666489272
 31
0.0
  0
LINE
  5
205
330
1F
100
AcDbEntity
  8
0
  6
DASHED
 62
     4
100
AcDbLine
 10
1647.861776476732
 20
1412.964219002329
 30
0.0
 11
1553.684208432124
 21
1318.786650957721
 31
0.0
  0
LINE
  5
206
330
1F
100
AcDbEntity
  8
0
  6
DASHED
 62
     4
100
AcDbLine
 10
1397.348130287745
 20
1530.146099030347
 30
0.0
 11
1436.502328404106
 21
1569.300297146708
 31
0.0
  0
LINE
  5
207
330
1F
100
AcDbEntity
  8
0
  6
DASHED
 62
     4
100
AcDbLine
 10
1373.791715693546
 20
1499.518616624282
 30
0.0
 11
1393.540520512907
 21
1519.267421443744
 31
0.0
  0
LINE
  5
208
330
1F
100
AcDbEntity
  8
0
  6
DASHED
 62
     4
100
AcDbLine
 10
1395.005070449993
 20
1522.802925922479
 30
0.0
 11
1395.005212578456
 21
1524.489093460003
 31
0.0
  0
LINE
  5
209
330
1F
100
AcDbEntity
  8
0
  6
DASHED
 62
     4
100
AcDbLine
 10
1420.460763251858
 20
1438.707433442239
 30
0.0
 11
1374.445219538077
 21
1487.197850890172
 31
0.0
  0
LINE
  5
20A
330
1F
100
AcDbEntity
  8
0
  6
DASHED
 62
     4
100
AcDbLine
 10
1373.791715693546
 20
1499.518616624282
 30
0.0
 11
1372.520901265077
 21
1494.775063614691
 31
0.0
  0
LINE
  5
20B
330
1F
100
AcDbEntity
  8
0
  6
DASHED
 62
     4
100
AcDbLine
 10
1436.370665828555
 20
1436.939666489272
 30
0.0
 11
1433.895932101545
 21
1439.414400216283
 31
0.0
  0
LINE
  5
20C
330
1F
100
AcDbEntity
  8
0
  6
DASHED
 62
     4
100
AcDbLine
 10
1423.99629715779
 20
1435.171899536306
 30
0.0
 11
1420.460763251858
 21
1438.707433442239
 31
0.0
  0
LINE
  5
20D
330
1F
100
AcDbEntity
  8
0
  6
DASHED
 62
     4
100
AcDbLine
 10
1577.084915284678
 20
1309.660445875694
 30
0.0
 11
1656.987981558759
 21
1389.563512149775
 31
0.0
  0
LINE
  5
20E
330
1F
100
AcDbEntity
  8
0
  6
DASHED
 62
     4
100
AcDbLine
 10
1542.436683006537
 20
1334.409183217224
 30
0.0
 11
1438.138432781521
 21
1438.707433442239
 31
0.0
  0
LINE
  5
20F
330
1F
100
AcDbEntity
  8
0
  6
DASHED
 62
     4
100
AcDbLine
 10
1550.214857599589
 20
1316.73151368756
 30
0.0
 11
1537.486935538231
 21
1329.459435748917
 31
0.0
  0
LINE
  5
210
330
1F
100
AcDbEntity
  8
0
  6
DASHED
 62
     4
100
AcDbLine
 10
1575.670701722305
 20
1309.660445875694
 30
0.0
 11
1574.256488159932
 21
1311.074659438067
 31
0.0
  0
LINE
  5
211
330
1F
100
AcDbEntity
  8
0
  6
DASHED
 62
     4
100
AcDbLine
 10
1537.486935538231
 20
1329.459435748917
 30
0.0
 11
1637.188991685535
 21
1429.161491896221
 31
0.0
  0
LINE
  5
212
330
1F
100
AcDbEntity
  8
0
  6
DASHED
 62
     4
100
AcDbLine
 10
1563.712536102947
 20
1307.476475871321
 30
0.0
 11
1553.750391505522
 21
1317.438620468746
 31
0.0
  0
LINE
  5
213
330
1F
100
AcDbEntity
  8
0
  6
DASHED
 62
     4
100
AcDbLine
 10
1574.256488159932
 20
1311.074659438067
 30
0.0
 11
1567.355832375225
 21
1307.012613115756
 31
0.0
  0
LINE
  5
214
330
1F
100
AcDbEntity
  8
0
  6
DASHED
 62
     4
100
AcDbLine
 10
1551.629071161962
 20
1316.73151368756
 30
0.0
 11
1552.336177943149
 21
1317.438620468746
 31
0.0
  0
LINE
  5
215
330
1F
100
AcDbEntity
  8
0
  6
DASHED
 62
     4
100
AcDbLine
 10
1447.381005990709
 20
1573.107906921545
 30
0.0
 11
1467.129810810171
 21
1592.856711740907
 31
0.0
  0
LINE
  5
216
330
1F
100
AcDbEntity
  8
1
  6
DASH_CENTER
 62
     3
100
AcDbLine
 10
1366.542959058221
 20
1569.577924403192
 30
0.0
 11
1372.870638545687
 21
1563.651405823766
 31
0.0
  0
LINE
  5
217
330
1F
100
AcDbEntity
  8
1
  6
DASH_CENTER
 62
     3
100
AcDbLine
 10
1344.774994932547
 20
1533.653992435884
 30
0.0
 11
1338.447315445081
 21
1539.580511015311
 31
0.0
  0
LINE
  5
218
330
1F
100
AcDbEntity
  8
1
  6
DASHED
 62
     4
100
AcDbLine
 10
1341.284543804376
 20
1533.566367245678
 30
0.0
 11
1338.365087513584
 21
1536.30073645377
 31
0.0
  0
LINE
  5
219
330
1F
100
AcDbEntity
  8
1
  6
DASHED
 62
     4
100
AcDbLine
 10
1364.28468347448
 20
1566.315383795447
 30
0.0
 11
1341.555172413108
 21
1542.047331822666
 31
0.0
  0
LINE
  5
21A
330
1F
100
AcDbEntity
  8
1
  6
DASHED
 62
     4
100
AcDbLine
 10
1369.539704797905
 20
1561.393519220881
 30
0.0
 11
1346.810193736533
 21
1537.125467248101
 31
0.0
  0
LINE
  5
21B
330
1F
100
AcDbEntity
  8
1
  6
DASHED
 62
     4
100
AcDbLine
 10
1369.810333406636
 20
1569.874483797871
 30
0.0
 11
1372.729789697428
 21
1567.140114589778
 31
0.0
  0
LINE
  5
21C
330
1F
100
AcDbEntity
  8
1
  6
Continuous
 62
     7
100
AcDbLine
 10
1347.268254776865
 20
1516.110488493883
 30
0.0
 11
1390.539647494913
 21
1562.310884295655
 31
0.0
  0
LINE
  5
21D
330
1F
100
AcDbEntity
  8
1
  6
Continuous
 62
     7
100
AcDbLine
 10
1616.171651666288
 20
1276.586036419926
 30
0.0
 11
1647.138382947925
 21
1309.648878913137
 31
0.0
  0
LINE
  5
21E
330
1F
100
AcDbEntity
  8
1
  6
DASH_CENTER
 62
     3
100
AcDbLine
 10
1337.176759895715
 20
1568.926443763703
 30
0.0
 11
1647.821506517363
 21
1277.975888176725
 31
0.0
  0
LINE
  5
21F
330
1F
100
AcDbEntity
  8
1
  6
Continuous
 62
     7
100
AcDbLine
 10
1347.268254776865
 20
1516.110488493883
 30
0.0
 11
1616.171651666288
 21
1276.586036419926
 31
0.0
  0
LINE
  5
220
330
1F
100
AcDbEntity
  8
1
  6
Continuous
 62
     7
100
AcDbLine
 10
1647.138382947925
 20
1309.648878913137
 30
0.0
 11
1390.539647494913
 21
1562.310884295655
 31
0.0
  0
LINE
  5
221
330
1F
100
AcDbEntity
  8
1
  6
Continuous
 62
     7
100
AcDbLine
 10
1352.839532038351
 20
1522.05888068637
 30
0.0
 11
1350.722926227528
 21
1524.041298362236
 31
0.0
  0
LINE
  5
222
330
1F
100
AcDbEntity
  8
1
  6
Continuous
 62
     7
100
AcDbLine
 10
1384.968370233428
 20
1556.362492103167
 30
0.0
 11
1382.851764422603
 21
1558.344909779034
 31
0.0
  0
LINE
  5
223
330
1F
100
AcDbEntity
  8
1
  6
DASH_CENTER
 62
     3
100
AcDbLine
 10
1309.981730190564
 20
1507.121731953698
 30
0.0
 11
1316.683474491061
 21
1501.621752544723
 31
0.0
  0
LINE
  5
224
330
1F
100
AcDbEntity
  8
1
  6
DASH_CENTER
 62
     3
100
AcDbLine
 10
1290.609910511935
 20
1469.851022911514
 30
0.0
 11
1283.908166211438
 21
1475.351002320489
 31
0.0
  0
LINE
  5
225
330
1F
100
AcDbEntity
  8
1
  6
DASHED
 62
     4
100
AcDbLine
 10
1287.1326636692
 20
1469.535298907359
 30
0.0
 11
1284.040621855748
 21
1472.072872044014
 31
0.0
  0
LINE
  5
226
330
1F
100
AcDbEntity
  8
1
  6
DASHED
 62
     4
100
AcDbLine
 10
1307.941670113183
 20
1503.718478405989
 30
0.0
 11
1286.848031219082
 21
1478.015805046048
 31
0.0
  0
LINE
  5
227
330
1F
100
AcDbEntity
  8
1
  6
DASHED
 62
     4
100
AcDbLine
 10
1313.507345377395
 20
1499.150846760011
 30
0.0
 11
1292.413706483294
 21
1473.448173400069
 31
0.0
  0
LINE
  5
228
330
1F
100
AcDbEntity
  8
1
  6
DASHED
 62
     4
100
AcDbLine
 10
1313.222712927276
 20
1507.6313528987
 30
0.0
 11
1316.314754740728
 21
1505.093779762045
 31
0.0
  0
LINE
  5
229
330
1F
100
AcDbEntity
  8
1
  6
Continuous
 62
     7
100
AcDbLine
 10
1294.245232151008
 20
1452.508147953918
 30
0.0
 11
1334.402327038568
 21
1501.439709651779
 31
0.0
  0
LINE
  5
22A
330
1F
100
AcDbEntity
  8
1
  6
Continuous
 62
     7
100
AcDbLine
 10
1578.238534919063
 20
1231.083659735267
 30
0.0
 11
1606.976550691677
 21
1266.101033272598
 31
0.0
  0
LINE
  5
22B
330
1F
100
AcDbEntity
  8
1
  6
DASH_CENTER
 62
     3
100
AcDbLine
 10
1280.72101518711
 20
1504.551004865443
 30
0.0
 11
1609.729724347354
 21
1234.540535259707
 31
0.0
  0
LINE
  5
22C
330
1F
100
AcDbEntity
  8
1
  6
Continuous
 62
     7
100
AcDbLine
 10
1294.245232151008
 20
1452.508147953918
 30
0.0
 11
1578.238534919063
 21
1231.083659735267
 31
0.0
  0
LINE
  5
22D
330
1F
100
AcDbEntity
  8
1
  6
Continuous
 62
     7
100
AcDbLine
 10
1606.976550691677
 20
1266.101033272598
 30
0.0
 11
1334.402327038568
 21
1501.439709651779
 31
0.0
  0
LINE
  5
22E
330
1F
100
AcDbEntity
  8
1
  6
Continuous
 62
     7
100
AcDbLine
 10
1299.415537416942
 20
1458.808183148825
 30
0.0
 11
1297.17380710219
 21
1460.647923672899
 31
0.0
  0
LINE
  5
22F
330
1F
100
AcDbEntity
  8
1
  6
Continuous
 62
     7
100
AcDbLine
 10
1329.232021772635
 20
1495.139674456872
 30
0.0
 11
1326.990291457882
 21
1496.979414980948
 31
0.0
  0
LINE
  5
230
330
1F
100
AcDbEntity
  8
1
  6
DASH_CENTER
 62
     3
100
AcDbLine
 10
1257.626433681629
 20
1441.099981645415
 30
0.0
 11
1264.673544897191
 21
1436.050093163094
 31
0.0
  0
LINE
  5
231
330
1F
100
AcDbEntity
  8
1
  6
DASH_CENTER
 62
     3
100
AcDbLine
 10
1240.733711555924
 20
1402.642094426378
 30
0.0
 11
1233.686600340362
 21
1407.691982908699
 31
0.0
  0
LINE
  5
232
330
1F
100
AcDbEntity
  8
1
  6
DASHED
 62
     4
100
AcDbLine
 10
1237.284559103443
 20
1402.099623586931
 30
0.0
 11
1234.033172365075
 21
1404.429534374403
 31
0.0
  0
LINE
  5
233
330
1F
100
AcDbEntity
  8
1
  6
DASHED
 62
     4
100
AcDbLine
 10
1255.813324961055
 20
1437.570588411913
 30
0.0
 11
1236.445884434324
 21
1410.543356458083
 31
0.0
  0
LINE
  5
234
330
1F
100
AcDbEntity
  8
1
  6
DASHED
 62
     4
100
AcDbLine
 10
1261.665821090115
 20
1433.376748994464
 30
0.0
 11
1242.298380563383
 21
1406.349517040635
 31
0.0
  0
LINE
  5
235
330
1F
100
AcDbEntity
  8
1
  6
DASHED
 62
     4
100
AcDbLine
 10
1260.827146420994
 20
1441.820481865617
 30
0.0
 11
1264.078533159362
 21
1439.490571078145
 31
0.0
  0
LINE
  5
236
330
1F
100
AcDbEntity
  8
1
  6
Continuous
 62
     7
100
AcDbLine
 10
1245.49552798439
 20
1385.574113306283
 30
0.0
 11
1282.366366196122
 21
1437.027308440932
 31
0.0
  0
LINE
  5
237
330
1F
100
AcDbEntity
  8
1
  6
Continuous
 62
     7
100
AcDbLine
 10
1543.362633709178
 20
1183.197762595195
 30
0.0
 11
1569.74887337729
 21
1220.019717407195
 31
0.0
  0
LINE
  5
238
330
1F
100
AcDbEntity
  8
1
  6
DASH_CENTER
 62
     3
100
AcDbLine
 10
1228.596501711059
 20
1436.621016356452
 30
0.0
 11
1574.560307606939
 21
1188.706859015573
 31
0.0
  0
LINE
  5
239
330
1F
100
AcDbEntity
  8
1
  6
Continuous
 62
     7
100
AcDbLine
 10
1245.49552798439
 20
1385.574113306283
 30
0.0
 11
1543.362633709178
 21
1183.197762595195
 31
0.0
  0
LINE
  5
23A
330
1F
100
AcDbEntity
  8
1
  6
Continuous
 62
     7
100
AcDbLine
 10
1569.74887337729
 20
1220.019717407195
 30
0.0
 11
1282.366366196122
 21
1437.027308440932
 31
0.0
  0
LINE
  5
23B
330
1F
100
AcDbEntity
  8
1
  6
Continuous
 62
     7
100
AcDbLine
 10
1250.242721213862
 20
1392.198813785705
 30
0.0
 11
1247.885465828547
 21
1393.887999106622
 31
0.0
  0
LINE
  5
23C
330
1F
100
AcDbEntity
  8
1
  6
Continuous
 62
     7
100
AcDbLine
 10
1277.619172966651
 20
1430.40260796151
 30
0.0
 11
1275.261917581334
 21
1432.091793282427
 31
0.0
  0
LINE
  5
23D
330
1F
100
AcDbEntity
  8
1
  6
DASH_CENTER
 62
     3
100
AcDbLine
 10
1209.701262948797
 20
1371.795388749008
 30
0.0
 11
1217.063564267308
 21
1367.217215591095
 31
0.0
  0
LINE
  5
23E
330
1F
100
AcDbEntity
  8
1
  6
DASH_CENTER
 62
     3
100
AcDbLine
 10
1195.359975605578
 20
1332.315005930352
 30
0.0
 11
1187.997674287067
 21
1336.893179088265
 31
0.0
  0
LINE
  5
23F
330
1F
100
AcDbEntity
  8
1
  6
DASHED
 62
     4
100
AcDbLine
 10
1191.953687343675
 20
1331.548111199028
 30
0.0
 11
1188.556878617568
 21
1333.66038260163
 31
0.0
  0
LINE
  5
240
330
1F
100
AcDbEntity
  8
1
  6
DASHED
 62
     4
100
AcDbLine
 10
1208.122869594926
 20
1368.154969233379
 30
0.0
 11
1190.564561789243
 21
1339.918913442184
 31
0.0
  0
LINE
  5
241
330
1F
100
AcDbEntity
  8
1
  6
DASHED
 62
     4
100
AcDbLine
 10
1214.237125301917
 20
1364.352880708697
 30
0.0
 11
1196.678817496235
 21
1336.116824917501
 31
0.0
  0
LINE
  5
242
330
1F
100
AcDbEntity
  8
1
  6
DASHED
 62
     4
100
AcDbLine
 10
1212.847999747485
 20
1372.723682951853
 30
0.0
 11
1216.244808473592
 21
1370.611411549251
 31
0.0
  0
LINE
  5
243
330
1F
100
AcDbEntity
  8
1
  6
Continuous
 62
     7
100
AcDbLine
 10
1201.227895994441
 20
1315.595006363238
 30
0.0
 11
1234.654590940611
 21
1369.34950445387
 31
0.0
  0
LINE
  5
244
330
1F
100
AcDbEntity
  8
1
  6
Continuous
 62
     7
100
AcDbLine
 10
1511.693291999861
 20
1133.133399762841
 30
0.0
 11
1535.614765634323
 21
1171.602258585994
 31
0.0
  0
LINE
  5
245
330
1F
100
AcDbEntity
  8
1
  6
DASH_CENTER
 62
     3
100
AcDbLine
 10
1181.026424636566
 20
1365.427364876326
 30
0.0
 11
1542.463857137905
 21
1140.671126282511
 31
0.0
  0
LINE
  5
246
330
1F
100
AcDbEntity
  8
1
  6
Continuous
 62
     7
100
AcDbLine
 10
1201.227895994441
 20
1315.595006363238
 30
0.0
 11
1511.693291999861
 21
1133.133399762841
 31
0.0
  0
LINE
  5
247
330
1F
100
AcDbEntity
  8
1
  6
Continuous
 62
     7
100
AcDbLine
 10
1535.614765634323
 20
1171.602258585994
 30
0.0
 11
1234.654590940611
 21
1369.34950445387
 31
0.0
  0
LINE
  5
248
330
1F
100
AcDbEntity
  8
1
  6
Continuous
 62
     7
100
AcDbLine
 10
1205.531648977241
 20
1322.51600414268
 30
0.0
 11
1203.068962650815
 21
1324.047400909566
 31
0.0
  0
LINE
  5
249
330
1F
100
AcDbEntity
  8
1
  6
Continuous
 62
     7
100
AcDbLine
 10
1230.350837957811
 20
1362.428506674428
 30
0.0
 11
1227.888151631383
 21
1363.959903441315
 31
0.0
  0
LINE
  5
24A
330
1F
100
AcDbEntity
  8
1
  6
DASH_CENTER
 62
     3
100
AcDbLine
 10
1166.411440930754
 20
1299.504726171093
 30
0.0
 11
1174.057405847687
 21
1295.417872777904
 31
0.0
  0
LINE
  5
24B
330
1F
100
AcDbEntity
  8
1
  6
DASH_CENTER
 62
     3
100
AcDbLine
 10
1154.682999964138
 20
1259.170908813186
 30
0.0
 11
1147.037035047206
 21
1263.257762206375
 31
0.0
  0
LINE
  5
24C
330
1F
100
AcDbEntity
  8
1
  6
DASHED
 62
     4
100
AcDbLine
 10
1151.334162142094
 20
1258.182874150961
 30
0.0
 11
1147.806477084699
 21
1260.068461098266
 31
0.0
  0
LINE
  5
24D
330
1F
100
AcDbEntity
  8
1
  6
DASHED
 62
     4
100
AcDbLine
 10
1165.074521866245
 20
1295.768869208592
 30
0.0
 11
1149.400534151237
 21
1266.444900705807
 31
0.0
  0
LINE
  5
24E
330
1F
100
AcDbEntity
  8
1
  6
DASHED
 62
     4
100
AcDbLine
 10
1171.424354969554
 20
1292.374812703444
 30
0.0
 11
1155.750367254545
 21
1263.050844200659
 31
0.0
  0
LINE
  5
24F
330
1F
100
AcDbEntity
  8
1
  6
DASHED
 62
     4
100
AcDbLine
 10
1169.490726978695
 20
1300.63683925829
 30
0.0
 11
1173.01841203609
 21
1298.751252310986
 31
0.0
  0
LINE
  5
250
330
1F
100
AcDbEntity
  8
1
  6
Continuous
 62
     7
100
AcDbLine
 10
1161.631896977435
 20
1242.870488404101
 30
0.0
 11
1191.471310418522
 21
1298.696104437351
 31
0.0
  0
LINE
  5
251
330
1F
100
AcDbEntity
  8
1
  6
Continuous
 62
     7
100
AcDbLine
 10
1483.366122774274
 20
1081.104954525873
 30
0.0
 11
1504.720394952493
 21
1121.055987800853
 31
0.0
  0
LINE
  5
252
330
1F
100
AcDbEntity
  8
1
  6
DASH_CENTER
 62
     3
100
AcDbLine
 10
1138.214486336756
 20
1291.274912570553
 30
0.0
 11
1513.5778148687
 21
1090.639033442666
 31
0.0
  0
LINE
  5
253
330
1F
100
AcDbEntity
  8
1
  6
Continuous
 62
     7
100
AcDbLine
 10
1161.631896977435
 20
1242.870488404101
 30
0.0
 11
1483.366122774274
 21
1081.104954525873
 31
0.0
  0
LINE
  5
254
330
1F
100
AcDbEntity
  8
1
  6
Continuous
 62
     7
100
AcDbLine
 10
1504.720394952493
 20
1121.055987800853
 30
0.0
 11
1191.471310418522
 21
1298.696104437351
 31
0.0
  0
LINE
  5
255
330
1F
100
AcDbEntity
  8
1
  6
Continuous
 62
     7
100
AcDbLine
 10
1165.473780382567
 20
1250.05814670854
 30
0.0
 11
1162.916208715957
 21
1251.425197245335
 31
0.0
  0
LINE
  5
256
330
1F
100
AcDbEntity
  8
1
  6
Continuous
 62
     7
100
AcDbLine
 10
1187.629427013391
 20
1291.508446132912
 30
0.0
 11
1185.071855346779
 21
1292.875496669708
 31
0.0
  0
LINE
  5
257
330
1F
100
AcDbEntity
  8
1
  6
DASH_CENTER
 62
     3
100
AcDbLine
 10
1127.942341291355
 20
1224.537553627094
 30
0.0
 11
1135.839228611105
 21
1220.959520532283
 31
0.0
  0
LINE
  5
258
330
1F
100
AcDbEntity
  8
1
  6
DASH_CENTER
 62
     3
100
AcDbLine
 10
1118.876969686144
 20
1183.523017328022
 30
0.0
 11
1110.980082366394
 21
1187.101050422833
 31
0.0
  0
LINE
  5
259
330
1F
100
AcDbEntity
  8
1
  6
DASHED
 62
     4
100
AcDbLine
 10
1115.599922541636
 20
1182.318073651007
 30
0.0
 11
1111.95646724195
 21
1183.968901770225
 31
0.0
  0
LINE
  5
25A
330
1F
100
AcDbEntity
  8
1
  6
DASHED
 62
     4
100
AcDbLine
 10
1126.852621408891
 20
1220.722256730773
 30
0.0
 11
1113.130072206264
 21
1190.435945251425
 31
0.0
  0
LINE
  5
25B
330
1F
100
AcDbEntity
  8
1
  6
DASHED
 62
     4
100
AcDbLine
 10
1133.410840948324
 20
1217.750766116181
 30
0.0
 11
1119.688291745698
 21
1187.464454636833
 31
0.0
  0
LINE
  5
25C
330
1F
100
AcDbEntity
  8
1
  6
DASHED
 62
     4
100
AcDbLine
 10
1130.940990612952
 20
1225.868637716599
 30
0.0
 11
1134.584445912638
 21
1224.217809597381
 31
0.0
  0
LINE
  5
25D
330
1F
100
AcDbEntity
  8
1
  6
Continuous
 62
     7
100
AcDbLine
 10
1126.87708708005
 20
1167.711976979644
 30
0.0
 11
1153.001442066669
 21
1225.369657097154
 31
0.0
  0
LINE
  5
25E
330
1F
100
AcDbEntity
  8
1
  6
Continuous
 62
     7
100
AcDbLine
 10
1458.50242731991
 20
1027.335220674348
 30
0.0
 11
1477.19805577005
 21
1068.597351943277
 31
0.0
  0
LINE
  5
25F
330
1F
100
AcDbEntity
  8
1
  6
DASH_CENTER
 62
     3
100
AcDbLine
 10
1100.344014104036
 20
1214.481191623996
 30
0.0
 11
1488.025875266984
 21
1038.824825598645
 31
0.0
  0
LINE
  5
260
330
1F
100
AcDbEntity
  8
1
  6
Continuous
 62
     7
100
AcDbLine
 10
1126.87708708005
 20
1167.711976979644
 30
0.0
 11
1458.50242731991
 21
1027.335220674348
 31
0.0
  0
LINE
  5
261
330
1F
100
AcDbEntity
  8
1
  6
Continuous
 62
     7
100
AcDbLine
 10
1477.19805577005
 20
1068.597351943277
 30
0.0
 11
1153.001442066669
 21
1225.369657097154
 31
0.0
  0
LINE
  5
262
330
1F
100
AcDbEntity
  8
1
  6
Continuous
 62
     7
100
AcDbLine
 10
1130.240649372955
 20
1175.135517152752
 30
0.0
 11
1127.599144280684
 21
1176.332367539184
 31
0.0
  0
LINE
  5
263
330
1F
100
AcDbEntity
  8
1
  6
Continuous
 62
     7
100
AcDbLine
 10
1149.637879773764
 20
1217.946116924046
 30
0.0
 11
1146.996374681491
 21
1219.142967310479
 31
0.0
  0
LINE
  5
264
330
1F
100
AcDbEntity
  8
1
  6
DASH_CENTER
 62
     3
100
AcDbLine
 10
1094.458694621139
 20
1147.214892059013
 30
0.0
 11
1102.57268865985
 21
1144.161000949603
 31
0.0
  0
LINE
  5
265
330
1F
100
AcDbEntity
  8
1
  6
DASH_CENTER
 62
     3
100
AcDbLine
 10
1088.095211690287
 20
1105.695267359876
 30
0.0
 11
1079.981217651576
 21
1108.749158469287
 31
0.0
  0
LINE
  5
266
330
1F
100
AcDbEntity
  8
1
  6
DASHED
 62
     4
100
AcDbLine
 10
1084.903988042289
 20
1104.278574421881
 30
0.0
 11
1081.160364335259
 21
1105.687574613566
 31
0.0
  0
LINE
  5
267
330
1F
100
AcDbEntity
  8
1
  6
DASHED
 62
     4
100
AcDbLine
 10
1093.620840268553
 20
1143.336492915917
 30
0.0
 11
1081.90849164072
 21
1112.217529095399
 31
0.0
  0
LINE
  5
268
330
1F
100
AcDbEntity
  8
1
  6
DASHED
 62
     4
100
AcDbLine
 10
1100.359362941206
 20
1140.800292570884
 30
0.0
 11
1088.647014313373
 21
1109.681328750366
 31
0.0
  0
LINE
  5
269
330
1F
100
AcDbEntity
  8
1
  6
DASHED
 62
     4
100
AcDbLine
 10
1097.363866539636
 20
1148.739247244403
 30
0.0
 11
1101.107490246666
 21
1147.330247052718
 31
0.0
  0
LINE
  5
26A
330
1F
100
AcDbEntity
  8
1
  6
Continuous
 62
     7
100
AcDbLine
 10
1097.112291733921
 20
1090.441312374331
 30
0.0
 11
1119.409719767336
 21
1149.68415753807
 31
0.0
  0
LINE
  5
26B
330
1F
100
AcDbEntity
  8
1
  6
Continuous
 62
     7
100
AcDbLine
 10
1437.208675797847
 20
972.0544484634986
 30
0.0
 11
1453.16560296868
 21
1014.450986945605
 31
0.0
  0
LINE
  5
26C
330
1F
100
AcDbEntity
  8
1
  6
DASH_CENTER
 62
     3
100
AcDbLine
 10
1067.577175114488
 20
1135.375044539337
 30
0.0
 11
1465.917455660938
 21
985.4503791430957
 31
0.0
  0
LINE
  5
26D
330
1F
100
AcDbEntity
  8
1
  6
Continuous
 62
     7
100
AcDbLine
 10
1097.112291733921
 20
1090.441312374331
 30
0.0
 11
1437.208675797847
 21
972.0544484634986
 31
0.0
  0
LINE
  5
26E
330
1F
100
AcDbEntity
  8
1
  6
Continuous
 62
     7
100
AcDbLine
 10
1453.16560296868
 20
1014.450986945605
 30
0.0
 11
1119.409719767336
 21
1149.68415753807
 31
0.0
  0
LINE
  5
26F
330
1F
100
AcDbEntity
  8
1
  6
Continuous
 62
     7
100
AcDbLine
 10
1099.983129624478
 20
1098.068945677404
 30
0.0
 11
1097.269002436883
 21
1099.090470816375
 31
0.0
  0
LINE
  5
270
330
1F
100
AcDbEntity
  8
1
  6
Continuous
 62
     7
100
AcDbLine
 10
1116.538881876779
 20
1142.056524234997
 30
0.0
 11
1113.824754689181
 21
1143.078049373969
 31
0.0
  0
LINE
  5
271
330
1F
100
AcDbEntity
  8
1
  6
DASH_CENTER
 62
     3
100
AcDbLine
 10
1066.103883035651
 20
1067.867848974477
 30
0.0
 11
1074.400238425168
 21
1065.351177081039
 31
0.0
  0
LINE
  5
272
330
1F
100
AcDbEntity
  8
1
  6
DASH_CENTER
 62
     3
100
AcDbLine
 10
1062.46953819001
 20
1026.020929282445
 30
0.0
 11
1054.173182800493
 21
1028.537601175882
 31
0.0
  0
LINE
  5
273
330
1F
100
AcDbEntity
  8
1
  6
DASHED
 62
     4
100
AcDbLine
 10
1059.377803348108
 20
1024.398553580125
 30
0.0
 11
1055.550042005178
 21
1025.559692289143
 31
0.0
  0
LINE
  5
274
330
1F
100
AcDbEntity
  8
1
  6
DASHED
 62
     4
100
AcDbLine
 10
1065.521482033911
 20
1063.942955485159
 30
0.0
 11
1055.869488055808
 21
1032.124595504022
 31
0.0
  0
LINE
  5
275
330
1F
100
AcDbEntity
  8
1
  6
DASHED
 62
     4
100
AcDbLine
 10
1072.411452451183
 20
1061.852905808927
 30
0.0
 11
1062.75945847308
 21
1030.03454582779
 31
0.0
  0
LINE
  5
276
330
1F
100
AcDbEntity
  8
1
  6
DASHED
 62
     4
100
AcDbLine
 10
1068.903137158883
 20
1069.578947732824
 30
0.0
 11
1072.730898501813
 21
1068.417809023806
 31
0.0
  0
LINE
  5
277
330
1F
100
AcDbEntity
  8
1
  6
Continuous
 62
     7
100
AcDbLine
 10
1072.464968362296
 20
1011.389379436811
 30
0.0
 11
1090.839988432504
 21
1071.963702688659
 31
0.0
  0
LINE
  5
278
330
1F
100
AcDbEntity
  8
1
  6
Continuous
 62
     7
100
AcDbLine
 10
1419.57605132118
 20
915.4993586467898
 30
0.0
 11
1432.725947200807
 21
958.8487558554582
 31
0.0
  0
LINE
  5
279
330
1F
100
AcDbEntity
  8
1
  6
DASH_CENTER
 62
     3
100
AcDbLine
 10
1040.054282003121
 20
1054.295215982987
 30
0.0
 11
1447.347227697462
 21
930.7442516499369
 31
0.0
  0
LINE
  5
27A
330
1F
100
AcDbEntity
  8
1
  6
Continuous
 62
     7
100
AcDbLine
 10
1072.464968362296
 20
1011.389379436811
 30
0.0
 11
1419.57605132118
 21
915.4993586467898
 31
0.0
  0
LINE
  5
27B
330
1F
100
AcDbEntity
  8
1
  6
Continuous
 62
     7
100
AcDbLine
 10
1432.725947200807
 20
958.8487558554582
 30
0.0
 11
1090.839988432504
 21
1071.963702688659
 31
0.0
  0
LINE
  5
27C
330
1F
100
AcDbEntity
  8
1
  6
Continuous
 62
     7
100
AcDbLine
 10
1074.83078848192
 20
1019.188443173028
 30
0.0
 11
1072.055661508296
 21
1020.030268737066
 31
0.0
  0
LINE
  5
27D
330
1F
100
AcDbEntity
  8
1
  6
Continuous
 62
     7
100
AcDbLine
 10
1088.474168312882
 20
1064.164638952442
 30
0.0
 11
1085.699041339257
 21
1065.00646451648
 31
0.0
  0
LINE
  5
27E
330
1F
100
AcDbEntity
  8
1
  6
DASH_CENTER
 62
     3
100
AcDbLine
 10
1042.99932619121
 20
986.836200593552
 30
0.0
 11
1051.442516664075
 21
984.8675246915011
 31
0.0
  0
LINE
  5
27F
330
1F
100
AcDbEntity
  8
1
  6
DASH_CENTER
 62
     3
100
AcDbLine
 10
1042.109682253362
 20
944.8411808432022
 30
0.0
 11
1033.666491780498
 21
946.8098567452532
 31
0.0
  0
LINE
  5
280
330
1F
100
AcDbEntity
  8
1
  6
DASHED
 62
     4
100
AcDbLine
 10
1039.130675500802
 20
943.0200696383864
 30
0.0
 11
1035.235167583691
 21
943.9283746905242
 31
0.0
  0
LINE
  5
281
330
1F
100
AcDbEntity
  8
1
  6
DASHED
 62
     4
100
AcDbLine
 10
1042.674872470817
 20
982.8816197544948
 30
0.0
 11
1035.12456446246
 21
950.5001147150204
 31
0.0
  0
LINE
  5
282
330
1F
100
AcDbEntity
  8
1
  6
DASHED
 62
     4
100
AcDbLine
 10
1049.686786721614
 20
981.2466706606473
 30
0.0
 11
1042.136478713257
 21
948.8651656211728
 31
0.0
  0
LINE
  5
283
330
1F
100
AcDbEntity
  8
1
  6
DASHED
 62
     4
100
AcDbLine
 10
1045.680675683272
 20
988.7267157372816
 30
0.0
 11
1049.576183600383
 21
987.8184106851438
 31
0.0
  0
LINE
  5
284
330
1F
100
AcDbEntity
  8
1
  6
Continuous
 62
     7
100
AcDbLine
 10
1053.040660587778
 20
930.8946906801949
 30
0.0
 11
1067.414588037855
 21
992.5411034684501
 31
0.0
  0
LINE
  5
285
330
1F
100
AcDbEntity
  8
1
  6
Continuous
 62
     7
100
AcDbLine
 10
1405.680059494926
 20
857.9121288013121
 30
0.0
 11
1415.966614210384
 21
902.0287559625748
 31
0.0
  0
LINE
  5
286
330
1F
100
AcDbEntity
  8
1
  6
DASH_CENTER
 62
     3
100
AcDbLine
 10
1017.893192023631
 20
971.5889022284274
 30
0.0
 11
1432.394711943648
 21
874.9407031557314
 31
0.0
  0
LINE
  5
287
330
1F
100
AcDbEntity
  8
1
  6
Continuous
 62
     7
100
AcDbLine
 10
1053.040660587778
 20
930.8946906801949
 30
0.0
 11
1405.680059494926
 21
857.9121288013121
 31
0.0
  0
LINE
  5
288
330
1F
100
AcDbEntity
  8
1
  6
Continuous
 62
     7
100
AcDbLine
 10
1415.966614210384
 20
902.0287559625748
 30
0.0
 11
1067.414588037855
 21
992.5411034684501
 31
0.0
  0
LINE
  5
289
330
1F
100
AcDbEntity
  8
1
  6
Continuous
 62
     7
100
AcDbLine
 10
1054.891332131508
 20
938.8317880613054
 30
0.0
 11
1052.067088891604
 21
939.4903092241048
 31
0.0
  0
LINE
  5
28A
330
1F
100
AcDbEntity
  8
1
  6
Continuous
 62
     7
100
AcDbLine
 10
1065.563916494126
 20
984.6040060873397
 30
0.0
 11
1062.73967325422
 21
985.2625272501398
 31
0.0
  0
LINE
  5
28B
330
1F
100
AcDbEntity
  8
1
  6
DASH_CENTER
 62
     3
100
AcDbLine
 10
1025.243961347301
 20
904.4669368748114
 30
0.0
 11
1033.797831865686
 21
903.0546871365966
 31
0.0
  0
LINE
  5
28C
330
1F
100
AcDbEntity
  8
1
  6
DASH_CENTER
 62
     3
100
AcDbLine
 10
1027.102827909169
 20
862.5036461879076
 30
0.0
 11
1018.548957390783
 21
863.9158959261225
 31
0.0
  0
LINE
  5
28D
330
1F
100
AcDbEntity
  8
1
  6
DASHED
 62
     4
100
AcDbLine
 10
1024.249305810209
 20
860.4915977583571
 30
0.0
 11
1020.302732481868
 21
861.1431796519357
 31
0.0
  0
LINE
  5
28E
330
1F
100
AcDbEntity
  8
1
  6
DASHED
 62
     4
100
AcDbLine
 10
1025.178844268897
 20
900.4996028082858
 30
0.0
 11
1019.762553808321
 21
867.6936152863525
 31
0.0
  0
LINE
  5
28F
330
1F
100
AcDbEntity
  8
1
  6
DASHED
 62
     4
100
AcDbLine
 10
1032.282676259908
 20
899.3267553998446
 30
0.0
 11
1026.866385799332
 21
866.5207678779113
 31
0.0
  0
LINE
  5
290
330
1F
100
AcDbEntity
  8
1
  6
DASHED
 62
     4
100
AcDbLine
 10
1027.795924258019
 20
906.5287729278402
 30
0.0
 11
1031.74249758636
 21
905.8771910342616
 31
0.0
  0
LINE
  5
291
330
1F
100
AcDbEntity
  8
1
  6
Continuous
 62
     7
100
AcDbLine
 10
1038.922546278331
 20
849.3019367195091
 30
0.0
 11
1049.23382974421
 21
911.7564596404818
 31
0.0
  0
LINE
  5
292
330
1F
100
AcDbEntity
  8
1
  6
Continuous
 62
     7
100
AcDbLine
 10
1395.580205089438
 20
799.5393562862164
 30
0.0
 11
1402.959370034213
 21
844.234299229661
 31
0.0
  0
LINE
  5
293
330
1F
100
AcDbEntity
  8
1
  6
DASH_CENTER
 62
     3
100
AcDbLine
 10
1001.188802365541
 20
887.6102644084589
 30
0.0
 11
1421.123937367506
 21
818.2786930222479
 31
0.0
  0
LINE
  5
294
330
1F
100
AcDbEntity
  8
1
  6
Continuous
 62
     7
100
AcDbLine
 10
1038.922546278331
 20
849.3019367195091
 30
0.0
 11
1395.580205089438
 21
799.5393562862164
 31
0.0
  0
LINE
  5
295
330
1F
100
AcDbEntity
  8
1
  6
Continuous
 62
     7
100
AcDbLine
 10
1402.959370034213
 20
844.234299229661
 30
0.0
 11
1049.23382974421
 21
911.7564596404818
 31
0.0
  0
LINE
  5
296
330
1F
100
AcDbEntity
  8
1
  6
Continuous
 62
     7
100
AcDbLine
 10
1040.250144386497
 20
857.343079876001
 30
0.0
 11
1037.388878723451
 21
857.8154767488451
 31
0.0
  0
LINE
  5
297
330
1F
100
AcDbEntity
  8
1
  6
Continuous
 62
     7
100
AcDbLine
 10
1047.906231636045
 20
903.7153164839901
 30
0.0
 11
1045.044965972997
 21
904.1877133568347
 31
0.0
  0
LINE
  5
298
330
1F
100
AcDbEntity
  8
1
  6
DASH_CENTER
 62
     3
100
AcDbLine
 10
1012.913819702037
 20
821.1127756510576
 30
0.0
 11
1021.541741279169
 21
820.2629995468705
 31
0.0
  0
LINE
  5
299
330
1F
100
AcDbEntity
  8
1
  6
DASH_CENTER
 62
     3
100
AcDbLine
 10
1017.513236811624
 20
779.3609072806428
 30
0.0
 11
1008.885315234492
 21
780.2106833848301
 31
0.0
  0
LINE
  5
29A
330
1F
100
AcDbEntity
  8
1
  6
DASHED
 62
     4
100
AcDbLine
 10
1014.797418585974
 20
777.1665375266284
 30
0.0
 11
1010.816679679284
 21
777.5586060879468
 31
0.0
  0
LINE
  5
29B
330
1F
100
AcDbEntity
  8
1
  6
DASHED
 62
     4
100
AcDbLine
 10
1013.108318106948
 20
817.1496770906126
 30
0.0
 11
1009.84923858143
 21
784.059687361256
 31
0.0
  0
LINE
  5
29C
330
1F
100
AcDbEntity
  8
1
  6
DASHED
 62
     4
100
AcDbLine
 10
1020.273648138989
 20
816.4439536802397
 30
0.0
 11
1017.01456861347
 21
783.3539639508833
 31
0.0
  0
LINE
  5
29D
330
1F
100
AcDbEntity
  8
1
  6
DASHED
 62
     4
100
AcDbLine
 10
1015.325468134444
 20
823.3371035148678
 30
0.0
 11
1019.306207041134
 21
822.9450349535493
 31
0.0
  0
LINE
  5
29E
330
1F
100
AcDbEntity
  8
1
  6
Continuous
 62
     7
100
AcDbLine
 10
1030.171081366881
 20
766.9605102535601
 30
0.0
 11
1036.375566349743
 21
829.95570345191
 31
0.0
  0
LINE
  5
29F
330
1F
100
AcDbEntity
  8
1
  6
Continuous
 62
     7
100
AcDbLine
 10
1389.319737231837
 20
740.6310022749633
 30
0.0
 11
1393.759913688767
 21
785.7128703932134
 31
0.0
  0
LINE
  5
2A0
330
1F
100
AcDbEntity
  8
1
  6
DASH_CENTER
 62
     3
100
AcDbLine
 10
990.0126437898721
 20
802.7189119428617
 30
0.0
 11
1413.583167156091
 21
761.000856675788
 31
0.0
  0
LINE
  5
2A1
330
1F
100
AcDbEntity
  8
1
  6
Continuous
 62
     7
100
AcDbLine
 10
1030.171081366881
 20
766.9605102535601
 30
0.0
 11
1389.319737231837
 21
740.6310022749633
 31
0.0
  0
LINE
  5
2A2
330
1F
100
AcDbEntity
  8
1
  6
Continuous
 62
     7
100
AcDbLine
 10
1393.759913688767
 20
785.7128703932134
 30
0.0
 11
1036.375566349743
 21
829.95570345191
 31
0.0
  0
LINE
  5
2A3
330
1F
100
AcDbEntity
  8
1
  6
Continuous
 62
     7
100
AcDbLine
 10
1030.969921060567
 20
775.0712657759386
 30
0.0
 11
1028.083885353218
 21
775.355515482894
 31
0.0
  0
LINE
  5
2A4
330
1F
100
AcDbEntity
  8
1
  6
Continuous
 62
     7
100
AcDbLine
 10
1035.576726656058
 20
821.8449479295317
 30
0.0
 11
1032.690690948707
 21
822.1291976364878
 31
0.0
  0
LINE
  5
2A5
330
1F
100
AcDbEntity
  8
1
  6
DASH_CENTER
 62
     3
100
AcDbLine
 10
1006.061700814902
 20
737.1306522374148
 30
0.0
 11
1014.726727366005
 21
736.8469886389933
 31
0.0
  0
LINE
  5
2A6
330
1F
100
AcDbEntity
  8
1
  6
DASH_CENTER
 62
     3
100
AcDbLine
 10
1013.38197306203
 20
695.7689940937141
 30
0.0
 11
1004.716946510928
 21
696.0526576921358
 31
0.0
  0
LINE
  5
2A7
330
1F
100
AcDbEntity
  8
1
  6
DASHED
 62
     4
100
AcDbLine
 10
1010.815488260272
 20
693.4016996434082
 30
0.0
 11
1006.817629910365
 21
693.5325759746954
 31
0.0
  0
LINE
  5
2A8
330
1F
100
AcDbEntity
  8
1
  6
DASHED
 62
     4
100
AcDbLine
 10
1006.514981831099
 20
733.188759779512
 30
0.0
 11
1005.42706911951
 21
699.956464258821
 31
0.0
  0
LINE
  5
2A9
330
1F
100
AcDbEntity
  8
1
  6
DASHED
 62
     4
100
AcDbLine
 10
1013.71112686093
 20
732.9531823831951
 30
0.0
 11
1012.62321414934
 21
699.7208868625042
 31
0.0
  0
LINE
  5
2AA
330
1F
100
AcDbEntity
  8
1
  6
DASHED
 62
     4
100
AcDbLine
 10
1008.322707720167
 20
739.5079469986082
 30
0.0
 11
1012.320566070073
 21
739.3770706673209
 31
0.0
  0
LINE
  5
2AB
330
1F
100
AcDbEntity
  8
1
  6
DASHED
 62
     4
100
AcDbLine
 10
1026.823740969728
 20
684.2230099117606
 30
0.0
 11
1027.223423396088
 21
696.4320450353823
 31
0.0
  0
LINE
  5
2AC
330
1F
100
AcDbEntity
  8
1
  6
DASHED
 62
     4
100
AcDbLine
 10
1386.925464206615
 20
681.4393213832038
 30
0.0
 11
1387.118756137184
 21
687.3437790570717
 31
0.0
  0
LINE
  5
2AD
330
1F
100
AcDbEntity
  8
1
  6
DASH_CENTER
 62
     3
100
AcDbLine
 10
984.4125743234399
 20
717.2783626356511
 30
0.0
 11
1409.80469204513
 21
703.3524666050405
 31
0.0
  0
LINE
  5
2AE
330
1F
100
AcDbEntity
  8
1
  6
DASHED
 62
     4
100
AcDbLine
 10
1026.823740969728
 20
684.2230099117606
 30
0.0
 11
1386.925464206615
 21
681.4393213832038
 31
0.0
  0
LINE
  5
2AF
330
1F
100
AcDbEntity
  8
1
  6
Continuous
 62
     7
100
AcDbLine
 10
1388.407638658442
 20
726.7150671958829
 30
0.0
 11
1028.894858912347
 21
747.4891182990147
 31
0.0
  0
LINE
  5
2B0
330
1F
100
AcDbEntity
  8
1
  6
DASHED
 62
     4
100
AcDbLine
 10
1027.090401494725
 20
692.3686462996932
 30
0.0
 11
1024.191954191044
 21
692.4635316398761
 31
0.0
  0
LINE
  5
2B1
330
1F
100
AcDbEntity
  8
1
  6
Continuous
 62
     7
100
AcDbLine
 10
1028.628198387351
 20
739.3434819110826
 30
0.0
 11
1025.729751083668
 21
739.4383672512657
 31
0.0
  0
LINE
  5
2B2
330
1F
100
AcDbEntity
  8
1
  6
Continuous
 62
     7
100
AcDbLine
 10
1027.223423396088
 20
696.4320450353823
 30
0.0
 11
1028.894858912347
 21
747.4891182990147
 31
0.0
  0
LINE
  5
2B3
330
1F
100
AcDbEntity
  8
1
  6
Continuous
 62
     7
100
AcDbLine
 10
1387.118756137184
 20
687.3437790570717
 30
0.0
 11
1388.407638658442
 21
726.7150671958829
 31
0.0
  0
LINE
  5
2B4
330
1F
100
AcDbEntity
  8
0
  6
DASHED
 62
     4
100
AcDbLine
 10
748.9591683583481
 20
2108.656190731658
 30
0.0
 11
768.337868102969
 21
2097.936183228292
 31
0.0
  0
LINE
  5
2B5
330
1F
100
AcDbEntity
  8
0
  6
DASHED
 62
     4
100
AcDbLine
 10
858.043978534494
 20
2217.802383433266
 30
0.0
 11
869.0725829935191
 21
2198.283405016965
 31
0.0
  0
LINE
  5
2B6
330
1F
100
AcDbEntity
  8
0
  6
DASHED
 62
     4
100
AcDbLine
 10
734.9694998058831
 20
2107.935240921017
 30
0.0
 11
781.1649187568751
 21
2085.126654680426
 31
0.0
  0
LINE
  5
2B7
330
1F
100
AcDbEntity
  8
0
  6
DASHED
 62
     4
100
AcDbLine
 10
858.7131865135279
 20
2231.678927628664
 30
0.0
 11
882.2271761150701
 21
2185.165021419462
 31
0.0
  0
LINE
  5
2B8
330
1F
100
AcDbEntity
  8
0
  6
DASHED
 62
     4
100
AcDbLine
 10
921.2921366485389
 20
2147.179667276871
 30
0.0
 11
921.1299263529349
 21
2147.017456981265
 31
0.0
  0
LINE
  5
2B9
330
1F
100
AcDbEntity
  8
0
  6
DASHED
 62
     4
100
AcDbLine
 10
877.516004353417
 20
2173.985236823515
 30
0.0
 11
908.4997264487361
 21
2143.001514728196
 31
0.0
  0
LINE
  5
2BA
330
1F
100
AcDbEntity
  8
0
  6
DASHED
 62
     4
100
AcDbLine
 10
792.6631906110299
 20
2089.13242308113
 30
0.0
 11
823.646912706351
 21
2058.14870098581
 31
0.0
  0
LINE
  5
2BB
330
1F
100
AcDbEntity
  8
0
  6
DASHED
 62
     4
100
AcDbLine
 10
782.1545924788909
 20
2082.995441912997
 30
0.0
 11
781.99210075479
 21
2082.832950188894
 31
0.0
  0
LINE
  5
2BC
330
1F
100
AcDbEntity
  8
0
  6
DASHED
 62
     4
100
AcDbLine
 10
819.631251881779
 20
2045.51878251011
 30
0.0
 11
819.468760157677
 21
2045.356290786007
 31
0.0
  0
LINE
  5
2BD
330
1F
100
AcDbEntity
  8
0
  6
DASHED
 62
     4
100
AcDbLine
 10
883.815477245651
 20
2184.656326679758
 30
0.0
 11
883.6532669500471
 21
2184.494116384153
 31
0.0
  0
LINE
  5
2BE
330
1F
100
AcDbEntity
  8
0
  6
DASHED
 62
     4
100
AcDbLine
 10
781.99210075479
 20
2082.832950188894
 30
0.0
 11
819.468760157677
 21
2045.356290786007
 31
0.0
  0
LINE
  5
2BF
330
1F
100
AcDbEntity
  8
0
  6
DASHED
 62
     4
100
AcDbLine
 10
883.815477245651
 20
2184.656326679758
 30
0.0
 11
921.2921366485389
 21
2147.179667276871
 31
0.0
  0
LINE
  5
2C0
330
1F
100
AcDbEntity
  8
0
  6
DASHED
 62
     4
100
AcDbLine
 10
739.2121404930031
 20
2107.935240921016
 30
0.0
 11
772.7997125993629
 21
2141.522813027377
 31
0.0
  0
LINE
  5
2C1
330
1F
100
AcDbEntity
  8
0
  6
DASHED
 62
     4
100
AcDbLine
 10
772.7997125993641
 20
2145.765453714496
 30
0.0
 11
764.314431225125
 21
2154.250735088736
 31
0.0
  0
LINE
  5
2C2
330
1F
100
AcDbEntity
  8
0
  6
DASHED
 62
     4
100
AcDbLine
 10
820.882973720049
 20
2193.848714835182
 30
0.0
 11
812.397692345809
 21
2202.333996209422
 31
0.0
  0
LINE
  5
2C3
330
1F
100
AcDbEntity
  8
0
  6
DASHED
 62
     4
100
AcDbLine
 10
734.9694998058831
 20
2107.935240921017
 30
0.0
 11
726.484218431644
 21
2116.420522295255
 31
0.0
  0
LINE
  5
2C4
330
1F
100
AcDbEntity
  8
0
  6
DASHED
 62
     4
100
AcDbLine
 10
858.7131865135279
 20
2231.678927628664
 30
0.0
 11
850.22790513929
 21
2240.164209002902
 31
0.0
  0
LINE
  5
2C5
330
1F
100
AcDbEntity
  8
0
  6
DASH_CENTER
 62
     3
100
AcDbLine
 10
834.3180025625929
 20
2231.325374238069
 30
0.0
 11
851.9956720922569
 21
2213.647704708406
 31
0.0
  0
LINE
  5
2C6
330
1F
100
AcDbEntity
  8
0
  6
DASH_CENTER
 62
     3
100
AcDbLine
 10
735.323053196475
 20
2132.330424871952
 30
0.0
 11
753.000722726139
 21
2114.652755342289
 31
0.0
  0
LINE
  5
2C7
330
1F
100
AcDbEntity
  8
0
  6
DASH_CENTER
 62
     3
100
AcDbLine
 10
911.3556306756241
 20
2176.841141050401
 30
0.0
 11
789.8072863841439
 21
2055.292796758922
 31
0.0
  0
LINE
  5
2C8
330
1F
100
AcDbEntity
  8
0
  6
DASHED
 62
     4
100
AcDbLine
 10
858.7131865135289
 20
2227.436286941544
 30
0.0
 11
825.125614407166
 21
2193.848714835182
 31
0.0
  0
ARC
  5
2C9
330
1F
100
AcDbEntity
  8
1
  6
DASH_CENTER
 62
     3
100
AcDbCircle
 10
2292.182003098554
 20
674.466424335737
 30
0.0
 40
1283.299999999996
100
AcDbArc
 50
90.77108748491379
 51
179.3
  0
ARC
  5
2CA
330
1F
100
AcDbEntity
  8
1
  6
DASHED
 62
     4
100
AcDbCircle
 10
1248.422338663893
 20
2130.337775584037
 30
0.0
 40
31.77499999999761
100
AcDbArc
 50
-35.89915967099017
 51
-54.10084032900959
  0
ARC
  5
2CB
330
1F
100
AcDbEntity
  8
1
  6
Continuous
 62
     3
100
AcDbCircle
 10
836.310651850454
 20
1718.226088770591
 30
0.0
 40
31.7750000000027
100
AcDbArc
 50
-54.1008403290342
 51
-44.99999999999623
  0
ARC
  5
2CC
330
1F
100
AcDbEntity
  8
1
  6
Continuous
 62
     3
100
AcDbCircle
 10
836.310651850454
 20
1718.226088770591
 30
0.0
 40
31.77500000000283
100
AcDbArc
 50
-44.99999999999623
 51
-35.89915967098127
  0
ARC
  5
2CD
330
1F
100
AcDbEntity
  8
1
  6
DASHED
 62
     4
100
AcDbCircle
 10
836.310651850454
 20
1718.226088770591
 30
0.0
 40
31.77500000000133
100
AcDbArc
 50
-35.89915967098127
 51
-54.1008403290342
  0
ARC
  5
2CE
330
1F
100
AcDbEntity
  8
1
  6
CENTER_DASH_DASH
 62
     4
100
AcDbCircle
 10
2292.18200309864
 20
674.466424335823
 30
0.0
 40
869.9999999999999
100
AcDbArc
 50
90.0
 51
90.32740623617964
  0
ARC
  5
2CF
330
1F
100
AcDbEntity
  8
1
  6
CENTER_DASH_DASH
 62
     4
100
AcDbCircle
 10
2292.18200309864
 20
674.466424335823
 30
0.0
 40
1330.0
100
AcDbArc
 50
90.0
 51
90.21621100186943
  0
ARC
  5
2D0
330
1F
100
AcDbEntity
  8
1
  6
Continuous
 62
     3
100
AcDbCircle
 10
1131.310201873773
 20
2013.225638793909
 30
0.0
 40
31.77499999999774
100
AcDbArc
 50
-54.10084032900949
 51
-35.89915967099184
  0
ARC
  5
2D1
330
1F
100
AcDbEntity
  8
1
  6
Continuous
 62
     7
100
AcDbCircle
 10
2292.18200309864
 20
674.466424335823
 30
0.0
 40
1329.999999999999
100
AcDbArc
 50
90.21621100186943
 51
179.7837889981306
  0
ARC
  5
2D2
330
1F
100
AcDbEntity
  8
1
  6
Continuous
 62
     7
100
AcDbCircle
 10
2292.182003098554
 20
674.466424335737
 30
0.0
 40
1306.000000000001
100
AcDbArc
 50
90.13191672325073
 51
179.8680832767417
  0
ARC
  5
2D3
330
1F
100
AcDbEntity
  8
1
  6
Continuous
 62
     3
100
AcDbCircle
 10
1190.182756230158
 20
2072.098193150301
 30
0.0
 40
31.77499999999761
100
AcDbArc
 50
-54.10084032900983
 51
-35.89915967099017
  0
ARC
  5
2D4
330
1F
100
AcDbEntity
  8
1
  6
Continuous
 62
     3
100
AcDbCircle
 10
1131.310201874023
 20
2013.225638794166
 30
0.0
 40
31.77499999999795
100
AcDbArc
 50
-54.10084032900826
 51
-35.89915967098921
  0
ARC
  5
2D5
330
1F
100
AcDbEntity
  8
1
  6
Continuous
 62
     3
100
AcDbCircle
 10
1072.056776910767
 20
1953.972213830903
 30
0.0
 40
31.77499999999634
100
AcDbArc
 50
-54.1008403290102
 51
-35.89915967098981
  0
ARC
  5
2D6
330
1F
100
AcDbEntity
  8
1
  6
Continuous
 62
     3
100
AcDbCircle
 10
1012.676213603388
 20
1894.591650523524
 30
0.0
 40
31.7749999999982
100
AcDbArc
 50
-54.10084032900834
 51
-35.89915967099039
  0
ARC
  5
2D7
330
1F
100
AcDbEntity
  8
1
  6
DASHED
 62
     4
100
AcDbCircle
 10
1190.182756230158
 20
2072.098193150301
 30
0.0
 40
31.77499999999761
100
AcDbArc
 50
-35.89915967099017
 51
-54.10084032900983
  0
ARC
  5
2D8
330
1F
100
AcDbEntity
  8
1
  6
DASHED
 62
     4
100
AcDbCircle
 10
1131.310201874023
 20
2013.225638794166
 30
0.0
 40
31.77499999999834
100
AcDbArc
 50
-35.89915967098921
 51
-54.10084032900826
  0
ARC
  5
2D9
330
1F
100
AcDbEntity
  8
1
  6
DASHED
 62
     4
100
AcDbCircle
 10
1072.056776910767
 20
1953.972213830903
 30
0.0
 40
31.77499999999634
100
AcDbArc
 50
-35.89915967098981
 51
-54.1008403290102
  0
ARC
  5
2DA
330
1F
100
AcDbEntity
  8
1
  6
DASHED
 62
     4
100
AcDbCircle
 10
1012.676213603388
 20
1894.591650523524
 30
0.0
 40
31.77499999999783
100
AcDbArc
 50
-35.89915967099039
 51
-54.10084032900834
  0
ARC
  5
2DB
330
1F
100
AcDbEntity
  8
1
  6
Continuous
 62
     3
100
AcDbCircle
 10
953.4227886403819
 20
1835.338225560518
 30
0.0
 40
31.77499999999827
100
AcDbArc
 50
-54.10084032900817
 51
-35.89915967099017
  0
ARC
  5
2DC
330
1F
100
AcDbEntity
  8
1
  6
Continuous
 62
     3
100
AcDbCircle
 10
894.550234283993
 20
1776.46567120413
 30
0.0
 40
31.77500000000283
100
AcDbArc
 50
-44.99999999999623
 51
-35.89915967098127
  0
ARC
  5
2DD
330
1F
100
AcDbEntity
  8
1
  6
Continuous
 62
     4
100
AcDbCircle
 10
2292.182003098554
 20
674.466424335737
 30
0.0
 40
1420.000000000001
100
AcDbArc
 50
155.9061741032133
 51
163.4753939437278
  0
ARC
  5
2DE
330
1F
100
AcDbEntity
  8
1
  6
Continuous
 62
     4
100
AcDbCircle
 10
2292.182003098554
 20
674.466424335737
 30
0.0
 40
1480.000000000001
100
AcDbArc
 50
155.9061741032133
 51
163.4753939437278
  0
ARC
  5
2DF
330
1F
100
AcDbEntity
  8
1
  6
Continuous
 62
     4
100
AcDbCircle
 10
2292.18200309864
 20
674.466424335823
 30
0.0
 40
1480.000000000001
100
AcDbArc
 50
106.5246060562636
 51
114.0938258967781
  0
ARC
  5
2E0
330
1F
100
AcDbEntity
  8
1
  6
Continuous
 62
     4
100
AcDbCircle
 10
2292.18200309864
 20
674.466424335823
 30
0.0
 40
1420.0
100
AcDbArc
 50
106.5246060562635
 51
114.0938258967781
  0
ARC
  5
2E1
330
1F
100
AcDbEntity
  8
1
  6
DASH_CENTER
 62
     3
100
AcDbCircle
 10
1116.350658868532
 20
2083.049517334892
 30
0.0
 40
8.970000000002738
100
AcDbArc
 50
-62.23473987697416
 51
-45.00000000000924
  0
ARC
  5
2E2
330
1F
100
AcDbEntity
  8
1
  6
DASH_CENTER
 62
     3
100
AcDbCircle
 10
883.598910099653
 20
1850.297768566013
 30
0.0
 40
8.970000000003696
100
AcDbArc
 50
-44.99999999999076
 51
-27.76526012302645
  0
ARC
  5
2E3
330
1F
100
AcDbEntity
  8
1
  6
Continuous
 62
     7
100
AcDbCircle
 10
2292.18200309864
 20
674.466424335823
 30
0.0
 40
1268.0
100
AcDbArc
 50
90.13523800011312
 51
179.8647619998869
  0
ARC
  5
2E4
330
1F
100
AcDbEntity
  8
1
  6
Continuous
 62
     7
100
AcDbCircle
 10
2986.557022997885
 20
1066.147565920519
 30
0.0
 40
13.50000000000167
100
AcDbArc
 50
1.43209618416624
 51
29.61050290532131
  0
ARC
  5
2E5
330
1F
100
AcDbEntity
  8
1
  6
Continuous
 62
     7
100
AcDbCircle
 10
3006.350838396764
 20
1066.642411305491
 30
0.0
 40
13.49999999999928
100
AcDbArc
 50
153.2536894630088
 51
-178.5679038158393
  0
ARC
  5
2E6
330
1F
100
AcDbEntity
  8
1
  6
DASH_CENTER
 62
     3
100
AcDbCircle
 10
2292.18200309864
 20
674.466424335823
 30
0.0
 40
1100.000000000001
100
AcDbArc
 50
90.00000000000013
 51
129.3750000000003
  0
ARC
  5
2E7
330
1F
100
AcDbEntity
  8
1
  6
DASH_CENTER
 62
     3
100
AcDbCircle
 10
2292.18200309864
 20
674.466424335823
 30
0.0
 40
1100.000000000002
100
AcDbArc
 50
129.3750000000003
 51
133.1250000000004
  0
ARC
  5
2E8
330
1F
100
AcDbEntity
  8
1
  6
DASH_CENTER
 62
     3
100
AcDbCircle
 10
2292.18200309864
 20
674.466424335823
 30
0.0
 40
1100.000000000002
100
AcDbArc
 50
133.1250000000004
 51
180.0
  0
ARC
  5
2E9
330
1F
100
AcDbEntity
  8
1
  6
Continuous
 62
     7
100
AcDbCircle
 10
2292.18200309864
 20
674.466424335823
 30
0.0
 40
870.0000000000001
100
AcDbArc
 50
90.32740623617964
 51
179.6725937638204
  0
ARC
  5
2EA
330
1F
100
AcDbEntity
  8
1
  6
DASHED
 62
     4
100
AcDbCircle
 10
2292.18200309864
 20
674.466424335823
 30
0.0
 40
1300.0
100
AcDbArc
 50
90.0
 51
180.0
  0
ARC
  5
2EB
330
1F
100
AcDbEntity
  8
1
  6
Continuous
 62
     7
100
AcDbCircle
 10
2292.18200309864
 20
674.466424335823
 30
0.0
 40
899.9999999999999
100
AcDbArc
 50
90.0
 51
180.0
  0
ARC
  5
2EC
330
1F
100
AcDbEntity
  8
1
  6
Continuous
 62
     7
100
AcDbCircle
 10
1022.616214714271
 20
2159.919127383316
 30
0.0
 40
4.344898672319864
100
AcDbArc
 50
10.61575253198063
 51
79.38424746801984
  0
ARC
  5
2ED
330
1F
100
AcDbEntity
  8
1
  6
Continuous
 62
     7
100
AcDbCircle
 10
1019.40970041006
 20
2146.302281672277
 30
0.0
 40
16.24081062144591
100
AcDbArc
 50
27.41204622600618
 51
62.5879537739955
  0
ARC
  5
2EE
330
1F
100
AcDbEntity
  8
1
  6
Continuous
 62
     7
100
AcDbCircle
 10
1033.026546121101
 20
2149.508795976488
 30
0.0
 40
4.344898672318468
100
AcDbArc
 50
10.61575253197188
 51
79.38424746805741
  0
ARC
  5
2EF
330
1F
100
AcDbEntity
  8
1
  6
DASHED
 62
     4
100
AcDbCircle
 10
894.550234283993
 20
1776.46567120413
 30
0.0
 40
31.77500000000133
100
AcDbArc
 50
-35.89915967098127
 51
-54.1008403290342
  0
ARC
  5
2F0
330
1F
100
AcDbEntity
  8
1
  6
DASHED
 62
     4
100
AcDbCircle
 10
953.4227886403819
 20
1835.338225560518
 30
0.0
 40
31.77499999999761
100
AcDbArc
 50
-35.89915967099017
 51
-54.10084032900817
  0
ARC
  5
2F1
330
1F
100
AcDbEntity
  8
1
  6
Continuous
 62
     3
100
AcDbCircle
 10
894.550234283993
 20
1776.46567120413
 30
0.0
 40
31.7750000000027
100
AcDbArc
 50
-54.1008403290342
 51
-44.99999999999623
  0
ARC
  5
2F2
330
1F
100
AcDbEntity
  8
1
  6
DASHED
 62
     4
100
AcDbCircle
 10
2267.133670793735
 20
1947.728586384024
 30
0.0
 40
13.49999999999994
100
AcDbArc
 50
63.69659327884389
 51
91.8749999999996
  0
ARC
  5
2F3
330
1F
100
AcDbEntity
  8
1
  6
DASHED
 62
     4
100
AcDbCircle
 10
2266.485832953864
 20
1967.517985216055
 30
0.0
 40
13.50000000000006
100
AcDbArc
 50
-88.12499999999835
 51
-59.94659327884429
  0
ARC
  5
2F4
330
1F
100
AcDbEntity
  8
1
  6
DASHED
 62
     4
100
AcDbCircle
 10
2233.901375273044
 20
1946.640673672434
 30
0.0
 40
13.50000000000096
100
AcDbArc
 50
91.8749999999996
 51
120.0534067211541
  0
ARC
  5
2F5
330
1F
100
AcDbEntity
  8
1
  6
DASHED
 62
     4
100
AcDbCircle
 10
2233.253537433173
 20
1966.430072504466
 30
0.0
 40
13.50000000000096
100
AcDbArc
 50
-116.303406721154
 51
-88.12499999999848
  0
ARC
  5
2F6
330
1F
100
AcDbEntity
  8
1
  6
DASHED
 62
     4
100
AcDbCircle
 10
2148.881242359773
 20
1959.809773105551
 30
0.0
 40
13.50000000000052
100
AcDbArc
 50
-112.5534067211512
 51
-84.37500000000051
  0
ARC
  5
2F7
330
1F
100
AcDbEntity
  8
1
  6
DASHED
 62
     4
100
AcDbCircle
 10
2150.821981738298
 20
1940.105115517441
 30
0.0
 40
13.50000000000138
100
AcDbArc
 50
95.62499999999749
 51
123.8034067211527
  0
ARC
  5
2F8
330
1F
100
AcDbEntity
  8
1
  6
DASHED
 62
     4
100
AcDbCircle
 10
2181.971232089129
 20
1963.068852631069
 30
0.0
 40
13.50000000000039
100
AcDbArc
 50
-84.37499999999629
 51
-56.19659327884202
  0
ARC
  5
2F9
330
1F
100
AcDbEntity
  8
1
  6
DASHED
 62
     4
100
AcDbCircle
 10
2183.911971467655
 20
1943.36419504296
 30
0.0
 40
13.49999999999968
100
AcDbArc
 50
67.4465932788473
 51
95.62499999999987
  0
ARC
  5
2FA
330
1F
100
AcDbEntity
  8
1
  6
DASHED
 62
     4
100
AcDbCircle
 10
2065.122583143791
 20
1947.685436157702
 30
0.0
 40
13.50000000000025
100
AcDbArc
 50
-108.8034067211552
 51
-80.62500000000304
  0
ARC
  5
2FB
330
1F
100
AcDbEntity
  8
1
  6
DASHED
 62
     4
100
AcDbCircle
 10
2068.347913517003
 20
1928.149898182422
 30
0.0
 40
13.50000000000108
100
AcDbArc
 50
99.37499999999825
 51
127.5534067211559
  0
ARC
  5
2FC
330
1F
100
AcDbEntity
  8
1
  6
DASHED
 62
     4
100
AcDbCircle
 10
2097.928570665724
 20
1953.101726618278
 30
0.0
 40
13.50000000000115
100
AcDbArc
 50
-80.62499999999986
 51
-52.44659327884497
  0
ARC
  5
2FD
330
1F
100
AcDbEntity
  8
1
  6
DASHED
 62
     4
100
AcDbCircle
 10
2101.153901038937
 20
1933.566188642998
 30
0.0
 40
13.49999999999995
100
AcDbArc
 50
71.19659327884848
 51
99.37500000000397
  0
ARC
  5
2FE
330
1F
100
AcDbEntity
  8
1
  6
DASHED
 62
     4
100
AcDbCircle
 10
1982.33622722285
 20
1930.108979933094
 30
0.0
 40
13.50000000000039
100
AcDbArc
 50
-105.0534067211531
 51
-76.87500000000146
  0
ARC
  5
2FF
330
1F
100
AcDbEntity
  8
1
  6
DASHED
 62
     4
100
AcDbCircle
 10
1986.832337230931
 20
1910.826215743403
 30
0.0
 40
13.50000000000087
100
AcDbArc
 50
103.1249999999986
 51
131.3034067211585
  0
ARC
  5
300
330
1F
100
AcDbEntity
  8
1
  6
DASHED
 62
     4
100
AcDbCircle
 10
2014.717732262325
 20
1937.659287941451
 30
0.0
 40
13.50000000000114
100
AcDbArc
 50
-76.87500000000074
 51
-48.69659327884471
  0
ARC
  5
301
330
1F
100
AcDbEntity
  8
1
  6
DASHED
 62
     4
100
AcDbCircle
 10
2019.213842270405
 20
1918.376523751761
 30
0.0
 40
13.49999999999997
100
AcDbArc
 50
74.94659327884247
 51
103.1249999999994
  0
ARC
  5
302
330
1F
100
AcDbEntity
  8
1
  6
DASHED
 62
     4
100
AcDbCircle
 10
1900.876678482599
 20
1907.155669515666
 30
0.0
 40
13.500000000001
100
AcDbArc
 50
-101.3034067211494
 51
-73.12499999999665
  0
ARC
  5
303
330
1F
100
AcDbEntity
  8
1
  6
DASHED
 62
     4
100
AcDbCircle
 10
1906.624315092238
 20
1888.208250868169
 30
0.0
 40
13.50000000000039
100
AcDbArc
 50
106.8750000000034
 51
135.0534067211574
  0
ARC
  5
304
330
1F
100
AcDbEntity
  8
1
  6
DASHED
 62
     4
100
AcDbCircle
 10
1932.695038463737
 20
1916.807663493769
 30
0.0
 40
13.50000000000115
100
AcDbArc
 50
-73.12500000000267
 51
-44.9465932788487
  0
ARC
  5
305
330
1F
100
AcDbEntity
  8
1
  6
DASHED
 62
     4
100
AcDbCircle
 10
1938.442675073375
 20
1897.860244846271
 30
0.0
 40
13.50000000000033
100
AcDbArc
 50
78.69659327884513
 51
106.8749999999973
  0
ARC
  5
306
330
1F
100
AcDbEntity
  8
1
  6
DASHED
 62
     4
100
AcDbCircle
 10
1821.092759216641
 20
1878.923794504482
 30
0.0
 40
13.50000000000049
100
AcDbArc
 50
-97.55340672115511
 51
-69.37500000000041
  0
ARC
  5
307
330
1F
100
AcDbEntity
  8
1
  6
DASHED
 62
     4
100
AcDbCircle
 10
1828.067310165481
 20
1860.392857154687
 30
0.0
 40
13.50000000000141
100
AcDbArc
 50
110.6250000000002
 51
138.803406721154
  0
ARC
  5
308
330
1F
100
AcDbEntity
  8
1
  6
DASHED
 62
     4
100
AcDbCircle
 10
1852.211723037158
 20
1890.636143132314
 30
0.0
 40
13.50000000000005
100
AcDbArc
 50
-69.37499999999871
 51
-41.19659327884567
  0
ARC
  5
309
330
1F
100
AcDbEntity
  8
1
  6
DASHED
 62
     4
100
AcDbCircle
 10
1859.186273985999
 20
1872.10520578252
 30
0.0
 40
13.49999999999959
100
AcDbArc
 50
82.44659327884439
 51
110.625000000001
  0
ARC
  5
30A
330
1F
100
AcDbEntity
  8
1
  6
DASHED
 62
     4
100
AcDbCircle
 10
1743.326116415921
 20
1845.534248122577
 30
0.0
 40
13.50000000000144
100
AcDbArc
 50
-93.80340672115209
 51
-65.62499999999943
  0
ARC
  5
30B
330
1F
100
AcDbEntity
  8
1
  6
DASHED
 62
     4
100
AcDbCircle
 10
1751.497715606048
 20
1827.499144389138
 30
0.0
 40
13.50000000000017
100
AcDbArc
 50
114.3750000000021
 51
142.553406721157
  0
ARC
  5
30C
330
1F
100
AcDbEntity
  8
1
  6
DASHED
 62
     4
100
AcDbCircle
 10
1773.61242789527
 20
1859.256797325202
 30
0.0
 40
13.4999999999998
100
AcDbArc
 50
-65.62500000000144
 51
-37.44659327884604
  0
ARC
  5
30D
330
1F
100
AcDbEntity
  8
1
  6
DASHED
 62
     4
100
AcDbCircle
 10
1781.784027085396
 20
1841.221693591763
 30
0.0
 40
13.50000000000059
100
AcDbArc
 50
86.19659327884381
 51
114.3749999999962
  0
ARC
  5
30E
330
1F
100
AcDbEntity
  8
1
  6
DASHED
 62
     4
100
AcDbCircle
 10
1667.909758783866
 20
1807.130009533613
 30
0.0
 40
13.50000000000092
100
AcDbArc
 50
-90.05340672115383
 51
-61.87499999999862
  0
ARC
  5
30F
330
1F
100
AcDbEntity
  8
1
  6
DASHED
 62
     4
100
AcDbCircle
 10
1677.243414173021
 20
1789.667968499516
 30
0.0
 40
13.50000000000063
100
AcDbArc
 50
118.1250000000032
 51
146.3034067211572
  0
ARC
  5
310
330
1F
100
AcDbEntity
  8
1
  6
DASHED
 62
     4
100
AcDbCircle
 10
1697.233727286651
 20
1822.803997248621
 30
0.0
 40
13.50000000000021
100
AcDbArc
 50
-61.87500000000021
 51
-33.69659327884498
  0
ARC
  5
311
330
1F
100
AcDbEntity
  8
1
  6
DASHED
 62
     4
100
AcDbCircle
 10
1706.567382675806
 20
1805.341956214525
 30
0.0
 40
13.49999999999978
100
AcDbArc
 50
89.9465932788452
 51
118.1250000000032
  0
ARC
  5
312
330
1F
100
AcDbEntity
  8
1
  6
DASHED
 62
     4
100
AcDbCircle
 10
1595.166630741985
 20
1763.875531583155
 30
0.0
 40
13.50000000000011
100
AcDbArc
 50
-86.30340672115412
 51
-58.12499999999683
  0
ARC
  5
313
330
1F
100
AcDbEntity
  8
1
  6
DASHED
 62
     4
100
AcDbCircle
 10
1605.622374184862
 20
1747.061328388929
 30
0.0
 40
13.50000000000112
100
AcDbArc
 50
121.8749999999982
 51
150.053406721155
  0
ARC
  5
314
330
1F
100
AcDbEntity
  8
1
  6
DASHED
 62
     4
100
AcDbCircle
 10
1623.402686533181
 20
1781.433839388837
 30
0.0
 40
13.50000000000022
100
AcDbArc
 50
-58.12500000000062
 51
-29.94659327884505
  0
ARC
  5
315
330
1F
100
AcDbEntity
  8
1
  6
DASHED
 62
     4
100
AcDbCircle
 10
1633.858429976058
 20
1764.619636194611
 30
0.0
 40
13.50000000000011
100
AcDbArc
 50
93.69659327884588
 51
121.8750000000015
  0
ARC
  5
316
330
1F
100
AcDbEntity
  8
1
  6
DASHED
 62
     4
100
AcDbCircle
 10
1525.408229532282
 20
1715.956036586335
 30
0.0
 40
13.49999999999965
100
AcDbArc
 50
-82.5534067211523
 51
-54.37499999999807
  0
ARC
  5
317
330
1F
100
AcDbEntity
  8
1
  6
DASHED
 62
     4
100
AcDbCircle
 10
1536.941287930264
 20
1699.861672231422
 30
0.0
 40
13.50000000000055
100
AcDbArc
 50
125.6250000000019
 51
153.8034067211561
  0
ARC
  5
318
330
1F
100
AcDbEntity
  8
1
  6
DASHED
 62
     4
100
AcDbCircle
 10
1552.435461486112
 20
1735.323477113067
 30
0.0
 40
13.50000000000129
100
AcDbArc
 50
-54.37500000000032
 51
-26.19659327885171
  0
ARC
  5
319
330
1F
100
AcDbEntity
  8
1
  6
DASHED
 62
     4
100
AcDbCircle
 10
1563.968519884094
 20
1719.229112758153
 30
0.0
 40
13.49999999999985
100
AcDbArc
 50
97.44659327884662
 51
125.6250000000011
  0
ARC
  5
31A
330
1F
100
AcDbEntity
  8
1
  6
DASHED
 62
     4
100
AcDbCircle
 10
1458.933271338241
 20
1663.576723177465
 30
0.0
 40
13.50000000000004
100
AcDbArc
 50
-78.8034067211514
 51
-50.62499999999774
  0
ARC
  5
31B
330
1F
100
AcDbEntity
  8
1
  6
DASHED
 62
     4
100
AcDbCircle
 10
1471.494258364681
 20
1648.271116200883
 30
0.0
 40
13.50000000000136
100
AcDbArc
 50
129.3749999999998
 51
157.5534067211508
  0
ARC
  5
31C
330
1F
100
AcDbEntity
  8
1
  6
DASHED
 62
     4
100
AcDbCircle
 10
1484.635944698183
 20
1684.670362071566
 30
0.0
 40
13.50000000000049
100
AcDbArc
 50
-50.62499999999713
 51
-22.44659327884738
  0
ARC
  5
31D
330
1F
100
AcDbEntity
  8
1
  6
DASHED
 62
     4
100
AcDbCircle
 10
1497.196931724623
 20
1669.364755094984
 30
0.0
 40
13.49999999999982
100
AcDbArc
 50
101.1965932788439
 51
129.3749999999998
  0
ARC
  5
31E
330
1F
100
AcDbEntity
  8
1
  6
DASHED
 62
     4
100
AcDbCircle
 10
1396.026412136271
 20
1606.961887617979
 30
0.0
 40
13.50000000000077
100
AcDbArc
 50
-75.05340672115101
 51
-46.87499999999641
  0
ARC
  5
31F
330
1F
100
AcDbEntity
  8
1
  6
DASHED
 62
     4
100
AcDbCircle
 10
1409.561539716324
 20
1592.510578978562
 30
0.0
 40
13.50000000000168
100
AcDbArc
 50
133.1250000000003
 51
161.3034067211526
  0
ARC
  5
320
330
1F
100
AcDbEntity
  8
1
  6
DASHED
 62
     4
100
AcDbCircle
 10
1420.294464109051
 20
1629.691398679351
 30
0.0
 40
13.50000000000102
100
AcDbArc
 50
-46.87499999999711
 51
-18.69659327884746
  0
ARC
  5
321
330
1F
100
AcDbEntity
  8
1
  6
DASHED
 62
     4
100
AcDbCircle
 10
1433.829591689104
 20
1615.240090039934
 30
0.0
 40
13.50000000000026
100
AcDbArc
 50
104.9465932788446
 51
133.1250000000003
  0
ARC
  5
322
330
1F
100
AcDbEntity
  8
0
  6
DASHED
 62
     4
100
AcDbCircle
 10
1443.845490905372
 20
1576.643459647974
 30
0.0
 40
4.999999999999675
100
AcDbArc
 50
-90.00030499999683
 51
-45.00030500000294
  0
ARC
  5
323
330
1F
100
AcDbEntity
  8
0
  6
DASHED
 62
     4
100
AcDbCircle
 10
1442.159182653598
 20
1563.643442897216
 30
0.0
 40
7.999999999999793
100
AcDbArc
 50
89.99980199999571
 51
134.9999000000015
  0
ARC
  5
324
330
1F
100
AcDbEntity
  8
0
  6
DASHED
 62
     4
100
AcDbCircle
 10
1473.943908239578
 20
1586.400127500067
 30
0.0
 40
8.000000000000528
100
AcDbArc
 50
46.49990099999641
 51
104.9999999999968
  0
ARC
  5
325
330
1F
100
AcDbEntity
  8
0
  6
DASHED
 62
     4
100
AcDbCircle
 10
1530.062314335773
 20
1541.237916714289
 30
0.0
 40
1.999999999999855
100
AcDbArc
 50
-44.9999999999954
 51
45.0
  0
ARC
  5
326
330
1F
100
AcDbEntity
  8
0
  6
DASHED
 62
     4
100
AcDbCircle
 10
1528.6481007734
 20
1534.166848902424
 30
0.0
 40
2.000000000000016
100
AcDbArc
 50
135.0
 51
-134.9999999999816
  0
ARC
  5
327
330
1F
100
AcDbEntity
  8
0
  6
DASHED
 62
     4
100
AcDbCircle
 10
1657.050631219572
 20
1400.814570987946
 30
0.0
 40
2.999999999998967
100
AcDbArc
 50
-30.48330700000399
 51
44.99970199999846
  0
ARC
  5
328
330
1F
100
AcDbEntity
  8
0
  6
DASHED
 62
     4
100
AcDbCircle
 10
1649.916913746893
 20
1413.605142710117
 30
0.0
 40
1.000000000000008
100
AcDbArc
 50
134.999999999954
 51
-135.0
  0
ARC
  5
329
330
1F
100
AcDbEntity
  8
0
  6
DASHED
 62
     4
100
AcDbCircle
 10
1649.209806965707
 20
1415.726463053677
 30
0.0
 40
1.000000000000028
100
AcDbArc
 50
-45.00030500002504
 51
44.99960300001253
  0
ARC
  5
32A
330
1F
100
AcDbEntity
  8
0
  6
DASHED
 62
     4
100
AcDbCircle
 10
1656.280874777572
 20
1390.270618930961
 30
0.0
 40
1.000000000000305
100
AcDbArc
 50
-45.00010700000097
 51
44.99970199998311
  0
ARC
  5
32B
330
1F
100
AcDbEntity
  8
0
  6
DASHED
 62
     4
100
AcDbCircle
 10
1390.004967786479
 20
1522.80293652908
 30
0.0
 40
4.999999999999015
100
AcDbArc
 50
-44.99969499999523
 51
0.00030500000985
  0
ARC
  5
32C
330
1F
100
AcDbEntity
  8
0
  6
DASHED
 62
     4
100
AcDbCircle
 10
1403.004984537237
 20
1524.489244780854
 30
0.0
 40
8.000000000000352
100
AcDbArc
 50
135.0000999999997
 51
-179.9998020000022
  0
ARC
  5
32D
330
1F
100
AcDbEntity
  8
0
  6
DASHED
 62
     4
100
AcDbCircle
 10
1380.248299934386
 20
1492.704519194875
 30
0.0
 40
8.000000000000345
100
AcDbArc
 50
165.0000000000028
 51
-136.4999009999964
  0
ARC
  5
32E
330
1F
100
AcDbEntity
  8
0
  6
DASHED
 62
     4
100
AcDbCircle
 10
1425.410510720164
 20
1436.58611309868
 30
0.0
 40
2.000000000001302
100
AcDbArc
 50
-135.0
 51
-45.00000000001843
  0
ARC
  5
32F
330
1F
100
AcDbEntity
  8
0
  6
DASHED
 62
     4
100
AcDbCircle
 10
1432.481578532029
 20
1438.000326661052
 30
0.0
 40
2.000000000000498
100
AcDbArc
 50
45.00000000002304
 51
134.9999999999816
  0
ARC
  5
330
330
1F
100
AcDbEntity
  8
0
  6
DASHED
 62
     4
100
AcDbCircle
 10
1565.833856446506
 20
1309.597796214881
 30
0.0
 40
2.999999999999281
100
AcDbArc
 50
-134.9997019999923
 51
-59.51669299999053
  0
ARC
  5
331
330
1F
100
AcDbEntity
  8
0
  6
DASHED
 62
     4
100
AcDbCircle
 10
1553.043284724335
 20
1316.73151368756
 30
0.0
 40
0.9999999999998472
100
AcDbArc
 50
44.99999999996316
 51
135.0
  0
ARC
  5
332
330
1F
100
AcDbEntity
  8
0
  6
DASHED
 62
     4
100
AcDbCircle
 10
1550.921964380776
 20
1317.438620468746
 30
0.0
 40
0.9999999999998966
100
AcDbArc
 50
-134.9996030000125
 51
-44.99969499996575
  0
ARC
  5
333
330
1F
100
AcDbEntity
  8
0
  6
DASHED
 62
     4
100
AcDbCircle
 10
1576.377808503491
 20
1310.36755265688
 30
0.0
 40
0.9999999999993853
100
AcDbArc
 50
-134.99970200002
 51
-44.99989299996219
  0
ARC
  5
334
330
1F
100
AcDbEntity
  8
1
  6
DASHED
 62
     4
100
AcDbCircle
 10
1336.957028755111
 20
1546.353963325411
 30
0.0
 40
13.50000000000068
100
AcDbArc
 50
-71.30340672115254
 51
-43.12500000000096
  0
ARC
  5
335
330
1F
100
AcDbEntity
  8
1
  6
DASHED
 62
     4
100
AcDbCircle
 10
1351.408337394528
 20
1532.818835745358
 30
0.0
 40
13.50000000000102
100
AcDbArc
 50
136.8749999999971
 51
165.0534067211544
  0
ARC
  5
336
330
1F
100
AcDbEntity
  8
1
  6
DASHED
 62
     4
100
AcDbCircle
 10
1359.686539816483
 20
1570.622015298191
 30
0.0
 40
13.50000000000168
100
AcDbArc
 50
-43.12500000000025
 51
-14.94659327884806
  0
ARC
  5
337
330
1F
100
AcDbEntity
  8
1
  6
DASHED
 62
     4
100
AcDbCircle
 10
1374.1378484559
 20
1557.086887718138
 30
0.0
 40
13.50000000000039
100
AcDbArc
 50
108.6965932788438
 51
136.8749999999971
  0
ARC
  5
338
330
1F
100
AcDbEntity
  8
1
  6
DASHED
 62
     4
100
AcDbCircle
 10
1281.978065362897
 20
1482.012482736279
 30
0.0
 40
13.50000000000016
100
AcDbArc
 50
-67.55340672115709
 51
-39.37500000000287
  0
ARC
  5
339
330
1F
100
AcDbEntity
  8
1
  6
DASHED
 62
     4
100
AcDbCircle
 10
1297.283672339478
 20
1469.451495709839
 30
0.0
 40
13.50000000000066
100
AcDbArc
 50
140.6249999999978
 51
168.8034067211561
  0
ARC
  5
33A
330
1F
100
AcDbEntity
  8
1
  6
DASHED
 62
     4
100
AcDbCircle
 10
1303.071704256997
 20
1507.715156096221
 30
0.0
 40
13.50000000000136
100
AcDbArc
 50
-39.37499999999981
 51
-11.19659327884786
  0
ARC
  5
33B
330
1F
100
AcDbEntity
  8
1
  6
DASHED
 62
     4
100
AcDbCircle
 10
1318.377311233579
 20
1495.154169069781
 30
0.0
 40
13.49999999999931
100
AcDbArc
 50
112.4465932788444
 51
140.6249999999971
  0
ARC
  5
33C
330
1F
100
AcDbEntity
  8
1
  6
DASHED
 62
     4
100
AcDbCircle
 10
1231.324950321396
 20
1414.21296594835
 30
0.0
 40
13.49999999999991
100
AcDbArc
 50
-63.80340672115263
 51
-35.62499999999879
  0
ARC
  5
33D
330
1F
100
AcDbEntity
  8
1
  6
DASHED
 62
     4
100
AcDbCircle
 10
1247.41931467631
 20
1402.679907550368
 30
0.0
 40
13.50000000000148
100
AcDbArc
 50
144.3750000000009
 51
172.5534067211539
  0
ARC
  5
33E
330
1F
100
AcDbEntity
  8
1
  6
DASHED
 62
     4
100
AcDbCircle
 10
1250.692390848127
 20
1441.24019790218
 30
0.0
 40
13.50000000000148
100
AcDbArc
 50
-35.62499999999912
 51
-7.44659327884612
  0
ARC
  5
33F
330
1F
100
AcDbEntity
  8
1
  6
DASHED
 62
     4
100
AcDbCircle
 10
1266.786755203041
 20
1429.707139504198
 30
0.0
 40
13.49999999999991
100
AcDbArc
 50
116.1965932788474
 51
144.3750000000003
  0
ARC
  5
340
330
1F
100
AcDbEntity
  8
1
  6
DASHED
 62
     4
100
AcDbCircle
 10
1185.214588045626
 20
1343.245740901282
 30
0.0
 40
13.5000000000008
100
AcDbArc
 50
-60.05340672115688
 51
-31.87500000000348
  0
ARC
  5
341
330
1F
100
AcDbEntity
  8
1
  6
DASHED
 62
     4
100
AcDbCircle
 10
1202.028791239851
 20
1332.789997458405
 30
0.0
 40
13.50000000000022
100
AcDbArc
 50
148.1250000000006
 51
176.3034067211577
  0
ARC
  5
342
330
1F
100
AcDbEntity
  8
1
  6
DASHED
 62
     4
100
AcDbCircle
 10
1202.772895851308
 20
1371.481796692477
 30
0.0
 40
13.50000000000022
100
AcDbArc
 50
-31.87499999999938
 51
-3.69659327884589
  0
ARC
  5
343
330
1F
100
AcDbEntity
  8
1
  6
DASHED
 62
     4
100
AcDbCircle
 10
1219.587099045533
 20
1361.0260532496
 30
0.0
 40
13.49999999999956
100
AcDbArc
 50
119.9465932788417
 51
148.1250000000006
  0
ARC
  5
344
330
1F
100
AcDbEntity
  8
1
  6
DASHED
 62
     4
100
AcDbCircle
 10
1143.844430185841
 20
1269.414700147811
 30
0.0
 40
13.5000000000012
100
AcDbArc
 50
-56.30340672115315
 51
-28.12500000000138
  0
ARC
  5
345
330
1F
100
AcDbEntity
  8
1
  6
DASHED
 62
     4
100
AcDbCircle
 10
1161.306471219938
 20
1260.081044758656
 30
0.0
 40
13.50000000000074
100
AcDbArc
 50
151.8749999999959
 51
-179.9465932788462
  0
ARC
  5
346
330
1F
100
AcDbEntity
  8
1
  6
DASHED
 62
     4
100
AcDbCircle
 10
1159.51841790085
 20
1298.738668650596
 30
0.0
 40
13.50000000000175
100
AcDbArc
 50
-28.12500000000178
 51
0.05340672115383
  0
ARC
  5
347
330
1F
100
AcDbEntity
  8
1
  6
DASHED
 62
     4
100
AcDbCircle
 10
1176.980458934947
 20
1289.405013261441
 30
0.0
 40
13.49999999999981
100
AcDbArc
 50
123.696593278845
 51
151.8749999999959
  0
ARC
  5
348
330
1F
100
AcDbEntity
  8
1
  6
DASHED
 62
     4
100
AcDbCircle
 10
1107.391630109261
 20
1193.035999539192
 30
0.0
 40
13.5000000000005
100
AcDbArc
 50
-52.55340672115072
 51
-24.37499999999745
  0
ARC
  5
349
330
1F
100
AcDbEntity
  8
1
  6
DASHED
 62
     4
100
AcDbCircle
 10
1125.4267338427
 20
1184.864400349066
 30
0.0
 40
13.5
100
AcDbArc
 50
155.6250000000019
 51
-176.1965932788436
  0
ARC
  5
34A
330
1F
100
AcDbEntity
  8
1
  6
DASHED
 62
     4
100
AcDbCircle
 10
1121.114179311887
 20
1223.322311018541
 30
0.0
 40
13.5000000000013
100
AcDbArc
 50
-24.37500000000097
 51
3.80340672115138
  0
ARC
  5
34B
330
1F
100
AcDbEntity
  8
1
  6
DASHED
 62
     4
100
AcDbCircle
 10
1139.149283045326
 20
1215.150711828414
 30
0.0
 40
13.49999999999995
100
AcDbArc
 50
127.4465932788462
 51
155.624999999999
  0
ARC
  5
34C
330
1F
100
AcDbEntity
  8
1
  6
DASHED
 62
     4
100
AcDbCircle
 10
1076.012284302149
 20
1114.436704397303
 30
0.0
 40
13.49999999999937
100
AcDbArc
 50
-48.80340672115406
 51
-20.62500000000129
  0
ARC
  5
34D
330
1F
100
AcDbEntity
  8
1
  6
DASHED
 62
     4
100
AcDbCircle
 10
1094.543221651943
 20
1107.462153448463
 30
0.0
 40
13.5000000000012
100
AcDbArc
 50
159.3749999999995
 51
-172.4465932788454
  0
ARC
  5
34E
330
1F
100
AcDbEntity
  8
1
  6
DASHED
 62
     4
100
AcDbCircle
 10
1087.724632929981
 20
1145.555668217821
 30
0.0
 40
13.50000000000112
100
AcDbArc
 50
-20.62499999999959
 51
7.5534067211551
  0
ARC
  5
34F
330
1F
100
AcDbEntity
  8
1
  6
DASHED
 62
     4
100
AcDbCircle
 10
1106.255570279776
 20
1138.581117268981
 30
0.0
 40
13.49999999999954
100
AcDbArc
 50
131.1965932788453
 51
159.3750000000004
  0
ARC
  5
350
330
1F
100
AcDbEntity
  8
1
  6
DASHED
 62
     4
100
AcDbCircle
 10
1049.840763940695
 20
1033.953388970725
 30
0.0
 40
13.50000000000033
100
AcDbArc
 50
-45.05340672115131
 51
-16.87499999999874
  0
ARC
  5
351
330
1F
100
AcDbEntity
  8
1
  6
DASHED
 62
     4
100
AcDbCircle
 10
1068.788182588192
 20
1028.205752361087
 30
0.0
 40
13.50000000000115
100
AcDbArc
 50
163.1250000000027
 51
-168.6965932788442
  0
ARC
  5
352
330
1F
100
AcDbEntity
  8
1
  6
DASHED
 62
     4
100
AcDbCircle
 10
1059.492757918797
 20
1065.771748951862
 30
0.0
 40
13.50000000000115
100
AcDbArc
 50
-16.87499999999734
 51
11.30340672115412
  0
ARC
  5
353
330
1F
100
AcDbEntity
  8
1
  6
DASHED
 62
     4
100
AcDbCircle
 10
1078.440176566295
 20
1060.024112342224
 30
0.0
 40
13.49999999999952
100
AcDbArc
 50
134.9465932788453
 51
163.1249999999987
  0
ARC
  5
354
330
1F
100
AcDbEntity
  8
1
  6
DASHED
 62
     4
100
AcDbCircle
 10
1028.989139493012
 20
951.930695172137
 30
0.0
 40
13.50000000000101
100
AcDbArc
 50
-41.3034067211513
 51
-13.12499999999995
  0
ARC
  5
355
330
1F
100
AcDbEntity
  8
1
  6
DASHED
 62
     4
100
AcDbCircle
 10
1048.271903682703
 20
947.4345851640564
 30
0.0
 40
13.50000000000098
100
AcDbArc
 50
166.8749999999996
 51
-164.946593278845
  0
ARC
  5
356
330
1F
100
AcDbEntity
  8
1
  6
DASHED
 62
     4
100
AcDbCircle
 10
1036.53944750137
 20
984.3122002116115
 30
0.0
 40
13.50000000000006
100
AcDbArc
 50
-13.12500000000083
 51
15.05340672115373
  0
ARC
  5
357
330
1F
100
AcDbEntity
  8
1
  6
DASHED
 62
     4
100
AcDbCircle
 10
1055.82221169106
 20
979.8160902035311
 30
0.0
 40
13.4999999999994
100
AcDbArc
 50
138.6965932788434
 51
166.8750000000005
  0
ARC
  5
358
330
1F
100
AcDbEntity
  8
1
  6
DASHED
 62
     4
100
AcDbCircle
 10
1013.546700816185
 20
868.7198567687383
 30
0.0
 40
13.50000000000107
100
AcDbArc
 50
-37.55340672115132
 51
-9.37499999999919
  0
ARC
  5
359
330
1F
100
AcDbEntity
  8
1
  6
DASHED
 62
     4
100
AcDbCircle
 10
1033.082238791466
 20
865.4945263955256
 30
0.0
 40
13.50000000000104
100
AcDbArc
 50
170.6249999999998
 51
-161.1965932788456
  0
ARC
  5
35A
330
1F
100
AcDbEntity
  8
1
  6
DASHED
 62
     4
100
AcDbCircle
 10
1018.962991276762
 20
901.5258442906718
 30
0.0
 40
13.50000000000014
100
AcDbArc
 50
-9.37500000000085
 51
18.80340672115411
  0
ARC
  5
35B
330
1F
100
AcDbEntity
  8
1
  6
DASHED
 62
     4
100
AcDbCircle
 10
1038.498529252042
 20
898.3005139174591
 30
0.0
 40
13.50000000000017
100
AcDbArc
 50
142.4465932788457
 51
170.6250000000008
  0
ARC
  5
35C
330
1F
100
AcDbEntity
  8
1
  6
DASHED
 62
     4
100
AcDbCircle
 10
1003.579574803395
 20
784.6771953453324
 30
0.0
 40
13.50000000000025
100
AcDbArc
 50
-33.80340672115371
 51
-5.62499999999982
  0
ARC
  5
35D
330
1F
100
AcDbEntity
  8
1
  6
DASHED
 62
     4
100
AcDbCircle
 10
1023.284232391504
 20
782.7364559668072
 30
0.0
 40
13.50000000000132
100
AcDbArc
 50
174.3750000000005
 51
-157.4465932788457
  0
ARC
  5
35E
330
1F
100
AcDbEntity
  8
1
  6
DASHED
 62
     4
100
AcDbCircle
 10
1006.838654328913
 20
817.767185074689
 30
0.0
 40
13.50000000000134
100
AcDbArc
 50
-5.62500000000041
 51
22.55340672115263
  0
ARC
  5
35F
330
1F
100
AcDbEntity
  8
1
  6
DASHED
 62
     4
100
AcDbCircle
 10
1026.543311917022
 20
815.8264456961637
 30
0.0
 40
13.49999999999946
100
AcDbArc
 50
146.1965932788435
 51
174.3749999999997
  0
ARC
  5
360
330
1F
100
AcDbEntity
  8
1
  6
DASHED
 62
     4
100
AcDbCircle
 10
999.130442218408
 20
700.1625944805982
 30
0.0
 40
13.50000000000087
100
AcDbArc
 50
-30.05340672115229
 51
-1.87499999999958
  0
ARC
  5
361
330
1F
100
AcDbEntity
  8
1
  6
DASHED
 62
     4
100
AcDbCircle
 10
1018.91984105044
 20
699.514756640727
 30
0.0
 40
13.50000000000107
100
AcDbArc
 50
178.1249999999999
 51
-153.6965932788461
  0
ARC
  5
362
330
1F
100
AcDbEntity
  8
1
  6
DASHED
 62
     4
100
AcDbCircle
 10
1000.218354929998
 20
733.3948900012891
 30
0.0
 40
13.50000000000107
100
AcDbArc
 50
-1.87500000000007
 51
26.30340672115482
  0
ARC
  5
363
330
1F
100
AcDbEntity
  8
1
  6
DASHED
 62
     4
100
AcDbCircle
 10
1020.007753762029
 20
732.7470521614181
 30
0.0
 40
13.49999999999916
100
AcDbArc
 50
149.946593278843
 51
178.1249999999998
  0
ARC
  5
364
330
1F
100
AcDbEntity
  8
0
  6
DASHED
 62
     4
100
AcDbCircle
 10
770.758308757107
 20
2102.311632711056
 30
0.0
 40
5.000000000000474
100
AcDbArc
 50
-118.9506000000009
 51
9.77740499999211
  0
ARC
  5
365
330
1F
100
AcDbEntity
  8
0
  6
DASHED
 62
     4
100
AcDbCircle
 10
864.719354341355
 20
2195.823524067894
 30
0.0
 40
4.999999999998516
100
AcDbArc
 50
-100.0519980000042
 51
29.46650700001442
  0
ARC
  5
366
330
1F
100
AcDbEntity
  8
0
  6
DASHED
 62
     4
100
AcDbCircle
 10
853.6908898894719
 20
2215.342922505623
 30
0.0
 40
5.000000000000798
100
AcDbArc
 50
29.46650699998475
 51
134.9999999999982
  0
ARC
  5
367
330
1F
100
AcDbEntity
  8
0
  6
DASHED
 62
     4
100
AcDbCircle
 10
751.3794789048359
 20
2113.031511520986
 30
0.0
 40
4.999999999998111
100
AcDbArc
 50
134.9999999999908
 51
-118.9503989999898
  0
ARC
  5
368
330
1F
100
AcDbEntity
  8
0
  6
DASHED
 62
     4
100
AcDbCircle
 10
856.592006177113
 20
2229.557467277961
 30
0.0
 40
3.000000000000024
100
AcDbArc
 50
-45.00000000004606
 51
13.93330399999724
  0
ARC
  5
369
330
1F
100
AcDbEntity
  8
0
  6
DASHED
 62
     4
100
AcDbCircle
 10
737.0908201494431
 20
2110.056561264576
 30
0.0
 40
3.000000000000571
100
AcDbArc
 50
-102.9002990000118
 51
-45.0
  0
ARC
  5
36A
330
1F
100
AcDbEntity
  8
0
  6
DASHED
 62
     4
100
AcDbCircle
 10
852.7027788734411
 20
2113.945648561102
 30
0.0
 40
76.00000000000206
100
AcDbArc
 50
-44.99999999999794
 51
25.79510499999886
  0
ARC
  5
36B
330
1F
100
AcDbEntity
  8
0
  6
DASHED
 62
     4
100
AcDbCircle
 10
850.581458529884
 20
2116.066968904662
 30
0.0
 40
75.99999999999868
100
AcDbArc
 50
64.20480300000085
 51
-154.2048950000002
  0
ARC
  5
36C
330
1F
100
AcDbEntity
  8
0
  6
DASHED
 62
     4
100
AcDbCircle
 10
861.252548386125
 20
2157.721780856226
 30
0.0
 40
23.00000000000003
100
AcDbArc
 50
44.9999999999952
 51
75.63220199999229
  0
ARC
  5
36D
330
1F
100
AcDbEntity
  8
0
  6
DASHED
 62
     4
100
AcDbCircle
 10
892.236270481445
 20
2126.738058760906
 30
0.0
 40
23.00000000000085
100
AcDbArc
 50
14.369506999998
 51
44.99999999999839
  0
ARC
  5
36E
330
1F
100
AcDbEntity
  8
0
  6
DASHED
 62
     4
100
AcDbCircle
 10
808.926646578321
 20
2105.39587904842
 30
0.0
 40
22.99999999999999
100
AcDbArc
 50
-165.6289009999977
 51
-135.0000000000024
  0
ARC
  5
36F
330
1F
100
AcDbEntity
  8
0
  6
DASHED
 62
     4
100
AcDbCircle
 10
839.910368673641
 20
2074.4121569531
 30
0.0
 40
22.9999999999989
100
AcDbArc
 50
-135.0000000000004
 51
-104.3689000000003
  0
ARC
  5
370
330
1F
100
AcDbEntity
  8
0
  6
DASHED
 62
     4
100
AcDbCircle
 10
770.6785322629469
 20
2143.643993363794
 30
0.0
 40
2.999999999998256
100
AcDbArc
 50
-44.99999999998158
 51
45.00000000002456
  0
ARC
  5
371
330
1F
100
AcDbEntity
  8
0
  6
DASHED
 62
     4
100
AcDbCircle
 10
823.004294063607
 20
2195.970035178742
 30
0.0
 40
2.99999999999906
100
AcDbArc
 50
-134.9999999999724
 51
-45.00000000001229
  0
ARC
  5
372
330
1F
100
AcDbEntity
  8
0
  6
DASHED
 62
     4
100
AcDbCircle
 10
850.581458529884
 20
2116.066968904662
 30
0.0
 40
66.00000000000112
100
AcDbArc
 50
75.63130199999928
 51
-165.6307979999996
  0
ARC
  5
373
330
1F
100
AcDbEntity
  8
0
  6
DASHED
 62
     4
100
AcDbCircle
 10
850.581458529884
 20
2116.066968904662
 30
0.0
 40
66.00000000000172
100
AcDbArc
 50
-104.3688999999996
 51
14.36920200000021
  0
ARC
  5
374
330
1F
100
AcDbEntity
  8
0
  6
DASHED
 62
     4
100
AcDbCircle
 10
852.7027788734411
 20
2113.945648561102
 30
0.0
 40
75.99999999999876
100
AcDbArc
 50
-115.795199999999
 51
-44.99999999999794
  0
CIRCLE
  5
375
330
1F
100
AcDbEntity
  8
1
  6
DASH_CENTER
 62
     3
100
AcDbCircle
 10
1248.422338663897
 20
2130.337775584033
 30
0.0
 40
20.54999999999855
  0
CIRCLE
  5
376
330
1F
100
AcDbEntity
  8
1
  6
DASH_CENTER
 62
     3
100
AcDbCircle
 10
836.310651850454
 20
1718.226088770591
 30
0.0
 40
20.55000000000128
  0
CIRCLE
  5
377
330
1F
100
AcDbEntity
  8
1
  6
DASH_CENTER
 62
     3
100
AcDbCircle
 10
1025.943940264147
 20
2060.912639972114
 30
0.0
 40
28.53499999999985
  0
CIRCLE
  5
378
330
1F
100
AcDbEntity
  8
1
  6
DASH_CENTER
 62
     3
100
AcDbCircle
 10
905.735787462432
 20
1940.704487170398
 30
0.0
 40
28.53500000000099
  0
CIRCLE
  5
379
330
1F
100
AcDbEntity
  8
1
  6
DASH_CENTER
 62
     3
100
AcDbCircle
 10
866.137807715987
 20
2100.510619718558
 30
0.0
 40
38.57999999999989
  0
CIRCLE
  5
37A
330
1F
100
AcDbEntity
  8
1
  6
DASH_CENTER
 62
     3
100
AcDbCircle
 10
888.0581179327669
 20
2014.950699194983
 30
0.0
 40
28.53500000000099
  0
CIRCLE
  5
37B
330
1F
100
AcDbEntity
  8
1
  6
DASH_CENTER
 62
     3
100
AcDbCircle
 10
1190.182756230161
 20
2072.098193150297
 30
0.0
 40
20.54999999999935
  0
CIRCLE
  5
37C
330
1F
100
AcDbEntity
  8
1
  6
DASH_CENTER
 62
     3
100
AcDbCircle
 10
1131.310201874026
 20
2013.225638794164
 30
0.0
 40
20.55000000000128
  0
CIRCLE
  5
37D
330
1F
100
AcDbEntity
  8
1
  6
DASH_CENTER
 62
     3
100
AcDbCircle
 10
894.550234283993
 20
1776.46567120413
 30
0.0
 40
20.55000000000128
  0
CIRCLE
  5
37E
330
1F
100
AcDbEntity
  8
1
  6
DASH_CENTER
 62
     3
100
AcDbCircle
 10
953.4227886403819
 20
1835.338225560518
 30
0.0
 40
20.54999999999919
  0
CIRCLE
  5
37F
330
1F
100
AcDbEntity
  8
1
  6
DASH_CENTER
 62
     3
100
AcDbCircle
 10
1012.676213603388
 20
1894.591650523524
 30
0.0
 40
20.54999999999927
  0
CIRCLE
  5
380
330
1F
100
AcDbEntity
  8
1
  6
DASH_CENTER
 62
     3
100
AcDbCircle
 10
1072.056776910767
 20
1953.972213830903
 30
0.0
 40
20.55
  0
ARC
  5
381
330
1F
100
AcDbEntity
  8
1
  6
Continuous
 62
     7
100
AcDbCircle
 10
989.185456671818
 20
677.466424335823
 30
0.0
 40
2.999999999999983
100
AcDbArc
 50
179.8680832767394
 51
-90.0
  0
ARC
  5
382
330
1F
100
AcDbEntity
  8
1
  6
Continuous
 62
     7
100
AcDbCircle
 10
2289.18200309864
 20
1977.462970762473
 30
0.0
 40
3.0
100
AcDbArc
 50
0.0
 51
90.13191672324973
  0
ARC
  5
383
330
1F
100
AcDbEntity
  8
1
  6
Continuous
 62
     7
100
AcDbCircle
 10
2289.18200309864
 20
1945.462883811615
 30
0.0
 40
2.999999999999838
100
AcDbArc
 50
-89.86476199989571
 51
0.0
  0
ARC
  5
384
330
1F
100
AcDbEntity
  8
1
  6
Continuous
 62
     7
100
AcDbCircle
 10
1021.185543622847
 20
677.466424335823
 30
0.0
 40
3.0
100
AcDbArc
 50
-90.0
 51
-0.13523800011077
  0
ARC
  5
385
330
1F
100
AcDbEntity
  8
1
  6
Continuous
 62
     7
100
AcDbCircle
 10
2287.18200309864
 20
1549.452138504917
 30
0.0
 40
4.999999999999508
100
AcDbArc
 50
-89.67259376382513
 51
0.0
  0
ARC
  5
386
330
1F
100
AcDbEntity
  8
1
  6
Continuous
 62
     7
100
AcDbCircle
 10
2287.18200309864
 20
1999.456990339973
 30
0.0
 40
5.0
100
AcDbArc
 50
0.0
 51
90.21621100187599
  0
ARC
  5
387
330
1F
100
AcDbEntity
  8
1
  6
Continuous
 62
     7
100
AcDbCircle
 10
1417.196288929546
 20
679.466424335823
 30
0.0
 40
5.0
100
AcDbArc
 50
-90.0
 51
-0.32740623617878
  0
ARC
  5
388
330
1F
100
AcDbEntity
  8
1
  6
Continuous
 62
     7
100
AcDbCircle
 10
967.191437094489
 20
679.466424335823
 30
0.0
 40
4.999999999999297
100
AcDbArc
 50
179.7837889981305
 51
-90.0
  0
ARC
  5
389
330
1F
100
AcDbEntity
  8
1
  6
Continuous
 62
     7
100
AcDbCircle
 10
1230.854102132426
 20
1474.356533081142
 30
0.0
 40
1.000000000000689
100
AcDbArc
 50
142.5000000000219
 51
-127.5000000000202
  0
ARC
  5
38A
330
1F
100
AcDbEntity
  8
1
  6
Continuous
 62
     7
100
AcDbCircle
 10
1244.855614999644
 20
1492.603659907861
 30
0.0
 40
0.999999999999414
100
AcDbArc
 50
52.50000000003153
 51
142.5000000000116
  0
ARC
  5
38B
330
1F
100
AcDbEntity
  8
1
  6
Continuous
 62
     7
100
AcDbCircle
 10
1492.291894353403
 20
1735.79432530208
 30
0.0
 40
1.000000000000689
100
AcDbArc
 50
37.49999999997809
 51
127.4999999999368
  0
ARC
  5
38C
330
1F
100
AcDbEntity
  8
1
  6
Continuous
 62
     7
100
AcDbCircle
 10
1474.044767526703
 20
1721.792812434883
 30
0.0
 40
1.000000000000106
100
AcDbArc
 50
127.5000000000202
 51
-142.5000000000116
  0
ARC
  5
38D
330
1F
100
AcDbEntity
  8
1
  6
Continuous
 62
     7
100
AcDbCircle
 10
1492.291894353381
 20
1735.794325302065
 30
0.0
 40
0.9999999999999677
100
AcDbArc
 50
37.50000000000981
 51
127.4999999999764
  0
ARC
  5
38E
330
1F
100
AcDbEntity
  8
1
  6
Continuous
 62
     7
100
AcDbCircle
 10
1474.044767526683
 20
1721.792812434865
 30
0.0
 40
1.000000000000828
100
AcDbArc
 50
127.4999999999884
 51
-142.5000000000116
  0
ARC
  5
38F
330
1F
100
AcDbEntity
  8
1
  6
Continuous
 62
     7
100
AcDbCircle
 10
1854.115238862212
 20
1929.192932188928
 30
0.0
 40
0.9999999999999036
100
AcDbArc
 50
108.7499999999922
 51
-161.2500000000078
  0
ARC
  5
390
330
1F
100
AcDbEntity
  8
1
  6
Continuous
 62
     7
100
AcDbCircle
 10
1875.8946318406
 20
1936.586039890897
 30
0.0
 40
0.9999999999999036
100
AcDbArc
 50
18.74999999999218
 51
108.7499999999922
  0
ARC
  5
391
330
1F
100
AcDbEntity
  8
1
  6
Continuous
 62
     7
100
AcDbCircle
 10
2280.486871153661
 20
2003.415002470633
 30
0.0
 40
0.999999999999555
100
AcDbArc
 50
0.99999999998919
 51
90.99999999997617
  0
ARC
  5
392
330
1F
100
AcDbEntity
  8
1
  6
Continuous
 62
     7
100
AcDbCircle
 10
2257.490374165064
 20
2003.013597122579
 30
0.0
 40
1.000000000000468
100
AcDbArc
 50
91.00000000000131
 51
-179.0000000000122
  0
ARC
  5
393
330
1F
100
AcDbEntity
  8
1
  6
Continuous
 62
     7
100
AcDbCircle
 10
1030.062387543551
 20
1090.753795593976
 30
0.0
 40
0.9999999999999036
100
AcDbArc
 50
161.2500000000078
 51
-108.7499999999922
  0
ARC
  5
394
330
1F
100
AcDbEntity
  8
1
  6
Continuous
 62
     7
100
AcDbCircle
 10
1037.455495245523
 20
1112.533188572363
 30
0.0
 40
0.9999999999999806
100
AcDbArc
 50
71.2499999999543
 51
161.2500000000078
  0
ARC
  5
395
330
1F
100
AcDbEntity
  8
1
  6
Continuous
 62
     7
100
AcDbCircle
 10
963.6348303118109
 20
709.1580532695219
 30
0.0
 40
1.000000000000026
100
AcDbArc
 50
88.99999999995916
 51
178.9999999999978
  0
ARC
  5
396
330
1F
100
AcDbEntity
  8
1
  6
Continuous
 62
     7
100
AcDbCircle
 10
963.233424963754
 20
686.161556280925
 30
0.0
 40
0.9999999999997863
100
AcDbArc
 50
178.999999999998
 51
-90.99999999998875
  0
ARC
  5
397
330
1F
100
AcDbEntity
  8
1
  6
Continuous
 62
     7
100
AcDbCircle
 10
2974.285190606893
 20
1071.672603594034
 30
0.0
 40
5.199999999999818
100
AcDbArc
 50
0.0
 51
90.0
  0
ARC
  5
398
330
1F
100
AcDbEntity
  8
1
  6
Continuous
 62
     7
100
AcDbCircle
 10
3007.053744998256
 20
1038.526147245777
 30
0.0
 40
1.999999999999551
100
AcDbArc
 50
1.43209618417832
 51
91.43209618416449
  0
ARC
  5
399
330
1F
100
AcDbEntity
  8
1
  6
Continuous
 62
     7
100
AcDbCircle
 10
3002.755088118701
 20
1038.418680823788
 30
0.0
 40
2.000000000000676
100
AcDbArc
 50
91.43209618416449
 51
-178.5679038158481
  0
ARC
  5
39A
330
1F
100
AcDbEntity
  8
1
  6
Continuous
 62
     7
100
AcDbCircle
 10
3002.180267722018
 20
1061.411496691175
 30
0.0
 40
2.000000000000892
100
AcDbArc
 50
-178.5679038158487
 51
-88.56790381584789
  0
ARC
  5
39B
330
1F
100
AcDbEntity
  8
1
  6
Continuous
 62
     7
100
AcDbCircle
 10
3006.478924601573
 20
1061.518963113164
 30
0.0
 40
1.999999999999755
100
AcDbArc
 50
-88.56790381584789
 51
1.43209618415227
  0
ARC
  5
39C
330
1F
100
AcDbEntity
  8
1
  6
Continuous
 62
     7
100
AcDbCircle
 10
3384.685190606893
 20
1071.672603594034
 30
0.0
 40
5.200000000000046
100
AcDbArc
 50
90.0
 51
180.0
  0
ARC
  5
39D
330
1F
100
AcDbEntity
  8
1
  6
Continuous
 62
     7
100
AcDbCircle
 10
3384.685190606893
 20
1071.672603594034
 30
0.0
 40
2.0
100
AcDbArc
 50
90.0
 51
180.0
  0
ARC
  5
39E
330
1F
100
AcDbEntity
  8
1
  6
Continuous
 62
     7
100
AcDbCircle
 10
2974.285190606893
 20
962.072603594034
 30
0.0
 40
5.199999999999932
100
AcDbArc
 50
-90.0
 51
0.0
  0
ARC
  5
39F
330
1F
100
AcDbEntity
  8
1
  6
Continuous
 62
     7
100
AcDbCircle
 10
2974.285190606893
 20
1071.672603594034
 30
0.0
 40
2.0
100
AcDbArc
 50
0.0
 51
90.0
  0
ARC
  5
3A0
330
1F
100
AcDbEntity
  8
1
  6
Continuous
 62
     7
100
AcDbCircle
 10
2974.285190606893
 20
962.072603594034
 30
0.0
 40
2.0
100
AcDbArc
 50
-90.0
 51
0.0
  0
ARC
  5
3A1
330
1F
100
AcDbEntity
  8
1
  6
Continuous
 62
     7
100
AcDbCircle
 10
3384.685190606893
 20
962.072603594034
 30
0.0
 40
5.199999999999818
100
AcDbArc
 50
180.0
 51
-90.0
  0
ARC
  5
3A2
330
1F
100
AcDbEntity
  8
1
  6
Continuous
 62
     7
100
AcDbCircle
 10
3384.685190606893
 20
962.072603594034
 30
0.0
 40
2.0
100
AcDbArc
 50
180.0
 51
-90.0
  0
ARC
  5
3A3
330
1F
100
AcDbEntity
  8
1
  6
DASHED
 62
     4
100
AcDbCircle
 10
1479.150626090342
 20
1604.170420239891
 30
0.0
 40
4.999999999999718
100
AcDbArc
 50
45.00000000000921
 51
135.0
  0
ARC
  5
3A4
330
1F
100
AcDbEntity
  8
1
  6
DASHED
 62
     4
100
AcDbCircle
 10
1560.467905926795
 20
1522.853140403439
 30
0.0
 40
5.000000000000362
100
AcDbArc
 50
-45.00000000000185
 51
45.0
  0
ARC
  5
3A5
330
1F
100
AcDbEntity
  8
1
  6
DASHED
 62
     4
100
AcDbCircle
 10
1362.478007194561
 20
1487.497801344111
 30
0.0
 40
5.000000000000522
100
AcDbArc
 50
135.0
 51
-135.0000000000019
  0
ARC
  5
3A6
330
1F
100
AcDbEntity
  8
1
  6
DASHED
 62
     4
100
AcDbCircle
 10
1443.795287031014
 20
1406.180521507658
 30
0.0
 40
4.999999999999718
100
AcDbArc
 50
-135.0000000000055
 51
-45.0
  0
TEXT
  5
3A7
330
1F
100
AcDbEntity
  8
1
 62
     2
100
AcDbText
 10
813.583038501047
 20
1188.361565980811
 30
0.0
 40
50.0
  1
L
 41
0.9
  7
CONVERTER_1
100
AcDbText
  0
TEXT
  5
3A8
330
1F
100
AcDbEntity
  8
1
 62
     2
100
AcDbText
 10
1807.953038501047
 20
2137.531565980811
 30
0.0
 40
50.0
  1
R
 41
0.9
  7
CONVERTER_1
100
AcDbText
  0
TEXT
  5
3A9
330
1F
100
AcDbEntity
  8
1
 62
     2
100
AcDbText
 10
3217.557370304109
 20
485.291314415621
 30
0.0
 40
32.0
  1
回転方向：本図はLタイプを示す。
 41
0.89
  7
CONVERTER_3
100
AcDbText
  0
MTEXT
  5
3AA
330
1F
100
AcDbEntity
  8
1
 62
     2
100
AcDbMText
 10
2972.900974184948
 20
148.3553215244792
 30
0.0
 40
32.0
 41
0.0
 71
     4
 72
     1
  1
本体組立図 90°カーブ 呼び幅 400 ～ 800 mm
  7
CONVERTER_3
 73
     1
 44
1.32052821128451
  0
TEXT
  5
3AB
330
1F
100
AcDbEntity
  8
1
 62
     2
100
AcDbText
 10
2368.999149914949
 20
131.34945637012
 30
0.0
 40
40.0
  1
マルチベヤシリーズ
 41
0.89
  7
CONVERTER_3
100
AcDbText
  0
MTEXT
  5
3AC
330
1F
100
AcDbEntity
  8
1
 62
     2
100
AcDbMText
 10
3167.728150917069
 20
50.64767547857969
 30
0.0
 40
32.0
 41
0.0
 71
     4
 72
     1
  1
W_MCC1_C_S_010
  7
CONVERTER_1
 73
     1
 44
1.32052821128451
  0
TEXT
  5
3AD
330
1F
100
AcDbEntity
  8
1
 62
     2
100
AcDbText
 10
1716.986544890392
 20
110.697510938434
 30
0.0
 40
32.0
  1
2011.8.26
 41
0.9
  7
CONVERTER_1
100
AcDbText
  0
MTEXT
  5
3AE
330
1F
100
AcDbEntity
  8
1
 62
     2
100
AcDbMText
 10
2919.756708407871
 20
673.100759853903
 30
0.0
 40
32.0
 41
0.0
 71
     1
 72
     1
  1
相当ローラピッチ 75 はローラ本数 24 本\P　　　　　　　　100 はローラ本数 18 本となります。
  7
CONVERTER_3
 73
     1
 44
1.08043217286915
  0
MTEXT
  5
3AF
330
1F
100
AcDbEntity
  8
1
 62
     3
100
AcDbMText
 10
3179.485190606893
 20
850.29515181594
 30
0.0
 40
32.0
 41
0.0
 71
     8
 72
     1
  1
一 般 断 面 図 
  7
CONVERTER_3
 73
     1
 44
1.20048019207683
  0
TEXT
  5
3B0
330
1F
100
AcDbEntity
  8
1
 62
     2
100
AcDbText
 10
2400.156772692229
 20
24.7199999999998
 30
0.0
 40
32.0
  1
MCC1-C
 41
0.9
  7
CONVERTER_1
100
AcDbText
  0
DIMENSION
  5
3C3
330
1F
100
AcDbEntity
  8
1
100
AcDbDimension
  2
*D02
 10
2612.18200309864
 20
1544.466424335823
 30
0.0
 11
2591.596328229037
 21
1763.119529043943
 31
0.0
 70
    32
  1
機 幅
 71
     5
 42
-1.0
 53
90.0
  3
ME10_DIM_0
100
AcDbAlignedDimension
 13
2292.18200309864
 23
2004.466424335823
 33
0.0
 14
2292.18200309864
 24
1544.466424335823
 34
0.0
 50
90.0
100
AcDbRotatedDimension
  0
DIMENSION
  5
3D0
330
1F
100
AcDbEntity
  8
1
100
AcDbDimension
  2
*D14
 10
3409.485190606893
 20
1401.872603594035
 30
0.0
 11
3179.485190606893
 21
1424.872603594035
 31
0.0
 70
    32
  1
機 幅
 71
     5
 42
-1.0
 53
0.00013888888889
  3
ME10_DIM_1
100
AcDbAlignedDimension
 13
2949.485190606893
 23
1079.172603594034
 33
0.0
 14
3409.485190606893
 24
1076.872603594034
 34
0.0
100
AcDbRotatedDimension
  0
DIMENSION
  5
3DD
330
1F
100
AcDbEntity
  8
1
100
AcDbDimension
  2
*D25
 10
2412.18200309864
 20
1579.722963227849
 30
0.0
 11
2386.68200309864
 21
1797.426654730984
 31
0.0
 70
    32
  1
ローラ幅
 71
     5
 42
-1.0
 53
90.0
  3
ME10_DIM_2
100
AcDbAlignedDimension
 13
2282.425417522738
 23
1939.824686464736
 33
0.0
 14
2285.209106051284
 24
1579.722963227849
 34
0.0
 50
90.0
100
AcDbRotatedDimension
  0
DIMENSION
  5
3EC
330
1F
100
AcDbEntity
  8
1
100
AcDbDimension
  2
*D36
 10
1433.305118107572
 20
1752.274992796496
 30
0.0
 11
1447.12473548205
 21
1816.756540210539
 31
0.0
 70
    33
  1
相当ローラピッチ
 71
     5
 42
-1.0
 52
70.0
 53
41.25000000000001
  3
ME10_DIM_3
100
AcDbAlignedDimension
 13
1594.349390518624
 23
1524.777923034831
 33
0.0
 14
1540.230470873475
 24
1477.316904303439
 34
0.0
  0
DIMENSION
  5
3F9
330
1F
100
AcDbEntity
  8
1
100
AcDbDimension
  2
*D47
 10
587.5377359284862
 20
2166.978657150092
 30
0.0
 11
680.706490601895
 21
2296.916964445202
 31
0.0
 70
    32
  1
<>
 71
     5
 42
-1.0
 53
45.00000000000019
  3
ME10_DIM_4
100
AcDbAlignedDimension
 13
870.3804484031039
 23
2308.400013387402
 33
0.0
 14
658.2484140471411
 24
2096.267979031438
 34
0.0
 50
45.00000000000019
100
AcDbRotatedDimension
  0
DIMENSION
  5
408
330
1F
100
AcDbEntity
  8
1
100
AcDbDimension
  2
*D58
 10
2949.485190606893
 20
1201.872603594035
 30
0.0
 11
2901.553477899368
 21
1236.902995091011
 31
0.0
 70
    32
  1
<>
 71
     5
 42
-1.0
 53
0.00013888888889
  3
ME10_DIM_5
100
AcDbAlignedDimension
 13
3014.372708179527
 23
1081.872603594035
 33
0.0
 14
2949.485190606893
 24
1079.172603594034
 34
0.0
100
AcDbRotatedDimension
  0
DIMENSION
  5
417
330
1F
100
AcDbEntity
  8
1
100
AcDbDimension
  2
*D69
 10
3374.485190606893
 20
1201.872603594035
 30
0.0
 11
3463.433577130722
 21
1234.383353390422
 31
0.0
 70
    32
  1
<>
 71
     5
 42
-1.0
 53
0.00013888888889
  3
ME10_DIM_6
100
AcDbAlignedDimension
 13
3409.485190606893
 23
1076.872603594034
 33
0.0
 14
3374.485190606893
 24
1081.872603594034
 34
0.0
100
AcDbRotatedDimension
  0
DIMENSION
  5
424
330
1F
100
AcDbEntity
  8
1
100
AcDbDimension
  2
*D710
 10
3014.372708179527
 20
1201.872603594035
 30
0.0
 11
3168.635498161806
 21
1227.372603594035
 31
0.0
 70
    32
  1
ローラ幅
 71
     5
 42
-1.0
 53
0.00013888888889
  3
ME10_DIM_7
100
AcDbAlignedDimension
 13
3374.485190606893
 23
1081.872603594034
 33
0.0
 14
3014.372708179527
 24
1081.872603594035
 34
0.0
100
AcDbRotatedDimension
  0
DIMENSION
  5
434
330
1F
100
AcDbEntity
  8
1
100
AcDbDimension
  2
*D811
 10
2949.485190606893
 20
1301.872603594035
 30
0.0
 11
2899.033836198779
 21
1340.208304815161
 31
0.0
 70
    32
  1
<>
 71
     5
 42
-1.0
 53
0.00013888888889
  3
ME10_DIM_8
100
AcDbAlignedDimension
 13
2979.485190606893
 23
1071.672603594034
 33
0.0
 14
2949.485190606893
 24
1079.172603594034
 34
0.0
100
AcDbRotatedDimension
  0
DIMENSION
  5
444
330
1F
100
AcDbEntity
  8
1
100
AcDbDimension
  2
*D912
 10
3379.485190606893
 20
1301.872603594035
 30
0.0
 11
3452.095189478072
 21
1336.428842264277
 31
0.0
 70
    32
  1
<>
 71
     5
 42
-1.0
 53
0.00013888888889
  3
ME10_DIM_9
100
AcDbAlignedDimension
 13
3409.485190606893
 23
1076.872603594034
 33
0.0
 14
3379.485190606893
 24
1071.672603594034
 34
0.0
100
AcDbRotatedDimension
  0
DIMENSION
  5
453
330
1F
100
AcDbEntity
  8
1
100
AcDbDimension
  2
*D1013
 10
2979.485190606893
 20
1301.872603594035
 30
0.0
 11
3176.194423263573
 21
1327.372603594035
 31
0.0
 70
    32
  1
呼び幅
 71
     5
 42
-1.0
 53
0.00013888888889
  3
ME10_DIM_10
100
AcDbAlignedDimension
 13
3379.485190606893
 23
1071.672603594034
 33
0.0
 14
2979.485190606893
 24
1071.672603594034
 34
0.0
100
AcDbRotatedDimension
  0
DIMENSION
  5
462
330
1F
100
AcDbEntity
  8
1
100
AcDbDimension
  2
*D1114
 10
2512.18200309864
 20
1544.466424335823
 30
0.0
 11
2476.343941100616
 21
1501.301990906007
 31
0.0
 70
    32
  1
<>
 71
     5
 42
-1.0
 53
90.0
  3
ME10_DIM_11
100
AcDbAlignedDimension
 13
2292.18200309864
 23
1574.466424335823
 33
0.0
 14
2292.18200309864
 24
1544.466424335823
 34
0.0
 50
90.0
100
AcDbRotatedDimension
  0
DIMENSION
  5
471
330
1F
100
AcDbEntity
  8
1
100
AcDbDimension
  2
*D1215
 10
2512.18200309864
 20
1974.466424335823
 30
0.0
 11
2469.121388324397
 21
2042.993449122431
 31
0.0
 70
    32
  1
<>
 71
     5
 42
-1.0
 53
90.0
  3
ME10_DIM_12
100
AcDbAlignedDimension
 13
2292.18200309864
 23
2004.466424335823
 33
0.0
 14
2292.18200309864
 24
1974.466424335823
 34
0.0
 50
90.0
100
AcDbRotatedDimension
  0
DIMENSION
  5
47E
330
1F
100
AcDbEntity
  8
1
100
AcDbDimension
  2
*D1316
 10
2512.18200309864
 20
1574.466424335823
 30
0.0
 11
2486.18200309864
 21
1774.466424335823
 31
0.0
 70
    32
  1
<>
 71
     5
 42
-1.0
 53
90.0
  3
ME10_DIM_13
100
AcDbAlignedDimension
 13
2292.18200309864
 23
1974.466424335823
 33
0.0
 14
2292.18200309864
 24
1574.466424335823
 34
0.0
 50
90.0
100
AcDbRotatedDimension
  0
DIMENSION
  5
48B
330
1F
100
AcDbEntity
  8
1
100
AcDbDimension
  2
*D1417
 10
467.3295831267733
 20
1905.349148111069
 30
0.0
 11
590.975540535087
 21
1818.472743324456
 31
0.0
 70
    32
  1
<>
 71
     5
 42
-1.0
 53
-44.99999999999969
  3
ME10_DIM_14
100
AcDbAlignedDimension
 13
750.172295601393
 23
1763.927791873761
 33
0.0
 14
658.2484140471411
 24
2096.267979031438
 34
0.0
 50
-44.99999999999969
100
AcDbRotatedDimension
  0
DIMENSION
  5
498
330
1F
100
AcDbEntity
  8
1
100
AcDbDimension
  2
*D1518
 10
3509.485190606893
 20
956.8726035940339
 30
0.0
 11
3486.485190606893
 21
1015.693857895748
 31
0.0
 70
    32
  1
<>
 71
     5
 42
-1.0
 53
90.0
  3
ME10_DIM_15
100
AcDbAlignedDimension
 13
3409.485190606893
 23
1076.872603594034
 33
0.0
 14
3409.485190606893
 24
956.8726035940341
 34
0.0
 50
90.0
100
AcDbRotatedDimension
  0
DIMENSION
  5
4A7
330
1F
100
AcDbEntity
  8
1
100
AcDbDimension
  2
*D1619
 10
3509.485190606893
 20
1076.872603594034
 30
0.0
 11
3486.485190606893
 21
1138.494171128838
 31
0.0
 70
    32
  1
<>
 71
     5
 42
-1.0
 53
90.0
  3
ME10_DIM_16
100
AcDbAlignedDimension
 13
3374.485190606893
 23
1081.872603594034
 33
0.0
 14
3409.485190606893
 24
1076.872603594034
 34
0.0
 50
90.0
100
AcDbRotatedDimension
  0
INSERT
  5
4AF
330
1F
100
AcDbEntity
  8
1
100
AcDbBlockReference
  2
*D1720
 10
0.0
 20
0.0
 30
0.0
  0
DIMENSION
  5
4BE
330
1F
100
AcDbEntity
  8
1
100
AcDbDimension
  2
*D1821
 10
2080.049968742676
 20
886.5984586917873
 30
0.0
 11
2059.270518938723
 21
905.9805719519559
 31
0.0
 70
    37
  1
<>
 71
     5
 42
-1.0
  3
ME10_DIM_17
100
AcDb3PointAngularDimension
 13
2292.18200309864
 23
749.4664243358232
 33
0.0
 14
2217.18200309864
 24
674.4664243358232
 34
0.0
 15
2292.18200309864
 25
674.4664243358232
 35
0.0
  0
ENDSEC
  0
SECTION
  2
OBJECTS
  0
DICTIONARY
  5
C
330
0
100
AcDbDictionary
281
     1
  3
ACAD_GROUP
350
D
  3
ACAD_LAYOUT
350
1A
  3
ACAD_MLINESTYLE
350
17
  3
ACAD_PLOTSETTINGS
350
19
  3
ACAD_PLOTSTYLENAME
350
E
  0
DICTIONARY
  5
D
102
{ACAD_REACTORS
330
C
102
}
330
C
100
AcDbDictionary
281
     1
  0
DICTIONARY
  5
1A
102
{ACAD_REACTORS
330
C
102
}
330
C
100
AcDbDictionary
281
     1
  3
Layout1
350
1E
  3
Layout2
350
26
  3
Model
350
22
  0
DICTIONARY
  5
17
102
{ACAD_REACTORS
330
C
102
}
330
C
100
AcDbDictionary
281
     1
  3
Standard
350
18
  0
DICTIONARY
  5
19
102
{ACAD_REACTORS
330
C
102
}
330
C
100
AcDbDictionary
281
     1
  0
ACDBDICTIONARYWDFLT
  5
E
102
{ACAD_REACTORS
330
C
102
}
330
C
100
AcDbDictionary
281
     1
  3
Normal
350
F
100
AcDbDictionaryWithDefault
340
F
  0
LAYOUT
  5
1E
102
{ACAD_REACTORS
330
1A
102
}
330
1A
100
AcDbPlotSettings
  1

  2

  4

  6

 40
0.0
 41
0.0
 42
0.0
 43
0.0
 44
0.0
 45
0.0
 46
0.0
 47
0.0
 48
0.0
 49
0.0
140
0.0
141
0.0
142
1.0
143
1.0
 70
   688
 72
     0
 73
     0
 74
     5
  7

 75
    16
147
1.0
148
0.0
149
0.0
100
AcDbLayout
  1
Layout1
 70
     1
 71
     1
 10
0.0
 20
0.0
 11
0.0
 21
0.0
 12
0.0
 22
0.0
 32
0.0
 14
0.0
 24
0.0
 34
0.0
 15
0.0
 25
0.0
 35
0.0
146
0.0
 13
0.0
 23
0.0
 33
0.0
 16
1.0
 26
0.0
 36
0.0
 17
0.0
 27
1.0
 37
0.0
 76
     0
330
1B
  0
LAYOUT
  5
26
102
{ACAD_REACTORS
330
1A
102
}
330
1A
100
AcDbPlotSettings
  1

  2

  4

  6

 40
0.0
 41
0.0
 42
0.0
 43
0.0
 44
0.0
 45
0.0
 46
0.0
 47
0.0
 48
0.0
 49
0.0
140
0.0
141
0.0
142
1.0
143
1.0
 70
   688
 72
     0
 73
     0
 74
     5
  7

 75
    16
147
1.0
148
0.0
149
0.0
100
AcDbLayout
  1
Layout2
 70
     1
 71
     2
 10
0.0
 20
0.0
 11
0.0
 21
0.0
 12
0.0
 22
0.0
 32
0.0
 14
0.0
 24
0.0
 34
0.0
 15
0.0
 25
0.0
 35
0.0
146
0.0
 13
0.0
 23
0.0
 33
0.0
 16
1.0
 26
0.0
 36
0.0
 17
0.0
 27
1.0
 37
0.0
 76
     0
330
23
  0
LAYOUT
  5
22
102
{ACAD_REACTORS
330
1A
102
}
330
1A
100
AcDbPlotSettings
  1

  2

  4

  6

 40
0.0
 41
0.0
 42
0.0
 43
0.0
 44
0.0
 45
0.0
 46
0.0
 47
0.0
 48
0.0
 49
0.0
140
0.0
141
0.0
142
1.0
143
1.0
 70
  1712
 72
     0
 73
     0
 74
     0
  7

 75
     0
147
1.0
148
0.0
149
0.0
100
AcDbLayout
  1
Model
 70
     1
 71
     0
 10
0.0
 20
0.0
 11
0.0
 21
0.0
 12
0.0
 22
0.0
 32
0.0
 14
0.0
 24
-22.5615332095569
 34
0.0
 15
3940.0
 25
2680.0
 35
0.0
146
0.0
 13
0.0
 23
0.0
 33
0.0
 16
1.0
 26
0.0
 36
0.0
 17
0.0
 27
1.0
 37
0.0
 76
     0
330
1F
  0
MLINESTYLE
  5
18
102
{ACAD_REACTORS
330
17
102
}
330
17
100
AcDbMlineStyle
  2
Standard
 70
     0
  3

 62
   256
 51
90.0
 52
90.0
 71
     2
 49
0.5
 62
   256
  6
BYLAYER
 49
-0.5
 62
   256
  6
BYLAYER
  0
ACDBPLACEHOLDER
  5
F
102
{ACAD_REACTORS
330
E
102
}
330
E
  0
ENDSEC
  0
EOF
