  0
SECTION
  2
HEADER
  9
$ACADVER
  1
AC1024
  9
$ACADMAINTVER
 70
     6
  9
$DWGCODEPAGE
  3
ANSI_932
  9
$INSBASE
 10
0.0
 20
0.0
 30
0.0
  9
$EXTMIN
 10
-3546.0
 20
-2432.305379888601
 30
0.0
  9
$EXTMAX
 10
3546.0
 20
2432.305379888601
 30
0.0
  9
$LIMMIN
 10
-1260.0
 20
-891.0
  9
$LIMMAX
 10
1260.0
 20
891.0
  9
$ORTHOMODE
 70
     0
  9
$REGENMODE
 70
     1
  9
$FILLMODE
 70
     1
  9
$QTEXTMODE
 70
     0
  9
$MIRRTEXT
 70
     1
  9
$LTSCALE
 40
1.5
  9
$ATTMODE
 70
     1
  9
$TEXTSIZE
 40
0.2
  9
$TRACEWID
 40
0.05
  9
$TEXTSTYLE
  7
Standard
  9
$CLAYER
  8
0
  9
$CELTYPE
  6
ByLayer
  9
$CECOLOR
 62
   256
  9
$CELTSCALE
 40
1.0
  9
$DISPSILH
 70
     0
  9
$DIMSCALE
 40
1.0
  9
$DIMASZ
 40
18.0000114440918
  9
$DIMEXO
 40
1.0
  9
$DIMDLI
 40
10.0
  9
$DIMRND
 40
0.0
  9
$DIMDLE
 40
0.0
  9
$DIMEXE
 40
1.0
  9
$DIMTP
 40
0.0
  9
$DIMTM
 40
0.0
  9
$DIMTXT
 40
24.0
  9
$DIMCEN
 40
0.0
  9
$DIMTSZ
 40
0.0
  9
$DIMTOL
 70
     0
  9
$DIMLIM
 70
     0
  9
$DIMTIH
 70
     0
  9
$DIMTOH
 70
     0
  9
$DIMSE1
 70
     0
  9
$DIMSE2
 70
     0
  9
$DIMTAD
 70
     1
  9
$DIMZIN
 70
     8
  9
$DIMBLK
  1

  9
$DIMASO
 70
     1
  9
$DIMSHO
 70
     1
  9
$DIMPOST
  1

  9
$DIMAPOST
  1

  9
$DIMALT
 70
     0
  9
$DIMALTD
 70
     2
  9
$DIMALTF
 40
0.0393700787401575
  9
$DIMLFAC
 40
1.0
  9
$DIMTOFL
 70
     0
  9
$DIMTVP
 40
0.0
  9
$DIMTIX
 70
     0
  9
$DIMSOXD
 70
     0
  9
$DIMSAH
 70
     0
  9
$DIMBLK1
  1

  9
$DIMBLK2
  1

  9
$DIMSTYLE
  2
Standard
  9
$DIMCLRD
 70
     0
  9
$DIMCLRE
 70
     0
  9
$DIMCLRT
 70
     0
  9
$DIMTFAC
 40
0.65
  9
$DIMGAP
 40
0.09
  9
$DIMJUST
 70
     0
  9
$DIMSD1
 70
     0
  9
$DIMSD2
 70
     0
  9
$DIMTOLJ
 70
     0
  9
$DIMTZIN
 70
     0
  9
$DIMALTZ
 70
     0
  9
$DIMALTTZ
 70
     0
  9
$DIMUPT
 70
     0
  9
$DIMDEC
 70
     5
  9
$DIMTDEC
 70
     5
  9
$DIMALTU
 70
     2
  9
$DIMALTTD
 70
     5
  9
$DIMTXSTY
  7
Standard
  9
$DIMAUNIT
 70
     0
  9
$DIMADEC
 70
     5
  9
$DIMALTRND
 40
0.0
  9
$DIMAZIN
 70
     2
  9
$DIMDSEP
 70
    46
  9
$DIMATFIT
 70
     3
  9
$DIMFRAC
 70
     0
  9
$DIMLDRBLK
  1

  9
$DIMLUNIT
 70
     2
  9
$DIMLWD
 70
    -2
  9
$DIMLWE
 70
    -2
  9
$DIMTMOVE
 70
     0
  9
$DIMFXL
 40
1.0
  9
$DIMFXLON
 70
     0
  9
$DIMJOGANG
 40
0.7853981633974483
  9
$DIMTFILL
 70
     0
  9
$DIMTFILLCLR
 70
     0
  9
$DIMARCSYM
 70
     1
  9
$DIMLTYPE
  6

  9
$DIMLTEX1
  6

  9
$DIMLTEX2
  6

  9
$DIMTXTDIRECTION
 70
     0
  9
$LUNITS
 70
     2
  9
$LUPREC
 70
     4
  9
$SKETCHINC
 40
0.1
  9
$FILLETRAD
 40
0.5
  9
$AUNITS
 70
     0
  9
$AUPREC
 70
     0
  9
$MENU
  1
.
  9
$ELEVATION
 40
0.0
  9
$PELEVATION
 40
0.0
  9
$THICKNESS
 40
0.0
  9
$LIMCHECK
 70
     0
  9
$CHAMFERA
 40
0.0
  9
$CHAMFERB
 40
0.0
  9
$CHAMFERC
 40
0.0
  9
$CHAMFERD
 40
0.0
  9
$SKPOLY
 70
     0
  9
$TDCREATE
 40
2458758.47326485
  9
$TDUCREATE
 40
2458758.09826485
  9
$TDUPDATE
 40
2458758.473265521
  9
$TDUUPDATE
 40
2458758.098265521
  9
$TDINDWG
 40
0.0000000116
  9
$TDUSRTIMER
 40
0.0000000116
  9
$USRTIMER
 70
     1
  9
$ANGBASE
 50
0.0
  9
$ANGDIR
 70
     0
  9
$PDMODE
 70
     0
  9
$PDSIZE
 40
1.0
  9
$PLINEWID
 40
0.0
  9
$SPLFRAME
 70
     0
  9
$SPLINETYPE
 70
     6
  9
$SPLINESEGS
 70
     8
  9
$HANDSEED
  5
531
  9
$SURFTAB1
 70
     6
  9
$SURFTAB2
 70
     6
  9
$SURFTYPE
 70
     6
  9
$SURFU
 70
     6
  9
$SURFV
 70
     6
  9
$UCSBASE
  2

  9
$UCSNAME
  2

  9
$UCSORG
 10
0.0
 20
0.0
 30
0.0
  9
$UCSXDIR
 10
1.0
 20
0.0
 30
0.0
  9
$UCSYDIR
 10
0.0
 20
1.0
 30
0.0
  9
$UCSORTHOREF
  2

  9
$UCSORTHOVIEW
 70
     0
  9
$UCSORGTOP
 10
0.0
 20
0.0
 30
0.0
  9
$UCSORGBOTTOM
 10
0.0
 20
0.0
 30
0.0
  9
$UCSORGLEFT
 10
0.0
 20
0.0
 30
0.0
  9
$UCSORGRIGHT
 10
0.0
 20
0.0
 30
0.0
  9
$UCSORGFRONT
 10
0.0
 20
0.0
 30
0.0
  9
$UCSORGBACK
 10
0.0
 20
0.0
 30
0.0
  9
$PUCSBASE
  2

  9
$PUCSNAME
  2

  9
$PUCSORG
 10
0.0
 20
0.0
 30
0.0
  9
$PUCSXDIR
 10
1.0
 20
0.0
 30
0.0
  9
$PUCSYDIR
 10
0.0
 20
1.0
 30
0.0
  9
$PUCSORTHOREF
  2

  9
$PUCSORTHOVIEW
 70
     0
  9
$PUCSORGTOP
 10
0.0
 20
0.0
 30
0.0
  9
$PUCSORGBOTTOM
 10
0.0
 20
0.0
 30
0.0
  9
$PUCSORGLEFT
 10
0.0
 20
0.0
 30
0.0
  9
$PUCSORGRIGHT
 10
0.0
 20
0.0
 30
0.0
  9
$PUCSORGFRONT
 10
0.0
 20
0.0
 30
0.0
  9
$PUCSORGBACK
 10
0.0
 20
0.0
 30
0.0
  9
$USERI1
 70
     0
  9
$USERI2
 70
     0
  9
$USERI3
 70
     0
  9
$USERI4
 70
     0
  9
$USERI5
 70
     0
  9
$USERR1
 40
0.0
  9
$USERR2
 40
0.0
  9
$USERR3
 40
0.0
  9
$USERR4
 40
0.0
  9
$USERR5
 40
0.0
  9
$WORLDVIEW
 70
     1
  9
$SHADEDGE
 70
     3
  9
$SHADEDIF
 70
    70
  9
$TILEMODE
 70
     1
  9
$MAXACTVP
 70
    64
  9
$PINSBASE
 10
0.0
 20
0.0
 30
0.0
  9
$PLIMCHECK
 70
     0
  9
$PEXTMIN
 10
1.000000000000000E+20
 20
1.000000000000000E+20
 30
1.000000000000000E+20
  9
$PEXTMAX
 10
-1.000000000000000E+20
 20
-1.000000000000000E+20
 30
-1.000000000000000E+20
  9
$PLIMMIN
 10
0.0
 20
0.0
  9
$PLIMMAX
 10
12.0
 20
9.0
  9
$UNITMODE
 70
     0
  9
$VISRETAIN
 70
     0
  9
$PLINEGEN
 70
     1
  9
$PSLTSCALE
 70
     0
  9
$TREEDEPTH
 70
  3020
  9
$CMLSTYLE
  2
Standard
  9
$CMLJUST
 70
     0
  9
$CMLSCALE
 40
1.0
  9
$PROXYGRAPHICS
 70
     0
  9
$MEASUREMENT
 70
     1
  9
$CELWEIGHT
370
    -1
  9
$ENDCAPS
280
     0
  9
$JOINSTYLE
280
     0
  9
$LWDISPLAY
290
     1
  9
$INSUNITS
 70
     4
  9
$HYPERLINKBASE
  1

  9
$STYLESHEET
  1

  9
$XEDIT
290
     1
  9
$CEPSNTYPE
380
     0
  9
$PSTYLEMODE
290
     1
  9
$FINGERPRINTGUID
  2
{65D9BD5C-87E7-4DF6-BF22-8290698E32AD}
  9
$VERSIONGUID
  2
{FAEB1C32-E019-11D5-929B-00C0DF256EC4}
  9
$EXTNAMES
290
     1
  9
$PSVPSCALE
 40
0.0
  9
$OLESTARTUP
290
     0
  9
$SORTENTS
280
   127
  9
$INDEXCTL
280
     0
  9
$HIDETEXT
280
     1
  9
$XCLIPFRAME
280
     2
  9
$HALOGAP
280
     0
  9
$OBSCOLOR
 70
   257
  9
$OBSLTYPE
280
     0
  9
$INTERSECTIONDISPLAY
280
     0
  9
$INTERSECTIONCOLOR
 70
   257
  9
$DIMASSOC
280
     2
  9
$PROJECTNAME
  1

  9
$CAMERADISPLAY
290
     0
  9
$LENSLENGTH
 40
50.0
  9
$CAMERAHEIGHT
 40
0.0
  9
$STEPSPERSEC
 40
2.0
  9
$STEPSIZE
 40
6.0
  9
$3DDWFPREC
 40
2.0
  9
$PSOLWIDTH
 40
0.25
  9
$PSOLHEIGHT
 40
4.0
  9
$LOFTANG1
 40
1.570796326794897
  9
$LOFTANG2
 40
1.570796326794897
  9
$LOFTMAG1
 40
0.0
  9
$LOFTMAG2
 40
0.0
  9
$LOFTPARAM
 70
     7
  9
$LOFTNORMALS
280
     1
  9
$LATITUDE
 40
37.795
  9
$LONGITUDE
 40
-122.394
  9
$NORTHDIRECTION
 40
0.0
  9
$TIMEZONE
 70
 -8000
  9
$LIGHTGLYPHDISPLAY
280
     1
  9
$TILEMODELIGHTSYNCH
280
     1
  9
$CMATERIAL
347
44
  9
$SOLIDHIST
280
     1
  9
$SHOWHIST
280
     1
  9
$DWFFRAME
280
     2
  9
$DGNFRAME
280
     2
  9
$REALWORLDSCALE
290
     1
  9
$INTERFERECOLOR
 62
   256
  9
$CSHADOW
280
     0
  9
$SHADOWPLANELOCATION
 40
0.0
  0
ENDSEC
  0
SECTION
  2
CLASSES
  0
CLASS
  1
ACDBDICTIONARYWDFLT
  2
AcDbDictionaryWithDefault
  3
ObjectDBX Classes
 90
        0
 91
        4
280
     0
281
     0
  0
CLASS
  1
VISUALSTYLE
  2
AcDbVisualStyle
  3
ObjectDBX Classes
 90
     4095
 91
        4
280
     0
281
     0
  0
CLASS
  1
MATERIAL
  2
AcDbMaterial
  3
ObjectDBX Classes
 90
     1153
 91
        4
280
     0
281
     0
  0
CLASS
  1
SCALE
  2
AcDbScale
  3
ObjectDBX Classes
 90
     1153
 91
        4
280
     0
281
     0
  0
CLASS
  1
SUN
  2
AcDbSun
  3
SCENEOE
 90
     1153
 91
        4
280
     0
281
     0
  0
CLASS
  1
DICTIONARYVAR
  2
AcDbDictionaryVar
  3
ObjectDBX Classes
 90
        0
 91
        4
280
     0
281
     0
  0
ENDSEC
  0
SECTION
  2
TABLES
  0
TABLE
  2
VPORT
  5
8
330
0
100
AcDbSymbolTable
 70
     1
  0
VPORT
  5
29
330
8
100
AcDbSymbolTableRecord
100
AcDbViewportTableRecord
  2
*Active
 70
     0
 10
0.0
 20
0.0
 11
1.0
 21
1.0
 12
0.0
 22
0.0
 13
0.0
 23
0.0
 14
0.5
 24
0.5
 15
0.5
 25
0.5
 16
0.0
 26
0.0
 36
1.0
 17
0.0000000000001101
 27
0.0
 37
0.0
 40
1653.967658324249
 41
1.45787614882569
 42
50.0
 43
0.0
 44
0.0
 50
0.0
 51
0.0
 71
     0
 72
  1000
 73
     1
 74
     1
 75
     0
 76
     0
 77
     0
 78
     0
281
     0
 65
     1
110
0.0
120
0.0
130
0.0
111
1.0
121
0.0
131
0.0
112
0.0
122
1.0
132
0.0
 79
     0
146
0.0
 60
     3
 61
     5
292
     1
282
     1
141
0.0
142
0.0
 63
   250
361
69
  0
ENDTAB
  0
TABLE
  2
LTYPE
  5
5
330
0
100
AcDbSymbolTable
 70
    67
  0
LTYPE
  5
14
330
5
100
AcDbSymbolTableRecord
100
AcDbLinetypeTableRecord
  2
ByBlock
 70
     0
  3

 72
    65
 73
     0
 40
0.0
  0
LTYPE
  5
15
330
5
100
AcDbSymbolTableRecord
100
AcDbLinetypeTableRecord
  2
ByLayer
 70
     0
  3

 72
    65
 73
     0
 40
0.0
  0
LTYPE
  5
16
330
5
100
AcDbSymbolTableRecord
100
AcDbLinetypeTableRecord
  2
Continuous
 70
     0
  3
Solid line
 72
    65
 73
     0
 40
0.0
  0
LTYPE
  5
6B
330
5
100
AcDbSymbolTableRecord
100
AcDbLinetypeTableRecord
  2
HIDDENX2
 70
     0
  3
Hidden (2x) ____ ____ ____ ____ ____ ____ ____ 
 72
    65
 73
     2
 40
19.05
 49
12.7
 74
     0
 49
-6.35
 74
     0
  0
LTYPE
  5
6C
330
5
100
AcDbSymbolTableRecord
100
AcDbLinetypeTableRecord
  2
HIDDEN
 70
     0
  3
Hidden __ __ __ __ __ __ __ __ __ __ __ __ __ __
 72
    65
 73
     2
 40
9.524999999999999
 49
6.35
 74
     0
 49
-3.175
 74
     0
  0
LTYPE
  5
6D
330
5
100
AcDbSymbolTableRecord
100
AcDbLinetypeTableRecord
  2
HIDDEN2
 70
     0
  3
Hidden (.5x) _ _ _ _ _ _ _ _ _ _ _ _ _ _ _ _ _ 
 72
    65
 73
     2
 40
4.762499999999999
 49
3.175
 74
     0
 49
-1.5875
 74
     0
  0
LTYPE
  5
6E
330
5
100
AcDbSymbolTableRecord
100
AcDbLinetypeTableRecord
  2
DASHED
 70
     0
  3
Dashed __ __ __ __ __ __ __ __ __ __ __ __ __ _
 72
    65
 73
     2
 40
19.05
 49
12.7
 74
     0
 49
-6.35
 74
     0
  0
LTYPE
  5
6F
330
5
100
AcDbSymbolTableRecord
100
AcDbLinetypeTableRecord
  2
DASHED2
 70
     0
  3
Dashed (.5x) _ _ _ _ _ _ _ _ _ _ _ _ _ _ _ _ _ 
 72
    65
 73
     2
 40
9.524999999999999
 49
6.35
 74
     0
 49
-3.175
 74
     0
  0
LTYPE
  5
70
330
5
100
AcDbSymbolTableRecord
100
AcDbLinetypeTableRecord
  2
DASHEDX2
 70
     0
  3
Dashed (2x) ____  ____  ____  ____  ____  ___
 72
    65
 73
     2
 40
38.09999999999999
 49
25.4
 74
     0
 49
-12.7
 74
     0
  0
LTYPE
  5
71
330
5
100
AcDbSymbolTableRecord
100
AcDbLinetypeTableRecord
  2
DOTX2
 70
     0
  3
Dot (2x) .  .  .  .  .  .  .  .  .  .  .  .  .  .
 72
    65
 73
     2
 40
12.7
 49
0.0
 74
     0
 49
-12.7
 74
     0
  0
LTYPE
  5
72
330
5
100
AcDbSymbolTableRecord
100
AcDbLinetypeTableRecord
  2
DOT
 70
     0
  3
Dot . . . . . . . . . . . . . . . . . . . . . . . .
 72
    65
 73
     2
 40
6.35
 49
0.0
 74
     0
 49
-6.35
 74
     0
  0
LTYPE
  5
73
330
5
100
AcDbSymbolTableRecord
100
AcDbLinetypeTableRecord
  2
DOT2
 70
     0
  3
Dot (.5x) ........................................
 72
    65
 73
     2
 40
3.175
 49
0.0
 74
     0
 49
-3.175
 74
     0
  0
LTYPE
  5
74
330
5
100
AcDbSymbolTableRecord
100
AcDbLinetypeTableRecord
  2
CENTERX2
 70
     0
  3
Center (2x) ________  __  ________  __  _____
 72
    65
 73
     4
 40
101.6
 49
63.5
 74
     0
 49
-12.7
 74
     0
 49
12.7
 74
     0
 49
-12.7
 74
     0
  0
LTYPE
  5
75
330
5
100
AcDbSymbolTableRecord
100
AcDbLinetypeTableRecord
  2
CENTER
 70
     0
  3
Center ____ _ ____ _ ____ _ ____ _ ____ _ ____
 72
    65
 73
     4
 40
50.8
 49
31.75
 74
     0
 49
-6.35
 74
     0
 49
6.35
 74
     0
 49
-6.35
 74
     0
  0
LTYPE
  5
76
330
5
100
AcDbSymbolTableRecord
100
AcDbLinetypeTableRecord
  2
CENTER2
 70
     0
  3
Center (.5x) ___ _ ___ _ ___ _ ___ _ ___ _ ___
 72
    65
 73
     4
 40
28.575
 49
19.05
 74
     0
 49
-3.175
 74
     0
 49
3.175
 74
     0
 49
-3.175
 74
     0
  0
LTYPE
  5
77
330
5
100
AcDbSymbolTableRecord
100
AcDbLinetypeTableRecord
  2
DASHDOTX2
 70
     0
  3
Dash dot (2x) ____  .  ____  .  ____  .  ___
 72
    65
 73
     4
 40
50.8
 49
25.4
 74
     0
 49
-12.7
 74
     0
 49
0.0
 74
     0
 49
-12.7
 74
     0
  0
LTYPE
  5
78
330
5
100
AcDbSymbolTableRecord
100
AcDbLinetypeTableRecord
  2
DASHDOT
 70
     0
  3
Dash dot __ . __ . __ . __ . __ . __ . __ . __
 72
    65
 73
     4
 40
25.4
 49
12.7
 74
     0
 49
-6.35
 74
     0
 49
0.0
 74
     0
 49
-6.35
 74
     0
  0
LTYPE
  5
79
330
5
100
AcDbSymbolTableRecord
100
AcDbLinetypeTableRecord
  2
DASHDOT2
 70
     0
  3
Dash dot (.5x) _._._._._._._._._._._._._._._.
 72
    65
 73
     4
 40
12.7
 49
6.35
 74
     0
 49
-3.175
 74
     0
 49
0.0
 74
     0
 49
-3.175
 74
     0
  0
LTYPE
  5
7A
330
5
100
AcDbSymbolTableRecord
100
AcDbLinetypeTableRecord
  2
DIVIDEX2
 70
     0
  3
Divide (2x) ________  .  .  ________  .  .  _
 72
    65
 73
     6
 40
63.5
 49
25.4
 74
     0
 49
-12.7
 74
     0
 49
0.0
 74
     0
 49
-12.7
 74
     0
 49
0.0
 74
     0
 49
-12.7
 74
     0
  0
LTYPE
  5
7B
330
5
100
AcDbSymbolTableRecord
100
AcDbLinetypeTableRecord
  2
DIVIDE
 70
     0
  3
Divide ____ . . ____ . . ____ . . ____ . . ____
 72
    65
 73
     6
 40
31.75
 49
12.7
 74
     0
 49
-6.35
 74
     0
 49
0.0
 74
     0
 49
-6.35
 74
     0
 49
0.0
 74
     0
 49
-6.35
 74
     0
  0
LTYPE
  5
7C
330
5
100
AcDbSymbolTableRecord
100
AcDbLinetypeTableRecord
  2
DIVIDE2
 70
     0
  3
Divide (.5x) __..__..__..__..__..__..__..__.._
 72
    65
 73
     6
 40
15.875
 49
6.35
 74
     0
 49
-3.175
 74
     0
 49
0.0
 74
     0
 49
-3.175
 74
     0
 49
0.0
 74
     0
 49
-3.175
 74
     0
  0
LTYPE
  5
7D
330
5
100
AcDbSymbolTableRecord
100
AcDbLinetypeTableRecord
  2
BORDERX2
 70
     0
  3
Border (2x) ____  ____  .  ____  ____  .  ___
 72
    65
 73
     6
 40
88.89999999999999
 49
25.4
 74
     0
 49
-12.7
 74
     0
 49
25.4
 74
     0
 49
-12.7
 74
     0
 49
0.0
 74
     0
 49
-12.7
 74
     0
  0
LTYPE
  5
7E
330
5
100
AcDbSymbolTableRecord
100
AcDbLinetypeTableRecord
  2
BORDER
 70
     0
  3
Border __ __ . __ __ . __ __ . __ __ . __ __ .
 72
    65
 73
     6
 40
44.45
 49
12.7
 74
     0
 49
-6.35
 74
     0
 49
12.7
 74
     0
 49
-6.35
 74
     0
 49
0.0
 74
     0
 49
-6.35
 74
     0
  0
LTYPE
  5
7F
330
5
100
AcDbSymbolTableRecord
100
AcDbLinetypeTableRecord
  2
BORDER2
 70
     0
  3
Border (.5x) __.__.__.__.__.__.__.__.__.__.__.
 72
    65
 73
     6
 40
22.225
 49
6.35
 74
     0
 49
-3.175
 74
     0
 49
6.35
 74
     0
 49
-3.175
 74
     0
 49
0.0
 74
     0
 49
-3.175
 74
     0
  0
LTYPE
  5
80
330
5
100
AcDbSymbolTableRecord
100
AcDbLinetypeTableRecord
  2
PHANTOMX2
 70
     0
  3
Phantom (2x) ____________    ____    ____   _
 72
    65
 73
     6
 40
127.0
 49
63.5
 74
     0
 49
-12.7
 74
     0
 49
12.7
 74
     0
 49
-12.7
 74
     0
 49
12.7
 74
     0
 49
-12.7
 74
     0
  0
LTYPE
  5
81
330
5
100
AcDbSymbolTableRecord
100
AcDbLinetypeTableRecord
  2
PHANTOM
 70
     0
  3
Phantom ______  __  __  ______  __  __  ______ 
 72
    65
 73
     6
 40
63.5
 49
31.75
 74
     0
 49
-6.35
 74
     0
 49
6.35
 74
     0
 49
-6.35
 74
     0
 49
6.35
 74
     0
 49
-6.35
 74
     0
  0
LTYPE
  5
82
330
5
100
AcDbSymbolTableRecord
100
AcDbLinetypeTableRecord
  2
PHANTOM2
 70
     0
  3
Phantom (.5x) ___ _ _ ___ _ _ ___ _ _ ___ _ _
 72
    65
 73
     6
 40
31.75
 49
15.875
 74
     0
 49
-3.175
 74
     0
 49
3.175
 74
     0
 49
-3.175
 74
     0
 49
3.175
 74
     0
 49
-3.175
 74
     0
  0
LTYPE
  5
83
330
5
100
AcDbSymbolTableRecord
100
AcDbLinetypeTableRecord
  2
ACAD_ISO06W100
 70
     0
  3
ISO long-dash triple-dot ____ ... ____ ... ____
 72
    65
 73
     8
 40
36.0
 49
24.0
 74
     0
 49
-3.0
 74
     0
 49
0.0
 74
     0
 49
-3.0
 74
     0
 49
0.0
 74
     0
 49
-3.0
 74
     0
 49
0.0
 74
     0
 49
-3.0
 74
     0
  0
LTYPE
  5
84
330
5
100
AcDbSymbolTableRecord
100
AcDbLinetypeTableRecord
  2
ACAD_ISO13W100
 70
     0
  3
ISO double-dash double-dot __ __ . . __ __ . . _
 72
    65
 73
     8
 40
36.0
 49
12.0
 74
     0
 49
-3.0
 74
     0
 49
12.0
 74
     0
 49
-3.0
 74
     0
 49
0.0
 74
     0
 49
-3.0
 74
     0
 49
0.0
 74
     0
 49
-3.0
 74
     0
  0
LTYPE
  5
85
330
5
100
AcDbSymbolTableRecord
100
AcDbLinetypeTableRecord
  2
ACAD_ISO14W100
 70
     0
  3
ISO dash triple-dot __ . . . __ . . . __ . . . _
 72
    65
 73
     8
 40
24.0
 49
12.0
 74
     0
 49
-3.0
 74
     0
 49
0.0
 74
     0
 49
-3.0
 74
     0
 49
0.0
 74
     0
 49
-3.0
 74
     0
 49
0.0
 74
     0
 49
-3.0
 74
     0
  0
LTYPE
  5
86
330
5
100
AcDbSymbolTableRecord
100
AcDbLinetypeTableRecord
  2
ACAD_ISO02W100
 70
     0
  3
ISO dash __ __ __ __ __ __ __ __ __ __ __ __ __
 72
    65
 73
     2
 40
15.0
 49
12.0
 74
     0
 49
-3.0
 74
     0
  0
LTYPE
  5
87
330
5
100
AcDbSymbolTableRecord
100
AcDbLinetypeTableRecord
  2
ACAD_ISO03W100
 70
     0
  3
ISO dash space __    __    __    __    __    __
 72
    65
 73
     2
 40
30.0
 49
12.0
 74
     0
 49
-18.0
 74
     0
  0
LTYPE
  5
88
330
5
100
AcDbSymbolTableRecord
100
AcDbLinetypeTableRecord
  2
ACAD_ISO04W100
 70
     0
  3
ISO long-dash dot ____ . ____ . ____ . ____ . _
 72
    65
 73
     4
 40
30.0
 49
24.0
 74
     0
 49
-3.0
 74
     0
 49
0.0
 74
     0
 49
-3.0
 74
     0
  0
LTYPE
  5
89
330
5
100
AcDbSymbolTableRecord
100
AcDbLinetypeTableRecord
  2
ACAD_ISO05W100
 70
     0
  3
ISO long-dash double-dot ____ .. ____ .. ____ . 
 72
    65
 73
     6
 40
33.0
 49
24.0
 74
     0
 49
-3.0
 74
     0
 49
0.0
 74
     0
 49
-3.0
 74
     0
 49
0.0
 74
     0
 49
-3.0
 74
     0
  0
LTYPE
  5
8A
330
5
100
AcDbSymbolTableRecord
100
AcDbLinetypeTableRecord
  2
ACAD_ISO07W100
 70
     0
  3
ISO dot . . . . . . . . . . . . . . . . . . . . 
 72
    65
 73
     2
 40
3.0
 49
0.0
 74
     0
 49
-3.0
 74
     0
  0
LTYPE
  5
8B
330
5
100
AcDbSymbolTableRecord
100
AcDbLinetypeTableRecord
  2
ACAD_ISO08W100
 70
     0
  3
ISO long-dash short-dash ____ __ ____ __ ____ _
 72
    65
 73
     4
 40
36.0
 49
24.0
 74
     0
 49
-3.0
 74
     0
 49
6.0
 74
     0
 49
-3.0
 74
     0
  0
LTYPE
  5
8C
330
5
100
AcDbSymbolTableRecord
100
AcDbLinetypeTableRecord
  2
ACAD_ISO09W100
 70
     0
  3
ISO long-dash double-short-dash ____ __ __ ____
 72
    65
 73
     6
 40
45.0
 49
24.0
 74
     0
 49
-3.0
 74
     0
 49
6.0
 74
     0
 49
-3.0
 74
     0
 49
6.0
 74
     0
 49
-3.0
 74
     0
  0
LTYPE
  5
8D
330
5
100
AcDbSymbolTableRecord
100
AcDbLinetypeTableRecord
  2
ACAD_ISO10W100
 70
     0
  3
ISO dash dot __ . __ . __ . __ . __ . __ . __ . 
 72
    65
 73
     4
 40
18.0
 49
12.0
 74
     0
 49
-3.0
 74
     0
 49
0.0
 74
     0
 49
-3.0
 74
     0
  0
LTYPE
  5
8E
330
5
100
AcDbSymbolTableRecord
100
AcDbLinetypeTableRecord
  2
ACAD_ISO11W100
 70
     0
  3
ISO double-dash dot __ __ . __ __ . __ __ . __ _
 72
    65
 73
     6
 40
33.0
 49
12.0
 74
     0
 49
-3.0
 74
     0
 49
12.0
 74
     0
 49
-3.0
 74
     0
 49
0.0
 74
     0
 49
-3.0
 74
     0
  0
LTYPE
  5
8F
330
5
100
AcDbSymbolTableRecord
100
AcDbLinetypeTableRecord
  2
ACAD_ISO12W100
 70
     0
  3
ISO dash double-dot __ . . __ . . __ . . __ . . 
 72
    65
 73
     6
 40
21.0
 49
12.0
 74
     0
 49
-3.0
 74
     0
 49
0.0
 74
     0
 49
-3.0
 74
     0
 49
0.0
 74
     0
 49
-3.0
 74
     0
  0
LTYPE
  5
90
330
5
100
AcDbSymbolTableRecord
100
AcDbLinetypeTableRecord
  2
ACAD_ISO15W100
 70
     0
  3
ISO double-dash triple-dot __ __ . . . __ __ . .
 72
    65
 73
    10
 40
39.0
 49
12.0
 74
     0
 49
-3.0
 74
     0
 49
12.0
 74
     0
 49
-3.0
 74
     0
 49
0.0
 74
     0
 49
-3.0
 74
     0
 49
0.0
 74
     0
 49
-3.0
 74
     0
 49
0.0
 74
     0
 49
-3.0
 74
     0
  0
LTYPE
  5
91
330
5
100
AcDbSymbolTableRecord
100
AcDbLinetypeTableRecord
  2
JIS_02_0.7
 70
     0
  3
HIDDEN0.75 _ _ _ _ _ _ _ _ _ _ _ _ _ _ _ _ _ 
 72
    65
 73
     2
 40
1.35
 49
0.75
 74
     0
 49
-0.6
 74
     0
  0
LTYPE
  5
92
330
5
100
AcDbSymbolTableRecord
100
AcDbLinetypeTableRecord
  2
JIS_02_1.0
 70
     0
  3
HIDDEN01 _ _ _ _ _ _ _ _ _ _ _ _ _ _ _ _ _ 
 72
    65
 73
     2
 40
2.0
 49
1.0
 74
     0
 49
-1.0
 74
     0
  0
LTYPE
  5
93
330
5
100
AcDbSymbolTableRecord
100
AcDbLinetypeTableRecord
  2
JIS_02_1.2
 70
     0
  3
HIDDEN01.25  _ _ _ _ _ _ _ _ _ _ _ _ _ _ _ _ _ 
 72
    65
 73
     2
 40
2.5
 49
1.25
 74
     0
 49
-1.25
 74
     0
  0
LTYPE
  5
94
330
5
100
AcDbSymbolTableRecord
100
AcDbLinetypeTableRecord
  2
JIS_02_2.0
 70
     0
  3
HIDDEN02 __ __ __ __ __ __ __ __ __ __ __ 
 72
    65
 73
     2
 40
3.0
 49
2.0
 74
     0
 49
-1.0
 74
     0
  0
LTYPE
  5
95
330
5
100
AcDbSymbolTableRecord
100
AcDbLinetypeTableRecord
  2
JIS_02_4.0
 70
     0
  3
HIDDEN04 ____ ____ ____ ____ ____ ____ ____ 
 72
    65
 73
     2
 40
5.5
 49
4.0
 74
     0
 49
-1.5
 74
     0
  0
LTYPE
  5
96
330
5
100
AcDbSymbolTableRecord
100
AcDbLinetypeTableRecord
  2
JIS_08_11
 70
     0
  3
1SASEN11 ___ _ ___ _ ___ _ ___ _ ___ _ ___
 72
    65
 73
     4
 40
12.8
 49
11.0
 74
     0
 49
-0.6
 74
     0
 49
0.6
 74
     0
 49
-0.6
 74
     0
  0
LTYPE
  5
97
330
5
100
AcDbSymbolTableRecord
100
AcDbLinetypeTableRecord
  2
JIS_08_15
 70
     0
  3
1SASEN15 ____ _ ____ _ ____ _ ____ _ ____ 
 72
    65
 73
     4
 40
17.25
 49
15.0
 74
     0
 49
-0.75
 74
     0
 49
0.75
 74
     0
 49
-0.75
 74
     0
  0
LTYPE
  5
98
330
5
100
AcDbSymbolTableRecord
100
AcDbLinetypeTableRecord
  2
JIS_08_25
 70
     0
  3
1SASEN25 ________  __  ________  __  _____
 72
    65
 73
     4
 40
28.0
 49
25.0
 74
     0
 49
-1.125
 74
     0
 49
0.75
 74
     0
 49
-1.125
 74
     0
  0
LTYPE
  5
99
330
5
100
AcDbSymbolTableRecord
100
AcDbLinetypeTableRecord
  2
JIS_08_37
 70
     0
  3
1SASEN37 ________  __  ________  __  _____
 72
    65
 73
     4
 40
40.5
 49
37.5
 74
     0
 49
-1.125
 74
     0
 49
0.75
 74
     0
 49
-1.125
 74
     0
  0
LTYPE
  5
9A
330
5
100
AcDbSymbolTableRecord
100
AcDbLinetypeTableRecord
  2
JIS_08_50
 70
     0
  3
1SASEN50 _______________  __  ____________
 72
    65
 73
     4
 40
53.0
 49
50.0
 74
     0
 49
-1.125
 74
     0
 49
0.75
 74
     0
 49
-1.125
 74
     0
  0
LTYPE
  5
9B
330
5
100
AcDbSymbolTableRecord
100
AcDbLinetypeTableRecord
  2
JIS_09_08
 70
     0
  3
2SASEN8 __ _ _ __ _ _ __ _ _ __ _ _ __ _ _ 
 72
    65
 73
     6
 40
10.75
 49
8.0
 74
     0
 49
-0.55
 74
     0
 49
0.55
 74
     0
 49
-0.55
 74
     0
 49
0.55
 74
     0
 49
-0.55
 74
     0
  0
LTYPE
  5
9C
330
5
100
AcDbSymbolTableRecord
100
AcDbLinetypeTableRecord
  2
JIS_09_15
 70
     0
  3
2SASEN15 ___ _ _ ___ _ _ ___ _ _ ___ _ _ ___ 
 72
    65
 73
     6
 40
18.9
 49
15.0
 74
     0
 49
-0.9
 74
     0
 49
0.6
 74
     0
 49
-0.9
 74
     0
 49
0.6
 74
     0
 49
-0.9
 74
     0
  0
LTYPE
  5
9D
330
5
100
AcDbSymbolTableRecord
100
AcDbLinetypeTableRecord
  2
JIS_09_29
 70
     0
  3
2SASEN29 ______　__  __  ______　__  __  ___
 72
    65
 73
     6
 40
34.0
 49
29.0
 74
     0
 49
-1.2
 74
     0
 49
0.7
 74
     0
 49
-1.2
 74
     0
 49
0.7
 74
     0
 49
-1.2
 74
     0
  0
LTYPE
  5
9E
330
5
100
AcDbSymbolTableRecord
100
AcDbLinetypeTableRecord
  2
JIS_09_50
 70
     0
  3
2SASEN50 ____________　__  __  _____________
 72
    65
 73
     6
 40
55.0
 49
50.0
 74
     0
 49
-1.2
 74
     0
 49
0.7
 74
     0
 49
-1.2
 74
     0
 49
0.7
 74
     0
 49
-1.2
 74
     0
  0
LTYPE
  5
9F
330
5
100
AcDbSymbolTableRecord
100
AcDbLinetypeTableRecord
  2
SXF_破線
 70
     0
  3
02 dashed -- -- -- -- -- --
 72
    65
 73
     2
 40
7.5
 49
6.0
 74
     0
 49
-1.5
 74
     0
  0
LTYPE
  5
A0
330
5
100
AcDbSymbolTableRecord
100
AcDbLinetypeTableRecord
  2
SXF_跳び破線
 70
     0
  3
03 dashed_spaced --  --  --  --
 72
    65
 73
     2
 40
12.0
 49
6.0
 74
     0
 49
-6.0
 74
     0
  0
LTYPE
  5
A1
330
5
100
AcDbSymbolTableRecord
100
AcDbLinetypeTableRecord
  2
SXF_一点長鎖線
 70
     0
  3
04 long_dashed_dotted ---- . ---- . ----
 72
    65
 73
     4
 40
15.25
 49
12.0
 74
     0
 49
-1.5
 74
     0
 49
0.25
 74
     0
 49
-1.5
 74
     0
  0
LTYPE
  5
A2
330
5
100
AcDbSymbolTableRecord
100
AcDbLinetypeTableRecord
  2
SXF_二点長鎖線
 70
     0
  3
05 long_dashed_double-dotted ---- . . ---- 
 72
    65
 73
     6
 40
17.0
 49
12.0
 74
     0
 49
-1.5
 74
     0
 49
0.25
 74
     0
 49
-1.5
 74
     0
 49
0.25
 74
     0
 49
-1.5
 74
     0
  0
LTYPE
  5
A3
330
5
100
AcDbSymbolTableRecord
100
AcDbLinetypeTableRecord
  2
SXF_三点長鎖線
 70
     0
  3
06 long_dashed_triplicate-dotted ---- ... ---- 
 72
    65
 73
     8
 40
18.75
 49
12.0
 74
     0
 49
-1.5
 74
     0
 49
0.25
 74
     0
 49
-1.5
 74
     0
 49
0.25
 74
     0
 49
-1.5
 74
     0
 49
0.25
 74
     0
 49
-1.5
 74
     0
  0
LTYPE
  5
A4
330
5
100
AcDbSymbolTableRecord
100
AcDbLinetypeTableRecord
  2
SXF_点線
 70
     0
  3
07 dotted . . . . . . . . . . . . 
 72
    65
 73
     2
 40
1.75
 49
0.25
 74
     0
 49
-1.5
 74
     0
  0
LTYPE
  5
A5
330
5
100
AcDbSymbolTableRecord
100
AcDbLinetypeTableRecord
  2
SXF_一点鎖線
 70
     0
  3
08 chain ---- - --- - --- - ---
 72
    65
 73
     4
 40
18.5
 49
12.0
 74
     0
 49
-1.5
 74
     0
 49
3.5
 74
     0
 49
-1.5
 74
     0
  0
LTYPE
  5
A6
330
5
100
AcDbSymbolTableRecord
100
AcDbLinetypeTableRecord
  2
SXF_二点鎖線
 70
     0
  3
09 chain_double_dash ---- - - ---- - - ----
 72
    65
 73
     6
 40
23.5
 49
12.0
 74
     0
 49
-1.5
 74
     0
 49
3.5
 74
     0
 49
-1.5
 74
     0
 49
3.5
 74
     0
 49
-1.5
 74
     0
  0
LTYPE
  5
A7
330
5
100
AcDbSymbolTableRecord
100
AcDbLinetypeTableRecord
  2
SXF_一点短鎖線
 70
     0
  3
10 dashed_dotted -- . -- . -- . --
 72
    65
 73
     4
 40
9.25
 49
6.0
 74
     0
 49
-1.5
 74
     0
 49
0.25
 74
     0
 49
-1.5
 74
     0
  0
LTYPE
  5
A8
330
5
100
AcDbSymbolTableRecord
100
AcDbLinetypeTableRecord
  2
SXF_一点二短鎖線
 70
     0
  3
11 double-dashed_dotted -- -- . -- --
 72
    65
 73
     6
 40
16.75
 49
6.0
 74
     0
 49
-1.5
 74
     0
 49
6.0
 74
     0
 49
-1.5
 74
     0
 49
0.25
 74
     0
 49
-1.5
 74
     0
  0
LTYPE
  5
A9
330
5
100
AcDbSymbolTableRecord
100
AcDbLinetypeTableRecord
  2
SXF_二点短鎖線
 70
     0
  3
12 dashed_double_dotted -- . . -- . . --
 72
    65
 73
     6
 40
11.0
 49
6.0
 74
     0
 49
-1.5
 74
     0
 49
0.25
 74
     0
 49
-1.5
 74
     0
 49
0.25
 74
     0
 49
-1.5
 74
     0
  0
LTYPE
  5
AA
330
5
100
AcDbSymbolTableRecord
100
AcDbLinetypeTableRecord
  2
SXF_二点二短鎖線
 70
     0
  3
13 double-dashed_double-dotted -- -- . . -- --
 72
    65
 73
     8
 40
18.5
 49
6.0
 74
     0
 49
-1.5
 74
     0
 49
6.0
 74
     0
 49
-1.5
 74
     0
 49
0.25
 74
     0
 49
-1.5
 74
     0
 49
0.25
 74
     0
 49
-1.5
 74
     0
  0
LTYPE
  5
AB
330
5
100
AcDbSymbolTableRecord
100
AcDbLinetypeTableRecord
  2
SXF_三点短鎖線
 70
     0
  3
14 dashed triplicate-dotted -- . . . -- . . . --
 72
    65
 73
     8
 40
12.75
 49
6.0
 74
     0
 49
-1.5
 74
     0
 49
0.25
 74
     0
 49
-1.5
 74
     0
 49
0.25
 74
     0
 49
-1.5
 74
     0
 49
0.25
 74
     0
 49
-1.5
 74
     0
  0
LTYPE
  5
AC
330
5
100
AcDbSymbolTableRecord
100
AcDbLinetypeTableRecord
  2
SXF_三点二短鎖線
 70
     0
  3
15 double-dashed triplicate-dotted -- -- . . . -- -- 
 72
    65
 73
    10
 40
20.25
 49
6.0
 74
     0
 49
-1.5
 74
     0
 49
6.0
 74
     0
 49
-1.5
 74
     0
 49
0.25
 74
     0
 49
-1.5
 74
     0
 49
0.25
 74
     0
 49
-1.5
 74
     0
 49
0.25
 74
     0
 49
-1.5
 74
     0
  0
ENDTAB
  0
TABLE
  2
LAYER
  5
2
330
0
100
AcDbSymbolTable
 70
     3
  0
LAYER
  5
10
330
2
100
AcDbSymbolTableRecord
100
AcDbLayerTableRecord
  2
0
 70
     0
 62
     7
  6
Continuous
370
    -3
390
F
347
46
  0
LAYER
  5
AD
330
2
100
AcDbSymbolTableRecord
100
AcDbLayerTableRecord
  2
2
 70
     0
 62
     7
  6
Continuous
370
    -3
390
F
347
46
  0
LAYER
  5
AE
330
2
100
AcDbSymbolTableRecord
100
AcDbLayerTableRecord
  2
ZUWAKU
 70
     0
 62
     7
  6
Continuous
370
    -3
390
F
347
46
  0
ENDTAB
  0
TABLE
  2
STYLE
  5
3
330
0
100
AcDbSymbolTable
 70
     3
  0
STYLE
  5
11
330
3
100
AcDbSymbolTableRecord
100
AcDbTextStyleTableRecord
  2
Standard
 70
     0
 40
0.0
 41
1.0
 50
0.0
 71
     0
 42
0.2
  3
txt.shx
  4
bigfont.shx
  0
STYLE
  5
1E7
330
3
100
AcDbSymbolTableRecord
100
AcDbTextStyleTableRecord
  2
dcStyle0
 70
     0
 40
0.0
 41
0.675
 50
0.0
 71
     0
 42
0.2
  3
ＭＳ Ｐゴシック
  4

1001
ACAD
1000
ＭＳ Ｐゴシック
1071
    32802
  0
STYLE
  5
225
330
3
100
AcDbSymbolTableRecord
100
AcDbTextStyleTableRecord
  2
dcStyle1
 70
     0
 40
0.0
 41
1.2
 50
0.0
 71
     0
 42
0.2
  3
txt.shx
  4
bigfont
  0
ENDTAB
  0
TABLE
  2
VIEW
  5
6
330
0
100
AcDbSymbolTable
 70
     0
  0
ENDTAB
  0
TABLE
  2
UCS
  5
7
330
0
100
AcDbSymbolTable
 70
     0
  0
ENDTAB
  0
TABLE
  2
APPID
  5
9
330
0
100
AcDbSymbolTable
 70
     2
  0
APPID
  5
12
330
9
100
AcDbSymbolTableRecord
100
AcDbRegAppTableRecord
  2
ACAD
 70
     0
  0
APPID
  5
6A
330
9
100
AcDbSymbolTableRecord
100
AcDbRegAppTableRecord
  2
DaFusionOut
 70
     0
  0
ENDTAB
  0
TABLE
  2
DIMSTYLE
  5
A
330
0
100
AcDbSymbolTable
 70
     3
100
AcDbDimStyleTable
  0
DIMSTYLE
105
27
330
A
100
AcDbSymbolTableRecord
100
AcDbDimStyleTableRecord
  2
Standard
 70
     0
178
     0
340
11
  0
DIMSTYLE
105
41B
102
{ACAD_REACTORS
330
41A
330
41C
330
41D
330
41E
330
41F
330
420
330
421
330
422
330
423
330
424
330
425
330
426
330
427
330
42B
330
431
330
433
330
434
330
435
330
436
330
437
330
438
330
439
330
43A
330
43B
330
43C
330
43F
102
}
330
A
100
AcDbSymbolTableRecord
100
AcDbDimStyleTableRecord
  2
dc_Rotated
 70
     0
 41
18.0000114440918
 42
6.0
 44
3.0
 90
        1
 73
     0
 74
     0
 77
     3
 78
     8
 79
     2
140
24.0
147
5.0
172
     1
173
     1
176
     2
177
     2
271
     2
178
     2
271
     2
274
     4
283
     0
284
     8
288
     1
340
1E7
343
1DD
344
1DD
  0
DIMSTYLE
105
429
102
{ACAD_REACTORS
330
428
102
}
330
A
100
AcDbSymbolTableRecord
100
AcDbDimStyleTableRecord
  2
dc_Diam06
 70
     0
 41
18.0000114440918
 42
6.0
 44
6.0
 90
        1
 77
     2
 78
     8
 79
     2
140
24.0
147
6.0
173
     1
176
     2
177
     2
271
     2
178
     2
271
     2
274
     4
283
     0
284
     8
288
     1
340
1E7
343
1DD
344
1DD
  0
ENDTAB
  0
TABLE
  2
BLOCK_RECORD
  5
1
330
0
100
AcDbSymbolTable
 70
   102
  0
BLOCK_RECORD
  5
1F
330
1
100
AcDbSymbolTableRecord
100
AcDbBlockTableRecord
  2
*Model_Space
340
22
 70
     0
280
     1
281
     0
  0
BLOCK_RECORD
  5
1B
330
1
100
AcDbSymbolTableRecord
100
AcDbBlockTableRecord
  2
*Paper_Space
340
1E
 70
     0
280
     1
281
     0
  0
BLOCK_RECORD
  5
23
330
1
100
AcDbSymbolTableRecord
100
AcDbBlockTableRecord
  2
*Paper_Space0
340
26
 70
     0
280
     1
281
     0
  0
BLOCK_RECORD
  5
B0
330
1
100
AcDbSymbolTableRecord
100
AcDbBlockTableRecord
  2
*D1
340
0
 70
     0
280
     1
281
     0
  0
BLOCK_RECORD
  5
B3
330
1
100
AcDbSymbolTableRecord
100
AcDbBlockTableRecord
  2
*D2
340
0
 70
     0
280
     1
281
     0
  0
BLOCK_RECORD
  5
B6
330
1
100
AcDbSymbolTableRecord
100
AcDbBlockTableRecord
  2
*D3
340
0
 70
     0
280
     1
281
     0
  0
BLOCK_RECORD
  5
B9
330
1
100
AcDbSymbolTableRecord
100
AcDbBlockTableRecord
  2
*D4
340
0
 70
     0
280
     1
281
     0
  0
BLOCK_RECORD
  5
BC
330
1
100
AcDbSymbolTableRecord
100
AcDbBlockTableRecord
  2
*D5
340
0
 70
     0
280
     1
281
     0
  0
BLOCK_RECORD
  5
BF
330
1
100
AcDbSymbolTableRecord
100
AcDbBlockTableRecord
  2
*D6
340
0
 70
     0
280
     1
281
     0
  0
BLOCK_RECORD
  5
C2
330
1
100
AcDbSymbolTableRecord
100
AcDbBlockTableRecord
  2
*D7
340
0
 70
     0
280
     1
281
     0
  0
BLOCK_RECORD
  5
C5
330
1
100
AcDbSymbolTableRecord
100
AcDbBlockTableRecord
  2
*D8
340
0
 70
     0
280
     1
281
     0
  0
BLOCK_RECORD
  5
C8
330
1
100
AcDbSymbolTableRecord
100
AcDbBlockTableRecord
  2
DC_GROUP_W_JR-5721_S_030_1
340
0
102
{BLKREFS
331
442
102
}
 70
     0
280
     1
281
     0
  0
BLOCK_RECORD
  5
CB
330
1
100
AcDbSymbolTableRecord
100
AcDbBlockTableRecord
  2
DC_GROUP_W_JR-5721_S_030_2
340
0
102
{BLKREFS
331
443
102
}
 70
     0
280
     1
281
     0
  0
BLOCK_RECORD
  5
CE
330
1
100
AcDbSymbolTableRecord
100
AcDbBlockTableRecord
  2
*D11
340
0
 70
     0
280
     1
281
     0
  0
BLOCK_RECORD
  5
D1
330
1
100
AcDbSymbolTableRecord
100
AcDbBlockTableRecord
  2
*D12
340
0
 70
     0
280
     1
281
     0
  0
BLOCK_RECORD
  5
D4
330
1
100
AcDbSymbolTableRecord
100
AcDbBlockTableRecord
  2
*D13
340
0
 70
     0
280
     1
281
     0
  0
BLOCK_RECORD
  5
D7
330
1
100
AcDbSymbolTableRecord
100
AcDbBlockTableRecord
  2
*D14
340
0
 70
     0
280
     1
281
     0
  0
BLOCK_RECORD
  5
DA
330
1
100
AcDbSymbolTableRecord
100
AcDbBlockTableRecord
  2
*D15
340
0
 70
     0
280
     1
281
     0
  0
BLOCK_RECORD
  5
DD
330
1
100
AcDbSymbolTableRecord
100
AcDbBlockTableRecord
  2
*D16
340
0
 70
     0
280
     1
281
     0
  0
BLOCK_RECORD
  5
E0
330
1
100
AcDbSymbolTableRecord
100
AcDbBlockTableRecord
  2
DC_IMAGEDIMGROUP_1
340
0
102
{BLKREFS
331
42A
102
}
 70
     0
280
     1
281
     0
  0
BLOCK_RECORD
  5
E3
330
1
100
AcDbSymbolTableRecord
100
AcDbBlockTableRecord
  2
*D18
340
0
 70
     0
280
     1
281
     0
  0
BLOCK_RECORD
  5
E6
330
1
100
AcDbSymbolTableRecord
100
AcDbBlockTableRecord
  2
DC_GROUP_W_JR-5721_S_030_3
340
0
102
{BLKREFS
331
42C
102
}
 70
     0
280
     1
281
     0
  0
BLOCK_RECORD
  5
E9
330
1
100
AcDbSymbolTableRecord
100
AcDbBlockTableRecord
  2
DC_GROUP_W_JR-5721_S_030_4
340
0
102
{BLKREFS
331
42D
102
}
 70
     0
280
     1
281
     0
  0
BLOCK_RECORD
  5
EC
330
1
100
AcDbSymbolTableRecord
100
AcDbBlockTableRecord
  2
DC_GROUP_W_JR-5721_S_030_5
340
0
102
{BLKREFS
331
26E
102
}
 70
     0
280
     1
281
     0
  0
BLOCK_RECORD
  5
EF
330
1
100
AcDbSymbolTableRecord
100
AcDbBlockTableRecord
  2
DC_GROUP_W_JR-5721_S_030_6
340
0
102
{BLKREFS
331
42E
102
}
 70
     0
280
     1
281
     0
  0
BLOCK_RECORD
  5
F2
330
1
100
AcDbSymbolTableRecord
100
AcDbBlockTableRecord
  2
DC_GROUP_W_JR-5721_S_030_7
340
0
102
{BLKREFS
331
42F
102
}
 70
     0
280
     1
281
     0
  0
BLOCK_RECORD
  5
F5
330
1
100
AcDbSymbolTableRecord
100
AcDbBlockTableRecord
  2
DC_GROUP_W_JR-5721_S_030_8
340
0
102
{BLKREFS
331
27B
102
}
 70
     0
280
     1
281
     0
  0
BLOCK_RECORD
  5
F8
330
1
100
AcDbSymbolTableRecord
100
AcDbBlockTableRecord
  2
DC_GROUP_W_JR-5721_S_030_9
340
0
102
{BLKREFS
331
430
102
}
 70
     0
280
     1
281
     0
  0
BLOCK_RECORD
  5
FB
330
1
100
AcDbSymbolTableRecord
100
AcDbBlockTableRecord
  2
*D26
340
0
 70
     0
280
     1
281
     0
  0
BLOCK_RECORD
  5
FE
330
1
100
AcDbSymbolTableRecord
100
AcDbBlockTableRecord
  2
DC_GROUP_W_JR-5721_S_030_10
340
0
102
{BLKREFS
331
4D8
102
}
 70
     0
280
     1
281
     0
  0
BLOCK_RECORD
  5
101
330
1
100
AcDbSymbolTableRecord
100
AcDbBlockTableRecord
  2
DC_GROUP_W_JR-5721_S_030_11
340
0
102
{BLKREFS
331
28C
102
}
 70
     0
280
     1
281
     0
  0
BLOCK_RECORD
  5
104
330
1
100
AcDbSymbolTableRecord
100
AcDbBlockTableRecord
  2
DC_GROUP_W_JR-5721_S_030_12
340
0
102
{BLKREFS
331
4D9
102
}
 70
     0
280
     1
281
     0
  0
BLOCK_RECORD
  5
107
330
1
100
AcDbSymbolTableRecord
100
AcDbBlockTableRecord
  2
DC_GROUP_W_JR-5721_S_030_13
340
0
102
{BLKREFS
331
292
102
}
 70
     0
280
     1
281
     0
  0
BLOCK_RECORD
  5
10A
330
1
100
AcDbSymbolTableRecord
100
AcDbBlockTableRecord
  2
DC_GROUP_W_JR-5721_S_030_14
340
0
102
{BLKREFS
331
4DA
102
}
 70
     0
280
     1
281
     0
  0
BLOCK_RECORD
  5
10D
330
1
100
AcDbSymbolTableRecord
100
AcDbBlockTableRecord
  2
DC_GROUP_W_JR-5721_S_030_15
340
0
102
{BLKREFS
331
296
102
}
 70
     0
280
     1
281
     0
  0
BLOCK_RECORD
  5
110
330
1
100
AcDbSymbolTableRecord
100
AcDbBlockTableRecord
  2
DC_GROUP_W_JR-5721_S_030_16
340
0
102
{BLKREFS
331
4DB
102
}
 70
     0
280
     1
281
     0
  0
BLOCK_RECORD
  5
113
330
1
100
AcDbSymbolTableRecord
100
AcDbBlockTableRecord
  2
DC_GROUP_W_JR-5721_S_030_17
340
0
102
{BLKREFS
331
29A
102
}
 70
     0
280
     1
281
     0
  0
BLOCK_RECORD
  5
116
330
1
100
AcDbSymbolTableRecord
100
AcDbBlockTableRecord
  2
DC_GROUP_W_JR-5721_S_030_18
340
0
102
{BLKREFS
331
4DC
102
}
 70
     0
280
     1
281
     0
  0
BLOCK_RECORD
  5
119
330
1
100
AcDbSymbolTableRecord
100
AcDbBlockTableRecord
  2
DC_GROUP_W_JR-5721_S_030_19
340
0
102
{BLKREFS
331
2A0
102
}
 70
     0
280
     1
281
     0
  0
BLOCK_RECORD
  5
11C
330
1
100
AcDbSymbolTableRecord
100
AcDbBlockTableRecord
  2
DC_GROUP_W_JR-5721_S_030_20
340
0
102
{BLKREFS
331
4DD
102
}
 70
     0
280
     1
281
     0
  0
BLOCK_RECORD
  5
11F
330
1
100
AcDbSymbolTableRecord
100
AcDbBlockTableRecord
  2
DC_GROUP_W_JR-5721_S_030_21
340
0
102
{BLKREFS
331
2A4
102
}
 70
     0
280
     1
281
     0
  0
BLOCK_RECORD
  5
122
330
1
100
AcDbSymbolTableRecord
100
AcDbBlockTableRecord
  2
DC_GROUP_W_JR-5721_S_030_22
340
0
102
{BLKREFS
331
4DE
102
}
 70
     0
280
     1
281
     0
  0
BLOCK_RECORD
  5
125
330
1
100
AcDbSymbolTableRecord
100
AcDbBlockTableRecord
  2
DC_GROUP_W_JR-5721_S_030_23
340
0
102
{BLKREFS
331
2A8
102
}
 70
     0
280
     1
281
     0
  0
BLOCK_RECORD
  5
128
330
1
100
AcDbSymbolTableRecord
100
AcDbBlockTableRecord
  2
DC_GROUP_W_JR-5721_S_030_24
340
0
102
{BLKREFS
331
4DF
102
}
 70
     0
280
     1
281
     0
  0
BLOCK_RECORD
  5
12B
330
1
100
AcDbSymbolTableRecord
100
AcDbBlockTableRecord
  2
DC_GROUP_W_JR-5721_S_030_25
340
0
102
{BLKREFS
331
2AE
102
}
 70
     0
280
     1
281
     0
  0
BLOCK_RECORD
  5
12E
330
1
100
AcDbSymbolTableRecord
100
AcDbBlockTableRecord
  2
DC_GROUP_W_JR-5721_S_030_26
340
0
102
{BLKREFS
331
4E0
102
}
 70
     0
280
     1
281
     0
  0
BLOCK_RECORD
  5
131
330
1
100
AcDbSymbolTableRecord
100
AcDbBlockTableRecord
  2
DC_GROUP_W_JR-5721_S_030_27
340
0
102
{BLKREFS
331
2B2
102
}
 70
     0
280
     1
281
     0
  0
BLOCK_RECORD
  5
134
330
1
100
AcDbSymbolTableRecord
100
AcDbBlockTableRecord
  2
DC_GROUP_W_JR-5721_S_030_28
340
0
102
{BLKREFS
331
4E1
102
}
 70
     0
280
     1
281
     0
  0
BLOCK_RECORD
  5
137
330
1
100
AcDbSymbolTableRecord
100
AcDbBlockTableRecord
  2
DC_GROUP_W_JR-5721_S_030_29
340
0
102
{BLKREFS
331
2B6
102
}
 70
     0
280
     1
281
     0
  0
BLOCK_RECORD
  5
13A
330
1
100
AcDbSymbolTableRecord
100
AcDbBlockTableRecord
  2
DC_GROUP_W_JR-5721_S_030_30
340
0
102
{BLKREFS
331
4E2
102
}
 70
     0
280
     1
281
     0
  0
BLOCK_RECORD
  5
13D
330
1
100
AcDbSymbolTableRecord
100
AcDbBlockTableRecord
  2
DC_GROUP_W_JR-5721_S_030_31
340
0
102
{BLKREFS
331
2BC
102
}
 70
     0
280
     1
281
     0
  0
BLOCK_RECORD
  5
140
330
1
100
AcDbSymbolTableRecord
100
AcDbBlockTableRecord
  2
DC_GROUP_W_JR-5721_S_030_32
340
0
102
{BLKREFS
331
4E3
102
}
 70
     0
280
     1
281
     0
  0
BLOCK_RECORD
  5
143
330
1
100
AcDbSymbolTableRecord
100
AcDbBlockTableRecord
  2
DC_GROUP_W_JR-5721_S_030_33
340
0
102
{BLKREFS
331
2C0
102
}
 70
     0
280
     1
281
     0
  0
BLOCK_RECORD
  5
146
330
1
100
AcDbSymbolTableRecord
100
AcDbBlockTableRecord
  2
DC_GROUP_W_JR-5721_S_030_34
340
0
102
{BLKREFS
331
4E4
102
}
 70
     0
280
     1
281
     0
  0
BLOCK_RECORD
  5
149
330
1
100
AcDbSymbolTableRecord
100
AcDbBlockTableRecord
  2
DC_GROUP_W_JR-5721_S_030_35
340
0
102
{BLKREFS
331
2C4
102
}
 70
     0
280
     1
281
     0
  0
BLOCK_RECORD
  5
14C
330
1
100
AcDbSymbolTableRecord
100
AcDbBlockTableRecord
  2
DC_GROUP_W_JR-5721_S_030_36
340
0
102
{BLKREFS
331
4E5
102
}
 70
     0
280
     1
281
     0
  0
BLOCK_RECORD
  5
14F
330
1
100
AcDbSymbolTableRecord
100
AcDbBlockTableRecord
  2
DC_GROUP_W_JR-5721_S_030_37
340
0
102
{BLKREFS
331
2CA
102
}
 70
     0
280
     1
281
     0
  0
BLOCK_RECORD
  5
152
330
1
100
AcDbSymbolTableRecord
100
AcDbBlockTableRecord
  2
DC_GROUP_W_JR-5721_S_030_38
340
0
102
{BLKREFS
331
4E6
102
}
 70
     0
280
     1
281
     0
  0
BLOCK_RECORD
  5
155
330
1
100
AcDbSymbolTableRecord
100
AcDbBlockTableRecord
  2
DC_GROUP_W_JR-5721_S_030_39
340
0
102
{BLKREFS
331
2CE
102
}
 70
     0
280
     1
281
     0
  0
BLOCK_RECORD
  5
158
330
1
100
AcDbSymbolTableRecord
100
AcDbBlockTableRecord
  2
DC_GROUP_W_JR-5721_S_030_40
340
0
102
{BLKREFS
331
4E7
102
}
 70
     0
280
     1
281
     0
  0
BLOCK_RECORD
  5
15B
330
1
100
AcDbSymbolTableRecord
100
AcDbBlockTableRecord
  2
DC_GROUP_W_JR-5721_S_030_41
340
0
102
{BLKREFS
331
2D2
102
}
 70
     0
280
     1
281
     0
  0
BLOCK_RECORD
  5
15E
330
1
100
AcDbSymbolTableRecord
100
AcDbBlockTableRecord
  2
DC_GROUP_W_JR-5721_S_030_42
340
0
102
{BLKREFS
331
4E8
102
}
 70
     0
280
     1
281
     0
  0
BLOCK_RECORD
  5
161
330
1
100
AcDbSymbolTableRecord
100
AcDbBlockTableRecord
  2
DC_GROUP_W_JR-5721_S_030_43
340
0
102
{BLKREFS
331
2D8
102
}
 70
     0
280
     1
281
     0
  0
BLOCK_RECORD
  5
164
330
1
100
AcDbSymbolTableRecord
100
AcDbBlockTableRecord
  2
DC_GROUP_W_JR-5721_S_030_44
340
0
102
{BLKREFS
331
4E9
102
}
 70
     0
280
     1
281
     0
  0
BLOCK_RECORD
  5
167
330
1
100
AcDbSymbolTableRecord
100
AcDbBlockTableRecord
  2
DC_GROUP_W_JR-5721_S_030_45
340
0
102
{BLKREFS
331
2DC
102
}
 70
     0
280
     1
281
     0
  0
BLOCK_RECORD
  5
16A
330
1
100
AcDbSymbolTableRecord
100
AcDbBlockTableRecord
  2
DC_GROUP_W_JR-5721_S_030_46
340
0
102
{BLKREFS
331
4EA
102
}
 70
     0
280
     1
281
     0
  0
BLOCK_RECORD
  5
16D
330
1
100
AcDbSymbolTableRecord
100
AcDbBlockTableRecord
  2
DC_GROUP_W_JR-5721_S_030_47
340
0
102
{BLKREFS
331
2E0
102
}
 70
     0
280
     1
281
     0
  0
BLOCK_RECORD
  5
170
330
1
100
AcDbSymbolTableRecord
100
AcDbBlockTableRecord
  2
DC_GROUP_W_JR-5721_S_030_48
340
0
102
{BLKREFS
331
4EB
102
}
 70
     0
280
     1
281
     0
  0
BLOCK_RECORD
  5
173
330
1
100
AcDbSymbolTableRecord
100
AcDbBlockTableRecord
  2
DC_GROUP_W_JR-5721_S_030_49
340
0
102
{BLKREFS
331
2E6
102
}
 70
     0
280
     1
281
     0
  0
BLOCK_RECORD
  5
176
330
1
100
AcDbSymbolTableRecord
100
AcDbBlockTableRecord
  2
DC_GROUP_W_JR-5721_S_030_50
340
0
102
{BLKREFS
331
4EC
102
}
 70
     0
280
     1
281
     0
  0
BLOCK_RECORD
  5
179
330
1
100
AcDbSymbolTableRecord
100
AcDbBlockTableRecord
  2
DC_GROUP_W_JR-5721_S_030_51
340
0
102
{BLKREFS
331
2EA
102
}
 70
     0
280
     1
281
     0
  0
BLOCK_RECORD
  5
17C
330
1
100
AcDbSymbolTableRecord
100
AcDbBlockTableRecord
  2
DC_GROUP_W_JR-5721_S_030_52
340
0
102
{BLKREFS
331
4ED
102
}
 70
     0
280
     1
281
     0
  0
BLOCK_RECORD
  5
17F
330
1
100
AcDbSymbolTableRecord
100
AcDbBlockTableRecord
  2
DC_GROUP_W_JR-5721_S_030_53
340
0
102
{BLKREFS
331
2EE
102
}
 70
     0
280
     1
281
     0
  0
BLOCK_RECORD
  5
182
330
1
100
AcDbSymbolTableRecord
100
AcDbBlockTableRecord
  2
DC_GROUP_W_JR-5721_S_030_54
340
0
102
{BLKREFS
331
4EE
102
}
 70
     0
280
     1
281
     0
  0
BLOCK_RECORD
  5
185
330
1
100
AcDbSymbolTableRecord
100
AcDbBlockTableRecord
  2
DC_GROUP_W_JR-5721_S_030_55
340
0
102
{BLKREFS
331
2F2
102
}
 70
     0
280
     1
281
     0
  0
BLOCK_RECORD
  5
188
330
1
100
AcDbSymbolTableRecord
100
AcDbBlockTableRecord
  2
DC_GROUP_W_JR-5721_S_030_56
340
0
102
{BLKREFS
331
4EF
102
}
 70
     0
280
     1
281
     0
  0
BLOCK_RECORD
  5
18B
330
1
100
AcDbSymbolTableRecord
100
AcDbBlockTableRecord
  2
DC_GROUP_W_JR-5721_S_030_57
340
0
102
{BLKREFS
331
2F6
102
}
 70
     0
280
     1
281
     0
  0
BLOCK_RECORD
  5
18E
330
1
100
AcDbSymbolTableRecord
100
AcDbBlockTableRecord
  2
DC_GROUP_W_JR-5721_S_030_58
340
0
102
{BLKREFS
331
4F0
102
}
 70
     0
280
     1
281
     0
  0
BLOCK_RECORD
  5
191
330
1
100
AcDbSymbolTableRecord
100
AcDbBlockTableRecord
  2
DC_GROUP_W_JR-5721_S_030_59
340
0
102
{BLKREFS
331
2FA
102
}
 70
     0
280
     1
281
     0
  0
BLOCK_RECORD
  5
194
330
1
100
AcDbSymbolTableRecord
100
AcDbBlockTableRecord
  2
DC_GROUP_W_JR-5721_S_030_60
340
0
102
{BLKREFS
331
4F1
102
}
 70
     0
280
     1
281
     0
  0
BLOCK_RECORD
  5
197
330
1
100
AcDbSymbolTableRecord
100
AcDbBlockTableRecord
  2
DC_GROUP_W_JR-5721_S_030_61
340
0
102
{BLKREFS
331
4F2
102
}
 70
     0
280
     1
281
     0
  0
BLOCK_RECORD
  5
19A
330
1
100
AcDbSymbolTableRecord
100
AcDbBlockTableRecord
  2
DC_GROUP_W_JR-5721_S_030_62
340
0
102
{BLKREFS
331
4F3
102
}
 70
     0
280
     1
281
     0
  0
BLOCK_RECORD
  5
19D
330
1
100
AcDbSymbolTableRecord
100
AcDbBlockTableRecord
  2
DC_GROUP_W_JR-5721_S_030_63
340
0
102
{BLKREFS
331
4F4
102
}
 70
     0
280
     1
281
     0
  0
BLOCK_RECORD
  5
1A0
330
1
100
AcDbSymbolTableRecord
100
AcDbBlockTableRecord
  2
DC_GROUP_W_JR-5721_S_030_64
340
0
102
{BLKREFS
331
4F5
102
}
 70
     0
280
     1
281
     0
  0
BLOCK_RECORD
  5
1A3
330
1
100
AcDbSymbolTableRecord
100
AcDbBlockTableRecord
  2
DC_GROUP_W_JR-5721_S_030_65
340
0
102
{BLKREFS
331
4F6
102
}
 70
     0
280
     1
281
     0
  0
BLOCK_RECORD
  5
1A6
330
1
100
AcDbSymbolTableRecord
100
AcDbBlockTableRecord
  2
DC_GROUP_W_JR-5721_S_030_66
340
0
102
{BLKREFS
331
4F7
102
}
 70
     0
280
     1
281
     0
  0
BLOCK_RECORD
  5
1A9
330
1
100
AcDbSymbolTableRecord
100
AcDbBlockTableRecord
  2
DC_GROUP_W_JR-5721_S_030_67
340
0
102
{BLKREFS
331
432
102
}
 70
     0
280
     1
281
     0
  0
BLOCK_RECORD
  5
1AC
330
1
100
AcDbSymbolTableRecord
100
AcDbBlockTableRecord
  2
*D85
340
0
 70
     0
280
     1
281
     0
  0
BLOCK_RECORD
  5
1AF
330
1
100
AcDbSymbolTableRecord
100
AcDbBlockTableRecord
  2
*D86
340
0
 70
     0
280
     1
281
     0
  0
BLOCK_RECORD
  5
1B2
330
1
100
AcDbSymbolTableRecord
100
AcDbBlockTableRecord
  2
*D87
340
0
 70
     0
280
     1
281
     0
  0
BLOCK_RECORD
  5
1B5
330
1
100
AcDbSymbolTableRecord
100
AcDbBlockTableRecord
  2
*D88
340
0
 70
     0
280
     1
281
     0
  0
BLOCK_RECORD
  5
1B8
330
1
100
AcDbSymbolTableRecord
100
AcDbBlockTableRecord
  2
*D89
340
0
 70
     0
280
     1
281
     0
  0
BLOCK_RECORD
  5
1BB
330
1
100
AcDbSymbolTableRecord
100
AcDbBlockTableRecord
  2
*D90
340
0
 70
     0
280
     1
281
     0
  0
BLOCK_RECORD
  5
1BE
330
1
100
AcDbSymbolTableRecord
100
AcDbBlockTableRecord
  2
*D91
340
0
 70
     0
280
     1
281
     0
  0
BLOCK_RECORD
  5
1C1
330
1
100
AcDbSymbolTableRecord
100
AcDbBlockTableRecord
  2
*D92
340
0
 70
     0
280
     1
281
     0
  0
BLOCK_RECORD
  5
1C4
330
1
100
AcDbSymbolTableRecord
100
AcDbBlockTableRecord
  2
*D93
340
0
 70
     0
280
     1
281
     0
  0
BLOCK_RECORD
  5
1C7
330
1
100
AcDbSymbolTableRecord
100
AcDbBlockTableRecord
  2
*D94
340
0
 70
     0
280
     1
281
     0
  0
BLOCK_RECORD
  5
1CA
330
1
100
AcDbSymbolTableRecord
100
AcDbBlockTableRecord
  2
DC_GROUP_W_JR-5721_S_030_68
340
0
102
{BLKREFS
331
4F8
102
}
 70
     0
280
     1
281
     0
  0
BLOCK_RECORD
  5
1CD
330
1
100
AcDbSymbolTableRecord
100
AcDbBlockTableRecord
  2
DC_IMAGEDIMGROUP_2
340
0
102
{BLKREFS
331
43D
102
}
 70
     0
280
     1
281
     0
  0
BLOCK_RECORD
  5
1D0
330
1
100
AcDbSymbolTableRecord
100
AcDbBlockTableRecord
  2
DC_IMAGEDIMGROUP_3
340
0
102
{BLKREFS
331
43E
102
}
 70
     0
280
     1
281
     0
  0
BLOCK_RECORD
  5
1D3
330
1
100
AcDbSymbolTableRecord
100
AcDbBlockTableRecord
  2
*D98
340
0
 70
     0
280
     1
281
     0
  0
BLOCK_RECORD
  5
1D6
330
1
100
AcDbSymbolTableRecord
100
AcDbBlockTableRecord
  2
DC_GROUP_W_JR-5721_S_030_69
340
0
102
{BLKREFS
331
440
102
}
 70
     0
280
     1
281
     0
  0
BLOCK_RECORD
  5
1D9
330
1
100
AcDbSymbolTableRecord
100
AcDbBlockTableRecord
  2
DC_GROUP_W_JR-5721_S_030_70
340
0
102
{BLKREFS
331
441
102
}
 70
     0
280
     1
281
     0
  0
BLOCK_RECORD
  5
1DD
330
1
100
AcDbSymbolTableRecord
100
AcDbBlockTableRecord
  2
_OPEN30
340
0
102
{BLKREFS
331
1E3
331
1E4
331
1EA
331
1EB
331
1F0
331
1F1
331
1F6
331
1F7
331
1FC
331
1FD
331
205
331
208
331
209
331
211
331
23A
331
23B
331
240
331
241
331
246
331
247
331
24C
331
24D
331
252
331
253
331
258
331
25F
331
261
331
266
331
268
331
286
331
287
331
393
331
394
331
399
331
39A
331
3A2
331
3A5
331
3A6
331
3AE
331
3B1
331
3B2
331
3BA
331
3BC
331
3C2
331
3C4
331
3C7
331
3C8
331
3CD
331
3CE
331
3FC
331
3FE
331
404
331
406
331
409
331
40A
331
40F
331
411
331
417
102
}
 70
     0
280
     1
281
     0
  0
ENDTAB
  0
ENDSEC
  0
SECTION
  2
BLOCKS
  0
BLOCK
  5
20
330
1F
100
AcDbEntity
  8
0
100
AcDbBlockBegin
  2
*Model_Space
 70
     0
 10
0.0
 20
0.0
 30
0.0
  3
*Model_Space
  1
*Model_Space
  0
ENDBLK
  5
21
330
1F
100
AcDbEntity
  8
0
100
AcDbBlockEnd
  0
BLOCK
  5
1C
330
1B
100
AcDbEntity
 67
     1
  8
0
100
AcDbBlockBegin
  2
*Paper_Space
 70
     0
 10
0.0
 20
0.0
 30
0.0
  3
*Paper_Space
  1
*Paper_Space
  0
ENDBLK
  5
1D
330
1B
100
AcDbEntity
 67
     1
  8
0
100
AcDbBlockEnd
  0
BLOCK
  5
24
330
23
100
AcDbEntity
  8
0
100
AcDbBlockBegin
  2
*Paper_Space0
 70
     0
 10
0.0
 20
0.0
 30
0.0
  3
*Paper_Space0
  1
*Paper_Space0
  0
ENDBLK
  5
25
330
23
100
AcDbEntity
  8
0
100
AcDbBlockEnd
  0
BLOCK
  5
B1
330
B0
100
AcDbEntity
  8
0
100
AcDbBlockBegin
  2
*D1
 70
     1
 10
0.0
 20
0.0
 30
0.0
  3
*D1
  1
*D1
  0
LINE
  5
1DC
330
B0
100
AcDbEntity
  8
0
  6
Continuous
 62
     2
370
    13
100
AcDbLine
 10
-785.9587957402838
 20
192.3437471458127
 30
0.0
 11
208.0412042597162
 21
192.3437471458127
 31
0.0
  0
INSERT
  5
1E3
330
B0
100
AcDbEntity
  8
0
 62
     2
100
AcDbBlockReference
  2
_OPEN30
 10
-785.9587957402838
 20
192.3437471458127
 30
0.0
 41
18.00001684569172
 42
17.99993620934186
 50
180.0
  0
INSERT
  5
1E4
330
B0
100
AcDbEntity
  8
0
 62
     2
100
AcDbBlockReference
  2
_OPEN30
 10
208.0412042597162
 20
192.3437471458127
 30
0.0
 41
18.00001684569172
 42
17.99993620934186
 50
360.0
  0
LINE
  5
1E5
330
B0
100
AcDbEntity
  8
0
  6
Continuous
 62
     2
370
    13
100
AcDbLine
 10
-785.9587957402838
 20
-3.606252854187147
 30
0.0
 11
-785.9587957402838
 21
195.3437471458127
 31
0.0
  0
LINE
  5
1E6
330
B0
100
AcDbEntity
  8
0
  6
Continuous
 62
     2
370
    13
100
AcDbLine
 10
208.0412042597162
 20
-3.606252854187147
 30
0.0
 11
208.0412042597162
 21
195.3437471458127
 31
0.0
  0
MTEXT
  5
1E8
330
B0
100
AcDbEntity
  8
0
 62
     2
100
AcDbMText
 10
-288.9587957402838
 20
197.3437471458127
 30
0.0
 40
24.0
 41
90.0
 46
0.0
 71
     8
 72
     1
  1
\T1.00;機長
  7
dcStyle0
 73
     1
 44
1.0
  0
ENDBLK
  5
B2
330
B0
100
AcDbEntity
  8
0
100
AcDbBlockEnd
  0
BLOCK
  5
B4
330
B3
100
AcDbEntity
  8
0
100
AcDbBlockBegin
  2
*D2
 70
     1
 10
0.0
 20
0.0
 30
0.0
  3
*D2
  1
*D2
  0
LINE
  5
1E9
330
B3
100
AcDbEntity
  8
0
  6
Continuous
 62
     2
370
    13
100
AcDbLine
 10
-785.9587957402838
 20
-236.6062528541871
 30
0.0
 11
-728.9587957402838
 21
-236.6062528541871
 31
0.0
  0
INSERT
  5
1EA
330
B3
100
AcDbEntity
  8
0
 62
     2
100
AcDbBlockReference
  2
_OPEN30
 10
-785.9587957402838
 20
-236.6062528541871
 30
0.0
 41
18.00001684569172
 42
17.99993620934186
 50
180.0
  0
INSERT
  5
1EB
330
B3
100
AcDbEntity
  8
0
 62
     2
100
AcDbBlockReference
  2
_OPEN30
 10
-728.9587957402838
 20
-236.6062528541871
 30
0.0
 41
18.00001684569172
 42
17.99993620934186
 50
360.0
  0
LINE
  5
1EC
330
B3
100
AcDbEntity
  8
0
  6
Continuous
 62
     2
370
    13
100
AcDbLine
 10
-785.9587957402838
 20
-110.6062528541871
 30
0.0
 11
-785.9587957402838
 21
-239.6062528541871
 31
0.0
  0
LINE
  5
1ED
330
B3
100
AcDbEntity
  8
0
  6
Continuous
 62
     2
370
    13
100
AcDbLine
 10
-728.9587957402838
 20
-120.6062528541871
 30
0.0
 11
-728.9587957402838
 21
-239.6062528541871
 31
0.0
  0
MTEXT
  5
1EE
330
B3
100
AcDbEntity
  8
0
 62
     2
100
AcDbMText
 10
-757.4587957402838
 20
-231.6062528541871
 30
0.0
 40
24.0
 41
45.0
 46
0.0
 71
     8
 72
     1
  1
\T1.00;D
  7
dcStyle0
 73
     1
 44
1.0
  0
ENDBLK
  5
B5
330
B3
100
AcDbEntity
  8
0
100
AcDbBlockEnd
  0
BLOCK
  5
B7
330
B6
100
AcDbEntity
  8
0
100
AcDbBlockBegin
  2
*D3
 70
     1
 10
0.0
 20
0.0
 30
0.0
  3
*D3
  1
*D3
  0
LINE
  5
1EF
330
B6
100
AcDbEntity
  8
0
  6
Continuous
 62
     2
370
    13
100
AcDbLine
 10
-728.9587957402838
 20
-236.6062528541871
 30
0.0
 11
-608.9587957402838
 21
-236.6062528541871
 31
0.0
  0
INSERT
  5
1F0
330
B6
100
AcDbEntity
  8
0
 62
     2
100
AcDbBlockReference
  2
_OPEN30
 10
-728.9587957402838
 20
-236.6062528541871
 30
0.0
 41
18.00001684569172
 42
17.99993620934186
 50
180.0
  0
INSERT
  5
1F1
330
B6
100
AcDbEntity
  8
0
 62
     2
100
AcDbBlockReference
  2
_OPEN30
 10
-608.9587957402838
 20
-236.6062528541871
 30
0.0
 41
18.00001684569172
 42
17.99993620934186
 50
360.0
  0
LINE
  5
1F2
330
B6
100
AcDbEntity
  8
0
  6
Continuous
 62
     2
370
    13
100
AcDbLine
 10
-728.9587957402838
 20
-120.6062528541871
 30
0.0
 11
-728.9587957402838
 21
-239.6062528541871
 31
0.0
  0
LINE
  5
1F3
330
B6
100
AcDbEntity
  8
0
  6
Continuous
 62
     2
370
    13
100
AcDbLine
 10
-608.9587957402838
 20
-192.6062528541871
 30
0.0
 11
-608.9587957402838
 21
-239.6062528541871
 31
0.0
  0
MTEXT
  5
1F4
330
B6
100
AcDbEntity
  8
0
 62
     2
100
AcDbMText
 10
-668.9587957402838
 20
-231.6062528541871
 30
0.0
 40
24.0
 41
75.0
 46
0.0
 71
     8
 72
     1
  1
\T1.00;120
  7
dcStyle0
 73
     1
 44
1.0
  0
ENDBLK
  5
B8
330
B6
100
AcDbEntity
  8
0
100
AcDbBlockEnd
  0
BLOCK
  5
BA
330
B9
100
AcDbEntity
  8
0
100
AcDbBlockBegin
  2
*D4
 70
     1
 10
0.0
 20
0.0
 30
0.0
  3
*D4
  1
*D4
  0
LINE
  5
1F5
330
B9
100
AcDbEntity
  8
0
  6
Continuous
 62
     2
370
    13
100
AcDbLine
 10
31.04120425971615
 20
-236.6062528541871
 30
0.0
 11
151.0412042597162
 21
-236.6062528541871
 31
0.0
  0
INSERT
  5
1F6
330
B9
100
AcDbEntity
  8
0
 62
     2
100
AcDbBlockReference
  2
_OPEN30
 10
31.04120425971615
 20
-236.6062528541871
 30
0.0
 41
18.00001684569172
 42
17.99993620934186
 50
180.0
  0
INSERT
  5
1F7
330
B9
100
AcDbEntity
  8
0
 62
     2
100
AcDbBlockReference
  2
_OPEN30
 10
151.0412042597162
 20
-236.6062528541871
 30
0.0
 41
18.00001684569172
 42
17.99993620934186
 50
360.0
  0
LINE
  5
1F8
330
B9
100
AcDbEntity
  8
0
  6
Continuous
 62
     2
370
    13
100
AcDbLine
 10
31.04120425971615
 20
-192.6062528541871
 30
0.0
 11
31.04120425971615
 21
-239.6062528541871
 31
0.0
  0
LINE
  5
1F9
330
B9
100
AcDbEntity
  8
0
  6
Continuous
 62
     2
370
    13
100
AcDbLine
 10
151.0412042597162
 20
-120.6062528541871
 30
0.0
 11
151.0412042597162
 21
-239.6062528541871
 31
0.0
  0
MTEXT
  5
1FA
330
B9
100
AcDbEntity
  8
0
 62
     2
100
AcDbMText
 10
86.8356740860919
 20
-231.6062528541871
 30
0.0
 40
24.0
 41
75.0
 46
0.0
 71
     8
 72
     1
  1
\T1.00;120
  7
dcStyle0
 73
     1
 44
1.0
  0
ENDBLK
  5
BB
330
B9
100
AcDbEntity
  8
0
100
AcDbBlockEnd
  0
BLOCK
  5
BD
330
BC
100
AcDbEntity
  8
0
100
AcDbBlockBegin
  2
*D5
 70
     1
 10
0.0
 20
0.0
 30
0.0
  3
*D5
  1
*D5
  0
LINE
  5
1FB
330
BC
100
AcDbEntity
  8
0
  6
Continuous
 62
     2
370
    13
100
AcDbLine
 10
151.0412042597162
 20
-236.6062528541871
 30
0.0
 11
208.0412042597162
 21
-236.6062528541871
 31
0.0
  0
INSERT
  5
1FC
330
BC
100
AcDbEntity
  8
0
 62
     2
100
AcDbBlockReference
  2
_OPEN30
 10
151.0412042597162
 20
-236.6062528541871
 30
0.0
 41
18.00001684569172
 42
17.99993620934186
 50
180.0
  0
INSERT
  5
1FD
330
BC
100
AcDbEntity
  8
0
 62
     2
100
AcDbBlockReference
  2
_OPEN30
 10
208.0412042597162
 20
-236.6062528541871
 30
0.0
 41
18.00001684569172
 42
17.99993620934186
 50
360.0
  0
LINE
  5
1FE
330
BC
100
AcDbEntity
  8
0
  6
Continuous
 62
     2
370
    13
100
AcDbLine
 10
151.0412042597162
 20
-120.6062528541871
 30
0.0
 11
151.0412042597162
 21
-239.6062528541871
 31
0.0
  0
LINE
  5
1FF
330
BC
100
AcDbEntity
  8
0
  6
Continuous
 62
     2
370
    13
100
AcDbLine
 10
208.0412042597162
 20
-110.6062528541871
 30
0.0
 11
208.0412042597162
 21
-239.6062528541871
 31
0.0
  0
MTEXT
  5
200
330
BC
100
AcDbEntity
  8
0
 62
     2
100
AcDbMText
 10
179.5412042597162
 20
-231.6062528541871
 30
0.0
 40
24.0
 41
45.0
 46
0.0
 71
     8
 72
     1
  1
\T1.00;D
  7
dcStyle0
 73
     1
 44
1.0
  0
ENDBLK
  5
BE
330
BC
100
AcDbEntity
  8
0
100
AcDbBlockEnd
  0
BLOCK
  5
C0
330
BF
100
AcDbEntity
  8
0
100
AcDbBlockBegin
  2
*D6
 70
     1
 10
0.0
 20
0.0
 30
0.0
  3
*D6
  1
*D6
  0
LINE
  5
201
330
BF
100
AcDbEntity
  8
0
  6
Continuous
 62
     2
370
    13
100
AcDbLine
 10
-785.9587957402838
 20
132.3437471458127
 30
0.0
 11
-750.9587957402839
 21
132.3437471458127
 31
0.0
  0
LINE
  5
202
330
BF
100
AcDbEntity
  8
0
  6
Continuous
 62
     2
370
    13
100
AcDbLine
 10
-785.9587957402838
 20
-3.606252854187147
 30
0.0
 11
-785.9587957402838
 21
135.3437471458127
 31
0.0
  0
LINE
  5
203
330
BF
100
AcDbEntity
  8
0
  6
Continuous
 62
     2
370
    13
100
AcDbLine
 10
-750.9587957402839
 20
6.993747145813188
 30
0.0
 11
-750.9587957402839
 21
135.3437471458127
 31
0.0
  0
LINE
  5
204
330
BF
100
AcDbEntity
  8
0
  6
Continuous
 62
     2
370
    13
100
AcDbLine
 10
-824.6468952330882
 20
132.3437471458127
 30
0.0
 11
-785.9587957402839
 21
132.3437471458127
 31
0.0
  0
INSERT
  5
205
330
BF
100
AcDbEntity
  8
0
 62
     2
100
AcDbBlockReference
  2
_OPEN30
 10
-785.9587957402839
 20
132.3437471458127
 30
0.0
 41
18.00001684569172
 42
17.99993620934186
 50
360.0
  0
MTEXT
  5
206
330
BF
100
AcDbEntity
  8
0
 62
     2
100
AcDbMText
 10
-812.6468952330882
 20
138.3437471458127
 30
0.0
 40
24.0
 41
45.0
 46
0.0
 71
     9
 72
     1
  1
\T1.00;A
  7
dcStyle0
 73
     1
 44
1.0
  0
ENDBLK
  5
C1
330
BF
100
AcDbEntity
  8
0
100
AcDbBlockEnd
  0
BLOCK
  5
C3
330
C2
100
AcDbEntity
  8
0
100
AcDbBlockBegin
  2
*D7
 70
     1
 10
0.0
 20
0.0
 30
0.0
  3
*D7
  1
*D7
  0
LINE
  5
207
330
C2
100
AcDbEntity
  8
0
  6
Continuous
 62
     2
370
    13
100
AcDbLine
 10
-750.9587957402839
 20
132.3437471458127
 30
0.0
 11
173.0412042597161
 21
132.3437471458127
 31
0.0
  0
INSERT
  5
208
330
C2
100
AcDbEntity
  8
0
 62
     2
100
AcDbBlockReference
  2
_OPEN30
 10
-750.9587957402839
 20
132.3437471458127
 30
0.0
 41
18.00001684569172
 42
17.99993620934186
 50
180.0
  0
INSERT
  5
209
330
C2
100
AcDbEntity
  8
0
 62
     2
100
AcDbBlockReference
  2
_OPEN30
 10
173.0412042597161
 20
132.3437471458127
 30
0.0
 41
18.00001684569172
 42
17.99993620934186
 50
360.0
  0
LINE
  5
20A
330
C2
100
AcDbEntity
  8
0
  6
Continuous
 62
     2
370
    13
100
AcDbLine
 10
-750.9587957402839
 20
6.993747145813188
 30
0.0
 11
-750.9587957402839
 21
135.3437471458127
 31
0.0
  0
LINE
  5
20B
330
C2
100
AcDbEntity
  8
0
  6
Continuous
 62
     2
370
    13
100
AcDbLine
 10
173.0412042597161
 20
6.993747145813188
 30
0.0
 11
173.0412042597161
 21
135.3437471458127
 31
0.0
  0
MTEXT
  5
20C
330
C2
100
AcDbEntity
  8
0
 62
     2
100
AcDbMText
 10
-288.958795740284
 20
137.3437471458127
 30
0.0
 40
24.0
 41
120.0
 46
0.0
 71
     8
 72
     1
  1
\T1.00;N×P=B
  7
dcStyle0
 73
     1
 44
1.0
  0
ENDBLK
  5
C4
330
C2
100
AcDbEntity
  8
0
100
AcDbBlockEnd
  0
BLOCK
  5
C6
330
C5
100
AcDbEntity
  8
0
100
AcDbBlockBegin
  2
*D8
 70
     1
 10
0.0
 20
0.0
 30
0.0
  3
*D8
  1
*D8
  0
LINE
  5
20D
330
C5
100
AcDbEntity
  8
0
  6
Continuous
 62
     2
370
    13
100
AcDbLine
 10
173.0412042597161
 20
132.3437471458127
 30
0.0
 11
208.0412042597162
 21
132.3437471458127
 31
0.0
  0
LINE
  5
20E
330
C5
100
AcDbEntity
  8
0
  6
Continuous
 62
     2
370
    13
100
AcDbLine
 10
173.0412042597161
 20
6.993747145813188
 30
0.0
 11
173.0412042597161
 21
135.3437471458127
 31
0.0
  0
LINE
  5
20F
330
C5
100
AcDbEntity
  8
0
  6
Continuous
 62
     2
370
    13
100
AcDbLine
 10
208.0412042597162
 20
-3.606252854187147
 30
0.0
 11
208.0412042597162
 21
135.3437471458127
 31
0.0
  0
LINE
  5
210
330
C5
100
AcDbEntity
  8
0
  6
Continuous
 62
     2
370
    13
100
AcDbLine
 10
239.2462042597162
 20
132.3437471458127
 30
0.0
 11
208.0412042597162
 21
132.3437471458127
 31
0.0
  0
INSERT
  5
211
330
C5
100
AcDbEntity
  8
0
 62
     2
100
AcDbBlockReference
  2
_OPEN30
 10
208.0412042597162
 20
132.3437471458127
 30
0.0
 41
18.00001684569172
 42
17.99993620934186
 50
180.0
  0
MTEXT
  5
212
330
C5
100
AcDbEntity
  8
0
 62
     2
100
AcDbMText
 10
227.2462042597162
 20
138.3437471458127
 30
0.0
 40
24.0
 41
45.0
 46
0.0
 71
     7
 72
     1
  1
\T1.00;C
  7
dcStyle0
 73
     1
 44
1.0
  0
ENDBLK
  5
C7
330
C5
100
AcDbEntity
  8
0
100
AcDbBlockEnd
  0
BLOCK
  5
C9
330
C8
100
AcDbEntity
  8
0
100
AcDbBlockBegin
  2
DC_GROUP_W_JR-5721_S_030_1
 70
     0
 10
0.0
 20
0.0
 30
0.0
  3
DC_GROUP_W_JR-5721_S_030_1
  1
DC_GROUP_W_JR-5721_S_030_1
  0
LINE
  5
213
330
C8
100
AcDbEntity
  8
ZUWAKU
  6
Continuous
 62
     7
370
    13
100
AcDbLine
 10
-1182.0
 20
-797.2315400371328
 30
0.0
 11
1182.0
 21
-797.2315400371328
 31
0.0
  0
LINE
  5
214
330
C8
100
AcDbEntity
  8
ZUWAKU
  6
Continuous
 62
     7
370
    13
100
AcDbLine
 10
1181.999999999998
 20
810.7684599628672
 30
0.0
 11
-1182.0
 21
810.7684599628672
 31
0.0
  0
LINE
  5
215
330
C8
100
AcDbEntity
  8
ZUWAKU
  6
Continuous
 62
     7
370
    13
100
AcDbLine
 10
1182.0
 20
-797.2315400371328
 30
0.0
 11
1181.999999999998
 21
810.7684599628672
 31
0.0
  0
LINE
  5
216
330
C8
100
AcDbEntity
  8
ZUWAKU
  6
Continuous
 62
     7
370
    13
100
AcDbLine
 10
-1182.0
 20
810.7684599628672
 30
0.0
 11
-1182.0
 21
-797.2315400371328
 31
0.0
  0
LINE
  5
217
330
C8
100
AcDbEntity
  8
ZUWAKU
  6
Continuous
 62
     4
370
    13
100
AcDbLine
 10
-206.9999999999998
 20
-707.231540037133
 30
0.0
 11
30.00000000000017
 21
-707.231540037133
 31
0.0
  0
LINE
  5
218
330
C8
100
AcDbEntity
  8
ZUWAKU
  6
Continuous
 62
     4
370
    13
100
AcDbLine
 10
-1110.0
 20
-677.231540037133
 30
0.0
 11
-1110.0
 21
-797.2315400371328
 31
0.0
  0
LINE
  5
219
330
C8
100
AcDbEntity
  8
ZUWAKU
  6
Continuous
 62
     4
370
    13
100
AcDbLine
 10
-1182.0
 20
-737.231540037133
 30
0.0
 11
1182.0
 21
-737.231540037133
 31
0.0
  0
LINE
  5
21A
330
C8
100
AcDbEntity
  8
ZUWAKU
  6
Continuous
 62
     4
370
    13
100
AcDbLine
 10
30.00000000000017
 20
-797.2315400371328
 30
0.0
 11
30.00000000000017
 21
-677.231540037133
 31
0.0
  0
LINE
  5
21B
330
C8
100
AcDbEntity
  8
ZUWAKU
  6
Continuous
 62
     4
370
    13
100
AcDbLine
 10
-206.9999999999998
 20
-797.2315400371328
 30
0.0
 11
-206.9999999999998
 21
-677.231540037133
 31
0.0
  0
LINE
  5
21C
330
C8
100
AcDbEntity
  8
ZUWAKU
  6
Continuous
 62
     4
370
    13
100
AcDbLine
 10
516.0
 20
-677.231540037133
 30
0.0
 11
516.0
 21
-797.2315400371328
 31
0.0
  0
LINE
  5
21D
330
C8
100
AcDbEntity
  8
ZUWAKU
  6
Continuous
 62
     4
370
    13
100
AcDbLine
 10
180.0000000000002
 20
-677.231540037133
 30
0.0
 11
180.0000000000002
 21
-797.2315400371328
 31
0.0
  0
LINE
  5
21E
330
C8
100
AcDbEntity
  8
ZUWAKU
  6
Continuous
 62
     4
370
    13
100
AcDbLine
 10
-158.9999999999998
 20
-737.231540037133
 30
0.0
 11
-158.9999999999998
 21
-797.2315400371328
 31
0.0
  0
LINE
  5
21F
330
C8
100
AcDbEntity
  8
ZUWAKU
  6
Continuous
 62
     4
370
    13
100
AcDbLine
 10
-786.0
 20
-677.231540037133
 30
0.0
 11
-786.0
 21
-797.2315400371328
 31
0.0
  0
LINE
  5
220
330
C8
100
AcDbEntity
  8
ZUWAKU
  6
Continuous
 62
     4
370
    13
100
AcDbLine
 10
1182.0
 20
-677.231540037133
 30
0.0
 11
-1182.0
 21
-677.231540037133
 31
0.0
  0
LINE
  5
221
330
C8
100
AcDbEntity
  8
ZUWAKU
  6
Continuous
 62
     4
370
    13
100
AcDbLine
 10
588.0
 20
-677.231540037133
 30
0.0
 11
588.0
 21
-797.2315400371328
 31
0.0
  0
LINE
  5
222
330
C8
100
AcDbEntity
  8
ZUWAKU
  6
Continuous
 62
     3
370
    13
100
AcDbLine
 10
-1125.0
 20
-722.231540037133
 30
0.0
 11
-1146.0
 21
-683.231540037133
 31
0.0
  0
LINE
  5
223
330
C8
100
AcDbEntity
  8
ZUWAKU
  6
Continuous
 62
     3
370
    13
100
AcDbLine
 10
-1167.0
 20
-722.231540037133
 30
0.0
 11
-1125.0
 21
-722.231540037133
 31
0.0
  0
LINE
  5
224
330
C8
100
AcDbEntity
  8
ZUWAKU
  6
Continuous
 62
     3
370
    13
100
AcDbLine
 10
-1146.0
 20
-683.231540037133
 30
0.0
 11
-1167.0
 21
-722.231540037133
 31
0.0
  0
TEXT
  5
226
330
C8
100
AcDbEntity
  8
ZUWAKU
 62
     2
100
AcDbText
 10
526.8
 20
-791.2315400371328
 30
0.0
 40
20.99999999999999
  1
番号
 41
1.527272727272731
  7
dcStyle1
 72
     5
 11
577.2
 21
-791.2315400371328
 31
0.0
100
AcDbText
  0
TEXT
  5
227
330
C8
100
AcDbEntity
  8
ZUWAKU
 62
     2
100
AcDbText
 10
-195.5999999999998
 20
-791.2315400371328
 30
0.0
 40
20.99999999999999
  1
度
 41
1.68
  7
dcStyle1
 72
     5
 11
-170.3999999999998
 21
-791.2315400371328
 31
0.0
100
AcDbText
  0
TEXT
  5
228
330
C8
100
AcDbEntity
  8
ZUWAKU
 62
     2
100
AcDbText
 10
-1168.93153181897
 20
-791.2315400371328
 30
0.0
 40
21.0
  1
番号
 41
1.272727272727273
  7
dcStyle1
 72
     5
 11
-1126.93153181897
 21
-791.2315400371328
 31
0.0
100
AcDbText
  0
TEXT
  5
229
330
C8
100
AcDbEntity
  8
ZUWAKU
 62
     2
100
AcDbText
 10
51.00000000000017
 20
-719.231540037133
 30
0.0
 40
24.0
  1
シリーズ名
 41
1.086206896551724
  7
dcStyle1
 72
     5
 11
159.0000000000002
 21
-719.231540037133
 31
0.0
100
AcDbText
  0
TEXT
  5
22A
330
C8
100
AcDbEntity
  8
ZUWAKU
 62
     2
100
AcDbText
 10
69.00000000000017
 20
-779.231540037133
 30
0.0
 40
24.0
  1
機　種
 41
1.235294117647059
  7
dcStyle1
 72
     5
 11
141.0000000000002
 21
-779.231540037133
 31
0.0
100
AcDbText
  0
TEXT
  5
22B
330
C8
100
AcDbEntity
  8
ZUWAKU
 62
     2
100
AcDbText
 10
-1167.0
 20
-764.231540037133
 30
0.0
 40
21.0
  1
改訂
 41
1.272727272727273
  7
dcStyle1
 72
     5
 11
-1125.0
 21
-764.231540037133
 31
0.0
100
AcDbText
  0
TEXT
  5
22C
330
C8
100
AcDbEntity
  8
ZUWAKU
 62
     2
100
AcDbText
 10
-1046.7
 20
-777.731540037133
 30
0.0
 40
20.99999999999999
  1
改　 訂　 記　 事
 41
1.061290322580644
  7
dcStyle1
 72
     5
 11
-849.3000000000001
 21
-777.731540037133
 31
0.0
100
AcDbText
  0
TEXT
  5
22D
330
C8
100
AcDbEntity
  8
ZUWAKU
 62
     2
100
AcDbText
 10
-195.5999999999998
 20
-764.231540037133
 30
0.0
 40
20.99999999999999
  1
尺
 41
1.68
  7
dcStyle1
 72
     5
 11
-170.3999999999998
 21
-764.231540037133
 31
0.0
100
AcDbText
  0
TEXT
  5
22E
330
C8
100
AcDbEntity
  8
ZUWAKU
 62
     2
100
AcDbText
 10
-161.9999999999998
 20
-702.731540037133
 30
0.0
 40
20.99999999999999
  1
年　　月　　日
 41
1.195121951219512
  7
dcStyle1
 72
     5
 11
-14.99999999999989
 21
-702.731540037133
 31
0.0
100
AcDbText
  0
TEXT
  5
22F
330
C8
100
AcDbEntity
  8
ZUWAKU
 62
     2
100
AcDbText
 10
526.8
 20
-764.231540037133
 30
0.0
 40
20.99999999999999
  1
図面
 41
1.527272727272731
  7
dcStyle1
 72
     5
 11
577.2
 21
-764.231540037133
 31
0.0
100
AcDbText
  0
TEXT
  5
230
330
C8
100
AcDbEntity
  8
ZUWAKU
 62
     2
100
AcDbText
 10
528.0
 20
-719.231540037133
 30
0.0
 40
24.0
  1
図名
 41
1.272727272727273
  7
dcStyle1
 72
     5
 11
576.0
 21
-719.231540037133
 31
0.0
100
AcDbText
  0
TEXT
  5
231
330
C8
100
AcDbEntity
  8
ZUWAKU
 62
     7
100
AcDbText
 10
-616.4999999999998
 20
-722.231540037133
 30
0.0
 40
30.0
  1
技術情報サービス
 41
1.191489361702127
  7
dcStyle1
 72
     5
 11
-376.4999999999998
 21
-722.231540037133
 31
0.0
100
AcDbText
  0
TEXT
  5
232
330
C8
100
AcDbEntity
  8
ZUWAKU
 62
     7
100
AcDbText
 10
-704.0470588235293
 20
-779.231540037133
 30
0.0
 40
24.0
  1
MARUYASU KIKAI CO.,LTD.
 41
0.8990281013395457
  7
dcStyle1
 72
     5
 11
-288.9529411764704
 21
-779.231540037133
 31
0.0
100
AcDbText
  0
TEXT
  5
233
330
C8
100
AcDbEntity
  8
ZUWAKU
 62
     4
100
AcDbText
 10
1154.739326354215
 20
-810.7684599628672
 30
0.0
 40
12.0
  1
A3
 41
1.2
  7
dcStyle1
 72
     5
 11
1178.739326354215
 21
-810.7684599628672
 31
0.0
100
AcDbText
  0
ENDBLK
  5
CA
330
C8
100
AcDbEntity
  8
0
100
AcDbBlockEnd
  0
BLOCK
  5
CC
330
CB
100
AcDbEntity
  8
0
100
AcDbBlockBegin
  2
DC_GROUP_W_JR-5721_S_030_2
 70
     0
 10
0.0
 20
0.0
 30
0.0
  3
DC_GROUP_W_JR-5721_S_030_2
  1
DC_GROUP_W_JR-5721_S_030_2
  0
POINT
  5
234
330
CB
100
AcDbEntity
  8
ZUWAKU
  6
Continuous
 62
     2
100
AcDbPoint
 10
348.0000000000001
 20
-707.231540037133
 30
0.0
  0
POINT
  5
235
330
CB
100
AcDbEntity
  8
ZUWAKU
  6
Continuous
 62
     2
100
AcDbPoint
 10
348.0000000000001
 20
-767.2315400371328
 30
0.0
  0
POINT
  5
236
330
CB
100
AcDbEntity
  8
ZUWAKU
  6
Continuous
 62
     2
100
AcDbPoint
 10
1164.0
 20
-767.2315400371328
 30
0.0
  0
POINT
  5
237
330
CB
100
AcDbEntity
  8
ZUWAKU
  6
Continuous
 62
     2
100
AcDbPoint
 10
885.0
 20
-707.231540037133
 30
0.0
  0
POINT
  5
238
330
CB
100
AcDbEntity
  8
ZUWAKU
  6
Continuous
 62
     2
100
AcDbPoint
 10
-64.49999999999983
 20
-767.2315400371328
 30
0.0
  0
ENDBLK
  5
CD
330
CB
100
AcDbEntity
  8
0
100
AcDbBlockEnd
  0
BLOCK
  5
CF
330
CE
100
AcDbEntity
  8
0
100
AcDbBlockBegin
  2
*D11
 70
     1
 10
0.0
 20
0.0
 30
0.0
  3
*D11
  1
*D11
  0
LINE
  5
239
330
CE
100
AcDbEntity
  8
0
  6
Continuous
 62
     2
370
    13
100
AcDbLine
 10
289.0412042597163
 20
284.7437471526259
 30
0.0
 11
289.0412042597163
 21
744.7437471526259
 31
0.0
  0
INSERT
  5
23A
330
CE
100
AcDbEntity
  8
0
 62
     2
100
AcDbBlockReference
  2
_OPEN30
 10
289.0412042597163
 20
284.7437471526259
 30
0.0
 41
18.00001684569172
 42
17.99993620934186
 50
270.0
  0
INSERT
  5
23B
330
CE
100
AcDbEntity
  8
0
 62
     2
100
AcDbBlockReference
  2
_OPEN30
 10
289.0412042597163
 20
744.7437471526259
 30
0.0
 41
18.00001684569172
 42
17.99993620934186
 50
90.0
  0
LINE
  5
23C
330
CE
100
AcDbEntity
  8
0
  6
Continuous
 62
     2
370
    13
100
AcDbLine
 10
213.0412042597162
 20
284.7437471526259
 30
0.0
 11
292.0412042597163
 21
284.7437471526259
 31
0.0
  0
LINE
  5
23D
330
CE
100
AcDbEntity
  8
0
  6
Continuous
 62
     2
370
    13
100
AcDbLine
 10
213.0412042597162
 20
744.7437471526259
 30
0.0
 11
292.0412042597163
 21
744.7437471526259
 31
0.0
  0
MTEXT
  5
23E
330
CE
100
AcDbEntity
  8
0
 62
     2
100
AcDbMText
 10
283.0412042597163
 20
514.7437471526259
 30
0.0
 40
24.0
 41
195.0
 46
0.0
 71
     8
 72
     1
  1
\T1.00;機 幅 (460)
  7
dcStyle0
 11
6.123233995736766E-17
 21
1.0
 31
0.0
 73
     1
 44
1.0
  0
ENDBLK
  5
D0
330
CE
100
AcDbEntity
  8
0
100
AcDbBlockEnd
  0
BLOCK
  5
D2
330
D1
100
AcDbEntity
  8
0
100
AcDbBlockBegin
  2
*D12
 70
     1
 10
0.0
 20
0.0
 30
0.0
  3
*D12
  1
*D12
  0
LINE
  5
23F
330
D1
100
AcDbEntity
  8
0
  6
Continuous
 62
     2
370
    13
100
AcDbLine
 10
-608.9587957402838
 20
-236.6062528541871
 30
0.0
 11
-348.9587957402838
 21
-236.6062528541871
 31
0.0
  0
INSERT
  5
240
330
D1
100
AcDbEntity
  8
0
 62
     2
100
AcDbBlockReference
  2
_OPEN30
 10
-608.9587957402838
 20
-236.6062528541871
 30
0.0
 41
18.00001684569172
 42
17.99993620934186
 50
180.0
  0
INSERT
  5
241
330
D1
100
AcDbEntity
  8
0
 62
     2
100
AcDbBlockReference
  2
_OPEN30
 10
-348.9587957402838
 20
-236.6062528541871
 30
0.0
 41
18.00001684569172
 42
17.99993620934186
 50
360.0
  0
LINE
  5
242
330
D1
100
AcDbEntity
  8
0
  6
Continuous
 62
     2
370
    13
100
AcDbLine
 10
-608.9587957402838
 20
-120.6062528541871
 30
0.0
 11
-608.9587957402838
 21
-239.6062528541871
 31
0.0
  0
LINE
  5
243
330
D1
100
AcDbEntity
  8
0
  6
Continuous
 62
     2
370
    13
100
AcDbLine
 10
-348.9587957402838
 20
-120.6062528541871
 30
0.0
 11
-348.9587957402838
 21
-239.6062528541871
 31
0.0
  0
MTEXT
  5
244
330
D1
100
AcDbEntity
  8
0
 62
     2
100
AcDbMText
 10
-478.9587957402838
 20
-231.6062528541871
 30
0.0
 40
24.0
 41
45.0
 46
0.0
 71
     8
 72
     1
  1
\T1.00;E
  7
dcStyle0
 73
     1
 44
1.0
  0
ENDBLK
  5
D3
330
D1
100
AcDbEntity
  8
0
100
AcDbBlockEnd
  0
BLOCK
  5
D5
330
D4
100
AcDbEntity
  8
0
100
AcDbBlockBegin
  2
*D13
 70
     1
 10
0.0
 20
0.0
 30
0.0
  3
*D13
  1
*D13
  0
LINE
  5
245
330
D4
100
AcDbEntity
  8
0
  6
Continuous
 62
     2
370
    13
100
AcDbLine
 10
-348.9587957402838
 20
-236.6062528541871
 30
0.0
 11
-228.9587957402838
 21
-236.6062528541871
 31
0.0
  0
INSERT
  5
246
330
D4
100
AcDbEntity
  8
0
 62
     2
100
AcDbBlockReference
  2
_OPEN30
 10
-348.9587957402838
 20
-236.6062528541871
 30
0.0
 41
18.00001684569172
 42
17.99993620934186
 50
180.0
  0
INSERT
  5
247
330
D4
100
AcDbEntity
  8
0
 62
     2
100
AcDbBlockReference
  2
_OPEN30
 10
-228.9587957402838
 20
-236.6062528541871
 30
0.0
 41
18.00001684569172
 42
17.99993620934186
 50
360.0
  0
LINE
  5
248
330
D4
100
AcDbEntity
  8
0
  6
Continuous
 62
     2
370
    13
100
AcDbLine
 10
-348.9587957402838
 20
-120.6062528541871
 30
0.0
 11
-348.9587957402838
 21
-239.6062528541871
 31
0.0
  0
LINE
  5
249
330
D4
100
AcDbEntity
  8
0
  6
Continuous
 62
     2
370
    13
100
AcDbLine
 10
-228.9587957402838
 20
-120.6062528541871
 30
0.0
 11
-228.9587957402838
 21
-239.6062528541871
 31
0.0
  0
MTEXT
  5
24A
330
D4
100
AcDbEntity
  8
0
 62
     2
100
AcDbMText
 10
-288.9587957402838
 20
-231.6062528541871
 30
0.0
 40
24.0
 41
75.0
 46
0.0
 71
     8
 72
     1
  1
\T1.00;120
  7
dcStyle0
 73
     1
 44
1.0
  0
ENDBLK
  5
D6
330
D4
100
AcDbEntity
  8
0
100
AcDbBlockEnd
  0
BLOCK
  5
D8
330
D7
100
AcDbEntity
  8
0
100
AcDbBlockBegin
  2
*D14
 70
     1
 10
0.0
 20
0.0
 30
0.0
  3
*D14
  1
*D14
  0
LINE
  5
24B
330
D7
100
AcDbEntity
  8
0
  6
Continuous
 62
     2
370
    13
100
AcDbLine
 10
-228.9587957402838
 20
-236.6062528541871
 30
0.0
 11
31.04120425971615
 21
-236.6062528541871
 31
0.0
  0
INSERT
  5
24C
330
D7
100
AcDbEntity
  8
0
 62
     2
100
AcDbBlockReference
  2
_OPEN30
 10
-228.9587957402838
 20
-236.6062528541871
 30
0.0
 41
18.00001684569172
 42
17.99993620934186
 50
180.0
  0
INSERT
  5
24D
330
D7
100
AcDbEntity
  8
0
 62
     2
100
AcDbBlockReference
  2
_OPEN30
 10
31.04120425971615
 20
-236.6062528541871
 30
0.0
 41
18.00001684569172
 42
17.99993620934186
 50
360.0
  0
LINE
  5
24E
330
D7
100
AcDbEntity
  8
0
  6
Continuous
 62
     2
370
    13
100
AcDbLine
 10
-228.9587957402838
 20
-120.6062528541871
 30
0.0
 11
-228.9587957402838
 21
-239.6062528541871
 31
0.0
  0
LINE
  5
24F
330
D7
100
AcDbEntity
  8
0
  6
Continuous
 62
     2
370
    13
100
AcDbLine
 10
31.0412042597162
 20
-120.6062528541871
 30
0.0
 11
31.04120425971615
 21
-239.6062528541871
 31
0.0
  0
MTEXT
  5
250
330
D7
100
AcDbEntity
  8
0
 62
     2
100
AcDbMText
 10
-98.95879574028382
 20
-231.6062528541871
 30
0.0
 40
24.0
 41
45.0
 46
0.0
 71
     8
 72
     1
  1
\T1.00;E
  7
dcStyle0
 73
     1
 44
1.0
  0
ENDBLK
  5
D9
330
D7
100
AcDbEntity
  8
0
100
AcDbBlockEnd
  0
BLOCK
  5
DB
330
DA
100
AcDbEntity
  8
0
100
AcDbBlockBegin
  2
*D15
 70
     1
 10
0.0
 20
0.0
 30
0.0
  3
*D15
  1
*D15
  0
LINE
  5
251
330
DA
100
AcDbEntity
  8
0
  6
Continuous
 62
     2
370
    13
100
AcDbLine
 10
280.0412042597162
 20
-104.6062528541871
 30
0.0
 11
280.0412042597162
 21
-64.60625285418715
 31
0.0
  0
INSERT
  5
252
330
DA
100
AcDbEntity
  8
0
 62
     2
100
AcDbBlockReference
  2
_OPEN30
 10
280.0412042597162
 20
-104.6062528541871
 30
0.0
 41
18.00001684569172
 42
17.99993620934186
 50
270.0
  0
INSERT
  5
253
330
DA
100
AcDbEntity
  8
0
 62
     2
100
AcDbBlockReference
  2
_OPEN30
 10
280.0412042597162
 20
-64.60625285418715
 30
0.0
 41
18.00001684569172
 42
17.99993620934186
 50
90.0
  0
LINE
  5
254
330
DA
100
AcDbEntity
  8
0
  6
Continuous
 62
     2
370
    13
100
AcDbLine
 10
214.0412042597162
 20
-104.6062528541871
 30
0.0
 11
283.0412042597162
 21
-104.6062528541871
 31
0.0
  0
LINE
  5
255
330
DA
100
AcDbEntity
  8
0
  6
Continuous
 62
     2
370
    13
100
AcDbLine
 10
211.0412042597162
 20
-64.60625285418715
 30
0.0
 11
283.0412042597162
 21
-64.60625285418715
 31
0.0
  0
MTEXT
  5
256
330
DA
100
AcDbEntity
  8
0
 62
     2
100
AcDbMText
 10
275.0412042597162
 20
-84.60625285418715
 30
0.0
 40
24.0
 41
60.0
 46
0.0
 71
     8
 72
     1
  1
\T1.00;40
  7
dcStyle0
 11
6.123233995736766E-17
 21
1.0
 31
0.0
 73
     1
 44
1.0
  0
ENDBLK
  5
DC
330
DA
100
AcDbEntity
  8
0
100
AcDbBlockEnd
  0
BLOCK
  5
DE
330
DD
100
AcDbEntity
  8
0
100
AcDbBlockBegin
  2
*D16
 70
     1
 10
0.0
 20
0.0
 30
0.0
  3
*D16
  1
*D16
  0
LINE
  5
257
330
DD
100
AcDbEntity
  8
0
  6
Continuous
 62
     2
370
    13
100
AcDbLine
 10
257.9638585369103
 20
-176.6062528541871
 30
0.0
 11
198.4604703105763
 21
-68.98199870777093
 31
0.0
  0
INSERT
  5
258
330
DD
100
AcDbEntity
  8
0
 62
     2
100
AcDbBlockReference
  2
_OPEN30
 10
198.4604703105763
 20
-68.98199870777093
 30
0.0
 41
18.00001684569172
 42
17.99993620934186
 50
118.93736515036
  0
LINE
  5
259
330
DD
100
AcDbEntity
  8
0
  6
Continuous
 62
     2
370
    13
100
AcDbLine
 10
330.4138585369103
 20
-176.6062528541871
 30
0.0
 11
257.9638585369103
 21
-176.6062528541871
 31
0.0
  0
MTEXT
  5
25A
330
DD
100
AcDbEntity
  8
0
 62
     2
100
AcDbMText
 10
258.4138585369103
 20
-170.6062528541871
 30
0.0
 40
24.0
 41
120.0
 46
0.0
 71
     7
 72
     1
  1
\T1.00;4-φ10
  7
dcStyle0
 73
     1
 44
1.0
  0
ENDBLK
  5
DF
330
DD
100
AcDbEntity
  8
0
100
AcDbBlockEnd
  0
BLOCK
  5
E1
330
E0
100
AcDbEntity
  8
0
100
AcDbBlockBegin
  2
DC_IMAGEDIMGROUP_1
 70
     0
 10
0.0
 20
0.0
 30
0.0
  3
DC_IMAGEDIMGROUP_1
  1
DC_IMAGEDIMGROUP_1
  0
LINE
  5
25B
330
E0
100
AcDbEntity
  8
0
  6
Continuous
 62
     2
370
    13
100
AcDbLine
 10
196.0412042597162
 20
-176.6062528541871
 30
0.0
 11
208.0412042597162
 21
-176.6062528541871
 31
0.0
  0
LINE
  5
25C
330
E0
100
AcDbEntity
  8
0
  6
Continuous
 62
     2
370
    13
100
AcDbLine
 10
196.0412042597162
 20
-79.60625285418715
 30
0.0
 11
196.0412042597162
 21
-179.6062528541871
 31
0.0
  0
LINE
  5
25D
330
E0
100
AcDbEntity
  8
0
  6
Continuous
 62
     2
370
    13
100
AcDbLine
 10
208.0412042597162
 20
-110.6062528541871
 30
0.0
 11
208.0412042597162
 21
-179.6062528541871
 31
0.0
  0
LINE
  5
25E
330
E0
100
AcDbEntity
  8
0
  6
Continuous
 62
     2
370
    13
100
AcDbLine
 10
164.8362042597162
 20
-176.6062528541871
 30
0.0
 11
196.0412042597162
 21
-176.6062528541871
 31
0.0
  0
INSERT
  5
25F
330
E0
100
AcDbEntity
  8
0
 62
     2
100
AcDbBlockReference
  2
_OPEN30
 10
196.0412042597162
 20
-176.6062528541871
 30
0.0
 41
18.00001684569172
 42
17.99993620934186
 50
360.0
  0
LINE
  5
260
330
E0
100
AcDbEntity
  8
0
  6
Continuous
 62
     2
370
    13
100
AcDbLine
 10
225.5412042597162
 20
-176.6062528541871
 30
0.0
 11
208.0412042597162
 21
-176.6062528541871
 31
0.0
  0
INSERT
  5
261
330
E0
100
AcDbEntity
  8
0
 62
     2
100
AcDbBlockReference
  2
_OPEN30
 10
208.0412042597162
 20
-176.6062528541871
 30
0.0
 41
18.00001684569172
 42
17.99993620934186
 50
180.0
  0
MTEXT
  5
262
330
E0
100
AcDbEntity
  8
0
 62
     2
100
AcDbMText
 10
188.8362042597162
 20
-171.6062528541871
 30
0.0
 40
24.0
 41
60.0
 46
0.0
 71
     9
 72
     1
  1
\T1.00;12
  7
dcStyle0
 73
     1
 44
1.0
  0
ENDBLK
  5
E2
330
E0
100
AcDbEntity
  8
0
100
AcDbBlockEnd
  0
BLOCK
  5
E4
330
E3
100
AcDbEntity
  8
0
100
AcDbBlockBegin
  2
*D18
 70
     1
 10
0.0
 20
0.0
 30
0.0
  3
*D18
  1
*D18
  0
LINE
  5
263
330
E3
100
AcDbEntity
  8
0
  6
Continuous
 62
     2
370
    13
100
AcDbLine
 10
-32.84972089826393
 20
-104.6062528541871
 30
0.0
 11
-32.84972089826393
 21
-54.60625285418714
 31
0.0
  0
LINE
  5
264
330
E3
100
AcDbEntity
  8
0
  6
Continuous
 62
     2
370
    13
100
AcDbLine
 10
31.4542773143846
 20
-54.60625285418715
 30
0.0
 11
-35.34972089826393
 21
-54.60625285418714
 31
0.0
  0
LINE
  5
265
330
E3
100
AcDbEntity
  8
0
  6
Continuous
 62
     2
370
    13
100
AcDbLine
 10
-32.84972089826393
 20
-135.8112528541872
 30
0.0
 11
-32.84972089826393
 21
-104.6062528541871
 31
0.0
  0
INSERT
  5
266
330
E3
100
AcDbEntity
  8
0
 62
     2
100
AcDbBlockReference
  2
_OPEN30
 10
-32.84972089826393
 20
-104.6062528541871
 30
0.0
 41
18.00001684569172
 42
17.99993620934186
 50
90.0
  0
LINE
  5
267
330
E3
100
AcDbEntity
  8
0
  6
Continuous
 62
     2
370
    13
100
AcDbLine
 10
-32.84972089826393
 20
-37.10625285418715
 30
0.0
 11
-32.84972089826393
 21
-54.60625285418714
 31
0.0
  0
INSERT
  5
268
330
E3
100
AcDbEntity
  8
0
 62
     2
100
AcDbBlockReference
  2
_OPEN30
 10
-32.84972089826393
 20
-54.60625285418714
 30
0.0
 41
18.00001684569172
 42
17.99993620934186
 50
270.0
  0
MTEXT
  5
269
330
E3
100
AcDbEntity
  8
0
 62
     2
100
AcDbMText
 10
-37.84972089826393
 20
-111.8112528541871
 30
0.0
 40
24.0
 41
60.00000000000001
 46
0.0
 71
     9
 72
     1
  1
\T1.00;50
  7
dcStyle0
 11
6.123233995736766E-17
 21
1.0
 31
0.0
 73
     1
 44
1.0
  0
ENDBLK
  5
E5
330
E3
100
AcDbEntity
  8
0
100
AcDbBlockEnd
  0
BLOCK
  5
E7
330
E6
100
AcDbEntity
  8
0
100
AcDbBlockBegin
  2
DC_GROUP_W_JR-5721_S_030_3
 70
     0
 10
0.0
 20
0.0
 30
0.0
  3
DC_GROUP_W_JR-5721_S_030_3
  1
DC_GROUP_W_JR-5721_S_030_3
  0
LINE
  5
26A
330
E6
100
AcDbEntity
  8
0
  6
Continuous
 62
     7
370
    18
100
AcDbLine
 10
6.54120425971621
 20
-104.6062528541871
 30
0.0
 11
56.54120425971621
 21
-104.6062528541871
 31
0.0
  0
ENDBLK
  5
E8
330
E6
100
AcDbEntity
  8
0
100
AcDbBlockEnd
  0
BLOCK
  5
EA
330
E9
100
AcDbEntity
  8
0
100
AcDbBlockBegin
  2
DC_GROUP_W_JR-5721_S_030_4
 70
     0
 10
0.0
 20
0.0
 30
0.0
  3
DC_GROUP_W_JR-5721_S_030_4
  1
DC_GROUP_W_JR-5721_S_030_4
  0
CIRCLE
  5
26B
330
E9
100
AcDbEntity
  8
0
  6
Continuous
 62
     7
370
    18
100
AcDbCircle
 10
-635.4587957402838
 20
-54.60625285418715
 30
0.0
 40
10.5
  0
LINE
  5
26C
330
E9
100
AcDbEntity
  8
0
  6
CENTER
 62
     3
370
    13
100
AcDbLine
 10
-635.4587957402838
 20
-36.90625285418733
 30
0.0
 11
-635.4587957402838
 21
-72.30625285418697
 31
0.0
  0
LINE
  5
26D
330
E9
100
AcDbEntity
  8
0
  6
CENTER
 62
     3
370
    13
100
AcDbLine
 10
-651.457318740284
 20
-54.60625285418715
 30
0.0
 11
-619.4602727402836
 21
-54.60625285418715
 31
0.0
  0
INSERT
  5
26E
330
E9
100
AcDbEntity
  8
0
  6
Continuous
100
AcDbBlockReference
  2
DC_GROUP_W_JR-5721_S_030_5
 10
0.0
 20
0.0
 30
0.0
  0
ENDBLK
  5
EB
330
E9
100
AcDbEntity
  8
0
100
AcDbBlockEnd
  0
BLOCK
  5
ED
330
EC
100
AcDbEntity
  8
0
100
AcDbBlockBegin
  2
DC_GROUP_W_JR-5721_S_030_5
 70
     0
 10
0.0
 20
0.0
 30
0.0
  3
DC_GROUP_W_JR-5721_S_030_5
  1
DC_GROUP_W_JR-5721_S_030_5
  0
LINE
  5
26F
330
EC
100
AcDbEntity
  8
0
  6
Continuous
 62
     7
370
    18
100
AcDbLine
 10
-635.4587957402838
 20
-41.90625285418733
 30
0.0
 11
-646.457318740284
 21
-48.25625285418678
 31
0.0
  0
LINE
  5
270
330
EC
100
AcDbEntity
  8
0
  6
Continuous
 62
     7
370
    18
100
AcDbLine
 10
-646.457318740284
 20
-48.25625285418678
 30
0.0
 11
-646.457318740284
 21
-60.95625285418751
 31
0.0
  0
LINE
  5
271
330
EC
100
AcDbEntity
  8
0
  6
Continuous
 62
     7
370
    18
100
AcDbLine
 10
-646.457318740284
 20
-60.95625285418751
 30
0.0
 11
-635.4587957402838
 21
-67.30625285418697
 31
0.0
  0
LINE
  5
272
330
EC
100
AcDbEntity
  8
0
  6
Continuous
 62
     7
370
    18
100
AcDbLine
 10
-635.4587957402838
 20
-67.30625285418697
 30
0.0
 11
-624.4602727402836
 21
-60.95625285418751
 31
0.0
  0
LINE
  5
273
330
EC
100
AcDbEntity
  8
0
  6
Continuous
 62
     7
370
    18
100
AcDbLine
 10
-624.4602727402836
 20
-60.95625285418751
 30
0.0
 11
-624.4602727402836
 21
-48.25625285418678
 31
0.0
  0
LINE
  5
274
330
EC
100
AcDbEntity
  8
0
  6
Continuous
 62
     7
370
    18
100
AcDbLine
 10
-624.4602727402836
 20
-48.25625285418678
 30
0.0
 11
-635.4587957402838
 21
-41.90625285418733
 31
0.0
  0
ENDBLK
  5
EE
330
EC
100
AcDbEntity
  8
0
100
AcDbBlockEnd
  0
BLOCK
  5
F0
330
EF
100
AcDbEntity
  8
0
100
AcDbBlockBegin
  2
DC_GROUP_W_JR-5721_S_030_6
 70
     0
 10
0.0
 20
0.0
 30
0.0
  3
DC_GROUP_W_JR-5721_S_030_6
  1
DC_GROUP_W_JR-5721_S_030_6
  0
CIRCLE
  5
275
330
EF
100
AcDbEntity
  8
0
  6
Continuous
 62
     7
370
    18
100
AcDbCircle
 10
-773.9587957402838
 20
-64.60625285418715
 30
0.0
 40
5.0
  0
LINE
  5
276
330
EF
100
AcDbEntity
  8
0
  6
CENTER
 62
     3
370
    13
100
AcDbLine
 10
-773.9587957402838
 20
-74.60625285418715
 30
0.0
 11
-773.9587957402838
 21
-54.60625285418715
 31
0.0
  0
LINE
  5
277
330
EF
100
AcDbEntity
  8
0
  6
CENTER
 62
     3
370
    13
100
AcDbLine
 10
-783.9587957402838
 20
-64.60625285418715
 30
0.0
 11
-763.9587957402838
 21
-64.60625285418715
 31
0.0
  0
ENDBLK
  5
F1
330
EF
100
AcDbEntity
  8
0
100
AcDbBlockEnd
  0
BLOCK
  5
F3
330
F2
100
AcDbEntity
  8
0
100
AcDbBlockBegin
  2
DC_GROUP_W_JR-5721_S_030_7
 70
     0
 10
0.0
 20
0.0
 30
0.0
  3
DC_GROUP_W_JR-5721_S_030_7
  1
DC_GROUP_W_JR-5721_S_030_7
  0
CIRCLE
  5
278
330
F2
100
AcDbEntity
  8
0
  6
Continuous
 62
     7
370
    18
100
AcDbCircle
 10
57.54120425971621
 20
-54.60625285418715
 30
0.0
 40
10.5
  0
LINE
  5
279
330
F2
100
AcDbEntity
  8
0
  6
CENTER
 62
     3
370
    13
100
AcDbLine
 10
57.54120425971621
 20
-36.90625285418733
 30
0.0
 11
57.54120425971621
 21
-72.30625285418697
 31
0.0
  0
LINE
  5
27A
330
F2
100
AcDbEntity
  8
0
  6
CENTER
 62
     3
370
    13
100
AcDbLine
 10
41.54268125971601
 20
-54.60625285418715
 30
0.0
 11
73.53972725971641
 21
-54.60625285418715
 31
0.0
  0
INSERT
  5
27B
330
F2
100
AcDbEntity
  8
0
  6
Continuous
100
AcDbBlockReference
  2
DC_GROUP_W_JR-5721_S_030_8
 10
0.0
 20
0.0
 30
0.0
  0
ENDBLK
  5
F4
330
F2
100
AcDbEntity
  8
0
100
AcDbBlockEnd
  0
BLOCK
  5
F6
330
F5
100
AcDbEntity
  8
0
100
AcDbBlockBegin
  2
DC_GROUP_W_JR-5721_S_030_8
 70
     0
 10
0.0
 20
0.0
 30
0.0
  3
DC_GROUP_W_JR-5721_S_030_8
  1
DC_GROUP_W_JR-5721_S_030_8
  0
LINE
  5
27C
330
F5
100
AcDbEntity
  8
0
  6
Continuous
 62
     7
370
    18
100
AcDbLine
 10
57.54120425971621
 20
-41.90625285418733
 30
0.0
 11
46.54268125971601
 21
-48.25625285418678
 31
0.0
  0
LINE
  5
27D
330
F5
100
AcDbEntity
  8
0
  6
Continuous
 62
     7
370
    18
100
AcDbLine
 10
46.54268125971601
 20
-48.25625285418678
 30
0.0
 11
46.54268125971601
 21
-60.95625285418751
 31
0.0
  0
LINE
  5
27E
330
F5
100
AcDbEntity
  8
0
  6
Continuous
 62
     7
370
    18
100
AcDbLine
 10
46.54268125971601
 20
-60.95625285418751
 30
0.0
 11
57.54120425971621
 21
-67.30625285418697
 31
0.0
  0
LINE
  5
27F
330
F5
100
AcDbEntity
  8
0
  6
Continuous
 62
     7
370
    18
100
AcDbLine
 10
57.54120425971621
 20
-67.30625285418697
 30
0.0
 11
68.53972725971641
 21
-60.95625285418751
 31
0.0
  0
LINE
  5
280
330
F5
100
AcDbEntity
  8
0
  6
Continuous
 62
     7
370
    18
100
AcDbLine
 10
68.53972725971641
 20
-60.95625285418751
 30
0.0
 11
68.53972725971641
 21
-48.25625285418678
 31
0.0
  0
LINE
  5
281
330
F5
100
AcDbEntity
  8
0
  6
Continuous
 62
     7
370
    18
100
AcDbLine
 10
68.53972725971641
 20
-48.25625285418678
 30
0.0
 11
57.54120425971621
 21
-41.90625285418733
 31
0.0
  0
ENDBLK
  5
F7
330
F5
100
AcDbEntity
  8
0
100
AcDbBlockEnd
  0
BLOCK
  5
F9
330
F8
100
AcDbEntity
  8
0
100
AcDbBlockBegin
  2
DC_GROUP_W_JR-5721_S_030_9
 70
     0
 10
0.0
 20
0.0
 30
0.0
  3
DC_GROUP_W_JR-5721_S_030_9
  1
DC_GROUP_W_JR-5721_S_030_9
  0
CIRCLE
  5
282
330
F8
100
AcDbEntity
  8
0
  6
Continuous
 62
     7
370
    18
100
AcDbCircle
 10
196.0412042597162
 20
-64.60625285418715
 30
0.0
 40
5.0
  0
LINE
  5
283
330
F8
100
AcDbEntity
  8
0
  6
CENTER
 62
     3
370
    13
100
AcDbLine
 10
196.0412042597162
 20
-74.60625285418715
 30
0.0
 11
196.0412042597162
 21
-54.60625285418715
 31
0.0
  0
LINE
  5
284
330
F8
100
AcDbEntity
  8
0
  6
CENTER
 62
     3
370
    13
100
AcDbLine
 10
206.0412042597162
 20
-64.60625285418715
 30
0.0
 11
186.0412042597162
 21
-64.60625285418715
 31
0.0
  0
ENDBLK
  5
FA
330
F8
100
AcDbEntity
  8
0
100
AcDbBlockEnd
  0
BLOCK
  5
FC
330
FB
100
AcDbEntity
  8
0
100
AcDbBlockBegin
  2
*D26
 70
     1
 10
0.0
 20
0.0
 30
0.0
  3
*D26
  1
*D26
  0
LINE
  5
285
330
FB
100
AcDbEntity
  8
0
  6
Continuous
 62
     2
370
    13
100
AcDbLine
 10
-750.9587957402838
 20
62.29374714581249
 30
0.0
 11
-596.9587957402838
 21
62.29374714581249
 31
0.0
  0
INSERT
  5
286
330
FB
100
AcDbEntity
  8
0
 62
     2
100
AcDbBlockReference
  2
_OPEN30
 10
-750.9587957402838
 20
62.29374714581249
 30
0.0
 41
18.00001684569172
 42
17.99993620934186
 50
180.0
  0
INSERT
  5
287
330
FB
100
AcDbEntity
  8
0
 62
     2
100
AcDbBlockReference
  2
_OPEN30
 10
-596.9587957402838
 20
62.29374714581249
 30
0.0
 41
18.00001684569172
 42
17.99993620934186
 50
360.0
  0
LINE
  5
288
330
FB
100
AcDbEntity
  8
0
  6
Continuous
 62
     2
370
    13
100
AcDbLine
 10
-750.9587957402838
 20
8.993747145813217
 30
0.0
 11
-750.9587957402838
 21
64.79374714581249
 31
0.0
  0
LINE
  5
289
330
FB
100
AcDbEntity
  8
0
  6
Continuous
 62
     2
370
    13
100
AcDbLine
 10
-596.9587957402838
 20
8.993747145813217
 30
0.0
 11
-596.9587957402838
 21
64.79374714581249
 31
0.0
  0
MTEXT
  5
28A
330
FB
100
AcDbEntity
  8
0
 62
     2
100
AcDbMText
 10
-673.9587957402838
 20
67.29374714581249
 30
0.0
 40
24.0
 41
45.0
 46
0.0
 71
     8
 72
     1
  1
\T1.00;P
  7
dcStyle0
 73
     1
 44
1.0
  0
ENDBLK
  5
FD
330
FB
100
AcDbEntity
  8
0
100
AcDbBlockEnd
  0
BLOCK
  5
FF
330
FE
100
AcDbEntity
  8
0
100
AcDbBlockBegin
  2
DC_GROUP_W_JR-5721_S_030_10
 70
     0
 10
0.0
 20
0.0
 30
0.0
  3
DC_GROUP_W_JR-5721_S_030_10
  1
DC_GROUP_W_JR-5721_S_030_10
  0
LINE
  5
28B
330
FE
100
AcDbEntity
  8
2
  6
CENTER
 62
     3
370
    13
100
AcDbLine
 10
-750.9587957402838
 20
3.043747145812489
 30
0.0
 11
-750.9587957402838
 21
-69.25625285418678
 31
0.0
  0
INSERT
  5
28C
330
FE
100
AcDbEntity
  8
2
  6
Continuous
100
AcDbBlockReference
  2
DC_GROUP_W_JR-5721_S_030_11
 10
0.0
 20
0.0
 30
0.0
  0
ARC
  5
28D
330
FE
100
AcDbEntity
  8
2
  6
DASHED2
 62
     4
370
    13
100
AcDbCircle
 10
-750.9587957402838
 20
-33.10625285418715
 30
0.0
 40
28.6
100
AcDbArc
 50
139.6952393339542
 51
40.30476066604574
  0
ARC
  5
28E
330
FE
100
AcDbEntity
  8
2
  6
Continuous
 62
     7
370
    18
100
AcDbCircle
 10
-750.9587957402838
 20
-33.10625285418715
 30
0.0
 40
28.6
100
AcDbArc
 50
40.30476066604577
 51
139.6952393339542
  0
ENDBLK
  5
100
330
FE
100
AcDbEntity
  8
0
100
AcDbBlockEnd
  0
BLOCK
  5
102
330
101
100
AcDbEntity
  8
0
100
AcDbBlockBegin
  2
DC_GROUP_W_JR-5721_S_030_11
 70
     0
 10
0.0
 20
0.0
 30
0.0
  3
DC_GROUP_W_JR-5721_S_030_11
  1
DC_GROUP_W_JR-5721_S_030_11
  0
LINE
  5
28F
330
101
100
AcDbEntity
  8
2
  6
Continuous
 62
     7
370
    18
100
AcDbLine
 10
-755.6302517402838
 20
-29.10625285418715
 30
0.0
 11
-746.2873397402838
 21
-29.10625285418715
 31
0.0
  0
ARC
  5
290
330
101
100
AcDbEntity
  8
2
  6
Continuous
 62
     7
370
    18
100
AcDbCircle
 10
-750.9587957402838
 20
-33.10625285418715
 30
0.0
 40
6.15
100
AcDbArc
 50
139.4277419999989
 51
40.57225800000106
  0
ENDBLK
  5
103
330
101
100
AcDbEntity
  8
0
100
AcDbBlockEnd
  0
BLOCK
  5
105
330
104
100
AcDbEntity
  8
0
100
AcDbBlockBegin
  2
DC_GROUP_W_JR-5721_S_030_12
 70
     0
 10
0.0
 20
0.0
 30
0.0
  3
DC_GROUP_W_JR-5721_S_030_12
  1
DC_GROUP_W_JR-5721_S_030_12
  0
LINE
  5
291
330
104
100
AcDbEntity
  8
2
  6
CENTER
 62
     3
370
    13
100
AcDbLine
 10
-712.4587957402838
 20
-21.95625285418751
 30
0.0
 11
-712.4587957402838
 21
-44.25625285418678
 31
0.0
  0
INSERT
  5
292
330
104
100
AcDbEntity
  8
2
  6
Continuous
100
AcDbBlockReference
  2
DC_GROUP_W_JR-5721_S_030_13
 10
0.0
 20
0.0
 30
0.0
  0
ENDBLK
  5
106
330
104
100
AcDbEntity
  8
0
100
AcDbBlockEnd
  0
BLOCK
  5
108
330
107
100
AcDbEntity
  8
0
100
AcDbBlockBegin
  2
DC_GROUP_W_JR-5721_S_030_13
 70
     0
 10
0.0
 20
0.0
 30
0.0
  3
DC_GROUP_W_JR-5721_S_030_13
  1
DC_GROUP_W_JR-5721_S_030_13
  0
LINE
  5
293
330
107
100
AcDbEntity
  8
2
  6
Continuous
 62
     7
370
    18
100
AcDbLine
 10
-707.7873397402838
 20
-29.10625285418715
 30
0.0
 11
-717.1302517402838
 21
-29.10625285418715
 31
0.0
  0
ARC
  5
294
330
107
100
AcDbEntity
  8
2
  6
Continuous
 62
     7
370
    18
100
AcDbCircle
 10
-712.4587957402838
 20
-33.10625285418715
 30
0.0
 40
6.15
100
AcDbArc
 50
139.4277419999989
 51
40.57225800000106
  0
ENDBLK
  5
109
330
107
100
AcDbEntity
  8
0
100
AcDbBlockEnd
  0
BLOCK
  5
10B
330
10A
100
AcDbEntity
  8
0
100
AcDbBlockBegin
  2
DC_GROUP_W_JR-5721_S_030_14
 70
     0
 10
0.0
 20
0.0
 30
0.0
  3
DC_GROUP_W_JR-5721_S_030_14
  1
DC_GROUP_W_JR-5721_S_030_14
  0
LINE
  5
295
330
10A
100
AcDbEntity
  8
2
  6
CENTER
 62
     3
370
    13
100
AcDbLine
 10
-635.4587957402838
 20
-21.95625285418751
 30
0.0
 11
-635.4587957402838
 21
-44.25625285418678
 31
0.0
  0
INSERT
  5
296
330
10A
100
AcDbEntity
  8
2
  6
Continuous
100
AcDbBlockReference
  2
DC_GROUP_W_JR-5721_S_030_15
 10
0.0
 20
0.0
 30
0.0
  0
ENDBLK
  5
10C
330
10A
100
AcDbEntity
  8
0
100
AcDbBlockEnd
  0
BLOCK
  5
10E
330
10D
100
AcDbEntity
  8
0
100
AcDbBlockBegin
  2
DC_GROUP_W_JR-5721_S_030_15
 70
     0
 10
0.0
 20
0.0
 30
0.0
  3
DC_GROUP_W_JR-5721_S_030_15
  1
DC_GROUP_W_JR-5721_S_030_15
  0
LINE
  5
297
330
10D
100
AcDbEntity
  8
2
  6
Continuous
 62
     7
370
    18
100
AcDbLine
 10
-630.7873397402838
 20
-29.10625285418715
 30
0.0
 11
-640.1302517402838
 21
-29.10625285418715
 31
0.0
  0
ARC
  5
298
330
10D
100
AcDbEntity
  8
2
  6
Continuous
 62
     7
370
    18
100
AcDbCircle
 10
-635.4587957402838
 20
-33.10625285418715
 30
0.0
 40
6.15
100
AcDbArc
 50
139.4277419999989
 51
40.57225800000106
  0
ENDBLK
  5
10F
330
10D
100
AcDbEntity
  8
0
100
AcDbBlockEnd
  0
BLOCK
  5
111
330
110
100
AcDbEntity
  8
0
100
AcDbBlockBegin
  2
DC_GROUP_W_JR-5721_S_030_16
 70
     0
 10
0.0
 20
0.0
 30
0.0
  3
DC_GROUP_W_JR-5721_S_030_16
  1
DC_GROUP_W_JR-5721_S_030_16
  0
LINE
  5
299
330
110
100
AcDbEntity
  8
2
  6
CENTER
 62
     3
370
    13
100
AcDbLine
 10
-596.9587957402838
 20
3.043747145812489
 30
0.0
 11
-596.9587957402838
 21
-69.25625285418678
 31
0.0
  0
INSERT
  5
29A
330
110
100
AcDbEntity
  8
2
  6
Continuous
100
AcDbBlockReference
  2
DC_GROUP_W_JR-5721_S_030_17
 10
0.0
 20
0.0
 30
0.0
  0
ARC
  5
29B
330
110
100
AcDbEntity
  8
2
  6
DASHED2
 62
     4
370
    13
100
AcDbCircle
 10
-596.9587957402838
 20
-33.10625285418715
 30
0.0
 40
28.6
100
AcDbArc
 50
139.6952393339542
 51
40.30476066604574
  0
ARC
  5
29C
330
110
100
AcDbEntity
  8
2
  6
Continuous
 62
     7
370
    18
100
AcDbCircle
 10
-596.9587957402838
 20
-33.10625285418715
 30
0.0
 40
28.6
100
AcDbArc
 50
40.30476066604577
 51
139.6952393339542
  0
ENDBLK
  5
112
330
110
100
AcDbEntity
  8
0
100
AcDbBlockEnd
  0
BLOCK
  5
114
330
113
100
AcDbEntity
  8
0
100
AcDbBlockBegin
  2
DC_GROUP_W_JR-5721_S_030_17
 70
     0
 10
0.0
 20
0.0
 30
0.0
  3
DC_GROUP_W_JR-5721_S_030_17
  1
DC_GROUP_W_JR-5721_S_030_17
  0
LINE
  5
29D
330
113
100
AcDbEntity
  8
2
  6
Continuous
 62
     7
370
    18
100
AcDbLine
 10
-601.6302517402838
 20
-29.10625285418715
 30
0.0
 11
-592.2873397402838
 21
-29.10625285418715
 31
0.0
  0
ARC
  5
29E
330
113
100
AcDbEntity
  8
2
  6
Continuous
 62
     7
370
    18
100
AcDbCircle
 10
-596.9587957402838
 20
-33.10625285418715
 30
0.0
 40
6.15
100
AcDbArc
 50
139.4277419999989
 51
40.57225800000106
  0
ENDBLK
  5
115
330
113
100
AcDbEntity
  8
0
100
AcDbBlockEnd
  0
BLOCK
  5
117
330
116
100
AcDbEntity
  8
0
100
AcDbBlockBegin
  2
DC_GROUP_W_JR-5721_S_030_18
 70
     0
 10
0.0
 20
0.0
 30
0.0
  3
DC_GROUP_W_JR-5721_S_030_18
  1
DC_GROUP_W_JR-5721_S_030_18
  0
LINE
  5
29F
330
116
100
AcDbEntity
  8
2
  6
CENTER
 62
     3
370
    13
100
AcDbLine
 10
-558.4587957402838
 20
-21.95625285418751
 30
0.0
 11
-558.4587957402838
 21
-44.25625285418678
 31
0.0
  0
INSERT
  5
2A0
330
116
100
AcDbEntity
  8
2
  6
Continuous
100
AcDbBlockReference
  2
DC_GROUP_W_JR-5721_S_030_19
 10
0.0
 20
0.0
 30
0.0
  0
ENDBLK
  5
118
330
116
100
AcDbEntity
  8
0
100
AcDbBlockEnd
  0
BLOCK
  5
11A
330
119
100
AcDbEntity
  8
0
100
AcDbBlockBegin
  2
DC_GROUP_W_JR-5721_S_030_19
 70
     0
 10
0.0
 20
0.0
 30
0.0
  3
DC_GROUP_W_JR-5721_S_030_19
  1
DC_GROUP_W_JR-5721_S_030_19
  0
LINE
  5
2A1
330
119
100
AcDbEntity
  8
2
  6
Continuous
 62
     7
370
    18
100
AcDbLine
 10
-553.7873397402838
 20
-29.10625285418715
 30
0.0
 11
-563.1302517402838
 21
-29.10625285418715
 31
0.0
  0
ARC
  5
2A2
330
119
100
AcDbEntity
  8
2
  6
Continuous
 62
     7
370
    18
100
AcDbCircle
 10
-558.4587957402838
 20
-33.10625285418715
 30
0.0
 40
6.15
100
AcDbArc
 50
139.4277419999989
 51
40.57225800000106
  0
ENDBLK
  5
11B
330
119
100
AcDbEntity
  8
0
100
AcDbBlockEnd
  0
BLOCK
  5
11D
330
11C
100
AcDbEntity
  8
0
100
AcDbBlockBegin
  2
DC_GROUP_W_JR-5721_S_030_20
 70
     0
 10
0.0
 20
0.0
 30
0.0
  3
DC_GROUP_W_JR-5721_S_030_20
  1
DC_GROUP_W_JR-5721_S_030_20
  0
LINE
  5
2A3
330
11C
100
AcDbEntity
  8
2
  6
CENTER
 62
     3
370
    13
100
AcDbLine
 10
-481.4587957402838
 20
-21.95625285418751
 30
0.0
 11
-481.4587957402838
 21
-44.25625285418678
 31
0.0
  0
INSERT
  5
2A4
330
11C
100
AcDbEntity
  8
2
  6
Continuous
100
AcDbBlockReference
  2
DC_GROUP_W_JR-5721_S_030_21
 10
0.0
 20
0.0
 30
0.0
  0
ENDBLK
  5
11E
330
11C
100
AcDbEntity
  8
0
100
AcDbBlockEnd
  0
BLOCK
  5
120
330
11F
100
AcDbEntity
  8
0
100
AcDbBlockBegin
  2
DC_GROUP_W_JR-5721_S_030_21
 70
     0
 10
0.0
 20
0.0
 30
0.0
  3
DC_GROUP_W_JR-5721_S_030_21
  1
DC_GROUP_W_JR-5721_S_030_21
  0
LINE
  5
2A5
330
11F
100
AcDbEntity
  8
2
  6
Continuous
 62
     7
370
    18
100
AcDbLine
 10
-476.7873397402838
 20
-29.10625285418715
 30
0.0
 11
-486.1302517402838
 21
-29.10625285418715
 31
0.0
  0
ARC
  5
2A6
330
11F
100
AcDbEntity
  8
2
  6
Continuous
 62
     7
370
    18
100
AcDbCircle
 10
-481.4587957402838
 20
-33.10625285418715
 30
0.0
 40
6.15
100
AcDbArc
 50
139.4277419999989
 51
40.57225800000106
  0
ENDBLK
  5
121
330
11F
100
AcDbEntity
  8
0
100
AcDbBlockEnd
  0
BLOCK
  5
123
330
122
100
AcDbEntity
  8
0
100
AcDbBlockBegin
  2
DC_GROUP_W_JR-5721_S_030_22
 70
     0
 10
0.0
 20
0.0
 30
0.0
  3
DC_GROUP_W_JR-5721_S_030_22
  1
DC_GROUP_W_JR-5721_S_030_22
  0
LINE
  5
2A7
330
122
100
AcDbEntity
  8
2
  6
CENTER
 62
     3
370
    13
100
AcDbLine
 10
-442.9587957402838
 20
3.043747145812489
 30
0.0
 11
-442.9587957402838
 21
-69.25625285418678
 31
0.0
  0
INSERT
  5
2A8
330
122
100
AcDbEntity
  8
2
  6
Continuous
100
AcDbBlockReference
  2
DC_GROUP_W_JR-5721_S_030_23
 10
0.0
 20
0.0
 30
0.0
  0
ARC
  5
2A9
330
122
100
AcDbEntity
  8
2
  6
DASHED2
 62
     4
370
    13
100
AcDbCircle
 10
-442.9587957402838
 20
-33.10625285418715
 30
0.0
 40
28.6
100
AcDbArc
 50
139.6952393339542
 51
40.30476066604574
  0
ARC
  5
2AA
330
122
100
AcDbEntity
  8
2
  6
Continuous
 62
     7
370
    18
100
AcDbCircle
 10
-442.9587957402838
 20
-33.10625285418715
 30
0.0
 40
28.6
100
AcDbArc
 50
40.30476066604577
 51
139.6952393339542
  0
ENDBLK
  5
124
330
122
100
AcDbEntity
  8
0
100
AcDbBlockEnd
  0
BLOCK
  5
126
330
125
100
AcDbEntity
  8
0
100
AcDbBlockBegin
  2
DC_GROUP_W_JR-5721_S_030_23
 70
     0
 10
0.0
 20
0.0
 30
0.0
  3
DC_GROUP_W_JR-5721_S_030_23
  1
DC_GROUP_W_JR-5721_S_030_23
  0
LINE
  5
2AB
330
125
100
AcDbEntity
  8
2
  6
Continuous
 62
     7
370
    18
100
AcDbLine
 10
-447.6302517402838
 20
-29.10625285418715
 30
0.0
 11
-438.2873397402838
 21
-29.10625285418715
 31
0.0
  0
ARC
  5
2AC
330
125
100
AcDbEntity
  8
2
  6
Continuous
 62
     7
370
    18
100
AcDbCircle
 10
-442.9587957402838
 20
-33.10625285418715
 30
0.0
 40
6.15
100
AcDbArc
 50
139.4277419999989
 51
40.57225800000106
  0
ENDBLK
  5
127
330
125
100
AcDbEntity
  8
0
100
AcDbBlockEnd
  0
BLOCK
  5
129
330
128
100
AcDbEntity
  8
0
100
AcDbBlockBegin
  2
DC_GROUP_W_JR-5721_S_030_24
 70
     0
 10
0.0
 20
0.0
 30
0.0
  3
DC_GROUP_W_JR-5721_S_030_24
  1
DC_GROUP_W_JR-5721_S_030_24
  0
LINE
  5
2AD
330
128
100
AcDbEntity
  8
2
  6
CENTER
 62
     3
370
    13
100
AcDbLine
 10
-404.4587957402838
 20
-21.95625285418751
 30
0.0
 11
-404.4587957402838
 21
-44.25625285418678
 31
0.0
  0
INSERT
  5
2AE
330
128
100
AcDbEntity
  8
2
  6
Continuous
100
AcDbBlockReference
  2
DC_GROUP_W_JR-5721_S_030_25
 10
0.0
 20
0.0
 30
0.0
  0
ENDBLK
  5
12A
330
128
100
AcDbEntity
  8
0
100
AcDbBlockEnd
  0
BLOCK
  5
12C
330
12B
100
AcDbEntity
  8
0
100
AcDbBlockBegin
  2
DC_GROUP_W_JR-5721_S_030_25
 70
     0
 10
0.0
 20
0.0
 30
0.0
  3
DC_GROUP_W_JR-5721_S_030_25
  1
DC_GROUP_W_JR-5721_S_030_25
  0
LINE
  5
2AF
330
12B
100
AcDbEntity
  8
2
  6
Continuous
 62
     7
370
    18
100
AcDbLine
 10
-399.7873397402838
 20
-29.10625285418715
 30
0.0
 11
-409.1302517402838
 21
-29.10625285418715
 31
0.0
  0
ARC
  5
2B0
330
12B
100
AcDbEntity
  8
2
  6
Continuous
 62
     7
370
    18
100
AcDbCircle
 10
-404.4587957402838
 20
-33.10625285418715
 30
0.0
 40
6.15
100
AcDbArc
 50
139.4277419999989
 51
40.57225800000106
  0
ENDBLK
  5
12D
330
12B
100
AcDbEntity
  8
0
100
AcDbBlockEnd
  0
BLOCK
  5
12F
330
12E
100
AcDbEntity
  8
0
100
AcDbBlockBegin
  2
DC_GROUP_W_JR-5721_S_030_26
 70
     0
 10
0.0
 20
0.0
 30
0.0
  3
DC_GROUP_W_JR-5721_S_030_26
  1
DC_GROUP_W_JR-5721_S_030_26
  0
LINE
  5
2B1
330
12E
100
AcDbEntity
  8
2
  6
CENTER
 62
     3
370
    13
100
AcDbLine
 10
-327.4587957402838
 20
-21.95625285418751
 30
0.0
 11
-327.4587957402838
 21
-44.25625285418678
 31
0.0
  0
INSERT
  5
2B2
330
12E
100
AcDbEntity
  8
2
  6
Continuous
100
AcDbBlockReference
  2
DC_GROUP_W_JR-5721_S_030_27
 10
0.0
 20
0.0
 30
0.0
  0
ENDBLK
  5
130
330
12E
100
AcDbEntity
  8
0
100
AcDbBlockEnd
  0
BLOCK
  5
132
330
131
100
AcDbEntity
  8
0
100
AcDbBlockBegin
  2
DC_GROUP_W_JR-5721_S_030_27
 70
     0
 10
0.0
 20
0.0
 30
0.0
  3
DC_GROUP_W_JR-5721_S_030_27
  1
DC_GROUP_W_JR-5721_S_030_27
  0
LINE
  5
2B3
330
131
100
AcDbEntity
  8
2
  6
Continuous
 62
     7
370
    18
100
AcDbLine
 10
-322.7873397402838
 20
-29.10625285418715
 30
0.0
 11
-332.1302517402838
 21
-29.10625285418715
 31
0.0
  0
ARC
  5
2B4
330
131
100
AcDbEntity
  8
2
  6
Continuous
 62
     7
370
    18
100
AcDbCircle
 10
-327.4587957402838
 20
-33.10625285418715
 30
0.0
 40
6.15
100
AcDbArc
 50
139.4277419999989
 51
40.57225800000106
  0
ENDBLK
  5
133
330
131
100
AcDbEntity
  8
0
100
AcDbBlockEnd
  0
BLOCK
  5
135
330
134
100
AcDbEntity
  8
0
100
AcDbBlockBegin
  2
DC_GROUP_W_JR-5721_S_030_28
 70
     0
 10
0.0
 20
0.0
 30
0.0
  3
DC_GROUP_W_JR-5721_S_030_28
  1
DC_GROUP_W_JR-5721_S_030_28
  0
LINE
  5
2B5
330
134
100
AcDbEntity
  8
2
  6
CENTER
 62
     3
370
    13
100
AcDbLine
 10
-288.9587957402838
 20
3.043747145812489
 30
0.0
 11
-288.9587957402838
 21
-69.25625285418678
 31
0.0
  0
INSERT
  5
2B6
330
134
100
AcDbEntity
  8
2
  6
Continuous
100
AcDbBlockReference
  2
DC_GROUP_W_JR-5721_S_030_29
 10
0.0
 20
0.0
 30
0.0
  0
ARC
  5
2B7
330
134
100
AcDbEntity
  8
2
  6
DASHED2
 62
     4
370
    13
100
AcDbCircle
 10
-288.9587957402838
 20
-33.10625285418715
 30
0.0
 40
28.6
100
AcDbArc
 50
139.6952393339542
 51
40.30476066604574
  0
ARC
  5
2B8
330
134
100
AcDbEntity
  8
2
  6
Continuous
 62
     7
370
    18
100
AcDbCircle
 10
-288.9587957402838
 20
-33.10625285418715
 30
0.0
 40
28.6
100
AcDbArc
 50
40.30476066604577
 51
139.6952393339542
  0
ENDBLK
  5
136
330
134
100
AcDbEntity
  8
0
100
AcDbBlockEnd
  0
BLOCK
  5
138
330
137
100
AcDbEntity
  8
0
100
AcDbBlockBegin
  2
DC_GROUP_W_JR-5721_S_030_29
 70
     0
 10
0.0
 20
0.0
 30
0.0
  3
DC_GROUP_W_JR-5721_S_030_29
  1
DC_GROUP_W_JR-5721_S_030_29
  0
LINE
  5
2B9
330
137
100
AcDbEntity
  8
2
  6
Continuous
 62
     7
370
    18
100
AcDbLine
 10
-293.6302517402838
 20
-29.10625285418715
 30
0.0
 11
-284.2873397402838
 21
-29.10625285418715
 31
0.0
  0
ARC
  5
2BA
330
137
100
AcDbEntity
  8
2
  6
Continuous
 62
     7
370
    18
100
AcDbCircle
 10
-288.9587957402838
 20
-33.10625285418715
 30
0.0
 40
6.15
100
AcDbArc
 50
139.4277419999989
 51
40.57225800000106
  0
ENDBLK
  5
139
330
137
100
AcDbEntity
  8
0
100
AcDbBlockEnd
  0
BLOCK
  5
13B
330
13A
100
AcDbEntity
  8
0
100
AcDbBlockBegin
  2
DC_GROUP_W_JR-5721_S_030_30
 70
     0
 10
0.0
 20
0.0
 30
0.0
  3
DC_GROUP_W_JR-5721_S_030_30
  1
DC_GROUP_W_JR-5721_S_030_30
  0
LINE
  5
2BB
330
13A
100
AcDbEntity
  8
2
  6
CENTER
 62
     3
370
    13
100
AcDbLine
 10
-250.4587957402838
 20
-21.95625285418751
 30
0.0
 11
-250.4587957402838
 21
-44.25625285418678
 31
0.0
  0
INSERT
  5
2BC
330
13A
100
AcDbEntity
  8
2
  6
Continuous
100
AcDbBlockReference
  2
DC_GROUP_W_JR-5721_S_030_31
 10
0.0
 20
0.0
 30
0.0
  0
ENDBLK
  5
13C
330
13A
100
AcDbEntity
  8
0
100
AcDbBlockEnd
  0
BLOCK
  5
13E
330
13D
100
AcDbEntity
  8
0
100
AcDbBlockBegin
  2
DC_GROUP_W_JR-5721_S_030_31
 70
     0
 10
0.0
 20
0.0
 30
0.0
  3
DC_GROUP_W_JR-5721_S_030_31
  1
DC_GROUP_W_JR-5721_S_030_31
  0
LINE
  5
2BD
330
13D
100
AcDbEntity
  8
2
  6
Continuous
 62
     7
370
    18
100
AcDbLine
 10
-245.7873397402838
 20
-29.10625285418715
 30
0.0
 11
-255.1302517402838
 21
-29.10625285418715
 31
0.0
  0
ARC
  5
2BE
330
13D
100
AcDbEntity
  8
2
  6
Continuous
 62
     7
370
    18
100
AcDbCircle
 10
-250.4587957402838
 20
-33.10625285418715
 30
0.0
 40
6.15
100
AcDbArc
 50
139.4277419999989
 51
40.57225800000106
  0
ENDBLK
  5
13F
330
13D
100
AcDbEntity
  8
0
100
AcDbBlockEnd
  0
BLOCK
  5
141
330
140
100
AcDbEntity
  8
0
100
AcDbBlockBegin
  2
DC_GROUP_W_JR-5721_S_030_32
 70
     0
 10
0.0
 20
0.0
 30
0.0
  3
DC_GROUP_W_JR-5721_S_030_32
  1
DC_GROUP_W_JR-5721_S_030_32
  0
LINE
  5
2BF
330
140
100
AcDbEntity
  8
2
  6
CENTER
 62
     3
370
    13
100
AcDbLine
 10
-173.4587957402838
 20
-21.95625285418751
 30
0.0
 11
-173.4587957402838
 21
-44.25625285418678
 31
0.0
  0
INSERT
  5
2C0
330
140
100
AcDbEntity
  8
2
  6
Continuous
100
AcDbBlockReference
  2
DC_GROUP_W_JR-5721_S_030_33
 10
0.0
 20
0.0
 30
0.0
  0
ENDBLK
  5
142
330
140
100
AcDbEntity
  8
0
100
AcDbBlockEnd
  0
BLOCK
  5
144
330
143
100
AcDbEntity
  8
0
100
AcDbBlockBegin
  2
DC_GROUP_W_JR-5721_S_030_33
 70
     0
 10
0.0
 20
0.0
 30
0.0
  3
DC_GROUP_W_JR-5721_S_030_33
  1
DC_GROUP_W_JR-5721_S_030_33
  0
LINE
  5
2C1
330
143
100
AcDbEntity
  8
2
  6
Continuous
 62
     7
370
    18
100
AcDbLine
 10
-168.7873397402838
 20
-29.10625285418715
 30
0.0
 11
-178.1302517402838
 21
-29.10625285418715
 31
0.0
  0
ARC
  5
2C2
330
143
100
AcDbEntity
  8
2
  6
Continuous
 62
     7
370
    18
100
AcDbCircle
 10
-173.4587957402838
 20
-33.10625285418715
 30
0.0
 40
6.15
100
AcDbArc
 50
139.4277419999989
 51
40.57225800000106
  0
ENDBLK
  5
145
330
143
100
AcDbEntity
  8
0
100
AcDbBlockEnd
  0
BLOCK
  5
147
330
146
100
AcDbEntity
  8
0
100
AcDbBlockBegin
  2
DC_GROUP_W_JR-5721_S_030_34
 70
     0
 10
0.0
 20
0.0
 30
0.0
  3
DC_GROUP_W_JR-5721_S_030_34
  1
DC_GROUP_W_JR-5721_S_030_34
  0
LINE
  5
2C3
330
146
100
AcDbEntity
  8
2
  6
CENTER
 62
     3
370
    13
100
AcDbLine
 10
-134.9587957402838
 20
3.043747145812489
 30
0.0
 11
-134.9587957402838
 21
-69.25625285418678
 31
0.0
  0
INSERT
  5
2C4
330
146
100
AcDbEntity
  8
2
  6
Continuous
100
AcDbBlockReference
  2
DC_GROUP_W_JR-5721_S_030_35
 10
0.0
 20
0.0
 30
0.0
  0
ARC
  5
2C5
330
146
100
AcDbEntity
  8
2
  6
DASHED2
 62
     4
370
    13
100
AcDbCircle
 10
-134.9587957402838
 20
-33.10625285418715
 30
0.0
 40
28.6
100
AcDbArc
 50
139.6952393339542
 51
40.30476066604574
  0
ARC
  5
2C6
330
146
100
AcDbEntity
  8
2
  6
Continuous
 62
     7
370
    18
100
AcDbCircle
 10
-134.9587957402838
 20
-33.10625285418715
 30
0.0
 40
28.6
100
AcDbArc
 50
40.30476066604577
 51
139.6952393339542
  0
ENDBLK
  5
148
330
146
100
AcDbEntity
  8
0
100
AcDbBlockEnd
  0
BLOCK
  5
14A
330
149
100
AcDbEntity
  8
0
100
AcDbBlockBegin
  2
DC_GROUP_W_JR-5721_S_030_35
 70
     0
 10
0.0
 20
0.0
 30
0.0
  3
DC_GROUP_W_JR-5721_S_030_35
  1
DC_GROUP_W_JR-5721_S_030_35
  0
LINE
  5
2C7
330
149
100
AcDbEntity
  8
2
  6
Continuous
 62
     7
370
    18
100
AcDbLine
 10
-139.6302517402838
 20
-29.10625285418715
 30
0.0
 11
-130.2873397402838
 21
-29.10625285418715
 31
0.0
  0
ARC
  5
2C8
330
149
100
AcDbEntity
  8
2
  6
Continuous
 62
     7
370
    18
100
AcDbCircle
 10
-134.9587957402838
 20
-33.10625285418715
 30
0.0
 40
6.15
100
AcDbArc
 50
139.4277419999989
 51
40.57225800000106
  0
ENDBLK
  5
14B
330
149
100
AcDbEntity
  8
0
100
AcDbBlockEnd
  0
BLOCK
  5
14D
330
14C
100
AcDbEntity
  8
0
100
AcDbBlockBegin
  2
DC_GROUP_W_JR-5721_S_030_36
 70
     0
 10
0.0
 20
0.0
 30
0.0
  3
DC_GROUP_W_JR-5721_S_030_36
  1
DC_GROUP_W_JR-5721_S_030_36
  0
LINE
  5
2C9
330
14C
100
AcDbEntity
  8
2
  6
CENTER
 62
     3
370
    13
100
AcDbLine
 10
-96.45879574028379
 20
-21.95625285418751
 30
0.0
 11
-96.45879574028379
 21
-44.25625285418678
 31
0.0
  0
INSERT
  5
2CA
330
14C
100
AcDbEntity
  8
2
  6
Continuous
100
AcDbBlockReference
  2
DC_GROUP_W_JR-5721_S_030_37
 10
0.0
 20
0.0
 30
0.0
  0
ENDBLK
  5
14E
330
14C
100
AcDbEntity
  8
0
100
AcDbBlockEnd
  0
BLOCK
  5
150
330
14F
100
AcDbEntity
  8
0
100
AcDbBlockBegin
  2
DC_GROUP_W_JR-5721_S_030_37
 70
     0
 10
0.0
 20
0.0
 30
0.0
  3
DC_GROUP_W_JR-5721_S_030_37
  1
DC_GROUP_W_JR-5721_S_030_37
  0
LINE
  5
2CB
330
14F
100
AcDbEntity
  8
2
  6
Continuous
 62
     7
370
    18
100
AcDbLine
 10
-91.78733974028376
 20
-29.10625285418715
 30
0.0
 11
-101.1302517402838
 21
-29.10625285418715
 31
0.0
  0
ARC
  5
2CC
330
14F
100
AcDbEntity
  8
2
  6
Continuous
 62
     7
370
    18
100
AcDbCircle
 10
-96.45879574028379
 20
-33.10625285418715
 30
0.0
 40
6.15
100
AcDbArc
 50
139.4277419999989
 51
40.57225800000106
  0
ENDBLK
  5
151
330
14F
100
AcDbEntity
  8
0
100
AcDbBlockEnd
  0
BLOCK
  5
153
330
152
100
AcDbEntity
  8
0
100
AcDbBlockBegin
  2
DC_GROUP_W_JR-5721_S_030_38
 70
     0
 10
0.0
 20
0.0
 30
0.0
  3
DC_GROUP_W_JR-5721_S_030_38
  1
DC_GROUP_W_JR-5721_S_030_38
  0
LINE
  5
2CD
330
152
100
AcDbEntity
  8
2
  6
CENTER
 62
     3
370
    13
100
AcDbLine
 10
-19.45879574028379
 20
-21.95625285418751
 30
0.0
 11
-19.45879574028379
 21
-44.25625285418678
 31
0.0
  0
INSERT
  5
2CE
330
152
100
AcDbEntity
  8
2
  6
Continuous
100
AcDbBlockReference
  2
DC_GROUP_W_JR-5721_S_030_39
 10
0.0
 20
0.0
 30
0.0
  0
ENDBLK
  5
154
330
152
100
AcDbEntity
  8
0
100
AcDbBlockEnd
  0
BLOCK
  5
156
330
155
100
AcDbEntity
  8
0
100
AcDbBlockBegin
  2
DC_GROUP_W_JR-5721_S_030_39
 70
     0
 10
0.0
 20
0.0
 30
0.0
  3
DC_GROUP_W_JR-5721_S_030_39
  1
DC_GROUP_W_JR-5721_S_030_39
  0
LINE
  5
2CF
330
155
100
AcDbEntity
  8
2
  6
Continuous
 62
     7
370
    18
100
AcDbLine
 10
-14.78733974028376
 20
-29.10625285418715
 30
0.0
 11
-24.13025174028382
 21
-29.10625285418715
 31
0.0
  0
ARC
  5
2D0
330
155
100
AcDbEntity
  8
2
  6
Continuous
 62
     7
370
    18
100
AcDbCircle
 10
-19.45879574028379
 20
-33.10625285418715
 30
0.0
 40
6.15
100
AcDbArc
 50
139.4277419999989
 51
40.57225800000106
  0
ENDBLK
  5
157
330
155
100
AcDbEntity
  8
0
100
AcDbBlockEnd
  0
BLOCK
  5
159
330
158
100
AcDbEntity
  8
0
100
AcDbBlockBegin
  2
DC_GROUP_W_JR-5721_S_030_40
 70
     0
 10
0.0
 20
0.0
 30
0.0
  3
DC_GROUP_W_JR-5721_S_030_40
  1
DC_GROUP_W_JR-5721_S_030_40
  0
LINE
  5
2D1
330
158
100
AcDbEntity
  8
2
  6
CENTER
 62
     3
370
    13
100
AcDbLine
 10
19.04120425971621
 20
3.043747145812489
 30
0.0
 11
19.04120425971621
 21
-69.25625285418678
 31
0.0
  0
INSERT
  5
2D2
330
158
100
AcDbEntity
  8
2
  6
Continuous
100
AcDbBlockReference
  2
DC_GROUP_W_JR-5721_S_030_41
 10
0.0
 20
0.0
 30
0.0
  0
ARC
  5
2D3
330
158
100
AcDbEntity
  8
2
  6
DASHED2
 62
     4
370
    13
100
AcDbCircle
 10
19.04120425971621
 20
-33.10625285418715
 30
0.0
 40
28.6
100
AcDbArc
 50
139.6952393339542
 51
40.30476066604574
  0
ARC
  5
2D4
330
158
100
AcDbEntity
  8
2
  6
Continuous
 62
     7
370
    18
100
AcDbCircle
 10
19.04120425971621
 20
-33.10625285418715
 30
0.0
 40
28.6
100
AcDbArc
 50
40.30476066604577
 51
139.6952393339542
  0
ENDBLK
  5
15A
330
158
100
AcDbEntity
  8
0
100
AcDbBlockEnd
  0
BLOCK
  5
15C
330
15B
100
AcDbEntity
  8
0
100
AcDbBlockBegin
  2
DC_GROUP_W_JR-5721_S_030_41
 70
     0
 10
0.0
 20
0.0
 30
0.0
  3
DC_GROUP_W_JR-5721_S_030_41
  1
DC_GROUP_W_JR-5721_S_030_41
  0
LINE
  5
2D5
330
15B
100
AcDbEntity
  8
2
  6
Continuous
 62
     7
370
    18
100
AcDbLine
 10
14.36974825971618
 20
-29.10625285418715
 30
0.0
 11
23.71266025971624
 21
-29.10625285418715
 31
0.0
  0
ARC
  5
2D6
330
15B
100
AcDbEntity
  8
2
  6
Continuous
 62
     7
370
    18
100
AcDbCircle
 10
19.04120425971621
 20
-33.10625285418715
 30
0.0
 40
6.15
100
AcDbArc
 50
139.4277419999989
 51
40.57225800000106
  0
ENDBLK
  5
15D
330
15B
100
AcDbEntity
  8
0
100
AcDbBlockEnd
  0
BLOCK
  5
15F
330
15E
100
AcDbEntity
  8
0
100
AcDbBlockBegin
  2
DC_GROUP_W_JR-5721_S_030_42
 70
     0
 10
0.0
 20
0.0
 30
0.0
  3
DC_GROUP_W_JR-5721_S_030_42
  1
DC_GROUP_W_JR-5721_S_030_42
  0
LINE
  5
2D7
330
15E
100
AcDbEntity
  8
2
  6
CENTER
 62
     3
370
    13
100
AcDbLine
 10
57.54120425971621
 20
-21.95625285418751
 30
0.0
 11
57.54120425971621
 21
-44.25625285418678
 31
0.0
  0
INSERT
  5
2D8
330
15E
100
AcDbEntity
  8
2
  6
Continuous
100
AcDbBlockReference
  2
DC_GROUP_W_JR-5721_S_030_43
 10
0.0
 20
0.0
 30
0.0
  0
ENDBLK
  5
160
330
15E
100
AcDbEntity
  8
0
100
AcDbBlockEnd
  0
BLOCK
  5
162
330
161
100
AcDbEntity
  8
0
100
AcDbBlockBegin
  2
DC_GROUP_W_JR-5721_S_030_43
 70
     0
 10
0.0
 20
0.0
 30
0.0
  3
DC_GROUP_W_JR-5721_S_030_43
  1
DC_GROUP_W_JR-5721_S_030_43
  0
LINE
  5
2D9
330
161
100
AcDbEntity
  8
2
  6
Continuous
 62
     7
370
    18
100
AcDbLine
 10
62.21266025971624
 20
-29.10625285418715
 30
0.0
 11
52.86974825971618
 21
-29.10625285418715
 31
0.0
  0
ARC
  5
2DA
330
161
100
AcDbEntity
  8
2
  6
Continuous
 62
     7
370
    18
100
AcDbCircle
 10
57.54120425971621
 20
-33.10625285418715
 30
0.0
 40
6.15
100
AcDbArc
 50
139.4277419999989
 51
40.57225800000106
  0
ENDBLK
  5
163
330
161
100
AcDbEntity
  8
0
100
AcDbBlockEnd
  0
BLOCK
  5
165
330
164
100
AcDbEntity
  8
0
100
AcDbBlockBegin
  2
DC_GROUP_W_JR-5721_S_030_44
 70
     0
 10
0.0
 20
0.0
 30
0.0
  3
DC_GROUP_W_JR-5721_S_030_44
  1
DC_GROUP_W_JR-5721_S_030_44
  0
LINE
  5
2DB
330
164
100
AcDbEntity
  8
2
  6
CENTER
 62
     3
370
    13
100
AcDbLine
 10
134.5412042597162
 20
-21.95625285418751
 30
0.0
 11
134.5412042597162
 21
-44.25625285418678
 31
0.0
  0
INSERT
  5
2DC
330
164
100
AcDbEntity
  8
2
  6
Continuous
100
AcDbBlockReference
  2
DC_GROUP_W_JR-5721_S_030_45
 10
0.0
 20
0.0
 30
0.0
  0
ENDBLK
  5
166
330
164
100
AcDbEntity
  8
0
100
AcDbBlockEnd
  0
BLOCK
  5
168
330
167
100
AcDbEntity
  8
0
100
AcDbBlockBegin
  2
DC_GROUP_W_JR-5721_S_030_45
 70
     0
 10
0.0
 20
0.0
 30
0.0
  3
DC_GROUP_W_JR-5721_S_030_45
  1
DC_GROUP_W_JR-5721_S_030_45
  0
LINE
  5
2DD
330
167
100
AcDbEntity
  8
2
  6
Continuous
 62
     7
370
    18
100
AcDbLine
 10
139.2126602597162
 20
-29.10625285418715
 30
0.0
 11
129.8697482597162
 21
-29.10625285418715
 31
0.0
  0
ARC
  5
2DE
330
167
100
AcDbEntity
  8
2
  6
Continuous
 62
     7
370
    18
100
AcDbCircle
 10
134.5412042597162
 20
-33.10625285418715
 30
0.0
 40
6.15
100
AcDbArc
 50
139.4277419999989
 51
40.57225800000106
  0
ENDBLK
  5
169
330
167
100
AcDbEntity
  8
0
100
AcDbBlockEnd
  0
BLOCK
  5
16B
330
16A
100
AcDbEntity
  8
0
100
AcDbBlockBegin
  2
DC_GROUP_W_JR-5721_S_030_46
 70
     0
 10
0.0
 20
0.0
 30
0.0
  3
DC_GROUP_W_JR-5721_S_030_46
  1
DC_GROUP_W_JR-5721_S_030_46
  0
LINE
  5
2DF
330
16A
100
AcDbEntity
  8
2
  6
CENTER
 62
     3
370
    13
100
AcDbLine
 10
173.0412042597162
 20
3.043747145812489
 30
0.0
 11
173.0412042597162
 21
-69.25625285418678
 31
0.0
  0
INSERT
  5
2E0
330
16A
100
AcDbEntity
  8
2
  6
Continuous
100
AcDbBlockReference
  2
DC_GROUP_W_JR-5721_S_030_47
 10
0.0
 20
0.0
 30
0.0
  0
ARC
  5
2E1
330
16A
100
AcDbEntity
  8
2
  6
DASHED2
 62
     4
370
    13
100
AcDbCircle
 10
173.0412042597162
 20
-33.10625285418715
 30
0.0
 40
28.6
100
AcDbArc
 50
139.6952393339542
 51
40.30476066604574
  0
ARC
  5
2E2
330
16A
100
AcDbEntity
  8
2
  6
Continuous
 62
     7
370
    18
100
AcDbCircle
 10
173.0412042597162
 20
-33.10625285418715
 30
0.0
 40
28.6
100
AcDbArc
 50
40.30476066604577
 51
139.6952393339542
  0
ENDBLK
  5
16C
330
16A
100
AcDbEntity
  8
0
100
AcDbBlockEnd
  0
BLOCK
  5
16E
330
16D
100
AcDbEntity
  8
0
100
AcDbBlockBegin
  2
DC_GROUP_W_JR-5721_S_030_47
 70
     0
 10
0.0
 20
0.0
 30
0.0
  3
DC_GROUP_W_JR-5721_S_030_47
  1
DC_GROUP_W_JR-5721_S_030_47
  0
LINE
  5
2E3
330
16D
100
AcDbEntity
  8
2
  6
Continuous
 62
     7
370
    18
100
AcDbLine
 10
168.3697482597162
 20
-29.10625285418715
 30
0.0
 11
177.7126602597162
 21
-29.10625285418715
 31
0.0
  0
ARC
  5
2E4
330
16D
100
AcDbEntity
  8
2
  6
Continuous
 62
     7
370
    18
100
AcDbCircle
 10
173.0412042597162
 20
-33.10625285418715
 30
0.0
 40
6.15
100
AcDbArc
 50
139.4277419999989
 51
40.57225800000106
  0
ENDBLK
  5
16F
330
16D
100
AcDbEntity
  8
0
100
AcDbBlockEnd
  0
BLOCK
  5
171
330
170
100
AcDbEntity
  8
0
100
AcDbBlockBegin
  2
DC_GROUP_W_JR-5721_S_030_48
 70
     0
 10
0.0
 20
0.0
 30
0.0
  3
DC_GROUP_W_JR-5721_S_030_48
  1
DC_GROUP_W_JR-5721_S_030_48
  0
LINE
  5
2E5
330
170
100
AcDbEntity
  8
2
  6
CENTER
 62
     3
370
    13
100
AcDbLine
 10
-673.9587957402838
 20
-21.95625285418751
 30
0.0
 11
-673.9587957402838
 21
-44.25625285418678
 31
0.0
  0
INSERT
  5
2E6
330
170
100
AcDbEntity
  8
2
  6
Continuous
100
AcDbBlockReference
  2
DC_GROUP_W_JR-5721_S_030_49
 10
0.0
 20
0.0
 30
0.0
  0
ENDBLK
  5
172
330
170
100
AcDbEntity
  8
0
100
AcDbBlockEnd
  0
BLOCK
  5
174
330
173
100
AcDbEntity
  8
0
100
AcDbBlockBegin
  2
DC_GROUP_W_JR-5721_S_030_49
 70
     0
 10
0.0
 20
0.0
 30
0.0
  3
DC_GROUP_W_JR-5721_S_030_49
  1
DC_GROUP_W_JR-5721_S_030_49
  0
LINE
  5
2E7
330
173
100
AcDbEntity
  8
2
  6
Continuous
 62
     7
370
    18
100
AcDbLine
 10
-669.2873397402838
 20
-29.10625285418715
 30
0.0
 11
-678.6302517402838
 21
-29.10625285418715
 31
0.0
  0
ARC
  5
2E8
330
173
100
AcDbEntity
  8
2
  6
Continuous
 62
     7
370
    18
100
AcDbCircle
 10
-673.9587957402838
 20
-33.10625285418715
 30
0.0
 40
6.15
100
AcDbArc
 50
139.4277419999989
 51
40.57225800000106
  0
ENDBLK
  5
175
330
173
100
AcDbEntity
  8
0
100
AcDbBlockEnd
  0
BLOCK
  5
177
330
176
100
AcDbEntity
  8
0
100
AcDbBlockBegin
  2
DC_GROUP_W_JR-5721_S_030_50
 70
     0
 10
0.0
 20
0.0
 30
0.0
  3
DC_GROUP_W_JR-5721_S_030_50
  1
DC_GROUP_W_JR-5721_S_030_50
  0
LINE
  5
2E9
330
176
100
AcDbEntity
  8
2
  6
CENTER
 62
     3
370
    13
100
AcDbLine
 10
-519.9587957402838
 20
-21.95625285418751
 30
0.0
 11
-519.9587957402838
 21
-44.25625285418678
 31
0.0
  0
INSERT
  5
2EA
330
176
100
AcDbEntity
  8
2
  6
Continuous
100
AcDbBlockReference
  2
DC_GROUP_W_JR-5721_S_030_51
 10
0.0
 20
0.0
 30
0.0
  0
ENDBLK
  5
178
330
176
100
AcDbEntity
  8
0
100
AcDbBlockEnd
  0
BLOCK
  5
17A
330
179
100
AcDbEntity
  8
0
100
AcDbBlockBegin
  2
DC_GROUP_W_JR-5721_S_030_51
 70
     0
 10
0.0
 20
0.0
 30
0.0
  3
DC_GROUP_W_JR-5721_S_030_51
  1
DC_GROUP_W_JR-5721_S_030_51
  0
LINE
  5
2EB
330
179
100
AcDbEntity
  8
2
  6
Continuous
 62
     7
370
    18
100
AcDbLine
 10
-515.2873397402838
 20
-29.10625285418715
 30
0.0
 11
-524.6302517402838
 21
-29.10625285418715
 31
0.0
  0
ARC
  5
2EC
330
179
100
AcDbEntity
  8
2
  6
Continuous
 62
     7
370
    18
100
AcDbCircle
 10
-519.9587957402838
 20
-33.10625285418715
 30
0.0
 40
6.15
100
AcDbArc
 50
139.4277419999989
 51
40.57225800000106
  0
ENDBLK
  5
17B
330
179
100
AcDbEntity
  8
0
100
AcDbBlockEnd
  0
BLOCK
  5
17D
330
17C
100
AcDbEntity
  8
0
100
AcDbBlockBegin
  2
DC_GROUP_W_JR-5721_S_030_52
 70
     0
 10
0.0
 20
0.0
 30
0.0
  3
DC_GROUP_W_JR-5721_S_030_52
  1
DC_GROUP_W_JR-5721_S_030_52
  0
LINE
  5
2ED
330
17C
100
AcDbEntity
  8
2
  6
CENTER
 62
     3
370
    13
100
AcDbLine
 10
-365.9587957402838
 20
-21.95625285418751
 30
0.0
 11
-365.9587957402838
 21
-44.25625285418678
 31
0.0
  0
INSERT
  5
2EE
330
17C
100
AcDbEntity
  8
2
  6
Continuous
100
AcDbBlockReference
  2
DC_GROUP_W_JR-5721_S_030_53
 10
0.0
 20
0.0
 30
0.0
  0
ENDBLK
  5
17E
330
17C
100
AcDbEntity
  8
0
100
AcDbBlockEnd
  0
BLOCK
  5
180
330
17F
100
AcDbEntity
  8
0
100
AcDbBlockBegin
  2
DC_GROUP_W_JR-5721_S_030_53
 70
     0
 10
0.0
 20
0.0
 30
0.0
  3
DC_GROUP_W_JR-5721_S_030_53
  1
DC_GROUP_W_JR-5721_S_030_53
  0
LINE
  5
2EF
330
17F
100
AcDbEntity
  8
2
  6
Continuous
 62
     7
370
    18
100
AcDbLine
 10
-361.2873397402838
 20
-29.10625285418715
 30
0.0
 11
-370.6302517402838
 21
-29.10625285418715
 31
0.0
  0
ARC
  5
2F0
330
17F
100
AcDbEntity
  8
2
  6
Continuous
 62
     7
370
    18
100
AcDbCircle
 10
-365.9587957402838
 20
-33.10625285418715
 30
0.0
 40
6.15
100
AcDbArc
 50
139.4277419999989
 51
40.57225800000106
  0
ENDBLK
  5
181
330
17F
100
AcDbEntity
  8
0
100
AcDbBlockEnd
  0
BLOCK
  5
183
330
182
100
AcDbEntity
  8
0
100
AcDbBlockBegin
  2
DC_GROUP_W_JR-5721_S_030_54
 70
     0
 10
0.0
 20
0.0
 30
0.0
  3
DC_GROUP_W_JR-5721_S_030_54
  1
DC_GROUP_W_JR-5721_S_030_54
  0
LINE
  5
2F1
330
182
100
AcDbEntity
  8
2
  6
CENTER
 62
     3
370
    13
100
AcDbLine
 10
-211.9587957402838
 20
-21.95625285418751
 30
0.0
 11
-211.9587957402838
 21
-44.25625285418678
 31
0.0
  0
INSERT
  5
2F2
330
182
100
AcDbEntity
  8
2
  6
Continuous
100
AcDbBlockReference
  2
DC_GROUP_W_JR-5721_S_030_55
 10
0.0
 20
0.0
 30
0.0
  0
ENDBLK
  5
184
330
182
100
AcDbEntity
  8
0
100
AcDbBlockEnd
  0
BLOCK
  5
186
330
185
100
AcDbEntity
  8
0
100
AcDbBlockBegin
  2
DC_GROUP_W_JR-5721_S_030_55
 70
     0
 10
0.0
 20
0.0
 30
0.0
  3
DC_GROUP_W_JR-5721_S_030_55
  1
DC_GROUP_W_JR-5721_S_030_55
  0
LINE
  5
2F3
330
185
100
AcDbEntity
  8
2
  6
Continuous
 62
     7
370
    18
100
AcDbLine
 10
-207.2873397402838
 20
-29.10625285418715
 30
0.0
 11
-216.6302517402838
 21
-29.10625285418715
 31
0.0
  0
ARC
  5
2F4
330
185
100
AcDbEntity
  8
2
  6
Continuous
 62
     7
370
    18
100
AcDbCircle
 10
-211.9587957402838
 20
-33.10625285418715
 30
0.0
 40
6.15
100
AcDbArc
 50
139.4277419999989
 51
40.57225800000106
  0
ENDBLK
  5
187
330
185
100
AcDbEntity
  8
0
100
AcDbBlockEnd
  0
BLOCK
  5
189
330
188
100
AcDbEntity
  8
0
100
AcDbBlockBegin
  2
DC_GROUP_W_JR-5721_S_030_56
 70
     0
 10
0.0
 20
0.0
 30
0.0
  3
DC_GROUP_W_JR-5721_S_030_56
  1
DC_GROUP_W_JR-5721_S_030_56
  0
LINE
  5
2F5
330
188
100
AcDbEntity
  8
2
  6
CENTER
 62
     3
370
    13
100
AcDbLine
 10
-57.95879574028379
 20
-21.95625285418751
 30
0.0
 11
-57.95879574028379
 21
-44.25625285418678
 31
0.0
  0
INSERT
  5
2F6
330
188
100
AcDbEntity
  8
2
  6
Continuous
100
AcDbBlockReference
  2
DC_GROUP_W_JR-5721_S_030_57
 10
0.0
 20
0.0
 30
0.0
  0
ENDBLK
  5
18A
330
188
100
AcDbEntity
  8
0
100
AcDbBlockEnd
  0
BLOCK
  5
18C
330
18B
100
AcDbEntity
  8
0
100
AcDbBlockBegin
  2
DC_GROUP_W_JR-5721_S_030_57
 70
     0
 10
0.0
 20
0.0
 30
0.0
  3
DC_GROUP_W_JR-5721_S_030_57
  1
DC_GROUP_W_JR-5721_S_030_57
  0
LINE
  5
2F7
330
18B
100
AcDbEntity
  8
2
  6
Continuous
 62
     7
370
    18
100
AcDbLine
 10
-53.28733974028376
 20
-29.10625285418715
 30
0.0
 11
-62.63025174028382
 21
-29.10625285418715
 31
0.0
  0
ARC
  5
2F8
330
18B
100
AcDbEntity
  8
2
  6
Continuous
 62
     7
370
    18
100
AcDbCircle
 10
-57.95879574028379
 20
-33.10625285418715
 30
0.0
 40
6.15
100
AcDbArc
 50
139.4277419999989
 51
40.57225800000106
  0
ENDBLK
  5
18D
330
18B
100
AcDbEntity
  8
0
100
AcDbBlockEnd
  0
BLOCK
  5
18F
330
18E
100
AcDbEntity
  8
0
100
AcDbBlockBegin
  2
DC_GROUP_W_JR-5721_S_030_58
 70
     0
 10
0.0
 20
0.0
 30
0.0
  3
DC_GROUP_W_JR-5721_S_030_58
  1
DC_GROUP_W_JR-5721_S_030_58
  0
LINE
  5
2F9
330
18E
100
AcDbEntity
  8
2
  6
CENTER
 62
     3
370
    13
100
AcDbLine
 10
96.04120425971621
 20
-21.95625285418751
 30
0.0
 11
96.04120425971621
 21
-44.25625285418678
 31
0.0
  0
INSERT
  5
2FA
330
18E
100
AcDbEntity
  8
2
  6
Continuous
100
AcDbBlockReference
  2
DC_GROUP_W_JR-5721_S_030_59
 10
0.0
 20
0.0
 30
0.0
  0
ENDBLK
  5
190
330
18E
100
AcDbEntity
  8
0
100
AcDbBlockEnd
  0
BLOCK
  5
192
330
191
100
AcDbEntity
  8
0
100
AcDbBlockBegin
  2
DC_GROUP_W_JR-5721_S_030_59
 70
     0
 10
0.0
 20
0.0
 30
0.0
  3
DC_GROUP_W_JR-5721_S_030_59
  1
DC_GROUP_W_JR-5721_S_030_59
  0
LINE
  5
2FB
330
191
100
AcDbEntity
  8
2
  6
Continuous
 62
     7
370
    18
100
AcDbLine
 10
100.7126602597162
 20
-29.10625285418715
 30
0.0
 11
91.36974825971618
 21
-29.10625285418715
 31
0.0
  0
ARC
  5
2FC
330
191
100
AcDbEntity
  8
2
  6
Continuous
 62
     7
370
    18
100
AcDbCircle
 10
96.04120425971621
 20
-33.10625285418715
 30
0.0
 40
6.15
100
AcDbArc
 50
139.4277419999989
 51
40.57225800000106
  0
ENDBLK
  5
193
330
191
100
AcDbEntity
  8
0
100
AcDbBlockEnd
  0
BLOCK
  5
195
330
194
100
AcDbEntity
  8
0
100
AcDbBlockBegin
  2
DC_GROUP_W_JR-5721_S_030_60
 70
     0
 10
0.0
 20
0.0
 30
0.0
  3
DC_GROUP_W_JR-5721_S_030_60
  1
DC_GROUP_W_JR-5721_S_030_60
  0
LINE
  5
2FD
330
194
100
AcDbEntity
  8
2
  6
CENTER
 62
     3
370
    13
100
AcDbLine
 10
-750.9587957402837
 20
717.2437471526259
 30
0.0
 11
-750.9587957402837
 21
312.2437471526259
 31
0.0
  0
LINE
  5
2FE
330
194
100
AcDbEntity
  8
2
  6
Continuous
 62
     7
370
    18
100
AcDbLine
 10
-730.4587957402837
 20
708.7437471526259
 30
0.0
 11
-771.4587957402837
 21
708.7437471526259
 31
0.0
  0
ARC
  5
2FF
330
194
100
AcDbEntity
  8
2
  6
Continuous
 62
     7
370
    18
100
AcDbCircle
 10
-730.4587957402837
 20
700.6437471526256
 30
0.0
 40
8.1
100
AcDbArc
 50
0.0
 51
90.0
  0
LINE
  5
300
330
194
100
AcDbEntity
  8
2
  6
Continuous
 62
     7
370
    18
100
AcDbLine
 10
-722.3587957402838
 20
700.6437471526256
 30
0.0
 11
-722.3587957402838
 21
328.8437471526262
 31
0.0
  0
ARC
  5
301
330
194
100
AcDbEntity
  8
2
  6
Continuous
 62
     7
370
    18
100
AcDbCircle
 10
-730.4587957402837
 20
328.8437471526262
 30
0.0
 40
8.1
100
AcDbArc
 50
270.0
 51
0.0
  0
LINE
  5
302
330
194
100
AcDbEntity
  8
2
  6
Continuous
 62
     7
370
    18
100
AcDbLine
 10
-779.5587957402836
 20
328.8437471526262
 30
0.0
 11
-779.5587957402836
 21
700.6437471526256
 31
0.0
  0
ARC
  5
303
330
194
100
AcDbEntity
  8
2
  6
Continuous
 62
     7
370
    18
100
AcDbCircle
 10
-771.4587957402837
 20
328.8437471526262
 30
0.0
 40
8.1
100
AcDbArc
 50
180.0
 51
270.0
  0
ARC
  5
304
330
194
100
AcDbEntity
  8
2
  6
Continuous
 62
     7
370
    18
100
AcDbCircle
 10
-771.4587957402837
 20
700.6437471526256
 30
0.0
 40
8.1
100
AcDbArc
 50
90.0
 51
180.0
  0
LINE
  5
305
330
194
100
AcDbEntity
  8
2
  6
Continuous
 62
     7
370
    18
100
AcDbLine
 10
-742.9587957402837
 20
714.2437471526259
 30
0.0
 11
-758.9587957402837
 21
714.2437471526259
 31
0.0
  0
LINE
  5
306
330
194
100
AcDbEntity
  8
2
  6
Continuous
 62
     7
370
    18
100
AcDbLine
 10
-742.9587957402837
 20
709.2437471526259
 30
0.0
 11
-742.9587957402837
 21
714.2437471526259
 31
0.0
  0
LINE
  5
307
330
194
100
AcDbEntity
  8
2
  6
Continuous
 62
     7
370
    18
100
AcDbLine
 10
-758.9587957402837
 20
709.2437471526259
 30
0.0
 11
-758.9587957402837
 21
714.2437471526259
 31
0.0
  0
LINE
  5
308
330
194
100
AcDbEntity
  8
2
  6
Continuous
 62
     7
370
    18
100
AcDbLine
 10
-733.2587957402839
 20
709.2437471526259
 30
0.0
 11
-768.6587957402835
 21
709.2437471526259
 31
0.0
  0
ARC
  5
309
330
194
100
AcDbEntity
  8
2
  6
Continuous
 62
     7
370
    18
100
AcDbCircle
 10
-768.6587957402835
 20
708.4437471526257
 30
0.0
 40
0.8
100
AcDbArc
 50
90.0
 51
157.9756869999987
  0
ARC
  5
30A
330
194
100
AcDbEntity
  8
2
  6
Continuous
 62
     7
370
    18
100
AcDbCircle
 10
-733.2587957402839
 20
708.4437471526257
 30
0.0
 40
0.8
100
AcDbArc
 50
22.02431300000125
 51
90.0
  0
LINE
  5
30B
330
194
100
AcDbEntity
  8
2
  6
Continuous
 62
     7
370
    18
100
AcDbLine
 10
-730.4587957402837
 20
320.7437471526259
 30
0.0
 11
-771.4587957402837
 21
320.7437471526259
 31
0.0
  0
LINE
  5
30C
330
194
100
AcDbEntity
  8
2
  6
Continuous
 62
     7
370
    18
100
AcDbLine
 10
-742.9587957402837
 20
315.2437471526259
 30
0.0
 11
-758.9587957402837
 21
315.2437471526259
 31
0.0
  0
LINE
  5
30D
330
194
100
AcDbEntity
  8
2
  6
Continuous
 62
     7
370
    18
100
AcDbLine
 10
-742.9587957402837
 20
320.2437471526259
 30
0.0
 11
-742.9587957402837
 21
315.2437471526259
 31
0.0
  0
LINE
  5
30E
330
194
100
AcDbEntity
  8
2
  6
Continuous
 62
     7
370
    18
100
AcDbLine
 10
-758.9587957402837
 20
320.2437471526259
 30
0.0
 11
-758.9587957402837
 21
315.2437471526259
 31
0.0
  0
LINE
  5
30F
330
194
100
AcDbEntity
  8
2
  6
Continuous
 62
     7
370
    18
100
AcDbLine
 10
-733.2587957402839
 20
320.2437471526259
 30
0.0
 11
-768.6587957402835
 21
320.2437471526259
 31
0.0
  0
ARC
  5
310
330
194
100
AcDbEntity
  8
2
  6
Continuous
 62
     7
370
    18
100
AcDbCircle
 10
-768.6587957402835
 20
321.0437471526261
 30
0.0
 40
0.8
100
AcDbArc
 50
202.0243130000013
 51
270.0
  0
ARC
  5
311
330
194
100
AcDbEntity
  8
2
  6
Continuous
 62
     7
370
    18
100
AcDbCircle
 10
-733.2587957402839
 20
321.0437471526261
 30
0.0
 40
0.8
100
AcDbArc
 50
270.0
 51
337.9756869999987
  0
ENDBLK
  5
196
330
194
100
AcDbEntity
  8
0
100
AcDbBlockEnd
  0
BLOCK
  5
198
330
197
100
AcDbEntity
  8
0
100
AcDbBlockBegin
  2
DC_GROUP_W_JR-5721_S_030_61
 70
     0
 10
0.0
 20
0.0
 30
0.0
  3
DC_GROUP_W_JR-5721_S_030_61
  1
DC_GROUP_W_JR-5721_S_030_61
  0
LINE
  5
312
330
197
100
AcDbEntity
  8
2
  6
CENTER
 62
     3
370
    13
100
AcDbLine
 10
-596.9587957402837
 20
717.2437471526259
 30
0.0
 11
-596.9587957402837
 21
312.2437471526259
 31
0.0
  0
LINE
  5
313
330
197
100
AcDbEntity
  8
2
  6
Continuous
 62
     7
370
    18
100
AcDbLine
 10
-576.4587957402837
 20
708.7437471526259
 30
0.0
 11
-617.4587957402837
 21
708.7437471526259
 31
0.0
  0
ARC
  5
314
330
197
100
AcDbEntity
  8
2
  6
Continuous
 62
     7
370
    18
100
AcDbCircle
 10
-576.4587957402837
 20
700.6437471526256
 30
0.0
 40
8.1
100
AcDbArc
 50
0.0
 51
90.0
  0
LINE
  5
315
330
197
100
AcDbEntity
  8
2
  6
Continuous
 62
     7
370
    18
100
AcDbLine
 10
-568.3587957402838
 20
700.6437471526256
 30
0.0
 11
-568.3587957402838
 21
328.8437471526262
 31
0.0
  0
ARC
  5
316
330
197
100
AcDbEntity
  8
2
  6
Continuous
 62
     7
370
    18
100
AcDbCircle
 10
-576.4587957402837
 20
328.8437471526262
 30
0.0
 40
8.1
100
AcDbArc
 50
270.0
 51
0.0
  0
LINE
  5
317
330
197
100
AcDbEntity
  8
2
  6
Continuous
 62
     7
370
    18
100
AcDbLine
 10
-625.5587957402836
 20
328.8437471526262
 30
0.0
 11
-625.5587957402836
 21
700.6437471526256
 31
0.0
  0
ARC
  5
318
330
197
100
AcDbEntity
  8
2
  6
Continuous
 62
     7
370
    18
100
AcDbCircle
 10
-617.4587957402837
 20
328.8437471526262
 30
0.0
 40
8.1
100
AcDbArc
 50
180.0
 51
270.0
  0
ARC
  5
319
330
197
100
AcDbEntity
  8
2
  6
Continuous
 62
     7
370
    18
100
AcDbCircle
 10
-617.4587957402837
 20
700.6437471526256
 30
0.0
 40
8.1
100
AcDbArc
 50
90.0
 51
180.0
  0
LINE
  5
31A
330
197
100
AcDbEntity
  8
2
  6
Continuous
 62
     7
370
    18
100
AcDbLine
 10
-588.9587957402837
 20
714.2437471526259
 30
0.0
 11
-604.9587957402837
 21
714.2437471526259
 31
0.0
  0
LINE
  5
31B
330
197
100
AcDbEntity
  8
2
  6
Continuous
 62
     7
370
    18
100
AcDbLine
 10
-588.9587957402837
 20
709.2437471526259
 30
0.0
 11
-588.9587957402837
 21
714.2437471526259
 31
0.0
  0
LINE
  5
31C
330
197
100
AcDbEntity
  8
2
  6
Continuous
 62
     7
370
    18
100
AcDbLine
 10
-604.9587957402837
 20
709.2437471526259
 30
0.0
 11
-604.9587957402837
 21
714.2437471526259
 31
0.0
  0
LINE
  5
31D
330
197
100
AcDbEntity
  8
2
  6
Continuous
 62
     7
370
    18
100
AcDbLine
 10
-579.2587957402839
 20
709.2437471526259
 30
0.0
 11
-614.6587957402835
 21
709.2437471526259
 31
0.0
  0
ARC
  5
31E
330
197
100
AcDbEntity
  8
2
  6
Continuous
 62
     7
370
    18
100
AcDbCircle
 10
-614.6587957402835
 20
708.4437471526257
 30
0.0
 40
0.8
100
AcDbArc
 50
90.0
 51
157.9756869999987
  0
ARC
  5
31F
330
197
100
AcDbEntity
  8
2
  6
Continuous
 62
     7
370
    18
100
AcDbCircle
 10
-579.2587957402839
 20
708.4437471526257
 30
0.0
 40
0.8
100
AcDbArc
 50
22.02431300000125
 51
90.0
  0
LINE
  5
320
330
197
100
AcDbEntity
  8
2
  6
Continuous
 62
     7
370
    18
100
AcDbLine
 10
-576.4587957402837
 20
320.7437471526259
 30
0.0
 11
-617.4587957402837
 21
320.7437471526259
 31
0.0
  0
LINE
  5
321
330
197
100
AcDbEntity
  8
2
  6
Continuous
 62
     7
370
    18
100
AcDbLine
 10
-588.9587957402837
 20
315.2437471526259
 30
0.0
 11
-604.9587957402837
 21
315.2437471526259
 31
0.0
  0
LINE
  5
322
330
197
100
AcDbEntity
  8
2
  6
Continuous
 62
     7
370
    18
100
AcDbLine
 10
-588.9587957402837
 20
320.2437471526259
 30
0.0
 11
-588.9587957402837
 21
315.2437471526259
 31
0.0
  0
LINE
  5
323
330
197
100
AcDbEntity
  8
2
  6
Continuous
 62
     7
370
    18
100
AcDbLine
 10
-604.9587957402837
 20
320.2437471526259
 30
0.0
 11
-604.9587957402837
 21
315.2437471526259
 31
0.0
  0
LINE
  5
324
330
197
100
AcDbEntity
  8
2
  6
Continuous
 62
     7
370
    18
100
AcDbLine
 10
-579.2587957402839
 20
320.2437471526259
 30
0.0
 11
-614.6587957402835
 21
320.2437471526259
 31
0.0
  0
ARC
  5
325
330
197
100
AcDbEntity
  8
2
  6
Continuous
 62
     7
370
    18
100
AcDbCircle
 10
-614.6587957402835
 20
321.0437471526261
 30
0.0
 40
0.8
100
AcDbArc
 50
202.0243130000013
 51
270.0
  0
ARC
  5
326
330
197
100
AcDbEntity
  8
2
  6
Continuous
 62
     7
370
    18
100
AcDbCircle
 10
-579.2587957402839
 20
321.0437471526261
 30
0.0
 40
0.8
100
AcDbArc
 50
270.0
 51
337.9756869999987
  0
ENDBLK
  5
199
330
197
100
AcDbEntity
  8
0
100
AcDbBlockEnd
  0
BLOCK
  5
19B
330
19A
100
AcDbEntity
  8
0
100
AcDbBlockBegin
  2
DC_GROUP_W_JR-5721_S_030_62
 70
     0
 10
0.0
 20
0.0
 30
0.0
  3
DC_GROUP_W_JR-5721_S_030_62
  1
DC_GROUP_W_JR-5721_S_030_62
  0
LINE
  5
327
330
19A
100
AcDbEntity
  8
2
  6
CENTER
 62
     3
370
    13
100
AcDbLine
 10
-442.9587957402837
 20
717.2437471526259
 30
0.0
 11
-442.9587957402837
 21
312.2437471526259
 31
0.0
  0
LINE
  5
328
330
19A
100
AcDbEntity
  8
2
  6
Continuous
 62
     7
370
    18
100
AcDbLine
 10
-422.4587957402837
 20
708.7437471526259
 30
0.0
 11
-463.4587957402837
 21
708.7437471526259
 31
0.0
  0
ARC
  5
329
330
19A
100
AcDbEntity
  8
2
  6
Continuous
 62
     7
370
    18
100
AcDbCircle
 10
-422.4587957402837
 20
700.6437471526256
 30
0.0
 40
8.1
100
AcDbArc
 50
0.0
 51
90.0
  0
LINE
  5
32A
330
19A
100
AcDbEntity
  8
2
  6
Continuous
 62
     7
370
    18
100
AcDbLine
 10
-414.3587957402838
 20
700.6437471526256
 30
0.0
 11
-414.3587957402838
 21
328.8437471526262
 31
0.0
  0
ARC
  5
32B
330
19A
100
AcDbEntity
  8
2
  6
Continuous
 62
     7
370
    18
100
AcDbCircle
 10
-422.4587957402837
 20
328.8437471526262
 30
0.0
 40
8.1
100
AcDbArc
 50
270.0
 51
0.0
  0
LINE
  5
32C
330
19A
100
AcDbEntity
  8
2
  6
Continuous
 62
     7
370
    18
100
AcDbLine
 10
-471.5587957402836
 20
328.8437471526262
 30
0.0
 11
-471.5587957402836
 21
700.6437471526256
 31
0.0
  0
ARC
  5
32D
330
19A
100
AcDbEntity
  8
2
  6
Continuous
 62
     7
370
    18
100
AcDbCircle
 10
-463.4587957402837
 20
328.8437471526262
 30
0.0
 40
8.1
100
AcDbArc
 50
180.0
 51
270.0
  0
ARC
  5
32E
330
19A
100
AcDbEntity
  8
2
  6
Continuous
 62
     7
370
    18
100
AcDbCircle
 10
-463.4587957402837
 20
700.6437471526256
 30
0.0
 40
8.1
100
AcDbArc
 50
90.0
 51
180.0
  0
LINE
  5
32F
330
19A
100
AcDbEntity
  8
2
  6
Continuous
 62
     7
370
    18
100
AcDbLine
 10
-434.9587957402837
 20
714.2437471526259
 30
0.0
 11
-450.9587957402837
 21
714.2437471526259
 31
0.0
  0
LINE
  5
330
330
19A
100
AcDbEntity
  8
2
  6
Continuous
 62
     7
370
    18
100
AcDbLine
 10
-434.9587957402837
 20
709.2437471526259
 30
0.0
 11
-434.9587957402837
 21
714.2437471526259
 31
0.0
  0
LINE
  5
331
330
19A
100
AcDbEntity
  8
2
  6
Continuous
 62
     7
370
    18
100
AcDbLine
 10
-450.9587957402837
 20
709.2437471526259
 30
0.0
 11
-450.9587957402837
 21
714.2437471526259
 31
0.0
  0
LINE
  5
332
330
19A
100
AcDbEntity
  8
2
  6
Continuous
 62
     7
370
    18
100
AcDbLine
 10
-425.2587957402839
 20
709.2437471526259
 30
0.0
 11
-460.6587957402835
 21
709.2437471526259
 31
0.0
  0
ARC
  5
333
330
19A
100
AcDbEntity
  8
2
  6
Continuous
 62
     7
370
    18
100
AcDbCircle
 10
-460.6587957402835
 20
708.4437471526257
 30
0.0
 40
0.8
100
AcDbArc
 50
90.0
 51
157.9756869999987
  0
ARC
  5
334
330
19A
100
AcDbEntity
  8
2
  6
Continuous
 62
     7
370
    18
100
AcDbCircle
 10
-425.2587957402839
 20
708.4437471526257
 30
0.0
 40
0.8
100
AcDbArc
 50
22.02431300000125
 51
90.0
  0
LINE
  5
335
330
19A
100
AcDbEntity
  8
2
  6
Continuous
 62
     7
370
    18
100
AcDbLine
 10
-422.4587957402837
 20
320.7437471526259
 30
0.0
 11
-463.4587957402837
 21
320.7437471526259
 31
0.0
  0
LINE
  5
336
330
19A
100
AcDbEntity
  8
2
  6
Continuous
 62
     7
370
    18
100
AcDbLine
 10
-434.9587957402837
 20
315.2437471526259
 30
0.0
 11
-450.9587957402837
 21
315.2437471526259
 31
0.0
  0
LINE
  5
337
330
19A
100
AcDbEntity
  8
2
  6
Continuous
 62
     7
370
    18
100
AcDbLine
 10
-434.9587957402837
 20
320.2437471526259
 30
0.0
 11
-434.9587957402837
 21
315.2437471526259
 31
0.0
  0
LINE
  5
338
330
19A
100
AcDbEntity
  8
2
  6
Continuous
 62
     7
370
    18
100
AcDbLine
 10
-450.9587957402837
 20
320.2437471526259
 30
0.0
 11
-450.9587957402837
 21
315.2437471526259
 31
0.0
  0
LINE
  5
339
330
19A
100
AcDbEntity
  8
2
  6
Continuous
 62
     7
370
    18
100
AcDbLine
 10
-425.2587957402839
 20
320.2437471526259
 30
0.0
 11
-460.6587957402835
 21
320.2437471526259
 31
0.0
  0
ARC
  5
33A
330
19A
100
AcDbEntity
  8
2
  6
Continuous
 62
     7
370
    18
100
AcDbCircle
 10
-460.6587957402835
 20
321.0437471526261
 30
0.0
 40
0.8
100
AcDbArc
 50
202.0243130000013
 51
270.0
  0
ARC
  5
33B
330
19A
100
AcDbEntity
  8
2
  6
Continuous
 62
     7
370
    18
100
AcDbCircle
 10
-425.2587957402839
 20
321.0437471526261
 30
0.0
 40
0.8
100
AcDbArc
 50
270.0
 51
337.9756869999987
  0
ENDBLK
  5
19C
330
19A
100
AcDbEntity
  8
0
100
AcDbBlockEnd
  0
BLOCK
  5
19E
330
19D
100
AcDbEntity
  8
0
100
AcDbBlockBegin
  2
DC_GROUP_W_JR-5721_S_030_63
 70
     0
 10
0.0
 20
0.0
 30
0.0
  3
DC_GROUP_W_JR-5721_S_030_63
  1
DC_GROUP_W_JR-5721_S_030_63
  0
LINE
  5
33C
330
19D
100
AcDbEntity
  8
2
  6
CENTER
 62
     3
370
    13
100
AcDbLine
 10
-288.9587957402837
 20
717.2437471526259
 30
0.0
 11
-288.9587957402837
 21
312.2437471526259
 31
0.0
  0
LINE
  5
33D
330
19D
100
AcDbEntity
  8
2
  6
Continuous
 62
     7
370
    18
100
AcDbLine
 10
-268.4587957402837
 20
708.7437471526259
 30
0.0
 11
-309.4587957402837
 21
708.7437471526259
 31
0.0
  0
ARC
  5
33E
330
19D
100
AcDbEntity
  8
2
  6
Continuous
 62
     7
370
    18
100
AcDbCircle
 10
-268.4587957402837
 20
700.6437471526256
 30
0.0
 40
8.1
100
AcDbArc
 50
0.0
 51
90.0
  0
LINE
  5
33F
330
19D
100
AcDbEntity
  8
2
  6
Continuous
 62
     7
370
    18
100
AcDbLine
 10
-260.3587957402838
 20
700.6437471526256
 30
0.0
 11
-260.3587957402838
 21
328.8437471526262
 31
0.0
  0
ARC
  5
340
330
19D
100
AcDbEntity
  8
2
  6
Continuous
 62
     7
370
    18
100
AcDbCircle
 10
-268.4587957402837
 20
328.8437471526262
 30
0.0
 40
8.1
100
AcDbArc
 50
270.0
 51
0.0
  0
LINE
  5
341
330
19D
100
AcDbEntity
  8
2
  6
Continuous
 62
     7
370
    18
100
AcDbLine
 10
-317.5587957402836
 20
328.8437471526262
 30
0.0
 11
-317.5587957402836
 21
700.6437471526256
 31
0.0
  0
ARC
  5
342
330
19D
100
AcDbEntity
  8
2
  6
Continuous
 62
     7
370
    18
100
AcDbCircle
 10
-309.4587957402837
 20
328.8437471526262
 30
0.0
 40
8.1
100
AcDbArc
 50
180.0
 51
270.0
  0
ARC
  5
343
330
19D
100
AcDbEntity
  8
2
  6
Continuous
 62
     7
370
    18
100
AcDbCircle
 10
-309.4587957402837
 20
700.6437471526256
 30
0.0
 40
8.1
100
AcDbArc
 50
90.0
 51
180.0
  0
LINE
  5
344
330
19D
100
AcDbEntity
  8
2
  6
Continuous
 62
     7
370
    18
100
AcDbLine
 10
-280.9587957402837
 20
714.2437471526259
 30
0.0
 11
-296.9587957402837
 21
714.2437471526259
 31
0.0
  0
LINE
  5
345
330
19D
100
AcDbEntity
  8
2
  6
Continuous
 62
     7
370
    18
100
AcDbLine
 10
-280.9587957402837
 20
709.2437471526259
 30
0.0
 11
-280.9587957402837
 21
714.2437471526259
 31
0.0
  0
LINE
  5
346
330
19D
100
AcDbEntity
  8
2
  6
Continuous
 62
     7
370
    18
100
AcDbLine
 10
-296.9587957402837
 20
709.2437471526259
 30
0.0
 11
-296.9587957402837
 21
714.2437471526259
 31
0.0
  0
LINE
  5
347
330
19D
100
AcDbEntity
  8
2
  6
Continuous
 62
     7
370
    18
100
AcDbLine
 10
-271.2587957402839
 20
709.2437471526259
 30
0.0
 11
-306.6587957402835
 21
709.2437471526259
 31
0.0
  0
ARC
  5
348
330
19D
100
AcDbEntity
  8
2
  6
Continuous
 62
     7
370
    18
100
AcDbCircle
 10
-306.6587957402835
 20
708.4437471526257
 30
0.0
 40
0.8
100
AcDbArc
 50
90.0
 51
157.9756869999987
  0
ARC
  5
349
330
19D
100
AcDbEntity
  8
2
  6
Continuous
 62
     7
370
    18
100
AcDbCircle
 10
-271.2587957402839
 20
708.4437471526257
 30
0.0
 40
0.8
100
AcDbArc
 50
22.02431300000125
 51
90.0
  0
LINE
  5
34A
330
19D
100
AcDbEntity
  8
2
  6
Continuous
 62
     7
370
    18
100
AcDbLine
 10
-268.4587957402837
 20
320.7437471526259
 30
0.0
 11
-309.4587957402837
 21
320.7437471526259
 31
0.0
  0
LINE
  5
34B
330
19D
100
AcDbEntity
  8
2
  6
Continuous
 62
     7
370
    18
100
AcDbLine
 10
-280.9587957402837
 20
315.2437471526259
 30
0.0
 11
-296.9587957402837
 21
315.2437471526259
 31
0.0
  0
LINE
  5
34C
330
19D
100
AcDbEntity
  8
2
  6
Continuous
 62
     7
370
    18
100
AcDbLine
 10
-280.9587957402837
 20
320.2437471526259
 30
0.0
 11
-280.9587957402837
 21
315.2437471526259
 31
0.0
  0
LINE
  5
34D
330
19D
100
AcDbEntity
  8
2
  6
Continuous
 62
     7
370
    18
100
AcDbLine
 10
-296.9587957402837
 20
320.2437471526259
 30
0.0
 11
-296.9587957402837
 21
315.2437471526259
 31
0.0
  0
LINE
  5
34E
330
19D
100
AcDbEntity
  8
2
  6
Continuous
 62
     7
370
    18
100
AcDbLine
 10
-271.2587957402839
 20
320.2437471526259
 30
0.0
 11
-306.6587957402835
 21
320.2437471526259
 31
0.0
  0
ARC
  5
34F
330
19D
100
AcDbEntity
  8
2
  6
Continuous
 62
     7
370
    18
100
AcDbCircle
 10
-306.6587957402835
 20
321.0437471526261
 30
0.0
 40
0.8
100
AcDbArc
 50
202.0243130000013
 51
270.0
  0
ARC
  5
350
330
19D
100
AcDbEntity
  8
2
  6
Continuous
 62
     7
370
    18
100
AcDbCircle
 10
-271.2587957402839
 20
321.0437471526261
 30
0.0
 40
0.8
100
AcDbArc
 50
270.0
 51
337.9756869999987
  0
ENDBLK
  5
19F
330
19D
100
AcDbEntity
  8
0
100
AcDbBlockEnd
  0
BLOCK
  5
1A1
330
1A0
100
AcDbEntity
  8
0
100
AcDbBlockBegin
  2
DC_GROUP_W_JR-5721_S_030_64
 70
     0
 10
0.0
 20
0.0
 30
0.0
  3
DC_GROUP_W_JR-5721_S_030_64
  1
DC_GROUP_W_JR-5721_S_030_64
  0
LINE
  5
351
330
1A0
100
AcDbEntity
  8
2
  6
CENTER
 62
     3
370
    13
100
AcDbLine
 10
-134.9587957402837
 20
717.2437471526259
 30
0.0
 11
-134.9587957402837
 21
312.2437471526259
 31
0.0
  0
LINE
  5
352
330
1A0
100
AcDbEntity
  8
2
  6
Continuous
 62
     7
370
    18
100
AcDbLine
 10
-114.4587957402837
 20
708.7437471526259
 30
0.0
 11
-155.4587957402837
 21
708.7437471526259
 31
0.0
  0
ARC
  5
353
330
1A0
100
AcDbEntity
  8
2
  6
Continuous
 62
     7
370
    18
100
AcDbCircle
 10
-114.4587957402837
 20
700.6437471526256
 30
0.0
 40
8.1
100
AcDbArc
 50
0.0
 51
90.0
  0
LINE
  5
354
330
1A0
100
AcDbEntity
  8
2
  6
Continuous
 62
     7
370
    18
100
AcDbLine
 10
-106.3587957402838
 20
700.6437471526256
 30
0.0
 11
-106.3587957402838
 21
328.8437471526262
 31
0.0
  0
ARC
  5
355
330
1A0
100
AcDbEntity
  8
2
  6
Continuous
 62
     7
370
    18
100
AcDbCircle
 10
-114.4587957402837
 20
328.8437471526262
 30
0.0
 40
8.1
100
AcDbArc
 50
270.0
 51
0.0
  0
LINE
  5
356
330
1A0
100
AcDbEntity
  8
2
  6
Continuous
 62
     7
370
    18
100
AcDbLine
 10
-163.5587957402836
 20
328.8437471526262
 30
0.0
 11
-163.5587957402836
 21
700.6437471526256
 31
0.0
  0
ARC
  5
357
330
1A0
100
AcDbEntity
  8
2
  6
Continuous
 62
     7
370
    18
100
AcDbCircle
 10
-155.4587957402837
 20
328.8437471526262
 30
0.0
 40
8.1
100
AcDbArc
 50
180.0
 51
270.0
  0
ARC
  5
358
330
1A0
100
AcDbEntity
  8
2
  6
Continuous
 62
     7
370
    18
100
AcDbCircle
 10
-155.4587957402837
 20
700.6437471526256
 30
0.0
 40
8.1
100
AcDbArc
 50
90.0
 51
180.0
  0
LINE
  5
359
330
1A0
100
AcDbEntity
  8
2
  6
Continuous
 62
     7
370
    18
100
AcDbLine
 10
-126.9587957402837
 20
714.2437471526259
 30
0.0
 11
-142.9587957402837
 21
714.2437471526259
 31
0.0
  0
LINE
  5
35A
330
1A0
100
AcDbEntity
  8
2
  6
Continuous
 62
     7
370
    18
100
AcDbLine
 10
-126.9587957402837
 20
709.2437471526259
 30
0.0
 11
-126.9587957402837
 21
714.2437471526259
 31
0.0
  0
LINE
  5
35B
330
1A0
100
AcDbEntity
  8
2
  6
Continuous
 62
     7
370
    18
100
AcDbLine
 10
-142.9587957402837
 20
709.2437471526259
 30
0.0
 11
-142.9587957402837
 21
714.2437471526259
 31
0.0
  0
LINE
  5
35C
330
1A0
100
AcDbEntity
  8
2
  6
Continuous
 62
     7
370
    18
100
AcDbLine
 10
-117.2587957402839
 20
709.2437471526259
 30
0.0
 11
-152.6587957402835
 21
709.2437471526259
 31
0.0
  0
ARC
  5
35D
330
1A0
100
AcDbEntity
  8
2
  6
Continuous
 62
     7
370
    18
100
AcDbCircle
 10
-152.6587957402835
 20
708.4437471526257
 30
0.0
 40
0.8
100
AcDbArc
 50
90.0
 51
157.9756869999987
  0
ARC
  5
35E
330
1A0
100
AcDbEntity
  8
2
  6
Continuous
 62
     7
370
    18
100
AcDbCircle
 10
-117.2587957402839
 20
708.4437471526257
 30
0.0
 40
0.8
100
AcDbArc
 50
22.02431300000125
 51
90.0
  0
LINE
  5
35F
330
1A0
100
AcDbEntity
  8
2
  6
Continuous
 62
     7
370
    18
100
AcDbLine
 10
-114.4587957402837
 20
320.7437471526259
 30
0.0
 11
-155.4587957402837
 21
320.7437471526259
 31
0.0
  0
LINE
  5
360
330
1A0
100
AcDbEntity
  8
2
  6
Continuous
 62
     7
370
    18
100
AcDbLine
 10
-126.9587957402837
 20
315.2437471526259
 30
0.0
 11
-142.9587957402837
 21
315.2437471526259
 31
0.0
  0
LINE
  5
361
330
1A0
100
AcDbEntity
  8
2
  6
Continuous
 62
     7
370
    18
100
AcDbLine
 10
-126.9587957402837
 20
320.2437471526259
 30
0.0
 11
-126.9587957402837
 21
315.2437471526259
 31
0.0
  0
LINE
  5
362
330
1A0
100
AcDbEntity
  8
2
  6
Continuous
 62
     7
370
    18
100
AcDbLine
 10
-142.9587957402837
 20
320.2437471526259
 30
0.0
 11
-142.9587957402837
 21
315.2437471526259
 31
0.0
  0
LINE
  5
363
330
1A0
100
AcDbEntity
  8
2
  6
Continuous
 62
     7
370
    18
100
AcDbLine
 10
-117.2587957402839
 20
320.2437471526259
 30
0.0
 11
-152.6587957402835
 21
320.2437471526259
 31
0.0
  0
ARC
  5
364
330
1A0
100
AcDbEntity
  8
2
  6
Continuous
 62
     7
370
    18
100
AcDbCircle
 10
-152.6587957402835
 20
321.0437471526261
 30
0.0
 40
0.8
100
AcDbArc
 50
202.0243130000013
 51
270.0
  0
ARC
  5
365
330
1A0
100
AcDbEntity
  8
2
  6
Continuous
 62
     7
370
    18
100
AcDbCircle
 10
-117.2587957402839
 20
321.0437471526261
 30
0.0
 40
0.8
100
AcDbArc
 50
270.0
 51
337.9756869999987
  0
ENDBLK
  5
1A2
330
1A0
100
AcDbEntity
  8
0
100
AcDbBlockEnd
  0
BLOCK
  5
1A4
330
1A3
100
AcDbEntity
  8
0
100
AcDbBlockBegin
  2
DC_GROUP_W_JR-5721_S_030_65
 70
     0
 10
0.0
 20
0.0
 30
0.0
  3
DC_GROUP_W_JR-5721_S_030_65
  1
DC_GROUP_W_JR-5721_S_030_65
  0
LINE
  5
366
330
1A3
100
AcDbEntity
  8
2
  6
CENTER
 62
     3
370
    13
100
AcDbLine
 10
19.04120425971632
 20
717.2437471526259
 30
0.0
 11
19.04120425971632
 21
312.2437471526259
 31
0.0
  0
LINE
  5
367
330
1A3
100
AcDbEntity
  8
2
  6
Continuous
 62
     7
370
    18
100
AcDbLine
 10
39.54120425971632
 20
708.7437471526259
 30
0.0
 11
-1.458795740283676
 21
708.7437471526259
 31
0.0
  0
ARC
  5
368
330
1A3
100
AcDbEntity
  8
2
  6
Continuous
 62
     7
370
    18
100
AcDbCircle
 10
39.54120425971632
 20
700.6437471526256
 30
0.0
 40
8.1
100
AcDbArc
 50
0.0
 51
90.0
  0
LINE
  5
369
330
1A3
100
AcDbEntity
  8
2
  6
Continuous
 62
     7
370
    18
100
AcDbLine
 10
47.64120425971623
 20
700.6437471526256
 30
0.0
 11
47.64120425971623
 21
328.8437471526262
 31
0.0
  0
ARC
  5
36A
330
1A3
100
AcDbEntity
  8
2
  6
Continuous
 62
     7
370
    18
100
AcDbCircle
 10
39.54120425971632
 20
328.8437471526262
 30
0.0
 40
8.1
100
AcDbArc
 50
270.0
 51
0.0
  0
LINE
  5
36B
330
1A3
100
AcDbEntity
  8
2
  6
Continuous
 62
     7
370
    18
100
AcDbLine
 10
-9.558795740283585
 20
328.8437471526262
 30
0.0
 11
-9.558795740283585
 21
700.6437471526256
 31
0.0
  0
ARC
  5
36C
330
1A3
100
AcDbEntity
  8
2
  6
Continuous
 62
     7
370
    18
100
AcDbCircle
 10
-1.458795740283676
 20
328.8437471526262
 30
0.0
 40
8.1
100
AcDbArc
 50
180.0
 51
270.0
  0
ARC
  5
36D
330
1A3
100
AcDbEntity
  8
2
  6
Continuous
 62
     7
370
    18
100
AcDbCircle
 10
-1.458795740283676
 20
700.6437471526256
 30
0.0
 40
8.1
100
AcDbArc
 50
90.0
 51
180.0
  0
LINE
  5
36E
330
1A3
100
AcDbEntity
  8
2
  6
Continuous
 62
     7
370
    18
100
AcDbLine
 10
27.04120425971632
 20
714.2437471526259
 30
0.0
 11
11.04120425971632
 21
714.2437471526259
 31
0.0
  0
LINE
  5
36F
330
1A3
100
AcDbEntity
  8
2
  6
Continuous
 62
     7
370
    18
100
AcDbLine
 10
27.04120425971632
 20
709.2437471526259
 30
0.0
 11
27.04120425971632
 21
714.2437471526259
 31
0.0
  0
LINE
  5
370
330
1A3
100
AcDbEntity
  8
2
  6
Continuous
 62
     7
370
    18
100
AcDbLine
 10
11.04120425971632
 20
709.2437471526259
 30
0.0
 11
11.04120425971632
 21
714.2437471526259
 31
0.0
  0
LINE
  5
371
330
1A3
100
AcDbEntity
  8
2
  6
Continuous
 62
     7
370
    18
100
AcDbLine
 10
36.74120425971614
 20
709.2437471526259
 30
0.0
 11
1.341204259716505
 21
709.2437471526259
 31
0.0
  0
ARC
  5
372
330
1A3
100
AcDbEntity
  8
2
  6
Continuous
 62
     7
370
    18
100
AcDbCircle
 10
1.341204259716505
 20
708.4437471526257
 30
0.0
 40
0.8
100
AcDbArc
 50
90.0
 51
157.9756869999987
  0
ARC
  5
373
330
1A3
100
AcDbEntity
  8
2
  6
Continuous
 62
     7
370
    18
100
AcDbCircle
 10
36.74120425971614
 20
708.4437471526257
 30
0.0
 40
0.8
100
AcDbArc
 50
22.02431300000125
 51
90.0
  0
LINE
  5
374
330
1A3
100
AcDbEntity
  8
2
  6
Continuous
 62
     7
370
    18
100
AcDbLine
 10
39.54120425971632
 20
320.7437471526259
 30
0.0
 11
-1.458795740283676
 21
320.7437471526259
 31
0.0
  0
LINE
  5
375
330
1A3
100
AcDbEntity
  8
2
  6
Continuous
 62
     7
370
    18
100
AcDbLine
 10
27.04120425971632
 20
315.2437471526259
 30
0.0
 11
11.04120425971632
 21
315.2437471526259
 31
0.0
  0
LINE
  5
376
330
1A3
100
AcDbEntity
  8
2
  6
Continuous
 62
     7
370
    18
100
AcDbLine
 10
27.04120425971632
 20
320.2437471526259
 30
0.0
 11
27.04120425971632
 21
315.2437471526259
 31
0.0
  0
LINE
  5
377
330
1A3
100
AcDbEntity
  8
2
  6
Continuous
 62
     7
370
    18
100
AcDbLine
 10
11.04120425971632
 20
320.2437471526259
 30
0.0
 11
11.04120425971632
 21
315.2437471526259
 31
0.0
  0
LINE
  5
378
330
1A3
100
AcDbEntity
  8
2
  6
Continuous
 62
     7
370
    18
100
AcDbLine
 10
36.74120425971614
 20
320.2437471526259
 30
0.0
 11
1.341204259716505
 21
320.2437471526259
 31
0.0
  0
ARC
  5
379
330
1A3
100
AcDbEntity
  8
2
  6
Continuous
 62
     7
370
    18
100
AcDbCircle
 10
1.341204259716505
 20
321.0437471526261
 30
0.0
 40
0.8
100
AcDbArc
 50
202.0243130000013
 51
270.0
  0
ARC
  5
37A
330
1A3
100
AcDbEntity
  8
2
  6
Continuous
 62
     7
370
    18
100
AcDbCircle
 10
36.74120425971614
 20
321.0437471526261
 30
0.0
 40
0.8
100
AcDbArc
 50
270.0
 51
337.9756869999987
  0
ENDBLK
  5
1A5
330
1A3
100
AcDbEntity
  8
0
100
AcDbBlockEnd
  0
BLOCK
  5
1A7
330
1A6
100
AcDbEntity
  8
0
100
AcDbBlockBegin
  2
DC_GROUP_W_JR-5721_S_030_66
 70
     0
 10
0.0
 20
0.0
 30
0.0
  3
DC_GROUP_W_JR-5721_S_030_66
  1
DC_GROUP_W_JR-5721_S_030_66
  0
LINE
  5
37B
330
1A6
100
AcDbEntity
  8
2
  6
CENTER
 62
     3
370
    13
100
AcDbLine
 10
173.0412042597163
 20
717.2437471526259
 30
0.0
 11
173.0412042597163
 21
312.2437471526259
 31
0.0
  0
LINE
  5
37C
330
1A6
100
AcDbEntity
  8
2
  6
Continuous
 62
     7
370
    18
100
AcDbLine
 10
193.5412042597163
 20
708.7437471526259
 30
0.0
 11
152.5412042597163
 21
708.7437471526259
 31
0.0
  0
ARC
  5
37D
330
1A6
100
AcDbEntity
  8
2
  6
Continuous
 62
     7
370
    18
100
AcDbCircle
 10
193.5412042597163
 20
700.6437471526256
 30
0.0
 40
8.1
100
AcDbArc
 50
0.0
 51
90.0
  0
LINE
  5
37E
330
1A6
100
AcDbEntity
  8
2
  6
Continuous
 62
     7
370
    18
100
AcDbLine
 10
201.6412042597162
 20
700.6437471526256
 30
0.0
 11
201.6412042597162
 21
328.8437471526262
 31
0.0
  0
ARC
  5
37F
330
1A6
100
AcDbEntity
  8
2
  6
Continuous
 62
     7
370
    18
100
AcDbCircle
 10
193.5412042597163
 20
328.8437471526262
 30
0.0
 40
8.1
100
AcDbArc
 50
270.0
 51
0.0
  0
LINE
  5
380
330
1A6
100
AcDbEntity
  8
2
  6
Continuous
 62
     7
370
    18
100
AcDbLine
 10
144.4412042597164
 20
328.8437471526262
 30
0.0
 11
144.4412042597164
 21
700.6437471526256
 31
0.0
  0
ARC
  5
381
330
1A6
100
AcDbEntity
  8
2
  6
Continuous
 62
     7
370
    18
100
AcDbCircle
 10
152.5412042597163
 20
328.8437471526262
 30
0.0
 40
8.1
100
AcDbArc
 50
180.0
 51
270.0
  0
ARC
  5
382
330
1A6
100
AcDbEntity
  8
2
  6
Continuous
 62
     7
370
    18
100
AcDbCircle
 10
152.5412042597163
 20
700.6437471526256
 30
0.0
 40
8.1
100
AcDbArc
 50
90.0
 51
180.0
  0
LINE
  5
383
330
1A6
100
AcDbEntity
  8
2
  6
Continuous
 62
     7
370
    18
100
AcDbLine
 10
181.0412042597163
 20
714.2437471526259
 30
0.0
 11
165.0412042597163
 21
714.2437471526259
 31
0.0
  0
LINE
  5
384
330
1A6
100
AcDbEntity
  8
2
  6
Continuous
 62
     7
370
    18
100
AcDbLine
 10
181.0412042597163
 20
709.2437471526259
 30
0.0
 11
181.0412042597163
 21
714.2437471526259
 31
0.0
  0
LINE
  5
385
330
1A6
100
AcDbEntity
  8
2
  6
Continuous
 62
     7
370
    18
100
AcDbLine
 10
165.0412042597163
 20
709.2437471526259
 30
0.0
 11
165.0412042597163
 21
714.2437471526259
 31
0.0
  0
LINE
  5
386
330
1A6
100
AcDbEntity
  8
2
  6
Continuous
 62
     7
370
    18
100
AcDbLine
 10
190.7412042597161
 20
709.2437471526259
 30
0.0
 11
155.3412042597165
 21
709.2437471526259
 31
0.0
  0
ARC
  5
387
330
1A6
100
AcDbEntity
  8
2
  6
Continuous
 62
     7
370
    18
100
AcDbCircle
 10
155.3412042597165
 20
708.4437471526257
 30
0.0
 40
0.8
100
AcDbArc
 50
90.0
 51
157.9756869999987
  0
ARC
  5
388
330
1A6
100
AcDbEntity
  8
2
  6
Continuous
 62
     7
370
    18
100
AcDbCircle
 10
190.7412042597161
 20
708.4437471526257
 30
0.0
 40
0.8
100
AcDbArc
 50
22.02431300000125
 51
90.0
  0
LINE
  5
389
330
1A6
100
AcDbEntity
  8
2
  6
Continuous
 62
     7
370
    18
100
AcDbLine
 10
193.5412042597163
 20
320.7437471526259
 30
0.0
 11
152.5412042597163
 21
320.7437471526259
 31
0.0
  0
LINE
  5
38A
330
1A6
100
AcDbEntity
  8
2
  6
Continuous
 62
     7
370
    18
100
AcDbLine
 10
181.0412042597163
 20
315.2437471526259
 30
0.0
 11
165.0412042597163
 21
315.2437471526259
 31
0.0
  0
LINE
  5
38B
330
1A6
100
AcDbEntity
  8
2
  6
Continuous
 62
     7
370
    18
100
AcDbLine
 10
181.0412042597163
 20
320.2437471526259
 30
0.0
 11
181.0412042597163
 21
315.2437471526259
 31
0.0
  0
LINE
  5
38C
330
1A6
100
AcDbEntity
  8
2
  6
Continuous
 62
     7
370
    18
100
AcDbLine
 10
165.0412042597163
 20
320.2437471526259
 30
0.0
 11
165.0412042597163
 21
315.2437471526259
 31
0.0
  0
LINE
  5
38D
330
1A6
100
AcDbEntity
  8
2
  6
Continuous
 62
     7
370
    18
100
AcDbLine
 10
190.7412042597161
 20
320.2437471526259
 30
0.0
 11
155.3412042597165
 21
320.2437471526259
 31
0.0
  0
ARC
  5
38E
330
1A6
100
AcDbEntity
  8
2
  6
Continuous
 62
     7
370
    18
100
AcDbCircle
 10
155.3412042597165
 20
321.0437471526261
 30
0.0
 40
0.8
100
AcDbArc
 50
202.0243130000013
 51
270.0
  0
ARC
  5
38F
330
1A6
100
AcDbEntity
  8
2
  6
Continuous
 62
     7
370
    18
100
AcDbCircle
 10
190.7412042597161
 20
321.0437471526261
 30
0.0
 40
0.8
100
AcDbArc
 50
270.0
 51
337.9756869999987
  0
ENDBLK
  5
1A8
330
1A6
100
AcDbEntity
  8
0
100
AcDbBlockEnd
  0
BLOCK
  5
1AA
330
1A9
100
AcDbEntity
  8
0
100
AcDbBlockBegin
  2
DC_GROUP_W_JR-5721_S_030_67
 70
     0
 10
0.0
 20
0.0
 30
0.0
  3
DC_GROUP_W_JR-5721_S_030_67
  1
DC_GROUP_W_JR-5721_S_030_67
  0
TEXT
  5
390
330
1A9
100
AcDbEntity
  8
0
 62
     2
100
AcDbText
 10
795.3949214179211
 20
-236.8172157244089
 30
0.0
 40
24.0
  1
断面図
 41
0.6877579092159559
  7
dcStyle0
 72
     5
 11
867.3949214179211
 21
-236.8172157244089
 31
0.0
100
AcDbText
  0
LINE
  5
391
330
1A9
100
AcDbEntity
  8
0
  6
Continuous
 62
     2
370
    13
100
AcDbLine
 10
792.3949214179211
 20
-242.8172157244089
 30
0.0
 11
870.3949214179211
 21
-242.8172157244089
 31
0.0
  0
ENDBLK
  5
1AB
330
1A9
100
AcDbEntity
  8
0
100
AcDbBlockEnd
  0
BLOCK
  5
1AD
330
1AC
100
AcDbEntity
  8
0
100
AcDbBlockBegin
  2
*D85
 70
     1
 10
0.0
 20
0.0
 30
0.0
  3
*D85
  1
*D85
  0
LINE
  5
392
330
1AC
100
AcDbEntity
  8
0
  6
Continuous
 62
     2
370
    13
100
AcDbLine
 10
630.0376309191867
 20
158.943747145814
 30
0.0
 11
1030.037630919187
 21
158.943747145814
 31
0.0
  0
INSERT
  5
393
330
1AC
100
AcDbEntity
  8
0
 62
     2
100
AcDbBlockReference
  2
_OPEN30
 10
630.0376309191867
 20
158.943747145814
 30
0.0
 41
18.00001684569172
 42
17.99993620934186
 50
180.0
  0
INSERT
  5
394
330
1AC
100
AcDbEntity
  8
0
 62
     2
100
AcDbBlockReference
  2
_OPEN30
 10
1030.037630919187
 20
158.943747145814
 30
0.0
 41
18.00001684569172
 42
17.99993620934186
 50
360.0
  0
LINE
  5
395
330
1AC
100
AcDbEntity
  8
0
  6
Continuous
 62
     2
370
    13
100
AcDbLine
 10
630.0376309191868
 20
-12.90625285418731
 30
0.0
 11
630.0376309191867
 21
161.943747145814
 31
0.0
  0
LINE
  5
396
330
1AC
100
AcDbEntity
  8
0
  6
Continuous
 62
     2
370
    13
100
AcDbLine
 10
1030.037630919187
 20
-12.90625285418731
 30
0.0
 11
1030.037630919187
 21
161.943747145814
 31
0.0
  0
MTEXT
  5
397
330
1AC
100
AcDbEntity
  8
0
 62
     2
100
AcDbMText
 10
830.0376309191869
 20
164.943747145814
 30
0.0
 40
24.0
 41
110.9999999999999
 46
0.0
 71
     8
 72
     1
  1
\T1.00;呼び幅
  7
dcStyle0
 73
     1
 44
1.0
  0
ENDBLK
  5
1AE
330
1AC
100
AcDbEntity
  8
0
100
AcDbBlockEnd
  0
BLOCK
  5
1B0
330
1AF
100
AcDbEntity
  8
0
100
AcDbBlockBegin
  2
*D86
 70
     1
 10
0.0
 20
0.0
 30
0.0
  3
*D86
  1
*D86
  0
LINE
  5
398
330
1AF
100
AcDbEntity
  8
0
  6
Continuous
 62
     2
370
    13
100
AcDbLine
 10
600.0376309191869
 20
218.943747145814
 30
0.0
 11
1060.037630919187
 21
218.943747145814
 31
0.0
  0
INSERT
  5
399
330
1AF
100
AcDbEntity
  8
0
 62
     2
100
AcDbBlockReference
  2
_OPEN30
 10
600.0376309191869
 20
218.943747145814
 30
0.0
 41
18.00001684569172
 42
17.99993620934186
 50
180.0
  0
INSERT
  5
39A
330
1AF
100
AcDbEntity
  8
0
 62
     2
100
AcDbBlockReference
  2
_OPEN30
 10
1060.037630919187
 20
218.943747145814
 30
0.0
 41
18.00001684569172
 42
17.99993620934186
 50
360.0
  0
LINE
  5
39B
330
1AF
100
AcDbEntity
  8
0
  6
Continuous
 62
     2
370
    13
100
AcDbLine
 10
600.0376309191869
 20
-8.606252854187133
 30
0.0
 11
600.0376309191869
 21
221.943747145814
 31
0.0
  0
LINE
  5
39C
330
1AF
100
AcDbEntity
  8
0
  6
Continuous
 62
     2
370
    13
100
AcDbLine
 10
1060.037630919187
 20
-9.606252854187133
 30
0.0
 11
1060.037630919187
 21
221.943747145814
 31
0.0
  0
MTEXT
  5
39D
330
1AF
100
AcDbEntity
  8
0
 62
     2
100
AcDbMText
 10
830.0376309191868
 20
224.943747145814
 30
0.0
 40
24.0
 41
255.0
 46
0.0
 71
     8
 72
     1
  1
\T1.00;機幅＝呼び幅+60
  7
dcStyle0
 73
     1
 44
1.0
  0
ENDBLK
  5
1B1
330
1AF
100
AcDbEntity
  8
0
100
AcDbBlockEnd
  0
BLOCK
  5
1B3
330
1B2
100
AcDbEntity
  8
0
100
AcDbBlockBegin
  2
*D87
 70
     1
 10
0.0
 20
0.0
 30
0.0
  3
*D87
  1
*D87
  0
LINE
  5
39E
330
1B2
100
AcDbEntity
  8
0
  6
Continuous
 62
     2
370
    13
100
AcDbLine
 10
600.0376309191869
 20
-192.6062528541871
 30
0.0
 11
612.5376319191868
 21
-192.6062528541871
 31
0.0
  0
LINE
  5
39F
330
1B2
100
AcDbEntity
  8
0
  6
Continuous
 62
     2
370
    13
100
AcDbLine
 10
600.0376309191869
 20
-109.6062528541871
 30
0.0
 11
600.0376309191869
 21
-195.1062528541871
 31
0.0
  0
LINE
  5
3A0
330
1B2
100
AcDbEntity
  8
0
  6
Continuous
 62
     2
370
    13
100
AcDbLine
 10
612.5376319191868
 20
-119.5004088541874
 30
0.0
 11
612.5376319191868
 21
-195.1062528541871
 31
0.0
  0
LINE
  5
3A1
330
1B2
100
AcDbEntity
  8
0
  6
Continuous
 62
     2
370
    13
100
AcDbLine
 10
544.8326309191868
 20
-192.6062528541871
 30
0.0
 11
600.0376309191869
 21
-192.6062528541871
 31
0.0
  0
INSERT
  5
3A2
330
1B2
100
AcDbEntity
  8
0
 62
     2
100
AcDbBlockReference
  2
_OPEN30
 10
600.0376309191869
 20
-192.6062528541871
 30
0.0
 41
18.00001684569172
 42
17.99993620934186
 50
360.0
  0
MTEXT
  5
3A3
330
1B2
100
AcDbEntity
  8
0
 62
     2
100
AcDbMText
 10
592.8326309191868
 20
-187.6062528541871
 30
0.0
 40
24.0
 41
90.0
 46
0.0
 71
     9
 72
     1
  1
\T1.00;12.5
  7
dcStyle0
 73
     1
 44
1.0
  0
ENDBLK
  5
1B4
330
1B2
100
AcDbEntity
  8
0
100
AcDbBlockEnd
  0
BLOCK
  5
1B6
330
1B5
100
AcDbEntity
  8
0
100
AcDbBlockBegin
  2
*D88
 70
     1
 10
0.0
 20
0.0
 30
0.0
  3
*D88
  1
*D88
  0
LINE
  5
3A4
330
1B5
100
AcDbEntity
  8
0
  6
Continuous
 62
     2
370
    13
100
AcDbLine
 10
612.5376319191868
 20
-192.6062528541871
 30
0.0
 11
1047.537631919187
 21
-192.6062528541871
 31
0.0
  0
INSERT
  5
3A5
330
1B5
100
AcDbEntity
  8
0
 62
     2
100
AcDbBlockReference
  2
_OPEN30
 10
612.5376319191868
 20
-192.6062528541871
 30
0.0
 41
18.00001684569172
 42
17.99993620934186
 50
180.0
  0
INSERT
  5
3A6
330
1B5
100
AcDbEntity
  8
0
 62
     2
100
AcDbBlockReference
  2
_OPEN30
 10
1047.537631919187
 20
-192.6062528541871
 30
0.0
 41
18.00001684569172
 42
17.99993620934186
 50
360.0
  0
LINE
  5
3A7
330
1B5
100
AcDbEntity
  8
0
  6
Continuous
 62
     2
370
    13
100
AcDbLine
 10
612.5376319191868
 20
-119.5004088541874
 30
0.0
 11
612.5376319191868
 21
-195.1062528541871
 31
0.0
  0
LINE
  5
3A8
330
1B5
100
AcDbEntity
  8
0
  6
Continuous
 62
     2
370
    13
100
AcDbLine
 10
1047.537631919187
 20
-119.6062528541871
 30
0.0
 11
1047.537631919187
 21
-195.1062528541871
 31
0.0
  0
MTEXT
  5
3A9
330
1B5
100
AcDbEntity
  8
0
 62
     2
100
AcDbMText
 10
830.0376319191868
 20
-186.6062528541871
 30
0.0
 40
24.0
 41
165.0
 46
0.0
 71
     8
 72
     1
  1
\T1.00;呼び幅+35
  7
dcStyle0
 73
     1
 44
1.0
  0
ENDBLK
  5
1B7
330
1B5
100
AcDbEntity
  8
0
100
AcDbBlockEnd
  0
BLOCK
  5
1B9
330
1B8
100
AcDbEntity
  8
0
100
AcDbBlockBegin
  2
*D89
 70
     1
 10
0.0
 20
0.0
 30
0.0
  3
*D89
  1
*D89
  0
LINE
  5
3AA
330
1B8
100
AcDbEntity
  8
0
  6
Continuous
 62
     2
370
    13
100
AcDbLine
 10
1047.537631919187
 20
-192.6062528541871
 30
0.0
 11
1060.037630919187
 21
-192.6062528541871
 31
0.0
  0
LINE
  5
3AB
330
1B8
100
AcDbEntity
  8
0
  6
Continuous
 62
     2
370
    13
100
AcDbLine
 10
1047.537631919187
 20
-119.6062528541871
 30
0.0
 11
1047.537631919187
 21
-195.1062528541871
 31
0.0
  0
LINE
  5
3AC
330
1B8
100
AcDbEntity
  8
0
  6
Continuous
 62
     2
370
    13
100
AcDbLine
 10
1060.037630919187
 20
-109.6062528541871
 30
0.0
 11
1060.037630919187
 21
-195.1062528541871
 31
0.0
  0
LINE
  5
3AD
330
1B8
100
AcDbEntity
  8
0
  6
Continuous
 62
     2
370
    13
100
AcDbLine
 10
1128.809185520303
 20
-192.6062528541871
 30
0.0
 11
1060.037630919187
 21
-192.6062528541871
 31
0.0
  0
INSERT
  5
3AE
330
1B8
100
AcDbEntity
  8
0
 62
     2
100
AcDbBlockReference
  2
_OPEN30
 10
1060.037630919187
 20
-192.6062528541871
 30
0.0
 41
18.00001684569172
 42
17.99993620934186
 50
180.0
  0
MTEXT
  5
3AF
330
1B8
100
AcDbEntity
  8
0
 62
     2
100
AcDbMText
 10
1080.809185520303
 20
-186.6062528541871
 30
0.0
 40
24.0
 41
90.0
 46
0.0
 71
     7
 72
     1
  1
\T1.00;12.5
  7
dcStyle0
 73
     1
 44
1.0
  0
ENDBLK
  5
1BA
330
1B8
100
AcDbEntity
  8
0
100
AcDbBlockEnd
  0
BLOCK
  5
1BC
330
1BB
100
AcDbEntity
  8
0
100
AcDbBlockBegin
  2
*D90
 70
     1
 10
0.0
 20
0.0
 30
0.0
  3
*D90
  1
*D90
  0
LINE
  5
3B0
330
1BB
100
AcDbEntity
  8
0
  6
Continuous
 62
     2
370
    13
100
AcDbLine
 10
468.0376309191869
 20
-104.6062528541871
 30
0.0
 11
468.0376309191869
 21
-14.60625285418712
 31
0.0
  0
INSERT
  5
3B1
330
1BB
100
AcDbEntity
  8
0
 62
     2
100
AcDbBlockReference
  2
_OPEN30
 10
468.0376309191869
 20
-104.6062528541871
 30
0.0
 41
18.00001684569172
 42
17.99993620934186
 50
270.0
  0
INSERT
  5
3B2
330
1BB
100
AcDbEntity
  8
0
 62
     2
100
AcDbBlockReference
  2
_OPEN30
 10
468.0376309191869
 20
-14.60625285418712
 30
0.0
 41
18.00001684569172
 42
17.99993620934186
 50
90.0
  0
LINE
  5
3B3
330
1BB
100
AcDbEntity
  8
0
  6
Continuous
 62
     2
370
    13
100
AcDbLine
 10
594.0376309191869
 20
-104.6062528541871
 30
0.0
 11
465.0376309191869
 21
-104.6062528541871
 31
0.0
  0
LINE
  5
3B4
330
1BB
100
AcDbEntity
  8
0
  6
Continuous
 62
     2
370
    13
100
AcDbLine
 10
594.0376309191869
 20
-14.60625285418713
 30
0.0
 11
465.0376309191869
 21
-14.60625285418712
 31
0.0
  0
MTEXT
  5
3B5
330
1BB
100
AcDbEntity
  8
0
 62
     2
100
AcDbMText
 10
463.0376309191869
 20
-59.60625285418712
 30
0.0
 40
24.0
 41
59.99999999999999
 46
0.0
 71
     8
 72
     1
  1
\T1.00;90
  7
dcStyle0
 11
6.123233995736766E-17
 21
1.0
 31
0.0
 73
     1
 44
1.0
  0
ENDBLK
  5
1BD
330
1BB
100
AcDbEntity
  8
0
100
AcDbBlockEnd
  0
BLOCK
  5
1BF
330
1BE
100
AcDbEntity
  8
0
100
AcDbBlockBegin
  2
*D91
 70
     1
 10
0.0
 20
0.0
 30
0.0
  3
*D91
  1
*D91
  0
LINE
  5
3B6
330
1BE
100
AcDbEntity
  8
0
  6
Continuous
 62
     2
370
    13
100
AcDbLine
 10
600.0376309191869
 20
158.943747145814
 30
0.0
 11
630.0376309191867
 21
158.943747145814
 31
0.0
  0
LINE
  5
3B7
330
1BE
100
AcDbEntity
  8
0
  6
Continuous
 62
     2
370
    13
100
AcDbLine
 10
600.0376309191869
 20
-8.606252854187133
 30
0.0
 11
600.0376309191869
 21
161.943747145814
 31
0.0
  0
LINE
  5
3B8
330
1BE
100
AcDbEntity
  8
0
  6
Continuous
 62
     2
370
    13
100
AcDbLine
 10
630.0376309191868
 20
-12.90625285418731
 30
0.0
 11
630.0376309191867
 21
161.943747145814
 31
0.0
  0
LINE
  5
3B9
330
1BE
100
AcDbEntity
  8
0
  6
Continuous
 62
     2
370
    13
100
AcDbLine
 10
582.5376309191869
 20
158.943747145814
 30
0.0
 11
600.0376309191869
 21
158.943747145814
 31
0.0
  0
INSERT
  5
3BA
330
1BE
100
AcDbEntity
  8
0
 62
     2
100
AcDbBlockReference
  2
_OPEN30
 10
600.0376309191869
 20
158.943747145814
 30
0.0
 41
18.00001684569172
 42
17.99993620934186
 50
360.0
  0
LINE
  5
3BB
330
1BE
100
AcDbEntity
  8
0
  6
Continuous
 62
     2
370
    13
100
AcDbLine
 10
647.5376309191867
 20
158.943747145814
 30
0.0
 11
630.0376309191867
 21
158.943747145814
 31
0.0
  0
INSERT
  5
3BC
330
1BE
100
AcDbEntity
  8
0
 62
     2
100
AcDbBlockReference
  2
_OPEN30
 10
630.0376309191867
 20
158.943747145814
 30
0.0
 41
18.00001684569172
 42
17.99993620934186
 50
180.0
  0
MTEXT
  5
3BD
330
1BE
100
AcDbEntity
  8
0
 62
     2
100
AcDbMText
 10
615.0376309191868
 20
163.943747145814
 30
0.0
 40
24.0
 41
60.0
 46
0.0
 71
     8
 72
     1
  1
\T1.00;30
  7
dcStyle0
 73
     1
 44
1.0
  0
ENDBLK
  5
1C0
330
1BE
100
AcDbEntity
  8
0
100
AcDbBlockEnd
  0
BLOCK
  5
1C2
330
1C1
100
AcDbEntity
  8
0
100
AcDbBlockBegin
  2
*D92
 70
     1
 10
0.0
 20
0.0
 30
0.0
  3
*D92
  1
*D92
  0
LINE
  5
3BE
330
1C1
100
AcDbEntity
  8
0
  6
Continuous
 62
     2
370
    13
100
AcDbLine
 10
1030.037630919187
 20
158.943747145814
 30
0.0
 11
1060.037630919187
 21
158.943747145814
 31
0.0
  0
LINE
  5
3BF
330
1C1
100
AcDbEntity
  8
0
  6
Continuous
 62
     2
370
    13
100
AcDbLine
 10
1030.037630919187
 20
-12.90625285418731
 30
0.0
 11
1030.037630919187
 21
161.943747145814
 31
0.0
  0
LINE
  5
3C0
330
1C1
100
AcDbEntity
  8
0
  6
Continuous
 62
     2
370
    13
100
AcDbLine
 10
1060.037630919187
 20
-9.606252854187133
 30
0.0
 11
1060.037630919187
 21
161.943747145814
 31
0.0
  0
LINE
  5
3C1
330
1C1
100
AcDbEntity
  8
0
  6
Continuous
 62
     2
370
    13
100
AcDbLine
 10
1012.537630919187
 20
158.943747145814
 30
0.0
 11
1030.037630919187
 21
158.943747145814
 31
0.0
  0
INSERT
  5
3C2
330
1C1
100
AcDbEntity
  8
0
 62
     2
100
AcDbBlockReference
  2
_OPEN30
 10
1030.037630919187
 20
158.943747145814
 30
0.0
 41
18.00001684569172
 42
17.99993620934186
 50
360.0
  0
LINE
  5
3C3
330
1C1
100
AcDbEntity
  8
0
  6
Continuous
 62
     2
370
    13
100
AcDbLine
 10
1077.537630919187
 20
158.943747145814
 30
0.0
 11
1060.037630919187
 21
158.943747145814
 31
0.0
  0
INSERT
  5
3C4
330
1C1
100
AcDbEntity
  8
0
 62
     2
100
AcDbBlockReference
  2
_OPEN30
 10
1060.037630919187
 20
158.943747145814
 30
0.0
 41
18.00001684569172
 42
17.99993620934186
 50
180.0
  0
MTEXT
  5
3C5
330
1C1
100
AcDbEntity
  8
0
 62
     2
100
AcDbMText
 10
1045.037630919187
 20
163.943747145814
 30
0.0
 40
24.0
 41
60.0
 46
0.0
 71
     8
 72
     1
  1
\T1.00;30
  7
dcStyle0
 73
     1
 44
1.0
  0
ENDBLK
  5
1C3
330
1C1
100
AcDbEntity
  8
0
100
AcDbBlockEnd
  0
BLOCK
  5
1C5
330
1C4
100
AcDbEntity
  8
0
100
AcDbBlockBegin
  2
*D93
 70
     1
 10
0.0
 20
0.0
 30
0.0
  3
*D93
  1
*D93
  0
LINE
  5
3C6
330
1C4
100
AcDbEntity
  8
0
  6
Continuous
 62
     2
370
    13
100
AcDbLine
 10
528.0376309191869
 20
-104.6062528541871
 30
0.0
 11
528.0376309191869
 21
-33.10625285418713
 31
0.0
  0
INSERT
  5
3C7
330
1C4
100
AcDbEntity
  8
0
 62
     2
100
AcDbBlockReference
  2
_OPEN30
 10
528.0376309191869
 20
-104.6062528541871
 30
0.0
 41
18.00001684569172
 42
17.99993620934186
 50
270.0
  0
INSERT
  5
3C8
330
1C4
100
AcDbEntity
  8
0
 62
     2
100
AcDbBlockReference
  2
_OPEN30
 10
528.0376309191869
 20
-33.10625285418713
 30
0.0
 41
18.00001684569172
 42
17.99993620934186
 50
90.0
  0
LINE
  5
3C9
330
1C4
100
AcDbEntity
  8
0
  6
Continuous
 62
     2
370
    13
100
AcDbLine
 10
594.0376309191869
 20
-104.6062528541871
 30
0.0
 11
525.0376309191869
 21
-104.6062528541871
 31
0.0
  0
LINE
  5
3CA
330
1C4
100
AcDbEntity
  8
0
  6
Continuous
 62
     2
370
    13
100
AcDbLine
 10
606.7376309191868
 20
-33.10625285418713
 30
0.0
 11
525.0376309191869
 21
-33.10625285418713
 31
0.0
  0
MTEXT
  5
3CB
330
1C4
100
AcDbEntity
  8
0
 62
     2
100
AcDbMText
 10
523.0376309191869
 20
-68.85625285418713
 30
0.0
 40
24.0
 41
90.0
 46
0.0
 71
     8
 72
     1
  1
\T1.00;71.5
  7
dcStyle0
 11
6.123233995736766E-17
 21
1.0
 31
0.0
 73
     1
 44
1.0
  0
ENDBLK
  5
1C6
330
1C4
100
AcDbEntity
  8
0
100
AcDbBlockEnd
  0
BLOCK
  5
1C8
330
1C7
100
AcDbEntity
  8
0
100
AcDbBlockBegin
  2
*D94
 70
     1
 10
0.0
 20
0.0
 30
0.0
  3
*D94
  1
*D94
  0
LINE
  5
3CC
330
1C7
100
AcDbEntity
  8
0
  6
Continuous
 62
     2
370
    13
100
AcDbLine
 10
408.0376309191869
 20
-104.6062528541871
 30
0.0
 11
408.0376309191869
 21
-4.506252854186755
 31
0.0
  0
INSERT
  5
3CD
330
1C7
100
AcDbEntity
  8
0
 62
     2
100
AcDbBlockReference
  2
_OPEN30
 10
408.0376309191869
 20
-104.6062528541871
 30
0.0
 41
18.00001684569172
 42
17.99993620934186
 50
270.0
  0
INSERT
  5
3CE
330
1C7
100
AcDbEntity
  8
0
 62
     2
100
AcDbBlockReference
  2
_OPEN30
 10
408.0376309191869
 20
-4.506252854186755
 30
0.0
 41
18.00001684569172
 42
17.99993620934186
 50
90.0
  0
LINE
  5
3CF
330
1C7
100
AcDbEntity
  8
0
  6
Continuous
 62
     2
370
    13
100
AcDbLine
 10
594.0376309191869
 20
-104.6062528541871
 30
0.0
 11
405.0376309191869
 21
-104.6062528541871
 31
0.0
  0
LINE
  5
3D0
330
1C7
100
AcDbEntity
  8
0
  6
Continuous
 62
     2
370
    13
100
AcDbLine
 10
639.1376309191868
 20
-4.506252854186769
 30
0.0
 11
405.0376309191869
 21
-4.506252854186755
 31
0.0
  0
MTEXT
  5
3D1
330
1C7
100
AcDbEntity
  8
0
 62
     2
100
AcDbMText
 10
403.0376309191869
 20
-54.55625285418694
 30
0.0
 40
24.0
 41
75.0
 46
0.0
 71
     8
 72
     1
  1
\T1.00;100
  7
dcStyle0
 11
6.123233995736766E-17
 21
1.0
 31
0.0
 73
     1
 44
1.0
  0
ENDBLK
  5
1C9
330
1C7
100
AcDbEntity
  8
0
100
AcDbBlockEnd
  0
BLOCK
  5
1CB
330
1CA
100
AcDbEntity
  8
0
100
AcDbBlockBegin
  2
DC_GROUP_W_JR-5721_S_030_68
 70
     0
 10
0.0
 20
0.0
 30
0.0
  3
DC_GROUP_W_JR-5721_S_030_68
  1
DC_GROUP_W_JR-5721_S_030_68
  0
LINE
  5
3D2
330
1CA
100
AcDbEntity
  8
2
  6
Continuous
 62
     7
370
    18
100
AcDbLine
 10
1044.737630919187
 20
-39.10625285418713
 30
0.0
 11
1044.737630919187
 21
-27.10625285418713
 31
0.0
  0
LINE
  5
3D3
330
1CA
100
AcDbEntity
  8
2
  6
Continuous
 62
     7
370
    18
100
AcDbLine
 10
1029.537629919187
 20
-27.10625285418713
 30
0.0
 11
1030.037630919187
 21
-27.10625285418713
 31
0.0
  0
LINE
  5
3D4
330
1CA
100
AcDbEntity
  8
2
  6
Continuous
 62
     7
370
    18
100
AcDbLine
 10
1030.037630919187
 20
-39.10625285418713
 30
0.0
 11
1029.537629919187
 21
-39.10625285418713
 31
0.0
  0
LINE
  5
3D5
330
1CA
100
AcDbEntity
  8
2
  6
Continuous
 62
     7
370
    18
100
AcDbLine
 10
630.5376319191867
 20
-39.10625285418713
 30
0.0
 11
630.0376309191868
 21
-39.10625285418713
 31
0.0
  0
LINE
  5
3D6
330
1CA
100
AcDbEntity
  8
2
  6
Continuous
 62
     7
370
    18
100
AcDbLine
 10
616.7376309191867
 20
-39.10625285418713
 30
0.0
 11
616.7376309191867
 21
-29.10625285418713
 31
0.0
  0
ARC
  5
3D7
330
1CA
100
AcDbEntity
  8
2
  6
Continuous
 62
     7
370
    18
100
AcDbCircle
 10
623.2376309191866
 20
-40.10625285418713
 30
0.0
 40
1.0
100
AcDbArc
 50
179.9999980000102
 51
0.0
  0
LINE
  5
3D8
330
1CA
100
AcDbEntity
  8
2
  6
Continuous
 62
     7
370
    18
100
AcDbLine
 10
622.2376309191866
 20
-33.40625285418731
 30
0.0
 11
622.2376309191866
 21
-40.10625285418713
 31
0.0
  0
LINE
  5
3D9
330
1CA
100
AcDbEntity
  8
2
  6
Continuous
 62
     7
370
    18
100
AcDbLine
 10
624.2376309191866
 20
-33.40625285418731
 30
0.0
 11
624.2376309191866
 21
-40.10625285418713
 31
0.0
  0
ARC
  5
3DA
330
1CA
100
AcDbEntity
  8
2
  6
Continuous
 62
     7
370
    18
100
AcDbCircle
 10
623.2376309191866
 20
-33.40625285418731
 30
0.0
 40
1.0
100
AcDbArc
 50
0.0
 51
180.0000139999806
  0
ARC
  5
3DB
330
1CA
100
AcDbEntity
  8
2
  6
Continuous
 62
     7
370
    18
100
AcDbCircle
 10
623.2376309191866
 20
-33.10625285418713
 30
0.0
 40
1.3
100
AcDbArc
 50
320.2848630000091
 51
219.7151369999908
  0
LINE
  5
3DC
330
1CA
100
AcDbEntity
  8
2
  6
Continuous
 62
     7
370
    18
100
AcDbLine
 10
630.0376309191868
 20
-29.10625285418713
 30
0.0
 11
630.5376319191867
 21
-29.10625285418713
 31
0.0
  0
LINE
  5
3DD
330
1CA
100
AcDbEntity
  8
2
  6
Continuous
 62
     7
370
    18
100
AcDbLine
 10
622.2376309191866
 20
-39.10625285418713
 30
0.0
 11
616.7376309191867
 21
-39.10625285418713
 31
0.0
  0
LINE
  5
3DE
330
1CA
100
AcDbEntity
  8
2
  6
Continuous
 62
     7
370
    18
100
AcDbLine
 10
1033.237630919187
 20
-27.10625285418713
 30
0.0
 11
1044.737630919187
 21
-27.10625285418713
 31
0.0
  0
LINE
  5
3DF
330
1CA
100
AcDbEntity
  8
2
  6
Continuous
 62
     7
370
    18
100
AcDbLine
 10
1044.737630919187
 20
-39.10625285418713
 30
0.0
 11
1033.237630919187
 21
-39.10625285418713
 31
0.0
  0
LINE
  5
3E0
330
1CA
100
AcDbEntity
  8
2
  6
Continuous
 62
     7
370
    18
100
AcDbLine
 10
616.7376309191867
 20
-29.10625285418713
 30
0.0
 11
626.837630919187
 21
-29.10625285418713
 31
0.0
  0
LINE
  5
3E1
330
1CA
100
AcDbEntity
  8
2
  6
Continuous
 62
     7
370
    18
100
AcDbLine
 10
626.837630919187
 20
-39.10625285418713
 30
0.0
 11
624.2376309191866
 21
-39.10625285418713
 31
0.0
  0
LINE
  5
3E2
330
1CA
100
AcDbEntity
  8
2
  6
Continuous
 62
     7
370
    18
100
AcDbLine
 10
644.1376309191867
 20
-61.7062528541875
 30
0.0
 11
1015.937630919187
 21
-61.7062528541875
 31
0.0
  0
ARC
  5
3E3
330
1CA
100
AcDbEntity
  8
2
  6
Continuous
 62
     7
370
    18
100
AcDbCircle
 10
644.1376309191867
 20
-53.60625285418713
 30
0.0
 40
8.1
100
AcDbArc
 50
180.0
 51
270.0
  0
ARC
  5
3E4
330
1CA
100
AcDbEntity
  8
2
  6
Continuous
 62
     7
370
    18
100
AcDbCircle
 10
1015.937630919187
 20
-53.60625285418713
 30
0.0
 40
8.1
100
AcDbArc
 50
270.0
 51
0.0
  0
LINE
  5
3E5
330
1CA
100
AcDbEntity
  8
2
  6
Continuous
 62
     7
370
    18
100
AcDbLine
 10
1029.537630919187
 20
-25.10625285418713
 30
0.0
 11
1029.537630919187
 21
-41.10625285418713
 31
0.0
  0
LINE
  5
3E6
330
1CA
100
AcDbEntity
  8
2
  6
Continuous
 62
     7
370
    18
100
AcDbLine
 10
1024.537630919187
 20
-25.10625285418713
 30
0.0
 11
1029.537630919187
 21
-25.10625285418713
 31
0.0
  0
LINE
  5
3E7
330
1CA
100
AcDbEntity
  8
2
  6
Continuous
 62
     7
370
    18
100
AcDbLine
 10
1024.537630919187
 20
-41.10625285418713
 30
0.0
 11
1029.537630919187
 21
-41.10625285418713
 31
0.0
  0
ARC
  5
3E8
330
1CA
100
AcDbEntity
  8
2
  6
Continuous
 62
     7
370
    18
100
AcDbCircle
 10
1023.737630919187
 20
-50.80625285418695
 30
0.0
 40
0.8
100
AcDbArc
 50
292.0243130000135
 51
0.0
  0
LINE
  5
3E9
330
1CA
100
AcDbEntity
  8
2
  6
Continuous
 62
     7
370
    18
100
AcDbLine
 10
630.5376309191868
 20
-25.10625285418713
 30
0.0
 11
630.5376309191868
 21
-41.10625285418713
 31
0.0
  0
LINE
  5
3EA
330
1CA
100
AcDbEntity
  8
2
  6
Continuous
 62
     7
370
    18
100
AcDbLine
 10
635.5376309191868
 20
-25.10625285418713
 30
0.0
 11
630.5376309191868
 21
-25.10625285418713
 31
0.0
  0
LINE
  5
3EB
330
1CA
100
AcDbEntity
  8
2
  6
Continuous
 62
     7
370
    18
100
AcDbLine
 10
635.5376309191868
 20
-41.10625285418713
 30
0.0
 11
630.5376309191868
 21
-41.10625285418713
 31
0.0
  0
ARC
  5
3EC
330
1CA
100
AcDbEntity
  8
2
  6
Continuous
 62
     7
370
    18
100
AcDbCircle
 10
636.337630919187
 20
-50.80625285418695
 30
0.0
 40
0.8
100
AcDbArc
 50
180.0
 51
247.9756869999865
  0
LINE
  5
3ED
330
1CA
100
AcDbEntity
  8
2
  6
Continuous
 62
     7
370
    18
100
AcDbLine
 10
1024.037630919187
 20
-12.60625285418713
 30
0.0
 11
1024.037630919187
 21
-53.60625285418713
 31
0.0
  0
ARC
  5
3EE
330
1CA
100
AcDbEntity
  8
2
  6
Continuous
 62
     7
370
    18
100
AcDbCircle
 10
1015.937630919187
 20
-12.60625285418713
 30
0.0
 40
8.1
100
AcDbArc
 50
0.0
 51
90.0
  0
LINE
  5
3EF
330
1CA
100
AcDbEntity
  8
2
  6
Continuous
 62
     7
370
    18
100
AcDbLine
 10
1015.937630919187
 20
-4.506252854186769
 30
0.0
 11
644.1376309191867
 21
-4.506252854186769
 31
0.0
  0
ARC
  5
3F0
330
1CA
100
AcDbEntity
  8
2
  6
Continuous
 62
     7
370
    18
100
AcDbCircle
 10
644.1376309191867
 20
-12.60625285418713
 30
0.0
 40
8.1
100
AcDbArc
 50
90.0
 51
180.0
  0
LINE
  5
3F1
330
1CA
100
AcDbEntity
  8
2
  6
Continuous
 62
     7
370
    18
100
AcDbLine
 10
1024.537630919187
 20
-15.40625285418731
 30
0.0
 11
1024.537630919187
 21
-50.80625285418695
 31
0.0
  0
ARC
  5
3F2
330
1CA
100
AcDbEntity
  8
2
  6
Continuous
 62
     7
370
    18
100
AcDbCircle
 10
1023.737630919187
 20
-15.40625285418731
 30
0.0
 40
0.8
100
AcDbArc
 50
0.0
 51
67.97568699998655
  0
LINE
  5
3F3
330
1CA
100
AcDbEntity
  8
2
  6
Continuous
 62
     7
370
    18
100
AcDbLine
 10
636.0376309191868
 20
-12.60625285418713
 30
0.0
 11
636.0376309191868
 21
-53.60625285418713
 31
0.0
  0
LINE
  5
3F4
330
1CA
100
AcDbEntity
  8
2
  6
Continuous
 62
     7
370
    18
100
AcDbLine
 10
635.5376309191868
 20
-15.40625285418731
 30
0.0
 11
635.5376309191868
 21
-50.80625285418695
 31
0.0
  0
ARC
  5
3F5
330
1CA
100
AcDbEntity
  8
2
  6
Continuous
 62
     7
370
    18
100
AcDbCircle
 10
636.337630919187
 20
-15.40625285418731
 30
0.0
 40
0.8
100
AcDbArc
 50
112.0243130000135
 51
180.0
  0
LINE
  5
3F6
330
1CA
100
AcDbEntity
  8
2
  6
CENTER
 62
     3
370
    13
100
AcDbLine
 10
623.2376309191866
 20
-44.49491785418753
 30
0.0
 11
623.2376309191866
 21
-26.39915385418693
 31
0.0
  0
LINE
  5
3F7
330
1CA
100
AcDbEntity
  8
2
  6
CENTER
 62
     3
370
    13
100
AcDbLine
 10
611.7376309191867
 20
-33.10625285418713
 30
0.0
 11
1049.737630919187
 21
-33.10625285418713
 31
0.0
  0
ENDBLK
  5
1CC
330
1CA
100
AcDbEntity
  8
0
100
AcDbBlockEnd
  0
BLOCK
  5
1CE
330
1CD
100
AcDbEntity
  8
0
100
AcDbBlockBegin
  2
DC_IMAGEDIMGROUP_2
 70
     0
 10
0.0
 20
0.0
 30
0.0
  3
DC_IMAGEDIMGROUP_2
  1
DC_IMAGEDIMGROUP_2
  0
LINE
  5
3F8
330
1CD
100
AcDbEntity
  8
0
  6
Continuous
 62
     2
370
    13
100
AcDbLine
 10
626.837630919187
 20
-95.30625285418695
 30
0.0
 11
626.837630919187
 21
-79.99133683267961
 31
0.0
  0
LINE
  5
3F9
330
1CD
100
AcDbEntity
  8
0
  6
Continuous
 62
     2
370
    13
100
AcDbLine
 10
630.0376309191868
 20
-95.30625285418695
 30
0.0
 11
630.0376309191868
 21
-79.99133683267961
 31
0.0
  0
LINE
  5
3FA
330
1CD
100
AcDbEntity
  8
0
  6
Continuous
 62
     2
370
    13
100
AcDbLine
 10
626.837630919187
 20
-82.49133683267961
 30
0.0
 11
630.0376309191868
 21
-82.49133683267961
 31
0.0
  0
LINE
  5
3FB
330
1CD
100
AcDbEntity
  8
0
  6
Continuous
 62
     2
370
    13
100
AcDbLine
 10
583.6326309191869
 20
-82.49133683267961
 30
0.0
 11
626.837630919187
 21
-82.49133683267961
 31
0.0
  0
INSERT
  5
3FC
330
1CD
100
AcDbEntity
  8
0
 62
     2
100
AcDbBlockReference
  2
_OPEN30
 10
626.837630919187
 20
-82.49133683267961
 30
0.0
 41
18.00001684569172
 42
17.99993620934186
 50
360.0
  0
LINE
  5
3FD
330
1CD
100
AcDbEntity
  8
0
  6
Continuous
 62
     2
370
    13
100
AcDbLine
 10
647.5376309191868
 20
-82.49133683267961
 30
0.0
 11
630.0376309191868
 21
-82.49133683267961
 31
0.0
  0
INSERT
  5
3FE
330
1CD
100
AcDbEntity
  8
0
 62
     2
100
AcDbBlockReference
  2
_OPEN30
 10
630.0376309191868
 20
-82.49133683267961
 30
0.0
 41
18.00001684569172
 42
17.99993620934186
 50
180.0
  0
MTEXT
  5
3FF
330
1CD
100
AcDbEntity
  8
0
 62
     2
100
AcDbMText
 10
619.6326309191869
 20
-77.49133683267961
 30
0.0
 40
24.0
 41
75.0
 46
0.0
 71
     9
 72
     1
  1
\T1.00;3.2
  7
dcStyle0
 73
     1
 44
1.0
  0
ENDBLK
  5
1CF
330
1CD
100
AcDbEntity
  8
0
100
AcDbBlockEnd
  0
BLOCK
  5
1D1
330
1D0
100
AcDbEntity
  8
0
100
AcDbBlockBegin
  2
DC_IMAGEDIMGROUP_3
 70
     0
 10
0.0
 20
0.0
 30
0.0
  3
DC_IMAGEDIMGROUP_3
  1
DC_IMAGEDIMGROUP_3
  0
LINE
  5
400
330
1D0
100
AcDbEntity
  8
0
  6
Continuous
 62
     2
370
    13
100
AcDbLine
 10
907.4025605430473
 20
-61.70625285418748
 30
0.0
 11
907.4025605430473
 21
-4.506252854187125
 31
0.0
  0
LINE
  5
401
330
1D0
100
AcDbEntity
  8
0
  6
Continuous
 62
     2
370
    13
100
AcDbLine
 10
1010.937630919187
 20
-61.7062528541875
 30
0.0
 11
904.4025605430473
 21
-61.70625285418748
 31
0.0
  0
LINE
  5
402
330
1D0
100
AcDbEntity
  8
0
  6
Continuous
 62
     2
370
    13
100
AcDbLine
 10
1010.937630919187
 20
-4.506252854187139
 30
0.0
 11
904.4025605430473
 21
-4.506252854187125
 31
0.0
  0
LINE
  5
403
330
1D0
100
AcDbEntity
  8
0
  6
Continuous
 62
     2
370
    13
100
AcDbLine
 10
907.4025605430473
 20
74.69874714581289
 30
0.0
 11
907.4025605430473
 21
-4.506252854187125
 31
0.0
  0
INSERT
  5
404
330
1D0
100
AcDbEntity
  8
0
 62
     2
100
AcDbBlockReference
  2
_OPEN30
 10
907.4025605430473
 20
-4.506252854187125
 30
0.0
 41
18.00001684569172
 42
17.99993620934186
 50
270.0
  0
LINE
  5
405
330
1D0
100
AcDbEntity
  8
0
  6
Continuous
 62
     2
370
    13
100
AcDbLine
 10
907.4025605430473
 20
-79.20625285418748
 30
0.0
 11
907.4025605430473
 21
-61.70625285418748
 31
0.0
  0
INSERT
  5
406
330
1D0
100
AcDbEntity
  8
0
 62
     2
100
AcDbBlockReference
  2
_OPEN30
 10
907.4025605430473
 20
-61.70625285418748
 30
0.0
 41
18.00001684569172
 42
17.99993620934186
 50
90.0
  0
MTEXT
  5
407
330
1D0
100
AcDbEntity
  8
0
 62
     2
100
AcDbMText
 10
902.4025605430473
 20
2.698747145812888
 30
0.0
 40
24.0
 41
120.0
 46
0.0
 71
     7
 72
     1
  1
\T1.00;φ57.2
  7
dcStyle0
 11
6.123233995736766E-17
 21
1.0
 31
0.0
 73
     1
 44
1.0
  0
ENDBLK
  5
1D2
330
1D0
100
AcDbEntity
  8
0
100
AcDbBlockEnd
  0
BLOCK
  5
1D4
330
1D3
100
AcDbEntity
  8
0
100
AcDbBlockBegin
  2
*D98
 70
     1
 10
0.0
 20
0.0
 30
0.0
  3
*D98
  1
*D98
  0
LINE
  5
408
330
1D3
100
AcDbEntity
  8
0
  6
Continuous
 62
     2
370
    13
100
AcDbLine
 10
636.0376309191868
 20
96.64374714581326
 30
0.0
 11
1024.037630919187
 21
96.64374714581326
 31
0.0
  0
INSERT
  5
409
330
1D3
100
AcDbEntity
  8
0
 62
     2
100
AcDbBlockReference
  2
_OPEN30
 10
636.0376309191868
 20
96.64374714581326
 30
0.0
 41
18.00001684569172
 42
17.99993620934186
 50
180.0
  0
INSERT
  5
40A
330
1D3
100
AcDbEntity
  8
0
 62
     2
100
AcDbBlockReference
  2
_OPEN30
 10
1024.037630919187
 20
96.64374714581326
 30
0.0
 41
18.00001684569172
 42
17.99993620934186
 50
360.0
  0
LINE
  5
40B
330
1D3
100
AcDbEntity
  8
0
  6
Continuous
 62
     2
370
    13
100
AcDbLine
 10
636.0376309191868
 20
-7.606252854187133
 30
0.0
 11
636.0376309191868
 21
99.64374714581326
 31
0.0
  0
LINE
  5
40C
330
1D3
100
AcDbEntity
  8
0
  6
Continuous
 62
     2
370
    13
100
AcDbLine
 10
1024.037630919187
 20
-7.606252854187133
 30
0.0
 11
1024.037630919187
 21
99.64374714581326
 31
0.0
  0
MTEXT
  5
40D
330
1D3
100
AcDbEntity
  8
0
 62
     2
100
AcDbMText
 10
830.0376309191868
 20
102.6437471458133
 30
0.0
 40
24.0
 41
138.0000000000001
 46
0.0
 71
     8
 72
     1
  1
\T1.00;ローラ幅
  7
dcStyle0
 73
     1
 44
1.0
  0
ENDBLK
  5
1D5
330
1D3
100
AcDbEntity
  8
0
100
AcDbBlockEnd
  0
BLOCK
  5
1D7
330
1D6
100
AcDbEntity
  8
0
100
AcDbBlockBegin
  2
DC_GROUP_W_JR-5721_S_030_69
 70
     0
 10
0.0
 20
0.0
 30
0.0
  3
DC_GROUP_W_JR-5721_S_030_69
  1
DC_GROUP_W_JR-5721_S_030_69
  0
LINE
  5
40E
330
1D6
100
AcDbEntity
  8
0
  6
Continuous
 62
     2
370
    13
100
AcDbLine
 10
-348.9587957402838
 20
-104.6062528541871
 30
0.0
 11
-484.4501690240723
 21
-296.6062528541871
 31
0.0
  0
INSERT
  5
40F
330
1D6
100
AcDbEntity
  8
0
 62
     2
100
AcDbBlockReference
  2
_OPEN30
 10
-348.9587957402838
 20
-104.6062528541871
 30
0.0
 41
18.00001684569172
 42
17.99993620934186
 50
54.78998399279331
  0
LINE
  5
410
330
1D6
100
AcDbEntity
  8
0
  6
Continuous
 62
     2
370
    13
100
AcDbLine
 10
-228.9587957402838
 20
-104.6062528541871
 30
0.0
 11
-484.4501690240723
 21
-296.6062528541871
 31
0.0
  0
INSERT
  5
411
330
1D6
100
AcDbEntity
  8
0
 62
     2
100
AcDbBlockReference
  2
_OPEN30
 10
-228.9587957402838
 20
-104.6062528541871
 30
0.0
 41
18.00001684569172
 42
17.99993620934186
 50
36.92460875591675
  0
LINE
  5
412
330
1D6
100
AcDbEntity
  8
0
  6
Continuous
 62
     2
370
    13
100
AcDbLine
 10
-484.4501690240723
 20
-296.6062528541871
 30
0.0
 11
-772.4501690240722
 21
-296.6062528541871
 31
0.0
  0
LINE
  5
413
330
1D6
100
AcDbEntity
  8
0
  6
Continuous
 62
     2
370
    13
100
AcDbLine
 10
-508.4501690240722
 20
-332.6062528541871
 30
0.0
 11
-772.4501690240722
 21
-332.6062528541871
 31
0.0
  0
TEXT
  5
414
330
1D6
100
AcDbEntity
  8
0
 62
     2
100
AcDbText
 10
-772.4501690205661
 20
-290.6062528541871
 30
0.0
 40
24.0
  1
呼び機長100 cmと150 cmの
 41
0.6991377301328362
  7
dcStyle0
 72
     5
 11
-484.4501690205661
 21
-290.6062528541871
 31
0.0
100
AcDbText
  0
TEXT
  5
415
330
1D6
100
AcDbEntity
  8
0
 62
     2
100
AcDbText
 10
-772.4501690205661
 20
-326.6062528541871
 30
0.0
 40
24.0
  1
中央に脚穴はありません
 41
0.7218321412166152
  7
dcStyle0
 72
     5
 11
-508.4501690205661
 21
-326.6062528541871
 31
0.0
100
AcDbText
  0
ENDBLK
  5
1D8
330
1D6
100
AcDbEntity
  8
0
100
AcDbBlockEnd
  0
BLOCK
  5
1DA
330
1D9
100
AcDbEntity
  8
0
100
AcDbBlockBegin
  2
DC_GROUP_W_JR-5721_S_030_70
 70
     0
 10
0.0
 20
0.0
 30
0.0
  3
DC_GROUP_W_JR-5721_S_030_70
  1
DC_GROUP_W_JR-5721_S_030_70
  0
LINE
  5
416
330
1D9
100
AcDbEntity
  8
0
  6
Continuous
 62
     2
370
    13
100
AcDbLine
 10
612.5376319191868
 20
-104.6062528541871
 30
0.0
 11
573.5796355496856
 21
-152.3731574868406
 31
0.0
  0
INSERT
  5
417
330
1D9
100
AcDbEntity
  8
0
 62
     2
100
AcDbBlockReference
  2
_OPEN30
 10
612.5376319191868
 20
-104.6062528541871
 30
0.0
 41
18.00001684569172
 42
17.99993620934186
 50
50.79981302244646
  0
LINE
  5
418
330
1D9
100
AcDbEntity
  8
0
  6
Continuous
 62
     2
370
    13
100
AcDbLine
 10
573.5796355496856
 20
-152.3731574868406
 30
0.0
 11
453.5796355496856
 21
-152.3731574868406
 31
0.0
  0
TEXT
  5
419
330
1D9
100
AcDbEntity
  8
0
 62
     2
100
AcDbText
 10
453.5796355496856
 20
-146.3731574868406
 30
0.0
 40
24.0
  1
10×14長穴
 41
0.6877579092159559
  7
dcStyle0
 72
     5
 11
573.5796355496856
 21
-146.3731574868406
 31
0.0
100
AcDbText
  0
ENDBLK
  5
1DB
330
1D9
100
AcDbEntity
  8
0
100
AcDbBlockEnd
  0
BLOCK
  5
1DE
330
1DD
100
AcDbEntity
  8
0
100
AcDbBlockBegin
  2
_OPEN30
 70
     0
 10
0.0
 20
0.0
 30
0.0
  3
_OPEN30
  1
_OPEN30
  0
LINE
  5
1E0
330
1DD
100
AcDbEntity
  8
0
  6
ByBlock
 62
     0
370
    -2
100
AcDbLine
 10
-1.0
 20
0.267949
 30
0.0
 11
0.0
 21
0.0
 31
0.0
  0
LINE
  5
1E1
330
1DD
100
AcDbEntity
  8
0
  6
ByBlock
 62
     0
370
    -2
100
AcDbLine
 10
0.0
 20
0.0
 30
0.0
 11
-1.0
 21
-0.267949
 31
0.0
  0
LINE
  5
1E2
330
1DD
100
AcDbEntity
  8
0
  6
ByBlock
 62
     0
370
    -2
100
AcDbLine
 10
0.0
 20
0.0
 30
0.0
 11
-1.0
 21
0.0
 31
0.0
  0
ENDBLK
  5
1DF
330
1DD
100
AcDbEntity
  8
0
100
AcDbBlockEnd
  0
ENDSEC
  0
SECTION
  2
ENTITIES
  0
DIMENSION
  5
41A
330
1F
100
AcDbEntity
  8
0
  6
Continuous
370
    13
100
AcDbDimension
280
     0
  2
*D1
 10
208.0412042597162
 20
192.3437471458127
 30
0.0
 11
-288.9587957402838
 21
192.3437471458127
 31
0.0
 70
   160
  1
機長
 71
     8
 42
-1.0
 73
     0
 74
     0
 75
     0
  3
dc_Rotated
100
AcDbAlignedDimension
 13
-785.9587957402838
 23
-9.606252854187147
 33
0.0
 14
208.0412042597162
 24
-9.606252854187147
 34
0.0
100
AcDbRotatedDimension
1001
ACAD
1000
DSTYLE
1002
{
1070
   144
1040
1.0
1070
   274
1070
     4
1070
    41
1040
18.0000114440918
1070
    79
1070
     2
1070
   343
1005
1DD
1070
   344
1005
1DD
1070
   176
1070
     2
1070
   177
1070
     2
1070
   178
1070
     2
1070
   271
1070
     2
1070
    44
1040
3.0
1070
    42
1040
6.0
1070
   147
1040
5.0
1070
   173
1070
     1
1070
    77
1070
     3
1070
    73
1070
     0
1070
   172
1070
     1
1070
    74
1070
     0
1070
   283
1070
     0
1070
   340
1005
1E7
1070
   140
1040
24.0
1070
   284
1070
     8
1070
   288
1070
     1
1070
    78
1070
     8
1070
    90
1070
     1
1002
}
  0
DIMENSION
  5
41C
330
1F
100
AcDbEntity
  8
0
  6
Continuous
370
    13
100
AcDbDimension
280
     0
  2
*D2
 10
-728.9587957402838
 20
-236.6062528541871
 30
0.0
 11
-757.4587957402838
 21
-236.6062528541871
 31
0.0
 70
   160
  1
D
 71
     8
 42
-1.0
 73
     0
 74
     0
 75
     0
  3
dc_Rotated
100
AcDbAlignedDimension
 13
-785.9587957402838
 23
-104.6062528541871
 33
0.0
 14
-728.9587957402838
 24
-114.6062528541871
 34
0.0
100
AcDbRotatedDimension
1001
ACAD
1000
DSTYLE
1002
{
1070
   144
1040
1.0
1070
   274
1070
     4
1070
    41
1040
18.0000114440918
1070
    79
1070
     2
1070
   343
1005
1DD
1070
   344
1005
1DD
1070
   176
1070
     2
1070
   177
1070
     2
1070
   178
1070
     2
1070
   271
1070
     2
1070
    44
1040
3.0
1070
    42
1040
6.0
1070
   147
1040
5.0
1070
   173
1070
     1
1070
    77
1070
     3
1070
    73
1070
     0
1070
   172
1070
     1
1070
    74
1070
     0
1070
   283
1070
     0
1070
   340
1005
1E7
1070
   140
1040
24.0
1070
   284
1070
     8
1070
   288
1070
     1
1070
    78
1070
     8
1070
    90
1070
     1
1002
}
  0
DIMENSION
  5
41D
330
1F
100
AcDbEntity
  8
0
  6
Continuous
370
    13
100
AcDbDimension
280
     0
  2
*D3
 10
-608.9587957402838
 20
-236.6062528541871
 30
0.0
 11
-668.9587957402838
 21
-236.6062528541871
 31
0.0
 70
   160
 71
     8
 42
-1.0
 73
     0
 74
     0
 75
     0
  3
dc_Rotated
100
AcDbAlignedDimension
 13
-728.9587957402838
 23
-114.6062528541871
 33
0.0
 14
-608.9587957402838
 24
-186.6062528541871
 34
0.0
100
AcDbRotatedDimension
1001
ACAD
1000
DSTYLE
1002
{
1070
   144
1040
1.0
1070
   274
1070
     4
1070
    41
1040
18.0000114440918
1070
    79
1070
     2
1070
   343
1005
1DD
1070
   344
1005
1DD
1070
   176
1070
     2
1070
   177
1070
     2
1070
   178
1070
     2
1070
   271
1070
     2
1070
    44
1040
3.0
1070
    42
1040
6.0
1070
   147
1040
5.0
1070
   173
1070
     1
1070
    77
1070
     3
1070
    73
1070
     0
1070
   172
1070
     1
1070
    74
1070
     0
1070
   283
1070
     0
1070
   340
1005
1E7
1070
   140
1040
24.0
1070
   284
1070
     8
1070
   288
1070
     1
1070
    78
1070
     8
1070
    90
1070
     1
1002
}
  0
DIMENSION
  5
41E
330
1F
100
AcDbEntity
  8
0
  6
Continuous
370
    13
100
AcDbDimension
280
     0
  2
*D4
 10
151.0412042597162
 20
-236.6062528541871
 30
0.0
 11
86.8356740860919
 21
-236.6062528541871
 31
0.0
 70
   160
 71
     8
 42
-1.0
 73
     0
 74
     0
 75
     0
  3
dc_Rotated
100
AcDbAlignedDimension
 13
31.04120425971615
 23
-186.6062528541871
 33
0.0
 14
151.0412042597162
 24
-114.6062528541871
 34
0.0
100
AcDbRotatedDimension
1001
ACAD
1000
DSTYLE
1002
{
1070
   144
1040
1.0
1070
   274
1070
     4
1070
    41
1040
18.0000114440918
1070
    79
1070
     2
1070
   343
1005
1DD
1070
   344
1005
1DD
1070
   176
1070
     2
1070
   177
1070
     2
1070
   178
1070
     2
1070
   271
1070
     2
1070
    44
1040
3.0
1070
    42
1040
6.0
1070
   147
1040
5.0
1070
   173
1070
     1
1070
    77
1070
     3
1070
    73
1070
     0
1070
   172
1070
     1
1070
    74
1070
     0
1070
   283
1070
     0
1070
   340
1005
1E7
1070
   140
1040
24.0
1070
   284
1070
     8
1070
   288
1070
     1
1070
    78
1070
     8
1070
    90
1070
     1
1002
}
  0
DIMENSION
  5
41F
330
1F
100
AcDbEntity
  8
0
  6
Continuous
370
    13
100
AcDbDimension
280
     0
  2
*D5
 10
208.0412042597162
 20
-236.6062528541871
 30
0.0
 11
179.5412042597162
 21
-236.6062528541871
 31
0.0
 70
   160
  1
D
 71
     8
 42
-1.0
 73
     0
 74
     0
 75
     0
  3
dc_Rotated
100
AcDbAlignedDimension
 13
151.0412042597162
 23
-114.6062528541871
 33
0.0
 14
208.0412042597162
 24
-104.6062528541871
 34
0.0
100
AcDbRotatedDimension
1001
ACAD
1000
DSTYLE
1002
{
1070
   144
1040
1.0
1070
   274
1070
     4
1070
    41
1040
18.0000114440918
1070
    79
1070
     2
1070
   343
1005
1DD
1070
   344
1005
1DD
1070
   176
1070
     2
1070
   177
1070
     2
1070
   178
1070
     2
1070
   271
1070
     2
1070
    44
1040
3.0
1070
    42
1040
6.0
1070
   147
1040
5.0
1070
   173
1070
     1
1070
    77
1070
     3
1070
    73
1070
     0
1070
   172
1070
     1
1070
    74
1070
     0
1070
   283
1070
     0
1070
   340
1005
1E7
1070
   140
1040
24.0
1070
   284
1070
     8
1070
   288
1070
     1
1070
    78
1070
     8
1070
    90
1070
     1
1002
}
  0
DIMENSION
  5
420
330
1F
100
AcDbEntity
  8
0
  6
Continuous
370
    13
100
AcDbDimension
280
     0
  2
*D6
 10
-750.9587957402839
 20
132.3437471458127
 30
0.0
 11
-818.6468952330882
 21
132.3437471458127
 31
0.0
 70
   160
  1
A
 71
     8
 42
-1.0
 73
     0
 74
     0
 75
     0
  3
dc_Rotated
100
AcDbAlignedDimension
 13
-785.9587957402838
 23
-9.606252854187147
 33
0.0
 14
-750.9587957402839
 24
0.9937471458131881
 34
0.0
100
AcDbRotatedDimension
1001
ACAD
1000
DSTYLE
1002
{
1070
   144
1040
1.0
1070
   274
1070
     4
1070
    41
1040
18.0000114440918
1070
    79
1070
     2
1070
   343
1005
1DD
1070
   344
1005
1DD
1070
   176
1070
     2
1070
   177
1070
     2
1070
   178
1070
     2
1070
   271
1070
     2
1070
    44
1040
3.0
1070
    42
1040
6.0
1070
   147
1040
6.0
1070
   173
1070
     1
1070
    77
1070
     3
1070
    73
1070
     0
1070
   172
1070
     1
1070
    74
1070
     0
1070
   283
1070
     0
1070
   340
1005
1E7
1070
   140
1040
24.0
1070
   284
1070
     8
1070
   288
1070
     1
1070
    78
1070
     8
1070
    90
1070
     1
1002
}
  0
DIMENSION
  5
421
330
1F
100
AcDbEntity
  8
0
  6
Continuous
370
    13
100
AcDbDimension
280
     0
  2
*D7
 10
173.0412042597161
 20
132.3437471458127
 30
0.0
 11
-288.958795740284
 21
132.3437471458127
 31
0.0
 70
   160
  1
N×P=B
 71
     8
 42
-1.0
 73
     0
 74
     0
 75
     0
  3
dc_Rotated
100
AcDbAlignedDimension
 13
-750.9587957402839
 23
0.9937471458131881
 33
0.0
 14
173.0412042597161
 24
0.9937471458131881
 34
0.0
100
AcDbRotatedDimension
1001
ACAD
1000
DSTYLE
1002
{
1070
   144
1040
1.0
1070
   274
1070
     4
1070
    41
1040
18.0000114440918
1070
    79
1070
     2
1070
   343
1005
1DD
1070
   344
1005
1DD
1070
   176
1070
     2
1070
   177
1070
     2
1070
   178
1070
     2
1070
   271
1070
     2
1070
    44
1040
3.0
1070
    42
1040
6.0
1070
   147
1040
5.0
1070
   173
1070
     1
1070
    77
1070
     3
1070
    73
1070
     0
1070
   172
1070
     1
1070
    74
1070
     0
1070
   283
1070
     0
1070
   340
1005
1E7
1070
   140
1040
24.0
1070
   284
1070
     8
1070
   288
1070
     1
1070
    78
1070
     8
1070
    90
1070
     1
1002
}
  0
DIMENSION
  5
422
330
1F
100
AcDbEntity
  8
0
  6
Continuous
370
    13
100
AcDbDimension
280
     0
  2
*D8
 10
208.0412042597162
 20
132.3437471458127
 30
0.0
 11
233.2462042597162
 21
132.3437471458127
 31
0.0
 70
   160
  1
C
 71
     8
 42
-1.0
 73
     0
 74
     0
 75
     0
  3
dc_Rotated
100
AcDbAlignedDimension
 13
173.0412042597161
 23
0.9937471458131881
 33
0.0
 14
208.0412042597162
 24
-9.606252854187147
 34
0.0
100
AcDbRotatedDimension
1001
ACAD
1000
DSTYLE
1002
{
1070
   144
1040
1.0
1070
   274
1070
     4
1070
    41
1040
18.0000114440918
1070
    79
1070
     2
1070
   343
1005
1DD
1070
   344
1005
1DD
1070
   176
1070
     2
1070
   177
1070
     2
1070
   178
1070
     2
1070
   271
1070
     2
1070
    44
1040
3.0
1070
    42
1040
6.0
1070
   147
1040
6.0
1070
   173
1070
     1
1070
    77
1070
     3
1070
    73
1070
     0
1070
   172
1070
     1
1070
    74
1070
     0
1070
   283
1070
     0
1070
   340
1005
1E7
1070
   140
1040
24.0
1070
   284
1070
     8
1070
   288
1070
     1
1070
    78
1070
     8
1070
    90
1070
     1
1002
}
  0
DIMENSION
  5
423
330
1F
100
AcDbEntity
  8
0
  6
Continuous
370
    13
100
AcDbDimension
280
     0
  2
*D11
 10
289.0412042597163
 20
744.7437471526259
 30
0.0
 11
289.0412042597163
 21
514.7437471526259
 31
0.0
 70
   160
  1
機 幅 (<>)
 71
     8
 42
-1.0
 73
     0
 74
     0
 75
     0
  3
dc_Rotated
100
AcDbAlignedDimension
 13
207.0412042597162
 23
284.7437471526259
 33
0.0
 14
207.0412042597162
 24
744.7437471526259
 34
0.0
 50
90.0
100
AcDbRotatedDimension
1001
ACAD
1000
DSTYLE
1002
{
1070
   144
1040
1.0
1070
   274
1070
     4
1070
    41
1040
18.0000114440918
1070
    79
1070
     2
1070
   343
1005
1DD
1070
   344
1005
1DD
1070
   176
1070
     2
1070
   177
1070
     2
1070
   178
1070
     2
1070
   271
1070
     2
1070
    44
1040
3.0
1070
    42
1040
6.0
1070
   147
1040
6.0
1070
   173
1070
     1
1070
    77
1070
     3
1070
    73
1070
     0
1070
   172
1070
     1
1070
    74
1070
     0
1070
   283
1070
     0
1070
   340
1005
1E7
1070
   140
1040
24.0
1070
   284
1070
     8
1070
   288
1070
     1
1070
    78
1070
     8
1070
    90
1070
     1
1002
}
  0
DIMENSION
  5
424
330
1F
100
AcDbEntity
  8
0
  6
Continuous
370
    13
100
AcDbDimension
280
     0
  2
*D12
 10
-348.9587957402838
 20
-236.6062528541871
 30
0.0
 11
-478.9587957402838
 21
-236.6062528541871
 31
0.0
 70
   160
  1
E
 71
     8
 42
-1.0
 73
     0
 74
     0
 75
     0
  3
dc_Rotated
100
AcDbAlignedDimension
 13
-608.9587957402838
 23
-114.6062528541871
 33
0.0
 14
-348.9587957402838
 24
-114.6062528541871
 34
0.0
100
AcDbRotatedDimension
1001
ACAD
1000
DSTYLE
1002
{
1070
   144
1040
1.0
1070
   274
1070
     4
1070
    41
1040
18.0000114440918
1070
    79
1070
     2
1070
   343
1005
1DD
1070
   344
1005
1DD
1070
   176
1070
     2
1070
   177
1070
     2
1070
   178
1070
     2
1070
   271
1070
     2
1070
    44
1040
3.0
1070
    42
1040
6.0
1070
   147
1040
5.0
1070
   173
1070
     1
1070
    77
1070
     3
1070
    73
1070
     0
1070
   172
1070
     1
1070
    74
1070
     0
1070
   283
1070
     0
1070
   340
1005
1E7
1070
   140
1040
24.0
1070
   284
1070
     8
1070
   288
1070
     1
1070
    78
1070
     8
1070
    90
1070
     1
1002
}
  0
DIMENSION
  5
425
330
1F
100
AcDbEntity
  8
0
  6
Continuous
370
    13
100
AcDbDimension
280
     0
  2
*D13
 10
-228.9587957402838
 20
-236.6062528541871
 30
0.0
 11
-288.9587957402838
 21
-236.6062528541871
 31
0.0
 70
   160
 71
     8
 42
-1.0
 73
     0
 74
     0
 75
     0
  3
dc_Rotated
100
AcDbAlignedDimension
 13
-348.9587957402838
 23
-114.6062528541871
 33
0.0
 14
-228.9587957402838
 24
-114.6062528541871
 34
0.0
100
AcDbRotatedDimension
1001
ACAD
1000
DSTYLE
1002
{
1070
   144
1040
1.0
1070
   274
1070
     4
1070
    41
1040
18.0000114440918
1070
    79
1070
     2
1070
   343
1005
1DD
1070
   344
1005
1DD
1070
   176
1070
     2
1070
   177
1070
     2
1070
   178
1070
     2
1070
   271
1070
     2
1070
    44
1040
3.0
1070
    42
1040
6.0
1070
   147
1040
5.0
1070
   173
1070
     1
1070
    77
1070
     3
1070
    73
1070
     0
1070
   172
1070
     1
1070
    74
1070
     0
1070
   283
1070
     0
1070
   340
1005
1E7
1070
   140
1040
24.0
1070
   284
1070
     8
1070
   288
1070
     1
1070
    78
1070
     8
1070
    90
1070
     1
1002
}
  0
DIMENSION
  5
426
330
1F
100
AcDbEntity
  8
0
  6
Continuous
370
    13
100
AcDbDimension
280
     0
  2
*D14
 10
31.04120425971615
 20
-236.6062528541871
 30
0.0
 11
-98.95879574028382
 21
-236.6062528541871
 31
0.0
 70
   160
  1
E
 71
     8
 42
-1.0
 73
     0
 74
     0
 75
     0
  3
dc_Rotated
100
AcDbAlignedDimension
 13
-228.9587957402838
 23
-114.6062528541871
 33
0.0
 14
31.04120425971621
 24
-114.6062528541871
 34
0.0
100
AcDbRotatedDimension
1001
ACAD
1000
DSTYLE
1002
{
1070
   144
1040
1.0
1070
   274
1070
     4
1070
    41
1040
18.0000114440918
1070
    79
1070
     2
1070
   343
1005
1DD
1070
   344
1005
1DD
1070
   176
1070
     2
1070
   177
1070
     2
1070
   178
1070
     2
1070
   271
1070
     2
1070
    44
1040
3.0
1070
    42
1040
6.0
1070
   147
1040
5.0
1070
   173
1070
     1
1070
    77
1070
     3
1070
    73
1070
     0
1070
   172
1070
     1
1070
    74
1070
     0
1070
   283
1070
     0
1070
   340
1005
1E7
1070
   140
1040
24.0
1070
   284
1070
     8
1070
   288
1070
     1
1070
    78
1070
     8
1070
    90
1070
     1
1002
}
  0
DIMENSION
  5
427
330
1F
100
AcDbEntity
  8
0
  6
Continuous
370
    13
100
AcDbDimension
280
     0
  2
*D15
 10
280.0412042597162
 20
-64.60625285418715
 30
0.0
 11
280.0412042597162
 21
-84.60625285418715
 31
0.0
 70
   160
 71
     8
 42
-1.0
 73
     0
 74
     0
 75
     0
  3
dc_Rotated
100
AcDbAlignedDimension
 13
208.0412042597162
 23
-104.6062528541871
 33
0.0
 14
205.0412042597162
 24
-64.60625285418715
 34
0.0
 50
90.0
100
AcDbRotatedDimension
1001
ACAD
1000
DSTYLE
1002
{
1070
   144
1040
1.0
1070
   274
1070
     4
1070
    41
1040
18.0000114440918
1070
    79
1070
     2
1070
   343
1005
1DD
1070
   344
1005
1DD
1070
   176
1070
     2
1070
   177
1070
     2
1070
   178
1070
     2
1070
   271
1070
     2
1070
    44
1040
3.0
1070
    42
1040
6.0
1070
   147
1040
5.0
1070
   173
1070
     1
1070
    77
1070
     3
1070
    73
1070
     0
1070
   172
1070
     1
1070
    74
1070
     0
1070
   283
1070
     0
1070
   340
1005
1E7
1070
   140
1040
24.0
1070
   284
1070
     8
1070
   288
1070
     1
1070
    78
1070
     8
1070
    90
1070
     1
1002
}
  0
DIMENSION
  5
428
330
1F
100
AcDbEntity
  8
0
  6
Continuous
370
    13
100
AcDbDimension
280
     0
  2
*D16
 10
193.6219382088561
 20
-60.23050700060337
 30
0.0
 11
294.4138585369103
 21
-176.6062528541871
 31
0.0
 70
   163
  1
4-φ10
 71
     8
 42
-1.0
 73
     0
 74
     0
 75
     0
  3
dc_Diam06
100
AcDbDiametricDimension
 15
198.4604703105763
 25
-68.98199870777093
 35
0.0
 40
0.0
1001
ACAD
1000
DSTYLE
1002
{
1070
   144
1040
1.0
1070
   274
1070
     4
1070
    41
1040
18.0000114440918
1070
    79
1070
     2
1070
   343
1005
1DD
1070
   344
1005
1DD
1070
   176
1070
     2
1070
   177
1070
     2
1070
   178
1070
     2
1070
   271
1070
     2
1070
    44
1040
6.0
1070
    42
1040
6.0
1070
   147
1040
6.0
1070
   173
1070
     1
1070
    77
1070
     2
1070
   283
1070
     0
1070
   340
1005
1E7
1070
   140
1040
24.0
1070
   284
1070
     8
1070
   288
1070
     1
1070
    78
1070
     8
1070
    90
1070
     1
1002
}
  0
INSERT
  5
42A
330
1F
100
AcDbEntity
  8
0
  6
Continuous
100
AcDbBlockReference
  2
DC_IMAGEDIMGROUP_1
 10
0.0
 20
0.0
 30
0.0
  0
DIMENSION
  5
42B
330
1F
100
AcDbEntity
  8
0
  6
Continuous
370
    13
100
AcDbDimension
280
     0
  2
*D18
 10
-32.84972089826393
 20
-54.60625285418714
 30
0.0
 11
-32.84972089826393
 21
-123.8112528541872
 31
0.0
 70
   160
 71
     8
 42
-1.0
 73
     0
 74
     0
 75
     0
  3
dc_Rotated
100
AcDbAlignedDimension
 13
-32.84972089826393
 23
-104.6062528541871
 33
0.0
 14
37.4542773143846
 24
-54.60625285418715
 34
0.0
 50
90.0
100
AcDbRotatedDimension
1001
ACAD
1000
DSTYLE
1002
{
1070
   144
1040
1.0
1070
   274
1070
     4
1070
    41
1040
18.0000114440918
1070
    79
1070
     2
1070
   343
1005
1DD
1070
   344
1005
1DD
1070
   176
1070
     2
1070
   177
1070
     2
1070
   178
1070
     2
1070
   271
1070
     2
1070
    44
1040
2.5
1070
    42
1040
6.0
1070
   147
1040
5.0
1070
   173
1070
     1
1070
    75
1070
     1
1070
    77
1070
     3
1070
    73
1070
     0
1070
   172
1070
     1
1070
    74
1070
     0
1070
   283
1070
     0
1070
   340
1005
1E7
1070
   140
1040
24.0
1070
   284
1070
     8
1070
   288
1070
     1
1070
    78
1070
     8
1070
    90
1070
     1
1002
}
  0
INSERT
  5
42C
330
1F
100
AcDbEntity
  8
0
  6
Continuous
100
AcDbBlockReference
  2
DC_GROUP_W_JR-5721_S_030_3
 10
0.0
 20
0.0
 30
0.0
  0
INSERT
  5
42D
330
1F
100
AcDbEntity
  8
0
  6
Continuous
100
AcDbBlockReference
  2
DC_GROUP_W_JR-5721_S_030_4
 10
0.0
 20
0.0
 30
0.0
  0
INSERT
  5
42E
330
1F
100
AcDbEntity
  8
0
  6
Continuous
100
AcDbBlockReference
  2
DC_GROUP_W_JR-5721_S_030_6
 10
0.0
 20
0.0
 30
0.0
  0
INSERT
  5
42F
330
1F
100
AcDbEntity
  8
0
  6
Continuous
100
AcDbBlockReference
  2
DC_GROUP_W_JR-5721_S_030_7
 10
0.0
 20
0.0
 30
0.0
  0
INSERT
  5
430
330
1F
100
AcDbEntity
  8
0
  6
Continuous
100
AcDbBlockReference
  2
DC_GROUP_W_JR-5721_S_030_9
 10
0.0
 20
0.0
 30
0.0
  0
DIMENSION
  5
431
330
1F
100
AcDbEntity
  8
0
  6
Continuous
370
    13
100
AcDbDimension
280
     0
  2
*D26
 10
-596.9587957402838
 20
62.29374714581249
 30
0.0
 11
-673.9587957402838
 21
62.29374714581249
 31
0.0
 70
   160
  1
P
 71
     8
 42
-1.0
 73
     0
 74
     0
 75
     0
  3
dc_Rotated
100
AcDbAlignedDimension
 13
-750.9587957402838
 23
2.993747145813217
 33
0.0
 14
-596.9587957402838
 24
2.993747145813217
 34
0.0
100
AcDbRotatedDimension
1001
ACAD
1000
DSTYLE
1002
{
1070
   144
1040
1.0
1070
   274
1070
     4
1070
    41
1040
18.0000114440918
1070
    79
1070
     2
1070
   343
1005
1DD
1070
   344
1005
1DD
1070
   176
1070
     2
1070
   177
1070
     2
1070
   178
1070
     2
1070
   271
1070
     2
1070
    44
1040
2.5
1070
    42
1040
6.0
1070
   147
1040
5.0
1070
   173
1070
     1
1070
    77
1070
     3
1070
    73
1070
     0
1070
   172
1070
     1
1070
    74
1070
     0
1070
   283
1070
     0
1070
   340
1005
1E7
1070
   140
1040
24.0
1070
   284
1070
     8
1070
   288
1070
     1
1070
    78
1070
     8
1070
    90
1070
     1
1002
}
  0
INSERT
  5
432
330
1F
100
AcDbEntity
  8
0
  6
Continuous
100
AcDbBlockReference
  2
DC_GROUP_W_JR-5721_S_030_67
 10
0.0
 20
0.0
 30
0.0
  0
DIMENSION
  5
433
330
1F
100
AcDbEntity
  8
0
  6
Continuous
370
    13
100
AcDbDimension
280
     0
  2
*D85
 10
1030.037630919187
 20
158.943747145814
 30
0.0
 11
830.0376309191869
 21
158.943747145814
 31
0.0
 70
   160
  1
呼び幅
 71
     8
 42
-1.0
 73
     0
 74
     0
 75
     0
  3
dc_Rotated
100
AcDbAlignedDimension
 13
630.0376309191868
 23
-18.90625285418731
 33
0.0
 14
1030.037630919187
 24
-18.90625285418731
 34
0.0
100
AcDbRotatedDimension
1001
ACAD
1000
DSTYLE
1002
{
1070
   144
1040
1.0
1070
   274
1070
     4
1070
    41
1040
18.0000114440918
1070
    79
1070
     2
1070
   343
1005
1DD
1070
   344
1005
1DD
1070
   176
1070
     2
1070
   177
1070
     2
1070
   178
1070
     2
1070
   271
1070
     2
1070
    44
1040
3.0
1070
    42
1040
6.0
1070
   147
1040
6.0
1070
   173
1070
     1
1070
    77
1070
     3
1070
    73
1070
     0
1070
   172
1070
     1
1070
    74
1070
     0
1070
   283
1070
     0
1070
   340
1005
1E7
1070
   140
1040
24.0
1070
   284
1070
     8
1070
   288
1070
     1
1070
    78
1070
     8
1070
    90
1070
     1
1002
}
  0
DIMENSION
  5
434
330
1F
100
AcDbEntity
  8
0
  6
Continuous
370
    13
100
AcDbDimension
280
     0
  2
*D86
 10
1060.037630919187
 20
218.943747145814
 30
0.0
 11
830.0376309191868
 21
218.943747145814
 31
0.0
 70
   160
  1
機幅＝呼び幅+60
 71
     8
 42
-1.0
 73
     0
 74
     0
 75
     0
  3
dc_Rotated
100
AcDbAlignedDimension
 13
600.0376309191869
 23
-14.60625285418713
 33
0.0
 14
1060.037630919187
 24
-15.60625285418713
 34
0.0
100
AcDbRotatedDimension
1001
ACAD
1000
DSTYLE
1002
{
1070
   144
1040
1.0
1070
   274
1070
     4
1070
    41
1040
18.0000114440918
1070
    79
1070
     2
1070
   343
1005
1DD
1070
   344
1005
1DD
1070
   176
1070
     2
1070
   177
1070
     2
1070
   178
1070
     2
1070
   271
1070
     2
1070
    44
1040
3.0
1070
    42
1040
6.0
1070
   147
1040
6.0
1070
   173
1070
     1
1070
    77
1070
     3
1070
    73
1070
     0
1070
   172
1070
     1
1070
    74
1070
     0
1070
   283
1070
     0
1070
   340
1005
1E7
1070
   140
1040
24.0
1070
   284
1070
     8
1070
   288
1070
     1
1070
    78
1070
     8
1070
    90
1070
     1
1002
}
  0
DIMENSION
  5
435
330
1F
100
AcDbEntity
  8
0
  6
Continuous
370
    13
100
AcDbDimension
280
     0
  2
*D87
 10
612.5376319191868
 20
-192.6062528541871
 30
0.0
 11
568.8326309191868
 21
-192.6062528541871
 31
0.0
 70
   160
 71
     8
 42
-1.0
 73
     0
 74
     0
 75
     0
  3
dc_Rotated
100
AcDbAlignedDimension
 13
600.0376309191869
 23
-103.6062528541871
 33
0.0
 14
612.5376319191868
 24
-113.5004088541874
 34
0.0
100
AcDbRotatedDimension
1001
ACAD
1000
DSTYLE
1002
{
1070
   144
1040
1.0
1070
   274
1070
     4
1070
    41
1040
18.0000114440918
1070
    79
1070
     2
1070
   343
1005
1DD
1070
   344
1005
1DD
1070
   176
1070
     2
1070
   177
1070
     2
1070
   178
1070
     2
1070
   271
1070
     2
1070
    44
1040
2.5
1070
    42
1040
6.0
1070
   147
1040
5.0
1070
   173
1070
     1
1070
    77
1070
     3
1070
    73
1070
     0
1070
   172
1070
     1
1070
    74
1070
     0
1070
   283
1070
     0
1070
   340
1005
1E7
1070
   140
1040
24.0
1070
   284
1070
     8
1070
   288
1070
     1
1070
    78
1070
     8
1070
    90
1070
     1
1002
}
  0
DIMENSION
  5
436
330
1F
100
AcDbEntity
  8
0
  6
Continuous
370
    13
100
AcDbDimension
280
     0
  2
*D88
 10
1047.537631919187
 20
-192.6062528541871
 30
0.0
 11
830.0376319191868
 21
-192.6062528541871
 31
0.0
 70
   160
  1
呼び幅+35
 71
     8
 42
-1.0
 73
     0
 74
     0
 75
     0
  3
dc_Rotated
100
AcDbAlignedDimension
 13
612.5376319191868
 23
-113.5004088541874
 33
0.0
 14
1047.537631919187
 24
-113.6062528541871
 34
0.0
100
AcDbRotatedDimension
1001
ACAD
1000
DSTYLE
1002
{
1070
   144
1040
1.0
1070
   274
1070
     4
1070
    41
1040
18.0000114440918
1070
    79
1070
     2
1070
   343
1005
1DD
1070
   344
1005
1DD
1070
   176
1070
     2
1070
   177
1070
     2
1070
   178
1070
     2
1070
   271
1070
     2
1070
    44
1040
2.5
1070
    42
1040
6.0
1070
   147
1040
6.0
1070
   173
1070
     1
1070
    77
1070
     3
1070
    73
1070
     0
1070
   172
1070
     1
1070
    74
1070
     0
1070
   283
1070
     0
1070
   340
1005
1E7
1070
   140
1040
24.0
1070
   284
1070
     8
1070
   288
1070
     1
1070
    78
1070
     8
1070
    90
1070
     1
1002
}
  0
DIMENSION
  5
437
330
1F
100
AcDbEntity
  8
0
  6
Continuous
370
    13
100
AcDbDimension
280
     0
  2
*D89
 10
1060.037630919187
 20
-192.6062528541871
 30
0.0
 11
1104.809185520303
 21
-192.6062528541871
 31
0.0
 70
   160
 71
     8
 42
-1.0
 73
     0
 74
     0
 75
     0
  3
dc_Rotated
100
AcDbAlignedDimension
 13
1047.537631919187
 23
-113.6062528541871
 33
0.0
 14
1060.037630919187
 24
-103.6062528541871
 34
0.0
100
AcDbRotatedDimension
1001
ACAD
1000
DSTYLE
1002
{
1070
   144
1040
1.0
1070
   274
1070
     4
1070
    41
1040
18.0000114440918
1070
    79
1070
     2
1070
   343
1005
1DD
1070
   344
1005
1DD
1070
   176
1070
     2
1070
   177
1070
     2
1070
   178
1070
     2
1070
   271
1070
     2
1070
    44
1040
2.5
1070
    42
1040
6.0
1070
   147
1040
6.0
1070
   173
1070
     1
1070
    77
1070
     3
1070
    73
1070
     0
1070
   172
1070
     1
1070
    74
1070
     0
1070
   283
1070
     0
1070
   340
1005
1E7
1070
   140
1040
24.0
1070
   284
1070
     8
1070
   288
1070
     1
1070
    78
1070
     8
1070
    90
1070
     1
1002
}
  0
DIMENSION
  5
438
330
1F
100
AcDbEntity
  8
0
  6
Continuous
370
    13
100
AcDbDimension
280
     0
  2
*D90
 10
468.0376309191869
 20
-14.60625285418712
 30
0.0
 11
468.0376309191869
 21
-59.60625285418712
 31
0.0
 70
   160
 71
     8
 42
-1.0
 73
     0
 74
     0
 75
     0
  3
dc_Rotated
100
AcDbAlignedDimension
 13
600.0376309191869
 23
-104.6062528541871
 33
0.0
 14
600.0376309191869
 24
-14.60625285418713
 34
0.0
 50
90.0
100
AcDbRotatedDimension
1001
ACAD
1000
DSTYLE
1002
{
1070
   144
1040
1.0
1070
   274
1070
     4
1070
    41
1040
18.0000114440918
1070
    79
1070
     2
1070
   343
1005
1DD
1070
   344
1005
1DD
1070
   176
1070
     2
1070
   177
1070
     2
1070
   178
1070
     2
1070
   271
1070
     2
1070
    44
1040
3.0
1070
    42
1040
6.0
1070
   147
1040
5.0
1070
   173
1070
     1
1070
    77
1070
     3
1070
    73
1070
     0
1070
   172
1070
     1
1070
    74
1070
     0
1070
   283
1070
     0
1070
   340
1005
1E7
1070
   140
1040
24.0
1070
   284
1070
     8
1070
   288
1070
     1
1070
    78
1070
     8
1070
    90
1070
     1
1002
}
  0
DIMENSION
  5
439
330
1F
100
AcDbEntity
  8
0
  6
Continuous
370
    13
100
AcDbDimension
280
     0
  2
*D91
 10
630.0376309191867
 20
158.943747145814
 30
0.0
 11
615.0376309191868
 21
158.943747145814
 31
0.0
 70
   160
 71
     8
 42
-1.0
 73
     0
 74
     0
 75
     0
  3
dc_Rotated
100
AcDbAlignedDimension
 13
600.0376309191869
 23
-14.60625285418713
 33
0.0
 14
630.0376309191868
 24
-18.90625285418731
 34
0.0
100
AcDbRotatedDimension
1001
ACAD
1000
DSTYLE
1002
{
1070
   144
1040
1.0
1070
   274
1070
     4
1070
    41
1040
18.0000114440918
1070
    79
1070
     2
1070
   343
1005
1DD
1070
   344
1005
1DD
1070
   176
1070
     2
1070
   177
1070
     2
1070
   178
1070
     2
1070
   271
1070
     2
1070
    44
1040
3.0
1070
    42
1040
6.0
1070
   147
1040
5.0
1070
   173
1070
     1
1070
    77
1070
     3
1070
    73
1070
     0
1070
   172
1070
     1
1070
    74
1070
     0
1070
   283
1070
     0
1070
   340
1005
1E7
1070
   140
1040
24.0
1070
   284
1070
     8
1070
   288
1070
     1
1070
    78
1070
     8
1070
    90
1070
     1
1002
}
  0
DIMENSION
  5
43A
330
1F
100
AcDbEntity
  8
0
  6
Continuous
370
    13
100
AcDbDimension
280
     0
  2
*D92
 10
1060.037630919187
 20
158.943747145814
 30
0.0
 11
1045.037630919187
 21
158.943747145814
 31
0.0
 70
   160
 71
     8
 42
-1.0
 73
     0
 74
     0
 75
     0
  3
dc_Rotated
100
AcDbAlignedDimension
 13
1030.037630919187
 23
-18.90625285418731
 33
0.0
 14
1060.037630919187
 24
-15.60625285418713
 34
0.0
100
AcDbRotatedDimension
1001
ACAD
1000
DSTYLE
1002
{
1070
   144
1040
1.0
1070
   274
1070
     4
1070
    41
1040
18.0000114440918
1070
    79
1070
     2
1070
   343
1005
1DD
1070
   344
1005
1DD
1070
   176
1070
     2
1070
   177
1070
     2
1070
   178
1070
     2
1070
   271
1070
     2
1070
    44
1040
3.0
1070
    42
1040
6.0
1070
   147
1040
5.0
1070
   173
1070
     1
1070
    77
1070
     3
1070
    73
1070
     0
1070
   172
1070
     1
1070
    74
1070
     0
1070
   283
1070
     0
1070
   340
1005
1E7
1070
   140
1040
24.0
1070
   284
1070
     8
1070
   288
1070
     1
1070
    78
1070
     8
1070
    90
1070
     1
1002
}
  0
DIMENSION
  5
43B
330
1F
100
AcDbEntity
  8
0
  6
Continuous
370
    13
100
AcDbDimension
280
     0
  2
*D93
 10
528.0376309191869
 20
-33.10625285418713
 30
0.0
 11
528.0376309191869
 21
-68.85625285418713
 31
0.0
 70
   160
 71
     8
 42
-1.0
 73
     0
 74
     0
 75
     0
  3
dc_Rotated
100
AcDbAlignedDimension
 13
600.0376309191869
 23
-104.6062528541871
 33
0.0
 14
612.7376309191868
 24
-33.10625285418713
 34
0.0
 50
90.0
100
AcDbRotatedDimension
1001
ACAD
1000
DSTYLE
1002
{
1070
   144
1040
1.0
1070
   274
1070
     4
1070
    41
1040
18.0000114440918
1070
    79
1070
     2
1070
   343
1005
1DD
1070
   344
1005
1DD
1070
   176
1070
     2
1070
   177
1070
     2
1070
   178
1070
     2
1070
   271
1070
     2
1070
    44
1040
3.0
1070
    42
1040
6.0
1070
   147
1040
5.0
1070
   173
1070
     1
1070
    77
1070
     3
1070
    73
1070
     0
1070
   172
1070
     1
1070
    74
1070
     0
1070
   283
1070
     0
1070
   340
1005
1E7
1070
   140
1040
24.0
1070
   284
1070
     8
1070
   288
1070
     1
1070
    78
1070
     8
1070
    90
1070
     1
1002
}
  0
DIMENSION
  5
43C
330
1F
100
AcDbEntity
  8
0
  6
Continuous
370
    13
100
AcDbDimension
280
     0
  2
*D94
 10
408.0376309191869
 20
-4.506252854186755
 30
0.0
 11
408.0376309191869
 21
-54.55625285418694
 31
0.0
 70
   160
 71
     8
 42
-1.0
 73
     0
 74
     0
 75
     0
  3
dc_Rotated
100
AcDbAlignedDimension
 13
600.0376309191869
 23
-104.6062528541871
 33
0.0
 14
645.1376309191868
 24
-4.506252854186769
 34
0.0
 50
90.0
100
AcDbRotatedDimension
1001
ACAD
1000
DSTYLE
1002
{
1070
   144
1040
1.0
1070
   274
1070
     4
1070
    41
1040
18.0000114440918
1070
    79
1070
     2
1070
   343
1005
1DD
1070
   344
1005
1DD
1070
   176
1070
     2
1070
   177
1070
     2
1070
   178
1070
     2
1070
   271
1070
     0
1070
    44
1040
3.0
1070
    42
1040
6.0
1070
   147
1040
5.0
1070
   173
1070
     1
1070
    77
1070
     3
1070
    73
1070
     0
1070
   172
1070
     1
1070
    74
1070
     0
1070
   283
1070
     0
1070
   340
1005
1E7
1070
   140
1040
24.0
1070
   284
1070
     8
1070
   288
1070
     1
1070
    78
1070
     8
1070
    90
1070
     1
1002
}
  0
INSERT
  5
43D
330
1F
100
AcDbEntity
  8
0
  6
Continuous
100
AcDbBlockReference
  2
DC_IMAGEDIMGROUP_2
 10
0.0
 20
0.0
 30
0.0
  0
INSERT
  5
43E
330
1F
100
AcDbEntity
  8
0
  6
Continuous
100
AcDbBlockReference
  2
DC_IMAGEDIMGROUP_3
 10
0.0
 20
0.0
 30
0.0
  0
DIMENSION
  5
43F
330
1F
100
AcDbEntity
  8
0
  6
Continuous
370
    13
100
AcDbDimension
280
     0
  2
*D98
 10
1024.037630919187
 20
96.64374714581326
 30
0.0
 11
830.0376309191868
 21
96.64374714581326
 31
0.0
 70
   160
  1
ローラ幅
 71
     8
 42
-1.0
 73
     0
 74
     0
 75
     0
  3
dc_Rotated
100
AcDbAlignedDimension
 13
636.0376309191868
 23
-13.60625285418713
 33
0.0
 14
1024.037630919187
 24
-13.60625285418713
 34
0.0
100
AcDbRotatedDimension
1001
ACAD
1000
DSTYLE
1002
{
1070
   144
1040
1.0
1070
   274
1070
     4
1070
    41
1040
18.0000114440918
1070
    79
1070
     2
1070
   343
1005
1DD
1070
   344
1005
1DD
1070
   176
1070
     2
1070
   177
1070
     2
1070
   178
1070
     2
1070
   271
1070
     1
1070
    44
1040
3.0
1070
    42
1040
6.0
1070
   147
1040
6.0
1070
   173
1070
     1
1070
    77
1070
     3
1070
    73
1070
     0
1070
   172
1070
     1
1070
    74
1070
     0
1070
   283
1070
     0
1070
   340
1005
1E7
1070
   140
1040
24.0
1070
   284
1070
     8
1070
   288
1070
     1
1070
    78
1070
     8
1070
    90
1070
     1
1002
}
  0
INSERT
  5
440
330
1F
100
AcDbEntity
  8
0
  6
Continuous
100
AcDbBlockReference
  2
DC_GROUP_W_JR-5721_S_030_69
 10
0.0
 20
0.0
 30
0.0
  0
INSERT
  5
441
330
1F
100
AcDbEntity
  8
0
  6
Continuous
100
AcDbBlockReference
  2
DC_GROUP_W_JR-5721_S_030_70
 10
0.0
 20
0.0
 30
0.0
  0
INSERT
  5
442
330
1F
100
AcDbEntity
  8
ZUWAKU
  6
Continuous
100
AcDbBlockReference
  2
DC_GROUP_W_JR-5721_S_030_1
 10
0.0
 20
0.0
 30
0.0
  0
INSERT
  5
443
330
1F
100
AcDbEntity
  8
ZUWAKU
  6
Continuous
100
AcDbBlockReference
  2
DC_GROUP_W_JR-5721_S_030_2
 10
0.0
 20
0.0
 30
0.0
  0
TEXT
  5
444
330
1F
100
AcDbEntity
  8
0
 62
     2
100
AcDbText
 10
-158.5633433247463
 20
-732.8894592187545
 30
0.0
 40
24.0
  1
2019.10.1
 41
0.6258278145695365
  7
dcStyle1
 72
     5
 11
-50.56334332474634
 21
-732.8894592187545
 31
0.0
100
AcDbText
  0
TEXT
  5
445
330
1F
100
AcDbEntity
  8
0
 62
     2
100
AcDbText
 10
240.0000000000001
 20
-719.231540037133
 30
0.0
 40
24.0
  1
マルチベヤシリーズ
 41
1.188679245283019
  7
dcStyle1
 72
     5
 11
456.0000000000001
 21
-719.231540037133
 31
0.0
100
AcDbText
  0
TEXT
  5
446
330
1F
100
AcDbEntity
  8
0
 62
     2
100
AcDbText
 10
228.0000000000001
 20
-779.2315400371328
 30
0.0
 40
24.0
  1
フリーローラコンベヤ
 41
1.186440677966102
  7
dcStyle1
 72
     5
 11
468.0000000000001
 21
-779.2315400371328
 31
0.0
100
AcDbText
  0
TEXT
  5
447
330
1F
100
AcDbEntity
  8
0
 62
     2
100
AcDbText
 10
984.0
 20
-779.2315400371328
 30
0.0
 40
24.0
  1
W_JR-5721_S_030
 41
0.5393835616438357
  7
dcStyle1
 72
     5
 11
1164.0
 21
-779.2315400371328
 31
0.0
100
AcDbText
  0
TEXT
  5
448
330
1F
100
AcDbEntity
  8
0
 62
     2
100
AcDbText
 10
681.0
 20
-719.231540037133
 30
0.0
 40
24.0
  1
本体組立図 JR-5721 ローラピッチ150
 41
0.8113636363636366
  7
dcStyle1
 72
     5
 11
1089.0
 21
-719.231540037133
 31
0.0
100
AcDbText
  0
TEXT
  5
449
330
1F
100
AcDbEntity
  8
0
 62
     2
100
AcDbText
 10
-82.49999999999983
 20
-779.2315400371328
 30
0.0
 40
24.0
  1
1/6
 41
0.5338983050847458
  7
dcStyle1
 72
     5
 11
-46.49999999999983
 21
-779.2315400371328
 31
0.0
100
AcDbText
  0
TEXT
  5
44A
330
1F
100
AcDbEntity
  8
0
 62
     2
100
AcDbText
 10
391.1900826132186
 20
-375.1653938059524
 30
0.0
 40
23.99999999904
  1
ローラ幅(mm)
 41
0.7225433526011562
  7
dcStyle0
 72
     5
 11
535.1900826074586
 21
-375.1653938059524
 31
0.0
100
AcDbText
  0
TEXT
  5
44B
330
1F
100
AcDbEntity
  8
0
 62
     2
100
AcDbText
 10
391.1900826132186
 20
-343.1653938072345
 30
0.0
 40
23.99999999904
  1
呼び幅(mm)
 41
0.682407533779173
  7
dcStyle0
 72
     5
 11
511.1900826084186
 21
-343.1653938072345
 31
0.0
100
AcDbText
  0
TEXT
  5
44C
330
1F
100
AcDbEntity
  8
0
 62
     2
100
AcDbText
 10
391.1900826134118
 20
-407.1653938046745
 30
0.0
 40
23.99999999904
  1
機　幅(mm)
 41
0.7250580046403714
  7
dcStyle0
 72
     5
 11
511.1900826086119
 21
-407.1653938046745
 31
0.0
100
AcDbText
  0
TEXT
  5
44D
330
1F
100
AcDbEntity
  8
0
 62
     2
100
AcDbText
 10
584.1900826050241
 20
-375.1653938064323
 30
0.0
 40
24.0
  1
388
 41
0.6877579092159559
  7
dcStyle0
 72
     5
 11
620.1900826050241
 21
-375.1653938064323
 31
0.0
100
AcDbText
  0
TEXT
  5
44E
330
1F
100
AcDbEntity
  8
0
 62
     2
100
AcDbText
 10
584.1900826050241
 20
-343.1653938077145
 30
0.0
 40
24.0
  1
400
 41
0.6877579092159559
  7
dcStyle0
 72
     5
 11
620.1900826050241
 21
-343.1653938077145
 31
0.0
100
AcDbText
  0
TEXT
  5
44F
330
1F
100
AcDbEntity
  8
0
 62
     2
100
AcDbText
 10
584.1900826050241
 20
-407.1653938051545
 30
0.0
 40
24.0
  1
460
 41
0.6877579092159559
  7
dcStyle0
 72
     5
 11
620.1900826050241
 21
-407.1653938051545
 31
0.0
100
AcDbText
  0
TEXT
  5
450
330
1F
100
AcDbEntity
  8
0
 62
     2
100
AcDbText
 10
700.1900826050241
 20
-375.1653938064323
 30
0.0
 40
24.0
  1
488
 41
0.6877579092159559
  7
dcStyle0
 72
     5
 11
736.1900826050241
 21
-375.1653938064323
 31
0.0
100
AcDbText
  0
TEXT
  5
451
330
1F
100
AcDbEntity
  8
0
 62
     2
100
AcDbText
 10
700.1900826050241
 20
-343.1653938077145
 30
0.0
 40
24.0
  1
500
 41
0.6877579092159559
  7
dcStyle0
 72
     5
 11
736.1900826050241
 21
-343.1653938077145
 31
0.0
100
AcDbText
  0
TEXT
  5
452
330
1F
100
AcDbEntity
  8
0
 62
     2
100
AcDbText
 10
700.1900826050241
 20
-407.1653938051545
 30
0.0
 40
24.0
  1
560
 41
0.6877579092159559
  7
dcStyle0
 72
     5
 11
736.1900826050241
 21
-407.1653938051545
 31
0.0
100
AcDbText
  0
TEXT
  5
453
330
1F
100
AcDbEntity
  8
0
 62
     2
100
AcDbText
 10
816.1900826314079
 20
-375.1653938064323
 30
0.0
 40
24.0
  1
618
 41
0.6877579092159559
  7
dcStyle0
 72
     5
 11
852.1900826314079
 21
-375.1653938064323
 31
0.0
100
AcDbText
  0
TEXT
  5
454
330
1F
100
AcDbEntity
  8
0
 62
     2
100
AcDbText
 10
816.1900826314079
 20
-343.1653938077145
 30
0.0
 40
24.0
  1
630
 41
0.6877579092159559
  7
dcStyle0
 72
     5
 11
852.1900826314079
 21
-343.1653938077145
 31
0.0
100
AcDbText
  0
TEXT
  5
455
330
1F
100
AcDbEntity
  8
0
 62
     2
100
AcDbText
 10
816.1900826314079
 20
-407.1653938051545
 30
0.0
 40
24.0
  1
690
 41
0.6877579092159559
  7
dcStyle0
 72
     5
 11
852.1900826314079
 21
-407.1653938051545
 31
0.0
100
AcDbText
  0
TEXT
  5
456
330
1F
100
AcDbEntity
  8
0
 62
     2
100
AcDbText
 10
932.1900826314079
 20
-375.1653938064323
 30
0.0
 40
24.0
  1
788
 41
0.6877579092159559
  7
dcStyle0
 72
     5
 11
968.1900826314079
 21
-375.1653938064323
 31
0.0
100
AcDbText
  0
TEXT
  5
457
330
1F
100
AcDbEntity
  8
0
 62
     2
100
AcDbText
 10
932.1900826314079
 20
-343.1653938077145
 30
0.0
 40
24.0
  1
800
 41
0.6877579092159559
  7
dcStyle0
 72
     5
 11
968.1900826314079
 21
-343.1653938077145
 31
0.0
100
AcDbText
  0
TEXT
  5
458
330
1F
100
AcDbEntity
  8
0
 62
     2
100
AcDbText
 10
932.1900826314079
 20
-407.1653938051545
 30
0.0
 40
24.0
  1
860
 41
0.6877579092159559
  7
dcStyle0
 72
     5
 11
968.1900826314079
 21
-407.1653938051545
 31
0.0
100
AcDbText
  0
TEXT
  5
459
330
1F
100
AcDbEntity
  8
0
 62
     2
100
AcDbText
 10
1048.190082591832
 20
-375.1653938064323
 30
0.0
 40
24.0
  1
988
 41
0.6877579092159559
  7
dcStyle0
 72
     5
 11
1084.190082591832
 21
-375.1653938064323
 31
0.0
100
AcDbText
  0
TEXT
  5
45A
330
1F
100
AcDbEntity
  8
0
 62
     2
100
AcDbText
 10
1042.190082591832
 20
-343.1653938077145
 30
0.0
 40
24.0
  1
1000
 41
0.6877579092159559
  7
dcStyle0
 72
     5
 11
1090.190082591832
 21
-343.1653938077145
 31
0.0
100
AcDbText
  0
TEXT
  5
45B
330
1F
100
AcDbEntity
  8
0
 62
     2
100
AcDbText
 10
1042.190082591832
 20
-407.1653938051545
 30
0.0
 40
24.0
  1
1060
 41
0.6877579092159559
  7
dcStyle0
 72
     5
 11
1090.190082591832
 21
-407.1653938051545
 31
0.0
100
AcDbText
  0
TEXT
  5
45C
330
1F
100
AcDbEntity
  8
0
 62
     2
100
AcDbText
 10
-370.2243436757823
 20
-343.3653938117528
 30
0.0
 40
24.0
  1
呼び機長(cm)
 41
0.7109004739336492
  7
dcStyle0
 72
     5
 11
-226.2243436757823
 21
-343.3653938117528
 31
0.0
100
AcDbText
  0
TEXT
  5
45D
330
1F
100
AcDbEntity
  8
0
 62
     2
100
AcDbText
 10
-370.2243436757823
 20
-375.7653938185547
 30
0.0
 40
24.0
  1
機　長(cm)
 41
0.7627765064836002
  7
dcStyle0
 72
     5
 11
-250.2243436757823
 21
-375.7653938185547
 31
0.0
100
AcDbText
  0
TEXT
  5
45E
330
1F
100
AcDbEntity
  8
0
 62
     2
100
AcDbText
 10
-370.2243436757823
 20
-408.1653938185549
 30
0.0
 40
24.0
  1
A(mm)
 41
0.6341958396752916
  7
dcStyle0
 72
     5
 11
-310.2243436757823
 21
-408.1653938185549
 31
0.0
100
AcDbText
  0
TEXT
  5
45F
330
1F
100
AcDbEntity
  8
0
 62
     2
100
AcDbText
 10
-370.2243436757823
 20
-440.5653938253569
 30
0.0
 40
24.0
  1
N
 41
0.5370569280343717
  7
dcStyle0
 72
     5
 11
-358.2243436757823
 21
-440.5653938253569
 31
0.0
100
AcDbText
  0
TEXT
  5
460
330
1F
100
AcDbEntity
  8
0
 62
     2
100
AcDbText
 10
-199.2243436865226
 20
-375.7653938117509
 30
0.0
 40
24.0
  1
99.4
 41
0.8077544426494346
  7
dcStyle0
 72
     5
 11
-151.2243436865226
 21
-375.7653938117509
 31
0.0
100
AcDbText
  0
TEXT
  5
461
330
1F
100
AcDbEntity
  8
0
 62
     2
100
AcDbText
 10
-121.2243436919225
 20
-375.7653938117509
 30
0.0
 40
24.0
  1
149.4
 41
0.7805182641273806
  7
dcStyle0
 72
     5
 11
-61.22434369192254
 21
-375.7653938117509
 31
0.0
100
AcDbText
  0
TEXT
  5
462
330
1F
100
AcDbEntity
  8
0
 62
     2
100
AcDbText
 10
-37.22434369732247
 20
-375.7653938117509
 30
0.0
 40
24.0
  1
199.4
 41
0.7805182641273806
  7
dcStyle0
 72
     5
 11
22.77565630267753
 21
-375.7653938117509
 31
0.0
100
AcDbText
  0
TEXT
  5
463
330
1F
100
AcDbEntity
  8
0
 62
     2
100
AcDbText
 10
46.77565629727758
 20
-375.7653938117509
 30
0.0
 40
24.0
  1
299.4
 41
0.7805182641273806
  7
dcStyle0
 72
     5
 11
106.7756562972776
 21
-375.7653938117509
 31
0.0
100
AcDbText
  0
TEXT
  5
464
330
1F
100
AcDbEntity
  8
0
 62
     2
100
AcDbText
 10
-187.2243436865226
 20
-408.1653938117508
 30
0.0
 40
24.0
  1
35
 41
0.6877579092159559
  7
dcStyle0
 72
     5
 11
-163.2243436865226
 21
-408.1653938117508
 31
0.0
100
AcDbText
  0
TEXT
  5
465
330
1F
100
AcDbEntity
  8
0
 62
     2
100
AcDbText
 10
-370.2243436757823
 20
-505.3653938253569
 30
0.0
 40
24.0
  1
B(mm)
 41
0.6332320162107395
  7
dcStyle0
 72
     5
 11
-310.2243436757823
 21
-505.3653938253569
 31
0.0
100
AcDbText
  0
TEXT
  5
466
330
1F
100
AcDbEntity
  8
0
 62
     2
100
AcDbText
 10
-193.2243436865226
 20
-343.3653938117561
 30
0.0
 40
24.0
  1
100
 41
0.6877579092159559
  7
dcStyle0
 72
     5
 11
-157.2243436865226
 21
-343.3653938117561
 31
0.0
100
AcDbText
  0
TEXT
  5
467
330
1F
100
AcDbEntity
  8
0
 62
     2
100
AcDbText
 10
-109.2243436919225
 20
-343.3653938117561
 30
0.0
 40
24.0
  1
150
 41
0.6877579092159559
  7
dcStyle0
 72
     5
 11
-73.22434369192251
 21
-343.3653938117561
 31
0.0
100
AcDbText
  0
TEXT
  5
468
330
1F
100
AcDbEntity
  8
0
 62
     2
100
AcDbText
 10
-25.22434369732247
 20
-343.3653938117561
 30
0.0
 40
24.0
  1
200
 41
0.6877579092159559
  7
dcStyle0
 72
     5
 11
10.77565630267753
 21
-343.3653938117561
 31
0.0
100
AcDbText
  0
TEXT
  5
469
330
1F
100
AcDbEntity
  8
0
 62
     2
100
AcDbText
 10
58.77565629727758
 20
-343.3653938117561
 30
0.0
 40
24.0
  1
300
 41
0.6877579092159559
  7
dcStyle0
 72
     5
 11
94.77565629727758
 21
-343.3653938117561
 31
0.0
100
AcDbText
  0
TEXT
  5
46A
330
1F
100
AcDbEntity
  8
0
 62
     2
100
AcDbText
 10
-181.2243436865226
 20
-440.5653938185528
 30
0.0
 40
24.0
  1
6
 41
0.6877579092159559
  7
dcStyle0
 72
     5
 11
-169.2243436865226
 21
-440.5653938185528
 31
0.0
100
AcDbText
  0
TEXT
  5
46B
330
1F
100
AcDbEntity
  8
0
 62
     2
100
AcDbText
 10
-193.2243436865226
 20
-505.3653938185528
 30
0.0
 40
24.0
  1
924
 41
0.6877579092159559
  7
dcStyle0
 72
     5
 11
-157.2243436865226
 21
-505.3653938185528
 31
0.0
100
AcDbText
  0
TEXT
  5
46C
330
1F
100
AcDbEntity
  8
0
 62
     2
100
AcDbText
 10
-370.2243436757823
 20
-570.1653938185549
 30
0.0
 40
24.0
  1
D(mm)
 41
0.6305170239596468
  7
dcStyle0
 72
     5
 11
-310.2243436757823
 21
-570.1653938185549
 31
0.0
100
AcDbText
  0
TEXT
  5
46D
330
1F
100
AcDbEntity
  8
0
 62
     2
100
AcDbText
 10
-370.2243436757823
 20
-602.5653938185549
 30
0.0
 40
24.0
  1
E(mm)
 41
0.6500260010400415
  7
dcStyle0
 72
     5
 11
-310.2243436757823
 21
-602.5653938185549
 31
0.0
100
AcDbText
  0
TEXT
  5
46E
330
1F
100
AcDbEntity
  8
0
 62
     2
100
AcDbText
 10
-187.2243436865226
 20
-570.1653938117431
 30
0.0
 40
24.0
  1
57
 41
0.6877579092159559
  7
dcStyle0
 72
     5
 11
-163.2243436865226
 21
-570.1653938117431
 31
0.0
100
AcDbText
  0
TEXT
  5
46F
330
1F
100
AcDbEntity
  8
0
 62
     2
100
AcDbText
 10
-193.2243436865226
 20
-602.565393811743
 30
0.0
 40
24.0
  1
---
 41
0.6877579092159559
  7
dcStyle0
 72
     5
 11
-157.2243436865226
 21
-602.565393811743
 31
0.0
100
AcDbText
  0
TEXT
  5
470
330
1F
100
AcDbEntity
  8
0
 62
     2
100
AcDbText
 10
-103.2243436919225
 20
-570.1653938117431
 30
0.0
 40
24.0
  1
57
 41
0.6877579092159559
  7
dcStyle0
 72
     5
 11
-79.22434369192251
 21
-570.1653938117431
 31
0.0
100
AcDbText
  0
TEXT
  5
471
330
1F
100
AcDbEntity
  8
0
 62
     2
100
AcDbText
 10
-109.2243436919225
 20
-602.565393811743
 30
0.0
 40
24.0
  1
---
 41
0.6877579092159559
  7
dcStyle0
 72
     5
 11
-73.22434369192251
 21
-602.565393811743
 31
0.0
100
AcDbText
  0
TEXT
  5
472
330
1F
100
AcDbEntity
  8
0
 62
     2
100
AcDbText
 10
-19.22434369732247
 20
-570.1653938117431
 30
0.0
 40
24.0
  1
57
 41
0.6877579092159559
  7
dcStyle0
 72
     5
 11
4.775656302677532
 21
-570.1653938117431
 31
0.0
100
AcDbText
  0
TEXT
  5
473
330
1F
100
AcDbEntity
  8
0
 62
     2
100
AcDbText
 10
64.77565629727758
 20
-570.1653938117431
 30
0.0
 40
24.0
  1
57
 41
0.6877579092159559
  7
dcStyle0
 72
     5
 11
88.77565629727758
 21
-570.1653938117431
 31
0.0
100
AcDbText
  0
TEXT
  5
474
330
1F
100
AcDbEntity
  8
0
 62
     2
100
AcDbText
 10
-25.22434369732247
 20
-602.5653938117509
 30
0.0
 40
24.0
  1
760
 41
0.6877579092159559
  7
dcStyle0
 72
     5
 11
10.77565630267753
 21
-602.5653938117509
 31
0.0
100
AcDbText
  0
TEXT
  5
475
330
1F
100
AcDbEntity
  8
0
 62
     2
100
AcDbText
 10
52.77565629727758
 20
-602.5653938117509
 30
0.0
 40
24.0
  1
1260
 41
0.6877579092159559
  7
dcStyle0
 72
     5
 11
100.7756562972776
 21
-602.5653938117509
 31
0.0
100
AcDbText
  0
TEXT
  5
476
330
1F
100
AcDbEntity
  8
0
 62
     2
100
AcDbText
 10
-103.2243436919225
 20
-408.1653938117508
 30
0.0
 40
24.0
  1
72
 41
0.6877579092159559
  7
dcStyle0
 72
     5
 11
-79.22434369192251
 21
-408.1653938117508
 31
0.0
100
AcDbText
  0
TEXT
  5
477
330
1F
100
AcDbEntity
  8
0
 62
     2
100
AcDbText
 10
-97.22434369192251
 20
-440.5653938185528
 30
0.0
 40
24.0
  1
9
 41
0.6877579092159559
  7
dcStyle0
 72
     5
 11
-85.22434369192251
 21
-440.5653938185528
 31
0.0
100
AcDbText
  0
TEXT
  5
478
330
1F
100
AcDbEntity
  8
0
 62
     2
100
AcDbText
 10
-115.2243436919225
 20
-505.3653938185528
 30
0.0
 40
24.0
  1
1350
 41
0.6877579092159559
  7
dcStyle0
 72
     5
 11
-67.22434369192254
 21
-505.3653938185528
 31
0.0
100
AcDbText
  0
TEXT
  5
479
330
1F
100
AcDbEntity
  8
0
 62
     2
100
AcDbText
 10
-19.22434369732247
 20
-408.1653938117508
 30
0.0
 40
24.0
  1
73
 41
0.6877579092159559
  7
dcStyle0
 72
     5
 11
4.775656302677532
 21
-408.1653938117508
 31
0.0
100
AcDbText
  0
TEXT
  5
47A
330
1F
100
AcDbEntity
  8
0
 62
     2
100
AcDbText
 10
-19.22434369732247
 20
-440.5653938185528
 30
0.0
 40
24.0
  1
12
 41
0.6877579092159559
  7
dcStyle0
 72
     5
 11
4.775656302677532
 21
-440.5653938185528
 31
0.0
100
AcDbText
  0
TEXT
  5
47B
330
1F
100
AcDbEntity
  8
0
 62
     2
100
AcDbText
 10
-31.22434369732247
 20
-505.3653938185528
 30
0.0
 40
24.0
  1
1848
 41
0.6877579092159559
  7
dcStyle0
 72
     5
 11
16.77565630267753
 21
-505.3653938185528
 31
0.0
100
AcDbText
  0
TEXT
  5
47C
330
1F
100
AcDbEntity
  8
0
 62
     2
100
AcDbText
 10
64.77565629727758
 20
-408.1653938117508
 30
0.0
 40
24.0
  1
72
 41
0.6877579092159559
  7
dcStyle0
 72
     5
 11
88.77565629727758
 21
-408.1653938117508
 31
0.0
100
AcDbText
  0
TEXT
  5
47D
330
1F
100
AcDbEntity
  8
0
 62
     2
100
AcDbText
 10
64.77565629727758
 20
-440.5653938185528
 30
0.0
 40
24.0
  1
19
 41
0.6877579092159559
  7
dcStyle0
 72
     5
 11
88.77565629727758
 21
-440.5653938185528
 31
0.0
100
AcDbText
  0
TEXT
  5
47E
330
1F
100
AcDbEntity
  8
0
 62
     2
100
AcDbText
 10
52.77565629727758
 20
-505.3653938185528
 30
0.0
 40
24.0
  1
2850
 41
0.6877579092159559
  7
dcStyle0
 72
     5
 11
100.7756562972776
 21
-505.3653938185528
 31
0.0
100
AcDbText
  0
TEXT
  5
47F
330
1F
100
AcDbEntity
  8
0
 62
     2
100
AcDbText
 10
-370.2243436757823
 20
-537.7653938185547
 30
0.0
 40
24.0
  1
C(mm)
 41
0.6268806419257772
  7
dcStyle0
 72
     5
 11
-310.2243436757823
 21
-537.7653938185547
 31
0.0
100
AcDbText
  0
TEXT
  5
480
330
1F
100
AcDbEntity
  8
0
 62
     2
100
AcDbText
 10
-187.2243436865226
 20
-537.7653938117508
 30
0.0
 40
24.0
  1
35
 41
0.6877579092159559
  7
dcStyle0
 72
     5
 11
-163.2243436865226
 21
-537.7653938117508
 31
0.0
100
AcDbText
  0
TEXT
  5
481
330
1F
100
AcDbEntity
  8
0
 62
     2
100
AcDbText
 10
-103.2243436919225
 20
-537.7653938117508
 30
0.0
 40
24.0
  1
72
 41
0.6877579092159559
  7
dcStyle0
 72
     5
 11
-79.22434369192251
 21
-537.7653938117508
 31
0.0
100
AcDbText
  0
TEXT
  5
482
330
1F
100
AcDbEntity
  8
0
 62
     2
100
AcDbText
 10
-19.22434369732247
 20
-537.7653938117508
 30
0.0
 40
24.0
  1
73
 41
0.6877579092159559
  7
dcStyle0
 72
     5
 11
4.775656302677532
 21
-537.7653938117508
 31
0.0
100
AcDbText
  0
TEXT
  5
483
330
1F
100
AcDbEntity
  8
0
 62
     2
100
AcDbText
 10
64.77565629727758
 20
-537.7653938117508
 30
0.0
 40
24.0
  1
72
 41
0.6877579092159559
  7
dcStyle0
 72
     5
 11
88.77565629727758
 21
-537.7653938117508
 31
0.0
100
AcDbText
  0
TEXT
  5
484
330
1F
100
AcDbEntity
  8
0
 62
     2
100
AcDbText
 10
-370.2243436757823
 20
-472.9653938253568
 30
0.0
 40
24.0
  1
P(mm)
 41
0.6379178361826996
  7
dcStyle0
 72
     5
 11
-310.2243436757823
 21
-472.9653938253568
 31
0.0
100
AcDbText
  0
TEXT
  5
485
330
1F
100
AcDbEntity
  8
0
 62
     2
100
AcDbText
 10
-193.2243436865226
 20
-472.9653938117509
 30
0.0
 40
24.0
  1
154
 41
0.6877579092159559
  7
dcStyle0
 72
     5
 11
-157.2243436865226
 21
-472.9653938117509
 31
0.0
100
AcDbText
  0
TEXT
  5
486
330
1F
100
AcDbEntity
  8
0
 62
     2
100
AcDbText
 10
-109.2243436919225
 20
-472.965393811748
 30
0.0
 40
24.0
  1
150
 41
0.6877579092159559
  7
dcStyle0
 72
     5
 11
-73.22434369192251
 21
-472.965393811748
 31
0.0
100
AcDbText
  0
TEXT
  5
487
330
1F
100
AcDbEntity
  8
0
 62
     2
100
AcDbText
 10
-25.22434369732247
 20
-472.965393811745
 30
0.0
 40
24.0
  1
154
 41
0.6877579092159559
  7
dcStyle0
 72
     5
 11
10.77565630267753
 21
-472.965393811745
 31
0.0
100
AcDbText
  0
TEXT
  5
488
330
1F
100
AcDbEntity
  8
0
 62
     2
100
AcDbText
 10
58.77565629727758
 20
-472.965393811742
 30
0.0
 40
24.0
  1
150
 41
0.6877579092159559
  7
dcStyle0
 72
     5
 11
94.77565629727758
 21
-472.965393811742
 31
0.0
100
AcDbText
  0
LINE
  5
489
330
1F
100
AcDbEntity
  8
0
  6
Continuous
 62
     3
370
    13
100
AcDbLine
 10
382.1900826135785
 20
-347.1653938070745
 30
0.0
 11
1124.190082578668
 21
-347.1653938070745
 31
0.0
  0
LINE
  5
48A
330
1F
100
AcDbEntity
  8
0
  6
Continuous
 62
     3
370
    13
100
AcDbLine
 10
382.1900826135349
 20
-315.1653938083546
 30
0.0
 11
382.1900826135785
 21
-411.1653938045147
 31
0.0
  0
LINE
  5
48B
330
1F
100
AcDbEntity
  8
0
  6
Continuous
 62
     3
370
    13
100
AcDbLine
 10
382.1900826135785
 20
-379.1653938057948
 30
0.0
 11
1124.190082578668
 21
-379.1653938057777
 31
0.0
  0
LINE
  5
48C
330
1F
100
AcDbEntity
  8
0
  6
Continuous
 62
     3
370
    13
100
AcDbLine
 10
544.1900826050241
 20
-315.1653938083546
 30
0.0
 11
544.1900826050241
 21
-411.1653938045097
 31
0.0
  0
LINE
  5
48D
330
1F
100
AcDbEntity
  8
0
  6
Continuous
 62
     3
370
    13
100
AcDbLine
 10
1124.190082578624
 20
-315.1653938083546
 30
0.0
 11
1124.190082578668
 21
-411.1653938044972
 31
0.0
  0
LINE
  5
48E
330
1F
100
AcDbEntity
  8
0
  6
Continuous
 62
     3
370
    13
100
AcDbLine
 10
382.1900826135793
 20
-411.1653938045147
 30
0.0
 11
1124.190082578668
 21
-411.1653938044972
 31
0.0
  0
LINE
  5
48F
330
1F
100
AcDbEntity
  8
0
  6
Continuous
 62
     3
370
    13
100
AcDbLine
 10
382.1900826135567
 20
-315.1653938083546
 30
0.0
 11
1124.190082578646
 21
-315.1653938083546
 31
0.0
  0
LINE
  5
490
330
1F
100
AcDbEntity
  8
0
  6
Continuous
 62
     3
370
    13
100
AcDbLine
 10
660.1900826050241
 20
-315.1653938083546
 30
0.0
 11
660.1900826050241
 21
-411.1653938045079
 31
0.0
  0
LINE
  5
491
330
1F
100
AcDbEntity
  8
0
  6
Continuous
 62
     3
370
    13
100
AcDbLine
 10
776.1900826050241
 20
-315.1653938083546
 30
0.0
 11
776.1900826050241
 21
-411.1653938045079
 31
0.0
  0
LINE
  5
492
330
1F
100
AcDbEntity
  8
0
  6
Continuous
 62
     3
370
    13
100
AcDbLine
 10
892.1900826050241
 20
-315.1653938083546
 30
0.0
 11
892.1900826050241
 21
-411.1653938045079
 31
0.0
  0
LINE
  5
493
330
1F
100
AcDbEntity
  8
0
  6
Continuous
 62
     3
370
    13
100
AcDbLine
 10
1008.190082605024
 20
-315.1653938083546
 30
0.0
 11
1008.190082605024
 21
-411.1653938045079
 31
0.0
  0
LINE
  5
494
330
1F
100
AcDbEntity
  8
0
  6
Continuous
 62
     3
370
    13
100
AcDbLine
 10
-379.2243436754225
 20
-606.765393815173
 30
0.0
 11
118.7756562945776
 21
-606.7653938151554
 31
0.0
  0
LINE
  5
495
330
1F
100
AcDbEntity
  8
0
  6
Continuous
 62
     3
370
    13
100
AcDbLine
 10
-379.2243436754225
 20
-315.1653938083509
 30
0.0
 11
118.7756562945776
 21
-315.1653938083333
 31
0.0
  0
LINE
  5
496
330
1F
100
AcDbEntity
  8
0
  6
Continuous
 62
     3
370
    13
100
AcDbLine
 10
-379.224343675428
 20
-315.1653938083509
 30
0.0
 11
-379.2243436754225
 21
-606.7653938151759
 31
0.0
  0
LINE
  5
497
330
1F
100
AcDbEntity
  8
0
  6
Continuous
 62
     3
370
    13
100
AcDbLine
 10
-217.2243436838226
 20
-315.1653938083457
 30
0.0
 11
-217.2243436838226
 21
-606.7653938151734
 31
0.0
  0
LINE
  5
498
330
1F
100
AcDbEntity
  8
0
  6
Continuous
 62
     3
370
    13
100
AcDbLine
 10
118.7756562945732
 20
-315.1653938083333
 30
0.0
 11
118.7756562945776
 21
-606.7653938151582
 31
0.0
  0
LINE
  5
499
330
1F
100
AcDbEntity
  8
0
  6
Continuous
 62
     3
370
    13
100
AcDbLine
 10
-379.2243436754225
 20
-347.5653938151529
 30
0.0
 11
118.7756562945776
 21
-347.5653938151353
 31
0.0
  0
LINE
  5
49A
330
1F
100
AcDbEntity
  8
0
  6
Continuous
 62
     3
370
    13
100
AcDbLine
 10
-379.2243436754225
 20
-379.9653938151529
 30
0.0
 11
118.7756562945776
 21
-379.9653938151353
 31
0.0
  0
LINE
  5
49B
330
1F
100
AcDbEntity
  8
0
  6
Continuous
 62
     3
370
    13
100
AcDbLine
 10
-379.2243436754225
 20
-444.7653938151529
 30
0.0
 11
118.7756562945776
 21
-444.7653938151353
 31
0.0
  0
LINE
  5
49C
330
1F
100
AcDbEntity
  8
0
  6
Continuous
 62
     3
370
    13
100
AcDbLine
 10
-379.2243436754225
 20
-509.5653938151529
 30
0.0
 11
118.7756562945776
 21
-509.5653938151353
 31
0.0
  0
LINE
  5
49D
330
1F
100
AcDbEntity
  8
0
  6
Continuous
 62
     3
370
    13
100
AcDbLine
 10
-133.2243436892226
 20
-315.1653938083457
 30
0.0
 11
-133.2243436892226
 21
-606.7653938151734
 31
0.0
  0
LINE
  5
49E
330
1F
100
AcDbEntity
  8
0
  6
Continuous
 62
     3
370
    13
100
AcDbLine
 10
-49.22434369462249
 20
-315.1653938083457
 30
0.0
 11
-49.22434369462249
 21
-606.7653938151734
 31
0.0
  0
LINE
  5
49F
330
1F
100
AcDbEntity
  8
0
  6
Continuous
 62
     3
370
    13
100
AcDbLine
 10
34.77565629997756
 20
-315.1653938083457
 30
0.0
 11
34.77565629997756
 21
-606.7653938151734
 31
0.0
  0
LINE
  5
4A0
330
1F
100
AcDbEntity
  8
0
  6
Continuous
 62
     3
370
    13
100
AcDbLine
 10
-379.2243436754225
 20
-541.9653938151529
 30
0.0
 11
118.7756562945776
 21
-541.9653938151353
 31
0.0
  0
LINE
  5
4A1
330
1F
100
AcDbEntity
  8
0
  6
Continuous
 62
     3
370
    13
100
AcDbLine
 10
-379.2243436754225
 20
-574.3653938151529
 30
0.0
 11
118.7756562945776
 21
-574.3653938151353
 31
0.0
  0
LINE
  5
4A2
330
1F
100
AcDbEntity
  8
0
  6
Continuous
 62
     3
370
    13
100
AcDbLine
 10
-379.2243436754225
 20
-412.3653938219549
 30
0.0
 11
118.7756562945776
 21
-412.3653938219372
 31
0.0
  0
LINE
  5
4A3
330
1F
100
AcDbEntity
  8
0
  6
Continuous
 62
     3
370
    13
100
AcDbLine
 10
-379.2243436754225
 20
-477.1653938151529
 30
0.0
 11
118.7756562945776
 21
-477.1653938151353
 31
0.0
  0
LINE
  5
4A4
330
1F
100
AcDbEntity
  8
0
  6
CENTER
 62
     3
370
    13
100
AcDbLine
 10
-228.9587957402838
 20
-114.6062528541871
 30
0.0
 11
-228.9587957402838
 21
-94.60625285418715
 31
0.0
  0
LINE
  5
4A5
330
1F
100
AcDbEntity
  8
0
  6
CENTER
 62
     3
370
    13
100
AcDbLine
 10
-348.9587957402838
 20
-114.6062528541871
 30
0.0
 11
-348.9587957402838
 21
-94.60625285418715
 31
0.0
  0
LINE
  5
4A6
330
1F
100
AcDbEntity
  8
0
  6
CENTER
 62
     3
370
    13
100
AcDbLine
 10
151.0412042597162
 20
-94.60625285418715
 30
0.0
 11
151.0412042597162
 21
-114.6062528541871
 31
0.0
  0
LINE
  5
4A7
330
1F
100
AcDbEntity
  8
0
  6
CENTER
 62
     3
370
    13
100
AcDbLine
 10
31.04120425971621
 20
-94.60625285418715
 30
0.0
 11
31.04120425971621
 21
-114.6062528541871
 31
0.0
  0
LINE
  5
4A8
330
1F
100
AcDbEntity
  8
0
  6
CENTER
 62
     3
370
    13
100
AcDbLine
 10
-728.9587957402838
 20
-94.60625285418715
 30
0.0
 11
-728.9587957402838
 21
-114.6062528541871
 31
0.0
  0
LINE
  5
4A9
330
1F
100
AcDbEntity
  8
0
  6
CENTER
 62
     3
370
    13
100
AcDbLine
 10
-608.9587957402838
 20
-94.60625285418715
 30
0.0
 11
-608.9587957402838
 21
-114.6062528541871
 31
0.0
  0
LINE
  5
4AA
330
1F
100
AcDbEntity
  8
0
  6
CENTER
 62
     3
370
    13
100
AcDbLine
 10
-798.9587957402838
 20
-33.10625285418715
 30
0.0
 11
221.0412042597162
 21
-33.10625285418715
 31
0.0
  0
LINE
  5
4AB
330
1F
100
AcDbEntity
  8
0
  6
CENTER
 62
     3
370
    13
100
AcDbLine
 10
221.0412042597162
 20
514.7437471526259
 30
0.0
 11
-798.9587957402838
 21
514.7437471526259
 31
0.0
  0
LINE
  5
4AC
330
1F
100
AcDbEntity
  8
0
  6
CENTER
 62
     3
370
    13
100
AcDbLine
 10
612.5376319191868
 20
-94.60625285418713
 30
0.0
 11
612.5376319191868
 21
-114.5004088541874
 31
0.0
  0
LINE
  5
4AD
330
1F
100
AcDbEntity
  8
0
  6
CENTER
 62
     3
370
    13
100
AcDbLine
 10
1047.537631919187
 20
-94.60625285418713
 30
0.0
 11
1047.537631919187
 21
-114.6062528541871
 31
0.0
  0
LINE
  5
4AE
330
1F
100
AcDbEntity
  8
0
  6
Continuous
 62
     7
370
    18
100
AcDbLine
 10
208.0412042597162
 20
-14.60625285418715
 30
0.0
 11
208.0412042597162
 21
-104.6062528541871
 31
0.0
  0
LINE
  5
4AF
330
1F
100
AcDbEntity
  8
0
  6
Continuous
 62
     7
370
    18
100
AcDbLine
 10
208.0412042597162
 20
-17.80625285418731
 30
0.0
 11
-785.9587957402838
 21
-17.80625285418731
 31
0.0
  0
LINE
  5
4B0
330
1F
100
AcDbEntity
  8
0
  6
Continuous
 62
     7
370
    18
100
AcDbLine
 10
208.0412042597162
 20
-14.60625285418715
 30
0.0
 11
-785.9587957402838
 21
-14.60625285418715
 31
0.0
  0
LINE
  5
4B1
330
1F
100
AcDbEntity
  8
0
  6
Continuous
 62
     7
370
    18
100
AcDbLine
 10
208.0412042597162
 20
-101.406252854187
 30
0.0
 11
-785.9587957402838
 21
-101.406252854187
 31
0.0
  0
LINE
  5
4B2
330
1F
100
AcDbEntity
  8
0
  6
Continuous
 62
     7
370
    18
100
AcDbLine
 10
-785.9587957402838
 20
-14.60625285418715
 30
0.0
 11
-785.9587957402838
 21
-104.6062528541871
 31
0.0
  0
LINE
  5
4B3
330
1F
100
AcDbEntity
  8
0
  6
Continuous
 62
     7
370
    18
100
AcDbLine
 10
208.0412042597162
 20
-104.6062528541871
 30
0.0
 11
-785.9587957402838
 21
-104.6062528541871
 31
0.0
  0
LINE
  5
4B4
330
1F
100
AcDbEntity
  8
0
  6
Continuous
 62
     7
370
    18
100
AcDbLine
 10
-785.9587957402838
 20
714.7437471526259
 30
0.0
 11
208.0412042597162
 21
714.7437471526259
 31
0.0
  0
LINE
  5
4B5
330
1F
100
AcDbEntity
  8
0
  6
Continuous
 62
     7
370
    18
100
AcDbLine
 10
-785.9587957402838
 20
314.7437471526259
 30
0.0
 11
208.0412042597162
 21
314.7437471526259
 31
0.0
  0
LINE
  5
4B6
330
1F
100
AcDbEntity
  8
0
  6
Continuous
 62
     7
370
    18
100
AcDbLine
 10
-785.9587957402838
 20
714.7437471526259
 30
0.0
 11
-785.9587957402838
 21
734.7437471526259
 31
0.0
  0
ARC
  5
4B7
330
1F
100
AcDbEntity
  8
0
  6
Continuous
 62
     7
370
    18
100
AcDbCircle
 10
-775.9587957402838
 20
734.7437471526259
 30
0.0
 40
10.0
100
AcDbArc
 50
90.0
 51
180.0
  0
LINE
  5
4B8
330
1F
100
AcDbEntity
  8
0
  6
Continuous
 62
     7
370
    18
100
AcDbLine
 10
-785.9587957402838
 20
294.7437471526259
 30
0.0
 11
-785.9587957402838
 21
314.7437471526259
 31
0.0
  0
ARC
  5
4B9
330
1F
100
AcDbEntity
  8
0
  6
Continuous
 62
     7
370
    18
100
AcDbCircle
 10
-775.9587957402838
 20
294.7437471526259
 30
0.0
 40
10.0
100
AcDbArc
 50
180.0
 51
270.0
  0
LINE
  5
4BA
330
1F
100
AcDbEntity
  8
0
  6
Continuous
 62
     7
370
    18
100
AcDbLine
 10
-775.9587957402838
 20
744.7437471526259
 30
0.0
 11
198.0412042597162
 21
744.7437471526259
 31
0.0
  0
LINE
  5
4BB
330
1F
100
AcDbEntity
  8
0
  6
Continuous
 62
     7
370
    18
100
AcDbLine
 10
208.0412042597162
 20
714.7437471526259
 30
0.0
 11
208.0412042597162
 21
734.7437471526259
 31
0.0
  0
ARC
  5
4BC
330
1F
100
AcDbEntity
  8
0
  6
Continuous
 62
     7
370
    18
100
AcDbCircle
 10
198.0412042597162
 20
734.7437471526259
 30
0.0
 40
10.0
100
AcDbArc
 50
0.0
 51
90.0
  0
LINE
  5
4BD
330
1F
100
AcDbEntity
  8
0
  6
Continuous
 62
     7
370
    18
100
AcDbLine
 10
208.0412042597162
 20
294.7437471526259
 30
0.0
 11
208.0412042597162
 21
314.7437471526259
 31
0.0
  0
LINE
  5
4BE
330
1F
100
AcDbEntity
  8
0
  6
Continuous
 62
     7
370
    18
100
AcDbLine
 10
-775.9587957402838
 20
284.7437471526259
 30
0.0
 11
198.0412042597162
 21
284.7437471526259
 31
0.0
  0
ARC
  5
4BF
330
1F
100
AcDbEntity
  8
0
  6
Continuous
 62
     7
370
    18
100
AcDbCircle
 10
198.0412042597162
 20
294.7437471526259
 30
0.0
 40
10.0
100
AcDbArc
 50
270.0
 51
0.0
  0
LINE
  5
4C0
330
1F
100
AcDbEntity
  8
0
  6
Continuous
 62
     7
370
    18
100
AcDbLine
 10
600.0376309191869
 20
-14.60625285418713
 30
0.0
 11
625.7376309191866
 21
-14.60625285418713
 31
0.0
  0
ARC
  5
4C1
330
1F
100
AcDbEntity
  8
0
  6
Continuous
 62
     7
370
    18
100
AcDbCircle
 10
625.7376309191866
 20
-18.90625285418731
 30
0.0
 40
4.3
100
AcDbArc
 50
0.0
 51
90.0
  0
LINE
  5
4C2
330
1F
100
AcDbEntity
  8
0
  6
Continuous
 62
     7
370
    18
100
AcDbLine
 10
625.7376309191866
 20
-104.6062528541871
 30
0.0
 11
600.0376309191869
 21
-104.6062528541871
 31
0.0
  0
LINE
  5
4C3
330
1F
100
AcDbEntity
  8
0
  6
Continuous
 62
     7
370
    18
100
AcDbLine
 10
1060.037630919187
 20
-14.60625285418713
 30
0.0
 11
1034.337630919187
 21
-14.60625285418713
 31
0.0
  0
LINE
  5
4C4
330
1F
100
AcDbEntity
  8
0
  6
Continuous
 62
     7
370
    18
100
AcDbLine
 10
1034.337630919187
 20
-104.6062528541871
 30
0.0
 11
1060.037630919187
 21
-104.6062528541871
 31
0.0
  0
ARC
  5
4C5
330
1F
100
AcDbEntity
  8
0
  6
Continuous
 62
     7
370
    18
100
AcDbCircle
 10
1034.337630919187
 20
-100.306252854187
 30
0.0
 40
4.3
100
AcDbArc
 50
180.0
 51
270.0
  0
LINE
  5
4C6
330
1F
100
AcDbEntity
  8
0
  6
Continuous
 62
     7
370
    18
100
AcDbLine
 10
1030.037630919187
 20
-18.90625285418731
 30
0.0
 11
1030.037630919187
 21
-100.306252854187
 31
0.0
  0
ARC
  5
4C7
330
1F
100
AcDbEntity
  8
0
  6
Continuous
 62
     7
370
    18
100
AcDbCircle
 10
1034.337630919187
 20
-18.90625285418731
 30
0.0
 40
4.3
100
AcDbArc
 50
90.0
 51
180.0
  0
LINE
  5
4C8
330
1F
100
AcDbEntity
  8
0
  6
Continuous
 62
     7
370
    18
100
AcDbLine
 10
630.0376309191868
 20
-18.90625285418731
 30
0.0
 11
630.0376309191868
 21
-100.306252854187
 31
0.0
  0
ARC
  5
4C9
330
1F
100
AcDbEntity
  8
0
  6
Continuous
 62
     7
370
    18
100
AcDbCircle
 10
625.7376309191866
 20
-100.306252854187
 30
0.0
 40
4.3
100
AcDbArc
 50
270.0
 51
0.0
  0
LINE
  5
4CA
330
1F
100
AcDbEntity
  8
0
  6
Continuous
 62
     7
370
    18
100
AcDbLine
 10
1060.037630919187
 20
-14.60625285418713
 30
0.0
 11
1060.037630919187
 21
-17.80625285418695
 31
0.0
  0
LINE
  5
4CB
330
1F
100
AcDbEntity
  8
0
  6
Continuous
 62
     7
370
    18
100
AcDbLine
 10
1060.037630919187
 20
-101.4062528541873
 30
0.0
 11
1060.037630919187
 21
-104.6062528541871
 31
0.0
  0
LINE
  5
4CC
330
1F
100
AcDbEntity
  8
0
  6
Continuous
 62
     7
370
    18
100
AcDbLine
 10
1034.337630919187
 20
-17.80625285418695
 30
0.0
 11
1060.037630919187
 21
-17.80625285418695
 31
0.0
  0
ARC
  5
4CD
330
1F
100
AcDbEntity
  8
0
  6
Continuous
 62
     7
370
    18
100
AcDbCircle
 10
1034.337630919187
 20
-18.90625285418731
 30
0.0
 40
1.1
100
AcDbArc
 50
90.0
 51
180.0
  0
LINE
  5
4CE
330
1F
100
AcDbEntity
  8
0
  6
Continuous
 62
     7
370
    18
100
AcDbLine
 10
1033.237630919187
 20
-100.306252854187
 30
0.0
 11
1033.237630919187
 21
-18.90625285418731
 31
0.0
  0
LINE
  5
4CF
330
1F
100
AcDbEntity
  8
0
  6
Continuous
 62
     7
370
    18
100
AcDbLine
 10
1034.337630919187
 20
-101.4062528541873
 30
0.0
 11
1060.037630919187
 21
-101.4062528541873
 31
0.0
  0
ARC
  5
4D0
330
1F
100
AcDbEntity
  8
0
  6
Continuous
 62
     7
370
    18
100
AcDbCircle
 10
1034.337630919187
 20
-100.306252854187
 30
0.0
 40
1.1
100
AcDbArc
 50
180.0
 51
270.0
  0
ARC
  5
4D1
330
1F
100
AcDbEntity
  8
0
  6
Continuous
 62
     7
370
    18
100
AcDbCircle
 10
625.7376309191866
 20
-18.90625285418731
 30
0.0
 40
1.1
100
AcDbArc
 50
0.0
 51
90.0
  0
LINE
  5
4D2
330
1F
100
AcDbEntity
  8
0
  6
Continuous
 62
     7
370
    18
100
AcDbLine
 10
626.837630919187
 20
-100.306252854187
 30
0.0
 11
626.837630919187
 21
-18.90625285418731
 31
0.0
  0
ARC
  5
4D3
330
1F
100
AcDbEntity
  8
0
  6
Continuous
 62
     7
370
    18
100
AcDbCircle
 10
625.7376309191866
 20
-100.306252854187
 30
0.0
 40
1.1
100
AcDbArc
 50
270.0
 51
0.0
  0
LINE
  5
4D4
330
1F
100
AcDbEntity
  8
0
  6
Continuous
 62
     7
370
    18
100
AcDbLine
 10
600.0376309191869
 20
-14.60625285418713
 30
0.0
 11
600.0376309191869
 21
-17.80625285418695
 31
0.0
  0
LINE
  5
4D5
330
1F
100
AcDbEntity
  8
0
  6
Continuous
 62
     7
370
    18
100
AcDbLine
 10
625.7376309191866
 20
-17.80625285418695
 30
0.0
 11
600.0376309191869
 21
-17.80625285418695
 31
0.0
  0
LINE
  5
4D6
330
1F
100
AcDbEntity
  8
0
  6
Continuous
 62
     7
370
    18
100
AcDbLine
 10
600.0376309191869
 20
-101.4062528541873
 30
0.0
 11
600.0376309191869
 21
-104.6062528541871
 31
0.0
  0
LINE
  5
4D7
330
1F
100
AcDbEntity
  8
0
  6
Continuous
 62
     7
370
    18
100
AcDbLine
 10
625.7376309191866
 20
-101.4062528541873
 30
0.0
 11
600.0376309191869
 21
-101.4062528541873
 31
0.0
  0
INSERT
  5
4D8
330
1F
100
AcDbEntity
  8
2
  6
Continuous
100
AcDbBlockReference
  2
DC_GROUP_W_JR-5721_S_030_10
 10
0.0
 20
0.0
 30
0.0
  0
INSERT
  5
4D9
330
1F
100
AcDbEntity
  8
2
  6
Continuous
100
AcDbBlockReference
  2
DC_GROUP_W_JR-5721_S_030_12
 10
0.0
 20
0.0
 30
0.0
  0
INSERT
  5
4DA
330
1F
100
AcDbEntity
  8
2
  6
Continuous
100
AcDbBlockReference
  2
DC_GROUP_W_JR-5721_S_030_14
 10
0.0
 20
0.0
 30
0.0
  0
INSERT
  5
4DB
330
1F
100
AcDbEntity
  8
2
  6
Continuous
100
AcDbBlockReference
  2
DC_GROUP_W_JR-5721_S_030_16
 10
0.0
 20
0.0
 30
0.0
  0
INSERT
  5
4DC
330
1F
100
AcDbEntity
  8
2
  6
Continuous
100
AcDbBlockReference
  2
DC_GROUP_W_JR-5721_S_030_18
 10
0.0
 20
0.0
 30
0.0
  0
INSERT
  5
4DD
330
1F
100
AcDbEntity
  8
2
  6
Continuous
100
AcDbBlockReference
  2
DC_GROUP_W_JR-5721_S_030_20
 10
0.0
 20
0.0
 30
0.0
  0
INSERT
  5
4DE
330
1F
100
AcDbEntity
  8
2
  6
Continuous
100
AcDbBlockReference
  2
DC_GROUP_W_JR-5721_S_030_22
 10
0.0
 20
0.0
 30
0.0
  0
INSERT
  5
4DF
330
1F
100
AcDbEntity
  8
2
  6
Continuous
100
AcDbBlockReference
  2
DC_GROUP_W_JR-5721_S_030_24
 10
0.0
 20
0.0
 30
0.0
  0
INSERT
  5
4E0
330
1F
100
AcDbEntity
  8
2
  6
Continuous
100
AcDbBlockReference
  2
DC_GROUP_W_JR-5721_S_030_26
 10
0.0
 20
0.0
 30
0.0
  0
INSERT
  5
4E1
330
1F
100
AcDbEntity
  8
2
  6
Continuous
100
AcDbBlockReference
  2
DC_GROUP_W_JR-5721_S_030_28
 10
0.0
 20
0.0
 30
0.0
  0
INSERT
  5
4E2
330
1F
100
AcDbEntity
  8
2
  6
Continuous
100
AcDbBlockReference
  2
DC_GROUP_W_JR-5721_S_030_30
 10
0.0
 20
0.0
 30
0.0
  0
INSERT
  5
4E3
330
1F
100
AcDbEntity
  8
2
  6
Continuous
100
AcDbBlockReference
  2
DC_GROUP_W_JR-5721_S_030_32
 10
0.0
 20
0.0
 30
0.0
  0
INSERT
  5
4E4
330
1F
100
AcDbEntity
  8
2
  6
Continuous
100
AcDbBlockReference
  2
DC_GROUP_W_JR-5721_S_030_34
 10
0.0
 20
0.0
 30
0.0
  0
INSERT
  5
4E5
330
1F
100
AcDbEntity
  8
2
  6
Continuous
100
AcDbBlockReference
  2
DC_GROUP_W_JR-5721_S_030_36
 10
0.0
 20
0.0
 30
0.0
  0
INSERT
  5
4E6
330
1F
100
AcDbEntity
  8
2
  6
Continuous
100
AcDbBlockReference
  2
DC_GROUP_W_JR-5721_S_030_38
 10
0.0
 20
0.0
 30
0.0
  0
INSERT
  5
4E7
330
1F
100
AcDbEntity
  8
2
  6
Continuous
100
AcDbBlockReference
  2
DC_GROUP_W_JR-5721_S_030_40
 10
0.0
 20
0.0
 30
0.0
  0
INSERT
  5
4E8
330
1F
100
AcDbEntity
  8
2
  6
Continuous
100
AcDbBlockReference
  2
DC_GROUP_W_JR-5721_S_030_42
 10
0.0
 20
0.0
 30
0.0
  0
INSERT
  5
4E9
330
1F
100
AcDbEntity
  8
2
  6
Continuous
100
AcDbBlockReference
  2
DC_GROUP_W_JR-5721_S_030_44
 10
0.0
 20
0.0
 30
0.0
  0
INSERT
  5
4EA
330
1F
100
AcDbEntity
  8
2
  6
Continuous
100
AcDbBlockReference
  2
DC_GROUP_W_JR-5721_S_030_46
 10
0.0
 20
0.0
 30
0.0
  0
INSERT
  5
4EB
330
1F
100
AcDbEntity
  8
2
  6
Continuous
100
AcDbBlockReference
  2
DC_GROUP_W_JR-5721_S_030_48
 10
0.0
 20
0.0
 30
0.0
  0
INSERT
  5
4EC
330
1F
100
AcDbEntity
  8
2
  6
Continuous
100
AcDbBlockReference
  2
DC_GROUP_W_JR-5721_S_030_50
 10
0.0
 20
0.0
 30
0.0
  0
INSERT
  5
4ED
330
1F
100
AcDbEntity
  8
2
  6
Continuous
100
AcDbBlockReference
  2
DC_GROUP_W_JR-5721_S_030_52
 10
0.0
 20
0.0
 30
0.0
  0
INSERT
  5
4EE
330
1F
100
AcDbEntity
  8
2
  6
Continuous
100
AcDbBlockReference
  2
DC_GROUP_W_JR-5721_S_030_54
 10
0.0
 20
0.0
 30
0.0
  0
INSERT
  5
4EF
330
1F
100
AcDbEntity
  8
2
  6
Continuous
100
AcDbBlockReference
  2
DC_GROUP_W_JR-5721_S_030_56
 10
0.0
 20
0.0
 30
0.0
  0
INSERT
  5
4F0
330
1F
100
AcDbEntity
  8
2
  6
Continuous
100
AcDbBlockReference
  2
DC_GROUP_W_JR-5721_S_030_58
 10
0.0
 20
0.0
 30
0.0
  0
INSERT
  5
4F1
330
1F
100
AcDbEntity
  8
2
  6
Continuous
100
AcDbBlockReference
  2
DC_GROUP_W_JR-5721_S_030_60
 10
0.0
 20
0.0
 30
0.0
  0
INSERT
  5
4F2
330
1F
100
AcDbEntity
  8
2
  6
Continuous
100
AcDbBlockReference
  2
DC_GROUP_W_JR-5721_S_030_61
 10
0.0
 20
0.0
 30
0.0
  0
INSERT
  5
4F3
330
1F
100
AcDbEntity
  8
2
  6
Continuous
100
AcDbBlockReference
  2
DC_GROUP_W_JR-5721_S_030_62
 10
0.0
 20
0.0
 30
0.0
  0
INSERT
  5
4F4
330
1F
100
AcDbEntity
  8
2
  6
Continuous
100
AcDbBlockReference
  2
DC_GROUP_W_JR-5721_S_030_63
 10
0.0
 20
0.0
 30
0.0
  0
INSERT
  5
4F5
330
1F
100
AcDbEntity
  8
2
  6
Continuous
100
AcDbBlockReference
  2
DC_GROUP_W_JR-5721_S_030_64
 10
0.0
 20
0.0
 30
0.0
  0
INSERT
  5
4F6
330
1F
100
AcDbEntity
  8
2
  6
Continuous
100
AcDbBlockReference
  2
DC_GROUP_W_JR-5721_S_030_65
 10
0.0
 20
0.0
 30
0.0
  0
INSERT
  5
4F7
330
1F
100
AcDbEntity
  8
2
  6
Continuous
100
AcDbBlockReference
  2
DC_GROUP_W_JR-5721_S_030_66
 10
0.0
 20
0.0
 30
0.0
  0
INSERT
  5
4F8
330
1F
100
AcDbEntity
  8
2
  6
Continuous
100
AcDbBlockReference
  2
DC_GROUP_W_JR-5721_S_030_68
 10
0.0
 20
0.0
 30
0.0
  0
LINE
  5
4F9
330
1F
100
AcDbEntity
  8
0
  6
DASHED2
 62
     4
370
    13
100
AcDbLine
 10
-785.9587957402838
 20
717.943747152626
 30
0.0
 11
208.0412042597162
 21
717.943747152626
 31
0.0
  0
LINE
  5
4FA
330
1F
100
AcDbEntity
  8
0
  6
DASHED2
 62
     4
370
    13
100
AcDbLine
 10
-785.9587957402838
 20
311.5437471526259
 30
0.0
 11
208.0412042597162
 21
311.5437471526259
 31
0.0
  0
VIEWPORT
  5
AF
330
1B
100
AcDbEntity
 67
     1
  8
0
100
AcDbViewport
 10
0.0
 20
0.0
 30
0.0
 40
7092.0
 41
4864.610759777202
 68
     1
 69
     1
 12
0.0
 22
0.0
 13
0.0
 23
0.0
 14
0.5
 24
0.5
 15
0.0
 25
0.0
 16
0.0
 26
0.0
 36
1.0
 17
0.0
 27
0.0
 37
0.0
 42
50.0
 43
0.0
 44
0.0
 45
4864.610759777202
 50
0.0
 51
0.0
 72
   100
 90
   557152
  1

281
     0
 71
     1
 74
     0
110
0.0
120
0.0
130
0.0
111
1.0
121
0.0
131
0.0
112
0.0
122
1.0
132
0.0
 79
     0
146
0.0
170
     0
 61
     5
292
     1
282
     1
141
0.0
142
0.0
 63
   256
  0
ENDSEC
  0
SECTION
  2
OBJECTS
  0
DICTIONARY
  5
C
330
0
100
AcDbDictionary
281
     1
  3
ACAD_DETAILVIEWSTYLE
350
52F
  3
ACAD_GROUP
350
D
  3
ACAD_LAYOUT
350
1A
  3
ACAD_MATERIAL
350
43
  3
ACAD_MLEADERSTYLE
350
52E
  3
ACAD_MLINESTYLE
350
17
  3
ACAD_PLOTSETTINGS
350
19
  3
ACAD_PLOTSTYLENAME
350
E
  3
ACAD_SCALELIST
350
47
  3
ACAD_SECTIONVIEWSTYLE
350
530
  3
ACAD_TABLESTYLE
350
52D
  3
ACAD_VISUALSTYLE
350
2A
  3
AcDbVariableDictionary
350
4FB
  0
SUN
  5
69
330
29
100
AcDbSun
 90
        1
290
     0
 63
     7
421
 16777215
 40
1.0
291
     1
 91
  2455826
 92
 54000000
292
     0
 70
     2
 71
   256
280
     1
  0
DICTIONARY
  5
52F
102
{ACAD_REACTORS
330
C
102
}
330
C
100
AcDbDictionary
281
     1
  0
DICTIONARY
  5
D
102
{ACAD_REACTORS
330
C
102
}
330
C
100
AcDbDictionary
281
     1
  0
DICTIONARY
  5
1A
102
{ACAD_REACTORS
330
C
102
}
330
C
100
AcDbDictionary
281
     1
  3
Layout1
350
1E
  3
Layout2
350
26
  3
Model
350
22
  0
DICTIONARY
  5
43
102
{ACAD_REACTORS
330
C
102
}
330
C
100
AcDbDictionary
281
     1
  3
ByBlock
350
45
  3
ByLayer
350
44
  3
Global
350
46
  0
DICTIONARY
  5
52E
102
{ACAD_REACTORS
330
C
102
}
330
C
100
AcDbDictionary
281
     1
  0
DICTIONARY
  5
17
102
{ACAD_REACTORS
330
C
102
}
330
C
100
AcDbDictionary
281
     1
  3
Standard
350
18
  0
DICTIONARY
  5
19
102
{ACAD_REACTORS
330
C
102
}
330
C
100
AcDbDictionary
281
     1
  0
ACDBDICTIONARYWDFLT
  5
E
102
{ACAD_REACTORS
330
C
102
}
330
C
100
AcDbDictionary
281
     1
  3
Normal
350
F
100
AcDbDictionaryWithDefault
340
F
  0
DICTIONARY
  5
47
102
{ACAD_REACTORS
330
C
102
}
330
C
100
AcDbDictionary
281
     1
  3
A0
350
48
  3
A1
350
49
  3
A2
350
4A
  3
A3
350
4B
  3
A4
350
4C
  3
A5
350
4D
  3
A6
350
4E
  3
A7
350
4F
  3
A8
350
50
  3
A9
350
51
  3
B0
350
52
  3
B1
350
53
  3
B2
350
54
  3
B3
350
55
  3
B4
350
56
  3
B5
350
57
  3
B6
350
58
  3
B7
350
59
  3
B8
350
5A
  3
B9
350
5B
  3
C0
350
5C
  3
C1
350
5D
  3
C2
350
5E
  3
C3
350
5F
  3
C4
350
60
  3
C5
350
61
  3
C6
350
62
  3
C7
350
63
  3
C8
350
64
  3
C9
350
65
  3
D0
350
66
  3
D1
350
67
  3
D2
350
68
  0
DICTIONARY
  5
530
102
{ACAD_REACTORS
330
C
102
}
330
C
100
AcDbDictionary
281
     1
  0
DICTIONARY
  5
52D
102
{ACAD_REACTORS
330
C
102
}
330
C
100
AcDbDictionary
281
     1
  0
DICTIONARY
  5
2A
102
{ACAD_REACTORS
330
C
102
}
330
C
100
AcDbDictionary
281
     1
  3
2dWireframe
350
2F
  3
Basic
350
32
  3
Brighten
350
36
  3
ColorChange
350
3A
  3
Conceptual
350
34
  3
Dim
350
35
  3
EdgeColorOff
350
3D
  3
Facepattern
350
39
  3
Flat
350
2B
  3
FlatWithEdges
350
2C
  3
Gouraud
350
2D
  3
GouraudWithEdges
350
2E
  3
Hidden
350
31
  3
JitterOff
350
3B
  3
Linepattern
350
38
  3
OverhangOff
350
3C
  3
Realistic
350
33
  3
Shaded
350
42
  3
Shaded with edges
350
41
  3
Shades of Gray
350
3E
  3
Sketchy
350
3F
  3
Thicken
350
37
  3
Wireframe
350
30
  3
X-Ray
350
40
  0
DICTIONARY
  5
4FB
102
{ACAD_REACTORS
330
C
102
}
330
C
100
AcDbDictionary
281
     1
  3
CANNOSCALE
350
4FC
  0
LAYOUT
  5
1E
102
{ACAD_REACTORS
330
1A
102
}
330
1A
100
AcDbPlotSettings
  1

  2
none_device
  4

  6

 40
0.0
 41
0.0
 42
0.0
 43
0.0
 44
0.0
 45
0.0
 46
0.0
 47
0.0
 48
0.0
 49
0.0
140
0.0
141
0.0
142
1.0
143
1.0
 70
   688
 72
     0
 73
     0
 74
     5
  7

 75
    16
 76
     0
 77
     2
 78
   300
147
1.0
148
0.0
149
0.0
100
AcDbLayout
  1
Layout1
 70
     0
 71
     1
 10
0.0
 20
0.0
 11
12.0
 21
9.0
 12
0.0
 22
0.0
 32
0.0
 14
1.000000000000000E+20
 24
1.000000000000000E+20
 34
1.000000000000000E+20
 15
-1.000000000000000E+20
 25
-1.000000000000000E+20
 35
-1.000000000000000E+20
146
0.0
 13
0.0
 23
0.0
 33
0.0
 16
1.0
 26
0.0
 36
0.0
 17
0.0
 27
1.0
 37
0.0
 76
     0
330
1B
331
AF
  0
LAYOUT
  5
26
102
{ACAD_REACTORS
330
1A
102
}
330
1A
100
AcDbPlotSettings
  1

  2
none_device
  4

  6

 40
0.0
 41
0.0
 42
0.0
 43
0.0
 44
0.0
 45
0.0
 46
0.0
 47
0.0
 48
0.0
 49
0.0
140
0.0
141
0.0
142
1.0
143
1.0
 70
   688
 72
     0
 73
     0
 74
     5
  7

 75
    16
 76
     0
 77
     2
 78
   300
147
1.0
148
0.0
149
0.0
100
AcDbLayout
  1
Layout2
 70
     1
 71
     2
 10
0.0
 20
0.0
 11
0.0
 21
0.0
 12
0.0
 22
0.0
 32
0.0
 14
0.0
 24
0.0
 34
0.0
 15
0.0
 25
0.0
 35
0.0
146
0.0
 13
0.0
 23
0.0
 33
0.0
 16
1.0
 26
0.0
 36
0.0
 17
0.0
 27
1.0
 37
0.0
 76
     0
330
23
  0
LAYOUT
  5
22
102
{ACAD_REACTORS
330
1A
102
}
330
1A
100
AcDbPlotSettings
  1

  2
none_device
  4
Letter_(8.50_x_11.00_Inches)
  6

 40
6.35
 41
6.35
 42
6.35000508
 43
6.35000508
 44
215.9
 45
279.4
 46
0.0
 47
0.0
 48
0.0
 49
0.0
140
0.0
141
0.0
142
1.0
143
1.0
 70
  1712
 72
     0
 73
     0
 74
     0
  7

 75
     0
 76
     0
 77
     2
 78
   300
147
1.0
148
0.0
149
0.0
100
AcDbLayout
  1
Model
 70
     1
 71
     0
 10
-1260.0
 20
-891.0
 11
1260.0
 21
891.0
 12
0.0
 22
0.0
 32
0.0
 14
-3546.0
 24
-2432.305379888601
 34
0.0
 15
3546.0
 25
2432.305379888601
 35
0.0
146
0.0
 13
0.0
 23
0.0
 33
0.0
 16
1.0
 26
0.0
 36
0.0
 17
0.0
 27
1.0
 37
0.0
 76
     0
330
1F
331
29
  0
MATERIAL
  5
45
102
{ACAD_REACTORS
330
43
102
}
330
43
100
AcDbMaterial
  1
ByBlock
 72
     1
 94
      127
  0
MATERIAL
  5
44
102
{ACAD_REACTORS
330
43
102
}
330
43
100
AcDbMaterial
  1
ByLayer
 72
     1
 94
      127
  0
MATERIAL
  5
46
102
{ACAD_REACTORS
330
43
102
}
330
43
100
AcDbMaterial
  1
Global
 72
     1
 94
      127
  0
MLINESTYLE
  5
18
102
{ACAD_REACTORS
330
17
102
}
330
17
100
AcDbMlineStyle
  2
Standard
 70
     0
  3

 62
   256
 51
90.0
 52
90.0
 71
     2
 49
0.5
 62
   256
  6
BYLAYER
 49
-0.5
 62
   256
  6
BYLAYER
  0
ACDBPLACEHOLDER
  5
F
102
{ACAD_REACTORS
330
E
102
}
330
E
  0
SCALE
  5
48
102
{ACAD_REACTORS
330
47
102
}
330
47
100
AcDbScale
 70
     0
300
1:1
140
1.0
141
1.0
290
     1
  0
SCALE
  5
49
102
{ACAD_REACTORS
330
47
102
}
330
47
100
AcDbScale
 70
     0
300
1:2
140
1.0
141
2.0
290
     0
  0
SCALE
  5
4A
102
{ACAD_REACTORS
330
47
102
}
330
47
100
AcDbScale
 70
     0
300
1:4
140
1.0
141
4.0
290
     0
  0
SCALE
  5
4B
102
{ACAD_REACTORS
330
47
102
}
330
47
100
AcDbScale
 70
     0
300
1:5
140
1.0
141
5.0
290
     0
  0
SCALE
  5
4C
102
{ACAD_REACTORS
330
47
102
}
330
47
100
AcDbScale
 70
     0
300
1:8
140
1.0
141
8.0
290
     0
  0
SCALE
  5
4D
102
{ACAD_REACTORS
330
47
102
}
330
47
100
AcDbScale
 70
     0
300
1:10
140
1.0
141
10.0
290
     0
  0
SCALE
  5
4E
102
{ACAD_REACTORS
330
47
102
}
330
47
100
AcDbScale
 70
     0
300
1:16
140
1.0
141
16.0
290
     0
  0
SCALE
  5
4F
102
{ACAD_REACTORS
330
47
102
}
330
47
100
AcDbScale
 70
     0
300
1:20
140
1.0
141
20.0
290
     0
  0
SCALE
  5
50
102
{ACAD_REACTORS
330
47
102
}
330
47
100
AcDbScale
 70
     0
300
1:30
140
1.0
141
30.0
290
     0
  0
SCALE
  5
51
102
{ACAD_REACTORS
330
47
102
}
330
47
100
AcDbScale
 70
     0
300
1:40
140
1.0
141
40.0
290
     0
  0
SCALE
  5
52
102
{ACAD_REACTORS
330
47
102
}
330
47
100
AcDbScale
 70
     0
300
1:50
140
1.0
141
50.0
290
     0
  0
SCALE
  5
53
102
{ACAD_REACTORS
330
47
102
}
330
47
100
AcDbScale
 70
     0
300
1:100
140
1.0
141
100.0
290
     0
  0
SCALE
  5
54
102
{ACAD_REACTORS
330
47
102
}
330
47
100
AcDbScale
 70
     0
300
2:1
140
2.0
141
1.0
290
     0
  0
SCALE
  5
55
102
{ACAD_REACTORS
330
47
102
}
330
47
100
AcDbScale
 70
     0
300
4:1
140
4.0
141
1.0
290
     0
  0
SCALE
  5
56
102
{ACAD_REACTORS
330
47
102
}
330
47
100
AcDbScale
 70
     0
300
8:1
140
8.0
141
1.0
290
     0
  0
SCALE
  5
57
102
{ACAD_REACTORS
330
47
102
}
330
47
100
AcDbScale
 70
     0
300
10:1
140
10.0
141
1.0
290
     0
  0
SCALE
  5
58
102
{ACAD_REACTORS
330
47
102
}
330
47
100
AcDbScale
 70
     0
300
100:1
140
100.0
141
1.0
290
     0
  0
SCALE
  5
59
102
{ACAD_REACTORS
330
47
102
}
330
47
100
AcDbScale
 70
     0
300
1/128" = 1'-0"
140
0.0078125
141
12.0
290
     0
  0
SCALE
  5
5A
102
{ACAD_REACTORS
330
47
102
}
330
47
100
AcDbScale
 70
     0
300
1/64" = 1'-0"
140
0.015625
141
12.0
290
     0
  0
SCALE
  5
5B
102
{ACAD_REACTORS
330
47
102
}
330
47
100
AcDbScale
 70
     0
300
1/32" = 1'-0"
140
0.03125
141
12.0
290
     0
  0
SCALE
  5
5C
102
{ACAD_REACTORS
330
47
102
}
330
47
100
AcDbScale
 70
     0
300
1/16" = 1'-0"
140
0.0625
141
12.0
290
     0
  0
SCALE
  5
5D
102
{ACAD_REACTORS
330
47
102
}
330
47
100
AcDbScale
 70
     0
300
3/32" = 1'-0"
140
0.09375
141
12.0
290
     0
  0
SCALE
  5
5E
102
{ACAD_REACTORS
330
47
102
}
330
47
100
AcDbScale
 70
     0
300
1/8" = 1'-0"
140
0.125
141
12.0
290
     0
  0
SCALE
  5
5F
102
{ACAD_REACTORS
330
47
102
}
330
47
100
AcDbScale
 70
     0
300
3/16" = 1'-0"
140
0.1875
141
12.0
290
     0
  0
SCALE
  5
60
102
{ACAD_REACTORS
330
47
102
}
330
47
100
AcDbScale
 70
     0
300
1/4" = 1'-0"
140
0.25
141
12.0
290
     0
  0
SCALE
  5
61
102
{ACAD_REACTORS
330
47
102
}
330
47
100
AcDbScale
 70
     0
300
3/8" = 1'-0"
140
0.375
141
12.0
290
     0
  0
SCALE
  5
62
102
{ACAD_REACTORS
330
47
102
}
330
47
100
AcDbScale
 70
     0
300
1/2" = 1'-0"
140
0.5
141
12.0
290
     0
  0
SCALE
  5
63
102
{ACAD_REACTORS
330
47
102
}
330
47
100
AcDbScale
 70
     0
300
3/4" = 1'-0"
140
0.75
141
12.0
290
     0
  0
SCALE
  5
64
102
{ACAD_REACTORS
330
47
102
}
330
47
100
AcDbScale
 70
     0
300
1" = 1'-0"
140
1.0
141
12.0
290
     0
  0
SCALE
  5
65
102
{ACAD_REACTORS
330
47
102
}
330
47
100
AcDbScale
 70
     0
300
1-1/2" = 1'-0"
140
1.5
141
12.0
290
     0
  0
SCALE
  5
66
102
{ACAD_REACTORS
330
47
102
}
330
47
100
AcDbScale
 70
     0
300
3" = 1'-0"
140
3.0
141
12.0
290
     0
  0
SCALE
  5
67
102
{ACAD_REACTORS
330
47
102
}
330
47
100
AcDbScale
 70
     0
300
6" = 1'-0"
140
6.0
141
12.0
290
     0
  0
SCALE
  5
68
102
{ACAD_REACTORS
330
47
102
}
330
47
100
AcDbScale
 70
     0
300
1'-0" = 1'-0"
140
12.0
141
12.0
290
     0
  0
VISUALSTYLE
  5
2F
102
{ACAD_REACTORS
330
2A
102
}
102
{ACAD_XDICTIONARY
360
505
102
}
330
2A
100
AcDbVisualStyle
  2
2dWireframe
 70
     4
177
     2
291
     0
 71
     0
176
     1
 72
     2
176
     1
 73
     0
176
     1
 90
        0
176
     1
 40
0.6
176
     1
 41
30.0
176
     1
 62
     5
 63
     7
421
 16777215
176
     1
 74
     1
176
     1
 91
        4
176
     1
 64
     7
176
     1
 65
   257
176
     1
 75
     1
176
     1
175
     1
176
     1
 42
1.0
176
     1
 92
        0
176
     1
 66
   257
176
     1
 43
1.0
176
     1
 76
     1
176
     1
 77
     6
176
     1
 78
     2
176
     1
 67
     7
176
     1
 79
     5
176
     1
170
     0
176
     1
171
     0
176
     1
290
     0
176
     1
 93
        1
176
     1
 44
0.0
176
     1
173
     0
176
     1
  0
VISUALSTYLE
  5
32
102
{ACAD_REACTORS
330
2A
102
}
102
{ACAD_XDICTIONARY
360
50B
102
}
330
2A
100
AcDbVisualStyle
  2
Basic
 70
     7
177
     2
291
     1
 71
     1
176
     1
 72
     0
176
     1
 73
     1
176
     1
 90
        0
176
     1
 40
0.6
176
     1
 41
30.0
176
     1
 62
     5
 63
     7
421
 16777215
176
     1
 74
     0
176
     1
 91
        4
176
     1
 64
     7
176
     1
 65
   257
176
     1
 75
     1
176
     1
175
     1
176
     1
 42
1.0
176
     1
 92
        8
176
     1
 66
     7
176
     1
 43
1.0
176
     1
 76
     1
176
     1
 77
     6
176
     1
 78
     2
176
     1
 67
     7
176
     1
 79
     5
176
     1
170
     0
176
     1
171
     0
176
     1
290
     0
176
     1
 93
        1
176
     1
 44
0.0
176
     1
173
     0
176
     1
  0
VISUALSTYLE
  5
36
102
{ACAD_REACTORS
330
2A
102
}
102
{ACAD_XDICTIONARY
360
513
102
}
330
2A
100
AcDbVisualStyle
  2
Brighten
 70
    12
177
     2
291
     1
 71
     2
176
     1
 72
     2
176
     1
 73
     0
176
     1
 90
        0
176
     1
 40
0.6
176
     1
 41
30.0
176
     1
 62
     5
 63
     7
421
 16777215
176
     1
 74
     1
176
     1
 91
        4
176
     1
 64
     7
176
     1
 65
   257
176
     1
 75
     1
176
     1
175
     1
176
     1
 42
1.0
176
     1
 92
        8
176
     1
 66
     7
176
     1
 43
1.0
176
     1
 76
     1
176
     1
 77
     6
176
     1
 78
     2
176
     1
 67
     7
176
     1
 79
     5
176
     1
170
     0
176
     1
171
     0
176
     1
290
     0
176
     1
 93
        1
176
     1
 44
50.0
176
     1
173
     0
176
     1
  0
VISUALSTYLE
  5
3A
102
{ACAD_REACTORS
330
2A
102
}
102
{ACAD_XDICTIONARY
360
51B
102
}
330
2A
100
AcDbVisualStyle
  2
ColorChange
 70
    16
177
     2
291
     1
 71
     2
176
     1
 72
     2
176
     1
 73
     3
176
     1
 90
        0
176
     1
 40
0.6
176
     1
 41
30.0
176
     1
 62
     5
 63
     8
421
  8421504
176
     1
 74
     1
176
     1
 91
        4
176
     1
 64
     7
176
     1
 65
   257
176
     1
 75
     1
176
     1
175
     1
176
     1
 42
1.0
176
     1
 92
        8
176
     1
 66
     8
424
  8421504
176
     1
 43
1.0
176
     1
 76
     1
176
     1
 77
     6
176
     1
 78
     2
176
     1
 67
     7
176
     1
 79
     5
176
     1
170
     0
176
     1
171
     0
176
     1
290
     0
176
     1
 93
        1
176
     1
 44
0.0
176
     1
173
     0
176
     1
  0
VISUALSTYLE
  5
34
102
{ACAD_REACTORS
330
2A
102
}
102
{ACAD_XDICTIONARY
360
50F
102
}
330
2A
100
AcDbVisualStyle
  2
Conceptual
 70
     9
177
     2
291
     0
 71
     3
176
     1
 72
     2
176
     1
 73
     0
176
     1
 90
        0
176
     1
 40
0.6
176
     1
 41
30.0
176
     1
 62
     5
 63
     7
421
 16777215
176
     1
 74
     2
176
     1
 91
        2
176
     1
 64
     7
176
     1
 65
   257
176
     1
 75
     1
176
     1
175
     1
176
     1
 42
179.0
176
     1
 92
        8
176
     1
 66
     7
176
     1
 43
1.0
176
     1
 76
     1
176
     1
 77
     6
176
     1
 78
     2
176
     1
 67
     7
176
     1
 79
     3
176
     1
170
     0
176
     1
171
     0
176
     1
290
     0
176
     1
 93
        1
176
     1
 44
0.0
176
     1
173
     0
176
     1
  0
VISUALSTYLE
  5
35
102
{ACAD_REACTORS
330
2A
102
}
102
{ACAD_XDICTIONARY
360
511
102
}
330
2A
100
AcDbVisualStyle
  2
Dim
 70
    11
177
     2
291
     1
 71
     2
176
     1
 72
     2
176
     1
 73
     0
176
     1
 90
        0
176
     1
 40
0.6
176
     1
 41
30.0
176
     1
 62
     5
 63
     7
421
 16777215
176
     1
 74
     1
176
     1
 91
        4
176
     1
 64
     7
176
     1
 65
   257
176
     1
 75
     1
176
     1
175
     1
176
     1
 42
1.0
176
     1
 92
        8
176
     1
 66
     7
176
     1
 43
1.0
176
     1
 76
     1
176
     1
 77
     6
176
     1
 78
     2
176
     1
 67
     7
176
     1
 79
     5
176
     1
170
     0
176
     1
171
     0
176
     1
290
     0
176
     1
 93
        1
176
     1
 44
-50.0
176
     1
173
     0
176
     1
  0
VISUALSTYLE
  5
3D
102
{ACAD_REACTORS
330
2A
102
}
102
{ACAD_XDICTIONARY
360
521
102
}
330
2A
100
AcDbVisualStyle
  2
EdgeColorOff
 70
    22
177
     2
291
     1
 71
     2
176
     0
 72
     2
176
     0
 73
     0
176
     0
 90
        0
176
     0
 40
0.6
176
     0
 41
30.0
176
     0
 62
     5
 63
     7
421
 16777215
176
     0
 74
     1
176
     0
 91
        4
176
     0
 64
     7
176
     0
 65
   257
176
     0
 75
     1
176
     0
175
     1
176
     0
 42
1.0
176
     0
 92
        8
176
     2
 66
     7
176
     0
 43
1.0
176
     0
 76
     1
176
     0
 77
     6
176
     0
 78
     2
176
     0
 67
     7
176
     0
 79
     5
176
     0
170
     0
176
     0
171
     0
176
     0
290
     0
176
     0
 93
        1
176
     0
 44
0.0
176
     0
173
     0
176
     0
  0
VISUALSTYLE
  5
39
102
{ACAD_REACTORS
330
2A
102
}
102
{ACAD_XDICTIONARY
360
519
102
}
330
2A
100
AcDbVisualStyle
  2
Facepattern
 70
    15
177
     2
291
     1
 71
     2
176
     1
 72
     2
176
     1
 73
     0
176
     1
 90
        0
176
     1
 40
0.6
176
     1
 41
30.0
176
     1
 62
     5
 63
     7
421
 16777215
176
     1
 74
     1
176
     1
 91
        4
176
     1
 64
     7
176
     1
 65
   257
176
     1
 75
     1
176
     1
175
     1
176
     1
 42
1.0
176
     1
 92
        8
176
     1
 66
     7
176
     1
 43
1.0
176
     1
 76
     1
176
     1
 77
     6
176
     1
 78
     2
176
     1
 67
     7
176
     1
 79
     5
176
     1
170
     0
176
     1
171
     0
176
     1
290
     0
176
     1
 93
        1
176
     1
 44
0.0
176
     1
173
     0
176
     1
  0
VISUALSTYLE
  5
2B
102
{ACAD_REACTORS
330
2A
102
}
102
{ACAD_XDICTIONARY
360
4FD
102
}
330
2A
100
AcDbVisualStyle
  2
Flat
 70
     0
177
     2
291
     1
 71
     2
176
     1
 72
     1
176
     1
 73
     1
176
     1
 90
        2
176
     1
 40
0.6
176
     1
 41
30.0
176
     1
 62
     5
 63
     7
421
 16777215
176
     1
 74
     0
176
     1
 91
        0
176
     1
 64
     7
176
     1
 65
   257
176
     1
 75
     1
176
     1
175
     1
176
     1
 42
1.0
176
     1
 92
        8
176
     1
 66
     7
176
     1
 43
1.0
176
     1
 76
     1
176
     1
 77
     6
176
     1
 78
     2
176
     1
 67
     7
176
     1
 79
     5
176
     1
170
     0
176
     1
171
     0
176
     1
290
     0
176
     1
 93
       13
176
     1
 44
0.0
176
     1
173
     0
176
     1
  0
VISUALSTYLE
  5
2C
102
{ACAD_REACTORS
330
2A
102
}
102
{ACAD_XDICTIONARY
360
4FF
102
}
330
2A
100
AcDbVisualStyle
  2
FlatWithEdges
 70
     1
177
     2
291
     1
 71
     2
176
     1
 72
     1
176
     1
 73
     1
176
     1
 90
        2
176
     1
 40
0.6
176
     1
 41
30.0
176
     1
 62
     5
 63
     7
421
 16777215
176
     1
 74
     1
176
     1
 91
        0
176
     1
 64
     7
176
     1
 65
   257
176
     1
 75
     1
176
     1
175
     1
176
     1
 42
1.0
176
     1
 92
        0
176
     1
 66
   257
176
     1
 43
1.0
176
     1
 76
     1
176
     1
 77
     6
176
     1
 78
     2
176
     1
 67
     7
176
     1
 79
     5
176
     1
170
     0
176
     1
171
     0
176
     1
290
     0
176
     1
 93
       13
176
     1
 44
0.0
176
     1
173
     0
176
     1
  0
VISUALSTYLE
  5
2D
102
{ACAD_REACTORS
330
2A
102
}
102
{ACAD_XDICTIONARY
360
501
102
}
330
2A
100
AcDbVisualStyle
  2
Gouraud
 70
     2
177
     2
291
     1
 71
     2
176
     1
 72
     2
176
     1
 73
     1
176
     1
 90
        2
176
     1
 40
0.6
176
     1
 41
30.0
176
     1
 62
     5
 63
     7
421
 16777215
176
     1
 74
     0
176
     1
 91
        0
176
     1
 64
     7
176
     1
 65
   257
176
     1
 75
     1
176
     1
175
     1
176
     1
 42
1.0
176
     1
 92
        0
176
     1
 66
     7
176
     1
 43
1.0
176
     1
 76
     1
176
     1
 77
     6
176
     1
 78
     2
176
     1
 67
     7
176
     1
 79
     5
176
     1
170
     0
176
     1
171
     0
176
     1
290
     0
176
     1
 93
       13
176
     1
 44
0.0
176
     1
173
     0
176
     1
  0
VISUALSTYLE
  5
2E
102
{ACAD_REACTORS
330
2A
102
}
102
{ACAD_XDICTIONARY
360
503
102
}
330
2A
100
AcDbVisualStyle
  2
GouraudWithEdges
 70
     3
177
     2
291
     1
 71
     2
176
     1
 72
     2
176
     1
 73
     1
176
     1
 90
        2
176
     1
 40
0.6
176
     1
 41
30.0
176
     1
 62
     5
 63
     7
421
 16777215
176
     1
 74
     1
176
     1
 91
        0
176
     1
 64
     7
176
     1
 65
   257
176
     1
 75
     1
176
     1
175
     1
176
     1
 42
1.0
176
     1
 92
        0
176
     1
 66
   257
176
     1
 43
1.0
176
     1
 76
     1
176
     1
 77
     6
176
     1
 78
     2
176
     1
 67
     7
176
     1
 79
     5
176
     1
170
     0
176
     1
171
     0
176
     1
290
     0
176
     1
 93
       13
176
     1
 44
0.0
176
     1
173
     0
176
     1
  0
VISUALSTYLE
  5
31
102
{ACAD_REACTORS
330
2A
102
}
102
{ACAD_XDICTIONARY
360
509
102
}
330
2A
100
AcDbVisualStyle
  2
Hidden
 70
     6
177
     2
291
     0
 71
     1
176
     1
 72
     2
176
     1
 73
     2
176
     1
 90
        0
176
     1
 40
0.6
176
     1
 41
30.0
176
     1
 62
     5
 63
     7
421
 16777215
176
     1
 74
     2
176
     1
 91
        2
176
     1
 64
     7
176
     1
 65
   257
176
     1
 75
     2
176
     1
175
     1
176
     1
 42
40.0
176
     1
 92
        0
176
     1
 66
   257
176
     1
 43
1.0
176
     1
 76
     1
176
     1
 77
     6
176
     1
 78
     2
176
     1
 67
     7
176
     1
 79
     3
176
     1
170
     0
176
     1
171
     0
176
     1
290
     0
176
     1
 93
        1
176
     1
 44
0.0
176
     1
173
     0
176
     1
  0
VISUALSTYLE
  5
3B
102
{ACAD_REACTORS
330
2A
102
}
102
{ACAD_XDICTIONARY
360
51D
102
}
330
2A
100
AcDbVisualStyle
  2
JitterOff
 70
    20
177
     2
291
     1
 71
     2
176
     0
 72
     2
176
     0
 73
     0
176
     0
 90
        0
176
     0
 40
0.6
176
     0
 41
30.0
176
     0
 62
     5
 63
     7
421
 16777215
176
     0
 74
     1
176
     0
 91
        4
176
     0
 64
     7
176
     0
 65
   257
176
     0
 75
     1
176
     0
175
     1
176
     0
 42
1.0
176
     0
 92
       10
176
     2
 66
     7
176
     0
 43
1.0
176
     0
 76
     1
176
     0
 77
     6
176
     0
 78
     2
176
     0
 67
     7
176
     0
 79
     5
176
     0
170
     0
176
     0
171
     0
176
     0
290
     0
176
     0
 93
        1
176
     0
 44
0.0
176
     0
173
     0
176
     0
  0
VISUALSTYLE
  5
38
102
{ACAD_REACTORS
330
2A
102
}
102
{ACAD_XDICTIONARY
360
517
102
}
330
2A
100
AcDbVisualStyle
  2
Linepattern
 70
    14
177
     2
291
     1
 71
     2
176
     1
 72
     2
176
     1
 73
     0
176
     1
 90
        0
176
     1
 40
0.6
176
     1
 41
30.0
176
     1
 62
     5
 63
     7
421
 16777215
176
     1
 74
     1
176
     1
 91
        4
176
     1
 64
     7
176
     1
 65
   257
176
     1
 75
     7
176
     1
175
     7
176
     1
 42
1.0
176
     1
 92
        8
176
     1
 66
     7
176
     1
 43
1.0
176
     1
 76
     1
176
     1
 77
     6
176
     1
 78
     2
176
     1
 67
     7
176
     1
 79
     5
176
     1
170
     0
176
     1
171
     0
176
     1
290
     0
176
     1
 93
        1
176
     1
 44
0.0
176
     1
173
     0
176
     1
  0
VISUALSTYLE
  5
3C
102
{ACAD_REACTORS
330
2A
102
}
102
{ACAD_XDICTIONARY
360
51F
102
}
330
2A
100
AcDbVisualStyle
  2
OverhangOff
 70
    21
177
     2
291
     1
 71
     2
176
     0
 72
     2
176
     0
 73
     0
176
     0
 90
        0
176
     0
 40
0.6
176
     0
 41
30.0
176
     0
 62
     5
 63
     7
421
 16777215
176
     0
 74
     1
176
     0
 91
        4
176
     0
 64
     7
176
     0
 65
   257
176
     0
 75
     1
176
     0
175
     1
176
     0
 42
1.0
176
     0
 92
        9
176
     2
 66
     7
176
     0
 43
1.0
176
     0
 76
     1
176
     0
 77
     6
176
     0
 78
     2
176
     0
 67
     7
176
     0
 79
     5
176
     0
170
     0
176
     0
171
     0
176
     0
290
     0
176
     0
 93
        1
176
     0
 44
0.0
176
     0
173
     0
176
     0
  0
VISUALSTYLE
  5
33
102
{ACAD_REACTORS
330
2A
102
}
102
{ACAD_XDICTIONARY
360
50D
102
}
330
2A
100
AcDbVisualStyle
  2
Realistic
 70
     8
177
     2
291
     0
 71
     2
176
     1
 72
     3
176
     1
 73
     0
176
     1
 90
        2
176
     1
 40
0.6
176
     1
 41
30.0
176
     1
 62
     5
 63
     7
421
 16777215
176
     1
 74
     0
176
     1
 91
        0
176
     1
 64
     7
176
     1
 65
   257
176
     1
 75
     1
176
     1
175
     1
176
     1
 42
1.0
176
     1
 92
        8
176
     1
 66
   257
176
     1
 43
1.0
176
     1
 76
     1
176
     1
 77
     6
176
     1
 78
     2
176
     1
 67
     7
176
     1
 79
     3
176
     1
170
     0
176
     1
171
     0
176
     1
290
     0
176
     1
 93
       13
176
     1
 44
0.0
176
     1
173
     0
176
     1
  0
VISUALSTYLE
  5
42
102
{ACAD_REACTORS
330
2A
102
}
102
{ACAD_XDICTIONARY
360
52B
102
}
330
2A
100
AcDbVisualStyle
  2
Shaded
 70
    27
177
     2
291
     0
 71
     2
176
     1
 72
     2
176
     1
 73
     1
176
     1
 90
        2
176
     1
 40
0.6
176
     1
 41
30.0
176
     1
 62
     5
 63
     7
421
 16777215
176
     1
 74
     0
176
     1
 91
        4
176
     1
 64
     7
176
     1
 65
   257
176
     1
 75
     1
176
     1
175
     1
176
     1
 42
1.0
176
     1
 92
        8
176
     1
 66
   257
176
     1
 43
1.0
176
     1
 76
     1
176
     1
 77
     6
176
     1
 78
     2
176
     1
 67
     8
425
  7895160
176
     1
 79
     3
176
     1
170
     0
176
     1
171
     0
176
     1
290
     0
176
     1
 93
        5
176
     1
 44
0.0
176
     1
173
     0
176
     1
  0
VISUALSTYLE
  5
41
102
{ACAD_REACTORS
330
2A
102
}
102
{ACAD_XDICTIONARY
360
529
102
}
330
2A
100
AcDbVisualStyle
  2
Shaded with edges
 70
    26
177
     2
291
     0
 71
     2
176
     1
 72
     2
176
     1
 73
     1
176
     1
 90
        2
176
     1
 40
0.6
176
     1
 41
30.0
176
     1
 62
     5
 63
     7
421
 16777215
176
     1
 74
     1
176
     1
 91
       10
176
     1
 64
     7
176
     1
 65
   257
176
     1
 75
     2
176
     1
175
     1
176
     1
 42
1.0
176
     1
 92
        8
176
     1
 66
   257
176
     1
 43
1.0
176
     1
 76
     1
176
     1
 77
     6
176
     1
 78
     2
176
     1
 67
     7
176
     1
 79
     3
176
     1
170
     0
176
     1
171
     0
176
     1
290
     0
176
     1
 93
        5
176
     1
 44
0.0
176
     1
173
     0
176
     1
  0
VISUALSTYLE
  5
3E
102
{ACAD_REACTORS
330
2A
102
}
102
{ACAD_XDICTIONARY
360
523
102
}
330
2A
100
AcDbVisualStyle
  2
Shades of Gray
 70
    23
177
     2
291
     0
 71
     2
176
     1
 72
     2
176
     1
 73
     3
176
     1
 90
        0
176
     1
 40
0.6
176
     1
 41
30.0
176
     1
 62
     5
 63
     7
421
 16777215
176
     1
 74
     2
176
     1
 91
        2
176
     1
 64
     7
176
     1
 65
     7
176
     1
 75
     1
176
     1
175
     1
176
     1
 42
40.0
176
     1
 92
        8
176
     1
 66
     7
176
     1
 43
1.0
176
     1
 76
     1
176
     1
 77
     6
176
     1
 78
     2
176
     1
 67
     7
176
     1
 79
     3
176
     1
170
     0
176
     1
171
     0
176
     1
290
     0
176
     1
 93
        1
176
     1
 44
0.0
176
     1
173
     0
176
     1
  0
VISUALSTYLE
  5
3F
102
{ACAD_REACTORS
330
2A
102
}
102
{ACAD_XDICTIONARY
360
525
102
}
330
2A
100
AcDbVisualStyle
  2
Sketchy
 70
    24
177
     2
291
     0
 71
     1
176
     1
 72
     2
176
     1
 73
     2
176
     1
 90
        0
176
     1
 40
0.6
176
     1
 41
30.0
176
     1
 62
     5
 63
     7
421
 16777215
176
     1
 74
     2
176
     1
 91
        2
176
     1
 64
     7
176
     1
 65
     7
176
     1
 75
     1
176
     1
175
     1
176
     1
 42
40.0
176
     1
 92
       11
176
     1
 66
     7
176
     1
 43
1.0
176
     1
 76
     1
176
     1
 77
     6
176
     1
 78
     2
176
     1
 67
     7
176
     1
 79
     6
176
     1
170
     0
176
     1
171
     0
176
     1
290
     0
176
     1
 93
        1
176
     1
 44
0.0
176
     1
173
     0
176
     1
  0
VISUALSTYLE
  5
37
102
{ACAD_REACTORS
330
2A
102
}
102
{ACAD_XDICTIONARY
360
515
102
}
330
2A
100
AcDbVisualStyle
  2
Thicken
 70
    13
177
     2
291
     1
 71
     2
176
     1
 72
     2
176
     1
 73
     0
176
     1
 90
        0
176
     1
 40
0.6
176
     1
 41
30.0
176
     1
 62
     5
 63
     7
421
 16777215
176
     1
 74
     1
176
     1
 91
        4
176
     1
 64
     7
176
     1
 65
   257
176
     1
 75
     1
176
     1
175
     1
176
     1
 42
1.0
176
     1
 92
       12
176
     1
 66
     7
176
     1
 43
1.0
176
     1
 76
     1
176
     1
 77
     6
176
     1
 78
     2
176
     1
 67
     7
176
     1
 79
     5
176
     1
170
     0
176
     1
171
     0
176
     1
290
     0
176
     1
 93
        1
176
     1
 44
0.0
176
     1
173
     0
176
     1
  0
VISUALSTYLE
  5
30
102
{ACAD_REACTORS
330
2A
102
}
102
{ACAD_XDICTIONARY
360
507
102
}
330
2A
100
AcDbVisualStyle
  2
Wireframe
 70
     5
177
     2
291
     0
 71
     0
176
     1
 72
     2
176
     1
 73
     0
176
     1
 90
        0
176
     1
 40
0.6
176
     1
 41
30.0
176
     1
 62
     5
 63
     7
421
 16777215
176
     1
 74
     1
176
     1
 91
        4
176
     1
 64
     7
176
     1
 65
   257
176
     1
 75
     1
176
     1
175
     1
176
     1
 42
1.0
176
     1
 92
        0
176
     1
 66
   257
176
     1
 43
1.0
176
     1
 76
     1
176
     1
 77
     6
176
     1
 78
     2
176
     1
 67
     7
176
     1
 79
     3
176
     1
170
     0
176
     1
171
     0
176
     1
290
     0
176
     1
 93
        1
176
     1
 44
0.0
176
     1
173
     0
176
     1
  0
VISUALSTYLE
  5
40
102
{ACAD_REACTORS
330
2A
102
}
102
{ACAD_XDICTIONARY
360
527
102
}
330
2A
100
AcDbVisualStyle
  2
X-Ray
 70
    25
177
     2
291
     0
 71
     2
176
     1
 72
     2
176
     1
 73
     1
176
     1
 90
        1
176
     1
 40
0.5
176
     1
 41
30.0
176
     1
 62
     5
 63
     7
421
 16777215
176
     1
 74
     1
176
     1
 91
        0
176
     1
 64
     7
176
     1
 65
   257
176
     1
 75
     1
176
     1
175
     1
176
     1
 42
1.0
176
     1
 92
        8
176
     1
 66
     7
176
     1
 43
1.0
176
     1
 76
     1
176
     1
 77
     6
176
     1
 78
     2
176
     1
 67
     7
176
     1
 79
     3
176
     1
170
     0
176
     1
171
     0
176
     1
290
     0
176
     1
 93
       13
176
     1
 44
0.0
176
     1
173
     0
176
     1
  0
DICTIONARYVAR
  5
4FC
102
{ACAD_REACTORS
330
4FB
102
}
330
4FB
100
DictionaryVariables
280
     0
  1
1:1
  0
DICTIONARY
  5
505
330
2F
100
AcDbDictionary
280
     1
281
     1
  3
ACAD_XREC_ROUNDTRIP
360
506
  0
DICTIONARY
  5
50B
330
32
100
AcDbDictionary
280
     1
281
     1
  3
ACAD_XREC_ROUNDTRIP
360
50C
  0
DICTIONARY
  5
513
330
36
100
AcDbDictionary
280
     1
281
     1
  3
ACAD_XREC_ROUNDTRIP
360
514
  0
DICTIONARY
  5
51B
330
3A
100
AcDbDictionary
280
     1
281
     1
  3
ACAD_XREC_ROUNDTRIP
360
51C
  0
DICTIONARY
  5
50F
330
34
100
AcDbDictionary
280
     1
281
     1
  3
ACAD_XREC_ROUNDTRIP
360
510
  0
DICTIONARY
  5
511
330
35
100
AcDbDictionary
280
     1
281
     1
  3
ACAD_XREC_ROUNDTRIP
360
512
  0
DICTIONARY
  5
521
330
3D
100
AcDbDictionary
280
     1
281
     1
  3
ACAD_XREC_ROUNDTRIP
360
522
  0
DICTIONARY
  5
519
330
39
100
AcDbDictionary
280
     1
281
     1
  3
ACAD_XREC_ROUNDTRIP
360
51A
  0
DICTIONARY
  5
4FD
330
2B
100
AcDbDictionary
280
     1
281
     1
  3
ACAD_XREC_ROUNDTRIP
360
4FE
  0
DICTIONARY
  5
4FF
330
2C
100
AcDbDictionary
280
     1
281
     1
  3
ACAD_XREC_ROUNDTRIP
360
500
  0
DICTIONARY
  5
501
330
2D
100
AcDbDictionary
280
     1
281
     1
  3
ACAD_XREC_ROUNDTRIP
360
502
  0
DICTIONARY
  5
503
330
2E
100
AcDbDictionary
280
     1
281
     1
  3
ACAD_XREC_ROUNDTRIP
360
504
  0
DICTIONARY
  5
509
330
31
100
AcDbDictionary
280
     1
281
     1
  3
ACAD_XREC_ROUNDTRIP
360
50A
  0
DICTIONARY
  5
51D
330
3B
100
AcDbDictionary
280
     1
281
     1
  3
ACAD_XREC_ROUNDTRIP
360
51E
  0
DICTIONARY
  5
517
330
38
100
AcDbDictionary
280
     1
281
     1
  3
ACAD_XREC_ROUNDTRIP
360
518
  0
DICTIONARY
  5
51F
330
3C
100
AcDbDictionary
280
     1
281
     1
  3
ACAD_XREC_ROUNDTRIP
360
520
  0
DICTIONARY
  5
50D
330
33
100
AcDbDictionary
280
     1
281
     1
  3
ACAD_XREC_ROUNDTRIP
360
50E
  0
DICTIONARY
  5
52B
330
42
100
AcDbDictionary
280
     1
281
     1
  3
ACAD_XREC_ROUNDTRIP
360
52C
  0
DICTIONARY
  5
529
330
41
100
AcDbDictionary
280
     1
281
     1
  3
ACAD_XREC_ROUNDTRIP
360
52A
  0
DICTIONARY
  5
523
330
3E
100
AcDbDictionary
280
     1
281
     1
  3
ACAD_XREC_ROUNDTRIP
360
524
  0
DICTIONARY
  5
525
330
3F
100
AcDbDictionary
280
     1
281
     1
  3
ACAD_XREC_ROUNDTRIP
360
526
  0
DICTIONARY
  5
515
330
37
100
AcDbDictionary
280
     1
281
     1
  3
ACAD_XREC_ROUNDTRIP
360
516
  0
DICTIONARY
  5
507
330
30
100
AcDbDictionary
280
     1
281
     1
  3
ACAD_XREC_ROUNDTRIP
360
508
  0
DICTIONARY
  5
527
330
40
100
AcDbDictionary
280
     1
281
     1
  3
ACAD_XREC_ROUNDTRIP
360
528
  0
XRECORD
  5
506
102
{ACAD_REACTORS
330
505
102
}
330
505
100
AcDbXrecord
280
     1
102
RTVSPost2010Prop28
280
     1
102
RTVSPost2010PropOp28
 70
     1
102
RTVSPost2010Prop29
280
     1
102
RTVSPost2010PropOp29
 70
     1
102
RTVSPost2010Prop30
280
     0
102
RTVSPost2010PropOp30
 70
     1
102
RTVSPost2010Prop31
280
     0
102
RTVSPost2010PropOp31
 70
     1
102
RTVSPost2010Prop32
280
     0
102
RTVSPost2010PropOp32
 70
     1
102
RTVSPost2010Prop33
280
     0
102
RTVSPost2010PropOp33
 70
     1
102
RTVSPost2010Prop34
280
     0
102
RTVSPost2010PropOp34
 70
     1
102
RTVSPost2010Prop35
280
     0
102
RTVSPost2010PropOp35
 70
     1
102
RTVSPost2010Prop36
280
     0
102
RTVSPost2010PropOp36
 70
     1
102
RTVSPost2010Prop37
 90
       50
102
RTVSPost2010PropOp37
 70
     1
102
RTVSPost2010Prop38
140
0.0
102
RTVSPost2010PropOp38
 70
     1
102
RTVSPost2010Prop39
140
1.0
102
RTVSPost2010PropOp39
 70
     1
102
RTVSPost2010Prop40
 90
        0
102
RTVSPost2010PropOp40
 70
     1
102
RTVSPost2010Prop41ColorIndex
 90
       18
102
RTVSPost2010Prop41ColorRGB
 90
        0
102
RTVSPost2010PropOp41
 70
     1
102
RTVSPost2010Prop42
 90
       50
102
RTVSPost2010PropOp42
 70
     1
102
RTVSPost2010Prop43
 90
        3
102
RTVSPost2010PropOp43
 70
     1
102
RTVSPost2010Prop44ColorIndex
 90
        5
102
RTVSPost2010Prop44ColorRGB
 90
      255
102
RTVSPost2010PropOp44
 70
     1
102
RTVSPost2010Prop45
280
     0
102
RTVSPost2010PropOp45
 70
     1
102
RTVSPost2010Prop46
 90
       50
102
RTVSPost2010PropOp46
 70
     1
102
RTVSPost2010Prop47
 90
       50
102
RTVSPost2010PropOp47
 70
     1
102
RTVSPost2010Prop48
 90
       50
102
RTVSPost2010PropOp48
 70
     1
102
RTVSPost2010Prop49
280
     0
102
RTVSPost2010PropOp49
 70
     1
102
RTVSPost2010Prop50
 90
       50
102
RTVSPost2010PropOp50
 70
     1
102
RTVSPost2010Prop51ColorIndex
 90
      256
102
RTVSPost2010Prop51ColorRGB
 90
-16777216
102
RTVSPost2010PropOp51
 70
     0
102
RTVSPost2010Prop52
140
1.0
102
RTVSPost2010PropOp52
 70
     0
102
RTVSPost2010Prop53
 90
        2
102
RTVSPost2010PropOp53
 70
     1
102
RTVSPost2010Prop54
  1
strokes_ogs.tif
102
RTVSPost2010PropOp54
 70
     1
102
RTVSPost2010Prop55
280
     0
102
RTVSPost2010PropOp55
 70
     1
102
RTVSPost2010Prop56
140
1.0
102
RTVSPost2010PropOp56
 70
     1
102
RTVSPost2010Prop57
140
1.0
102
RTVSPost2010PropOp57
 70
     1
  0
XRECORD
  5
50C
102
{ACAD_REACTORS
330
50B
102
}
330
50B
100
AcDbXrecord
280
     1
102
RTVSPost2010Prop28
280
     0
102
RTVSPost2010PropOp28
 70
     1
102
RTVSPost2010Prop29
280
     1
102
RTVSPost2010PropOp29
 70
     1
102
RTVSPost2010Prop30
280
     1
102
RTVSPost2010PropOp30
 70
     1
102
RTVSPost2010Prop31
280
     0
102
RTVSPost2010PropOp31
 70
     1
102
RTVSPost2010Prop32
280
     0
102
RTVSPost2010PropOp32
 70
     1
102
RTVSPost2010Prop33
280
     0
102
RTVSPost2010PropOp33
 70
     1
102
RTVSPost2010Prop34
280
     0
102
RTVSPost2010PropOp34
 70
     1
102
RTVSPost2010Prop35
280
     0
102
RTVSPost2010PropOp35
 70
     1
102
RTVSPost2010Prop36
280
     0
102
RTVSPost2010PropOp36
 70
     1
102
RTVSPost2010Prop37
 90
       50
102
RTVSPost2010PropOp37
 70
     1
102
RTVSPost2010Prop38
140
0.0
102
RTVSPost2010PropOp38
 70
     1
102
RTVSPost2010Prop39
140
1.0
102
RTVSPost2010PropOp39
 70
     1
102
RTVSPost2010Prop40
 90
        0
102
RTVSPost2010PropOp40
 70
     1
102
RTVSPost2010Prop41ColorIndex
 90
       18
102
RTVSPost2010Prop41ColorRGB
 90
        0
102
RTVSPost2010PropOp41
 70
     1
102
RTVSPost2010Prop42
 90
       50
102
RTVSPost2010PropOp42
 70
     1
102
RTVSPost2010Prop43
 90
        3
102
RTVSPost2010PropOp43
 70
     1
102
RTVSPost2010Prop44ColorIndex
 90
        5
102
RTVSPost2010Prop44ColorRGB
 90
      255
102
RTVSPost2010PropOp44
 70
     1
102
RTVSPost2010Prop45
280
     0
102
RTVSPost2010PropOp45
 70
     1
102
RTVSPost2010Prop46
 90
       50
102
RTVSPost2010PropOp46
 70
     1
102
RTVSPost2010Prop47
 90
       50
102
RTVSPost2010PropOp47
 70
     1
102
RTVSPost2010Prop48
 90
       50
102
RTVSPost2010PropOp48
 70
     1
102
RTVSPost2010Prop49
280
     0
102
RTVSPost2010PropOp49
 70
     1
102
RTVSPost2010Prop50
 90
       50
102
RTVSPost2010PropOp50
 70
     1
102
RTVSPost2010Prop51ColorIndex
 90
      256
102
RTVSPost2010Prop51ColorRGB
 90
-16777216
102
RTVSPost2010PropOp51
 70
     0
102
RTVSPost2010Prop52
140
1.0
102
RTVSPost2010PropOp52
 70
     0
102
RTVSPost2010Prop53
 90
        2
102
RTVSPost2010PropOp53
 70
     1
102
RTVSPost2010Prop54
  1
strokes_ogs.tif
102
RTVSPost2010PropOp54
 70
     1
102
RTVSPost2010Prop55
280
     0
102
RTVSPost2010PropOp55
 70
     1
102
RTVSPost2010Prop56
140
1.0
102
RTVSPost2010PropOp56
 70
     1
102
RTVSPost2010Prop57
140
1.0
102
RTVSPost2010PropOp57
 70
     1
  0
XRECORD
  5
514
102
{ACAD_REACTORS
330
513
102
}
330
513
100
AcDbXrecord
280
     1
102
RTVSPost2010Prop28
280
     0
102
RTVSPost2010PropOp28
 70
     1
102
RTVSPost2010Prop29
280
     1
102
RTVSPost2010PropOp29
 70
     1
102
RTVSPost2010Prop30
280
     1
102
RTVSPost2010PropOp30
 70
     1
102
RTVSPost2010Prop31
280
     0
102
RTVSPost2010PropOp31
 70
     1
102
RTVSPost2010Prop32
280
     0
102
RTVSPost2010PropOp32
 70
     1
102
RTVSPost2010Prop33
280
     0
102
RTVSPost2010PropOp33
 70
     1
102
RTVSPost2010Prop34
280
     0
102
RTVSPost2010PropOp34
 70
     1
102
RTVSPost2010Prop35
280
     0
102
RTVSPost2010PropOp35
 70
     1
102
RTVSPost2010Prop36
280
     0
102
RTVSPost2010PropOp36
 70
     1
102
RTVSPost2010Prop37
 90
       50
102
RTVSPost2010PropOp37
 70
     1
102
RTVSPost2010Prop38
140
0.0
102
RTVSPost2010PropOp38
 70
     1
102
RTVSPost2010Prop39
140
1.0
102
RTVSPost2010PropOp39
 70
     1
102
RTVSPost2010Prop40
 90
        0
102
RTVSPost2010PropOp40
 70
     1
102
RTVSPost2010Prop41ColorIndex
 90
       18
102
RTVSPost2010Prop41ColorRGB
 90
        0
102
RTVSPost2010PropOp41
 70
     1
102
RTVSPost2010Prop42
 90
       50
102
RTVSPost2010PropOp42
 70
     1
102
RTVSPost2010Prop43
 90
        3
102
RTVSPost2010PropOp43
 70
     1
102
RTVSPost2010Prop44ColorIndex
 90
        5
102
RTVSPost2010Prop44ColorRGB
 90
      255
102
RTVSPost2010PropOp44
 70
     1
102
RTVSPost2010Prop45
280
     0
102
RTVSPost2010PropOp45
 70
     1
102
RTVSPost2010Prop46
 90
       50
102
RTVSPost2010PropOp46
 70
     1
102
RTVSPost2010Prop47
 90
       50
102
RTVSPost2010PropOp47
 70
     1
102
RTVSPost2010Prop48
 90
       50
102
RTVSPost2010PropOp48
 70
     1
102
RTVSPost2010Prop49
280
     0
102
RTVSPost2010PropOp49
 70
     1
102
RTVSPost2010Prop50
 90
       50
102
RTVSPost2010PropOp50
 70
     1
102
RTVSPost2010Prop51ColorIndex
 90
      256
102
RTVSPost2010Prop51ColorRGB
 90
-16777216
102
RTVSPost2010PropOp51
 70
     0
102
RTVSPost2010Prop52
140
1.0
102
RTVSPost2010PropOp52
 70
     0
102
RTVSPost2010Prop53
 90
        2
102
RTVSPost2010PropOp53
 70
     1
102
RTVSPost2010Prop54
  1
strokes_ogs.tif
102
RTVSPost2010PropOp54
 70
     1
102
RTVSPost2010Prop55
280
     0
102
RTVSPost2010PropOp55
 70
     1
102
RTVSPost2010Prop56
140
1.0
102
RTVSPost2010PropOp56
 70
     1
102
RTVSPost2010Prop57
140
1.0
102
RTVSPost2010PropOp57
 70
     1
  0
XRECORD
  5
51C
102
{ACAD_REACTORS
330
51B
102
}
330
51B
100
AcDbXrecord
280
     1
102
RTVSPost2010Prop28
280
     0
102
RTVSPost2010PropOp28
 70
     1
102
RTVSPost2010Prop29
280
     1
102
RTVSPost2010PropOp29
 70
     1
102
RTVSPost2010Prop30
280
     1
102
RTVSPost2010PropOp30
 70
     1
102
RTVSPost2010Prop31
280
     0
102
RTVSPost2010PropOp31
 70
     1
102
RTVSPost2010Prop32
280
     0
102
RTVSPost2010PropOp32
 70
     1
102
RTVSPost2010Prop33
280
     0
102
RTVSPost2010PropOp33
 70
     1
102
RTVSPost2010Prop34
280
     0
102
RTVSPost2010PropOp34
 70
     1
102
RTVSPost2010Prop35
280
     0
102
RTVSPost2010PropOp35
 70
     1
102
RTVSPost2010Prop36
280
     0
102
RTVSPost2010PropOp36
 70
     1
102
RTVSPost2010Prop37
 90
       50
102
RTVSPost2010PropOp37
 70
     1
102
RTVSPost2010Prop38
140
0.0
102
RTVSPost2010PropOp38
 70
     1
102
RTVSPost2010Prop39
140
1.0
102
RTVSPost2010PropOp39
 70
     1
102
RTVSPost2010Prop40
 90
        0
102
RTVSPost2010PropOp40
 70
     1
102
RTVSPost2010Prop41ColorIndex
 90
       18
102
RTVSPost2010Prop41ColorRGB
 90
        0
102
RTVSPost2010PropOp41
 70
     1
102
RTVSPost2010Prop42
 90
       50
102
RTVSPost2010PropOp42
 70
     1
102
RTVSPost2010Prop43
 90
        3
102
RTVSPost2010PropOp43
 70
     1
102
RTVSPost2010Prop44ColorIndex
 90
        5
102
RTVSPost2010Prop44ColorRGB
 90
      255
102
RTVSPost2010PropOp44
 70
     1
102
RTVSPost2010Prop45
280
     0
102
RTVSPost2010PropOp45
 70
     1
102
RTVSPost2010Prop46
 90
       50
102
RTVSPost2010PropOp46
 70
     1
102
RTVSPost2010Prop47
 90
       50
102
RTVSPost2010PropOp47
 70
     1
102
RTVSPost2010Prop48
 90
       50
102
RTVSPost2010PropOp48
 70
     1
102
RTVSPost2010Prop49
280
     0
102
RTVSPost2010PropOp49
 70
     1
102
RTVSPost2010Prop50
 90
       50
102
RTVSPost2010PropOp50
 70
     1
102
RTVSPost2010Prop51ColorIndex
 90
      256
102
RTVSPost2010Prop51ColorRGB
 90
-16777216
102
RTVSPost2010PropOp51
 70
     0
102
RTVSPost2010Prop52
140
1.0
102
RTVSPost2010PropOp52
 70
     0
102
RTVSPost2010Prop53
 90
        2
102
RTVSPost2010PropOp53
 70
     1
102
RTVSPost2010Prop54
  1
strokes_ogs.tif
102
RTVSPost2010PropOp54
 70
     1
102
RTVSPost2010Prop55
280
     0
102
RTVSPost2010PropOp55
 70
     1
102
RTVSPost2010Prop56
140
1.0
102
RTVSPost2010PropOp56
 70
     1
102
RTVSPost2010Prop57
140
1.0
102
RTVSPost2010PropOp57
 70
     1
  0
XRECORD
  5
510
102
{ACAD_REACTORS
330
50F
102
}
330
50F
100
AcDbXrecord
280
     1
102
RTVSPost2010Prop28
280
     0
102
RTVSPost2010PropOp28
 70
     1
102
RTVSPost2010Prop29
280
     1
102
RTVSPost2010PropOp29
 70
     1
102
RTVSPost2010Prop30
280
     1
102
RTVSPost2010PropOp30
 70
     1
102
RTVSPost2010Prop31
280
     0
102
RTVSPost2010PropOp31
 70
     1
102
RTVSPost2010Prop32
280
     0
102
RTVSPost2010PropOp32
 70
     1
102
RTVSPost2010Prop33
280
     0
102
RTVSPost2010PropOp33
 70
     1
102
RTVSPost2010Prop34
280
     0
102
RTVSPost2010PropOp34
 70
     1
102
RTVSPost2010Prop35
280
     0
102
RTVSPost2010PropOp35
 70
     1
102
RTVSPost2010Prop36
280
     0
102
RTVSPost2010PropOp36
 70
     1
102
RTVSPost2010Prop37
 90
       50
102
RTVSPost2010PropOp37
 70
     1
102
RTVSPost2010Prop38
140
0.0
102
RTVSPost2010PropOp38
 70
     1
102
RTVSPost2010Prop39
140
1.0
102
RTVSPost2010PropOp39
 70
     1
102
RTVSPost2010Prop40
 90
        0
102
RTVSPost2010PropOp40
 70
     1
102
RTVSPost2010Prop41ColorIndex
 90
       18
102
RTVSPost2010Prop41ColorRGB
 90
        0
102
RTVSPost2010PropOp41
 70
     1
102
RTVSPost2010Prop42
 90
       50
102
RTVSPost2010PropOp42
 70
     1
102
RTVSPost2010Prop43
 90
        3
102
RTVSPost2010PropOp43
 70
     1
102
RTVSPost2010Prop44ColorIndex
 90
        5
102
RTVSPost2010Prop44ColorRGB
 90
      255
102
RTVSPost2010PropOp44
 70
     1
102
RTVSPost2010Prop45
280
     0
102
RTVSPost2010PropOp45
 70
     1
102
RTVSPost2010Prop46
 90
       50
102
RTVSPost2010PropOp46
 70
     1
102
RTVSPost2010Prop47
 90
       50
102
RTVSPost2010PropOp47
 70
     1
102
RTVSPost2010Prop48
 90
       50
102
RTVSPost2010PropOp48
 70
     1
102
RTVSPost2010Prop49
280
     0
102
RTVSPost2010PropOp49
 70
     1
102
RTVSPost2010Prop50
 90
       50
102
RTVSPost2010PropOp50
 70
     1
102
RTVSPost2010Prop51ColorIndex
 90
      256
102
RTVSPost2010Prop51ColorRGB
 90
-16777216
102
RTVSPost2010PropOp51
 70
     0
102
RTVSPost2010Prop52
140
1.0
102
RTVSPost2010PropOp52
 70
     0
102
RTVSPost2010Prop53
 90
        2
102
RTVSPost2010PropOp53
 70
     1
102
RTVSPost2010Prop54
  1
strokes_ogs.tif
102
RTVSPost2010PropOp54
 70
     1
102
RTVSPost2010Prop55
280
     0
102
RTVSPost2010PropOp55
 70
     1
102
RTVSPost2010Prop56
140
1.0
102
RTVSPost2010PropOp56
 70
     1
102
RTVSPost2010Prop57
140
1.0
102
RTVSPost2010PropOp57
 70
     1
  0
XRECORD
  5
512
102
{ACAD_REACTORS
330
511
102
}
330
511
100
AcDbXrecord
280
     1
102
RTVSPost2010Prop28
280
     0
102
RTVSPost2010PropOp28
 70
     1
102
RTVSPost2010Prop29
280
     1
102
RTVSPost2010PropOp29
 70
     1
102
RTVSPost2010Prop30
280
     1
102
RTVSPost2010PropOp30
 70
     1
102
RTVSPost2010Prop31
280
     0
102
RTVSPost2010PropOp31
 70
     1
102
RTVSPost2010Prop32
280
     0
102
RTVSPost2010PropOp32
 70
     1
102
RTVSPost2010Prop33
280
     0
102
RTVSPost2010PropOp33
 70
     1
102
RTVSPost2010Prop34
280
     0
102
RTVSPost2010PropOp34
 70
     1
102
RTVSPost2010Prop35
280
     0
102
RTVSPost2010PropOp35
 70
     1
102
RTVSPost2010Prop36
280
     0
102
RTVSPost2010PropOp36
 70
     1
102
RTVSPost2010Prop37
 90
       50
102
RTVSPost2010PropOp37
 70
     1
102
RTVSPost2010Prop38
140
0.0
102
RTVSPost2010PropOp38
 70
     1
102
RTVSPost2010Prop39
140
1.0
102
RTVSPost2010PropOp39
 70
     1
102
RTVSPost2010Prop40
 90
        0
102
RTVSPost2010PropOp40
 70
     1
102
RTVSPost2010Prop41ColorIndex
 90
       18
102
RTVSPost2010Prop41ColorRGB
 90
        0
102
RTVSPost2010PropOp41
 70
     1
102
RTVSPost2010Prop42
 90
       50
102
RTVSPost2010PropOp42
 70
     1
102
RTVSPost2010Prop43
 90
        3
102
RTVSPost2010PropOp43
 70
     1
102
RTVSPost2010Prop44ColorIndex
 90
        5
102
RTVSPost2010Prop44ColorRGB
 90
      255
102
RTVSPost2010PropOp44
 70
     1
102
RTVSPost2010Prop45
280
     0
102
RTVSPost2010PropOp45
 70
     1
102
RTVSPost2010Prop46
 90
       50
102
RTVSPost2010PropOp46
 70
     1
102
RTVSPost2010Prop47
 90
       50
102
RTVSPost2010PropOp47
 70
     1
102
RTVSPost2010Prop48
 90
       50
102
RTVSPost2010PropOp48
 70
     1
102
RTVSPost2010Prop49
280
     0
102
RTVSPost2010PropOp49
 70
     1
102
RTVSPost2010Prop50
 90
       50
102
RTVSPost2010PropOp50
 70
     1
102
RTVSPost2010Prop51ColorIndex
 90
      256
102
RTVSPost2010Prop51ColorRGB
 90
-16777216
102
RTVSPost2010PropOp51
 70
     0
102
RTVSPost2010Prop52
140
1.0
102
RTVSPost2010PropOp52
 70
     0
102
RTVSPost2010Prop53
 90
        2
102
RTVSPost2010PropOp53
 70
     1
102
RTVSPost2010Prop54
  1
strokes_ogs.tif
102
RTVSPost2010PropOp54
 70
     1
102
RTVSPost2010Prop55
280
     0
102
RTVSPost2010PropOp55
 70
     1
102
RTVSPost2010Prop56
140
1.0
102
RTVSPost2010PropOp56
 70
     1
102
RTVSPost2010Prop57
140
1.0
102
RTVSPost2010PropOp57
 70
     1
  0
XRECORD
  5
522
102
{ACAD_REACTORS
330
521
102
}
330
521
100
AcDbXrecord
280
     1
102
RTVSPost2010Prop28
280
     0
102
RTVSPost2010PropOp28
 70
     0
102
RTVSPost2010Prop29
280
     1
102
RTVSPost2010PropOp29
 70
     0
102
RTVSPost2010Prop30
280
     1
102
RTVSPost2010PropOp30
 70
     0
102
RTVSPost2010Prop31
280
     0
102
RTVSPost2010PropOp31
 70
     0
102
RTVSPost2010Prop32
280
     0
102
RTVSPost2010PropOp32
 70
     0
102
RTVSPost2010Prop33
280
     0
102
RTVSPost2010PropOp33
 70
     0
102
RTVSPost2010Prop34
280
     0
102
RTVSPost2010PropOp34
 70
     0
102
RTVSPost2010Prop35
280
     0
102
RTVSPost2010PropOp35
 70
     0
102
RTVSPost2010Prop36
280
     0
102
RTVSPost2010PropOp36
 70
     0
102
RTVSPost2010Prop37
 90
       50
102
RTVSPost2010PropOp37
 70
     0
102
RTVSPost2010Prop38
140
0.0
102
RTVSPost2010PropOp38
 70
     0
102
RTVSPost2010Prop39
140
1.0
102
RTVSPost2010PropOp39
 70
     0
102
RTVSPost2010Prop40
 90
        0
102
RTVSPost2010PropOp40
 70
     0
102
RTVSPost2010Prop41ColorIndex
 90
       18
102
RTVSPost2010Prop41ColorRGB
 90
        0
102
RTVSPost2010PropOp41
 70
     0
102
RTVSPost2010Prop42
 90
       50
102
RTVSPost2010PropOp42
 70
     0
102
RTVSPost2010Prop43
 90
        3
102
RTVSPost2010PropOp43
 70
     0
102
RTVSPost2010Prop44ColorIndex
 90
        5
102
RTVSPost2010Prop44ColorRGB
 90
      255
102
RTVSPost2010PropOp44
 70
     0
102
RTVSPost2010Prop45
280
     0
102
RTVSPost2010PropOp45
 70
     0
102
RTVSPost2010Prop46
 90
       50
102
RTVSPost2010PropOp46
 70
     0
102
RTVSPost2010Prop47
 90
       50
102
RTVSPost2010PropOp47
 70
     0
102
RTVSPost2010Prop48
 90
       50
102
RTVSPost2010PropOp48
 70
     0
102
RTVSPost2010Prop49
280
     0
102
RTVSPost2010PropOp49
 70
     0
102
RTVSPost2010Prop50
 90
       50
102
RTVSPost2010PropOp50
 70
     0
102
RTVSPost2010Prop51ColorIndex
 90
      256
102
RTVSPost2010Prop51ColorRGB
 90
-16777216
102
RTVSPost2010PropOp51
 70
     0
102
RTVSPost2010Prop52
140
1.0
102
RTVSPost2010PropOp52
 70
     0
102
RTVSPost2010Prop53
 90
        2
102
RTVSPost2010PropOp53
 70
     0
102
RTVSPost2010Prop54
  1
strokes_ogs.tif
102
RTVSPost2010PropOp54
 70
     0
102
RTVSPost2010Prop55
280
     0
102
RTVSPost2010PropOp55
 70
     0
102
RTVSPost2010Prop56
140
1.0
102
RTVSPost2010PropOp56
 70
     0
102
RTVSPost2010Prop57
140
1.0
102
RTVSPost2010PropOp57
 70
     0
  0
XRECORD
  5
51A
102
{ACAD_REACTORS
330
519
102
}
330
519
100
AcDbXrecord
280
     1
102
RTVSPost2010Prop28
280
     0
102
RTVSPost2010PropOp28
 70
     1
102
RTVSPost2010Prop29
280
     1
102
RTVSPost2010PropOp29
 70
     1
102
RTVSPost2010Prop30
280
     1
102
RTVSPost2010PropOp30
 70
     1
102
RTVSPost2010Prop31
280
     0
102
RTVSPost2010PropOp31
 70
     1
102
RTVSPost2010Prop32
280
     0
102
RTVSPost2010PropOp32
 70
     1
102
RTVSPost2010Prop33
280
     0
102
RTVSPost2010PropOp33
 70
     1
102
RTVSPost2010Prop34
280
     0
102
RTVSPost2010PropOp34
 70
     1
102
RTVSPost2010Prop35
280
     0
102
RTVSPost2010PropOp35
 70
     1
102
RTVSPost2010Prop36
280
     0
102
RTVSPost2010PropOp36
 70
     1
102
RTVSPost2010Prop37
 90
       50
102
RTVSPost2010PropOp37
 70
     1
102
RTVSPost2010Prop38
140
0.0
102
RTVSPost2010PropOp38
 70
     1
102
RTVSPost2010Prop39
140
1.0
102
RTVSPost2010PropOp39
 70
     1
102
RTVSPost2010Prop40
 90
        0
102
RTVSPost2010PropOp40
 70
     1
102
RTVSPost2010Prop41ColorIndex
 90
       18
102
RTVSPost2010Prop41ColorRGB
 90
        0
102
RTVSPost2010PropOp41
 70
     1
102
RTVSPost2010Prop42
 90
       50
102
RTVSPost2010PropOp42
 70
     1
102
RTVSPost2010Prop43
 90
        3
102
RTVSPost2010PropOp43
 70
     1
102
RTVSPost2010Prop44ColorIndex
 90
        5
102
RTVSPost2010Prop44ColorRGB
 90
      255
102
RTVSPost2010PropOp44
 70
     1
102
RTVSPost2010Prop45
280
     0
102
RTVSPost2010PropOp45
 70
     1
102
RTVSPost2010Prop46
 90
       50
102
RTVSPost2010PropOp46
 70
     1
102
RTVSPost2010Prop47
 90
       50
102
RTVSPost2010PropOp47
 70
     1
102
RTVSPost2010Prop48
 90
       50
102
RTVSPost2010PropOp48
 70
     1
102
RTVSPost2010Prop49
280
     0
102
RTVSPost2010PropOp49
 70
     1
102
RTVSPost2010Prop50
 90
       50
102
RTVSPost2010PropOp50
 70
     1
102
RTVSPost2010Prop51ColorIndex
 90
      256
102
RTVSPost2010Prop51ColorRGB
 90
-16777216
102
RTVSPost2010PropOp51
 70
     0
102
RTVSPost2010Prop52
140
1.0
102
RTVSPost2010PropOp52
 70
     0
102
RTVSPost2010Prop53
 90
        2
102
RTVSPost2010PropOp53
 70
     1
102
RTVSPost2010Prop54
  1
strokes_ogs.tif
102
RTVSPost2010PropOp54
 70
     1
102
RTVSPost2010Prop55
280
     0
102
RTVSPost2010PropOp55
 70
     1
102
RTVSPost2010Prop56
140
1.0
102
RTVSPost2010PropOp56
 70
     1
102
RTVSPost2010Prop57
140
1.0
102
RTVSPost2010PropOp57
 70
     1
  0
XRECORD
  5
4FE
102
{ACAD_REACTORS
330
4FD
102
}
330
4FD
100
AcDbXrecord
280
     1
102
RTVSPost2010Prop28
280
     0
102
RTVSPost2010PropOp28
 70
     1
102
RTVSPost2010Prop29
280
     1
102
RTVSPost2010PropOp29
 70
     1
102
RTVSPost2010Prop30
280
     1
102
RTVSPost2010PropOp30
 70
     1
102
RTVSPost2010Prop31
280
     0
102
RTVSPost2010PropOp31
 70
     1
102
RTVSPost2010Prop32
280
     0
102
RTVSPost2010PropOp32
 70
     1
102
RTVSPost2010Prop33
280
     0
102
RTVSPost2010PropOp33
 70
     1
102
RTVSPost2010Prop34
280
     0
102
RTVSPost2010PropOp34
 70
     1
102
RTVSPost2010Prop35
280
     0
102
RTVSPost2010PropOp35
 70
     1
102
RTVSPost2010Prop36
280
     0
102
RTVSPost2010PropOp36
 70
     1
102
RTVSPost2010Prop37
 90
       50
102
RTVSPost2010PropOp37
 70
     1
102
RTVSPost2010Prop38
140
0.0
102
RTVSPost2010PropOp38
 70
     1
102
RTVSPost2010Prop39
140
1.0
102
RTVSPost2010PropOp39
 70
     1
102
RTVSPost2010Prop40
 90
        0
102
RTVSPost2010PropOp40
 70
     1
102
RTVSPost2010Prop41ColorIndex
 90
       18
102
RTVSPost2010Prop41ColorRGB
 90
        0
102
RTVSPost2010PropOp41
 70
     1
102
RTVSPost2010Prop42
 90
       50
102
RTVSPost2010PropOp42
 70
     1
102
RTVSPost2010Prop43
 90
        3
102
RTVSPost2010PropOp43
 70
     1
102
RTVSPost2010Prop44ColorIndex
 90
        5
102
RTVSPost2010Prop44ColorRGB
 90
      255
102
RTVSPost2010PropOp44
 70
     1
102
RTVSPost2010Prop45
280
     0
102
RTVSPost2010PropOp45
 70
     1
102
RTVSPost2010Prop46
 90
       50
102
RTVSPost2010PropOp46
 70
     1
102
RTVSPost2010Prop47
 90
       50
102
RTVSPost2010PropOp47
 70
     1
102
RTVSPost2010Prop48
 90
       50
102
RTVSPost2010PropOp48
 70
     1
102
RTVSPost2010Prop49
280
     0
102
RTVSPost2010PropOp49
 70
     1
102
RTVSPost2010Prop50
 90
       50
102
RTVSPost2010PropOp50
 70
     1
102
RTVSPost2010Prop51ColorIndex
 90
      256
102
RTVSPost2010Prop51ColorRGB
 90
-16777216
102
RTVSPost2010PropOp51
 70
     0
102
RTVSPost2010Prop52
140
1.0
102
RTVSPost2010PropOp52
 70
     0
102
RTVSPost2010Prop53
 90
        2
102
RTVSPost2010PropOp53
 70
     1
102
RTVSPost2010Prop54
  1
strokes_ogs.tif
102
RTVSPost2010PropOp54
 70
     1
102
RTVSPost2010Prop55
280
     0
102
RTVSPost2010PropOp55
 70
     1
102
RTVSPost2010Prop56
140
1.0
102
RTVSPost2010PropOp56
 70
     1
102
RTVSPost2010Prop57
140
1.0
102
RTVSPost2010PropOp57
 70
     1
  0
XRECORD
  5
500
102
{ACAD_REACTORS
330
4FF
102
}
330
4FF
100
AcDbXrecord
280
     1
102
RTVSPost2010Prop28
280
     0
102
RTVSPost2010PropOp28
 70
     1
102
RTVSPost2010Prop29
280
     1
102
RTVSPost2010PropOp29
 70
     1
102
RTVSPost2010Prop30
280
     1
102
RTVSPost2010PropOp30
 70
     1
102
RTVSPost2010Prop31
280
     0
102
RTVSPost2010PropOp31
 70
     1
102
RTVSPost2010Prop32
280
     0
102
RTVSPost2010PropOp32
 70
     1
102
RTVSPost2010Prop33
280
     0
102
RTVSPost2010PropOp33
 70
     1
102
RTVSPost2010Prop34
280
     0
102
RTVSPost2010PropOp34
 70
     1
102
RTVSPost2010Prop35
280
     0
102
RTVSPost2010PropOp35
 70
     1
102
RTVSPost2010Prop36
280
     0
102
RTVSPost2010PropOp36
 70
     1
102
RTVSPost2010Prop37
 90
       50
102
RTVSPost2010PropOp37
 70
     1
102
RTVSPost2010Prop38
140
0.0
102
RTVSPost2010PropOp38
 70
     1
102
RTVSPost2010Prop39
140
1.0
102
RTVSPost2010PropOp39
 70
     1
102
RTVSPost2010Prop40
 90
        0
102
RTVSPost2010PropOp40
 70
     1
102
RTVSPost2010Prop41ColorIndex
 90
       18
102
RTVSPost2010Prop41ColorRGB
 90
        0
102
RTVSPost2010PropOp41
 70
     1
102
RTVSPost2010Prop42
 90
       50
102
RTVSPost2010PropOp42
 70
     1
102
RTVSPost2010Prop43
 90
        3
102
RTVSPost2010PropOp43
 70
     1
102
RTVSPost2010Prop44ColorIndex
 90
        5
102
RTVSPost2010Prop44ColorRGB
 90
      255
102
RTVSPost2010PropOp44
 70
     1
102
RTVSPost2010Prop45
280
     0
102
RTVSPost2010PropOp45
 70
     1
102
RTVSPost2010Prop46
 90
       50
102
RTVSPost2010PropOp46
 70
     1
102
RTVSPost2010Prop47
 90
       50
102
RTVSPost2010PropOp47
 70
     1
102
RTVSPost2010Prop48
 90
       50
102
RTVSPost2010PropOp48
 70
     1
102
RTVSPost2010Prop49
280
     0
102
RTVSPost2010PropOp49
 70
     1
102
RTVSPost2010Prop50
 90
       50
102
RTVSPost2010PropOp50
 70
     1
102
RTVSPost2010Prop51ColorIndex
 90
      256
102
RTVSPost2010Prop51ColorRGB
 90
-16777216
102
RTVSPost2010PropOp51
 70
     0
102
RTVSPost2010Prop52
140
1.0
102
RTVSPost2010PropOp52
 70
     0
102
RTVSPost2010Prop53
 90
        2
102
RTVSPost2010PropOp53
 70
     1
102
RTVSPost2010Prop54
  1
strokes_ogs.tif
102
RTVSPost2010PropOp54
 70
     1
102
RTVSPost2010Prop55
280
     0
102
RTVSPost2010PropOp55
 70
     1
102
RTVSPost2010Prop56
140
1.0
102
RTVSPost2010PropOp56
 70
     1
102
RTVSPost2010Prop57
140
1.0
102
RTVSPost2010PropOp57
 70
     1
  0
XRECORD
  5
502
102
{ACAD_REACTORS
330
501
102
}
330
501
100
AcDbXrecord
280
     1
102
RTVSPost2010Prop28
280
     0
102
RTVSPost2010PropOp28
 70
     1
102
RTVSPost2010Prop29
280
     1
102
RTVSPost2010PropOp29
 70
     1
102
RTVSPost2010Prop30
280
     1
102
RTVSPost2010PropOp30
 70
     1
102
RTVSPost2010Prop31
280
     0
102
RTVSPost2010PropOp31
 70
     1
102
RTVSPost2010Prop32
280
     0
102
RTVSPost2010PropOp32
 70
     1
102
RTVSPost2010Prop33
280
     0
102
RTVSPost2010PropOp33
 70
     1
102
RTVSPost2010Prop34
280
     0
102
RTVSPost2010PropOp34
 70
     1
102
RTVSPost2010Prop35
280
     0
102
RTVSPost2010PropOp35
 70
     1
102
RTVSPost2010Prop36
280
     0
102
RTVSPost2010PropOp36
 70
     1
102
RTVSPost2010Prop37
 90
       50
102
RTVSPost2010PropOp37
 70
     1
102
RTVSPost2010Prop38
140
0.0
102
RTVSPost2010PropOp38
 70
     1
102
RTVSPost2010Prop39
140
1.0
102
RTVSPost2010PropOp39
 70
     1
102
RTVSPost2010Prop40
 90
        0
102
RTVSPost2010PropOp40
 70
     1
102
RTVSPost2010Prop41ColorIndex
 90
       18
102
RTVSPost2010Prop41ColorRGB
 90
        0
102
RTVSPost2010PropOp41
 70
     1
102
RTVSPost2010Prop42
 90
       50
102
RTVSPost2010PropOp42
 70
     1
102
RTVSPost2010Prop43
 90
        3
102
RTVSPost2010PropOp43
 70
     1
102
RTVSPost2010Prop44ColorIndex
 90
        5
102
RTVSPost2010Prop44ColorRGB
 90
      255
102
RTVSPost2010PropOp44
 70
     1
102
RTVSPost2010Prop45
280
     0
102
RTVSPost2010PropOp45
 70
     1
102
RTVSPost2010Prop46
 90
       50
102
RTVSPost2010PropOp46
 70
     1
102
RTVSPost2010Prop47
 90
       50
102
RTVSPost2010PropOp47
 70
     1
102
RTVSPost2010Prop48
 90
       50
102
RTVSPost2010PropOp48
 70
     1
102
RTVSPost2010Prop49
280
     0
102
RTVSPost2010PropOp49
 70
     1
102
RTVSPost2010Prop50
 90
       50
102
RTVSPost2010PropOp50
 70
     1
102
RTVSPost2010Prop51ColorIndex
 90
      256
102
RTVSPost2010Prop51ColorRGB
 90
-16777216
102
RTVSPost2010PropOp51
 70
     0
102
RTVSPost2010Prop52
140
1.0
102
RTVSPost2010PropOp52
 70
     0
102
RTVSPost2010Prop53
 90
        2
102
RTVSPost2010PropOp53
 70
     1
102
RTVSPost2010Prop54
  1
strokes_ogs.tif
102
RTVSPost2010PropOp54
 70
     1
102
RTVSPost2010Prop55
280
     0
102
RTVSPost2010PropOp55
 70
     1
102
RTVSPost2010Prop56
140
1.0
102
RTVSPost2010PropOp56
 70
     1
102
RTVSPost2010Prop57
140
1.0
102
RTVSPost2010PropOp57
 70
     1
  0
XRECORD
  5
504
102
{ACAD_REACTORS
330
503
102
}
330
503
100
AcDbXrecord
280
     1
102
RTVSPost2010Prop28
280
     0
102
RTVSPost2010PropOp28
 70
     1
102
RTVSPost2010Prop29
280
     1
102
RTVSPost2010PropOp29
 70
     1
102
RTVSPost2010Prop30
280
     1
102
RTVSPost2010PropOp30
 70
     1
102
RTVSPost2010Prop31
280
     0
102
RTVSPost2010PropOp31
 70
     1
102
RTVSPost2010Prop32
280
     0
102
RTVSPost2010PropOp32
 70
     1
102
RTVSPost2010Prop33
280
     0
102
RTVSPost2010PropOp33
 70
     1
102
RTVSPost2010Prop34
280
     0
102
RTVSPost2010PropOp34
 70
     1
102
RTVSPost2010Prop35
280
     0
102
RTVSPost2010PropOp35
 70
     1
102
RTVSPost2010Prop36
280
     0
102
RTVSPost2010PropOp36
 70
     1
102
RTVSPost2010Prop37
 90
       50
102
RTVSPost2010PropOp37
 70
     1
102
RTVSPost2010Prop38
140
0.0
102
RTVSPost2010PropOp38
 70
     1
102
RTVSPost2010Prop39
140
1.0
102
RTVSPost2010PropOp39
 70
     1
102
RTVSPost2010Prop40
 90
        0
102
RTVSPost2010PropOp40
 70
     1
102
RTVSPost2010Prop41ColorIndex
 90
       18
102
RTVSPost2010Prop41ColorRGB
 90
        0
102
RTVSPost2010PropOp41
 70
     1
102
RTVSPost2010Prop42
 90
       50
102
RTVSPost2010PropOp42
 70
     1
102
RTVSPost2010Prop43
 90
        3
102
RTVSPost2010PropOp43
 70
     1
102
RTVSPost2010Prop44ColorIndex
 90
        5
102
RTVSPost2010Prop44ColorRGB
 90
      255
102
RTVSPost2010PropOp44
 70
     1
102
RTVSPost2010Prop45
280
     0
102
RTVSPost2010PropOp45
 70
     1
102
RTVSPost2010Prop46
 90
       50
102
RTVSPost2010PropOp46
 70
     1
102
RTVSPost2010Prop47
 90
       50
102
RTVSPost2010PropOp47
 70
     1
102
RTVSPost2010Prop48
 90
       50
102
RTVSPost2010PropOp48
 70
     1
102
RTVSPost2010Prop49
280
     0
102
RTVSPost2010PropOp49
 70
     1
102
RTVSPost2010Prop50
 90
       50
102
RTVSPost2010PropOp50
 70
     1
102
RTVSPost2010Prop51ColorIndex
 90
      256
102
RTVSPost2010Prop51ColorRGB
 90
-16777216
102
RTVSPost2010PropOp51
 70
     0
102
RTVSPost2010Prop52
140
1.0
102
RTVSPost2010PropOp52
 70
     0
102
RTVSPost2010Prop53
 90
        2
102
RTVSPost2010PropOp53
 70
     1
102
RTVSPost2010Prop54
  1
strokes_ogs.tif
102
RTVSPost2010PropOp54
 70
     1
102
RTVSPost2010Prop55
280
     0
102
RTVSPost2010PropOp55
 70
     1
102
RTVSPost2010Prop56
140
1.0
102
RTVSPost2010PropOp56
 70
     1
102
RTVSPost2010Prop57
140
1.0
102
RTVSPost2010PropOp57
 70
     1
  0
XRECORD
  5
50A
102
{ACAD_REACTORS
330
509
102
}
330
509
100
AcDbXrecord
280
     1
102
RTVSPost2010Prop28
280
     0
102
RTVSPost2010PropOp28
 70
     1
102
RTVSPost2010Prop29
280
     1
102
RTVSPost2010PropOp29
 70
     1
102
RTVSPost2010Prop30
280
     1
102
RTVSPost2010PropOp30
 70
     1
102
RTVSPost2010Prop31
280
     0
102
RTVSPost2010PropOp31
 70
     1
102
RTVSPost2010Prop32
280
     0
102
RTVSPost2010PropOp32
 70
     1
102
RTVSPost2010Prop33
280
     0
102
RTVSPost2010PropOp33
 70
     1
102
RTVSPost2010Prop34
280
     0
102
RTVSPost2010PropOp34
 70
     1
102
RTVSPost2010Prop35
280
     0
102
RTVSPost2010PropOp35
 70
     1
102
RTVSPost2010Prop36
280
     0
102
RTVSPost2010PropOp36
 70
     1
102
RTVSPost2010Prop37
 90
       50
102
RTVSPost2010PropOp37
 70
     1
102
RTVSPost2010Prop38
140
0.0
102
RTVSPost2010PropOp38
 70
     1
102
RTVSPost2010Prop39
140
1.0
102
RTVSPost2010PropOp39
 70
     1
102
RTVSPost2010Prop40
 90
        0
102
RTVSPost2010PropOp40
 70
     1
102
RTVSPost2010Prop41ColorIndex
 90
       18
102
RTVSPost2010Prop41ColorRGB
 90
        0
102
RTVSPost2010PropOp41
 70
     1
102
RTVSPost2010Prop42
 90
       50
102
RTVSPost2010PropOp42
 70
     1
102
RTVSPost2010Prop43
 90
        3
102
RTVSPost2010PropOp43
 70
     1
102
RTVSPost2010Prop44ColorIndex
 90
        5
102
RTVSPost2010Prop44ColorRGB
 90
      255
102
RTVSPost2010PropOp44
 70
     1
102
RTVSPost2010Prop45
280
     0
102
RTVSPost2010PropOp45
 70
     1
102
RTVSPost2010Prop46
 90
       50
102
RTVSPost2010PropOp46
 70
     1
102
RTVSPost2010Prop47
 90
       50
102
RTVSPost2010PropOp47
 70
     1
102
RTVSPost2010Prop48
 90
       50
102
RTVSPost2010PropOp48
 70
     1
102
RTVSPost2010Prop49
280
     0
102
RTVSPost2010PropOp49
 70
     1
102
RTVSPost2010Prop50
 90
       50
102
RTVSPost2010PropOp50
 70
     1
102
RTVSPost2010Prop51ColorIndex
 90
      256
102
RTVSPost2010Prop51ColorRGB
 90
-16777216
102
RTVSPost2010PropOp51
 70
     0
102
RTVSPost2010Prop52
140
1.0
102
RTVSPost2010PropOp52
 70
     0
102
RTVSPost2010Prop53
 90
        2
102
RTVSPost2010PropOp53
 70
     1
102
RTVSPost2010Prop54
  1
strokes_ogs.tif
102
RTVSPost2010PropOp54
 70
     1
102
RTVSPost2010Prop55
280
     0
102
RTVSPost2010PropOp55
 70
     1
102
RTVSPost2010Prop56
140
1.0
102
RTVSPost2010PropOp56
 70
     1
102
RTVSPost2010Prop57
140
1.0
102
RTVSPost2010PropOp57
 70
     1
  0
XRECORD
  5
51E
102
{ACAD_REACTORS
330
51D
102
}
330
51D
100
AcDbXrecord
280
     1
102
RTVSPost2010Prop28
280
     0
102
RTVSPost2010PropOp28
 70
     0
102
RTVSPost2010Prop29
280
     1
102
RTVSPost2010PropOp29
 70
     0
102
RTVSPost2010Prop30
280
     1
102
RTVSPost2010PropOp30
 70
     0
102
RTVSPost2010Prop31
280
     0
102
RTVSPost2010PropOp31
 70
     0
102
RTVSPost2010Prop32
280
     0
102
RTVSPost2010PropOp32
 70
     0
102
RTVSPost2010Prop33
280
     0
102
RTVSPost2010PropOp33
 70
     0
102
RTVSPost2010Prop34
280
     0
102
RTVSPost2010PropOp34
 70
     0
102
RTVSPost2010Prop35
280
     0
102
RTVSPost2010PropOp35
 70
     0
102
RTVSPost2010Prop36
280
     0
102
RTVSPost2010PropOp36
 70
     0
102
RTVSPost2010Prop37
 90
       50
102
RTVSPost2010PropOp37
 70
     0
102
RTVSPost2010Prop38
140
0.0
102
RTVSPost2010PropOp38
 70
     0
102
RTVSPost2010Prop39
140
1.0
102
RTVSPost2010PropOp39
 70
     0
102
RTVSPost2010Prop40
 90
        0
102
RTVSPost2010PropOp40
 70
     0
102
RTVSPost2010Prop41ColorIndex
 90
       18
102
RTVSPost2010Prop41ColorRGB
 90
        0
102
RTVSPost2010PropOp41
 70
     0
102
RTVSPost2010Prop42
 90
       50
102
RTVSPost2010PropOp42
 70
     0
102
RTVSPost2010Prop43
 90
        3
102
RTVSPost2010PropOp43
 70
     0
102
RTVSPost2010Prop44ColorIndex
 90
        5
102
RTVSPost2010Prop44ColorRGB
 90
      255
102
RTVSPost2010PropOp44
 70
     0
102
RTVSPost2010Prop45
280
     0
102
RTVSPost2010PropOp45
 70
     0
102
RTVSPost2010Prop46
 90
       50
102
RTVSPost2010PropOp46
 70
     0
102
RTVSPost2010Prop47
 90
       50
102
RTVSPost2010PropOp47
 70
     0
102
RTVSPost2010Prop48
 90
       50
102
RTVSPost2010PropOp48
 70
     0
102
RTVSPost2010Prop49
280
     0
102
RTVSPost2010PropOp49
 70
     0
102
RTVSPost2010Prop50
 90
       50
102
RTVSPost2010PropOp50
 70
     0
102
RTVSPost2010Prop51ColorIndex
 90
      256
102
RTVSPost2010Prop51ColorRGB
 90
-16777216
102
RTVSPost2010PropOp51
 70
     0
102
RTVSPost2010Prop52
140
1.0
102
RTVSPost2010PropOp52
 70
     0
102
RTVSPost2010Prop53
 90
        2
102
RTVSPost2010PropOp53
 70
     0
102
RTVSPost2010Prop54
  1
strokes_ogs.tif
102
RTVSPost2010PropOp54
 70
     0
102
RTVSPost2010Prop55
280
     0
102
RTVSPost2010PropOp55
 70
     0
102
RTVSPost2010Prop56
140
1.0
102
RTVSPost2010PropOp56
 70
     0
102
RTVSPost2010Prop57
140
1.0
102
RTVSPost2010PropOp57
 70
     0
  0
XRECORD
  5
518
102
{ACAD_REACTORS
330
517
102
}
330
517
100
AcDbXrecord
280
     1
102
RTVSPost2010Prop28
280
     0
102
RTVSPost2010PropOp28
 70
     1
102
RTVSPost2010Prop29
280
     1
102
RTVSPost2010PropOp29
 70
     1
102
RTVSPost2010Prop30
280
     1
102
RTVSPost2010PropOp30
 70
     1
102
RTVSPost2010Prop31
280
     0
102
RTVSPost2010PropOp31
 70
     1
102
RTVSPost2010Prop32
280
     0
102
RTVSPost2010PropOp32
 70
     1
102
RTVSPost2010Prop33
280
     0
102
RTVSPost2010PropOp33
 70
     1
102
RTVSPost2010Prop34
280
     0
102
RTVSPost2010PropOp34
 70
     1
102
RTVSPost2010Prop35
280
     0
102
RTVSPost2010PropOp35
 70
     1
102
RTVSPost2010Prop36
280
     0
102
RTVSPost2010PropOp36
 70
     1
102
RTVSPost2010Prop37
 90
       50
102
RTVSPost2010PropOp37
 70
     1
102
RTVSPost2010Prop38
140
0.0
102
RTVSPost2010PropOp38
 70
     1
102
RTVSPost2010Prop39
140
1.0
102
RTVSPost2010PropOp39
 70
     1
102
RTVSPost2010Prop40
 90
        0
102
RTVSPost2010PropOp40
 70
     1
102
RTVSPost2010Prop41ColorIndex
 90
       18
102
RTVSPost2010Prop41ColorRGB
 90
        0
102
RTVSPost2010PropOp41
 70
     1
102
RTVSPost2010Prop42
 90
       50
102
RTVSPost2010PropOp42
 70
     1
102
RTVSPost2010Prop43
 90
        3
102
RTVSPost2010PropOp43
 70
     1
102
RTVSPost2010Prop44ColorIndex
 90
        5
102
RTVSPost2010Prop44ColorRGB
 90
      255
102
RTVSPost2010PropOp44
 70
     1
102
RTVSPost2010Prop45
280
     0
102
RTVSPost2010PropOp45
 70
     1
102
RTVSPost2010Prop46
 90
       50
102
RTVSPost2010PropOp46
 70
     1
102
RTVSPost2010Prop47
 90
       50
102
RTVSPost2010PropOp47
 70
     1
102
RTVSPost2010Prop48
 90
       50
102
RTVSPost2010PropOp48
 70
     1
102
RTVSPost2010Prop49
280
     0
102
RTVSPost2010PropOp49
 70
     1
102
RTVSPost2010Prop50
 90
       50
102
RTVSPost2010PropOp50
 70
     1
102
RTVSPost2010Prop51ColorIndex
 90
      256
102
RTVSPost2010Prop51ColorRGB
 90
-16777216
102
RTVSPost2010PropOp51
 70
     0
102
RTVSPost2010Prop52
140
1.0
102
RTVSPost2010PropOp52
 70
     0
102
RTVSPost2010Prop53
 90
        2
102
RTVSPost2010PropOp53
 70
     1
102
RTVSPost2010Prop54
  1
strokes_ogs.tif
102
RTVSPost2010PropOp54
 70
     1
102
RTVSPost2010Prop55
280
     0
102
RTVSPost2010PropOp55
 70
     1
102
RTVSPost2010Prop56
140
1.0
102
RTVSPost2010PropOp56
 70
     1
102
RTVSPost2010Prop57
140
1.0
102
RTVSPost2010PropOp57
 70
     1
  0
XRECORD
  5
520
102
{ACAD_REACTORS
330
51F
102
}
330
51F
100
AcDbXrecord
280
     1
102
RTVSPost2010Prop28
280
     0
102
RTVSPost2010PropOp28
 70
     0
102
RTVSPost2010Prop29
280
     1
102
RTVSPost2010PropOp29
 70
     0
102
RTVSPost2010Prop30
280
     1
102
RTVSPost2010PropOp30
 70
     0
102
RTVSPost2010Prop31
280
     0
102
RTVSPost2010PropOp31
 70
     0
102
RTVSPost2010Prop32
280
     0
102
RTVSPost2010PropOp32
 70
     0
102
RTVSPost2010Prop33
280
     0
102
RTVSPost2010PropOp33
 70
     0
102
RTVSPost2010Prop34
280
     0
102
RTVSPost2010PropOp34
 70
     0
102
RTVSPost2010Prop35
280
     0
102
RTVSPost2010PropOp35
 70
     0
102
RTVSPost2010Prop36
280
     0
102
RTVSPost2010PropOp36
 70
     0
102
RTVSPost2010Prop37
 90
       50
102
RTVSPost2010PropOp37
 70
     0
102
RTVSPost2010Prop38
140
0.0
102
RTVSPost2010PropOp38
 70
     0
102
RTVSPost2010Prop39
140
1.0
102
RTVSPost2010PropOp39
 70
     0
102
RTVSPost2010Prop40
 90
        0
102
RTVSPost2010PropOp40
 70
     0
102
RTVSPost2010Prop41ColorIndex
 90
       18
102
RTVSPost2010Prop41ColorRGB
 90
        0
102
RTVSPost2010PropOp41
 70
     0
102
RTVSPost2010Prop42
 90
       50
102
RTVSPost2010PropOp42
 70
     0
102
RTVSPost2010Prop43
 90
        3
102
RTVSPost2010PropOp43
 70
     0
102
RTVSPost2010Prop44ColorIndex
 90
        5
102
RTVSPost2010Prop44ColorRGB
 90
      255
102
RTVSPost2010PropOp44
 70
     0
102
RTVSPost2010Prop45
280
     0
102
RTVSPost2010PropOp45
 70
     0
102
RTVSPost2010Prop46
 90
       50
102
RTVSPost2010PropOp46
 70
     0
102
RTVSPost2010Prop47
 90
       50
102
RTVSPost2010PropOp47
 70
     0
102
RTVSPost2010Prop48
 90
       50
102
RTVSPost2010PropOp48
 70
     0
102
RTVSPost2010Prop49
280
     0
102
RTVSPost2010PropOp49
 70
     0
102
RTVSPost2010Prop50
 90
       50
102
RTVSPost2010PropOp50
 70
     0
102
RTVSPost2010Prop51ColorIndex
 90
      256
102
RTVSPost2010Prop51ColorRGB
 90
-16777216
102
RTVSPost2010PropOp51
 70
     0
102
RTVSPost2010Prop52
140
1.0
102
RTVSPost2010PropOp52
 70
     0
102
RTVSPost2010Prop53
 90
        2
102
RTVSPost2010PropOp53
 70
     0
102
RTVSPost2010Prop54
  1
strokes_ogs.tif
102
RTVSPost2010PropOp54
 70
     0
102
RTVSPost2010Prop55
280
     0
102
RTVSPost2010PropOp55
 70
     0
102
RTVSPost2010Prop56
140
1.0
102
RTVSPost2010PropOp56
 70
     0
102
RTVSPost2010Prop57
140
1.0
102
RTVSPost2010PropOp57
 70
     0
  0
XRECORD
  5
50E
102
{ACAD_REACTORS
330
50D
102
}
330
50D
100
AcDbXrecord
280
     1
102
RTVSPost2010Prop28
280
     0
102
RTVSPost2010PropOp28
 70
     1
102
RTVSPost2010Prop29
280
     1
102
RTVSPost2010PropOp29
 70
     1
102
RTVSPost2010Prop30
280
     1
102
RTVSPost2010PropOp30
 70
     1
102
RTVSPost2010Prop31
280
     0
102
RTVSPost2010PropOp31
 70
     1
102
RTVSPost2010Prop32
280
     0
102
RTVSPost2010PropOp32
 70
     1
102
RTVSPost2010Prop33
280
     0
102
RTVSPost2010PropOp33
 70
     1
102
RTVSPost2010Prop34
280
     0
102
RTVSPost2010PropOp34
 70
     1
102
RTVSPost2010Prop35
280
     0
102
RTVSPost2010PropOp35
 70
     1
102
RTVSPost2010Prop36
280
     0
102
RTVSPost2010PropOp36
 70
     1
102
RTVSPost2010Prop37
 90
       50
102
RTVSPost2010PropOp37
 70
     1
102
RTVSPost2010Prop38
140
0.0
102
RTVSPost2010PropOp38
 70
     1
102
RTVSPost2010Prop39
140
1.0
102
RTVSPost2010PropOp39
 70
     1
102
RTVSPost2010Prop40
 90
        0
102
RTVSPost2010PropOp40
 70
     1
102
RTVSPost2010Prop41ColorIndex
 90
       18
102
RTVSPost2010Prop41ColorRGB
 90
        0
102
RTVSPost2010PropOp41
 70
     1
102
RTVSPost2010Prop42
 90
       50
102
RTVSPost2010PropOp42
 70
     1
102
RTVSPost2010Prop43
 90
        3
102
RTVSPost2010PropOp43
 70
     1
102
RTVSPost2010Prop44ColorIndex
 90
        5
102
RTVSPost2010Prop44ColorRGB
 90
      255
102
RTVSPost2010PropOp44
 70
     1
102
RTVSPost2010Prop45
280
     0
102
RTVSPost2010PropOp45
 70
     1
102
RTVSPost2010Prop46
 90
       50
102
RTVSPost2010PropOp46
 70
     1
102
RTVSPost2010Prop47
 90
       50
102
RTVSPost2010PropOp47
 70
     1
102
RTVSPost2010Prop48
 90
       50
102
RTVSPost2010PropOp48
 70
     1
102
RTVSPost2010Prop49
280
     0
102
RTVSPost2010PropOp49
 70
     1
102
RTVSPost2010Prop50
 90
       50
102
RTVSPost2010PropOp50
 70
     1
102
RTVSPost2010Prop51ColorIndex
 90
      256
102
RTVSPost2010Prop51ColorRGB
 90
-16777216
102
RTVSPost2010PropOp51
 70
     0
102
RTVSPost2010Prop52
140
1.0
102
RTVSPost2010PropOp52
 70
     0
102
RTVSPost2010Prop53
 90
        2
102
RTVSPost2010PropOp53
 70
     1
102
RTVSPost2010Prop54
  1
strokes_ogs.tif
102
RTVSPost2010PropOp54
 70
     1
102
RTVSPost2010Prop55
280
     0
102
RTVSPost2010PropOp55
 70
     1
102
RTVSPost2010Prop56
140
1.0
102
RTVSPost2010PropOp56
 70
     1
102
RTVSPost2010Prop57
140
1.0
102
RTVSPost2010PropOp57
 70
     1
  0
XRECORD
  5
52C
102
{ACAD_REACTORS
330
52B
102
}
330
52B
100
AcDbXrecord
280
     1
102
RTVSPost2010Prop28
280
     0
102
RTVSPost2010PropOp28
 70
     1
102
RTVSPost2010Prop29
280
     1
102
RTVSPost2010PropOp29
 70
     1
102
RTVSPost2010Prop30
280
     1
102
RTVSPost2010PropOp30
 70
     1
102
RTVSPost2010Prop31
280
     0
102
RTVSPost2010PropOp31
 70
     1
102
RTVSPost2010Prop32
280
     0
102
RTVSPost2010PropOp32
 70
     1
102
RTVSPost2010Prop33
280
     0
102
RTVSPost2010PropOp33
 70
     1
102
RTVSPost2010Prop34
280
     0
102
RTVSPost2010PropOp34
 70
     1
102
RTVSPost2010Prop35
280
     0
102
RTVSPost2010PropOp35
 70
     1
102
RTVSPost2010Prop36
280
     0
102
RTVSPost2010PropOp36
 70
     1
102
RTVSPost2010Prop37
 90
       50
102
RTVSPost2010PropOp37
 70
     1
102
RTVSPost2010Prop38
140
0.0
102
RTVSPost2010PropOp38
 70
     1
102
RTVSPost2010Prop39
140
1.0
102
RTVSPost2010PropOp39
 70
     1
102
RTVSPost2010Prop40
 90
        0
102
RTVSPost2010PropOp40
 70
     1
102
RTVSPost2010Prop41ColorIndex
 90
       18
102
RTVSPost2010Prop41ColorRGB
 90
        0
102
RTVSPost2010PropOp41
 70
     1
102
RTVSPost2010Prop42
 90
       50
102
RTVSPost2010PropOp42
 70
     1
102
RTVSPost2010Prop43
 90
        3
102
RTVSPost2010PropOp43
 70
     1
102
RTVSPost2010Prop44ColorIndex
 90
        5
102
RTVSPost2010Prop44ColorRGB
 90
      255
102
RTVSPost2010PropOp44
 70
     1
102
RTVSPost2010Prop45
280
     0
102
RTVSPost2010PropOp45
 70
     1
102
RTVSPost2010Prop46
 90
       50
102
RTVSPost2010PropOp46
 70
     1
102
RTVSPost2010Prop47
 90
       50
102
RTVSPost2010PropOp47
 70
     1
102
RTVSPost2010Prop48
 90
       50
102
RTVSPost2010PropOp48
 70
     1
102
RTVSPost2010Prop49
280
     0
102
RTVSPost2010PropOp49
 70
     1
102
RTVSPost2010Prop50
 90
       50
102
RTVSPost2010PropOp50
 70
     1
102
RTVSPost2010Prop51ColorIndex
 90
      256
102
RTVSPost2010Prop51ColorRGB
 90
-16777216
102
RTVSPost2010PropOp51
 70
     0
102
RTVSPost2010Prop52
140
1.0
102
RTVSPost2010PropOp52
 70
     0
102
RTVSPost2010Prop53
 90
        2
102
RTVSPost2010PropOp53
 70
     1
102
RTVSPost2010Prop54
  1
strokes_ogs.tif
102
RTVSPost2010PropOp54
 70
     1
102
RTVSPost2010Prop55
280
     0
102
RTVSPost2010PropOp55
 70
     1
102
RTVSPost2010Prop56
140
1.0
102
RTVSPost2010PropOp56
 70
     1
102
RTVSPost2010Prop57
140
1.0
102
RTVSPost2010PropOp57
 70
     1
  0
XRECORD
  5
52A
102
{ACAD_REACTORS
330
529
102
}
330
529
100
AcDbXrecord
280
     1
102
RTVSPost2010Prop28
280
     0
102
RTVSPost2010PropOp28
 70
     1
102
RTVSPost2010Prop29
280
     1
102
RTVSPost2010PropOp29
 70
     1
102
RTVSPost2010Prop30
280
     1
102
RTVSPost2010PropOp30
 70
     1
102
RTVSPost2010Prop31
280
     0
102
RTVSPost2010PropOp31
 70
     1
102
RTVSPost2010Prop32
280
     0
102
RTVSPost2010PropOp32
 70
     1
102
RTVSPost2010Prop33
280
     0
102
RTVSPost2010PropOp33
 70
     1
102
RTVSPost2010Prop34
280
     0
102
RTVSPost2010PropOp34
 70
     1
102
RTVSPost2010Prop35
280
     0
102
RTVSPost2010PropOp35
 70
     1
102
RTVSPost2010Prop36
280
     0
102
RTVSPost2010PropOp36
 70
     1
102
RTVSPost2010Prop37
 90
       50
102
RTVSPost2010PropOp37
 70
     1
102
RTVSPost2010Prop38
140
0.0
102
RTVSPost2010PropOp38
 70
     1
102
RTVSPost2010Prop39
140
1.0
102
RTVSPost2010PropOp39
 70
     1
102
RTVSPost2010Prop40
 90
        0
102
RTVSPost2010PropOp40
 70
     1
102
RTVSPost2010Prop41ColorIndex
 90
       18
102
RTVSPost2010Prop41ColorRGB
 90
        0
102
RTVSPost2010PropOp41
 70
     1
102
RTVSPost2010Prop42
 90
       50
102
RTVSPost2010PropOp42
 70
     1
102
RTVSPost2010Prop43
 90
        3
102
RTVSPost2010PropOp43
 70
     1
102
RTVSPost2010Prop44ColorIndex
 90
        5
102
RTVSPost2010Prop44ColorRGB
 90
      255
102
RTVSPost2010PropOp44
 70
     1
102
RTVSPost2010Prop45
280
     0
102
RTVSPost2010PropOp45
 70
     1
102
RTVSPost2010Prop46
 90
       50
102
RTVSPost2010PropOp46
 70
     1
102
RTVSPost2010Prop47
 90
       50
102
RTVSPost2010PropOp47
 70
     1
102
RTVSPost2010Prop48
 90
       50
102
RTVSPost2010PropOp48
 70
     1
102
RTVSPost2010Prop49
280
     0
102
RTVSPost2010PropOp49
 70
     1
102
RTVSPost2010Prop50
 90
       50
102
RTVSPost2010PropOp50
 70
     1
102
RTVSPost2010Prop51ColorIndex
 90
      256
102
RTVSPost2010Prop51ColorRGB
 90
-16777216
102
RTVSPost2010PropOp51
 70
     0
102
RTVSPost2010Prop52
140
1.0
102
RTVSPost2010PropOp52
 70
     0
102
RTVSPost2010Prop53
 90
        2
102
RTVSPost2010PropOp53
 70
     1
102
RTVSPost2010Prop54
  1
strokes_ogs.tif
102
RTVSPost2010PropOp54
 70
     1
102
RTVSPost2010Prop55
280
     0
102
RTVSPost2010PropOp55
 70
     1
102
RTVSPost2010Prop56
140
1.0
102
RTVSPost2010PropOp56
 70
     1
102
RTVSPost2010Prop57
140
1.0
102
RTVSPost2010PropOp57
 70
     1
  0
XRECORD
  5
524
102
{ACAD_REACTORS
330
523
102
}
330
523
100
AcDbXrecord
280
     1
102
RTVSPost2010Prop28
280
     0
102
RTVSPost2010PropOp28
 70
     1
102
RTVSPost2010Prop29
280
     1
102
RTVSPost2010PropOp29
 70
     1
102
RTVSPost2010Prop30
280
     1
102
RTVSPost2010PropOp30
 70
     1
102
RTVSPost2010Prop31
280
     0
102
RTVSPost2010PropOp31
 70
     1
102
RTVSPost2010Prop32
280
     0
102
RTVSPost2010PropOp32
 70
     1
102
RTVSPost2010Prop33
280
     0
102
RTVSPost2010PropOp33
 70
     1
102
RTVSPost2010Prop34
280
     0
102
RTVSPost2010PropOp34
 70
     1
102
RTVSPost2010Prop35
280
     0
102
RTVSPost2010PropOp35
 70
     1
102
RTVSPost2010Prop36
280
     0
102
RTVSPost2010PropOp36
 70
     1
102
RTVSPost2010Prop37
 90
       50
102
RTVSPost2010PropOp37
 70
     1
102
RTVSPost2010Prop38
140
0.0
102
RTVSPost2010PropOp38
 70
     1
102
RTVSPost2010Prop39
140
1.0
102
RTVSPost2010PropOp39
 70
     1
102
RTVSPost2010Prop40
 90
        0
102
RTVSPost2010PropOp40
 70
     1
102
RTVSPost2010Prop41ColorIndex
 90
       18
102
RTVSPost2010Prop41ColorRGB
 90
        0
102
RTVSPost2010PropOp41
 70
     1
102
RTVSPost2010Prop42
 90
       50
102
RTVSPost2010PropOp42
 70
     1
102
RTVSPost2010Prop43
 90
        3
102
RTVSPost2010PropOp43
 70
     1
102
RTVSPost2010Prop44ColorIndex
 90
        5
102
RTVSPost2010Prop44ColorRGB
 90
      255
102
RTVSPost2010PropOp44
 70
     1
102
RTVSPost2010Prop45
280
     0
102
RTVSPost2010PropOp45
 70
     1
102
RTVSPost2010Prop46
 90
       50
102
RTVSPost2010PropOp46
 70
     1
102
RTVSPost2010Prop47
 90
       50
102
RTVSPost2010PropOp47
 70
     1
102
RTVSPost2010Prop48
 90
       50
102
RTVSPost2010PropOp48
 70
     1
102
RTVSPost2010Prop49
280
     0
102
RTVSPost2010PropOp49
 70
     1
102
RTVSPost2010Prop50
 90
       50
102
RTVSPost2010PropOp50
 70
     1
102
RTVSPost2010Prop51ColorIndex
 90
      256
102
RTVSPost2010Prop51ColorRGB
 90
-16777216
102
RTVSPost2010PropOp51
 70
     0
102
RTVSPost2010Prop52
140
1.0
102
RTVSPost2010PropOp52
 70
     0
102
RTVSPost2010Prop53
 90
        2
102
RTVSPost2010PropOp53
 70
     1
102
RTVSPost2010Prop54
  1
strokes_ogs.tif
102
RTVSPost2010PropOp54
 70
     1
102
RTVSPost2010Prop55
280
     0
102
RTVSPost2010PropOp55
 70
     1
102
RTVSPost2010Prop56
140
1.0
102
RTVSPost2010PropOp56
 70
     1
102
RTVSPost2010Prop57
140
1.0
102
RTVSPost2010PropOp57
 70
     1
  0
XRECORD
  5
526
102
{ACAD_REACTORS
330
525
102
}
330
525
100
AcDbXrecord
280
     1
102
RTVSPost2010Prop28
280
     0
102
RTVSPost2010PropOp28
 70
     1
102
RTVSPost2010Prop29
280
     1
102
RTVSPost2010PropOp29
 70
     1
102
RTVSPost2010Prop30
280
     1
102
RTVSPost2010PropOp30
 70
     1
102
RTVSPost2010Prop31
280
     0
102
RTVSPost2010PropOp31
 70
     1
102
RTVSPost2010Prop32
280
     0
102
RTVSPost2010PropOp32
 70
     1
102
RTVSPost2010Prop33
280
     0
102
RTVSPost2010PropOp33
 70
     1
102
RTVSPost2010Prop34
280
     0
102
RTVSPost2010PropOp34
 70
     1
102
RTVSPost2010Prop35
280
     0
102
RTVSPost2010PropOp35
 70
     1
102
RTVSPost2010Prop36
280
     0
102
RTVSPost2010PropOp36
 70
     1
102
RTVSPost2010Prop37
 90
       50
102
RTVSPost2010PropOp37
 70
     1
102
RTVSPost2010Prop38
140
0.0
102
RTVSPost2010PropOp38
 70
     1
102
RTVSPost2010Prop39
140
1.0
102
RTVSPost2010PropOp39
 70
     1
102
RTVSPost2010Prop40
 90
        0
102
RTVSPost2010PropOp40
 70
     1
102
RTVSPost2010Prop41ColorIndex
 90
       18
102
RTVSPost2010Prop41ColorRGB
 90
        0
102
RTVSPost2010PropOp41
 70
     1
102
RTVSPost2010Prop42
 90
       50
102
RTVSPost2010PropOp42
 70
     1
102
RTVSPost2010Prop43
 90
        3
102
RTVSPost2010PropOp43
 70
     1
102
RTVSPost2010Prop44ColorIndex
 90
        5
102
RTVSPost2010Prop44ColorRGB
 90
      255
102
RTVSPost2010PropOp44
 70
     1
102
RTVSPost2010Prop45
280
     0
102
RTVSPost2010PropOp45
 70
     1
102
RTVSPost2010Prop46
 90
       50
102
RTVSPost2010PropOp46
 70
     1
102
RTVSPost2010Prop47
 90
       50
102
RTVSPost2010PropOp47
 70
     1
102
RTVSPost2010Prop48
 90
       50
102
RTVSPost2010PropOp48
 70
     1
102
RTVSPost2010Prop49
280
     0
102
RTVSPost2010PropOp49
 70
     1
102
RTVSPost2010Prop50
 90
       50
102
RTVSPost2010PropOp50
 70
     1
102
RTVSPost2010Prop51ColorIndex
 90
      256
102
RTVSPost2010Prop51ColorRGB
 90
-16777216
102
RTVSPost2010PropOp51
 70
     0
102
RTVSPost2010Prop52
140
1.0
102
RTVSPost2010PropOp52
 70
     0
102
RTVSPost2010Prop53
 90
        2
102
RTVSPost2010PropOp53
 70
     1
102
RTVSPost2010Prop54
  1
strokes_ogs.tif
102
RTVSPost2010PropOp54
 70
     1
102
RTVSPost2010Prop55
280
     0
102
RTVSPost2010PropOp55
 70
     1
102
RTVSPost2010Prop56
140
1.0
102
RTVSPost2010PropOp56
 70
     1
102
RTVSPost2010Prop57
140
1.0
102
RTVSPost2010PropOp57
 70
     1
  0
XRECORD
  5
516
102
{ACAD_REACTORS
330
515
102
}
330
515
100
AcDbXrecord
280
     1
102
RTVSPost2010Prop28
280
     0
102
RTVSPost2010PropOp28
 70
     1
102
RTVSPost2010Prop29
280
     1
102
RTVSPost2010PropOp29
 70
     1
102
RTVSPost2010Prop30
280
     1
102
RTVSPost2010PropOp30
 70
     1
102
RTVSPost2010Prop31
280
     0
102
RTVSPost2010PropOp31
 70
     1
102
RTVSPost2010Prop32
280
     0
102
RTVSPost2010PropOp32
 70
     1
102
RTVSPost2010Prop33
280
     0
102
RTVSPost2010PropOp33
 70
     1
102
RTVSPost2010Prop34
280
     0
102
RTVSPost2010PropOp34
 70
     1
102
RTVSPost2010Prop35
280
     0
102
RTVSPost2010PropOp35
 70
     1
102
RTVSPost2010Prop36
280
     0
102
RTVSPost2010PropOp36
 70
     1
102
RTVSPost2010Prop37
 90
       50
102
RTVSPost2010PropOp37
 70
     1
102
RTVSPost2010Prop38
140
0.0
102
RTVSPost2010PropOp38
 70
     1
102
RTVSPost2010Prop39
140
1.0
102
RTVSPost2010PropOp39
 70
     1
102
RTVSPost2010Prop40
 90
        0
102
RTVSPost2010PropOp40
 70
     1
102
RTVSPost2010Prop41ColorIndex
 90
       18
102
RTVSPost2010Prop41ColorRGB
 90
        0
102
RTVSPost2010PropOp41
 70
     1
102
RTVSPost2010Prop42
 90
       50
102
RTVSPost2010PropOp42
 70
     1
102
RTVSPost2010Prop43
 90
        3
102
RTVSPost2010PropOp43
 70
     1
102
RTVSPost2010Prop44ColorIndex
 90
        5
102
RTVSPost2010Prop44ColorRGB
 90
      255
102
RTVSPost2010PropOp44
 70
     1
102
RTVSPost2010Prop45
280
     0
102
RTVSPost2010PropOp45
 70
     1
102
RTVSPost2010Prop46
 90
       50
102
RTVSPost2010PropOp46
 70
     1
102
RTVSPost2010Prop47
 90
       50
102
RTVSPost2010PropOp47
 70
     1
102
RTVSPost2010Prop48
 90
       50
102
RTVSPost2010PropOp48
 70
     1
102
RTVSPost2010Prop49
280
     0
102
RTVSPost2010PropOp49
 70
     1
102
RTVSPost2010Prop50
 90
       50
102
RTVSPost2010PropOp50
 70
     1
102
RTVSPost2010Prop51ColorIndex
 90
      256
102
RTVSPost2010Prop51ColorRGB
 90
-16777216
102
RTVSPost2010PropOp51
 70
     0
102
RTVSPost2010Prop52
140
1.0
102
RTVSPost2010PropOp52
 70
     0
102
RTVSPost2010Prop53
 90
        2
102
RTVSPost2010PropOp53
 70
     1
102
RTVSPost2010Prop54
  1
strokes_ogs.tif
102
RTVSPost2010PropOp54
 70
     1
102
RTVSPost2010Prop55
280
     0
102
RTVSPost2010PropOp55
 70
     1
102
RTVSPost2010Prop56
140
1.0
102
RTVSPost2010PropOp56
 70
     1
102
RTVSPost2010Prop57
140
1.0
102
RTVSPost2010PropOp57
 70
     1
  0
XRECORD
  5
508
102
{ACAD_REACTORS
330
507
102
}
330
507
100
AcDbXrecord
280
     1
102
RTVSPost2010Prop28
280
     0
102
RTVSPost2010PropOp28
 70
     1
102
RTVSPost2010Prop29
280
     1
102
RTVSPost2010PropOp29
 70
     1
102
RTVSPost2010Prop30
280
     1
102
RTVSPost2010PropOp30
 70
     1
102
RTVSPost2010Prop31
280
     0
102
RTVSPost2010PropOp31
 70
     1
102
RTVSPost2010Prop32
280
     0
102
RTVSPost2010PropOp32
 70
     1
102
RTVSPost2010Prop33
280
     0
102
RTVSPost2010PropOp33
 70
     1
102
RTVSPost2010Prop34
280
     0
102
RTVSPost2010PropOp34
 70
     1
102
RTVSPost2010Prop35
280
     0
102
RTVSPost2010PropOp35
 70
     1
102
RTVSPost2010Prop36
280
     0
102
RTVSPost2010PropOp36
 70
     1
102
RTVSPost2010Prop37
 90
       50
102
RTVSPost2010PropOp37
 70
     1
102
RTVSPost2010Prop38
140
0.0
102
RTVSPost2010PropOp38
 70
     1
102
RTVSPost2010Prop39
140
1.0
102
RTVSPost2010PropOp39
 70
     1
102
RTVSPost2010Prop40
 90
        0
102
RTVSPost2010PropOp40
 70
     1
102
RTVSPost2010Prop41ColorIndex
 90
       18
102
RTVSPost2010Prop41ColorRGB
 90
        0
102
RTVSPost2010PropOp41
 70
     1
102
RTVSPost2010Prop42
 90
       50
102
RTVSPost2010PropOp42
 70
     1
102
RTVSPost2010Prop43
 90
        3
102
RTVSPost2010PropOp43
 70
     1
102
RTVSPost2010Prop44ColorIndex
 90
        5
102
RTVSPost2010Prop44ColorRGB
 90
      255
102
RTVSPost2010PropOp44
 70
     1
102
RTVSPost2010Prop45
280
     0
102
RTVSPost2010PropOp45
 70
     1
102
RTVSPost2010Prop46
 90
       50
102
RTVSPost2010PropOp46
 70
     1
102
RTVSPost2010Prop47
 90
       50
102
RTVSPost2010PropOp47
 70
     1
102
RTVSPost2010Prop48
 90
       50
102
RTVSPost2010PropOp48
 70
     1
102
RTVSPost2010Prop49
280
     0
102
RTVSPost2010PropOp49
 70
     1
102
RTVSPost2010Prop50
 90
       50
102
RTVSPost2010PropOp50
 70
     1
102
RTVSPost2010Prop51ColorIndex
 90
      256
102
RTVSPost2010Prop51ColorRGB
 90
-16777216
102
RTVSPost2010PropOp51
 70
     0
102
RTVSPost2010Prop52
140
1.0
102
RTVSPost2010PropOp52
 70
     0
102
RTVSPost2010Prop53
 90
        2
102
RTVSPost2010PropOp53
 70
     1
102
RTVSPost2010Prop54
  1
strokes_ogs.tif
102
RTVSPost2010PropOp54
 70
     1
102
RTVSPost2010Prop55
280
     0
102
RTVSPost2010PropOp55
 70
     1
102
RTVSPost2010Prop56
140
1.0
102
RTVSPost2010PropOp56
 70
     1
102
RTVSPost2010Prop57
140
1.0
102
RTVSPost2010PropOp57
 70
     1
  0
XRECORD
  5
528
102
{ACAD_REACTORS
330
527
102
}
330
527
100
AcDbXrecord
280
     1
102
RTVSPost2010Prop28
280
     0
102
RTVSPost2010PropOp28
 70
     1
102
RTVSPost2010Prop29
280
     1
102
RTVSPost2010PropOp29
 70
     1
102
RTVSPost2010Prop30
280
     1
102
RTVSPost2010PropOp30
 70
     1
102
RTVSPost2010Prop31
280
     0
102
RTVSPost2010PropOp31
 70
     1
102
RTVSPost2010Prop32
280
     0
102
RTVSPost2010PropOp32
 70
     1
102
RTVSPost2010Prop33
280
     0
102
RTVSPost2010PropOp33
 70
     1
102
RTVSPost2010Prop34
280
     0
102
RTVSPost2010PropOp34
 70
     1
102
RTVSPost2010Prop35
280
     0
102
RTVSPost2010PropOp35
 70
     1
102
RTVSPost2010Prop36
280
     0
102
RTVSPost2010PropOp36
 70
     1
102
RTVSPost2010Prop37
 90
       50
102
RTVSPost2010PropOp37
 70
     1
102
RTVSPost2010Prop38
140
0.0
102
RTVSPost2010PropOp38
 70
     1
102
RTVSPost2010Prop39
140
1.0
102
RTVSPost2010PropOp39
 70
     1
102
RTVSPost2010Prop40
 90
        0
102
RTVSPost2010PropOp40
 70
     1
102
RTVSPost2010Prop41ColorIndex
 90
       18
102
RTVSPost2010Prop41ColorRGB
 90
        0
102
RTVSPost2010PropOp41
 70
     1
102
RTVSPost2010Prop42
 90
       50
102
RTVSPost2010PropOp42
 70
     1
102
RTVSPost2010Prop43
 90
        3
102
RTVSPost2010PropOp43
 70
     1
102
RTVSPost2010Prop44ColorIndex
 90
        5
102
RTVSPost2010Prop44ColorRGB
 90
      255
102
RTVSPost2010PropOp44
 70
     1
102
RTVSPost2010Prop45
280
     0
102
RTVSPost2010PropOp45
 70
     1
102
RTVSPost2010Prop46
 90
       50
102
RTVSPost2010PropOp46
 70
     1
102
RTVSPost2010Prop47
 90
       50
102
RTVSPost2010PropOp47
 70
     1
102
RTVSPost2010Prop48
 90
       50
102
RTVSPost2010PropOp48
 70
     1
102
RTVSPost2010Prop49
280
     0
102
RTVSPost2010PropOp49
 70
     1
102
RTVSPost2010Prop50
 90
       50
102
RTVSPost2010PropOp50
 70
     1
102
RTVSPost2010Prop51ColorIndex
 90
      256
102
RTVSPost2010Prop51ColorRGB
 90
-16777216
102
RTVSPost2010PropOp51
 70
     0
102
RTVSPost2010Prop52
140
1.0
102
RTVSPost2010PropOp52
 70
     0
102
RTVSPost2010Prop53
 90
        2
102
RTVSPost2010PropOp53
 70
     1
102
RTVSPost2010Prop54
  1
strokes_ogs.tif
102
RTVSPost2010PropOp54
 70
     1
102
RTVSPost2010Prop55
280
     0
102
RTVSPost2010PropOp55
 70
     1
102
RTVSPost2010Prop56
140
1.0
102
RTVSPost2010PropOp56
 70
     1
102
RTVSPost2010Prop57
140
1.0
102
RTVSPost2010PropOp57
 70
     1
  0
ENDSEC
  0
EOF
