  0
SECTION
  2
HEADER
  9
$ACADVER
  1
AC1024
  9
$ACADMAINTVER
 70
     6
  9
$DWGCODEPAGE
  3
ANSI_932
  9
$INSBASE
 10
0.0
 20
0.0
 30
0.0
  9
$EXTMIN
 10
-3546.0
 20
-2432.305379888601
 30
0.0
  9
$EXTMAX
 10
3546.0
 20
2432.305379888601
 30
0.0
  9
$LIMMIN
 10
-1260.0
 20
-891.0
  9
$LIMMAX
 10
1260.0
 20
891.0
  9
$ORTHOMODE
 70
     0
  9
$REGENMODE
 70
     1
  9
$FILLMODE
 70
     1
  9
$QTEXTMODE
 70
     0
  9
$MIRRTEXT
 70
     1
  9
$LTSCALE
 40
1.5
  9
$ATTMODE
 70
     1
  9
$TEXTSIZE
 40
0.2
  9
$TRACEWID
 40
0.05
  9
$TEXTSTYLE
  7
Standard
  9
$CLAYER
  8
0
  9
$CELTYPE
  6
ByLayer
  9
$CECOLOR
 62
   256
  9
$CELTSCALE
 40
1.0
  9
$DISPSILH
 70
     0
  9
$DIMSCALE
 40
1.0
  9
$DIMASZ
 40
18.0000114440918
  9
$DIMEXO
 40
1.0
  9
$DIMDLI
 40
10.0
  9
$DIMRND
 40
0.0
  9
$DIMDLE
 40
0.0
  9
$DIMEXE
 40
1.0
  9
$DIMTP
 40
0.0
  9
$DIMTM
 40
0.0
  9
$DIMTXT
 40
24.0
  9
$DIMCEN
 40
0.0
  9
$DIMTSZ
 40
0.0
  9
$DIMTOL
 70
     0
  9
$DIMLIM
 70
     0
  9
$DIMTIH
 70
     0
  9
$DIMTOH
 70
     0
  9
$DIMSE1
 70
     0
  9
$DIMSE2
 70
     0
  9
$DIMTAD
 70
     1
  9
$DIMZIN
 70
     8
  9
$DIMBLK
  1

  9
$DIMASO
 70
     1
  9
$DIMSHO
 70
     1
  9
$DIMPOST
  1

  9
$DIMAPOST
  1

  9
$DIMALT
 70
     0
  9
$DIMALTD
 70
     2
  9
$DIMALTF
 40
0.0393700787401575
  9
$DIMLFAC
 40
1.0
  9
$DIMTOFL
 70
     0
  9
$DIMTVP
 40
0.0
  9
$DIMTIX
 70
     0
  9
$DIMSOXD
 70
     0
  9
$DIMSAH
 70
     0
  9
$DIMBLK1
  1

  9
$DIMBLK2
  1

  9
$DIMSTYLE
  2
Standard
  9
$DIMCLRD
 70
     0
  9
$DIMCLRE
 70
     0
  9
$DIMCLRT
 70
     0
  9
$DIMTFAC
 40
0.65
  9
$DIMGAP
 40
0.09
  9
$DIMJUST
 70
     0
  9
$DIMSD1
 70
     0
  9
$DIMSD2
 70
     0
  9
$DIMTOLJ
 70
     0
  9
$DIMTZIN
 70
     0
  9
$DIMALTZ
 70
     0
  9
$DIMALTTZ
 70
     0
  9
$DIMUPT
 70
     0
  9
$DIMDEC
 70
     5
  9
$DIMTDEC
 70
     5
  9
$DIMALTU
 70
     2
  9
$DIMALTTD
 70
     5
  9
$DIMTXSTY
  7
Standard
  9
$DIMAUNIT
 70
     0
  9
$DIMADEC
 70
     5
  9
$DIMALTRND
 40
0.0
  9
$DIMAZIN
 70
     2
  9
$DIMDSEP
 70
    46
  9
$DIMATFIT
 70
     3
  9
$DIMFRAC
 70
     0
  9
$DIMLDRBLK
  1

  9
$DIMLUNIT
 70
     2
  9
$DIMLWD
 70
    -2
  9
$DIMLWE
 70
    -2
  9
$DIMTMOVE
 70
     0
  9
$DIMFXL
 40
1.0
  9
$DIMFXLON
 70
     0
  9
$DIMJOGANG
 40
0.7853981633974483
  9
$DIMTFILL
 70
     0
  9
$DIMTFILLCLR
 70
     0
  9
$DIMARCSYM
 70
     1
  9
$DIMLTYPE
  6

  9
$DIMLTEX1
  6

  9
$DIMLTEX2
  6

  9
$DIMTXTDIRECTION
 70
     0
  9
$LUNITS
 70
     2
  9
$LUPREC
 70
     4
  9
$SKETCHINC
 40
0.1
  9
$FILLETRAD
 40
0.5
  9
$AUNITS
 70
     0
  9
$AUPREC
 70
     0
  9
$MENU
  1
.
  9
$ELEVATION
 40
0.0
  9
$PELEVATION
 40
0.0
  9
$THICKNESS
 40
0.0
  9
$LIMCHECK
 70
     0
  9
$CHAMFERA
 40
0.0
  9
$CHAMFERB
 40
0.0
  9
$CHAMFERC
 40
0.0
  9
$CHAMFERD
 40
0.0
  9
$SKPOLY
 70
     0
  9
$TDCREATE
 40
2458758.473167905
  9
$TDUCREATE
 40
2458758.098167905
  9
$TDUPDATE
 40
2458758.473168611
  9
$TDUUPDATE
 40
2458758.098168611
  9
$TDINDWG
 40
0.0000000116
  9
$TDUSRTIMER
 40
0.0000000116
  9
$USRTIMER
 70
     1
  9
$ANGBASE
 50
0.0
  9
$ANGDIR
 70
     0
  9
$PDMODE
 70
     0
  9
$PDSIZE
 40
1.0
  9
$PLINEWID
 40
0.0
  9
$SPLFRAME
 70
     0
  9
$SPLINETYPE
 70
     6
  9
$SPLINESEGS
 70
     8
  9
$HANDSEED
  5
4CF
  9
$SURFTAB1
 70
     6
  9
$SURFTAB2
 70
     6
  9
$SURFTYPE
 70
     6
  9
$SURFU
 70
     6
  9
$SURFV
 70
     6
  9
$UCSBASE
  2

  9
$UCSNAME
  2

  9
$UCSORG
 10
0.0
 20
0.0
 30
0.0
  9
$UCSXDIR
 10
1.0
 20
0.0
 30
0.0
  9
$UCSYDIR
 10
0.0
 20
1.0
 30
0.0
  9
$UCSORTHOREF
  2

  9
$UCSORTHOVIEW
 70
     0
  9
$UCSORGTOP
 10
0.0
 20
0.0
 30
0.0
  9
$UCSORGBOTTOM
 10
0.0
 20
0.0
 30
0.0
  9
$UCSORGLEFT
 10
0.0
 20
0.0
 30
0.0
  9
$UCSORGRIGHT
 10
0.0
 20
0.0
 30
0.0
  9
$UCSORGFRONT
 10
0.0
 20
0.0
 30
0.0
  9
$UCSORGBACK
 10
0.0
 20
0.0
 30
0.0
  9
$PUCSBASE
  2

  9
$PUCSNAME
  2

  9
$PUCSORG
 10
0.0
 20
0.0
 30
0.0
  9
$PUCSXDIR
 10
1.0
 20
0.0
 30
0.0
  9
$PUCSYDIR
 10
0.0
 20
1.0
 30
0.0
  9
$PUCSORTHOREF
  2

  9
$PUCSORTHOVIEW
 70
     0
  9
$PUCSORGTOP
 10
0.0
 20
0.0
 30
0.0
  9
$PUCSORGBOTTOM
 10
0.0
 20
0.0
 30
0.0
  9
$PUCSORGLEFT
 10
0.0
 20
0.0
 30
0.0
  9
$PUCSORGRIGHT
 10
0.0
 20
0.0
 30
0.0
  9
$PUCSORGFRONT
 10
0.0
 20
0.0
 30
0.0
  9
$PUCSORGBACK
 10
0.0
 20
0.0
 30
0.0
  9
$USERI1
 70
     0
  9
$USERI2
 70
     0
  9
$USERI3
 70
     0
  9
$USERI4
 70
     0
  9
$USERI5
 70
     0
  9
$USERR1
 40
0.0
  9
$USERR2
 40
0.0
  9
$USERR3
 40
0.0
  9
$USERR4
 40
0.0
  9
$USERR5
 40
0.0
  9
$WORLDVIEW
 70
     1
  9
$SHADEDGE
 70
     3
  9
$SHADEDIF
 70
    70
  9
$TILEMODE
 70
     1
  9
$MAXACTVP
 70
    64
  9
$PINSBASE
 10
0.0
 20
0.0
 30
0.0
  9
$PLIMCHECK
 70
     0
  9
$PEXTMIN
 10
1.000000000000000E+20
 20
1.000000000000000E+20
 30
1.000000000000000E+20
  9
$PEXTMAX
 10
-1.000000000000000E+20
 20
-1.000000000000000E+20
 30
-1.000000000000000E+20
  9
$PLIMMIN
 10
0.0
 20
0.0
  9
$PLIMMAX
 10
12.0
 20
9.0
  9
$UNITMODE
 70
     0
  9
$VISRETAIN
 70
     0
  9
$PLINEGEN
 70
     1
  9
$PSLTSCALE
 70
     0
  9
$TREEDEPTH
 70
  3020
  9
$CMLSTYLE
  2
Standard
  9
$CMLJUST
 70
     0
  9
$CMLSCALE
 40
1.0
  9
$PROXYGRAPHICS
 70
     0
  9
$MEASUREMENT
 70
     1
  9
$CELWEIGHT
370
    -1
  9
$ENDCAPS
280
     0
  9
$JOINSTYLE
280
     0
  9
$LWDISPLAY
290
     1
  9
$INSUNITS
 70
     4
  9
$HYPERLINKBASE
  1

  9
$STYLESHEET
  1

  9
$XEDIT
290
     1
  9
$CEPSNTYPE
380
     0
  9
$PSTYLEMODE
290
     1
  9
$FINGERPRINTGUID
  2
{08A20FD7-82AF-46B0-BF94-824027DC949F}
  9
$VERSIONGUID
  2
{FAEB1C32-E019-11D5-929B-00C0DF256EC4}
  9
$EXTNAMES
290
     1
  9
$PSVPSCALE
 40
0.0
  9
$OLESTARTUP
290
     0
  9
$SORTENTS
280
   127
  9
$INDEXCTL
280
     0
  9
$HIDETEXT
280
     1
  9
$XCLIPFRAME
280
     2
  9
$HALOGAP
280
     0
  9
$OBSCOLOR
 70
   257
  9
$OBSLTYPE
280
     0
  9
$INTERSECTIONDISPLAY
280
     0
  9
$INTERSECTIONCOLOR
 70
   257
  9
$DIMASSOC
280
     2
  9
$PROJECTNAME
  1

  9
$CAMERADISPLAY
290
     0
  9
$LENSLENGTH
 40
50.0
  9
$CAMERAHEIGHT
 40
0.0
  9
$STEPSPERSEC
 40
2.0
  9
$STEPSIZE
 40
6.0
  9
$3DDWFPREC
 40
2.0
  9
$PSOLWIDTH
 40
0.25
  9
$PSOLHEIGHT
 40
4.0
  9
$LOFTANG1
 40
1.570796326794897
  9
$LOFTANG2
 40
1.570796326794897
  9
$LOFTMAG1
 40
0.0
  9
$LOFTMAG2
 40
0.0
  9
$LOFTPARAM
 70
     7
  9
$LOFTNORMALS
280
     1
  9
$LATITUDE
 40
37.795
  9
$LONGITUDE
 40
-122.394
  9
$NORTHDIRECTION
 40
0.0
  9
$TIMEZONE
 70
 -8000
  9
$LIGHTGLYPHDISPLAY
280
     1
  9
$TILEMODELIGHTSYNCH
280
     1
  9
$CMATERIAL
347
44
  9
$SOLIDHIST
280
     1
  9
$SHOWHIST
280
     1
  9
$DWFFRAME
280
     2
  9
$DGNFRAME
280
     2
  9
$REALWORLDSCALE
290
     1
  9
$INTERFERECOLOR
 62
   256
  9
$CSHADOW
280
     0
  9
$SHADOWPLANELOCATION
 40
0.0
  0
ENDSEC
  0
SECTION
  2
CLASSES
  0
CLASS
  1
ACDBDICTIONARYWDFLT
  2
AcDbDictionaryWithDefault
  3
ObjectDBX Classes
 90
        0
 91
        4
280
     0
281
     0
  0
CLASS
  1
VISUALSTYLE
  2
AcDbVisualStyle
  3
ObjectDBX Classes
 90
     4095
 91
        4
280
     0
281
     0
  0
CLASS
  1
MATERIAL
  2
AcDbMaterial
  3
ObjectDBX Classes
 90
     1153
 91
        4
280
     0
281
     0
  0
CLASS
  1
SCALE
  2
AcDbScale
  3
ObjectDBX Classes
 90
     1153
 91
        4
280
     0
281
     0
  0
CLASS
  1
SUN
  2
AcDbSun
  3
SCENEOE
 90
     1153
 91
        4
280
     0
281
     0
  0
CLASS
  1
DICTIONARYVAR
  2
AcDbDictionaryVar
  3
ObjectDBX Classes
 90
        0
 91
        4
280
     0
281
     0
  0
ENDSEC
  0
SECTION
  2
TABLES
  0
TABLE
  2
VPORT
  5
8
330
0
100
AcDbSymbolTable
 70
     1
  0
VPORT
  5
29
330
8
100
AcDbSymbolTableRecord
100
AcDbViewportTableRecord
  2
*Active
 70
     0
 10
0.0
 20
0.0
 11
1.0
 21
1.0
 12
0.0
 22
0.0
 13
0.0
 23
0.0
 14
0.5
 24
0.5
 15
0.5
 25
0.5
 16
0.0
 26
0.0
 36
1.0
 17
0.0000000000001101
 27
0.0
 37
0.0
 40
1653.967658324249
 41
1.45787614882569
 42
50.0
 43
0.0
 44
0.0
 50
0.0
 51
0.0
 71
     0
 72
  1000
 73
     1
 74
     1
 75
     0
 76
     0
 77
     0
 78
     0
281
     0
 65
     1
110
0.0
120
0.0
130
0.0
111
1.0
121
0.0
131
0.0
112
0.0
122
1.0
132
0.0
 79
     0
146
0.0
 60
     3
 61
     5
292
     1
282
     1
141
0.0
142
0.0
 63
   250
361
69
  0
ENDTAB
  0
TABLE
  2
LTYPE
  5
5
330
0
100
AcDbSymbolTable
 70
    67
  0
LTYPE
  5
14
330
5
100
AcDbSymbolTableRecord
100
AcDbLinetypeTableRecord
  2
ByBlock
 70
     0
  3

 72
    65
 73
     0
 40
0.0
  0
LTYPE
  5
15
330
5
100
AcDbSymbolTableRecord
100
AcDbLinetypeTableRecord
  2
ByLayer
 70
     0
  3

 72
    65
 73
     0
 40
0.0
  0
LTYPE
  5
16
330
5
100
AcDbSymbolTableRecord
100
AcDbLinetypeTableRecord
  2
Continuous
 70
     0
  3
Solid line
 72
    65
 73
     0
 40
0.0
  0
LTYPE
  5
6B
330
5
100
AcDbSymbolTableRecord
100
AcDbLinetypeTableRecord
  2
HIDDENX2
 70
     0
  3
Hidden (2x) ____ ____ ____ ____ ____ ____ ____ 
 72
    65
 73
     2
 40
19.05
 49
12.7
 74
     0
 49
-6.35
 74
     0
  0
LTYPE
  5
6C
330
5
100
AcDbSymbolTableRecord
100
AcDbLinetypeTableRecord
  2
HIDDEN
 70
     0
  3
Hidden __ __ __ __ __ __ __ __ __ __ __ __ __ __
 72
    65
 73
     2
 40
9.524999999999999
 49
6.35
 74
     0
 49
-3.175
 74
     0
  0
LTYPE
  5
6D
330
5
100
AcDbSymbolTableRecord
100
AcDbLinetypeTableRecord
  2
HIDDEN2
 70
     0
  3
Hidden (.5x) _ _ _ _ _ _ _ _ _ _ _ _ _ _ _ _ _ 
 72
    65
 73
     2
 40
4.762499999999999
 49
3.175
 74
     0
 49
-1.5875
 74
     0
  0
LTYPE
  5
6E
330
5
100
AcDbSymbolTableRecord
100
AcDbLinetypeTableRecord
  2
DASHED
 70
     0
  3
Dashed __ __ __ __ __ __ __ __ __ __ __ __ __ _
 72
    65
 73
     2
 40
19.05
 49
12.7
 74
     0
 49
-6.35
 74
     0
  0
LTYPE
  5
6F
330
5
100
AcDbSymbolTableRecord
100
AcDbLinetypeTableRecord
  2
DASHED2
 70
     0
  3
Dashed (.5x) _ _ _ _ _ _ _ _ _ _ _ _ _ _ _ _ _ 
 72
    65
 73
     2
 40
9.524999999999999
 49
6.35
 74
     0
 49
-3.175
 74
     0
  0
LTYPE
  5
70
330
5
100
AcDbSymbolTableRecord
100
AcDbLinetypeTableRecord
  2
DASHEDX2
 70
     0
  3
Dashed (2x) ____  ____  ____  ____  ____  ___
 72
    65
 73
     2
 40
38.09999999999999
 49
25.4
 74
     0
 49
-12.7
 74
     0
  0
LTYPE
  5
71
330
5
100
AcDbSymbolTableRecord
100
AcDbLinetypeTableRecord
  2
DOTX2
 70
     0
  3
Dot (2x) .  .  .  .  .  .  .  .  .  .  .  .  .  .
 72
    65
 73
     2
 40
12.7
 49
0.0
 74
     0
 49
-12.7
 74
     0
  0
LTYPE
  5
72
330
5
100
AcDbSymbolTableRecord
100
AcDbLinetypeTableRecord
  2
DOT
 70
     0
  3
Dot . . . . . . . . . . . . . . . . . . . . . . . .
 72
    65
 73
     2
 40
6.35
 49
0.0
 74
     0
 49
-6.35
 74
     0
  0
LTYPE
  5
73
330
5
100
AcDbSymbolTableRecord
100
AcDbLinetypeTableRecord
  2
DOT2
 70
     0
  3
Dot (.5x) ........................................
 72
    65
 73
     2
 40
3.175
 49
0.0
 74
     0
 49
-3.175
 74
     0
  0
LTYPE
  5
74
330
5
100
AcDbSymbolTableRecord
100
AcDbLinetypeTableRecord
  2
CENTERX2
 70
     0
  3
Center (2x) ________  __  ________  __  _____
 72
    65
 73
     4
 40
101.6
 49
63.5
 74
     0
 49
-12.7
 74
     0
 49
12.7
 74
     0
 49
-12.7
 74
     0
  0
LTYPE
  5
75
330
5
100
AcDbSymbolTableRecord
100
AcDbLinetypeTableRecord
  2
CENTER
 70
     0
  3
Center ____ _ ____ _ ____ _ ____ _ ____ _ ____
 72
    65
 73
     4
 40
50.8
 49
31.75
 74
     0
 49
-6.35
 74
     0
 49
6.35
 74
     0
 49
-6.35
 74
     0
  0
LTYPE
  5
76
330
5
100
AcDbSymbolTableRecord
100
AcDbLinetypeTableRecord
  2
CENTER2
 70
     0
  3
Center (.5x) ___ _ ___ _ ___ _ ___ _ ___ _ ___
 72
    65
 73
     4
 40
28.575
 49
19.05
 74
     0
 49
-3.175
 74
     0
 49
3.175
 74
     0
 49
-3.175
 74
     0
  0
LTYPE
  5
77
330
5
100
AcDbSymbolTableRecord
100
AcDbLinetypeTableRecord
  2
DASHDOTX2
 70
     0
  3
Dash dot (2x) ____  .  ____  .  ____  .  ___
 72
    65
 73
     4
 40
50.8
 49
25.4
 74
     0
 49
-12.7
 74
     0
 49
0.0
 74
     0
 49
-12.7
 74
     0
  0
LTYPE
  5
78
330
5
100
AcDbSymbolTableRecord
100
AcDbLinetypeTableRecord
  2
DASHDOT
 70
     0
  3
Dash dot __ . __ . __ . __ . __ . __ . __ . __
 72
    65
 73
     4
 40
25.4
 49
12.7
 74
     0
 49
-6.35
 74
     0
 49
0.0
 74
     0
 49
-6.35
 74
     0
  0
LTYPE
  5
79
330
5
100
AcDbSymbolTableRecord
100
AcDbLinetypeTableRecord
  2
DASHDOT2
 70
     0
  3
Dash dot (.5x) _._._._._._._._._._._._._._._.
 72
    65
 73
     4
 40
12.7
 49
6.35
 74
     0
 49
-3.175
 74
     0
 49
0.0
 74
     0
 49
-3.175
 74
     0
  0
LTYPE
  5
7A
330
5
100
AcDbSymbolTableRecord
100
AcDbLinetypeTableRecord
  2
DIVIDEX2
 70
     0
  3
Divide (2x) ________  .  .  ________  .  .  _
 72
    65
 73
     6
 40
63.5
 49
25.4
 74
     0
 49
-12.7
 74
     0
 49
0.0
 74
     0
 49
-12.7
 74
     0
 49
0.0
 74
     0
 49
-12.7
 74
     0
  0
LTYPE
  5
7B
330
5
100
AcDbSymbolTableRecord
100
AcDbLinetypeTableRecord
  2
DIVIDE
 70
     0
  3
Divide ____ . . ____ . . ____ . . ____ . . ____
 72
    65
 73
     6
 40
31.75
 49
12.7
 74
     0
 49
-6.35
 74
     0
 49
0.0
 74
     0
 49
-6.35
 74
     0
 49
0.0
 74
     0
 49
-6.35
 74
     0
  0
LTYPE
  5
7C
330
5
100
AcDbSymbolTableRecord
100
AcDbLinetypeTableRecord
  2
DIVIDE2
 70
     0
  3
Divide (.5x) __..__..__..__..__..__..__..__.._
 72
    65
 73
     6
 40
15.875
 49
6.35
 74
     0
 49
-3.175
 74
     0
 49
0.0
 74
     0
 49
-3.175
 74
     0
 49
0.0
 74
     0
 49
-3.175
 74
     0
  0
LTYPE
  5
7D
330
5
100
AcDbSymbolTableRecord
100
AcDbLinetypeTableRecord
  2
BORDERX2
 70
     0
  3
Border (2x) ____  ____  .  ____  ____  .  ___
 72
    65
 73
     6
 40
88.89999999999999
 49
25.4
 74
     0
 49
-12.7
 74
     0
 49
25.4
 74
     0
 49
-12.7
 74
     0
 49
0.0
 74
     0
 49
-12.7
 74
     0
  0
LTYPE
  5
7E
330
5
100
AcDbSymbolTableRecord
100
AcDbLinetypeTableRecord
  2
BORDER
 70
     0
  3
Border __ __ . __ __ . __ __ . __ __ . __ __ .
 72
    65
 73
     6
 40
44.45
 49
12.7
 74
     0
 49
-6.35
 74
     0
 49
12.7
 74
     0
 49
-6.35
 74
     0
 49
0.0
 74
     0
 49
-6.35
 74
     0
  0
LTYPE
  5
7F
330
5
100
AcDbSymbolTableRecord
100
AcDbLinetypeTableRecord
  2
BORDER2
 70
     0
  3
Border (.5x) __.__.__.__.__.__.__.__.__.__.__.
 72
    65
 73
     6
 40
22.225
 49
6.35
 74
     0
 49
-3.175
 74
     0
 49
6.35
 74
     0
 49
-3.175
 74
     0
 49
0.0
 74
     0
 49
-3.175
 74
     0
  0
LTYPE
  5
80
330
5
100
AcDbSymbolTableRecord
100
AcDbLinetypeTableRecord
  2
PHANTOMX2
 70
     0
  3
Phantom (2x) ____________    ____    ____   _
 72
    65
 73
     6
 40
127.0
 49
63.5
 74
     0
 49
-12.7
 74
     0
 49
12.7
 74
     0
 49
-12.7
 74
     0
 49
12.7
 74
     0
 49
-12.7
 74
     0
  0
LTYPE
  5
81
330
5
100
AcDbSymbolTableRecord
100
AcDbLinetypeTableRecord
  2
PHANTOM
 70
     0
  3
Phantom ______  __  __  ______  __  __  ______ 
 72
    65
 73
     6
 40
63.5
 49
31.75
 74
     0
 49
-6.35
 74
     0
 49
6.35
 74
     0
 49
-6.35
 74
     0
 49
6.35
 74
     0
 49
-6.35
 74
     0
  0
LTYPE
  5
82
330
5
100
AcDbSymbolTableRecord
100
AcDbLinetypeTableRecord
  2
PHANTOM2
 70
     0
  3
Phantom (.5x) ___ _ _ ___ _ _ ___ _ _ ___ _ _
 72
    65
 73
     6
 40
31.75
 49
15.875
 74
     0
 49
-3.175
 74
     0
 49
3.175
 74
     0
 49
-3.175
 74
     0
 49
3.175
 74
     0
 49
-3.175
 74
     0
  0
LTYPE
  5
83
330
5
100
AcDbSymbolTableRecord
100
AcDbLinetypeTableRecord
  2
ACAD_ISO06W100
 70
     0
  3
ISO long-dash triple-dot ____ ... ____ ... ____
 72
    65
 73
     8
 40
36.0
 49
24.0
 74
     0
 49
-3.0
 74
     0
 49
0.0
 74
     0
 49
-3.0
 74
     0
 49
0.0
 74
     0
 49
-3.0
 74
     0
 49
0.0
 74
     0
 49
-3.0
 74
     0
  0
LTYPE
  5
84
330
5
100
AcDbSymbolTableRecord
100
AcDbLinetypeTableRecord
  2
ACAD_ISO13W100
 70
     0
  3
ISO double-dash double-dot __ __ . . __ __ . . _
 72
    65
 73
     8
 40
36.0
 49
12.0
 74
     0
 49
-3.0
 74
     0
 49
12.0
 74
     0
 49
-3.0
 74
     0
 49
0.0
 74
     0
 49
-3.0
 74
     0
 49
0.0
 74
     0
 49
-3.0
 74
     0
  0
LTYPE
  5
85
330
5
100
AcDbSymbolTableRecord
100
AcDbLinetypeTableRecord
  2
ACAD_ISO14W100
 70
     0
  3
ISO dash triple-dot __ . . . __ . . . __ . . . _
 72
    65
 73
     8
 40
24.0
 49
12.0
 74
     0
 49
-3.0
 74
     0
 49
0.0
 74
     0
 49
-3.0
 74
     0
 49
0.0
 74
     0
 49
-3.0
 74
     0
 49
0.0
 74
     0
 49
-3.0
 74
     0
  0
LTYPE
  5
86
330
5
100
AcDbSymbolTableRecord
100
AcDbLinetypeTableRecord
  2
ACAD_ISO02W100
 70
     0
  3
ISO dash __ __ __ __ __ __ __ __ __ __ __ __ __
 72
    65
 73
     2
 40
15.0
 49
12.0
 74
     0
 49
-3.0
 74
     0
  0
LTYPE
  5
87
330
5
100
AcDbSymbolTableRecord
100
AcDbLinetypeTableRecord
  2
ACAD_ISO03W100
 70
     0
  3
ISO dash space __    __    __    __    __    __
 72
    65
 73
     2
 40
30.0
 49
12.0
 74
     0
 49
-18.0
 74
     0
  0
LTYPE
  5
88
330
5
100
AcDbSymbolTableRecord
100
AcDbLinetypeTableRecord
  2
ACAD_ISO04W100
 70
     0
  3
ISO long-dash dot ____ . ____ . ____ . ____ . _
 72
    65
 73
     4
 40
30.0
 49
24.0
 74
     0
 49
-3.0
 74
     0
 49
0.0
 74
     0
 49
-3.0
 74
     0
  0
LTYPE
  5
89
330
5
100
AcDbSymbolTableRecord
100
AcDbLinetypeTableRecord
  2
ACAD_ISO05W100
 70
     0
  3
ISO long-dash double-dot ____ .. ____ .. ____ . 
 72
    65
 73
     6
 40
33.0
 49
24.0
 74
     0
 49
-3.0
 74
     0
 49
0.0
 74
     0
 49
-3.0
 74
     0
 49
0.0
 74
     0
 49
-3.0
 74
     0
  0
LTYPE
  5
8A
330
5
100
AcDbSymbolTableRecord
100
AcDbLinetypeTableRecord
  2
ACAD_ISO07W100
 70
     0
  3
ISO dot . . . . . . . . . . . . . . . . . . . . 
 72
    65
 73
     2
 40
3.0
 49
0.0
 74
     0
 49
-3.0
 74
     0
  0
LTYPE
  5
8B
330
5
100
AcDbSymbolTableRecord
100
AcDbLinetypeTableRecord
  2
ACAD_ISO08W100
 70
     0
  3
ISO long-dash short-dash ____ __ ____ __ ____ _
 72
    65
 73
     4
 40
36.0
 49
24.0
 74
     0
 49
-3.0
 74
     0
 49
6.0
 74
     0
 49
-3.0
 74
     0
  0
LTYPE
  5
8C
330
5
100
AcDbSymbolTableRecord
100
AcDbLinetypeTableRecord
  2
ACAD_ISO09W100
 70
     0
  3
ISO long-dash double-short-dash ____ __ __ ____
 72
    65
 73
     6
 40
45.0
 49
24.0
 74
     0
 49
-3.0
 74
     0
 49
6.0
 74
     0
 49
-3.0
 74
     0
 49
6.0
 74
     0
 49
-3.0
 74
     0
  0
LTYPE
  5
8D
330
5
100
AcDbSymbolTableRecord
100
AcDbLinetypeTableRecord
  2
ACAD_ISO10W100
 70
     0
  3
ISO dash dot __ . __ . __ . __ . __ . __ . __ . 
 72
    65
 73
     4
 40
18.0
 49
12.0
 74
     0
 49
-3.0
 74
     0
 49
0.0
 74
     0
 49
-3.0
 74
     0
  0
LTYPE
  5
8E
330
5
100
AcDbSymbolTableRecord
100
AcDbLinetypeTableRecord
  2
ACAD_ISO11W100
 70
     0
  3
ISO double-dash dot __ __ . __ __ . __ __ . __ _
 72
    65
 73
     6
 40
33.0
 49
12.0
 74
     0
 49
-3.0
 74
     0
 49
12.0
 74
     0
 49
-3.0
 74
     0
 49
0.0
 74
     0
 49
-3.0
 74
     0
  0
LTYPE
  5
8F
330
5
100
AcDbSymbolTableRecord
100
AcDbLinetypeTableRecord
  2
ACAD_ISO12W100
 70
     0
  3
ISO dash double-dot __ . . __ . . __ . . __ . . 
 72
    65
 73
     6
 40
21.0
 49
12.0
 74
     0
 49
-3.0
 74
     0
 49
0.0
 74
     0
 49
-3.0
 74
     0
 49
0.0
 74
     0
 49
-3.0
 74
     0
  0
LTYPE
  5
90
330
5
100
AcDbSymbolTableRecord
100
AcDbLinetypeTableRecord
  2
ACAD_ISO15W100
 70
     0
  3
ISO double-dash triple-dot __ __ . . . __ __ . .
 72
    65
 73
    10
 40
39.0
 49
12.0
 74
     0
 49
-3.0
 74
     0
 49
12.0
 74
     0
 49
-3.0
 74
     0
 49
0.0
 74
     0
 49
-3.0
 74
     0
 49
0.0
 74
     0
 49
-3.0
 74
     0
 49
0.0
 74
     0
 49
-3.0
 74
     0
  0
LTYPE
  5
91
330
5
100
AcDbSymbolTableRecord
100
AcDbLinetypeTableRecord
  2
JIS_02_0.7
 70
     0
  3
HIDDEN0.75 _ _ _ _ _ _ _ _ _ _ _ _ _ _ _ _ _ 
 72
    65
 73
     2
 40
1.35
 49
0.75
 74
     0
 49
-0.6
 74
     0
  0
LTYPE
  5
92
330
5
100
AcDbSymbolTableRecord
100
AcDbLinetypeTableRecord
  2
JIS_02_1.0
 70
     0
  3
HIDDEN01 _ _ _ _ _ _ _ _ _ _ _ _ _ _ _ _ _ 
 72
    65
 73
     2
 40
2.0
 49
1.0
 74
     0
 49
-1.0
 74
     0
  0
LTYPE
  5
93
330
5
100
AcDbSymbolTableRecord
100
AcDbLinetypeTableRecord
  2
JIS_02_1.2
 70
     0
  3
HIDDEN01.25  _ _ _ _ _ _ _ _ _ _ _ _ _ _ _ _ _ 
 72
    65
 73
     2
 40
2.5
 49
1.25
 74
     0
 49
-1.25
 74
     0
  0
LTYPE
  5
94
330
5
100
AcDbSymbolTableRecord
100
AcDbLinetypeTableRecord
  2
JIS_02_2.0
 70
     0
  3
HIDDEN02 __ __ __ __ __ __ __ __ __ __ __ 
 72
    65
 73
     2
 40
3.0
 49
2.0
 74
     0
 49
-1.0
 74
     0
  0
LTYPE
  5
95
330
5
100
AcDbSymbolTableRecord
100
AcDbLinetypeTableRecord
  2
JIS_02_4.0
 70
     0
  3
HIDDEN04 ____ ____ ____ ____ ____ ____ ____ 
 72
    65
 73
     2
 40
5.5
 49
4.0
 74
     0
 49
-1.5
 74
     0
  0
LTYPE
  5
96
330
5
100
AcDbSymbolTableRecord
100
AcDbLinetypeTableRecord
  2
JIS_08_11
 70
     0
  3
1SASEN11 ___ _ ___ _ ___ _ ___ _ ___ _ ___
 72
    65
 73
     4
 40
12.8
 49
11.0
 74
     0
 49
-0.6
 74
     0
 49
0.6
 74
     0
 49
-0.6
 74
     0
  0
LTYPE
  5
97
330
5
100
AcDbSymbolTableRecord
100
AcDbLinetypeTableRecord
  2
JIS_08_15
 70
     0
  3
1SASEN15 ____ _ ____ _ ____ _ ____ _ ____ 
 72
    65
 73
     4
 40
17.25
 49
15.0
 74
     0
 49
-0.75
 74
     0
 49
0.75
 74
     0
 49
-0.75
 74
     0
  0
LTYPE
  5
98
330
5
100
AcDbSymbolTableRecord
100
AcDbLinetypeTableRecord
  2
JIS_08_25
 70
     0
  3
1SASEN25 ________  __  ________  __  _____
 72
    65
 73
     4
 40
28.0
 49
25.0
 74
     0
 49
-1.125
 74
     0
 49
0.75
 74
     0
 49
-1.125
 74
     0
  0
LTYPE
  5
99
330
5
100
AcDbSymbolTableRecord
100
AcDbLinetypeTableRecord
  2
JIS_08_37
 70
     0
  3
1SASEN37 ________  __  ________  __  _____
 72
    65
 73
     4
 40
40.5
 49
37.5
 74
     0
 49
-1.125
 74
     0
 49
0.75
 74
     0
 49
-1.125
 74
     0
  0
LTYPE
  5
9A
330
5
100
AcDbSymbolTableRecord
100
AcDbLinetypeTableRecord
  2
JIS_08_50
 70
     0
  3
1SASEN50 _______________  __  ____________
 72
    65
 73
     4
 40
53.0
 49
50.0
 74
     0
 49
-1.125
 74
     0
 49
0.75
 74
     0
 49
-1.125
 74
     0
  0
LTYPE
  5
9B
330
5
100
AcDbSymbolTableRecord
100
AcDbLinetypeTableRecord
  2
JIS_09_08
 70
     0
  3
2SASEN8 __ _ _ __ _ _ __ _ _ __ _ _ __ _ _ 
 72
    65
 73
     6
 40
10.75
 49
8.0
 74
     0
 49
-0.55
 74
     0
 49
0.55
 74
     0
 49
-0.55
 74
     0
 49
0.55
 74
     0
 49
-0.55
 74
     0
  0
LTYPE
  5
9C
330
5
100
AcDbSymbolTableRecord
100
AcDbLinetypeTableRecord
  2
JIS_09_15
 70
     0
  3
2SASEN15 ___ _ _ ___ _ _ ___ _ _ ___ _ _ ___ 
 72
    65
 73
     6
 40
18.9
 49
15.0
 74
     0
 49
-0.9
 74
     0
 49
0.6
 74
     0
 49
-0.9
 74
     0
 49
0.6
 74
     0
 49
-0.9
 74
     0
  0
LTYPE
  5
9D
330
5
100
AcDbSymbolTableRecord
100
AcDbLinetypeTableRecord
  2
JIS_09_29
 70
     0
  3
2SASEN29 ______　__  __  ______　__  __  ___
 72
    65
 73
     6
 40
34.0
 49
29.0
 74
     0
 49
-1.2
 74
     0
 49
0.7
 74
     0
 49
-1.2
 74
     0
 49
0.7
 74
     0
 49
-1.2
 74
     0
  0
LTYPE
  5
9E
330
5
100
AcDbSymbolTableRecord
100
AcDbLinetypeTableRecord
  2
JIS_09_50
 70
     0
  3
2SASEN50 ____________　__  __  _____________
 72
    65
 73
     6
 40
55.0
 49
50.0
 74
     0
 49
-1.2
 74
     0
 49
0.7
 74
     0
 49
-1.2
 74
     0
 49
0.7
 74
     0
 49
-1.2
 74
     0
  0
LTYPE
  5
9F
330
5
100
AcDbSymbolTableRecord
100
AcDbLinetypeTableRecord
  2
SXF_破線
 70
     0
  3
02 dashed -- -- -- -- -- --
 72
    65
 73
     2
 40
7.5
 49
6.0
 74
     0
 49
-1.5
 74
     0
  0
LTYPE
  5
A0
330
5
100
AcDbSymbolTableRecord
100
AcDbLinetypeTableRecord
  2
SXF_跳び破線
 70
     0
  3
03 dashed_spaced --  --  --  --
 72
    65
 73
     2
 40
12.0
 49
6.0
 74
     0
 49
-6.0
 74
     0
  0
LTYPE
  5
A1
330
5
100
AcDbSymbolTableRecord
100
AcDbLinetypeTableRecord
  2
SXF_一点長鎖線
 70
     0
  3
04 long_dashed_dotted ---- . ---- . ----
 72
    65
 73
     4
 40
15.25
 49
12.0
 74
     0
 49
-1.5
 74
     0
 49
0.25
 74
     0
 49
-1.5
 74
     0
  0
LTYPE
  5
A2
330
5
100
AcDbSymbolTableRecord
100
AcDbLinetypeTableRecord
  2
SXF_二点長鎖線
 70
     0
  3
05 long_dashed_double-dotted ---- . . ---- 
 72
    65
 73
     6
 40
17.0
 49
12.0
 74
     0
 49
-1.5
 74
     0
 49
0.25
 74
     0
 49
-1.5
 74
     0
 49
0.25
 74
     0
 49
-1.5
 74
     0
  0
LTYPE
  5
A3
330
5
100
AcDbSymbolTableRecord
100
AcDbLinetypeTableRecord
  2
SXF_三点長鎖線
 70
     0
  3
06 long_dashed_triplicate-dotted ---- ... ---- 
 72
    65
 73
     8
 40
18.75
 49
12.0
 74
     0
 49
-1.5
 74
     0
 49
0.25
 74
     0
 49
-1.5
 74
     0
 49
0.25
 74
     0
 49
-1.5
 74
     0
 49
0.25
 74
     0
 49
-1.5
 74
     0
  0
LTYPE
  5
A4
330
5
100
AcDbSymbolTableRecord
100
AcDbLinetypeTableRecord
  2
SXF_点線
 70
     0
  3
07 dotted . . . . . . . . . . . . 
 72
    65
 73
     2
 40
1.75
 49
0.25
 74
     0
 49
-1.5
 74
     0
  0
LTYPE
  5
A5
330
5
100
AcDbSymbolTableRecord
100
AcDbLinetypeTableRecord
  2
SXF_一点鎖線
 70
     0
  3
08 chain ---- - --- - --- - ---
 72
    65
 73
     4
 40
18.5
 49
12.0
 74
     0
 49
-1.5
 74
     0
 49
3.5
 74
     0
 49
-1.5
 74
     0
  0
LTYPE
  5
A6
330
5
100
AcDbSymbolTableRecord
100
AcDbLinetypeTableRecord
  2
SXF_二点鎖線
 70
     0
  3
09 chain_double_dash ---- - - ---- - - ----
 72
    65
 73
     6
 40
23.5
 49
12.0
 74
     0
 49
-1.5
 74
     0
 49
3.5
 74
     0
 49
-1.5
 74
     0
 49
3.5
 74
     0
 49
-1.5
 74
     0
  0
LTYPE
  5
A7
330
5
100
AcDbSymbolTableRecord
100
AcDbLinetypeTableRecord
  2
SXF_一点短鎖線
 70
     0
  3
10 dashed_dotted -- . -- . -- . --
 72
    65
 73
     4
 40
9.25
 49
6.0
 74
     0
 49
-1.5
 74
     0
 49
0.25
 74
     0
 49
-1.5
 74
     0
  0
LTYPE
  5
A8
330
5
100
AcDbSymbolTableRecord
100
AcDbLinetypeTableRecord
  2
SXF_一点二短鎖線
 70
     0
  3
11 double-dashed_dotted -- -- . -- --
 72
    65
 73
     6
 40
16.75
 49
6.0
 74
     0
 49
-1.5
 74
     0
 49
6.0
 74
     0
 49
-1.5
 74
     0
 49
0.25
 74
     0
 49
-1.5
 74
     0
  0
LTYPE
  5
A9
330
5
100
AcDbSymbolTableRecord
100
AcDbLinetypeTableRecord
  2
SXF_二点短鎖線
 70
     0
  3
12 dashed_double_dotted -- . . -- . . --
 72
    65
 73
     6
 40
11.0
 49
6.0
 74
     0
 49
-1.5
 74
     0
 49
0.25
 74
     0
 49
-1.5
 74
     0
 49
0.25
 74
     0
 49
-1.5
 74
     0
  0
LTYPE
  5
AA
330
5
100
AcDbSymbolTableRecord
100
AcDbLinetypeTableRecord
  2
SXF_二点二短鎖線
 70
     0
  3
13 double-dashed_double-dotted -- -- . . -- --
 72
    65
 73
     8
 40
18.5
 49
6.0
 74
     0
 49
-1.5
 74
     0
 49
6.0
 74
     0
 49
-1.5
 74
     0
 49
0.25
 74
     0
 49
-1.5
 74
     0
 49
0.25
 74
     0
 49
-1.5
 74
     0
  0
LTYPE
  5
AB
330
5
100
AcDbSymbolTableRecord
100
AcDbLinetypeTableRecord
  2
SXF_三点短鎖線
 70
     0
  3
14 dashed triplicate-dotted -- . . . -- . . . --
 72
    65
 73
     8
 40
12.75
 49
6.0
 74
     0
 49
-1.5
 74
     0
 49
0.25
 74
     0
 49
-1.5
 74
     0
 49
0.25
 74
     0
 49
-1.5
 74
     0
 49
0.25
 74
     0
 49
-1.5
 74
     0
  0
LTYPE
  5
AC
330
5
100
AcDbSymbolTableRecord
100
AcDbLinetypeTableRecord
  2
SXF_三点二短鎖線
 70
     0
  3
15 double-dashed triplicate-dotted -- -- . . . -- -- 
 72
    65
 73
    10
 40
20.25
 49
6.0
 74
     0
 49
-1.5
 74
     0
 49
6.0
 74
     0
 49
-1.5
 74
     0
 49
0.25
 74
     0
 49
-1.5
 74
     0
 49
0.25
 74
     0
 49
-1.5
 74
     0
 49
0.25
 74
     0
 49
-1.5
 74
     0
  0
ENDTAB
  0
TABLE
  2
LAYER
  5
2
330
0
100
AcDbSymbolTable
 70
     3
  0
LAYER
  5
10
330
2
100
AcDbSymbolTableRecord
100
AcDbLayerTableRecord
  2
0
 70
     0
 62
     7
  6
Continuous
370
    -3
390
F
347
46
  0
LAYER
  5
AD
330
2
100
AcDbSymbolTableRecord
100
AcDbLayerTableRecord
  2
2
 70
     0
 62
     7
  6
Continuous
370
    -3
390
F
347
46
  0
LAYER
  5
AE
330
2
100
AcDbSymbolTableRecord
100
AcDbLayerTableRecord
  2
ZUWAKU
 70
     0
 62
     7
  6
Continuous
370
    -3
390
F
347
46
  0
ENDTAB
  0
TABLE
  2
STYLE
  5
3
330
0
100
AcDbSymbolTable
 70
     3
  0
STYLE
  5
11
330
3
100
AcDbSymbolTableRecord
100
AcDbTextStyleTableRecord
  2
Standard
 70
     0
 40
0.0
 41
1.0
 50
0.0
 71
     0
 42
0.2
  3
txt.shx
  4
bigfont.shx
  0
STYLE
  5
1CF
330
3
100
AcDbSymbolTableRecord
100
AcDbTextStyleTableRecord
  2
dcStyle0
 70
     0
 40
0.0
 41
0.75
 50
0.0
 71
     0
 42
0.2
  3
ＭＳ Ｐゴシック
  4

1001
ACAD
1000
ＭＳ Ｐゴシック
1071
    32802
  0
STYLE
  5
20D
330
3
100
AcDbSymbolTableRecord
100
AcDbTextStyleTableRecord
  2
dcStyle1
 70
     0
 40
0.0
 41
1.2
 50
0.0
 71
     0
 42
0.2
  3
txt.shx
  4
bigfont
  0
ENDTAB
  0
TABLE
  2
VIEW
  5
6
330
0
100
AcDbSymbolTable
 70
     0
  0
ENDTAB
  0
TABLE
  2
UCS
  5
7
330
0
100
AcDbSymbolTable
 70
     0
  0
ENDTAB
  0
TABLE
  2
APPID
  5
9
330
0
100
AcDbSymbolTable
 70
     2
  0
APPID
  5
12
330
9
100
AcDbSymbolTableRecord
100
AcDbRegAppTableRecord
  2
ACAD
 70
     0
  0
APPID
  5
6A
330
9
100
AcDbSymbolTableRecord
100
AcDbRegAppTableRecord
  2
DaFusionOut
 70
     0
  0
ENDTAB
  0
TABLE
  2
DIMSTYLE
  5
A
330
0
100
AcDbSymbolTable
 70
     3
100
AcDbDimStyleTable
  0
DIMSTYLE
105
27
330
A
100
AcDbSymbolTableRecord
100
AcDbDimStyleTableRecord
  2
Standard
 70
     0
178
     0
340
11
  0
DIMSTYLE
105
3C4
102
{ACAD_REACTORS
330
3C3
330
3C5
330
3C6
330
3C7
330
3C8
330
3C9
330
3CA
330
3CB
330
3CC
330
3CD
330
3CE
330
3CF
330
3D0
330
3D6
330
3D7
330
3D8
330
3D9
330
3DA
330
3DB
330
3DC
330
3DD
330
3DE
330
3E0
330
3E1
330
3E7
330
3E8
102
}
330
A
100
AcDbSymbolTableRecord
100
AcDbDimStyleTableRecord
  2
dc_Rotated
 70
     0
 41
18.0000114440918
 42
6.0
 44
3.0
 90
        1
 73
     0
 74
     0
 77
     3
 78
     8
 79
     2
140
24.0
147
5.0
172
     1
173
     1
176
     2
177
     2
271
     2
178
     2
271
     2
274
     4
283
     0
284
     8
288
     1
340
1CF
343
1C5
344
1C5
  0
DIMSTYLE
105
3D2
102
{ACAD_REACTORS
330
3D1
102
}
330
A
100
AcDbSymbolTableRecord
100
AcDbDimStyleTableRecord
  2
dc_Diam06
 70
     0
 41
18.0000114440918
 42
6.0
 44
6.0
 90
        1
 77
     2
 78
     8
 79
     2
140
24.0
147
6.0
173
     1
176
     2
177
     2
271
     2
178
     2
271
     2
274
     4
283
     0
284
     8
288
     1
340
1CF
343
1C5
344
1C5
  0
ENDTAB
  0
TABLE
  2
BLOCK_RECORD
  5
1
330
0
100
AcDbSymbolTable
 70
    94
  0
BLOCK_RECORD
  5
1F
330
1
100
AcDbSymbolTableRecord
100
AcDbBlockTableRecord
  2
*Model_Space
340
22
 70
     0
280
     1
281
     0
  0
BLOCK_RECORD
  5
1B
330
1
100
AcDbSymbolTableRecord
100
AcDbBlockTableRecord
  2
*Paper_Space
340
1E
 70
     0
280
     1
281
     0
  0
BLOCK_RECORD
  5
23
330
1
100
AcDbSymbolTableRecord
100
AcDbBlockTableRecord
  2
*Paper_Space0
340
26
 70
     0
280
     1
281
     0
  0
BLOCK_RECORD
  5
B0
330
1
100
AcDbSymbolTableRecord
100
AcDbBlockTableRecord
  2
*D1
340
0
 70
     0
280
     1
281
     0
  0
BLOCK_RECORD
  5
B3
330
1
100
AcDbSymbolTableRecord
100
AcDbBlockTableRecord
  2
*D2
340
0
 70
     0
280
     1
281
     0
  0
BLOCK_RECORD
  5
B6
330
1
100
AcDbSymbolTableRecord
100
AcDbBlockTableRecord
  2
*D3
340
0
 70
     0
280
     1
281
     0
  0
BLOCK_RECORD
  5
B9
330
1
100
AcDbSymbolTableRecord
100
AcDbBlockTableRecord
  2
*D4
340
0
 70
     0
280
     1
281
     0
  0
BLOCK_RECORD
  5
BC
330
1
100
AcDbSymbolTableRecord
100
AcDbBlockTableRecord
  2
*D5
340
0
 70
     0
280
     1
281
     0
  0
BLOCK_RECORD
  5
BF
330
1
100
AcDbSymbolTableRecord
100
AcDbBlockTableRecord
  2
*D6
340
0
 70
     0
280
     1
281
     0
  0
BLOCK_RECORD
  5
C2
330
1
100
AcDbSymbolTableRecord
100
AcDbBlockTableRecord
  2
*D7
340
0
 70
     0
280
     1
281
     0
  0
BLOCK_RECORD
  5
C5
330
1
100
AcDbSymbolTableRecord
100
AcDbBlockTableRecord
  2
*D8
340
0
 70
     0
280
     1
281
     0
  0
BLOCK_RECORD
  5
C8
330
1
100
AcDbSymbolTableRecord
100
AcDbBlockTableRecord
  2
DC_GROUP_W_JR-5714_S_040_1
340
0
102
{BLKREFS
331
3EB
102
}
 70
     0
280
     1
281
     0
  0
BLOCK_RECORD
  5
CB
330
1
100
AcDbSymbolTableRecord
100
AcDbBlockTableRecord
  2
DC_GROUP_W_JR-5714_S_040_2
340
0
102
{BLKREFS
331
3EC
102
}
 70
     0
280
     1
281
     0
  0
BLOCK_RECORD
  5
CE
330
1
100
AcDbSymbolTableRecord
100
AcDbBlockTableRecord
  2
*D11
340
0
 70
     0
280
     1
281
     0
  0
BLOCK_RECORD
  5
D1
330
1
100
AcDbSymbolTableRecord
100
AcDbBlockTableRecord
  2
*D12
340
0
 70
     0
280
     1
281
     0
  0
BLOCK_RECORD
  5
D4
330
1
100
AcDbSymbolTableRecord
100
AcDbBlockTableRecord
  2
*D13
340
0
 70
     0
280
     1
281
     0
  0
BLOCK_RECORD
  5
D7
330
1
100
AcDbSymbolTableRecord
100
AcDbBlockTableRecord
  2
*D14
340
0
 70
     0
280
     1
281
     0
  0
BLOCK_RECORD
  5
DA
330
1
100
AcDbSymbolTableRecord
100
AcDbBlockTableRecord
  2
*D15
340
0
 70
     0
280
     1
281
     0
  0
BLOCK_RECORD
  5
DD
330
1
100
AcDbSymbolTableRecord
100
AcDbBlockTableRecord
  2
*D16
340
0
 70
     0
280
     1
281
     0
  0
BLOCK_RECORD
  5
E0
330
1
100
AcDbSymbolTableRecord
100
AcDbBlockTableRecord
  2
DC_IMAGEDIMGROUP_1
340
0
102
{BLKREFS
331
3D3
102
}
 70
     0
280
     1
281
     0
  0
BLOCK_RECORD
  5
E3
330
1
100
AcDbSymbolTableRecord
100
AcDbBlockTableRecord
  2
DC_GROUP_W_JR-5714_S_040_3
340
0
102
{BLKREFS
331
3D4
102
}
 70
     0
280
     1
281
     0
  0
BLOCK_RECORD
  5
E6
330
1
100
AcDbSymbolTableRecord
100
AcDbBlockTableRecord
  2
DC_IMAGEDIMGROUP_2
340
0
102
{BLKREFS
331
3D5
102
}
 70
     0
280
     1
281
     0
  0
BLOCK_RECORD
  5
E9
330
1
100
AcDbSymbolTableRecord
100
AcDbBlockTableRecord
  2
*D20
340
0
 70
     0
280
     1
281
     0
  0
BLOCK_RECORD
  5
EC
330
1
100
AcDbSymbolTableRecord
100
AcDbBlockTableRecord
  2
*D21
340
0
 70
     0
280
     1
281
     0
  0
BLOCK_RECORD
  5
EF
330
1
100
AcDbSymbolTableRecord
100
AcDbBlockTableRecord
  2
*D22
340
0
 70
     0
280
     1
281
     0
  0
BLOCK_RECORD
  5
F2
330
1
100
AcDbSymbolTableRecord
100
AcDbBlockTableRecord
  2
*D23
340
0
 70
     0
280
     1
281
     0
  0
BLOCK_RECORD
  5
F5
330
1
100
AcDbSymbolTableRecord
100
AcDbBlockTableRecord
  2
*D24
340
0
 70
     0
280
     1
281
     0
  0
BLOCK_RECORD
  5
F8
330
1
100
AcDbSymbolTableRecord
100
AcDbBlockTableRecord
  2
*D25
340
0
 70
     0
280
     1
281
     0
  0
BLOCK_RECORD
  5
FB
330
1
100
AcDbSymbolTableRecord
100
AcDbBlockTableRecord
  2
*D26
340
0
 70
     0
280
     1
281
     0
  0
BLOCK_RECORD
  5
FE
330
1
100
AcDbSymbolTableRecord
100
AcDbBlockTableRecord
  2
*D27
340
0
 70
     0
280
     1
281
     0
  0
BLOCK_RECORD
  5
101
330
1
100
AcDbSymbolTableRecord
100
AcDbBlockTableRecord
  2
*D28
340
0
 70
     0
280
     1
281
     0
  0
BLOCK_RECORD
  5
104
330
1
100
AcDbSymbolTableRecord
100
AcDbBlockTableRecord
  2
DC_GROUP_W_JR-5714_S_040_4
340
0
102
{BLKREFS
331
47B
102
}
 70
     0
280
     1
281
     0
  0
BLOCK_RECORD
  5
107
330
1
100
AcDbSymbolTableRecord
100
AcDbBlockTableRecord
  2
DC_IMAGEDIMGROUP_3
340
0
102
{BLKREFS
331
3DF
102
}
 70
     0
280
     1
281
     0
  0
BLOCK_RECORD
  5
10A
330
1
100
AcDbSymbolTableRecord
100
AcDbBlockTableRecord
  2
*D31
340
0
 70
     0
280
     1
281
     0
  0
BLOCK_RECORD
  5
10D
330
1
100
AcDbSymbolTableRecord
100
AcDbBlockTableRecord
  2
*D32
340
0
 70
     0
280
     1
281
     0
  0
BLOCK_RECORD
  5
110
330
1
100
AcDbSymbolTableRecord
100
AcDbBlockTableRecord
  2
DC_GROUP_W_JR-5714_S_040_5
340
0
102
{BLKREFS
331
3E2
102
}
 70
     0
280
     1
281
     0
  0
BLOCK_RECORD
  5
113
330
1
100
AcDbSymbolTableRecord
100
AcDbBlockTableRecord
  2
DC_GROUP_W_JR-5714_S_040_6
340
0
102
{BLKREFS
331
3E3
102
}
 70
     0
280
     1
281
     0
  0
BLOCK_RECORD
  5
116
330
1
100
AcDbSymbolTableRecord
100
AcDbBlockTableRecord
  2
DC_GROUP_W_JR-5714_S_040_7
340
0
102
{BLKREFS
331
2C7
102
}
 70
     0
280
     1
281
     0
  0
BLOCK_RECORD
  5
119
330
1
100
AcDbSymbolTableRecord
100
AcDbBlockTableRecord
  2
DC_GROUP_W_JR-5714_S_040_8
340
0
102
{BLKREFS
331
3E4
102
}
 70
     0
280
     1
281
     0
  0
BLOCK_RECORD
  5
11C
330
1
100
AcDbSymbolTableRecord
100
AcDbBlockTableRecord
  2
DC_GROUP_W_JR-5714_S_040_9
340
0
102
{BLKREFS
331
3E5
102
}
 70
     0
280
     1
281
     0
  0
BLOCK_RECORD
  5
11F
330
1
100
AcDbSymbolTableRecord
100
AcDbBlockTableRecord
  2
DC_GROUP_W_JR-5714_S_040_10
340
0
102
{BLKREFS
331
2D4
102
}
 70
     0
280
     1
281
     0
  0
BLOCK_RECORD
  5
122
330
1
100
AcDbSymbolTableRecord
100
AcDbBlockTableRecord
  2
DC_GROUP_W_JR-5714_S_040_11
340
0
102
{BLKREFS
331
3E6
102
}
 70
     0
280
     1
281
     0
  0
BLOCK_RECORD
  5
125
330
1
100
AcDbSymbolTableRecord
100
AcDbBlockTableRecord
  2
*D40
340
0
 70
     0
280
     1
281
     0
  0
BLOCK_RECORD
  5
128
330
1
100
AcDbSymbolTableRecord
100
AcDbBlockTableRecord
  2
DC_GROUP_W_JR-5714_S_040_12
340
0
102
{BLKREFS
331
47C
102
}
 70
     0
280
     1
281
     0
  0
BLOCK_RECORD
  5
12B
330
1
100
AcDbSymbolTableRecord
100
AcDbBlockTableRecord
  2
DC_GROUP_W_JR-5714_S_040_13
340
0
102
{BLKREFS
331
2E5
102
}
 70
     0
280
     1
281
     0
  0
BLOCK_RECORD
  5
12E
330
1
100
AcDbSymbolTableRecord
100
AcDbBlockTableRecord
  2
DC_GROUP_W_JR-5714_S_040_14
340
0
102
{BLKREFS
331
47D
102
}
 70
     0
280
     1
281
     0
  0
BLOCK_RECORD
  5
131
330
1
100
AcDbSymbolTableRecord
100
AcDbBlockTableRecord
  2
DC_GROUP_W_JR-5714_S_040_15
340
0
102
{BLKREFS
331
2EB
102
}
 70
     0
280
     1
281
     0
  0
BLOCK_RECORD
  5
134
330
1
100
AcDbSymbolTableRecord
100
AcDbBlockTableRecord
  2
*D45
340
0
 70
     0
280
     1
281
     0
  0
BLOCK_RECORD
  5
137
330
1
100
AcDbSymbolTableRecord
100
AcDbBlockTableRecord
  2
DC_GROUP_W_JR-5714_S_040_16
340
0
102
{BLKREFS
331
47E
102
}
 70
     0
280
     1
281
     0
  0
BLOCK_RECORD
  5
13A
330
1
100
AcDbSymbolTableRecord
100
AcDbBlockTableRecord
  2
DC_GROUP_W_JR-5714_S_040_17
340
0
102
{BLKREFS
331
2F7
102
}
 70
     0
280
     1
281
     0
  0
BLOCK_RECORD
  5
13D
330
1
100
AcDbSymbolTableRecord
100
AcDbBlockTableRecord
  2
DC_GROUP_W_JR-5714_S_040_18
340
0
102
{BLKREFS
331
47F
102
}
 70
     0
280
     1
281
     0
  0
BLOCK_RECORD
  5
140
330
1
100
AcDbSymbolTableRecord
100
AcDbBlockTableRecord
  2
DC_GROUP_W_JR-5714_S_040_19
340
0
102
{BLKREFS
331
2FD
102
}
 70
     0
280
     1
281
     0
  0
BLOCK_RECORD
  5
143
330
1
100
AcDbSymbolTableRecord
100
AcDbBlockTableRecord
  2
DC_GROUP_W_JR-5714_S_040_20
340
0
102
{BLKREFS
331
480
102
}
 70
     0
280
     1
281
     0
  0
BLOCK_RECORD
  5
146
330
1
100
AcDbSymbolTableRecord
100
AcDbBlockTableRecord
  2
DC_GROUP_W_JR-5714_S_040_21
340
0
102
{BLKREFS
331
301
102
}
 70
     0
280
     1
281
     0
  0
BLOCK_RECORD
  5
149
330
1
100
AcDbSymbolTableRecord
100
AcDbBlockTableRecord
  2
DC_GROUP_W_JR-5714_S_040_22
340
0
102
{BLKREFS
331
481
102
}
 70
     0
280
     1
281
     0
  0
BLOCK_RECORD
  5
14C
330
1
100
AcDbSymbolTableRecord
100
AcDbBlockTableRecord
  2
DC_GROUP_W_JR-5714_S_040_23
340
0
102
{BLKREFS
331
305
102
}
 70
     0
280
     1
281
     0
  0
BLOCK_RECORD
  5
14F
330
1
100
AcDbSymbolTableRecord
100
AcDbBlockTableRecord
  2
DC_GROUP_W_JR-5714_S_040_24
340
0
102
{BLKREFS
331
482
102
}
 70
     0
280
     1
281
     0
  0
BLOCK_RECORD
  5
152
330
1
100
AcDbSymbolTableRecord
100
AcDbBlockTableRecord
  2
DC_GROUP_W_JR-5714_S_040_25
340
0
102
{BLKREFS
331
309
102
}
 70
     0
280
     1
281
     0
  0
BLOCK_RECORD
  5
155
330
1
100
AcDbSymbolTableRecord
100
AcDbBlockTableRecord
  2
DC_GROUP_W_JR-5714_S_040_26
340
0
102
{BLKREFS
331
483
102
}
 70
     0
280
     1
281
     0
  0
BLOCK_RECORD
  5
158
330
1
100
AcDbSymbolTableRecord
100
AcDbBlockTableRecord
  2
DC_GROUP_W_JR-5714_S_040_27
340
0
102
{BLKREFS
331
30D
102
}
 70
     0
280
     1
281
     0
  0
BLOCK_RECORD
  5
15B
330
1
100
AcDbSymbolTableRecord
100
AcDbBlockTableRecord
  2
DC_GROUP_W_JR-5714_S_040_28
340
0
102
{BLKREFS
331
484
102
}
 70
     0
280
     1
281
     0
  0
BLOCK_RECORD
  5
15E
330
1
100
AcDbSymbolTableRecord
100
AcDbBlockTableRecord
  2
DC_GROUP_W_JR-5714_S_040_29
340
0
102
{BLKREFS
331
313
102
}
 70
     0
280
     1
281
     0
  0
BLOCK_RECORD
  5
161
330
1
100
AcDbSymbolTableRecord
100
AcDbBlockTableRecord
  2
DC_GROUP_W_JR-5714_S_040_30
340
0
102
{BLKREFS
331
485
102
}
 70
     0
280
     1
281
     0
  0
BLOCK_RECORD
  5
164
330
1
100
AcDbSymbolTableRecord
100
AcDbBlockTableRecord
  2
DC_GROUP_W_JR-5714_S_040_31
340
0
102
{BLKREFS
331
317
102
}
 70
     0
280
     1
281
     0
  0
BLOCK_RECORD
  5
167
330
1
100
AcDbSymbolTableRecord
100
AcDbBlockTableRecord
  2
DC_GROUP_W_JR-5714_S_040_32
340
0
102
{BLKREFS
331
486
102
}
 70
     0
280
     1
281
     0
  0
BLOCK_RECORD
  5
16A
330
1
100
AcDbSymbolTableRecord
100
AcDbBlockTableRecord
  2
DC_GROUP_W_JR-5714_S_040_33
340
0
102
{BLKREFS
331
31B
102
}
 70
     0
280
     1
281
     0
  0
BLOCK_RECORD
  5
16D
330
1
100
AcDbSymbolTableRecord
100
AcDbBlockTableRecord
  2
DC_GROUP_W_JR-5714_S_040_34
340
0
102
{BLKREFS
331
487
102
}
 70
     0
280
     1
281
     0
  0
BLOCK_RECORD
  5
170
330
1
100
AcDbSymbolTableRecord
100
AcDbBlockTableRecord
  2
DC_GROUP_W_JR-5714_S_040_35
340
0
102
{BLKREFS
331
31F
102
}
 70
     0
280
     1
281
     0
  0
BLOCK_RECORD
  5
173
330
1
100
AcDbSymbolTableRecord
100
AcDbBlockTableRecord
  2
DC_GROUP_W_JR-5714_S_040_36
340
0
102
{BLKREFS
331
488
102
}
 70
     0
280
     1
281
     0
  0
BLOCK_RECORD
  5
176
330
1
100
AcDbSymbolTableRecord
100
AcDbBlockTableRecord
  2
DC_GROUP_W_JR-5714_S_040_37
340
0
102
{BLKREFS
331
323
102
}
 70
     0
280
     1
281
     0
  0
BLOCK_RECORD
  5
179
330
1
100
AcDbSymbolTableRecord
100
AcDbBlockTableRecord
  2
DC_GROUP_W_JR-5714_S_040_38
340
0
102
{BLKREFS
331
489
102
}
 70
     0
280
     1
281
     0
  0
BLOCK_RECORD
  5
17C
330
1
100
AcDbSymbolTableRecord
100
AcDbBlockTableRecord
  2
DC_GROUP_W_JR-5714_S_040_39
340
0
102
{BLKREFS
331
329
102
}
 70
     0
280
     1
281
     0
  0
BLOCK_RECORD
  5
17F
330
1
100
AcDbSymbolTableRecord
100
AcDbBlockTableRecord
  2
DC_GROUP_W_JR-5714_S_040_40
340
0
102
{BLKREFS
331
48A
102
}
 70
     0
280
     1
281
     0
  0
BLOCK_RECORD
  5
182
330
1
100
AcDbSymbolTableRecord
100
AcDbBlockTableRecord
  2
DC_GROUP_W_JR-5714_S_040_41
340
0
102
{BLKREFS
331
32D
102
}
 70
     0
280
     1
281
     0
  0
BLOCK_RECORD
  5
185
330
1
100
AcDbSymbolTableRecord
100
AcDbBlockTableRecord
  2
DC_GROUP_W_JR-5714_S_040_42
340
0
102
{BLKREFS
331
48B
102
}
 70
     0
280
     1
281
     0
  0
BLOCK_RECORD
  5
188
330
1
100
AcDbSymbolTableRecord
100
AcDbBlockTableRecord
  2
DC_GROUP_W_JR-5714_S_040_43
340
0
102
{BLKREFS
331
331
102
}
 70
     0
280
     1
281
     0
  0
BLOCK_RECORD
  5
18B
330
1
100
AcDbSymbolTableRecord
100
AcDbBlockTableRecord
  2
DC_GROUP_W_JR-5714_S_040_44
340
0
102
{BLKREFS
331
48C
102
}
 70
     0
280
     1
281
     0
  0
BLOCK_RECORD
  5
18E
330
1
100
AcDbSymbolTableRecord
100
AcDbBlockTableRecord
  2
DC_GROUP_W_JR-5714_S_040_45
340
0
102
{BLKREFS
331
335
102
}
 70
     0
280
     1
281
     0
  0
BLOCK_RECORD
  5
191
330
1
100
AcDbSymbolTableRecord
100
AcDbBlockTableRecord
  2
DC_GROUP_W_JR-5714_S_040_46
340
0
102
{BLKREFS
331
48D
102
}
 70
     0
280
     1
281
     0
  0
BLOCK_RECORD
  5
194
330
1
100
AcDbSymbolTableRecord
100
AcDbBlockTableRecord
  2
DC_GROUP_W_JR-5714_S_040_47
340
0
102
{BLKREFS
331
339
102
}
 70
     0
280
     1
281
     0
  0
BLOCK_RECORD
  5
197
330
1
100
AcDbSymbolTableRecord
100
AcDbBlockTableRecord
  2
DC_GROUP_W_JR-5714_S_040_48
340
0
102
{BLKREFS
331
48E
102
}
 70
     0
280
     1
281
     0
  0
BLOCK_RECORD
  5
19A
330
1
100
AcDbSymbolTableRecord
100
AcDbBlockTableRecord
  2
DC_GROUP_W_JR-5714_S_040_49
340
0
102
{BLKREFS
331
33F
102
}
 70
     0
280
     1
281
     0
  0
BLOCK_RECORD
  5
19D
330
1
100
AcDbSymbolTableRecord
100
AcDbBlockTableRecord
  2
DC_GROUP_W_JR-5714_S_040_50
340
0
102
{BLKREFS
331
48F
102
}
 70
     0
280
     1
281
     0
  0
BLOCK_RECORD
  5
1A0
330
1
100
AcDbSymbolTableRecord
100
AcDbBlockTableRecord
  2
DC_GROUP_W_JR-5714_S_040_51
340
0
102
{BLKREFS
331
343
102
}
 70
     0
280
     1
281
     0
  0
BLOCK_RECORD
  5
1A3
330
1
100
AcDbSymbolTableRecord
100
AcDbBlockTableRecord
  2
DC_GROUP_W_JR-5714_S_040_52
340
0
102
{BLKREFS
331
490
102
}
 70
     0
280
     1
281
     0
  0
BLOCK_RECORD
  5
1A6
330
1
100
AcDbSymbolTableRecord
100
AcDbBlockTableRecord
  2
DC_GROUP_W_JR-5714_S_040_53
340
0
102
{BLKREFS
331
347
102
}
 70
     0
280
     1
281
     0
  0
BLOCK_RECORD
  5
1A9
330
1
100
AcDbSymbolTableRecord
100
AcDbBlockTableRecord
  2
DC_GROUP_W_JR-5714_S_040_54
340
0
102
{BLKREFS
331
491
102
}
 70
     0
280
     1
281
     0
  0
BLOCK_RECORD
  5
1AC
330
1
100
AcDbSymbolTableRecord
100
AcDbBlockTableRecord
  2
DC_GROUP_W_JR-5714_S_040_55
340
0
102
{BLKREFS
331
34B
102
}
 70
     0
280
     1
281
     0
  0
BLOCK_RECORD
  5
1AF
330
1
100
AcDbSymbolTableRecord
100
AcDbBlockTableRecord
  2
DC_GROUP_W_JR-5714_S_040_56
340
0
102
{BLKREFS
331
492
102
}
 70
     0
280
     1
281
     0
  0
BLOCK_RECORD
  5
1B2
330
1
100
AcDbSymbolTableRecord
100
AcDbBlockTableRecord
  2
DC_GROUP_W_JR-5714_S_040_57
340
0
102
{BLKREFS
331
493
102
}
 70
     0
280
     1
281
     0
  0
BLOCK_RECORD
  5
1B5
330
1
100
AcDbSymbolTableRecord
100
AcDbBlockTableRecord
  2
DC_GROUP_W_JR-5714_S_040_58
340
0
102
{BLKREFS
331
494
102
}
 70
     0
280
     1
281
     0
  0
BLOCK_RECORD
  5
1B8
330
1
100
AcDbSymbolTableRecord
100
AcDbBlockTableRecord
  2
DC_GROUP_W_JR-5714_S_040_59
340
0
102
{BLKREFS
331
495
102
}
 70
     0
280
     1
281
     0
  0
BLOCK_RECORD
  5
1BB
330
1
100
AcDbSymbolTableRecord
100
AcDbBlockTableRecord
  2
DC_GROUP_W_JR-5714_S_040_60
340
0
102
{BLKREFS
331
496
102
}
 70
     0
280
     1
281
     0
  0
BLOCK_RECORD
  5
1BE
330
1
100
AcDbSymbolTableRecord
100
AcDbBlockTableRecord
  2
DC_GROUP_W_JR-5714_S_040_61
340
0
102
{BLKREFS
331
3E9
102
}
 70
     0
280
     1
281
     0
  0
BLOCK_RECORD
  5
1C1
330
1
100
AcDbSymbolTableRecord
100
AcDbBlockTableRecord
  2
DC_GROUP_W_JR-5714_S_040_62
340
0
102
{BLKREFS
331
3EA
102
}
 70
     0
280
     1
281
     0
  0
BLOCK_RECORD
  5
1C5
330
1
100
AcDbSymbolTableRecord
100
AcDbBlockTableRecord
  2
_OPEN30
340
0
102
{BLKREFS
331
1CB
331
1CC
331
1D2
331
1D3
331
1D8
331
1D9
331
1DE
331
1DF
331
1E4
331
1E5
331
1EA
331
1EB
331
1F0
331
1F1
331
1F6
331
1F7
331
222
331
223
331
228
331
229
331
22E
331
22F
331
234
331
235
331
23A
331
23B
331
240
331
247
331
249
331
251
331
253
331
256
331
257
331
25C
331
25D
331
265
331
268
331
269
331
271
331
274
331
275
331
27D
331
27F
331
285
331
287
331
28A
331
28B
331
2B3
331
2B5
331
2B8
331
2B9
331
2BE
331
2BF
331
2DF
331
2E0
331
2F2
331
2F4
331
3B8
331
3BA
331
3C0
102
}
 70
     0
280
     1
281
     0
  0
ENDTAB
  0
ENDSEC
  0
SECTION
  2
BLOCKS
  0
BLOCK
  5
20
330
1F
100
AcDbEntity
  8
0
100
AcDbBlockBegin
  2
*Model_Space
 70
     0
 10
0.0
 20
0.0
 30
0.0
  3
*Model_Space
  1
*Model_Space
  0
ENDBLK
  5
21
330
1F
100
AcDbEntity
  8
0
100
AcDbBlockEnd
  0
BLOCK
  5
1C
330
1B
100
AcDbEntity
 67
     1
  8
0
100
AcDbBlockBegin
  2
*Paper_Space
 70
     0
 10
0.0
 20
0.0
 30
0.0
  3
*Paper_Space
  1
*Paper_Space
  0
ENDBLK
  5
1D
330
1B
100
AcDbEntity
 67
     1
  8
0
100
AcDbBlockEnd
  0
BLOCK
  5
24
330
23
100
AcDbEntity
  8
0
100
AcDbBlockBegin
  2
*Paper_Space0
 70
     0
 10
0.0
 20
0.0
 30
0.0
  3
*Paper_Space0
  1
*Paper_Space0
  0
ENDBLK
  5
25
330
23
100
AcDbEntity
  8
0
100
AcDbBlockEnd
  0
BLOCK
  5
B1
330
B0
100
AcDbEntity
  8
0
100
AcDbBlockBegin
  2
*D1
 70
     1
 10
0.0
 20
0.0
 30
0.0
  3
*D1
  1
*D1
  0
LINE
  5
1C4
330
B0
100
AcDbEntity
  8
0
  6
Continuous
 62
     2
370
    13
100
AcDbLine
 10
-785.9587957402838
 20
192.3437471458127
 30
0.0
 11
208.0412042597162
 21
192.3437471458127
 31
0.0
  0
INSERT
  5
1CB
330
B0
100
AcDbEntity
  8
0
 62
     2
100
AcDbBlockReference
  2
_OPEN30
 10
-785.9587957402838
 20
192.3437471458127
 30
0.0
 41
18.00001684569172
 42
17.99993620934186
 50
180.0
  0
INSERT
  5
1CC
330
B0
100
AcDbEntity
  8
0
 62
     2
100
AcDbBlockReference
  2
_OPEN30
 10
208.0412042597162
 20
192.3437471458127
 30
0.0
 41
18.00001684569172
 42
17.99993620934186
 50
360.0
  0
LINE
  5
1CD
330
B0
100
AcDbEntity
  8
0
  6
Continuous
 62
     2
370
    13
100
AcDbLine
 10
-785.9587957402838
 20
-3.606252854187147
 30
0.0
 11
-785.9587957402838
 21
195.3437471458127
 31
0.0
  0
LINE
  5
1CE
330
B0
100
AcDbEntity
  8
0
  6
Continuous
 62
     2
370
    13
100
AcDbLine
 10
208.0412042597162
 20
-3.606252854187147
 30
0.0
 11
208.0412042597162
 21
195.3437471458127
 31
0.0
  0
MTEXT
  5
1D0
330
B0
100
AcDbEntity
  8
0
 62
     2
100
AcDbMText
 10
-288.9587957402838
 20
197.3437471458127
 30
0.0
 40
24.0
 41
90.0
 46
0.0
 71
     8
 72
     1
  1
\T1.00;機長
  7
dcStyle0
 73
     1
 44
1.0
  0
ENDBLK
  5
B2
330
B0
100
AcDbEntity
  8
0
100
AcDbBlockEnd
  0
BLOCK
  5
B4
330
B3
100
AcDbEntity
  8
0
100
AcDbBlockBegin
  2
*D2
 70
     1
 10
0.0
 20
0.0
 30
0.0
  3
*D2
  1
*D2
  0
LINE
  5
1D1
330
B3
100
AcDbEntity
  8
0
  6
Continuous
 62
     2
370
    13
100
AcDbLine
 10
-785.9587957402838
 20
-236.6062528541871
 30
0.0
 11
-728.9587957402838
 21
-236.6062528541871
 31
0.0
  0
INSERT
  5
1D2
330
B3
100
AcDbEntity
  8
0
 62
     2
100
AcDbBlockReference
  2
_OPEN30
 10
-785.9587957402838
 20
-236.6062528541871
 30
0.0
 41
18.00001684569172
 42
17.99993620934186
 50
180.0
  0
INSERT
  5
1D3
330
B3
100
AcDbEntity
  8
0
 62
     2
100
AcDbBlockReference
  2
_OPEN30
 10
-728.9587957402838
 20
-236.6062528541871
 30
0.0
 41
18.00001684569172
 42
17.99993620934186
 50
360.0
  0
LINE
  5
1D4
330
B3
100
AcDbEntity
  8
0
  6
Continuous
 62
     2
370
    13
100
AcDbLine
 10
-785.9587957402838
 20
-110.6062528541871
 30
0.0
 11
-785.9587957402838
 21
-239.6062528541871
 31
0.0
  0
LINE
  5
1D5
330
B3
100
AcDbEntity
  8
0
  6
Continuous
 62
     2
370
    13
100
AcDbLine
 10
-728.9587957402838
 20
-120.6062528541871
 30
0.0
 11
-728.9587957402838
 21
-239.6062528541871
 31
0.0
  0
MTEXT
  5
1D6
330
B3
100
AcDbEntity
  8
0
 62
     2
100
AcDbMText
 10
-757.4587957402838
 20
-231.6062528541871
 30
0.0
 40
24.0
 41
45.0
 46
0.0
 71
     8
 72
     1
  1
\T1.00;D
  7
dcStyle0
 73
     1
 44
1.0
  0
ENDBLK
  5
B5
330
B3
100
AcDbEntity
  8
0
100
AcDbBlockEnd
  0
BLOCK
  5
B7
330
B6
100
AcDbEntity
  8
0
100
AcDbBlockBegin
  2
*D3
 70
     1
 10
0.0
 20
0.0
 30
0.0
  3
*D3
  1
*D3
  0
LINE
  5
1D7
330
B6
100
AcDbEntity
  8
0
  6
Continuous
 62
     2
370
    13
100
AcDbLine
 10
-728.9587957402838
 20
-236.6062528541871
 30
0.0
 11
-608.9587957402838
 21
-236.6062528541871
 31
0.0
  0
INSERT
  5
1D8
330
B6
100
AcDbEntity
  8
0
 62
     2
100
AcDbBlockReference
  2
_OPEN30
 10
-728.9587957402838
 20
-236.6062528541871
 30
0.0
 41
18.00001684569172
 42
17.99993620934186
 50
180.0
  0
INSERT
  5
1D9
330
B6
100
AcDbEntity
  8
0
 62
     2
100
AcDbBlockReference
  2
_OPEN30
 10
-608.9587957402838
 20
-236.6062528541871
 30
0.0
 41
18.00001684569172
 42
17.99993620934186
 50
360.0
  0
LINE
  5
1DA
330
B6
100
AcDbEntity
  8
0
  6
Continuous
 62
     2
370
    13
100
AcDbLine
 10
-728.9587957402838
 20
-120.6062528541871
 30
0.0
 11
-728.9587957402838
 21
-239.6062528541871
 31
0.0
  0
LINE
  5
1DB
330
B6
100
AcDbEntity
  8
0
  6
Continuous
 62
     2
370
    13
100
AcDbLine
 10
-608.9587957402838
 20
-192.6062528541871
 30
0.0
 11
-608.9587957402838
 21
-239.6062528541871
 31
0.0
  0
MTEXT
  5
1DC
330
B6
100
AcDbEntity
  8
0
 62
     2
100
AcDbMText
 10
-668.9587957402838
 20
-231.6062528541871
 30
0.0
 40
24.0
 41
75.0
 46
0.0
 71
     8
 72
     1
  1
\T1.00;120
  7
dcStyle0
 73
     1
 44
1.0
  0
ENDBLK
  5
B8
330
B6
100
AcDbEntity
  8
0
100
AcDbBlockEnd
  0
BLOCK
  5
BA
330
B9
100
AcDbEntity
  8
0
100
AcDbBlockBegin
  2
*D4
 70
     1
 10
0.0
 20
0.0
 30
0.0
  3
*D4
  1
*D4
  0
LINE
  5
1DD
330
B9
100
AcDbEntity
  8
0
  6
Continuous
 62
     2
370
    13
100
AcDbLine
 10
31.04120425971615
 20
-236.6062528541871
 30
0.0
 11
151.0412042597162
 21
-236.6062528541871
 31
0.0
  0
INSERT
  5
1DE
330
B9
100
AcDbEntity
  8
0
 62
     2
100
AcDbBlockReference
  2
_OPEN30
 10
31.04120425971615
 20
-236.6062528541871
 30
0.0
 41
18.00001684569172
 42
17.99993620934186
 50
180.0
  0
INSERT
  5
1DF
330
B9
100
AcDbEntity
  8
0
 62
     2
100
AcDbBlockReference
  2
_OPEN30
 10
151.0412042597162
 20
-236.6062528541871
 30
0.0
 41
18.00001684569172
 42
17.99993620934186
 50
360.0
  0
LINE
  5
1E0
330
B9
100
AcDbEntity
  8
0
  6
Continuous
 62
     2
370
    13
100
AcDbLine
 10
31.04120425971615
 20
-192.6062528541871
 30
0.0
 11
31.04120425971615
 21
-239.6062528541871
 31
0.0
  0
LINE
  5
1E1
330
B9
100
AcDbEntity
  8
0
  6
Continuous
 62
     2
370
    13
100
AcDbLine
 10
151.0412042597162
 20
-120.6062528541871
 30
0.0
 11
151.0412042597162
 21
-239.6062528541871
 31
0.0
  0
MTEXT
  5
1E2
330
B9
100
AcDbEntity
  8
0
 62
     2
100
AcDbMText
 10
86.8356740860919
 20
-231.6062528541871
 30
0.0
 40
24.0
 41
75.0
 46
0.0
 71
     8
 72
     1
  1
\T1.00;120
  7
dcStyle0
 73
     1
 44
1.0
  0
ENDBLK
  5
BB
330
B9
100
AcDbEntity
  8
0
100
AcDbBlockEnd
  0
BLOCK
  5
BD
330
BC
100
AcDbEntity
  8
0
100
AcDbBlockBegin
  2
*D5
 70
     1
 10
0.0
 20
0.0
 30
0.0
  3
*D5
  1
*D5
  0
LINE
  5
1E3
330
BC
100
AcDbEntity
  8
0
  6
Continuous
 62
     2
370
    13
100
AcDbLine
 10
151.0412042597162
 20
-236.6062528541871
 30
0.0
 11
208.0412042597162
 21
-236.6062528541871
 31
0.0
  0
INSERT
  5
1E4
330
BC
100
AcDbEntity
  8
0
 62
     2
100
AcDbBlockReference
  2
_OPEN30
 10
151.0412042597162
 20
-236.6062528541871
 30
0.0
 41
18.00001684569172
 42
17.99993620934186
 50
180.0
  0
INSERT
  5
1E5
330
BC
100
AcDbEntity
  8
0
 62
     2
100
AcDbBlockReference
  2
_OPEN30
 10
208.0412042597162
 20
-236.6062528541871
 30
0.0
 41
18.00001684569172
 42
17.99993620934186
 50
360.0
  0
LINE
  5
1E6
330
BC
100
AcDbEntity
  8
0
  6
Continuous
 62
     2
370
    13
100
AcDbLine
 10
151.0412042597162
 20
-120.6062528541871
 30
0.0
 11
151.0412042597162
 21
-239.6062528541871
 31
0.0
  0
LINE
  5
1E7
330
BC
100
AcDbEntity
  8
0
  6
Continuous
 62
     2
370
    13
100
AcDbLine
 10
208.0412042597162
 20
-110.6062528541871
 30
0.0
 11
208.0412042597162
 21
-239.6062528541871
 31
0.0
  0
MTEXT
  5
1E8
330
BC
100
AcDbEntity
  8
0
 62
     2
100
AcDbMText
 10
179.5412042597162
 20
-231.6062528541871
 30
0.0
 40
24.0
 41
45.0
 46
0.0
 71
     8
 72
     1
  1
\T1.00;D
  7
dcStyle0
 73
     1
 44
1.0
  0
ENDBLK
  5
BE
330
BC
100
AcDbEntity
  8
0
100
AcDbBlockEnd
  0
BLOCK
  5
C0
330
BF
100
AcDbEntity
  8
0
100
AcDbBlockBegin
  2
*D6
 70
     1
 10
0.0
 20
0.0
 30
0.0
  3
*D6
  1
*D6
  0
LINE
  5
1E9
330
BF
100
AcDbEntity
  8
0
  6
Continuous
 62
     2
370
    13
100
AcDbLine
 10
-785.9587957402838
 20
132.3437471458127
 30
0.0
 11
-688.9587957402838
 21
132.3437471458127
 31
0.0
  0
INSERT
  5
1EA
330
BF
100
AcDbEntity
  8
0
 62
     2
100
AcDbBlockReference
  2
_OPEN30
 10
-785.9587957402838
 20
132.3437471458127
 30
0.0
 41
18.00001684569172
 42
17.99993620934186
 50
180.0
  0
INSERT
  5
1EB
330
BF
100
AcDbEntity
  8
0
 62
     2
100
AcDbBlockReference
  2
_OPEN30
 10
-688.9587957402838
 20
132.3437471458127
 30
0.0
 41
18.00001684569172
 42
17.99993620934186
 50
360.0
  0
LINE
  5
1EC
330
BF
100
AcDbEntity
  8
0
  6
Continuous
 62
     2
370
    13
100
AcDbLine
 10
-785.9587957402838
 20
-3.606252854187147
 30
0.0
 11
-785.9587957402838
 21
135.3437471458127
 31
0.0
  0
LINE
  5
1ED
330
BF
100
AcDbEntity
  8
0
  6
Continuous
 62
     2
370
    13
100
AcDbLine
 10
-688.9587957402838
 20
6.993747145813188
 30
0.0
 11
-688.9587957402838
 21
135.3437471458127
 31
0.0
  0
MTEXT
  5
1EE
330
BF
100
AcDbEntity
  8
0
 62
     2
100
AcDbMText
 10
-737.4587957402838
 20
138.3437471458127
 30
0.0
 40
24.0
 41
45.0
 46
0.0
 71
     8
 72
     1
  1
\T1.00;A
  7
dcStyle0
 73
     1
 44
1.0
  0
ENDBLK
  5
C1
330
BF
100
AcDbEntity
  8
0
100
AcDbBlockEnd
  0
BLOCK
  5
C3
330
C2
100
AcDbEntity
  8
0
100
AcDbBlockBegin
  2
*D7
 70
     1
 10
0.0
 20
0.0
 30
0.0
  3
*D7
  1
*D7
  0
LINE
  5
1EF
330
C2
100
AcDbEntity
  8
0
  6
Continuous
 62
     2
370
    13
100
AcDbLine
 10
-688.9587957402838
 20
132.3437471458127
 30
0.0
 11
111.0412042597161
 21
132.3437471458127
 31
0.0
  0
INSERT
  5
1F0
330
C2
100
AcDbEntity
  8
0
 62
     2
100
AcDbBlockReference
  2
_OPEN30
 10
-688.9587957402838
 20
132.3437471458127
 30
0.0
 41
18.00001684569172
 42
17.99993620934186
 50
180.0
  0
INSERT
  5
1F1
330
C2
100
AcDbEntity
  8
0
 62
     2
100
AcDbBlockReference
  2
_OPEN30
 10
111.0412042597161
 20
132.3437471458127
 30
0.0
 41
18.00001684569172
 42
17.99993620934186
 50
360.0
  0
LINE
  5
1F2
330
C2
100
AcDbEntity
  8
0
  6
Continuous
 62
     2
370
    13
100
AcDbLine
 10
-688.9587957402838
 20
6.993747145813188
 30
0.0
 11
-688.9587957402838
 21
135.3437471458127
 31
0.0
  0
LINE
  5
1F3
330
C2
100
AcDbEntity
  8
0
  6
Continuous
 62
     2
370
    13
100
AcDbLine
 10
111.0412042597161
 20
6.993747145813188
 30
0.0
 11
111.0412042597161
 21
135.3437471458127
 31
0.0
  0
MTEXT
  5
1F4
330
C2
100
AcDbEntity
  8
0
 62
     2
100
AcDbMText
 10
-288.9587957402839
 20
137.3437471458127
 30
0.0
 40
24.0
 41
150.0
 46
0.0
 71
     8
 72
     1
  1
\T1.00;N×200=B
  7
dcStyle0
 73
     1
 44
1.0
  0
ENDBLK
  5
C4
330
C2
100
AcDbEntity
  8
0
100
AcDbBlockEnd
  0
BLOCK
  5
C6
330
C5
100
AcDbEntity
  8
0
100
AcDbBlockBegin
  2
*D8
 70
     1
 10
0.0
 20
0.0
 30
0.0
  3
*D8
  1
*D8
  0
LINE
  5
1F5
330
C5
100
AcDbEntity
  8
0
  6
Continuous
 62
     2
370
    13
100
AcDbLine
 10
111.0412042597161
 20
132.3437471458127
 30
0.0
 11
208.0412042597162
 21
132.3437471458127
 31
0.0
  0
INSERT
  5
1F6
330
C5
100
AcDbEntity
  8
0
 62
     2
100
AcDbBlockReference
  2
_OPEN30
 10
111.0412042597161
 20
132.3437471458127
 30
0.0
 41
18.00001684569172
 42
17.99993620934186
 50
180.0
  0
INSERT
  5
1F7
330
C5
100
AcDbEntity
  8
0
 62
     2
100
AcDbBlockReference
  2
_OPEN30
 10
208.0412042597162
 20
132.3437471458127
 30
0.0
 41
18.00001684569172
 42
17.99993620934186
 50
360.0
  0
LINE
  5
1F8
330
C5
100
AcDbEntity
  8
0
  6
Continuous
 62
     2
370
    13
100
AcDbLine
 10
111.0412042597161
 20
6.993747145813188
 30
0.0
 11
111.0412042597161
 21
135.3437471458127
 31
0.0
  0
LINE
  5
1F9
330
C5
100
AcDbEntity
  8
0
  6
Continuous
 62
     2
370
    13
100
AcDbLine
 10
208.0412042597162
 20
-3.606252854187147
 30
0.0
 11
208.0412042597162
 21
135.3437471458127
 31
0.0
  0
MTEXT
  5
1FA
330
C5
100
AcDbEntity
  8
0
 62
     2
100
AcDbMText
 10
159.5412042597162
 20
138.3437471458127
 30
0.0
 40
24.0
 41
45.0
 46
0.0
 71
     8
 72
     1
  1
\T1.00;C
  7
dcStyle0
 73
     1
 44
1.0
  0
ENDBLK
  5
C7
330
C5
100
AcDbEntity
  8
0
100
AcDbBlockEnd
  0
BLOCK
  5
C9
330
C8
100
AcDbEntity
  8
0
100
AcDbBlockBegin
  2
DC_GROUP_W_JR-5714_S_040_1
 70
     0
 10
0.0
 20
0.0
 30
0.0
  3
DC_GROUP_W_JR-5714_S_040_1
  1
DC_GROUP_W_JR-5714_S_040_1
  0
LINE
  5
1FB
330
C8
100
AcDbEntity
  8
ZUWAKU
  6
Continuous
 62
     7
370
    13
100
AcDbLine
 10
-1182.0
 20
-797.2315400371328
 30
0.0
 11
1182.0
 21
-797.2315400371328
 31
0.0
  0
LINE
  5
1FC
330
C8
100
AcDbEntity
  8
ZUWAKU
  6
Continuous
 62
     7
370
    13
100
AcDbLine
 10
1181.999999999998
 20
810.7684599628672
 30
0.0
 11
-1182.0
 21
810.7684599628672
 31
0.0
  0
LINE
  5
1FD
330
C8
100
AcDbEntity
  8
ZUWAKU
  6
Continuous
 62
     7
370
    13
100
AcDbLine
 10
1182.0
 20
-797.2315400371328
 30
0.0
 11
1181.999999999998
 21
810.7684599628672
 31
0.0
  0
LINE
  5
1FE
330
C8
100
AcDbEntity
  8
ZUWAKU
  6
Continuous
 62
     7
370
    13
100
AcDbLine
 10
-1182.0
 20
810.7684599628672
 30
0.0
 11
-1182.0
 21
-797.2315400371328
 31
0.0
  0
LINE
  5
1FF
330
C8
100
AcDbEntity
  8
ZUWAKU
  6
Continuous
 62
     4
370
    13
100
AcDbLine
 10
-206.9999999999998
 20
-707.231540037133
 30
0.0
 11
30.00000000000017
 21
-707.231540037133
 31
0.0
  0
LINE
  5
200
330
C8
100
AcDbEntity
  8
ZUWAKU
  6
Continuous
 62
     4
370
    13
100
AcDbLine
 10
-1110.0
 20
-677.231540037133
 30
0.0
 11
-1110.0
 21
-797.2315400371328
 31
0.0
  0
LINE
  5
201
330
C8
100
AcDbEntity
  8
ZUWAKU
  6
Continuous
 62
     4
370
    13
100
AcDbLine
 10
-1182.0
 20
-737.231540037133
 30
0.0
 11
1182.0
 21
-737.231540037133
 31
0.0
  0
LINE
  5
202
330
C8
100
AcDbEntity
  8
ZUWAKU
  6
Continuous
 62
     4
370
    13
100
AcDbLine
 10
30.00000000000017
 20
-797.2315400371328
 30
0.0
 11
30.00000000000017
 21
-677.231540037133
 31
0.0
  0
LINE
  5
203
330
C8
100
AcDbEntity
  8
ZUWAKU
  6
Continuous
 62
     4
370
    13
100
AcDbLine
 10
-206.9999999999998
 20
-797.2315400371328
 30
0.0
 11
-206.9999999999998
 21
-677.231540037133
 31
0.0
  0
LINE
  5
204
330
C8
100
AcDbEntity
  8
ZUWAKU
  6
Continuous
 62
     4
370
    13
100
AcDbLine
 10
516.0
 20
-677.231540037133
 30
0.0
 11
516.0
 21
-797.2315400371328
 31
0.0
  0
LINE
  5
205
330
C8
100
AcDbEntity
  8
ZUWAKU
  6
Continuous
 62
     4
370
    13
100
AcDbLine
 10
180.0000000000002
 20
-677.231540037133
 30
0.0
 11
180.0000000000002
 21
-797.2315400371328
 31
0.0
  0
LINE
  5
206
330
C8
100
AcDbEntity
  8
ZUWAKU
  6
Continuous
 62
     4
370
    13
100
AcDbLine
 10
-158.9999999999998
 20
-737.231540037133
 30
0.0
 11
-158.9999999999998
 21
-797.2315400371328
 31
0.0
  0
LINE
  5
207
330
C8
100
AcDbEntity
  8
ZUWAKU
  6
Continuous
 62
     4
370
    13
100
AcDbLine
 10
-786.0
 20
-677.231540037133
 30
0.0
 11
-786.0
 21
-797.2315400371328
 31
0.0
  0
LINE
  5
208
330
C8
100
AcDbEntity
  8
ZUWAKU
  6
Continuous
 62
     4
370
    13
100
AcDbLine
 10
1182.0
 20
-677.231540037133
 30
0.0
 11
-1182.0
 21
-677.231540037133
 31
0.0
  0
LINE
  5
209
330
C8
100
AcDbEntity
  8
ZUWAKU
  6
Continuous
 62
     4
370
    13
100
AcDbLine
 10
588.0
 20
-677.231540037133
 30
0.0
 11
588.0
 21
-797.2315400371328
 31
0.0
  0
LINE
  5
20A
330
C8
100
AcDbEntity
  8
ZUWAKU
  6
Continuous
 62
     3
370
    13
100
AcDbLine
 10
-1125.0
 20
-722.231540037133
 30
0.0
 11
-1146.0
 21
-683.231540037133
 31
0.0
  0
LINE
  5
20B
330
C8
100
AcDbEntity
  8
ZUWAKU
  6
Continuous
 62
     3
370
    13
100
AcDbLine
 10
-1167.0
 20
-722.231540037133
 30
0.0
 11
-1125.0
 21
-722.231540037133
 31
0.0
  0
LINE
  5
20C
330
C8
100
AcDbEntity
  8
ZUWAKU
  6
Continuous
 62
     3
370
    13
100
AcDbLine
 10
-1146.0
 20
-683.231540037133
 30
0.0
 11
-1167.0
 21
-722.231540037133
 31
0.0
  0
TEXT
  5
20E
330
C8
100
AcDbEntity
  8
ZUWAKU
 62
     2
100
AcDbText
 10
526.8
 20
-791.2315400371328
 30
0.0
 40
20.99999999999999
  1
番号
 41
1.527272727272731
  7
dcStyle1
 72
     5
 11
577.2
 21
-791.2315400371328
 31
0.0
100
AcDbText
  0
TEXT
  5
20F
330
C8
100
AcDbEntity
  8
ZUWAKU
 62
     2
100
AcDbText
 10
-195.5999999999998
 20
-791.2315400371328
 30
0.0
 40
20.99999999999999
  1
度
 41
1.68
  7
dcStyle1
 72
     5
 11
-170.3999999999998
 21
-791.2315400371328
 31
0.0
100
AcDbText
  0
TEXT
  5
210
330
C8
100
AcDbEntity
  8
ZUWAKU
 62
     2
100
AcDbText
 10
-1168.93153181897
 20
-791.2315400371328
 30
0.0
 40
21.0
  1
番号
 41
1.272727272727273
  7
dcStyle1
 72
     5
 11
-1126.93153181897
 21
-791.2315400371328
 31
0.0
100
AcDbText
  0
TEXT
  5
211
330
C8
100
AcDbEntity
  8
ZUWAKU
 62
     2
100
AcDbText
 10
51.00000000000017
 20
-719.231540037133
 30
0.0
 40
24.0
  1
シリーズ名
 41
1.086206896551724
  7
dcStyle1
 72
     5
 11
159.0000000000002
 21
-719.231540037133
 31
0.0
100
AcDbText
  0
TEXT
  5
212
330
C8
100
AcDbEntity
  8
ZUWAKU
 62
     2
100
AcDbText
 10
69.00000000000017
 20
-779.231540037133
 30
0.0
 40
24.0
  1
機　種
 41
1.235294117647059
  7
dcStyle1
 72
     5
 11
141.0000000000002
 21
-779.231540037133
 31
0.0
100
AcDbText
  0
TEXT
  5
213
330
C8
100
AcDbEntity
  8
ZUWAKU
 62
     2
100
AcDbText
 10
-1167.0
 20
-764.231540037133
 30
0.0
 40
21.0
  1
改訂
 41
1.272727272727273
  7
dcStyle1
 72
     5
 11
-1125.0
 21
-764.231540037133
 31
0.0
100
AcDbText
  0
TEXT
  5
214
330
C8
100
AcDbEntity
  8
ZUWAKU
 62
     2
100
AcDbText
 10
-1046.7
 20
-777.731540037133
 30
0.0
 40
20.99999999999999
  1
改　 訂　 記　 事
 41
1.061290322580644
  7
dcStyle1
 72
     5
 11
-849.3000000000001
 21
-777.731540037133
 31
0.0
100
AcDbText
  0
TEXT
  5
215
330
C8
100
AcDbEntity
  8
ZUWAKU
 62
     2
100
AcDbText
 10
-195.5999999999998
 20
-764.231540037133
 30
0.0
 40
20.99999999999999
  1
尺
 41
1.68
  7
dcStyle1
 72
     5
 11
-170.3999999999998
 21
-764.231540037133
 31
0.0
100
AcDbText
  0
TEXT
  5
216
330
C8
100
AcDbEntity
  8
ZUWAKU
 62
     2
100
AcDbText
 10
-161.9999999999998
 20
-702.731540037133
 30
0.0
 40
20.99999999999999
  1
年　　月　　日
 41
1.195121951219512
  7
dcStyle1
 72
     5
 11
-14.99999999999989
 21
-702.731540037133
 31
0.0
100
AcDbText
  0
TEXT
  5
217
330
C8
100
AcDbEntity
  8
ZUWAKU
 62
     2
100
AcDbText
 10
526.8
 20
-764.231540037133
 30
0.0
 40
20.99999999999999
  1
図面
 41
1.527272727272731
  7
dcStyle1
 72
     5
 11
577.2
 21
-764.231540037133
 31
0.0
100
AcDbText
  0
TEXT
  5
218
330
C8
100
AcDbEntity
  8
ZUWAKU
 62
     2
100
AcDbText
 10
528.0
 20
-719.231540037133
 30
0.0
 40
24.0
  1
図名
 41
1.272727272727273
  7
dcStyle1
 72
     5
 11
576.0
 21
-719.231540037133
 31
0.0
100
AcDbText
  0
TEXT
  5
219
330
C8
100
AcDbEntity
  8
ZUWAKU
 62
     7
100
AcDbText
 10
-616.4999999999998
 20
-722.231540037133
 30
0.0
 40
30.0
  1
技術情報サービス
 41
1.191489361702127
  7
dcStyle1
 72
     5
 11
-376.4999999999998
 21
-722.231540037133
 31
0.0
100
AcDbText
  0
TEXT
  5
21A
330
C8
100
AcDbEntity
  8
ZUWAKU
 62
     7
100
AcDbText
 10
-704.0470588235293
 20
-779.231540037133
 30
0.0
 40
24.0
  1
MARUYASU KIKAI CO.,LTD.
 41
0.8990281013395457
  7
dcStyle1
 72
     5
 11
-288.9529411764704
 21
-779.231540037133
 31
0.0
100
AcDbText
  0
TEXT
  5
21B
330
C8
100
AcDbEntity
  8
ZUWAKU
 62
     4
100
AcDbText
 10
1154.739326354215
 20
-810.7684599628672
 30
0.0
 40
12.0
  1
A3
 41
1.2
  7
dcStyle1
 72
     5
 11
1178.739326354215
 21
-810.7684599628672
 31
0.0
100
AcDbText
  0
ENDBLK
  5
CA
330
C8
100
AcDbEntity
  8
0
100
AcDbBlockEnd
  0
BLOCK
  5
CC
330
CB
100
AcDbEntity
  8
0
100
AcDbBlockBegin
  2
DC_GROUP_W_JR-5714_S_040_2
 70
     0
 10
0.0
 20
0.0
 30
0.0
  3
DC_GROUP_W_JR-5714_S_040_2
  1
DC_GROUP_W_JR-5714_S_040_2
  0
POINT
  5
21C
330
CB
100
AcDbEntity
  8
ZUWAKU
  6
Continuous
 62
     2
100
AcDbPoint
 10
348.0000000000001
 20
-707.231540037133
 30
0.0
  0
POINT
  5
21D
330
CB
100
AcDbEntity
  8
ZUWAKU
  6
Continuous
 62
     2
100
AcDbPoint
 10
348.0000000000001
 20
-767.2315400371328
 30
0.0
  0
POINT
  5
21E
330
CB
100
AcDbEntity
  8
ZUWAKU
  6
Continuous
 62
     2
100
AcDbPoint
 10
1164.0
 20
-767.2315400371328
 30
0.0
  0
POINT
  5
21F
330
CB
100
AcDbEntity
  8
ZUWAKU
  6
Continuous
 62
     2
100
AcDbPoint
 10
885.0
 20
-707.231540037133
 30
0.0
  0
POINT
  5
220
330
CB
100
AcDbEntity
  8
ZUWAKU
  6
Continuous
 62
     2
100
AcDbPoint
 10
-64.49999999999983
 20
-767.2315400371328
 30
0.0
  0
ENDBLK
  5
CD
330
CB
100
AcDbEntity
  8
0
100
AcDbBlockEnd
  0
BLOCK
  5
CF
330
CE
100
AcDbEntity
  8
0
100
AcDbBlockBegin
  2
*D11
 70
     1
 10
0.0
 20
0.0
 30
0.0
  3
*D11
  1
*D11
  0
LINE
  5
221
330
CE
100
AcDbEntity
  8
0
  6
Continuous
 62
     2
370
    13
100
AcDbLine
 10
289.0412042597163
 20
284.7437471526259
 30
0.0
 11
289.0412042597163
 21
744.7437471526259
 31
0.0
  0
INSERT
  5
222
330
CE
100
AcDbEntity
  8
0
 62
     2
100
AcDbBlockReference
  2
_OPEN30
 10
289.0412042597163
 20
284.7437471526259
 30
0.0
 41
18.00001684569172
 42
17.99993620934186
 50
270.0
  0
INSERT
  5
223
330
CE
100
AcDbEntity
  8
0
 62
     2
100
AcDbBlockReference
  2
_OPEN30
 10
289.0412042597163
 20
744.7437471526259
 30
0.0
 41
18.00001684569172
 42
17.99993620934186
 50
90.0
  0
LINE
  5
224
330
CE
100
AcDbEntity
  8
0
  6
Continuous
 62
     2
370
    13
100
AcDbLine
 10
213.0412042597162
 20
284.7437471526259
 30
0.0
 11
292.0412042597163
 21
284.7437471526259
 31
0.0
  0
LINE
  5
225
330
CE
100
AcDbEntity
  8
0
  6
Continuous
 62
     2
370
    13
100
AcDbLine
 10
213.0412042597162
 20
744.7437471526259
 30
0.0
 11
292.0412042597163
 21
744.7437471526259
 31
0.0
  0
MTEXT
  5
226
330
CE
100
AcDbEntity
  8
0
 62
     2
100
AcDbMText
 10
283.0412042597163
 20
514.7437471526259
 30
0.0
 40
24.0
 41
195.0
 46
0.0
 71
     8
 72
     1
  1
\T1.00;機 幅 (460)
  7
dcStyle0
 11
6.123233995736766E-17
 21
1.0
 31
0.0
 73
     1
 44
1.0
  0
ENDBLK
  5
D0
330
CE
100
AcDbEntity
  8
0
100
AcDbBlockEnd
  0
BLOCK
  5
D2
330
D1
100
AcDbEntity
  8
0
100
AcDbBlockBegin
  2
*D12
 70
     1
 10
0.0
 20
0.0
 30
0.0
  3
*D12
  1
*D12
  0
LINE
  5
227
330
D1
100
AcDbEntity
  8
0
  6
Continuous
 62
     2
370
    13
100
AcDbLine
 10
-608.9587957402838
 20
-236.6062528541871
 30
0.0
 11
-348.9587957402838
 21
-236.6062528541871
 31
0.0
  0
INSERT
  5
228
330
D1
100
AcDbEntity
  8
0
 62
     2
100
AcDbBlockReference
  2
_OPEN30
 10
-608.9587957402838
 20
-236.6062528541871
 30
0.0
 41
18.00001684569172
 42
17.99993620934186
 50
180.0
  0
INSERT
  5
229
330
D1
100
AcDbEntity
  8
0
 62
     2
100
AcDbBlockReference
  2
_OPEN30
 10
-348.9587957402838
 20
-236.6062528541871
 30
0.0
 41
18.00001684569172
 42
17.99993620934186
 50
360.0
  0
LINE
  5
22A
330
D1
100
AcDbEntity
  8
0
  6
Continuous
 62
     2
370
    13
100
AcDbLine
 10
-608.9587957402838
 20
-120.6062528541871
 30
0.0
 11
-608.9587957402838
 21
-239.6062528541871
 31
0.0
  0
LINE
  5
22B
330
D1
100
AcDbEntity
  8
0
  6
Continuous
 62
     2
370
    13
100
AcDbLine
 10
-348.9587957402838
 20
-120.6062528541871
 30
0.0
 11
-348.9587957402838
 21
-239.6062528541871
 31
0.0
  0
MTEXT
  5
22C
330
D1
100
AcDbEntity
  8
0
 62
     2
100
AcDbMText
 10
-478.9587957402838
 20
-231.6062528541871
 30
0.0
 40
24.0
 41
45.0
 46
0.0
 71
     8
 72
     1
  1
\T1.00;E
  7
dcStyle0
 73
     1
 44
1.0
  0
ENDBLK
  5
D3
330
D1
100
AcDbEntity
  8
0
100
AcDbBlockEnd
  0
BLOCK
  5
D5
330
D4
100
AcDbEntity
  8
0
100
AcDbBlockBegin
  2
*D13
 70
     1
 10
0.0
 20
0.0
 30
0.0
  3
*D13
  1
*D13
  0
LINE
  5
22D
330
D4
100
AcDbEntity
  8
0
  6
Continuous
 62
     2
370
    13
100
AcDbLine
 10
-348.9587957402838
 20
-236.6062528541871
 30
0.0
 11
-228.9587957402838
 21
-236.6062528541871
 31
0.0
  0
INSERT
  5
22E
330
D4
100
AcDbEntity
  8
0
 62
     2
100
AcDbBlockReference
  2
_OPEN30
 10
-348.9587957402838
 20
-236.6062528541871
 30
0.0
 41
18.00001684569172
 42
17.99993620934186
 50
180.0
  0
INSERT
  5
22F
330
D4
100
AcDbEntity
  8
0
 62
     2
100
AcDbBlockReference
  2
_OPEN30
 10
-228.9587957402838
 20
-236.6062528541871
 30
0.0
 41
18.00001684569172
 42
17.99993620934186
 50
360.0
  0
LINE
  5
230
330
D4
100
AcDbEntity
  8
0
  6
Continuous
 62
     2
370
    13
100
AcDbLine
 10
-348.9587957402838
 20
-120.6062528541871
 30
0.0
 11
-348.9587957402838
 21
-239.6062528541871
 31
0.0
  0
LINE
  5
231
330
D4
100
AcDbEntity
  8
0
  6
Continuous
 62
     2
370
    13
100
AcDbLine
 10
-228.9587957402838
 20
-120.6062528541871
 30
0.0
 11
-228.9587957402838
 21
-239.6062528541871
 31
0.0
  0
MTEXT
  5
232
330
D4
100
AcDbEntity
  8
0
 62
     2
100
AcDbMText
 10
-288.9587957402838
 20
-231.6062528541871
 30
0.0
 40
24.0
 41
75.0
 46
0.0
 71
     8
 72
     1
  1
\T1.00;120
  7
dcStyle0
 73
     1
 44
1.0
  0
ENDBLK
  5
D6
330
D4
100
AcDbEntity
  8
0
100
AcDbBlockEnd
  0
BLOCK
  5
D8
330
D7
100
AcDbEntity
  8
0
100
AcDbBlockBegin
  2
*D14
 70
     1
 10
0.0
 20
0.0
 30
0.0
  3
*D14
  1
*D14
  0
LINE
  5
233
330
D7
100
AcDbEntity
  8
0
  6
Continuous
 62
     2
370
    13
100
AcDbLine
 10
-228.9587957402838
 20
-236.6062528541871
 30
0.0
 11
31.04120425971615
 21
-236.6062528541871
 31
0.0
  0
INSERT
  5
234
330
D7
100
AcDbEntity
  8
0
 62
     2
100
AcDbBlockReference
  2
_OPEN30
 10
-228.9587957402838
 20
-236.6062528541871
 30
0.0
 41
18.00001684569172
 42
17.99993620934186
 50
180.0
  0
INSERT
  5
235
330
D7
100
AcDbEntity
  8
0
 62
     2
100
AcDbBlockReference
  2
_OPEN30
 10
31.04120425971615
 20
-236.6062528541871
 30
0.0
 41
18.00001684569172
 42
17.99993620934186
 50
360.0
  0
LINE
  5
236
330
D7
100
AcDbEntity
  8
0
  6
Continuous
 62
     2
370
    13
100
AcDbLine
 10
-228.9587957402838
 20
-120.6062528541871
 30
0.0
 11
-228.9587957402838
 21
-239.6062528541871
 31
0.0
  0
LINE
  5
237
330
D7
100
AcDbEntity
  8
0
  6
Continuous
 62
     2
370
    13
100
AcDbLine
 10
31.0412042597162
 20
-120.6062528541871
 30
0.0
 11
31.04120425971615
 21
-239.6062528541871
 31
0.0
  0
MTEXT
  5
238
330
D7
100
AcDbEntity
  8
0
 62
     2
100
AcDbMText
 10
-98.95879574028382
 20
-231.6062528541871
 30
0.0
 40
24.0
 41
45.0
 46
0.0
 71
     8
 72
     1
  1
\T1.00;E
  7
dcStyle0
 73
     1
 44
1.0
  0
ENDBLK
  5
D9
330
D7
100
AcDbEntity
  8
0
100
AcDbBlockEnd
  0
BLOCK
  5
DB
330
DA
100
AcDbEntity
  8
0
100
AcDbBlockBegin
  2
*D15
 70
     1
 10
0.0
 20
0.0
 30
0.0
  3
*D15
  1
*D15
  0
LINE
  5
239
330
DA
100
AcDbEntity
  8
0
  6
Continuous
 62
     2
370
    13
100
AcDbLine
 10
280.0412042597162
 20
-104.6062528541871
 30
0.0
 11
280.0412042597162
 21
-64.60625285418715
 31
0.0
  0
INSERT
  5
23A
330
DA
100
AcDbEntity
  8
0
 62
     2
100
AcDbBlockReference
  2
_OPEN30
 10
280.0412042597162
 20
-104.6062528541871
 30
0.0
 41
18.00001684569172
 42
17.99993620934186
 50
270.0
  0
INSERT
  5
23B
330
DA
100
AcDbEntity
  8
0
 62
     2
100
AcDbBlockReference
  2
_OPEN30
 10
280.0412042597162
 20
-64.60625285418715
 30
0.0
 41
18.00001684569172
 42
17.99993620934186
 50
90.0
  0
LINE
  5
23C
330
DA
100
AcDbEntity
  8
0
  6
Continuous
 62
     2
370
    13
100
AcDbLine
 10
214.0412042597162
 20
-104.6062528541871
 30
0.0
 11
283.0412042597162
 21
-104.6062528541871
 31
0.0
  0
LINE
  5
23D
330
DA
100
AcDbEntity
  8
0
  6
Continuous
 62
     2
370
    13
100
AcDbLine
 10
211.0412042597162
 20
-64.60625285418715
 30
0.0
 11
283.0412042597162
 21
-64.60625285418715
 31
0.0
  0
MTEXT
  5
23E
330
DA
100
AcDbEntity
  8
0
 62
     2
100
AcDbMText
 10
275.0412042597162
 20
-84.60625285418715
 30
0.0
 40
24.0
 41
60.0
 46
0.0
 71
     8
 72
     1
  1
\T1.00;40
  7
dcStyle0
 11
6.123233995736766E-17
 21
1.0
 31
0.0
 73
     1
 44
1.0
  0
ENDBLK
  5
DC
330
DA
100
AcDbEntity
  8
0
100
AcDbBlockEnd
  0
BLOCK
  5
DE
330
DD
100
AcDbEntity
  8
0
100
AcDbBlockBegin
  2
*D16
 70
     1
 10
0.0
 20
0.0
 30
0.0
  3
*D16
  1
*D16
  0
LINE
  5
23F
330
DD
100
AcDbEntity
  8
0
  6
Continuous
 62
     2
370
    13
100
AcDbLine
 10
257.9638585369103
 20
-176.6062528541871
 30
0.0
 11
198.4604703105763
 21
-68.98199870777093
 31
0.0
  0
INSERT
  5
240
330
DD
100
AcDbEntity
  8
0
 62
     2
100
AcDbBlockReference
  2
_OPEN30
 10
198.4604703105763
 20
-68.98199870777093
 30
0.0
 41
18.00001684569172
 42
17.99993620934186
 50
118.93736515036
  0
LINE
  5
241
330
DD
100
AcDbEntity
  8
0
  6
Continuous
 62
     2
370
    13
100
AcDbLine
 10
330.4138585369103
 20
-176.6062528541871
 30
0.0
 11
257.9638585369103
 21
-176.6062528541871
 31
0.0
  0
MTEXT
  5
242
330
DD
100
AcDbEntity
  8
0
 62
     2
100
AcDbMText
 10
258.4138585369103
 20
-170.6062528541871
 30
0.0
 40
24.0
 41
120.0
 46
0.0
 71
     7
 72
     1
  1
\T1.00;4-φ10
  7
dcStyle0
 73
     1
 44
1.0
  0
ENDBLK
  5
DF
330
DD
100
AcDbEntity
  8
0
100
AcDbBlockEnd
  0
BLOCK
  5
E1
330
E0
100
AcDbEntity
  8
0
100
AcDbBlockBegin
  2
DC_IMAGEDIMGROUP_1
 70
     0
 10
0.0
 20
0.0
 30
0.0
  3
DC_IMAGEDIMGROUP_1
  1
DC_IMAGEDIMGROUP_1
  0
LINE
  5
243
330
E0
100
AcDbEntity
  8
0
  6
Continuous
 62
     2
370
    13
100
AcDbLine
 10
196.0412042597162
 20
-176.6062528541871
 30
0.0
 11
208.0412042597162
 21
-176.6062528541871
 31
0.0
  0
LINE
  5
244
330
E0
100
AcDbEntity
  8
0
  6
Continuous
 62
     2
370
    13
100
AcDbLine
 10
196.0412042597162
 20
-79.60625285418715
 30
0.0
 11
196.0412042597162
 21
-179.6062528541871
 31
0.0
  0
LINE
  5
245
330
E0
100
AcDbEntity
  8
0
  6
Continuous
 62
     2
370
    13
100
AcDbLine
 10
208.0412042597162
 20
-110.6062528541871
 30
0.0
 11
208.0412042597162
 21
-179.6062528541871
 31
0.0
  0
LINE
  5
246
330
E0
100
AcDbEntity
  8
0
  6
Continuous
 62
     2
370
    13
100
AcDbLine
 10
164.8362042597162
 20
-176.6062528541871
 30
0.0
 11
196.0412042597162
 21
-176.6062528541871
 31
0.0
  0
INSERT
  5
247
330
E0
100
AcDbEntity
  8
0
 62
     2
100
AcDbBlockReference
  2
_OPEN30
 10
196.0412042597162
 20
-176.6062528541871
 30
0.0
 41
18.00001684569172
 42
17.99993620934186
 50
360.0
  0
LINE
  5
248
330
E0
100
AcDbEntity
  8
0
  6
Continuous
 62
     2
370
    13
100
AcDbLine
 10
225.5412042597162
 20
-176.6062528541871
 30
0.0
 11
208.0412042597162
 21
-176.6062528541871
 31
0.0
  0
INSERT
  5
249
330
E0
100
AcDbEntity
  8
0
 62
     2
100
AcDbBlockReference
  2
_OPEN30
 10
208.0412042597162
 20
-176.6062528541871
 30
0.0
 41
18.00001684569172
 42
17.99993620934186
 50
180.0
  0
MTEXT
  5
24A
330
E0
100
AcDbEntity
  8
0
 62
     2
100
AcDbMText
 10
188.8362042597162
 20
-171.6062528541871
 30
0.0
 40
24.0
 41
60.0
 46
0.0
 71
     9
 72
     1
  1
\T1.00;12
  7
dcStyle0
 73
     1
 44
1.0
  0
ENDBLK
  5
E2
330
E0
100
AcDbEntity
  8
0
100
AcDbBlockEnd
  0
BLOCK
  5
E4
330
E3
100
AcDbEntity
  8
0
100
AcDbBlockBegin
  2
DC_GROUP_W_JR-5714_S_040_3
 70
     0
 10
0.0
 20
0.0
 30
0.0
  3
DC_GROUP_W_JR-5714_S_040_3
  1
DC_GROUP_W_JR-5714_S_040_3
  0
TEXT
  5
24B
330
E3
100
AcDbEntity
  8
0
 62
     2
100
AcDbText
 10
795.3949214179211
 20
-236.8172157244089
 30
0.0
 40
24.0
  1
断面図
 41
0.6877579092159559
  7
dcStyle0
 72
     5
 11
867.3949214179211
 21
-236.8172157244089
 31
0.0
100
AcDbText
  0
LINE
  5
24C
330
E3
100
AcDbEntity
  8
0
  6
Continuous
 62
     2
370
    13
100
AcDbLine
 10
792.3949214179211
 20
-242.8172157244089
 30
0.0
 11
870.3949214179211
 21
-242.8172157244089
 31
0.0
  0
ENDBLK
  5
E5
330
E3
100
AcDbEntity
  8
0
100
AcDbBlockEnd
  0
BLOCK
  5
E7
330
E6
100
AcDbEntity
  8
0
100
AcDbBlockBegin
  2
DC_IMAGEDIMGROUP_2
 70
     0
 10
0.0
 20
0.0
 30
0.0
  3
DC_IMAGEDIMGROUP_2
  1
DC_IMAGEDIMGROUP_2
  0
LINE
  5
24D
330
E6
100
AcDbEntity
  8
0
  6
Continuous
 62
     2
370
    13
100
AcDbLine
 10
627.7376309191867
 20
-95.30625285418697
 30
0.0
 11
627.7376309191867
 21
-77.24948980494531
 31
0.0
  0
LINE
  5
24E
330
E6
100
AcDbEntity
  8
0
  6
Continuous
 62
     2
370
    13
100
AcDbLine
 10
630.0376309191869
 20
-95.30625285418697
 30
0.0
 11
630.0376309191869
 21
-77.24948980494531
 31
0.0
  0
LINE
  5
24F
330
E6
100
AcDbEntity
  8
0
  6
Continuous
 62
     2
370
    13
100
AcDbLine
 10
627.7376309191867
 20
-79.74948980494531
 30
0.0
 11
630.0376309191869
 21
-79.74948980494531
 31
0.0
  0
LINE
  5
250
330
E6
100
AcDbEntity
  8
0
  6
Continuous
 62
     2
370
    13
100
AcDbLine
 10
584.5326309191867
 20
-79.74948980494531
 30
0.0
 11
627.7376309191867
 21
-79.74948980494531
 31
0.0
  0
INSERT
  5
251
330
E6
100
AcDbEntity
  8
0
 62
     2
100
AcDbBlockReference
  2
_OPEN30
 10
627.7376309191867
 20
-79.74948980494531
 30
0.0
 41
18.00001684569172
 42
17.99993620934186
 50
360.0
  0
LINE
  5
252
330
E6
100
AcDbEntity
  8
0
  6
Continuous
 62
     2
370
    13
100
AcDbLine
 10
647.5376309191869
 20
-79.74948980494531
 30
0.0
 11
630.0376309191869
 21
-79.74948980494531
 31
0.0
  0
INSERT
  5
253
330
E6
100
AcDbEntity
  8
0
 62
     2
100
AcDbBlockReference
  2
_OPEN30
 10
630.0376309191869
 20
-79.74948980494531
 30
0.0
 41
18.00001684569172
 42
17.99993620934186
 50
180.0
  0
MTEXT
  5
254
330
E6
100
AcDbEntity
  8
0
 62
     2
100
AcDbMText
 10
620.5326309191867
 20
-74.74948980494531
 30
0.0
 40
24.0
 41
75.0
 46
0.0
 71
     9
 72
     1
  1
\T1.00;2.3
  7
dcStyle0
 73
     1
 44
1.0
  0
ENDBLK
  5
E8
330
E6
100
AcDbEntity
  8
0
100
AcDbBlockEnd
  0
BLOCK
  5
EA
330
E9
100
AcDbEntity
  8
0
100
AcDbBlockBegin
  2
*D20
 70
     1
 10
0.0
 20
0.0
 30
0.0
  3
*D20
  1
*D20
  0
LINE
  5
255
330
E9
100
AcDbEntity
  8
0
  6
Continuous
 62
     2
370
    13
100
AcDbLine
 10
630.0376309191867
 20
158.9437471458139
 30
0.0
 11
1030.037630919187
 21
158.9437471458139
 31
0.0
  0
INSERT
  5
256
330
E9
100
AcDbEntity
  8
0
 62
     2
100
AcDbBlockReference
  2
_OPEN30
 10
630.0376309191867
 20
158.9437471458139
 30
0.0
 41
18.00001684569172
 42
17.99993620934186
 50
180.0
  0
INSERT
  5
257
330
E9
100
AcDbEntity
  8
0
 62
     2
100
AcDbBlockReference
  2
_OPEN30
 10
1030.037630919187
 20
158.9437471458139
 30
0.0
 41
18.00001684569172
 42
17.99993620934186
 50
360.0
  0
LINE
  5
258
330
E9
100
AcDbEntity
  8
0
  6
Continuous
 62
     2
370
    13
100
AcDbLine
 10
630.0376309191869
 20
-12.90625285418733
 30
0.0
 11
630.0376309191867
 21
161.9437471458139
 31
0.0
  0
LINE
  5
259
330
E9
100
AcDbEntity
  8
0
  6
Continuous
 62
     2
370
    13
100
AcDbLine
 10
1030.037630919187
 20
-12.90625285418733
 30
0.0
 11
1030.037630919187
 21
161.9437471458139
 31
0.0
  0
MTEXT
  5
25A
330
E9
100
AcDbEntity
  8
0
 62
     2
100
AcDbMText
 10
830.0376309191869
 20
163.9437471458139
 30
0.0
 40
24.0
 41
110.9999999999999
 46
0.0
 71
     8
 72
     1
  1
\T1.00;呼び幅
  7
dcStyle0
 73
     1
 44
1.0
  0
ENDBLK
  5
EB
330
E9
100
AcDbEntity
  8
0
100
AcDbBlockEnd
  0
BLOCK
  5
ED
330
EC
100
AcDbEntity
  8
0
100
AcDbBlockBegin
  2
*D21
 70
     1
 10
0.0
 20
0.0
 30
0.0
  3
*D21
  1
*D21
  0
LINE
  5
25B
330
EC
100
AcDbEntity
  8
0
  6
Continuous
 62
     2
370
    13
100
AcDbLine
 10
600.0376309191869
 20
218.9437471458139
 30
0.0
 11
1060.037630919187
 21
218.9437471458139
 31
0.0
  0
INSERT
  5
25C
330
EC
100
AcDbEntity
  8
0
 62
     2
100
AcDbBlockReference
  2
_OPEN30
 10
600.0376309191869
 20
218.9437471458139
 30
0.0
 41
18.00001684569172
 42
17.99993620934186
 50
180.0
  0
INSERT
  5
25D
330
EC
100
AcDbEntity
  8
0
 62
     2
100
AcDbBlockReference
  2
_OPEN30
 10
1060.037630919187
 20
218.9437471458139
 30
0.0
 41
18.00001684569172
 42
17.99993620934186
 50
360.0
  0
LINE
  5
25E
330
EC
100
AcDbEntity
  8
0
  6
Continuous
 62
     2
370
    13
100
AcDbLine
 10
600.0376309191869
 20
-8.606252854187147
 30
0.0
 11
600.0376309191869
 21
221.9437471458139
 31
0.0
  0
LINE
  5
25F
330
EC
100
AcDbEntity
  8
0
  6
Continuous
 62
     2
370
    13
100
AcDbLine
 10
1060.037630919187
 20
-9.606252854187147
 30
0.0
 11
1060.037630919187
 21
221.9437471458139
 31
0.0
  0
MTEXT
  5
260
330
EC
100
AcDbEntity
  8
0
 62
     2
100
AcDbMText
 10
830.0376309191869
 20
223.9437471458139
 30
0.0
 40
24.0
 41
120.0
 46
0.0
 71
     8
 72
     1
  1
\T1.00;機　幅
  7
dcStyle0
 73
     1
 44
1.0
  0
ENDBLK
  5
EE
330
EC
100
AcDbEntity
  8
0
100
AcDbBlockEnd
  0
BLOCK
  5
F0
330
EF
100
AcDbEntity
  8
0
100
AcDbBlockBegin
  2
*D22
 70
     1
 10
0.0
 20
0.0
 30
0.0
  3
*D22
  1
*D22
  0
LINE
  5
261
330
EF
100
AcDbEntity
  8
0
  6
Continuous
 62
     2
370
    13
100
AcDbLine
 10
600.0376309191869
 20
-192.6062528541871
 30
0.0
 11
612.5376319191868
 21
-192.6062528541871
 31
0.0
  0
LINE
  5
262
330
EF
100
AcDbEntity
  8
0
  6
Continuous
 62
     2
370
    13
100
AcDbLine
 10
600.0376309191869
 20
-109.6062528541871
 30
0.0
 11
600.0376309191869
 21
-195.1062528541871
 31
0.0
  0
LINE
  5
263
330
EF
100
AcDbEntity
  8
0
  6
Continuous
 62
     2
370
    13
100
AcDbLine
 10
612.5376319191868
 20
-119.5004088541874
 30
0.0
 11
612.5376319191868
 21
-195.1062528541871
 31
0.0
  0
LINE
  5
264
330
EF
100
AcDbEntity
  8
0
  6
Continuous
 62
     2
370
    13
100
AcDbLine
 10
544.8326309191868
 20
-192.6062528541871
 30
0.0
 11
600.0376309191869
 21
-192.6062528541871
 31
0.0
  0
INSERT
  5
265
330
EF
100
AcDbEntity
  8
0
 62
     2
100
AcDbBlockReference
  2
_OPEN30
 10
600.0376309191869
 20
-192.6062528541871
 30
0.0
 41
18.00001684569172
 42
17.99993620934186
 50
360.0
  0
MTEXT
  5
266
330
EF
100
AcDbEntity
  8
0
 62
     2
100
AcDbMText
 10
592.8326309191868
 20
-187.6062528541871
 30
0.0
 40
24.0
 41
90.0
 46
0.0
 71
     9
 72
     1
  1
\T1.00;12.5
  7
dcStyle0
 73
     1
 44
1.0
  0
ENDBLK
  5
F1
330
EF
100
AcDbEntity
  8
0
100
AcDbBlockEnd
  0
BLOCK
  5
F3
330
F2
100
AcDbEntity
  8
0
100
AcDbBlockBegin
  2
*D23
 70
     1
 10
0.0
 20
0.0
 30
0.0
  3
*D23
  1
*D23
  0
LINE
  5
267
330
F2
100
AcDbEntity
  8
0
  6
Continuous
 62
     2
370
    13
100
AcDbLine
 10
612.5376319191868
 20
-192.6062528541871
 30
0.0
 11
1047.537631919187
 21
-192.6062528541871
 31
0.0
  0
INSERT
  5
268
330
F2
100
AcDbEntity
  8
0
 62
     2
100
AcDbBlockReference
  2
_OPEN30
 10
612.5376319191868
 20
-192.6062528541871
 30
0.0
 41
18.00001684569172
 42
17.99993620934186
 50
180.0
  0
INSERT
  5
269
330
F2
100
AcDbEntity
  8
0
 62
     2
100
AcDbBlockReference
  2
_OPEN30
 10
1047.537631919187
 20
-192.6062528541871
 30
0.0
 41
18.00001684569172
 42
17.99993620934186
 50
360.0
  0
LINE
  5
26A
330
F2
100
AcDbEntity
  8
0
  6
Continuous
 62
     2
370
    13
100
AcDbLine
 10
612.5376319191868
 20
-119.5004088541874
 30
0.0
 11
612.5376319191868
 21
-195.1062528541871
 31
0.0
  0
LINE
  5
26B
330
F2
100
AcDbEntity
  8
0
  6
Continuous
 62
     2
370
    13
100
AcDbLine
 10
1047.537631919187
 20
-119.6062528541871
 30
0.0
 11
1047.537631919187
 21
-195.1062528541871
 31
0.0
  0
MTEXT
  5
26C
330
F2
100
AcDbEntity
  8
0
 62
     2
100
AcDbMText
 10
830.0376319191868
 20
-187.6062528541871
 30
0.0
 40
24.0
 41
165.0
 46
0.0
 71
     8
 72
     1
  1
\T1.00;呼び幅+35
  7
dcStyle0
 73
     1
 44
1.0
  0
ENDBLK
  5
F4
330
F2
100
AcDbEntity
  8
0
100
AcDbBlockEnd
  0
BLOCK
  5
F6
330
F5
100
AcDbEntity
  8
0
100
AcDbBlockBegin
  2
*D24
 70
     1
 10
0.0
 20
0.0
 30
0.0
  3
*D24
  1
*D24
  0
LINE
  5
26D
330
F5
100
AcDbEntity
  8
0
  6
Continuous
 62
     2
370
    13
100
AcDbLine
 10
1047.537631919187
 20
-192.6062528541871
 30
0.0
 11
1060.037630919187
 21
-192.6062528541871
 31
0.0
  0
LINE
  5
26E
330
F5
100
AcDbEntity
  8
0
  6
Continuous
 62
     2
370
    13
100
AcDbLine
 10
1047.537631919187
 20
-119.6062528541871
 30
0.0
 11
1047.537631919187
 21
-195.1062528541871
 31
0.0
  0
LINE
  5
26F
330
F5
100
AcDbEntity
  8
0
  6
Continuous
 62
     2
370
    13
100
AcDbLine
 10
1060.037630919187
 20
-109.6062528541871
 30
0.0
 11
1060.037630919187
 21
-195.1062528541871
 31
0.0
  0
LINE
  5
270
330
F5
100
AcDbEntity
  8
0
  6
Continuous
 62
     2
370
    13
100
AcDbLine
 10
1115.242630919187
 20
-192.6062528541871
 30
0.0
 11
1060.037630919187
 21
-192.6062528541871
 31
0.0
  0
INSERT
  5
271
330
F5
100
AcDbEntity
  8
0
 62
     2
100
AcDbBlockReference
  2
_OPEN30
 10
1060.037630919187
 20
-192.6062528541871
 30
0.0
 41
18.00001684569172
 42
17.99993620934186
 50
180.0
  0
MTEXT
  5
272
330
F5
100
AcDbEntity
  8
0
 62
     2
100
AcDbMText
 10
1067.242630919187
 20
-187.6062528541871
 30
0.0
 40
24.0
 41
90.0
 46
0.0
 71
     7
 72
     1
  1
\T1.00;12.5
  7
dcStyle0
 73
     1
 44
1.0
  0
ENDBLK
  5
F7
330
F5
100
AcDbEntity
  8
0
100
AcDbBlockEnd
  0
BLOCK
  5
F9
330
F8
100
AcDbEntity
  8
0
100
AcDbBlockBegin
  2
*D25
 70
     1
 10
0.0
 20
0.0
 30
0.0
  3
*D25
  1
*D25
  0
LINE
  5
273
330
F8
100
AcDbEntity
  8
0
  6
Continuous
 62
     2
370
    13
100
AcDbLine
 10
468.0376309191869
 20
-104.6062528541871
 30
0.0
 11
468.0376309191869
 21
-14.60625285418713
 31
0.0
  0
INSERT
  5
274
330
F8
100
AcDbEntity
  8
0
 62
     2
100
AcDbBlockReference
  2
_OPEN30
 10
468.0376309191869
 20
-104.6062528541871
 30
0.0
 41
18.00001684569172
 42
17.99993620934186
 50
270.0
  0
INSERT
  5
275
330
F8
100
AcDbEntity
  8
0
 62
     2
100
AcDbBlockReference
  2
_OPEN30
 10
468.0376309191869
 20
-14.60625285418713
 30
0.0
 41
18.00001684569172
 42
17.99993620934186
 50
90.0
  0
LINE
  5
276
330
F8
100
AcDbEntity
  8
0
  6
Continuous
 62
     2
370
    13
100
AcDbLine
 10
594.0376309191869
 20
-104.6062528541871
 30
0.0
 11
465.0376309191869
 21
-104.6062528541871
 31
0.0
  0
LINE
  5
277
330
F8
100
AcDbEntity
  8
0
  6
Continuous
 62
     2
370
    13
100
AcDbLine
 10
594.0376309191869
 20
-14.60625285418715
 30
0.0
 11
465.0376309191869
 21
-14.60625285418713
 31
0.0
  0
MTEXT
  5
278
330
F8
100
AcDbEntity
  8
0
 62
     2
100
AcDbMText
 10
463.0376309191869
 20
-59.60625285418713
 30
0.0
 40
24.0
 41
59.99999999999999
 46
0.0
 71
     8
 72
     1
  1
\T1.00;90
  7
dcStyle0
 11
6.123233995736766E-17
 21
1.0
 31
0.0
 73
     1
 44
1.0
  0
ENDBLK
  5
FA
330
F8
100
AcDbEntity
  8
0
100
AcDbBlockEnd
  0
BLOCK
  5
FC
330
FB
100
AcDbEntity
  8
0
100
AcDbBlockBegin
  2
*D26
 70
     1
 10
0.0
 20
0.0
 30
0.0
  3
*D26
  1
*D26
  0
LINE
  5
279
330
FB
100
AcDbEntity
  8
0
  6
Continuous
 62
     2
370
    13
100
AcDbLine
 10
600.0376309191869
 20
158.9437471458139
 30
0.0
 11
630.0376309191867
 21
158.9437471458139
 31
0.0
  0
LINE
  5
27A
330
FB
100
AcDbEntity
  8
0
  6
Continuous
 62
     2
370
    13
100
AcDbLine
 10
600.0376309191869
 20
-8.606252854187147
 30
0.0
 11
600.0376309191869
 21
161.9437471458139
 31
0.0
  0
LINE
  5
27B
330
FB
100
AcDbEntity
  8
0
  6
Continuous
 62
     2
370
    13
100
AcDbLine
 10
630.0376309191869
 20
-12.90625285418733
 30
0.0
 11
630.0376309191867
 21
161.9437471458139
 31
0.0
  0
LINE
  5
27C
330
FB
100
AcDbEntity
  8
0
  6
Continuous
 62
     2
370
    13
100
AcDbLine
 10
582.5376309191869
 20
158.9437471458139
 30
0.0
 11
600.0376309191869
 21
158.9437471458139
 31
0.0
  0
INSERT
  5
27D
330
FB
100
AcDbEntity
  8
0
 62
     2
100
AcDbBlockReference
  2
_OPEN30
 10
600.0376309191869
 20
158.9437471458139
 30
0.0
 41
18.00001684569172
 42
17.99993620934186
 50
360.0
  0
LINE
  5
27E
330
FB
100
AcDbEntity
  8
0
  6
Continuous
 62
     2
370
    13
100
AcDbLine
 10
647.5376309191867
 20
158.9437471458139
 30
0.0
 11
630.0376309191867
 21
158.9437471458139
 31
0.0
  0
INSERT
  5
27F
330
FB
100
AcDbEntity
  8
0
 62
     2
100
AcDbBlockReference
  2
_OPEN30
 10
630.0376309191867
 20
158.9437471458139
 30
0.0
 41
18.00001684569172
 42
17.99993620934186
 50
180.0
  0
MTEXT
  5
280
330
FB
100
AcDbEntity
  8
0
 62
     2
100
AcDbMText
 10
615.0376309191868
 20
163.9437471458139
 30
0.0
 40
24.0
 41
60.0
 46
0.0
 71
     8
 72
     1
  1
\T1.00;30
  7
dcStyle0
 73
     1
 44
1.0
  0
ENDBLK
  5
FD
330
FB
100
AcDbEntity
  8
0
100
AcDbBlockEnd
  0
BLOCK
  5
FF
330
FE
100
AcDbEntity
  8
0
100
AcDbBlockBegin
  2
*D27
 70
     1
 10
0.0
 20
0.0
 30
0.0
  3
*D27
  1
*D27
  0
LINE
  5
281
330
FE
100
AcDbEntity
  8
0
  6
Continuous
 62
     2
370
    13
100
AcDbLine
 10
1030.037630919187
 20
158.9437471458139
 30
0.0
 11
1060.037630919187
 21
158.9437471458139
 31
0.0
  0
LINE
  5
282
330
FE
100
AcDbEntity
  8
0
  6
Continuous
 62
     2
370
    13
100
AcDbLine
 10
1030.037630919187
 20
-12.90625285418733
 30
0.0
 11
1030.037630919187
 21
161.9437471458139
 31
0.0
  0
LINE
  5
283
330
FE
100
AcDbEntity
  8
0
  6
Continuous
 62
     2
370
    13
100
AcDbLine
 10
1060.037630919187
 20
-9.606252854187147
 30
0.0
 11
1060.037630919187
 21
161.9437471458139
 31
0.0
  0
LINE
  5
284
330
FE
100
AcDbEntity
  8
0
  6
Continuous
 62
     2
370
    13
100
AcDbLine
 10
1012.537630919187
 20
158.9437471458139
 30
0.0
 11
1030.037630919187
 21
158.9437471458139
 31
0.0
  0
INSERT
  5
285
330
FE
100
AcDbEntity
  8
0
 62
     2
100
AcDbBlockReference
  2
_OPEN30
 10
1030.037630919187
 20
158.9437471458139
 30
0.0
 41
18.00001684569172
 42
17.99993620934186
 50
360.0
  0
LINE
  5
286
330
FE
100
AcDbEntity
  8
0
  6
Continuous
 62
     2
370
    13
100
AcDbLine
 10
1077.537630919187
 20
158.9437471458139
 30
0.0
 11
1060.037630919187
 21
158.9437471458139
 31
0.0
  0
INSERT
  5
287
330
FE
100
AcDbEntity
  8
0
 62
     2
100
AcDbBlockReference
  2
_OPEN30
 10
1060.037630919187
 20
158.9437471458139
 30
0.0
 41
18.00001684569172
 42
17.99993620934186
 50
180.0
  0
MTEXT
  5
288
330
FE
100
AcDbEntity
  8
0
 62
     2
100
AcDbMText
 10
1045.037630919187
 20
163.9437471458139
 30
0.0
 40
24.0
 41
60.0
 46
0.0
 71
     8
 72
     1
  1
\T1.00;30
  7
dcStyle0
 73
     1
 44
1.0
  0
ENDBLK
  5
100
330
FE
100
AcDbEntity
  8
0
100
AcDbBlockEnd
  0
BLOCK
  5
102
330
101
100
AcDbEntity
  8
0
100
AcDbBlockBegin
  2
*D28
 70
     1
 10
0.0
 20
0.0
 30
0.0
  3
*D28
  1
*D28
  0
LINE
  5
289
330
101
100
AcDbEntity
  8
0
  6
Continuous
 62
     2
370
    13
100
AcDbLine
 10
528.0376309191869
 20
-104.6062528541871
 30
0.0
 11
528.0376309191869
 21
-33.10625285418714
 31
0.0
  0
INSERT
  5
28A
330
101
100
AcDbEntity
  8
0
 62
     2
100
AcDbBlockReference
  2
_OPEN30
 10
528.0376309191869
 20
-104.6062528541871
 30
0.0
 41
18.00001684569172
 42
17.99993620934186
 50
270.0
  0
INSERT
  5
28B
330
101
100
AcDbEntity
  8
0
 62
     2
100
AcDbBlockReference
  2
_OPEN30
 10
528.0376309191869
 20
-33.10625285418714
 30
0.0
 41
18.00001684569172
 42
17.99993620934186
 50
90.0
  0
LINE
  5
28C
330
101
100
AcDbEntity
  8
0
  6
Continuous
 62
     2
370
    13
100
AcDbLine
 10
594.0376309191869
 20
-104.6062528541871
 30
0.0
 11
525.0376309191869
 21
-104.6062528541871
 31
0.0
  0
LINE
  5
28D
330
101
100
AcDbEntity
  8
0
  6
Continuous
 62
     2
370
    13
100
AcDbLine
 10
606.7376309191868
 20
-33.10625285418715
 30
0.0
 11
525.0376309191869
 21
-33.10625285418714
 31
0.0
  0
MTEXT
  5
28E
330
101
100
AcDbEntity
  8
0
 62
     2
100
AcDbMText
 10
523.0376309191869
 20
-68.85625285418715
 30
0.0
 40
24.0
 41
90.0
 46
0.0
 71
     8
 72
     1
  1
\T1.00;71.5
  7
dcStyle0
 11
6.123233995736766E-17
 21
1.0
 31
0.0
 73
     1
 44
1.0
  0
ENDBLK
  5
103
330
101
100
AcDbEntity
  8
0
100
AcDbBlockEnd
  0
BLOCK
  5
105
330
104
100
AcDbEntity
  8
0
100
AcDbBlockBegin
  2
DC_GROUP_W_JR-5714_S_040_4
 70
     0
 10
0.0
 20
0.0
 30
0.0
  3
DC_GROUP_W_JR-5714_S_040_4
  1
DC_GROUP_W_JR-5714_S_040_4
  0
LINE
  5
28F
330
104
100
AcDbEntity
  8
2
  6
Continuous
 62
     7
370
    18
100
AcDbLine
 10
1044.737630919187
 20
-39.10625285418715
 30
0.0
 11
1044.737630919187
 21
-27.10625285418715
 31
0.0
  0
LINE
  5
290
330
104
100
AcDbEntity
  8
2
  6
Continuous
 62
     7
370
    18
100
AcDbLine
 10
616.7376309191867
 20
-39.10625285418715
 30
0.0
 11
616.7376309191867
 21
-29.10625285418715
 31
0.0
  0
ARC
  5
291
330
104
100
AcDbEntity
  8
2
  6
Continuous
 62
     7
370
    18
100
AcDbCircle
 10
623.2376309191867
 20
-40.10625285418715
 30
0.0
 40
1.0
100
AcDbArc
 50
179.9999980000102
 51
0.0
  0
LINE
  5
292
330
104
100
AcDbEntity
  8
2
  6
Continuous
 62
     7
370
    18
100
AcDbLine
 10
622.2376309191867
 20
-33.40625285418733
 30
0.0
 11
622.2376309191867
 21
-40.10625285418715
 31
0.0
  0
LINE
  5
293
330
104
100
AcDbEntity
  8
2
  6
Continuous
 62
     7
370
    18
100
AcDbLine
 10
624.2376309191867
 20
-33.40625285418733
 30
0.0
 11
624.2376309191867
 21
-40.10625285418715
 31
0.0
  0
ARC
  5
294
330
104
100
AcDbEntity
  8
2
  6
Continuous
 62
     7
370
    18
100
AcDbCircle
 10
623.2376309191867
 20
-33.40625285418733
 30
0.0
 40
1.0
100
AcDbArc
 50
0.0
 51
180.0000139999806
  0
ARC
  5
295
330
104
100
AcDbEntity
  8
2
  6
Continuous
 62
     7
370
    18
100
AcDbCircle
 10
623.2376309191867
 20
-33.10625285418715
 30
0.0
 40
1.3
100
AcDbArc
 50
320.2848630000091
 51
219.7151369999908
  0
LINE
  5
296
330
104
100
AcDbEntity
  8
2
  6
Continuous
 62
     7
370
    18
100
AcDbLine
 10
622.2376309191867
 20
-39.10625285418715
 30
0.0
 11
616.7376309191867
 21
-39.10625285418715
 31
0.0
  0
LINE
  5
297
330
104
100
AcDbEntity
  8
2
  6
Continuous
 62
     7
370
    18
100
AcDbLine
 10
627.7376309191867
 20
-39.10625285418715
 30
0.0
 11
624.2376309191867
 21
-39.10625285418715
 31
0.0
  0
LINE
  5
298
330
104
100
AcDbEntity
  8
2
  6
Continuous
 62
     7
370
    18
100
AcDbLine
 10
616.7376309191867
 20
-29.10625285418715
 30
0.0
 11
627.7376309191867
 21
-29.10625285418715
 31
0.0
  0
LINE
  5
299
330
104
100
AcDbEntity
  8
2
  6
Continuous
 62
     7
370
    18
100
AcDbLine
 10
1044.737630919187
 20
-39.10625285418715
 30
0.0
 11
1032.337630919187
 21
-39.10625285418715
 31
0.0
  0
LINE
  5
29A
330
104
100
AcDbEntity
  8
2
  6
Continuous
 62
     7
370
    18
100
AcDbLine
 10
1032.337630919187
 20
-27.10625285418715
 30
0.0
 11
1044.737630919187
 21
-27.10625285418715
 31
0.0
  0
LINE
  5
29B
330
104
100
AcDbEntity
  8
2
  6
Continuous
 62
     7
370
    18
100
AcDbLine
 10
631.0376309191869
 20
-41.10625285418715
 30
0.0
 11
631.0376309191869
 21
-25.10625285418715
 31
0.0
  0
LINE
  5
29C
330
104
100
AcDbEntity
  8
2
  6
Continuous
 62
     7
370
    18
100
AcDbLine
 10
636.0376309191869
 20
-41.10625285418715
 30
0.0
 11
631.0376309191869
 21
-41.10625285418715
 31
0.0
  0
ARC
  5
29D
330
104
100
AcDbEntity
  8
2
  6
Continuous
 62
     7
370
    18
100
AcDbCircle
 10
644.1376309191868
 20
-53.60625285418715
 30
0.0
 40
8.1
100
AcDbArc
 50
180.0
 51
270.0
  0
LINE
  5
29E
330
104
100
AcDbEntity
  8
2
  6
Continuous
 62
     7
370
    18
100
AcDbLine
 10
636.0376309191869
 20
-25.10625285418715
 30
0.0
 11
631.0376309191869
 21
-25.10625285418715
 31
0.0
  0
LINE
  5
29F
330
104
100
AcDbEntity
  8
2
  6
Continuous
 62
     7
370
    18
100
AcDbLine
 10
1029.037630919187
 20
-41.10625285418715
 30
0.0
 11
1029.037630919187
 21
-25.10625285418715
 31
0.0
  0
LINE
  5
2A0
330
104
100
AcDbEntity
  8
2
  6
Continuous
 62
     7
370
    18
100
AcDbLine
 10
1024.037630919187
 20
-41.10625285418715
 30
0.0
 11
1029.037630919187
 21
-41.10625285418715
 31
0.0
  0
LINE
  5
2A1
330
104
100
AcDbEntity
  8
2
  6
Continuous
 62
     7
370
    18
100
AcDbLine
 10
1024.037630919187
 20
-25.10625285418715
 30
0.0
 11
1029.037630919187
 21
-25.10625285418715
 31
0.0
  0
LINE
  5
2A2
330
104
100
AcDbEntity
  8
2
  6
Continuous
 62
     7
370
    18
100
AcDbLine
 10
1015.937630919187
 20
-61.70625285418751
 30
0.0
 11
644.1376309191868
 21
-61.70625285418751
 31
0.0
  0
ARC
  5
2A3
330
104
100
AcDbEntity
  8
2
  6
Continuous
 62
     7
370
    18
100
AcDbCircle
 10
1015.937630919187
 20
-53.60625285418715
 30
0.0
 40
8.1
100
AcDbArc
 50
270.0
 51
0.0
  0
LINE
  5
2A4
330
104
100
AcDbEntity
  8
2
  6
Continuous
 62
     7
370
    18
100
AcDbLine
 10
630.0376309191869
 20
-29.10625285418715
 30
0.0
 11
631.0376309191869
 21
-29.10625285418715
 31
0.0
  0
LINE
  5
2A5
330
104
100
AcDbEntity
  8
2
  6
Continuous
 62
     7
370
    18
100
AcDbLine
 10
631.0376309191869
 20
-39.10625285418715
 30
0.0
 11
630.0376309191869
 21
-39.10625285418715
 31
0.0
  0
LINE
  5
2A6
330
104
100
AcDbEntity
  8
2
  6
Continuous
 62
     7
370
    18
100
AcDbLine
 10
1029.037630919187
 20
-27.10625285418715
 30
0.0
 11
1030.037630919187
 21
-27.10625285418715
 31
0.0
  0
LINE
  5
2A7
330
104
100
AcDbEntity
  8
2
  6
Continuous
 62
     7
370
    18
100
AcDbLine
 10
1030.037630919187
 20
-39.10625285418715
 30
0.0
 11
1029.037630919187
 21
-39.10625285418715
 31
0.0
  0
LINE
  5
2A8
330
104
100
AcDbEntity
  8
2
  6
Continuous
 62
     7
370
    18
100
AcDbLine
 10
636.0376309191869
 20
-12.60625285418715
 30
0.0
 11
636.0376309191869
 21
-53.60625285418715
 31
0.0
  0
ARC
  5
2A9
330
104
100
AcDbEntity
  8
2
  6
Continuous
 62
     7
370
    18
100
AcDbCircle
 10
644.1376309191868
 20
-12.60625285418715
 30
0.0
 40
8.1
100
AcDbArc
 50
90.0
 51
180.0
  0
LINE
  5
2AA
330
104
100
AcDbEntity
  8
2
  6
Continuous
 62
     7
370
    18
100
AcDbLine
 10
1024.037630919187
 20
-12.60625285418715
 30
0.0
 11
1024.037630919187
 21
-53.60625285418715
 31
0.0
  0
LINE
  5
2AB
330
104
100
AcDbEntity
  8
2
  6
Continuous
 62
     7
370
    18
100
AcDbLine
 10
644.1376309191868
 20
-4.506252854186783
 30
0.0
 11
1015.937630919187
 21
-4.506252854186783
 31
0.0
  0
ARC
  5
2AC
330
104
100
AcDbEntity
  8
2
  6
Continuous
 62
     7
370
    18
100
AcDbCircle
 10
1015.937630919187
 20
-12.60625285418715
 30
0.0
 40
8.1
100
AcDbArc
 50
0.0
 51
90.0
  0
LINE
  5
2AD
330
104
100
AcDbEntity
  8
2
  6
CENTER
 62
     3
370
    13
100
AcDbLine
 10
623.2376309191867
 20
-44.49491785418755
 30
0.0
 11
623.2376309191867
 21
-26.39915385418695
 31
0.0
  0
LINE
  5
2AE
330
104
100
AcDbEntity
  8
2
  6
CENTER
 62
     3
370
    13
100
AcDbLine
 10
611.7376309191867
 20
-33.10625285418715
 30
0.0
 11
1049.737630919187
 21
-33.10625285418715
 31
0.0
  0
ENDBLK
  5
106
330
104
100
AcDbEntity
  8
0
100
AcDbBlockEnd
  0
BLOCK
  5
108
330
107
100
AcDbEntity
  8
0
100
AcDbBlockBegin
  2
DC_IMAGEDIMGROUP_3
 70
     0
 10
0.0
 20
0.0
 30
0.0
  3
DC_IMAGEDIMGROUP_3
  1
DC_IMAGEDIMGROUP_3
  0
LINE
  5
2AF
330
107
100
AcDbEntity
  8
0
  6
Continuous
 62
     2
370
    13
100
AcDbLine
 10
885.9196525906551
 20
-61.7062528541875
 30
0.0
 11
885.9196525906551
 21
-4.506252854187139
 31
0.0
  0
LINE
  5
2B0
330
107
100
AcDbEntity
  8
0
  6
Continuous
 62
     2
370
    13
100
AcDbLine
 10
1010.937630919187
 20
-61.70625285418751
 30
0.0
 11
882.9196525906551
 21
-61.7062528541875
 31
0.0
  0
LINE
  5
2B1
330
107
100
AcDbEntity
  8
0
  6
Continuous
 62
     2
370
    13
100
AcDbLine
 10
1010.937630919187
 20
-4.506252854187153
 30
0.0
 11
882.9196525906551
 21
-4.506252854187139
 31
0.0
  0
LINE
  5
2B2
330
107
100
AcDbEntity
  8
0
  6
Continuous
 62
     2
370
    13
100
AcDbLine
 10
885.9196525906551
 20
74.69874714581287
 30
0.0
 11
885.9196525906551
 21
-4.506252854187139
 31
0.0
  0
INSERT
  5
2B3
330
107
100
AcDbEntity
  8
0
 62
     2
100
AcDbBlockReference
  2
_OPEN30
 10
885.9196525906551
 20
-4.506252854187139
 30
0.0
 41
18.00001684569172
 42
17.99993620934186
 50
270.0
  0
LINE
  5
2B4
330
107
100
AcDbEntity
  8
0
  6
Continuous
 62
     2
370
    13
100
AcDbLine
 10
885.9196525906551
 20
-79.2062528541875
 30
0.0
 11
885.9196525906551
 21
-61.7062528541875
 31
0.0
  0
INSERT
  5
2B5
330
107
100
AcDbEntity
  8
0
 62
     2
100
AcDbBlockReference
  2
_OPEN30
 10
885.9196525906551
 20
-61.7062528541875
 30
0.0
 41
18.00001684569172
 42
17.99993620934186
 50
90.0
  0
MTEXT
  5
2B6
330
107
100
AcDbEntity
  8
0
 62
     2
100
AcDbMText
 10
880.9196525906551
 20
2.698747145812874
 30
0.0
 40
24.0
 41
120.0
 46
0.0
 71
     7
 72
     1
  1
\T1.00;φ57.2
  7
dcStyle0
 11
6.123233995736766E-17
 21
1.0
 31
0.0
 73
     1
 44
1.0
  0
ENDBLK
  5
109
330
107
100
AcDbEntity
  8
0
100
AcDbBlockEnd
  0
BLOCK
  5
10B
330
10A
100
AcDbEntity
  8
0
100
AcDbBlockBegin
  2
*D31
 70
     1
 10
0.0
 20
0.0
 30
0.0
  3
*D31
  1
*D31
  0
LINE
  5
2B7
330
10A
100
AcDbEntity
  8
0
  6
Continuous
 62
     2
370
    13
100
AcDbLine
 10
636.0376309191869
 20
96.64374714581325
 30
0.0
 11
1024.037630919187
 21
96.64374714581325
 31
0.0
  0
INSERT
  5
2B8
330
10A
100
AcDbEntity
  8
0
 62
     2
100
AcDbBlockReference
  2
_OPEN30
 10
636.0376309191869
 20
96.64374714581325
 30
0.0
 41
18.00001684569172
 42
17.99993620934186
 50
180.0
  0
INSERT
  5
2B9
330
10A
100
AcDbEntity
  8
0
 62
     2
100
AcDbBlockReference
  2
_OPEN30
 10
1024.037630919187
 20
96.64374714581325
 30
0.0
 41
18.00001684569172
 42
17.99993620934186
 50
360.0
  0
LINE
  5
2BA
330
10A
100
AcDbEntity
  8
0
  6
Continuous
 62
     2
370
    13
100
AcDbLine
 10
636.0376309191869
 20
-7.606252854187147
 30
0.0
 11
636.0376309191869
 21
99.64374714581325
 31
0.0
  0
LINE
  5
2BB
330
10A
100
AcDbEntity
  8
0
  6
Continuous
 62
     2
370
    13
100
AcDbLine
 10
1024.037630919187
 20
-7.606252854187147
 30
0.0
 11
1024.037630919187
 21
99.64374714581325
 31
0.0
  0
MTEXT
  5
2BC
330
10A
100
AcDbEntity
  8
0
 62
     2
100
AcDbMText
 10
830.0376309191869
 20
101.6437471458133
 30
0.0
 40
24.0
 41
138.0000000000001
 46
0.0
 71
     8
 72
     1
  1
\T1.00;ローラ幅
  7
dcStyle0
 73
     1
 44
1.0
  0
ENDBLK
  5
10C
330
10A
100
AcDbEntity
  8
0
100
AcDbBlockEnd
  0
BLOCK
  5
10E
330
10D
100
AcDbEntity
  8
0
100
AcDbBlockBegin
  2
*D32
 70
     1
 10
0.0
 20
0.0
 30
0.0
  3
*D32
  1
*D32
  0
LINE
  5
2BD
330
10D
100
AcDbEntity
  8
0
  6
Continuous
 62
     2
370
    13
100
AcDbLine
 10
408.0376309191869
 20
-104.6062528541871
 30
0.0
 11
408.0376309191869
 21
-4.506252854186769
 31
0.0
  0
INSERT
  5
2BE
330
10D
100
AcDbEntity
  8
0
 62
     2
100
AcDbBlockReference
  2
_OPEN30
 10
408.0376309191869
 20
-104.6062528541871
 30
0.0
 41
18.00001684569172
 42
17.99993620934186
 50
270.0
  0
INSERT
  5
2BF
330
10D
100
AcDbEntity
  8
0
 62
     2
100
AcDbBlockReference
  2
_OPEN30
 10
408.0376309191869
 20
-4.506252854186769
 30
0.0
 41
18.00001684569172
 42
17.99993620934186
 50
90.0
  0
LINE
  5
2C0
330
10D
100
AcDbEntity
  8
0
  6
Continuous
 62
     2
370
    13
100
AcDbLine
 10
594.0376309191869
 20
-104.6062528541871
 30
0.0
 11
405.0376309191869
 21
-104.6062528541871
 31
0.0
  0
LINE
  5
2C1
330
10D
100
AcDbEntity
  8
0
  6
Continuous
 62
     2
370
    13
100
AcDbLine
 10
639.1376309191868
 20
-4.506252854186783
 30
0.0
 11
405.0376309191869
 21
-4.506252854186769
 31
0.0
  0
MTEXT
  5
2C2
330
10D
100
AcDbEntity
  8
0
 62
     2
100
AcDbMText
 10
403.0376309191869
 20
-54.55625285418695
 30
0.0
 40
24.0
 41
75.0
 46
0.0
 71
     8
 72
     1
  1
\T1.00;100
  7
dcStyle0
 11
6.123233995736766E-17
 21
1.0
 31
0.0
 73
     1
 44
1.0
  0
ENDBLK
  5
10F
330
10D
100
AcDbEntity
  8
0
100
AcDbBlockEnd
  0
BLOCK
  5
111
330
110
100
AcDbEntity
  8
0
100
AcDbBlockBegin
  2
DC_GROUP_W_JR-5714_S_040_5
 70
     0
 10
0.0
 20
0.0
 30
0.0
  3
DC_GROUP_W_JR-5714_S_040_5
  1
DC_GROUP_W_JR-5714_S_040_5
  0
LINE
  5
2C3
330
110
100
AcDbEntity
  8
0
  6
Continuous
 62
     7
370
    18
100
AcDbLine
 10
6.54120425971621
 20
-104.6062528541871
 30
0.0
 11
56.54120425971621
 21
-104.6062528541871
 31
0.0
  0
ENDBLK
  5
112
330
110
100
AcDbEntity
  8
0
100
AcDbBlockEnd
  0
BLOCK
  5
114
330
113
100
AcDbEntity
  8
0
100
AcDbBlockBegin
  2
DC_GROUP_W_JR-5714_S_040_6
 70
     0
 10
0.0
 20
0.0
 30
0.0
  3
DC_GROUP_W_JR-5714_S_040_6
  1
DC_GROUP_W_JR-5714_S_040_6
  0
CIRCLE
  5
2C4
330
113
100
AcDbEntity
  8
0
  6
Continuous
 62
     7
370
    18
100
AcDbCircle
 10
-588.9587957402838
 20
-54.60625285418715
 30
0.0
 40
10.5
  0
LINE
  5
2C5
330
113
100
AcDbEntity
  8
0
  6
CENTER
 62
     3
370
    13
100
AcDbLine
 10
-588.9587957402838
 20
-36.90625285418733
 30
0.0
 11
-588.9587957402838
 21
-72.30625285418697
 31
0.0
  0
LINE
  5
2C6
330
113
100
AcDbEntity
  8
0
  6
CENTER
 62
     3
370
    13
100
AcDbLine
 10
-604.957318740284
 20
-54.60625285418715
 30
0.0
 11
-572.9602727402836
 21
-54.60625285418715
 31
0.0
  0
INSERT
  5
2C7
330
113
100
AcDbEntity
  8
0
  6
Continuous
100
AcDbBlockReference
  2
DC_GROUP_W_JR-5714_S_040_7
 10
0.0
 20
0.0
 30
0.0
  0
ENDBLK
  5
115
330
113
100
AcDbEntity
  8
0
100
AcDbBlockEnd
  0
BLOCK
  5
117
330
116
100
AcDbEntity
  8
0
100
AcDbBlockBegin
  2
DC_GROUP_W_JR-5714_S_040_7
 70
     0
 10
0.0
 20
0.0
 30
0.0
  3
DC_GROUP_W_JR-5714_S_040_7
  1
DC_GROUP_W_JR-5714_S_040_7
  0
LINE
  5
2C8
330
116
100
AcDbEntity
  8
0
  6
Continuous
 62
     7
370
    18
100
AcDbLine
 10
-588.9587957402838
 20
-41.90625285418733
 30
0.0
 11
-599.957318740284
 21
-48.25625285418678
 31
0.0
  0
LINE
  5
2C9
330
116
100
AcDbEntity
  8
0
  6
Continuous
 62
     7
370
    18
100
AcDbLine
 10
-599.957318740284
 20
-48.25625285418678
 30
0.0
 11
-599.957318740284
 21
-60.95625285418751
 31
0.0
  0
LINE
  5
2CA
330
116
100
AcDbEntity
  8
0
  6
Continuous
 62
     7
370
    18
100
AcDbLine
 10
-599.957318740284
 20
-60.95625285418751
 30
0.0
 11
-588.9587957402838
 21
-67.30625285418697
 31
0.0
  0
LINE
  5
2CB
330
116
100
AcDbEntity
  8
0
  6
Continuous
 62
     7
370
    18
100
AcDbLine
 10
-588.9587957402838
 20
-67.30625285418697
 30
0.0
 11
-577.9602727402836
 21
-60.95625285418751
 31
0.0
  0
LINE
  5
2CC
330
116
100
AcDbEntity
  8
0
  6
Continuous
 62
     7
370
    18
100
AcDbLine
 10
-577.9602727402836
 20
-60.95625285418751
 30
0.0
 11
-577.9602727402836
 21
-48.25625285418678
 31
0.0
  0
LINE
  5
2CD
330
116
100
AcDbEntity
  8
0
  6
Continuous
 62
     7
370
    18
100
AcDbLine
 10
-577.9602727402836
 20
-48.25625285418678
 30
0.0
 11
-588.9587957402838
 21
-41.90625285418733
 31
0.0
  0
ENDBLK
  5
118
330
116
100
AcDbEntity
  8
0
100
AcDbBlockEnd
  0
BLOCK
  5
11A
330
119
100
AcDbEntity
  8
0
100
AcDbBlockBegin
  2
DC_GROUP_W_JR-5714_S_040_8
 70
     0
 10
0.0
 20
0.0
 30
0.0
  3
DC_GROUP_W_JR-5714_S_040_8
  1
DC_GROUP_W_JR-5714_S_040_8
  0
CIRCLE
  5
2CE
330
119
100
AcDbEntity
  8
0
  6
Continuous
 62
     7
370
    18
100
AcDbCircle
 10
-773.9587957402838
 20
-64.60625285418715
 30
0.0
 40
5.0
  0
LINE
  5
2CF
330
119
100
AcDbEntity
  8
0
  6
CENTER
 62
     3
370
    13
100
AcDbLine
 10
-773.9587957402838
 20
-74.60625285418715
 30
0.0
 11
-773.9587957402838
 21
-54.60625285418715
 31
0.0
  0
LINE
  5
2D0
330
119
100
AcDbEntity
  8
0
  6
CENTER
 62
     3
370
    13
100
AcDbLine
 10
-783.9587957402838
 20
-64.60625285418715
 30
0.0
 11
-763.9587957402838
 21
-64.60625285418715
 31
0.0
  0
ENDBLK
  5
11B
330
119
100
AcDbEntity
  8
0
100
AcDbBlockEnd
  0
BLOCK
  5
11D
330
11C
100
AcDbEntity
  8
0
100
AcDbBlockBegin
  2
DC_GROUP_W_JR-5714_S_040_9
 70
     0
 10
0.0
 20
0.0
 30
0.0
  3
DC_GROUP_W_JR-5714_S_040_9
  1
DC_GROUP_W_JR-5714_S_040_9
  0
CIRCLE
  5
2D1
330
11C
100
AcDbEntity
  8
0
  6
Continuous
 62
     7
370
    18
100
AcDbCircle
 10
11.04120425971621
 20
-54.60625285418715
 30
0.0
 40
10.5
  0
LINE
  5
2D2
330
11C
100
AcDbEntity
  8
0
  6
CENTER
 62
     3
370
    13
100
AcDbLine
 10
11.04120425971621
 20
-36.90625285418733
 30
0.0
 11
11.04120425971621
 21
-72.30625285418697
 31
0.0
  0
LINE
  5
2D3
330
11C
100
AcDbEntity
  8
0
  6
CENTER
 62
     3
370
    13
100
AcDbLine
 10
-4.957318740283995
 20
-54.60625285418715
 30
0.0
 11
27.03972725971641
 21
-54.60625285418715
 31
0.0
  0
INSERT
  5
2D4
330
11C
100
AcDbEntity
  8
0
  6
Continuous
100
AcDbBlockReference
  2
DC_GROUP_W_JR-5714_S_040_10
 10
0.0
 20
0.0
 30
0.0
  0
ENDBLK
  5
11E
330
11C
100
AcDbEntity
  8
0
100
AcDbBlockEnd
  0
BLOCK
  5
120
330
11F
100
AcDbEntity
  8
0
100
AcDbBlockBegin
  2
DC_GROUP_W_JR-5714_S_040_10
 70
     0
 10
0.0
 20
0.0
 30
0.0
  3
DC_GROUP_W_JR-5714_S_040_10
  1
DC_GROUP_W_JR-5714_S_040_10
  0
LINE
  5
2D5
330
11F
100
AcDbEntity
  8
0
  6
Continuous
 62
     7
370
    18
100
AcDbLine
 10
11.04120425971621
 20
-41.90625285418733
 30
0.0
 11
0.0426812597160051
 21
-48.25625285418678
 31
0.0
  0
LINE
  5
2D6
330
11F
100
AcDbEntity
  8
0
  6
Continuous
 62
     7
370
    18
100
AcDbLine
 10
0.0426812597160051
 20
-48.25625285418678
 30
0.0
 11
0.0426812597160051
 21
-60.95625285418751
 31
0.0
  0
LINE
  5
2D7
330
11F
100
AcDbEntity
  8
0
  6
Continuous
 62
     7
370
    18
100
AcDbLine
 10
0.0426812597160051
 20
-60.95625285418751
 30
0.0
 11
11.04120425971621
 21
-67.30625285418697
 31
0.0
  0
LINE
  5
2D8
330
11F
100
AcDbEntity
  8
0
  6
Continuous
 62
     7
370
    18
100
AcDbLine
 10
11.04120425971621
 20
-67.30625285418697
 30
0.0
 11
22.03972725971641
 21
-60.95625285418751
 31
0.0
  0
LINE
  5
2D9
330
11F
100
AcDbEntity
  8
0
  6
Continuous
 62
     7
370
    18
100
AcDbLine
 10
22.03972725971641
 20
-60.95625285418751
 30
0.0
 11
22.03972725971641
 21
-48.25625285418678
 31
0.0
  0
LINE
  5
2DA
330
11F
100
AcDbEntity
  8
0
  6
Continuous
 62
     7
370
    18
100
AcDbLine
 10
22.03972725971641
 20
-48.25625285418678
 30
0.0
 11
11.04120425971621
 21
-41.90625285418733
 31
0.0
  0
ENDBLK
  5
121
330
11F
100
AcDbEntity
  8
0
100
AcDbBlockEnd
  0
BLOCK
  5
123
330
122
100
AcDbEntity
  8
0
100
AcDbBlockBegin
  2
DC_GROUP_W_JR-5714_S_040_11
 70
     0
 10
0.0
 20
0.0
 30
0.0
  3
DC_GROUP_W_JR-5714_S_040_11
  1
DC_GROUP_W_JR-5714_S_040_11
  0
CIRCLE
  5
2DB
330
122
100
AcDbEntity
  8
0
  6
Continuous
 62
     7
370
    18
100
AcDbCircle
 10
196.0412042597162
 20
-64.60625285418715
 30
0.0
 40
5.0
  0
LINE
  5
2DC
330
122
100
AcDbEntity
  8
0
  6
CENTER
 62
     3
370
    13
100
AcDbLine
 10
196.0412042597162
 20
-74.60625285418715
 30
0.0
 11
196.0412042597162
 21
-54.60625285418715
 31
0.0
  0
LINE
  5
2DD
330
122
100
AcDbEntity
  8
0
  6
CENTER
 62
     3
370
    13
100
AcDbLine
 10
206.0412042597162
 20
-64.60625285418715
 30
0.0
 11
186.0412042597162
 21
-64.60625285418715
 31
0.0
  0
ENDBLK
  5
124
330
122
100
AcDbEntity
  8
0
100
AcDbBlockEnd
  0
BLOCK
  5
126
330
125
100
AcDbEntity
  8
0
100
AcDbBlockBegin
  2
*D40
 70
     1
 10
0.0
 20
0.0
 30
0.0
  3
*D40
  1
*D40
  0
LINE
  5
2DE
330
125
100
AcDbEntity
  8
0
  6
Continuous
 62
     2
370
    13
100
AcDbLine
 10
-688.9587957402838
 20
67.29374714581249
 30
0.0
 11
-488.9587957402838
 21
67.29374714581249
 31
0.0
  0
INSERT
  5
2DF
330
125
100
AcDbEntity
  8
0
 62
     2
100
AcDbBlockReference
  2
_OPEN30
 10
-688.9587957402838
 20
67.29374714581249
 30
0.0
 41
18.00001684569172
 42
17.99993620934186
 50
180.0
  0
INSERT
  5
2E0
330
125
100
AcDbEntity
  8
0
 62
     2
100
AcDbBlockReference
  2
_OPEN30
 10
-488.9587957402838
 20
67.29374714581249
 30
0.0
 41
18.00001684569172
 42
17.99993620934186
 50
360.0
  0
LINE
  5
2E1
330
125
100
AcDbEntity
  8
0
  6
Continuous
 62
     2
370
    13
100
AcDbLine
 10
-688.9587957402838
 20
8.993747145813217
 30
0.0
 11
-688.9587957402838
 21
70.29374714581249
 31
0.0
  0
LINE
  5
2E2
330
125
100
AcDbEntity
  8
0
  6
Continuous
 62
     2
370
    13
100
AcDbLine
 10
-488.9587957402838
 20
8.993747145813217
 30
0.0
 11
-488.9587957402838
 21
70.29374714581249
 31
0.0
  0
MTEXT
  5
2E3
330
125
100
AcDbEntity
  8
0
 62
     2
100
AcDbMText
 10
-588.9587957402838
 20
72.29374714581249
 30
0.0
 40
24.0
 41
75.0
 46
0.0
 71
     8
 72
     1
  1
\T1.00;200
  7
dcStyle0
 73
     1
 44
1.0
  0
ENDBLK
  5
127
330
125
100
AcDbEntity
  8
0
100
AcDbBlockEnd
  0
BLOCK
  5
129
330
128
100
AcDbEntity
  8
0
100
AcDbBlockBegin
  2
DC_GROUP_W_JR-5714_S_040_12
 70
     0
 10
0.0
 20
0.0
 30
0.0
  3
DC_GROUP_W_JR-5714_S_040_12
  1
DC_GROUP_W_JR-5714_S_040_12
  0
LINE
  5
2E4
330
128
100
AcDbEntity
  8
2
  6
CENTER
 62
     3
370
    13
100
AcDbLine
 10
-688.9587957402838
 20
3.043747145812489
 30
0.0
 11
-688.9587957402838
 21
-69.25625285418678
 31
0.0
  0
INSERT
  5
2E5
330
128
100
AcDbEntity
  8
2
  6
Continuous
100
AcDbBlockReference
  2
DC_GROUP_W_JR-5714_S_040_13
 10
0.0
 20
0.0
 30
0.0
  0
ARC
  5
2E6
330
128
100
AcDbEntity
  8
2
  6
DASHED2
 62
     4
370
    13
100
AcDbCircle
 10
-688.9587957402838
 20
-33.10625285418715
 30
0.0
 40
28.6
100
AcDbArc
 50
139.6952393339542
 51
40.30476066604574
  0
ARC
  5
2E7
330
128
100
AcDbEntity
  8
2
  6
Continuous
 62
     7
370
    18
100
AcDbCircle
 10
-688.9587957402838
 20
-33.10625285418715
 30
0.0
 40
28.6
100
AcDbArc
 50
40.30476066604577
 51
139.6952393339542
  0
ENDBLK
  5
12A
330
128
100
AcDbEntity
  8
0
100
AcDbBlockEnd
  0
BLOCK
  5
12C
330
12B
100
AcDbEntity
  8
0
100
AcDbBlockBegin
  2
DC_GROUP_W_JR-5714_S_040_13
 70
     0
 10
0.0
 20
0.0
 30
0.0
  3
DC_GROUP_W_JR-5714_S_040_13
  1
DC_GROUP_W_JR-5714_S_040_13
  0
LINE
  5
2E8
330
12B
100
AcDbEntity
  8
2
  6
Continuous
 62
     7
370
    18
100
AcDbLine
 10
-693.6302517402838
 20
-29.10625285418715
 30
0.0
 11
-684.2873397402838
 21
-29.10625285418715
 31
0.0
  0
ARC
  5
2E9
330
12B
100
AcDbEntity
  8
2
  6
Continuous
 62
     7
370
    18
100
AcDbCircle
 10
-688.9587957402838
 20
-33.10625285418715
 30
0.0
 40
6.15
100
AcDbArc
 50
139.4277419999989
 51
40.57225800000106
  0
ENDBLK
  5
12D
330
12B
100
AcDbEntity
  8
0
100
AcDbBlockEnd
  0
BLOCK
  5
12F
330
12E
100
AcDbEntity
  8
0
100
AcDbBlockBegin
  2
DC_GROUP_W_JR-5714_S_040_14
 70
     0
 10
0.0
 20
0.0
 30
0.0
  3
DC_GROUP_W_JR-5714_S_040_14
  1
DC_GROUP_W_JR-5714_S_040_14
  0
LINE
  5
2EA
330
12E
100
AcDbEntity
  8
2
  6
CENTER
 62
     3
370
    13
100
AcDbLine
 10
-638.9587957402838
 20
-21.95625285418751
 30
0.0
 11
-638.9587957402838
 21
-44.25625285418678
 31
0.0
  0
INSERT
  5
2EB
330
12E
100
AcDbEntity
  8
2
  6
Continuous
100
AcDbBlockReference
  2
DC_GROUP_W_JR-5714_S_040_15
 10
0.0
 20
0.0
 30
0.0
  0
ENDBLK
  5
130
330
12E
100
AcDbEntity
  8
0
100
AcDbBlockEnd
  0
BLOCK
  5
132
330
131
100
AcDbEntity
  8
0
100
AcDbBlockBegin
  2
DC_GROUP_W_JR-5714_S_040_15
 70
     0
 10
0.0
 20
0.0
 30
0.0
  3
DC_GROUP_W_JR-5714_S_040_15
  1
DC_GROUP_W_JR-5714_S_040_15
  0
LINE
  5
2EC
330
131
100
AcDbEntity
  8
2
  6
Continuous
 62
     7
370
    18
100
AcDbLine
 10
-634.2873397402838
 20
-29.10625285418715
 30
0.0
 11
-643.6302517402838
 21
-29.10625285418715
 31
0.0
  0
ARC
  5
2ED
330
131
100
AcDbEntity
  8
2
  6
Continuous
 62
     7
370
    18
100
AcDbCircle
 10
-638.9587957402838
 20
-33.10625285418715
 30
0.0
 40
6.15
100
AcDbArc
 50
139.4277419999989
 51
40.57225800000106
  0
ENDBLK
  5
133
330
131
100
AcDbEntity
  8
0
100
AcDbBlockEnd
  0
BLOCK
  5
135
330
134
100
AcDbEntity
  8
0
100
AcDbBlockBegin
  2
*D45
 70
     1
 10
0.0
 20
0.0
 30
0.0
  3
*D45
  1
*D45
  0
LINE
  5
2EE
330
134
100
AcDbEntity
  8
0
  6
Continuous
 62
     2
370
    13
100
AcDbLine
 10
-21.5008391819067
 20
-104.6062528541871
 30
0.0
 11
-21.5008391819067
 21
-54.60625285418715
 31
0.0
  0
LINE
  5
2EF
330
134
100
AcDbEntity
  8
0
  6
Continuous
 62
     2
370
    13
100
AcDbLine
 10
26.04120425971621
 20
-104.6062528541871
 30
0.0
 11
-24.0008391819067
 21
-104.6062528541871
 31
0.0
  0
LINE
  5
2F0
330
134
100
AcDbEntity
  8
0
  6
Continuous
 62
     2
370
    13
100
AcDbLine
 10
-9.957318740283995
 20
-54.60625285418715
 30
0.0
 11
-24.0008391819067
 21
-54.60625285418715
 31
0.0
  0
LINE
  5
2F1
330
134
100
AcDbEntity
  8
0
  6
Continuous
 62
     2
370
    13
100
AcDbLine
 10
-21.5008391819067
 20
-135.8112528541872
 30
0.0
 11
-21.5008391819067
 21
-104.6062528541871
 31
0.0
  0
INSERT
  5
2F2
330
134
100
AcDbEntity
  8
0
 62
     2
100
AcDbBlockReference
  2
_OPEN30
 10
-21.5008391819067
 20
-104.6062528541871
 30
0.0
 41
18.00001684569172
 42
17.99993620934186
 50
90.0
  0
LINE
  5
2F3
330
134
100
AcDbEntity
  8
0
  6
Continuous
 62
     2
370
    13
100
AcDbLine
 10
-21.5008391819067
 20
-37.10625285418715
 30
0.0
 11
-21.5008391819067
 21
-54.60625285418715
 31
0.0
  0
INSERT
  5
2F4
330
134
100
AcDbEntity
  8
0
 62
     2
100
AcDbBlockReference
  2
_OPEN30
 10
-21.5008391819067
 20
-54.60625285418715
 30
0.0
 41
18.00001684569172
 42
17.99993620934186
 50
270.0
  0
MTEXT
  5
2F5
330
134
100
AcDbEntity
  8
0
 62
     2
100
AcDbMText
 10
-26.5008391819067
 20
-111.8112528541871
 30
0.0
 40
24.0
 41
60.00000000000001
 46
0.0
 71
     9
 72
     1
  1
\T1.00;50
  7
dcStyle0
 11
6.123233995736766E-17
 21
1.0
 31
0.0
 73
     1
 44
1.0
  0
ENDBLK
  5
136
330
134
100
AcDbEntity
  8
0
100
AcDbBlockEnd
  0
BLOCK
  5
138
330
137
100
AcDbEntity
  8
0
100
AcDbBlockBegin
  2
DC_GROUP_W_JR-5714_S_040_16
 70
     0
 10
0.0
 20
0.0
 30
0.0
  3
DC_GROUP_W_JR-5714_S_040_16
  1
DC_GROUP_W_JR-5714_S_040_16
  0
LINE
  5
2F6
330
137
100
AcDbEntity
  8
2
  6
CENTER
 62
     3
370
    13
100
AcDbLine
 10
-488.9587957402838
 20
3.043747145812489
 30
0.0
 11
-488.9587957402838
 21
-69.25625285418678
 31
0.0
  0
INSERT
  5
2F7
330
137
100
AcDbEntity
  8
2
  6
Continuous
100
AcDbBlockReference
  2
DC_GROUP_W_JR-5714_S_040_17
 10
0.0
 20
0.0
 30
0.0
  0
ARC
  5
2F8
330
137
100
AcDbEntity
  8
2
  6
DASHED2
 62
     4
370
    13
100
AcDbCircle
 10
-488.9587957402838
 20
-33.10625285418715
 30
0.0
 40
28.6
100
AcDbArc
 50
139.6952393339542
 51
40.30476066604574
  0
ARC
  5
2F9
330
137
100
AcDbEntity
  8
2
  6
Continuous
 62
     7
370
    18
100
AcDbCircle
 10
-488.9587957402838
 20
-33.10625285418715
 30
0.0
 40
28.6
100
AcDbArc
 50
40.30476066604577
 51
139.6952393339542
  0
ENDBLK
  5
139
330
137
100
AcDbEntity
  8
0
100
AcDbBlockEnd
  0
BLOCK
  5
13B
330
13A
100
AcDbEntity
  8
0
100
AcDbBlockBegin
  2
DC_GROUP_W_JR-5714_S_040_17
 70
     0
 10
0.0
 20
0.0
 30
0.0
  3
DC_GROUP_W_JR-5714_S_040_17
  1
DC_GROUP_W_JR-5714_S_040_17
  0
LINE
  5
2FA
330
13A
100
AcDbEntity
  8
2
  6
Continuous
 62
     7
370
    18
100
AcDbLine
 10
-493.6302517402838
 20
-29.10625285418715
 30
0.0
 11
-484.2873397402838
 21
-29.10625285418715
 31
0.0
  0
ARC
  5
2FB
330
13A
100
AcDbEntity
  8
2
  6
Continuous
 62
     7
370
    18
100
AcDbCircle
 10
-488.9587957402838
 20
-33.10625285418715
 30
0.0
 40
6.15
100
AcDbArc
 50
139.4277419999989
 51
40.57225800000106
  0
ENDBLK
  5
13C
330
13A
100
AcDbEntity
  8
0
100
AcDbBlockEnd
  0
BLOCK
  5
13E
330
13D
100
AcDbEntity
  8
0
100
AcDbBlockBegin
  2
DC_GROUP_W_JR-5714_S_040_18
 70
     0
 10
0.0
 20
0.0
 30
0.0
  3
DC_GROUP_W_JR-5714_S_040_18
  1
DC_GROUP_W_JR-5714_S_040_18
  0
LINE
  5
2FC
330
13D
100
AcDbEntity
  8
2
  6
CENTER
 62
     3
370
    13
100
AcDbLine
 10
-588.9587957402838
 20
-21.95625285418751
 30
0.0
 11
-588.9587957402838
 21
-44.25625285418678
 31
0.0
  0
INSERT
  5
2FD
330
13D
100
AcDbEntity
  8
2
  6
Continuous
100
AcDbBlockReference
  2
DC_GROUP_W_JR-5714_S_040_19
 10
0.0
 20
0.0
 30
0.0
  0
ENDBLK
  5
13F
330
13D
100
AcDbEntity
  8
0
100
AcDbBlockEnd
  0
BLOCK
  5
141
330
140
100
AcDbEntity
  8
0
100
AcDbBlockBegin
  2
DC_GROUP_W_JR-5714_S_040_19
 70
     0
 10
0.0
 20
0.0
 30
0.0
  3
DC_GROUP_W_JR-5714_S_040_19
  1
DC_GROUP_W_JR-5714_S_040_19
  0
LINE
  5
2FE
330
140
100
AcDbEntity
  8
2
  6
Continuous
 62
     7
370
    18
100
AcDbLine
 10
-584.2873397402838
 20
-29.10625285418715
 30
0.0
 11
-593.6302517402838
 21
-29.10625285418715
 31
0.0
  0
ARC
  5
2FF
330
140
100
AcDbEntity
  8
2
  6
Continuous
 62
     7
370
    18
100
AcDbCircle
 10
-588.9587957402838
 20
-33.10625285418715
 30
0.0
 40
6.15
100
AcDbArc
 50
139.4277419999989
 51
40.57225800000106
  0
ENDBLK
  5
142
330
140
100
AcDbEntity
  8
0
100
AcDbBlockEnd
  0
BLOCK
  5
144
330
143
100
AcDbEntity
  8
0
100
AcDbBlockBegin
  2
DC_GROUP_W_JR-5714_S_040_20
 70
     0
 10
0.0
 20
0.0
 30
0.0
  3
DC_GROUP_W_JR-5714_S_040_20
  1
DC_GROUP_W_JR-5714_S_040_20
  0
LINE
  5
300
330
143
100
AcDbEntity
  8
2
  6
CENTER
 62
     3
370
    13
100
AcDbLine
 10
-538.9587957402838
 20
-21.95625285418751
 30
0.0
 11
-538.9587957402838
 21
-44.25625285418678
 31
0.0
  0
INSERT
  5
301
330
143
100
AcDbEntity
  8
2
  6
Continuous
100
AcDbBlockReference
  2
DC_GROUP_W_JR-5714_S_040_21
 10
0.0
 20
0.0
 30
0.0
  0
ENDBLK
  5
145
330
143
100
AcDbEntity
  8
0
100
AcDbBlockEnd
  0
BLOCK
  5
147
330
146
100
AcDbEntity
  8
0
100
AcDbBlockBegin
  2
DC_GROUP_W_JR-5714_S_040_21
 70
     0
 10
0.0
 20
0.0
 30
0.0
  3
DC_GROUP_W_JR-5714_S_040_21
  1
DC_GROUP_W_JR-5714_S_040_21
  0
LINE
  5
302
330
146
100
AcDbEntity
  8
2
  6
Continuous
 62
     7
370
    18
100
AcDbLine
 10
-534.2873397402838
 20
-29.10625285418715
 30
0.0
 11
-543.6302517402838
 21
-29.10625285418715
 31
0.0
  0
ARC
  5
303
330
146
100
AcDbEntity
  8
2
  6
Continuous
 62
     7
370
    18
100
AcDbCircle
 10
-538.9587957402838
 20
-33.10625285418715
 30
0.0
 40
6.15
100
AcDbArc
 50
139.4277419999989
 51
40.57225800000106
  0
ENDBLK
  5
148
330
146
100
AcDbEntity
  8
0
100
AcDbBlockEnd
  0
BLOCK
  5
14A
330
149
100
AcDbEntity
  8
0
100
AcDbBlockBegin
  2
DC_GROUP_W_JR-5714_S_040_22
 70
     0
 10
0.0
 20
0.0
 30
0.0
  3
DC_GROUP_W_JR-5714_S_040_22
  1
DC_GROUP_W_JR-5714_S_040_22
  0
LINE
  5
304
330
149
100
AcDbEntity
  8
2
  6
CENTER
 62
     3
370
    13
100
AcDbLine
 10
-738.9587957402838
 20
-21.95625285418751
 30
0.0
 11
-738.9587957402838
 21
-44.25625285418678
 31
0.0
  0
INSERT
  5
305
330
149
100
AcDbEntity
  8
2
  6
Continuous
100
AcDbBlockReference
  2
DC_GROUP_W_JR-5714_S_040_23
 10
0.0
 20
0.0
 30
0.0
  0
ENDBLK
  5
14B
330
149
100
AcDbEntity
  8
0
100
AcDbBlockEnd
  0
BLOCK
  5
14D
330
14C
100
AcDbEntity
  8
0
100
AcDbBlockBegin
  2
DC_GROUP_W_JR-5714_S_040_23
 70
     0
 10
0.0
 20
0.0
 30
0.0
  3
DC_GROUP_W_JR-5714_S_040_23
  1
DC_GROUP_W_JR-5714_S_040_23
  0
LINE
  5
306
330
14C
100
AcDbEntity
  8
2
  6
Continuous
 62
     7
370
    18
100
AcDbLine
 10
-734.2873397402838
 20
-29.10625285418715
 30
0.0
 11
-743.6302517402838
 21
-29.10625285418715
 31
0.0
  0
ARC
  5
307
330
14C
100
AcDbEntity
  8
2
  6
Continuous
 62
     7
370
    18
100
AcDbCircle
 10
-738.9587957402838
 20
-33.10625285418715
 30
0.0
 40
6.15
100
AcDbArc
 50
139.4277419999989
 51
40.57225800000106
  0
ENDBLK
  5
14E
330
14C
100
AcDbEntity
  8
0
100
AcDbBlockEnd
  0
BLOCK
  5
150
330
14F
100
AcDbEntity
  8
0
100
AcDbBlockBegin
  2
DC_GROUP_W_JR-5714_S_040_24
 70
     0
 10
0.0
 20
0.0
 30
0.0
  3
DC_GROUP_W_JR-5714_S_040_24
  1
DC_GROUP_W_JR-5714_S_040_24
  0
LINE
  5
308
330
14F
100
AcDbEntity
  8
2
  6
CENTER
 62
     3
370
    13
100
AcDbLine
 10
-438.9587957402838
 20
-21.95625285418751
 30
0.0
 11
-438.9587957402838
 21
-44.25625285418678
 31
0.0
  0
INSERT
  5
309
330
14F
100
AcDbEntity
  8
2
  6
Continuous
100
AcDbBlockReference
  2
DC_GROUP_W_JR-5714_S_040_25
 10
0.0
 20
0.0
 30
0.0
  0
ENDBLK
  5
151
330
14F
100
AcDbEntity
  8
0
100
AcDbBlockEnd
  0
BLOCK
  5
153
330
152
100
AcDbEntity
  8
0
100
AcDbBlockBegin
  2
DC_GROUP_W_JR-5714_S_040_25
 70
     0
 10
0.0
 20
0.0
 30
0.0
  3
DC_GROUP_W_JR-5714_S_040_25
  1
DC_GROUP_W_JR-5714_S_040_25
  0
LINE
  5
30A
330
152
100
AcDbEntity
  8
2
  6
Continuous
 62
     7
370
    18
100
AcDbLine
 10
-434.2873397402838
 20
-29.10625285418715
 30
0.0
 11
-443.6302517402838
 21
-29.10625285418715
 31
0.0
  0
ARC
  5
30B
330
152
100
AcDbEntity
  8
2
  6
Continuous
 62
     7
370
    18
100
AcDbCircle
 10
-438.9587957402838
 20
-33.10625285418715
 30
0.0
 40
6.15
100
AcDbArc
 50
139.4277419999989
 51
40.57225800000106
  0
ENDBLK
  5
154
330
152
100
AcDbEntity
  8
0
100
AcDbBlockEnd
  0
BLOCK
  5
156
330
155
100
AcDbEntity
  8
0
100
AcDbBlockBegin
  2
DC_GROUP_W_JR-5714_S_040_26
 70
     0
 10
0.0
 20
0.0
 30
0.0
  3
DC_GROUP_W_JR-5714_S_040_26
  1
DC_GROUP_W_JR-5714_S_040_26
  0
LINE
  5
30C
330
155
100
AcDbEntity
  8
2
  6
CENTER
 62
     3
370
    13
100
AcDbLine
 10
-288.9587957402838
 20
3.043747145812489
 30
0.0
 11
-288.9587957402838
 21
-69.25625285418678
 31
0.0
  0
INSERT
  5
30D
330
155
100
AcDbEntity
  8
2
  6
Continuous
100
AcDbBlockReference
  2
DC_GROUP_W_JR-5714_S_040_27
 10
0.0
 20
0.0
 30
0.0
  0
ARC
  5
30E
330
155
100
AcDbEntity
  8
2
  6
DASHED2
 62
     4
370
    13
100
AcDbCircle
 10
-288.9587957402838
 20
-33.10625285418715
 30
0.0
 40
28.6
100
AcDbArc
 50
139.6952393339542
 51
40.30476066604574
  0
ARC
  5
30F
330
155
100
AcDbEntity
  8
2
  6
Continuous
 62
     7
370
    18
100
AcDbCircle
 10
-288.9587957402838
 20
-33.10625285418715
 30
0.0
 40
28.6
100
AcDbArc
 50
40.30476066604577
 51
139.6952393339542
  0
ENDBLK
  5
157
330
155
100
AcDbEntity
  8
0
100
AcDbBlockEnd
  0
BLOCK
  5
159
330
158
100
AcDbEntity
  8
0
100
AcDbBlockBegin
  2
DC_GROUP_W_JR-5714_S_040_27
 70
     0
 10
0.0
 20
0.0
 30
0.0
  3
DC_GROUP_W_JR-5714_S_040_27
  1
DC_GROUP_W_JR-5714_S_040_27
  0
LINE
  5
310
330
158
100
AcDbEntity
  8
2
  6
Continuous
 62
     7
370
    18
100
AcDbLine
 10
-293.6302517402838
 20
-29.10625285418715
 30
0.0
 11
-284.2873397402838
 21
-29.10625285418715
 31
0.0
  0
ARC
  5
311
330
158
100
AcDbEntity
  8
2
  6
Continuous
 62
     7
370
    18
100
AcDbCircle
 10
-288.9587957402838
 20
-33.10625285418715
 30
0.0
 40
6.15
100
AcDbArc
 50
139.4277419999989
 51
40.57225800000106
  0
ENDBLK
  5
15A
330
158
100
AcDbEntity
  8
0
100
AcDbBlockEnd
  0
BLOCK
  5
15C
330
15B
100
AcDbEntity
  8
0
100
AcDbBlockBegin
  2
DC_GROUP_W_JR-5714_S_040_28
 70
     0
 10
0.0
 20
0.0
 30
0.0
  3
DC_GROUP_W_JR-5714_S_040_28
  1
DC_GROUP_W_JR-5714_S_040_28
  0
LINE
  5
312
330
15B
100
AcDbEntity
  8
2
  6
CENTER
 62
     3
370
    13
100
AcDbLine
 10
-238.9587957402838
 20
-21.95625285418751
 30
0.0
 11
-238.9587957402838
 21
-44.25625285418678
 31
0.0
  0
INSERT
  5
313
330
15B
100
AcDbEntity
  8
2
  6
Continuous
100
AcDbBlockReference
  2
DC_GROUP_W_JR-5714_S_040_29
 10
0.0
 20
0.0
 30
0.0
  0
ENDBLK
  5
15D
330
15B
100
AcDbEntity
  8
0
100
AcDbBlockEnd
  0
BLOCK
  5
15F
330
15E
100
AcDbEntity
  8
0
100
AcDbBlockBegin
  2
DC_GROUP_W_JR-5714_S_040_29
 70
     0
 10
0.0
 20
0.0
 30
0.0
  3
DC_GROUP_W_JR-5714_S_040_29
  1
DC_GROUP_W_JR-5714_S_040_29
  0
LINE
  5
314
330
15E
100
AcDbEntity
  8
2
  6
Continuous
 62
     7
370
    18
100
AcDbLine
 10
-234.2873397402838
 20
-29.10625285418715
 30
0.0
 11
-243.6302517402838
 21
-29.10625285418715
 31
0.0
  0
ARC
  5
315
330
15E
100
AcDbEntity
  8
2
  6
Continuous
 62
     7
370
    18
100
AcDbCircle
 10
-238.9587957402838
 20
-33.10625285418715
 30
0.0
 40
6.15
100
AcDbArc
 50
139.4277419999989
 51
40.57225800000106
  0
ENDBLK
  5
160
330
15E
100
AcDbEntity
  8
0
100
AcDbBlockEnd
  0
BLOCK
  5
162
330
161
100
AcDbEntity
  8
0
100
AcDbBlockBegin
  2
DC_GROUP_W_JR-5714_S_040_30
 70
     0
 10
0.0
 20
0.0
 30
0.0
  3
DC_GROUP_W_JR-5714_S_040_30
  1
DC_GROUP_W_JR-5714_S_040_30
  0
LINE
  5
316
330
161
100
AcDbEntity
  8
2
  6
CENTER
 62
     3
370
    13
100
AcDbLine
 10
-338.9587957402838
 20
-21.95625285418751
 30
0.0
 11
-338.9587957402838
 21
-44.25625285418678
 31
0.0
  0
INSERT
  5
317
330
161
100
AcDbEntity
  8
2
  6
Continuous
100
AcDbBlockReference
  2
DC_GROUP_W_JR-5714_S_040_31
 10
0.0
 20
0.0
 30
0.0
  0
ENDBLK
  5
163
330
161
100
AcDbEntity
  8
0
100
AcDbBlockEnd
  0
BLOCK
  5
165
330
164
100
AcDbEntity
  8
0
100
AcDbBlockBegin
  2
DC_GROUP_W_JR-5714_S_040_31
 70
     0
 10
0.0
 20
0.0
 30
0.0
  3
DC_GROUP_W_JR-5714_S_040_31
  1
DC_GROUP_W_JR-5714_S_040_31
  0
LINE
  5
318
330
164
100
AcDbEntity
  8
2
  6
Continuous
 62
     7
370
    18
100
AcDbLine
 10
-334.2873397402838
 20
-29.10625285418715
 30
0.0
 11
-343.6302517402838
 21
-29.10625285418715
 31
0.0
  0
ARC
  5
319
330
164
100
AcDbEntity
  8
2
  6
Continuous
 62
     7
370
    18
100
AcDbCircle
 10
-338.9587957402838
 20
-33.10625285418715
 30
0.0
 40
6.15
100
AcDbArc
 50
139.4277419999989
 51
40.57225800000106
  0
ENDBLK
  5
166
330
164
100
AcDbEntity
  8
0
100
AcDbBlockEnd
  0
BLOCK
  5
168
330
167
100
AcDbEntity
  8
0
100
AcDbBlockBegin
  2
DC_GROUP_W_JR-5714_S_040_32
 70
     0
 10
0.0
 20
0.0
 30
0.0
  3
DC_GROUP_W_JR-5714_S_040_32
  1
DC_GROUP_W_JR-5714_S_040_32
  0
LINE
  5
31A
330
167
100
AcDbEntity
  8
2
  6
CENTER
 62
     3
370
    13
100
AcDbLine
 10
-388.9587957402838
 20
-21.95625285418751
 30
0.0
 11
-388.9587957402838
 21
-44.25625285418678
 31
0.0
  0
INSERT
  5
31B
330
167
100
AcDbEntity
  8
2
  6
Continuous
100
AcDbBlockReference
  2
DC_GROUP_W_JR-5714_S_040_33
 10
0.0
 20
0.0
 30
0.0
  0
ENDBLK
  5
169
330
167
100
AcDbEntity
  8
0
100
AcDbBlockEnd
  0
BLOCK
  5
16B
330
16A
100
AcDbEntity
  8
0
100
AcDbBlockBegin
  2
DC_GROUP_W_JR-5714_S_040_33
 70
     0
 10
0.0
 20
0.0
 30
0.0
  3
DC_GROUP_W_JR-5714_S_040_33
  1
DC_GROUP_W_JR-5714_S_040_33
  0
LINE
  5
31C
330
16A
100
AcDbEntity
  8
2
  6
Continuous
 62
     7
370
    18
100
AcDbLine
 10
-384.2873397402838
 20
-29.10625285418715
 30
0.0
 11
-393.6302517402838
 21
-29.10625285418715
 31
0.0
  0
ARC
  5
31D
330
16A
100
AcDbEntity
  8
2
  6
Continuous
 62
     7
370
    18
100
AcDbCircle
 10
-388.9587957402838
 20
-33.10625285418715
 30
0.0
 40
6.15
100
AcDbArc
 50
139.4277419999989
 51
40.57225800000106
  0
ENDBLK
  5
16C
330
16A
100
AcDbEntity
  8
0
100
AcDbBlockEnd
  0
BLOCK
  5
16E
330
16D
100
AcDbEntity
  8
0
100
AcDbBlockBegin
  2
DC_GROUP_W_JR-5714_S_040_34
 70
     0
 10
0.0
 20
0.0
 30
0.0
  3
DC_GROUP_W_JR-5714_S_040_34
  1
DC_GROUP_W_JR-5714_S_040_34
  0
LINE
  5
31E
330
16D
100
AcDbEntity
  8
2
  6
CENTER
 62
     3
370
    13
100
AcDbLine
 10
-438.9587957402838
 20
-21.95625285418751
 30
0.0
 11
-438.9587957402838
 21
-44.25625285418678
 31
0.0
  0
INSERT
  5
31F
330
16D
100
AcDbEntity
  8
2
  6
Continuous
100
AcDbBlockReference
  2
DC_GROUP_W_JR-5714_S_040_35
 10
0.0
 20
0.0
 30
0.0
  0
ENDBLK
  5
16F
330
16D
100
AcDbEntity
  8
0
100
AcDbBlockEnd
  0
BLOCK
  5
171
330
170
100
AcDbEntity
  8
0
100
AcDbBlockBegin
  2
DC_GROUP_W_JR-5714_S_040_35
 70
     0
 10
0.0
 20
0.0
 30
0.0
  3
DC_GROUP_W_JR-5714_S_040_35
  1
DC_GROUP_W_JR-5714_S_040_35
  0
LINE
  5
320
330
170
100
AcDbEntity
  8
2
  6
Continuous
 62
     7
370
    18
100
AcDbLine
 10
-434.2873397402838
 20
-29.10625285418715
 30
0.0
 11
-443.6302517402838
 21
-29.10625285418715
 31
0.0
  0
ARC
  5
321
330
170
100
AcDbEntity
  8
2
  6
Continuous
 62
     7
370
    18
100
AcDbCircle
 10
-438.9587957402838
 20
-33.10625285418715
 30
0.0
 40
6.15
100
AcDbArc
 50
139.4277419999989
 51
40.57225800000106
  0
ENDBLK
  5
172
330
170
100
AcDbEntity
  8
0
100
AcDbBlockEnd
  0
BLOCK
  5
174
330
173
100
AcDbEntity
  8
0
100
AcDbBlockBegin
  2
DC_GROUP_W_JR-5714_S_040_36
 70
     0
 10
0.0
 20
0.0
 30
0.0
  3
DC_GROUP_W_JR-5714_S_040_36
  1
DC_GROUP_W_JR-5714_S_040_36
  0
LINE
  5
322
330
173
100
AcDbEntity
  8
2
  6
CENTER
 62
     3
370
    13
100
AcDbLine
 10
-88.9587957402839
 20
3.043747145812489
 30
0.0
 11
-88.9587957402839
 21
-69.25625285418678
 31
0.0
  0
INSERT
  5
323
330
173
100
AcDbEntity
  8
2
  6
Continuous
100
AcDbBlockReference
  2
DC_GROUP_W_JR-5714_S_040_37
 10
0.0
 20
0.0
 30
0.0
  0
ARC
  5
324
330
173
100
AcDbEntity
  8
2
  6
DASHED2
 62
     4
370
    13
100
AcDbCircle
 10
-88.9587957402839
 20
-33.10625285418715
 30
0.0
 40
28.6
100
AcDbArc
 50
139.6952393339542
 51
40.30476066604574
  0
ARC
  5
325
330
173
100
AcDbEntity
  8
2
  6
Continuous
 62
     7
370
    18
100
AcDbCircle
 10
-88.9587957402839
 20
-33.10625285418715
 30
0.0
 40
28.6
100
AcDbArc
 50
40.30476066604577
 51
139.6952393339542
  0
ENDBLK
  5
175
330
173
100
AcDbEntity
  8
0
100
AcDbBlockEnd
  0
BLOCK
  5
177
330
176
100
AcDbEntity
  8
0
100
AcDbBlockBegin
  2
DC_GROUP_W_JR-5714_S_040_37
 70
     0
 10
0.0
 20
0.0
 30
0.0
  3
DC_GROUP_W_JR-5714_S_040_37
  1
DC_GROUP_W_JR-5714_S_040_37
  0
LINE
  5
326
330
176
100
AcDbEntity
  8
2
  6
Continuous
 62
     7
370
    18
100
AcDbLine
 10
-93.63025174028394
 20
-29.10625285418715
 30
0.0
 11
-84.28733974028387
 21
-29.10625285418715
 31
0.0
  0
ARC
  5
327
330
176
100
AcDbEntity
  8
2
  6
Continuous
 62
     7
370
    18
100
AcDbCircle
 10
-88.9587957402839
 20
-33.10625285418715
 30
0.0
 40
6.15
100
AcDbArc
 50
139.4277419999989
 51
40.57225800000106
  0
ENDBLK
  5
178
330
176
100
AcDbEntity
  8
0
100
AcDbBlockEnd
  0
BLOCK
  5
17A
330
179
100
AcDbEntity
  8
0
100
AcDbBlockBegin
  2
DC_GROUP_W_JR-5714_S_040_38
 70
     0
 10
0.0
 20
0.0
 30
0.0
  3
DC_GROUP_W_JR-5714_S_040_38
  1
DC_GROUP_W_JR-5714_S_040_38
  0
LINE
  5
328
330
179
100
AcDbEntity
  8
2
  6
CENTER
 62
     3
370
    13
100
AcDbLine
 10
-38.9587957402839
 20
-21.95625285418751
 30
0.0
 11
-38.9587957402839
 21
-44.25625285418678
 31
0.0
  0
INSERT
  5
329
330
179
100
AcDbEntity
  8
2
  6
Continuous
100
AcDbBlockReference
  2
DC_GROUP_W_JR-5714_S_040_39
 10
0.0
 20
0.0
 30
0.0
  0
ENDBLK
  5
17B
330
179
100
AcDbEntity
  8
0
100
AcDbBlockEnd
  0
BLOCK
  5
17D
330
17C
100
AcDbEntity
  8
0
100
AcDbBlockBegin
  2
DC_GROUP_W_JR-5714_S_040_39
 70
     0
 10
0.0
 20
0.0
 30
0.0
  3
DC_GROUP_W_JR-5714_S_040_39
  1
DC_GROUP_W_JR-5714_S_040_39
  0
LINE
  5
32A
330
17C
100
AcDbEntity
  8
2
  6
Continuous
 62
     7
370
    18
100
AcDbLine
 10
-34.28733974028387
 20
-29.10625285418715
 30
0.0
 11
-43.63025174028394
 21
-29.10625285418715
 31
0.0
  0
ARC
  5
32B
330
17C
100
AcDbEntity
  8
2
  6
Continuous
 62
     7
370
    18
100
AcDbCircle
 10
-38.9587957402839
 20
-33.10625285418715
 30
0.0
 40
6.15
100
AcDbArc
 50
139.4277419999989
 51
40.57225800000106
  0
ENDBLK
  5
17E
330
17C
100
AcDbEntity
  8
0
100
AcDbBlockEnd
  0
BLOCK
  5
180
330
17F
100
AcDbEntity
  8
0
100
AcDbBlockBegin
  2
DC_GROUP_W_JR-5714_S_040_40
 70
     0
 10
0.0
 20
0.0
 30
0.0
  3
DC_GROUP_W_JR-5714_S_040_40
  1
DC_GROUP_W_JR-5714_S_040_40
  0
LINE
  5
32C
330
17F
100
AcDbEntity
  8
2
  6
CENTER
 62
     3
370
    13
100
AcDbLine
 10
-138.9587957402839
 20
-21.95625285418751
 30
0.0
 11
-138.9587957402839
 21
-44.25625285418678
 31
0.0
  0
INSERT
  5
32D
330
17F
100
AcDbEntity
  8
2
  6
Continuous
100
AcDbBlockReference
  2
DC_GROUP_W_JR-5714_S_040_41
 10
0.0
 20
0.0
 30
0.0
  0
ENDBLK
  5
181
330
17F
100
AcDbEntity
  8
0
100
AcDbBlockEnd
  0
BLOCK
  5
183
330
182
100
AcDbEntity
  8
0
100
AcDbBlockBegin
  2
DC_GROUP_W_JR-5714_S_040_41
 70
     0
 10
0.0
 20
0.0
 30
0.0
  3
DC_GROUP_W_JR-5714_S_040_41
  1
DC_GROUP_W_JR-5714_S_040_41
  0
LINE
  5
32E
330
182
100
AcDbEntity
  8
2
  6
Continuous
 62
     7
370
    18
100
AcDbLine
 10
-134.2873397402839
 20
-29.10625285418715
 30
0.0
 11
-143.6302517402839
 21
-29.10625285418715
 31
0.0
  0
ARC
  5
32F
330
182
100
AcDbEntity
  8
2
  6
Continuous
 62
     7
370
    18
100
AcDbCircle
 10
-138.9587957402839
 20
-33.10625285418715
 30
0.0
 40
6.15
100
AcDbArc
 50
139.4277419999989
 51
40.57225800000106
  0
ENDBLK
  5
184
330
182
100
AcDbEntity
  8
0
100
AcDbBlockEnd
  0
BLOCK
  5
186
330
185
100
AcDbEntity
  8
0
100
AcDbBlockBegin
  2
DC_GROUP_W_JR-5714_S_040_42
 70
     0
 10
0.0
 20
0.0
 30
0.0
  3
DC_GROUP_W_JR-5714_S_040_42
  1
DC_GROUP_W_JR-5714_S_040_42
  0
LINE
  5
330
330
185
100
AcDbEntity
  8
2
  6
CENTER
 62
     3
370
    13
100
AcDbLine
 10
-188.9587957402839
 20
-21.95625285418751
 30
0.0
 11
-188.9587957402839
 21
-44.25625285418678
 31
0.0
  0
INSERT
  5
331
330
185
100
AcDbEntity
  8
2
  6
Continuous
100
AcDbBlockReference
  2
DC_GROUP_W_JR-5714_S_040_43
 10
0.0
 20
0.0
 30
0.0
  0
ENDBLK
  5
187
330
185
100
AcDbEntity
  8
0
100
AcDbBlockEnd
  0
BLOCK
  5
189
330
188
100
AcDbEntity
  8
0
100
AcDbBlockBegin
  2
DC_GROUP_W_JR-5714_S_040_43
 70
     0
 10
0.0
 20
0.0
 30
0.0
  3
DC_GROUP_W_JR-5714_S_040_43
  1
DC_GROUP_W_JR-5714_S_040_43
  0
LINE
  5
332
330
188
100
AcDbEntity
  8
2
  6
Continuous
 62
     7
370
    18
100
AcDbLine
 10
-184.2873397402839
 20
-29.10625285418715
 30
0.0
 11
-193.6302517402839
 21
-29.10625285418715
 31
0.0
  0
ARC
  5
333
330
188
100
AcDbEntity
  8
2
  6
Continuous
 62
     7
370
    18
100
AcDbCircle
 10
-188.9587957402839
 20
-33.10625285418715
 30
0.0
 40
6.15
100
AcDbArc
 50
139.4277419999989
 51
40.57225800000106
  0
ENDBLK
  5
18A
330
188
100
AcDbEntity
  8
0
100
AcDbBlockEnd
  0
BLOCK
  5
18C
330
18B
100
AcDbEntity
  8
0
100
AcDbBlockBegin
  2
DC_GROUP_W_JR-5714_S_040_44
 70
     0
 10
0.0
 20
0.0
 30
0.0
  3
DC_GROUP_W_JR-5714_S_040_44
  1
DC_GROUP_W_JR-5714_S_040_44
  0
LINE
  5
334
330
18B
100
AcDbEntity
  8
2
  6
CENTER
 62
     3
370
    13
100
AcDbLine
 10
-238.9587957402839
 20
-21.95625285418751
 30
0.0
 11
-238.9587957402839
 21
-44.25625285418678
 31
0.0
  0
INSERT
  5
335
330
18B
100
AcDbEntity
  8
2
  6
Continuous
100
AcDbBlockReference
  2
DC_GROUP_W_JR-5714_S_040_45
 10
0.0
 20
0.0
 30
0.0
  0
ENDBLK
  5
18D
330
18B
100
AcDbEntity
  8
0
100
AcDbBlockEnd
  0
BLOCK
  5
18F
330
18E
100
AcDbEntity
  8
0
100
AcDbBlockBegin
  2
DC_GROUP_W_JR-5714_S_040_45
 70
     0
 10
0.0
 20
0.0
 30
0.0
  3
DC_GROUP_W_JR-5714_S_040_45
  1
DC_GROUP_W_JR-5714_S_040_45
  0
LINE
  5
336
330
18E
100
AcDbEntity
  8
2
  6
Continuous
 62
     7
370
    18
100
AcDbLine
 10
-234.2873397402839
 20
-29.10625285418715
 30
0.0
 11
-243.6302517402839
 21
-29.10625285418715
 31
0.0
  0
ARC
  5
337
330
18E
100
AcDbEntity
  8
2
  6
Continuous
 62
     7
370
    18
100
AcDbCircle
 10
-238.9587957402839
 20
-33.10625285418715
 30
0.0
 40
6.15
100
AcDbArc
 50
139.4277419999989
 51
40.57225800000106
  0
ENDBLK
  5
190
330
18E
100
AcDbEntity
  8
0
100
AcDbBlockEnd
  0
BLOCK
  5
192
330
191
100
AcDbEntity
  8
0
100
AcDbBlockBegin
  2
DC_GROUP_W_JR-5714_S_040_46
 70
     0
 10
0.0
 20
0.0
 30
0.0
  3
DC_GROUP_W_JR-5714_S_040_46
  1
DC_GROUP_W_JR-5714_S_040_46
  0
LINE
  5
338
330
191
100
AcDbEntity
  8
2
  6
CENTER
 62
     3
370
    13
100
AcDbLine
 10
111.0412042597161
 20
3.043747145812489
 30
0.0
 11
111.0412042597161
 21
-69.25625285418678
 31
0.0
  0
INSERT
  5
339
330
191
100
AcDbEntity
  8
2
  6
Continuous
100
AcDbBlockReference
  2
DC_GROUP_W_JR-5714_S_040_47
 10
0.0
 20
0.0
 30
0.0
  0
ARC
  5
33A
330
191
100
AcDbEntity
  8
2
  6
DASHED2
 62
     4
370
    13
100
AcDbCircle
 10
111.0412042597161
 20
-33.10625285418715
 30
0.0
 40
28.6
100
AcDbArc
 50
139.6952393339542
 51
40.30476066604574
  0
ARC
  5
33B
330
191
100
AcDbEntity
  8
2
  6
Continuous
 62
     7
370
    18
100
AcDbCircle
 10
111.0412042597161
 20
-33.10625285418715
 30
0.0
 40
28.6
100
AcDbArc
 50
40.30476066604577
 51
139.6952393339542
  0
ENDBLK
  5
193
330
191
100
AcDbEntity
  8
0
100
AcDbBlockEnd
  0
BLOCK
  5
195
330
194
100
AcDbEntity
  8
0
100
AcDbBlockBegin
  2
DC_GROUP_W_JR-5714_S_040_47
 70
     0
 10
0.0
 20
0.0
 30
0.0
  3
DC_GROUP_W_JR-5714_S_040_47
  1
DC_GROUP_W_JR-5714_S_040_47
  0
LINE
  5
33C
330
194
100
AcDbEntity
  8
2
  6
Continuous
 62
     7
370
    18
100
AcDbLine
 10
106.3697482597161
 20
-29.10625285418715
 30
0.0
 11
115.7126602597161
 21
-29.10625285418715
 31
0.0
  0
ARC
  5
33D
330
194
100
AcDbEntity
  8
2
  6
Continuous
 62
     7
370
    18
100
AcDbCircle
 10
111.0412042597161
 20
-33.10625285418715
 30
0.0
 40
6.15
100
AcDbArc
 50
139.4277419999989
 51
40.57225800000106
  0
ENDBLK
  5
196
330
194
100
AcDbEntity
  8
0
100
AcDbBlockEnd
  0
BLOCK
  5
198
330
197
100
AcDbEntity
  8
0
100
AcDbBlockBegin
  2
DC_GROUP_W_JR-5714_S_040_48
 70
     0
 10
0.0
 20
0.0
 30
0.0
  3
DC_GROUP_W_JR-5714_S_040_48
  1
DC_GROUP_W_JR-5714_S_040_48
  0
LINE
  5
33E
330
197
100
AcDbEntity
  8
2
  6
CENTER
 62
     3
370
    13
100
AcDbLine
 10
161.0412042597161
 20
-21.95625285418751
 30
0.0
 11
161.0412042597161
 21
-44.25625285418678
 31
0.0
  0
INSERT
  5
33F
330
197
100
AcDbEntity
  8
2
  6
Continuous
100
AcDbBlockReference
  2
DC_GROUP_W_JR-5714_S_040_49
 10
0.0
 20
0.0
 30
0.0
  0
ENDBLK
  5
199
330
197
100
AcDbEntity
  8
0
100
AcDbBlockEnd
  0
BLOCK
  5
19B
330
19A
100
AcDbEntity
  8
0
100
AcDbBlockBegin
  2
DC_GROUP_W_JR-5714_S_040_49
 70
     0
 10
0.0
 20
0.0
 30
0.0
  3
DC_GROUP_W_JR-5714_S_040_49
  1
DC_GROUP_W_JR-5714_S_040_49
  0
LINE
  5
340
330
19A
100
AcDbEntity
  8
2
  6
Continuous
 62
     7
370
    18
100
AcDbLine
 10
165.7126602597161
 20
-29.10625285418715
 30
0.0
 11
156.3697482597161
 21
-29.10625285418715
 31
0.0
  0
ARC
  5
341
330
19A
100
AcDbEntity
  8
2
  6
Continuous
 62
     7
370
    18
100
AcDbCircle
 10
161.0412042597161
 20
-33.10625285418715
 30
0.0
 40
6.15
100
AcDbArc
 50
139.4277419999989
 51
40.57225800000106
  0
ENDBLK
  5
19C
330
19A
100
AcDbEntity
  8
0
100
AcDbBlockEnd
  0
BLOCK
  5
19E
330
19D
100
AcDbEntity
  8
0
100
AcDbBlockBegin
  2
DC_GROUP_W_JR-5714_S_040_50
 70
     0
 10
0.0
 20
0.0
 30
0.0
  3
DC_GROUP_W_JR-5714_S_040_50
  1
DC_GROUP_W_JR-5714_S_040_50
  0
LINE
  5
342
330
19D
100
AcDbEntity
  8
2
  6
CENTER
 62
     3
370
    13
100
AcDbLine
 10
61.0412042597161
 20
-21.95625285418751
 30
0.0
 11
61.0412042597161
 21
-44.25625285418678
 31
0.0
  0
INSERT
  5
343
330
19D
100
AcDbEntity
  8
2
  6
Continuous
100
AcDbBlockReference
  2
DC_GROUP_W_JR-5714_S_040_51
 10
0.0
 20
0.0
 30
0.0
  0
ENDBLK
  5
19F
330
19D
100
AcDbEntity
  8
0
100
AcDbBlockEnd
  0
BLOCK
  5
1A1
330
1A0
100
AcDbEntity
  8
0
100
AcDbBlockBegin
  2
DC_GROUP_W_JR-5714_S_040_51
 70
     0
 10
0.0
 20
0.0
 30
0.0
  3
DC_GROUP_W_JR-5714_S_040_51
  1
DC_GROUP_W_JR-5714_S_040_51
  0
LINE
  5
344
330
1A0
100
AcDbEntity
  8
2
  6
Continuous
 62
     7
370
    18
100
AcDbLine
 10
65.71266025971613
 20
-29.10625285418715
 30
0.0
 11
56.36974825971606
 21
-29.10625285418715
 31
0.0
  0
ARC
  5
345
330
1A0
100
AcDbEntity
  8
2
  6
Continuous
 62
     7
370
    18
100
AcDbCircle
 10
61.0412042597161
 20
-33.10625285418715
 30
0.0
 40
6.15
100
AcDbArc
 50
139.4277419999989
 51
40.57225800000106
  0
ENDBLK
  5
1A2
330
1A0
100
AcDbEntity
  8
0
100
AcDbBlockEnd
  0
BLOCK
  5
1A4
330
1A3
100
AcDbEntity
  8
0
100
AcDbBlockBegin
  2
DC_GROUP_W_JR-5714_S_040_52
 70
     0
 10
0.0
 20
0.0
 30
0.0
  3
DC_GROUP_W_JR-5714_S_040_52
  1
DC_GROUP_W_JR-5714_S_040_52
  0
LINE
  5
346
330
1A3
100
AcDbEntity
  8
2
  6
CENTER
 62
     3
370
    13
100
AcDbLine
 10
11.0412042597161
 20
-21.95625285418751
 30
0.0
 11
11.0412042597161
 21
-44.25625285418678
 31
0.0
  0
INSERT
  5
347
330
1A3
100
AcDbEntity
  8
2
  6
Continuous
100
AcDbBlockReference
  2
DC_GROUP_W_JR-5714_S_040_53
 10
0.0
 20
0.0
 30
0.0
  0
ENDBLK
  5
1A5
330
1A3
100
AcDbEntity
  8
0
100
AcDbBlockEnd
  0
BLOCK
  5
1A7
330
1A6
100
AcDbEntity
  8
0
100
AcDbBlockBegin
  2
DC_GROUP_W_JR-5714_S_040_53
 70
     0
 10
0.0
 20
0.0
 30
0.0
  3
DC_GROUP_W_JR-5714_S_040_53
  1
DC_GROUP_W_JR-5714_S_040_53
  0
LINE
  5
348
330
1A6
100
AcDbEntity
  8
2
  6
Continuous
 62
     7
370
    18
100
AcDbLine
 10
15.71266025971613
 20
-29.10625285418715
 30
0.0
 11
6.369748259716062
 21
-29.10625285418715
 31
0.0
  0
ARC
  5
349
330
1A6
100
AcDbEntity
  8
2
  6
Continuous
 62
     7
370
    18
100
AcDbCircle
 10
11.0412042597161
 20
-33.10625285418715
 30
0.0
 40
6.15
100
AcDbArc
 50
139.4277419999989
 51
40.57225800000106
  0
ENDBLK
  5
1A8
330
1A6
100
AcDbEntity
  8
0
100
AcDbBlockEnd
  0
BLOCK
  5
1AA
330
1A9
100
AcDbEntity
  8
0
100
AcDbBlockBegin
  2
DC_GROUP_W_JR-5714_S_040_54
 70
     0
 10
0.0
 20
0.0
 30
0.0
  3
DC_GROUP_W_JR-5714_S_040_54
  1
DC_GROUP_W_JR-5714_S_040_54
  0
LINE
  5
34A
330
1A9
100
AcDbEntity
  8
2
  6
CENTER
 62
     3
370
    13
100
AcDbLine
 10
-38.9587957402839
 20
-21.95625285418751
 30
0.0
 11
-38.9587957402839
 21
-44.25625285418678
 31
0.0
  0
INSERT
  5
34B
330
1A9
100
AcDbEntity
  8
2
  6
Continuous
100
AcDbBlockReference
  2
DC_GROUP_W_JR-5714_S_040_55
 10
0.0
 20
0.0
 30
0.0
  0
ENDBLK
  5
1AB
330
1A9
100
AcDbEntity
  8
0
100
AcDbBlockEnd
  0
BLOCK
  5
1AD
330
1AC
100
AcDbEntity
  8
0
100
AcDbBlockBegin
  2
DC_GROUP_W_JR-5714_S_040_55
 70
     0
 10
0.0
 20
0.0
 30
0.0
  3
DC_GROUP_W_JR-5714_S_040_55
  1
DC_GROUP_W_JR-5714_S_040_55
  0
LINE
  5
34C
330
1AC
100
AcDbEntity
  8
2
  6
Continuous
 62
     7
370
    18
100
AcDbLine
 10
-34.28733974028387
 20
-29.10625285418715
 30
0.0
 11
-43.63025174028394
 21
-29.10625285418715
 31
0.0
  0
ARC
  5
34D
330
1AC
100
AcDbEntity
  8
2
  6
Continuous
 62
     7
370
    18
100
AcDbCircle
 10
-38.9587957402839
 20
-33.10625285418715
 30
0.0
 40
6.15
100
AcDbArc
 50
139.4277419999989
 51
40.57225800000106
  0
ENDBLK
  5
1AE
330
1AC
100
AcDbEntity
  8
0
100
AcDbBlockEnd
  0
BLOCK
  5
1B0
330
1AF
100
AcDbEntity
  8
0
100
AcDbBlockBegin
  2
DC_GROUP_W_JR-5714_S_040_56
 70
     0
 10
0.0
 20
0.0
 30
0.0
  3
DC_GROUP_W_JR-5714_S_040_56
  1
DC_GROUP_W_JR-5714_S_040_56
  0
LINE
  5
34E
330
1AF
100
AcDbEntity
  8
2
  6
CENTER
 62
     3
370
    13
100
AcDbLine
 10
-688.9587957402837
 20
717.2437471526259
 30
0.0
 11
-688.9587957402837
 21
312.2437471526259
 31
0.0
  0
LINE
  5
34F
330
1AF
100
AcDbEntity
  8
2
  6
Continuous
 62
     7
370
    18
100
AcDbLine
 10
-668.4587957402837
 20
708.7437471526259
 30
0.0
 11
-709.4587957402837
 21
708.7437471526259
 31
0.0
  0
ARC
  5
350
330
1AF
100
AcDbEntity
  8
2
  6
Continuous
 62
     7
370
    18
100
AcDbCircle
 10
-668.4587957402837
 20
700.6437471526256
 30
0.0
 40
8.1
100
AcDbArc
 50
0.0
 51
90.0
  0
LINE
  5
351
330
1AF
100
AcDbEntity
  8
2
  6
Continuous
 62
     7
370
    18
100
AcDbLine
 10
-660.3587957402838
 20
700.6437471526256
 30
0.0
 11
-660.3587957402838
 21
328.8437471526262
 31
0.0
  0
ARC
  5
352
330
1AF
100
AcDbEntity
  8
2
  6
Continuous
 62
     7
370
    18
100
AcDbCircle
 10
-668.4587957402837
 20
328.8437471526262
 30
0.0
 40
8.1
100
AcDbArc
 50
270.0
 51
0.0
  0
LINE
  5
353
330
1AF
100
AcDbEntity
  8
2
  6
Continuous
 62
     7
370
    18
100
AcDbLine
 10
-717.5587957402836
 20
328.8437471526262
 30
0.0
 11
-717.5587957402836
 21
700.6437471526256
 31
0.0
  0
ARC
  5
354
330
1AF
100
AcDbEntity
  8
2
  6
Continuous
 62
     7
370
    18
100
AcDbCircle
 10
-709.4587957402837
 20
328.8437471526262
 30
0.0
 40
8.1
100
AcDbArc
 50
180.0
 51
270.0
  0
ARC
  5
355
330
1AF
100
AcDbEntity
  8
2
  6
Continuous
 62
     7
370
    18
100
AcDbCircle
 10
-709.4587957402837
 20
700.6437471526256
 30
0.0
 40
8.1
100
AcDbArc
 50
90.0
 51
180.0
  0
LINE
  5
356
330
1AF
100
AcDbEntity
  8
2
  6
Continuous
 62
     7
370
    18
100
AcDbLine
 10
-680.9587957402837
 20
714.2437471526259
 30
0.0
 11
-696.9587957402837
 21
714.2437471526259
 31
0.0
  0
LINE
  5
357
330
1AF
100
AcDbEntity
  8
2
  6
Continuous
 62
     7
370
    18
100
AcDbLine
 10
-680.9587957402837
 20
709.2437471526259
 30
0.0
 11
-680.9587957402837
 21
714.2437471526259
 31
0.0
  0
LINE
  5
358
330
1AF
100
AcDbEntity
  8
2
  6
Continuous
 62
     7
370
    18
100
AcDbLine
 10
-696.9587957402837
 20
709.2437471526259
 30
0.0
 11
-696.9587957402837
 21
714.2437471526259
 31
0.0
  0
LINE
  5
359
330
1AF
100
AcDbEntity
  8
2
  6
Continuous
 62
     7
370
    18
100
AcDbLine
 10
-671.2587957402839
 20
709.2437471526259
 30
0.0
 11
-706.6587957402835
 21
709.2437471526259
 31
0.0
  0
ARC
  5
35A
330
1AF
100
AcDbEntity
  8
2
  6
Continuous
 62
     7
370
    18
100
AcDbCircle
 10
-706.6587957402835
 20
708.4437471526257
 30
0.0
 40
0.8
100
AcDbArc
 50
90.0
 51
157.9756869999987
  0
ARC
  5
35B
330
1AF
100
AcDbEntity
  8
2
  6
Continuous
 62
     7
370
    18
100
AcDbCircle
 10
-671.2587957402839
 20
708.4437471526257
 30
0.0
 40
0.8
100
AcDbArc
 50
22.02431300000125
 51
90.0
  0
LINE
  5
35C
330
1AF
100
AcDbEntity
  8
2
  6
Continuous
 62
     7
370
    18
100
AcDbLine
 10
-668.4587957402837
 20
320.7437471526259
 30
0.0
 11
-709.4587957402837
 21
320.7437471526259
 31
0.0
  0
LINE
  5
35D
330
1AF
100
AcDbEntity
  8
2
  6
Continuous
 62
     7
370
    18
100
AcDbLine
 10
-680.9587957402837
 20
315.2437471526259
 30
0.0
 11
-696.9587957402837
 21
315.2437471526259
 31
0.0
  0
LINE
  5
35E
330
1AF
100
AcDbEntity
  8
2
  6
Continuous
 62
     7
370
    18
100
AcDbLine
 10
-680.9587957402837
 20
320.2437471526259
 30
0.0
 11
-680.9587957402837
 21
315.2437471526259
 31
0.0
  0
LINE
  5
35F
330
1AF
100
AcDbEntity
  8
2
  6
Continuous
 62
     7
370
    18
100
AcDbLine
 10
-696.9587957402837
 20
320.2437471526259
 30
0.0
 11
-696.9587957402837
 21
315.2437471526259
 31
0.0
  0
LINE
  5
360
330
1AF
100
AcDbEntity
  8
2
  6
Continuous
 62
     7
370
    18
100
AcDbLine
 10
-671.2587957402839
 20
320.2437471526259
 30
0.0
 11
-706.6587957402835
 21
320.2437471526259
 31
0.0
  0
ARC
  5
361
330
1AF
100
AcDbEntity
  8
2
  6
Continuous
 62
     7
370
    18
100
AcDbCircle
 10
-706.6587957402835
 20
321.0437471526261
 30
0.0
 40
0.8
100
AcDbArc
 50
202.0243130000013
 51
270.0
  0
ARC
  5
362
330
1AF
100
AcDbEntity
  8
2
  6
Continuous
 62
     7
370
    18
100
AcDbCircle
 10
-671.2587957402839
 20
321.0437471526261
 30
0.0
 40
0.8
100
AcDbArc
 50
270.0
 51
337.9756869999987
  0
ENDBLK
  5
1B1
330
1AF
100
AcDbEntity
  8
0
100
AcDbBlockEnd
  0
BLOCK
  5
1B3
330
1B2
100
AcDbEntity
  8
0
100
AcDbBlockBegin
  2
DC_GROUP_W_JR-5714_S_040_57
 70
     0
 10
0.0
 20
0.0
 30
0.0
  3
DC_GROUP_W_JR-5714_S_040_57
  1
DC_GROUP_W_JR-5714_S_040_57
  0
LINE
  5
363
330
1B2
100
AcDbEntity
  8
2
  6
CENTER
 62
     3
370
    13
100
AcDbLine
 10
-488.9587957402837
 20
717.2437471526259
 30
0.0
 11
-488.9587957402837
 21
312.2437471526259
 31
0.0
  0
LINE
  5
364
330
1B2
100
AcDbEntity
  8
2
  6
Continuous
 62
     7
370
    18
100
AcDbLine
 10
-468.4587957402837
 20
708.7437471526259
 30
0.0
 11
-509.4587957402837
 21
708.7437471526259
 31
0.0
  0
ARC
  5
365
330
1B2
100
AcDbEntity
  8
2
  6
Continuous
 62
     7
370
    18
100
AcDbCircle
 10
-468.4587957402837
 20
700.6437471526256
 30
0.0
 40
8.1
100
AcDbArc
 50
0.0
 51
90.0
  0
LINE
  5
366
330
1B2
100
AcDbEntity
  8
2
  6
Continuous
 62
     7
370
    18
100
AcDbLine
 10
-460.3587957402838
 20
700.6437471526256
 30
0.0
 11
-460.3587957402838
 21
328.8437471526262
 31
0.0
  0
ARC
  5
367
330
1B2
100
AcDbEntity
  8
2
  6
Continuous
 62
     7
370
    18
100
AcDbCircle
 10
-468.4587957402837
 20
328.8437471526262
 30
0.0
 40
8.1
100
AcDbArc
 50
270.0
 51
0.0
  0
LINE
  5
368
330
1B2
100
AcDbEntity
  8
2
  6
Continuous
 62
     7
370
    18
100
AcDbLine
 10
-517.5587957402836
 20
328.8437471526262
 30
0.0
 11
-517.5587957402836
 21
700.6437471526256
 31
0.0
  0
ARC
  5
369
330
1B2
100
AcDbEntity
  8
2
  6
Continuous
 62
     7
370
    18
100
AcDbCircle
 10
-509.4587957402837
 20
328.8437471526262
 30
0.0
 40
8.1
100
AcDbArc
 50
180.0
 51
270.0
  0
ARC
  5
36A
330
1B2
100
AcDbEntity
  8
2
  6
Continuous
 62
     7
370
    18
100
AcDbCircle
 10
-509.4587957402837
 20
700.6437471526256
 30
0.0
 40
8.1
100
AcDbArc
 50
90.0
 51
180.0
  0
LINE
  5
36B
330
1B2
100
AcDbEntity
  8
2
  6
Continuous
 62
     7
370
    18
100
AcDbLine
 10
-480.9587957402837
 20
714.2437471526259
 30
0.0
 11
-496.9587957402837
 21
714.2437471526259
 31
0.0
  0
LINE
  5
36C
330
1B2
100
AcDbEntity
  8
2
  6
Continuous
 62
     7
370
    18
100
AcDbLine
 10
-480.9587957402837
 20
709.2437471526259
 30
0.0
 11
-480.9587957402837
 21
714.2437471526259
 31
0.0
  0
LINE
  5
36D
330
1B2
100
AcDbEntity
  8
2
  6
Continuous
 62
     7
370
    18
100
AcDbLine
 10
-496.9587957402837
 20
709.2437471526259
 30
0.0
 11
-496.9587957402837
 21
714.2437471526259
 31
0.0
  0
LINE
  5
36E
330
1B2
100
AcDbEntity
  8
2
  6
Continuous
 62
     7
370
    18
100
AcDbLine
 10
-471.2587957402839
 20
709.2437471526259
 30
0.0
 11
-506.6587957402835
 21
709.2437471526259
 31
0.0
  0
ARC
  5
36F
330
1B2
100
AcDbEntity
  8
2
  6
Continuous
 62
     7
370
    18
100
AcDbCircle
 10
-506.6587957402835
 20
708.4437471526257
 30
0.0
 40
0.8
100
AcDbArc
 50
90.0
 51
157.9756869999987
  0
ARC
  5
370
330
1B2
100
AcDbEntity
  8
2
  6
Continuous
 62
     7
370
    18
100
AcDbCircle
 10
-471.2587957402839
 20
708.4437471526257
 30
0.0
 40
0.8
100
AcDbArc
 50
22.02431300000125
 51
90.0
  0
LINE
  5
371
330
1B2
100
AcDbEntity
  8
2
  6
Continuous
 62
     7
370
    18
100
AcDbLine
 10
-468.4587957402837
 20
320.7437471526259
 30
0.0
 11
-509.4587957402837
 21
320.7437471526259
 31
0.0
  0
LINE
  5
372
330
1B2
100
AcDbEntity
  8
2
  6
Continuous
 62
     7
370
    18
100
AcDbLine
 10
-480.9587957402837
 20
315.2437471526259
 30
0.0
 11
-496.9587957402837
 21
315.2437471526259
 31
0.0
  0
LINE
  5
373
330
1B2
100
AcDbEntity
  8
2
  6
Continuous
 62
     7
370
    18
100
AcDbLine
 10
-480.9587957402837
 20
320.2437471526259
 30
0.0
 11
-480.9587957402837
 21
315.2437471526259
 31
0.0
  0
LINE
  5
374
330
1B2
100
AcDbEntity
  8
2
  6
Continuous
 62
     7
370
    18
100
AcDbLine
 10
-496.9587957402837
 20
320.2437471526259
 30
0.0
 11
-496.9587957402837
 21
315.2437471526259
 31
0.0
  0
LINE
  5
375
330
1B2
100
AcDbEntity
  8
2
  6
Continuous
 62
     7
370
    18
100
AcDbLine
 10
-471.2587957402839
 20
320.2437471526259
 30
0.0
 11
-506.6587957402835
 21
320.2437471526259
 31
0.0
  0
ARC
  5
376
330
1B2
100
AcDbEntity
  8
2
  6
Continuous
 62
     7
370
    18
100
AcDbCircle
 10
-506.6587957402835
 20
321.0437471526261
 30
0.0
 40
0.8
100
AcDbArc
 50
202.0243130000013
 51
270.0
  0
ARC
  5
377
330
1B2
100
AcDbEntity
  8
2
  6
Continuous
 62
     7
370
    18
100
AcDbCircle
 10
-471.2587957402839
 20
321.0437471526261
 30
0.0
 40
0.8
100
AcDbArc
 50
270.0
 51
337.9756869999987
  0
ENDBLK
  5
1B4
330
1B2
100
AcDbEntity
  8
0
100
AcDbBlockEnd
  0
BLOCK
  5
1B6
330
1B5
100
AcDbEntity
  8
0
100
AcDbBlockBegin
  2
DC_GROUP_W_JR-5714_S_040_58
 70
     0
 10
0.0
 20
0.0
 30
0.0
  3
DC_GROUP_W_JR-5714_S_040_58
  1
DC_GROUP_W_JR-5714_S_040_58
  0
LINE
  5
378
330
1B5
100
AcDbEntity
  8
2
  6
CENTER
 62
     3
370
    13
100
AcDbLine
 10
-288.9587957402837
 20
717.2437471526259
 30
0.0
 11
-288.9587957402837
 21
312.2437471526259
 31
0.0
  0
LINE
  5
379
330
1B5
100
AcDbEntity
  8
2
  6
Continuous
 62
     7
370
    18
100
AcDbLine
 10
-268.4587957402837
 20
708.7437471526259
 30
0.0
 11
-309.4587957402837
 21
708.7437471526259
 31
0.0
  0
ARC
  5
37A
330
1B5
100
AcDbEntity
  8
2
  6
Continuous
 62
     7
370
    18
100
AcDbCircle
 10
-268.4587957402837
 20
700.6437471526256
 30
0.0
 40
8.1
100
AcDbArc
 50
0.0
 51
90.0
  0
LINE
  5
37B
330
1B5
100
AcDbEntity
  8
2
  6
Continuous
 62
     7
370
    18
100
AcDbLine
 10
-260.3587957402838
 20
700.6437471526256
 30
0.0
 11
-260.3587957402838
 21
328.8437471526262
 31
0.0
  0
ARC
  5
37C
330
1B5
100
AcDbEntity
  8
2
  6
Continuous
 62
     7
370
    18
100
AcDbCircle
 10
-268.4587957402837
 20
328.8437471526262
 30
0.0
 40
8.1
100
AcDbArc
 50
270.0
 51
0.0
  0
LINE
  5
37D
330
1B5
100
AcDbEntity
  8
2
  6
Continuous
 62
     7
370
    18
100
AcDbLine
 10
-317.5587957402836
 20
328.8437471526262
 30
0.0
 11
-317.5587957402836
 21
700.6437471526256
 31
0.0
  0
ARC
  5
37E
330
1B5
100
AcDbEntity
  8
2
  6
Continuous
 62
     7
370
    18
100
AcDbCircle
 10
-309.4587957402837
 20
328.8437471526262
 30
0.0
 40
8.1
100
AcDbArc
 50
180.0
 51
270.0
  0
ARC
  5
37F
330
1B5
100
AcDbEntity
  8
2
  6
Continuous
 62
     7
370
    18
100
AcDbCircle
 10
-309.4587957402837
 20
700.6437471526256
 30
0.0
 40
8.1
100
AcDbArc
 50
90.0
 51
180.0
  0
LINE
  5
380
330
1B5
100
AcDbEntity
  8
2
  6
Continuous
 62
     7
370
    18
100
AcDbLine
 10
-280.9587957402837
 20
714.2437471526259
 30
0.0
 11
-296.9587957402837
 21
714.2437471526259
 31
0.0
  0
LINE
  5
381
330
1B5
100
AcDbEntity
  8
2
  6
Continuous
 62
     7
370
    18
100
AcDbLine
 10
-280.9587957402837
 20
709.2437471526259
 30
0.0
 11
-280.9587957402837
 21
714.2437471526259
 31
0.0
  0
LINE
  5
382
330
1B5
100
AcDbEntity
  8
2
  6
Continuous
 62
     7
370
    18
100
AcDbLine
 10
-296.9587957402837
 20
709.2437471526259
 30
0.0
 11
-296.9587957402837
 21
714.2437471526259
 31
0.0
  0
LINE
  5
383
330
1B5
100
AcDbEntity
  8
2
  6
Continuous
 62
     7
370
    18
100
AcDbLine
 10
-271.2587957402839
 20
709.2437471526259
 30
0.0
 11
-306.6587957402835
 21
709.2437471526259
 31
0.0
  0
ARC
  5
384
330
1B5
100
AcDbEntity
  8
2
  6
Continuous
 62
     7
370
    18
100
AcDbCircle
 10
-306.6587957402835
 20
708.4437471526257
 30
0.0
 40
0.8
100
AcDbArc
 50
90.0
 51
157.9756869999987
  0
ARC
  5
385
330
1B5
100
AcDbEntity
  8
2
  6
Continuous
 62
     7
370
    18
100
AcDbCircle
 10
-271.2587957402839
 20
708.4437471526257
 30
0.0
 40
0.8
100
AcDbArc
 50
22.02431300000125
 51
90.0
  0
LINE
  5
386
330
1B5
100
AcDbEntity
  8
2
  6
Continuous
 62
     7
370
    18
100
AcDbLine
 10
-268.4587957402837
 20
320.7437471526259
 30
0.0
 11
-309.4587957402837
 21
320.7437471526259
 31
0.0
  0
LINE
  5
387
330
1B5
100
AcDbEntity
  8
2
  6
Continuous
 62
     7
370
    18
100
AcDbLine
 10
-280.9587957402837
 20
315.2437471526259
 30
0.0
 11
-296.9587957402837
 21
315.2437471526259
 31
0.0
  0
LINE
  5
388
330
1B5
100
AcDbEntity
  8
2
  6
Continuous
 62
     7
370
    18
100
AcDbLine
 10
-280.9587957402837
 20
320.2437471526259
 30
0.0
 11
-280.9587957402837
 21
315.2437471526259
 31
0.0
  0
LINE
  5
389
330
1B5
100
AcDbEntity
  8
2
  6
Continuous
 62
     7
370
    18
100
AcDbLine
 10
-296.9587957402837
 20
320.2437471526259
 30
0.0
 11
-296.9587957402837
 21
315.2437471526259
 31
0.0
  0
LINE
  5
38A
330
1B5
100
AcDbEntity
  8
2
  6
Continuous
 62
     7
370
    18
100
AcDbLine
 10
-271.2587957402839
 20
320.2437471526259
 30
0.0
 11
-306.6587957402835
 21
320.2437471526259
 31
0.0
  0
ARC
  5
38B
330
1B5
100
AcDbEntity
  8
2
  6
Continuous
 62
     7
370
    18
100
AcDbCircle
 10
-306.6587957402835
 20
321.0437471526261
 30
0.0
 40
0.8
100
AcDbArc
 50
202.0243130000013
 51
270.0
  0
ARC
  5
38C
330
1B5
100
AcDbEntity
  8
2
  6
Continuous
 62
     7
370
    18
100
AcDbCircle
 10
-271.2587957402839
 20
321.0437471526261
 30
0.0
 40
0.8
100
AcDbArc
 50
270.0
 51
337.9756869999987
  0
ENDBLK
  5
1B7
330
1B5
100
AcDbEntity
  8
0
100
AcDbBlockEnd
  0
BLOCK
  5
1B9
330
1B8
100
AcDbEntity
  8
0
100
AcDbBlockBegin
  2
DC_GROUP_W_JR-5714_S_040_59
 70
     0
 10
0.0
 20
0.0
 30
0.0
  3
DC_GROUP_W_JR-5714_S_040_59
  1
DC_GROUP_W_JR-5714_S_040_59
  0
LINE
  5
38D
330
1B8
100
AcDbEntity
  8
2
  6
CENTER
 62
     3
370
    13
100
AcDbLine
 10
-88.95879574028379
 20
717.2437471526259
 30
0.0
 11
-88.95879574028379
 21
312.2437471526259
 31
0.0
  0
LINE
  5
38E
330
1B8
100
AcDbEntity
  8
2
  6
Continuous
 62
     7
370
    18
100
AcDbLine
 10
-68.45879574028379
 20
708.7437471526259
 30
0.0
 11
-109.4587957402838
 21
708.7437471526259
 31
0.0
  0
ARC
  5
38F
330
1B8
100
AcDbEntity
  8
2
  6
Continuous
 62
     7
370
    18
100
AcDbCircle
 10
-68.45879574028379
 20
700.6437471526256
 30
0.0
 40
8.1
100
AcDbArc
 50
0.0
 51
90.0
  0
LINE
  5
390
330
1B8
100
AcDbEntity
  8
2
  6
Continuous
 62
     7
370
    18
100
AcDbLine
 10
-60.35879574028388
 20
700.6437471526256
 30
0.0
 11
-60.35879574028388
 21
328.8437471526262
 31
0.0
  0
ARC
  5
391
330
1B8
100
AcDbEntity
  8
2
  6
Continuous
 62
     7
370
    18
100
AcDbCircle
 10
-68.45879574028379
 20
328.8437471526262
 30
0.0
 40
8.1
100
AcDbArc
 50
270.0
 51
0.0
  0
LINE
  5
392
330
1B8
100
AcDbEntity
  8
2
  6
Continuous
 62
     7
370
    18
100
AcDbLine
 10
-117.5587957402837
 20
328.8437471526262
 30
0.0
 11
-117.5587957402837
 21
700.6437471526256
 31
0.0
  0
ARC
  5
393
330
1B8
100
AcDbEntity
  8
2
  6
Continuous
 62
     7
370
    18
100
AcDbCircle
 10
-109.4587957402838
 20
328.8437471526262
 30
0.0
 40
8.1
100
AcDbArc
 50
180.0
 51
270.0
  0
ARC
  5
394
330
1B8
100
AcDbEntity
  8
2
  6
Continuous
 62
     7
370
    18
100
AcDbCircle
 10
-109.4587957402838
 20
700.6437471526256
 30
0.0
 40
8.1
100
AcDbArc
 50
90.0
 51
180.0
  0
LINE
  5
395
330
1B8
100
AcDbEntity
  8
2
  6
Continuous
 62
     7
370
    18
100
AcDbLine
 10
-80.95879574028379
 20
714.2437471526259
 30
0.0
 11
-96.95879574028379
 21
714.2437471526259
 31
0.0
  0
LINE
  5
396
330
1B8
100
AcDbEntity
  8
2
  6
Continuous
 62
     7
370
    18
100
AcDbLine
 10
-80.95879574028379
 20
709.2437471526259
 30
0.0
 11
-80.95879574028379
 21
714.2437471526259
 31
0.0
  0
LINE
  5
397
330
1B8
100
AcDbEntity
  8
2
  6
Continuous
 62
     7
370
    18
100
AcDbLine
 10
-96.95879574028379
 20
709.2437471526259
 30
0.0
 11
-96.95879574028379
 21
714.2437471526259
 31
0.0
  0
LINE
  5
398
330
1B8
100
AcDbEntity
  8
2
  6
Continuous
 62
     7
370
    18
100
AcDbLine
 10
-71.25879574028397
 20
709.2437471526259
 30
0.0
 11
-106.6587957402836
 21
709.2437471526259
 31
0.0
  0
ARC
  5
399
330
1B8
100
AcDbEntity
  8
2
  6
Continuous
 62
     7
370
    18
100
AcDbCircle
 10
-106.6587957402836
 20
708.4437471526257
 30
0.0
 40
0.8
100
AcDbArc
 50
90.0
 51
157.9756869999987
  0
ARC
  5
39A
330
1B8
100
AcDbEntity
  8
2
  6
Continuous
 62
     7
370
    18
100
AcDbCircle
 10
-71.25879574028397
 20
708.4437471526257
 30
0.0
 40
0.8
100
AcDbArc
 50
22.02431300000125
 51
90.0
  0
LINE
  5
39B
330
1B8
100
AcDbEntity
  8
2
  6
Continuous
 62
     7
370
    18
100
AcDbLine
 10
-68.45879574028379
 20
320.7437471526259
 30
0.0
 11
-109.4587957402838
 21
320.7437471526259
 31
0.0
  0
LINE
  5
39C
330
1B8
100
AcDbEntity
  8
2
  6
Continuous
 62
     7
370
    18
100
AcDbLine
 10
-80.95879574028379
 20
315.2437471526259
 30
0.0
 11
-96.95879574028379
 21
315.2437471526259
 31
0.0
  0
LINE
  5
39D
330
1B8
100
AcDbEntity
  8
2
  6
Continuous
 62
     7
370
    18
100
AcDbLine
 10
-80.95879574028379
 20
320.2437471526259
 30
0.0
 11
-80.95879574028379
 21
315.2437471526259
 31
0.0
  0
LINE
  5
39E
330
1B8
100
AcDbEntity
  8
2
  6
Continuous
 62
     7
370
    18
100
AcDbLine
 10
-96.95879574028379
 20
320.2437471526259
 30
0.0
 11
-96.95879574028379
 21
315.2437471526259
 31
0.0
  0
LINE
  5
39F
330
1B8
100
AcDbEntity
  8
2
  6
Continuous
 62
     7
370
    18
100
AcDbLine
 10
-71.25879574028397
 20
320.2437471526259
 30
0.0
 11
-106.6587957402836
 21
320.2437471526259
 31
0.0
  0
ARC
  5
3A0
330
1B8
100
AcDbEntity
  8
2
  6
Continuous
 62
     7
370
    18
100
AcDbCircle
 10
-106.6587957402836
 20
321.0437471526261
 30
0.0
 40
0.8
100
AcDbArc
 50
202.0243130000013
 51
270.0
  0
ARC
  5
3A1
330
1B8
100
AcDbEntity
  8
2
  6
Continuous
 62
     7
370
    18
100
AcDbCircle
 10
-71.25879574028397
 20
321.0437471526261
 30
0.0
 40
0.8
100
AcDbArc
 50
270.0
 51
337.9756869999987
  0
ENDBLK
  5
1BA
330
1B8
100
AcDbEntity
  8
0
100
AcDbBlockEnd
  0
BLOCK
  5
1BC
330
1BB
100
AcDbEntity
  8
0
100
AcDbBlockBegin
  2
DC_GROUP_W_JR-5714_S_040_60
 70
     0
 10
0.0
 20
0.0
 30
0.0
  3
DC_GROUP_W_JR-5714_S_040_60
  1
DC_GROUP_W_JR-5714_S_040_60
  0
LINE
  5
3A2
330
1BB
100
AcDbEntity
  8
2
  6
CENTER
 62
     3
370
    13
100
AcDbLine
 10
111.0412042597162
 20
717.2437471526259
 30
0.0
 11
111.0412042597162
 21
312.2437471526259
 31
0.0
  0
LINE
  5
3A3
330
1BB
100
AcDbEntity
  8
2
  6
Continuous
 62
     7
370
    18
100
AcDbLine
 10
131.5412042597162
 20
708.7437471526259
 30
0.0
 11
90.54120425971621
 21
708.7437471526259
 31
0.0
  0
ARC
  5
3A4
330
1BB
100
AcDbEntity
  8
2
  6
Continuous
 62
     7
370
    18
100
AcDbCircle
 10
131.5412042597162
 20
700.6437471526256
 30
0.0
 40
8.1
100
AcDbArc
 50
0.0
 51
90.0
  0
LINE
  5
3A5
330
1BB
100
AcDbEntity
  8
2
  6
Continuous
 62
     7
370
    18
100
AcDbLine
 10
139.6412042597161
 20
700.6437471526256
 30
0.0
 11
139.6412042597161
 21
328.8437471526262
 31
0.0
  0
ARC
  5
3A6
330
1BB
100
AcDbEntity
  8
2
  6
Continuous
 62
     7
370
    18
100
AcDbCircle
 10
131.5412042597162
 20
328.8437471526262
 30
0.0
 40
8.1
100
AcDbArc
 50
270.0
 51
0.0
  0
LINE
  5
3A7
330
1BB
100
AcDbEntity
  8
2
  6
Continuous
 62
     7
370
    18
100
AcDbLine
 10
82.4412042597163
 20
328.8437471526262
 30
0.0
 11
82.4412042597163
 21
700.6437471526256
 31
0.0
  0
ARC
  5
3A8
330
1BB
100
AcDbEntity
  8
2
  6
Continuous
 62
     7
370
    18
100
AcDbCircle
 10
90.54120425971621
 20
328.8437471526262
 30
0.0
 40
8.1
100
AcDbArc
 50
180.0
 51
270.0
  0
ARC
  5
3A9
330
1BB
100
AcDbEntity
  8
2
  6
Continuous
 62
     7
370
    18
100
AcDbCircle
 10
90.54120425971621
 20
700.6437471526256
 30
0.0
 40
8.1
100
AcDbArc
 50
90.0
 51
180.0
  0
LINE
  5
3AA
330
1BB
100
AcDbEntity
  8
2
  6
Continuous
 62
     7
370
    18
100
AcDbLine
 10
119.0412042597162
 20
714.2437471526259
 30
0.0
 11
103.0412042597162
 21
714.2437471526259
 31
0.0
  0
LINE
  5
3AB
330
1BB
100
AcDbEntity
  8
2
  6
Continuous
 62
     7
370
    18
100
AcDbLine
 10
119.0412042597162
 20
709.2437471526259
 30
0.0
 11
119.0412042597162
 21
714.2437471526259
 31
0.0
  0
LINE
  5
3AC
330
1BB
100
AcDbEntity
  8
2
  6
Continuous
 62
     7
370
    18
100
AcDbLine
 10
103.0412042597162
 20
709.2437471526259
 30
0.0
 11
103.0412042597162
 21
714.2437471526259
 31
0.0
  0
LINE
  5
3AD
330
1BB
100
AcDbEntity
  8
2
  6
Continuous
 62
     7
370
    18
100
AcDbLine
 10
128.741204259716
 20
709.2437471526259
 30
0.0
 11
93.34120425971639
 21
709.2437471526259
 31
0.0
  0
ARC
  5
3AE
330
1BB
100
AcDbEntity
  8
2
  6
Continuous
 62
     7
370
    18
100
AcDbCircle
 10
93.34120425971639
 20
708.4437471526257
 30
0.0
 40
0.8
100
AcDbArc
 50
90.0
 51
157.9756869999987
  0
ARC
  5
3AF
330
1BB
100
AcDbEntity
  8
2
  6
Continuous
 62
     7
370
    18
100
AcDbCircle
 10
128.741204259716
 20
708.4437471526257
 30
0.0
 40
0.8
100
AcDbArc
 50
22.02431300000125
 51
90.0
  0
LINE
  5
3B0
330
1BB
100
AcDbEntity
  8
2
  6
Continuous
 62
     7
370
    18
100
AcDbLine
 10
131.5412042597162
 20
320.7437471526259
 30
0.0
 11
90.54120425971621
 21
320.7437471526259
 31
0.0
  0
LINE
  5
3B1
330
1BB
100
AcDbEntity
  8
2
  6
Continuous
 62
     7
370
    18
100
AcDbLine
 10
119.0412042597162
 20
315.2437471526259
 30
0.0
 11
103.0412042597162
 21
315.2437471526259
 31
0.0
  0
LINE
  5
3B2
330
1BB
100
AcDbEntity
  8
2
  6
Continuous
 62
     7
370
    18
100
AcDbLine
 10
119.0412042597162
 20
320.2437471526259
 30
0.0
 11
119.0412042597162
 21
315.2437471526259
 31
0.0
  0
LINE
  5
3B3
330
1BB
100
AcDbEntity
  8
2
  6
Continuous
 62
     7
370
    18
100
AcDbLine
 10
103.0412042597162
 20
320.2437471526259
 30
0.0
 11
103.0412042597162
 21
315.2437471526259
 31
0.0
  0
LINE
  5
3B4
330
1BB
100
AcDbEntity
  8
2
  6
Continuous
 62
     7
370
    18
100
AcDbLine
 10
128.741204259716
 20
320.2437471526259
 30
0.0
 11
93.34120425971639
 21
320.2437471526259
 31
0.0
  0
ARC
  5
3B5
330
1BB
100
AcDbEntity
  8
2
  6
Continuous
 62
     7
370
    18
100
AcDbCircle
 10
93.34120425971639
 20
321.0437471526261
 30
0.0
 40
0.8
100
AcDbArc
 50
202.0243130000013
 51
270.0
  0
ARC
  5
3B6
330
1BB
100
AcDbEntity
  8
2
  6
Continuous
 62
     7
370
    18
100
AcDbCircle
 10
128.741204259716
 20
321.0437471526261
 30
0.0
 40
0.8
100
AcDbArc
 50
270.0
 51
337.9756869999987
  0
ENDBLK
  5
1BD
330
1BB
100
AcDbEntity
  8
0
100
AcDbBlockEnd
  0
BLOCK
  5
1BF
330
1BE
100
AcDbEntity
  8
0
100
AcDbBlockBegin
  2
DC_GROUP_W_JR-5714_S_040_61
 70
     0
 10
0.0
 20
0.0
 30
0.0
  3
DC_GROUP_W_JR-5714_S_040_61
  1
DC_GROUP_W_JR-5714_S_040_61
  0
LINE
  5
3B7
330
1BE
100
AcDbEntity
  8
0
  6
Continuous
 62
     2
370
    13
100
AcDbLine
 10
-348.9587957402838
 20
-104.6062528541871
 30
0.0
 11
-484.4501690240723
 21
-296.6062528541871
 31
0.0
  0
INSERT
  5
3B8
330
1BE
100
AcDbEntity
  8
0
 62
     2
100
AcDbBlockReference
  2
_OPEN30
 10
-348.9587957402838
 20
-104.6062528541871
 30
0.0
 41
18.00001684569172
 42
17.99993620934186
 50
54.78998399279331
  0
LINE
  5
3B9
330
1BE
100
AcDbEntity
  8
0
  6
Continuous
 62
     2
370
    13
100
AcDbLine
 10
-228.9587957402838
 20
-104.6062528541871
 30
0.0
 11
-484.4501690240723
 21
-296.6062528541871
 31
0.0
  0
INSERT
  5
3BA
330
1BE
100
AcDbEntity
  8
0
 62
     2
100
AcDbBlockReference
  2
_OPEN30
 10
-228.9587957402838
 20
-104.6062528541871
 30
0.0
 41
18.00001684569172
 42
17.99993620934186
 50
36.92460875591675
  0
LINE
  5
3BB
330
1BE
100
AcDbEntity
  8
0
  6
Continuous
 62
     2
370
    13
100
AcDbLine
 10
-484.4501690240723
 20
-296.6062528541871
 30
0.0
 11
-772.4501690240722
 21
-296.6062528541871
 31
0.0
  0
LINE
  5
3BC
330
1BE
100
AcDbEntity
  8
0
  6
Continuous
 62
     2
370
    13
100
AcDbLine
 10
-508.4501690240722
 20
-332.6062528541871
 30
0.0
 11
-772.4501690240722
 21
-332.6062528541871
 31
0.0
  0
TEXT
  5
3BD
330
1BE
100
AcDbEntity
  8
0
 62
     2
100
AcDbText
 10
-772.4501690205661
 20
-290.6062528541871
 30
0.0
 40
24.0
  1
呼び機長100 cmと150 cmの
 41
0.6991377301328362
  7
dcStyle0
 72
     5
 11
-484.4501690205661
 21
-290.6062528541871
 31
0.0
100
AcDbText
  0
TEXT
  5
3BE
330
1BE
100
AcDbEntity
  8
0
 62
     2
100
AcDbText
 10
-772.4501690205661
 20
-326.6062528541871
 30
0.0
 40
24.0
  1
中央に脚穴はありません
 41
0.7218321412166152
  7
dcStyle0
 72
     5
 11
-508.4501690205661
 21
-326.6062528541871
 31
0.0
100
AcDbText
  0
ENDBLK
  5
1C0
330
1BE
100
AcDbEntity
  8
0
100
AcDbBlockEnd
  0
BLOCK
  5
1C2
330
1C1
100
AcDbEntity
  8
0
100
AcDbBlockBegin
  2
DC_GROUP_W_JR-5714_S_040_62
 70
     0
 10
0.0
 20
0.0
 30
0.0
  3
DC_GROUP_W_JR-5714_S_040_62
  1
DC_GROUP_W_JR-5714_S_040_62
  0
LINE
  5
3BF
330
1C1
100
AcDbEntity
  8
0
  6
Continuous
 62
     2
370
    13
100
AcDbLine
 10
612.5376319191868
 20
-104.6062528541871
 30
0.0
 11
573.5796355496856
 21
-152.3731574868406
 31
0.0
  0
INSERT
  5
3C0
330
1C1
100
AcDbEntity
  8
0
 62
     2
100
AcDbBlockReference
  2
_OPEN30
 10
612.5376319191868
 20
-104.6062528541871
 30
0.0
 41
18.00001684569172
 42
17.99993620934186
 50
50.79981302244646
  0
LINE
  5
3C1
330
1C1
100
AcDbEntity
  8
0
  6
Continuous
 62
     2
370
    13
100
AcDbLine
 10
573.5796355496856
 20
-152.3731574868406
 30
0.0
 11
453.5796355496856
 21
-152.3731574868406
 31
0.0
  0
TEXT
  5
3C2
330
1C1
100
AcDbEntity
  8
0
 62
     2
100
AcDbText
 10
453.5796355496856
 20
-146.3731574868406
 30
0.0
 40
24.0
  1
10×14長穴
 41
0.6877579092159559
  7
dcStyle0
 72
     5
 11
573.5796355496856
 21
-146.3731574868406
 31
0.0
100
AcDbText
  0
ENDBLK
  5
1C3
330
1C1
100
AcDbEntity
  8
0
100
AcDbBlockEnd
  0
BLOCK
  5
1C6
330
1C5
100
AcDbEntity
  8
0
100
AcDbBlockBegin
  2
_OPEN30
 70
     0
 10
0.0
 20
0.0
 30
0.0
  3
_OPEN30
  1
_OPEN30
  0
LINE
  5
1C8
330
1C5
100
AcDbEntity
  8
0
  6
ByBlock
 62
     0
370
    -2
100
AcDbLine
 10
-1.0
 20
0.267949
 30
0.0
 11
0.0
 21
0.0
 31
0.0
  0
LINE
  5
1C9
330
1C5
100
AcDbEntity
  8
0
  6
ByBlock
 62
     0
370
    -2
100
AcDbLine
 10
0.0
 20
0.0
 30
0.0
 11
-1.0
 21
-0.267949
 31
0.0
  0
LINE
  5
1CA
330
1C5
100
AcDbEntity
  8
0
  6
ByBlock
 62
     0
370
    -2
100
AcDbLine
 10
0.0
 20
0.0
 30
0.0
 11
-1.0
 21
0.0
 31
0.0
  0
ENDBLK
  5
1C7
330
1C5
100
AcDbEntity
  8
0
100
AcDbBlockEnd
  0
ENDSEC
  0
SECTION
  2
ENTITIES
  0
DIMENSION
  5
3C3
330
1F
100
AcDbEntity
  8
0
  6
Continuous
370
    13
100
AcDbDimension
280
     0
  2
*D1
 10
208.0412042597162
 20
192.3437471458127
 30
0.0
 11
-288.9587957402838
 21
192.3437471458127
 31
0.0
 70
   160
  1
機長
 71
     8
 42
-1.0
 73
     0
 74
     0
 75
     0
  3
dc_Rotated
100
AcDbAlignedDimension
 13
-785.9587957402838
 23
-9.606252854187147
 33
0.0
 14
208.0412042597162
 24
-9.606252854187147
 34
0.0
100
AcDbRotatedDimension
1001
ACAD
1000
DSTYLE
1002
{
1070
   144
1040
1.0
1070
   274
1070
     4
1070
    41
1040
18.0000114440918
1070
    79
1070
     2
1070
   343
1005
1C5
1070
   344
1005
1C5
1070
   176
1070
     2
1070
   177
1070
     2
1070
   178
1070
     2
1070
   271
1070
     2
1070
    44
1040
3.0
1070
    42
1040
6.0
1070
   147
1040
5.0
1070
   173
1070
     1
1070
    77
1070
     3
1070
    73
1070
     0
1070
   172
1070
     1
1070
    74
1070
     0
1070
   283
1070
     0
1070
   340
1005
1CF
1070
   140
1040
24.0
1070
   284
1070
     8
1070
   288
1070
     1
1070
    78
1070
     8
1070
    90
1070
     1
1002
}
  0
DIMENSION
  5
3C5
330
1F
100
AcDbEntity
  8
0
  6
Continuous
370
    13
100
AcDbDimension
280
     0
  2
*D2
 10
-728.9587957402838
 20
-236.6062528541871
 30
0.0
 11
-757.4587957402838
 21
-236.6062528541871
 31
0.0
 70
   160
  1
D
 71
     8
 42
-1.0
 73
     0
 74
     0
 75
     0
  3
dc_Rotated
100
AcDbAlignedDimension
 13
-785.9587957402838
 23
-104.6062528541871
 33
0.0
 14
-728.9587957402838
 24
-114.6062528541871
 34
0.0
100
AcDbRotatedDimension
1001
ACAD
1000
DSTYLE
1002
{
1070
   144
1040
1.0
1070
   274
1070
     4
1070
    41
1040
18.0000114440918
1070
    79
1070
     2
1070
   343
1005
1C5
1070
   344
1005
1C5
1070
   176
1070
     2
1070
   177
1070
     2
1070
   178
1070
     2
1070
   271
1070
     2
1070
    44
1040
3.0
1070
    42
1040
6.0
1070
   147
1040
5.0
1070
   173
1070
     1
1070
    77
1070
     3
1070
    73
1070
     0
1070
   172
1070
     1
1070
    74
1070
     0
1070
   283
1070
     0
1070
   340
1005
1CF
1070
   140
1040
24.0
1070
   284
1070
     8
1070
   288
1070
     1
1070
    78
1070
     8
1070
    90
1070
     1
1002
}
  0
DIMENSION
  5
3C6
330
1F
100
AcDbEntity
  8
0
  6
Continuous
370
    13
100
AcDbDimension
280
     0
  2
*D3
 10
-608.9587957402838
 20
-236.6062528541871
 30
0.0
 11
-668.9587957402838
 21
-236.6062528541871
 31
0.0
 70
   160
 71
     8
 42
-1.0
 73
     0
 74
     0
 75
     0
  3
dc_Rotated
100
AcDbAlignedDimension
 13
-728.9587957402838
 23
-114.6062528541871
 33
0.0
 14
-608.9587957402838
 24
-186.6062528541871
 34
0.0
100
AcDbRotatedDimension
1001
ACAD
1000
DSTYLE
1002
{
1070
   144
1040
1.0
1070
   274
1070
     4
1070
    41
1040
18.0000114440918
1070
    79
1070
     2
1070
   343
1005
1C5
1070
   344
1005
1C5
1070
   176
1070
     2
1070
   177
1070
     2
1070
   178
1070
     2
1070
   271
1070
     2
1070
    44
1040
3.0
1070
    42
1040
6.0
1070
   147
1040
5.0
1070
   173
1070
     1
1070
    77
1070
     3
1070
    73
1070
     0
1070
   172
1070
     1
1070
    74
1070
     0
1070
   283
1070
     0
1070
   340
1005
1CF
1070
   140
1040
24.0
1070
   284
1070
     8
1070
   288
1070
     1
1070
    78
1070
     8
1070
    90
1070
     1
1002
}
  0
DIMENSION
  5
3C7
330
1F
100
AcDbEntity
  8
0
  6
Continuous
370
    13
100
AcDbDimension
280
     0
  2
*D4
 10
151.0412042597162
 20
-236.6062528541871
 30
0.0
 11
86.8356740860919
 21
-236.6062528541871
 31
0.0
 70
   160
 71
     8
 42
-1.0
 73
     0
 74
     0
 75
     0
  3
dc_Rotated
100
AcDbAlignedDimension
 13
31.04120425971615
 23
-186.6062528541871
 33
0.0
 14
151.0412042597162
 24
-114.6062528541871
 34
0.0
100
AcDbRotatedDimension
1001
ACAD
1000
DSTYLE
1002
{
1070
   144
1040
1.0
1070
   274
1070
     4
1070
    41
1040
18.0000114440918
1070
    79
1070
     2
1070
   343
1005
1C5
1070
   344
1005
1C5
1070
   176
1070
     2
1070
   177
1070
     2
1070
   178
1070
     2
1070
   271
1070
     2
1070
    44
1040
3.0
1070
    42
1040
6.0
1070
   147
1040
5.0
1070
   173
1070
     1
1070
    77
1070
     3
1070
    73
1070
     0
1070
   172
1070
     1
1070
    74
1070
     0
1070
   283
1070
     0
1070
   340
1005
1CF
1070
   140
1040
24.0
1070
   284
1070
     8
1070
   288
1070
     1
1070
    78
1070
     8
1070
    90
1070
     1
1002
}
  0
DIMENSION
  5
3C8
330
1F
100
AcDbEntity
  8
0
  6
Continuous
370
    13
100
AcDbDimension
280
     0
  2
*D5
 10
208.0412042597162
 20
-236.6062528541871
 30
0.0
 11
179.5412042597162
 21
-236.6062528541871
 31
0.0
 70
   160
  1
D
 71
     8
 42
-1.0
 73
     0
 74
     0
 75
     0
  3
dc_Rotated
100
AcDbAlignedDimension
 13
151.0412042597162
 23
-114.6062528541871
 33
0.0
 14
208.0412042597162
 24
-104.6062528541871
 34
0.0
100
AcDbRotatedDimension
1001
ACAD
1000
DSTYLE
1002
{
1070
   144
1040
1.0
1070
   274
1070
     4
1070
    41
1040
18.0000114440918
1070
    79
1070
     2
1070
   343
1005
1C5
1070
   344
1005
1C5
1070
   176
1070
     2
1070
   177
1070
     2
1070
   178
1070
     2
1070
   271
1070
     2
1070
    44
1040
3.0
1070
    42
1040
6.0
1070
   147
1040
5.0
1070
   173
1070
     1
1070
    77
1070
     3
1070
    73
1070
     0
1070
   172
1070
     1
1070
    74
1070
     0
1070
   283
1070
     0
1070
   340
1005
1CF
1070
   140
1040
24.0
1070
   284
1070
     8
1070
   288
1070
     1
1070
    78
1070
     8
1070
    90
1070
     1
1002
}
  0
DIMENSION
  5
3C9
330
1F
100
AcDbEntity
  8
0
  6
Continuous
370
    13
100
AcDbDimension
280
     0
  2
*D6
 10
-688.9587957402838
 20
132.3437471458127
 30
0.0
 11
-737.4587957402838
 21
132.3437471458127
 31
0.0
 70
   160
  1
A
 71
     8
 42
-1.0
 73
     0
 74
     0
 75
     0
  3
dc_Rotated
100
AcDbAlignedDimension
 13
-785.9587957402838
 23
-9.606252854187147
 33
0.0
 14
-688.9587957402838
 24
0.9937471458131881
 34
0.0
100
AcDbRotatedDimension
1001
ACAD
1000
DSTYLE
1002
{
1070
   144
1040
1.0
1070
   274
1070
     4
1070
    41
1040
18.0000114440918
1070
    79
1070
     2
1070
   343
1005
1C5
1070
   344
1005
1C5
1070
   176
1070
     2
1070
   177
1070
     2
1070
   178
1070
     2
1070
   271
1070
     2
1070
    44
1040
3.0
1070
    42
1040
6.0
1070
   147
1040
6.0
1070
   173
1070
     1
1070
    77
1070
     3
1070
    73
1070
     0
1070
   172
1070
     1
1070
    74
1070
     0
1070
   283
1070
     0
1070
   340
1005
1CF
1070
   140
1040
24.0
1070
   284
1070
     8
1070
   288
1070
     1
1070
    78
1070
     8
1070
    90
1070
     1
1002
}
  0
DIMENSION
  5
3CA
330
1F
100
AcDbEntity
  8
0
  6
Continuous
370
    13
100
AcDbDimension
280
     0
  2
*D7
 10
111.0412042597161
 20
132.3437471458127
 30
0.0
 11
-288.9587957402839
 21
132.3437471458127
 31
0.0
 70
   160
  1
N×200=B
 71
     8
 42
-1.0
 73
     0
 74
     0
 75
     0
  3
dc_Rotated
100
AcDbAlignedDimension
 13
-688.9587957402838
 23
0.9937471458131881
 33
0.0
 14
111.0412042597161
 24
0.9937471458131881
 34
0.0
100
AcDbRotatedDimension
1001
ACAD
1000
DSTYLE
1002
{
1070
   144
1040
1.0
1070
   274
1070
     4
1070
    41
1040
18.0000114440918
1070
    79
1070
     2
1070
   343
1005
1C5
1070
   344
1005
1C5
1070
   176
1070
     2
1070
   177
1070
     2
1070
   178
1070
     2
1070
   271
1070
     2
1070
    44
1040
3.0
1070
    42
1040
6.0
1070
   147
1040
5.0
1070
   173
1070
     1
1070
    77
1070
     3
1070
    73
1070
     0
1070
   172
1070
     1
1070
    74
1070
     0
1070
   283
1070
     0
1070
   340
1005
1CF
1070
   140
1040
24.0
1070
   284
1070
     8
1070
   288
1070
     1
1070
    78
1070
     8
1070
    90
1070
     1
1002
}
  0
DIMENSION
  5
3CB
330
1F
100
AcDbEntity
  8
0
  6
Continuous
370
    13
100
AcDbDimension
280
     0
  2
*D8
 10
208.0412042597162
 20
132.3437471458127
 30
0.0
 11
159.5412042597162
 21
132.3437471458127
 31
0.0
 70
   160
  1
C
 71
     8
 42
-1.0
 73
     0
 74
     0
 75
     0
  3
dc_Rotated
100
AcDbAlignedDimension
 13
111.0412042597161
 23
0.9937471458131881
 33
0.0
 14
208.0412042597162
 24
-9.606252854187147
 34
0.0
100
AcDbRotatedDimension
1001
ACAD
1000
DSTYLE
1002
{
1070
   144
1040
1.0
1070
   274
1070
     4
1070
    41
1040
18.0000114440918
1070
    79
1070
     2
1070
   343
1005
1C5
1070
   344
1005
1C5
1070
   176
1070
     2
1070
   177
1070
     2
1070
   178
1070
     2
1070
   271
1070
     2
1070
    44
1040
3.0
1070
    42
1040
6.0
1070
   147
1040
6.0
1070
   173
1070
     1
1070
    77
1070
     3
1070
    73
1070
     0
1070
   172
1070
     1
1070
    74
1070
     0
1070
   283
1070
     0
1070
   340
1005
1CF
1070
   140
1040
24.0
1070
   284
1070
     8
1070
   288
1070
     1
1070
    78
1070
     8
1070
    90
1070
     1
1002
}
  0
DIMENSION
  5
3CC
330
1F
100
AcDbEntity
  8
0
  6
Continuous
370
    13
100
AcDbDimension
280
     0
  2
*D11
 10
289.0412042597163
 20
744.7437471526259
 30
0.0
 11
289.0412042597163
 21
514.7437471526259
 31
0.0
 70
   160
  1
機 幅 (<>)
 71
     8
 42
-1.0
 73
     0
 74
     0
 75
     0
  3
dc_Rotated
100
AcDbAlignedDimension
 13
207.0412042597162
 23
284.7437471526259
 33
0.0
 14
207.0412042597162
 24
744.7437471526259
 34
0.0
 50
90.0
100
AcDbRotatedDimension
1001
ACAD
1000
DSTYLE
1002
{
1070
   144
1040
1.0
1070
   274
1070
     4
1070
    41
1040
18.0000114440918
1070
    79
1070
     2
1070
   343
1005
1C5
1070
   344
1005
1C5
1070
   176
1070
     2
1070
   177
1070
     2
1070
   178
1070
     2
1070
   271
1070
     2
1070
    44
1040
3.0
1070
    42
1040
6.0
1070
   147
1040
6.0
1070
   173
1070
     1
1070
    77
1070
     3
1070
    73
1070
     0
1070
   172
1070
     1
1070
    74
1070
     0
1070
   283
1070
     0
1070
   340
1005
1CF
1070
   140
1040
24.0
1070
   284
1070
     8
1070
   288
1070
     1
1070
    78
1070
     8
1070
    90
1070
     1
1002
}
  0
DIMENSION
  5
3CD
330
1F
100
AcDbEntity
  8
0
  6
Continuous
370
    13
100
AcDbDimension
280
     0
  2
*D12
 10
-348.9587957402838
 20
-236.6062528541871
 30
0.0
 11
-478.9587957402838
 21
-236.6062528541871
 31
0.0
 70
   160
  1
E
 71
     8
 42
-1.0
 73
     0
 74
     0
 75
     0
  3
dc_Rotated
100
AcDbAlignedDimension
 13
-608.9587957402838
 23
-114.6062528541871
 33
0.0
 14
-348.9587957402838
 24
-114.6062528541871
 34
0.0
100
AcDbRotatedDimension
1001
ACAD
1000
DSTYLE
1002
{
1070
   144
1040
1.0
1070
   274
1070
     4
1070
    41
1040
18.0000114440918
1070
    79
1070
     2
1070
   343
1005
1C5
1070
   344
1005
1C5
1070
   176
1070
     2
1070
   177
1070
     2
1070
   178
1070
     2
1070
   271
1070
     2
1070
    44
1040
3.0
1070
    42
1040
6.0
1070
   147
1040
5.0
1070
   173
1070
     1
1070
    77
1070
     3
1070
    73
1070
     0
1070
   172
1070
     1
1070
    74
1070
     0
1070
   283
1070
     0
1070
   340
1005
1CF
1070
   140
1040
24.0
1070
   284
1070
     8
1070
   288
1070
     1
1070
    78
1070
     8
1070
    90
1070
     1
1002
}
  0
DIMENSION
  5
3CE
330
1F
100
AcDbEntity
  8
0
  6
Continuous
370
    13
100
AcDbDimension
280
     0
  2
*D13
 10
-228.9587957402838
 20
-236.6062528541871
 30
0.0
 11
-288.9587957402838
 21
-236.6062528541871
 31
0.0
 70
   160
 71
     8
 42
-1.0
 73
     0
 74
     0
 75
     0
  3
dc_Rotated
100
AcDbAlignedDimension
 13
-348.9587957402838
 23
-114.6062528541871
 33
0.0
 14
-228.9587957402838
 24
-114.6062528541871
 34
0.0
100
AcDbRotatedDimension
1001
ACAD
1000
DSTYLE
1002
{
1070
   144
1040
1.0
1070
   274
1070
     4
1070
    41
1040
18.0000114440918
1070
    79
1070
     2
1070
   343
1005
1C5
1070
   344
1005
1C5
1070
   176
1070
     2
1070
   177
1070
     2
1070
   178
1070
     2
1070
   271
1070
     2
1070
    44
1040
3.0
1070
    42
1040
6.0
1070
   147
1040
5.0
1070
   173
1070
     1
1070
    77
1070
     3
1070
    73
1070
     0
1070
   172
1070
     1
1070
    74
1070
     0
1070
   283
1070
     0
1070
   340
1005
1CF
1070
   140
1040
24.0
1070
   284
1070
     8
1070
   288
1070
     1
1070
    78
1070
     8
1070
    90
1070
     1
1002
}
  0
DIMENSION
  5
3CF
330
1F
100
AcDbEntity
  8
0
  6
Continuous
370
    13
100
AcDbDimension
280
     0
  2
*D14
 10
31.04120425971615
 20
-236.6062528541871
 30
0.0
 11
-98.95879574028382
 21
-236.6062528541871
 31
0.0
 70
   160
  1
E
 71
     8
 42
-1.0
 73
     0
 74
     0
 75
     0
  3
dc_Rotated
100
AcDbAlignedDimension
 13
-228.9587957402838
 23
-114.6062528541871
 33
0.0
 14
31.04120425971621
 24
-114.6062528541871
 34
0.0
100
AcDbRotatedDimension
1001
ACAD
1000
DSTYLE
1002
{
1070
   144
1040
1.0
1070
   274
1070
     4
1070
    41
1040
18.0000114440918
1070
    79
1070
     2
1070
   343
1005
1C5
1070
   344
1005
1C5
1070
   176
1070
     2
1070
   177
1070
     2
1070
   178
1070
     2
1070
   271
1070
     2
1070
    44
1040
3.0
1070
    42
1040
6.0
1070
   147
1040
5.0
1070
   173
1070
     1
1070
    77
1070
     3
1070
    73
1070
     0
1070
   172
1070
     1
1070
    74
1070
     0
1070
   283
1070
     0
1070
   340
1005
1CF
1070
   140
1040
24.0
1070
   284
1070
     8
1070
   288
1070
     1
1070
    78
1070
     8
1070
    90
1070
     1
1002
}
  0
DIMENSION
  5
3D0
330
1F
100
AcDbEntity
  8
0
  6
Continuous
370
    13
100
AcDbDimension
280
     0
  2
*D15
 10
280.0412042597162
 20
-64.60625285418715
 30
0.0
 11
280.0412042597162
 21
-84.60625285418715
 31
0.0
 70
   160
 71
     8
 42
-1.0
 73
     0
 74
     0
 75
     0
  3
dc_Rotated
100
AcDbAlignedDimension
 13
208.0412042597162
 23
-104.6062528541871
 33
0.0
 14
205.0412042597162
 24
-64.60625285418715
 34
0.0
 50
90.0
100
AcDbRotatedDimension
1001
ACAD
1000
DSTYLE
1002
{
1070
   144
1040
1.0
1070
   274
1070
     4
1070
    41
1040
18.0000114440918
1070
    79
1070
     2
1070
   343
1005
1C5
1070
   344
1005
1C5
1070
   176
1070
     2
1070
   177
1070
     2
1070
   178
1070
     2
1070
   271
1070
     2
1070
    44
1040
3.0
1070
    42
1040
6.0
1070
   147
1040
5.0
1070
   173
1070
     1
1070
    77
1070
     3
1070
    73
1070
     0
1070
   172
1070
     1
1070
    74
1070
     0
1070
   283
1070
     0
1070
   340
1005
1CF
1070
   140
1040
24.0
1070
   284
1070
     8
1070
   288
1070
     1
1070
    78
1070
     8
1070
    90
1070
     1
1002
}
  0
DIMENSION
  5
3D1
330
1F
100
AcDbEntity
  8
0
  6
Continuous
370
    13
100
AcDbDimension
280
     0
  2
*D16
 10
193.6219382088561
 20
-60.23050700060337
 30
0.0
 11
294.4138585369103
 21
-176.6062528541871
 31
0.0
 70
   163
  1
4-φ10
 71
     8
 42
-1.0
 73
     0
 74
     0
 75
     0
  3
dc_Diam06
100
AcDbDiametricDimension
 15
198.4604703105763
 25
-68.98199870777093
 35
0.0
 40
0.0
1001
ACAD
1000
DSTYLE
1002
{
1070
   144
1040
1.0
1070
   274
1070
     4
1070
    41
1040
18.0000114440918
1070
    79
1070
     2
1070
   343
1005
1C5
1070
   344
1005
1C5
1070
   176
1070
     2
1070
   177
1070
     2
1070
   178
1070
     2
1070
   271
1070
     2
1070
    44
1040
6.0
1070
    42
1040
6.0
1070
   147
1040
6.0
1070
   173
1070
     1
1070
    77
1070
     2
1070
   283
1070
     0
1070
   340
1005
1CF
1070
   140
1040
24.0
1070
   284
1070
     8
1070
   288
1070
     1
1070
    78
1070
     8
1070
    90
1070
     1
1002
}
  0
INSERT
  5
3D3
330
1F
100
AcDbEntity
  8
0
  6
Continuous
100
AcDbBlockReference
  2
DC_IMAGEDIMGROUP_1
 10
0.0
 20
0.0
 30
0.0
  0
INSERT
  5
3D4
330
1F
100
AcDbEntity
  8
0
  6
Continuous
100
AcDbBlockReference
  2
DC_GROUP_W_JR-5714_S_040_3
 10
0.0
 20
0.0
 30
0.0
  0
INSERT
  5
3D5
330
1F
100
AcDbEntity
  8
0
  6
Continuous
100
AcDbBlockReference
  2
DC_IMAGEDIMGROUP_2
 10
0.0
 20
0.0
 30
0.0
  0
DIMENSION
  5
3D6
330
1F
100
AcDbEntity
  8
0
  6
Continuous
370
    13
100
AcDbDimension
280
     0
  2
*D20
 10
1030.037630919187
 20
158.9437471458139
 30
0.0
 11
830.0376309191869
 21
158.9437471458139
 31
0.0
 70
   160
  1
呼び幅
 71
     8
 42
-1.0
 73
     0
 74
     0
 75
     0
  3
dc_Rotated
100
AcDbAlignedDimension
 13
630.0376309191869
 23
-18.90625285418733
 33
0.0
 14
1030.037630919187
 24
-18.90625285418733
 34
0.0
100
AcDbRotatedDimension
1001
ACAD
1000
DSTYLE
1002
{
1070
   144
1040
1.0
1070
   274
1070
     4
1070
    41
1040
18.0000114440918
1070
    79
1070
     2
1070
   343
1005
1C5
1070
   344
1005
1C5
1070
   176
1070
     2
1070
   177
1070
     2
1070
   178
1070
     2
1070
   271
1070
     2
1070
    44
1040
3.0
1070
    42
1040
6.0
1070
   147
1040
5.0
1070
   173
1070
     1
1070
    77
1070
     3
1070
    73
1070
     0
1070
   172
1070
     1
1070
    74
1070
     0
1070
   283
1070
     0
1070
   340
1005
1CF
1070
   140
1040
24.0
1070
   284
1070
     8
1070
   288
1070
     1
1070
    78
1070
     8
1070
    90
1070
     1
1002
}
  0
DIMENSION
  5
3D7
330
1F
100
AcDbEntity
  8
0
  6
Continuous
370
    13
100
AcDbDimension
280
     0
  2
*D21
 10
1060.037630919187
 20
218.9437471458139
 30
0.0
 11
830.0376309191869
 21
218.9437471458139
 31
0.0
 70
   160
  1
機　幅
 71
     8
 42
-1.0
 73
     0
 74
     0
 75
     0
  3
dc_Rotated
100
AcDbAlignedDimension
 13
600.0376309191869
 23
-14.60625285418715
 33
0.0
 14
1060.037630919187
 24
-15.60625285418715
 34
0.0
100
AcDbRotatedDimension
1001
ACAD
1000
DSTYLE
1002
{
1070
   144
1040
1.0
1070
   274
1070
     4
1070
    41
1040
18.0000114440918
1070
    79
1070
     2
1070
   343
1005
1C5
1070
   344
1005
1C5
1070
   176
1070
     2
1070
   177
1070
     2
1070
   178
1070
     2
1070
   271
1070
     2
1070
    44
1040
3.0
1070
    42
1040
6.0
1070
   147
1040
5.0
1070
   173
1070
     1
1070
    77
1070
     3
1070
    73
1070
     0
1070
   172
1070
     1
1070
    74
1070
     0
1070
   283
1070
     0
1070
   340
1005
1CF
1070
   140
1040
24.0
1070
   284
1070
     8
1070
   288
1070
     1
1070
    78
1070
     8
1070
    90
1070
     1
1002
}
  0
DIMENSION
  5
3D8
330
1F
100
AcDbEntity
  8
0
  6
Continuous
370
    13
100
AcDbDimension
280
     0
  2
*D22
 10
612.5376319191868
 20
-192.6062528541871
 30
0.0
 11
568.8326309191868
 21
-192.6062528541871
 31
0.0
 70
   160
 71
     8
 42
-1.0
 73
     0
 74
     0
 75
     0
  3
dc_Rotated
100
AcDbAlignedDimension
 13
600.0376309191869
 23
-103.6062528541871
 33
0.0
 14
612.5376319191868
 24
-113.5004088541874
 34
0.0
100
AcDbRotatedDimension
1001
ACAD
1000
DSTYLE
1002
{
1070
   144
1040
1.0
1070
   274
1070
     4
1070
    41
1040
18.0000114440918
1070
    79
1070
     2
1070
   343
1005
1C5
1070
   344
1005
1C5
1070
   176
1070
     2
1070
   177
1070
     2
1070
   178
1070
     2
1070
   271
1070
     2
1070
    44
1040
2.5
1070
    42
1040
6.0
1070
   147
1040
5.0
1070
   173
1070
     1
1070
    77
1070
     3
1070
    73
1070
     0
1070
   172
1070
     1
1070
    74
1070
     0
1070
   283
1070
     0
1070
   340
1005
1CF
1070
   140
1040
24.0
1070
   284
1070
     8
1070
   288
1070
     1
1070
    78
1070
     8
1070
    90
1070
     1
1002
}
  0
DIMENSION
  5
3D9
330
1F
100
AcDbEntity
  8
0
  6
Continuous
370
    13
100
AcDbDimension
280
     0
  2
*D23
 10
1047.537631919187
 20
-192.6062528541871
 30
0.0
 11
830.0376319191868
 21
-192.6062528541871
 31
0.0
 70
   160
  1
呼び幅+35
 71
     8
 42
-1.0
 73
     0
 74
     0
 75
     0
  3
dc_Rotated
100
AcDbAlignedDimension
 13
612.5376319191868
 23
-113.5004088541874
 33
0.0
 14
1047.537631919187
 24
-113.6062528541871
 34
0.0
100
AcDbRotatedDimension
1001
ACAD
1000
DSTYLE
1002
{
1070
   144
1040
1.0
1070
   274
1070
     4
1070
    41
1040
18.0000114440918
1070
    79
1070
     2
1070
   343
1005
1C5
1070
   344
1005
1C5
1070
   176
1070
     2
1070
   177
1070
     2
1070
   178
1070
     2
1070
   271
1070
     2
1070
    44
1040
2.5
1070
    42
1040
6.0
1070
   147
1040
5.0
1070
   173
1070
     1
1070
    77
1070
     3
1070
    73
1070
     0
1070
   172
1070
     1
1070
    74
1070
     0
1070
   283
1070
     0
1070
   340
1005
1CF
1070
   140
1040
24.0
1070
   284
1070
     8
1070
   288
1070
     1
1070
    78
1070
     8
1070
    90
1070
     1
1002
}
  0
DIMENSION
  5
3DA
330
1F
100
AcDbEntity
  8
0
  6
Continuous
370
    13
100
AcDbDimension
280
     0
  2
*D24
 10
1060.037630919187
 20
-192.6062528541871
 30
0.0
 11
1091.242630919187
 21
-192.6062528541871
 31
0.0
 70
   160
 71
     8
 42
-1.0
 73
     0
 74
     0
 75
     0
  3
dc_Rotated
100
AcDbAlignedDimension
 13
1047.537631919187
 23
-113.6062528541871
 33
0.0
 14
1060.037630919187
 24
-103.6062528541871
 34
0.0
100
AcDbRotatedDimension
1001
ACAD
1000
DSTYLE
1002
{
1070
   144
1040
1.0
1070
   274
1070
     4
1070
    41
1040
18.0000114440918
1070
    79
1070
     2
1070
   343
1005
1C5
1070
   344
1005
1C5
1070
   176
1070
     2
1070
   177
1070
     2
1070
   178
1070
     2
1070
   271
1070
     2
1070
    44
1040
2.5
1070
    42
1040
6.0
1070
   147
1040
5.0
1070
   173
1070
     1
1070
    77
1070
     3
1070
    73
1070
     0
1070
   172
1070
     1
1070
    74
1070
     0
1070
   283
1070
     0
1070
   340
1005
1CF
1070
   140
1040
24.0
1070
   284
1070
     8
1070
   288
1070
     1
1070
    78
1070
     8
1070
    90
1070
     1
1002
}
  0
DIMENSION
  5
3DB
330
1F
100
AcDbEntity
  8
0
  6
Continuous
370
    13
100
AcDbDimension
280
     0
  2
*D25
 10
468.0376309191869
 20
-14.60625285418713
 30
0.0
 11
468.0376309191869
 21
-59.60625285418713
 31
0.0
 70
   160
 71
     8
 42
-1.0
 73
     0
 74
     0
 75
     0
  3
dc_Rotated
100
AcDbAlignedDimension
 13
600.0376309191869
 23
-104.6062528541871
 33
0.0
 14
600.0376309191869
 24
-14.60625285418715
 34
0.0
 50
90.0
100
AcDbRotatedDimension
1001
ACAD
1000
DSTYLE
1002
{
1070
   144
1040
1.0
1070
   274
1070
     4
1070
    41
1040
18.0000114440918
1070
    79
1070
     2
1070
   343
1005
1C5
1070
   344
1005
1C5
1070
   176
1070
     2
1070
   177
1070
     2
1070
   178
1070
     2
1070
   271
1070
     2
1070
    44
1040
3.0
1070
    42
1040
6.0
1070
   147
1040
5.0
1070
   173
1070
     1
1070
    77
1070
     3
1070
    73
1070
     0
1070
   172
1070
     1
1070
    74
1070
     0
1070
   283
1070
     0
1070
   340
1005
1CF
1070
   140
1040
24.0
1070
   284
1070
     8
1070
   288
1070
     1
1070
    78
1070
     8
1070
    90
1070
     1
1002
}
  0
DIMENSION
  5
3DC
330
1F
100
AcDbEntity
  8
0
  6
Continuous
370
    13
100
AcDbDimension
280
     0
  2
*D26
 10
630.0376309191867
 20
158.9437471458139
 30
0.0
 11
615.0376309191868
 21
158.9437471458139
 31
0.0
 70
   160
 71
     8
 42
-1.0
 73
     0
 74
     0
 75
     0
  3
dc_Rotated
100
AcDbAlignedDimension
 13
600.0376309191869
 23
-14.60625285418715
 33
0.0
 14
630.0376309191869
 24
-18.90625285418733
 34
0.0
100
AcDbRotatedDimension
1001
ACAD
1000
DSTYLE
1002
{
1070
   144
1040
1.0
1070
   274
1070
     4
1070
    41
1040
18.0000114440918
1070
    79
1070
     2
1070
   343
1005
1C5
1070
   344
1005
1C5
1070
   176
1070
     2
1070
   177
1070
     2
1070
   178
1070
     2
1070
   271
1070
     2
1070
    44
1040
3.0
1070
    42
1040
6.0
1070
   147
1040
5.0
1070
   173
1070
     1
1070
    77
1070
     3
1070
    73
1070
     0
1070
   172
1070
     1
1070
    74
1070
     0
1070
   283
1070
     0
1070
   340
1005
1CF
1070
   140
1040
24.0
1070
   284
1070
     8
1070
   288
1070
     1
1070
    78
1070
     8
1070
    90
1070
     1
1002
}
  0
DIMENSION
  5
3DD
330
1F
100
AcDbEntity
  8
0
  6
Continuous
370
    13
100
AcDbDimension
280
     0
  2
*D27
 10
1060.037630919187
 20
158.9437471458139
 30
0.0
 11
1045.037630919187
 21
158.9437471458139
 31
0.0
 70
   160
 71
     8
 42
-1.0
 73
     0
 74
     0
 75
     0
  3
dc_Rotated
100
AcDbAlignedDimension
 13
1030.037630919187
 23
-18.90625285418733
 33
0.0
 14
1060.037630919187
 24
-15.60625285418715
 34
0.0
100
AcDbRotatedDimension
1001
ACAD
1000
DSTYLE
1002
{
1070
   144
1040
1.0
1070
   274
1070
     4
1070
    41
1040
18.0000114440918
1070
    79
1070
     2
1070
   343
1005
1C5
1070
   344
1005
1C5
1070
   176
1070
     2
1070
   177
1070
     2
1070
   178
1070
     2
1070
   271
1070
     2
1070
    44
1040
3.0
1070
    42
1040
6.0
1070
   147
1040
5.0
1070
   173
1070
     1
1070
    77
1070
     3
1070
    73
1070
     0
1070
   172
1070
     1
1070
    74
1070
     0
1070
   283
1070
     0
1070
   340
1005
1CF
1070
   140
1040
24.0
1070
   284
1070
     8
1070
   288
1070
     1
1070
    78
1070
     8
1070
    90
1070
     1
1002
}
  0
DIMENSION
  5
3DE
330
1F
100
AcDbEntity
  8
0
  6
Continuous
370
    13
100
AcDbDimension
280
     0
  2
*D28
 10
528.0376309191869
 20
-33.10625285418714
 30
0.0
 11
528.0376309191869
 21
-68.85625285418715
 31
0.0
 70
   160
 71
     8
 42
-1.0
 73
     0
 74
     0
 75
     0
  3
dc_Rotated
100
AcDbAlignedDimension
 13
600.0376309191869
 23
-104.6062528541871
 33
0.0
 14
612.7376309191868
 24
-33.10625285418715
 34
0.0
 50
90.0
100
AcDbRotatedDimension
1001
ACAD
1000
DSTYLE
1002
{
1070
   144
1040
1.0
1070
   274
1070
     4
1070
    41
1040
18.0000114440918
1070
    79
1070
     2
1070
   343
1005
1C5
1070
   344
1005
1C5
1070
   176
1070
     2
1070
   177
1070
     2
1070
   178
1070
     2
1070
   271
1070
     2
1070
    44
1040
3.0
1070
    42
1040
6.0
1070
   147
1040
5.0
1070
   173
1070
     1
1070
    77
1070
     3
1070
    73
1070
     0
1070
   172
1070
     1
1070
    74
1070
     0
1070
   283
1070
     0
1070
   340
1005
1CF
1070
   140
1040
24.0
1070
   284
1070
     8
1070
   288
1070
     1
1070
    78
1070
     8
1070
    90
1070
     1
1002
}
  0
INSERT
  5
3DF
330
1F
100
AcDbEntity
  8
0
  6
Continuous
100
AcDbBlockReference
  2
DC_IMAGEDIMGROUP_3
 10
0.0
 20
0.0
 30
0.0
  0
DIMENSION
  5
3E0
330
1F
100
AcDbEntity
  8
0
  6
Continuous
370
    13
100
AcDbDimension
280
     0
  2
*D31
 10
1024.037630919187
 20
96.64374714581325
 30
0.0
 11
830.0376309191869
 21
96.64374714581325
 31
0.0
 70
   160
  1
ローラ幅
 71
     8
 42
-1.0
 73
     0
 74
     0
 75
     0
  3
dc_Rotated
100
AcDbAlignedDimension
 13
636.0376309191869
 23
-13.60625285418715
 33
0.0
 14
1024.037630919187
 24
-13.60625285418715
 34
0.0
100
AcDbRotatedDimension
1001
ACAD
1000
DSTYLE
1002
{
1070
   144
1040
1.0
1070
   274
1070
     4
1070
    41
1040
18.0000114440918
1070
    79
1070
     2
1070
   343
1005
1C5
1070
   344
1005
1C5
1070
   176
1070
     2
1070
   177
1070
     2
1070
   178
1070
     2
1070
   271
1070
     1
1070
    44
1040
3.0
1070
    42
1040
6.0
1070
   147
1040
5.0
1070
   173
1070
     1
1070
    77
1070
     3
1070
    73
1070
     0
1070
   172
1070
     1
1070
    74
1070
     0
1070
   283
1070
     0
1070
   340
1005
1CF
1070
   140
1040
24.0
1070
   284
1070
     8
1070
   288
1070
     1
1070
    78
1070
     8
1070
    90
1070
     1
1002
}
  0
DIMENSION
  5
3E1
330
1F
100
AcDbEntity
  8
0
  6
Continuous
370
    13
100
AcDbDimension
280
     0
  2
*D32
 10
408.0376309191869
 20
-4.506252854186769
 30
0.0
 11
408.0376309191869
 21
-54.55625285418695
 31
0.0
 70
   160
 71
     8
 42
-1.0
 73
     0
 74
     0
 75
     0
  3
dc_Rotated
100
AcDbAlignedDimension
 13
600.0376309191869
 23
-104.6062528541871
 33
0.0
 14
645.1376309191868
 24
-4.506252854186783
 34
0.0
 50
90.0
100
AcDbRotatedDimension
1001
ACAD
1000
DSTYLE
1002
{
1070
   144
1040
1.0
1070
   274
1070
     4
1070
    41
1040
18.0000114440918
1070
    79
1070
     2
1070
   343
1005
1C5
1070
   344
1005
1C5
1070
   176
1070
     2
1070
   177
1070
     2
1070
   178
1070
     2
1070
   271
1070
     0
1070
    44
1040
3.0
1070
    42
1040
6.0
1070
   147
1040
5.0
1070
   173
1070
     1
1070
    77
1070
     3
1070
    73
1070
     0
1070
   172
1070
     1
1070
    74
1070
     0
1070
   283
1070
     0
1070
   340
1005
1CF
1070
   140
1040
24.0
1070
   284
1070
     8
1070
   288
1070
     1
1070
    78
1070
     8
1070
    90
1070
     1
1002
}
  0
INSERT
  5
3E2
330
1F
100
AcDbEntity
  8
0
  6
Continuous
100
AcDbBlockReference
  2
DC_GROUP_W_JR-5714_S_040_5
 10
0.0
 20
0.0
 30
0.0
  0
INSERT
  5
3E3
330
1F
100
AcDbEntity
  8
0
  6
Continuous
100
AcDbBlockReference
  2
DC_GROUP_W_JR-5714_S_040_6
 10
0.0
 20
0.0
 30
0.0
  0
INSERT
  5
3E4
330
1F
100
AcDbEntity
  8
0
  6
Continuous
100
AcDbBlockReference
  2
DC_GROUP_W_JR-5714_S_040_8
 10
0.0
 20
0.0
 30
0.0
  0
INSERT
  5
3E5
330
1F
100
AcDbEntity
  8
0
  6
Continuous
100
AcDbBlockReference
  2
DC_GROUP_W_JR-5714_S_040_9
 10
0.0
 20
0.0
 30
0.0
  0
INSERT
  5
3E6
330
1F
100
AcDbEntity
  8
0
  6
Continuous
100
AcDbBlockReference
  2
DC_GROUP_W_JR-5714_S_040_11
 10
0.0
 20
0.0
 30
0.0
  0
DIMENSION
  5
3E7
330
1F
100
AcDbEntity
  8
0
  6
Continuous
370
    13
100
AcDbDimension
280
     0
  2
*D40
 10
-488.9587957402838
 20
67.29374714581249
 30
0.0
 11
-588.9587957402838
 21
67.29374714581249
 31
0.0
 70
   160
 71
     8
 42
-1.0
 73
     0
 74
     0
 75
     0
  3
dc_Rotated
100
AcDbAlignedDimension
 13
-688.9587957402838
 23
2.993747145813217
 33
0.0
 14
-488.9587957402838
 24
2.993747145813217
 34
0.0
100
AcDbRotatedDimension
1001
ACAD
1000
DSTYLE
1002
{
1070
   144
1040
1.0
1070
   274
1070
     4
1070
    41
1040
18.0000114440918
1070
    79
1070
     2
1070
   343
1005
1C5
1070
   344
1005
1C5
1070
   176
1070
     2
1070
   177
1070
     2
1070
   178
1070
     2
1070
   271
1070
     2
1070
    44
1040
3.0
1070
    42
1040
6.0
1070
   147
1040
5.0
1070
   173
1070
     1
1070
    77
1070
     3
1070
    73
1070
     0
1070
   172
1070
     1
1070
    74
1070
     0
1070
   283
1070
     0
1070
   340
1005
1CF
1070
   140
1040
24.0
1070
   284
1070
     8
1070
   288
1070
     1
1070
    78
1070
     8
1070
    90
1070
     1
1002
}
  0
DIMENSION
  5
3E8
330
1F
100
AcDbEntity
  8
0
  6
Continuous
370
    13
100
AcDbDimension
280
     0
  2
*D45
 10
-21.5008391819067
 20
-54.60625285418715
 30
0.0
 11
-21.5008391819067
 21
-123.8112528541872
 31
0.0
 70
   160
 71
     8
 42
-1.0
 73
     0
 74
     0
 75
     0
  3
dc_Rotated
100
AcDbAlignedDimension
 13
32.04120425971621
 23
-104.6062528541871
 33
0.0
 14
-3.957318740283995
 24
-54.60625285418715
 34
0.0
 50
90.0
100
AcDbRotatedDimension
1001
ACAD
1000
DSTYLE
1002
{
1070
   144
1040
1.0
1070
   274
1070
     4
1070
    41
1040
18.0000114440918
1070
    79
1070
     2
1070
   343
1005
1C5
1070
   344
1005
1C5
1070
   176
1070
     2
1070
   177
1070
     2
1070
   178
1070
     2
1070
   271
1070
     2
1070
    44
1040
2.5
1070
    42
1040
6.0
1070
   147
1040
5.0
1070
   173
1070
     1
1070
    77
1070
     3
1070
    73
1070
     0
1070
   172
1070
     1
1070
    74
1070
     0
1070
   283
1070
     0
1070
   340
1005
1CF
1070
   140
1040
24.0
1070
   284
1070
     8
1070
   288
1070
     1
1070
    78
1070
     8
1070
    90
1070
     1
1002
}
  0
INSERT
  5
3E9
330
1F
100
AcDbEntity
  8
0
  6
Continuous
100
AcDbBlockReference
  2
DC_GROUP_W_JR-5714_S_040_61
 10
0.0
 20
0.0
 30
0.0
  0
INSERT
  5
3EA
330
1F
100
AcDbEntity
  8
0
  6
Continuous
100
AcDbBlockReference
  2
DC_GROUP_W_JR-5714_S_040_62
 10
0.0
 20
0.0
 30
0.0
  0
INSERT
  5
3EB
330
1F
100
AcDbEntity
  8
ZUWAKU
  6
Continuous
100
AcDbBlockReference
  2
DC_GROUP_W_JR-5714_S_040_1
 10
0.0
 20
0.0
 30
0.0
  0
INSERT
  5
3EC
330
1F
100
AcDbEntity
  8
ZUWAKU
  6
Continuous
100
AcDbBlockReference
  2
DC_GROUP_W_JR-5714_S_040_2
 10
0.0
 20
0.0
 30
0.0
  0
TEXT
  5
3ED
330
1F
100
AcDbEntity
  8
0
 62
     2
100
AcDbText
 10
-158.5633433247463
 20
-732.8894592187545
 30
0.0
 40
24.0
  1
2019.10.1
 41
0.6258278145695365
  7
dcStyle1
 72
     5
 11
-50.56334332474634
 21
-732.8894592187545
 31
0.0
100
AcDbText
  0
TEXT
  5
3EE
330
1F
100
AcDbEntity
  8
0
 62
     2
100
AcDbText
 10
240.0000000000001
 20
-719.231540037133
 30
0.0
 40
24.0
  1
マルチベヤシリーズ
 41
1.188679245283019
  7
dcStyle1
 72
     5
 11
456.0000000000001
 21
-719.231540037133
 31
0.0
100
AcDbText
  0
TEXT
  5
3EF
330
1F
100
AcDbEntity
  8
0
 62
     2
100
AcDbText
 10
228.0000000000001
 20
-779.2315400371328
 30
0.0
 40
24.0
  1
フリーローラコンベヤ
 41
1.186440677966102
  7
dcStyle1
 72
     5
 11
468.0000000000001
 21
-779.2315400371328
 31
0.0
100
AcDbText
  0
TEXT
  5
3F0
330
1F
100
AcDbEntity
  8
0
 62
     2
100
AcDbText
 10
984.0
 20
-779.2315400371328
 30
0.0
 40
24.0
  1
W_JR-5714_S_040
 41
0.5393835616438357
  7
dcStyle1
 72
     5
 11
1164.0
 21
-779.2315400371328
 31
0.0
100
AcDbText
  0
TEXT
  5
3F1
330
1F
100
AcDbEntity
  8
0
 62
     2
100
AcDbText
 10
681.0
 20
-719.231540037133
 30
0.0
 40
24.0
  1
本体組立図 JR-5714 ローラピッチ200
 41
0.8113636363636366
  7
dcStyle1
 72
     5
 11
1089.0
 21
-719.231540037133
 31
0.0
100
AcDbText
  0
TEXT
  5
3F2
330
1F
100
AcDbEntity
  8
0
 62
     2
100
AcDbText
 10
-82.49999999999983
 20
-779.2315400371328
 30
0.0
 40
24.0
  1
1/6
 41
0.5338983050847458
  7
dcStyle1
 72
     5
 11
-46.49999999999983
 21
-779.2315400371328
 31
0.0
100
AcDbText
  0
TEXT
  5
3F3
330
1F
100
AcDbEntity
  8
0
 62
     2
100
AcDbText
 10
391.1900826132186
 20
-375.1653938059524
 30
0.0
 40
23.99999999904
  1
ローラ幅(mm)
 41
0.7225433526011562
  7
dcStyle0
 72
     5
 11
535.1900826074586
 21
-375.1653938059524
 31
0.0
100
AcDbText
  0
TEXT
  5
3F4
330
1F
100
AcDbEntity
  8
0
 62
     2
100
AcDbText
 10
391.1900826132186
 20
-343.1653938072345
 30
0.0
 40
23.99999999904
  1
呼び幅(mm)
 41
0.682407533779173
  7
dcStyle0
 72
     5
 11
511.1900826084186
 21
-343.1653938072345
 31
0.0
100
AcDbText
  0
TEXT
  5
3F5
330
1F
100
AcDbEntity
  8
0
 62
     2
100
AcDbText
 10
391.1900826134118
 20
-407.1653938046745
 30
0.0
 40
23.99999999904
  1
機　幅(mm)
 41
0.7250580046403714
  7
dcStyle0
 72
     5
 11
511.1900826086119
 21
-407.1653938046745
 31
0.0
100
AcDbText
  0
TEXT
  5
3F6
330
1F
100
AcDbEntity
  8
0
 62
     2
100
AcDbText
 10
584.1900826050241
 20
-375.1653938064323
 30
0.0
 40
24.0
  1
388
 41
0.6877579092159559
  7
dcStyle0
 72
     5
 11
620.1900826050241
 21
-375.1653938064323
 31
0.0
100
AcDbText
  0
TEXT
  5
3F7
330
1F
100
AcDbEntity
  8
0
 62
     2
100
AcDbText
 10
584.1900826050241
 20
-343.1653938077145
 30
0.0
 40
24.0
  1
400
 41
0.6877579092159559
  7
dcStyle0
 72
     5
 11
620.1900826050241
 21
-343.1653938077145
 31
0.0
100
AcDbText
  0
TEXT
  5
3F8
330
1F
100
AcDbEntity
  8
0
 62
     2
100
AcDbText
 10
584.1900826050241
 20
-407.1653938051545
 30
0.0
 40
24.0
  1
460
 41
0.6877579092159559
  7
dcStyle0
 72
     5
 11
620.1900826050241
 21
-407.1653938051545
 31
0.0
100
AcDbText
  0
TEXT
  5
3F9
330
1F
100
AcDbEntity
  8
0
 62
     2
100
AcDbText
 10
700.1900826050241
 20
-375.1653938064323
 30
0.0
 40
24.0
  1
488
 41
0.6877579092159559
  7
dcStyle0
 72
     5
 11
736.1900826050241
 21
-375.1653938064323
 31
0.0
100
AcDbText
  0
TEXT
  5
3FA
330
1F
100
AcDbEntity
  8
0
 62
     2
100
AcDbText
 10
700.1900826050241
 20
-343.1653938077145
 30
0.0
 40
24.0
  1
500
 41
0.6877579092159559
  7
dcStyle0
 72
     5
 11
736.1900826050241
 21
-343.1653938077145
 31
0.0
100
AcDbText
  0
TEXT
  5
3FB
330
1F
100
AcDbEntity
  8
0
 62
     2
100
AcDbText
 10
700.1900826050241
 20
-407.1653938051545
 30
0.0
 40
24.0
  1
560
 41
0.6877579092159559
  7
dcStyle0
 72
     5
 11
736.1900826050241
 21
-407.1653938051545
 31
0.0
100
AcDbText
  0
TEXT
  5
3FC
330
1F
100
AcDbEntity
  8
0
 62
     2
100
AcDbText
 10
816.1900826314079
 20
-375.1653938064323
 30
0.0
 40
24.0
  1
618
 41
0.6877579092159559
  7
dcStyle0
 72
     5
 11
852.1900826314079
 21
-375.1653938064323
 31
0.0
100
AcDbText
  0
TEXT
  5
3FD
330
1F
100
AcDbEntity
  8
0
 62
     2
100
AcDbText
 10
816.1900826314079
 20
-343.1653938077145
 30
0.0
 40
24.0
  1
630
 41
0.6877579092159559
  7
dcStyle0
 72
     5
 11
852.1900826314079
 21
-343.1653938077145
 31
0.0
100
AcDbText
  0
TEXT
  5
3FE
330
1F
100
AcDbEntity
  8
0
 62
     2
100
AcDbText
 10
816.1900826314079
 20
-407.1653938051545
 30
0.0
 40
24.0
  1
690
 41
0.6877579092159559
  7
dcStyle0
 72
     5
 11
852.1900826314079
 21
-407.1653938051545
 31
0.0
100
AcDbText
  0
TEXT
  5
3FF
330
1F
100
AcDbEntity
  8
0
 62
     2
100
AcDbText
 10
932.1900826314079
 20
-375.1653938064323
 30
0.0
 40
24.0
  1
788
 41
0.6877579092159559
  7
dcStyle0
 72
     5
 11
968.1900826314079
 21
-375.1653938064323
 31
0.0
100
AcDbText
  0
TEXT
  5
400
330
1F
100
AcDbEntity
  8
0
 62
     2
100
AcDbText
 10
932.1900826314079
 20
-343.1653938077145
 30
0.0
 40
24.0
  1
800
 41
0.6877579092159559
  7
dcStyle0
 72
     5
 11
968.1900826314079
 21
-343.1653938077145
 31
0.0
100
AcDbText
  0
TEXT
  5
401
330
1F
100
AcDbEntity
  8
0
 62
     2
100
AcDbText
 10
932.1900826314079
 20
-407.1653938051545
 30
0.0
 40
24.0
  1
860
 41
0.6877579092159559
  7
dcStyle0
 72
     5
 11
968.1900826314079
 21
-407.1653938051545
 31
0.0
100
AcDbText
  0
TEXT
  5
402
330
1F
100
AcDbEntity
  8
0
 62
     2
100
AcDbText
 10
1048.190082591832
 20
-375.1653938064323
 30
0.0
 40
24.0
  1
988
 41
0.6877579092159559
  7
dcStyle0
 72
     5
 11
1084.190082591832
 21
-375.1653938064323
 31
0.0
100
AcDbText
  0
TEXT
  5
403
330
1F
100
AcDbEntity
  8
0
 62
     2
100
AcDbText
 10
1042.190082591832
 20
-343.1653938077145
 30
0.0
 40
24.0
  1
1000
 41
0.6877579092159559
  7
dcStyle0
 72
     5
 11
1090.190082591832
 21
-343.1653938077145
 31
0.0
100
AcDbText
  0
TEXT
  5
404
330
1F
100
AcDbEntity
  8
0
 62
     2
100
AcDbText
 10
1042.190082591832
 20
-407.1653938051545
 30
0.0
 40
24.0
  1
1060
 41
0.6877579092159559
  7
dcStyle0
 72
     5
 11
1090.190082591832
 21
-407.1653938051545
 31
0.0
100
AcDbText
  0
TEXT
  5
405
330
1F
100
AcDbEntity
  8
0
 62
     2
100
AcDbText
 10
-370.224343675773
 20
-343.3653938117336
 30
0.0
 40
24.0
  1
呼び機長(cm)
 41
0.7109004739336492
  7
dcStyle0
 72
     5
 11
-226.224343675773
 21
-343.3653938117336
 31
0.0
100
AcDbText
  0
TEXT
  5
406
330
1F
100
AcDbEntity
  8
0
 62
     2
100
AcDbText
 10
-370.224343675773
 20
-375.7653938185355
 30
0.0
 40
24.0
  1
機　長(cm)
 41
0.7627765064836002
  7
dcStyle0
 72
     5
 11
-250.224343675773
 21
-375.7653938185355
 31
0.0
100
AcDbText
  0
TEXT
  5
407
330
1F
100
AcDbEntity
  8
0
 62
     2
100
AcDbText
 10
-370.224343675773
 20
-408.1653938185357
 30
0.0
 40
24.0
  1
A(mm)
 41
0.6341958396752916
  7
dcStyle0
 72
     5
 11
-310.224343675773
 21
-408.1653938185357
 31
0.0
100
AcDbText
  0
TEXT
  5
408
330
1F
100
AcDbEntity
  8
0
 62
     2
100
AcDbText
 10
-370.224343675773
 20
-440.5653938253377
 30
0.0
 40
24.0
  1
N
 41
0.5370569280343717
  7
dcStyle0
 72
     5
 11
-358.224343675773
 21
-440.5653938253377
 31
0.0
100
AcDbText
  0
TEXT
  5
409
330
1F
100
AcDbEntity
  8
0
 62
     2
100
AcDbText
 10
-199.2243436865133
 20
-375.7653938117317
 30
0.0
 40
24.0
  1
99.4
 41
0.8077544426494346
  7
dcStyle0
 72
     5
 11
-151.2243436865133
 21
-375.7653938117317
 31
0.0
100
AcDbText
  0
TEXT
  5
40A
330
1F
100
AcDbEntity
  8
0
 62
     2
100
AcDbText
 10
-121.2243436919132
 20
-375.7653938117317
 30
0.0
 40
24.0
  1
149.4
 41
0.7805182641273806
  7
dcStyle0
 72
     5
 11
-61.22434369191322
 21
-375.7653938117317
 31
0.0
100
AcDbText
  0
TEXT
  5
40B
330
1F
100
AcDbEntity
  8
0
 62
     2
100
AcDbText
 10
-37.22434369731317
 20
-375.7653938117317
 30
0.0
 40
24.0
  1
199.4
 41
0.7805182641273806
  7
dcStyle0
 72
     5
 11
22.77565630268683
 21
-375.7653938117317
 31
0.0
100
AcDbText
  0
TEXT
  5
40C
330
1F
100
AcDbEntity
  8
0
 62
     2
100
AcDbText
 10
46.7756562972869
 20
-375.7653938117317
 30
0.0
 40
24.0
  1
299.4
 41
0.7805182641273806
  7
dcStyle0
 72
     5
 11
106.7756562972869
 21
-375.7653938117317
 31
0.0
100
AcDbText
  0
TEXT
  5
40D
330
1F
100
AcDbEntity
  8
0
 62
     2
100
AcDbText
 10
-187.2243436865133
 20
-408.1653938117316
 30
0.0
 40
24.0
  1
97
 41
0.6877579092159559
  7
dcStyle0
 72
     5
 11
-163.2243436865133
 21
-408.1653938117316
 31
0.0
100
AcDbText
  0
TEXT
  5
40E
330
1F
100
AcDbEntity
  8
0
 62
     2
100
AcDbText
 10
-370.224343675773
 20
-472.9653938253376
 30
0.0
 40
24.0
  1
B(mm)
 41
0.6332320162107395
  7
dcStyle0
 72
     5
 11
-310.224343675773
 21
-472.9653938253376
 31
0.0
100
AcDbText
  0
TEXT
  5
40F
330
1F
100
AcDbEntity
  8
0
 62
     2
100
AcDbText
 10
-193.2243436865133
 20
-343.3653938117368
 30
0.0
 40
24.0
  1
100
 41
0.6877579092159559
  7
dcStyle0
 72
     5
 11
-157.2243436865133
 21
-343.3653938117368
 31
0.0
100
AcDbText
  0
TEXT
  5
410
330
1F
100
AcDbEntity
  8
0
 62
     2
100
AcDbText
 10
-109.2243436919132
 20
-343.3653938117368
 30
0.0
 40
24.0
  1
150
 41
0.6877579092159559
  7
dcStyle0
 72
     5
 11
-73.22434369191322
 21
-343.3653938117368
 31
0.0
100
AcDbText
  0
TEXT
  5
411
330
1F
100
AcDbEntity
  8
0
 62
     2
100
AcDbText
 10
-25.22434369731317
 20
-343.3653938117368
 30
0.0
 40
24.0
  1
200
 41
0.6877579092159559
  7
dcStyle0
 72
     5
 11
10.77565630268683
 21
-343.3653938117368
 31
0.0
100
AcDbText
  0
TEXT
  5
412
330
1F
100
AcDbEntity
  8
0
 62
     2
100
AcDbText
 10
58.7756562972869
 20
-343.3653938117368
 30
0.0
 40
24.0
  1
300
 41
0.6877579092159559
  7
dcStyle0
 72
     5
 11
94.7756562972869
 21
-343.3653938117368
 31
0.0
100
AcDbText
  0
TEXT
  5
413
330
1F
100
AcDbEntity
  8
0
 62
     2
100
AcDbText
 10
-181.2243436865133
 20
-440.5653938185336
 30
0.0
 40
24.0
  1
4
 41
0.6877579092159559
  7
dcStyle0
 72
     5
 11
-169.2243436865133
 21
-440.5653938185336
 31
0.0
100
AcDbText
  0
TEXT
  5
414
330
1F
100
AcDbEntity
  8
0
 62
     2
100
AcDbText
 10
-193.2243436865133
 20
-472.9653938185336
 30
0.0
 40
24.0
  1
800
 41
0.6877579092159559
  7
dcStyle0
 72
     5
 11
-157.2243436865133
 21
-472.9653938185336
 31
0.0
100
AcDbText
  0
TEXT
  5
415
330
1F
100
AcDbEntity
  8
0
 62
     2
100
AcDbText
 10
-370.224343675773
 20
-537.7653938185356
 30
0.0
 40
24.0
  1
D(mm)
 41
0.6305170239596468
  7
dcStyle0
 72
     5
 11
-310.224343675773
 21
-537.7653938185356
 31
0.0
100
AcDbText
  0
TEXT
  5
416
330
1F
100
AcDbEntity
  8
0
 62
     2
100
AcDbText
 10
-370.224343675773
 20
-570.1653938185357
 30
0.0
 40
24.0
  1
E(mm)
 41
0.6500260010400415
  7
dcStyle0
 72
     5
 11
-310.224343675773
 21
-570.1653938185357
 31
0.0
100
AcDbText
  0
TEXT
  5
417
330
1F
100
AcDbEntity
  8
0
 62
     2
100
AcDbText
 10
-187.2243436865133
 20
-537.7653938117239
 30
0.0
 40
24.0
  1
57
 41
0.6877579092159559
  7
dcStyle0
 72
     5
 11
-163.2243436865133
 21
-537.7653938117239
 31
0.0
100
AcDbText
  0
TEXT
  5
418
330
1F
100
AcDbEntity
  8
0
 62
     2
100
AcDbText
 10
-193.2243436865133
 20
-570.1653938117238
 30
0.0
 40
24.0
  1
---
 41
0.6877579092159559
  7
dcStyle0
 72
     5
 11
-157.2243436865133
 21
-570.1653938117238
 31
0.0
100
AcDbText
  0
TEXT
  5
419
330
1F
100
AcDbEntity
  8
0
 62
     2
100
AcDbText
 10
-103.2243436919132
 20
-537.7653938117239
 30
0.0
 40
24.0
  1
57
 41
0.6877579092159559
  7
dcStyle0
 72
     5
 11
-79.22434369191322
 21
-537.7653938117239
 31
0.0
100
AcDbText
  0
TEXT
  5
41A
330
1F
100
AcDbEntity
  8
0
 62
     2
100
AcDbText
 10
-109.2243436919132
 20
-570.1653938117238
 30
0.0
 40
24.0
  1
---
 41
0.6877579092159559
  7
dcStyle0
 72
     5
 11
-73.22434369191322
 21
-570.1653938117238
 31
0.0
100
AcDbText
  0
TEXT
  5
41B
330
1F
100
AcDbEntity
  8
0
 62
     2
100
AcDbText
 10
-19.22434369731317
 20
-537.7653938117239
 30
0.0
 40
24.0
  1
57
 41
0.6877579092159559
  7
dcStyle0
 72
     5
 11
4.775656302686826
 21
-537.7653938117239
 31
0.0
100
AcDbText
  0
TEXT
  5
41C
330
1F
100
AcDbEntity
  8
0
 62
     2
100
AcDbText
 10
64.77565629728689
 20
-537.7653938117239
 30
0.0
 40
24.0
  1
57
 41
0.6877579092159559
  7
dcStyle0
 72
     5
 11
88.77565629728689
 21
-537.7653938117239
 31
0.0
100
AcDbText
  0
TEXT
  5
41D
330
1F
100
AcDbEntity
  8
0
 62
     2
100
AcDbText
 10
-25.22434369731317
 20
-570.1653938117316
 30
0.0
 40
24.0
  1
760
 41
0.6877579092159559
  7
dcStyle0
 72
     5
 11
10.77565630268683
 21
-570.1653938117316
 31
0.0
100
AcDbText
  0
TEXT
  5
41E
330
1F
100
AcDbEntity
  8
0
 62
     2
100
AcDbText
 10
52.7756562972869
 20
-570.1653938117316
 30
0.0
 40
24.0
  1
1260
 41
0.6877579092159559
  7
dcStyle0
 72
     5
 11
100.7756562972869
 21
-570.1653938117316
 31
0.0
100
AcDbText
  0
TEXT
  5
41F
330
1F
100
AcDbEntity
  8
0
 62
     2
100
AcDbText
 10
-103.2243436919132
 20
-408.1653938117316
 30
0.0
 40
24.0
  1
47
 41
0.6877579092159559
  7
dcStyle0
 72
     5
 11
-79.22434369191322
 21
-408.1653938117316
 31
0.0
100
AcDbText
  0
TEXT
  5
420
330
1F
100
AcDbEntity
  8
0
 62
     2
100
AcDbText
 10
-97.22434369191322
 20
-440.5653938185336
 30
0.0
 40
24.0
  1
7
 41
0.6877579092159559
  7
dcStyle0
 72
     5
 11
-85.22434369191322
 21
-440.5653938185336
 31
0.0
100
AcDbText
  0
TEXT
  5
421
330
1F
100
AcDbEntity
  8
0
 62
     2
100
AcDbText
 10
-115.2243436919132
 20
-472.9653938185336
 30
0.0
 40
24.0
  1
1400
 41
0.6877579092159559
  7
dcStyle0
 72
     5
 11
-67.22434369191322
 21
-472.9653938185336
 31
0.0
100
AcDbText
  0
TEXT
  5
422
330
1F
100
AcDbEntity
  8
0
 62
     2
100
AcDbText
 10
-19.22434369731317
 20
-408.1653938117316
 30
0.0
 40
24.0
  1
97
 41
0.6877579092159559
  7
dcStyle0
 72
     5
 11
4.775656302686826
 21
-408.1653938117316
 31
0.0
100
AcDbText
  0
TEXT
  5
423
330
1F
100
AcDbEntity
  8
0
 62
     2
100
AcDbText
 10
-13.22434369731317
 20
-440.5653938185336
 30
0.0
 40
24.0
  1
9
 41
0.6877579092159559
  7
dcStyle0
 72
     5
 11
-1.224343697313174
 21
-440.5653938185336
 31
0.0
100
AcDbText
  0
TEXT
  5
424
330
1F
100
AcDbEntity
  8
0
 62
     2
100
AcDbText
 10
-31.22434369731317
 20
-472.9653938185336
 30
0.0
 40
24.0
  1
1800
 41
0.6877579092159559
  7
dcStyle0
 72
     5
 11
16.77565630268683
 21
-472.9653938185336
 31
0.0
100
AcDbText
  0
TEXT
  5
425
330
1F
100
AcDbEntity
  8
0
 62
     2
100
AcDbText
 10
64.77565629728689
 20
-408.1653938117316
 30
0.0
 40
24.0
  1
97
 41
0.6877579092159559
  7
dcStyle0
 72
     5
 11
88.77565629728689
 21
-408.1653938117316
 31
0.0
100
AcDbText
  0
TEXT
  5
426
330
1F
100
AcDbEntity
  8
0
 62
     2
100
AcDbText
 10
64.77565629728689
 20
-440.5653938185336
 30
0.0
 40
24.0
  1
14
 41
0.6877579092159559
  7
dcStyle0
 72
     5
 11
88.77565629728689
 21
-440.5653938185336
 31
0.0
100
AcDbText
  0
TEXT
  5
427
330
1F
100
AcDbEntity
  8
0
 62
     2
100
AcDbText
 10
52.7756562972869
 20
-472.9653938185336
 30
0.0
 40
24.0
  1
2800
 41
0.6877579092159559
  7
dcStyle0
 72
     5
 11
100.7756562972869
 21
-472.9653938185336
 31
0.0
100
AcDbText
  0
TEXT
  5
428
330
1F
100
AcDbEntity
  8
0
 62
     2
100
AcDbText
 10
-370.224343675773
 20
-505.3653938185355
 30
0.0
 40
24.0
  1
C(mm)
 41
0.6268806419257772
  7
dcStyle0
 72
     5
 11
-310.224343675773
 21
-505.3653938185355
 31
0.0
100
AcDbText
  0
TEXT
  5
429
330
1F
100
AcDbEntity
  8
0
 62
     2
100
AcDbText
 10
-187.2243436865133
 20
-505.3653938117315
 30
0.0
 40
24.0
  1
97
 41
0.6877579092159559
  7
dcStyle0
 72
     5
 11
-163.2243436865133
 21
-505.3653938117315
 31
0.0
100
AcDbText
  0
TEXT
  5
42A
330
1F
100
AcDbEntity
  8
0
 62
     2
100
AcDbText
 10
-103.2243436919132
 20
-505.3653938117315
 30
0.0
 40
24.0
  1
47
 41
0.6877579092159559
  7
dcStyle0
 72
     5
 11
-79.22434369191322
 21
-505.3653938117315
 31
0.0
100
AcDbText
  0
TEXT
  5
42B
330
1F
100
AcDbEntity
  8
0
 62
     2
100
AcDbText
 10
-19.22434369731317
 20
-505.3653938117315
 30
0.0
 40
24.0
  1
97
 41
0.6877579092159559
  7
dcStyle0
 72
     5
 11
4.775656302686826
 21
-505.3653938117315
 31
0.0
100
AcDbText
  0
TEXT
  5
42C
330
1F
100
AcDbEntity
  8
0
 62
     2
100
AcDbText
 10
64.77565629728689
 20
-505.3653938117315
 30
0.0
 40
24.0
  1
97
 41
0.6877579092159559
  7
dcStyle0
 72
     5
 11
88.77565629728689
 21
-505.3653938117315
 31
0.0
100
AcDbText
  0
LINE
  5
42D
330
1F
100
AcDbEntity
  8
0
  6
Continuous
 62
     7
370
    18
100
AcDbLine
 10
600.0376309191869
 20
-14.60625285418715
 30
0.0
 11
600.0376309191869
 21
-16.90625285418733
 31
0.0
  0
LINE
  5
42E
330
1F
100
AcDbEntity
  8
0
  6
Continuous
 62
     7
370
    18
100
AcDbLine
 10
625.7376309191867
 20
-16.90625285418733
 30
0.0
 11
600.0376309191869
 21
-16.90625285418733
 31
0.0
  0
LINE
  5
42F
330
1F
100
AcDbEntity
  8
0
  6
Continuous
 62
     7
370
    18
100
AcDbLine
 10
600.0376309191869
 20
-14.60625285418715
 30
0.0
 11
625.7376309191867
 21
-14.60625285418715
 31
0.0
  0
ARC
  5
430
330
1F
100
AcDbEntity
  8
0
  6
Continuous
 62
     7
370
    18
100
AcDbCircle
 10
625.7376309191867
 20
-18.90625285418733
 30
0.0
 40
2.0
100
AcDbArc
 50
0.0
 51
90.0
  0
ARC
  5
431
330
1F
100
AcDbEntity
  8
0
  6
Continuous
 62
     7
370
    18
100
AcDbCircle
 10
625.7376309191867
 20
-18.90625285418733
 30
0.0
 40
4.3
100
AcDbArc
 50
0.0
 51
90.0
  0
LINE
  5
432
330
1F
100
AcDbEntity
  8
0
  6
Continuous
 62
     7
370
    18
100
AcDbLine
 10
600.0376309191869
 20
-102.306252854187
 30
0.0
 11
600.0376309191869
 21
-104.6062528541871
 31
0.0
  0
LINE
  5
433
330
1F
100
AcDbEntity
  8
0
  6
Continuous
 62
     7
370
    18
100
AcDbLine
 10
625.7376309191867
 20
-102.306252854187
 30
0.0
 11
600.0376309191869
 21
-102.306252854187
 31
0.0
  0
LINE
  5
434
330
1F
100
AcDbEntity
  8
0
  6
Continuous
 62
     7
370
    18
100
AcDbLine
 10
625.7376309191867
 20
-104.6062528541871
 30
0.0
 11
600.0376309191869
 21
-104.6062528541871
 31
0.0
  0
LINE
  5
435
330
1F
100
AcDbEntity
  8
0
  6
Continuous
 62
     7
370
    18
100
AcDbLine
 10
1060.037630919187
 20
-14.60625285418715
 30
0.0
 11
1060.037630919187
 21
-16.90625285418733
 31
0.0
  0
LINE
  5
436
330
1F
100
AcDbEntity
  8
0
  6
Continuous
 62
     7
370
    18
100
AcDbLine
 10
1034.337630919187
 20
-16.90625285418733
 30
0.0
 11
1060.037630919187
 21
-16.90625285418733
 31
0.0
  0
LINE
  5
437
330
1F
100
AcDbEntity
  8
0
  6
Continuous
 62
     7
370
    18
100
AcDbLine
 10
1060.037630919187
 20
-14.60625285418715
 30
0.0
 11
1034.337630919187
 21
-14.60625285418715
 31
0.0
  0
LINE
  5
438
330
1F
100
AcDbEntity
  8
0
  6
Continuous
 62
     7
370
    18
100
AcDbLine
 10
1060.037630919187
 20
-102.306252854187
 30
0.0
 11
1060.037630919187
 21
-104.6062528541871
 31
0.0
  0
LINE
  5
439
330
1F
100
AcDbEntity
  8
0
  6
Continuous
 62
     7
370
    18
100
AcDbLine
 10
1034.337630919187
 20
-102.306252854187
 30
0.0
 11
1060.037630919187
 21
-102.306252854187
 31
0.0
  0
LINE
  5
43A
330
1F
100
AcDbEntity
  8
0
  6
Continuous
 62
     7
370
    18
100
AcDbLine
 10
1034.337630919187
 20
-104.6062528541871
 30
0.0
 11
1060.037630919187
 21
-104.6062528541871
 31
0.0
  0
ARC
  5
43B
330
1F
100
AcDbEntity
  8
0
  6
Continuous
 62
     7
370
    18
100
AcDbCircle
 10
1034.337630919187
 20
-18.90625285418733
 30
0.0
 40
2.0
100
AcDbArc
 50
90.0
 51
180.0
  0
LINE
  5
43C
330
1F
100
AcDbEntity
  8
0
  6
Continuous
 62
     7
370
    18
100
AcDbLine
 10
1032.337630919187
 20
-100.3062518541875
 30
0.0
 11
1032.337630919187
 21
-18.90625285418733
 31
0.0
  0
ARC
  5
43D
330
1F
100
AcDbEntity
  8
0
  6
Continuous
 62
     7
370
    18
100
AcDbCircle
 10
1034.337630919187
 20
-100.306252854187
 30
0.0
 40
2.0
100
AcDbArc
 50
179.9999730000077
 51
270.0
  0
ARC
  5
43E
330
1F
100
AcDbEntity
  8
0
  6
Continuous
 62
     7
370
    18
100
AcDbCircle
 10
1034.337630919187
 20
-100.306252854187
 30
0.0
 40
4.3
100
AcDbArc
 50
180.0
 51
270.0
  0
LINE
  5
43F
330
1F
100
AcDbEntity
  8
0
  6
Continuous
 62
     7
370
    18
100
AcDbLine
 10
1030.037630919187
 20
-18.90625285418733
 30
0.0
 11
1030.037630919187
 21
-100.306252854187
 31
0.0
  0
ARC
  5
440
330
1F
100
AcDbEntity
  8
0
  6
Continuous
 62
     7
370
    18
100
AcDbCircle
 10
1034.337630919187
 20
-18.90625285418733
 30
0.0
 40
4.3
100
AcDbArc
 50
90.0
 51
180.0
  0
LINE
  5
441
330
1F
100
AcDbEntity
  8
0
  6
Continuous
 62
     7
370
    18
100
AcDbLine
 10
627.7376309191867
 20
-100.306252854187
 30
0.0
 11
627.7376309191867
 21
-18.90625285418733
 31
0.0
  0
ARC
  5
442
330
1F
100
AcDbEntity
  8
0
  6
Continuous
 62
     7
370
    18
100
AcDbCircle
 10
625.7376309191867
 20
-100.306252854187
 30
0.0
 40
2.0
100
AcDbArc
 50
270.0
 51
0.0
  0
LINE
  5
443
330
1F
100
AcDbEntity
  8
0
  6
Continuous
 62
     7
370
    18
100
AcDbLine
 10
630.0376309191869
 20
-18.90625285418733
 30
0.0
 11
630.0376309191869
 21
-100.306252854187
 31
0.0
  0
ARC
  5
444
330
1F
100
AcDbEntity
  8
0
  6
Continuous
 62
     7
370
    18
100
AcDbCircle
 10
625.7376309191867
 20
-100.306252854187
 30
0.0
 40
4.3
100
AcDbArc
 50
270.0
 51
0.0
  0
LINE
  5
445
330
1F
100
AcDbEntity
  8
0
  6
Continuous
 62
     7
370
    18
100
AcDbLine
 10
208.0412042597162
 20
-16.90625285418733
 30
0.0
 11
-785.9587957402838
 21
-16.90625285418733
 31
0.0
  0
LINE
  5
446
330
1F
100
AcDbEntity
  8
0
  6
Continuous
 62
     7
370
    18
100
AcDbLine
 10
208.0412042597162
 20
-14.60625285418715
 30
0.0
 11
-785.9587957402838
 21
-14.60625285418715
 31
0.0
  0
LINE
  5
447
330
1F
100
AcDbEntity
  8
0
  6
Continuous
 62
     7
370
    18
100
AcDbLine
 10
208.0412042597162
 20
-102.306252854187
 30
0.0
 11
-785.9587957402838
 21
-102.306252854187
 31
0.0
  0
LINE
  5
448
330
1F
100
AcDbEntity
  8
0
  6
Continuous
 62
     7
370
    18
100
AcDbLine
 10
208.0412042597162
 20
-104.6062528541871
 30
0.0
 11
-785.9587957402838
 21
-104.6062528541871
 31
0.0
  0
LINE
  5
449
330
1F
100
AcDbEntity
  8
0
  6
Continuous
 62
     7
370
    18
100
AcDbLine
 10
208.0412042597162
 20
-14.60625285418715
 30
0.0
 11
208.0412042597162
 21
-104.6062528541871
 31
0.0
  0
LINE
  5
44A
330
1F
100
AcDbEntity
  8
0
  6
Continuous
 62
     7
370
    18
100
AcDbLine
 10
-785.9587957402838
 20
-14.60625285418715
 30
0.0
 11
-785.9587957402838
 21
-104.6062528541871
 31
0.0
  0
LINE
  5
44B
330
1F
100
AcDbEntity
  8
0
  6
Continuous
 62
     7
370
    18
100
AcDbLine
 10
-785.9587957402838
 20
714.7437471526259
 30
0.0
 11
208.0412042597162
 21
714.7437471526259
 31
0.0
  0
LINE
  5
44C
330
1F
100
AcDbEntity
  8
0
  6
Continuous
 62
     7
370
    18
100
AcDbLine
 10
-785.9587957402838
 20
314.7437471526259
 30
0.0
 11
208.0412042597162
 21
314.7437471526259
 31
0.0
  0
LINE
  5
44D
330
1F
100
AcDbEntity
  8
0
  6
Continuous
 62
     7
370
    18
100
AcDbLine
 10
-785.9587957402838
 20
714.7437471526259
 30
0.0
 11
-785.9587957402838
 21
734.7437471526259
 31
0.0
  0
ARC
  5
44E
330
1F
100
AcDbEntity
  8
0
  6
Continuous
 62
     7
370
    18
100
AcDbCircle
 10
-775.9587957402838
 20
734.7437471526259
 30
0.0
 40
10.0
100
AcDbArc
 50
90.0
 51
180.0
  0
LINE
  5
44F
330
1F
100
AcDbEntity
  8
0
  6
Continuous
 62
     7
370
    18
100
AcDbLine
 10
-785.9587957402838
 20
294.7437471526259
 30
0.0
 11
-785.9587957402838
 21
314.7437471526259
 31
0.0
  0
ARC
  5
450
330
1F
100
AcDbEntity
  8
0
  6
Continuous
 62
     7
370
    18
100
AcDbCircle
 10
-775.9587957402838
 20
294.7437471526259
 30
0.0
 40
10.0
100
AcDbArc
 50
180.0
 51
270.0
  0
LINE
  5
451
330
1F
100
AcDbEntity
  8
0
  6
Continuous
 62
     7
370
    18
100
AcDbLine
 10
-775.9587957402838
 20
744.7437471526259
 30
0.0
 11
198.0412042597162
 21
744.7437471526259
 31
0.0
  0
LINE
  5
452
330
1F
100
AcDbEntity
  8
0
  6
Continuous
 62
     7
370
    18
100
AcDbLine
 10
208.0412042597162
 20
714.7437471526259
 30
0.0
 11
208.0412042597162
 21
734.7437471526259
 31
0.0
  0
ARC
  5
453
330
1F
100
AcDbEntity
  8
0
  6
Continuous
 62
     7
370
    18
100
AcDbCircle
 10
198.0412042597162
 20
734.7437471526259
 30
0.0
 40
10.0
100
AcDbArc
 50
0.0
 51
90.0
  0
LINE
  5
454
330
1F
100
AcDbEntity
  8
0
  6
Continuous
 62
     7
370
    18
100
AcDbLine
 10
208.0412042597162
 20
294.7437471526259
 30
0.0
 11
208.0412042597162
 21
314.7437471526259
 31
0.0
  0
LINE
  5
455
330
1F
100
AcDbEntity
  8
0
  6
Continuous
 62
     7
370
    18
100
AcDbLine
 10
-775.9587957402838
 20
284.7437471526259
 30
0.0
 11
198.0412042597162
 21
284.7437471526259
 31
0.0
  0
ARC
  5
456
330
1F
100
AcDbEntity
  8
0
  6
Continuous
 62
     7
370
    18
100
AcDbCircle
 10
198.0412042597162
 20
294.7437471526259
 30
0.0
 40
10.0
100
AcDbArc
 50
270.0
 51
0.0
  0
LINE
  5
457
330
1F
100
AcDbEntity
  8
0
  6
CENTER
 62
     3
370
    13
100
AcDbLine
 10
612.5376319191868
 20
-94.60625285418715
 30
0.0
 11
612.5376319191868
 21
-114.5004088541874
 31
0.0
  0
LINE
  5
458
330
1F
100
AcDbEntity
  8
0
  6
CENTER
 62
     3
370
    13
100
AcDbLine
 10
1047.537631919187
 20
-94.60625285418715
 30
0.0
 11
1047.537631919187
 21
-114.6062528541871
 31
0.0
  0
LINE
  5
459
330
1F
100
AcDbEntity
  8
0
  6
CENTER
 62
     3
370
    13
100
AcDbLine
 10
-228.9587957402838
 20
-114.6062528541871
 30
0.0
 11
-228.9587957402838
 21
-94.60625285418715
 31
0.0
  0
LINE
  5
45A
330
1F
100
AcDbEntity
  8
0
  6
CENTER
 62
     3
370
    13
100
AcDbLine
 10
-348.9587957402838
 20
-114.6062528541871
 30
0.0
 11
-348.9587957402838
 21
-94.60625285418715
 31
0.0
  0
LINE
  5
45B
330
1F
100
AcDbEntity
  8
0
  6
CENTER
 62
     3
370
    13
100
AcDbLine
 10
151.0412042597162
 20
-94.60625285418715
 30
0.0
 11
151.0412042597162
 21
-114.6062528541871
 31
0.0
  0
LINE
  5
45C
330
1F
100
AcDbEntity
  8
0
  6
CENTER
 62
     3
370
    13
100
AcDbLine
 10
31.04120425971621
 20
-94.60625285418715
 30
0.0
 11
31.04120425971621
 21
-114.6062528541871
 31
0.0
  0
LINE
  5
45D
330
1F
100
AcDbEntity
  8
0
  6
CENTER
 62
     3
370
    13
100
AcDbLine
 10
-728.9587957402838
 20
-94.60625285418715
 30
0.0
 11
-728.9587957402838
 21
-114.6062528541871
 31
0.0
  0
LINE
  5
45E
330
1F
100
AcDbEntity
  8
0
  6
CENTER
 62
     3
370
    13
100
AcDbLine
 10
-608.9587957402838
 20
-94.60625285418715
 30
0.0
 11
-608.9587957402838
 21
-114.6062528541871
 31
0.0
  0
LINE
  5
45F
330
1F
100
AcDbEntity
  8
0
  6
CENTER
 62
     3
370
    13
100
AcDbLine
 10
-798.9587957402838
 20
-33.10625285418715
 30
0.0
 11
221.0412042597162
 21
-33.10625285418715
 31
0.0
  0
LINE
  5
460
330
1F
100
AcDbEntity
  8
0
  6
CENTER
 62
     3
370
    13
100
AcDbLine
 10
221.0412042597162
 20
514.7437471526259
 30
0.0
 11
-798.9587957402838
 21
514.7437471526259
 31
0.0
  0
LINE
  5
461
330
1F
100
AcDbEntity
  8
0
  6
Continuous
 62
     3
370
    13
100
AcDbLine
 10
382.1900826135785
 20
-347.1653938070745
 30
0.0
 11
1124.190082578668
 21
-347.1653938070745
 31
0.0
  0
LINE
  5
462
330
1F
100
AcDbEntity
  8
0
  6
Continuous
 62
     3
370
    13
100
AcDbLine
 10
382.1900826135349
 20
-315.1653938083546
 30
0.0
 11
382.1900826135785
 21
-411.1653938045147
 31
0.0
  0
LINE
  5
463
330
1F
100
AcDbEntity
  8
0
  6
Continuous
 62
     3
370
    13
100
AcDbLine
 10
382.1900826135785
 20
-379.1653938057948
 30
0.0
 11
1124.190082578668
 21
-379.1653938057777
 31
0.0
  0
LINE
  5
464
330
1F
100
AcDbEntity
  8
0
  6
Continuous
 62
     3
370
    13
100
AcDbLine
 10
544.1900826050241
 20
-315.1653938083546
 30
0.0
 11
544.1900826050241
 21
-411.1653938045097
 31
0.0
  0
LINE
  5
465
330
1F
100
AcDbEntity
  8
0
  6
Continuous
 62
     3
370
    13
100
AcDbLine
 10
1124.190082578624
 20
-315.1653938083546
 30
0.0
 11
1124.190082578668
 21
-411.1653938044972
 31
0.0
  0
LINE
  5
466
330
1F
100
AcDbEntity
  8
0
  6
Continuous
 62
     3
370
    13
100
AcDbLine
 10
382.1900826135793
 20
-411.1653938045147
 30
0.0
 11
1124.190082578668
 21
-411.1653938044972
 31
0.0
  0
LINE
  5
467
330
1F
100
AcDbEntity
  8
0
  6
Continuous
 62
     3
370
    13
100
AcDbLine
 10
382.1900826135567
 20
-315.1653938083546
 30
0.0
 11
1124.190082578646
 21
-315.1653938083546
 31
0.0
  0
LINE
  5
468
330
1F
100
AcDbEntity
  8
0
  6
Continuous
 62
     3
370
    13
100
AcDbLine
 10
660.1900826050241
 20
-315.1653938083546
 30
0.0
 11
660.1900826050241
 21
-411.1653938045079
 31
0.0
  0
LINE
  5
469
330
1F
100
AcDbEntity
  8
0
  6
Continuous
 62
     3
370
    13
100
AcDbLine
 10
776.1900826050241
 20
-315.1653938083546
 30
0.0
 11
776.1900826050241
 21
-411.1653938045079
 31
0.0
  0
LINE
  5
46A
330
1F
100
AcDbEntity
  8
0
  6
Continuous
 62
     3
370
    13
100
AcDbLine
 10
892.1900826050241
 20
-315.1653938083546
 30
0.0
 11
892.1900826050241
 21
-411.1653938045079
 31
0.0
  0
LINE
  5
46B
330
1F
100
AcDbEntity
  8
0
  6
Continuous
 62
     3
370
    13
100
AcDbLine
 10
1008.190082605024
 20
-315.1653938083546
 30
0.0
 11
1008.190082605024
 21
-411.1653938045079
 31
0.0
  0
LINE
  5
46C
330
1F
100
AcDbEntity
  8
0
  6
Continuous
 62
     3
370
    13
100
AcDbLine
 10
-379.2243436754131
 20
-574.3653938151538
 30
0.0
 11
118.7756562945869
 21
-574.3653938151363
 31
0.0
  0
LINE
  5
46D
330
1F
100
AcDbEntity
  8
0
  6
Continuous
 62
     3
370
    13
100
AcDbLine
 10
-379.2243436754131
 20
-315.1653938083317
 30
0.0
 11
118.7756562945869
 21
-315.1653938083141
 31
0.0
  0
LINE
  5
46E
330
1F
100
AcDbEntity
  8
0
  6
Continuous
 62
     3
370
    13
100
AcDbLine
 10
-379.2243436754187
 20
-315.1653938083317
 30
0.0
 11
-379.2243436754131
 21
-574.3653938151567
 31
0.0
  0
LINE
  5
46F
330
1F
100
AcDbEntity
  8
0
  6
Continuous
 62
     3
370
    13
100
AcDbLine
 10
-217.2243436838133
 20
-315.1653938083265
 30
0.0
 11
-217.2243436838133
 21
-574.365393815154
 31
0.0
  0
LINE
  5
470
330
1F
100
AcDbEntity
  8
0
  6
Continuous
 62
     3
370
    13
100
AcDbLine
 10
118.7756562945825
 20
-315.1653938083141
 30
0.0
 11
118.7756562945869
 21
-574.365393815139
 31
0.0
  0
LINE
  5
471
330
1F
100
AcDbEntity
  8
0
  6
Continuous
 62
     3
370
    13
100
AcDbLine
 10
-379.2243436754131
 20
-347.5653938151336
 30
0.0
 11
118.7756562945869
 21
-347.5653938151161
 31
0.0
  0
LINE
  5
472
330
1F
100
AcDbEntity
  8
0
  6
Continuous
 62
     3
370
    13
100
AcDbLine
 10
-379.2243436754131
 20
-379.9653938151337
 30
0.0
 11
118.7756562945869
 21
-379.965393815116
 31
0.0
  0
LINE
  5
473
330
1F
100
AcDbEntity
  8
0
  6
Continuous
 62
     3
370
    13
100
AcDbLine
 10
-379.2243436754131
 20
-444.7653938151336
 30
0.0
 11
118.7756562945869
 21
-444.7653938151161
 31
0.0
  0
LINE
  5
474
330
1F
100
AcDbEntity
  8
0
  6
Continuous
 62
     3
370
    13
100
AcDbLine
 10
-379.2243436754131
 20
-477.1653938151337
 30
0.0
 11
118.7756562945869
 21
-477.165393815116
 31
0.0
  0
LINE
  5
475
330
1F
100
AcDbEntity
  8
0
  6
Continuous
 62
     3
370
    13
100
AcDbLine
 10
-133.2243436892132
 20
-315.1653938083265
 30
0.0
 11
-133.2243436892132
 21
-574.365393815154
 31
0.0
  0
LINE
  5
476
330
1F
100
AcDbEntity
  8
0
  6
Continuous
 62
     3
370
    13
100
AcDbLine
 10
-49.2243436946132
 20
-315.1653938083265
 30
0.0
 11
-49.2243436946132
 21
-574.365393815154
 31
0.0
  0
LINE
  5
477
330
1F
100
AcDbEntity
  8
0
  6
Continuous
 62
     3
370
    13
100
AcDbLine
 10
34.77565629998686
 20
-315.1653938083265
 30
0.0
 11
34.77565629998686
 21
-574.365393815154
 31
0.0
  0
LINE
  5
478
330
1F
100
AcDbEntity
  8
0
  6
Continuous
 62
     3
370
    13
100
AcDbLine
 10
-379.2243436754131
 20
-509.5653938151336
 30
0.0
 11
118.7756562945869
 21
-509.5653938151161
 31
0.0
  0
LINE
  5
479
330
1F
100
AcDbEntity
  8
0
  6
Continuous
 62
     3
370
    13
100
AcDbLine
 10
-379.2243436754131
 20
-541.9653938151337
 30
0.0
 11
118.7756562945869
 21
-541.965393815116
 31
0.0
  0
LINE
  5
47A
330
1F
100
AcDbEntity
  8
0
  6
Continuous
 62
     3
370
    13
100
AcDbLine
 10
-379.2243436754131
 20
-412.3653938219356
 30
0.0
 11
118.7756562945869
 21
-412.365393821918
 31
0.0
  0
INSERT
  5
47B
330
1F
100
AcDbEntity
  8
2
  6
Continuous
100
AcDbBlockReference
  2
DC_GROUP_W_JR-5714_S_040_4
 10
0.0
 20
0.0
 30
0.0
  0
INSERT
  5
47C
330
1F
100
AcDbEntity
  8
2
  6
Continuous
100
AcDbBlockReference
  2
DC_GROUP_W_JR-5714_S_040_12
 10
0.0
 20
0.0
 30
0.0
  0
INSERT
  5
47D
330
1F
100
AcDbEntity
  8
2
  6
Continuous
100
AcDbBlockReference
  2
DC_GROUP_W_JR-5714_S_040_14
 10
0.0
 20
0.0
 30
0.0
  0
INSERT
  5
47E
330
1F
100
AcDbEntity
  8
2
  6
Continuous
100
AcDbBlockReference
  2
DC_GROUP_W_JR-5714_S_040_16
 10
0.0
 20
0.0
 30
0.0
  0
INSERT
  5
47F
330
1F
100
AcDbEntity
  8
2
  6
Continuous
100
AcDbBlockReference
  2
DC_GROUP_W_JR-5714_S_040_18
 10
0.0
 20
0.0
 30
0.0
  0
INSERT
  5
480
330
1F
100
AcDbEntity
  8
2
  6
Continuous
100
AcDbBlockReference
  2
DC_GROUP_W_JR-5714_S_040_20
 10
0.0
 20
0.0
 30
0.0
  0
INSERT
  5
481
330
1F
100
AcDbEntity
  8
2
  6
Continuous
100
AcDbBlockReference
  2
DC_GROUP_W_JR-5714_S_040_22
 10
0.0
 20
0.0
 30
0.0
  0
INSERT
  5
482
330
1F
100
AcDbEntity
  8
2
  6
Continuous
100
AcDbBlockReference
  2
DC_GROUP_W_JR-5714_S_040_24
 10
0.0
 20
0.0
 30
0.0
  0
INSERT
  5
483
330
1F
100
AcDbEntity
  8
2
  6
Continuous
100
AcDbBlockReference
  2
DC_GROUP_W_JR-5714_S_040_26
 10
0.0
 20
0.0
 30
0.0
  0
INSERT
  5
484
330
1F
100
AcDbEntity
  8
2
  6
Continuous
100
AcDbBlockReference
  2
DC_GROUP_W_JR-5714_S_040_28
 10
0.0
 20
0.0
 30
0.0
  0
INSERT
  5
485
330
1F
100
AcDbEntity
  8
2
  6
Continuous
100
AcDbBlockReference
  2
DC_GROUP_W_JR-5714_S_040_30
 10
0.0
 20
0.0
 30
0.0
  0
INSERT
  5
486
330
1F
100
AcDbEntity
  8
2
  6
Continuous
100
AcDbBlockReference
  2
DC_GROUP_W_JR-5714_S_040_32
 10
0.0
 20
0.0
 30
0.0
  0
INSERT
  5
487
330
1F
100
AcDbEntity
  8
2
  6
Continuous
100
AcDbBlockReference
  2
DC_GROUP_W_JR-5714_S_040_34
 10
0.0
 20
0.0
 30
0.0
  0
INSERT
  5
488
330
1F
100
AcDbEntity
  8
2
  6
Continuous
100
AcDbBlockReference
  2
DC_GROUP_W_JR-5714_S_040_36
 10
0.0
 20
0.0
 30
0.0
  0
INSERT
  5
489
330
1F
100
AcDbEntity
  8
2
  6
Continuous
100
AcDbBlockReference
  2
DC_GROUP_W_JR-5714_S_040_38
 10
0.0
 20
0.0
 30
0.0
  0
INSERT
  5
48A
330
1F
100
AcDbEntity
  8
2
  6
Continuous
100
AcDbBlockReference
  2
DC_GROUP_W_JR-5714_S_040_40
 10
0.0
 20
0.0
 30
0.0
  0
INSERT
  5
48B
330
1F
100
AcDbEntity
  8
2
  6
Continuous
100
AcDbBlockReference
  2
DC_GROUP_W_JR-5714_S_040_42
 10
0.0
 20
0.0
 30
0.0
  0
INSERT
  5
48C
330
1F
100
AcDbEntity
  8
2
  6
Continuous
100
AcDbBlockReference
  2
DC_GROUP_W_JR-5714_S_040_44
 10
0.0
 20
0.0
 30
0.0
  0
INSERT
  5
48D
330
1F
100
AcDbEntity
  8
2
  6
Continuous
100
AcDbBlockReference
  2
DC_GROUP_W_JR-5714_S_040_46
 10
0.0
 20
0.0
 30
0.0
  0
INSERT
  5
48E
330
1F
100
AcDbEntity
  8
2
  6
Continuous
100
AcDbBlockReference
  2
DC_GROUP_W_JR-5714_S_040_48
 10
0.0
 20
0.0
 30
0.0
  0
INSERT
  5
48F
330
1F
100
AcDbEntity
  8
2
  6
Continuous
100
AcDbBlockReference
  2
DC_GROUP_W_JR-5714_S_040_50
 10
0.0
 20
0.0
 30
0.0
  0
INSERT
  5
490
330
1F
100
AcDbEntity
  8
2
  6
Continuous
100
AcDbBlockReference
  2
DC_GROUP_W_JR-5714_S_040_52
 10
0.0
 20
0.0
 30
0.0
  0
INSERT
  5
491
330
1F
100
AcDbEntity
  8
2
  6
Continuous
100
AcDbBlockReference
  2
DC_GROUP_W_JR-5714_S_040_54
 10
0.0
 20
0.0
 30
0.0
  0
INSERT
  5
492
330
1F
100
AcDbEntity
  8
2
  6
Continuous
100
AcDbBlockReference
  2
DC_GROUP_W_JR-5714_S_040_56
 10
0.0
 20
0.0
 30
0.0
  0
INSERT
  5
493
330
1F
100
AcDbEntity
  8
2
  6
Continuous
100
AcDbBlockReference
  2
DC_GROUP_W_JR-5714_S_040_57
 10
0.0
 20
0.0
 30
0.0
  0
INSERT
  5
494
330
1F
100
AcDbEntity
  8
2
  6
Continuous
100
AcDbBlockReference
  2
DC_GROUP_W_JR-5714_S_040_58
 10
0.0
 20
0.0
 30
0.0
  0
INSERT
  5
495
330
1F
100
AcDbEntity
  8
2
  6
Continuous
100
AcDbBlockReference
  2
DC_GROUP_W_JR-5714_S_040_59
 10
0.0
 20
0.0
 30
0.0
  0
INSERT
  5
496
330
1F
100
AcDbEntity
  8
2
  6
Continuous
100
AcDbBlockReference
  2
DC_GROUP_W_JR-5714_S_040_60
 10
0.0
 20
0.0
 30
0.0
  0
LINE
  5
497
330
1F
100
AcDbEntity
  8
0
  6
DASHED2
 62
     4
370
    13
100
AcDbLine
 10
-785.9587957402838
 20
717.043747152626
 30
0.0
 11
208.0412042597162
 21
717.043747152626
 31
0.0
  0
LINE
  5
498
330
1F
100
AcDbEntity
  8
0
  6
DASHED2
 62
     4
370
    13
100
AcDbLine
 10
-785.9587957402838
 20
312.4437471526259
 30
0.0
 11
208.0412042597162
 21
312.4437471526259
 31
0.0
  0
VIEWPORT
  5
AF
330
1B
100
AcDbEntity
 67
     1
  8
0
100
AcDbViewport
 10
0.0
 20
0.0
 30
0.0
 40
7092.0
 41
4864.610759777202
 68
     1
 69
     1
 12
0.0
 22
0.0
 13
0.0
 23
0.0
 14
0.5
 24
0.5
 15
0.0
 25
0.0
 16
0.0
 26
0.0
 36
1.0
 17
0.0
 27
0.0
 37
0.0
 42
50.0
 43
0.0
 44
0.0
 45
4864.610759777202
 50
0.0
 51
0.0
 72
   100
 90
   557152
  1

281
     0
 71
     1
 74
     0
110
0.0
120
0.0
130
0.0
111
1.0
121
0.0
131
0.0
112
0.0
122
1.0
132
0.0
 79
     0
146
0.0
170
     0
 61
     5
292
     1
282
     1
141
0.0
142
0.0
 63
   256
  0
ENDSEC
  0
SECTION
  2
OBJECTS
  0
DICTIONARY
  5
C
330
0
100
AcDbDictionary
281
     1
  3
ACAD_DETAILVIEWSTYLE
350
4CD
  3
ACAD_GROUP
350
D
  3
ACAD_LAYOUT
350
1A
  3
ACAD_MATERIAL
350
43
  3
ACAD_MLEADERSTYLE
350
4CC
  3
ACAD_MLINESTYLE
350
17
  3
ACAD_PLOTSETTINGS
350
19
  3
ACAD_PLOTSTYLENAME
350
E
  3
ACAD_SCALELIST
350
47
  3
ACAD_SECTIONVIEWSTYLE
350
4CE
  3
ACAD_TABLESTYLE
350
4CB
  3
ACAD_VISUALSTYLE
350
2A
  3
AcDbVariableDictionary
350
499
  0
SUN
  5
69
330
29
100
AcDbSun
 90
        1
290
     0
 63
     7
421
 16777215
 40
1.0
291
     1
 91
  2455826
 92
 54000000
292
     0
 70
     2
 71
   256
280
     1
  0
DICTIONARY
  5
4CD
102
{ACAD_REACTORS
330
C
102
}
330
C
100
AcDbDictionary
281
     1
  0
DICTIONARY
  5
D
102
{ACAD_REACTORS
330
C
102
}
330
C
100
AcDbDictionary
281
     1
  0
DICTIONARY
  5
1A
102
{ACAD_REACTORS
330
C
102
}
330
C
100
AcDbDictionary
281
     1
  3
Layout1
350
1E
  3
Layout2
350
26
  3
Model
350
22
  0
DICTIONARY
  5
43
102
{ACAD_REACTORS
330
C
102
}
330
C
100
AcDbDictionary
281
     1
  3
ByBlock
350
45
  3
ByLayer
350
44
  3
Global
350
46
  0
DICTIONARY
  5
4CC
102
{ACAD_REACTORS
330
C
102
}
330
C
100
AcDbDictionary
281
     1
  0
DICTIONARY
  5
17
102
{ACAD_REACTORS
330
C
102
}
330
C
100
AcDbDictionary
281
     1
  3
Standard
350
18
  0
DICTIONARY
  5
19
102
{ACAD_REACTORS
330
C
102
}
330
C
100
AcDbDictionary
281
     1
  0
ACDBDICTIONARYWDFLT
  5
E
102
{ACAD_REACTORS
330
C
102
}
330
C
100
AcDbDictionary
281
     1
  3
Normal
350
F
100
AcDbDictionaryWithDefault
340
F
  0
DICTIONARY
  5
47
102
{ACAD_REACTORS
330
C
102
}
330
C
100
AcDbDictionary
281
     1
  3
A0
350
48
  3
A1
350
49
  3
A2
350
4A
  3
A3
350
4B
  3
A4
350
4C
  3
A5
350
4D
  3
A6
350
4E
  3
A7
350
4F
  3
A8
350
50
  3
A9
350
51
  3
B0
350
52
  3
B1
350
53
  3
B2
350
54
  3
B3
350
55
  3
B4
350
56
  3
B5
350
57
  3
B6
350
58
  3
B7
350
59
  3
B8
350
5A
  3
B9
350
5B
  3
C0
350
5C
  3
C1
350
5D
  3
C2
350
5E
  3
C3
350
5F
  3
C4
350
60
  3
C5
350
61
  3
C6
350
62
  3
C7
350
63
  3
C8
350
64
  3
C9
350
65
  3
D0
350
66
  3
D1
350
67
  3
D2
350
68
  0
DICTIONARY
  5
4CE
102
{ACAD_REACTORS
330
C
102
}
330
C
100
AcDbDictionary
281
     1
  0
DICTIONARY
  5
4CB
102
{ACAD_REACTORS
330
C
102
}
330
C
100
AcDbDictionary
281
     1
  0
DICTIONARY
  5
2A
102
{ACAD_REACTORS
330
C
102
}
330
C
100
AcDbDictionary
281
     1
  3
2dWireframe
350
2F
  3
Basic
350
32
  3
Brighten
350
36
  3
ColorChange
350
3A
  3
Conceptual
350
34
  3
Dim
350
35
  3
EdgeColorOff
350
3D
  3
Facepattern
350
39
  3
Flat
350
2B
  3
FlatWithEdges
350
2C
  3
Gouraud
350
2D
  3
GouraudWithEdges
350
2E
  3
Hidden
350
31
  3
JitterOff
350
3B
  3
Linepattern
350
38
  3
OverhangOff
350
3C
  3
Realistic
350
33
  3
Shaded
350
42
  3
Shaded with edges
350
41
  3
Shades of Gray
350
3E
  3
Sketchy
350
3F
  3
Thicken
350
37
  3
Wireframe
350
30
  3
X-Ray
350
40
  0
DICTIONARY
  5
499
102
{ACAD_REACTORS
330
C
102
}
330
C
100
AcDbDictionary
281
     1
  3
CANNOSCALE
350
49A
  0
LAYOUT
  5
1E
102
{ACAD_REACTORS
330
1A
102
}
330
1A
100
AcDbPlotSettings
  1

  2
none_device
  4

  6

 40
0.0
 41
0.0
 42
0.0
 43
0.0
 44
0.0
 45
0.0
 46
0.0
 47
0.0
 48
0.0
 49
0.0
140
0.0
141
0.0
142
1.0
143
1.0
 70
   688
 72
     0
 73
     0
 74
     5
  7

 75
    16
 76
     0
 77
     2
 78
   300
147
1.0
148
0.0
149
0.0
100
AcDbLayout
  1
Layout1
 70
     0
 71
     1
 10
0.0
 20
0.0
 11
12.0
 21
9.0
 12
0.0
 22
0.0
 32
0.0
 14
1.000000000000000E+20
 24
1.000000000000000E+20
 34
1.000000000000000E+20
 15
-1.000000000000000E+20
 25
-1.000000000000000E+20
 35
-1.000000000000000E+20
146
0.0
 13
0.0
 23
0.0
 33
0.0
 16
1.0
 26
0.0
 36
0.0
 17
0.0
 27
1.0
 37
0.0
 76
     0
330
1B
331
AF
  0
LAYOUT
  5
26
102
{ACAD_REACTORS
330
1A
102
}
330
1A
100
AcDbPlotSettings
  1

  2
none_device
  4

  6

 40
0.0
 41
0.0
 42
0.0
 43
0.0
 44
0.0
 45
0.0
 46
0.0
 47
0.0
 48
0.0
 49
0.0
140
0.0
141
0.0
142
1.0
143
1.0
 70
   688
 72
     0
 73
     0
 74
     5
  7

 75
    16
 76
     0
 77
     2
 78
   300
147
1.0
148
0.0
149
0.0
100
AcDbLayout
  1
Layout2
 70
     1
 71
     2
 10
0.0
 20
0.0
 11
0.0
 21
0.0
 12
0.0
 22
0.0
 32
0.0
 14
0.0
 24
0.0
 34
0.0
 15
0.0
 25
0.0
 35
0.0
146
0.0
 13
0.0
 23
0.0
 33
0.0
 16
1.0
 26
0.0
 36
0.0
 17
0.0
 27
1.0
 37
0.0
 76
     0
330
23
  0
LAYOUT
  5
22
102
{ACAD_REACTORS
330
1A
102
}
330
1A
100
AcDbPlotSettings
  1

  2
none_device
  4
Letter_(8.50_x_11.00_Inches)
  6

 40
6.35
 41
6.35
 42
6.35000508
 43
6.35000508
 44
215.9
 45
279.4
 46
0.0
 47
0.0
 48
0.0
 49
0.0
140
0.0
141
0.0
142
1.0
143
1.0
 70
  1712
 72
     0
 73
     0
 74
     0
  7

 75
     0
 76
     0
 77
     2
 78
   300
147
1.0
148
0.0
149
0.0
100
AcDbLayout
  1
Model
 70
     1
 71
     0
 10
-1260.0
 20
-891.0
 11
1260.0
 21
891.0
 12
0.0
 22
0.0
 32
0.0
 14
-3546.0
 24
-2432.305379888601
 34
0.0
 15
3546.0
 25
2432.305379888601
 35
0.0
146
0.0
 13
0.0
 23
0.0
 33
0.0
 16
1.0
 26
0.0
 36
0.0
 17
0.0
 27
1.0
 37
0.0
 76
     0
330
1F
331
29
  0
MATERIAL
  5
45
102
{ACAD_REACTORS
330
43
102
}
330
43
100
AcDbMaterial
  1
ByBlock
 72
     1
 94
      127
  0
MATERIAL
  5
44
102
{ACAD_REACTORS
330
43
102
}
330
43
100
AcDbMaterial
  1
ByLayer
 72
     1
 94
      127
  0
MATERIAL
  5
46
102
{ACAD_REACTORS
330
43
102
}
330
43
100
AcDbMaterial
  1
Global
 72
     1
 94
      127
  0
MLINESTYLE
  5
18
102
{ACAD_REACTORS
330
17
102
}
330
17
100
AcDbMlineStyle
  2
Standard
 70
     0
  3

 62
   256
 51
90.0
 52
90.0
 71
     2
 49
0.5
 62
   256
  6
BYLAYER
 49
-0.5
 62
   256
  6
BYLAYER
  0
ACDBPLACEHOLDER
  5
F
102
{ACAD_REACTORS
330
E
102
}
330
E
  0
SCALE
  5
48
102
{ACAD_REACTORS
330
47
102
}
330
47
100
AcDbScale
 70
     0
300
1:1
140
1.0
141
1.0
290
     1
  0
SCALE
  5
49
102
{ACAD_REACTORS
330
47
102
}
330
47
100
AcDbScale
 70
     0
300
1:2
140
1.0
141
2.0
290
     0
  0
SCALE
  5
4A
102
{ACAD_REACTORS
330
47
102
}
330
47
100
AcDbScale
 70
     0
300
1:4
140
1.0
141
4.0
290
     0
  0
SCALE
  5
4B
102
{ACAD_REACTORS
330
47
102
}
330
47
100
AcDbScale
 70
     0
300
1:5
140
1.0
141
5.0
290
     0
  0
SCALE
  5
4C
102
{ACAD_REACTORS
330
47
102
}
330
47
100
AcDbScale
 70
     0
300
1:8
140
1.0
141
8.0
290
     0
  0
SCALE
  5
4D
102
{ACAD_REACTORS
330
47
102
}
330
47
100
AcDbScale
 70
     0
300
1:10
140
1.0
141
10.0
290
     0
  0
SCALE
  5
4E
102
{ACAD_REACTORS
330
47
102
}
330
47
100
AcDbScale
 70
     0
300
1:16
140
1.0
141
16.0
290
     0
  0
SCALE
  5
4F
102
{ACAD_REACTORS
330
47
102
}
330
47
100
AcDbScale
 70
     0
300
1:20
140
1.0
141
20.0
290
     0
  0
SCALE
  5
50
102
{ACAD_REACTORS
330
47
102
}
330
47
100
AcDbScale
 70
     0
300
1:30
140
1.0
141
30.0
290
     0
  0
SCALE
  5
51
102
{ACAD_REACTORS
330
47
102
}
330
47
100
AcDbScale
 70
     0
300
1:40
140
1.0
141
40.0
290
     0
  0
SCALE
  5
52
102
{ACAD_REACTORS
330
47
102
}
330
47
100
AcDbScale
 70
     0
300
1:50
140
1.0
141
50.0
290
     0
  0
SCALE
  5
53
102
{ACAD_REACTORS
330
47
102
}
330
47
100
AcDbScale
 70
     0
300
1:100
140
1.0
141
100.0
290
     0
  0
SCALE
  5
54
102
{ACAD_REACTORS
330
47
102
}
330
47
100
AcDbScale
 70
     0
300
2:1
140
2.0
141
1.0
290
     0
  0
SCALE
  5
55
102
{ACAD_REACTORS
330
47
102
}
330
47
100
AcDbScale
 70
     0
300
4:1
140
4.0
141
1.0
290
     0
  0
SCALE
  5
56
102
{ACAD_REACTORS
330
47
102
}
330
47
100
AcDbScale
 70
     0
300
8:1
140
8.0
141
1.0
290
     0
  0
SCALE
  5
57
102
{ACAD_REACTORS
330
47
102
}
330
47
100
AcDbScale
 70
     0
300
10:1
140
10.0
141
1.0
290
     0
  0
SCALE
  5
58
102
{ACAD_REACTORS
330
47
102
}
330
47
100
AcDbScale
 70
     0
300
100:1
140
100.0
141
1.0
290
     0
  0
SCALE
  5
59
102
{ACAD_REACTORS
330
47
102
}
330
47
100
AcDbScale
 70
     0
300
1/128" = 1'-0"
140
0.0078125
141
12.0
290
     0
  0
SCALE
  5
5A
102
{ACAD_REACTORS
330
47
102
}
330
47
100
AcDbScale
 70
     0
300
1/64" = 1'-0"
140
0.015625
141
12.0
290
     0
  0
SCALE
  5
5B
102
{ACAD_REACTORS
330
47
102
}
330
47
100
AcDbScale
 70
     0
300
1/32" = 1'-0"
140
0.03125
141
12.0
290
     0
  0
SCALE
  5
5C
102
{ACAD_REACTORS
330
47
102
}
330
47
100
AcDbScale
 70
     0
300
1/16" = 1'-0"
140
0.0625
141
12.0
290
     0
  0
SCALE
  5
5D
102
{ACAD_REACTORS
330
47
102
}
330
47
100
AcDbScale
 70
     0
300
3/32" = 1'-0"
140
0.09375
141
12.0
290
     0
  0
SCALE
  5
5E
102
{ACAD_REACTORS
330
47
102
}
330
47
100
AcDbScale
 70
     0
300
1/8" = 1'-0"
140
0.125
141
12.0
290
     0
  0
SCALE
  5
5F
102
{ACAD_REACTORS
330
47
102
}
330
47
100
AcDbScale
 70
     0
300
3/16" = 1'-0"
140
0.1875
141
12.0
290
     0
  0
SCALE
  5
60
102
{ACAD_REACTORS
330
47
102
}
330
47
100
AcDbScale
 70
     0
300
1/4" = 1'-0"
140
0.25
141
12.0
290
     0
  0
SCALE
  5
61
102
{ACAD_REACTORS
330
47
102
}
330
47
100
AcDbScale
 70
     0
300
3/8" = 1'-0"
140
0.375
141
12.0
290
     0
  0
SCALE
  5
62
102
{ACAD_REACTORS
330
47
102
}
330
47
100
AcDbScale
 70
     0
300
1/2" = 1'-0"
140
0.5
141
12.0
290
     0
  0
SCALE
  5
63
102
{ACAD_REACTORS
330
47
102
}
330
47
100
AcDbScale
 70
     0
300
3/4" = 1'-0"
140
0.75
141
12.0
290
     0
  0
SCALE
  5
64
102
{ACAD_REACTORS
330
47
102
}
330
47
100
AcDbScale
 70
     0
300
1" = 1'-0"
140
1.0
141
12.0
290
     0
  0
SCALE
  5
65
102
{ACAD_REACTORS
330
47
102
}
330
47
100
AcDbScale
 70
     0
300
1-1/2" = 1'-0"
140
1.5
141
12.0
290
     0
  0
SCALE
  5
66
102
{ACAD_REACTORS
330
47
102
}
330
47
100
AcDbScale
 70
     0
300
3" = 1'-0"
140
3.0
141
12.0
290
     0
  0
SCALE
  5
67
102
{ACAD_REACTORS
330
47
102
}
330
47
100
AcDbScale
 70
     0
300
6" = 1'-0"
140
6.0
141
12.0
290
     0
  0
SCALE
  5
68
102
{ACAD_REACTORS
330
47
102
}
330
47
100
AcDbScale
 70
     0
300
1'-0" = 1'-0"
140
12.0
141
12.0
290
     0
  0
VISUALSTYLE
  5
2F
102
{ACAD_REACTORS
330
2A
102
}
102
{ACAD_XDICTIONARY
360
4A3
102
}
330
2A
100
AcDbVisualStyle
  2
2dWireframe
 70
     4
177
     2
291
     0
 71
     0
176
     1
 72
     2
176
     1
 73
     0
176
     1
 90
        0
176
     1
 40
0.6
176
     1
 41
30.0
176
     1
 62
     5
 63
     7
421
 16777215
176
     1
 74
     1
176
     1
 91
        4
176
     1
 64
     7
176
     1
 65
   257
176
     1
 75
     1
176
     1
175
     1
176
     1
 42
1.0
176
     1
 92
        0
176
     1
 66
   257
176
     1
 43
1.0
176
     1
 76
     1
176
     1
 77
     6
176
     1
 78
     2
176
     1
 67
     7
176
     1
 79
     5
176
     1
170
     0
176
     1
171
     0
176
     1
290
     0
176
     1
 93
        1
176
     1
 44
0.0
176
     1
173
     0
176
     1
  0
VISUALSTYLE
  5
32
102
{ACAD_REACTORS
330
2A
102
}
102
{ACAD_XDICTIONARY
360
4A9
102
}
330
2A
100
AcDbVisualStyle
  2
Basic
 70
     7
177
     2
291
     1
 71
     1
176
     1
 72
     0
176
     1
 73
     1
176
     1
 90
        0
176
     1
 40
0.6
176
     1
 41
30.0
176
     1
 62
     5
 63
     7
421
 16777215
176
     1
 74
     0
176
     1
 91
        4
176
     1
 64
     7
176
     1
 65
   257
176
     1
 75
     1
176
     1
175
     1
176
     1
 42
1.0
176
     1
 92
        8
176
     1
 66
     7
176
     1
 43
1.0
176
     1
 76
     1
176
     1
 77
     6
176
     1
 78
     2
176
     1
 67
     7
176
     1
 79
     5
176
     1
170
     0
176
     1
171
     0
176
     1
290
     0
176
     1
 93
        1
176
     1
 44
0.0
176
     1
173
     0
176
     1
  0
VISUALSTYLE
  5
36
102
{ACAD_REACTORS
330
2A
102
}
102
{ACAD_XDICTIONARY
360
4B1
102
}
330
2A
100
AcDbVisualStyle
  2
Brighten
 70
    12
177
     2
291
     1
 71
     2
176
     1
 72
     2
176
     1
 73
     0
176
     1
 90
        0
176
     1
 40
0.6
176
     1
 41
30.0
176
     1
 62
     5
 63
     7
421
 16777215
176
     1
 74
     1
176
     1
 91
        4
176
     1
 64
     7
176
     1
 65
   257
176
     1
 75
     1
176
     1
175
     1
176
     1
 42
1.0
176
     1
 92
        8
176
     1
 66
     7
176
     1
 43
1.0
176
     1
 76
     1
176
     1
 77
     6
176
     1
 78
     2
176
     1
 67
     7
176
     1
 79
     5
176
     1
170
     0
176
     1
171
     0
176
     1
290
     0
176
     1
 93
        1
176
     1
 44
50.0
176
     1
173
     0
176
     1
  0
VISUALSTYLE
  5
3A
102
{ACAD_REACTORS
330
2A
102
}
102
{ACAD_XDICTIONARY
360
4B9
102
}
330
2A
100
AcDbVisualStyle
  2
ColorChange
 70
    16
177
     2
291
     1
 71
     2
176
     1
 72
     2
176
     1
 73
     3
176
     1
 90
        0
176
     1
 40
0.6
176
     1
 41
30.0
176
     1
 62
     5
 63
     8
421
  8421504
176
     1
 74
     1
176
     1
 91
        4
176
     1
 64
     7
176
     1
 65
   257
176
     1
 75
     1
176
     1
175
     1
176
     1
 42
1.0
176
     1
 92
        8
176
     1
 66
     8
424
  8421504
176
     1
 43
1.0
176
     1
 76
     1
176
     1
 77
     6
176
     1
 78
     2
176
     1
 67
     7
176
     1
 79
     5
176
     1
170
     0
176
     1
171
     0
176
     1
290
     0
176
     1
 93
        1
176
     1
 44
0.0
176
     1
173
     0
176
     1
  0
VISUALSTYLE
  5
34
102
{ACAD_REACTORS
330
2A
102
}
102
{ACAD_XDICTIONARY
360
4AD
102
}
330
2A
100
AcDbVisualStyle
  2
Conceptual
 70
     9
177
     2
291
     0
 71
     3
176
     1
 72
     2
176
     1
 73
     0
176
     1
 90
        0
176
     1
 40
0.6
176
     1
 41
30.0
176
     1
 62
     5
 63
     7
421
 16777215
176
     1
 74
     2
176
     1
 91
        2
176
     1
 64
     7
176
     1
 65
   257
176
     1
 75
     1
176
     1
175
     1
176
     1
 42
179.0
176
     1
 92
        8
176
     1
 66
     7
176
     1
 43
1.0
176
     1
 76
     1
176
     1
 77
     6
176
     1
 78
     2
176
     1
 67
     7
176
     1
 79
     3
176
     1
170
     0
176
     1
171
     0
176
     1
290
     0
176
     1
 93
        1
176
     1
 44
0.0
176
     1
173
     0
176
     1
  0
VISUALSTYLE
  5
35
102
{ACAD_REACTORS
330
2A
102
}
102
{ACAD_XDICTIONARY
360
4AF
102
}
330
2A
100
AcDbVisualStyle
  2
Dim
 70
    11
177
     2
291
     1
 71
     2
176
     1
 72
     2
176
     1
 73
     0
176
     1
 90
        0
176
     1
 40
0.6
176
     1
 41
30.0
176
     1
 62
     5
 63
     7
421
 16777215
176
     1
 74
     1
176
     1
 91
        4
176
     1
 64
     7
176
     1
 65
   257
176
     1
 75
     1
176
     1
175
     1
176
     1
 42
1.0
176
     1
 92
        8
176
     1
 66
     7
176
     1
 43
1.0
176
     1
 76
     1
176
     1
 77
     6
176
     1
 78
     2
176
     1
 67
     7
176
     1
 79
     5
176
     1
170
     0
176
     1
171
     0
176
     1
290
     0
176
     1
 93
        1
176
     1
 44
-50.0
176
     1
173
     0
176
     1
  0
VISUALSTYLE
  5
3D
102
{ACAD_REACTORS
330
2A
102
}
102
{ACAD_XDICTIONARY
360
4BF
102
}
330
2A
100
AcDbVisualStyle
  2
EdgeColorOff
 70
    22
177
     2
291
     1
 71
     2
176
     0
 72
     2
176
     0
 73
     0
176
     0
 90
        0
176
     0
 40
0.6
176
     0
 41
30.0
176
     0
 62
     5
 63
     7
421
 16777215
176
     0
 74
     1
176
     0
 91
        4
176
     0
 64
     7
176
     0
 65
   257
176
     0
 75
     1
176
     0
175
     1
176
     0
 42
1.0
176
     0
 92
        8
176
     2
 66
     7
176
     0
 43
1.0
176
     0
 76
     1
176
     0
 77
     6
176
     0
 78
     2
176
     0
 67
     7
176
     0
 79
     5
176
     0
170
     0
176
     0
171
     0
176
     0
290
     0
176
     0
 93
        1
176
     0
 44
0.0
176
     0
173
     0
176
     0
  0
VISUALSTYLE
  5
39
102
{ACAD_REACTORS
330
2A
102
}
102
{ACAD_XDICTIONARY
360
4B7
102
}
330
2A
100
AcDbVisualStyle
  2
Facepattern
 70
    15
177
     2
291
     1
 71
     2
176
     1
 72
     2
176
     1
 73
     0
176
     1
 90
        0
176
     1
 40
0.6
176
     1
 41
30.0
176
     1
 62
     5
 63
     7
421
 16777215
176
     1
 74
     1
176
     1
 91
        4
176
     1
 64
     7
176
     1
 65
   257
176
     1
 75
     1
176
     1
175
     1
176
     1
 42
1.0
176
     1
 92
        8
176
     1
 66
     7
176
     1
 43
1.0
176
     1
 76
     1
176
     1
 77
     6
176
     1
 78
     2
176
     1
 67
     7
176
     1
 79
     5
176
     1
170
     0
176
     1
171
     0
176
     1
290
     0
176
     1
 93
        1
176
     1
 44
0.0
176
     1
173
     0
176
     1
  0
VISUALSTYLE
  5
2B
102
{ACAD_REACTORS
330
2A
102
}
102
{ACAD_XDICTIONARY
360
49B
102
}
330
2A
100
AcDbVisualStyle
  2
Flat
 70
     0
177
     2
291
     1
 71
     2
176
     1
 72
     1
176
     1
 73
     1
176
     1
 90
        2
176
     1
 40
0.6
176
     1
 41
30.0
176
     1
 62
     5
 63
     7
421
 16777215
176
     1
 74
     0
176
     1
 91
        0
176
     1
 64
     7
176
     1
 65
   257
176
     1
 75
     1
176
     1
175
     1
176
     1
 42
1.0
176
     1
 92
        8
176
     1
 66
     7
176
     1
 43
1.0
176
     1
 76
     1
176
     1
 77
     6
176
     1
 78
     2
176
     1
 67
     7
176
     1
 79
     5
176
     1
170
     0
176
     1
171
     0
176
     1
290
     0
176
     1
 93
       13
176
     1
 44
0.0
176
     1
173
     0
176
     1
  0
VISUALSTYLE
  5
2C
102
{ACAD_REACTORS
330
2A
102
}
102
{ACAD_XDICTIONARY
360
49D
102
}
330
2A
100
AcDbVisualStyle
  2
FlatWithEdges
 70
     1
177
     2
291
     1
 71
     2
176
     1
 72
     1
176
     1
 73
     1
176
     1
 90
        2
176
     1
 40
0.6
176
     1
 41
30.0
176
     1
 62
     5
 63
     7
421
 16777215
176
     1
 74
     1
176
     1
 91
        0
176
     1
 64
     7
176
     1
 65
   257
176
     1
 75
     1
176
     1
175
     1
176
     1
 42
1.0
176
     1
 92
        0
176
     1
 66
   257
176
     1
 43
1.0
176
     1
 76
     1
176
     1
 77
     6
176
     1
 78
     2
176
     1
 67
     7
176
     1
 79
     5
176
     1
170
     0
176
     1
171
     0
176
     1
290
     0
176
     1
 93
       13
176
     1
 44
0.0
176
     1
173
     0
176
     1
  0
VISUALSTYLE
  5
2D
102
{ACAD_REACTORS
330
2A
102
}
102
{ACAD_XDICTIONARY
360
49F
102
}
330
2A
100
AcDbVisualStyle
  2
Gouraud
 70
     2
177
     2
291
     1
 71
     2
176
     1
 72
     2
176
     1
 73
     1
176
     1
 90
        2
176
     1
 40
0.6
176
     1
 41
30.0
176
     1
 62
     5
 63
     7
421
 16777215
176
     1
 74
     0
176
     1
 91
        0
176
     1
 64
     7
176
     1
 65
   257
176
     1
 75
     1
176
     1
175
     1
176
     1
 42
1.0
176
     1
 92
        0
176
     1
 66
     7
176
     1
 43
1.0
176
     1
 76
     1
176
     1
 77
     6
176
     1
 78
     2
176
     1
 67
     7
176
     1
 79
     5
176
     1
170
     0
176
     1
171
     0
176
     1
290
     0
176
     1
 93
       13
176
     1
 44
0.0
176
     1
173
     0
176
     1
  0
VISUALSTYLE
  5
2E
102
{ACAD_REACTORS
330
2A
102
}
102
{ACAD_XDICTIONARY
360
4A1
102
}
330
2A
100
AcDbVisualStyle
  2
GouraudWithEdges
 70
     3
177
     2
291
     1
 71
     2
176
     1
 72
     2
176
     1
 73
     1
176
     1
 90
        2
176
     1
 40
0.6
176
     1
 41
30.0
176
     1
 62
     5
 63
     7
421
 16777215
176
     1
 74
     1
176
     1
 91
        0
176
     1
 64
     7
176
     1
 65
   257
176
     1
 75
     1
176
     1
175
     1
176
     1
 42
1.0
176
     1
 92
        0
176
     1
 66
   257
176
     1
 43
1.0
176
     1
 76
     1
176
     1
 77
     6
176
     1
 78
     2
176
     1
 67
     7
176
     1
 79
     5
176
     1
170
     0
176
     1
171
     0
176
     1
290
     0
176
     1
 93
       13
176
     1
 44
0.0
176
     1
173
     0
176
     1
  0
VISUALSTYLE
  5
31
102
{ACAD_REACTORS
330
2A
102
}
102
{ACAD_XDICTIONARY
360
4A7
102
}
330
2A
100
AcDbVisualStyle
  2
Hidden
 70
     6
177
     2
291
     0
 71
     1
176
     1
 72
     2
176
     1
 73
     2
176
     1
 90
        0
176
     1
 40
0.6
176
     1
 41
30.0
176
     1
 62
     5
 63
     7
421
 16777215
176
     1
 74
     2
176
     1
 91
        2
176
     1
 64
     7
176
     1
 65
   257
176
     1
 75
     2
176
     1
175
     1
176
     1
 42
40.0
176
     1
 92
        0
176
     1
 66
   257
176
     1
 43
1.0
176
     1
 76
     1
176
     1
 77
     6
176
     1
 78
     2
176
     1
 67
     7
176
     1
 79
     3
176
     1
170
     0
176
     1
171
     0
176
     1
290
     0
176
     1
 93
        1
176
     1
 44
0.0
176
     1
173
     0
176
     1
  0
VISUALSTYLE
  5
3B
102
{ACAD_REACTORS
330
2A
102
}
102
{ACAD_XDICTIONARY
360
4BB
102
}
330
2A
100
AcDbVisualStyle
  2
JitterOff
 70
    20
177
     2
291
     1
 71
     2
176
     0
 72
     2
176
     0
 73
     0
176
     0
 90
        0
176
     0
 40
0.6
176
     0
 41
30.0
176
     0
 62
     5
 63
     7
421
 16777215
176
     0
 74
     1
176
     0
 91
        4
176
     0
 64
     7
176
     0
 65
   257
176
     0
 75
     1
176
     0
175
     1
176
     0
 42
1.0
176
     0
 92
       10
176
     2
 66
     7
176
     0
 43
1.0
176
     0
 76
     1
176
     0
 77
     6
176
     0
 78
     2
176
     0
 67
     7
176
     0
 79
     5
176
     0
170
     0
176
     0
171
     0
176
     0
290
     0
176
     0
 93
        1
176
     0
 44
0.0
176
     0
173
     0
176
     0
  0
VISUALSTYLE
  5
38
102
{ACAD_REACTORS
330
2A
102
}
102
{ACAD_XDICTIONARY
360
4B5
102
}
330
2A
100
AcDbVisualStyle
  2
Linepattern
 70
    14
177
     2
291
     1
 71
     2
176
     1
 72
     2
176
     1
 73
     0
176
     1
 90
        0
176
     1
 40
0.6
176
     1
 41
30.0
176
     1
 62
     5
 63
     7
421
 16777215
176
     1
 74
     1
176
     1
 91
        4
176
     1
 64
     7
176
     1
 65
   257
176
     1
 75
     7
176
     1
175
     7
176
     1
 42
1.0
176
     1
 92
        8
176
     1
 66
     7
176
     1
 43
1.0
176
     1
 76
     1
176
     1
 77
     6
176
     1
 78
     2
176
     1
 67
     7
176
     1
 79
     5
176
     1
170
     0
176
     1
171
     0
176
     1
290
     0
176
     1
 93
        1
176
     1
 44
0.0
176
     1
173
     0
176
     1
  0
VISUALSTYLE
  5
3C
102
{ACAD_REACTORS
330
2A
102
}
102
{ACAD_XDICTIONARY
360
4BD
102
}
330
2A
100
AcDbVisualStyle
  2
OverhangOff
 70
    21
177
     2
291
     1
 71
     2
176
     0
 72
     2
176
     0
 73
     0
176
     0
 90
        0
176
     0
 40
0.6
176
     0
 41
30.0
176
     0
 62
     5
 63
     7
421
 16777215
176
     0
 74
     1
176
     0
 91
        4
176
     0
 64
     7
176
     0
 65
   257
176
     0
 75
     1
176
     0
175
     1
176
     0
 42
1.0
176
     0
 92
        9
176
     2
 66
     7
176
     0
 43
1.0
176
     0
 76
     1
176
     0
 77
     6
176
     0
 78
     2
176
     0
 67
     7
176
     0
 79
     5
176
     0
170
     0
176
     0
171
     0
176
     0
290
     0
176
     0
 93
        1
176
     0
 44
0.0
176
     0
173
     0
176
     0
  0
VISUALSTYLE
  5
33
102
{ACAD_REACTORS
330
2A
102
}
102
{ACAD_XDICTIONARY
360
4AB
102
}
330
2A
100
AcDbVisualStyle
  2
Realistic
 70
     8
177
     2
291
     0
 71
     2
176
     1
 72
     3
176
     1
 73
     0
176
     1
 90
        2
176
     1
 40
0.6
176
     1
 41
30.0
176
     1
 62
     5
 63
     7
421
 16777215
176
     1
 74
     0
176
     1
 91
        0
176
     1
 64
     7
176
     1
 65
   257
176
     1
 75
     1
176
     1
175
     1
176
     1
 42
1.0
176
     1
 92
        8
176
     1
 66
   257
176
     1
 43
1.0
176
     1
 76
     1
176
     1
 77
     6
176
     1
 78
     2
176
     1
 67
     7
176
     1
 79
     3
176
     1
170
     0
176
     1
171
     0
176
     1
290
     0
176
     1
 93
       13
176
     1
 44
0.0
176
     1
173
     0
176
     1
  0
VISUALSTYLE
  5
42
102
{ACAD_REACTORS
330
2A
102
}
102
{ACAD_XDICTIONARY
360
4C9
102
}
330
2A
100
AcDbVisualStyle
  2
Shaded
 70
    27
177
     2
291
     0
 71
     2
176
     1
 72
     2
176
     1
 73
     1
176
     1
 90
        2
176
     1
 40
0.6
176
     1
 41
30.0
176
     1
 62
     5
 63
     7
421
 16777215
176
     1
 74
     0
176
     1
 91
        4
176
     1
 64
     7
176
     1
 65
   257
176
     1
 75
     1
176
     1
175
     1
176
     1
 42
1.0
176
     1
 92
        8
176
     1
 66
   257
176
     1
 43
1.0
176
     1
 76
     1
176
     1
 77
     6
176
     1
 78
     2
176
     1
 67
     8
425
  7895160
176
     1
 79
     3
176
     1
170
     0
176
     1
171
     0
176
     1
290
     0
176
     1
 93
        5
176
     1
 44
0.0
176
     1
173
     0
176
     1
  0
VISUALSTYLE
  5
41
102
{ACAD_REACTORS
330
2A
102
}
102
{ACAD_XDICTIONARY
360
4C7
102
}
330
2A
100
AcDbVisualStyle
  2
Shaded with edges
 70
    26
177
     2
291
     0
 71
     2
176
     1
 72
     2
176
     1
 73
     1
176
     1
 90
        2
176
     1
 40
0.6
176
     1
 41
30.0
176
     1
 62
     5
 63
     7
421
 16777215
176
     1
 74
     1
176
     1
 91
       10
176
     1
 64
     7
176
     1
 65
   257
176
     1
 75
     2
176
     1
175
     1
176
     1
 42
1.0
176
     1
 92
        8
176
     1
 66
   257
176
     1
 43
1.0
176
     1
 76
     1
176
     1
 77
     6
176
     1
 78
     2
176
     1
 67
     7
176
     1
 79
     3
176
     1
170
     0
176
     1
171
     0
176
     1
290
     0
176
     1
 93
        5
176
     1
 44
0.0
176
     1
173
     0
176
     1
  0
VISUALSTYLE
  5
3E
102
{ACAD_REACTORS
330
2A
102
}
102
{ACAD_XDICTIONARY
360
4C1
102
}
330
2A
100
AcDbVisualStyle
  2
Shades of Gray
 70
    23
177
     2
291
     0
 71
     2
176
     1
 72
     2
176
     1
 73
     3
176
     1
 90
        0
176
     1
 40
0.6
176
     1
 41
30.0
176
     1
 62
     5
 63
     7
421
 16777215
176
     1
 74
     2
176
     1
 91
        2
176
     1
 64
     7
176
     1
 65
     7
176
     1
 75
     1
176
     1
175
     1
176
     1
 42
40.0
176
     1
 92
        8
176
     1
 66
     7
176
     1
 43
1.0
176
     1
 76
     1
176
     1
 77
     6
176
     1
 78
     2
176
     1
 67
     7
176
     1
 79
     3
176
     1
170
     0
176
     1
171
     0
176
     1
290
     0
176
     1
 93
        1
176
     1
 44
0.0
176
     1
173
     0
176
     1
  0
VISUALSTYLE
  5
3F
102
{ACAD_REACTORS
330
2A
102
}
102
{ACAD_XDICTIONARY
360
4C3
102
}
330
2A
100
AcDbVisualStyle
  2
Sketchy
 70
    24
177
     2
291
     0
 71
     1
176
     1
 72
     2
176
     1
 73
     2
176
     1
 90
        0
176
     1
 40
0.6
176
     1
 41
30.0
176
     1
 62
     5
 63
     7
421
 16777215
176
     1
 74
     2
176
     1
 91
        2
176
     1
 64
     7
176
     1
 65
     7
176
     1
 75
     1
176
     1
175
     1
176
     1
 42
40.0
176
     1
 92
       11
176
     1
 66
     7
176
     1
 43
1.0
176
     1
 76
     1
176
     1
 77
     6
176
     1
 78
     2
176
     1
 67
     7
176
     1
 79
     6
176
     1
170
     0
176
     1
171
     0
176
     1
290
     0
176
     1
 93
        1
176
     1
 44
0.0
176
     1
173
     0
176
     1
  0
VISUALSTYLE
  5
37
102
{ACAD_REACTORS
330
2A
102
}
102
{ACAD_XDICTIONARY
360
4B3
102
}
330
2A
100
AcDbVisualStyle
  2
Thicken
 70
    13
177
     2
291
     1
 71
     2
176
     1
 72
     2
176
     1
 73
     0
176
     1
 90
        0
176
     1
 40
0.6
176
     1
 41
30.0
176
     1
 62
     5
 63
     7
421
 16777215
176
     1
 74
     1
176
     1
 91
        4
176
     1
 64
     7
176
     1
 65
   257
176
     1
 75
     1
176
     1
175
     1
176
     1
 42
1.0
176
     1
 92
       12
176
     1
 66
     7
176
     1
 43
1.0
176
     1
 76
     1
176
     1
 77
     6
176
     1
 78
     2
176
     1
 67
     7
176
     1
 79
     5
176
     1
170
     0
176
     1
171
     0
176
     1
290
     0
176
     1
 93
        1
176
     1
 44
0.0
176
     1
173
     0
176
     1
  0
VISUALSTYLE
  5
30
102
{ACAD_REACTORS
330
2A
102
}
102
{ACAD_XDICTIONARY
360
4A5
102
}
330
2A
100
AcDbVisualStyle
  2
Wireframe
 70
     5
177
     2
291
     0
 71
     0
176
     1
 72
     2
176
     1
 73
     0
176
     1
 90
        0
176
     1
 40
0.6
176
     1
 41
30.0
176
     1
 62
     5
 63
     7
421
 16777215
176
     1
 74
     1
176
     1
 91
        4
176
     1
 64
     7
176
     1
 65
   257
176
     1
 75
     1
176
     1
175
     1
176
     1
 42
1.0
176
     1
 92
        0
176
     1
 66
   257
176
     1
 43
1.0
176
     1
 76
     1
176
     1
 77
     6
176
     1
 78
     2
176
     1
 67
     7
176
     1
 79
     3
176
     1
170
     0
176
     1
171
     0
176
     1
290
     0
176
     1
 93
        1
176
     1
 44
0.0
176
     1
173
     0
176
     1
  0
VISUALSTYLE
  5
40
102
{ACAD_REACTORS
330
2A
102
}
102
{ACAD_XDICTIONARY
360
4C5
102
}
330
2A
100
AcDbVisualStyle
  2
X-Ray
 70
    25
177
     2
291
     0
 71
     2
176
     1
 72
     2
176
     1
 73
     1
176
     1
 90
        1
176
     1
 40
0.5
176
     1
 41
30.0
176
     1
 62
     5
 63
     7
421
 16777215
176
     1
 74
     1
176
     1
 91
        0
176
     1
 64
     7
176
     1
 65
   257
176
     1
 75
     1
176
     1
175
     1
176
     1
 42
1.0
176
     1
 92
        8
176
     1
 66
     7
176
     1
 43
1.0
176
     1
 76
     1
176
     1
 77
     6
176
     1
 78
     2
176
     1
 67
     7
176
     1
 79
     3
176
     1
170
     0
176
     1
171
     0
176
     1
290
     0
176
     1
 93
       13
176
     1
 44
0.0
176
     1
173
     0
176
     1
  0
DICTIONARYVAR
  5
49A
102
{ACAD_REACTORS
330
499
102
}
330
499
100
DictionaryVariables
280
     0
  1
1:1
  0
DICTIONARY
  5
4A3
330
2F
100
AcDbDictionary
280
     1
281
     1
  3
ACAD_XREC_ROUNDTRIP
360
4A4
  0
DICTIONARY
  5
4A9
330
32
100
AcDbDictionary
280
     1
281
     1
  3
ACAD_XREC_ROUNDTRIP
360
4AA
  0
DICTIONARY
  5
4B1
330
36
100
AcDbDictionary
280
     1
281
     1
  3
ACAD_XREC_ROUNDTRIP
360
4B2
  0
DICTIONARY
  5
4B9
330
3A
100
AcDbDictionary
280
     1
281
     1
  3
ACAD_XREC_ROUNDTRIP
360
4BA
  0
DICTIONARY
  5
4AD
330
34
100
AcDbDictionary
280
     1
281
     1
  3
ACAD_XREC_ROUNDTRIP
360
4AE
  0
DICTIONARY
  5
4AF
330
35
100
AcDbDictionary
280
     1
281
     1
  3
ACAD_XREC_ROUNDTRIP
360
4B0
  0
DICTIONARY
  5
4BF
330
3D
100
AcDbDictionary
280
     1
281
     1
  3
ACAD_XREC_ROUNDTRIP
360
4C0
  0
DICTIONARY
  5
4B7
330
39
100
AcDbDictionary
280
     1
281
     1
  3
ACAD_XREC_ROUNDTRIP
360
4B8
  0
DICTIONARY
  5
49B
330
2B
100
AcDbDictionary
280
     1
281
     1
  3
ACAD_XREC_ROUNDTRIP
360
49C
  0
DICTIONARY
  5
49D
330
2C
100
AcDbDictionary
280
     1
281
     1
  3
ACAD_XREC_ROUNDTRIP
360
49E
  0
DICTIONARY
  5
49F
330
2D
100
AcDbDictionary
280
     1
281
     1
  3
ACAD_XREC_ROUNDTRIP
360
4A0
  0
DICTIONARY
  5
4A1
330
2E
100
AcDbDictionary
280
     1
281
     1
  3
ACAD_XREC_ROUNDTRIP
360
4A2
  0
DICTIONARY
  5
4A7
330
31
100
AcDbDictionary
280
     1
281
     1
  3
ACAD_XREC_ROUNDTRIP
360
4A8
  0
DICTIONARY
  5
4BB
330
3B
100
AcDbDictionary
280
     1
281
     1
  3
ACAD_XREC_ROUNDTRIP
360
4BC
  0
DICTIONARY
  5
4B5
330
38
100
AcDbDictionary
280
     1
281
     1
  3
ACAD_XREC_ROUNDTRIP
360
4B6
  0
DICTIONARY
  5
4BD
330
3C
100
AcDbDictionary
280
     1
281
     1
  3
ACAD_XREC_ROUNDTRIP
360
4BE
  0
DICTIONARY
  5
4AB
330
33
100
AcDbDictionary
280
     1
281
     1
  3
ACAD_XREC_ROUNDTRIP
360
4AC
  0
DICTIONARY
  5
4C9
330
42
100
AcDbDictionary
280
     1
281
     1
  3
ACAD_XREC_ROUNDTRIP
360
4CA
  0
DICTIONARY
  5
4C7
330
41
100
AcDbDictionary
280
     1
281
     1
  3
ACAD_XREC_ROUNDTRIP
360
4C8
  0
DICTIONARY
  5
4C1
330
3E
100
AcDbDictionary
280
     1
281
     1
  3
ACAD_XREC_ROUNDTRIP
360
4C2
  0
DICTIONARY
  5
4C3
330
3F
100
AcDbDictionary
280
     1
281
     1
  3
ACAD_XREC_ROUNDTRIP
360
4C4
  0
DICTIONARY
  5
4B3
330
37
100
AcDbDictionary
280
     1
281
     1
  3
ACAD_XREC_ROUNDTRIP
360
4B4
  0
DICTIONARY
  5
4A5
330
30
100
AcDbDictionary
280
     1
281
     1
  3
ACAD_XREC_ROUNDTRIP
360
4A6
  0
DICTIONARY
  5
4C5
330
40
100
AcDbDictionary
280
     1
281
     1
  3
ACAD_XREC_ROUNDTRIP
360
4C6
  0
XRECORD
  5
4A4
102
{ACAD_REACTORS
330
4A3
102
}
330
4A3
100
AcDbXrecord
280
     1
102
RTVSPost2010Prop28
280
     1
102
RTVSPost2010PropOp28
 70
     1
102
RTVSPost2010Prop29
280
     1
102
RTVSPost2010PropOp29
 70
     1
102
RTVSPost2010Prop30
280
     0
102
RTVSPost2010PropOp30
 70
     1
102
RTVSPost2010Prop31
280
     0
102
RTVSPost2010PropOp31
 70
     1
102
RTVSPost2010Prop32
280
     0
102
RTVSPost2010PropOp32
 70
     1
102
RTVSPost2010Prop33
280
     0
102
RTVSPost2010PropOp33
 70
     1
102
RTVSPost2010Prop34
280
     0
102
RTVSPost2010PropOp34
 70
     1
102
RTVSPost2010Prop35
280
     0
102
RTVSPost2010PropOp35
 70
     1
102
RTVSPost2010Prop36
280
     0
102
RTVSPost2010PropOp36
 70
     1
102
RTVSPost2010Prop37
 90
       50
102
RTVSPost2010PropOp37
 70
     1
102
RTVSPost2010Prop38
140
0.0
102
RTVSPost2010PropOp38
 70
     1
102
RTVSPost2010Prop39
140
1.0
102
RTVSPost2010PropOp39
 70
     1
102
RTVSPost2010Prop40
 90
        0
102
RTVSPost2010PropOp40
 70
     1
102
RTVSPost2010Prop41ColorIndex
 90
       18
102
RTVSPost2010Prop41ColorRGB
 90
        0
102
RTVSPost2010PropOp41
 70
     1
102
RTVSPost2010Prop42
 90
       50
102
RTVSPost2010PropOp42
 70
     1
102
RTVSPost2010Prop43
 90
        3
102
RTVSPost2010PropOp43
 70
     1
102
RTVSPost2010Prop44ColorIndex
 90
        5
102
RTVSPost2010Prop44ColorRGB
 90
      255
102
RTVSPost2010PropOp44
 70
     1
102
RTVSPost2010Prop45
280
     0
102
RTVSPost2010PropOp45
 70
     1
102
RTVSPost2010Prop46
 90
       50
102
RTVSPost2010PropOp46
 70
     1
102
RTVSPost2010Prop47
 90
       50
102
RTVSPost2010PropOp47
 70
     1
102
RTVSPost2010Prop48
 90
       50
102
RTVSPost2010PropOp48
 70
     1
102
RTVSPost2010Prop49
280
     0
102
RTVSPost2010PropOp49
 70
     1
102
RTVSPost2010Prop50
 90
       50
102
RTVSPost2010PropOp50
 70
     1
102
RTVSPost2010Prop51ColorIndex
 90
      256
102
RTVSPost2010Prop51ColorRGB
 90
-16777216
102
RTVSPost2010PropOp51
 70
     0
102
RTVSPost2010Prop52
140
1.0
102
RTVSPost2010PropOp52
 70
     0
102
RTVSPost2010Prop53
 90
        2
102
RTVSPost2010PropOp53
 70
     1
102
RTVSPost2010Prop54
  1
strokes_ogs.tif
102
RTVSPost2010PropOp54
 70
     1
102
RTVSPost2010Prop55
280
     0
102
RTVSPost2010PropOp55
 70
     1
102
RTVSPost2010Prop56
140
1.0
102
RTVSPost2010PropOp56
 70
     1
102
RTVSPost2010Prop57
140
1.0
102
RTVSPost2010PropOp57
 70
     1
  0
XRECORD
  5
4AA
102
{ACAD_REACTORS
330
4A9
102
}
330
4A9
100
AcDbXrecord
280
     1
102
RTVSPost2010Prop28
280
     0
102
RTVSPost2010PropOp28
 70
     1
102
RTVSPost2010Prop29
280
     1
102
RTVSPost2010PropOp29
 70
     1
102
RTVSPost2010Prop30
280
     1
102
RTVSPost2010PropOp30
 70
     1
102
RTVSPost2010Prop31
280
     0
102
RTVSPost2010PropOp31
 70
     1
102
RTVSPost2010Prop32
280
     0
102
RTVSPost2010PropOp32
 70
     1
102
RTVSPost2010Prop33
280
     0
102
RTVSPost2010PropOp33
 70
     1
102
RTVSPost2010Prop34
280
     0
102
RTVSPost2010PropOp34
 70
     1
102
RTVSPost2010Prop35
280
     0
102
RTVSPost2010PropOp35
 70
     1
102
RTVSPost2010Prop36
280
     0
102
RTVSPost2010PropOp36
 70
     1
102
RTVSPost2010Prop37
 90
       50
102
RTVSPost2010PropOp37
 70
     1
102
RTVSPost2010Prop38
140
0.0
102
RTVSPost2010PropOp38
 70
     1
102
RTVSPost2010Prop39
140
1.0
102
RTVSPost2010PropOp39
 70
     1
102
RTVSPost2010Prop40
 90
        0
102
RTVSPost2010PropOp40
 70
     1
102
RTVSPost2010Prop41ColorIndex
 90
       18
102
RTVSPost2010Prop41ColorRGB
 90
        0
102
RTVSPost2010PropOp41
 70
     1
102
RTVSPost2010Prop42
 90
       50
102
RTVSPost2010PropOp42
 70
     1
102
RTVSPost2010Prop43
 90
        3
102
RTVSPost2010PropOp43
 70
     1
102
RTVSPost2010Prop44ColorIndex
 90
        5
102
RTVSPost2010Prop44ColorRGB
 90
      255
102
RTVSPost2010PropOp44
 70
     1
102
RTVSPost2010Prop45
280
     0
102
RTVSPost2010PropOp45
 70
     1
102
RTVSPost2010Prop46
 90
       50
102
RTVSPost2010PropOp46
 70
     1
102
RTVSPost2010Prop47
 90
       50
102
RTVSPost2010PropOp47
 70
     1
102
RTVSPost2010Prop48
 90
       50
102
RTVSPost2010PropOp48
 70
     1
102
RTVSPost2010Prop49
280
     0
102
RTVSPost2010PropOp49
 70
     1
102
RTVSPost2010Prop50
 90
       50
102
RTVSPost2010PropOp50
 70
     1
102
RTVSPost2010Prop51ColorIndex
 90
      256
102
RTVSPost2010Prop51ColorRGB
 90
-16777216
102
RTVSPost2010PropOp51
 70
     0
102
RTVSPost2010Prop52
140
1.0
102
RTVSPost2010PropOp52
 70
     0
102
RTVSPost2010Prop53
 90
        2
102
RTVSPost2010PropOp53
 70
     1
102
RTVSPost2010Prop54
  1
strokes_ogs.tif
102
RTVSPost2010PropOp54
 70
     1
102
RTVSPost2010Prop55
280
     0
102
RTVSPost2010PropOp55
 70
     1
102
RTVSPost2010Prop56
140
1.0
102
RTVSPost2010PropOp56
 70
     1
102
RTVSPost2010Prop57
140
1.0
102
RTVSPost2010PropOp57
 70
     1
  0
XRECORD
  5
4B2
102
{ACAD_REACTORS
330
4B1
102
}
330
4B1
100
AcDbXrecord
280
     1
102
RTVSPost2010Prop28
280
     0
102
RTVSPost2010PropOp28
 70
     1
102
RTVSPost2010Prop29
280
     1
102
RTVSPost2010PropOp29
 70
     1
102
RTVSPost2010Prop30
280
     1
102
RTVSPost2010PropOp30
 70
     1
102
RTVSPost2010Prop31
280
     0
102
RTVSPost2010PropOp31
 70
     1
102
RTVSPost2010Prop32
280
     0
102
RTVSPost2010PropOp32
 70
     1
102
RTVSPost2010Prop33
280
     0
102
RTVSPost2010PropOp33
 70
     1
102
RTVSPost2010Prop34
280
     0
102
RTVSPost2010PropOp34
 70
     1
102
RTVSPost2010Prop35
280
     0
102
RTVSPost2010PropOp35
 70
     1
102
RTVSPost2010Prop36
280
     0
102
RTVSPost2010PropOp36
 70
     1
102
RTVSPost2010Prop37
 90
       50
102
RTVSPost2010PropOp37
 70
     1
102
RTVSPost2010Prop38
140
0.0
102
RTVSPost2010PropOp38
 70
     1
102
RTVSPost2010Prop39
140
1.0
102
RTVSPost2010PropOp39
 70
     1
102
RTVSPost2010Prop40
 90
        0
102
RTVSPost2010PropOp40
 70
     1
102
RTVSPost2010Prop41ColorIndex
 90
       18
102
RTVSPost2010Prop41ColorRGB
 90
        0
102
RTVSPost2010PropOp41
 70
     1
102
RTVSPost2010Prop42
 90
       50
102
RTVSPost2010PropOp42
 70
     1
102
RTVSPost2010Prop43
 90
        3
102
RTVSPost2010PropOp43
 70
     1
102
RTVSPost2010Prop44ColorIndex
 90
        5
102
RTVSPost2010Prop44ColorRGB
 90
      255
102
RTVSPost2010PropOp44
 70
     1
102
RTVSPost2010Prop45
280
     0
102
RTVSPost2010PropOp45
 70
     1
102
RTVSPost2010Prop46
 90
       50
102
RTVSPost2010PropOp46
 70
     1
102
RTVSPost2010Prop47
 90
       50
102
RTVSPost2010PropOp47
 70
     1
102
RTVSPost2010Prop48
 90
       50
102
RTVSPost2010PropOp48
 70
     1
102
RTVSPost2010Prop49
280
     0
102
RTVSPost2010PropOp49
 70
     1
102
RTVSPost2010Prop50
 90
       50
102
RTVSPost2010PropOp50
 70
     1
102
RTVSPost2010Prop51ColorIndex
 90
      256
102
RTVSPost2010Prop51ColorRGB
 90
-16777216
102
RTVSPost2010PropOp51
 70
     0
102
RTVSPost2010Prop52
140
1.0
102
RTVSPost2010PropOp52
 70
     0
102
RTVSPost2010Prop53
 90
        2
102
RTVSPost2010PropOp53
 70
     1
102
RTVSPost2010Prop54
  1
strokes_ogs.tif
102
RTVSPost2010PropOp54
 70
     1
102
RTVSPost2010Prop55
280
     0
102
RTVSPost2010PropOp55
 70
     1
102
RTVSPost2010Prop56
140
1.0
102
RTVSPost2010PropOp56
 70
     1
102
RTVSPost2010Prop57
140
1.0
102
RTVSPost2010PropOp57
 70
     1
  0
XRECORD
  5
4BA
102
{ACAD_REACTORS
330
4B9
102
}
330
4B9
100
AcDbXrecord
280
     1
102
RTVSPost2010Prop28
280
     0
102
RTVSPost2010PropOp28
 70
     1
102
RTVSPost2010Prop29
280
     1
102
RTVSPost2010PropOp29
 70
     1
102
RTVSPost2010Prop30
280
     1
102
RTVSPost2010PropOp30
 70
     1
102
RTVSPost2010Prop31
280
     0
102
RTVSPost2010PropOp31
 70
     1
102
RTVSPost2010Prop32
280
     0
102
RTVSPost2010PropOp32
 70
     1
102
RTVSPost2010Prop33
280
     0
102
RTVSPost2010PropOp33
 70
     1
102
RTVSPost2010Prop34
280
     0
102
RTVSPost2010PropOp34
 70
     1
102
RTVSPost2010Prop35
280
     0
102
RTVSPost2010PropOp35
 70
     1
102
RTVSPost2010Prop36
280
     0
102
RTVSPost2010PropOp36
 70
     1
102
RTVSPost2010Prop37
 90
       50
102
RTVSPost2010PropOp37
 70
     1
102
RTVSPost2010Prop38
140
0.0
102
RTVSPost2010PropOp38
 70
     1
102
RTVSPost2010Prop39
140
1.0
102
RTVSPost2010PropOp39
 70
     1
102
RTVSPost2010Prop40
 90
        0
102
RTVSPost2010PropOp40
 70
     1
102
RTVSPost2010Prop41ColorIndex
 90
       18
102
RTVSPost2010Prop41ColorRGB
 90
        0
102
RTVSPost2010PropOp41
 70
     1
102
RTVSPost2010Prop42
 90
       50
102
RTVSPost2010PropOp42
 70
     1
102
RTVSPost2010Prop43
 90
        3
102
RTVSPost2010PropOp43
 70
     1
102
RTVSPost2010Prop44ColorIndex
 90
        5
102
RTVSPost2010Prop44ColorRGB
 90
      255
102
RTVSPost2010PropOp44
 70
     1
102
RTVSPost2010Prop45
280
     0
102
RTVSPost2010PropOp45
 70
     1
102
RTVSPost2010Prop46
 90
       50
102
RTVSPost2010PropOp46
 70
     1
102
RTVSPost2010Prop47
 90
       50
102
RTVSPost2010PropOp47
 70
     1
102
RTVSPost2010Prop48
 90
       50
102
RTVSPost2010PropOp48
 70
     1
102
RTVSPost2010Prop49
280
     0
102
RTVSPost2010PropOp49
 70
     1
102
RTVSPost2010Prop50
 90
       50
102
RTVSPost2010PropOp50
 70
     1
102
RTVSPost2010Prop51ColorIndex
 90
      256
102
RTVSPost2010Prop51ColorRGB
 90
-16777216
102
RTVSPost2010PropOp51
 70
     0
102
RTVSPost2010Prop52
140
1.0
102
RTVSPost2010PropOp52
 70
     0
102
RTVSPost2010Prop53
 90
        2
102
RTVSPost2010PropOp53
 70
     1
102
RTVSPost2010Prop54
  1
strokes_ogs.tif
102
RTVSPost2010PropOp54
 70
     1
102
RTVSPost2010Prop55
280
     0
102
RTVSPost2010PropOp55
 70
     1
102
RTVSPost2010Prop56
140
1.0
102
RTVSPost2010PropOp56
 70
     1
102
RTVSPost2010Prop57
140
1.0
102
RTVSPost2010PropOp57
 70
     1
  0
XRECORD
  5
4AE
102
{ACAD_REACTORS
330
4AD
102
}
330
4AD
100
AcDbXrecord
280
     1
102
RTVSPost2010Prop28
280
     0
102
RTVSPost2010PropOp28
 70
     1
102
RTVSPost2010Prop29
280
     1
102
RTVSPost2010PropOp29
 70
     1
102
RTVSPost2010Prop30
280
     1
102
RTVSPost2010PropOp30
 70
     1
102
RTVSPost2010Prop31
280
     0
102
RTVSPost2010PropOp31
 70
     1
102
RTVSPost2010Prop32
280
     0
102
RTVSPost2010PropOp32
 70
     1
102
RTVSPost2010Prop33
280
     0
102
RTVSPost2010PropOp33
 70
     1
102
RTVSPost2010Prop34
280
     0
102
RTVSPost2010PropOp34
 70
     1
102
RTVSPost2010Prop35
280
     0
102
RTVSPost2010PropOp35
 70
     1
102
RTVSPost2010Prop36
280
     0
102
RTVSPost2010PropOp36
 70
     1
102
RTVSPost2010Prop37
 90
       50
102
RTVSPost2010PropOp37
 70
     1
102
RTVSPost2010Prop38
140
0.0
102
RTVSPost2010PropOp38
 70
     1
102
RTVSPost2010Prop39
140
1.0
102
RTVSPost2010PropOp39
 70
     1
102
RTVSPost2010Prop40
 90
        0
102
RTVSPost2010PropOp40
 70
     1
102
RTVSPost2010Prop41ColorIndex
 90
       18
102
RTVSPost2010Prop41ColorRGB
 90
        0
102
RTVSPost2010PropOp41
 70
     1
102
RTVSPost2010Prop42
 90
       50
102
RTVSPost2010PropOp42
 70
     1
102
RTVSPost2010Prop43
 90
        3
102
RTVSPost2010PropOp43
 70
     1
102
RTVSPost2010Prop44ColorIndex
 90
        5
102
RTVSPost2010Prop44ColorRGB
 90
      255
102
RTVSPost2010PropOp44
 70
     1
102
RTVSPost2010Prop45
280
     0
102
RTVSPost2010PropOp45
 70
     1
102
RTVSPost2010Prop46
 90
       50
102
RTVSPost2010PropOp46
 70
     1
102
RTVSPost2010Prop47
 90
       50
102
RTVSPost2010PropOp47
 70
     1
102
RTVSPost2010Prop48
 90
       50
102
RTVSPost2010PropOp48
 70
     1
102
RTVSPost2010Prop49
280
     0
102
RTVSPost2010PropOp49
 70
     1
102
RTVSPost2010Prop50
 90
       50
102
RTVSPost2010PropOp50
 70
     1
102
RTVSPost2010Prop51ColorIndex
 90
      256
102
RTVSPost2010Prop51ColorRGB
 90
-16777216
102
RTVSPost2010PropOp51
 70
     0
102
RTVSPost2010Prop52
140
1.0
102
RTVSPost2010PropOp52
 70
     0
102
RTVSPost2010Prop53
 90
        2
102
RTVSPost2010PropOp53
 70
     1
102
RTVSPost2010Prop54
  1
strokes_ogs.tif
102
RTVSPost2010PropOp54
 70
     1
102
RTVSPost2010Prop55
280
     0
102
RTVSPost2010PropOp55
 70
     1
102
RTVSPost2010Prop56
140
1.0
102
RTVSPost2010PropOp56
 70
     1
102
RTVSPost2010Prop57
140
1.0
102
RTVSPost2010PropOp57
 70
     1
  0
XRECORD
  5
4B0
102
{ACAD_REACTORS
330
4AF
102
}
330
4AF
100
AcDbXrecord
280
     1
102
RTVSPost2010Prop28
280
     0
102
RTVSPost2010PropOp28
 70
     1
102
RTVSPost2010Prop29
280
     1
102
RTVSPost2010PropOp29
 70
     1
102
RTVSPost2010Prop30
280
     1
102
RTVSPost2010PropOp30
 70
     1
102
RTVSPost2010Prop31
280
     0
102
RTVSPost2010PropOp31
 70
     1
102
RTVSPost2010Prop32
280
     0
102
RTVSPost2010PropOp32
 70
     1
102
RTVSPost2010Prop33
280
     0
102
RTVSPost2010PropOp33
 70
     1
102
RTVSPost2010Prop34
280
     0
102
RTVSPost2010PropOp34
 70
     1
102
RTVSPost2010Prop35
280
     0
102
RTVSPost2010PropOp35
 70
     1
102
RTVSPost2010Prop36
280
     0
102
RTVSPost2010PropOp36
 70
     1
102
RTVSPost2010Prop37
 90
       50
102
RTVSPost2010PropOp37
 70
     1
102
RTVSPost2010Prop38
140
0.0
102
RTVSPost2010PropOp38
 70
     1
102
RTVSPost2010Prop39
140
1.0
102
RTVSPost2010PropOp39
 70
     1
102
RTVSPost2010Prop40
 90
        0
102
RTVSPost2010PropOp40
 70
     1
102
RTVSPost2010Prop41ColorIndex
 90
       18
102
RTVSPost2010Prop41ColorRGB
 90
        0
102
RTVSPost2010PropOp41
 70
     1
102
RTVSPost2010Prop42
 90
       50
102
RTVSPost2010PropOp42
 70
     1
102
RTVSPost2010Prop43
 90
        3
102
RTVSPost2010PropOp43
 70
     1
102
RTVSPost2010Prop44ColorIndex
 90
        5
102
RTVSPost2010Prop44ColorRGB
 90
      255
102
RTVSPost2010PropOp44
 70
     1
102
RTVSPost2010Prop45
280
     0
102
RTVSPost2010PropOp45
 70
     1
102
RTVSPost2010Prop46
 90
       50
102
RTVSPost2010PropOp46
 70
     1
102
RTVSPost2010Prop47
 90
       50
102
RTVSPost2010PropOp47
 70
     1
102
RTVSPost2010Prop48
 90
       50
102
RTVSPost2010PropOp48
 70
     1
102
RTVSPost2010Prop49
280
     0
102
RTVSPost2010PropOp49
 70
     1
102
RTVSPost2010Prop50
 90
       50
102
RTVSPost2010PropOp50
 70
     1
102
RTVSPost2010Prop51ColorIndex
 90
      256
102
RTVSPost2010Prop51ColorRGB
 90
-16777216
102
RTVSPost2010PropOp51
 70
     0
102
RTVSPost2010Prop52
140
1.0
102
RTVSPost2010PropOp52
 70
     0
102
RTVSPost2010Prop53
 90
        2
102
RTVSPost2010PropOp53
 70
     1
102
RTVSPost2010Prop54
  1
strokes_ogs.tif
102
RTVSPost2010PropOp54
 70
     1
102
RTVSPost2010Prop55
280
     0
102
RTVSPost2010PropOp55
 70
     1
102
RTVSPost2010Prop56
140
1.0
102
RTVSPost2010PropOp56
 70
     1
102
RTVSPost2010Prop57
140
1.0
102
RTVSPost2010PropOp57
 70
     1
  0
XRECORD
  5
4C0
102
{ACAD_REACTORS
330
4BF
102
}
330
4BF
100
AcDbXrecord
280
     1
102
RTVSPost2010Prop28
280
     0
102
RTVSPost2010PropOp28
 70
     0
102
RTVSPost2010Prop29
280
     1
102
RTVSPost2010PropOp29
 70
     0
102
RTVSPost2010Prop30
280
     1
102
RTVSPost2010PropOp30
 70
     0
102
RTVSPost2010Prop31
280
     0
102
RTVSPost2010PropOp31
 70
     0
102
RTVSPost2010Prop32
280
     0
102
RTVSPost2010PropOp32
 70
     0
102
RTVSPost2010Prop33
280
     0
102
RTVSPost2010PropOp33
 70
     0
102
RTVSPost2010Prop34
280
     0
102
RTVSPost2010PropOp34
 70
     0
102
RTVSPost2010Prop35
280
     0
102
RTVSPost2010PropOp35
 70
     0
102
RTVSPost2010Prop36
280
     0
102
RTVSPost2010PropOp36
 70
     0
102
RTVSPost2010Prop37
 90
       50
102
RTVSPost2010PropOp37
 70
     0
102
RTVSPost2010Prop38
140
0.0
102
RTVSPost2010PropOp38
 70
     0
102
RTVSPost2010Prop39
140
1.0
102
RTVSPost2010PropOp39
 70
     0
102
RTVSPost2010Prop40
 90
        0
102
RTVSPost2010PropOp40
 70
     0
102
RTVSPost2010Prop41ColorIndex
 90
       18
102
RTVSPost2010Prop41ColorRGB
 90
        0
102
RTVSPost2010PropOp41
 70
     0
102
RTVSPost2010Prop42
 90
       50
102
RTVSPost2010PropOp42
 70
     0
102
RTVSPost2010Prop43
 90
        3
102
RTVSPost2010PropOp43
 70
     0
102
RTVSPost2010Prop44ColorIndex
 90
        5
102
RTVSPost2010Prop44ColorRGB
 90
      255
102
RTVSPost2010PropOp44
 70
     0
102
RTVSPost2010Prop45
280
     0
102
RTVSPost2010PropOp45
 70
     0
102
RTVSPost2010Prop46
 90
       50
102
RTVSPost2010PropOp46
 70
     0
102
RTVSPost2010Prop47
 90
       50
102
RTVSPost2010PropOp47
 70
     0
102
RTVSPost2010Prop48
 90
       50
102
RTVSPost2010PropOp48
 70
     0
102
RTVSPost2010Prop49
280
     0
102
RTVSPost2010PropOp49
 70
     0
102
RTVSPost2010Prop50
 90
       50
102
RTVSPost2010PropOp50
 70
     0
102
RTVSPost2010Prop51ColorIndex
 90
      256
102
RTVSPost2010Prop51ColorRGB
 90
-16777216
102
RTVSPost2010PropOp51
 70
     0
102
RTVSPost2010Prop52
140
1.0
102
RTVSPost2010PropOp52
 70
     0
102
RTVSPost2010Prop53
 90
        2
102
RTVSPost2010PropOp53
 70
     0
102
RTVSPost2010Prop54
  1
strokes_ogs.tif
102
RTVSPost2010PropOp54
 70
     0
102
RTVSPost2010Prop55
280
     0
102
RTVSPost2010PropOp55
 70
     0
102
RTVSPost2010Prop56
140
1.0
102
RTVSPost2010PropOp56
 70
     0
102
RTVSPost2010Prop57
140
1.0
102
RTVSPost2010PropOp57
 70
     0
  0
XRECORD
  5
4B8
102
{ACAD_REACTORS
330
4B7
102
}
330
4B7
100
AcDbXrecord
280
     1
102
RTVSPost2010Prop28
280
     0
102
RTVSPost2010PropOp28
 70
     1
102
RTVSPost2010Prop29
280
     1
102
RTVSPost2010PropOp29
 70
     1
102
RTVSPost2010Prop30
280
     1
102
RTVSPost2010PropOp30
 70
     1
102
RTVSPost2010Prop31
280
     0
102
RTVSPost2010PropOp31
 70
     1
102
RTVSPost2010Prop32
280
     0
102
RTVSPost2010PropOp32
 70
     1
102
RTVSPost2010Prop33
280
     0
102
RTVSPost2010PropOp33
 70
     1
102
RTVSPost2010Prop34
280
     0
102
RTVSPost2010PropOp34
 70
     1
102
RTVSPost2010Prop35
280
     0
102
RTVSPost2010PropOp35
 70
     1
102
RTVSPost2010Prop36
280
     0
102
RTVSPost2010PropOp36
 70
     1
102
RTVSPost2010Prop37
 90
       50
102
RTVSPost2010PropOp37
 70
     1
102
RTVSPost2010Prop38
140
0.0
102
RTVSPost2010PropOp38
 70
     1
102
RTVSPost2010Prop39
140
1.0
102
RTVSPost2010PropOp39
 70
     1
102
RTVSPost2010Prop40
 90
        0
102
RTVSPost2010PropOp40
 70
     1
102
RTVSPost2010Prop41ColorIndex
 90
       18
102
RTVSPost2010Prop41ColorRGB
 90
        0
102
RTVSPost2010PropOp41
 70
     1
102
RTVSPost2010Prop42
 90
       50
102
RTVSPost2010PropOp42
 70
     1
102
RTVSPost2010Prop43
 90
        3
102
RTVSPost2010PropOp43
 70
     1
102
RTVSPost2010Prop44ColorIndex
 90
        5
102
RTVSPost2010Prop44ColorRGB
 90
      255
102
RTVSPost2010PropOp44
 70
     1
102
RTVSPost2010Prop45
280
     0
102
RTVSPost2010PropOp45
 70
     1
102
RTVSPost2010Prop46
 90
       50
102
RTVSPost2010PropOp46
 70
     1
102
RTVSPost2010Prop47
 90
       50
102
RTVSPost2010PropOp47
 70
     1
102
RTVSPost2010Prop48
 90
       50
102
RTVSPost2010PropOp48
 70
     1
102
RTVSPost2010Prop49
280
     0
102
RTVSPost2010PropOp49
 70
     1
102
RTVSPost2010Prop50
 90
       50
102
RTVSPost2010PropOp50
 70
     1
102
RTVSPost2010Prop51ColorIndex
 90
      256
102
RTVSPost2010Prop51ColorRGB
 90
-16777216
102
RTVSPost2010PropOp51
 70
     0
102
RTVSPost2010Prop52
140
1.0
102
RTVSPost2010PropOp52
 70
     0
102
RTVSPost2010Prop53
 90
        2
102
RTVSPost2010PropOp53
 70
     1
102
RTVSPost2010Prop54
  1
strokes_ogs.tif
102
RTVSPost2010PropOp54
 70
     1
102
RTVSPost2010Prop55
280
     0
102
RTVSPost2010PropOp55
 70
     1
102
RTVSPost2010Prop56
140
1.0
102
RTVSPost2010PropOp56
 70
     1
102
RTVSPost2010Prop57
140
1.0
102
RTVSPost2010PropOp57
 70
     1
  0
XRECORD
  5
49C
102
{ACAD_REACTORS
330
49B
102
}
330
49B
100
AcDbXrecord
280
     1
102
RTVSPost2010Prop28
280
     0
102
RTVSPost2010PropOp28
 70
     1
102
RTVSPost2010Prop29
280
     1
102
RTVSPost2010PropOp29
 70
     1
102
RTVSPost2010Prop30
280
     1
102
RTVSPost2010PropOp30
 70
     1
102
RTVSPost2010Prop31
280
     0
102
RTVSPost2010PropOp31
 70
     1
102
RTVSPost2010Prop32
280
     0
102
RTVSPost2010PropOp32
 70
     1
102
RTVSPost2010Prop33
280
     0
102
RTVSPost2010PropOp33
 70
     1
102
RTVSPost2010Prop34
280
     0
102
RTVSPost2010PropOp34
 70
     1
102
RTVSPost2010Prop35
280
     0
102
RTVSPost2010PropOp35
 70
     1
102
RTVSPost2010Prop36
280
     0
102
RTVSPost2010PropOp36
 70
     1
102
RTVSPost2010Prop37
 90
       50
102
RTVSPost2010PropOp37
 70
     1
102
RTVSPost2010Prop38
140
0.0
102
RTVSPost2010PropOp38
 70
     1
102
RTVSPost2010Prop39
140
1.0
102
RTVSPost2010PropOp39
 70
     1
102
RTVSPost2010Prop40
 90
        0
102
RTVSPost2010PropOp40
 70
     1
102
RTVSPost2010Prop41ColorIndex
 90
       18
102
RTVSPost2010Prop41ColorRGB
 90
        0
102
RTVSPost2010PropOp41
 70
     1
102
RTVSPost2010Prop42
 90
       50
102
RTVSPost2010PropOp42
 70
     1
102
RTVSPost2010Prop43
 90
        3
102
RTVSPost2010PropOp43
 70
     1
102
RTVSPost2010Prop44ColorIndex
 90
        5
102
RTVSPost2010Prop44ColorRGB
 90
      255
102
RTVSPost2010PropOp44
 70
     1
102
RTVSPost2010Prop45
280
     0
102
RTVSPost2010PropOp45
 70
     1
102
RTVSPost2010Prop46
 90
       50
102
RTVSPost2010PropOp46
 70
     1
102
RTVSPost2010Prop47
 90
       50
102
RTVSPost2010PropOp47
 70
     1
102
RTVSPost2010Prop48
 90
       50
102
RTVSPost2010PropOp48
 70
     1
102
RTVSPost2010Prop49
280
     0
102
RTVSPost2010PropOp49
 70
     1
102
RTVSPost2010Prop50
 90
       50
102
RTVSPost2010PropOp50
 70
     1
102
RTVSPost2010Prop51ColorIndex
 90
      256
102
RTVSPost2010Prop51ColorRGB
 90
-16777216
102
RTVSPost2010PropOp51
 70
     0
102
RTVSPost2010Prop52
140
1.0
102
RTVSPost2010PropOp52
 70
     0
102
RTVSPost2010Prop53
 90
        2
102
RTVSPost2010PropOp53
 70
     1
102
RTVSPost2010Prop54
  1
strokes_ogs.tif
102
RTVSPost2010PropOp54
 70
     1
102
RTVSPost2010Prop55
280
     0
102
RTVSPost2010PropOp55
 70
     1
102
RTVSPost2010Prop56
140
1.0
102
RTVSPost2010PropOp56
 70
     1
102
RTVSPost2010Prop57
140
1.0
102
RTVSPost2010PropOp57
 70
     1
  0
XRECORD
  5
49E
102
{ACAD_REACTORS
330
49D
102
}
330
49D
100
AcDbXrecord
280
     1
102
RTVSPost2010Prop28
280
     0
102
RTVSPost2010PropOp28
 70
     1
102
RTVSPost2010Prop29
280
     1
102
RTVSPost2010PropOp29
 70
     1
102
RTVSPost2010Prop30
280
     1
102
RTVSPost2010PropOp30
 70
     1
102
RTVSPost2010Prop31
280
     0
102
RTVSPost2010PropOp31
 70
     1
102
RTVSPost2010Prop32
280
     0
102
RTVSPost2010PropOp32
 70
     1
102
RTVSPost2010Prop33
280
     0
102
RTVSPost2010PropOp33
 70
     1
102
RTVSPost2010Prop34
280
     0
102
RTVSPost2010PropOp34
 70
     1
102
RTVSPost2010Prop35
280
     0
102
RTVSPost2010PropOp35
 70
     1
102
RTVSPost2010Prop36
280
     0
102
RTVSPost2010PropOp36
 70
     1
102
RTVSPost2010Prop37
 90
       50
102
RTVSPost2010PropOp37
 70
     1
102
RTVSPost2010Prop38
140
0.0
102
RTVSPost2010PropOp38
 70
     1
102
RTVSPost2010Prop39
140
1.0
102
RTVSPost2010PropOp39
 70
     1
102
RTVSPost2010Prop40
 90
        0
102
RTVSPost2010PropOp40
 70
     1
102
RTVSPost2010Prop41ColorIndex
 90
       18
102
RTVSPost2010Prop41ColorRGB
 90
        0
102
RTVSPost2010PropOp41
 70
     1
102
RTVSPost2010Prop42
 90
       50
102
RTVSPost2010PropOp42
 70
     1
102
RTVSPost2010Prop43
 90
        3
102
RTVSPost2010PropOp43
 70
     1
102
RTVSPost2010Prop44ColorIndex
 90
        5
102
RTVSPost2010Prop44ColorRGB
 90
      255
102
RTVSPost2010PropOp44
 70
     1
102
RTVSPost2010Prop45
280
     0
102
RTVSPost2010PropOp45
 70
     1
102
RTVSPost2010Prop46
 90
       50
102
RTVSPost2010PropOp46
 70
     1
102
RTVSPost2010Prop47
 90
       50
102
RTVSPost2010PropOp47
 70
     1
102
RTVSPost2010Prop48
 90
       50
102
RTVSPost2010PropOp48
 70
     1
102
RTVSPost2010Prop49
280
     0
102
RTVSPost2010PropOp49
 70
     1
102
RTVSPost2010Prop50
 90
       50
102
RTVSPost2010PropOp50
 70
     1
102
RTVSPost2010Prop51ColorIndex
 90
      256
102
RTVSPost2010Prop51ColorRGB
 90
-16777216
102
RTVSPost2010PropOp51
 70
     0
102
RTVSPost2010Prop52
140
1.0
102
RTVSPost2010PropOp52
 70
     0
102
RTVSPost2010Prop53
 90
        2
102
RTVSPost2010PropOp53
 70
     1
102
RTVSPost2010Prop54
  1
strokes_ogs.tif
102
RTVSPost2010PropOp54
 70
     1
102
RTVSPost2010Prop55
280
     0
102
RTVSPost2010PropOp55
 70
     1
102
RTVSPost2010Prop56
140
1.0
102
RTVSPost2010PropOp56
 70
     1
102
RTVSPost2010Prop57
140
1.0
102
RTVSPost2010PropOp57
 70
     1
  0
XRECORD
  5
4A0
102
{ACAD_REACTORS
330
49F
102
}
330
49F
100
AcDbXrecord
280
     1
102
RTVSPost2010Prop28
280
     0
102
RTVSPost2010PropOp28
 70
     1
102
RTVSPost2010Prop29
280
     1
102
RTVSPost2010PropOp29
 70
     1
102
RTVSPost2010Prop30
280
     1
102
RTVSPost2010PropOp30
 70
     1
102
RTVSPost2010Prop31
280
     0
102
RTVSPost2010PropOp31
 70
     1
102
RTVSPost2010Prop32
280
     0
102
RTVSPost2010PropOp32
 70
     1
102
RTVSPost2010Prop33
280
     0
102
RTVSPost2010PropOp33
 70
     1
102
RTVSPost2010Prop34
280
     0
102
RTVSPost2010PropOp34
 70
     1
102
RTVSPost2010Prop35
280
     0
102
RTVSPost2010PropOp35
 70
     1
102
RTVSPost2010Prop36
280
     0
102
RTVSPost2010PropOp36
 70
     1
102
RTVSPost2010Prop37
 90
       50
102
RTVSPost2010PropOp37
 70
     1
102
RTVSPost2010Prop38
140
0.0
102
RTVSPost2010PropOp38
 70
     1
102
RTVSPost2010Prop39
140
1.0
102
RTVSPost2010PropOp39
 70
     1
102
RTVSPost2010Prop40
 90
        0
102
RTVSPost2010PropOp40
 70
     1
102
RTVSPost2010Prop41ColorIndex
 90
       18
102
RTVSPost2010Prop41ColorRGB
 90
        0
102
RTVSPost2010PropOp41
 70
     1
102
RTVSPost2010Prop42
 90
       50
102
RTVSPost2010PropOp42
 70
     1
102
RTVSPost2010Prop43
 90
        3
102
RTVSPost2010PropOp43
 70
     1
102
RTVSPost2010Prop44ColorIndex
 90
        5
102
RTVSPost2010Prop44ColorRGB
 90
      255
102
RTVSPost2010PropOp44
 70
     1
102
RTVSPost2010Prop45
280
     0
102
RTVSPost2010PropOp45
 70
     1
102
RTVSPost2010Prop46
 90
       50
102
RTVSPost2010PropOp46
 70
     1
102
RTVSPost2010Prop47
 90
       50
102
RTVSPost2010PropOp47
 70
     1
102
RTVSPost2010Prop48
 90
       50
102
RTVSPost2010PropOp48
 70
     1
102
RTVSPost2010Prop49
280
     0
102
RTVSPost2010PropOp49
 70
     1
102
RTVSPost2010Prop50
 90
       50
102
RTVSPost2010PropOp50
 70
     1
102
RTVSPost2010Prop51ColorIndex
 90
      256
102
RTVSPost2010Prop51ColorRGB
 90
-16777216
102
RTVSPost2010PropOp51
 70
     0
102
RTVSPost2010Prop52
140
1.0
102
RTVSPost2010PropOp52
 70
     0
102
RTVSPost2010Prop53
 90
        2
102
RTVSPost2010PropOp53
 70
     1
102
RTVSPost2010Prop54
  1
strokes_ogs.tif
102
RTVSPost2010PropOp54
 70
     1
102
RTVSPost2010Prop55
280
     0
102
RTVSPost2010PropOp55
 70
     1
102
RTVSPost2010Prop56
140
1.0
102
RTVSPost2010PropOp56
 70
     1
102
RTVSPost2010Prop57
140
1.0
102
RTVSPost2010PropOp57
 70
     1
  0
XRECORD
  5
4A2
102
{ACAD_REACTORS
330
4A1
102
}
330
4A1
100
AcDbXrecord
280
     1
102
RTVSPost2010Prop28
280
     0
102
RTVSPost2010PropOp28
 70
     1
102
RTVSPost2010Prop29
280
     1
102
RTVSPost2010PropOp29
 70
     1
102
RTVSPost2010Prop30
280
     1
102
RTVSPost2010PropOp30
 70
     1
102
RTVSPost2010Prop31
280
     0
102
RTVSPost2010PropOp31
 70
     1
102
RTVSPost2010Prop32
280
     0
102
RTVSPost2010PropOp32
 70
     1
102
RTVSPost2010Prop33
280
     0
102
RTVSPost2010PropOp33
 70
     1
102
RTVSPost2010Prop34
280
     0
102
RTVSPost2010PropOp34
 70
     1
102
RTVSPost2010Prop35
280
     0
102
RTVSPost2010PropOp35
 70
     1
102
RTVSPost2010Prop36
280
     0
102
RTVSPost2010PropOp36
 70
     1
102
RTVSPost2010Prop37
 90
       50
102
RTVSPost2010PropOp37
 70
     1
102
RTVSPost2010Prop38
140
0.0
102
RTVSPost2010PropOp38
 70
     1
102
RTVSPost2010Prop39
140
1.0
102
RTVSPost2010PropOp39
 70
     1
102
RTVSPost2010Prop40
 90
        0
102
RTVSPost2010PropOp40
 70
     1
102
RTVSPost2010Prop41ColorIndex
 90
       18
102
RTVSPost2010Prop41ColorRGB
 90
        0
102
RTVSPost2010PropOp41
 70
     1
102
RTVSPost2010Prop42
 90
       50
102
RTVSPost2010PropOp42
 70
     1
102
RTVSPost2010Prop43
 90
        3
102
RTVSPost2010PropOp43
 70
     1
102
RTVSPost2010Prop44ColorIndex
 90
        5
102
RTVSPost2010Prop44ColorRGB
 90
      255
102
RTVSPost2010PropOp44
 70
     1
102
RTVSPost2010Prop45
280
     0
102
RTVSPost2010PropOp45
 70
     1
102
RTVSPost2010Prop46
 90
       50
102
RTVSPost2010PropOp46
 70
     1
102
RTVSPost2010Prop47
 90
       50
102
RTVSPost2010PropOp47
 70
     1
102
RTVSPost2010Prop48
 90
       50
102
RTVSPost2010PropOp48
 70
     1
102
RTVSPost2010Prop49
280
     0
102
RTVSPost2010PropOp49
 70
     1
102
RTVSPost2010Prop50
 90
       50
102
RTVSPost2010PropOp50
 70
     1
102
RTVSPost2010Prop51ColorIndex
 90
      256
102
RTVSPost2010Prop51ColorRGB
 90
-16777216
102
RTVSPost2010PropOp51
 70
     0
102
RTVSPost2010Prop52
140
1.0
102
RTVSPost2010PropOp52
 70
     0
102
RTVSPost2010Prop53
 90
        2
102
RTVSPost2010PropOp53
 70
     1
102
RTVSPost2010Prop54
  1
strokes_ogs.tif
102
RTVSPost2010PropOp54
 70
     1
102
RTVSPost2010Prop55
280
     0
102
RTVSPost2010PropOp55
 70
     1
102
RTVSPost2010Prop56
140
1.0
102
RTVSPost2010PropOp56
 70
     1
102
RTVSPost2010Prop57
140
1.0
102
RTVSPost2010PropOp57
 70
     1
  0
XRECORD
  5
4A8
102
{ACAD_REACTORS
330
4A7
102
}
330
4A7
100
AcDbXrecord
280
     1
102
RTVSPost2010Prop28
280
     0
102
RTVSPost2010PropOp28
 70
     1
102
RTVSPost2010Prop29
280
     1
102
RTVSPost2010PropOp29
 70
     1
102
RTVSPost2010Prop30
280
     1
102
RTVSPost2010PropOp30
 70
     1
102
RTVSPost2010Prop31
280
     0
102
RTVSPost2010PropOp31
 70
     1
102
RTVSPost2010Prop32
280
     0
102
RTVSPost2010PropOp32
 70
     1
102
RTVSPost2010Prop33
280
     0
102
RTVSPost2010PropOp33
 70
     1
102
RTVSPost2010Prop34
280
     0
102
RTVSPost2010PropOp34
 70
     1
102
RTVSPost2010Prop35
280
     0
102
RTVSPost2010PropOp35
 70
     1
102
RTVSPost2010Prop36
280
     0
102
RTVSPost2010PropOp36
 70
     1
102
RTVSPost2010Prop37
 90
       50
102
RTVSPost2010PropOp37
 70
     1
102
RTVSPost2010Prop38
140
0.0
102
RTVSPost2010PropOp38
 70
     1
102
RTVSPost2010Prop39
140
1.0
102
RTVSPost2010PropOp39
 70
     1
102
RTVSPost2010Prop40
 90
        0
102
RTVSPost2010PropOp40
 70
     1
102
RTVSPost2010Prop41ColorIndex
 90
       18
102
RTVSPost2010Prop41ColorRGB
 90
        0
102
RTVSPost2010PropOp41
 70
     1
102
RTVSPost2010Prop42
 90
       50
102
RTVSPost2010PropOp42
 70
     1
102
RTVSPost2010Prop43
 90
        3
102
RTVSPost2010PropOp43
 70
     1
102
RTVSPost2010Prop44ColorIndex
 90
        5
102
RTVSPost2010Prop44ColorRGB
 90
      255
102
RTVSPost2010PropOp44
 70
     1
102
RTVSPost2010Prop45
280
     0
102
RTVSPost2010PropOp45
 70
     1
102
RTVSPost2010Prop46
 90
       50
102
RTVSPost2010PropOp46
 70
     1
102
RTVSPost2010Prop47
 90
       50
102
RTVSPost2010PropOp47
 70
     1
102
RTVSPost2010Prop48
 90
       50
102
RTVSPost2010PropOp48
 70
     1
102
RTVSPost2010Prop49
280
     0
102
RTVSPost2010PropOp49
 70
     1
102
RTVSPost2010Prop50
 90
       50
102
RTVSPost2010PropOp50
 70
     1
102
RTVSPost2010Prop51ColorIndex
 90
      256
102
RTVSPost2010Prop51ColorRGB
 90
-16777216
102
RTVSPost2010PropOp51
 70
     0
102
RTVSPost2010Prop52
140
1.0
102
RTVSPost2010PropOp52
 70
     0
102
RTVSPost2010Prop53
 90
        2
102
RTVSPost2010PropOp53
 70
     1
102
RTVSPost2010Prop54
  1
strokes_ogs.tif
102
RTVSPost2010PropOp54
 70
     1
102
RTVSPost2010Prop55
280
     0
102
RTVSPost2010PropOp55
 70
     1
102
RTVSPost2010Prop56
140
1.0
102
RTVSPost2010PropOp56
 70
     1
102
RTVSPost2010Prop57
140
1.0
102
RTVSPost2010PropOp57
 70
     1
  0
XRECORD
  5
4BC
102
{ACAD_REACTORS
330
4BB
102
}
330
4BB
100
AcDbXrecord
280
     1
102
RTVSPost2010Prop28
280
     0
102
RTVSPost2010PropOp28
 70
     0
102
RTVSPost2010Prop29
280
     1
102
RTVSPost2010PropOp29
 70
     0
102
RTVSPost2010Prop30
280
     1
102
RTVSPost2010PropOp30
 70
     0
102
RTVSPost2010Prop31
280
     0
102
RTVSPost2010PropOp31
 70
     0
102
RTVSPost2010Prop32
280
     0
102
RTVSPost2010PropOp32
 70
     0
102
RTVSPost2010Prop33
280
     0
102
RTVSPost2010PropOp33
 70
     0
102
RTVSPost2010Prop34
280
     0
102
RTVSPost2010PropOp34
 70
     0
102
RTVSPost2010Prop35
280
     0
102
RTVSPost2010PropOp35
 70
     0
102
RTVSPost2010Prop36
280
     0
102
RTVSPost2010PropOp36
 70
     0
102
RTVSPost2010Prop37
 90
       50
102
RTVSPost2010PropOp37
 70
     0
102
RTVSPost2010Prop38
140
0.0
102
RTVSPost2010PropOp38
 70
     0
102
RTVSPost2010Prop39
140
1.0
102
RTVSPost2010PropOp39
 70
     0
102
RTVSPost2010Prop40
 90
        0
102
RTVSPost2010PropOp40
 70
     0
102
RTVSPost2010Prop41ColorIndex
 90
       18
102
RTVSPost2010Prop41ColorRGB
 90
        0
102
RTVSPost2010PropOp41
 70
     0
102
RTVSPost2010Prop42
 90
       50
102
RTVSPost2010PropOp42
 70
     0
102
RTVSPost2010Prop43
 90
        3
102
RTVSPost2010PropOp43
 70
     0
102
RTVSPost2010Prop44ColorIndex
 90
        5
102
RTVSPost2010Prop44ColorRGB
 90
      255
102
RTVSPost2010PropOp44
 70
     0
102
RTVSPost2010Prop45
280
     0
102
RTVSPost2010PropOp45
 70
     0
102
RTVSPost2010Prop46
 90
       50
102
RTVSPost2010PropOp46
 70
     0
102
RTVSPost2010Prop47
 90
       50
102
RTVSPost2010PropOp47
 70
     0
102
RTVSPost2010Prop48
 90
       50
102
RTVSPost2010PropOp48
 70
     0
102
RTVSPost2010Prop49
280
     0
102
RTVSPost2010PropOp49
 70
     0
102
RTVSPost2010Prop50
 90
       50
102
RTVSPost2010PropOp50
 70
     0
102
RTVSPost2010Prop51ColorIndex
 90
      256
102
RTVSPost2010Prop51ColorRGB
 90
-16777216
102
RTVSPost2010PropOp51
 70
     0
102
RTVSPost2010Prop52
140
1.0
102
RTVSPost2010PropOp52
 70
     0
102
RTVSPost2010Prop53
 90
        2
102
RTVSPost2010PropOp53
 70
     0
102
RTVSPost2010Prop54
  1
strokes_ogs.tif
102
RTVSPost2010PropOp54
 70
     0
102
RTVSPost2010Prop55
280
     0
102
RTVSPost2010PropOp55
 70
     0
102
RTVSPost2010Prop56
140
1.0
102
RTVSPost2010PropOp56
 70
     0
102
RTVSPost2010Prop57
140
1.0
102
RTVSPost2010PropOp57
 70
     0
  0
XRECORD
  5
4B6
102
{ACAD_REACTORS
330
4B5
102
}
330
4B5
100
AcDbXrecord
280
     1
102
RTVSPost2010Prop28
280
     0
102
RTVSPost2010PropOp28
 70
     1
102
RTVSPost2010Prop29
280
     1
102
RTVSPost2010PropOp29
 70
     1
102
RTVSPost2010Prop30
280
     1
102
RTVSPost2010PropOp30
 70
     1
102
RTVSPost2010Prop31
280
     0
102
RTVSPost2010PropOp31
 70
     1
102
RTVSPost2010Prop32
280
     0
102
RTVSPost2010PropOp32
 70
     1
102
RTVSPost2010Prop33
280
     0
102
RTVSPost2010PropOp33
 70
     1
102
RTVSPost2010Prop34
280
     0
102
RTVSPost2010PropOp34
 70
     1
102
RTVSPost2010Prop35
280
     0
102
RTVSPost2010PropOp35
 70
     1
102
RTVSPost2010Prop36
280
     0
102
RTVSPost2010PropOp36
 70
     1
102
RTVSPost2010Prop37
 90
       50
102
RTVSPost2010PropOp37
 70
     1
102
RTVSPost2010Prop38
140
0.0
102
RTVSPost2010PropOp38
 70
     1
102
RTVSPost2010Prop39
140
1.0
102
RTVSPost2010PropOp39
 70
     1
102
RTVSPost2010Prop40
 90
        0
102
RTVSPost2010PropOp40
 70
     1
102
RTVSPost2010Prop41ColorIndex
 90
       18
102
RTVSPost2010Prop41ColorRGB
 90
        0
102
RTVSPost2010PropOp41
 70
     1
102
RTVSPost2010Prop42
 90
       50
102
RTVSPost2010PropOp42
 70
     1
102
RTVSPost2010Prop43
 90
        3
102
RTVSPost2010PropOp43
 70
     1
102
RTVSPost2010Prop44ColorIndex
 90
        5
102
RTVSPost2010Prop44ColorRGB
 90
      255
102
RTVSPost2010PropOp44
 70
     1
102
RTVSPost2010Prop45
280
     0
102
RTVSPost2010PropOp45
 70
     1
102
RTVSPost2010Prop46
 90
       50
102
RTVSPost2010PropOp46
 70
     1
102
RTVSPost2010Prop47
 90
       50
102
RTVSPost2010PropOp47
 70
     1
102
RTVSPost2010Prop48
 90
       50
102
RTVSPost2010PropOp48
 70
     1
102
RTVSPost2010Prop49
280
     0
102
RTVSPost2010PropOp49
 70
     1
102
RTVSPost2010Prop50
 90
       50
102
RTVSPost2010PropOp50
 70
     1
102
RTVSPost2010Prop51ColorIndex
 90
      256
102
RTVSPost2010Prop51ColorRGB
 90
-16777216
102
RTVSPost2010PropOp51
 70
     0
102
RTVSPost2010Prop52
140
1.0
102
RTVSPost2010PropOp52
 70
     0
102
RTVSPost2010Prop53
 90
        2
102
RTVSPost2010PropOp53
 70
     1
102
RTVSPost2010Prop54
  1
strokes_ogs.tif
102
RTVSPost2010PropOp54
 70
     1
102
RTVSPost2010Prop55
280
     0
102
RTVSPost2010PropOp55
 70
     1
102
RTVSPost2010Prop56
140
1.0
102
RTVSPost2010PropOp56
 70
     1
102
RTVSPost2010Prop57
140
1.0
102
RTVSPost2010PropOp57
 70
     1
  0
XRECORD
  5
4BE
102
{ACAD_REACTORS
330
4BD
102
}
330
4BD
100
AcDbXrecord
280
     1
102
RTVSPost2010Prop28
280
     0
102
RTVSPost2010PropOp28
 70
     0
102
RTVSPost2010Prop29
280
     1
102
RTVSPost2010PropOp29
 70
     0
102
RTVSPost2010Prop30
280
     1
102
RTVSPost2010PropOp30
 70
     0
102
RTVSPost2010Prop31
280
     0
102
RTVSPost2010PropOp31
 70
     0
102
RTVSPost2010Prop32
280
     0
102
RTVSPost2010PropOp32
 70
     0
102
RTVSPost2010Prop33
280
     0
102
RTVSPost2010PropOp33
 70
     0
102
RTVSPost2010Prop34
280
     0
102
RTVSPost2010PropOp34
 70
     0
102
RTVSPost2010Prop35
280
     0
102
RTVSPost2010PropOp35
 70
     0
102
RTVSPost2010Prop36
280
     0
102
RTVSPost2010PropOp36
 70
     0
102
RTVSPost2010Prop37
 90
       50
102
RTVSPost2010PropOp37
 70
     0
102
RTVSPost2010Prop38
140
0.0
102
RTVSPost2010PropOp38
 70
     0
102
RTVSPost2010Prop39
140
1.0
102
RTVSPost2010PropOp39
 70
     0
102
RTVSPost2010Prop40
 90
        0
102
RTVSPost2010PropOp40
 70
     0
102
RTVSPost2010Prop41ColorIndex
 90
       18
102
RTVSPost2010Prop41ColorRGB
 90
        0
102
RTVSPost2010PropOp41
 70
     0
102
RTVSPost2010Prop42
 90
       50
102
RTVSPost2010PropOp42
 70
     0
102
RTVSPost2010Prop43
 90
        3
102
RTVSPost2010PropOp43
 70
     0
102
RTVSPost2010Prop44ColorIndex
 90
        5
102
RTVSPost2010Prop44ColorRGB
 90
      255
102
RTVSPost2010PropOp44
 70
     0
102
RTVSPost2010Prop45
280
     0
102
RTVSPost2010PropOp45
 70
     0
102
RTVSPost2010Prop46
 90
       50
102
RTVSPost2010PropOp46
 70
     0
102
RTVSPost2010Prop47
 90
       50
102
RTVSPost2010PropOp47
 70
     0
102
RTVSPost2010Prop48
 90
       50
102
RTVSPost2010PropOp48
 70
     0
102
RTVSPost2010Prop49
280
     0
102
RTVSPost2010PropOp49
 70
     0
102
RTVSPost2010Prop50
 90
       50
102
RTVSPost2010PropOp50
 70
     0
102
RTVSPost2010Prop51ColorIndex
 90
      256
102
RTVSPost2010Prop51ColorRGB
 90
-16777216
102
RTVSPost2010PropOp51
 70
     0
102
RTVSPost2010Prop52
140
1.0
102
RTVSPost2010PropOp52
 70
     0
102
RTVSPost2010Prop53
 90
        2
102
RTVSPost2010PropOp53
 70
     0
102
RTVSPost2010Prop54
  1
strokes_ogs.tif
102
RTVSPost2010PropOp54
 70
     0
102
RTVSPost2010Prop55
280
     0
102
RTVSPost2010PropOp55
 70
     0
102
RTVSPost2010Prop56
140
1.0
102
RTVSPost2010PropOp56
 70
     0
102
RTVSPost2010Prop57
140
1.0
102
RTVSPost2010PropOp57
 70
     0
  0
XRECORD
  5
4AC
102
{ACAD_REACTORS
330
4AB
102
}
330
4AB
100
AcDbXrecord
280
     1
102
RTVSPost2010Prop28
280
     0
102
RTVSPost2010PropOp28
 70
     1
102
RTVSPost2010Prop29
280
     1
102
RTVSPost2010PropOp29
 70
     1
102
RTVSPost2010Prop30
280
     1
102
RTVSPost2010PropOp30
 70
     1
102
RTVSPost2010Prop31
280
     0
102
RTVSPost2010PropOp31
 70
     1
102
RTVSPost2010Prop32
280
     0
102
RTVSPost2010PropOp32
 70
     1
102
RTVSPost2010Prop33
280
     0
102
RTVSPost2010PropOp33
 70
     1
102
RTVSPost2010Prop34
280
     0
102
RTVSPost2010PropOp34
 70
     1
102
RTVSPost2010Prop35
280
     0
102
RTVSPost2010PropOp35
 70
     1
102
RTVSPost2010Prop36
280
     0
102
RTVSPost2010PropOp36
 70
     1
102
RTVSPost2010Prop37
 90
       50
102
RTVSPost2010PropOp37
 70
     1
102
RTVSPost2010Prop38
140
0.0
102
RTVSPost2010PropOp38
 70
     1
102
RTVSPost2010Prop39
140
1.0
102
RTVSPost2010PropOp39
 70
     1
102
RTVSPost2010Prop40
 90
        0
102
RTVSPost2010PropOp40
 70
     1
102
RTVSPost2010Prop41ColorIndex
 90
       18
102
RTVSPost2010Prop41ColorRGB
 90
        0
102
RTVSPost2010PropOp41
 70
     1
102
RTVSPost2010Prop42
 90
       50
102
RTVSPost2010PropOp42
 70
     1
102
RTVSPost2010Prop43
 90
        3
102
RTVSPost2010PropOp43
 70
     1
102
RTVSPost2010Prop44ColorIndex
 90
        5
102
RTVSPost2010Prop44ColorRGB
 90
      255
102
RTVSPost2010PropOp44
 70
     1
102
RTVSPost2010Prop45
280
     0
102
RTVSPost2010PropOp45
 70
     1
102
RTVSPost2010Prop46
 90
       50
102
RTVSPost2010PropOp46
 70
     1
102
RTVSPost2010Prop47
 90
       50
102
RTVSPost2010PropOp47
 70
     1
102
RTVSPost2010Prop48
 90
       50
102
RTVSPost2010PropOp48
 70
     1
102
RTVSPost2010Prop49
280
     0
102
RTVSPost2010PropOp49
 70
     1
102
RTVSPost2010Prop50
 90
       50
102
RTVSPost2010PropOp50
 70
     1
102
RTVSPost2010Prop51ColorIndex
 90
      256
102
RTVSPost2010Prop51ColorRGB
 90
-16777216
102
RTVSPost2010PropOp51
 70
     0
102
RTVSPost2010Prop52
140
1.0
102
RTVSPost2010PropOp52
 70
     0
102
RTVSPost2010Prop53
 90
        2
102
RTVSPost2010PropOp53
 70
     1
102
RTVSPost2010Prop54
  1
strokes_ogs.tif
102
RTVSPost2010PropOp54
 70
     1
102
RTVSPost2010Prop55
280
     0
102
RTVSPost2010PropOp55
 70
     1
102
RTVSPost2010Prop56
140
1.0
102
RTVSPost2010PropOp56
 70
     1
102
RTVSPost2010Prop57
140
1.0
102
RTVSPost2010PropOp57
 70
     1
  0
XRECORD
  5
4CA
102
{ACAD_REACTORS
330
4C9
102
}
330
4C9
100
AcDbXrecord
280
     1
102
RTVSPost2010Prop28
280
     0
102
RTVSPost2010PropOp28
 70
     1
102
RTVSPost2010Prop29
280
     1
102
RTVSPost2010PropOp29
 70
     1
102
RTVSPost2010Prop30
280
     1
102
RTVSPost2010PropOp30
 70
     1
102
RTVSPost2010Prop31
280
     0
102
RTVSPost2010PropOp31
 70
     1
102
RTVSPost2010Prop32
280
     0
102
RTVSPost2010PropOp32
 70
     1
102
RTVSPost2010Prop33
280
     0
102
RTVSPost2010PropOp33
 70
     1
102
RTVSPost2010Prop34
280
     0
102
RTVSPost2010PropOp34
 70
     1
102
RTVSPost2010Prop35
280
     0
102
RTVSPost2010PropOp35
 70
     1
102
RTVSPost2010Prop36
280
     0
102
RTVSPost2010PropOp36
 70
     1
102
RTVSPost2010Prop37
 90
       50
102
RTVSPost2010PropOp37
 70
     1
102
RTVSPost2010Prop38
140
0.0
102
RTVSPost2010PropOp38
 70
     1
102
RTVSPost2010Prop39
140
1.0
102
RTVSPost2010PropOp39
 70
     1
102
RTVSPost2010Prop40
 90
        0
102
RTVSPost2010PropOp40
 70
     1
102
RTVSPost2010Prop41ColorIndex
 90
       18
102
RTVSPost2010Prop41ColorRGB
 90
        0
102
RTVSPost2010PropOp41
 70
     1
102
RTVSPost2010Prop42
 90
       50
102
RTVSPost2010PropOp42
 70
     1
102
RTVSPost2010Prop43
 90
        3
102
RTVSPost2010PropOp43
 70
     1
102
RTVSPost2010Prop44ColorIndex
 90
        5
102
RTVSPost2010Prop44ColorRGB
 90
      255
102
RTVSPost2010PropOp44
 70
     1
102
RTVSPost2010Prop45
280
     0
102
RTVSPost2010PropOp45
 70
     1
102
RTVSPost2010Prop46
 90
       50
102
RTVSPost2010PropOp46
 70
     1
102
RTVSPost2010Prop47
 90
       50
102
RTVSPost2010PropOp47
 70
     1
102
RTVSPost2010Prop48
 90
       50
102
RTVSPost2010PropOp48
 70
     1
102
RTVSPost2010Prop49
280
     0
102
RTVSPost2010PropOp49
 70
     1
102
RTVSPost2010Prop50
 90
       50
102
RTVSPost2010PropOp50
 70
     1
102
RTVSPost2010Prop51ColorIndex
 90
      256
102
RTVSPost2010Prop51ColorRGB
 90
-16777216
102
RTVSPost2010PropOp51
 70
     0
102
RTVSPost2010Prop52
140
1.0
102
RTVSPost2010PropOp52
 70
     0
102
RTVSPost2010Prop53
 90
        2
102
RTVSPost2010PropOp53
 70
     1
102
RTVSPost2010Prop54
  1
strokes_ogs.tif
102
RTVSPost2010PropOp54
 70
     1
102
RTVSPost2010Prop55
280
     0
102
RTVSPost2010PropOp55
 70
     1
102
RTVSPost2010Prop56
140
1.0
102
RTVSPost2010PropOp56
 70
     1
102
RTVSPost2010Prop57
140
1.0
102
RTVSPost2010PropOp57
 70
     1
  0
XRECORD
  5
4C8
102
{ACAD_REACTORS
330
4C7
102
}
330
4C7
100
AcDbXrecord
280
     1
102
RTVSPost2010Prop28
280
     0
102
RTVSPost2010PropOp28
 70
     1
102
RTVSPost2010Prop29
280
     1
102
RTVSPost2010PropOp29
 70
     1
102
RTVSPost2010Prop30
280
     1
102
RTVSPost2010PropOp30
 70
     1
102
RTVSPost2010Prop31
280
     0
102
RTVSPost2010PropOp31
 70
     1
102
RTVSPost2010Prop32
280
     0
102
RTVSPost2010PropOp32
 70
     1
102
RTVSPost2010Prop33
280
     0
102
RTVSPost2010PropOp33
 70
     1
102
RTVSPost2010Prop34
280
     0
102
RTVSPost2010PropOp34
 70
     1
102
RTVSPost2010Prop35
280
     0
102
RTVSPost2010PropOp35
 70
     1
102
RTVSPost2010Prop36
280
     0
102
RTVSPost2010PropOp36
 70
     1
102
RTVSPost2010Prop37
 90
       50
102
RTVSPost2010PropOp37
 70
     1
102
RTVSPost2010Prop38
140
0.0
102
RTVSPost2010PropOp38
 70
     1
102
RTVSPost2010Prop39
140
1.0
102
RTVSPost2010PropOp39
 70
     1
102
RTVSPost2010Prop40
 90
        0
102
RTVSPost2010PropOp40
 70
     1
102
RTVSPost2010Prop41ColorIndex
 90
       18
102
RTVSPost2010Prop41ColorRGB
 90
        0
102
RTVSPost2010PropOp41
 70
     1
102
RTVSPost2010Prop42
 90
       50
102
RTVSPost2010PropOp42
 70
     1
102
RTVSPost2010Prop43
 90
        3
102
RTVSPost2010PropOp43
 70
     1
102
RTVSPost2010Prop44ColorIndex
 90
        5
102
RTVSPost2010Prop44ColorRGB
 90
      255
102
RTVSPost2010PropOp44
 70
     1
102
RTVSPost2010Prop45
280
     0
102
RTVSPost2010PropOp45
 70
     1
102
RTVSPost2010Prop46
 90
       50
102
RTVSPost2010PropOp46
 70
     1
102
RTVSPost2010Prop47
 90
       50
102
RTVSPost2010PropOp47
 70
     1
102
RTVSPost2010Prop48
 90
       50
102
RTVSPost2010PropOp48
 70
     1
102
RTVSPost2010Prop49
280
     0
102
RTVSPost2010PropOp49
 70
     1
102
RTVSPost2010Prop50
 90
       50
102
RTVSPost2010PropOp50
 70
     1
102
RTVSPost2010Prop51ColorIndex
 90
      256
102
RTVSPost2010Prop51ColorRGB
 90
-16777216
102
RTVSPost2010PropOp51
 70
     0
102
RTVSPost2010Prop52
140
1.0
102
RTVSPost2010PropOp52
 70
     0
102
RTVSPost2010Prop53
 90
        2
102
RTVSPost2010PropOp53
 70
     1
102
RTVSPost2010Prop54
  1
strokes_ogs.tif
102
RTVSPost2010PropOp54
 70
     1
102
RTVSPost2010Prop55
280
     0
102
RTVSPost2010PropOp55
 70
     1
102
RTVSPost2010Prop56
140
1.0
102
RTVSPost2010PropOp56
 70
     1
102
RTVSPost2010Prop57
140
1.0
102
RTVSPost2010PropOp57
 70
     1
  0
XRECORD
  5
4C2
102
{ACAD_REACTORS
330
4C1
102
}
330
4C1
100
AcDbXrecord
280
     1
102
RTVSPost2010Prop28
280
     0
102
RTVSPost2010PropOp28
 70
     1
102
RTVSPost2010Prop29
280
     1
102
RTVSPost2010PropOp29
 70
     1
102
RTVSPost2010Prop30
280
     1
102
RTVSPost2010PropOp30
 70
     1
102
RTVSPost2010Prop31
280
     0
102
RTVSPost2010PropOp31
 70
     1
102
RTVSPost2010Prop32
280
     0
102
RTVSPost2010PropOp32
 70
     1
102
RTVSPost2010Prop33
280
     0
102
RTVSPost2010PropOp33
 70
     1
102
RTVSPost2010Prop34
280
     0
102
RTVSPost2010PropOp34
 70
     1
102
RTVSPost2010Prop35
280
     0
102
RTVSPost2010PropOp35
 70
     1
102
RTVSPost2010Prop36
280
     0
102
RTVSPost2010PropOp36
 70
     1
102
RTVSPost2010Prop37
 90
       50
102
RTVSPost2010PropOp37
 70
     1
102
RTVSPost2010Prop38
140
0.0
102
RTVSPost2010PropOp38
 70
     1
102
RTVSPost2010Prop39
140
1.0
102
RTVSPost2010PropOp39
 70
     1
102
RTVSPost2010Prop40
 90
        0
102
RTVSPost2010PropOp40
 70
     1
102
RTVSPost2010Prop41ColorIndex
 90
       18
102
RTVSPost2010Prop41ColorRGB
 90
        0
102
RTVSPost2010PropOp41
 70
     1
102
RTVSPost2010Prop42
 90
       50
102
RTVSPost2010PropOp42
 70
     1
102
RTVSPost2010Prop43
 90
        3
102
RTVSPost2010PropOp43
 70
     1
102
RTVSPost2010Prop44ColorIndex
 90
        5
102
RTVSPost2010Prop44ColorRGB
 90
      255
102
RTVSPost2010PropOp44
 70
     1
102
RTVSPost2010Prop45
280
     0
102
RTVSPost2010PropOp45
 70
     1
102
RTVSPost2010Prop46
 90
       50
102
RTVSPost2010PropOp46
 70
     1
102
RTVSPost2010Prop47
 90
       50
102
RTVSPost2010PropOp47
 70
     1
102
RTVSPost2010Prop48
 90
       50
102
RTVSPost2010PropOp48
 70
     1
102
RTVSPost2010Prop49
280
     0
102
RTVSPost2010PropOp49
 70
     1
102
RTVSPost2010Prop50
 90
       50
102
RTVSPost2010PropOp50
 70
     1
102
RTVSPost2010Prop51ColorIndex
 90
      256
102
RTVSPost2010Prop51ColorRGB
 90
-16777216
102
RTVSPost2010PropOp51
 70
     0
102
RTVSPost2010Prop52
140
1.0
102
RTVSPost2010PropOp52
 70
     0
102
RTVSPost2010Prop53
 90
        2
102
RTVSPost2010PropOp53
 70
     1
102
RTVSPost2010Prop54
  1
strokes_ogs.tif
102
RTVSPost2010PropOp54
 70
     1
102
RTVSPost2010Prop55
280
     0
102
RTVSPost2010PropOp55
 70
     1
102
RTVSPost2010Prop56
140
1.0
102
RTVSPost2010PropOp56
 70
     1
102
RTVSPost2010Prop57
140
1.0
102
RTVSPost2010PropOp57
 70
     1
  0
XRECORD
  5
4C4
102
{ACAD_REACTORS
330
4C3
102
}
330
4C3
100
AcDbXrecord
280
     1
102
RTVSPost2010Prop28
280
     0
102
RTVSPost2010PropOp28
 70
     1
102
RTVSPost2010Prop29
280
     1
102
RTVSPost2010PropOp29
 70
     1
102
RTVSPost2010Prop30
280
     1
102
RTVSPost2010PropOp30
 70
     1
102
RTVSPost2010Prop31
280
     0
102
RTVSPost2010PropOp31
 70
     1
102
RTVSPost2010Prop32
280
     0
102
RTVSPost2010PropOp32
 70
     1
102
RTVSPost2010Prop33
280
     0
102
RTVSPost2010PropOp33
 70
     1
102
RTVSPost2010Prop34
280
     0
102
RTVSPost2010PropOp34
 70
     1
102
RTVSPost2010Prop35
280
     0
102
RTVSPost2010PropOp35
 70
     1
102
RTVSPost2010Prop36
280
     0
102
RTVSPost2010PropOp36
 70
     1
102
RTVSPost2010Prop37
 90
       50
102
RTVSPost2010PropOp37
 70
     1
102
RTVSPost2010Prop38
140
0.0
102
RTVSPost2010PropOp38
 70
     1
102
RTVSPost2010Prop39
140
1.0
102
RTVSPost2010PropOp39
 70
     1
102
RTVSPost2010Prop40
 90
        0
102
RTVSPost2010PropOp40
 70
     1
102
RTVSPost2010Prop41ColorIndex
 90
       18
102
RTVSPost2010Prop41ColorRGB
 90
        0
102
RTVSPost2010PropOp41
 70
     1
102
RTVSPost2010Prop42
 90
       50
102
RTVSPost2010PropOp42
 70
     1
102
RTVSPost2010Prop43
 90
        3
102
RTVSPost2010PropOp43
 70
     1
102
RTVSPost2010Prop44ColorIndex
 90
        5
102
RTVSPost2010Prop44ColorRGB
 90
      255
102
RTVSPost2010PropOp44
 70
     1
102
RTVSPost2010Prop45
280
     0
102
RTVSPost2010PropOp45
 70
     1
102
RTVSPost2010Prop46
 90
       50
102
RTVSPost2010PropOp46
 70
     1
102
RTVSPost2010Prop47
 90
       50
102
RTVSPost2010PropOp47
 70
     1
102
RTVSPost2010Prop48
 90
       50
102
RTVSPost2010PropOp48
 70
     1
102
RTVSPost2010Prop49
280
     0
102
RTVSPost2010PropOp49
 70
     1
102
RTVSPost2010Prop50
 90
       50
102
RTVSPost2010PropOp50
 70
     1
102
RTVSPost2010Prop51ColorIndex
 90
      256
102
RTVSPost2010Prop51ColorRGB
 90
-16777216
102
RTVSPost2010PropOp51
 70
     0
102
RTVSPost2010Prop52
140
1.0
102
RTVSPost2010PropOp52
 70
     0
102
RTVSPost2010Prop53
 90
        2
102
RTVSPost2010PropOp53
 70
     1
102
RTVSPost2010Prop54
  1
strokes_ogs.tif
102
RTVSPost2010PropOp54
 70
     1
102
RTVSPost2010Prop55
280
     0
102
RTVSPost2010PropOp55
 70
     1
102
RTVSPost2010Prop56
140
1.0
102
RTVSPost2010PropOp56
 70
     1
102
RTVSPost2010Prop57
140
1.0
102
RTVSPost2010PropOp57
 70
     1
  0
XRECORD
  5
4B4
102
{ACAD_REACTORS
330
4B3
102
}
330
4B3
100
AcDbXrecord
280
     1
102
RTVSPost2010Prop28
280
     0
102
RTVSPost2010PropOp28
 70
     1
102
RTVSPost2010Prop29
280
     1
102
RTVSPost2010PropOp29
 70
     1
102
RTVSPost2010Prop30
280
     1
102
RTVSPost2010PropOp30
 70
     1
102
RTVSPost2010Prop31
280
     0
102
RTVSPost2010PropOp31
 70
     1
102
RTVSPost2010Prop32
280
     0
102
RTVSPost2010PropOp32
 70
     1
102
RTVSPost2010Prop33
280
     0
102
RTVSPost2010PropOp33
 70
     1
102
RTVSPost2010Prop34
280
     0
102
RTVSPost2010PropOp34
 70
     1
102
RTVSPost2010Prop35
280
     0
102
RTVSPost2010PropOp35
 70
     1
102
RTVSPost2010Prop36
280
     0
102
RTVSPost2010PropOp36
 70
     1
102
RTVSPost2010Prop37
 90
       50
102
RTVSPost2010PropOp37
 70
     1
102
RTVSPost2010Prop38
140
0.0
102
RTVSPost2010PropOp38
 70
     1
102
RTVSPost2010Prop39
140
1.0
102
RTVSPost2010PropOp39
 70
     1
102
RTVSPost2010Prop40
 90
        0
102
RTVSPost2010PropOp40
 70
     1
102
RTVSPost2010Prop41ColorIndex
 90
       18
102
RTVSPost2010Prop41ColorRGB
 90
        0
102
RTVSPost2010PropOp41
 70
     1
102
RTVSPost2010Prop42
 90
       50
102
RTVSPost2010PropOp42
 70
     1
102
RTVSPost2010Prop43
 90
        3
102
RTVSPost2010PropOp43
 70
     1
102
RTVSPost2010Prop44ColorIndex
 90
        5
102
RTVSPost2010Prop44ColorRGB
 90
      255
102
RTVSPost2010PropOp44
 70
     1
102
RTVSPost2010Prop45
280
     0
102
RTVSPost2010PropOp45
 70
     1
102
RTVSPost2010Prop46
 90
       50
102
RTVSPost2010PropOp46
 70
     1
102
RTVSPost2010Prop47
 90
       50
102
RTVSPost2010PropOp47
 70
     1
102
RTVSPost2010Prop48
 90
       50
102
RTVSPost2010PropOp48
 70
     1
102
RTVSPost2010Prop49
280
     0
102
RTVSPost2010PropOp49
 70
     1
102
RTVSPost2010Prop50
 90
       50
102
RTVSPost2010PropOp50
 70
     1
102
RTVSPost2010Prop51ColorIndex
 90
      256
102
RTVSPost2010Prop51ColorRGB
 90
-16777216
102
RTVSPost2010PropOp51
 70
     0
102
RTVSPost2010Prop52
140
1.0
102
RTVSPost2010PropOp52
 70
     0
102
RTVSPost2010Prop53
 90
        2
102
RTVSPost2010PropOp53
 70
     1
102
RTVSPost2010Prop54
  1
strokes_ogs.tif
102
RTVSPost2010PropOp54
 70
     1
102
RTVSPost2010Prop55
280
     0
102
RTVSPost2010PropOp55
 70
     1
102
RTVSPost2010Prop56
140
1.0
102
RTVSPost2010PropOp56
 70
     1
102
RTVSPost2010Prop57
140
1.0
102
RTVSPost2010PropOp57
 70
     1
  0
XRECORD
  5
4A6
102
{ACAD_REACTORS
330
4A5
102
}
330
4A5
100
AcDbXrecord
280
     1
102
RTVSPost2010Prop28
280
     0
102
RTVSPost2010PropOp28
 70
     1
102
RTVSPost2010Prop29
280
     1
102
RTVSPost2010PropOp29
 70
     1
102
RTVSPost2010Prop30
280
     1
102
RTVSPost2010PropOp30
 70
     1
102
RTVSPost2010Prop31
280
     0
102
RTVSPost2010PropOp31
 70
     1
102
RTVSPost2010Prop32
280
     0
102
RTVSPost2010PropOp32
 70
     1
102
RTVSPost2010Prop33
280
     0
102
RTVSPost2010PropOp33
 70
     1
102
RTVSPost2010Prop34
280
     0
102
RTVSPost2010PropOp34
 70
     1
102
RTVSPost2010Prop35
280
     0
102
RTVSPost2010PropOp35
 70
     1
102
RTVSPost2010Prop36
280
     0
102
RTVSPost2010PropOp36
 70
     1
102
RTVSPost2010Prop37
 90
       50
102
RTVSPost2010PropOp37
 70
     1
102
RTVSPost2010Prop38
140
0.0
102
RTVSPost2010PropOp38
 70
     1
102
RTVSPost2010Prop39
140
1.0
102
RTVSPost2010PropOp39
 70
     1
102
RTVSPost2010Prop40
 90
        0
102
RTVSPost2010PropOp40
 70
     1
102
RTVSPost2010Prop41ColorIndex
 90
       18
102
RTVSPost2010Prop41ColorRGB
 90
        0
102
RTVSPost2010PropOp41
 70
     1
102
RTVSPost2010Prop42
 90
       50
102
RTVSPost2010PropOp42
 70
     1
102
RTVSPost2010Prop43
 90
        3
102
RTVSPost2010PropOp43
 70
     1
102
RTVSPost2010Prop44ColorIndex
 90
        5
102
RTVSPost2010Prop44ColorRGB
 90
      255
102
RTVSPost2010PropOp44
 70
     1
102
RTVSPost2010Prop45
280
     0
102
RTVSPost2010PropOp45
 70
     1
102
RTVSPost2010Prop46
 90
       50
102
RTVSPost2010PropOp46
 70
     1
102
RTVSPost2010Prop47
 90
       50
102
RTVSPost2010PropOp47
 70
     1
102
RTVSPost2010Prop48
 90
       50
102
RTVSPost2010PropOp48
 70
     1
102
RTVSPost2010Prop49
280
     0
102
RTVSPost2010PropOp49
 70
     1
102
RTVSPost2010Prop50
 90
       50
102
RTVSPost2010PropOp50
 70
     1
102
RTVSPost2010Prop51ColorIndex
 90
      256
102
RTVSPost2010Prop51ColorRGB
 90
-16777216
102
RTVSPost2010PropOp51
 70
     0
102
RTVSPost2010Prop52
140
1.0
102
RTVSPost2010PropOp52
 70
     0
102
RTVSPost2010Prop53
 90
        2
102
RTVSPost2010PropOp53
 70
     1
102
RTVSPost2010Prop54
  1
strokes_ogs.tif
102
RTVSPost2010PropOp54
 70
     1
102
RTVSPost2010Prop55
280
     0
102
RTVSPost2010PropOp55
 70
     1
102
RTVSPost2010Prop56
140
1.0
102
RTVSPost2010PropOp56
 70
     1
102
RTVSPost2010Prop57
140
1.0
102
RTVSPost2010PropOp57
 70
     1
  0
XRECORD
  5
4C6
102
{ACAD_REACTORS
330
4C5
102
}
330
4C5
100
AcDbXrecord
280
     1
102
RTVSPost2010Prop28
280
     0
102
RTVSPost2010PropOp28
 70
     1
102
RTVSPost2010Prop29
280
     1
102
RTVSPost2010PropOp29
 70
     1
102
RTVSPost2010Prop30
280
     1
102
RTVSPost2010PropOp30
 70
     1
102
RTVSPost2010Prop31
280
     0
102
RTVSPost2010PropOp31
 70
     1
102
RTVSPost2010Prop32
280
     0
102
RTVSPost2010PropOp32
 70
     1
102
RTVSPost2010Prop33
280
     0
102
RTVSPost2010PropOp33
 70
     1
102
RTVSPost2010Prop34
280
     0
102
RTVSPost2010PropOp34
 70
     1
102
RTVSPost2010Prop35
280
     0
102
RTVSPost2010PropOp35
 70
     1
102
RTVSPost2010Prop36
280
     0
102
RTVSPost2010PropOp36
 70
     1
102
RTVSPost2010Prop37
 90
       50
102
RTVSPost2010PropOp37
 70
     1
102
RTVSPost2010Prop38
140
0.0
102
RTVSPost2010PropOp38
 70
     1
102
RTVSPost2010Prop39
140
1.0
102
RTVSPost2010PropOp39
 70
     1
102
RTVSPost2010Prop40
 90
        0
102
RTVSPost2010PropOp40
 70
     1
102
RTVSPost2010Prop41ColorIndex
 90
       18
102
RTVSPost2010Prop41ColorRGB
 90
        0
102
RTVSPost2010PropOp41
 70
     1
102
RTVSPost2010Prop42
 90
       50
102
RTVSPost2010PropOp42
 70
     1
102
RTVSPost2010Prop43
 90
        3
102
RTVSPost2010PropOp43
 70
     1
102
RTVSPost2010Prop44ColorIndex
 90
        5
102
RTVSPost2010Prop44ColorRGB
 90
      255
102
RTVSPost2010PropOp44
 70
     1
102
RTVSPost2010Prop45
280
     0
102
RTVSPost2010PropOp45
 70
     1
102
RTVSPost2010Prop46
 90
       50
102
RTVSPost2010PropOp46
 70
     1
102
RTVSPost2010Prop47
 90
       50
102
RTVSPost2010PropOp47
 70
     1
102
RTVSPost2010Prop48
 90
       50
102
RTVSPost2010PropOp48
 70
     1
102
RTVSPost2010Prop49
280
     0
102
RTVSPost2010PropOp49
 70
     1
102
RTVSPost2010Prop50
 90
       50
102
RTVSPost2010PropOp50
 70
     1
102
RTVSPost2010Prop51ColorIndex
 90
      256
102
RTVSPost2010Prop51ColorRGB
 90
-16777216
102
RTVSPost2010PropOp51
 70
     0
102
RTVSPost2010Prop52
140
1.0
102
RTVSPost2010PropOp52
 70
     0
102
RTVSPost2010Prop53
 90
        2
102
RTVSPost2010PropOp53
 70
     1
102
RTVSPost2010Prop54
  1
strokes_ogs.tif
102
RTVSPost2010PropOp54
 70
     1
102
RTVSPost2010Prop55
280
     0
102
RTVSPost2010PropOp55
 70
     1
102
RTVSPost2010Prop56
140
1.0
102
RTVSPost2010PropOp56
 70
     1
102
RTVSPost2010Prop57
140
1.0
102
RTVSPost2010PropOp57
 70
     1
  0
ENDSEC
  0
EOF
