  0
SECTION
  2
HEADER
  9
$ACADVER
  1
AC1024
  9
$ACADMAINTVER
 70
     6
  9
$DWGCODEPAGE
  3
ANSI_932
  9
$INSBASE
 10
0.0
 20
0.0
 30
0.0
  9
$EXTMIN
 10
-5910.0
 20
-4053.842299814336
 30
0.0
  9
$EXTMAX
 10
5910.0
 20
4053.842299814336
 30
0.0
  9
$LIMMIN
 10
-2100.0
 20
-1485.0
  9
$LIMMAX
 10
2100.0
 20
1485.0
  9
$ORTHOMODE
 70
     0
  9
$REGENMODE
 70
     1
  9
$FILLMODE
 70
     1
  9
$QTEXTMODE
 70
     0
  9
$MIRRTEXT
 70
     1
  9
$LTSCALE
 40
2.5
  9
$ATTMODE
 70
     1
  9
$TEXTSIZE
 40
0.2
  9
$TRACEWID
 40
0.05
  9
$TEXTSTYLE
  7
Standard
  9
$CLAYER
  8
0
  9
$CELTYPE
  6
ByLayer
  9
$CECOLOR
 62
   256
  9
$CELTSCALE
 40
1.0
  9
$DISPSILH
 70
     0
  9
$DIMSCALE
 40
1.0
  9
$DIMASZ
 40
30.00001907348633
  9
$DIMEXO
 40
1.0
  9
$DIMDLI
 40
10.0
  9
$DIMRND
 40
0.0
  9
$DIMDLE
 40
0.0
  9
$DIMEXE
 40
1.0
  9
$DIMTP
 40
0.0
  9
$DIMTM
 40
0.0
  9
$DIMTXT
 40
40.0
  9
$DIMCEN
 40
0.0
  9
$DIMTSZ
 40
0.0
  9
$DIMTOL
 70
     0
  9
$DIMLIM
 70
     0
  9
$DIMTIH
 70
     0
  9
$DIMTOH
 70
     0
  9
$DIMSE1
 70
     0
  9
$DIMSE2
 70
     0
  9
$DIMTAD
 70
     1
  9
$DIMZIN
 70
     8
  9
$DIMBLK
  1

  9
$DIMASO
 70
     1
  9
$DIMSHO
 70
     1
  9
$DIMPOST
  1

  9
$DIMAPOST
  1

  9
$DIMALT
 70
     0
  9
$DIMALTD
 70
     2
  9
$DIMALTF
 40
0.0393700787401575
  9
$DIMLFAC
 40
1.0
  9
$DIMTOFL
 70
     0
  9
$DIMTVP
 40
0.0
  9
$DIMTIX
 70
     0
  9
$DIMSOXD
 70
     0
  9
$DIMSAH
 70
     0
  9
$DIMBLK1
  1

  9
$DIMBLK2
  1

  9
$DIMSTYLE
  2
Standard
  9
$DIMCLRD
 70
     0
  9
$DIMCLRE
 70
     0
  9
$DIMCLRT
 70
     0
  9
$DIMTFAC
 40
0.65
  9
$DIMGAP
 40
0.09
  9
$DIMJUST
 70
     0
  9
$DIMSD1
 70
     0
  9
$DIMSD2
 70
     0
  9
$DIMTOLJ
 70
     0
  9
$DIMTZIN
 70
     0
  9
$DIMALTZ
 70
     0
  9
$DIMALTTZ
 70
     0
  9
$DIMUPT
 70
     0
  9
$DIMDEC
 70
     5
  9
$DIMTDEC
 70
     5
  9
$DIMALTU
 70
     2
  9
$DIMALTTD
 70
     5
  9
$DIMTXSTY
  7
Standard
  9
$DIMAUNIT
 70
     0
  9
$DIMADEC
 70
     5
  9
$DIMALTRND
 40
0.0
  9
$DIMAZIN
 70
     2
  9
$DIMDSEP
 70
    46
  9
$DIMATFIT
 70
     3
  9
$DIMFRAC
 70
     0
  9
$DIMLDRBLK
  1

  9
$DIMLUNIT
 70
     2
  9
$DIMLWD
 70
    -2
  9
$DIMLWE
 70
    -2
  9
$DIMTMOVE
 70
     0
  9
$DIMFXL
 40
1.0
  9
$DIMFXLON
 70
     0
  9
$DIMJOGANG
 40
0.7853981633974483
  9
$DIMTFILL
 70
     0
  9
$DIMTFILLCLR
 70
     0
  9
$DIMARCSYM
 70
     1
  9
$DIMLTYPE
  6

  9
$DIMLTEX1
  6

  9
$DIMLTEX2
  6

  9
$DIMTXTDIRECTION
 70
     0
  9
$LUNITS
 70
     2
  9
$LUPREC
 70
     4
  9
$SKETCHINC
 40
0.1
  9
$FILLETRAD
 40
0.5
  9
$AUNITS
 70
     0
  9
$AUPREC
 70
     0
  9
$MENU
  1
.
  9
$ELEVATION
 40
0.0
  9
$PELEVATION
 40
0.0
  9
$THICKNESS
 40
0.0
  9
$LIMCHECK
 70
     0
  9
$CHAMFERA
 40
0.0
  9
$CHAMFERB
 40
0.0
  9
$CHAMFERC
 40
0.0
  9
$CHAMFERD
 40
0.0
  9
$SKPOLY
 70
     0
  9
$TDCREATE
 40
2458956.713520394
  9
$TDUCREATE
 40
2458956.338520394
  9
$TDUPDATE
 40
2458956.713521088
  9
$TDUUPDATE
 40
2458956.338521088
  9
$TDINDWG
 40
0.0000000116
  9
$TDUSRTIMER
 40
0.0000000116
  9
$USRTIMER
 70
     1
  9
$ANGBASE
 50
0.0
  9
$ANGDIR
 70
     0
  9
$PDMODE
 70
     0
  9
$PDSIZE
 40
1.0
  9
$PLINEWID
 40
0.0
  9
$SPLFRAME
 70
     0
  9
$SPLINETYPE
 70
     6
  9
$SPLINESEGS
 70
     8
  9
$HANDSEED
  5
52C
  9
$SURFTAB1
 70
     6
  9
$SURFTAB2
 70
     6
  9
$SURFTYPE
 70
     6
  9
$SURFU
 70
     6
  9
$SURFV
 70
     6
  9
$UCSBASE
  2

  9
$UCSNAME
  2

  9
$UCSORG
 10
0.0
 20
0.0
 30
0.0
  9
$UCSXDIR
 10
1.0
 20
0.0
 30
0.0
  9
$UCSYDIR
 10
0.0
 20
1.0
 30
0.0
  9
$UCSORTHOREF
  2

  9
$UCSORTHOVIEW
 70
     0
  9
$UCSORGTOP
 10
0.0
 20
0.0
 30
0.0
  9
$UCSORGBOTTOM
 10
0.0
 20
0.0
 30
0.0
  9
$UCSORGLEFT
 10
0.0
 20
0.0
 30
0.0
  9
$UCSORGRIGHT
 10
0.0
 20
0.0
 30
0.0
  9
$UCSORGFRONT
 10
0.0
 20
0.0
 30
0.0
  9
$UCSORGBACK
 10
0.0
 20
0.0
 30
0.0
  9
$PUCSBASE
  2

  9
$PUCSNAME
  2

  9
$PUCSORG
 10
0.0
 20
0.0
 30
0.0
  9
$PUCSXDIR
 10
1.0
 20
0.0
 30
0.0
  9
$PUCSYDIR
 10
0.0
 20
1.0
 30
0.0
  9
$PUCSORTHOREF
  2

  9
$PUCSORTHOVIEW
 70
     0
  9
$PUCSORGTOP
 10
0.0
 20
0.0
 30
0.0
  9
$PUCSORGBOTTOM
 10
0.0
 20
0.0
 30
0.0
  9
$PUCSORGLEFT
 10
0.0
 20
0.0
 30
0.0
  9
$PUCSORGRIGHT
 10
0.0
 20
0.0
 30
0.0
  9
$PUCSORGFRONT
 10
0.0
 20
0.0
 30
0.0
  9
$PUCSORGBACK
 10
0.0
 20
0.0
 30
0.0
  9
$USERI1
 70
     0
  9
$USERI2
 70
     0
  9
$USERI3
 70
     0
  9
$USERI4
 70
     0
  9
$USERI5
 70
     0
  9
$USERR1
 40
0.0
  9
$USERR2
 40
0.0
  9
$USERR3
 40
0.0
  9
$USERR4
 40
0.0
  9
$USERR5
 40
0.0
  9
$WORLDVIEW
 70
     1
  9
$SHADEDGE
 70
     3
  9
$SHADEDIF
 70
    70
  9
$TILEMODE
 70
     1
  9
$MAXACTVP
 70
    64
  9
$PINSBASE
 10
0.0
 20
0.0
 30
0.0
  9
$PLIMCHECK
 70
     0
  9
$PEXTMIN
 10
1.000000000000000E+20
 20
1.000000000000000E+20
 30
1.000000000000000E+20
  9
$PEXTMAX
 10
-1.000000000000000E+20
 20
-1.000000000000000E+20
 30
-1.000000000000000E+20
  9
$PLIMMIN
 10
0.0
 20
0.0
  9
$PLIMMAX
 10
12.0
 20
9.0
  9
$UNITMODE
 70
     0
  9
$VISRETAIN
 70
     0
  9
$PLINEGEN
 70
     1
  9
$PSLTSCALE
 70
     0
  9
$TREEDEPTH
 70
  3020
  9
$CMLSTYLE
  2
Standard
  9
$CMLJUST
 70
     0
  9
$CMLSCALE
 40
1.0
  9
$PROXYGRAPHICS
 70
     0
  9
$MEASUREMENT
 70
     1
  9
$CELWEIGHT
370
    -1
  9
$ENDCAPS
280
     0
  9
$JOINSTYLE
280
     0
  9
$LWDISPLAY
290
     1
  9
$INSUNITS
 70
     4
  9
$HYPERLINKBASE
  1

  9
$STYLESHEET
  1

  9
$XEDIT
290
     1
  9
$CEPSNTYPE
380
     0
  9
$PSTYLEMODE
290
     1
  9
$FINGERPRINTGUID
  2
{AFEECFA7-6E0C-4BA8-9D79-E2B9F2DB8F57}
  9
$VERSIONGUID
  2
{FAEB1C32-E019-11D5-929B-00C0DF256EC4}
  9
$EXTNAMES
290
     1
  9
$PSVPSCALE
 40
0.0
  9
$OLESTARTUP
290
     0
  9
$SORTENTS
280
   127
  9
$INDEXCTL
280
     0
  9
$HIDETEXT
280
     1
  9
$XCLIPFRAME
280
     2
  9
$HALOGAP
280
     0
  9
$OBSCOLOR
 70
   257
  9
$OBSLTYPE
280
     0
  9
$INTERSECTIONDISPLAY
280
     0
  9
$INTERSECTIONCOLOR
 70
   257
  9
$DIMASSOC
280
     2
  9
$PROJECTNAME
  1

  9
$CAMERADISPLAY
290
     0
  9
$LENSLENGTH
 40
50.0
  9
$CAMERAHEIGHT
 40
0.0
  9
$STEPSPERSEC
 40
2.0
  9
$STEPSIZE
 40
6.0
  9
$3DDWFPREC
 40
2.0
  9
$PSOLWIDTH
 40
0.25
  9
$PSOLHEIGHT
 40
4.0
  9
$LOFTANG1
 40
1.570796326794897
  9
$LOFTANG2
 40
1.570796326794897
  9
$LOFTMAG1
 40
0.0
  9
$LOFTMAG2
 40
0.0
  9
$LOFTPARAM
 70
     7
  9
$LOFTNORMALS
280
     1
  9
$LATITUDE
 40
37.795
  9
$LONGITUDE
 40
-122.394
  9
$NORTHDIRECTION
 40
0.0
  9
$TIMEZONE
 70
 -8000
  9
$LIGHTGLYPHDISPLAY
280
     1
  9
$TILEMODELIGHTSYNCH
280
     1
  9
$CMATERIAL
347
44
  9
$SOLIDHIST
280
     1
  9
$SHOWHIST
280
     1
  9
$DWFFRAME
280
     2
  9
$DGNFRAME
280
     2
  9
$REALWORLDSCALE
290
     1
  9
$INTERFERECOLOR
 62
   256
  9
$CSHADOW
280
     0
  9
$SHADOWPLANELOCATION
 40
0.0
  0
ENDSEC
  0
SECTION
  2
CLASSES
  0
CLASS
  1
ACDBDICTIONARYWDFLT
  2
AcDbDictionaryWithDefault
  3
ObjectDBX Classes
 90
        0
 91
        4
280
     0
281
     0
  0
CLASS
  1
VISUALSTYLE
  2
AcDbVisualStyle
  3
ObjectDBX Classes
 90
     4095
 91
        4
280
     0
281
     0
  0
CLASS
  1
MATERIAL
  2
AcDbMaterial
  3
ObjectDBX Classes
 90
     1153
 91
        4
280
     0
281
     0
  0
CLASS
  1
SCALE
  2
AcDbScale
  3
ObjectDBX Classes
 90
     1153
 91
        4
280
     0
281
     0
  0
CLASS
  1
SUN
  2
AcDbSun
  3
SCENEOE
 90
     1153
 91
        4
280
     0
281
     0
  0
CLASS
  1
DICTIONARYVAR
  2
AcDbDictionaryVar
  3
ObjectDBX Classes
 90
        0
 91
        4
280
     0
281
     0
  0
ENDSEC
  0
SECTION
  2
TABLES
  0
TABLE
  2
VPORT
  5
8
330
0
100
AcDbSymbolTable
 70
     1
  0
VPORT
  5
29
330
8
100
AcDbSymbolTableRecord
100
AcDbViewportTableRecord
  2
*Active
 70
     0
 10
0.0
 20
0.0
 11
1.0
 21
1.0
 12
0.0
 22
0.0
 13
0.0
 23
0.0
 14
0.5
 24
0.5
 15
0.5
 25
0.5
 16
0.0
 26
0.0
 36
1.0
 17
0.0000000000001101
 27
0.0
 37
0.0
 40
2756.612763873748
 41
1.457876148825689
 42
50.0
 43
0.0
 44
0.0
 50
0.0
 51
0.0
 71
     0
 72
  1000
 73
     1
 74
     1
 75
     0
 76
     0
 77
     0
 78
     0
281
     0
 65
     1
110
0.0
120
0.0
130
0.0
111
1.0
121
0.0
131
0.0
112
0.0
122
1.0
132
0.0
 79
     0
146
0.0
 60
     3
 61
     5
292
     1
282
     1
141
0.0
142
0.0
 63
   250
361
69
  0
ENDTAB
  0
TABLE
  2
LTYPE
  5
5
330
0
100
AcDbSymbolTable
 70
    67
  0
LTYPE
  5
14
330
5
100
AcDbSymbolTableRecord
100
AcDbLinetypeTableRecord
  2
ByBlock
 70
     0
  3

 72
    65
 73
     0
 40
0.0
  0
LTYPE
  5
15
330
5
100
AcDbSymbolTableRecord
100
AcDbLinetypeTableRecord
  2
ByLayer
 70
     0
  3

 72
    65
 73
     0
 40
0.0
  0
LTYPE
  5
16
330
5
100
AcDbSymbolTableRecord
100
AcDbLinetypeTableRecord
  2
Continuous
 70
     0
  3
Solid line
 72
    65
 73
     0
 40
0.0
  0
LTYPE
  5
6B
330
5
100
AcDbSymbolTableRecord
100
AcDbLinetypeTableRecord
  2
HIDDENX2
 70
     0
  3
Hidden (2x) ____ ____ ____ ____ ____ ____ ____ 
 72
    65
 73
     2
 40
19.05
 49
12.7
 74
     0
 49
-6.35
 74
     0
  0
LTYPE
  5
6C
330
5
100
AcDbSymbolTableRecord
100
AcDbLinetypeTableRecord
  2
HIDDEN
 70
     0
  3
Hidden __ __ __ __ __ __ __ __ __ __ __ __ __ __
 72
    65
 73
     2
 40
9.524999999999999
 49
6.35
 74
     0
 49
-3.175
 74
     0
  0
LTYPE
  5
6D
330
5
100
AcDbSymbolTableRecord
100
AcDbLinetypeTableRecord
  2
HIDDEN2
 70
     0
  3
Hidden (.5x) _ _ _ _ _ _ _ _ _ _ _ _ _ _ _ _ _ 
 72
    65
 73
     2
 40
4.762499999999999
 49
3.175
 74
     0
 49
-1.5875
 74
     0
  0
LTYPE
  5
6E
330
5
100
AcDbSymbolTableRecord
100
AcDbLinetypeTableRecord
  2
DASHED
 70
     0
  3
Dashed __ __ __ __ __ __ __ __ __ __ __ __ __ _
 72
    65
 73
     2
 40
19.05
 49
12.7
 74
     0
 49
-6.35
 74
     0
  0
LTYPE
  5
6F
330
5
100
AcDbSymbolTableRecord
100
AcDbLinetypeTableRecord
  2
DASHED2
 70
     0
  3
Dashed (.5x) _ _ _ _ _ _ _ _ _ _ _ _ _ _ _ _ _ 
 72
    65
 73
     2
 40
9.524999999999999
 49
6.35
 74
     0
 49
-3.175
 74
     0
  0
LTYPE
  5
70
330
5
100
AcDbSymbolTableRecord
100
AcDbLinetypeTableRecord
  2
DASHEDX2
 70
     0
  3
Dashed (2x) ____  ____  ____  ____  ____  ___
 72
    65
 73
     2
 40
38.09999999999999
 49
25.4
 74
     0
 49
-12.7
 74
     0
  0
LTYPE
  5
71
330
5
100
AcDbSymbolTableRecord
100
AcDbLinetypeTableRecord
  2
DOTX2
 70
     0
  3
Dot (2x) .  .  .  .  .  .  .  .  .  .  .  .  .  .
 72
    65
 73
     2
 40
12.7
 49
0.0
 74
     0
 49
-12.7
 74
     0
  0
LTYPE
  5
72
330
5
100
AcDbSymbolTableRecord
100
AcDbLinetypeTableRecord
  2
DOT
 70
     0
  3
Dot . . . . . . . . . . . . . . . . . . . . . . . .
 72
    65
 73
     2
 40
6.35
 49
0.0
 74
     0
 49
-6.35
 74
     0
  0
LTYPE
  5
73
330
5
100
AcDbSymbolTableRecord
100
AcDbLinetypeTableRecord
  2
DOT2
 70
     0
  3
Dot (.5x) ........................................
 72
    65
 73
     2
 40
3.175
 49
0.0
 74
     0
 49
-3.175
 74
     0
  0
LTYPE
  5
74
330
5
100
AcDbSymbolTableRecord
100
AcDbLinetypeTableRecord
  2
CENTERX2
 70
     0
  3
Center (2x) ________  __  ________  __  _____
 72
    65
 73
     4
 40
101.6
 49
63.5
 74
     0
 49
-12.7
 74
     0
 49
12.7
 74
     0
 49
-12.7
 74
     0
  0
LTYPE
  5
75
330
5
100
AcDbSymbolTableRecord
100
AcDbLinetypeTableRecord
  2
CENTER
 70
     0
  3
Center ____ _ ____ _ ____ _ ____ _ ____ _ ____
 72
    65
 73
     4
 40
50.8
 49
31.75
 74
     0
 49
-6.35
 74
     0
 49
6.35
 74
     0
 49
-6.35
 74
     0
  0
LTYPE
  5
76
330
5
100
AcDbSymbolTableRecord
100
AcDbLinetypeTableRecord
  2
CENTER2
 70
     0
  3
Center (.5x) ___ _ ___ _ ___ _ ___ _ ___ _ ___
 72
    65
 73
     4
 40
28.575
 49
19.05
 74
     0
 49
-3.175
 74
     0
 49
3.175
 74
     0
 49
-3.175
 74
     0
  0
LTYPE
  5
77
330
5
100
AcDbSymbolTableRecord
100
AcDbLinetypeTableRecord
  2
DASHDOTX2
 70
     0
  3
Dash dot (2x) ____  .  ____  .  ____  .  ___
 72
    65
 73
     4
 40
50.8
 49
25.4
 74
     0
 49
-12.7
 74
     0
 49
0.0
 74
     0
 49
-12.7
 74
     0
  0
LTYPE
  5
78
330
5
100
AcDbSymbolTableRecord
100
AcDbLinetypeTableRecord
  2
DASHDOT
 70
     0
  3
Dash dot __ . __ . __ . __ . __ . __ . __ . __
 72
    65
 73
     4
 40
25.4
 49
12.7
 74
     0
 49
-6.35
 74
     0
 49
0.0
 74
     0
 49
-6.35
 74
     0
  0
LTYPE
  5
79
330
5
100
AcDbSymbolTableRecord
100
AcDbLinetypeTableRecord
  2
DASHDOT2
 70
     0
  3
Dash dot (.5x) _._._._._._._._._._._._._._._.
 72
    65
 73
     4
 40
12.7
 49
6.35
 74
     0
 49
-3.175
 74
     0
 49
0.0
 74
     0
 49
-3.175
 74
     0
  0
LTYPE
  5
7A
330
5
100
AcDbSymbolTableRecord
100
AcDbLinetypeTableRecord
  2
DIVIDEX2
 70
     0
  3
Divide (2x) ________  .  .  ________  .  .  _
 72
    65
 73
     6
 40
63.5
 49
25.4
 74
     0
 49
-12.7
 74
     0
 49
0.0
 74
     0
 49
-12.7
 74
     0
 49
0.0
 74
     0
 49
-12.7
 74
     0
  0
LTYPE
  5
7B
330
5
100
AcDbSymbolTableRecord
100
AcDbLinetypeTableRecord
  2
DIVIDE
 70
     0
  3
Divide ____ . . ____ . . ____ . . ____ . . ____
 72
    65
 73
     6
 40
31.75
 49
12.7
 74
     0
 49
-6.35
 74
     0
 49
0.0
 74
     0
 49
-6.35
 74
     0
 49
0.0
 74
     0
 49
-6.35
 74
     0
  0
LTYPE
  5
7C
330
5
100
AcDbSymbolTableRecord
100
AcDbLinetypeTableRecord
  2
DIVIDE2
 70
     0
  3
Divide (.5x) __..__..__..__..__..__..__..__.._
 72
    65
 73
     6
 40
15.875
 49
6.35
 74
     0
 49
-3.175
 74
     0
 49
0.0
 74
     0
 49
-3.175
 74
     0
 49
0.0
 74
     0
 49
-3.175
 74
     0
  0
LTYPE
  5
7D
330
5
100
AcDbSymbolTableRecord
100
AcDbLinetypeTableRecord
  2
BORDERX2
 70
     0
  3
Border (2x) ____  ____  .  ____  ____  .  ___
 72
    65
 73
     6
 40
88.89999999999999
 49
25.4
 74
     0
 49
-12.7
 74
     0
 49
25.4
 74
     0
 49
-12.7
 74
     0
 49
0.0
 74
     0
 49
-12.7
 74
     0
  0
LTYPE
  5
7E
330
5
100
AcDbSymbolTableRecord
100
AcDbLinetypeTableRecord
  2
BORDER
 70
     0
  3
Border __ __ . __ __ . __ __ . __ __ . __ __ .
 72
    65
 73
     6
 40
44.45
 49
12.7
 74
     0
 49
-6.35
 74
     0
 49
12.7
 74
     0
 49
-6.35
 74
     0
 49
0.0
 74
     0
 49
-6.35
 74
     0
  0
LTYPE
  5
7F
330
5
100
AcDbSymbolTableRecord
100
AcDbLinetypeTableRecord
  2
BORDER2
 70
     0
  3
Border (.5x) __.__.__.__.__.__.__.__.__.__.__.
 72
    65
 73
     6
 40
22.225
 49
6.35
 74
     0
 49
-3.175
 74
     0
 49
6.35
 74
     0
 49
-3.175
 74
     0
 49
0.0
 74
     0
 49
-3.175
 74
     0
  0
LTYPE
  5
80
330
5
100
AcDbSymbolTableRecord
100
AcDbLinetypeTableRecord
  2
PHANTOMX2
 70
     0
  3
Phantom (2x) ____________    ____    ____   _
 72
    65
 73
     6
 40
127.0
 49
63.5
 74
     0
 49
-12.7
 74
     0
 49
12.7
 74
     0
 49
-12.7
 74
     0
 49
12.7
 74
     0
 49
-12.7
 74
     0
  0
LTYPE
  5
81
330
5
100
AcDbSymbolTableRecord
100
AcDbLinetypeTableRecord
  2
PHANTOM
 70
     0
  3
Phantom ______  __  __  ______  __  __  ______ 
 72
    65
 73
     6
 40
63.5
 49
31.75
 74
     0
 49
-6.35
 74
     0
 49
6.35
 74
     0
 49
-6.35
 74
     0
 49
6.35
 74
     0
 49
-6.35
 74
     0
  0
LTYPE
  5
82
330
5
100
AcDbSymbolTableRecord
100
AcDbLinetypeTableRecord
  2
PHANTOM2
 70
     0
  3
Phantom (.5x) ___ _ _ ___ _ _ ___ _ _ ___ _ _
 72
    65
 73
     6
 40
31.75
 49
15.875
 74
     0
 49
-3.175
 74
     0
 49
3.175
 74
     0
 49
-3.175
 74
     0
 49
3.175
 74
     0
 49
-3.175
 74
     0
  0
LTYPE
  5
83
330
5
100
AcDbSymbolTableRecord
100
AcDbLinetypeTableRecord
  2
ACAD_ISO06W100
 70
     0
  3
ISO long-dash triple-dot ____ ... ____ ... ____
 72
    65
 73
     8
 40
36.0
 49
24.0
 74
     0
 49
-3.0
 74
     0
 49
0.0
 74
     0
 49
-3.0
 74
     0
 49
0.0
 74
     0
 49
-3.0
 74
     0
 49
0.0
 74
     0
 49
-3.0
 74
     0
  0
LTYPE
  5
84
330
5
100
AcDbSymbolTableRecord
100
AcDbLinetypeTableRecord
  2
ACAD_ISO13W100
 70
     0
  3
ISO double-dash double-dot __ __ . . __ __ . . _
 72
    65
 73
     8
 40
36.0
 49
12.0
 74
     0
 49
-3.0
 74
     0
 49
12.0
 74
     0
 49
-3.0
 74
     0
 49
0.0
 74
     0
 49
-3.0
 74
     0
 49
0.0
 74
     0
 49
-3.0
 74
     0
  0
LTYPE
  5
85
330
5
100
AcDbSymbolTableRecord
100
AcDbLinetypeTableRecord
  2
ACAD_ISO14W100
 70
     0
  3
ISO dash triple-dot __ . . . __ . . . __ . . . _
 72
    65
 73
     8
 40
24.0
 49
12.0
 74
     0
 49
-3.0
 74
     0
 49
0.0
 74
     0
 49
-3.0
 74
     0
 49
0.0
 74
     0
 49
-3.0
 74
     0
 49
0.0
 74
     0
 49
-3.0
 74
     0
  0
LTYPE
  5
86
330
5
100
AcDbSymbolTableRecord
100
AcDbLinetypeTableRecord
  2
ACAD_ISO02W100
 70
     0
  3
ISO dash __ __ __ __ __ __ __ __ __ __ __ __ __
 72
    65
 73
     2
 40
15.0
 49
12.0
 74
     0
 49
-3.0
 74
     0
  0
LTYPE
  5
87
330
5
100
AcDbSymbolTableRecord
100
AcDbLinetypeTableRecord
  2
ACAD_ISO03W100
 70
     0
  3
ISO dash space __    __    __    __    __    __
 72
    65
 73
     2
 40
30.0
 49
12.0
 74
     0
 49
-18.0
 74
     0
  0
LTYPE
  5
88
330
5
100
AcDbSymbolTableRecord
100
AcDbLinetypeTableRecord
  2
ACAD_ISO04W100
 70
     0
  3
ISO long-dash dot ____ . ____ . ____ . ____ . _
 72
    65
 73
     4
 40
30.0
 49
24.0
 74
     0
 49
-3.0
 74
     0
 49
0.0
 74
     0
 49
-3.0
 74
     0
  0
LTYPE
  5
89
330
5
100
AcDbSymbolTableRecord
100
AcDbLinetypeTableRecord
  2
ACAD_ISO05W100
 70
     0
  3
ISO long-dash double-dot ____ .. ____ .. ____ . 
 72
    65
 73
     6
 40
33.0
 49
24.0
 74
     0
 49
-3.0
 74
     0
 49
0.0
 74
     0
 49
-3.0
 74
     0
 49
0.0
 74
     0
 49
-3.0
 74
     0
  0
LTYPE
  5
8A
330
5
100
AcDbSymbolTableRecord
100
AcDbLinetypeTableRecord
  2
ACAD_ISO07W100
 70
     0
  3
ISO dot . . . . . . . . . . . . . . . . . . . . 
 72
    65
 73
     2
 40
3.0
 49
0.0
 74
     0
 49
-3.0
 74
     0
  0
LTYPE
  5
8B
330
5
100
AcDbSymbolTableRecord
100
AcDbLinetypeTableRecord
  2
ACAD_ISO08W100
 70
     0
  3
ISO long-dash short-dash ____ __ ____ __ ____ _
 72
    65
 73
     4
 40
36.0
 49
24.0
 74
     0
 49
-3.0
 74
     0
 49
6.0
 74
     0
 49
-3.0
 74
     0
  0
LTYPE
  5
8C
330
5
100
AcDbSymbolTableRecord
100
AcDbLinetypeTableRecord
  2
ACAD_ISO09W100
 70
     0
  3
ISO long-dash double-short-dash ____ __ __ ____
 72
    65
 73
     6
 40
45.0
 49
24.0
 74
     0
 49
-3.0
 74
     0
 49
6.0
 74
     0
 49
-3.0
 74
     0
 49
6.0
 74
     0
 49
-3.0
 74
     0
  0
LTYPE
  5
8D
330
5
100
AcDbSymbolTableRecord
100
AcDbLinetypeTableRecord
  2
ACAD_ISO10W100
 70
     0
  3
ISO dash dot __ . __ . __ . __ . __ . __ . __ . 
 72
    65
 73
     4
 40
18.0
 49
12.0
 74
     0
 49
-3.0
 74
     0
 49
0.0
 74
     0
 49
-3.0
 74
     0
  0
LTYPE
  5
8E
330
5
100
AcDbSymbolTableRecord
100
AcDbLinetypeTableRecord
  2
ACAD_ISO11W100
 70
     0
  3
ISO double-dash dot __ __ . __ __ . __ __ . __ _
 72
    65
 73
     6
 40
33.0
 49
12.0
 74
     0
 49
-3.0
 74
     0
 49
12.0
 74
     0
 49
-3.0
 74
     0
 49
0.0
 74
     0
 49
-3.0
 74
     0
  0
LTYPE
  5
8F
330
5
100
AcDbSymbolTableRecord
100
AcDbLinetypeTableRecord
  2
ACAD_ISO12W100
 70
     0
  3
ISO dash double-dot __ . . __ . . __ . . __ . . 
 72
    65
 73
     6
 40
21.0
 49
12.0
 74
     0
 49
-3.0
 74
     0
 49
0.0
 74
     0
 49
-3.0
 74
     0
 49
0.0
 74
     0
 49
-3.0
 74
     0
  0
LTYPE
  5
90
330
5
100
AcDbSymbolTableRecord
100
AcDbLinetypeTableRecord
  2
ACAD_ISO15W100
 70
     0
  3
ISO double-dash triple-dot __ __ . . . __ __ . .
 72
    65
 73
    10
 40
39.0
 49
12.0
 74
     0
 49
-3.0
 74
     0
 49
12.0
 74
     0
 49
-3.0
 74
     0
 49
0.0
 74
     0
 49
-3.0
 74
     0
 49
0.0
 74
     0
 49
-3.0
 74
     0
 49
0.0
 74
     0
 49
-3.0
 74
     0
  0
LTYPE
  5
91
330
5
100
AcDbSymbolTableRecord
100
AcDbLinetypeTableRecord
  2
JIS_02_0.7
 70
     0
  3
HIDDEN0.75 _ _ _ _ _ _ _ _ _ _ _ _ _ _ _ _ _ 
 72
    65
 73
     2
 40
1.35
 49
0.75
 74
     0
 49
-0.6
 74
     0
  0
LTYPE
  5
92
330
5
100
AcDbSymbolTableRecord
100
AcDbLinetypeTableRecord
  2
JIS_02_1.0
 70
     0
  3
HIDDEN01 _ _ _ _ _ _ _ _ _ _ _ _ _ _ _ _ _ 
 72
    65
 73
     2
 40
2.0
 49
1.0
 74
     0
 49
-1.0
 74
     0
  0
LTYPE
  5
93
330
5
100
AcDbSymbolTableRecord
100
AcDbLinetypeTableRecord
  2
JIS_02_1.2
 70
     0
  3
HIDDEN01.25  _ _ _ _ _ _ _ _ _ _ _ _ _ _ _ _ _ 
 72
    65
 73
     2
 40
2.5
 49
1.25
 74
     0
 49
-1.25
 74
     0
  0
LTYPE
  5
94
330
5
100
AcDbSymbolTableRecord
100
AcDbLinetypeTableRecord
  2
JIS_02_2.0
 70
     0
  3
HIDDEN02 __ __ __ __ __ __ __ __ __ __ __ 
 72
    65
 73
     2
 40
3.0
 49
2.0
 74
     0
 49
-1.0
 74
     0
  0
LTYPE
  5
95
330
5
100
AcDbSymbolTableRecord
100
AcDbLinetypeTableRecord
  2
JIS_02_4.0
 70
     0
  3
HIDDEN04 ____ ____ ____ ____ ____ ____ ____ 
 72
    65
 73
     2
 40
5.5
 49
4.0
 74
     0
 49
-1.5
 74
     0
  0
LTYPE
  5
96
330
5
100
AcDbSymbolTableRecord
100
AcDbLinetypeTableRecord
  2
JIS_08_11
 70
     0
  3
1SASEN11 ___ _ ___ _ ___ _ ___ _ ___ _ ___
 72
    65
 73
     4
 40
12.8
 49
11.0
 74
     0
 49
-0.6
 74
     0
 49
0.6
 74
     0
 49
-0.6
 74
     0
  0
LTYPE
  5
97
330
5
100
AcDbSymbolTableRecord
100
AcDbLinetypeTableRecord
  2
JIS_08_15
 70
     0
  3
1SASEN15 ____ _ ____ _ ____ _ ____ _ ____ 
 72
    65
 73
     4
 40
17.25
 49
15.0
 74
     0
 49
-0.75
 74
     0
 49
0.75
 74
     0
 49
-0.75
 74
     0
  0
LTYPE
  5
98
330
5
100
AcDbSymbolTableRecord
100
AcDbLinetypeTableRecord
  2
JIS_08_25
 70
     0
  3
1SASEN25 ________  __  ________  __  _____
 72
    65
 73
     4
 40
28.0
 49
25.0
 74
     0
 49
-1.125
 74
     0
 49
0.75
 74
     0
 49
-1.125
 74
     0
  0
LTYPE
  5
99
330
5
100
AcDbSymbolTableRecord
100
AcDbLinetypeTableRecord
  2
JIS_08_37
 70
     0
  3
1SASEN37 ________  __  ________  __  _____
 72
    65
 73
     4
 40
40.5
 49
37.5
 74
     0
 49
-1.125
 74
     0
 49
0.75
 74
     0
 49
-1.125
 74
     0
  0
LTYPE
  5
9A
330
5
100
AcDbSymbolTableRecord
100
AcDbLinetypeTableRecord
  2
JIS_08_50
 70
     0
  3
1SASEN50 _______________  __  ____________
 72
    65
 73
     4
 40
53.0
 49
50.0
 74
     0
 49
-1.125
 74
     0
 49
0.75
 74
     0
 49
-1.125
 74
     0
  0
LTYPE
  5
9B
330
5
100
AcDbSymbolTableRecord
100
AcDbLinetypeTableRecord
  2
JIS_09_08
 70
     0
  3
2SASEN8 __ _ _ __ _ _ __ _ _ __ _ _ __ _ _ 
 72
    65
 73
     6
 40
10.75
 49
8.0
 74
     0
 49
-0.55
 74
     0
 49
0.55
 74
     0
 49
-0.55
 74
     0
 49
0.55
 74
     0
 49
-0.55
 74
     0
  0
LTYPE
  5
9C
330
5
100
AcDbSymbolTableRecord
100
AcDbLinetypeTableRecord
  2
JIS_09_15
 70
     0
  3
2SASEN15 ___ _ _ ___ _ _ ___ _ _ ___ _ _ ___ 
 72
    65
 73
     6
 40
18.9
 49
15.0
 74
     0
 49
-0.9
 74
     0
 49
0.6
 74
     0
 49
-0.9
 74
     0
 49
0.6
 74
     0
 49
-0.9
 74
     0
  0
LTYPE
  5
9D
330
5
100
AcDbSymbolTableRecord
100
AcDbLinetypeTableRecord
  2
JIS_09_29
 70
     0
  3
2SASEN29 ______　__  __  ______　__  __  ___
 72
    65
 73
     6
 40
34.0
 49
29.0
 74
     0
 49
-1.2
 74
     0
 49
0.7
 74
     0
 49
-1.2
 74
     0
 49
0.7
 74
     0
 49
-1.2
 74
     0
  0
LTYPE
  5
9E
330
5
100
AcDbSymbolTableRecord
100
AcDbLinetypeTableRecord
  2
JIS_09_50
 70
     0
  3
2SASEN50 ____________　__  __  _____________
 72
    65
 73
     6
 40
55.0
 49
50.0
 74
     0
 49
-1.2
 74
     0
 49
0.7
 74
     0
 49
-1.2
 74
     0
 49
0.7
 74
     0
 49
-1.2
 74
     0
  0
LTYPE
  5
9F
330
5
100
AcDbSymbolTableRecord
100
AcDbLinetypeTableRecord
  2
SXF_破線
 70
     0
  3
02 dashed -- -- -- -- -- --
 72
    65
 73
     2
 40
7.5
 49
6.0
 74
     0
 49
-1.5
 74
     0
  0
LTYPE
  5
A0
330
5
100
AcDbSymbolTableRecord
100
AcDbLinetypeTableRecord
  2
SXF_跳び破線
 70
     0
  3
03 dashed_spaced --  --  --  --
 72
    65
 73
     2
 40
12.0
 49
6.0
 74
     0
 49
-6.0
 74
     0
  0
LTYPE
  5
A1
330
5
100
AcDbSymbolTableRecord
100
AcDbLinetypeTableRecord
  2
SXF_一点長鎖線
 70
     0
  3
04 long_dashed_dotted ---- . ---- . ----
 72
    65
 73
     4
 40
15.25
 49
12.0
 74
     0
 49
-1.5
 74
     0
 49
0.25
 74
     0
 49
-1.5
 74
     0
  0
LTYPE
  5
A2
330
5
100
AcDbSymbolTableRecord
100
AcDbLinetypeTableRecord
  2
SXF_二点長鎖線
 70
     0
  3
05 long_dashed_double-dotted ---- . . ---- 
 72
    65
 73
     6
 40
17.0
 49
12.0
 74
     0
 49
-1.5
 74
     0
 49
0.25
 74
     0
 49
-1.5
 74
     0
 49
0.25
 74
     0
 49
-1.5
 74
     0
  0
LTYPE
  5
A3
330
5
100
AcDbSymbolTableRecord
100
AcDbLinetypeTableRecord
  2
SXF_三点長鎖線
 70
     0
  3
06 long_dashed_triplicate-dotted ---- ... ---- 
 72
    65
 73
     8
 40
18.75
 49
12.0
 74
     0
 49
-1.5
 74
     0
 49
0.25
 74
     0
 49
-1.5
 74
     0
 49
0.25
 74
     0
 49
-1.5
 74
     0
 49
0.25
 74
     0
 49
-1.5
 74
     0
  0
LTYPE
  5
A4
330
5
100
AcDbSymbolTableRecord
100
AcDbLinetypeTableRecord
  2
SXF_点線
 70
     0
  3
07 dotted . . . . . . . . . . . . 
 72
    65
 73
     2
 40
1.75
 49
0.25
 74
     0
 49
-1.5
 74
     0
  0
LTYPE
  5
A5
330
5
100
AcDbSymbolTableRecord
100
AcDbLinetypeTableRecord
  2
SXF_一点鎖線
 70
     0
  3
08 chain ---- - --- - --- - ---
 72
    65
 73
     4
 40
18.5
 49
12.0
 74
     0
 49
-1.5
 74
     0
 49
3.5
 74
     0
 49
-1.5
 74
     0
  0
LTYPE
  5
A6
330
5
100
AcDbSymbolTableRecord
100
AcDbLinetypeTableRecord
  2
SXF_二点鎖線
 70
     0
  3
09 chain_double_dash ---- - - ---- - - ----
 72
    65
 73
     6
 40
23.5
 49
12.0
 74
     0
 49
-1.5
 74
     0
 49
3.5
 74
     0
 49
-1.5
 74
     0
 49
3.5
 74
     0
 49
-1.5
 74
     0
  0
LTYPE
  5
A7
330
5
100
AcDbSymbolTableRecord
100
AcDbLinetypeTableRecord
  2
SXF_一点短鎖線
 70
     0
  3
10 dashed_dotted -- . -- . -- . --
 72
    65
 73
     4
 40
9.25
 49
6.0
 74
     0
 49
-1.5
 74
     0
 49
0.25
 74
     0
 49
-1.5
 74
     0
  0
LTYPE
  5
A8
330
5
100
AcDbSymbolTableRecord
100
AcDbLinetypeTableRecord
  2
SXF_一点二短鎖線
 70
     0
  3
11 double-dashed_dotted -- -- . -- --
 72
    65
 73
     6
 40
16.75
 49
6.0
 74
     0
 49
-1.5
 74
     0
 49
6.0
 74
     0
 49
-1.5
 74
     0
 49
0.25
 74
     0
 49
-1.5
 74
     0
  0
LTYPE
  5
A9
330
5
100
AcDbSymbolTableRecord
100
AcDbLinetypeTableRecord
  2
SXF_二点短鎖線
 70
     0
  3
12 dashed_double_dotted -- . . -- . . --
 72
    65
 73
     6
 40
11.0
 49
6.0
 74
     0
 49
-1.5
 74
     0
 49
0.25
 74
     0
 49
-1.5
 74
     0
 49
0.25
 74
     0
 49
-1.5
 74
     0
  0
LTYPE
  5
AA
330
5
100
AcDbSymbolTableRecord
100
AcDbLinetypeTableRecord
  2
SXF_二点二短鎖線
 70
     0
  3
13 double-dashed_double-dotted -- -- . . -- --
 72
    65
 73
     8
 40
18.5
 49
6.0
 74
     0
 49
-1.5
 74
     0
 49
6.0
 74
     0
 49
-1.5
 74
     0
 49
0.25
 74
     0
 49
-1.5
 74
     0
 49
0.25
 74
     0
 49
-1.5
 74
     0
  0
LTYPE
  5
AB
330
5
100
AcDbSymbolTableRecord
100
AcDbLinetypeTableRecord
  2
SXF_三点短鎖線
 70
     0
  3
14 dashed triplicate-dotted -- . . . -- . . . --
 72
    65
 73
     8
 40
12.75
 49
6.0
 74
     0
 49
-1.5
 74
     0
 49
0.25
 74
     0
 49
-1.5
 74
     0
 49
0.25
 74
     0
 49
-1.5
 74
     0
 49
0.25
 74
     0
 49
-1.5
 74
     0
  0
LTYPE
  5
AC
330
5
100
AcDbSymbolTableRecord
100
AcDbLinetypeTableRecord
  2
SXF_三点二短鎖線
 70
     0
  3
15 double-dashed triplicate-dotted -- -- . . . -- -- 
 72
    65
 73
    10
 40
20.25
 49
6.0
 74
     0
 49
-1.5
 74
     0
 49
6.0
 74
     0
 49
-1.5
 74
     0
 49
0.25
 74
     0
 49
-1.5
 74
     0
 49
0.25
 74
     0
 49
-1.5
 74
     0
 49
0.25
 74
     0
 49
-1.5
 74
     0
  0
ENDTAB
  0
TABLE
  2
LAYER
  5
2
330
0
100
AcDbSymbolTable
 70
     4
  0
LAYER
  5
10
330
2
100
AcDbSymbolTableRecord
100
AcDbLayerTableRecord
  2
0
 70
     0
 62
     7
  6
Continuous
370
    -3
390
F
347
46
  0
LAYER
  5
AD
330
2
100
AcDbSymbolTableRecord
100
AcDbLayerTableRecord
  2
2
 70
     0
 62
     7
  6
Continuous
370
    -3
390
F
347
46
  0
LAYER
  5
AE
330
2
100
AcDbSymbolTableRecord
100
AcDbLayerTableRecord
  2
3
 70
     0
 62
     7
  6
Continuous
370
    -3
390
F
347
46
  0
LAYER
  5
AF
330
2
100
AcDbSymbolTableRecord
100
AcDbLayerTableRecord
  2
ZUWAKU
 70
     0
 62
     7
  6
Continuous
370
    -3
390
F
347
46
  0
ENDTAB
  0
TABLE
  2
STYLE
  5
3
330
0
100
AcDbSymbolTable
 70
     3
  0
STYLE
  5
11
330
3
100
AcDbSymbolTableRecord
100
AcDbTextStyleTableRecord
  2
Standard
 70
     0
 40
0.0
 41
1.0
 50
0.0
 71
     0
 42
0.2
  3
txt.shx
  4
bigfont.shx
  0
STYLE
  5
101
330
3
100
AcDbSymbolTableRecord
100
AcDbTextStyleTableRecord
  2
dcStyle0
 70
     0
 40
0.0
 41
0.75
 50
0.0
 71
     0
 42
0.2
  3
ＭＳ Ｐゴシック
  4

1001
ACAD
1000
ＭＳ Ｐゴシック
1071
    32802
  0
STYLE
  5
150
330
3
100
AcDbSymbolTableRecord
100
AcDbTextStyleTableRecord
  2
dcStyle1
 70
     0
 40
0.0
 41
1.2
 50
0.0
 71
     0
 42
0.2
  3
txt.shx
  4
bigfont
  0
ENDTAB
  0
TABLE
  2
VIEW
  5
6
330
0
100
AcDbSymbolTable
 70
     0
  0
ENDTAB
  0
TABLE
  2
UCS
  5
7
330
0
100
AcDbSymbolTable
 70
     0
  0
ENDTAB
  0
TABLE
  2
APPID
  5
9
330
0
100
AcDbSymbolTable
 70
     2
  0
APPID
  5
12
330
9
100
AcDbSymbolTableRecord
100
AcDbRegAppTableRecord
  2
ACAD
 70
     0
  0
APPID
  5
6A
330
9
100
AcDbSymbolTableRecord
100
AcDbRegAppTableRecord
  2
DaFusionOut
 70
     0
  0
ENDTAB
  0
TABLE
  2
DIMSTYLE
  5
A
330
0
100
AcDbSymbolTable
 70
     2
100
AcDbDimStyleTable
  0
DIMSTYLE
105
27
330
A
100
AcDbSymbolTableRecord
100
AcDbDimStyleTableRecord
  2
Standard
 70
     0
178
     0
340
11
  0
DIMSTYLE
105
4E2
102
{ACAD_REACTORS
330
4E1
330
4E4
330
4E5
330
4E6
330
4E7
330
4E9
330
4EB
102
}
330
A
100
AcDbSymbolTableRecord
100
AcDbDimStyleTableRecord
  2
dc_Rotated
 70
     0
 41
30.00001907348633
 42
10.0
 44
10.0
 90
        1
 73
     0
 74
     0
 77
     3
 78
     8
 79
     2
140
40.0
147
10.00000000000008
172
     1
173
     1
176
     2
177
     2
271
     2
178
     2
271
     2
274
     4
283
     0
284
     8
288
     1
340
101
343
F9
344
F9
  0
ENDTAB
  0
TABLE
  2
BLOCK_RECORD
  5
1
330
0
100
AcDbSymbolTable
 70
    25
  0
BLOCK_RECORD
  5
1F
330
1
100
AcDbSymbolTableRecord
100
AcDbBlockTableRecord
  2
*Model_Space
340
22
 70
     0
280
     1
281
     0
  0
BLOCK_RECORD
  5
1B
330
1
100
AcDbSymbolTableRecord
100
AcDbBlockTableRecord
  2
*Paper_Space
340
1E
 70
     0
280
     1
281
     0
  0
BLOCK_RECORD
  5
23
330
1
100
AcDbSymbolTableRecord
100
AcDbBlockTableRecord
  2
*Paper_Space0
340
26
 70
     0
280
     1
281
     0
  0
BLOCK_RECORD
  5
B1
330
1
100
AcDbSymbolTableRecord
100
AcDbBlockTableRecord
  2
*D1
340
0
 70
     0
280
     1
281
     0
  0
BLOCK_RECORD
  5
B4
330
1
100
AcDbSymbolTableRecord
100
AcDbBlockTableRecord
  2
DA_DIMGROUP_0
340
0
102
{BLKREFS
331
4E3
102
}
 70
     0
280
     1
281
     0
  0
BLOCK_RECORD
  5
B7
330
1
100
AcDbSymbolTableRecord
100
AcDbBlockTableRecord
  2
*D3
340
0
 70
     0
280
     1
281
     0
  0
BLOCK_RECORD
  5
BA
330
1
100
AcDbSymbolTableRecord
100
AcDbBlockTableRecord
  2
*D4
340
0
 70
     0
280
     1
281
     0
  0
BLOCK_RECORD
  5
BD
330
1
100
AcDbSymbolTableRecord
100
AcDbBlockTableRecord
  2
*D5
340
0
 70
     0
280
     1
281
     0
  0
BLOCK_RECORD
  5
C0
330
1
100
AcDbSymbolTableRecord
100
AcDbBlockTableRecord
  2
*D6
340
0
 70
     0
280
     1
281
     0
  0
BLOCK_RECORD
  5
C3
330
1
100
AcDbSymbolTableRecord
100
AcDbBlockTableRecord
  2
DC_IMAGEDIMGROUP_1
340
0
102
{BLKREFS
331
4E8
102
}
 70
     0
280
     1
281
     0
  0
BLOCK_RECORD
  5
C6
330
1
100
AcDbSymbolTableRecord
100
AcDbBlockTableRecord
  2
*D8
340
0
 70
     0
280
     1
281
     0
  0
BLOCK_RECORD
  5
C9
330
1
100
AcDbSymbolTableRecord
100
AcDbBlockTableRecord
  2
DC_GROUP_W_GT10H_S_030_4_1
340
0
102
{BLKREFS
331
4EA
102
}
 70
     0
280
     1
281
     0
  0
BLOCK_RECORD
  5
CC
330
1
100
AcDbSymbolTableRecord
100
AcDbBlockTableRecord
  2
DC_GROUP_W_GT10H_S_030_4_2
340
0
102
{BLKREFS
331
4F1
102
}
 70
     0
280
     1
281
     0
  0
BLOCK_RECORD
  5
CF
330
1
100
AcDbSymbolTableRecord
100
AcDbBlockTableRecord
  2
DC_GROUP_W_GT10H_S_030_4_3
340
0
102
{BLKREFS
331
4F2
102
}
 70
     0
280
     1
281
     0
  0
BLOCK_RECORD
  5
D2
330
1
100
AcDbSymbolTableRecord
100
AcDbBlockTableRecord
  2
*D12
340
0
 70
     0
280
     1
281
     0
  0
BLOCK_RECORD
  5
D5
330
1
100
AcDbSymbolTableRecord
100
AcDbBlockTableRecord
  2
DC_GROUP_W_GT10H_S_030_4_4
340
0
102
{BLKREFS
331
4EC
102
}
 70
     0
280
     1
281
     0
  0
BLOCK_RECORD
  5
D8
330
1
100
AcDbSymbolTableRecord
100
AcDbBlockTableRecord
  2
DC_GROUP_W_GT10H_S_030_4_5
340
0
102
{BLKREFS
331
16A
102
}
 70
     0
280
     1
281
     0
  0
BLOCK_RECORD
  5
DB
330
1
100
AcDbSymbolTableRecord
100
AcDbBlockTableRecord
  2
DC_GROUP_W_GT10H_S_030_4_6
340
0
102
{BLKREFS
331
16B
102
}
 70
     0
280
     1
281
     0
  0
BLOCK_RECORD
  5
DE
330
1
100
AcDbSymbolTableRecord
100
AcDbBlockTableRecord
  2
DC_GROUP_W_GT10H_S_030_4_7
340
0
102
{BLKREFS
331
4ED
102
}
 70
     0
280
     1
281
     0
  0
BLOCK_RECORD
  5
E1
330
1
100
AcDbSymbolTableRecord
100
AcDbBlockTableRecord
  2
DC_GROUP_W_GT10H_S_030_4_8
340
0
102
{BLKREFS
331
4F3
102
}
 70
     0
280
     1
281
     0
  0
BLOCK_RECORD
  5
E4
330
1
100
AcDbSymbolTableRecord
100
AcDbBlockTableRecord
  2
DC_GROUP_W_GT10H_S_030_4_9
340
0
102
{BLKREFS
331
4F4
102
}
 70
     0
280
     1
281
     0
  0
BLOCK_RECORD
  5
E7
330
1
100
AcDbSymbolTableRecord
100
AcDbBlockTableRecord
  2
DC_GROUP_W_GT10H_S_030_4_10
340
0
102
{BLKREFS
331
4EE
102
}
 70
     0
280
     1
281
     0
  0
BLOCK_RECORD
  5
EA
330
1
100
AcDbSymbolTableRecord
100
AcDbBlockTableRecord
  2
DC_GROUP_W_GT10H_S_030_4_11
340
0
102
{BLKREFS
331
4F5
102
}
 70
     0
280
     1
281
     0
  0
BLOCK_RECORD
  5
ED
330
1
100
AcDbSymbolTableRecord
100
AcDbBlockTableRecord
  2
DC_GROUP_W_GT10H_S_030_4_12
340
0
102
{BLKREFS
331
4EF
102
}
 70
     0
280
     1
281
     0
  0
BLOCK_RECORD
  5
F0
330
1
100
AcDbSymbolTableRecord
100
AcDbBlockTableRecord
  2
DC_GROUP_W_GT10H_S_030_4_13
340
0
102
{BLKREFS
331
2E1
102
}
 70
     0
280
     1
281
     0
  0
BLOCK_RECORD
  5
F3
330
1
100
AcDbSymbolTableRecord
100
AcDbBlockTableRecord
  2
DC_GROUP_W_GT10H_S_030_4_14
340
0
102
{BLKREFS
331
4F0
102
}
 70
     0
280
     1
281
     0
  0
BLOCK_RECORD
  5
F9
330
1
100
AcDbSymbolTableRecord
100
AcDbBlockTableRecord
  2
_OPEN30
340
0
102
{BLKREFS
331
FF
331
100
331
108
331
109
331
10B
331
111
331
112
331
117
331
118
331
11D
331
11E
331
123
331
124
331
12A
331
12C
331
131
331
132
331
136
331
138
331
165
331
166
331
1FB
331
293
102
}
 70
     0
280
     1
281
     0
  0
ENDTAB
  0
ENDSEC
  0
SECTION
  2
BLOCKS
  0
BLOCK
  5
20
330
1F
100
AcDbEntity
  8
0
100
AcDbBlockBegin
  2
*Model_Space
 70
     0
 10
0.0
 20
0.0
 30
0.0
  3
*Model_Space
  1
*Model_Space
  0
ENDBLK
  5
21
330
1F
100
AcDbEntity
  8
0
100
AcDbBlockEnd
  0
BLOCK
  5
1C
330
1B
100
AcDbEntity
 67
     1
  8
0
100
AcDbBlockBegin
  2
*Paper_Space
 70
     0
 10
0.0
 20
0.0
 30
0.0
  3
*Paper_Space
  1
*Paper_Space
  0
ENDBLK
  5
1D
330
1B
100
AcDbEntity
 67
     1
  8
0
100
AcDbBlockEnd
  0
BLOCK
  5
24
330
23
100
AcDbEntity
  8
0
100
AcDbBlockBegin
  2
*Paper_Space0
 70
     0
 10
0.0
 20
0.0
 30
0.0
  3
*Paper_Space0
  1
*Paper_Space0
  0
ENDBLK
  5
25
330
23
100
AcDbEntity
  8
0
100
AcDbBlockEnd
  0
BLOCK
  5
B2
330
B1
100
AcDbEntity
  8
0
100
AcDbBlockBegin
  2
*D1
 70
     1
 10
0.0
 20
0.0
 30
0.0
  3
*D1
  1
*D1
  0
LINE
  5
F6
330
B1
100
AcDbEntity
  8
0
  6
Continuous
 62
     2
370
    13
100
AcDbLine
 10
-494.4455549020098
 20
223.7209783937169
 30
0.0
 11
-1020.724714209903
 21
750.0001377016233
 31
0.0
  0
LINE
  5
F7
330
B1
100
AcDbEntity
  8
0
  6
Continuous
 62
     2
370
    13
100
AcDbLine
 10
-133.3195713557778
 20
923.2551666270308
 30
0.0
 11
-490.3946283201255
 21
1280.330223591387
 31
0.0
  0
LINE
  5
F8
330
B1
100
AcDbEntity
  8
0
  6
Continuous
 62
     2
370
    13
100
AcDbLine
 10
-1013.653646398038
 20
742.9290698897578
 30
0.0
 11
-483.3235605082601
 21
1273.259155779522
 31
0.0
  0
INSERT
  5
FF
330
B1
100
AcDbEntity
  8
0
 62
     2
100
AcDbBlockReference
  2
_OPEN30
 10
-1013.653646398038
 20
742.9290698897578
 30
0.0
 41
30.00002807615286
 42
29.99989368223643
 50
224.9999999999993
  0
INSERT
  5
100
330
B1
100
AcDbEntity
  8
0
 62
     2
100
AcDbBlockReference
  2
_OPEN30
 10
-483.3235605082601
 20
1273.259155779522
 30
0.0
 41
30.00002807615286
 42
29.99989368223643
 50
44.99999999999926
  0
MTEXT
  5
102
330
B1
100
AcDbEntity
  8
0
 62
     2
100
AcDbMText
 10
-755.5596712650143
 20
1015.165180646505
 30
0.0
 40
40.0
 41
125.0000000000001
 46
0.0
 71
     8
 72
     1
  1
\T1.00;750
  7
dcStyle0
 11
0.7071067811865565
 21
0.7071067811865386
 31
0.0
 73
     1
 44
1.0
  0
ENDBLK
  5
B3
330
B1
100
AcDbEntity
  8
0
100
AcDbBlockEnd
  0
BLOCK
  5
B5
330
B4
100
AcDbEntity
  8
0
100
AcDbBlockBegin
  2
DA_DIMGROUP_0
 70
     0
 10
0.0
 20
0.0
 30
0.0
  3
DA_DIMGROUP_0
  1
DA_DIMGROUP_0
  0
LINE
  5
103
330
B4
100
AcDbEntity
  8
0
  6
Continuous
 62
     2
370
    13
100
AcDbLine
 10
-468.4516057117535
 20
-951.5051051073908
 30
0.0
 11
-628.7446050820404
 21
-951.5051051073908
 31
0.0
  0
LINE
  5
104
330
B4
100
AcDbEntity
  8
0
  6
Continuous
 62
     2
370
    13
100
AcDbLine
 10
-144.8465911543144
 20
-251.5051051073906
 30
0.0
 11
-628.7446050820404
 21
-251.5051051073906
 31
0.0
  0
LINE
  5
105
330
B4
100
AcDbEntity
  8
0
  6
Continuous
 62
     2
370
    13
100
AcDbLine
 10
-453.8753275215252
 20
-208.9073891477395
 30
0.0
 11
-628.7446050820404
 21
-208.9073891477394
 31
0.0
  0
LINE
  5
106
330
B4
100
AcDbEntity
  8
0
  6
Continuous
 62
     2
370
    13
100
AcDbLine
 10
-618.7446050820404
 20
-251.5051051073906
 30
0.0
 11
-618.7446050820404
 21
-208.9073891477395
 31
0.0
  0
LINE
  5
107
330
B4
100
AcDbEntity
  8
0
  6
Continuous
 62
     2
370
    13
100
AcDbLine
 10
-618.7446050820404
 20
-951.5051051073908
 30
0.0
 11
-618.7446050820404
 21
-251.5051051073906
 31
0.0
  0
INSERT
  5
108
330
B4
100
AcDbEntity
  8
0
 62
     2
100
AcDbBlockReference
  2
_OPEN30
 10
-618.7446050820404
 20
-951.5051051073908
 30
0.0
 41
30.00002807615286
 42
29.99989368223643
 50
270.0
  0
INSERT
  5
109
330
B4
100
AcDbEntity
  8
0
 62
     2
100
AcDbBlockReference
  2
_OPEN30
 10
-618.7446050820404
 20
-251.5051051073906
 30
0.0
 41
30.00002807615286
 42
29.99989368223643
 50
90.0
  0
LINE
  5
10A
330
B4
100
AcDbEntity
  8
0
  6
Continuous
 62
     2
370
    13
100
AcDbLine
 10
-618.7446050820404
 20
-158.9073891477395
 30
0.0
 11
-618.7446050820404
 21
-208.9073891477395
 31
0.0
  0
INSERT
  5
10B
330
B4
100
AcDbEntity
  8
0
 62
     2
100
AcDbBlockReference
  2
_OPEN30
 10
-618.7446050820404
 20
-208.9073891477395
 30
0.0
 41
30.00002807615286
 42
29.99989368223643
 50
270.0
  0
MTEXT
  5
10C
330
B4
100
AcDbEntity
  8
0
 62
     2
100
AcDbMText
 10
-628.7446050820404
 20
-598.3680221357973
 30
0.0
 40
40.0
 41
250.0
 46
0.0
 71
     8
 72
     1
  1
\T1.00;機高±25
  7
dcStyle0
 11
6.123233995736766E-17
 21
1.0
 31
0.0
 73
     1
 44
1.0
  0
MTEXT
  5
10D
330
B4
100
AcDbEntity
  8
0
 62
     2
100
AcDbMText
 10
-628.7446050820404
 20
-230.206247127565
 30
0.0
 40
40.0
 41
150.0
 46
0.0
 71
     8
 72
     1
  1
\T1.00;(43)
  7
dcStyle0
 11
6.123233995736766E-17
 21
1.0
 31
0.0
 73
     1
 44
1.0
  0
ENDBLK
  5
B6
330
B4
100
AcDbEntity
  8
0
100
AcDbBlockEnd
  0
BLOCK
  5
B8
330
B7
100
AcDbEntity
  8
0
100
AcDbBlockBegin
  2
*D3
 70
     1
 10
0.0
 20
0.0
 30
0.0
  3
*D3
  1
*D3
  0
LINE
  5
10E
330
B7
100
AcDbEntity
  8
0
  6
Continuous
 62
     2
370
    13
100
AcDbLine
 10
-444.4465550777295
 20
163.7219785694354
 30
0.0
 11
-444.4465550777295
 21
40.87924946709835
 31
0.0
  0
LINE
  5
10F
330
B7
100
AcDbEntity
  8
0
  6
Continuous
 62
     2
370
    13
100
AcDbLine
 10
65.55344492210952
 20
92.40994228033831
 30
0.0
 11
65.55344492210952
 21
40.87924946709835
 31
0.0
  0
LINE
  5
110
330
B7
100
AcDbEntity
  8
0
  6
Continuous
 62
     2
370
    13
100
AcDbLine
 10
-444.4465550777295
 20
50.87924946709835
 30
0.0
 11
65.55344492210952
 21
50.87924946709835
 31
0.0
  0
INSERT
  5
111
330
B7
100
AcDbEntity
  8
0
 62
     2
100
AcDbBlockReference
  2
_OPEN30
 10
-444.4465550777295
 20
50.87924946709835
 30
0.0
 41
30.00002807615286
 42
29.99989368223643
 50
180.0
  0
INSERT
  5
112
330
B7
100
AcDbEntity
  8
0
 62
     2
100
AcDbBlockReference
  2
_OPEN30
 10
65.55344492210952
 20
50.87924946709835
 30
0.0
 41
30.00002807615286
 42
29.99989368223643
 50
360.0
  0
MTEXT
  5
113
330
B7
100
AcDbEntity
  8
0
 62
     2
100
AcDbMText
 10
-189.44655507781
 20
60.87924946709835
 30
0.0
 40
40.0
 41
150.0
 46
0.0
 71
     8
 72
     1
  1
\T1.00;R510
  7
dcStyle0
 73
     1
 44
1.0
  0
ENDBLK
  5
B9
330
B7
100
AcDbEntity
  8
0
100
AcDbBlockEnd
  0
BLOCK
  5
BB
330
BA
100
AcDbEntity
  8
0
100
AcDbBlockBegin
  2
*D4
 70
     1
 10
0.0
 20
0.0
 30
0.0
  3
*D4
  1
*D4
  0
LINE
  5
114
330
BA
100
AcDbEntity
  8
0
  6
Continuous
 62
     2
370
    13
100
AcDbLine
 10
-494.4455549020098
 20
223.7209783937169
 30
0.0
 11
-953.7548685159338
 21
683.0302920076517
 31
0.0
  0
LINE
  5
115
330
BA
100
AcDbEntity
  8
0
  6
Continuous
 62
     2
370
    13
100
AcDbLine
 10
-451.5176228895929
 20
350.4986738657909
 30
0.0
 11
-868.9020547736877
 21
767.8831057498958
 31
0.0
  0
LINE
  5
116
330
BA
100
AcDbEntity
  8
0
  6
Continuous
 62
     2
370
    13
100
AcDbLine
 10
-946.6838007040684
 20
675.9592241957862
 30
0.0
 11
-861.8309869618223
 21
760.8120379380301
 31
0.0
  0
INSERT
  5
117
330
BA
100
AcDbEntity
  8
0
 62
     2
100
AcDbBlockReference
  2
_OPEN30
 10
-946.6838007040684
 20
675.9592241957862
 30
0.0
 41
30.00002807615286
 42
29.99989368223643
 50
224.9999999999993
  0
INSERT
  5
118
330
BA
100
AcDbEntity
  8
0
 62
     2
100
AcDbBlockReference
  2
_OPEN30
 10
-861.8309869618223
 20
760.8120379380301
 30
0.0
 41
30.00002807615286
 42
29.99989368223643
 50
44.99999999999926
  0
MTEXT
  5
119
330
BA
100
AcDbEntity
  8
0
 62
     2
100
AcDbMText
 10
-911.3284616448108
 20
725.4566988787738
 30
0.0
 40
40.0
 41
125.0
 46
0.0
 71
     8
 72
     1
  1
\T1.00;120
  7
dcStyle0
 11
0.7071067811865565
 21
0.7071067811865386
 31
0.0
 73
     1
 44
1.0
  0
ENDBLK
  5
BC
330
BA
100
AcDbEntity
  8
0
100
AcDbBlockEnd
  0
BLOCK
  5
BE
330
BD
100
AcDbEntity
  8
0
100
AcDbBlockBegin
  2
*D5
 70
     1
 10
0.0
 20
0.0
 30
0.0
  3
*D5
  1
*D5
  0
LINE
  5
11A
330
BD
100
AcDbEntity
  8
0
  6
Continuous
 62
     2
370
    13
100
AcDbLine
 10
-451.5176228895929
 20
350.4986738657909
 30
0.0
 11
-872.296167323383
 21
771.2772182995915
 31
0.0
  0
LINE
  5
11B
330
BD
100
AcDbEntity
  8
0
  6
Continuous
 62
     2
370
    13
100
AcDbLine
 10
-133.3195713557778
 20
923.2551666270308
 30
0.0
 11
-426.8188951758516
 21
1216.754490447112
 31
0.0
  0
LINE
  5
11C
330
BD
100
AcDbEntity
  8
0
  6
Continuous
 62
     2
370
    13
100
AcDbLine
 10
-865.2250995115177
 20
764.206150487726
 30
0.0
 11
-419.7478273639862
 21
1209.683422635246
 31
0.0
  0
INSERT
  5
11D
330
BD
100
AcDbEntity
  8
0
 62
     2
100
AcDbBlockReference
  2
_OPEN30
 10
-865.2250995115177
 20
764.206150487726
 30
0.0
 41
30.00002807615286
 42
29.99989368223643
 50
224.9999999999993
  0
INSERT
  5
11E
330
BD
100
AcDbEntity
  8
0
 62
     2
100
AcDbBlockReference
  2
_OPEN30
 10
-419.7478273639862
 20
1209.683422635246
 30
0.0
 41
30.00002807615286
 42
29.99989368223643
 50
44.99999999999928
  0
MTEXT
  5
11F
330
BD
100
AcDbEntity
  8
0
 62
     2
100
AcDbMText
 10
-649.5575312496173
 20
994.0158543733517
 30
0.0
 40
40.0
 41
125.0
 46
0.0
 71
     8
 72
     1
  1
\T1.00;630
  7
dcStyle0
 11
0.7071067811865565
 21
0.7071067811865386
 31
0.0
 73
     1
 44
1.0
  0
ENDBLK
  5
BF
330
BD
100
AcDbEntity
  8
0
100
AcDbBlockEnd
  0
BLOCK
  5
C1
330
C0
100
AcDbEntity
  8
0
100
AcDbBlockBegin
  2
*D6
 70
     1
 10
0.0
 20
0.0
 30
0.0
  3
*D6
  1
*D6
  0
LINE
  5
120
330
C0
100
AcDbEntity
  8
0
  6
Continuous
 62
     2
370
    13
100
AcDbLine
 10
-444.4465550777295
 20
163.7219785694354
 30
0.0
 11
-444.4465550777295
 21
-44.8220863508716
 31
0.0
  0
LINE
  5
121
330
C0
100
AcDbEntity
  8
0
  6
Continuous
 62
     2
370
    13
100
AcDbLine
 10
-134.4465550778905
 20
163.7219785693774
 30
0.0
 11
-134.4465550778905
 21
-44.8220863508716
 31
0.0
  0
LINE
  5
122
330
C0
100
AcDbEntity
  8
0
  6
Continuous
 62
     2
370
    13
100
AcDbLine
 10
-444.4465550777295
 20
-34.82208635087159
 30
0.0
 11
-134.4465550778905
 21
-34.82208635087159
 31
0.0
  0
INSERT
  5
123
330
C0
100
AcDbEntity
  8
0
 62
     2
100
AcDbBlockReference
  2
_OPEN30
 10
-444.4465550777295
 20
-34.82208635087159
 30
0.0
 41
30.00002807615286
 42
29.99989368223643
 50
180.0
  0
INSERT
  5
124
330
C0
100
AcDbEntity
  8
0
 62
     2
100
AcDbBlockReference
  2
_OPEN30
 10
-134.4465550778905
 20
-34.82208635087159
 30
0.0
 41
30.00002807615286
 42
29.99989368223643
 50
360.0
  0
MTEXT
  5
125
330
C0
100
AcDbEntity
  8
0
 62
     2
100
AcDbMText
 10
-289.44655507781
 20
-24.82208635087159
 30
0.0
 40
40.0
 41
125.0
 46
0.0
 71
     8
 72
     1
  1
\T1.00;310
  7
dcStyle0
 73
     1
 44
1.0
  0
ENDBLK
  5
C2
330
C0
100
AcDbEntity
  8
0
100
AcDbBlockEnd
  0
BLOCK
  5
C4
330
C3
100
AcDbEntity
  8
0
100
AcDbBlockBegin
  2
DC_IMAGEDIMGROUP_1
 70
     0
 10
0.0
 20
0.0
 30
0.0
  3
DC_IMAGEDIMGROUP_1
  1
DC_IMAGEDIMGROUP_1
  0
LINE
  5
126
330
C3
100
AcDbEntity
  8
0
  6
Continuous
 62
     2
370
    13
100
AcDbLine
 10
265.5534449221095
 20
163.7219785693353
 30
0.0
 11
265.5534449221095
 21
-44.8220863508716
 31
0.0
  0
LINE
  5
127
330
C3
100
AcDbEntity
  8
0
  6
Continuous
 62
     2
370
    13
100
AcDbLine
 10
300.5534449222723
 20
163.7219785693783
 30
0.0
 11
300.5534449222723
 21
-44.8220863508716
 31
0.0
  0
LINE
  5
128
330
C3
100
AcDbEntity
  8
0
  6
Continuous
 62
     2
370
    13
100
AcDbLine
 10
300.5534449222723
 20
-34.82208635087159
 30
0.0
 11
265.5534449221095
 21
-34.82208635087159
 31
0.0
  0
LINE
  5
129
330
C3
100
AcDbEntity
  8
0
  6
Continuous
 62
     2
370
    13
100
AcDbLine
 10
389.5312449222723
 20
-34.82208635087159
 30
0.0
 11
300.5534449222723
 21
-34.82208635087159
 31
0.0
  0
INSERT
  5
12A
330
C3
100
AcDbEntity
  8
0
 62
     2
100
AcDbBlockReference
  2
_OPEN30
 10
300.5534449222723
 20
-34.82208635087159
 30
0.0
 41
30.00002807615286
 42
29.99989368223643
 50
180.0
  0
LINE
  5
12B
330
C3
100
AcDbEntity
  8
0
  6
Continuous
 62
     2
370
    13
100
AcDbLine
 10
215.5534449221095
 20
-34.82208635087159
 30
0.0
 11
265.5534449221095
 21
-34.82208635087159
 31
0.0
  0
INSERT
  5
12C
330
C3
100
AcDbEntity
  8
0
 62
     2
100
AcDbBlockReference
  2
_OPEN30
 10
265.5534449221095
 20
-34.82208635087159
 30
0.0
 41
30.00002807615286
 42
29.99989368223643
 50
360.0
  0
MTEXT
  5
12D
330
C3
100
AcDbEntity
  8
0
 62
     2
100
AcDbMText
 10
339.5312449222723
 20
-24.82208635087159
 30
0.0
 40
40.0
 41
100.0
 46
0.0
 71
     7
 72
     1
  1
\T1.00;35
  7
dcStyle0
 73
     1
 44
1.0
  0
ENDBLK
  5
C5
330
C3
100
AcDbEntity
  8
0
100
AcDbBlockEnd
  0
BLOCK
  5
C7
330
C6
100
AcDbEntity
  8
0
100
AcDbBlockBegin
  2
*D8
 70
     1
 10
0.0
 20
0.0
 30
0.0
  3
*D8
  1
*D8
  0
LINE
  5
12E
330
C6
100
AcDbEntity
  8
0
  6
Continuous
 62
     2
370
    13
100
AcDbLine
 10
-134.4465550778905
 20
163.7219785693774
 30
0.0
 11
-134.4465550778905
 21
-44.8220863508716
 31
0.0
  0
LINE
  5
12F
330
C6
100
AcDbEntity
  8
0
  6
Continuous
 62
     2
370
    13
100
AcDbLine
 10
265.5534449221095
 20
163.7219785693353
 30
0.0
 11
265.5534449221095
 21
-44.8220863508716
 31
0.0
  0
LINE
  5
130
330
C6
100
AcDbEntity
  8
0
  6
Continuous
 62
     2
370
    13
100
AcDbLine
 10
-134.4465550778905
 20
-34.82208635087159
 30
0.0
 11
265.5534449221095
 21
-34.82208635087159
 31
0.0
  0
INSERT
  5
131
330
C6
100
AcDbEntity
  8
0
 62
     2
100
AcDbBlockReference
  2
_OPEN30
 10
-134.4465550778905
 20
-34.82208635087159
 30
0.0
 41
30.00002807615286
 42
29.99989368223643
 50
180.0
  0
INSERT
  5
132
330
C6
100
AcDbEntity
  8
0
 62
     2
100
AcDbBlockReference
  2
_OPEN30
 10
265.5534449221095
 20
-34.82208635087159
 30
0.0
 41
30.00002807615286
 42
29.99989368223643
 50
360.0
  0
MTEXT
  5
133
330
C6
100
AcDbEntity
  8
0
 62
     2
100
AcDbMText
 10
65.55344492210952
 20
-24.82208635087159
 30
0.0
 40
40.0
 41
125.0
 46
0.0
 71
     8
 72
     1
  1
\T1.00;400
  7
dcStyle0
 73
     1
 44
1.0
  0
ENDBLK
  5
C8
330
C6
100
AcDbEntity
  8
0
100
AcDbBlockEnd
  0
BLOCK
  5
CA
330
C9
100
AcDbEntity
  8
0
100
AcDbBlockBegin
  2
DC_GROUP_W_GT10H_S_030_4_1
 70
     0
 10
0.0
 20
0.0
 30
0.0
  3
DC_GROUP_W_GT10H_S_030_4_1
  1
DC_GROUP_W_GT10H_S_030_4_1
  0
TEXT
  5
134
330
C9
100
AcDbEntity
  8
0
 62
     2
100
AcDbText
 10
212.9552708305828
 20
849.6300394838308
 30
0.0
 40
40.0
  1
90°
 50
313.6557294745384
 41
0.6877579092159561
  7
dcStyle0
 72
     5
 11
268.1811582269937
 21
791.7499793484185
 31
0.0
100
AcDbText
  0
LINE
  5
135
330
C9
100
AcDbEntity
  8
0
  6
Continuous
 62
     2
370
    13
100
AcDbLine
 10
485.9794409112242
 20
173.7219785693599
 30
0.0
 11
485.9777213535699
 21
173.8219637838743
 31
0.0
  0
INSERT
  5
136
330
C9
100
AcDbEntity
  8
0
 62
     2
100
AcDbBlockReference
  2
_OPEN30
 10
485.9794409112242
 20
173.7219785693599
 30
0.0
 41
30.00002807615286
 42
29.99989368223643
 50
270.9852825222704
  0
LINE
  5
137
330
C9
100
AcDbEntity
  8
0
  6
Continuous
 62
     2
370
    13
100
AcDbLine
 10
-444.4465550780508
 20
1104.14797455708
 30
0.0
 11
-444.3465698635364
 21
1104.146254999426
 31
0.0
  0
INSERT
  5
138
330
C9
100
AcDbEntity
  8
0
 62
     2
100
AcDbBlockReference
  2
_OPEN30
 10
-444.4465550780508
 20
1104.14797455708
 30
0.0
 41
30.00002807615286
 42
29.99989368223643
 50
179.0147174777297
  0
ARC
  5
139
330
C9
100
AcDbEntity
  8
0
  6
Continuous
 62
     2
370
    13
100
AcDbCircle
 10
-444.4465550764066
 20
173.7219785694497
 30
0.0
 40
930.4259959876308
100
AcDbArc
 50
359.9999999999944
 51
90.00000000010125
  0
LINE
  5
13A
330
C9
100
AcDbEntity
  8
0
  6
Continuous
 62
     2
370
    13
100
AcDbLine
 10
485.9794409112242
 20
173.7219785693599
 30
0.0
 11
495.9794409112242
 21
173.721978569359
 31
0.0
  0
LINE
  5
13B
330
C9
100
AcDbEntity
  8
0
  6
Continuous
 62
     2
370
    13
100
AcDbLine
 10
-444.4465550780508
 20
1104.14797455708
 30
0.0
 11
-444.4465550780685
 21
1114.14797455708
 31
0.0
  0
LINE
  5
13C
330
C9
100
AcDbEntity
  8
0
  6
Continuous
 62
     2
370
    13
100
AcDbLine
 10
310.5534449222732
 20
173.7219785693774
 30
0.0
 11
485.9794409112242
 21
173.7219785693599
 31
0.0
  0
LINE
  5
13D
330
C9
100
AcDbEntity
  8
0
  6
Continuous
 62
     2
370
    13
100
AcDbLine
 10
-444.4465550777409
 20
928.7219785684802
 30
0.0
 11
-444.4465550780508
 21
1104.14797455708
 31
0.0
  0
ENDBLK
  5
CB
330
C9
100
AcDbEntity
  8
0
100
AcDbBlockEnd
  0
BLOCK
  5
CD
330
CC
100
AcDbEntity
  8
0
100
AcDbBlockBegin
  2
DC_GROUP_W_GT10H_S_030_4_2
 70
     0
 10
0.0
 20
0.0
 30
0.0
  3
DC_GROUP_W_GT10H_S_030_4_2
  1
DC_GROUP_W_GT10H_S_030_4_2
  0
LINE
  5
13E
330
CC
100
AcDbEntity
  8
ZUWAKU
  6
Continuous
 62
     7
370
    13
100
AcDbLine
 10
-1970.0
 20
-1328.719233395221
 30
0.0
 11
1970.0
 21
-1328.719233395221
 31
0.0
  0
LINE
  5
13F
330
CC
100
AcDbEntity
  8
ZUWAKU
  6
Continuous
 62
     7
370
    13
100
AcDbLine
 10
1969.999999999996
 20
1351.280766604779
 30
0.0
 11
-1970.0
 21
1351.280766604779
 31
0.0
  0
LINE
  5
140
330
CC
100
AcDbEntity
  8
ZUWAKU
  6
Continuous
 62
     7
370
    13
100
AcDbLine
 10
1970.0
 20
-1328.719233395221
 30
0.0
 11
1969.999999999996
 21
1351.280766604779
 31
0.0
  0
LINE
  5
141
330
CC
100
AcDbEntity
  8
ZUWAKU
  6
Continuous
 62
     7
370
    13
100
AcDbLine
 10
-1970.0
 20
1351.280766604779
 30
0.0
 11
-1970.0
 21
-1328.719233395221
 31
0.0
  0
LINE
  5
142
330
CC
100
AcDbEntity
  8
ZUWAKU
  6
Continuous
 62
     4
370
    13
100
AcDbLine
 10
-344.9999999999997
 20
-1178.719233395222
 30
0.0
 11
50.00000000000028
 21
-1178.719233395222
 31
0.0
  0
LINE
  5
143
330
CC
100
AcDbEntity
  8
ZUWAKU
  6
Continuous
 62
     4
370
    13
100
AcDbLine
 10
-1850.0
 20
-1128.719233395222
 30
0.0
 11
-1850.0
 21
-1328.719233395221
 31
0.0
  0
LINE
  5
144
330
CC
100
AcDbEntity
  8
ZUWAKU
  6
Continuous
 62
     4
370
    13
100
AcDbLine
 10
-1970.0
 20
-1228.719233395222
 30
0.0
 11
1970.0
 21
-1228.719233395222
 31
0.0
  0
LINE
  5
145
330
CC
100
AcDbEntity
  8
ZUWAKU
  6
Continuous
 62
     4
370
    13
100
AcDbLine
 10
50.00000000000028
 20
-1328.719233395221
 30
0.0
 11
50.00000000000028
 21
-1128.719233395222
 31
0.0
  0
LINE
  5
146
330
CC
100
AcDbEntity
  8
ZUWAKU
  6
Continuous
 62
     4
370
    13
100
AcDbLine
 10
-344.9999999999997
 20
-1328.719233395221
 30
0.0
 11
-344.9999999999997
 21
-1128.719233395222
 31
0.0
  0
LINE
  5
147
330
CC
100
AcDbEntity
  8
ZUWAKU
  6
Continuous
 62
     4
370
    13
100
AcDbLine
 10
860.0
 20
-1128.719233395222
 30
0.0
 11
860.0
 21
-1328.719233395221
 31
0.0
  0
LINE
  5
148
330
CC
100
AcDbEntity
  8
ZUWAKU
  6
Continuous
 62
     4
370
    13
100
AcDbLine
 10
300.0000000000003
 20
-1128.719233395222
 30
0.0
 11
300.0000000000003
 21
-1328.719233395221
 31
0.0
  0
LINE
  5
149
330
CC
100
AcDbEntity
  8
ZUWAKU
  6
Continuous
 62
     4
370
    13
100
AcDbLine
 10
-264.9999999999997
 20
-1228.719233395222
 30
0.0
 11
-264.9999999999997
 21
-1328.719233395221
 31
0.0
  0
LINE
  5
14A
330
CC
100
AcDbEntity
  8
ZUWAKU
  6
Continuous
 62
     4
370
    13
100
AcDbLine
 10
-1310.0
 20
-1128.719233395222
 30
0.0
 11
-1310.0
 21
-1328.719233395221
 31
0.0
  0
LINE
  5
14B
330
CC
100
AcDbEntity
  8
ZUWAKU
  6
Continuous
 62
     4
370
    13
100
AcDbLine
 10
1970.0
 20
-1128.719233395222
 30
0.0
 11
-1970.0
 21
-1128.719233395222
 31
0.0
  0
LINE
  5
14C
330
CC
100
AcDbEntity
  8
ZUWAKU
  6
Continuous
 62
     4
370
    13
100
AcDbLine
 10
980.0
 20
-1128.719233395222
 30
0.0
 11
980.0
 21
-1328.719233395221
 31
0.0
  0
LINE
  5
14D
330
CC
100
AcDbEntity
  8
ZUWAKU
  6
Continuous
 62
     3
370
    13
100
AcDbLine
 10
-1875.0
 20
-1203.719233395222
 30
0.0
 11
-1910.0
 21
-1138.719233395222
 31
0.0
  0
LINE
  5
14E
330
CC
100
AcDbEntity
  8
ZUWAKU
  6
Continuous
 62
     3
370
    13
100
AcDbLine
 10
-1945.0
 20
-1203.719233395222
 30
0.0
 11
-1875.0
 21
-1203.719233395222
 31
0.0
  0
LINE
  5
14F
330
CC
100
AcDbEntity
  8
ZUWAKU
  6
Continuous
 62
     3
370
    13
100
AcDbLine
 10
-1910.0
 20
-1138.719233395222
 30
0.0
 11
-1945.0
 21
-1203.719233395222
 31
0.0
  0
TEXT
  5
151
330
CC
100
AcDbEntity
  8
ZUWAKU
 62
     2
100
AcDbText
 10
878.0
 20
-1318.719233395221
 30
0.0
 40
34.99999999999998
  1
番号
 41
1.527272727272728
  7
dcStyle1
 72
     5
 11
962.0
 21
-1318.719233395221
 31
0.0
100
AcDbText
  0
TEXT
  5
152
330
CC
100
AcDbEntity
  8
ZUWAKU
 62
     2
100
AcDbText
 10
-325.9999999999997
 20
-1318.719233395221
 30
0.0
 40
34.99999999999998
  1
度
 41
1.680000000000001
  7
dcStyle1
 72
     5
 11
-283.9999999999997
 21
-1318.719233395221
 31
0.0
100
AcDbText
  0
TEXT
  5
153
330
CC
100
AcDbEntity
  8
ZUWAKU
 62
     2
100
AcDbText
 10
-1948.219219698283
 20
-1318.719233395221
 30
0.0
 40
35.0
  1
番号
 41
1.272727272727273
  7
dcStyle1
 72
     5
 11
-1878.219219698283
 21
-1318.719233395221
 31
0.0
100
AcDbText
  0
TEXT
  5
154
330
CC
100
AcDbEntity
  8
ZUWAKU
 62
     2
100
AcDbText
 10
85.00000000000028
 20
-1198.719233395222
 30
0.0
 40
40.0
  1
シリーズ名
 41
1.086206896551724
  7
dcStyle1
 72
     5
 11
265.0000000000003
 21
-1198.719233395222
 31
0.0
100
AcDbText
  0
TEXT
  5
155
330
CC
100
AcDbEntity
  8
ZUWAKU
 62
     2
100
AcDbText
 10
115.0000000000003
 20
-1298.719233395222
 30
0.0
 40
40.0
  1
機　種
 41
1.235294117647059
  7
dcStyle1
 72
     5
 11
235.0000000000003
 21
-1298.719233395222
 31
0.0
100
AcDbText
  0
TEXT
  5
156
330
CC
100
AcDbEntity
  8
ZUWAKU
 62
     2
100
AcDbText
 10
-1945.0
 20
-1273.719233395222
 30
0.0
 40
35.0
  1
改訂
 41
1.272727272727273
  7
dcStyle1
 72
     5
 11
-1875.0
 21
-1273.719233395222
 31
0.0
100
AcDbText
  0
TEXT
  5
157
330
CC
100
AcDbEntity
  8
ZUWAKU
 62
     2
100
AcDbText
 10
-1744.5
 20
-1296.219233395222
 30
0.0
 40
34.99999999999998
  1
改　 訂　 記　 事
 41
1.061290322580646
  7
dcStyle1
 72
     5
 11
-1415.5
 21
-1296.219233395222
 31
0.0
100
AcDbText
  0
TEXT
  5
158
330
CC
100
AcDbEntity
  8
ZUWAKU
 62
     2
100
AcDbText
 10
-325.9999999999997
 20
-1273.719233395222
 30
0.0
 40
34.99999999999998
  1
尺
 41
1.680000000000001
  7
dcStyle1
 72
     5
 11
-283.9999999999997
 21
-1273.719233395222
 31
0.0
100
AcDbText
  0
TEXT
  5
159
330
CC
100
AcDbEntity
  8
ZUWAKU
 62
     2
100
AcDbText
 10
-269.9999999999997
 20
-1171.219233395222
 30
0.0
 40
34.99999999999998
  1
年　　月　　日
 41
1.195121951219512
  7
dcStyle1
 72
     5
 11
-24.9999999999998
 21
-1171.219233395222
 31
0.0
100
AcDbText
  0
TEXT
  5
15A
330
CC
100
AcDbEntity
  8
ZUWAKU
 62
     2
100
AcDbText
 10
878.0
 20
-1273.719233395222
 30
0.0
 40
34.99999999999998
  1
図面
 41
1.527272727272728
  7
dcStyle1
 72
     5
 11
962.0
 21
-1273.719233395222
 31
0.0
100
AcDbText
  0
TEXT
  5
15B
330
CC
100
AcDbEntity
  8
ZUWAKU
 62
     2
100
AcDbText
 10
880.0
 20
-1198.719233395222
 30
0.0
 40
40.0
  1
図名
 41
1.272727272727273
  7
dcStyle1
 72
     5
 11
960.0
 21
-1198.719233395222
 31
0.0
100
AcDbText
  0
TEXT
  5
15C
330
CC
100
AcDbEntity
  8
ZUWAKU
 62
     7
100
AcDbText
 10
-1027.5
 20
-1203.719233395222
 30
0.0
 40
50.0
  1
技術情報サービス
 41
1.191489361702128
  7
dcStyle1
 72
     5
 11
-627.4999999999998
 21
-1203.719233395222
 31
0.0
100
AcDbText
  0
TEXT
  5
15D
330
CC
100
AcDbEntity
  8
ZUWAKU
 62
     7
100
AcDbText
 10
-1173.411764705882
 20
-1298.719233395222
 30
0.0
 40
40.0
  1
MARUYASU KIKAI CO.,LTD.
 41
0.8990281013395455
  7
dcStyle1
 72
     5
 11
-481.5882352941175
 21
-1298.719233395222
 31
0.0
100
AcDbText
  0
TEXT
  5
15E
330
CC
100
AcDbEntity
  8
ZUWAKU
 62
     4
100
AcDbText
 10
1924.565543923691
 20
-1351.280766604779
 30
0.0
 40
20.0
  1
A3
 41
1.2
  7
dcStyle1
 72
     5
 11
1964.565543923691
 21
-1351.280766604779
 31
0.0
100
AcDbText
  0
ENDBLK
  5
CE
330
CC
100
AcDbEntity
  8
0
100
AcDbBlockEnd
  0
BLOCK
  5
D0
330
CF
100
AcDbEntity
  8
0
100
AcDbBlockBegin
  2
DC_GROUP_W_GT10H_S_030_4_3
 70
     0
 10
0.0
 20
0.0
 30
0.0
  3
DC_GROUP_W_GT10H_S_030_4_3
  1
DC_GROUP_W_GT10H_S_030_4_3
  0
POINT
  5
15F
330
CF
100
AcDbEntity
  8
ZUWAKU
  6
Continuous
 62
     2
100
AcDbPoint
 10
580.0000000000001
 20
-1178.719233395222
 30
0.0
  0
POINT
  5
160
330
CF
100
AcDbEntity
  8
ZUWAKU
  6
Continuous
 62
     2
100
AcDbPoint
 10
580.0000000000001
 20
-1278.719233395221
 30
0.0
  0
POINT
  5
161
330
CF
100
AcDbEntity
  8
ZUWAKU
  6
Continuous
 62
     2
100
AcDbPoint
 10
1940.0
 20
-1278.719233395221
 30
0.0
  0
POINT
  5
162
330
CF
100
AcDbEntity
  8
ZUWAKU
  6
Continuous
 62
     2
100
AcDbPoint
 10
1475.0
 20
-1178.719233395222
 30
0.0
  0
POINT
  5
163
330
CF
100
AcDbEntity
  8
ZUWAKU
  6
Continuous
 62
     2
100
AcDbPoint
 10
-107.4999999999997
 20
-1278.719233395221
 30
0.0
  0
ENDBLK
  5
D1
330
CF
100
AcDbEntity
  8
0
100
AcDbBlockEnd
  0
BLOCK
  5
D3
330
D2
100
AcDbEntity
  8
0
100
AcDbBlockBegin
  2
*D12
 70
     1
 10
0.0
 20
0.0
 30
0.0
  3
*D12
  1
*D12
  0
LINE
  5
164
330
D2
100
AcDbEntity
  8
0
  6
Continuous
 62
     2
370
    13
100
AcDbLine
 10
-548.7446050820404
 20
-951.5051051073908
 30
0.0
 11
-548.7446050820404
 21
-876.5051051073909
 31
0.0
  0
INSERT
  5
165
330
D2
100
AcDbEntity
  8
0
 62
     2
100
AcDbBlockReference
  2
_OPEN30
 10
-548.7446050820404
 20
-951.5051051073908
 30
0.0
 41
30.00002807615286
 42
29.99989368223643
 50
270.0
  0
INSERT
  5
166
330
D2
100
AcDbEntity
  8
0
 62
     2
100
AcDbBlockReference
  2
_OPEN30
 10
-548.7446050820404
 20
-876.5051051073909
 30
0.0
 41
30.00002807615286
 42
29.99989368223643
 50
90.0
  0
LINE
  5
167
330
D2
100
AcDbEntity
  8
0
  6
Continuous
 62
     2
370
    13
100
AcDbLine
 10
-468.4516057117535
 20
-951.5051051073908
 30
0.0
 11
-558.7446050820404
 21
-951.5051051073908
 31
0.0
  0
LINE
  5
168
330
D2
100
AcDbEntity
  8
0
  6
Continuous
 62
     2
370
    13
100
AcDbLine
 10
-382.7003430533346
 20
-876.5051051073908
 30
0.0
 11
-558.7446050820404
 21
-876.5051051073909
 31
0.0
  0
MTEXT
  5
169
330
D2
100
AcDbEntity
  8
0
 62
     2
100
AcDbMText
 10
-558.7446050820404
 20
-914.0051051073909
 30
0.0
 40
40.0
 41
100.0
 46
0.0
 71
     8
 72
     1
  1
\T1.00;75
  7
dcStyle0
 11
6.123233995736766E-17
 21
1.0
 31
0.0
 73
     1
 44
1.0
  0
ENDBLK
  5
D4
330
D2
100
AcDbEntity
  8
0
100
AcDbBlockEnd
  0
BLOCK
  5
D6
330
D5
100
AcDbEntity
  8
0
100
AcDbBlockBegin
  2
DC_GROUP_W_GT10H_S_030_4_4
 70
     0
 10
0.0
 20
0.0
 30
0.0
  3
DC_GROUP_W_GT10H_S_030_4_4
  1
DC_GROUP_W_GT10H_S_030_4_4
  0
INSERT
  5
16A
330
D5
100
AcDbEntity
  8
2
  6
Continuous
100
AcDbBlockReference
  2
DC_GROUP_W_GT10H_S_030_4_5
 10
0.0
 20
0.0
 30
0.0
  0
INSERT
  5
16B
330
D5
100
AcDbEntity
  8
2
  6
Continuous
100
AcDbBlockReference
  2
DC_GROUP_W_GT10H_S_030_4_6
 10
0.0
 20
0.0
 30
0.0
  0
ENDBLK
  5
D7
330
D5
100
AcDbEntity
  8
0
100
AcDbBlockEnd
  0
BLOCK
  5
D9
330
D8
100
AcDbEntity
  8
0
100
AcDbBlockBegin
  2
DC_GROUP_W_GT10H_S_030_4_5
 70
     0
 10
0.0
 20
0.0
 30
0.0
  3
DC_GROUP_W_GT10H_S_030_4_5
  1
DC_GROUP_W_GT10H_S_030_4_5
  0
LINE
  5
16C
330
D8
100
AcDbEntity
  8
2
  6
DASHED2
 62
     4
370
    13
100
AcDbLine
 10
-112.1063679201314
 20
873.7576919440228
 30
0.0
 11
-122.712969637929
 21
863.1510902262271
 31
0.0
  0
LINE
  5
16D
330
D8
100
AcDbEntity
  8
2
  6
DASHED2
 62
     4
370
    13
100
AcDbLine
 10
-122.712969637929
 20
863.1510902262271
 30
0.0
 11
-62.608893237077
 21
803.0470138253661
 31
0.0
  0
LINE
  5
16E
330
D8
100
AcDbEntity
  8
2
  6
DASHED2
 62
     4
370
    13
100
AcDbLine
 10
-60.487572893517
 20
805.1683341689256
 30
0.0
 11
-62.608893237077
 21
803.0470138253661
 31
0.0
  0
LINE
  5
16F
330
D8
100
AcDbEntity
  8
2
  6
DASHED2
 62
     4
370
    13
100
AcDbLine
 10
-112.1063679201314
 20
873.7576919440228
 30
0.0
 11
-108.7424068894521
 21
870.393730913345
 31
0.0
  0
LINE
  5
170
330
D8
100
AcDbEntity
  8
2
  6
DASHED2
 62
     4
370
    13
100
AcDbLine
 10
-108.5111546152801
 20
870.1339696148596
 30
0.0
 11
-60.16385683656263
 21
809.0279861839933
 31
0.0
  0
ARC
  5
171
330
D8
100
AcDbEntity
  8
2
  6
DASHED2
 62
     4
370
    13
100
AcDbCircle
 10
-110.8637272330123
 20
868.2724105697841
 30
0.0
 40
3.000000000001046
100
AcDbArc
 50
38.35409432248134
 51
45.00000000000919
  0
ARC
  5
172
330
D8
100
AcDbEntity
  8
2
  6
DASHED2
 62
     4
370
    13
100
AcDbCircle
 10
-62.6088932370762
 20
807.2896545124861
 30
0.0
 40
3.000000000000001
100
AcDbArc
 50
314.9999999999783
 51
35.41143836011077
  0
LINE
  5
173
330
D8
100
AcDbEntity
  8
2
  6
CENTERX2
 62
     3
370
    13
100
AcDbLine
 10
-85.81872127749541
 20
822.2635926561411
 30
0.0
 11
-79.56740635150932
 21
828.5149075821257
 31
0.0
  0
LINE
  5
174
330
D8
100
AcDbEntity
  8
2
  6
CENTERX2
 62
     3
370
    13
100
AcDbLine
 10
-116.6700243359677
 20
871.2502805479905
 30
0.0
 11
-110.4999122355074
 21
865.0801684475293
 31
0.0
  0
ENDBLK
  5
DA
330
D8
100
AcDbEntity
  8
0
100
AcDbBlockEnd
  0
BLOCK
  5
DC
330
DB
100
AcDbEntity
  8
0
100
AcDbBlockBegin
  2
DC_GROUP_W_GT10H_S_030_4_6
 70
     0
 10
0.0
 20
0.0
 30
0.0
  3
DC_GROUP_W_GT10H_S_030_4_6
  1
DC_GROUP_W_GT10H_S_030_4_6
  0
SPLINE
  5
175
330
DB
100
AcDbEntity
  8
2
  6
DASHED2
 62
     4
370
    13
100
AcDbSpline
210
0.0
220
0.0
230
1.0
 70
     8
 71
     3
 72
    11
 73
     7
 74
     0
 42
0.000000001
 43
0.0000000001
 40
0.0
 40
0.0
 40
0.0
 40
0.0
 40
0.5002901804
 40
0.7504078465
 40
0.8755233814
 40
1.0
 40
1.0
 40
1.0
 40
1.0
 10
-64.42533009234519
 20
815.8921787838058
 30
0.0
 10
-64.25461649142706
 20
815.5826411110334
 30
0.0
 10
-64.02960860763467
 20
815.0971892643208
 30
0.0
 10
-63.90410611655268
 20
814.4847018519197
 30
0.0
 10
-63.91651160577085
 20
814.1306158445279
 30
0.0
 10
-63.97630884626535
 20
813.957130930914
 30
0.0
 10
-64.02817749768526
 20
813.8861014124786
 30
0.0
  0
SPLINE
  5
176
330
DB
100
AcDbEntity
  8
2
  6
DASHED2
 62
     4
370
    13
100
AcDbSpline
210
0.0
220
0.0
230
1.0
 70
     8
 71
     3
 72
    11
 73
     7
 74
     0
 42
0.000000001
 43
0.0000000001
 40
0.0
 40
0.0
 40
0.0
 40
0.0
 40
0.2386510257
 40
0.4853882043000001
 40
0.7399932082
 40
1.0
 40
1.0
 40
1.0
 40
1.0
 10
-82.46425025556648
 20
839.7821264345064
 30
0.0
 10
-82.53432306269868
 20
839.8074256710236
 30
0.0
 10
-82.68325090132494
 20
839.8427627547073
 30
0.0
 10
-82.916313155619
 20
839.8430507056298
 30
0.0
 10
-83.14958751585534
 20
839.7872450101538
 30
0.0
 10
-83.29409785109563
 20
839.7129591046898
 30
0.0
 10
-83.36134364475113
 20
839.6675055121702
 30
0.0
  0
SPLINE
  5
177
330
DB
100
AcDbEntity
  8
2
  6
DASHED2
 62
     4
370
    13
100
AcDbSpline
210
0.0
220
0.0
230
1.0
 70
     8
 71
     3
 72
    11
 73
     7
 74
     0
 42
0.000000001
 43
0.0000000001
 40
0.0
 40
0.0
 40
0.0
 40
0.0
 40
0.2599712863
 40
0.5145758675
 40
0.7613286667
 40
1.0
 40
1.0
 40
1.0
 40
1.0
 10
-68.41489708230536
 20
824.7208390199935
 30
0.0
 10
-68.36949134988363
 20
824.7879902556529
 30
0.0
 10
-68.29525496551157
 20
824.9322962180829
 30
0.0
 10
-68.23937341041797
 20
825.1652544360395
 30
0.0
 10
-68.23945339621567
 20
825.3980532123767
 30
0.0
 10
-68.27458009088294
 20
825.546856773592
 30
0.0
 10
-68.29976328813684
 20
825.6168863451751
 30
0.0
  0
LINE
  5
178
330
DB
100
AcDbEntity
  8
2
  6
DASHED2
 62
     4
370
    13
100
AcDbLine
 10
-83.37532924135856
 20
839.6578802513457
 30
0.0
 11
-83.36645843080085
 21
839.6490094407875
 31
0.0
  0
LINE
  5
179
330
DB
100
AcDbEntity
  8
2
  6
DASHED2
 62
     4
370
    13
100
AcDbLine
 10
-78.41530908921898
 20
836.4850961555173
 30
0.0
 11
-78.20247306889799
 21
836.6979321758392
 31
0.0
  0
LINE
  5
17A
330
DB
100
AcDbEntity
  8
2
  6
DASHED2
 62
     4
370
    13
100
AcDbLine
 10
-81.33854337008843
 20
838.9155429645789
 30
0.0
 11
-81.12464362902513
 21
839.1294427056423
 31
0.0
  0
ARC
  5
17B
330
DB
100
AcDbEntity
  8
2
  6
DASHED2
 62
     4
370
    13
100
AcDbCircle
 10
-69.2402123128007
 20
825.2771877147973
 30
0.0
 40
1.0
100
AcDbArc
 50
26.85751011428973
 51
37.00930876088857
  0
ARC
  5
17C
330
DB
100
AcDbEntity
  8
2
  6
DASHED2
 62
     4
370
    13
100
AcDbCircle
 10
-69.23080143854914
 20
825.2819607329466
 30
0.0
 40
0.9894479284999999
100
AcDbArc
 50
19.78535773128855
 51
26.85712879888941
  0
ARC
  5
17D
330
DB
100
AcDbEntity
  8
2
  6
DASHED2
 62
     4
370
    13
100
AcDbCircle
 10
-124.3393152347499
 20
783.7429986990871
 30
0.0
 40
70.0
100
AcDbArc
 50
52.06735163788901
 51
52.99069123908898
  0
ARC
  5
17E
330
DB
100
AcDbEntity
  8
2
  6
DASHED2
 62
     4
370
    13
100
AcDbCircle
 10
-124.3393152347499
 20
783.7429986990871
 30
0.0
 40
70.0
100
AcDbArc
 50
37.00930876088904
 51
48.95277020038902
  0
ARC
  5
17F
330
DB
100
AcDbEntity
  8
2
  6
DASHED2
 62
     4
370
    13
100
AcDbCircle
 10
-124.0489644749174
 20
784.5721391888956
 30
0.0
 40
69.118634281
100
AcDbArc
 50
48.68318031798898
 51
51.83493047038901
  0
ARC
  5
180
330
DB
100
AcDbEntity
  8
2
  6
DASHED2
 62
     4
370
    13
100
AcDbCircle
 10
-103.6384680552179
 20
808.1442463793794
 30
0.0
 40
38.300844399
100
AcDbArc
 50
49.69461493378901
 51
53.99786809158906
  0
ARC
  5
181
330
DB
100
AcDbEntity
  8
2
  6
DASHED2
 62
     4
370
    13
100
AcDbCircle
 10
-82.7455352110256
 20
832.7751162978823
 30
0.0
 40
6.002324386299999
100
AcDbArc
 50
40.80975383568898
 51
49.6979332280891
  0
ARC
  5
182
330
DB
100
AcDbEntity
  8
2
  6
DASHED2
 62
     4
370
    13
100
AcDbCircle
 10
-82.79515278496599
 20
838.8298515101735
 30
0.0
 40
1.0110570295
100
AcDbArc
 50
124.055724098988
 51
125.0178482884893
  0
ARC
  5
183
330
DB
100
AcDbEntity
  8
2
  6
DASHED2
 62
     4
370
    13
100
AcDbCircle
 10
-82.80512621901819
 20
838.8421016210202
 30
0.0
 40
1.0
100
AcDbArc
 50
52.99069123908949
 51
63.14248988568831
  0
ARC
  5
184
330
DB
100
AcDbEntity
  8
2
  6
DASHED2
 62
     4
370
    13
100
AcDbCircle
 10
-82.80035645306528
 20
838.8515080784703
 30
0.0
 40
0.9894533381999998
100
AcDbArc
 50
63.14281873048923
 51
70.14208586578935
  0
ARC
  5
185
330
DB
100
AcDbEntity
  8
2
  6
DASHED2
 62
     4
370
    13
100
AcDbCircle
 10
-82.81240632951513
 20
838.8574354041041
 30
0.0
 40
0.9662107361
100
AcDbArc
 50
124.1562344262892
 51
124.9896045903903
  0
LINE
  5
186
330
DB
100
AcDbEntity
  8
2
  6
DASHED2
 62
     4
370
    13
100
AcDbLine
 10
-84.03348103043147
 20
839.1967221321247
 30
0.0
 11
-83.37532924135856
 21
839.6578802513457
 31
0.0
  0
LINE
  5
187
330
DB
100
AcDbEntity
  8
2
  6
DASHED2
 62
     4
370
    13
100
AcDbLine
 10
-68.42443368240477
 20
824.7069846923857
 30
0.0
 11
-69.26769805825991
 21
823.5035016992349
 31
0.0
  0
LINE
  5
188
330
DB
100
AcDbEntity
  8
2
  6
DASHED2
 62
     4
370
    13
100
AcDbLine
 10
-57.33881505024517
 20
809.9391722749622
 30
0.0
 11
-59.35620204370078
 21
811.956559268418
 31
0.0
  0
LINE
  5
189
330
DB
100
AcDbEntity
  8
2
  6
DASHED2
 62
     4
370
    13
100
AcDbLine
 10
-61.19467967478688
 20
804.4612273878408
 30
0.0
 11
-57.32054746040815
 21
808.5437109180587
 31
0.0
  0
ARC
  5
18A
330
DB
100
AcDbEntity
  8
2
  6
DASHED2
 62
     4
370
    13
100
AcDbCircle
 10
-75.8439858663033
 20
809.6109093507146
 30
0.0
 40
13.032269387
100
AcDbArc
 50
28.81467972188898
 51
61.18531540458903
  0
ARC
  5
18B
330
DB
100
AcDbEntity
  8
2
  6
DASHED2
 62
     4
370
    13
100
AcDbCircle
 10
-58.04594430957884
 20
809.2320879719225
 30
0.0
 40
1.0
100
AcDbArc
 50
316.4999523234892
 51
44.99817862718846
  0
ARC
  5
18C
330
DB
100
AcDbEntity
  8
2
  6
DASHED2
 62
     4
370
    13
100
AcDbCircle
 10
-247.961783637093
 20
660.120530296791
 30
0.0
 40
242.1285714286
100
AcDbArc
 50
38.83563835088901
 51
46.52408151095005
  0
LINE
  5
18D
330
DB
100
AcDbEntity
  8
2
  6
DASHED2
 62
     4
370
    13
100
AcDbLine
 10
-151.8061419215454
 20
719.5317667487918
 30
0.0
 11
-144.3857924813991
 21
726.5734154401588
 31
0.0
  0
LINE
  5
18E
330
DB
100
AcDbEntity
  8
2
  6
DASHED2
 62
     4
370
    13
100
AcDbLine
 10
-188.5505471850556
 20
756.2761720123162
 30
0.0
 11
-181.5088984936859
 21
763.6965214524598
 31
0.0
  0
LINE
  5
18F
330
DB
100
AcDbEntity
  8
2
  6
DASHED2
 62
     4
370
    13
100
AcDbLine
 10
-144.3857924813991
 20
726.5734154401588
 30
0.0
 11
-181.5088984936859
 21
763.6965214524598
 31
0.0
  0
LINE
  5
190
330
DB
100
AcDbEntity
  8
2
  6
DASHED2
 62
     4
370
    13
100
AcDbLine
 10
-153.2016032784483
 20
719.5500343386293
 30
0.0
 11
-188.5322795952184
 21
754.8807106554132
 31
0.0
  0
ARC
  5
191
330
DB
100
AcDbEntity
  8
2
  6
DASHED2
 62
     4
370
    13
100
AcDbCircle
 10
-152.4944964972615
 20
720.2571411198159
 30
0.0
 40
1.0
100
AcDbArc
 50
224.999999999989
 51
313.4999999999895
  0
ARC
  5
192
330
DB
100
AcDbEntity
  8
2
  6
DASHED2
 62
     4
370
    13
100
AcDbCircle
 10
-187.8251728140319
 20
755.5878174365994
 30
0.0
 40
1.0
100
AcDbArc
 50
136.4999999999885
 51
224.999999999989
  0
LINE
  5
193
330
DB
100
AcDbEntity
  8
2
  6
DASHED2
 62
     4
370
    13
100
AcDbLine
 10
-151.8061419215454
 20
719.5317667487918
 30
0.0
 11
-144.3857924813991
 21
726.5734154401588
 31
0.0
  0
LINE
  5
194
330
DB
100
AcDbEntity
  8
2
  6
DASHED2
 62
     4
370
    13
100
AcDbLine
 10
-188.5505471850556
 20
756.2761720123162
 30
0.0
 11
-181.5088984936859
 21
763.6965214524598
 31
0.0
  0
LINE
  5
195
330
DB
100
AcDbEntity
  8
2
  6
DASHED2
 62
     4
370
    13
100
AcDbLine
 10
-144.3857924813991
 20
726.5734154401588
 30
0.0
 11
-181.5088984936859
 21
763.6965214524598
 31
0.0
  0
LINE
  5
196
330
DB
100
AcDbEntity
  8
2
  6
DASHED2
 62
     4
370
    13
100
AcDbLine
 10
-153.2016032784483
 20
719.5500343386293
 30
0.0
 11
-188.5322795952184
 21
754.8807106554132
 31
0.0
  0
ARC
  5
197
330
DB
100
AcDbEntity
  8
2
  6
DASHED2
 62
     4
370
    13
100
AcDbCircle
 10
-152.4944964972615
 20
720.2571411198159
 30
0.0
 40
1.0
100
AcDbArc
 50
224.999999999989
 51
313.4999999999895
  0
ARC
  5
198
330
DB
100
AcDbEntity
  8
2
  6
DASHED2
 62
     4
370
    13
100
AcDbCircle
 10
-187.8251728140319
 20
755.5878174365994
 30
0.0
 40
1.0
100
AcDbArc
 50
136.4999999999885
 51
224.999999999989
  0
LINE
  5
199
330
DB
100
AcDbEntity
  8
2
  6
DASHED2
 62
     4
370
    13
100
AcDbLine
 10
-73.25085029401892
 20
797.7083576275115
 30
0.0
 11
-80.5340501402389
 21
804.9915574737345
 31
0.0
  0
LINE
  5
19A
330
DB
100
AcDbEntity
  8
2
  6
DASHED2
 62
     4
370
    13
100
AcDbLine
 10
-73.25085029401892
 20
797.7083576275115
 30
0.0
 11
-65.26054366660885
 21
805.6986642549189
 31
0.0
  0
LINE
  5
19B
330
DB
100
AcDbEntity
  8
2
  6
DASHED2
 62
     4
370
    13
100
AcDbLine
 10
-151.6689923276193
 20
733.8566152863818
 30
0.0
 11
-80.5340501402389
 21
804.9915574737345
 31
0.0
  0
LINE
  5
19C
330
DB
100
AcDbEntity
  8
2
  6
DASHED2
 62
     4
370
    13
100
AcDbLine
 10
-102.3836496788955
 20
842.8217702672193
 30
0.0
 11
-181.2967664593296
 21
763.9086534868154
 31
0.0
  0
LINE
  5
19D
330
DB
100
AcDbEntity
  8
2
  6
DASHED2
 62
     4
370
    13
100
AcDbLine
 10
-74.80648521262943
 20
796.5769867776135
 30
0.0
 11
-80.25120742776478
 21
802.0217089927512
 31
0.0
  0
LINE
  5
19E
330
DB
100
AcDbEntity
  8
2
  6
DASHED2
 62
     4
370
    13
100
AcDbLine
 10
-76.71567352183372
 20
794.6677984684104
 30
0.0
 11
-82.16039573696897
 21
800.1125206835475
 31
0.0
  0
LINE
  5
19F
330
DB
100
AcDbEntity
  8
2
  6
DASHED2
 62
     4
370
    13
100
AcDbLine
 10
-77.70562301549496
 20
793.6778489747492
 30
0.0
 11
-83.15034523063032
 21
799.1225711898865
 31
0.0
  0
LINE
  5
1A0
330
DB
100
AcDbEntity
  8
2
  6
DASHED2
 62
     4
370
    13
100
AcDbLine
 10
-79.61481132469892
 20
791.7686606655459
 30
0.0
 11
-85.05953353983439
 21
797.2133828806834
 31
0.0
  0
LINE
  5
1A1
330
DB
100
AcDbEntity
  8
2
  6
DASHED2
 62
     4
370
    13
100
AcDbLine
 10
-80.60476081836016
 20
790.7787111718851
 30
0.0
 11
-86.04948303349563
 21
796.2234333870226
 31
0.0
  0
LINE
  5
1A2
330
DB
100
AcDbEntity
  8
2
  6
DASHED2
 62
     4
370
    13
100
AcDbLine
 10
-82.51394912756457
 20
788.8695228626818
 30
0.0
 11
-87.95867134269947
 21
794.3142450778189
 31
0.0
  0
LINE
  5
1A3
330
DB
100
AcDbEntity
  8
2
  6
DASHED2
 62
     4
370
    13
100
AcDbLine
 10
-83.50389862122582
 20
787.8795733690208
 30
0.0
 11
-88.94862083636129
 21
793.3242955841581
 31
0.0
  0
LINE
  5
1A4
330
DB
100
AcDbEntity
  8
2
  6
DASHED2
 62
     4
370
    13
100
AcDbLine
 10
-144.5979245157551
 20
726.7855474745149
 30
0.0
 11
-143.3958429877379
 21
727.9876290025318
 31
0.0
  0
LINE
  5
1A5
330
DB
100
AcDbEntity
  8
2
  6
DASHED2
 62
     4
370
    13
100
AcDbLine
 10
-141.4866546785339
 20
729.8968173117349
 30
0.0
 11
-140.4967051848724
 21
730.886766805396
 31
0.0
  0
LINE
  5
1A6
330
DB
100
AcDbEntity
  8
2
  6
DASHED2
 62
     4
370
    13
100
AcDbLine
 10
-138.5875168756682
 20
732.7959551145992
 30
0.0
 11
-137.5975673820068
 21
733.7859046082601
 31
0.0
  0
LINE
  5
1A7
330
DB
100
AcDbEntity
  8
2
  6
DASHED2
 62
     4
370
    13
100
AcDbLine
 10
-135.6883790728029
 20
735.6950929174636
 30
0.0
 11
-134.6984295791416
 21
736.6850424111244
 31
0.0
  0
LINE
  5
1A8
330
DB
100
AcDbEntity
  8
2
  6
DASHED2
 62
     4
370
    13
100
AcDbLine
 10
-132.7892412699376
 20
738.5942307203278
 30
0.0
 11
-131.7992917762761
 21
739.5841802139887
 31
0.0
  0
LINE
  5
1A9
330
DB
100
AcDbEntity
  8
2
  6
DASHED2
 62
     4
370
    13
100
AcDbLine
 10
-126.9909656642067
 20
744.3925063260565
 30
0.0
 11
-126.0010161705453
 21
745.3824558197175
 31
0.0
  0
LINE
  5
1AA
330
DB
100
AcDbEntity
  8
2
  6
DASHED2
 62
     4
370
    13
100
AcDbLine
 10
-124.0918278613414
 20
747.2916441289206
 30
0.0
 11
-123.10187836768
 21
748.2815936225816
 31
0.0
  0
LINE
  5
1AB
330
DB
100
AcDbEntity
  8
2
  6
DASHED2
 62
     4
370
    13
100
AcDbLine
 10
-121.192690058476
 20
750.1907819317851
 30
0.0
 11
-120.2027405648144
 21
751.1807314254461
 31
0.0
  0
LINE
  5
1AC
330
DB
100
AcDbEntity
  8
2
  6
DASHED2
 62
     4
370
    13
100
AcDbLine
 10
-118.2935522556105
 20
753.0899197346491
 30
0.0
 11
-117.3036027619494
 21
754.0798692283104
 31
0.0
  0
LINE
  5
1AD
330
DB
100
AcDbEntity
  8
2
  6
DASHED2
 62
     4
370
    13
100
AcDbLine
 10
-112.4952766498796
 20
758.8881953403777
 30
0.0
 11
-111.5053271562185
 21
759.8781448340387
 31
0.0
  0
LINE
  5
1AE
330
DB
100
AcDbEntity
  8
2
  6
DASHED2
 62
     4
370
    13
100
AcDbLine
 10
-109.5961388470144
 20
761.7873331432422
 30
0.0
 11
-108.6061893533529
 21
762.777282636903
 31
0.0
  0
LINE
  5
1AF
330
DB
100
AcDbEntity
  8
2
  6
DASHED2
 62
     4
370
    13
100
AcDbLine
 10
-106.6970010441492
 20
764.6864709461063
 30
0.0
 11
-105.7070515504876
 21
765.6764204397673
 31
0.0
  0
LINE
  5
1B0
330
DB
100
AcDbEntity
  8
2
  6
DASHED2
 62
     4
370
    13
100
AcDbLine
 10
-103.7978632412836
 20
767.5856087489708
 30
0.0
 11
-102.8079137476221
 21
768.5755582426316
 31
0.0
  0
LINE
  5
1B1
330
DB
100
AcDbEntity
  8
2
  6
DASHED2
 62
     4
370
    13
100
AcDbLine
 10
-100.8987254384184
 20
770.4847465518351
 30
0.0
 11
-99.90877594475678
 21
771.4746960454959
 31
0.0
  0
LINE
  5
1B2
330
DB
100
AcDbEntity
  8
2
  6
DASHED2
 62
     4
370
    13
100
AcDbLine
 10
-97.99958763555271
 20
773.3838843546994
 30
0.0
 11
-97.00963814189136
 21
774.3738338483604
 31
0.0
  0
LINE
  5
1B3
330
DB
100
AcDbEntity
  8
2
  6
DASHED2
 62
     4
370
    13
100
AcDbLine
 10
-95.10044983268752
 20
776.2830221575637
 30
0.0
 11
-94.11050033902605
 21
777.2729716512245
 31
0.0
  0
LINE
  5
1B4
330
DB
100
AcDbEntity
  8
2
  6
DASHED2
 62
     4
370
    13
100
AcDbLine
 10
-92.20131202982198
 20
779.1821599604277
 30
0.0
 11
-91.21136253616062
 21
780.1721094540887
 31
0.0
  0
LINE
  5
1B5
330
DB
100
AcDbEntity
  8
2
  6
DASHED2
 62
     4
370
    13
100
AcDbLine
 10
-89.30217422695667
 20
782.0812977632922
 30
0.0
 11
-88.3122247332952
 21
783.0712472569533
 31
0.0
  0
LINE
  5
1B6
330
DB
100
AcDbEntity
  8
2
  6
DASHED2
 62
     4
370
    13
100
AcDbLine
 10
-86.40303642409101
 20
784.9804355661563
 30
0.0
 11
-85.41308693042977
 21
785.9703850598173
 31
0.0
  0
LINE
  5
1B7
330
DB
100
AcDbEntity
  8
2
  6
DASHED2
 62
     4
370
    13
100
AcDbLine
 10
-83.50389862122582
 20
787.8795733690208
 30
0.0
 11
-82.51394912756457
 21
788.8695228626818
 31
0.0
  0
LINE
  5
1B8
330
DB
100
AcDbEntity
  8
2
  6
DASHED2
 62
     4
370
    13
100
AcDbLine
 10
-80.60476081836016
 20
790.7787111718851
 30
0.0
 11
-79.61481132469892
 21
791.7686606655459
 31
0.0
  0
LINE
  5
1B9
330
DB
100
AcDbEntity
  8
2
  6
DASHED2
 62
     4
370
    13
100
AcDbLine
 10
-77.70562301549496
 20
793.6778489747492
 30
0.0
 11
-76.71567352183372
 21
794.6677984684104
 31
0.0
  0
LINE
  5
1BA
330
DB
100
AcDbEntity
  8
2
  6
DASHED2
 62
     4
370
    13
100
AcDbLine
 10
-74.80648521262943
 20
796.5769867776135
 30
0.0
 11
-73.46298232837496
 21
797.9204896618678
 31
0.0
  0
LINE
  5
1BB
330
DB
100
AcDbEntity
  8
2
  6
DASHED2
 62
     4
370
    13
100
AcDbLine
 10
-85.41308693042977
 20
785.9703850598173
 30
0.0
 11
-90.85780914556501
 21
791.4151072749548
 31
0.0
  0
LINE
  5
1BC
330
DB
100
AcDbEntity
  8
2
  6
DASHED2
 62
     4
370
    13
100
AcDbLine
 10
-86.40303642409101
 20
784.9804355661563
 30
0.0
 11
-91.84775863922648
 21
790.425157781294
 31
0.0
  0
LINE
  5
1BD
330
DB
100
AcDbEntity
  8
2
  6
DASHED2
 62
     4
370
    13
100
AcDbLine
 10
-88.3122247332952
 20
783.0712472569533
 30
0.0
 11
-93.75694694843067
 21
788.5159694720905
 31
0.0
  0
LINE
  5
1BE
330
DB
100
AcDbEntity
  8
2
  6
DASHED2
 62
     4
370
    13
100
AcDbLine
 10
-89.30217422695667
 20
782.0812977632922
 30
0.0
 11
-94.74689644209191
 21
787.5260199784295
 31
0.0
  0
LINE
  5
1BF
330
DB
100
AcDbEntity
  8
2
  6
DASHED2
 62
     4
370
    13
100
AcDbLine
 10
-91.21136253616062
 20
780.1721094540887
 30
0.0
 11
-96.65608475129598
 21
785.616831669226
 31
0.0
  0
LINE
  5
1C0
330
DB
100
AcDbEntity
  8
2
  6
DASHED2
 62
     4
370
    13
100
AcDbLine
 10
-137.2440139914116
 20
745.0289024291262
 30
0.0
 11
-132.435687879342
 21
749.837228541194
 31
0.0
  0
LINE
  5
1C1
330
DB
100
AcDbEntity
  8
2
  6
DASHED2
 62
     4
370
    13
100
AcDbLine
 10
-122.7483249770845
 20
759.5245914434474
 30
0.0
 11
-117.9399988650152
 21
764.3329175555152
 31
0.0
  0
LINE
  5
1C2
330
DB
100
AcDbEntity
  8
2
  6
DASHED2
 62
     4
370
    13
100
AcDbLine
 10
-80.25120742776478
 20
802.0217089927512
 30
0.0
 11
-82.16039573696897
 21
800.1125206835475
 31
0.0
  0
LINE
  5
1C3
330
DB
100
AcDbEntity
  8
2
  6
DASHED2
 62
     4
370
    13
100
AcDbLine
 10
-83.15034523063032
 20
799.1225711898865
 30
0.0
 11
-85.05953353983439
 21
797.2133828806834
 31
0.0
  0
LINE
  5
1C4
330
DB
100
AcDbEntity
  8
2
  6
DASHED2
 62
     4
370
    13
100
AcDbLine
 10
-86.04948303349563
 20
796.2234333870226
 30
0.0
 11
-87.95867134269947
 21
794.3142450778189
 31
0.0
  0
LINE
  5
1C5
330
DB
100
AcDbEntity
  8
2
  6
DASHED2
 62
     4
370
    13
100
AcDbLine
 10
-88.94862083636129
 20
793.3242955841581
 30
0.0
 11
-90.85780914556501
 21
791.4151072749548
 31
0.0
  0
LINE
  5
1C6
330
DB
100
AcDbEntity
  8
2
  6
DASHED2
 62
     4
370
    13
100
AcDbLine
 10
-91.84775863922648
 20
790.425157781294
 30
0.0
 11
-93.75694694843067
 21
788.5159694720905
 31
0.0
  0
LINE
  5
1C7
330
DB
100
AcDbEntity
  8
2
  6
DASHED2
 62
     4
370
    13
100
AcDbLine
 10
-94.74689644209191
 20
787.5260199784295
 30
0.0
 11
-96.65608475129598
 21
785.616831669226
 31
0.0
  0
LINE
  5
1C8
330
DB
100
AcDbEntity
  8
2
  6
DASHED2
 62
     4
370
    13
100
AcDbLine
 10
-97.64603424495745
 20
784.6268821755652
 30
0.0
 11
-99.5552225541614
 21
782.7176938663617
 31
0.0
  0
LINE
  5
1C9
330
DB
100
AcDbEntity
  8
2
  6
DASHED2
 62
     4
370
    13
100
AcDbLine
 10
-100.5451720478226
 20
781.727744372701
 30
0.0
 11
-102.4543603570268
 21
779.8185560634975
 31
0.0
  0
LINE
  5
1CA
330
DB
100
AcDbEntity
  8
2
  6
DASHED2
 62
     4
370
    13
100
AcDbLine
 10
-103.4443098506881
 20
778.8286065698369
 30
0.0
 11
-105.3534981598921
 21
776.9194182606332
 31
0.0
  0
LINE
  5
1CB
330
DB
100
AcDbEntity
  8
2
  6
DASHED2
 62
     4
370
    13
100
AcDbLine
 10
-106.3434476535535
 20
775.9294687669724
 30
0.0
 11
-108.2526359627576
 21
774.0202804577691
 31
0.0
  0
LINE
  5
1CC
330
DB
100
AcDbEntity
  8
2
  6
DASHED2
 62
     4
370
    13
100
AcDbLine
 10
-109.2425854564188
 20
773.0303309641083
 30
0.0
 11
-111.1517737656231
 21
771.121142654905
 31
0.0
  0
LINE
  5
1CD
330
DB
100
AcDbEntity
  8
2
  6
DASHED2
 62
     4
370
    13
100
AcDbLine
 10
-112.1417232592843
 20
770.1311931612438
 30
0.0
 11
-114.0509115684886
 21
768.2220048520405
 31
0.0
  0
LINE
  5
1CE
330
DB
100
AcDbEntity
  8
2
  6
DASHED2
 62
     4
370
    13
100
AcDbLine
 10
-115.0408610621497
 20
767.2320553583797
 30
0.0
 11
-116.9500493713536
 21
765.3228670491765
 31
0.0
  0
LINE
  5
1CF
330
DB
100
AcDbEntity
  8
2
  6
DASHED2
 62
     4
370
    13
100
AcDbLine
 10
-123.7382744707459
 20
758.5346419497866
 30
0.0
 11
-125.6474627799501
 21
756.6254536405836
 31
0.0
  0
LINE
  5
1D0
330
DB
100
AcDbEntity
  8
2
  6
DASHED2
 62
     4
370
    13
100
AcDbLine
 10
-126.6374122736114
 20
755.6355041469226
 30
0.0
 11
-128.5466005828153
 21
753.7263158377189
 31
0.0
  0
LINE
  5
1D1
330
DB
100
AcDbEntity
  8
2
  6
DASHED2
 62
     4
370
    13
100
AcDbLine
 10
-129.5365500764767
 20
752.7363663440581
 30
0.0
 11
-131.445738385681
 21
750.827178034855
 31
0.0
  0
LINE
  5
1D2
330
DB
100
AcDbEntity
  8
2
  6
DASHED2
 62
     4
370
    13
100
AcDbLine
 10
-138.2339634850728
 20
744.0389529354652
 30
0.0
 11
-140.1431517942769
 21
742.1297646262622
 31
0.0
  0
LINE
  5
1D3
330
DB
100
AcDbEntity
  8
2
  6
DASHED2
 62
     4
370
    13
100
AcDbLine
 10
-141.1331012879384
 20
741.1398151326009
 30
0.0
 11
-143.0422895971423
 21
739.2306268233974
 31
0.0
  0
LINE
  5
1D4
330
DB
100
AcDbEntity
  8
2
  6
DASHED2
 62
     4
370
    13
100
AcDbLine
 10
-144.0322390908036
 20
738.2406773297366
 30
0.0
 11
-145.9414274000077
 21
736.3314890205336
 31
0.0
  0
LINE
  5
1D5
330
DB
100
AcDbEntity
  8
2
  6
DASHED2
 62
     4
370
    13
100
AcDbLine
 10
-146.9313768936691
 20
735.3415395268725
 30
0.0
 11
-148.8405652028731
 21
733.4323512176688
 31
0.0
  0
LINE
  5
1D6
330
DB
100
AcDbEntity
  8
2
  6
DASHED2
 62
     4
370
    13
100
AcDbLine
 10
-92.20131202982198
 20
779.1821599604277
 30
0.0
 11
-97.64603424495745
 21
784.6268821755652
 31
0.0
  0
LINE
  5
1D7
330
DB
100
AcDbEntity
  8
2
  6
DASHED2
 62
     4
370
    13
100
AcDbLine
 10
-94.11050033902605
 20
777.2729716512245
 30
0.0
 11
-99.5552225541614
 21
782.7176938663617
 31
0.0
  0
LINE
  5
1D8
330
DB
100
AcDbEntity
  8
2
  6
DASHED2
 62
     4
370
    13
100
AcDbLine
 10
-95.10044983268752
 20
776.2830221575637
 30
0.0
 11
-100.5451720478226
 21
781.727744372701
 31
0.0
  0
LINE
  5
1D9
330
DB
100
AcDbEntity
  8
2
  6
DASHED2
 62
     4
370
    13
100
AcDbLine
 10
-97.00963814189136
 20
774.3738338483604
 30
0.0
 11
-102.4543603570268
 21
779.8185560634975
 31
0.0
  0
LINE
  5
1DA
330
DB
100
AcDbEntity
  8
2
  6
DASHED2
 62
     4
370
    13
100
AcDbLine
 10
-97.99958763555271
 20
773.3838843546994
 30
0.0
 11
-103.4443098506881
 21
778.8286065698369
 31
0.0
  0
LINE
  5
1DB
330
DB
100
AcDbEntity
  8
2
  6
DASHED2
 62
     4
370
    13
100
AcDbLine
 10
-99.90877594475678
 20
771.4746960454959
 30
0.0
 11
-105.3534981598921
 21
776.9194182606332
 31
0.0
  0
LINE
  5
1DC
330
DB
100
AcDbEntity
  8
2
  6
DASHED2
 62
     4
370
    13
100
AcDbLine
 10
-100.8987254384184
 20
770.4847465518351
 30
0.0
 11
-106.3434476535535
 21
775.9294687669724
 31
0.0
  0
LINE
  5
1DD
330
DB
100
AcDbEntity
  8
2
  6
DASHED2
 62
     4
370
    13
100
AcDbLine
 10
-102.8079137476221
 20
768.5755582426316
 30
0.0
 11
-108.2526359627576
 21
774.0202804577691
 31
0.0
  0
LINE
  5
1DE
330
DB
100
AcDbEntity
  8
2
  6
DASHED2
 62
     4
370
    13
100
AcDbLine
 10
-103.7978632412836
 20
767.5856087489708
 30
0.0
 11
-109.2425854564188
 21
773.0303309641083
 31
0.0
  0
LINE
  5
1DF
330
DB
100
AcDbEntity
  8
2
  6
DASHED2
 62
     4
370
    13
100
AcDbLine
 10
-105.7070515504876
 20
765.6764204397673
 30
0.0
 11
-111.1517737656231
 21
771.121142654905
 31
0.0
  0
LINE
  5
1E0
330
DB
100
AcDbEntity
  8
2
  6
DASHED2
 62
     4
370
    13
100
AcDbLine
 10
-106.6970010441492
 20
764.6864709461063
 30
0.0
 11
-112.1417232592843
 21
770.1311931612438
 31
0.0
  0
LINE
  5
1E1
330
DB
100
AcDbEntity
  8
2
  6
DASHED2
 62
     4
370
    13
100
AcDbLine
 10
-108.6061893533529
 20
762.777282636903
 30
0.0
 11
-114.0509115684886
 21
768.2220048520405
 31
0.0
  0
LINE
  5
1E2
330
DB
100
AcDbEntity
  8
2
  6
DASHED2
 62
     4
370
    13
100
AcDbLine
 10
-109.5961388470144
 20
761.7873331432422
 30
0.0
 11
-115.0408610621497
 21
767.2320553583797
 31
0.0
  0
LINE
  5
1E3
330
DB
100
AcDbEntity
  8
2
  6
DASHED2
 62
     4
370
    13
100
AcDbLine
 10
-111.5053271562185
 20
759.8781448340387
 30
0.0
 11
-116.9500493713536
 21
765.3228670491765
 31
0.0
  0
LINE
  5
1E4
330
DB
100
AcDbEntity
  8
2
  6
DASHED2
 62
     4
370
    13
100
AcDbLine
 10
-112.4952766498796
 20
758.8881953403777
 30
0.0
 11
-117.9399988650152
 21
764.3329175555152
 31
0.0
  0
LINE
  5
1E5
330
DB
100
AcDbEntity
  8
2
  6
DASHED2
 62
     4
370
    13
100
AcDbLine
 10
-117.3036027619494
 20
754.0798692283104
 30
0.0
 11
-122.7483249770845
 21
759.5245914434474
 31
0.0
  0
LINE
  5
1E6
330
DB
100
AcDbEntity
  8
2
  6
DASHED2
 62
     4
370
    13
100
AcDbLine
 10
-118.2935522556105
 20
753.0899197346491
 30
0.0
 11
-123.7382744707459
 21
758.5346419497866
 31
0.0
  0
LINE
  5
1E7
330
DB
100
AcDbEntity
  8
2
  6
DASHED2
 62
     4
370
    13
100
AcDbLine
 10
-120.2027405648144
 20
751.1807314254461
 30
0.0
 11
-125.6474627799501
 21
756.6254536405836
 31
0.0
  0
LINE
  5
1E8
330
DB
100
AcDbEntity
  8
2
  6
DASHED2
 62
     4
370
    13
100
AcDbLine
 10
-121.192690058476
 20
750.1907819317851
 30
0.0
 11
-126.6374122736114
 21
755.6355041469226
 31
0.0
  0
LINE
  5
1E9
330
DB
100
AcDbEntity
  8
2
  6
DASHED2
 62
     4
370
    13
100
AcDbLine
 10
-123.10187836768
 20
748.2815936225816
 30
0.0
 11
-128.5466005828153
 21
753.7263158377189
 31
0.0
  0
LINE
  5
1EA
330
DB
100
AcDbEntity
  8
2
  6
DASHED2
 62
     4
370
    13
100
AcDbLine
 10
-124.0918278613414
 20
747.2916441289206
 30
0.0
 11
-129.5365500764767
 21
752.7363663440581
 31
0.0
  0
LINE
  5
1EB
330
DB
100
AcDbEntity
  8
2
  6
DASHED2
 62
     4
370
    13
100
AcDbLine
 10
-126.0010161705453
 20
745.3824558197175
 30
0.0
 11
-131.445738385681
 21
750.827178034855
 31
0.0
  0
LINE
  5
1EC
330
DB
100
AcDbEntity
  8
2
  6
DASHED2
 62
     4
370
    13
100
AcDbLine
 10
-126.9909656642067
 20
744.3925063260565
 30
0.0
 11
-132.435687879342
 21
749.837228541194
 31
0.0
  0
LINE
  5
1ED
330
DB
100
AcDbEntity
  8
2
  6
DASHED2
 62
     4
370
    13
100
AcDbLine
 10
-131.7992917762761
 20
739.5841802139887
 30
0.0
 11
-137.2440139914116
 21
745.0289024291262
 31
0.0
  0
LINE
  5
1EE
330
DB
100
AcDbEntity
  8
2
  6
DASHED2
 62
     4
370
    13
100
AcDbLine
 10
-132.7892412699376
 20
738.5942307203278
 30
0.0
 11
-138.2339634850728
 21
744.0389529354652
 31
0.0
  0
LINE
  5
1EF
330
DB
100
AcDbEntity
  8
2
  6
DASHED2
 62
     4
370
    13
100
AcDbLine
 10
-134.6984295791416
 20
736.6850424111244
 30
0.0
 11
-140.1431517942769
 21
742.1297646262622
 31
0.0
  0
LINE
  5
1F0
330
DB
100
AcDbEntity
  8
2
  6
DASHED2
 62
     4
370
    13
100
AcDbLine
 10
-135.6883790728029
 20
735.6950929174636
 30
0.0
 11
-141.1331012879384
 21
741.1398151326009
 31
0.0
  0
LINE
  5
1F1
330
DB
100
AcDbEntity
  8
2
  6
DASHED2
 62
     4
370
    13
100
AcDbLine
 10
-137.5975673820068
 20
733.7859046082601
 30
0.0
 11
-143.0422895971423
 21
739.2306268233974
 31
0.0
  0
LINE
  5
1F2
330
DB
100
AcDbEntity
  8
2
  6
DASHED2
 62
     4
370
    13
100
AcDbLine
 10
-138.5875168756682
 20
732.7959551145992
 30
0.0
 11
-144.0322390908036
 21
738.2406773297366
 31
0.0
  0
LINE
  5
1F3
330
DB
100
AcDbEntity
  8
2
  6
DASHED2
 62
     4
370
    13
100
AcDbLine
 10
-140.4967051848724
 20
730.886766805396
 30
0.0
 11
-145.9414274000077
 21
736.3314890205336
 31
0.0
  0
LINE
  5
1F4
330
DB
100
AcDbEntity
  8
2
  6
DASHED2
 62
     4
370
    13
100
AcDbLine
 10
-141.4866546785339
 20
729.8968173117349
 30
0.0
 11
-146.9313768936691
 21
735.3415395268725
 31
0.0
  0
LINE
  5
1F5
330
DB
100
AcDbEntity
  8
2
  6
DASHED2
 62
     4
370
    13
100
AcDbLine
 10
-143.3958429877379
 20
727.9876290025318
 30
0.0
 11
-148.8405652028731
 21
733.4323512176688
 31
0.0
  0
LINE
  5
1F6
330
DB
100
AcDbEntity
  8
2
  6
DASHED2
 62
     4
370
    13
100
AcDbLine
 10
-185.3272751120801
 20
749.9786498974256
 30
0.0
 11
-174.720673394284
 21
739.3720481796253
 31
0.0
  0
LINE
  5
1F7
330
DB
100
AcDbEntity
  8
2
  6
DASHED2
 62
     4
370
    13
100
AcDbLine
 10
-185.3272751120801
 20
749.9786498974256
 30
0.0
 11
-184.4787469746607
 21
750.8271780348448
 31
0.0
  0
LINE
  5
1F8
330
DB
100
AcDbEntity
  8
2
  6
DASHED2
 62
     4
370
    13
100
AcDbLine
 10
-174.720673394284
 20
739.3720481796253
 30
0.0
 11
-173.8721452568626
 21
740.2205763170467
 31
0.0
  0
LINE
  5
1F9
330
DB
100
AcDbEntity
  8
2
  6
CENTERX2
 62
     3
370
    13
100
AcDbLine
 10
-171.0790734714552
 20
737.0032404629478
 30
0.0
 11
-74.84184055152157
 21
833.240473381976
 31
0.0
  0
ENDBLK
  5
DD
330
DB
100
AcDbEntity
  8
0
100
AcDbBlockEnd
  0
BLOCK
  5
DF
330
DE
100
AcDbEntity
  8
0
100
AcDbBlockBegin
  2
DC_GROUP_W_GT10H_S_030_4_7
 70
     0
 10
0.0
 20
0.0
 30
0.0
  3
DC_GROUP_W_GT10H_S_030_4_7
  1
DC_GROUP_W_GT10H_S_030_4_7
  0
LINE
  5
1FA
330
DE
100
AcDbEntity
  8
0
  6
Continuous
 62
     2
370
    13
100
AcDbLine
 10
-94.91157537502896
 20
852.9455081722978
 30
0.0
 11
101.3889884069019
 21
1197.741470043461
 31
0.0
  0
INSERT
  5
1FB
330
DE
100
AcDbEntity
  8
0
 62
     2
100
AcDbBlockReference
  2
_OPEN30
 10
-94.91157537502896
 20
852.9455081722978
 30
0.0
 41
30.00002807615286
 42
29.99989368223643
 50
240.3461087650856
  0
LINE
  5
1FC
330
DE
100
AcDbEntity
  8
0
  6
Continuous
 62
     2
370
    13
100
AcDbLine
 10
101.3889884069019
 20
1197.741470043461
 30
0.0
 11
1037.388988406902
 21
1197.741470043461
 31
0.0
  0
TEXT
  5
1FD
330
DE
100
AcDbEntity
  8
0
 62
     2
100
AcDbText
 10
101.3889884069019
 20
1207.741470043461
 30
0.0
 40
40.0
  1
Rタイプのスイッチ又はコントロールユニット,インバータ
 41
0.7161876778991827
  7
dcStyle0
 72
     5
 11
1037.388988406902
 21
1207.741470043461
 31
0.0
100
AcDbText
  0
ENDBLK
  5
E0
330
DE
100
AcDbEntity
  8
0
100
AcDbBlockEnd
  0
BLOCK
  5
E2
330
E1
100
AcDbEntity
  8
0
100
AcDbBlockBegin
  2
DC_GROUP_W_GT10H_S_030_4_8
 70
     0
 10
0.0
 20
0.0
 30
0.0
  3
DC_GROUP_W_GT10H_S_030_4_8
  1
DC_GROUP_W_GT10H_S_030_4_8
  0
SPLINE
  5
1FE
330
E1
100
AcDbEntity
  8
3
  6
DASHED2
 62
     4
370
    13
100
AcDbSpline
210
0.0
220
0.0
230
1.0
 70
     8
 71
     3
 72
    11
 73
     7
 74
     0
 42
0.000000001
 43
0.0000000001
 40
0.0
 40
0.0
 40
0.0
 40
0.0
 40
0.1244967847
 40
0.249613514
 40
0.4997230955
 40
1.0
 40
1.0
 40
1.0
 40
1.0
 10
196.0711211894078
 20
554.4939095135578
 30
0.0
 10
196.1417951913121
 20
554.5462850358767
 30
0.0
 10
196.3158447918455
 20
554.6053204939017
 30
0.0
 10
196.6696686752483
 20
554.6181063065123
 30
0.0
 10
197.282313381502
 20
554.4923692383418
 30
0.0
 10
197.7676730657553
 20
554.2674639461266
 30
0.0
 10
198.0772012171225
 20
554.0967546922889
 30
0.0
  0
SPLINE
  5
1FF
330
E1
100
AcDbEntity
  8
3
  6
DASHED2
 62
     4
370
    13
100
AcDbSpline
210
0.0
220
0.0
230
1.0
 70
     8
 71
     3
 72
    11
 73
     7
 74
     0
 42
0.000000001
 43
0.0000000001
 40
0.0
 40
0.0
 40
0.0
 40
0.0
 40
0.2386510257
 40
0.4853882043000001
 40
0.7399932082
 40
1.0
 40
1.0
 40
1.0
 40
1.0
 10
207.8030834214475
 20
550.2218995384419
 30
0.0
 10
207.7330106143153
 20
550.2471987749591
 30
0.0
 10
207.5840827756892
 20
550.2825358586429
 30
0.0
 10
207.3510205213951
 20
550.2828238095653
 30
0.0
 10
207.1177461611589
 20
550.2270181140893
 30
0.0
 10
206.9732358259184
 20
550.1527322086254
 30
0.0
 10
206.9059900322631
 20
550.1072786161058
 30
0.0
  0
SPLINE
  5
200
330
E1
100
AcDbEntity
  8
3
  6
DASHED2
 62
     4
370
    13
100
AcDbSpline
210
0.0
220
0.0
230
1.0
 70
     8
 71
     3
 72
    11
 73
     7
 74
     0
 42
0.000000001
 43
0.0000000001
 40
0.0
 40
0.0
 40
0.0
 40
0.0
 40
0.2599712863
 40
0.5145758675
 40
0.7613286667
 40
1.0
 40
1.0
 40
1.0
 40
1.0
 10
221.8524365947109
 20
535.1606121239306
 30
0.0
 10
221.8978423271323
 20
535.22776335959
 30
0.0
 10
221.9720787115042
 20
535.3720693220203
 30
0.0
 10
222.0279602665979
 20
535.6050275399766
 30
0.0
 10
222.0278802807999
 20
535.8378263163136
 30
0.0
 10
221.9927535861326
 20
535.9866298775291
 30
0.0
 10
221.967570388879
 20
536.056659449112
 30
0.0
  0
LINE
  5
201
330
E1
100
AcDbEntity
  8
3
  6
DASHED2
 62
     4
370
    13
100
AcDbLine
 10
211.898912111596
 20
546.971756783254
 30
0.0
 11
212.0648606081167
 21
547.1377052797748
 31
0.0
  0
LINE
  5
202
330
E1
100
AcDbEntity
  8
3
  6
DASHED2
 62
     4
370
    13
100
AcDbLine
 10
208.9640417034693
 20
549.390567465058
 30
0.0
 11
209.1426900479893
 21
549.569215809578
 31
0.0
  0
ARC
  5
203
330
E1
100
AcDbEntity
  8
3
  6
DASHED2
 62
     4
370
    13
100
AcDbCircle
 10
221.0271213642151
 20
535.7169608187342
 30
0.0
 40
0.9999999999999998
100
AcDbArc
 50
26.85751011429628
 51
37.00930876089511
  0
ARC
  5
204
330
E1
100
AcDbEntity
  8
3
  6
DASHED2
 62
     4
370
    13
100
AcDbCircle
 10
221.0365322384665
 20
535.7217338368837
 30
0.0
 40
0.9894479284999996
100
AcDbArc
 50
19.78535773129509
 51
26.85712879889594
  0
ARC
  5
205
330
E1
100
AcDbEntity
  8
3
  6
DASHED2
 62
     4
370
    13
100
AcDbCircle
 10
165.9280184422709
 20
494.1827718030178
 30
0.0
 40
69.99999999999999
100
AcDbArc
 50
37.00930876089558
 51
52.99222996370506
  0
ARC
  5
206
330
E1
100
AcDbEntity
  8
3
  6
DASHED2
 62
     4
370
    13
100
AcDbCircle
 10
186.6288656218
 20
518.5840194833125
 30
0.0
 40
38.30084439899999
100
AcDbArc
 50
49.69461493379556
 51
53.99786809159561
  0
ARC
  5
207
330
E1
100
AcDbEntity
  8
3
  6
DASHED2
 62
     4
370
    13
100
AcDbCircle
 10
207.5217984659893
 20
543.2148894018178
 30
0.0
 40
6.002324386299997
100
AcDbArc
 50
40.80975383569553
 51
49.69793322809565
  0
ARC
  5
208
330
E1
100
AcDbEntity
  8
3
  6
DASHED2
 62
     4
370
    13
100
AcDbCircle
 10
207.4669772239492
 20
549.2912811824058
 30
0.0
 40
0.9894533381999996
100
AcDbArc
 50
52.99222996370454
 51
70.1420858657959
  0
LINE
  5
209
330
E1
100
AcDbEntity
  8
3
  6
DASHED2
 62
     4
370
    13
100
AcDbLine
 10
205.6894607315448
 20
549.2550471327095
 30
0.0
 11
206.9059081382336
 21
550.107395492942
 31
0.0
  0
LINE
  5
20A
330
E1
100
AcDbEntity
  8
3
  6
DASHED2
 62
     4
370
    13
100
AcDbLine
 10
221.8428999946113
 20
535.1467577963231
 30
0.0
 11
221.3817418733052
 21
534.4886060090112
 31
0.0
  0
LINE
  5
20B
330
E1
100
AcDbEntity
  8
3
  6
DASHED2
 62
     4
370
    13
100
AcDbLine
 10
194.1415790116195
 20
559.1658849940595
 30
0.0
 11
192.1241920181639
 21
561.1832719875151
 31
0.0
  0
LINE
  5
20C
330
E1
100
AcDbEntity
  8
3
  6
DASHED2
 62
     4
370
    13
100
AcDbLine
 10
190.7287306612608
 20
561.2015395773528
 30
0.0
 11
186.6462471310419
 21
557.327407362975
 31
0.0
  0
ARC
  5
20D
330
E1
100
AcDbEntity
  8
3
  6
DASHED2
 62
     4
370
    13
100
AcDbCircle
 10
191.7959308127467
 20
542.6780994526221
 30
0.0
 40
13.032269387
100
AcDbArc
 50
28.81467972189565
 51
61.18531540459557
  0
ARC
  5
20E
330
E1
100
AcDbEntity
  8
3
  6
DASHED2
 62
     4
370
    13
100
AcDbCircle
 10
191.417107715124
 20
560.4761427281819
 30
0.0
 40
0.9999999999999998
100
AcDbArc
 50
45.00182137279447
 51
133.5000476764954
  0
ARC
  5
20F
330
E1
100
AcDbEntity
  8
3
  6
DASHED2
 62
     4
370
    13
100
AcDbCircle
 10
42.30555003994172
 20
370.5603034007073
 30
0.0
 40
242.1285714285999
100
AcDbArc
 50
43.47591848915937
 51
51.16436164909551
  0
LINE
  5
210
330
E1
100
AcDbEntity
  8
3
  6
DASHED2
 62
     4
370
    13
100
AcDbLine
 10
138.46119175547
 20
429.9715398527275
 30
0.0
 11
145.8815411956161
 21
437.0131885440945
 31
0.0
  0
LINE
  5
211
330
E1
100
AcDbEntity
  8
3
  6
DASHED2
 62
     4
370
    13
100
AcDbLine
 10
125.8484729149254
 20
441.207064926211
 30
0.0
 11
125.6363408805693
 21
440.994932891855
 31
0.0
  0
LINE
  5
212
330
E1
100
AcDbEntity
  8
3
  6
DASHED2
 62
     4
370
    13
100
AcDbLine
 10
125.5836114911167
 20
441.47192635002
 30
0.0
 11
125.3714794567606
 21
441.259794315664
 31
0.0
  0
LINE
  5
213
330
E1
100
AcDbEntity
  8
3
  6
DASHED2
 62
     4
370
    13
100
AcDbLine
 10
123.8407139031007
 20
443.2148239380366
 30
0.0
 11
123.6285818687447
 21
443.0026919036806
 31
0.0
  0
LINE
  5
214
330
E1
100
AcDbEntity
  8
3
  6
DASHED2
 62
     4
370
    13
100
AcDbLine
 10
101.7167864919595
 20
466.7159451162521
 30
0.0
 11
108.7584351833295
 21
474.1362945563955
 31
0.0
  0
LINE
  5
215
330
E1
100
AcDbEntity
  8
3
  6
DASHED2
 62
     4
370
    13
100
AcDbLine
 10
145.8815411956161
 20
437.0131885440945
 30
0.0
 11
108.7584351833295
 21
474.1362945563955
 31
0.0
  0
LINE
  5
216
330
E1
100
AcDbEntity
  8
3
  6
DASHED2
 62
     4
370
    13
100
AcDbLine
 10
137.065730398567
 20
429.9898074425652
 30
0.0
 11
101.7350540817967
 21
465.320483759349
 31
0.0
  0
ARC
  5
217
330
E1
100
AcDbEntity
  8
3
  6
DASHED2
 62
     4
370
    13
100
AcDbCircle
 10
137.7728371797536
 20
430.6969142237516
 30
0.0
 40
1.0
100
AcDbArc
 50
224.999999999989
 51
313.4999999999896
  0
ARC
  5
218
330
E1
100
AcDbEntity
  8
3
  6
DASHED2
 62
     4
370
    13
100
AcDbCircle
 10
102.4421608629834
 20
466.0275905405352
 30
0.0
 40
1.0
100
AcDbArc
 50
136.4999999999885
 51
224.999999999989
  0
LINE
  5
219
330
E1
100
AcDbEntity
  8
3
  6
DASHED2
 62
     4
370
    13
100
AcDbLine
 10
138.46119175547
 20
429.9715398527275
 30
0.0
 11
145.8815411956161
 21
437.0131885440945
 31
0.0
  0
LINE
  5
21A
330
E1
100
AcDbEntity
  8
3
  6
DASHED2
 62
     4
370
    13
100
AcDbLine
 10
127.4189832467402
 20
439.6365545943955
 30
0.0
 11
127.2068512123842
 21
439.4244225600397
 31
0.0
  0
LINE
  5
21B
330
E1
100
AcDbEntity
  8
3
  6
DASHED2
 62
     4
370
    13
100
AcDbLine
 10
124.0248705622002
 20
443.0306672789369
 30
0.0
 11
123.8127385278442
 21
442.8185352445811
 31
0.0
  0
LINE
  5
21C
330
E1
100
AcDbEntity
  8
3
  6
DASHED2
 62
     4
370
    13
100
AcDbLine
 10
118.1276000677753
 20
448.9279377733641
 30
0.0
 11
117.9154680334193
 21
448.7158057390083
 31
0.0
  0
LINE
  5
21D
330
E1
100
AcDbEntity
  8
3
  6
DASHED2
 62
     4
370
    13
100
AcDbLine
 10
101.7167864919595
 20
466.7159451162521
 30
0.0
 11
108.7584351833295
 21
474.1362945563955
 31
0.0
  0
LINE
  5
21E
330
E1
100
AcDbEntity
  8
3
  6
DASHED2
 62
     4
370
    13
100
AcDbLine
 10
145.8815411956161
 20
437.0131885440945
 30
0.0
 11
108.7584351833295
 21
474.1362945563955
 31
0.0
  0
LINE
  5
21F
330
E1
100
AcDbEntity
  8
3
  6
DASHED2
 62
     4
370
    13
100
AcDbLine
 10
137.065730398567
 20
429.9898074425652
 30
0.0
 11
101.7350540817967
 21
465.320483759349
 31
0.0
  0
ARC
  5
220
330
E1
100
AcDbEntity
  8
3
  6
DASHED2
 62
     4
370
    13
100
AcDbCircle
 10
137.7728371797536
 20
430.6969142237516
 30
0.0
 40
1.0
100
AcDbArc
 50
224.999999999989
 51
313.4999999999896
  0
ARC
  5
221
330
E1
100
AcDbEntity
  8
3
  6
DASHED2
 62
     4
370
    13
100
AcDbCircle
 10
102.4421608629834
 20
466.0275905405352
 30
0.0
 40
1.0
100
AcDbArc
 50
136.4999999999885
 51
224.999999999989
  0
LINE
  5
222
330
E1
100
AcDbEntity
  8
3
  6
DASHED2
 62
     4
370
    13
100
AcDbLine
 10
117.9154680334193
 20
448.7158057390083
 30
0.0
 11
123.6285818687447
 21
443.0026919036806
 31
0.0
  0
LINE
  5
223
330
E1
100
AcDbEntity
  8
3
  6
DASHED2
 62
     4
370
    13
100
AcDbLine
 10
123.8127385278442
 20
442.8185352445811
 30
0.0
 11
125.3714794567606
 21
441.259794315664
 31
0.0
  0
LINE
  5
224
330
E1
100
AcDbEntity
  8
3
  6
DASHED2
 62
     4
370
    13
100
AcDbLine
 10
127.2068512123842
 20
439.4244225600397
 30
0.0
 11
125.6363408805693
 21
440.994932891855
 31
0.0
  0
LINE
  5
225
330
E1
100
AcDbEntity
  8
3
  6
DASHED2
 62
     4
370
    13
100
AcDbLine
 10
217.0164833829963
 20
508.1481307314474
 30
0.0
 11
209.7332835367763
 21
515.4313305776703
 31
0.0
  0
LINE
  5
226
330
E1
100
AcDbEntity
  8
3
  6
DASHED2
 62
     4
370
    13
100
AcDbLine
 10
217.0164833829963
 20
508.1481307314474
 30
0.0
 11
225.0067900104063
 21
516.1384373588545
 31
0.0
  0
LINE
  5
227
330
E1
100
AcDbEntity
  8
3
  6
DASHED2
 62
     4
370
    13
100
AcDbLine
 10
138.598341349396
 20
444.2963883903175
 30
0.0
 11
209.7332835367763
 21
515.4313305776703
 31
0.0
  0
LINE
  5
228
330
E1
100
AcDbEntity
  8
3
  6
DASHED2
 62
     4
370
    13
100
AcDbLine
 10
215.4608484643856
 20
507.0167598815493
 30
0.0
 11
210.0161262492504
 21
512.4614820966868
 31
0.0
  0
LINE
  5
229
330
E1
100
AcDbEntity
  8
3
  6
DASHED2
 62
     4
370
    13
100
AcDbLine
 10
213.5516601551817
 20
505.107571572346
 30
0.0
 11
208.1069379400462
 21
510.5522937874833
 31
0.0
  0
LINE
  5
22A
330
E1
100
AcDbEntity
  8
3
  6
DASHED2
 62
     4
370
    13
100
AcDbLine
 10
212.5617106615202
 20
504.117622078685
 30
0.0
 11
207.116988446385
 21
509.5623442938223
 31
0.0
  0
LINE
  5
22B
330
E1
100
AcDbEntity
  8
3
  6
DASHED2
 62
     4
370
    13
100
AcDbLine
 10
210.6525223523163
 20
502.2084337694818
 30
0.0
 11
205.2078001371808
 21
507.653155984619
 31
0.0
  0
LINE
  5
22C
330
E1
100
AcDbEntity
  8
3
  6
DASHED2
 62
     4
370
    13
100
AcDbLine
 10
209.662572858655
 20
501.2184842758207
 30
0.0
 11
204.2178506435195
 21
506.6632064909583
 31
0.0
  0
LINE
  5
22D
330
E1
100
AcDbEntity
  8
3
  6
DASHED2
 62
     4
370
    13
100
AcDbLine
 10
207.7533845494508
 20
499.3092959666175
 30
0.0
 11
202.3086623343156
 21
504.7540181817548
 31
0.0
  0
LINE
  5
22E
330
E1
100
AcDbEntity
  8
3
  6
DASHED2
 62
     4
370
    13
100
AcDbLine
 10
206.7634350557896
 20
498.3193464729565
 30
0.0
 11
201.3187128406541
 21
503.764068688094
 31
0.0
  0
LINE
  5
22F
330
E1
100
AcDbEntity
  8
3
  6
DASHED2
 62
     4
370
    13
100
AcDbLine
 10
145.6694091612602
 20
437.2253205784506
 30
0.0
 11
146.8714906892774
 21
438.4274021064674
 31
0.0
  0
LINE
  5
230
330
E1
100
AcDbEntity
  8
3
  6
DASHED2
 62
     4
370
    13
100
AcDbLine
 10
148.7806789984815
 20
440.3365904156707
 30
0.0
 11
149.7706284921428
 21
441.3265399093317
 31
0.0
  0
LINE
  5
231
330
E1
100
AcDbEntity
  8
3
  6
DASHED2
 62
     4
370
    13
100
AcDbLine
 10
151.679816801347
 20
443.235728218535
 30
0.0
 11
152.6697662950082
 21
444.225677712196
 31
0.0
  0
LINE
  5
232
330
E1
100
AcDbEntity
  8
3
  6
DASHED2
 62
     4
370
    13
100
AcDbLine
 10
154.5789546042124
 20
446.1348660213993
 30
0.0
 11
155.5689040978736
 21
447.1248155150603
 31
0.0
  0
LINE
  5
233
330
E1
100
AcDbEntity
  8
3
  6
DASHED2
 62
     4
370
    13
100
AcDbLine
 10
157.4780924070776
 20
449.0340038242636
 30
0.0
 11
158.4680419007391
 21
450.0239533179246
 31
0.0
  0
LINE
  5
234
330
E1
100
AcDbEntity
  8
3
  6
DASHED2
 62
     4
370
    13
100
AcDbLine
 10
163.2763680128084
 20
454.8322794299921
 30
0.0
 11
164.2663175064699
 21
455.8222289236531
 31
0.0
  0
LINE
  5
235
330
E1
100
AcDbEntity
  8
3
  6
DASHED2
 62
     4
370
    13
100
AcDbLine
 10
166.1755058156739
 20
457.7314172328564
 30
0.0
 11
167.1654553093353
 21
458.7213667265174
 31
0.0
  0
LINE
  5
236
330
E1
100
AcDbEntity
  8
3
  6
DASHED2
 62
     4
370
    13
100
AcDbLine
 10
169.0746436185393
 20
460.6305550357207
 30
0.0
 11
170.0645931122008
 21
461.6205045293817
 31
0.0
  0
LINE
  5
237
330
E1
100
AcDbEntity
  8
3
  6
DASHED2
 62
     4
370
    13
100
AcDbLine
 10
171.9737814214047
 20
463.529692838585
 30
0.0
 11
172.963730915066
 21
464.519642332246
 31
0.0
  0
LINE
  5
238
330
E1
100
AcDbEntity
  8
3
  6
DASHED2
 62
     4
370
    13
100
AcDbLine
 10
177.7720570271356
 20
469.3279684443136
 30
0.0
 11
178.7620065207968
 21
470.3179179379746
 31
0.0
  0
LINE
  5
239
330
E1
100
AcDbEntity
  8
3
  6
DASHED2
 62
     4
370
    13
100
AcDbLine
 10
180.671194830001
 20
472.2271062471779
 30
0.0
 11
181.6611443236622
 21
473.2170557408389
 31
0.0
  0
LINE
  5
23A
330
E1
100
AcDbEntity
  8
3
  6
DASHED2
 62
     4
370
    13
100
AcDbLine
 10
183.5703326328662
 20
475.1262440500421
 30
0.0
 11
184.5602821265277
 21
476.1161935437032
 31
0.0
  0
LINE
  5
23B
330
E1
100
AcDbEntity
  8
3
  6
DASHED2
 62
     4
370
    13
100
AcDbLine
 10
186.4694704357316
 20
478.0253818529064
 30
0.0
 11
187.4594199293931
 21
479.0153313465675
 31
0.0
  0
LINE
  5
23C
330
E1
100
AcDbEntity
  8
3
  6
DASHED2
 62
     4
370
    13
100
AcDbLine
 10
189.368608238597
 20
480.9245196557707
 30
0.0
 11
190.3585577322585
 21
481.9144691494317
 31
0.0
  0
LINE
  5
23D
330
E1
100
AcDbEntity
  8
3
  6
DASHED2
 62
     4
370
    13
100
AcDbLine
 10
192.2677460414625
 20
483.823657458635
 30
0.0
 11
193.2576955351239
 21
484.813606952296
 31
0.0
  0
LINE
  5
23E
330
E1
100
AcDbEntity
  8
3
  6
DASHED2
 62
     4
370
    13
100
AcDbLine
 10
195.1668838443279
 20
486.7227952614993
 30
0.0
 11
196.1568333379891
 21
487.7127447551603
 31
0.0
  0
LINE
  5
23F
330
E1
100
AcDbEntity
  8
3
  6
DASHED2
 62
     4
370
    13
100
AcDbLine
 10
198.0660216471933
 20
489.6219330643636
 30
0.0
 11
199.0559711408546
 21
490.6118825580246
 31
0.0
  0
LINE
  5
240
330
E1
100
AcDbEntity
  8
3
  6
DASHED2
 62
     4
370
    13
100
AcDbLine
 10
200.9651594500587
 20
492.5210708672279
 30
0.0
 11
201.95510894372
 21
493.5110203608889
 31
0.0
  0
LINE
  5
241
330
E1
100
AcDbEntity
  8
3
  6
DASHED2
 62
     4
370
    13
100
AcDbLine
 10
203.8642972529242
 20
495.4202086700922
 30
0.0
 11
204.8542467465854
 21
496.4101581637532
 31
0.0
  0
LINE
  5
242
330
E1
100
AcDbEntity
  8
3
  6
DASHED2
 62
     4
370
    13
100
AcDbLine
 10
206.7634350557896
 20
498.3193464729565
 30
0.0
 11
207.7533845494508
 21
499.3092959666175
 31
0.0
  0
LINE
  5
243
330
E1
100
AcDbEntity
  8
3
  6
DASHED2
 62
     4
370
    13
100
AcDbLine
 10
209.662572858655
 20
501.2184842758207
 30
0.0
 11
210.6525223523163
 21
502.2084337694818
 31
0.0
  0
LINE
  5
244
330
E1
100
AcDbEntity
  8
3
  6
DASHED2
 62
     4
370
    13
100
AcDbLine
 10
212.5617106615202
 20
504.117622078685
 30
0.0
 11
213.5516601551817
 21
505.107571572346
 31
0.0
  0
LINE
  5
245
330
E1
100
AcDbEntity
  8
3
  6
DASHED2
 62
     4
370
    13
100
AcDbLine
 10
215.4608484643856
 20
507.0167598815493
 30
0.0
 11
216.8043513486403
 21
508.3602627658034
 31
0.0
  0
LINE
  5
246
330
E1
100
AcDbEntity
  8
3
  6
DASHED2
 62
     4
370
    13
100
AcDbLine
 10
204.8542467465854
 20
496.4101581637532
 30
0.0
 11
199.4095245314502
 21
501.8548803788905
 31
0.0
  0
LINE
  5
247
330
E1
100
AcDbEntity
  8
3
  6
DASHED2
 62
     4
370
    13
100
AcDbLine
 10
203.8642972529242
 20
495.4202086700922
 30
0.0
 11
198.4195750377887
 21
500.8649308852297
 31
0.0
  0
LINE
  5
248
330
E1
100
AcDbEntity
  8
3
  6
DASHED2
 62
     4
370
    13
100
AcDbLine
 10
201.95510894372
 20
493.5110203608889
 30
0.0
 11
196.5103867285847
 21
498.9557425760262
 31
0.0
  0
LINE
  5
249
330
E1
100
AcDbEntity
  8
3
  6
DASHED2
 62
     4
370
    13
100
AcDbLine
 10
200.9651594500587
 20
492.5210708672279
 30
0.0
 11
195.5204372349233
 21
497.9657930823654
 31
0.0
  0
LINE
  5
24A
330
E1
100
AcDbEntity
  8
3
  6
DASHED2
 62
     4
370
    13
100
AcDbLine
 10
199.0559711408546
 20
490.6118825580246
 30
0.0
 11
193.6112489257193
 21
496.0566047731619
 31
0.0
  0
LINE
  5
24B
330
E1
100
AcDbEntity
  8
3
  6
DASHED2
 62
     4
370
    13
100
AcDbLine
 10
153.0233196856036
 20
455.4686755330619
 30
0.0
 11
157.8316457976732
 21
460.2770016451296
 31
0.0
  0
LINE
  5
24C
330
E1
100
AcDbEntity
  8
3
  6
DASHED2
 62
     4
370
    13
100
AcDbLine
 10
167.5190086999307
 20
469.9643645473833
 30
0.0
 11
172.3273348120001
 21
474.7726906594511
 31
0.0
  0
LINE
  5
24D
330
E1
100
AcDbEntity
  8
3
  6
DASHED2
 62
     4
370
    13
100
AcDbLine
 10
210.0161262492504
 20
512.4614820966868
 30
0.0
 11
208.1069379400462
 21
510.5522937874833
 31
0.0
  0
LINE
  5
24E
330
E1
100
AcDbEntity
  8
3
  6
DASHED2
 62
     4
370
    13
100
AcDbLine
 10
207.116988446385
 20
509.5623442938223
 30
0.0
 11
205.2078001371808
 21
507.653155984619
 31
0.0
  0
LINE
  5
24F
330
E1
100
AcDbEntity
  8
3
  6
DASHED2
 62
     4
370
    13
100
AcDbLine
 10
204.2178506435195
 20
506.6632064909583
 30
0.0
 11
202.3086623343156
 21
504.7540181817548
 31
0.0
  0
LINE
  5
250
330
E1
100
AcDbEntity
  8
3
  6
DASHED2
 62
     4
370
    13
100
AcDbLine
 10
201.3187128406541
 20
503.764068688094
 30
0.0
 11
199.4095245314502
 21
501.8548803788905
 31
0.0
  0
LINE
  5
251
330
E1
100
AcDbEntity
  8
3
  6
DASHED2
 62
     4
370
    13
100
AcDbLine
 10
198.4195750377887
 20
500.8649308852297
 30
0.0
 11
196.5103867285847
 21
498.9557425760262
 31
0.0
  0
LINE
  5
252
330
E1
100
AcDbEntity
  8
3
  6
DASHED2
 62
     4
370
    13
100
AcDbLine
 10
195.5204372349233
 20
497.9657930823654
 30
0.0
 11
193.6112489257193
 21
496.0566047731619
 31
0.0
  0
LINE
  5
253
330
E1
100
AcDbEntity
  8
3
  6
DASHED2
 62
     4
370
    13
100
AcDbLine
 10
192.6212994320578
 20
495.0666552795009
 30
0.0
 11
190.7121111228539
 21
493.1574669702976
 31
0.0
  0
LINE
  5
254
330
E1
100
AcDbEntity
  8
3
  6
DASHED2
 62
     4
370
    13
100
AcDbLine
 10
189.7221616291926
 20
492.1675174766368
 30
0.0
 11
187.8129733199885
 21
490.2583291674333
 31
0.0
  0
LINE
  5
255
330
E1
100
AcDbEntity
  8
3
  6
DASHED2
 62
     4
370
    13
100
AcDbLine
 10
186.8230238263272
 20
489.2683796737725
 30
0.0
 11
184.913835517123
 21
487.359191364569
 31
0.0
  0
LINE
  5
256
330
E1
100
AcDbEntity
  8
3
  6
DASHED2
 62
     4
370
    13
100
AcDbLine
 10
183.9238860234618
 20
486.3692418709082
 30
0.0
 11
182.0146977142576
 21
484.4600535617047
 31
0.0
  0
LINE
  5
257
330
E1
100
AcDbEntity
  8
3
  6
DASHED2
 62
     4
370
    13
100
AcDbLine
 10
181.0247482205964
 20
483.470104068044
 30
0.0
 11
179.1155599113922
 21
481.5609157588407
 31
0.0
  0
LINE
  5
258
330
E1
100
AcDbEntity
  8
3
  6
DASHED2
 62
     4
370
    13
100
AcDbLine
 10
178.1256104177309
 20
480.5709662651797
 30
0.0
 11
176.2164221085268
 21
478.6617779559762
 31
0.0
  0
LINE
  5
259
330
E1
100
AcDbEntity
  8
3
  6
DASHED2
 62
     4
370
    13
100
AcDbLine
 10
175.2264726148655
 20
477.6718284623154
 30
0.0
 11
173.3172843056616
 21
475.7626401531121
 31
0.0
  0
LINE
  5
25A
330
E1
100
AcDbEntity
  8
3
  6
DASHED2
 62
     4
370
    13
100
AcDbLine
 10
166.5290592062692
 20
468.9744150537225
 30
0.0
 11
164.6198708970653
 21
467.0652267445192
 31
0.0
  0
LINE
  5
25B
330
E1
100
AcDbEntity
  8
3
  6
DASHED2
 62
     4
370
    13
100
AcDbLine
 10
163.6299214034038
 20
466.0752772508582
 30
0.0
 11
161.7207330941999
 21
464.1660889416547
 31
0.0
  0
LINE
  5
25C
330
E1
100
AcDbEntity
  8
3
  6
DASHED2
 62
     4
370
    13
100
AcDbLine
 10
160.7307836005386
 20
463.1761394479939
 30
0.0
 11
158.8215952913344
 21
461.2669511387907
 31
0.0
  0
LINE
  5
25D
330
E1
100
AcDbEntity
  8
3
  6
DASHED2
 62
     4
370
    13
100
AcDbLine
 10
152.0333701919423
 20
454.4787260394011
 30
0.0
 11
150.1241818827384
 21
452.5695377301978
 31
0.0
  0
LINE
  5
25E
330
E1
100
AcDbEntity
  8
3
  6
DASHED2
 62
     4
370
    13
100
AcDbLine
 10
149.1342323890769
 20
451.5795882365368
 30
0.0
 11
147.225044079873
 21
449.6703999273333
 31
0.0
  0
LINE
  5
25F
330
E1
100
AcDbEntity
  8
3
  6
DASHED2
 62
     4
370
    13
100
AcDbLine
 10
146.2350945862115
 20
448.6804504336725
 30
0.0
 11
144.3259062770075
 21
446.7712621244692
 31
0.0
  0
LINE
  5
260
330
E1
100
AcDbEntity
  8
3
  6
DASHED2
 62
     4
370
    13
100
AcDbLine
 10
143.3359567833461
 20
445.7813126308082
 30
0.0
 11
141.4267684741421
 21
443.8721243216047
 31
0.0
  0
LINE
  5
261
330
E1
100
AcDbEntity
  8
3
  6
DASHED2
 62
     4
370
    13
100
AcDbLine
 10
198.0660216471933
 20
489.6219330643636
 30
0.0
 11
192.6212994320578
 21
495.0666552795009
 31
0.0
  0
LINE
  5
262
330
E1
100
AcDbEntity
  8
3
  6
DASHED2
 62
     4
370
    13
100
AcDbLine
 10
196.1568333379891
 20
487.7127447551603
 30
0.0
 11
190.7121111228539
 21
493.1574669702976
 31
0.0
  0
LINE
  5
263
330
E1
100
AcDbEntity
  8
3
  6
DASHED2
 62
     4
370
    13
100
AcDbLine
 10
195.1668838443279
 20
486.7227952614993
 30
0.0
 11
189.7221616291926
 21
492.1675174766368
 31
0.0
  0
LINE
  5
264
330
E1
100
AcDbEntity
  8
3
  6
DASHED2
 62
     4
370
    13
100
AcDbLine
 10
193.2576955351239
 20
484.813606952296
 30
0.0
 11
187.8129733199885
 21
490.2583291674333
 31
0.0
  0
LINE
  5
265
330
E1
100
AcDbEntity
  8
3
  6
DASHED2
 62
     4
370
    13
100
AcDbLine
 10
192.2677460414625
 20
483.823657458635
 30
0.0
 11
186.8230238263272
 21
489.2683796737725
 31
0.0
  0
LINE
  5
266
330
E1
100
AcDbEntity
  8
3
  6
DASHED2
 62
     4
370
    13
100
AcDbLine
 10
190.3585577322585
 20
481.9144691494317
 30
0.0
 11
184.913835517123
 21
487.359191364569
 31
0.0
  0
LINE
  5
267
330
E1
100
AcDbEntity
  8
3
  6
DASHED2
 62
     4
370
    13
100
AcDbLine
 10
189.368608238597
 20
480.9245196557707
 30
0.0
 11
183.9238860234618
 21
486.3692418709082
 31
0.0
  0
LINE
  5
268
330
E1
100
AcDbEntity
  8
3
  6
DASHED2
 62
     4
370
    13
100
AcDbLine
 10
187.4594199293931
 20
479.0153313465675
 30
0.0
 11
182.0146977142576
 21
484.4600535617047
 31
0.0
  0
LINE
  5
269
330
E1
100
AcDbEntity
  8
3
  6
DASHED2
 62
     4
370
    13
100
AcDbLine
 10
186.4694704357316
 20
478.0253818529064
 30
0.0
 11
181.0247482205964
 21
483.470104068044
 31
0.0
  0
LINE
  5
26A
330
E1
100
AcDbEntity
  8
3
  6
DASHED2
 62
     4
370
    13
100
AcDbLine
 10
184.5602821265277
 20
476.1161935437032
 30
0.0
 11
179.1155599113922
 21
481.5609157588407
 31
0.0
  0
LINE
  5
26B
330
E1
100
AcDbEntity
  8
3
  6
DASHED2
 62
     4
370
    13
100
AcDbLine
 10
183.5703326328662
 20
475.1262440500421
 30
0.0
 11
178.1256104177309
 21
480.5709662651797
 31
0.0
  0
LINE
  5
26C
330
E1
100
AcDbEntity
  8
3
  6
DASHED2
 62
     4
370
    13
100
AcDbLine
 10
181.6611443236622
 20
473.2170557408389
 30
0.0
 11
176.2164221085268
 21
478.6617779559762
 31
0.0
  0
LINE
  5
26D
330
E1
100
AcDbEntity
  8
3
  6
DASHED2
 62
     4
370
    13
100
AcDbLine
 10
180.671194830001
 20
472.2271062471779
 30
0.0
 11
175.2264726148655
 21
477.6718284623154
 31
0.0
  0
LINE
  5
26E
330
E1
100
AcDbEntity
  8
3
  6
DASHED2
 62
     4
370
    13
100
AcDbLine
 10
178.7620065207968
 20
470.3179179379746
 30
0.0
 11
173.3172843056616
 21
475.7626401531121
 31
0.0
  0
LINE
  5
26F
330
E1
100
AcDbEntity
  8
3
  6
DASHED2
 62
     4
370
    13
100
AcDbLine
 10
177.7720570271356
 20
469.3279684443136
 30
0.0
 11
172.3273348120001
 21
474.7726906594511
 31
0.0
  0
LINE
  5
270
330
E1
100
AcDbEntity
  8
3
  6
DASHED2
 62
     4
370
    13
100
AcDbLine
 10
172.963730915066
 20
464.519642332246
 30
0.0
 11
167.5190086999307
 21
469.9643645473833
 31
0.0
  0
LINE
  5
271
330
E1
100
AcDbEntity
  8
3
  6
DASHED2
 62
     4
370
    13
100
AcDbLine
 10
171.9737814214047
 20
463.529692838585
 30
0.0
 11
166.5290592062692
 21
468.9744150537225
 31
0.0
  0
LINE
  5
272
330
E1
100
AcDbEntity
  8
3
  6
DASHED2
 62
     4
370
    13
100
AcDbLine
 10
170.0645931122008
 20
461.6205045293817
 30
0.0
 11
164.6198708970653
 21
467.0652267445192
 31
0.0
  0
LINE
  5
273
330
E1
100
AcDbEntity
  8
3
  6
DASHED2
 62
     4
370
    13
100
AcDbLine
 10
169.0746436185393
 20
460.6305550357207
 30
0.0
 11
163.6299214034038
 21
466.0752772508582
 31
0.0
  0
LINE
  5
274
330
E1
100
AcDbEntity
  8
3
  6
DASHED2
 62
     4
370
    13
100
AcDbLine
 10
167.1654553093353
 20
458.7213667265174
 30
0.0
 11
161.7207330941999
 21
464.1660889416547
 31
0.0
  0
LINE
  5
275
330
E1
100
AcDbEntity
  8
3
  6
DASHED2
 62
     4
370
    13
100
AcDbLine
 10
166.1755058156739
 20
457.7314172328564
 30
0.0
 11
160.7307836005386
 21
463.1761394479939
 31
0.0
  0
LINE
  5
276
330
E1
100
AcDbEntity
  8
3
  6
DASHED2
 62
     4
370
    13
100
AcDbLine
 10
164.2663175064699
 20
455.8222289236531
 30
0.0
 11
158.8215952913344
 21
461.2669511387907
 31
0.0
  0
LINE
  5
277
330
E1
100
AcDbEntity
  8
3
  6
DASHED2
 62
     4
370
    13
100
AcDbLine
 10
163.2763680128084
 20
454.8322794299921
 30
0.0
 11
157.8316457976732
 21
460.2770016451296
 31
0.0
  0
LINE
  5
278
330
E1
100
AcDbEntity
  8
3
  6
DASHED2
 62
     4
370
    13
100
AcDbLine
 10
158.4680419007391
 20
450.0239533179246
 30
0.0
 11
153.0233196856036
 21
455.4686755330619
 31
0.0
  0
LINE
  5
279
330
E1
100
AcDbEntity
  8
3
  6
DASHED2
 62
     4
370
    13
100
AcDbLine
 10
157.4780924070776
 20
449.0340038242636
 30
0.0
 11
152.0333701919423
 21
454.4787260394011
 31
0.0
  0
LINE
  5
27A
330
E1
100
AcDbEntity
  8
3
  6
DASHED2
 62
     4
370
    13
100
AcDbLine
 10
155.5689040978736
 20
447.1248155150603
 30
0.0
 11
150.1241818827384
 21
452.5695377301978
 31
0.0
  0
LINE
  5
27B
330
E1
100
AcDbEntity
  8
3
  6
DASHED2
 62
     4
370
    13
100
AcDbLine
 10
154.5789546042124
 20
446.1348660213993
 30
0.0
 11
149.1342323890769
 21
451.5795882365368
 31
0.0
  0
LINE
  5
27C
330
E1
100
AcDbEntity
  8
3
  6
DASHED2
 62
     4
370
    13
100
AcDbLine
 10
152.6697662950082
 20
444.225677712196
 30
0.0
 11
147.225044079873
 21
449.6703999273333
 31
0.0
  0
LINE
  5
27D
330
E1
100
AcDbEntity
  8
3
  6
DASHED2
 62
     4
370
    13
100
AcDbLine
 10
151.679816801347
 20
443.235728218535
 30
0.0
 11
146.2350945862115
 21
448.6804504336725
 31
0.0
  0
LINE
  5
27E
330
E1
100
AcDbEntity
  8
3
  6
DASHED2
 62
     4
370
    13
100
AcDbLine
 10
149.7706284921428
 20
441.3265399093317
 30
0.0
 11
144.3259062770075
 21
446.7712621244692
 31
0.0
  0
LINE
  5
27F
330
E1
100
AcDbEntity
  8
3
  6
DASHED2
 62
     4
370
    13
100
AcDbLine
 10
148.7806789984815
 20
440.3365904156707
 30
0.0
 11
143.3359567833461
 21
445.7813126308082
 31
0.0
  0
LINE
  5
280
330
E1
100
AcDbEntity
  8
3
  6
DASHED2
 62
     4
370
    13
100
AcDbLine
 10
146.8714906892774
 20
438.4274021064674
 30
0.0
 11
141.4267684741421
 21
443.8721243216047
 31
0.0
  0
LINE
  5
281
330
E1
100
AcDbEntity
  8
3
  6
DASHED2
 62
     4
370
    13
100
AcDbLine
 10
116.8506548263019
 20
450.2048830148382
 30
0.0
 11
116.7070058958254
 21
450.0709282200743
 31
0.0
  0
LINE
  5
282
330
E1
100
AcDbEntity
  8
3
  6
DASHED2
 62
     4
370
    13
100
AcDbLine
 10
105.6941406257015
 20
461.0837942724041
 30
0.0
 11
105.8280950430119
 21
461.2274427981323
 31
0.0
  0
LINE
  5
283
330
E1
100
AcDbEntity
  8
3
  6
DASHED2
 62
     4
370
    13
100
AcDbLine
 10
105.7193570455183
 20
459.6391245207777
 30
0.0
 11
115.2623365489471
 21
450.0961450173453
 31
0.0
  0
ARC
  5
284
330
E1
100
AcDbEntity
  8
3
  6
DASHED2
 62
     4
370
    13
100
AcDbCircle
 10
115.9977276013812
 20
450.8315360697792
 30
0.0
 40
1.04
100
AcDbArc
 50
224.999999999989
 51
312.9999999999914
  0
ARC
  5
285
330
E1
100
AcDbEntity
  8
3
  6
DASHED2
 62
     4
370
    13
100
AcDbCircle
 10
116.1781358580181
 20
450.7093948634609
 30
0.0
 40
0.8276334429
100
AcDbArc
 50
309.6817606825885
 51
312.9966043322873
  0
ARC
  5
286
330
E1
100
AcDbEntity
  8
3
  6
DASHED2
 62
     4
370
    13
100
AcDbCircle
 10
106.4547480979527
 20
460.3745155732116
 30
0.0
 40
1.04
100
AcDbArc
 50
136.9999694719908
 51
224.999999999989
  0
LINE
  5
287
330
E1
100
AcDbEntity
  8
3
  6
DASHED2
 62
     4
370
    13
100
AcDbLine
 10
187.8836839981197
 20
553.2615433711553
 30
0.0
 11
108.9705672176853
 21
474.3484265907513
 31
0.0
  0
LINE
  5
288
330
E1
100
AcDbEntity
  8
3
  6
CENTERX2
 62
     3
370
    13
100
AcDbLine
 10
119.1882602055711
 20
447.4430135668732
 30
0.0
 11
215.4254931254931
 21
543.6802464859124
 31
0.0
  0
ENDBLK
  5
E3
330
E1
100
AcDbEntity
  8
0
100
AcDbBlockEnd
  0
BLOCK
  5
E5
330
E4
100
AcDbEntity
  8
0
100
AcDbBlockBegin
  2
DC_GROUP_W_GT10H_S_030_4_9
 70
     0
 10
0.0
 20
0.0
 30
0.0
  3
DC_GROUP_W_GT10H_S_030_4_9
  1
DC_GROUP_W_GT10H_S_030_4_9
  0
LINE
  5
289
330
E4
100
AcDbEntity
  8
3
  6
DASHED2
 62
     4
370
    13
100
AcDbLine
 10
255.9427116874175
 20
506.4157191175633
 30
0.0
 11
245.3361099696217
 21
495.8091173997659
 31
0.0
  0
LINE
  5
28A
330
E4
100
AcDbEntity
  8
3
  6
DASHED2
 62
     4
370
    13
100
AcDbLine
 10
245.3361099696217
 20
495.8091173997659
 30
0.0
 11
185.2320335687606
 21
555.913193800618
 31
0.0
  0
LINE
  5
28B
330
E4
100
AcDbEntity
  8
3
  6
DASHED2
 62
     4
370
    13
100
AcDbLine
 10
187.3533539123202
 20
558.0345141441778
 30
0.0
 11
185.2320335687606
 21
555.913193800618
 31
0.0
  0
LINE
  5
28C
330
E4
100
AcDbEntity
  8
3
  6
DASHED2
 62
     4
370
    13
100
AcDbLine
 10
255.9427116874175
 20
506.4157191175633
 30
0.0
 11
252.5787506567398
 21
509.7796801482426
 31
0.0
  0
LINE
  5
28D
330
E4
100
AcDbEntity
  8
3
  6
DASHED2
 62
     4
370
    13
100
AcDbLine
 10
252.3189893582541
 20
510.0109324224148
 30
0.0
 11
191.213005927388
 21
558.3582302011323
 31
0.0
  0
ARC
  5
28E
330
E4
100
AcDbEntity
  8
3
  6
DASHED2
 62
     4
370
    13
100
AcDbCircle
 10
250.4574303131788
 20
507.6583598046824
 30
0.0
 40
3.000000000001046
100
AcDbArc
 50
44.99999999999082
 51
51.64590567751867
  0
ARC
  5
28F
330
E4
100
AcDbEntity
  8
3
  6
DASHED2
 62
     4
370
    13
100
AcDbCircle
 10
189.4746742558806
 20
555.913193800619
 30
0.0
 40
3.000000000000001
100
AcDbArc
 50
54.58856163988926
 51
135.0000000000218
  0
LINE
  5
290
330
E4
100
AcDbEntity
  8
3
  6
CENTERX2
 62
     3
370
    13
100
AcDbLine
 10
204.4486123995355
 20
532.7033657601996
 30
0.0
 11
210.6999273255203
 21
538.9546806861856
 31
0.0
  0
LINE
  5
291
330
E4
100
AcDbEntity
  8
3
  6
CENTERX2
 62
     3
370
    13
100
AcDbLine
 10
253.0817469007955
 20
501.498509311137
 30
0.0
 11
246.911634800334
 21
507.6686214115973
 31
0.0
  0
ENDBLK
  5
E6
330
E4
100
AcDbEntity
  8
0
100
AcDbBlockEnd
  0
BLOCK
  5
E8
330
E7
100
AcDbEntity
  8
0
100
AcDbBlockBegin
  2
DC_GROUP_W_GT10H_S_030_4_10
 70
     0
 10
0.0
 20
0.0
 30
0.0
  3
DC_GROUP_W_GT10H_S_030_4_10
  1
DC_GROUP_W_GT10H_S_030_4_10
  0
LINE
  5
292
330
E7
100
AcDbEntity
  8
0
  6
Continuous
 62
     2
370
    13
100
AcDbLine
 10
198.5609963940239
 20
490.1169078111941
 30
0.0
 11
584.9375753337241
 21
251.1002862742644
 31
0.0
  0
INSERT
  5
293
330
E7
100
AcDbEntity
  8
0
 62
     2
100
AcDbBlockReference
  2
_OPEN30
 10
198.5609963940239
 20
490.1169078111941
 30
0.0
 41
30.00002807615286
 42
29.99989368223643
 50
148.2586284378163
  0
LINE
  5
294
330
E7
100
AcDbEntity
  8
0
  6
Continuous
 62
     2
370
    13
100
AcDbLine
 10
584.9375753337241
 20
251.1002862742644
 30
0.0
 11
1520.937575333724
 21
251.1002862742644
 31
0.0
  0
TEXT
  5
295
330
E7
100
AcDbEntity
  8
0
 62
     2
100
AcDbText
 10
584.9375753337242
 20
263.1002862742645
 30
0.0
 40
40.0
  1
Lタイプのスイッチ又はコントロールユニット,インバータ
 41
0.7189381836057513
  7
dcStyle0
 72
     5
 11
1520.937575333724
 21
263.1002862742645
 31
0.0
100
AcDbText
  0
ENDBLK
  5
E9
330
E7
100
AcDbEntity
  8
0
100
AcDbBlockEnd
  0
BLOCK
  5
EB
330
EA
100
AcDbEntity
  8
0
100
AcDbBlockBegin
  2
DC_GROUP_W_GT10H_S_030_4_11
 70
     0
 10
0.0
 20
0.0
 30
0.0
  3
DC_GROUP_W_GT10H_S_030_4_11
  1
DC_GROUP_W_GT10H_S_030_4_11
  0
LINE
  5
296
330
EA
100
AcDbEntity
  8
2
  6
Continuous
 62
   140
370
    13
100
AcDbLine
 10
-215.3512543344883
 20
-468.3774370103363
 30
0.0
 11
-180.5383320693989
 21
-468.3774370103365
 31
0.0
  0
LINE
  5
297
330
EA
100
AcDbEntity
  8
2
  6
Continuous
 62
   140
370
    13
100
AcDbLine
 10
-215.3512543344883
 20
-464.3774370103365
 30
0.0
 11
-180.5383320693991
 21
-464.3774370103365
 31
0.0
  0
LINE
  5
298
330
EA
100
AcDbEntity
  8
2
  6
Continuous
 62
   140
370
    13
100
AcDbLine
 10
-217.3512543344883
 20
-556.9530742121975
 30
0.0
 11
-217.351254334488
 21
-470.3774370103364
 31
0.0
  0
LINE
  5
299
330
EA
100
AcDbEntity
  8
2
  6
Continuous
 62
   140
370
    13
100
AcDbLine
 10
-221.351254334488
 20
-556.9530742121975
 30
0.0
 11
-221.351254334488
 21
-470.3774370103364
 31
0.0
  0
LINE
  5
29A
330
EA
100
AcDbEntity
  8
2
  6
Continuous
 62
   140
370
    13
100
AcDbLine
 10
-223.351254334488
 20
-562.9530742121974
 30
0.0
 11
-237.8664579565387
 21
-562.9530742121975
 31
0.0
  0
LINE
  5
29B
330
EA
100
AcDbEntity
  8
2
  6
Continuous
 62
   140
370
    13
100
AcDbLine
 10
-223.3512543344851
 20
-558.9530742121973
 30
0.0
 11
-237.8664579565387
 21
-558.9530742121975
 31
0.0
  0
LINE
  5
29C
330
EA
100
AcDbEntity
  8
2
  6
Continuous
 62
   140
370
    13
100
AcDbLine
 10
-237.8664579565387
 20
-563.9530742121973
 30
0.0
 11
-237.8664579565389
 21
-557.9530742121973
 31
0.0
  0
LINE
  5
29D
330
EA
100
AcDbEntity
  8
2
  6
Continuous
 62
   140
370
    13
100
AcDbLine
 10
-247.8664579565389
 20
-565.9530742121967
 30
0.0
 11
-237.8664579565387
 21
-563.9530742121973
 31
0.0
  0
LINE
  5
29E
330
EA
100
AcDbEntity
  8
2
  6
Continuous
 62
   140
370
    13
100
AcDbLine
 10
-252.8664579565389
 20
-565.9530742121968
 30
0.0
 11
-247.8664579565389
 21
-565.9530742121967
 31
0.0
  0
LINE
  5
29F
330
EA
100
AcDbEntity
  8
2
  6
Continuous
 62
   140
370
    13
100
AcDbLine
 10
-252.8664579565389
 20
-555.9530742121973
 30
0.0
 11
-252.8664579565389
 21
-565.9530742121968
 31
0.0
  0
LINE
  5
2A0
330
EA
100
AcDbEntity
  8
2
  6
Continuous
 62
   140
370
    13
100
AcDbLine
 10
-247.8664579565389
 20
-555.9530742121973
 30
0.0
 11
-252.8664579565389
 21
-555.9530742121973
 31
0.0
  0
LINE
  5
2A1
330
EA
100
AcDbEntity
  8
2
  6
Continuous
 62
   140
370
    13
100
AcDbLine
 10
-237.8664579565389
 20
-557.9530742121973
 30
0.0
 11
-247.8664579565389
 21
-555.9530742121973
 31
0.0
  0
LINE
  5
2A2
330
EA
100
AcDbEntity
  8
2
  6
Continuous
 62
   140
370
    13
100
AcDbLine
 10
-260.3664579565389
 20
-558.9530742121974
 30
0.0
 11
-252.8664579565389
 21
-558.9530742121973
 31
0.0
  0
LINE
  5
2A3
330
EA
100
AcDbEntity
  8
2
  6
Continuous
 62
   140
370
    13
100
AcDbLine
 10
-252.8664579565389
 20
-562.9530742121973
 30
0.0
 11
-260.3664579565389
 21
-562.9530742121974
 31
0.0
  0
ARC
  5
2A4
330
EA
100
AcDbEntity
  8
2
  6
Continuous
 62
   140
370
    13
100
AcDbCircle
 10
-180.5383320693989
 20
-466.3774370103364
 30
0.0
 40
2.0
100
AcDbArc
 50
270.0
 51
90.0
  0
ARC
  5
2A5
330
EA
100
AcDbEntity
  8
2
  6
Continuous
 62
   140
370
    13
100
AcDbCircle
 10
-215.3512543344883
 20
-470.3774370103366
 30
0.0
 40
6.0
100
AcDbArc
 50
90.0
 51
180.0
  0
ARC
  5
2A6
330
EA
100
AcDbEntity
  8
2
  6
Continuous
 62
   140
370
    13
100
AcDbCircle
 10
-215.3512543344883
 20
-470.3774370103366
 30
0.0
 40
2.0
100
AcDbArc
 50
90.0
 51
180.0
  0
ARC
  5
2A7
330
EA
100
AcDbEntity
  8
2
  6
Continuous
 62
   140
370
    13
100
AcDbCircle
 10
-223.3512543344848
 20
-556.9530742121973
 30
0.0
 40
2.0
100
AcDbArc
 50
270.0
 51
0.0
  0
ARC
  5
2A8
330
EA
100
AcDbEntity
  8
2
  6
Continuous
 62
   140
370
    13
100
AcDbCircle
 10
-223.351254334488
 20
-556.9530742121975
 30
0.0
 40
6.0
100
AcDbArc
 50
270.0
 51
0.0
  0
LINE
  5
2A9
330
EA
100
AcDbEntity
  8
2
  6
Continuous
 62
     3
370
    13
100
AcDbLine
 10
-188.806813289855
 20
-468.3774370103365
 30
0.0
 11
-188.8068132898553
 21
-505.3774370103368
 31
0.0
  0
LINE
  5
2AA
330
EA
100
AcDbEntity
  8
2
  6
Continuous
 62
     3
370
    13
100
AcDbLine
 10
-187.8068132898553
 20
-506.3774370103368
 30
0.0
 11
-65.24226981486375
 21
-506.3774370103389
 31
0.0
  0
LINE
  5
2AB
330
EA
100
AcDbEntity
  8
2
  6
Continuous
 62
     3
370
    13
100
AcDbLine
 10
-122.7129696379812
 20
-506.37743701034
 30
0.0
 11
-122.712969637981
 21
-519.3774370103398
 31
0.0
  0
LINE
  5
2AC
330
EA
100
AcDbEntity
  8
2
  6
Continuous
 62
     3
370
    13
100
AcDbLine
 10
-122.712969637981
 20
-519.3774370103398
 30
0.0
 11
-59.60889323712838
 21
-519.3774370103398
 31
0.0
  0
LINE
  5
2AD
330
EA
100
AcDbEntity
  8
2
  6
Continuous
 62
     3
370
    13
100
AcDbLine
 10
-173.8538714051118
 20
-478.1774370103411
 30
0.0
 11
-188.8068132898573
 21
-478.1774370103415
 31
0.0
  0
LINE
  5
2AE
330
EA
100
AcDbEntity
  8
2
  6
Continuous
 62
     3
370
    13
100
AcDbLine
 10
-174.5609781862996
 20
-478.1774370103373
 30
0.0
 11
-174.5609781862991
 21
-501.1774370103374
 31
0.0
  0
LINE
  5
2AF
330
EA
100
AcDbEntity
  8
2
  6
Continuous
 62
     3
370
    13
100
AcDbLine
 10
-184.4604731229072
 20
-478.1774370103411
 30
0.0
 11
-184.4604731229049
 21
-503.177437010335
 31
0.0
  0
LINE
  5
2B0
330
EA
100
AcDbEntity
  8
2
  6
Continuous
 62
     3
370
    13
100
AcDbLine
 10
-184.4604731229049
 20
-503.1774370103392
 30
0.0
 11
-176.6822985298605
 21
-503.1774370103375
 31
0.0
  0
LINE
  5
2B1
330
EA
100
AcDbEntity
  8
2
  6
Continuous
 62
     3
370
    13
100
AcDbLine
 10
-176.6822985298614
 20
-503.1774370103366
 30
0.0
 11
-176.6822985298555
 21
-501.1774370103373
 31
0.0
  0
LINE
  5
2B2
330
EA
100
AcDbEntity
  8
2
  6
Continuous
 62
     3
370
    13
100
AcDbLine
 10
-176.6822985298555
 20
-501.1774370103373
 30
0.0
 11
-174.5609781862957
 21
-501.1774370103373
 31
0.0
  0
LINE
  5
2B3
330
EA
100
AcDbEntity
  8
2
  6
Continuous
 62
     3
370
    13
100
AcDbLine
 10
-73.23257644227336
 20
-426.3774370103389
 30
0.0
 11
-73.23257644227404
 21
-506.3774370103389
 31
0.0
  0
ARC
  5
2B4
330
EA
100
AcDbEntity
  8
2
  6
Continuous
 62
     3
370
    13
100
AcDbCircle
 10
-187.806813289855
 20
-427.3774370103365
 30
0.0
 40
1.0
100
AcDbArc
 50
90.00000000000001
 51
180.0
  0
ARC
  5
2B5
330
EA
100
AcDbEntity
  8
2
  6
Continuous
 62
     3
370
    13
100
AcDbCircle
 10
-187.806813289855
 20
-505.377437010337
 30
0.0
 40
1.0
100
AcDbArc
 50
179.9999999999989
 51
270.0
  0
ARC
  5
2B6
330
EA
100
AcDbEntity
  8
2
  6
Continuous
 62
     3
370
    13
100
AcDbCircle
 10
-153.4944964973143
 20
-505.3774370103373
 30
0.0
 40
1.0
100
AcDbArc
 50
269.9999999999989
 51
359.9999999999989
  0
LINE
  5
2B7
330
EA
100
AcDbEntity
  8
2
  6
Continuous
 62
     3
370
    13
100
AcDbLine
 10
-185.30900126033
 20
-468.3774370103366
 30
0.0
 11
-185.3090012603296
 21
-478.1774370103407
 31
0.0
  0
LINE
  5
2B8
330
EA
100
AcDbEntity
  8
2
  6
Continuous
 62
     3
370
    13
100
AcDbLine
 10
-65.24226981486215
 20
-426.3774370103391
 30
0.0
 11
-65.24226981486352
 21
-506.3774370103389
 31
0.0
  0
LINE
  5
2B9
330
EA
100
AcDbEntity
  8
2
  6
Continuous
 62
     3
370
    13
100
AcDbLine
 10
-59.60889323712838
 20
-413.3774370103398
 30
0.0
 11
-59.60889323712838
 21
-415.3774370103403
 31
0.0
  0
LINE
  5
2BA
330
EA
100
AcDbEntity
  8
2
  6
Continuous
 62
     3
370
    13
100
AcDbLine
 10
-61.1946796747181
 20
-415.3774370103403
 30
0.0
 11
-59.60889323712838
 21
-415.3774370103403
 31
0.0
  0
ELLIPSE
  5
2BB
330
EA
100
AcDbEntity
  8
2
  6
Continuous
 62
     3
370
    13
100
AcDbEllipse
 10
-66.14442714306217
 20
-420.3774370103398
 30
0.0
 11
0.0
 21
-5.000000000000132
 31
0.0
210
0.0
220
0.0
230
1.0
 40
0.7071067811866028
 41
6.283185307176306
 42
7.853981633973776
  0
ELLIPSE
  5
2BC
330
EA
100
AcDbEntity
  8
2
  6
Continuous
 62
     3
370
    13
100
AcDbEllipse
 10
-64.7302135806511
 20
-420.3774370103398
 30
0.0
 11
0.0
 21
-4.999999999999972
 31
0.0
210
0.0
220
0.0
230
1.0
 40
0.7071067811866028
 41
6.283185307176306
 42
7.853981633973776
  0
LINE
  5
2BD
330
EA
100
AcDbEntity
  8
2
  6
Continuous
 62
     3
370
    13
100
AcDbLine
 10
-61.1946796747181
 20
-415.3774370103403
 30
0.0
 11
-61.1946796747181
 21
-420.3774370103398
 31
0.0
  0
LINE
  5
2BE
330
EA
100
AcDbEntity
  8
2
  6
Continuous
 62
     3
370
    13
100
AcDbLine
 10
-64.7302135806511
 20
-425.3774370103397
 30
0.0
 11
-101.4997662023848
 21
-425.3774370103397
 31
0.0
  0
LINE
  5
2BF
330
EA
100
AcDbEntity
  8
2
  6
Continuous
 62
     3
370
    13
100
AcDbLine
 10
-62.60889323712929
 20
-413.3774370103398
 30
0.0
 11
-62.60889323712929
 21
-420.3774370103398
 31
0.0
  0
ELLIPSE
  5
2C0
330
EA
100
AcDbEntity
  8
2
  6
Continuous
 62
     3
370
    13
100
AcDbEllipse
 10
-101.4997662023848
 20
-426.3774370103383
 30
0.0
 11
1.136868377216160E-13
 21
0.9999999999985789
 31
0.0
210
0.0
220
0.0
230
1.0
 40
0.707106781188949
 41
0.0000000050845874
 42
1.57079632679419
  0
ELLIPSE
  5
2C1
330
EA
100
AcDbEntity
  8
2
  6
Continuous
 62
     3
370
    13
100
AcDbEllipse
 10
-100.7926594212023
 20
-426.3774370103383
 30
0.0
 11
0.0
 21
0.9999999999985789
 31
0.0
210
0.0
220
0.0
230
1.0
 40
0.707106781188949
 41
0.0000000050844266
 42
1.57079632679419
  0
LINE
  5
2C2
330
EA
100
AcDbEntity
  8
2
  6
Continuous
 62
     3
370
    13
100
AcDbLine
 10
-59.60889323712838
 20
-519.37743701034
 30
0.0
 11
-59.60889323712838
 21
-517.3774370103395
 31
0.0
  0
LINE
  5
2C3
330
EA
100
AcDbEntity
  8
2
  6
Continuous
 62
     3
370
    13
100
AcDbLine
 10
-61.1946796747181
 20
-517.3774370103395
 30
0.0
 11
-59.60889323712838
 21
-517.3774370103395
 31
0.0
  0
ELLIPSE
  5
2C4
330
EA
100
AcDbEntity
  8
2
  6
Continuous
 62
     3
370
    13
100
AcDbEllipse
 10
-66.14442714306217
 20
-512.3774370103399
 30
0.0
 11
0.0
 21
-5.000000000000132
 31
0.0
210
0.0
220
0.0
230
1.0
 40
0.7071067811866028
 41
1.570796326803307
 42
3.141592653593073
  0
ELLIPSE
  5
2C5
330
EA
100
AcDbEntity
  8
2
  6
Continuous
 62
     3
370
    13
100
AcDbEllipse
 10
-64.7302135806511
 20
-512.3774370103399
 30
0.0
 11
0.0
 21
-4.999999999999972
 31
0.0
210
0.0
220
0.0
230
1.0
 40
0.7071067811866028
 41
1.570796326803307
 42
3.141592653593073
  0
LINE
  5
2C6
330
EA
100
AcDbEntity
  8
2
  6
Continuous
 62
     3
370
    13
100
AcDbLine
 10
-61.1946796747181
 20
-517.3774370103395
 30
0.0
 11
-61.1946796747181
 21
-512.3774370103399
 31
0.0
  0
LINE
  5
2C7
330
EA
100
AcDbEntity
  8
2
  6
Continuous
 62
     3
370
    13
100
AcDbLine
 10
-64.7302135806511
 20
-507.37743701034
 30
0.0
 11
-101.4997662023848
 21
-507.37743701034
 31
0.0
  0
LINE
  5
2C8
330
EA
100
AcDbEntity
  8
2
  6
Continuous
 62
     3
370
    13
100
AcDbLine
 10
-62.60889323712929
 20
-519.37743701034
 30
0.0
 11
-62.60889323712929
 21
-512.3774370103399
 31
0.0
  0
ELLIPSE
  5
2C9
330
EA
100
AcDbEntity
  8
2
  6
Continuous
 62
     3
370
    13
100
AcDbEllipse
 10
-101.4997662023848
 20
-506.3774370103414
 30
0.0
 11
1.136868377216160E-13
 21
-0.9999999999986358
 31
0.0
210
0.0
220
0.0
230
1.0
 40
0.707106781188949
 41
4.712388980385397
 42
6.283185302094998
  0
ELLIPSE
  5
2CA
330
EA
100
AcDbEntity
  8
2
  6
Continuous
 62
     3
370
    13
100
AcDbEllipse
 10
-100.7926594212023
 20
-506.3774370103414
 30
0.0
 11
0.0
 21
-0.9999999999986358
 31
0.0
210
0.0
220
0.0
230
1.0
 40
0.707106781188949
 41
4.712388980385397
 42
6.28318530209516
  0
LINE
  5
2CB
330
EA
100
AcDbEntity
  8
2
  6
Continuous
 62
     3
370
    13
100
AcDbLine
 10
-57.33881505029747
 20
-416.3774370103397
 30
0.0
 11
-61.1946796747181
 21
-416.3774370103397
 31
0.0
  0
LINE
  5
2CC
330
EA
100
AcDbEntity
  8
2
  6
Continuous
 62
     3
370
    13
100
AcDbLine
 10
-57.33881505029747
 20
-516.37743701034
 30
0.0
 11
-61.1946796747181
 21
-516.3774370103398
 31
0.0
  0
LINE
  5
2CD
330
EA
100
AcDbEntity
  8
2
  6
Continuous
 62
     3
370
    13
100
AcDbLine
 10
-57.04594430963103
 20
-417.3774370103397
 30
0.0
 11
-57.04594430963103
 21
-515.37743701034
 31
0.0
  0
LINE
  5
2CE
330
EA
100
AcDbEntity
  8
2
  6
Continuous
 62
     3
370
    13
100
AcDbLine
 10
-61.1946796747181
 20
-416.3774370103397
 30
0.0
 11
-61.1946796747181
 21
-516.3774370103398
 31
0.0
  0
ELLIPSE
  5
2CF
330
EA
100
AcDbEntity
  8
2
  6
Continuous
 62
     3
370
    13
100
AcDbEllipse
 10
-57.33881505029747
 20
-417.3774370103397
 30
0.0
 11
0.0
 21
0.9999999999998059
 31
0.0
210
0.0
220
0.0
230
1.0
 40
0.2928707406665012
 41
4.712388980384983
 42
6.283185307179586
  0
ELLIPSE
  5
2D0
330
EA
100
AcDbEntity
  8
2
  6
Continuous
 62
     3
370
    13
100
AcDbEllipse
 10
-57.33881505029747
 20
-515.37743701034
 30
0.0
 11
0.0
 21
0.9999999999998059
 31
0.0
210
0.0
220
0.0
230
1.0
 40
0.2928707406665012
 41
3.141592653589793
 42
4.712388980384983
  0
LINE
  5
2D1
330
EA
100
AcDbEntity
  8
2
  6
Continuous
 62
     3
370
    13
100
AcDbLine
 10
-144.3675186296548
 20
-460.6713849499274
 30
0.0
 11
-144.3675186296553
 21
-506.3774370103375
 31
0.0
  0
LINE
  5
2D2
330
EA
100
AcDbEntity
  8
2
  6
Continuous
 62
     3
370
    13
100
AcDbLine
 10
-173.8538714051128
 20
-459.9342261305417
 30
0.0
 11
-173.8538714051118
 21
-478.1774370103386
 31
0.0
  0
LINE
  5
2D3
330
EA
100
AcDbEntity
  8
2
  6
Continuous
 62
     3
370
    13
100
AcDbLine
 10
-185.3090012603305
 20
-459.6478478841615
 30
0.0
 11
-185.3090012603303
 21
-464.3774370103366
 31
0.0
  0
LINE
  5
2D4
330
EA
100
AcDbEntity
  8
2
  6
Continuous
 62
     3
370
    13
100
AcDbLine
 10
-152.4944964973139
 20
-460.4682105032361
 30
0.0
 11
-152.4944964973143
 21
-505.3774370103373
 31
0.0
  0
LINE
  5
2D5
330
EA
100
AcDbEntity
  8
2
  6
Continuous
 62
     3
370
    13
100
AcDbLine
 10
-188.8068132898552
 20
-459.5604025834234
 30
0.0
 11
-188.8068132898553
 21
-464.3774370103364
 31
0.0
  0
LINE
  5
2D6
330
EA
100
AcDbEntity
  8
2
  6
Continuous
 62
     3
370
    13
100
AcDbLine
 10
-65.24226981486375
 20
-426.3774370103391
 30
0.0
 11
-141.2111810449935
 21
-426.3774370103386
 31
0.0
  0
LINE
  5
2D7
330
EA
100
AcDbEntity
  8
2
  6
Continuous
 62
     3
370
    13
100
AcDbLine
 10
-59.60889323712838
 20
-413.3774370103398
 30
0.0
 11
-122.7129696379812
 21
-413.3774370103398
 31
0.0
  0
LINE
  5
2D8
330
EA
100
AcDbEntity
  8
2
  6
Continuous
 62
     7
370
    18
100
AcDbLine
 10
-122.7129696379812
 20
-413.3774370103398
 30
0.0
 11
-122.7129696379812
 21
-426.3774370103397
 31
0.0
  0
ARC
  5
2D9
330
EA
100
AcDbEntity
  8
2
  6
DASHED2
 62
     4
370
    13
100
AcDbCircle
 10
-153.4944964973136
 20
-427.3774370103372
 30
0.0
 40
1.0
100
AcDbArc
 50
0.0
 51
89.99999999999773
  0
LINE
  5
2DA
330
EA
100
AcDbEntity
  8
2
  6
DASHED2
 62
     4
370
    13
100
AcDbLine
 10
-152.4944964973136
 20
-427.3774370103374
 30
0.0
 11
-152.4944964973139
 21
-460.4682105032361
 31
0.0
  0
LINE
  5
2DB
330
EA
100
AcDbEntity
  8
2
  6
DASHED2
 62
     4
370
    13
100
AcDbLine
 10
-188.806813289855
 20
-427.3774370103364
 30
0.0
 11
-188.8068132898552
 21
-459.5604025834235
 31
0.0
  0
LINE
  5
2DC
330
EA
100
AcDbEntity
  8
2
  6
DASHED2
 62
     4
370
    13
100
AcDbLine
 10
-141.2111810449935
 20
-426.3774370103386
 30
0.0
 11
-187.8068132898548
 21
-426.3774370103365
 31
0.0
  0
LINE
  5
2DD
330
EA
100
AcDbEntity
  8
2
  6
DIVIDE
 62
    91
370
    13
100
AcDbLine
 10
-112.3919018261156
 20
-426.3774370103401
 30
0.0
 11
-118.8919018261153
 21
-426.3774370103401
 31
0.0
  0
LINE
  5
2DE
330
EA
100
AcDbEntity
  8
2
  6
DIVIDE
 62
    91
370
    13
100
AcDbLine
 10
-115.6419018261156
 20
-423.1274370103401
 30
0.0
 11
-115.6419018261156
 21
-429.6274370103401
 31
0.0
  0
LINE
  5
2DF
330
EA
100
AcDbEntity
  8
2
  6
DIVIDE
 62
    91
370
    13
100
AcDbLine
 10
-112.391901826114
 20
-506.3774370103409
 30
0.0
 11
-118.8919018261137
 21
-506.3774370103409
 31
0.0
  0
LINE
  5
2E0
330
EA
100
AcDbEntity
  8
2
  6
DIVIDE
 62
    91
370
    13
100
AcDbLine
 10
-115.641901826114
 20
-503.1274370103409
 30
0.0
 11
-115.641901826114
 21
-509.6274370103411
 31
0.0
  0
ENDBLK
  5
EC
330
EA
100
AcDbEntity
  8
0
100
AcDbBlockEnd
  0
BLOCK
  5
EE
330
ED
100
AcDbEntity
  8
0
100
AcDbBlockBegin
  2
DC_GROUP_W_GT10H_S_030_4_12
 70
     0
 10
0.0
 20
0.0
 30
0.0
  3
DC_GROUP_W_GT10H_S_030_4_12
  1
DC_GROUP_W_GT10H_S_030_4_12
  0
INSERT
  5
2E1
330
ED
100
AcDbEntity
  8
0
  6
Continuous
100
AcDbBlockReference
  2
DC_GROUP_W_GT10H_S_030_4_13
 10
0.0
 20
0.0
 30
0.0
  0
ENDBLK
  5
EF
330
ED
100
AcDbEntity
  8
0
100
AcDbBlockEnd
  0
BLOCK
  5
F1
330
F0
100
AcDbEntity
  8
0
100
AcDbBlockBegin
  2
DC_GROUP_W_GT10H_S_030_4_13
 70
     0
 10
0.0
 20
0.0
 30
0.0
  3
DC_GROUP_W_GT10H_S_030_4_13
  1
DC_GROUP_W_GT10H_S_030_4_13
  0
LINE
  5
2E2
330
F0
100
AcDbEntity
  8
0
  6
Continuous
 62
     2
370
    13
100
AcDbLine
 10
179.9181115597055
 20
-371.6759674751256
 30
0.0
 11
208.7856250191875
 21
-421.6759674751256
 31
0.0
  0
LINE
  5
2E3
330
F0
100
AcDbEntity
  8
0
  6
Continuous
 62
     2
370
    13
100
AcDbLine
 10
208.7856250191875
 20
-421.6759674751256
 30
0.0
 11
151.0505981002246
 21
-421.6759674751256
 31
0.0
  0
LINE
  5
2E4
330
F0
100
AcDbEntity
  8
0
  6
Continuous
 62
     2
370
    13
100
AcDbLine
 10
151.0505981002246
 20
-421.6759674751256
 30
0.0
 11
179.9181115597055
 21
-371.6759674751256
 31
0.0
  0
TEXT
  5
2E5
330
F0
100
AcDbEntity
  8
0
 62
     2
100
AcDbText
 10
172.4181115597055
 20
-417.9259674751256
 30
0.0
 40
25.0
  1
4
 41
0.7000000000000001
  7
dcStyle1
 72
     5
 11
187.4181115597055
 21
-417.9259674751256
 31
0.0
100
AcDbText
  0
ENDBLK
  5
F2
330
F0
100
AcDbEntity
  8
0
100
AcDbBlockEnd
  0
BLOCK
  5
F4
330
F3
100
AcDbEntity
  8
0
100
AcDbBlockBegin
  2
DC_GROUP_W_GT10H_S_030_4_14
 70
     0
 10
0.0
 20
0.0
 30
0.0
  3
DC_GROUP_W_GT10H_S_030_4_14
  1
DC_GROUP_W_GT10H_S_030_4_14
  0
LINE
  5
2E6
330
F3
100
AcDbEntity
  8
0
  6
Continuous
 62
     7
370
    13
100
AcDbLine
 10
238.9481528447955
 20
-360.5051051073929
 30
0.0
 11
238.9481528447955
 21
-354.017969908832
 31
0.0
  0
LINE
  5
2E7
330
F3
100
AcDbEntity
  8
0
  6
Continuous
 62
     7
370
    13
100
AcDbLine
 10
238.9481528447955
 20
-354.017969908832
 30
0.0
 11
293.4322146066197
 21
-355.3800714528759
 31
0.0
  0
LINE
  5
2E8
330
F3
100
AcDbEntity
  8
0
  6
Continuous
 62
     7
370
    13
100
AcDbLine
 10
293.4322146066197
 20
-355.3800714528759
 30
0.0
 11
293.4322146066197
 21
-360.5051051073918
 31
0.0
  0
LINE
  5
2E9
330
F3
100
AcDbEntity
  8
0
  6
Continuous
 62
     7
370
    13
100
AcDbLine
 10
293.4322146066197
 20
-360.5051051073918
 30
0.0
 11
238.9481528447955
 21
-360.5051051073917
 31
0.0
  0
ENDBLK
  5
F5
330
F3
100
AcDbEntity
  8
0
100
AcDbBlockEnd
  0
BLOCK
  5
FA
330
F9
100
AcDbEntity
  8
0
100
AcDbBlockBegin
  2
_OPEN30
 70
     0
 10
0.0
 20
0.0
 30
0.0
  3
_OPEN30
  1
_OPEN30
  0
LINE
  5
FC
330
F9
100
AcDbEntity
  8
0
  6
ByBlock
 62
     0
370
    -2
100
AcDbLine
 10
-1.0
 20
0.267949
 30
0.0
 11
0.0
 21
0.0
 31
0.0
  0
LINE
  5
FD
330
F9
100
AcDbEntity
  8
0
  6
ByBlock
 62
     0
370
    -2
100
AcDbLine
 10
0.0
 20
0.0
 30
0.0
 11
-1.0
 21
-0.267949
 31
0.0
  0
LINE
  5
FE
330
F9
100
AcDbEntity
  8
0
  6
ByBlock
 62
     0
370
    -2
100
AcDbLine
 10
0.0
 20
0.0
 30
0.0
 11
-1.0
 21
0.0
 31
0.0
  0
ENDBLK
  5
FB
330
F9
100
AcDbEntity
  8
0
100
AcDbBlockEnd
  0
ENDSEC
  0
SECTION
  2
ENTITIES
  0
LINE
  5
2EA
330
1F
100
AcDbEntity
  8
0
  6
CENTERX2
 62
     3
370
    13
100
AcDbLine
 10
-444.4465550777295
 20
173.7219785694354
 30
0.0
 11
-444.4465550777275
 21
297.7647893994013
 31
0.0
  0
LINE
  5
2EB
330
1F
100
AcDbEntity
  8
0
  6
CENTERX2
 62
     3
370
    13
100
AcDbLine
 10
-320.4037442477625
 20
173.7219785694354
 30
0.0
 11
-444.4465550777295
 21
173.7219785694354
 31
0.0
  0
LINE
  5
2EC
330
1F
100
AcDbEntity
  8
0
  6
CENTERX2
 62
     3
370
    13
100
AcDbLine
 10
-401.5186230653135
 20
130.7940465570193
 30
0.0
 11
-487.3744870901444
 21
216.6499105818514
 31
0.0
  0
LINE
  5
2ED
330
1F
100
AcDbEntity
  8
0
  6
CENTERX2
 62
     3
370
    13
100
AcDbLine
 10
-194.7065767595934
 20
317.3959397093913
 30
0.0
 11
-182.2412238172105
 21
329.8612926517733
 31
0.0
  0
LINE
  5
2EE
330
1F
100
AcDbEntity
  8
0
  6
CENTERX2
 62
     3
370
    13
100
AcDbLine
 10
-194.1984518400304
 20
329.3531677322094
 30
0.0
 11
-182.2940397800573
 21
317.4487556722354
 31
0.0
  0
LINE
  5
2EF
330
1F
100
AcDbEntity
  8
0
  6
CENTERX2
 62
     3
370
    13
100
AcDbLine
 10
-300.2644690180125
 20
435.4191849101933
 30
0.0
 11
-288.3600569580374
 21
423.5147728502193
 31
0.0
  0
LINE
  5
2F0
330
1F
100
AcDbEntity
  8
0
  6
CENTERX2
 62
     3
370
    13
100
AcDbLine
 10
-300.7725939375755
 20
423.4619568873743
 30
0.0
 11
-288.3072409951944
 21
435.9273098297563
 31
0.0
  0
LINE
  5
2F1
330
1F
100
AcDbEntity
  8
0
  6
CENTERX2
 62
     3
370
    13
100
AcDbLine
 10
-436.5370959251863
 20
351.3370652064664
 30
0.0
 11
-424.0717429828035
 21
363.8024181488483
 31
0.0
  0
LINE
  5
2F2
330
1F
100
AcDbEntity
  8
0
  6
CENTERX2
 62
     3
370
    13
100
AcDbLine
 10
-436.0289710056234
 20
363.2942932292854
 30
0.0
 11
-424.1245589456475
 21
351.3898811693105
 31
0.0
  0
LINE
  5
2F3
330
1F
100
AcDbEntity
  8
0
  6
CENTERX2
 62
     3
370
    13
100
AcDbLine
 10
-266.3233435210784
 20
193.5886657447375
 30
0.0
 11
-254.4189314611035
 21
181.6842536847623
 31
0.0
  0
LINE
  5
2F4
330
1F
100
AcDbEntity
  8
0
  6
CENTERX2
 62
     3
370
    13
100
AcDbLine
 10
-266.8314684406425
 20
181.6314377219194
 30
0.0
 11
-254.3661154982594
 21
194.0967906643014
 31
0.0
  0
LINE
  5
2F5
330
1F
100
AcDbEntity
  8
0
  6
CENTERX2
 62
     3
370
    13
100
AcDbLine
 10
-370.6792315489145
 20
891.8506030482554
 30
0.0
 11
-358.2138786065325
 21
904.3159559906376
 31
0.0
  0
LINE
  5
2F6
330
1F
100
AcDbEntity
  8
0
  6
CENTERX2
 62
     3
370
    13
100
AcDbLine
 10
-89.54664822440441
 20
851.1979722481933
 30
0.0
 11
-77.6422361644295
 21
839.2935601882195
 31
0.0
  0
LINE
  5
2F7
330
1F
100
AcDbEntity
  8
0
  6
CENTERX2
 62
     3
370
    13
100
AcDbLine
 10
-90.05477314396853
 20
839.2407442253743
 30
0.0
 11
-77.58942020158543
 21
851.7060971677574
 31
0.0
  0
LINE
  5
2F8
330
1F
100
AcDbEntity
  8
0
  6
CENTERX2
 62
     3
370
    13
100
AcDbLine
 10
233.5375635206024
 20
540.5791134455624
 30
0.0
 11
221.0722105782215
 21
528.1137605031804
 31
0.0
  0
LINE
  5
2F9
330
1F
100
AcDbEntity
  8
0
  6
CENTERX2
 62
     3
370
    13
100
AcDbLine
 10
221.1250265410654
 20
540.5262974827183
 30
0.0
 11
233.0294386010405
 21
528.6218854227434
 31
0.0
  0
LINE
  5
2FA
330
1F
100
AcDbEntity
  8
0
  6
CENTERX2
 62
     3
370
    13
100
AcDbLine
 10
273.7348853646567
 20
259.9018390776635
 30
0.0
 11
285.6392974246305
 21
247.9974270176883
 31
0.0
  0
LINE
  5
2FB
330
1F
100
AcDbEntity
  8
0
  6
CENTERX2
 62
     3
370
    13
100
AcDbLine
 10
286.1474223441937
 20
259.9546550405073
 30
0.0
 11
273.6820694018115
 21
247.4893020981253
 31
0.0
  0
LINE
  5
2FC
330
1F
100
AcDbEntity
  8
0
  6
CENTERX2
 62
     3
370
    13
100
AcDbLine
 10
-424.8822856056445
 20
483.1040067481663
 30
0.0
 11
-403.9473707643065
 21
882.5659783817055
 31
0.0
  0
LINE
  5
2FD
330
1F
100
AcDbEntity
  8
0
  6
CENTERX2
 62
     3
370
    13
100
AcDbLine
 10
264.3974447345445
 20
214.2211628828413
 30
0.0
 11
-135.0645268989965
 21
193.2862480415133
 31
0.0
  0
LINE
  5
2FE
330
1F
100
AcDbEntity
  8
0
  6
CENTERX2
 62
     3
370
    13
100
AcDbLine
 10
-393.0513070675695
 20
479.4318548931624
 30
0.0
 11
-330.4762932287895
 21
874.5149432985645
 31
0.0
  0
LINE
  5
2FF
330
1F
100
AcDbEntity
  8
0
  6
CENTERX2
 62
     3
370
    13
100
AcDbLine
 10
256.3464096512967
 20
287.6922404184663
 30
0.0
 11
-138.7366787541084
 21
225.1172265796963
 31
0.0
  0
LINE
  5
300
330
1F
100
AcDbEntity
  8
0
  6
CENTERX2
 62
     3
370
    13
100
AcDbLine
 10
-361.7432133415784
 20
472.7157936216975
 30
0.0
 11
-258.2713576611495
 21
858.8780161744853
 31
0.0
  0
LINE
  5
301
330
1F
100
AcDbEntity
  8
0
  6
CENTERX2
 62
     3
370
    13
100
AcDbLine
 10
240.7094825272175
 20
359.8971759861095
 30
0.0
 11
-145.4527400255733
 21
256.4253203056894
 31
0.0
  0
LINE
  5
302
330
1F
100
AcDbEntity
  8
0
  6
CENTERX2
 62
     3
370
    13
100
AcDbLine
 10
-331.4562744854065
 20
462.3968761473163
 30
0.0
 11
-188.1077478355905
 21
835.8325553627105
 31
0.0
  0
LINE
  5
303
330
1F
100
AcDbEntity
  8
0
  6
CENTERX2
 62
     3
370
    13
100
AcDbLine
 10
217.6640217155555
 20
430.0607858115573
 30
0.0
 11
-155.7716574998435
 21
286.7122591617513
 31
0.0
  0
LINE
  5
304
330
1F
100
AcDbEntity
  8
0
  6
CENTERX2
 62
     3
370
    13
100
AcDbLine
 10
-302.3345674530115
 20
449.2291163594493
 30
0.0
 11
-120.7372884888964
 21
805.6338438255084
 31
0.0
  0
LINE
  5
305
330
1F
100
AcDbEntity
  8
0
  6
CENTERX2
 62
     3
370
    13
100
AcDbLine
 10
187.4653101783533
 20
497.4312451582523
 30
0.0
 11
-168.9394172877085
 21
315.8339661941473
 31
0.0
  0
LINE
  5
306
330
1F
100
AcDbEntity
  8
0
  6
CENTERX2
 62
     3
370
    13
100
AcDbLine
 10
-274.7375564715735
 20
433.1422086828484
 30
0.0
 11
-56.88135646006049
 21
768.6113382303465
 31
0.0
  0
LINE
  5
307
330
1F
100
AcDbEntity
  8
0
  6
CENTERX2
 62
     3
370
    13
100
AcDbLine
 10
150.4428045830814
 20
561.2871771872024
 30
0.0
 11
-185.0263249644224
 21
343.4309771756923
 31
0.0
  0
LINE
  5
308
330
1F
100
AcDbEntity
  8
0
  6
CENTERX2
 62
     3
370
    13
100
AcDbLine
 10
-248.9513417485155
 20
414.3079747647173
 30
0.0
 11
2.776985820399432
 21
725.1665706988942
 31
0.0
  0
LINE
  5
309
330
1F
100
AcDbEntity
  8
0
  6
CENTERX2
 62
     3
370
    13
100
AcDbLine
 10
106.9980370516314
 20
620.9455194676614
 30
0.0
 11
-203.8605588825515
 21
369.2171918987524
 31
0.0
  0
LINE
  5
30A
330
1F
100
AcDbEntity
  8
0
  6
CENTERX2
 62
     3
370
    13
100
AcDbLine
 10
-360.9132854774955
 20
288.1786077011554
 30
0.0
 11
-330.2046714984144
 21
257.4699937220753
 31
0.0
  0
LINE
  5
30B
330
1F
100
AcDbEntity
  8
0
  6
CENTERX2
 62
     3
370
    13
100
AcDbLine
 10
281.9366089982987
 20
504.1253451809823
 30
0.0
 11
251.0132494669165
 21
473.2019856496013
 31
0.0
  0
LINE
  5
30C
330
1F
100
AcDbEntity
  8
0
  6
CENTERX2
 62
     3
370
    13
100
AcDbLine
 10
250.7340802489257
 20
503.8461759629913
 30
0.0
 11
281.4426942280065
 21
473.1375619839114
 31
0.0
  0
LINE
  5
30D
330
1F
100
AcDbEntity
  8
0
  6
CENTERX2
 62
     3
370
    13
100
AcDbLine
 10
-145.0309716632355
 20
899.6112278751593
 30
0.0
 11
-114.3223576841565
 21
868.9026138960803
 31
0.0
  0
LINE
  5
30E
330
1F
100
AcDbEntity
  8
0
  6
CENTERX2
 62
     3
370
    13
100
AcDbLine
 10
-144.9665479975465
 20
869.1817831140715
 30
0.0
 11
-114.0431884661646
 21
900.1051426454533
 31
0.0
  0
LINE
  5
30F
330
1F
100
AcDbEntity
  8
0
  6
CENTERX2
 62
     3
370
    13
100
AcDbLine
 10
-408.4516057117485
 20
-954.8986186448536
 30
0.0
 11
-408.4516057117485
 21
-944.7175180556147
 31
0.0
  0
LINE
  5
310
330
1F
100
AcDbEntity
  8
0
  6
CENTERX2
 62
     3
370
    13
100
AcDbLine
 10
329.1957600146175
 20
-944.7175180556147
 30
0.0
 11
329.1957600146175
 21
-954.8986186448536
 31
0.0
  0
LINE
  5
311
330
1F
100
AcDbEntity
  8
0
  6
CENTERX2
 62
     3
370
    13
100
AcDbLine
 10
266.1957600146175
 20
-876.5051051073908
 30
0.0
 11
266.1957600146175
 21
-951.5051051073908
 31
0.0
  0
LINE
  5
312
330
1F
100
AcDbEntity
  8
0
  6
CENTERX2
 62
     3
370
    13
100
AcDbLine
 10
-345.4516057117505
 20
-876.5051051073908
 30
0.0
 11
-345.4516057117505
 21
-971.5051051073909
 31
0.0
  0
LINE
  5
313
330
1F
100
AcDbEntity
  8
0
  6
CENTERX2
 62
     3
370
    13
100
AcDbLine
 10
-129.7840374498464
 20
-876.5051051073908
 30
0.0
 11
-129.7840374498464
 21
-971.5051051073909
 31
0.0
  0
LINE
  5
314
330
1F
100
AcDbEntity
  8
0
  6
CENTERX2
 62
     3
370
    13
100
AcDbLine
 10
-192.7840374498455
 20
-954.8986186448536
 30
0.0
 11
-192.7840374498455
 21
-944.7175180556147
 31
0.0
  0
LINE
  5
315
330
1F
100
AcDbEntity
  8
0
  6
CENTERX2
 62
     3
370
    13
100
AcDbLine
 10
-320.5794117353955
 20
-409.3014180390519
 30
0.0
 11
-263.7423049837525
 21
-410.7223457078421
 31
0.0
  0
LINE
  5
316
330
1F
100
AcDbEntity
  8
0
  6
CENTERX2
 62
     3
370
    13
100
AcDbLine
 10
265.0194654529796
 20
-268.6428819219436
 30
0.0
 11
-134.8657616047465
 21
-258.6457512455136
 31
0.0
  0
LINE
  5
317
330
1F
100
AcDbEntity
  8
0
  6
CENTERX2
 62
     3
370
    13
100
AcDbLine
 10
-518.6927671023495
 20
99.47576654481531
 30
0.0
 11
156.0272855588105
 21
774.1958192059583
 31
0.0
  0
LINE
  5
318
330
1F
100
AcDbEntity
  8
0
  6
CENTERX2
 62
     3
370
    13
100
AcDbLine
 10
65.55344492210952
 20
173.7219785693294
 30
0.0
 11
65.55344492210952
 21
102.4099422803383
 31
0.0
  0
LINE
  5
319
330
1F
100
AcDbEntity
  8
0
  6
CENTERX2
 62
     3
370
    13
100
AcDbLine
 10
65.8882174745836
 20
-230.6644383342057
 30
0.0
 11
63.95022544808057
 21
-308.1841193943326
 31
0.0
  0
LINE
  5
31A
330
1F
100
AcDbEntity
  8
0
  6
CENTERX2
 62
     3
370
    13
100
AcDbLine
 10
-370.1711066293515
 20
903.8078310710744
 30
0.0
 11
-358.2666945693754
 21
891.9034190110983
 31
0.0
  0
ARC
  5
31B
330
1F
100
AcDbEntity
  8
0
  6
CENTERX2
 62
     3
370
    13
100
AcDbCircle
 10
-444.4465550778905
 20
173.7219785693803
 30
0.0
 40
510.0
100
AcDbArc
 50
359.9999999999943
 51
89.99999999999969
  0
LINE
  5
31C
330
1F
100
AcDbEntity
  8
0
  6
Continuous
 62
     3
370
    13
100
AcDbLine
 10
-351.9516057117485
 20
-913.5051051073908
 30
0.0
 11
-351.9516057117485
 21
-886.5051051073908
 31
0.0
  0
LINE
  5
31D
330
1F
100
AcDbEntity
  8
0
  6
Continuous
 62
     3
370
    13
100
AcDbLine
 10
-338.9516057117485
 20
-913.5051051073908
 30
0.0
 11
-338.9516057117485
 21
-886.5051051073908
 31
0.0
  0
LINE
  5
31E
330
1F
100
AcDbEntity
  8
0
  6
Continuous
 62
     3
370
    13
100
AcDbLine
 10
-338.9516057117485
 20
-923.5051051073908
 30
0.0
 11
-338.9516057117485
 21
-925.5051051073908
 31
0.0
  0
LINE
  5
31F
330
1F
100
AcDbEntity
  8
0
  6
Continuous
 62
     3
370
    13
100
AcDbLine
 10
-351.9516057117485
 20
-925.5051051073908
 30
0.0
 11
-351.9516057117485
 21
-923.5051051073908
 31
0.0
  0
LINE
  5
320
330
1F
100
AcDbEntity
  8
0
  6
Continuous
 62
     3
370
    13
100
AcDbLine
 10
272.6957600146175
 20
-923.5051051073908
 30
0.0
 11
272.6957600146175
 21
-925.5051051073908
 31
0.0
  0
LINE
  5
321
330
1F
100
AcDbEntity
  8
0
  6
Continuous
 62
     3
370
    13
100
AcDbLine
 10
259.6957600146175
 20
-925.5051051073908
 30
0.0
 11
259.6957600146175
 21
-923.5051051073908
 31
0.0
  0
LINE
  5
322
330
1F
100
AcDbEntity
  8
0
  6
Continuous
 62
     3
370
    13
100
AcDbLine
 10
259.6957600146175
 20
-886.5051051073908
 30
0.0
 11
259.6957600146175
 21
-913.5051051073908
 31
0.0
  0
LINE
  5
323
330
1F
100
AcDbEntity
  8
0
  6
Continuous
 62
     3
370
    13
100
AcDbLine
 10
272.6957600146175
 20
-886.5051051073908
 30
0.0
 11
272.6957600146175
 21
-913.5051051073908
 31
0.0
  0
LINE
  5
324
330
1F
100
AcDbEntity
  8
0
  6
Continuous
 62
     3
370
    13
100
AcDbLine
 10
376.1162824919215
 20
-951.5051051073908
 30
0.0
 11
-458.4516057117535
 21
-951.5051051073908
 31
0.0
  0
LINE
  5
325
330
1F
100
AcDbEntity
  8
0
  6
Continuous
 62
     3
370
    13
100
AcDbLine
 10
-136.2840374498455
 20
-925.5051051073908
 30
0.0
 11
-136.2840374498455
 21
-923.5051051073908
 31
0.0
  0
LINE
  5
326
330
1F
100
AcDbEntity
  8
0
  6
Continuous
 62
     3
370
    13
100
AcDbLine
 10
-123.2840374498455
 20
-923.5051051073908
 30
0.0
 11
-123.2840374498455
 21
-925.5051051073908
 31
0.0
  0
LINE
  5
327
330
1F
100
AcDbEntity
  8
0
  6
Continuous
 62
     3
370
    13
100
AcDbLine
 10
-123.2840374498455
 20
-913.5051051073908
 30
0.0
 11
-123.2840374498455
 21
-886.5051051073908
 31
0.0
  0
LINE
  5
328
330
1F
100
AcDbEntity
  8
0
  6
Continuous
 62
     3
370
    13
100
AcDbLine
 10
-136.2840374498455
 20
-913.5051051073908
 30
0.0
 11
-136.2840374498455
 21
-886.5051051073908
 31
0.0
  0
LINE
  5
329
330
1F
100
AcDbEntity
  8
0
  6
Continuous
 62
     7
370
    13
100
AcDbLine
 10
-444.4465550776615
 20
883.7219785693806
 30
0.0
 11
-444.4465550777234
 21
918.7219785684792
 31
0.0
  0
LINE
  5
32A
330
1F
100
AcDbEntity
  8
0
  6
Continuous
 62
     7
370
    13
100
AcDbLine
 10
300.5534449222723
 20
173.7219785693783
 30
0.0
 11
265.5534449221095
 21
173.7219785693353
 31
0.0
  0
LINE
  5
32B
330
1F
100
AcDbEntity
  8
0
  6
Continuous
 62
     7
370
    13
100
AcDbLine
 10
298.0155651680116
 20
491.9200301032333
 30
0.0
 11
300.5534449222723
 21
173.7219785693783
 31
0.0
  0
LINE
  5
32C
330
1F
100
AcDbEntity
  8
0
  6
Continuous
 62
     7
370
    13
100
AcDbLine
 10
-126.2485035439124
 20
916.1840988151653
 30
0.0
 11
298.0155651680116
 21
491.9200301032333
 31
0.0
  0
LINE
  5
32D
330
1F
100
AcDbEntity
  8
0
  6
Continuous
 62
     7
370
    13
100
AcDbLine
 10
-444.4465550777234
 20
918.7219785684792
 30
0.0
 11
-126.2485035439124
 21
916.1840988151653
 31
0.0
  0
LINE
  5
32E
330
1F
100
AcDbEntity
  8
0
  6
Continuous
 62
     7
370
    13
100
AcDbLine
 10
-444.4465550778893
 20
483.7219785693803
 30
0.0
 11
-444.4465550778893
 21
343.4276060540894
 31
0.0
  0
LINE
  5
32F
330
1F
100
AcDbEntity
  8
0
  6
Continuous
 62
     7
370
    13
100
AcDbLine
 10
-444.4465550778893
 20
343.4276060540894
 30
0.0
 11
-274.7409275931814
 21
173.7219785693783
 31
0.0
  0
LINE
  5
330
330
1F
100
AcDbEntity
  8
0
  6
Continuous
 62
     7
370
    13
100
AcDbLine
 10
-274.7409275931814
 20
173.7219785693783
 30
0.0
 11
-134.4465550778905
 21
173.7219785693774
 31
0.0
  0
LINE
  5
331
330
1F
100
AcDbEntity
  8
0
  6
Continuous
 62
     7
370
    13
100
AcDbLine
 10
-417.7615112745675
 20
482.5713082387454
 30
0.0
 11
-386.8499651321124
 21
881.3819483476764
 31
0.0
  0
LINE
  5
332
330
1F
100
AcDbEntity
  8
0
  6
Continuous
 62
     7
370
    13
100
AcDbLine
 10
-417.2882546435915
 20
488.4988696900843
 30
0.0
 11
-415.0925462109744
 21
488.3837974871774
 31
0.0
  0
LINE
  5
333
330
1F
100
AcDbEntity
  8
0
  6
Continuous
 62
     7
370
    13
100
AcDbLine
 10
-434.0665073713114
 20
489.3781806557963
 30
0.0
 11
-431.8707989386476
 21
489.2631084528864
 31
0.0
  0
LINE
  5
334
330
1F
100
AcDbEntity
  8
0
  6
Continuous
 62
     7
370
    13
100
AcDbLine
 10
-415.0925462109744
 20
488.3837974871774
 30
0.0
 11
-415.4082951454996
 21
482.3589489084834
 31
0.0
  0
LINE
  5
335
330
1F
100
AcDbEntity
  8
0
  6
Continuous
 62
     7
370
    13
100
AcDbLine
 10
-434.0665073713135
 20
489.3781806557943
 30
0.0
 11
-434.3715188266194
 21
483.5582153857624
 31
0.0
  0
LINE
  5
336
330
1F
100
AcDbEntity
  8
0
  6
Continuous
 62
     7
370
    13
100
AcDbLine
 10
-421.0784552483974
 20
883.0449775950865
 30
0.0
 11
-432.0155161400705
 21
483.4726351803513
 31
0.0
  0
LINE
  5
337
330
1F
100
AcDbEntity
  8
0
  6
Continuous
 62
     7
370
    13
100
AcDbLine
 10
-430.5295839587216
 20
537.7593771352313
 30
0.0
 11
-413.5528818678865
 21
536.8696658790993
 31
0.0
  0
LINE
  5
338
330
1F
100
AcDbEntity
  8
0
  6
Continuous
 62
     7
370
    13
100
AcDbLine
 10
-429.1610730650184
 20
587.7562738182633
 30
0.0
 11
-409.6877971372994
 21
586.7357226715253
 31
0.0
  0
LINE
  5
339
330
1F
100
AcDbEntity
  8
0
  6
Continuous
 62
     7
370
    13
100
AcDbLine
 10
-427.7925621713164
 20
637.7531705012964
 30
0.0
 11
-405.8227124067105
 21
636.6017794639495
 31
0.0
  0
LINE
  5
33A
330
1F
100
AcDbEntity
  8
0
  6
Continuous
 62
     7
370
    13
100
AcDbLine
 10
-426.4240512776114
 20
687.7500671843275
 30
0.0
 11
-401.9576276761215
 21
686.4678362563734
 31
0.0
  0
LINE
  5
33B
330
1F
100
AcDbEntity
  8
0
  6
Continuous
 62
     7
370
    13
100
AcDbLine
 10
-425.0555403839085
 20
737.7469638673615
 30
0.0
 11
-398.0925429455315
 21
736.3338930487994
 31
0.0
  0
LINE
  5
33C
330
1F
100
AcDbEntity
  8
0
  6
Continuous
 62
     7
370
    13
100
AcDbLine
 10
-423.6870294902064
 20
787.7438605503935
 30
0.0
 11
-394.2274582149455
 21
786.1999498412233
 31
0.0
  0
LINE
  5
33D
330
1F
100
AcDbEntity
  8
0
  6
Continuous
 62
     7
370
    13
100
AcDbLine
 10
-422.3185185965024
 20
837.7407572334255
 30
0.0
 11
-390.3623734843566
 21
836.0660066336495
 31
0.0
  0
LINE
  5
33E
330
1F
100
AcDbEntity
  8
0
  6
Continuous
 62
     7
370
    13
100
AcDbLine
 10
217.8974729864885
 20
227.8061601627933
 30
0.0
 11
219.5722235862645
 21
195.8500150506454
 31
0.0
  0
LINE
  5
33F
330
1F
100
AcDbEntity
  8
0
  6
Continuous
 62
     7
370
    13
100
AcDbLine
 10
168.0314161940623
 20
223.9410754322053
 30
0.0
 11
169.5753269032325
 21
194.4815041569434
 31
0.0
  0
LINE
  5
340
330
1F
100
AcDbEntity
  8
0
  6
Continuous
 62
     7
370
    13
100
AcDbLine
 10
118.1653594016398
 20
220.0759907016184
 30
0.0
 11
119.5784302202005
 21
193.1129932632423
 31
0.0
  0
LINE
  5
341
330
1F
100
AcDbEntity
  8
0
  6
Continuous
 62
     7
370
    13
100
AcDbLine
 10
68.29930260921446
 20
216.2109059710303
 30
0.0
 11
69.58153353716648
 21
191.7444823695394
 31
0.0
  0
LINE
  5
342
330
1F
100
AcDbEntity
  8
0
  6
Continuous
 62
     7
370
    13
100
AcDbLine
 10
18.43324581678644
 20
212.3458212404423
 30
0.0
 11
19.58463685413358
 21
190.3759714758373
 31
0.0
  0
LINE
  5
343
330
1F
100
AcDbEntity
  8
0
  6
Continuous
 62
     7
370
    13
100
AcDbLine
 10
-31.43281097563636
 20
208.4807365098563
 30
0.0
 11
-30.41225982889955
 21
189.0074605821353
 31
0.0
  0
LINE
  5
344
330
1F
100
AcDbEntity
  8
0
  6
Continuous
 62
     7
370
    13
100
AcDbLine
 10
-81.29886776806143
 20
204.6156517792683
 30
0.0
 11
-80.4091565119304
 21
187.6389496884333
 31
0.0
  0
LINE
  5
345
330
1F
100
AcDbEntity
  8
0
  6
Continuous
 62
     7
370
    13
100
AcDbLine
 10
-134.6958984668124
 20
186.1530175070864
 30
0.0
 11
264.8764439479255
 21
197.0900783987504
 31
0.0
  0
LINE
  5
346
330
1F
100
AcDbEntity
  8
0
  6
Continuous
 62
     7
370
    13
100
AcDbLine
 10
-134.6103182614004
 20
183.7970148205375
 30
0.0
 11
-128.7903529913665
 21
184.1020262758434
 31
0.0
  0
LINE
  5
347
330
1F
100
AcDbEntity
  8
0
  6
Continuous
 62
     7
370
    13
100
AcDbLine
 10
-135.8095847386785
 20
202.7602385016564
 30
0.0
 11
-129.7847361599845
 21
203.0759874361813
 31
0.0
  0
LINE
  5
348
330
1F
100
AcDbEntity
  8
0
  6
Continuous
 62
     7
370
    13
100
AcDbLine
 10
-128.9054251942755
 20
186.2977347085093
 30
0.0
 11
-128.7903529913654
 21
184.1020262758443
 31
0.0
  0
LINE
  5
349
330
1F
100
AcDbEntity
  8
0
  6
Continuous
 62
     7
370
    13
100
AcDbLine
 10
-129.7847361599845
 20
203.0759874361813
 30
0.0
 11
-129.6696639570775
 21
200.8802790035643
 31
0.0
  0
LINE
  5
34A
330
1F
100
AcDbEntity
  8
0
  6
Continuous
 62
     7
370
    13
100
AcDbLine
 10
263.2134147005168
 20
231.3185685150343
 30
0.0
 11
-135.5972254084165
 21
200.4070223725894
 31
0.0
  0
LINE
  5
34B
330
1F
100
AcDbEntity
  8
0
  6
Continuous
 62
     7
370
    13
100
AcDbLine
 10
-386.0252386038135
 20
478.1672934970063
 30
0.0
 11
-313.5963063923855
 21
871.5602208711443
 31
0.0
  0
LINE
  5
34C
330
1F
100
AcDbEntity
  8
0
  6
Continuous
 62
     7
370
    13
100
AcDbLine
 10
-386.0244190953995
 20
478.1717446024425
 30
0.0
 11
-383.6910053907513
 21
477.8021681787864
 31
0.0
  0
LINE
  5
34D
330
1F
100
AcDbEntity
  8
0
  6
Continuous
 62
     7
370
    13
100
AcDbLine
 10
-383.7051439101194
 20
477.7129010807193
 30
0.0
 11
-383.6910053907513
 21
477.8021681787864
 31
0.0
  0
LINE
  5
34E
330
1F
100
AcDbEntity
  8
0
  6
Continuous
 62
     7
370
    13
100
AcDbLine
 10
-347.4244902656335
 20
877.0616681500505
 30
0.0
 11
-400.1064379677225
 21
480.5345500435603
 31
0.0
  0
LINE
  5
34F
330
1F
100
AcDbEntity
  8
0
  6
Continuous
 62
     7
370
    13
100
AcDbLine
 10
-392.9437171767524
 20
534.4470031120293
 30
0.0
 11
-376.1530153866315
 21
531.7876172063404
 31
0.0
  0
LINE
  5
350
330
1F
100
AcDbEntity
  8
0
  6
Continuous
 62
     7
370
    13
100
AcDbLine
 10
-386.3566043504845
 20
584.0269632230854
 30
0.0
 11
-367.0966817088765
 21
580.9764911547973
 31
0.0
  0
LINE
  5
351
330
1F
100
AcDbEntity
  8
0
  6
Continuous
 62
     7
370
    13
100
AcDbLine
 10
-379.7694915242164
 20
633.6069233341443
 30
0.0
 11
-358.0403480311215
 21
630.1653651032543
 31
0.0
  0
LINE
  5
352
330
1F
100
AcDbEntity
  8
0
  6
Continuous
 62
     7
370
    13
100
AcDbLine
 10
-373.1823786979485
 20
683.1868834451993
 30
0.0
 11
-348.9840143533654
 21
679.3542390517093
 31
0.0
  0
LINE
  5
353
330
1F
100
AcDbEntity
  8
0
  6
Continuous
 62
     7
370
    13
100
AcDbLine
 10
-366.5952658716815
 20
732.7668435562573
 30
0.0
 11
-339.9276806756116
 21
728.5431130001643
 31
0.0
  0
LINE
  5
354
330
1F
100
AcDbEntity
  8
0
  6
Continuous
 62
     7
370
    13
100
AcDbLine
 10
-360.0081530454136
 20
782.3468036673144
 30
0.0
 11
-330.8713469978554
 21
777.7319869486214
 31
0.0
  0
LINE
  5
355
330
1F
100
AcDbEntity
  8
0
  6
Continuous
 62
     7
370
    13
100
AcDbLine
 10
-353.4210402191454
 20
831.9267637783714
 30
0.0
 11
-321.8150133200995
 21
826.9208608970785
 31
0.0
  0
LINE
  5
356
330
1F
100
AcDbEntity
  8
0
  6
Continuous
 62
     7
370
    13
100
AcDbLine
 10
208.7523272498115
 20
296.3535203271574
 30
0.0
 11
213.7582301311045
 21
264.7474934281124
 31
0.0
  0
LINE
  5
357
330
1F
100
AcDbEntity
  8
0
  6
Continuous
 62
     7
370
    13
100
AcDbLine
 10
159.5634533013535
 20
287.2971866494033
 30
0.0
 11
164.1782700200465
 21
258.1603806018463
 31
0.0
  0
LINE
  5
358
330
1F
100
AcDbEntity
  8
0
  6
Continuous
 62
     7
370
    13
100
AcDbLine
 10
110.3745793528965
 20
278.2408529716483
 30
0.0
 11
114.5983099089885
 21
251.5732677755784
 31
0.0
  0
LINE
  5
359
330
1F
100
AcDbEntity
  8
0
  6
Continuous
 62
     7
370
    13
100
AcDbLine
 10
61.18570540444148
 20
269.1845192938954
 30
0.0
 11
65.01834979793148
 21
244.9861549493114
 31
0.0
  0
LINE
  5
35A
330
1F
100
AcDbEntity
  8
0
  6
Continuous
 62
     7
370
    13
100
AcDbLine
 10
11.99683145598556
 20
260.1281856161413
 30
0.0
 11
15.43838968687351
 21
238.3990421230453
 31
0.0
  0
LINE
  5
35B
330
1F
100
AcDbEntity
  8
0
  6
Continuous
 62
     7
370
    13
100
AcDbLine
 10
-37.1920424924715
 20
251.0718519383863
 30
0.0
 11
-34.14157042418447
 21
231.8119292967774
 31
0.0
  0
LINE
  5
35C
330
1F
100
AcDbEntity
  8
0
  6
Continuous
 62
     7
370
    13
100
AcDbLine
 10
-86.38091644092856
 20
242.0155182606325
 30
0.0
 11
-83.72153053524153
 21
225.2248164705113
 31
0.0
  0
LINE
  5
35D
330
1F
100
AcDbEntity
  8
0
  6
Continuous
 62
     7
370
    13
100
AcDbLine
 10
-137.6339836037096
 20
218.0620956795433
 30
0.0
 11
258.8931345027813
 21
270.7440433816223
 31
0.0
  0
LINE
  5
35E
330
1F
100
AcDbEntity
  8
0
  6
Continuous
 62
     7
370
    13
100
AcDbLine
 10
-140.3663654684835
 20
234.4775282565133
 30
0.0
 11
-140.4556325665505
 21
234.4633897371473
 31
0.0
  0
LINE
  5
35F
330
1F
100
AcDbEntity
  8
0
  6
Continuous
 62
     7
370
    13
100
AcDbLine
 10
-140.3663654684835
 20
234.4775282565133
 30
0.0
 11
-139.9967890448265
 21
232.1441145518663
 31
0.0
  0
LINE
  5
360
330
1F
100
AcDbEntity
  8
0
  6
Continuous
 62
     7
370
    13
100
AcDbLine
 10
253.3916872238797
 20
304.5722272548703
 30
0.0
 11
-140.0012401502624
 21
232.1432950434523
 31
0.0
  0
LINE
  5
361
330
1F
100
AcDbEntity
  8
0
  6
Continuous
 62
     7
370
    13
100
AcDbLine
 10
-254.7440513146375
 20
810.2228497910173
 30
0.0
 11
-285.6536777558845
 21
818.5050592342964
 31
0.0
  0
LINE
  5
362
330
1F
100
AcDbEntity
  8
0
  6
Continuous
 62
     7
370
    13
100
AcDbLine
 10
-297.3872227281495
 20
769.8852441134654
 30
0.0
 11
-268.8924108526255
 21
762.2500822829415
 31
0.0
  0
LINE
  5
363
330
1F
100
AcDbEntity
  8
0
  6
Continuous
 62
     7
370
    13
100
AcDbLine
 10
-283.0407703906124
 20
714.2773147748665
 30
0.0
 11
-309.1207677004145
 21
721.2654289926336
 31
0.0
  0
LINE
  5
364
330
1F
100
AcDbEntity
  8
0
  6
Continuous
 62
     7
370
    13
100
AcDbLine
 10
-320.8543126726795
 20
672.6456138718024
 30
0.0
 11
-297.1891299285985
 21
666.3045472667914
 31
0.0
  0
LINE
  5
365
330
1F
100
AcDbEntity
  8
0
  6
Continuous
 62
     7
370
    13
100
AcDbLine
 10
-332.5878576449445
 20
624.0257987509724
 30
0.0
 11
-311.3374894665865
 21
618.3317797587163
 31
0.0
  0
LINE
  5
366
330
1F
100
AcDbEntity
  8
0
  6
Continuous
 62
     7
370
    13
100
AcDbLine
 10
-344.3214026172225
 20
575.4059836300914
 30
0.0
 11
-325.4858490045874
 21
570.3590122505923
 31
0.0
  0
LINE
  5
367
330
1F
100
AcDbEntity
  8
0
  6
Continuous
 62
     7
370
    13
100
AcDbLine
 10
-356.0549475894875
 20
526.7861685092603
 30
0.0
 11
-339.6342085425745
 21
522.3862447425183
 31
0.0
  0
LINE
  5
368
330
1F
100
AcDbEntity
  8
0
  6
Continuous
 62
     7
370
    13
100
AcDbLine
 10
-354.9318214985994
 20
470.5167097764713
 30
0.0
 11
-241.7793699853385
 21
854.1821258863715
 31
0.0
  0
LINE
  5
369
330
1F
100
AcDbEntity
  8
0
  6
Continuous
 62
     7
370
    13
100
AcDbLine
 10
-274.8734545326436
 20
863.1746336309675
 30
0.0
 11
-368.7145386640634
 21
474.3291336569584
 31
0.0
  0
LINE
  5
36A
330
1F
100
AcDbEntity
  8
0
  6
Continuous
 62
     7
370
    13
100
AcDbLine
 10
-143.8393999903105
 20
249.4539949832033
 30
0.0
 11
245.0060999836974
 21
343.2950791146143
 31
0.0
  0
LINE
  5
36B
330
1F
100
AcDbEntity
  8
0
  6
Continuous
 62
     7
370
    13
100
AcDbLine
 10
236.0135922391028
 20
376.3891636619203
 30
0.0
 11
-147.6518238708004
 21
263.2367121486684
 31
0.0
  0
LINE
  5
36C
330
1F
100
AcDbEntity
  8
0
  6
Continuous
 62
     7
370
    13
100
AcDbLine
 10
-95.78228890475248
 20
278.5343251046913
 30
0.0
 11
-91.38236513801144
 21
262.1135860577795
 31
0.0
  0
LINE
  5
36D
330
1F
100
AcDbEntity
  8
0
  6
Continuous
 62
     7
370
    13
100
AcDbLine
 10
-47.80952139667852
 20
292.6826846426763
 30
0.0
 11
-42.76255001717846
 21
273.8471310300433
 31
0.0
  0
LINE
  5
36E
330
1F
100
AcDbEntity
  8
0
  6
Continuous
 62
     7
370
    13
100
AcDbLine
 10
0.1632461114465968
 20
306.8310441806773
 30
0.0
 11
5.857265103702503
 21
285.5806760023193
 31
0.0
  0
LINE
  5
36F
330
1F
100
AcDbEntity
  8
0
  6
Continuous
 62
     7
370
    13
100
AcDbLine
 10
48.1360136195226
 20
320.9794037186623
 30
0.0
 11
54.47708022453344
 21
297.3142209745833
 31
0.0
  0
LINE
  5
370
330
1F
100
AcDbEntity
  8
0
  6
Continuous
 62
     7
370
    13
100
AcDbLine
 10
103.0968953453657
 20
309.0477659468484
 30
0.0
 11
96.10878112759747
 21
335.1277632566503
 31
0.0
  0
LINE
  5
371
330
1F
100
AcDbEntity
  8
0
  6
Continuous
 62
     7
370
    13
100
AcDbLine
 10
144.0815486356737
 20
349.2761227946353
 30
0.0
 11
151.7167104661976
 21
320.7813109191113
 31
0.0
  0
LINE
  5
372
330
1F
100
AcDbEntity
  8
0
  6
Continuous
 62
     7
370
    13
100
AcDbLine
 10
200.3365255870276
 20
332.5148558913763
 30
0.0
 11
192.0543161437495
 21
363.4244823326223
 31
0.0
  0
LINE
  5
373
330
1F
100
AcDbEntity
  8
0
  6
Continuous
 62
     7
370
    13
100
AcDbLine
 10
-324.8437715403616
 20
459.7205348073114
 30
0.0
 11
-172.2077803002485
 21
829.4551937625474
 31
0.0
  0
LINE
  5
374
330
1F
100
AcDbEntity
  8
0
  6
Continuous
 62
     7
370
    13
100
AcDbLine
 10
-219.3254612960395
 20
799.1544811561553
 30
0.0
 11
-189.4508876481345
 21
787.6867067707085
 31
0.0
  0
LINE
  5
375
330
1F
100
AcDbEntity
  8
0
  6
Continuous
 62
     7
370
    13
100
AcDbLine
 10
-236.0768832401845
 20
752.0274998943632
 30
0.0
 11
-208.5362606585195
 21
741.4556453827795
 31
0.0
  0
LINE
  5
376
330
1F
100
AcDbEntity
  8
0
  6
Continuous
 62
     7
370
    13
100
AcDbLine
 10
-252.8283051843275
 20
704.9005186325733
 30
0.0
 11
-227.6216336689085
 21
695.2245839948503
 31
0.0
  0
LINE
  5
377
330
1F
100
AcDbEntity
  8
0
  6
Continuous
 62
     7
370
    13
100
AcDbLine
 10
-269.5797271284735
 20
657.7735373707815
 30
0.0
 11
-246.7070066792935
 21
648.9935226069224
 31
0.0
  0
LINE
  5
378
330
1F
100
AcDbEntity
  8
0
  6
Continuous
 62
     7
370
    13
100
AcDbLine
 10
-286.3311490726164
 20
610.6465561089913
 30
0.0
 11
-265.7923796896805
 21
602.7624612189943
 31
0.0
  0
LINE
  5
379
330
1F
100
AcDbEntity
  8
0
  6
Continuous
 62
     7
370
    13
100
AcDbLine
 10
-303.0825710167605
 20
563.5195748471995
 30
0.0
 11
-284.8777527000675
 21
556.5313998310673
 31
0.0
  0
LINE
  5
37A
330
1F
100
AcDbEntity
  8
0
  6
Continuous
 62
     7
370
    13
100
AcDbLine
 10
-319.8339929609115
 20
516.3925935853933
 30
0.0
 11
-303.9631257104604
 21
510.3003384431233
 31
0.0
  0
LINE
  5
37B
330
1F
100
AcDbEntity
  8
0
  6
Continuous
 62
     7
370
    13
100
AcDbLine
 10
-204.1581461672604
 20
841.8248752426393
 30
0.0
 11
-338.1297953048734
 21
464.9207879614653
 31
0.0
  0
LINE
  5
37C
330
1F
100
AcDbEntity
  8
0
  6
Continuous
 62
     7
370
    13
100
AcDbLine
 10
-153.2477456856955
 20
280.0387383422824
 30
0.0
 11
223.6563415954824
 21
414.0103874798863
 31
0.0
  0
LINE
  5
37D
330
1F
100
AcDbEntity
  8
0
  6
Continuous
 62
     7
370
    13
100
AcDbLine
 10
-107.8681952040345
 20
314.2054079366953
 30
0.0
 11
-101.7759400617665
 21
298.3345406862443
 31
0.0
  0
LINE
  5
37E
330
1F
100
AcDbEntity
  8
0
  6
Continuous
 62
     7
370
    13
100
AcDbLine
 10
-61.6371338160925
 20
333.2907809470873
 30
0.0
 11
-54.64895879995947
 21
315.0859626303934
 31
0.0
  0
LINE
  5
37F
330
1F
100
AcDbEntity
  8
0
  6
Continuous
 62
     7
370
    13
100
AcDbLine
 10
-15.4060724281635
 20
352.3761539574723
 30
0.0
 11
-7.521977538167448
 21
331.8373845745373
 31
0.0
  0
LINE
  5
380
330
1F
100
AcDbEntity
  8
0
  6
Continuous
 62
     7
370
    13
100
AcDbLine
 10
30.82498895976551
 20
371.4615269678593
 30
0.0
 11
39.60500372362458
 21
348.5888065186793
 31
0.0
  0
LINE
  5
381
330
1F
100
AcDbEntity
  8
0
  6
Continuous
 62
     7
370
    13
100
AcDbLine
 10
77.05605034769451
 20
390.5468999782443
 30
0.0
 11
86.7319849854166
 21
365.3402284628235
 31
0.0
  0
LINE
  5
382
330
1F
100
AcDbEntity
  8
0
  6
Continuous
 62
     7
370
    13
100
AcDbLine
 10
123.2871117356235
 20
409.6322729886294
 30
0.0
 11
133.8589662472086
 21
382.0916504069653
 31
0.0
  0
LINE
  5
383
330
1F
100
AcDbEntity
  8
0
  6
Continuous
 62
     7
370
    13
100
AcDbLine
 10
169.5181731235525
 20
428.7176459990153
 30
0.0
 11
180.9859475089984
 21
398.8430723511094
 31
0.0
  0
LINE
  5
384
330
1F
100
AcDbEntity
  8
0
  6
Continuous
 62
     7
370
    13
100
AcDbLine
 10
211.2866601153914
 20
445.9607533468993
 30
0.0
 11
-158.4479988398475
 21
293.3247621067965
 31
0.0
  0
LINE
  5
385
330
1F
100
AcDbEntity
  8
0
  6
Continuous
 62
     7
370
    13
100
AcDbLine
 10
-296.0331511595605
 20
445.8863802411413
 30
0.0
 11
-105.5860171453674
 21
797.6398704686403
 31
0.0
  0
LINE
  5
386
330
1F
100
AcDbEntity
  8
0
  6
Continuous
 62
     7
370
    13
100
AcDbLine
 10
-155.6077087207375
 20
772.4398189805365
 30
0.0
 11
-127.0954999467156
 21
757.9121229888724
 31
0.0
  0
LINE
  5
387
330
1F
100
AcDbEntity
  8
0
  6
Continuous
 62
     7
370
    13
100
AcDbLine
 10
-177.1934755524835
 20
727.3220046464444
 30
0.0
 11
-150.9087830889305
 21
713.9292849041294
 31
0.0
  0
LINE
  5
388
330
1F
100
AcDbEntity
  8
0
  6
Continuous
 62
     7
370
    13
100
AcDbLine
 10
-198.7792423842275
 20
682.2041903123534
 30
0.0
 11
-174.7220662311465
 21
669.9464468193873
 31
0.0
  0
LINE
  5
389
330
1F
100
AcDbEntity
  8
0
  6
Continuous
 62
     7
370
    13
100
AcDbLine
 10
-220.3650092159723
 20
637.0863759782633
 30
0.0
 11
-198.5353493733605
 21
625.9636087346453
 31
0.0
  0
LINE
  5
38A
330
1F
100
AcDbEntity
  8
0
  6
Continuous
 62
     7
370
    13
100
AcDbLine
 10
-241.9507760477184
 20
591.9685616441714
 30
0.0
 11
-222.3486325155764
 21
581.9807706499023
 31
0.0
  0
LINE
  5
38B
330
1F
100
AcDbEntity
  8
0
  6
Continuous
 62
     7
370
    13
100
AcDbLine
 10
-263.5365428794626
 20
546.8507473100813
 30
0.0
 11
-246.1619156577924
 21
537.9979325651605
 31
0.0
  0
LINE
  5
38C
330
1F
100
AcDbEntity
  8
0
  6
Continuous
 62
     7
370
    13
100
AcDbLine
 10
-285.1223097112083
 20
501.7329329759893
 30
0.0
 11
-271.3117085862884
 21
494.6960802300273
 31
0.0
  0
LINE
  5
38D
330
1F
100
AcDbEntity
  8
0
  6
Continuous
 62
     7
370
    13
100
AcDbLine
 10
-136.1879611104844
 20
813.0302957481153
 30
0.0
 11
-308.7120896196725
 21
452.4264006490114
 31
0.0
  0
LINE
  5
38E
330
1F
100
AcDbEntity
  8
0
  6
Continuous
 62
     7
370
    13
100
AcDbLine
 10
-165.7421329981485
 20
309.4564440274844
 30
0.0
 11
194.8617621009607
 21
481.9805725366643
 31
0.0
  0
LINE
  5
38F
330
1F
100
AcDbEntity
  8
0
  6
Continuous
 62
     7
370
    13
100
AcDbLine
 10
-123.4724534171326
 20
346.8568250608673
 30
0.0
 11
-116.4356006711705
 21
333.0462239359474
 31
0.0
  0
LINE
  5
390
330
1F
100
AcDbEntity
  8
0
  6
Continuous
 62
     7
370
    13
100
AcDbLine
 10
-80.17060108199735
 20
372.0066179893633
 30
0.0
 11
-71.31778633707745
 21
354.6319907676923
 31
0.0
  0
LINE
  5
391
330
1F
100
AcDbEntity
  8
0
  6
Continuous
 62
     7
370
    13
100
AcDbLine
 10
-36.1877629972555
 20
395.8199011315783
 30
0.0
 11
-26.19997200298644
 21
376.2177575994353
 31
0.0
  0
LINE
  5
392
330
1F
100
AcDbEntity
  8
0
  6
Continuous
 62
     7
370
    13
100
AcDbLine
 10
7.795075087488613
 20
419.6331842737923
 30
0.0
 11
18.91784233110548
 21
397.8035244311793
 31
0.0
  0
LINE
  5
393
330
1F
100
AcDbEntity
  8
0
  6
Continuous
 62
     7
370
    13
100
AcDbLine
 10
51.77791317223159
 20
443.4464674160063
 30
0.0
 11
64.03565666519853
 21
419.3892912629233
 31
0.0
  0
LINE
  5
394
330
1F
100
AcDbEntity
  8
0
  6
Continuous
 62
     7
370
    13
100
AcDbLine
 10
95.76075125697434
 20
467.2597505582203
 30
0.0
 11
109.1534709992884
 21
440.9750580946684
 31
0.0
  0
LINE
  5
395
330
1F
100
AcDbEntity
  8
0
  6
Continuous
 62
     7
370
    13
100
AcDbLine
 10
139.7435893417173
 20
491.0730337004343
 30
0.0
 11
154.2712853333805
 21
462.5608249264124
 31
0.0
  0
LINE
  5
396
330
1F
100
AcDbEntity
  8
0
  6
Continuous
 62
     7
370
    13
100
AcDbLine
 10
179.4713368214875
 20
512.5825165017823
 30
0.0
 11
-172.2821534060186
 21
322.1353824875953
 31
0.0
  0
LINE
  5
397
330
1F
100
AcDbEntity
  8
0
  6
Continuous
 62
     7
370
    13
100
AcDbLine
 10
-268.8018663591465
 20
429.1607057134443
 30
0.0
 11
-42.63011539395052
 21
759.0796032738704
 31
0.0
  0
LINE
  5
398
330
1F
100
AcDbEntity
  8
0
  6
Continuous
 62
     7
370
    13
100
AcDbLine
 10
-95.3372825525164
 20
738.7716603299455
 30
0.0
 11
-68.49982437826748
 21
721.3432112094674
 31
0.0
  0
LINE
  5
399
330
1F
100
AcDbEntity
  8
0
  6
Continuous
 62
     7
370
    13
100
AcDbLine
 10
-121.5208960933355
 20
696.1573331389054
 30
0.0
 11
-96.78011433895153
 21
680.0904816059644
 31
0.0
  0
LINE
  5
39A
330
1F
100
AcDbEntity
  8
0
  6
Continuous
 62
     7
370
    13
100
AcDbLine
 10
-147.7045096341565
 20
653.5430059478663
 30
0.0
 11
-125.0604042996345
 21
638.8377520024644
 31
0.0
  0
LINE
  5
39B
330
1F
100
AcDbEntity
  8
0
  6
Continuous
 62
     7
370
    13
100
AcDbLine
 10
-173.8881231749774
 20
610.9286787568274
 30
0.0
 11
-153.3406942603165
 21
597.5850223989623
 31
0.0
  0
LINE
  5
39C
330
1F
100
AcDbEntity
  8
0
  6
Continuous
 62
     7
370
    13
100
AcDbLine
 10
-200.0717367157995
 20
568.3143515657873
 30
0.0
 11
-181.6209842210023
 21
556.3322927954594
 31
0.0
  0
LINE
  5
39D
330
1F
100
AcDbEntity
  8
0
  6
Continuous
 62
     7
370
    13
100
AcDbLine
 10
-226.2553502566175
 20
525.7000243747493
 30
0.0
 11
-209.9012741816855
 21
515.0795631919573
 31
0.0
  0
LINE
  5
39E
330
1F
100
AcDbEntity
  8
0
  6
Continuous
 62
     7
370
    13
100
AcDbLine
 10
-252.4389637974396
 20
483.0856971837093
 30
0.0
 11
-238.1815641423684
 21
473.8268335884543
 31
0.0
  0
LINE
  5
39F
330
1F
100
AcDbEntity
  8
0
  6
Continuous
 62
     7
370
    13
100
AcDbLine
 10
-71.35924953386143
 20
777.7963634276061
 30
0.0
 11
-280.7640085995915
 21
436.9861500368643
 31
0.0
  0
LINE
  5
3A0
330
1F
100
AcDbEntity
  8
0
  6
Continuous
 62
     7
370
    13
100
AcDbLine
 10
-181.1823836104065
 20
337.4045250476784
 30
0.0
 11
159.6278297803424
 21
546.8092841134003
 31
0.0
  0
LINE
  5
3A1
330
1F
100
AcDbEntity
  8
0
  6
Continuous
 62
     7
370
    13
100
AcDbLine
 10
-144.3417000588154
 20
379.9869695048983
 30
0.0
 11
-135.0828364635595
 21
365.7295698498283
 31
0.0
  0
LINE
  5
3A2
330
1F
100
AcDbEntity
  8
0
  6
Continuous
 62
     7
370
    13
100
AcDbLine
 10
-103.0889704553115
 20
408.2672594655803
 30
0.0
 11
-92.46850927251853
 21
391.9131833906474
 31
0.0
  0
LINE
  5
3A3
330
1F
100
AcDbEntity
  8
0
  6
Continuous
 62
     7
370
    13
100
AcDbLine
 10
-61.83624085180941
 20
436.5475494262635
 30
0.0
 11
-49.85418208148053
 21
418.0967969314663
 31
0.0
  0
LINE
  5
3A4
330
1F
100
AcDbEntity
  8
0
  6
Continuous
 62
     7
370
    13
100
AcDbLine
 10
-20.58351124830551
 20
464.8278393869473
 30
0.0
 11
-7.239854890439346
 21
444.2804104722873
 31
0.0
  0
LINE
  5
3A5
330
1F
100
AcDbEntity
  8
0
  6
Continuous
 62
     7
370
    13
100
AcDbLine
 10
20.66921835519747
 20
493.1081293476293
 30
0.0
 11
35.37447230060047
 21
470.4640240131064
 31
0.0
  0
LINE
  5
3A6
330
1F
100
AcDbEntity
  8
0
  6
Continuous
 62
     7
370
    13
100
AcDbLine
 10
61.92194795869955
 20
521.3884193083113
 30
0.0
 11
77.98879949163961
 21
496.6476375539273
 31
0.0
  0
LINE
  5
3A7
330
1F
100
AcDbEntity
  8
0
  6
Continuous
 62
     7
370
    13
100
AcDbLine
 10
103.1746775622037
 20
549.6687092689933
 30
0.0
 11
120.6031266826794
 21
522.8312510947453
 31
0.0
  0
LINE
  5
3A8
330
1F
100
AcDbEntity
  8
0
  6
Continuous
 62
     7
370
    13
100
AcDbLine
 10
140.9110696266057
 20
575.5384182533103
 30
0.0
 11
-189.0078279338245
 21
349.3666672881213
 31
0.0
  0
LINE
  5
3A9
330
1F
100
AcDbEntity
  8
0
  6
Continuous
 62
     7
370
    13
100
AcDbLine
 10
-243.4796272022395
 20
409.7564970200153
 30
0.0
 11
15.93894010866052
 21
714.2265537783553
 31
0.0
  0
LINE
  5
3AA
330
1F
100
AcDbEntity
  8
0
  6
Continuous
 62
     7
370
    13
100
AcDbLine
 10
-12.95725937757652
 20
680.3121443786195
 30
0.0
 11
-37.82593014419535
 21
700.4503968922083
 31
0.0
  0
LINE
  5
3AB
330
1F
100
AcDbEntity
  8
0
  6
Continuous
 62
     7
370
    13
100
AcDbLine
 10
-45.39471138188946
 20
642.2414967945833
 30
0.0
 11
-68.32051724486655
 21
660.8064483305484
 31
0.0
  0
LINE
  5
3AC
330
1F
100
AcDbEntity
  8
0
  6
Continuous
 62
     7
370
    13
100
AcDbLine
 10
-77.83216338620241
 20
604.1708492105474
 30
0.0
 11
-98.81510434553752
 21
621.1624997688884
 31
0.0
  0
LINE
  5
3AD
330
1F
100
AcDbEntity
  8
0
  6
Continuous
 62
     7
370
    13
100
AcDbLine
 10
-110.2696153905154
 20
566.1002016265113
 30
0.0
 11
-129.3096914462085
 21
581.5185512072273
 31
0.0
  0
LINE
  5
3AE
330
1F
100
AcDbEntity
  8
0
  6
Continuous
 62
     7
370
    13
100
AcDbLine
 10
-159.8042785468804
 20
541.8746026455683
 30
0.0
 11
-142.7070673948285
 21
528.0295540424743
 31
0.0
  0
LINE
  5
3AF
330
1F
100
AcDbEntity
  8
0
  6
Continuous
 62
     7
370
    13
100
AcDbLine
 10
-175.1445193991415
 20
489.9589064584384
 30
0.0
 11
-190.2988656475516
 21
502.2306540839083
 31
0.0
  0
LINE
  5
3B0
330
1F
100
AcDbEntity
  8
0
  6
Continuous
 62
     7
370
    13
100
AcDbLine
 10
-207.5819714034544
 20
451.8882588744023
 30
0.0
 11
-220.7934527482225
 21
462.5867055222484
 31
0.0
  0
LINE
  5
3B1
330
1F
100
AcDbEntity
  8
0
  6
Continuous
 62
     7
370
    13
100
AcDbLine
 10
-10.64512788109437
 20
735.7863180911304
 30
0.0
 11
-254.5263608067235
 21
418.7328350798673
 31
0.0
  0
LINE
  5
3B2
330
1F
100
AcDbEntity
  8
0
  6
Continuous
 62
     7
370
    13
100
AcDbLine
 10
-199.4356985674015
 20
363.6421728405444
 30
0.0
 11
117.6177844438685
 21
607.5234057661673
 31
0.0
  0
LINE
  5
3B3
330
1F
100
AcDbEntity
  8
0
  6
Continuous
 62
     7
370
    13
100
AcDbLine
 10
-155.5818281250204
 20
397.3750808990453
 30
0.0
 11
-166.2802747728665
 21
410.5865622438123
 31
0.0
  0
LINE
  5
3B4
330
1F
100
AcDbEntity
  8
0
  6
Continuous
 62
     7
370
    13
100
AcDbLine
 10
-115.9378795633595
 20
427.8696679997145
 30
0.0
 11
-128.2096271888295
 21
443.0240142481243
 31
0.0
  0
LINE
  5
3B5
330
1F
100
AcDbEntity
  8
0
  6
Continuous
 62
     7
370
    13
100
AcDbLine
 10
-90.13897960479153
 20
475.4614662524373
 30
0.0
 11
-76.29393100169841
 21
458.3642551003843
 31
0.0
  0
LINE
  5
3B6
330
1F
100
AcDbEntity
  8
0
  6
Continuous
 62
     7
370
    13
100
AcDbLine
 10
-36.64998244003755
 20
488.8588422010564
 30
0.0
 11
-52.0683320207545
 21
507.8989182567484
 31
0.0
  0
LINE
  5
3B7
330
1F
100
AcDbEntity
  8
0
  6
Continuous
 62
     7
370
    13
100
AcDbLine
 10
2.993966121623544
 20
519.3534293017253
 30
0.0
 11
-13.99768443671746
 21
540.3363702610593
 31
0.0
  0
LINE
  5
3B8
330
1F
100
AcDbEntity
  8
0
  6
Continuous
 62
     7
370
    13
100
AcDbLine
 10
42.63791468328554
 20
549.8480164023963
 30
0.0
 11
24.07296314731957
 21
572.7738222653713
 31
0.0
  0
LINE
  5
3B9
330
1F
100
AcDbEntity
  8
0
  6
Continuous
 62
     7
370
    13
100
AcDbLine
 10
82.28186324494573
 20
580.3426035030664
 30
0.0
 11
62.14361073135751
 21
605.2112742696843
 31
0.0
  0
LINE
  5
3BA
330
1F
100
AcDbEntity
  8
0
  6
Continuous
 62
     7
370
    13
100
AcDbLine
 10
96.05802013109133
 20
634.1074737559213
 30
0.0
 11
-208.4120366272546
 21
374.6889064450293
 31
0.0
  0
LINE
  5
3BB
330
1F
100
AcDbEntity
  8
0
  6
Continuous
 62
     7
370
    13
100
AcDbLine
 10
298.0155651680116
 20
491.9200301032333
 30
0.0
 11
300.5534449222723
 21
173.7219785693783
 31
0.0
  0
LINE
  5
3BC
330
1F
100
AcDbEntity
  8
0
  6
Continuous
 62
     7
370
    13
100
AcDbLine
 10
-126.2485035439124
 20
916.1840988151653
 30
0.0
 11
298.0155651680116
 21
491.9200301032333
 31
0.0
  0
LINE
  5
3BD
330
1F
100
AcDbEntity
  8
0
  6
Continuous
 62
     7
370
    13
100
AcDbLine
 10
-444.4465550777234
 20
918.7219785684792
 30
0.0
 11
-126.2485035439124
 21
916.1840988151653
 31
0.0
  0
LINE
  5
3BE
330
1F
100
AcDbEntity
  8
0
  6
Continuous
 62
     7
370
    13
100
AcDbLine
 10
-444.4465550777275
 20
343.4276060539253
 30
0.0
 11
-444.4465550777234
 21
918.7219785684792
 31
0.0
  0
LINE
  5
3BF
330
1F
100
AcDbEntity
  8
0
  6
Continuous
 62
     7
370
    13
100
AcDbLine
 10
-274.7409275932355
 20
173.7219785694333
 30
0.0
 11
300.5534449222723
 21
173.7219785693783
 31
0.0
  0
LINE
  5
3C0
330
1F
100
AcDbEntity
  8
0
  6
Continuous
 62
     7
370
    13
100
AcDbLine
 10
-274.7409275932355
 20
173.7219785694333
 30
0.0
 11
-444.4465550777275
 21
343.4276060539253
 31
0.0
  0
LINE
  5
3C1
330
1F
100
AcDbEntity
  8
0
  6
Continuous
 62
     7
370
    13
100
AcDbLine
 10
45.32964320523456
 20
687.7446197004203
 30
0.0
 11
-230.3560885116835
 21
397.9211581518773
 31
0.0
  0
LINE
  5
3C2
330
1F
100
AcDbEntity
  8
0
  6
Continuous
 62
     7
370
    13
100
AcDbLine
 10
-220.2473754953944
 20
387.8124451355864
 30
0.0
 11
69.5760860531575
 21
663.4981768524963
 31
0.0
  0
LINE
  5
3C3
330
1F
100
AcDbEntity
  8
0
  6
Continuous
 62
     7
370
    13
100
AcDbLine
 10
-193.0700943661004
 20
437.1192545613353
 30
0.0
 11
-181.0492790859435
 21
425.0984392811783
 31
0.0
  0
LINE
  5
3C4
330
1F
100
AcDbEntity
  8
0
  6
Continuous
 62
     7
370
    13
100
AcDbLine
 10
-158.5986387832554
 20
473.3584770971454
 30
0.0
 11
-144.8100565501315
 21
459.5698948640213
 31
0.0
  0
LINE
  5
3C5
330
1F
100
AcDbEntity
  8
0
  6
Continuous
 62
     7
370
    13
100
AcDbLine
 10
-124.1271832004104
 20
509.5976996329543
 30
0.0
 11
-108.5708340143206
 21
494.0413504468643
 31
0.0
  0
LINE
  5
3C6
330
1F
100
AcDbEntity
  8
0
  6
Continuous
 62
     7
370
    13
100
AcDbLine
 10
-89.65572761756539
 20
545.8369221687653
 30
0.0
 11
-72.33161147850751
 21
528.5128060297063
 31
0.0
  0
LINE
  5
3C7
330
1F
100
AcDbEntity
  8
0
  6
Continuous
 62
     7
370
    13
100
AcDbLine
 10
-55.18427203472038
 20
582.0761447045743
 30
0.0
 11
-36.09238894269743
 21
562.9842616125493
 31
0.0
  0
LINE
  5
3C8
330
1F
100
AcDbEntity
  8
0
  6
Continuous
 62
     7
370
    13
100
AcDbLine
 10
0.1468335931156162
 20
597.4557171953913
 30
0.0
 11
-20.71281645187742
 21
618.3153672403844
 31
0.0
  0
LINE
  5
3C9
330
1F
100
AcDbEntity
  8
0
  6
Continuous
 62
     7
370
    13
100
AcDbLine
 10
13.75863913096964
 20
654.5545897761933
 30
0.0
 11
36.38605612892661
 21
631.9271727782354
 31
0.0
  0
LINE
  5
3CA
330
1F
100
AcDbEntity
  8
0
  6
Continuous
 62
     7
370
    13
100
AcDbLine
 10
293.4322146066197
 20
-876.5051051073908
 30
0.0
 11
238.9481528447955
 21
-876.5051051073908
 31
0.0
  0
LINE
  5
3CB
330
1F
100
AcDbEntity
  8
0
  6
Continuous
 62
     7
370
    13
100
AcDbLine
 10
-359.3080121723015
 20
-885.433308337667
 30
0.0
 11
-359.3080121723015
 21
-877.5769018771156
 31
0.0
  0
LINE
  5
3CC
330
1F
100
AcDbEntity
  8
0
  6
Continuous
 62
     7
370
    13
100
AcDbLine
 10
-331.5951992511975
 20
-885.433308337667
 30
0.0
 11
-331.5951992511975
 21
-877.5769018771156
 31
0.0
  0
LINE
  5
3CD
330
1F
100
AcDbEntity
  8
0
  6
Continuous
 62
     7
370
    13
100
AcDbLine
 10
-352.3798089420245
 20
-885.3164133588298
 30
0.0
 11
-352.3798089420245
 21
-877.693796855952
 31
0.0
  0
LINE
  5
3CE
330
1F
100
AcDbEntity
  8
0
  6
Continuous
 62
     7
370
    13
100
AcDbLine
 10
-338.5234024814745
 20
-885.3164133588298
 30
0.0
 11
-338.5234024814745
 21
-877.693796855952
 31
0.0
  0
LINE
  5
3CF
330
1F
100
AcDbEntity
  8
0
  6
Continuous
 62
     7
370
    13
100
AcDbLine
 10
-359.3080121723015
 20
-877.5769018771156
 30
0.0
 11
-357.4516057117505
 21
-876.5051051073908
 31
0.0
  0
LINE
  5
3D0
330
1F
100
AcDbEntity
  8
0
  6
Continuous
 62
     7
370
    13
100
AcDbLine
 10
-331.5951992511975
 20
-877.5769018771156
 30
0.0
 11
-333.4516057117485
 21
-876.5051051073908
 31
0.0
  0
LINE
  5
3D1
330
1F
100
AcDbEntity
  8
0
  6
Continuous
 62
     7
370
    13
100
AcDbLine
 10
-357.4516057117505
 20
-886.5051051073908
 30
0.0
 11
-333.4516057117485
 21
-886.5051051073908
 31
0.0
  0
LINE
  5
3D2
330
1F
100
AcDbEntity
  8
0
  6
Continuous
 62
     7
370
    13
100
AcDbLine
 10
-357.4516057117505
 20
-886.5051051073908
 30
0.0
 11
-359.3080121723015
 21
-885.433308337667
 31
0.0
  0
LINE
  5
3D3
330
1F
100
AcDbEntity
  8
0
  6
Continuous
 62
     7
370
    13
100
AcDbLine
 10
-333.4516057117485
 20
-886.5051051073908
 30
0.0
 11
-331.5951992511975
 21
-885.433308337667
 31
0.0
  0
LINE
  5
3D4
330
1F
100
AcDbEntity
  8
0
  6
Continuous
 62
     7
370
    13
100
AcDbLine
 10
-318.2277951562755
 20
-876.5051051073908
 30
0.0
 11
-372.7003430533346
 21
-876.5051051073908
 31
0.0
  0
LINE
  5
3D5
330
1F
100
AcDbEntity
  8
0
  6
Continuous
 62
     7
370
    13
100
AcDbLine
 10
-427.4516057117485
 20
-948.3051051073909
 30
0.0
 11
-314.9516057117485
 21
-948.3051051073909
 31
0.0
  0
LINE
  5
3D6
330
1F
100
AcDbEntity
  8
0
  6
Continuous
 62
     7
370
    13
100
AcDbLine
 10
-427.4516057117485
 20
-948.3051051073909
 30
0.0
 11
-427.4516057117485
 21
-951.5051051073908
 31
0.0
  0
LINE
  5
3D7
330
1F
100
AcDbEntity
  8
0
  6
Continuous
 62
     7
370
    13
100
AcDbLine
 10
-427.4516057117485
 20
-948.3051051073909
 30
0.0
 11
-427.4516057117485
 21
-951.5051051073908
 31
0.0
  0
LINE
  5
3D8
330
1F
100
AcDbEntity
  8
0
  6
Continuous
 62
     7
370
    13
100
AcDbLine
 10
-337.4516057117485
 20
-925.5051051073908
 30
0.0
 11
-337.4516057117485
 21
-923.5051051073908
 31
0.0
  0
LINE
  5
3D9
330
1F
100
AcDbEntity
  8
0
  6
Continuous
 62
     7
370
    13
100
AcDbLine
 10
-338.5234024814745
 20
-913.5051051073908
 30
0.0
 11
-338.5234024814745
 21
-922.6240799198957
 31
0.0
  0
LINE
  5
3DA
330
1F
100
AcDbEntity
  8
0
  6
Continuous
 62
     7
370
    13
100
AcDbLine
 10
-331.5951992511975
 20
-913.5051051073908
 30
0.0
 11
-331.5951992511975
 21
-922.6240799198957
 31
0.0
  0
LINE
  5
3DB
330
1F
100
AcDbEntity
  8
0
  6
Continuous
 62
     7
370
    13
100
AcDbLine
 10
-338.5234024814745
 20
-926.3861302948857
 30
0.0
 11
-338.5234024814745
 21
-934.6240799198957
 31
0.0
  0
LINE
  5
3DC
330
1F
100
AcDbEntity
  8
0
  6
Continuous
 62
     7
370
    13
100
AcDbLine
 10
-331.5951992511975
 20
-926.3861302948849
 30
0.0
 11
-331.5951992511975
 21
-934.6240799198957
 31
0.0
  0
LINE
  5
3DD
330
1F
100
AcDbEntity
  8
0
  6
Continuous
 62
     7
370
    13
100
AcDbLine
 10
-314.9516057117485
 20
-948.3051051073909
 30
0.0
 11
-314.9516057117485
 21
-951.5051051073908
 31
0.0
  0
LINE
  5
3DE
330
1F
100
AcDbEntity
  8
0
  6
Continuous
 62
     7
370
    13
100
AcDbLine
 10
-328.7203086355305
 20
-937.7549017875717
 30
0.0
 11
-322.0477700776205
 21
-947.4397986919357
 31
0.0
  0
LINE
  5
3DF
330
1F
100
AcDbEntity
  8
0
  6
Continuous
 62
     7
370
    13
100
AcDbLine
 10
-357.9008121336556
 20
-935.5051051073908
 30
0.0
 11
-333.0023992898405
 21
-935.5051051073908
 31
0.0
  0
LINE
  5
3E0
330
1F
100
AcDbEntity
  8
0
  6
Continuous
 62
     7
370
    13
100
AcDbLine
 10
-368.8554413458744
 20
-947.4397986919357
 30
0.0
 11
-362.1829027879635
 21
-937.7549017875717
 31
0.0
  0
LINE
  5
3E1
330
1F
100
AcDbEntity
  8
0
  6
Continuous
 62
     7
370
    13
100
AcDbLine
 10
-359.3080121723015
 20
-934.6240799198957
 30
0.0
 11
-359.3080121723015
 21
-926.3861302948849
 31
0.0
  0
LINE
  5
3E2
330
1F
100
AcDbEntity
  8
0
  6
Continuous
 62
     7
370
    13
100
AcDbLine
 10
-352.3798089420216
 20
-934.6240799198957
 30
0.0
 11
-352.3798089420216
 21
-926.3861302948857
 31
0.0
  0
LINE
  5
3E3
330
1F
100
AcDbEntity
  8
0
  6
Continuous
 62
     7
370
    13
100
AcDbLine
 10
-359.3080121723015
 20
-922.6240799198957
 30
0.0
 11
-359.3080121723015
 21
-913.5051051073908
 31
0.0
  0
LINE
  5
3E4
330
1F
100
AcDbEntity
  8
0
  6
Continuous
 62
     7
370
    13
100
AcDbLine
 10
-352.3798089420216
 20
-922.6240799198957
 30
0.0
 11
-352.3798089420216
 21
-913.5051051073908
 31
0.0
  0
LINE
  5
3E5
330
1F
100
AcDbEntity
  8
0
  6
Continuous
 62
     7
370
    13
100
AcDbLine
 10
-353.4516057117485
 20
-923.5051051073908
 30
0.0
 11
-353.4516057117485
 21
-925.5051051073908
 31
0.0
  0
LINE
  5
3E6
330
1F
100
AcDbEntity
  8
0
  6
Continuous
 62
     7
370
    13
100
AcDbLine
 10
-355.8439105571615
 20
-925.5051051073908
 30
0.0
 11
-335.0593008663345
 21
-925.5051051073908
 31
0.0
  0
LINE
  5
3E7
330
1F
100
AcDbEntity
  8
0
  6
Continuous
 62
     7
370
    13
100
AcDbLine
 10
-355.8439105571615
 20
-923.5051051073908
 30
0.0
 11
-335.0593008663345
 21
-923.5051051073908
 31
0.0
  0
LINE
  5
3E8
330
1F
100
AcDbEntity
  8
0
  6
Continuous
 62
     7
370
    13
100
AcDbLine
 10
-359.3080121723015
 20
-913.5051051073908
 30
0.0
 11
-331.5951992511975
 21
-913.5051051073908
 31
0.0
  0
LINE
  5
3E9
330
1F
100
AcDbEntity
  8
0
  6
Continuous
 62
     7
370
    13
100
AcDbLine
 10
-337.4516057117485
 20
-913.5051051073908
 30
0.0
 11
-337.4516057117485
 21
-886.5051051073908
 31
0.0
  0
LINE
  5
3EA
330
1F
100
AcDbEntity
  8
0
  6
Continuous
 62
     7
370
    13
100
AcDbLine
 10
-353.4516057117485
 20
-913.5051051073908
 30
0.0
 11
-353.4516057117485
 21
-886.5051051073908
 31
0.0
  0
LINE
  5
3EB
330
1F
100
AcDbEntity
  8
0
  6
Continuous
 62
     7
370
    13
100
AcDbLine
 10
274.1957600146175
 20
-886.5051051073908
 30
0.0
 11
274.1957600146175
 21
-913.5051051073908
 31
0.0
  0
LINE
  5
3EC
330
1F
100
AcDbEntity
  8
0
  6
Continuous
 62
     7
370
    13
100
AcDbLine
 10
258.1957600146175
 20
-886.5051051073908
 30
0.0
 11
258.1957600146175
 21
-913.5051051073908
 31
0.0
  0
LINE
  5
3ED
330
1F
100
AcDbEntity
  8
0
  6
Continuous
 62
     7
370
    13
100
AcDbLine
 10
252.3393535540654
 20
-913.5051051073908
 30
0.0
 11
280.0521664751654
 21
-913.5051051073908
 31
0.0
  0
LINE
  5
3EE
330
1F
100
AcDbEntity
  8
0
  6
Continuous
 62
     7
370
    13
100
AcDbLine
 10
255.8034551692003
 20
-923.5051051073908
 30
0.0
 11
276.5880648600278
 21
-923.5051051073908
 31
0.0
  0
LINE
  5
3EF
330
1F
100
AcDbEntity
  8
0
  6
Continuous
 62
     7
370
    13
100
AcDbLine
 10
255.8034551692003
 20
-925.5051051073908
 30
0.0
 11
276.5880648600278
 21
-925.5051051073908
 31
0.0
  0
LINE
  5
3F0
330
1F
100
AcDbEntity
  8
0
  6
Continuous
 62
     7
370
    13
100
AcDbLine
 10
274.1957600146175
 20
-925.5051051073908
 30
0.0
 11
274.1957600146175
 21
-923.5051051073908
 31
0.0
  0
LINE
  5
3F1
330
1F
100
AcDbEntity
  8
0
  6
Continuous
 62
     7
370
    13
100
AcDbLine
 10
273.1239632448874
 20
-913.5051051073908
 30
0.0
 11
273.1239632448874
 21
-922.6240799198957
 31
0.0
  0
LINE
  5
3F2
330
1F
100
AcDbEntity
  8
0
  6
Continuous
 62
     7
370
    13
100
AcDbLine
 10
280.0521664751654
 20
-913.5051051073908
 30
0.0
 11
280.0521664751654
 21
-922.6240799198957
 31
0.0
  0
LINE
  5
3F3
330
1F
100
AcDbEntity
  8
0
  6
Continuous
 62
     7
370
    13
100
AcDbLine
 10
273.1239632448874
 20
-926.3861302948857
 30
0.0
 11
273.1239632448874
 21
-934.6240799198957
 31
0.0
  0
LINE
  5
3F4
330
1F
100
AcDbEntity
  8
0
  6
Continuous
 62
     7
370
    13
100
AcDbLine
 10
280.0521664751654
 20
-926.3861302948849
 30
0.0
 11
280.0521664751654
 21
-934.6240799198957
 31
0.0
  0
LINE
  5
3F5
330
1F
100
AcDbEntity
  8
0
  6
Continuous
 62
     7
370
    13
100
AcDbLine
 10
282.9270570908307
 20
-937.7549017875717
 30
0.0
 11
289.5995956487427
 21
-947.4397986919357
 31
0.0
  0
LINE
  5
3F6
330
1F
100
AcDbEntity
  8
0
  6
Continuous
 62
     7
370
    13
100
AcDbLine
 10
253.7465535927067
 20
-935.5051051073908
 30
0.0
 11
278.6449664365214
 21
-935.5051051073908
 31
0.0
  0
LINE
  5
3F7
330
1F
100
AcDbEntity
  8
0
  6
Continuous
 62
     7
370
    13
100
AcDbLine
 10
242.7919243804895
 20
-947.4397986919357
 30
0.0
 11
249.4644629384015
 21
-937.7549017875717
 31
0.0
  0
LINE
  5
3F8
330
1F
100
AcDbEntity
  8
0
  6
Continuous
 62
     7
370
    13
100
AcDbLine
 10
235.6957600146175
 20
-951.5051051073908
 30
0.0
 11
235.6957600146175
 21
-948.3051051073909
 31
0.0
  0
LINE
  5
3F9
330
1F
100
AcDbEntity
  8
0
  6
Continuous
 62
     7
370
    13
100
AcDbLine
 10
252.3393535540654
 20
-934.6240799198957
 30
0.0
 11
252.3393535540654
 21
-926.3861302948849
 31
0.0
  0
LINE
  5
3FA
330
1F
100
AcDbEntity
  8
0
  6
Continuous
 62
     7
370
    13
100
AcDbLine
 10
259.2675567843385
 20
-934.6240799198957
 30
0.0
 11
259.2675567843385
 21
-926.3861302948857
 31
0.0
  0
LINE
  5
3FB
330
1F
100
AcDbEntity
  8
0
  6
Continuous
 62
     7
370
    13
100
AcDbLine
 10
252.3393535540654
 20
-922.6240799198957
 30
0.0
 11
252.3393535540654
 21
-913.5051051073908
 31
0.0
  0
LINE
  5
3FC
330
1F
100
AcDbEntity
  8
0
  6
Continuous
 62
     7
370
    13
100
AcDbLine
 10
259.2675567843385
 20
-922.6240799198957
 30
0.0
 11
259.2675567843385
 21
-913.5051051073908
 31
0.0
  0
LINE
  5
3FD
330
1F
100
AcDbEntity
  8
0
  6
Continuous
 62
     7
370
    13
100
AcDbLine
 10
258.1957600146175
 20
-923.5051051073908
 30
0.0
 11
258.1957600146175
 21
-925.5051051073908
 31
0.0
  0
LINE
  5
3FE
330
1F
100
AcDbEntity
  8
0
  6
Continuous
 62
     7
370
    13
100
AcDbLine
 10
348.1957600146175
 20
-951.5051051073908
 30
0.0
 11
348.1957600146175
 21
-948.3051051073909
 31
0.0
  0
LINE
  5
3FF
330
1F
100
AcDbEntity
  8
0
  6
Continuous
 62
     7
370
    13
100
AcDbLine
 10
348.1957600146175
 20
-951.5051051073908
 30
0.0
 11
348.1957600146175
 21
-948.3051051073909
 31
0.0
  0
LINE
  5
400
330
1F
100
AcDbEntity
  8
0
  6
Continuous
 62
     7
370
    13
100
AcDbLine
 10
235.6957600146175
 20
-948.3051051073909
 30
0.0
 11
348.1957600146175
 21
-948.3051051073909
 31
0.0
  0
LINE
  5
401
330
1F
100
AcDbEntity
  8
0
  6
Continuous
 62
     7
370
    13
100
AcDbLine
 10
252.3393535540654
 20
-885.433308337667
 30
0.0
 11
254.1957600146175
 21
-886.5051051073908
 31
0.0
  0
LINE
  5
402
330
1F
100
AcDbEntity
  8
0
  6
Continuous
 62
     7
370
    13
100
AcDbLine
 10
280.0521664751654
 20
-885.433308337667
 30
0.0
 11
278.1957600146175
 21
-886.5051051073908
 31
0.0
  0
LINE
  5
403
330
1F
100
AcDbEntity
  8
0
  6
Continuous
 62
     7
370
    13
100
AcDbLine
 10
254.1957600146175
 20
-886.5051051073908
 30
0.0
 11
278.1957600146175
 21
-886.5051051073908
 31
0.0
  0
LINE
  5
404
330
1F
100
AcDbEntity
  8
0
  6
Continuous
 62
     7
370
    13
100
AcDbLine
 10
254.1957600146175
 20
-876.5051051073908
 30
0.0
 11
252.3393535540654
 21
-877.5769018771156
 31
0.0
  0
LINE
  5
405
330
1F
100
AcDbEntity
  8
0
  6
Continuous
 62
     7
370
    13
100
AcDbLine
 10
278.1957600146175
 20
-876.5051051073908
 30
0.0
 11
280.0521664751654
 21
-877.5769018771156
 31
0.0
  0
LINE
  5
406
330
1F
100
AcDbEntity
  8
0
  6
Continuous
 62
     7
370
    13
100
AcDbLine
 10
259.2675567843435
 20
-877.693796855952
 30
0.0
 11
259.2675567843435
 21
-885.3164133588298
 31
0.0
  0
LINE
  5
407
330
1F
100
AcDbEntity
  8
0
  6
Continuous
 62
     7
370
    13
100
AcDbLine
 10
273.1239632448924
 20
-877.693796855952
 30
0.0
 11
273.1239632448924
 21
-885.3164133588298
 31
0.0
  0
LINE
  5
408
330
1F
100
AcDbEntity
  8
0
  6
Continuous
 62
     7
370
    13
100
AcDbLine
 10
252.3393535540654
 20
-877.5769018771156
 30
0.0
 11
252.3393535540654
 21
-885.433308337667
 31
0.0
  0
LINE
  5
409
330
1F
100
AcDbEntity
  8
0
  6
Continuous
 62
     7
370
    13
100
AcDbLine
 10
280.0521664751654
 20
-877.5769018771156
 30
0.0
 11
280.0521664751654
 21
-885.433308337667
 31
0.0
  0
LINE
  5
40A
330
1F
100
AcDbEntity
  8
0
  6
Continuous
 62
     7
370
    13
100
AcDbLine
 10
238.9481528447955
 20
-751.5051051073907
 30
0.0
 11
-318.2277951562755
 21
-751.5051051073907
 31
0.0
  0
LINE
  5
40B
330
1F
100
AcDbEntity
  8
0
  6
Continuous
 62
     7
370
    13
100
AcDbLine
 10
238.9481528447955
 20
-791.5051051073907
 30
0.0
 11
-318.2277951562755
 21
-791.5051051073907
 31
0.0
  0
LINE
  5
40C
330
1F
100
AcDbEntity
  8
0
  6
Continuous
 62
     7
370
    13
100
AcDbLine
 10
238.9481528447955
 20
-867.5051051073908
 30
0.0
 11
238.9481528447955
 21
-876.5051051073908
 31
0.0
  0
LINE
  5
40D
330
1F
100
AcDbEntity
  8
0
  6
Continuous
 62
     7
370
    13
100
AcDbLine
 10
-318.2277951562755
 20
-867.5051051073909
 30
0.0
 11
-318.2277951562755
 21
-876.5051051073908
 31
0.0
  0
LINE
  5
40E
330
1F
100
AcDbEntity
  8
0
  6
Continuous
 62
     7
370
    13
100
AcDbLine
 10
-372.7003430533346
 20
-360.5051051073912
 30
0.0
 11
-372.7003430533346
 21
-876.5051051073908
 31
0.0
  0
LINE
  5
40F
330
1F
100
AcDbEntity
  8
0
  6
Continuous
 62
     7
370
    13
100
AcDbLine
 10
-318.2277951562755
 20
-360.5051051073912
 30
0.0
 11
-318.2277951562755
 21
-867.5051051073909
 31
0.0
  0
LINE
  5
410
330
1F
100
AcDbEntity
  8
0
  6
Continuous
 62
     7
370
    13
100
AcDbLine
 10
-318.2277951562755
 20
-867.5051051073909
 30
0.0
 11
-372.7003430533346
 21
-867.5051051073908
 31
0.0
  0
LINE
  5
411
330
1F
100
AcDbEntity
  8
0
  6
Continuous
 62
     7
370
    13
100
AcDbLine
 10
-318.2277951562755
 20
-366.5051051073912
 30
0.0
 11
-372.7003430533346
 21
-366.5051051073912
 31
0.0
  0
LINE
  5
412
330
1F
100
AcDbEntity
  8
0
  6
Continuous
 62
     7
370
    13
100
AcDbLine
 10
-318.2277951562755
 20
-360.5051051073912
 30
0.0
 11
-372.7003430533346
 21
-360.5051051073912
 31
0.0
  0
LINE
  5
413
330
1F
100
AcDbEntity
  8
0
  6
Continuous
 62
     7
370
    13
100
AcDbLine
 10
293.4322146066197
 20
-366.5051051073929
 30
0.0
 11
238.9481528447955
 21
-366.5051051073929
 31
0.0
  0
LINE
  5
414
330
1F
100
AcDbEntity
  8
0
  6
Continuous
 62
     7
370
    13
100
AcDbLine
 10
293.4322146066197
 20
-360.5051051073929
 30
0.0
 11
238.9481528447955
 21
-360.5051051073929
 31
0.0
  0
LINE
  5
415
330
1F
100
AcDbEntity
  8
0
  6
Continuous
 62
     7
370
    13
100
AcDbLine
 10
293.4322146066197
 20
-867.5051051073908
 30
0.0
 11
238.9481528447955
 21
-867.5051051073908
 31
0.0
  0
LINE
  5
416
330
1F
100
AcDbEntity
  8
0
  6
Continuous
 62
     7
370
    13
100
AcDbLine
 10
238.9481528447955
 20
-360.5051051073929
 30
0.0
 11
238.9481528447955
 21
-867.5051051073908
 31
0.0
  0
LINE
  5
417
330
1F
100
AcDbEntity
  8
0
  6
Continuous
 62
     7
370
    13
100
AcDbLine
 10
293.4322146066197
 20
-360.5051051073929
 30
0.0
 11
293.4322146066197
 21
-876.5051051073908
 31
0.0
  0
LINE
  5
418
330
1F
100
AcDbEntity
  8
0
  6
Continuous
 62
     7
370
    13
100
AcDbLine
 10
266.1957600146175
 20
-876.5051051073908
 30
0.0
 11
266.1957600146175
 21
-360.5051051073929
 31
0.0
  0
LINE
  5
419
330
1F
100
AcDbEntity
  8
0
  6
Continuous
 62
     7
370
    13
100
AcDbLine
 10
-345.4516057117505
 20
-360.5051051073912
 30
0.0
 11
-345.4516057117505
 21
-876.5051051073908
 31
0.0
  0
LINE
  5
41A
330
1F
100
AcDbEntity
  8
0
  6
Continuous
 62
     7
370
    13
100
AcDbLine
 10
-102.5602268943694
 20
-867.5051051073909
 30
0.0
 11
-157.0327747914293
 21
-867.5051051073908
 31
0.0
  0
LINE
  5
41B
330
1F
100
AcDbEntity
  8
0
  6
Continuous
 62
     7
370
    13
100
AcDbLine
 10
-102.5602268943694
 20
-867.5051051073909
 30
0.0
 11
-102.5602268943694
 21
-876.5051051073908
 31
0.0
  0
LINE
  5
41C
330
1F
100
AcDbEntity
  8
0
  6
Continuous
 62
     7
370
    13
100
AcDbLine
 10
-137.7840374498464
 20
-913.5051051073908
 30
0.0
 11
-137.7840374498464
 21
-886.5051051073908
 31
0.0
  0
LINE
  5
41D
330
1F
100
AcDbEntity
  8
0
  6
Continuous
 62
     7
370
    13
100
AcDbLine
 10
-121.7840374498464
 20
-913.5051051073908
 30
0.0
 11
-121.7840374498464
 21
-886.5051051073908
 31
0.0
  0
LINE
  5
41E
330
1F
100
AcDbEntity
  8
0
  6
Continuous
 62
     7
370
    13
100
AcDbLine
 10
-143.6404439103974
 20
-913.5051051073908
 30
0.0
 11
-115.9276309892934
 21
-913.5051051073908
 31
0.0
  0
LINE
  5
41F
330
1F
100
AcDbEntity
  8
0
  6
Continuous
 62
     7
370
    13
100
AcDbLine
 10
-140.1763422952574
 20
-923.5051051073908
 30
0.0
 11
-119.3917326044304
 21
-923.5051051073908
 31
0.0
  0
LINE
  5
420
330
1F
100
AcDbEntity
  8
0
  6
Continuous
 62
     7
370
    13
100
AcDbLine
 10
-140.1763422952574
 20
-925.5051051073908
 30
0.0
 11
-119.3917326044304
 21
-925.5051051073908
 31
0.0
  0
LINE
  5
421
330
1F
100
AcDbEntity
  8
0
  6
Continuous
 62
     7
370
    13
100
AcDbLine
 10
-137.7840374498455
 20
-923.5051051073908
 30
0.0
 11
-137.7840374498455
 21
-925.5051051073908
 31
0.0
  0
LINE
  5
422
330
1F
100
AcDbEntity
  8
0
  6
Continuous
 62
     7
370
    13
100
AcDbLine
 10
-136.7122406801175
 20
-922.6240799198957
 30
0.0
 11
-136.7122406801175
 21
-913.5051051073908
 31
0.0
  0
LINE
  5
423
330
1F
100
AcDbEntity
  8
0
  6
Continuous
 62
     7
370
    13
100
AcDbLine
 10
-143.6404439103974
 20
-922.6240799198957
 30
0.0
 11
-143.6404439103974
 21
-913.5051051073908
 31
0.0
  0
LINE
  5
424
330
1F
100
AcDbEntity
  8
0
  6
Continuous
 62
     7
370
    13
100
AcDbLine
 10
-136.7122406801175
 20
-934.6240799198957
 30
0.0
 11
-136.7122406801175
 21
-926.3861302948857
 31
0.0
  0
LINE
  5
425
330
1F
100
AcDbEntity
  8
0
  6
Continuous
 62
     7
370
    13
100
AcDbLine
 10
-143.6404439103974
 20
-934.6240799198957
 30
0.0
 11
-143.6404439103974
 21
-926.3861302948849
 31
0.0
  0
LINE
  5
426
330
1F
100
AcDbEntity
  8
0
  6
Continuous
 62
     7
370
    13
100
AcDbLine
 10
-153.1878730839715
 20
-947.4397986919357
 30
0.0
 11
-146.5153345260605
 21
-937.7549017875717
 31
0.0
  0
LINE
  5
427
330
1F
100
AcDbEntity
  8
0
  6
Continuous
 62
     7
370
    13
100
AcDbLine
 10
-142.2332438717515
 20
-935.5051051073908
 30
0.0
 11
-117.3348310279364
 21
-935.5051051073908
 31
0.0
  0
LINE
  5
428
330
1F
100
AcDbEntity
  8
0
  6
Continuous
 62
     7
370
    13
100
AcDbLine
 10
-113.0527403736276
 20
-937.7549017875717
 30
0.0
 11
-106.3802018157176
 21
-947.4397986919357
 31
0.0
  0
LINE
  5
429
330
1F
100
AcDbEntity
  8
0
  6
Continuous
 62
     7
370
    13
100
AcDbLine
 10
-99.28403744984553
 20
-948.3051051073909
 30
0.0
 11
-99.28403744984553
 21
-951.5051051073908
 31
0.0
  0
LINE
  5
42A
330
1F
100
AcDbEntity
  8
0
  6
Continuous
 62
     7
370
    13
100
AcDbLine
 10
-115.9276309892934
 20
-926.3861302948849
 30
0.0
 11
-115.9276309892934
 21
-934.6240799198957
 31
0.0
  0
LINE
  5
42B
330
1F
100
AcDbEntity
  8
0
  6
Continuous
 62
     7
370
    13
100
AcDbLine
 10
-122.8558342195704
 20
-926.3861302948857
 30
0.0
 11
-122.8558342195704
 21
-934.6240799198957
 31
0.0
  0
LINE
  5
42C
330
1F
100
AcDbEntity
  8
0
  6
Continuous
 62
     7
370
    13
100
AcDbLine
 10
-115.9276309892934
 20
-913.5051051073908
 30
0.0
 11
-115.9276309892934
 21
-922.6240799198957
 31
0.0
  0
LINE
  5
42D
330
1F
100
AcDbEntity
  8
0
  6
Continuous
 62
     7
370
    13
100
AcDbLine
 10
-122.8558342195704
 20
-913.5051051073908
 30
0.0
 11
-122.8558342195704
 21
-922.6240799198957
 31
0.0
  0
LINE
  5
42E
330
1F
100
AcDbEntity
  8
0
  6
Continuous
 62
     7
370
    13
100
AcDbLine
 10
-121.7840374498455
 20
-925.5051051073908
 30
0.0
 11
-121.7840374498455
 21
-923.5051051073908
 31
0.0
  0
LINE
  5
42F
330
1F
100
AcDbEntity
  8
0
  6
Continuous
 62
     7
370
    13
100
AcDbLine
 10
-211.7840374498455
 20
-948.3051051073909
 30
0.0
 11
-211.7840374498455
 21
-951.5051051073908
 31
0.0
  0
LINE
  5
430
330
1F
100
AcDbEntity
  8
0
  6
Continuous
 62
     7
370
    13
100
AcDbLine
 10
-211.7840374498455
 20
-948.3051051073909
 30
0.0
 11
-211.7840374498455
 21
-951.5051051073908
 31
0.0
  0
LINE
  5
431
330
1F
100
AcDbEntity
  8
0
  6
Continuous
 62
     7
370
    13
100
AcDbLine
 10
-211.7840374498455
 20
-948.3051051073909
 30
0.0
 11
-99.28403744984553
 21
-948.3051051073909
 31
0.0
  0
LINE
  5
432
330
1F
100
AcDbEntity
  8
0
  6
Continuous
 62
     7
370
    13
100
AcDbLine
 10
-102.5602268943694
 20
-876.5051051073908
 30
0.0
 11
-157.0327747914293
 21
-876.5051051073908
 31
0.0
  0
LINE
  5
433
330
1F
100
AcDbEntity
  8
0
  6
Continuous
 62
     7
370
    13
100
AcDbLine
 10
-117.7840374498464
 20
-886.5051051073908
 30
0.0
 11
-115.9276309892934
 21
-885.433308337667
 31
0.0
  0
LINE
  5
434
330
1F
100
AcDbEntity
  8
0
  6
Continuous
 62
     7
370
    13
100
AcDbLine
 10
-141.7840374498464
 20
-886.5051051073908
 30
0.0
 11
-143.6404439103974
 21
-885.433308337667
 31
0.0
  0
LINE
  5
435
330
1F
100
AcDbEntity
  8
0
  6
Continuous
 62
     7
370
    13
100
AcDbLine
 10
-141.7840374498464
 20
-886.5051051073908
 30
0.0
 11
-117.7840374498464
 21
-886.5051051073908
 31
0.0
  0
LINE
  5
436
330
1F
100
AcDbEntity
  8
0
  6
Continuous
 62
     7
370
    13
100
AcDbLine
 10
-115.9276309892934
 20
-877.5769018771156
 30
0.0
 11
-117.7840374498464
 21
-876.5051051073908
 31
0.0
  0
LINE
  5
437
330
1F
100
AcDbEntity
  8
0
  6
Continuous
 62
     7
370
    13
100
AcDbLine
 10
-143.6404439103974
 20
-877.5769018771156
 30
0.0
 11
-141.7840374498464
 21
-876.5051051073908
 31
0.0
  0
LINE
  5
438
330
1F
100
AcDbEntity
  8
0
  6
Continuous
 62
     7
370
    13
100
AcDbLine
 10
-122.8558342195704
 20
-885.3164133588298
 30
0.0
 11
-122.8558342195704
 21
-877.693796855952
 31
0.0
  0
LINE
  5
439
330
1F
100
AcDbEntity
  8
0
  6
Continuous
 62
     7
370
    13
100
AcDbLine
 10
-136.7122406801216
 20
-885.3164133588298
 30
0.0
 11
-136.7122406801216
 21
-877.693796855952
 31
0.0
  0
LINE
  5
43A
330
1F
100
AcDbEntity
  8
0
  6
Continuous
 62
     7
370
    13
100
AcDbLine
 10
-115.9276309892934
 20
-885.433308337667
 30
0.0
 11
-115.9276309892934
 21
-877.5769018771156
 31
0.0
  0
LINE
  5
43B
330
1F
100
AcDbEntity
  8
0
  6
Continuous
 62
     7
370
    13
100
AcDbLine
 10
-143.6404439103974
 20
-885.433308337667
 30
0.0
 11
-143.6404439103974
 21
-877.5769018771156
 31
0.0
  0
LINE
  5
43C
330
1F
100
AcDbEntity
  8
0
  6
Continuous
 62
     7
370
    13
100
AcDbLine
 10
68.20586128232844
 20
-791.5051051073907
 30
0.0
 11
68.20586128232844
 21
-751.5051051073907
 31
0.0
  0
LINE
  5
43D
330
1F
100
AcDbEntity
  8
0
  6
Continuous
 62
     7
370
    13
100
AcDbLine
 10
-129.7840374498464
 20
-791.5051051073907
 30
0.0
 11
-129.7840374498464
 21
-876.5051051073908
 31
0.0
  0
LINE
  5
43E
330
1F
100
AcDbEntity
  8
0
  6
Continuous
 62
     7
370
    13
100
AcDbLine
 10
-102.5602268943694
 20
-791.5051051073907
 30
0.0
 11
-102.5602268943694
 21
-867.5051051073909
 31
0.0
  0
LINE
  5
43F
330
1F
100
AcDbEntity
  8
0
  6
Continuous
 62
     7
370
    13
100
AcDbLine
 10
-157.0327747914293
 20
-791.5051051073907
 30
0.0
 11
-157.0327747914293
 21
-876.5051051073908
 31
0.0
  0
LINE
  5
440
330
1F
100
AcDbEntity
  8
0
  6
Continuous
 62
     7
370
    13
100
AcDbLine
 10
-137.0243830717225
 20
-338.6167818038075
 30
0.0
 11
-446.9243748430654
 21
-330.8692820095332
 31
0.0
  0
LINE
  5
441
330
1F
100
AcDbEntity
  8
0
  6
Continuous
 62
     7
370
    13
100
AcDbLine
 10
-134.0153232560385
 20
-218.2543891762675
 30
0.0
 11
-137.0243830717225
 21
-338.6167818038075
 31
0.0
  0
LINE
  5
442
330
1F
100
AcDbEntity
  8
0
  6
Continuous
 62
     7
370
    13
100
AcDbLine
 10
-442.2758272872725
 20
-208.9473766535957
 30
0.0
 11
-135.5748359844335
 21
-216.6149014361577
 31
0.0
  0
LINE
  5
443
330
1F
100
AcDbEntity
  8
0
  6
Continuous
 62
     7
370
    13
100
AcDbLine
 10
-446.9243748430654
 20
-330.8692820095332
 30
0.0
 11
-443.9153150273814
 21
-210.5068893819926
 31
0.0
  0
LINE
  5
444
330
1F
100
AcDbEntity
  8
0
  6
Continuous
 62
     7
370
    13
100
AcDbLine
 10
267.7741068465225
 20
-226.6986250069206
 30
0.0
 11
299.5641740024644
 21
-227.4933766858176
 31
0.0
  0
LINE
  5
445
330
1F
100
AcDbEntity
  8
0
  6
Continuous
 62
     7
370
    13
100
AcDbLine
 10
266.1346191064117
 20
-228.2581377353167
 30
0.0
 11
263.1255592907273
 21
-348.6205303628567
 31
0.0
  0
LINE
  5
446
330
1F
100
AcDbEntity
  8
0
  6
Continuous
 62
     7
370
    13
100
AcDbLine
 10
298.1146269151745
 20
-349.495257053467
 30
0.0
 11
301.1236867308617
 21
-229.1328644259265
 31
0.0
  0
LINE
  5
447
330
1F
100
AcDbEntity
  8
0
  6
Continuous
 62
     7
370
    13
100
AcDbLine
 10
-274.2227081992844
 20
-213.1487046307916
 30
0.0
 11
-277.2717555208255
 21
-335.1105974925845
 31
0.0
  0
LINE
  5
448
330
1F
100
AcDbEntity
  8
0
  6
Continuous
 62
     7
370
    13
100
AcDbLine
 10
298.1146269151745
 20
-349.495257053467
 30
0.0
 11
-446.9243748430654
 21
-330.8692820095332
 31
0.0
  0
LINE
  5
449
330
1F
100
AcDbEntity
  8
0
  6
Continuous
 62
     7
370
    13
100
AcDbLine
 10
-447.0743279900264
 20
-336.8674078879819
 30
0.0
 11
297.9646737682137
 21
-355.4933829319157
 31
0.0
  0
LINE
  5
44A
330
1F
100
AcDbEntity
  8
0
  6
Continuous
 62
     7
370
    13
100
AcDbLine
 10
297.9646737682897
 20
-355.4933829319175
 30
0.0
 11
298.1146269152505
 21
-349.4952570534688
 31
0.0
  0
LINE
  5
44B
330
1F
100
AcDbEntity
  8
0
  6
Continuous
 62
     7
370
    13
100
AcDbLine
 10
-277.4217086677884
 20
-341.1087233710332
 30
0.0
 11
-277.2717555208255
 21
-335.1105974925845
 31
0.0
  0
LINE
  5
44C
330
1F
100
AcDbEntity
  8
0
  6
Continuous
 62
     7
370
    13
100
AcDbLine
 10
-446.9243748430654
 20
-330.8692820095332
 30
0.0
 11
-447.0743279900264
 21
-336.8674078879819
 31
0.0
  0
LINE
  5
44D
330
1F
100
AcDbEntity
  8
0
  6
Continuous
 62
     7
370
    13
100
AcDbLine
 10
-225.0583719992865
 20
-458.6541136156893
 30
0.0
 11
-222.1542793864735
 21
-342.4904091030644
 31
0.0
  0
LINE
  5
44E
330
1F
100
AcDbEntity
  8
0
  6
Continuous
 62
     7
370
    13
100
AcDbLine
 10
-142.0699657140544
 20
-460.7288237728173
 30
0.0
 11
-139.1658731012424
 21
-344.5651192601924
 31
0.0
  0
LINE
  5
44F
330
1F
100
AcDbEntity
  8
0
  6
Continuous
 62
     7
370
    13
100
AcDbLine
 10
-264.9156883587225
 20
-457.6576807067036
 30
0.0
 11
-142.0699657140544
 21
-460.7288237728173
 31
0.0
  0
LINE
  5
450
330
1F
100
AcDbEntity
  8
0
  6
Continuous
 62
     7
370
    13
100
AcDbLine
 10
-262.0115957459075
 20
-341.4939761940798
 30
0.0
 11
-264.9156883587225
 21
-457.6576807067036
 31
0.0
  0
LINE
  5
451
330
1F
100
AcDbEntity
  8
0
  6
Continuous
 62
     7
370
    13
100
AcDbLine
 10
-139.1658731012424
 20
-344.5651192601924
 30
0.0
 11
-262.0115957459075
 21
-341.4939761940798
 31
0.0
  0
LINE
  5
452
330
1F
100
AcDbEntity
  8
0
  6
Continuous
 62
     7
370
    13
100
AcDbLine
 10
219.7083616314994
 20
-251.5051051073897
 30
0.0
 11
218.9086115143764
 21
-283.4951097924516
 31
0.0
  0
LINE
  5
453
330
1F
100
AcDbEntity
  8
0
  6
Continuous
 62
     7
370
    13
100
AcDbLine
 10
169.6927390721416
 20
-251.5051051073906
 30
0.0
 11
168.9554694329204
 21
-280.9958906764327
 31
0.0
  0
LINE
  5
454
330
1F
100
AcDbEntity
  8
0
  6
Continuous
 62
     7
370
    13
100
AcDbLine
 10
119.6771165127884
 20
-251.5051051073906
 30
0.0
 11
119.0023273514635
 21
-278.4966715604126
 31
0.0
  0
LINE
  5
455
330
1F
100
AcDbEntity
  8
0
  6
Continuous
 62
     7
370
    13
100
AcDbLine
 10
69.66149395343245
 20
-251.5051051073917
 30
0.0
 11
69.04918527000746
 21
-275.9974524443937
 31
0.0
  0
LINE
  5
456
330
1F
100
AcDbEntity
  8
0
  6
Continuous
 62
     7
370
    13
100
AcDbLine
 10
19.64587139407263
 20
-251.5051051073906
 30
0.0
 11
19.09604318855258
 21
-273.4982333283747
 31
0.0
  0
LINE
  5
457
330
1F
100
AcDbEntity
  8
0
  6
Continuous
 62
     7
370
    13
100
AcDbLine
 10
-30.36975116528242
 20
-251.5051051073906
 30
0.0
 11
-30.85709889290342
 21
-270.9990142123547
 31
0.0
  0
LINE
  5
458
330
1F
100
AcDbEntity
  8
0
  6
Continuous
 62
     7
370
    13
100
AcDbLine
 10
-80.38537372463657
 20
-251.5051051073906
 30
0.0
 11
-80.81024097436057
 21
-268.4997950963366
 31
0.0
  0
LINE
  5
459
330
1F
100
AcDbEntity
  8
0
  6
Continuous
 62
     7
370
    13
100
AcDbLine
 10
-135.0494740852394
 20
-265.7861374047347
 30
0.0
 11
264.6964242449726
 21
-285.7859321929816
 31
0.0
  0
LINE
  5
45A
330
1F
100
AcDbEntity
  8
0
  6
Continuous
 62
     7
370
    13
100
AcDbLine
 10
265.5534449221095
 20
-251.5051051073917
 30
0.0
 11
-134.8465911543144
 21
-251.5051051073906
 31
0.0
  0
LINE
  5
45B
330
1F
100
AcDbEntity
  8
0
  6
Continuous
 62
     7
370
    13
100
AcDbLine
 10
-318.2277951562735
 20
-340.0885712088218
 30
0.0
 11
-318.2277951562755
 21
-360.5051051073912
 31
0.0
  0
LINE
  5
45C
330
1F
100
AcDbEntity
  8
0
  6
Continuous
 62
     7
370
    13
100
AcDbLine
 10
-372.7003430533346
 20
-338.726757511397
 30
0.0
 11
-372.7003430533346
 21
-360.5051051073912
 31
0.0
  0
ARC
  5
45D
330
1F
100
AcDbEntity
  8
0
  6
Continuous
 62
     7
370
    13
100
AcDbCircle
 10
-444.4465550778905
 20
173.7219785693803
 30
0.0
 40
710.0
100
AcDbArc
 50
359.9999999999964
 51
89.99999999998153
  0
ARC
  5
45E
330
1F
100
AcDbEntity
  8
0
  6
Continuous
 62
     7
370
    13
100
AcDbCircle
 10
-444.4465550778905
 20
173.7219785693803
 30
0.0
 40
310.0
100
AcDbArc
 50
359.9999999999994
 51
89.9999999999998
  0
ARC
  5
45F
330
1F
100
AcDbEntity
  8
0
  6
Continuous
 62
     7
370
    13
100
AcDbCircle
 10
-355.8975104399685
 20
-882.3032184412217
 30
0.0
 40
5.798361077010349
100
AcDbArc
 50
52.65076858734488
 51
119.9999999999641
  0
ARC
  5
460
330
1F
100
AcDbEntity
  8
0
  6
Continuous
 62
     7
370
    13
100
AcDbCircle
 10
-335.0057009835325
 20
-882.3032184412217
 30
0.0
 40
5.798361077011388
100
AcDbArc
 50
59.99999999998336
 51
127.349231412639
  0
ARC
  5
461
330
1F
100
AcDbEntity
  8
0
  6
Continuous
 62
     7
370
    13
100
AcDbCircle
 10
-345.4516057117485
 20
-897.2897147982177
 30
0.0
 40
20.78460969082635
100
AcDbArc
 50
70.52877936551357
 51
109.4712206344918
  0
ARC
  5
462
330
1F
100
AcDbEntity
  8
0
  6
Continuous
 62
     7
370
    13
100
AcDbCircle
 10
-355.8975104399685
 20
-880.7069917735598
 30
0.0
 40
5.79836107700827
100
AcDbArc
 50
240.0000000000356
 51
307.3492314126541
  0
ARC
  5
463
330
1F
100
AcDbEntity
  8
0
  6
Continuous
 62
     7
370
    13
100
AcDbCircle
 10
-335.0057009835325
 20
-880.706991773562
 30
0.0
 40
5.798361077007571
100
AcDbArc
 50
232.6507685873494
 51
300.0000000000273
  0
ARC
  5
464
330
1F
100
AcDbEntity
  8
0
  6
Continuous
 62
     7
370
    13
100
AcDbCircle
 10
-345.4516057117485
 20
-865.7204954165637
 30
0.0
 40
20.78460969082725
100
AcDbArc
 50
250.5287793655085
 51
289.4712206344862
  0
ARC
  5
465
330
1F
100
AcDbEntity
  8
0
  6
Continuous
 62
     7
370
    13
100
AcDbCircle
 10
-345.4516057117485
 20
-895.8236006093829
 30
0.0
 40
27.681504498008
100
AcDbArc
 50
270.0
 51
284.4942448420899
  0
ARC
  5
466
330
1F
100
AcDbEntity
  8
0
  6
Continuous
 62
     7
370
    13
100
AcDbCircle
 10
-335.0593008663345
 20
-916.2543445375776
 30
0.0
 40
7.250760569814147
100
AcDbArc
 50
241.4609896847266
 51
298.5390103152529
  0
ARC
  5
467
330
1F
100
AcDbEntity
  8
0
  6
Continuous
 62
     7
370
    13
100
AcDbCircle
 10
-335.0593008663345
 20
-932.7558656772036
 30
0.0
 40
7.250760569813184
100
AcDbArc
 50
61.46098968474908
 51
118.5390103152747
  0
ARC
  5
468
330
1F
100
AcDbEntity
  8
0
  6
Continuous
 62
     7
370
    13
100
AcDbCircle
 10
-345.4516057117485
 20
-953.1866096053976
 30
0.0
 40
27.68150449800657
100
AcDbArc
 50
75.50575515790955
 51
90.0
  0
ARC
  5
469
330
1F
100
AcDbEntity
  8
0
  6
Continuous
 62
     7
370
    13
100
AcDbCircle
 10
-345.4516057117485
 20
-907.8236006093829
 30
0.0
 40
27.681504498008
100
AcDbArc
 50
270.0
 51
284.4942448420899
  0
ARC
  5
46A
330
1F
100
AcDbEntity
  8
0
  6
Continuous
 62
     7
370
    13
100
AcDbCircle
 10
-335.0593008663345
 20
-928.2543445375776
 30
0.0
 40
7.250760569814147
100
AcDbArc
 50
241.4609896847266
 51
298.5390103152529
  0
ARC
  5
46B
330
1F
100
AcDbEntity
  8
0
  6
Continuous
 62
     7
370
    13
100
AcDbCircle
 10
-333.0023992898405
 20
-940.705105107391
 30
0.0
 40
5.200000000000093
100
AcDbArc
 50
34.56541597134799
 51
90.0
  0
ARC
  5
46C
330
1F
100
AcDbEntity
  8
0
  6
Continuous
 62
     7
370
    13
100
AcDbCircle
 10
-320.4008121336556
 20
-946.3051051073909
 30
0.0
 40
1.999999999999135
100
AcDbArc
 50
214.5654159713326
 51
270.0
  0
ARC
  5
46D
330
1F
100
AcDbEntity
  8
0
  6
Continuous
 62
     7
370
    13
100
AcDbCircle
 10
-370.5023992898405
 20
-946.3051051073909
 30
0.0
 40
2.0
100
AcDbArc
 50
270.0
 51
325.4345840286859
  0
ARC
  5
46E
330
1F
100
AcDbEntity
  8
0
  6
Continuous
 62
     7
370
    13
100
AcDbCircle
 10
-357.9008121336556
 20
-940.705105107391
 30
0.0
 40
5.200000000000102
100
AcDbArc
 50
90.0
 51
145.4345840286393
  0
ARC
  5
46F
330
1F
100
AcDbEntity
  8
0
  6
Continuous
 62
     7
370
    13
100
AcDbCircle
 10
-355.8439105571615
 20
-928.2543445375776
 30
0.0
 40
7.250760569814147
100
AcDbArc
 50
241.4609896847266
 51
298.5390103152734
  0
ARC
  5
470
330
1F
100
AcDbEntity
  8
0
  6
Continuous
 62
     7
370
    13
100
AcDbCircle
 10
-345.4516057117485
 20
-907.8236006093829
 30
0.0
 40
27.68150449800733
100
AcDbArc
 50
255.5057551579119
 51
270.0
  0
ARC
  5
471
330
1F
100
AcDbEntity
  8
0
  6
Continuous
 62
     7
370
    13
100
AcDbCircle
 10
-345.4516057117485
 20
-953.1866096053976
 30
0.0
 40
27.68150449800686
100
AcDbArc
 50
90.0
 51
104.4942448420886
  0
ARC
  5
472
330
1F
100
AcDbEntity
  8
0
  6
Continuous
 62
     7
370
    13
100
AcDbCircle
 10
-355.8439105571615
 20
-932.7558656772036
 30
0.0
 40
7.250760569813847
100
AcDbArc
 50
61.46098968472534
 51
118.5390103152715
  0
ARC
  5
473
330
1F
100
AcDbEntity
  8
0
  6
Continuous
 62
     7
370
    13
100
AcDbCircle
 10
-355.8439105571615
 20
-916.2543445375776
 30
0.0
 40
7.250760569814147
100
AcDbArc
 50
241.4609896847266
 51
298.5390103152734
  0
ARC
  5
474
330
1F
100
AcDbEntity
  8
0
  6
Continuous
 62
     7
370
    13
100
AcDbCircle
 10
-345.4516057117485
 20
-895.8236006093829
 30
0.0
 40
27.68150449800733
100
AcDbArc
 50
255.5057551579119
 51
270.0
  0
ARC
  5
475
330
1F
100
AcDbEntity
  8
0
  6
Continuous
 62
     7
370
    13
100
AcDbCircle
 10
266.1957600146175
 20
-895.8236006093829
 30
0.0
 40
27.681504498008
100
AcDbArc
 50
270.0
 51
284.4942448420817
  0
ARC
  5
476
330
1F
100
AcDbEntity
  8
0
  6
Continuous
 62
     7
370
    13
100
AcDbCircle
 10
276.5880648600278
 20
-916.2543445375776
 30
0.0
 40
7.250760569814364
100
AcDbArc
 50
241.4609896847234
 51
298.5390103152575
  0
ARC
  5
477
330
1F
100
AcDbEntity
  8
0
  6
Continuous
 62
     7
370
    13
100
AcDbCircle
 10
276.5880648600278
 20
-932.7558656772036
 30
0.0
 40
7.25076056981351
100
AcDbArc
 50
61.46098968474436
 51
118.5390103152778
  0
ARC
  5
478
330
1F
100
AcDbEntity
  8
0
  6
Continuous
 62
     7
370
    13
100
AcDbCircle
 10
266.1957600146175
 20
-953.1866096053976
 30
0.0
 40
27.68150449800554
100
AcDbArc
 50
75.50575515791775
 51
90.0
  0
ARC
  5
479
330
1F
100
AcDbEntity
  8
0
  6
Continuous
 62
     7
370
    13
100
AcDbCircle
 10
266.1957600146175
 20
-907.8236006093829
 30
0.0
 40
27.681504498008
100
AcDbArc
 50
270.0
 51
284.4942448420817
  0
ARC
  5
47A
330
1F
100
AcDbEntity
  8
0
  6
Continuous
 62
     7
370
    13
100
AcDbCircle
 10
276.5880648600278
 20
-928.2543445375776
 30
0.0
 40
7.250760569814364
100
AcDbArc
 50
241.4609896847234
 51
298.5390103152575
  0
ARC
  5
47B
330
1F
100
AcDbEntity
  8
0
  6
Continuous
 62
     7
370
    13
100
AcDbCircle
 10
278.6449664365214
 20
-940.705105107391
 30
0.0
 40
5.199999999999532
100
AcDbArc
 50
34.56541597135225
 51
90.0
  0
ARC
  5
47C
330
1F
100
AcDbEntity
  8
0
  6
Continuous
 62
     7
370
    13
100
AcDbCircle
 10
291.2465535927067
 20
-946.3051051073909
 30
0.0
 40
1.999999999998386
100
AcDbArc
 50
214.5654159713474
 51
270.0
  0
ARC
  5
47D
330
1F
100
AcDbEntity
  8
0
  6
Continuous
 62
     7
370
    13
100
AcDbCircle
 10
241.1449664365214
 20
-946.3051051073909
 30
0.0
 40
2.0
100
AcDbArc
 50
270.0
 51
325.4345840287191
  0
ARC
  5
47E
330
1F
100
AcDbEntity
  8
0
  6
Continuous
 62
     7
370
    13
100
AcDbCircle
 10
253.7465535927067
 20
-940.705105107391
 30
0.0
 40
5.200000000000102
100
AcDbArc
 50
90.0
 51
145.4345840286222
  0
ARC
  5
47F
330
1F
100
AcDbEntity
  8
0
  6
Continuous
 62
     7
370
    13
100
AcDbCircle
 10
255.8034551692003
 20
-928.2543445375776
 30
0.0
 40
7.250760569811757
100
AcDbArc
 50
241.4609896847614
 51
298.5390103152607
  0
ARC
  5
480
330
1F
100
AcDbEntity
  8
0
  6
Continuous
 62
     7
370
    13
100
AcDbCircle
 10
266.1957600146175
 20
-907.8236006093829
 30
0.0
 40
27.68150449800881
100
AcDbArc
 50
255.5057551579001
 51
270.0
  0
ARC
  5
481
330
1F
100
AcDbEntity
  8
0
  6
Continuous
 62
     7
370
    13
100
AcDbCircle
 10
266.1957600146175
 20
-953.1866096053976
 30
0.0
 40
27.68150449800686
100
AcDbArc
 50
90.0
 51
104.4942448421005
  0
ARC
  5
482
330
1F
100
AcDbEntity
  8
0
  6
Continuous
 62
     7
370
    13
100
AcDbCircle
 10
255.8034551692003
 20
-932.7558656772036
 30
0.0
 40
7.250760569812979
100
AcDbArc
 50
61.46098968473798
 51
118.5390103152367
  0
ARC
  5
483
330
1F
100
AcDbEntity
  8
0
  6
Continuous
 62
     7
370
    13
100
AcDbCircle
 10
255.8034551692003
 20
-916.2543445375776
 30
0.0
 40
7.250760569811757
100
AcDbArc
 50
241.4609896847614
 51
298.5390103152607
  0
ARC
  5
484
330
1F
100
AcDbEntity
  8
0
  6
Continuous
 62
     7
370
    13
100
AcDbCircle
 10
266.1957600146175
 20
-895.8236006093829
 30
0.0
 40
27.68150449800881
100
AcDbArc
 50
255.5057551579001
 51
270.0
  0
ARC
  5
485
330
1F
100
AcDbEntity
  8
0
  6
Continuous
 62
     7
370
    13
100
AcDbCircle
 10
266.1957600146175
 20
-865.7204954165637
 30
0.0
 40
20.78460969082656
100
AcDbArc
 50
250.5287793655137
 51
289.4712206344886
  0
ARC
  5
486
330
1F
100
AcDbEntity
  8
0
  6
Continuous
 62
     7
370
    13
100
AcDbCircle
 10
255.7498552863985
 20
-880.706991773562
 30
0.0
 40
5.798361077008381
100
AcDbArc
 50
239.9999999999922
 51
307.3492314126738
  0
ARC
  5
487
330
1F
100
AcDbEntity
  8
0
  6
Continuous
 62
     7
370
    13
100
AcDbCircle
 10
276.6416647428355
 20
-880.7069917735598
 30
0.0
 40
5.798361077009932
100
AcDbArc
 50
232.650768587353
 51
299.9999999999819
  0
ARC
  5
488
330
1F
100
AcDbEntity
  8
0
  6
Continuous
 62
     7
370
    13
100
AcDbCircle
 10
266.1957600146175
 20
-897.2897147982177
 30
0.0
 40
20.78460969082665
100
AcDbArc
 50
70.52877936551121
 51
109.4712206344864
  0
ARC
  5
489
330
1F
100
AcDbEntity
  8
0
  6
Continuous
 62
     7
370
    13
100
AcDbCircle
 10
255.7498552863985
 20
-882.3032184412217
 30
0.0
 40
5.7983610770109
100
AcDbArc
 50
52.65076858733774
 51
119.9999999999972
  0
ARC
  5
48A
330
1F
100
AcDbEntity
  8
0
  6
Continuous
 62
     7
370
    13
100
AcDbCircle
 10
276.6416647428355
 20
-882.3032184412217
 30
0.0
 40
5.798361077009342
100
AcDbArc
 50
60.00000000001838
 51
127.349231412648
  0
ARC
  5
48B
330
1F
100
AcDbEntity
  8
0
  6
Continuous
 62
     7
370
    13
100
AcDbCircle
 10
-129.7840374498455
 20
-895.8236006093829
 30
0.0
 40
27.68150449800705
100
AcDbArc
 50
255.5057551579142
 51
270.0
  0
ARC
  5
48C
330
1F
100
AcDbEntity
  8
0
  6
Continuous
 62
     7
370
    13
100
AcDbCircle
 10
-140.1763422952574
 20
-916.2543445375776
 30
0.0
 40
7.250760569814147
100
AcDbArc
 50
241.4609896847266
 51
298.5390103152734
  0
ARC
  5
48D
330
1F
100
AcDbEntity
  8
0
  6
Continuous
 62
     7
370
    13
100
AcDbCircle
 10
-140.1763422952574
 20
-932.7558656772036
 30
0.0
 40
7.250760569813847
100
AcDbArc
 50
61.46098968472534
 51
118.5390103152715
  0
ARC
  5
48E
330
1F
100
AcDbEntity
  8
0
  6
Continuous
 62
     7
370
    13
100
AcDbCircle
 10
-129.7840374498455
 20
-953.1866096053976
 30
0.0
 40
27.68150449800686
100
AcDbArc
 50
90.0
 51
104.4942448420864
  0
ARC
  5
48F
330
1F
100
AcDbEntity
  8
0
  6
Continuous
 62
     7
370
    13
100
AcDbCircle
 10
-129.7840374498455
 20
-907.8236006093829
 30
0.0
 40
27.68150449800705
100
AcDbArc
 50
255.5057551579142
 51
270.0
  0
ARC
  5
490
330
1F
100
AcDbEntity
  8
0
  6
Continuous
 62
     7
370
    13
100
AcDbCircle
 10
-140.1763422952574
 20
-928.2543445375776
 30
0.0
 40
7.250760569814147
100
AcDbArc
 50
241.4609896847266
 51
298.5390103152734
  0
ARC
  5
491
330
1F
100
AcDbEntity
  8
0
  6
Continuous
 62
     7
370
    13
100
AcDbCircle
 10
-142.2332438717515
 20
-940.705105107391
 30
0.0
 40
5.200000000000102
100
AcDbArc
 50
90.0
 51
145.4345840286463
  0
ARC
  5
492
330
1F
100
AcDbEntity
  8
0
  6
Continuous
 62
     7
370
    13
100
AcDbCircle
 10
-154.8348310279364
 20
-946.3051051073909
 30
0.0
 40
2.0
100
AcDbArc
 50
270.0
 51
325.4345840286674
  0
ARC
  5
493
330
1F
100
AcDbEntity
  8
0
  6
Continuous
 62
     7
370
    13
100
AcDbCircle
 10
-104.7332438717515
 20
-946.3051051073909
 30
0.0
 40
2.000000000000071
100
AcDbArc
 50
214.5654159713141
 51
270.0
  0
ARC
  5
494
330
1F
100
AcDbEntity
  8
0
  6
Continuous
 62
     7
370
    13
100
AcDbCircle
 10
-117.3348310279364
 20
-940.705105107391
 30
0.0
 40
5.199999999999157
100
AcDbArc
 50
34.56541597135509
 51
90.0
  0
ARC
  5
495
330
1F
100
AcDbEntity
  8
0
  6
Continuous
 62
     7
370
    13
100
AcDbCircle
 10
-119.3917326044304
 20
-928.2543445375776
 30
0.0
 40
7.250760569814147
100
AcDbArc
 50
241.4609896847266
 51
298.5390103152529
  0
ARC
  5
496
330
1F
100
AcDbEntity
  8
0
  6
Continuous
 62
     7
370
    13
100
AcDbCircle
 10
-129.7840374498455
 20
-907.8236006093829
 30
0.0
 40
27.681504498008
100
AcDbArc
 50
270.0
 51
284.4942448420922
  0
ARC
  5
497
330
1F
100
AcDbEntity
  8
0
  6
Continuous
 62
     7
370
    13
100
AcDbCircle
 10
-129.7840374498455
 20
-953.1866096053976
 30
0.0
 40
27.68150449800685
100
AcDbArc
 50
75.50575515790727
 51
90.0
  0
ARC
  5
498
330
1F
100
AcDbEntity
  8
0
  6
Continuous
 62
     7
370
    13
100
AcDbCircle
 10
-119.3917326044304
 20
-932.7558656772036
 30
0.0
 40
7.250760569813184
100
AcDbArc
 50
61.46098968474908
 51
118.5390103152747
  0
ARC
  5
499
330
1F
100
AcDbEntity
  8
0
  6
Continuous
 62
     7
370
    13
100
AcDbCircle
 10
-119.3917326044304
 20
-916.2543445375776
 30
0.0
 40
7.250760569814147
100
AcDbArc
 50
241.4609896847266
 51
298.5390103152529
  0
ARC
  5
49A
330
1F
100
AcDbEntity
  8
0
  6
Continuous
 62
     7
370
    13
100
AcDbCircle
 10
-129.7840374498455
 20
-895.8236006093829
 30
0.0
 40
27.681504498008
100
AcDbArc
 50
270.0
 51
284.4942448420922
  0
ARC
  5
49B
330
1F
100
AcDbEntity
  8
0
  6
Continuous
 62
     7
370
    13
100
AcDbCircle
 10
-129.7840374498464
 20
-865.7204954165637
 30
0.0
 40
20.78460969082694
100
AcDbArc
 50
250.5287793655108
 51
289.4712206344915
  0
ARC
  5
49C
330
1F
100
AcDbEntity
  8
0
  6
Continuous
 62
     7
370
    13
100
AcDbCircle
 10
-119.3381327216284
 20
-880.706991773562
 30
0.0
 40
5.798361077007571
100
AcDbArc
 50
232.6507685873494
 51
300.0000000000254
  0
ARC
  5
49D
330
1F
100
AcDbEntity
  8
0
  6
Continuous
 62
     7
370
    13
100
AcDbCircle
 10
-140.2299421780644
 20
-880.7069917735598
 30
0.0
 40
5.798361077009293
100
AcDbArc
 50
240.0000000000181
 51
307.3492314126452
  0
ARC
  5
49E
330
1F
100
AcDbEntity
  8
0
  6
Continuous
 62
     7
370
    13
100
AcDbCircle
 10
-129.7840374498464
 20
-897.2897147982177
 30
0.0
 40
20.78460969082703
100
AcDbArc
 50
70.52877936550824
 51
109.4712206344894
  0
ARC
  5
49F
330
1F
100
AcDbEntity
  8
0
  6
Continuous
 62
     7
370
    13
100
AcDbCircle
 10
-119.3381327216284
 20
-882.3032184412217
 30
0.0
 40
5.798361077011275
100
AcDbArc
 50
59.9999999999853
 51
127.349231412639
  0
ARC
  5
4A0
330
1F
100
AcDbEntity
  8
0
  6
Continuous
 62
     7
370
    13
100
AcDbCircle
 10
-140.2299421780644
 20
-882.3032184412217
 30
0.0
 40
5.798361077009659
100
AcDbArc
 50
52.65076858735382
 51
119.9999999999816
  0
ARC
  5
4A1
330
1F
100
AcDbEntity
  8
0
  6
Continuous
 62
     7
370
    13
100
AcDbCircle
 10
267.7341193406655
 20
-228.2981252411726
 30
0.0
 40
1.599999999999011
100
AcDbArc
 50
88.56790381581135
 51
178.5679038158537
  0
ARC
  5
4A2
330
1F
100
AcDbEntity
  8
0
  6
Continuous
 62
     7
370
    13
100
AcDbCircle
 10
299.5241864966065
 20
-229.0928769200707
 30
0.0
 40
1.600000000002165
100
AcDbArc
 50
358.5679038158549
 51
88.56790381577983
  0
ARC
  5
4A3
330
1F
100
AcDbEntity
  8
0
  6
Continuous
 62
     7
370
    13
100
AcDbCircle
 10
-442.3158147931285
 20
-210.5468768878477
 30
0.0
 40
1.599999999998988
100
AcDbArc
 50
88.5679038158439
 51
178.5679038158773
  0
ARC
  5
4A4
330
1F
100
AcDbEntity
  8
0
  6
Continuous
 62
     7
370
    13
100
AcDbCircle
 10
-135.6148234902935
 20
-218.2144016704106
 30
0.0
 40
1.600000000001966
100
AcDbArc
 50
358.567903815814
 51
88.56790381570634
  0
LINE
  5
4A5
330
1F
100
AcDbEntity
  8
0
  6
Continuous
 62
     7
370
    13
100
AcDbLine
 10
-102.5602268943694
 20
-345.4802604153631
 30
0.0
 11
-102.5602268943694
 21
-413.3774370103398
 31
0.0
  0
LINE
  5
4A6
330
1F
100
AcDbEntity
  8
0
  6
Continuous
 62
     7
370
    13
100
AcDbLine
 10
-102.5602268943694
 20
-519.3774370103398
 30
0.0
 11
-102.5602268943694
 21
-751.5051051073907
 31
0.0
  0
LINE
  5
4A7
330
1F
100
AcDbEntity
  8
0
  6
Continuous
 62
     7
370
    13
100
AcDbLine
 10
-129.7840374498464
 20
-344.799665151477
 30
0.0
 11
-129.7840374498464
 21
-426.3774370103391
 31
0.0
  0
LINE
  5
4A8
330
1F
100
AcDbEntity
  8
0
  6
Continuous
 62
     7
370
    13
100
AcDbLine
 10
-129.7840374498464
 20
-506.3774370103378
 30
0.0
 11
-129.7840374498464
 21
-751.5051051073907
 31
0.0
  0
LINE
  5
4A9
330
1F
100
AcDbEntity
  8
0
  6
Continuous
 62
     7
370
    13
100
AcDbLine
 10
-157.0327747914293
 20
-506.3774370103374
 30
0.0
 11
-157.0327747914293
 21
-751.5051051073907
 31
0.0
  0
LINE
  5
4AA
330
1F
100
AcDbEntity
  8
0
  6
DASHED2
 62
     4
370
    13
100
AcDbLine
 10
-371.9681100063005
 20
270.9491609824993
 30
0.0
 11
-347.2193726647715
 21
246.2004236409693
 31
0.0
  0
LINE
  5
4AB
330
1F
100
AcDbEntity
  8
0
  6
DASHED2
 62
     4
370
    13
100
AcDbLine
 10
-318.9351014173085
 20
270.9491609824984
 30
0.0
 11
-343.6838387588396
 21
246.2004236409693
 31
0.0
  0
LINE
  5
4AC
330
1F
100
AcDbEntity
  8
0
  6
DASHED2
 62
     4
370
    13
100
AcDbLine
 10
-371.9681100063005
 20
274.4846948884303
 30
0.0
 11
-347.2193726647704
 21
299.2334322299603
 31
0.0
  0
LINE
  5
4AD
330
1F
100
AcDbEntity
  8
0
  6
DASHED2
 62
     4
370
    13
100
AcDbLine
 10
267.9635269675828
 20
514.9010004917964
 30
0.0
 11
292.7122643091125
 21
490.1522631502673
 31
0.0
  0
LINE
  5
4AE
330
1F
100
AcDbEntity
  8
0
  6
DASHED2
 62
     4
370
    13
100
AcDbLine
 10
292.7122643091125
 20
486.6167292443345
 30
0.0
 11
267.9635269675828
 21
461.8679919028043
 31
0.0
  0
LINE
  5
4AF
330
1F
100
AcDbEntity
  8
0
  6
DASHED2
 62
     4
370
    13
100
AcDbLine
 10
239.6792557201215
 20
486.6167292443354
 30
0.0
 11
264.4279930616485
 21
461.8679919028043
 31
0.0
  0
LINE
  5
4B0
330
1F
100
AcDbEntity
  8
0
  6
DASHED2
 62
     4
370
    13
100
AcDbLine
 10
-156.3005417443405
 20
882.5965267088054
 30
0.0
 11
-131.5518044028136
 21
857.8477893672743
 31
0.0
  0
LINE
  5
4B1
330
1F
100
AcDbEntity
  8
0
  6
DASHED2
 62
     4
370
    13
100
AcDbLine
 10
-156.3005417443405
 20
886.1320606147374
 30
0.0
 11
-131.5518044028115
 21
910.8807979562653
 31
0.0
  0
LINE
  5
4B2
330
1F
100
AcDbEntity
  8
0
  6
DASHED2
 62
     4
370
    13
100
AcDbLine
 10
-128.0162704968805
 20
910.8807979562653
 30
0.0
 11
-103.2675331553505
 21
886.1320606147374
 31
0.0
  0
LINE
  5
4B3
330
1F
100
AcDbEntity
  8
0
  6
DASHED2
 62
     4
370
    13
100
AcDbLine
 10
264.4279930616503
 20
514.9010004917964
 30
0.0
 11
239.6792557201215
 21
490.1522631502673
 31
0.0
  0
LINE
  5
4B4
330
1F
100
AcDbEntity
  8
0
  6
DASHED2
 62
     4
370
    13
100
AcDbLine
 10
-318.9351014173085
 20
274.4846948884303
 30
0.0
 11
-343.6838387588396
 21
299.2334322299603
 31
0.0
  0
LINE
  5
4B5
330
1F
100
AcDbEntity
  8
0
  6
DASHED2
 62
     4
370
    13
100
AcDbLine
 10
-128.0162704968805
 20
857.8477893672743
 30
0.0
 11
-103.2675331553505
 21
882.5965267088045
 31
0.0
  0
ARC
  5
4B6
330
1F
100
AcDbEntity
  8
0
  6
DASHED2
 62
     4
370
    13
100
AcDbCircle
 10
-370.2003430533346
 20
272.7169279354653
 30
0.0
 40
2.499999999998814
100
AcDbArc
 50
135.0000000000148
 51
225.0
  0
ARC
  5
4B7
330
1F
100
AcDbEntity
  8
0
  6
DASHED2
 62
     4
370
    13
100
AcDbCircle
 10
-345.4516057118044
 20
297.4656652769943
 30
0.0
 40
2.499999999998654
100
AcDbArc
 50
45.00000000001842
 51
135.0
  0
ARC
  5
4B8
330
1F
100
AcDbEntity
  8
0
  6
DASHED2
 62
     4
370
    13
100
AcDbCircle
 10
-320.7028683702754
 20
272.7169279354653
 30
0.0
 40
2.500000000000744
100
AcDbArc
 50
315.0
 51
44.99999999997053
  0
ARC
  5
4B9
330
1F
100
AcDbEntity
  8
0
  6
DASHED2
 62
     4
370
    13
100
AcDbCircle
 10
-345.4516057118044
 20
247.9681905939353
 30
0.0
 40
2.500000000000262
100
AcDbArc
 50
224.9999999999816
 51
314.9999999999816
  0
ARC
  5
4BA
330
1F
100
AcDbEntity
  8
0
  6
DASHED2
 62
     4
370
    13
100
AcDbCircle
 10
266.1957600146175
 20
463.6357588557723
 30
0.0
 40
2.500000000002994
100
AcDbArc
 50
224.9999999999852
 51
314.9999999999558
  0
ARC
  5
4BB
330
1F
100
AcDbEntity
  8
0
  6
DASHED2
 62
     4
370
    13
100
AcDbCircle
 10
290.9444973561444
 20
488.3844961973014
 30
0.0
 40
2.500000000001548
100
AcDbArc
 50
315.0000000000184
 51
44.99999999996682
  0
ARC
  5
4BC
330
1F
100
AcDbEntity
  8
0
  6
DASHED2
 62
     4
370
    13
100
AcDbCircle
 10
266.1957600146175
 20
513.1332335388304
 30
0.0
 40
2.499999999998975
100
AcDbArc
 50
45.00000000001105
 51
135.0000000000184
  0
ARC
  5
4BD
330
1F
100
AcDbEntity
  8
0
  6
DASHED2
 62
     4
370
    13
100
AcDbCircle
 10
241.4470226730864
 20
488.3844961973014
 30
0.0
 40
2.499999999998654
100
AcDbArc
 50
134.9999999999816
 51
225.0000000000184
  0
ARC
  5
4BE
330
1F
100
AcDbEntity
  8
0
  6
DASHED2
 62
     4
370
    13
100
AcDbCircle
 10
-129.7840374498455
 20
859.6155563202424
 30
0.0
 40
2.500000000002351
100
AcDbArc
 50
225.0
 51
314.9999999999521
  0
ARC
  5
4BF
330
1F
100
AcDbEntity
  8
0
  6
DASHED2
 62
     4
370
    13
100
AcDbCircle
 10
-105.0353001083186
 20
884.3642936617694
 30
0.0
 40
2.5000000000001
100
AcDbArc
 50
315.0000000000516
 51
45.0
  0
ARC
  5
4C0
330
1F
100
AcDbEntity
  8
0
  6
DASHED2
 62
     4
370
    13
100
AcDbCircle
 10
-129.7840374498455
 20
909.1130310033004
 30
0.0
 40
2.49999999999801
100
AcDbArc
 50
44.99999999999632
 51
135.0000000000184
  0
ARC
  5
4C1
330
1F
100
AcDbEntity
  8
0
  6
DASHED2
 62
     4
370
    13
100
AcDbCircle
 10
-154.5327747913755
 20
884.3642936617703
 30
0.0
 40
2.499999999999618
100
AcDbArc
 50
134.9999999999669
 51
224.9999999999963
  0
LINE
  5
4C2
330
1F
100
AcDbEntity
  8
0
  6
Continuous
 62
     4
370
    13
100
AcDbLine
 10
-263.4495032511895
 20
-370.7171677036713
 30
0.0
 11
-262.7426173373444
 21
-370.7348398515176
 31
0.0
  0
LINE
  5
4C3
330
1F
100
AcDbEntity
  8
0
  6
Continuous
 62
     4
370
    13
100
AcDbLine
 10
-265.4488785440035
 20
-450.6921794163211
 30
0.0
 11
-264.7419926301575
 21
-450.7098515641671
 31
0.0
  0
LINE
  5
4C4
330
1F
100
AcDbEntity
  8
0
  6
Continuous
 62
     4
370
    13
100
AcDbLine
 10
-263.4495032511895
 20
-370.7171677036713
 30
0.0
 11
-265.4488785440035
 21
-450.6921794163211
 31
0.0
  0
LINE
  5
4C5
330
1F
100
AcDbEntity
  8
0
  6
Continuous
 62
     4
370
    13
100
AcDbLine
 10
-314.6961318046094
 20
-370.1362207056686
 30
0.0
 11
-316.7454914797445
 21
-372.0856116161633
 31
0.0
  0
LINE
  5
4C6
330
1F
100
AcDbEntity
  8
0
  6
Continuous
 62
     4
370
    13
100
AcDbLine
 10
-314.6961318046094
 20
-370.1362207056686
 30
0.0
 11
-313.3024547109765
 21
-370.1710626330093
 31
0.0
  0
LINE
  5
4C7
330
1F
100
AcDbEntity
  8
0
  6
Continuous
 62
     4
370
    13
100
AcDbLine
 10
-318.6099089402965
 20
-446.6623100382092
 30
0.0
 11
-316.6605180297995
 21
-448.7116697133458
 31
0.0
  0
LINE
  5
4C8
330
1F
100
AcDbEntity
  8
0
  6
Continuous
 62
     4
370
    13
100
AcDbLine
 10
-316.6605180297995
 20
-448.7116697133458
 30
0.0
 11
-315.2668409361665
 21
-448.7465116406877
 31
0.0
  0
LINE
  5
4C9
330
1F
100
AcDbEntity
  8
0
  6
Continuous
 62
     4
370
    13
100
AcDbLine
 10
-316.7454914797445
 20
-372.0856116161633
 30
0.0
 11
-318.6099089402965
 21
-446.6623100382092
 31
0.0
  0
LINE
  5
4CA
330
1F
100
AcDbEntity
  8
0
  6
Continuous
 62
     4
370
    13
100
AcDbLine
 10
-313.2974562727445
 20
-369.9711251037277
 30
0.0
 11
-315.2718393743985
 21
-448.9464491699682
 31
0.0
  0
LINE
  5
4CB
330
1F
100
AcDbEntity
  8
0
  6
Continuous
 62
     4
370
    13
100
AcDbLine
 10
-313.2974562727445
 20
-369.9711251037277
 30
0.0
 11
-263.4619993467695
 21
-371.2170115268755
 31
0.0
  0
LINE
  5
4CC
330
1F
100
AcDbEntity
  8
0
  6
Continuous
 62
     4
370
    13
100
AcDbLine
 10
-315.2718393743985
 20
-448.9464491699682
 30
0.0
 11
-265.4363824484235
 21
-450.1923355931169
 31
0.0
  0
LINE
  5
4CD
330
1F
100
AcDbEntity
  8
0
  6
Continuous
 62
     4
370
    13
100
AcDbLine
 10
289.3035560356084
 20
1048.935398019263
 30
0.0
 11
138.3934075213015
 21
1082.836491571004
 31
0.0
  0
LINE
  5
4CE
330
1F
100
AcDbEntity
  8
0
  6
Continuous
 62
     4
370
    13
100
AcDbLine
 10
138.3934075213015
 20
1082.836491571004
 30
0.0
 11
236.5877498741283
 21
975.9915527862981
 31
0.0
  0
LINE
  5
4CF
330
1F
100
AcDbEntity
  8
0
  6
Continuous
 62
     4
370
    13
100
AcDbLine
 10
386.5905476846287
 20
852.9158231317474
 30
0.0
 11
370.9597237061366
 21
841.6195789542894
 31
0.0
  0
LINE
  5
4D0
330
1F
100
AcDbEntity
  8
0
  6
Continuous
 62
     4
370
    13
100
AcDbLine
 10
370.9597237061366
 20
841.6195789542894
 30
0.0
 11
477.8046624908447
 21
743.4252366014625
 31
0.0
  0
LINE
  5
4D1
330
1F
100
AcDbEntity
  8
0
  6
Continuous
 62
     4
370
    13
100
AcDbLine
 10
477.8046624908447
 20
743.4252366014625
 30
0.0
 11
443.9035689391035
 21
894.3353851157685
 31
0.0
  0
LINE
  5
4D2
330
1F
100
AcDbEntity
  8
0
  6
Continuous
 62
     4
370
    13
100
AcDbLine
 10
443.9035689391035
 20
894.3353851157685
 30
0.0
 11
428.2727449606105
 21
883.0391409383074
 31
0.0
  0
LINE
  5
4D3
330
1F
100
AcDbEntity
  8
0
  6
Continuous
 62
     4
370
    13
100
AcDbLine
 10
278.0073118581486
 20
1033.30457404077
 30
0.0
 11
289.3035560356084
 21
1048.935398019263
 31
0.0
  0
LINE
  5
4D4
330
1F
100
AcDbEntity
  8
0
  6
Continuous
 62
     4
370
    13
100
AcDbLine
 10
236.5877498741283
 20
975.9915527862981
 30
0.0
 11
247.8839940515877
 21
991.6223767647894
 31
0.0
  0
ARC
  5
4D5
330
1F
100
AcDbEntity
  8
0
  6
Continuous
 62
     4
370
    13
100
AcDbCircle
 10
-113.5958196271486
 20
491.4360094530123
 30
0.0
 40
668.5615557878629
100
AcDbArc
 50
35.85527276096641
 51
54.14472723903339
  0
ARC
  5
4D6
330
1F
100
AcDbEntity
  8
0
  6
Continuous
 62
     4
370
    13
100
AcDbCircle
 10
-113.5958196271395
 20
491.4360094530223
 30
0.0
 40
617.1337438041684
100
AcDbArc
 50
35.85527276096626
 51
54.14472723903353
  0
TEXT
  5
4D7
330
1F
100
AcDbEntity
  8
0
 62
     2
100
AcDbText
 10
496.4357891185831
 20
775.8563895669275
 30
0.0
 40
50.0
  1
R
 50
315.0
 41
0.8250825082508264
  7
dcStyle0
 72
     5
 11
522.9522934130787
 21
749.339885272432
 31
0.0
100
AcDbText
  0
TEXT
  5
4D8
330
1F
100
AcDbEntity
  8
0
 62
     2
100
AcDbText
 10
146.7117932604941
 20
1125.943811390531
 30
0.0
 40
50.0
  1
L
 50
315.0000000000001
 41
0.9566326530612229
  7
dcStyle0
 72
     5
 11
173.2282975549896
 21
1099.427307096035
 31
0.0
100
AcDbText
  0
TEXT
  5
4D9
330
1F
100
AcDbEntity
  8
0
 62
     2
100
AcDbText
 10
420.0000000000001
 20
-1198.719233395221
 30
0.0
 40
40.0
  1
レスベヤシリーズ
 41
1.191489361702128
  7
dcStyle1
 72
     5
 11
740.0000000000001
 21
-1198.719233395221
 31
0.0
100
AcDbText
  0
TEXT
  5
4DA
330
1F
100
AcDbEntity
  8
0
 62
     2
100
AcDbText
 10
530.0000000000001
 20
-1298.719233395221
 30
0.0
 40
40.0
  1
GT10H
 41
0.5526315789473684
  7
dcStyle1
 72
     5
 11
630.0000000000001
 21
-1298.719233395221
 31
0.0
100
AcDbText
  0
TEXT
  5
4DB
330
1F
100
AcDbEntity
  8
0
 62
     2
100
AcDbText
 10
1640.0
 20
-1298.719233395221
 30
0.0
 40
40.0
  1
W_GT10H_S_030_4
 41
0.5526315789473685
  7
dcStyle1
 72
     5
 11
1940.0
 21
-1298.719233395221
 31
0.0
100
AcDbText
  0
TEXT
  5
4DC
330
1F
100
AcDbEntity
  8
0
 62
     2
100
AcDbText
 10
1215.0
 20
-1198.719233395221
 30
0.0
 40
40.0
  1
本体組立図  呼び幅　400 mm
 41
0.8005865102639298
  7
dcStyle1
 72
     5
 11
1735.0
 21
-1198.719233395221
 31
0.0
100
AcDbText
  0
TEXT
  5
4DD
330
1F
100
AcDbEntity
  8
0
 62
     2
100
AcDbText
 10
-147.4999999999997
 20
-1298.719233395221
 30
0.0
 40
40.0
  1
1/10
 41
0.5316455696202531
  7
dcStyle1
 72
     5
 11
-67.49999999999972
 21
-1298.719233395221
 31
0.0
100
AcDbText
  0
TEXT
  5
4DE
330
1F
100
AcDbEntity
  8
0
 62
     2
100
AcDbText
 10
-233.562748064812
 20
-1219.719233395221
 30
0.0
 40
31.99999999999999
  1
2020.5.1
 41
0.8736641221374046
  7
dcStyle1
 72
     5
 11
-59.16274806481206
 21
-1219.719233395221
 31
0.0
100
AcDbText
  0
TEXT
  5
4DF
330
1F
100
AcDbEntity
  8
0
 62
     2
100
AcDbText
 10
-1919.600000000021
 20
-1198.052566728555
 30
0.0
 40
31.99999999999999
  1
4
 41
0.6999999999999935
  7
dcStyle1
 72
     5
 11
-1900.400000000021
 21
-1198.052566728555
 31
0.0
100
AcDbText
  0
TEXT
  5
4E0
330
1F
100
AcDbEntity
  8
0
 62
     2
100
AcDbText
 10
-1813.167804474334
 20
-1199.694128688124
 30
0.0
 40
40.0
  1
脚スペーサ追加
 41
1.195121951219512
  7
dcStyle1
 72
     5
 11
-1533.167804474334
 21
-1199.694128688124
 31
0.0
100
AcDbText
  0
DIMENSION
  5
4E1
330
1F
100
AcDbEntity
  8
0
  6
Continuous
370
    13
100
AcDbDimension
280
     0
  2
*D1
 10
-483.3235605082601
 20
1273.259155779522
 30
0.0
 11
-748.4886034531504
 21
1008.094112834638
 31
0.0
 70
   160
 71
     8
 42
-1.0
 73
     0
 74
     0
 75
     0
  3
dc_Rotated
100
AcDbAlignedDimension
 13
-487.3744870901444
 23
216.6499105818514
 33
0.0
 14
-126.2485035439124
 24
916.1840988151653
 34
0.0
 50
44.99999999999926
100
AcDbRotatedDimension
1001
ACAD
1000
DSTYLE
1002
{
1070
   144
1040
1.0
1070
   274
1070
     4
1070
    41
1040
30.00001907348633
1070
    79
1070
     2
1070
   343
1005
F9
1070
   344
1005
F9
1070
   176
1070
     2
1070
   177
1070
     2
1070
   178
1070
     2
1070
   271
1070
     2
1070
    44
1040
10.0
1070
    42
1040
10.0
1070
   147
1040
10.00000000000008
1070
   173
1070
     1
1070
    77
1070
     3
1070
    73
1070
     0
1070
   172
1070
     1
1070
    74
1070
     0
1070
   283
1070
     0
1070
   340
1005
101
1070
   140
1040
40.0
1070
   284
1070
     8
1070
   288
1070
     1
1070
    78
1070
     8
1070
    90
1070
     1
1002
}
  0
INSERT
  5
4E3
330
1F
100
AcDbEntity
  8
0
  6
Continuous
100
AcDbBlockReference
  2
DA_DIMGROUP_0
 10
0.0
 20
0.0
 30
0.0
  0
DIMENSION
  5
4E4
330
1F
100
AcDbEntity
  8
0
  6
Continuous
370
    13
100
AcDbDimension
280
     0
  2
*D3
 10
65.55344492210952
 20
50.87924946709835
 30
0.0
 11
-189.44655507781
 21
50.87924946709835
 31
0.0
 70
   160
  1
R<>
 71
     8
 42
-1.0
 73
     0
 74
     0
 75
     0
  3
dc_Rotated
100
AcDbAlignedDimension
 13
-444.4465550777295
 23
173.7219785694354
 33
0.0
 14
65.55344492210952
 24
102.4099422803383
 34
0.0
100
AcDbRotatedDimension
1001
ACAD
1000
DSTYLE
1002
{
1070
   144
1040
1.0
1070
   274
1070
     4
1070
    41
1040
30.00001907348633
1070
    79
1070
     2
1070
   343
1005
F9
1070
   344
1005
F9
1070
   176
1070
     2
1070
   177
1070
     2
1070
   178
1070
     2
1070
   271
1070
     2
1070
    44
1040
10.0
1070
    42
1040
10.0
1070
   147
1040
10.0
1070
   173
1070
     1
1070
    77
1070
     3
1070
    73
1070
     0
1070
   172
1070
     1
1070
    74
1070
     0
1070
   283
1070
     0
1070
   340
1005
101
1070
   140
1040
40.0
1070
   284
1070
     8
1070
   288
1070
     1
1070
    78
1070
     8
1070
    90
1070
     1
1002
}
  0
DIMENSION
  5
4E5
330
1F
100
AcDbEntity
  8
0
  6
Continuous
370
    13
100
AcDbDimension
280
     0
  2
*D4
 10
-861.8309869618223
 20
760.8120379380301
 30
0.0
 11
-904.257393832945
 21
718.3856310669083
 31
0.0
 70
   160
 71
     8
 42
-1.0
 73
     0
 74
     0
 75
     0
  3
dc_Rotated
100
AcDbAlignedDimension
 13
-487.3744870901444
 23
216.6499105818514
 33
0.0
 14
-444.4465550777275
 24
343.4276060539253
 34
0.0
 50
44.99999999999928
100
AcDbRotatedDimension
1001
ACAD
1000
DSTYLE
1002
{
1070
   144
1040
1.0
1070
   274
1070
     4
1070
    41
1040
30.00001907348633
1070
    79
1070
     2
1070
   343
1005
F9
1070
   344
1005
F9
1070
   176
1070
     2
1070
   177
1070
     2
1070
   178
1070
     2
1070
   271
1070
     2
1070
    44
1040
10.0
1070
    42
1040
10.0
1070
   147
1040
9.99999999999992
1070
   173
1070
     1
1070
    77
1070
     3
1070
    73
1070
     0
1070
   172
1070
     1
1070
    74
1070
     0
1070
   283
1070
     0
1070
   340
1005
101
1070
   140
1040
40.0
1070
   284
1070
     8
1070
   288
1070
     1
1070
    78
1070
     8
1070
    90
1070
     1
1002
}
  0
DIMENSION
  5
4E6
330
1F
100
AcDbEntity
  8
0
  6
Continuous
370
    13
100
AcDbDimension
280
     0
  2
*D5
 10
-419.7478273639862
 20
1209.683422635246
 30
0.0
 11
-642.4864634377518
 21
986.9447865614864
 31
0.0
 70
   160
 71
     8
 42
-1.0
 73
     0
 74
     0
 75
     0
  3
dc_Rotated
100
AcDbAlignedDimension
 13
-444.4465550777275
 23
343.4276060539253
 33
0.0
 14
-126.2485035439124
 24
916.1840988151653
 34
0.0
 50
44.9999999999993
100
AcDbRotatedDimension
1001
ACAD
1000
DSTYLE
1002
{
1070
   144
1040
1.0
1070
   274
1070
     4
1070
    41
1040
30.00001907348633
1070
    79
1070
     2
1070
   343
1005
F9
1070
   344
1005
F9
1070
   176
1070
     2
1070
   177
1070
     2
1070
   178
1070
     2
1070
   271
1070
     2
1070
    44
1040
10.0
1070
    42
1040
10.0
1070
   147
1040
9.99999999999984
1070
   173
1070
     1
1070
    77
1070
     3
1070
    73
1070
     0
1070
   172
1070
     1
1070
    74
1070
     0
1070
   283
1070
     0
1070
   340
1005
101
1070
   140
1040
40.0
1070
   284
1070
     8
1070
   288
1070
     1
1070
    78
1070
     8
1070
    90
1070
     1
1002
}
  0
DIMENSION
  5
4E7
330
1F
100
AcDbEntity
  8
0
  6
Continuous
370
    13
100
AcDbDimension
280
     0
  2
*D6
 10
-134.4465550778905
 20
-34.82208635087159
 30
0.0
 11
-289.44655507781
 21
-34.82208635087159
 31
0.0
 70
   160
 71
     8
 42
-1.0
 73
     0
 74
     0
 75
     0
  3
dc_Rotated
100
AcDbAlignedDimension
 13
-444.4465550777295
 23
173.7219785694354
 33
0.0
 14
-134.4465550778905
 24
173.7219785693774
 34
0.0
100
AcDbRotatedDimension
1001
ACAD
1000
DSTYLE
1002
{
1070
   144
1040
1.0
1070
   274
1070
     4
1070
    41
1040
30.00001907348633
1070
    79
1070
     2
1070
   343
1005
F9
1070
   344
1005
F9
1070
   176
1070
     2
1070
   177
1070
     2
1070
   178
1070
     2
1070
   271
1070
     2
1070
    44
1040
10.0
1070
    42
1040
10.0
1070
   147
1040
10.0
1070
   173
1070
     1
1070
    77
1070
     3
1070
    73
1070
     0
1070
   172
1070
     1
1070
    74
1070
     0
1070
   283
1070
     0
1070
   340
1005
101
1070
   140
1040
40.0
1070
   284
1070
     8
1070
   288
1070
     1
1070
    78
1070
     8
1070
    90
1070
     1
1002
}
  0
INSERT
  5
4E8
330
1F
100
AcDbEntity
  8
0
  6
Continuous
100
AcDbBlockReference
  2
DC_IMAGEDIMGROUP_1
 10
0.0
 20
0.0
 30
0.0
  0
DIMENSION
  5
4E9
330
1F
100
AcDbEntity
  8
0
  6
Continuous
370
    13
100
AcDbDimension
280
     0
  2
*D8
 10
265.5534449221095
 20
-34.82208635087159
 30
0.0
 11
65.55344492210952
 21
-34.82208635087159
 31
0.0
 70
   160
 71
     8
 42
-1.0
 73
     0
 74
     0
 75
     0
  3
dc_Rotated
100
AcDbAlignedDimension
 13
-134.4465550778905
 23
173.7219785693774
 33
0.0
 14
265.5534449221095
 24
173.7219785693353
 34
0.0
100
AcDbRotatedDimension
1001
ACAD
1000
DSTYLE
1002
{
1070
   144
1040
1.0
1070
   274
1070
     4
1070
    41
1040
30.00001907348633
1070
    79
1070
     2
1070
   343
1005
F9
1070
   344
1005
F9
1070
   176
1070
     2
1070
   177
1070
     2
1070
   178
1070
     2
1070
   271
1070
     2
1070
    44
1040
10.0
1070
    42
1040
10.0
1070
   147
1040
10.0
1070
   173
1070
     1
1070
    77
1070
     3
1070
    73
1070
     0
1070
   172
1070
     1
1070
    74
1070
     0
1070
   283
1070
     0
1070
   340
1005
101
1070
   140
1040
40.0
1070
   284
1070
     8
1070
   288
1070
     1
1070
    78
1070
     8
1070
    90
1070
     1
1002
}
  0
INSERT
  5
4EA
330
1F
100
AcDbEntity
  8
0
  6
Continuous
100
AcDbBlockReference
  2
DC_GROUP_W_GT10H_S_030_4_1
 10
0.0
 20
0.0
 30
0.0
  0
DIMENSION
  5
4EB
330
1F
100
AcDbEntity
  8
0
  6
Continuous
370
    13
100
AcDbDimension
280
     0
  2
*D12
 10
-548.7446050820404
 20
-876.5051051073909
 30
0.0
 11
-548.7446050820404
 21
-914.0051051073909
 31
0.0
 70
   160
 71
     8
 42
-1.0
 73
     0
 74
     0
 75
     0
  3
dc_Rotated
100
AcDbAlignedDimension
 13
-458.4516057117535
 23
-951.5051051073908
 33
0.0
 14
-372.7003430533346
 24
-876.5051051073908
 34
0.0
 50
90.0
100
AcDbRotatedDimension
1001
ACAD
1000
DSTYLE
1002
{
1070
   144
1040
1.0
1070
   274
1070
     4
1070
    41
1040
30.00001907348633
1070
    79
1070
     2
1070
   343
1005
F9
1070
   344
1005
F9
1070
   176
1070
     2
1070
   177
1070
     2
1070
   178
1070
     2
1070
   271
1070
     2
1070
    44
1040
10.0
1070
    42
1040
10.0
1070
   147
1040
10.0
1070
   173
1070
     1
1070
    77
1070
     3
1070
    73
1070
     0
1070
   172
1070
     1
1070
    74
1070
     0
1070
   283
1070
     0
1070
   340
1005
101
1070
   140
1040
40.0
1070
   284
1070
     8
1070
   288
1070
     1
1070
    78
1070
     8
1070
    90
1070
     1
1002
}
  0
INSERT
  5
4EC
330
1F
100
AcDbEntity
  8
0
  6
Continuous
100
AcDbBlockReference
  2
DC_GROUP_W_GT10H_S_030_4_4
 10
0.0
 20
0.0
 30
0.0
  0
INSERT
  5
4ED
330
1F
100
AcDbEntity
  8
0
  6
Continuous
100
AcDbBlockReference
  2
DC_GROUP_W_GT10H_S_030_4_7
 10
0.0
 20
0.0
 30
0.0
  0
INSERT
  5
4EE
330
1F
100
AcDbEntity
  8
0
  6
Continuous
100
AcDbBlockReference
  2
DC_GROUP_W_GT10H_S_030_4_10
 10
0.0
 20
0.0
 30
0.0
  0
INSERT
  5
4EF
330
1F
100
AcDbEntity
  8
0
  6
Continuous
100
AcDbBlockReference
  2
DC_GROUP_W_GT10H_S_030_4_12
 10
0.0
 20
0.0
 30
0.0
  0
INSERT
  5
4F0
330
1F
100
AcDbEntity
  8
0
  6
Continuous
100
AcDbBlockReference
  2
DC_GROUP_W_GT10H_S_030_4_14
 10
0.0
 20
0.0
 30
0.0
  0
INSERT
  5
4F1
330
1F
100
AcDbEntity
  8
ZUWAKU
  6
Continuous
100
AcDbBlockReference
  2
DC_GROUP_W_GT10H_S_030_4_2
 10
0.0
 20
0.0
 30
0.0
  0
INSERT
  5
4F2
330
1F
100
AcDbEntity
  8
ZUWAKU
  6
Continuous
100
AcDbBlockReference
  2
DC_GROUP_W_GT10H_S_030_4_3
 10
0.0
 20
0.0
 30
0.0
  0
INSERT
  5
4F3
330
1F
100
AcDbEntity
  8
3
  6
Continuous
100
AcDbBlockReference
  2
DC_GROUP_W_GT10H_S_030_4_8
 10
0.0
 20
0.0
 30
0.0
  0
INSERT
  5
4F4
330
1F
100
AcDbEntity
  8
3
  6
Continuous
100
AcDbBlockReference
  2
DC_GROUP_W_GT10H_S_030_4_9
 10
0.0
 20
0.0
 30
0.0
  0
INSERT
  5
4F5
330
1F
100
AcDbEntity
  8
2
  6
Continuous
100
AcDbBlockReference
  2
DC_GROUP_W_GT10H_S_030_4_11
 10
0.0
 20
0.0
 30
0.0
  0
VIEWPORT
  5
B0
330
1B
100
AcDbEntity
 67
     1
  8
0
100
AcDbViewport
 10
0.0
 20
0.0
 30
0.0
 40
11820.0
 41
8107.684599628672
 68
     1
 69
     1
 12
0.0
 22
0.0
 13
0.0
 23
0.0
 14
0.5
 24
0.5
 15
0.0
 25
0.0
 16
0.0
 26
0.0
 36
1.0
 17
0.0
 27
0.0
 37
0.0
 42
50.0
 43
0.0
 44
0.0
 45
8107.684599628672
 50
0.0
 51
0.0
 72
   100
 90
   557152
  1

281
     0
 71
     1
 74
     0
110
0.0
120
0.0
130
0.0
111
1.0
121
0.0
131
0.0
112
0.0
122
1.0
132
0.0
 79
     0
146
0.0
170
     0
 61
     5
292
     1
282
     1
141
0.0
142
0.0
 63
   256
  0
ENDSEC
  0
SECTION
  2
OBJECTS
  0
DICTIONARY
  5
C
330
0
100
AcDbDictionary
281
     1
  3
ACAD_DETAILVIEWSTYLE
350
52A
  3
ACAD_GROUP
350
D
  3
ACAD_LAYOUT
350
1A
  3
ACAD_MATERIAL
350
43
  3
ACAD_MLEADERSTYLE
350
529
  3
ACAD_MLINESTYLE
350
17
  3
ACAD_PLOTSETTINGS
350
19
  3
ACAD_PLOTSTYLENAME
350
E
  3
ACAD_SCALELIST
350
47
  3
ACAD_SECTIONVIEWSTYLE
350
52B
  3
ACAD_TABLESTYLE
350
528
  3
ACAD_VISUALSTYLE
350
2A
  3
AcDbVariableDictionary
350
4F6
  0
SUN
  5
69
330
29
100
AcDbSun
 90
        1
290
     0
 63
     7
421
 16777215
 40
1.0
291
     1
 91
  2455826
 92
 54000000
292
     0
 70
     2
 71
   256
280
     1
  0
DICTIONARY
  5
52A
102
{ACAD_REACTORS
330
C
102
}
330
C
100
AcDbDictionary
281
     1
  0
DICTIONARY
  5
D
102
{ACAD_REACTORS
330
C
102
}
330
C
100
AcDbDictionary
281
     1
  0
DICTIONARY
  5
1A
102
{ACAD_REACTORS
330
C
102
}
330
C
100
AcDbDictionary
281
     1
  3
Layout1
350
1E
  3
Layout2
350
26
  3
Model
350
22
  0
DICTIONARY
  5
43
102
{ACAD_REACTORS
330
C
102
}
330
C
100
AcDbDictionary
281
     1
  3
ByBlock
350
45
  3
ByLayer
350
44
  3
Global
350
46
  0
DICTIONARY
  5
529
102
{ACAD_REACTORS
330
C
102
}
330
C
100
AcDbDictionary
281
     1
  0
DICTIONARY
  5
17
102
{ACAD_REACTORS
330
C
102
}
330
C
100
AcDbDictionary
281
     1
  3
Standard
350
18
  0
DICTIONARY
  5
19
102
{ACAD_REACTORS
330
C
102
}
330
C
100
AcDbDictionary
281
     1
  0
ACDBDICTIONARYWDFLT
  5
E
102
{ACAD_REACTORS
330
C
102
}
330
C
100
AcDbDictionary
281
     1
  3
Normal
350
F
100
AcDbDictionaryWithDefault
340
F
  0
DICTIONARY
  5
47
102
{ACAD_REACTORS
330
C
102
}
330
C
100
AcDbDictionary
281
     1
  3
A0
350
48
  3
A1
350
49
  3
A2
350
4A
  3
A3
350
4B
  3
A4
350
4C
  3
A5
350
4D
  3
A6
350
4E
  3
A7
350
4F
  3
A8
350
50
  3
A9
350
51
  3
B0
350
52
  3
B1
350
53
  3
B2
350
54
  3
B3
350
55
  3
B4
350
56
  3
B5
350
57
  3
B6
350
58
  3
B7
350
59
  3
B8
350
5A
  3
B9
350
5B
  3
C0
350
5C
  3
C1
350
5D
  3
C2
350
5E
  3
C3
350
5F
  3
C4
350
60
  3
C5
350
61
  3
C6
350
62
  3
C7
350
63
  3
C8
350
64
  3
C9
350
65
  3
D0
350
66
  3
D1
350
67
  3
D2
350
68
  0
DICTIONARY
  5
52B
102
{ACAD_REACTORS
330
C
102
}
330
C
100
AcDbDictionary
281
     1
  0
DICTIONARY
  5
528
102
{ACAD_REACTORS
330
C
102
}
330
C
100
AcDbDictionary
281
     1
  0
DICTIONARY
  5
2A
102
{ACAD_REACTORS
330
C
102
}
330
C
100
AcDbDictionary
281
     1
  3
2dWireframe
350
2F
  3
Basic
350
32
  3
Brighten
350
36
  3
ColorChange
350
3A
  3
Conceptual
350
34
  3
Dim
350
35
  3
EdgeColorOff
350
3D
  3
Facepattern
350
39
  3
Flat
350
2B
  3
FlatWithEdges
350
2C
  3
Gouraud
350
2D
  3
GouraudWithEdges
350
2E
  3
Hidden
350
31
  3
JitterOff
350
3B
  3
Linepattern
350
38
  3
OverhangOff
350
3C
  3
Realistic
350
33
  3
Shaded
350
42
  3
Shaded with edges
350
41
  3
Shades of Gray
350
3E
  3
Sketchy
350
3F
  3
Thicken
350
37
  3
Wireframe
350
30
  3
X-Ray
350
40
  0
DICTIONARY
  5
4F6
102
{ACAD_REACTORS
330
C
102
}
330
C
100
AcDbDictionary
281
     1
  3
CANNOSCALE
350
4F7
  0
LAYOUT
  5
1E
102
{ACAD_REACTORS
330
1A
102
}
330
1A
100
AcDbPlotSettings
  1

  2
none_device
  4

  6

 40
0.0
 41
0.0
 42
0.0
 43
0.0
 44
0.0
 45
0.0
 46
0.0
 47
0.0
 48
0.0
 49
0.0
140
0.0
141
0.0
142
1.0
143
1.0
 70
   688
 72
     0
 73
     0
 74
     5
  7

 75
    16
 76
     0
 77
     2
 78
   300
147
1.0
148
0.0
149
0.0
100
AcDbLayout
  1
Layout1
 70
     0
 71
     1
 10
0.0
 20
0.0
 11
12.0
 21
9.0
 12
0.0
 22
0.0
 32
0.0
 14
1.000000000000000E+20
 24
1.000000000000000E+20
 34
1.000000000000000E+20
 15
-1.000000000000000E+20
 25
-1.000000000000000E+20
 35
-1.000000000000000E+20
146
0.0
 13
0.0
 23
0.0
 33
0.0
 16
1.0
 26
0.0
 36
0.0
 17
0.0
 27
1.0
 37
0.0
 76
     0
330
1B
331
B0
  0
LAYOUT
  5
26
102
{ACAD_REACTORS
330
1A
102
}
330
1A
100
AcDbPlotSettings
  1

  2
none_device
  4

  6

 40
0.0
 41
0.0
 42
0.0
 43
0.0
 44
0.0
 45
0.0
 46
0.0
 47
0.0
 48
0.0
 49
0.0
140
0.0
141
0.0
142
1.0
143
1.0
 70
   688
 72
     0
 73
     0
 74
     5
  7

 75
    16
 76
     0
 77
     2
 78
   300
147
1.0
148
0.0
149
0.0
100
AcDbLayout
  1
Layout2
 70
     1
 71
     2
 10
0.0
 20
0.0
 11
0.0
 21
0.0
 12
0.0
 22
0.0
 32
0.0
 14
0.0
 24
0.0
 34
0.0
 15
0.0
 25
0.0
 35
0.0
146
0.0
 13
0.0
 23
0.0
 33
0.0
 16
1.0
 26
0.0
 36
0.0
 17
0.0
 27
1.0
 37
0.0
 76
     0
330
23
  0
LAYOUT
  5
22
102
{ACAD_REACTORS
330
1A
102
}
330
1A
100
AcDbPlotSettings
  1

  2
none_device
  4
Letter_(8.50_x_11.00_Inches)
  6

 40
6.35
 41
6.35
 42
6.35000508
 43
6.35000508
 44
215.9
 45
279.4
 46
0.0
 47
0.0
 48
0.0
 49
0.0
140
0.0
141
0.0
142
1.0
143
1.0
 70
  1712
 72
     0
 73
     0
 74
     0
  7

 75
     0
 76
     0
 77
     2
 78
   300
147
1.0
148
0.0
149
0.0
100
AcDbLayout
  1
Model
 70
     1
 71
     0
 10
-2100.0
 20
-1485.0
 11
2100.0
 21
1485.0
 12
0.0
 22
0.0
 32
0.0
 14
-5910.0
 24
-4053.842299814336
 34
0.0
 15
5910.0
 25
4053.842299814336
 35
0.0
146
0.0
 13
0.0
 23
0.0
 33
0.0
 16
1.0
 26
0.0
 36
0.0
 17
0.0
 27
1.0
 37
0.0
 76
     0
330
1F
331
29
  0
MATERIAL
  5
45
102
{ACAD_REACTORS
330
43
102
}
330
43
100
AcDbMaterial
  1
ByBlock
 72
     1
 94
      127
  0
MATERIAL
  5
44
102
{ACAD_REACTORS
330
43
102
}
330
43
100
AcDbMaterial
  1
ByLayer
 72
     1
 94
      127
  0
MATERIAL
  5
46
102
{ACAD_REACTORS
330
43
102
}
330
43
100
AcDbMaterial
  1
Global
 72
     1
 94
      127
  0
MLINESTYLE
  5
18
102
{ACAD_REACTORS
330
17
102
}
330
17
100
AcDbMlineStyle
  2
Standard
 70
     0
  3

 62
   256
 51
90.0
 52
90.0
 71
     2
 49
0.5
 62
   256
  6
BYLAYER
 49
-0.5
 62
   256
  6
BYLAYER
  0
ACDBPLACEHOLDER
  5
F
102
{ACAD_REACTORS
330
E
102
}
330
E
  0
SCALE
  5
48
102
{ACAD_REACTORS
330
47
102
}
330
47
100
AcDbScale
 70
     0
300
1:1
140
1.0
141
1.0
290
     1
  0
SCALE
  5
49
102
{ACAD_REACTORS
330
47
102
}
330
47
100
AcDbScale
 70
     0
300
1:2
140
1.0
141
2.0
290
     0
  0
SCALE
  5
4A
102
{ACAD_REACTORS
330
47
102
}
330
47
100
AcDbScale
 70
     0
300
1:4
140
1.0
141
4.0
290
     0
  0
SCALE
  5
4B
102
{ACAD_REACTORS
330
47
102
}
330
47
100
AcDbScale
 70
     0
300
1:5
140
1.0
141
5.0
290
     0
  0
SCALE
  5
4C
102
{ACAD_REACTORS
330
47
102
}
330
47
100
AcDbScale
 70
     0
300
1:8
140
1.0
141
8.0
290
     0
  0
SCALE
  5
4D
102
{ACAD_REACTORS
330
47
102
}
330
47
100
AcDbScale
 70
     0
300
1:10
140
1.0
141
10.0
290
     0
  0
SCALE
  5
4E
102
{ACAD_REACTORS
330
47
102
}
330
47
100
AcDbScale
 70
     0
300
1:16
140
1.0
141
16.0
290
     0
  0
SCALE
  5
4F
102
{ACAD_REACTORS
330
47
102
}
330
47
100
AcDbScale
 70
     0
300
1:20
140
1.0
141
20.0
290
     0
  0
SCALE
  5
50
102
{ACAD_REACTORS
330
47
102
}
330
47
100
AcDbScale
 70
     0
300
1:30
140
1.0
141
30.0
290
     0
  0
SCALE
  5
51
102
{ACAD_REACTORS
330
47
102
}
330
47
100
AcDbScale
 70
     0
300
1:40
140
1.0
141
40.0
290
     0
  0
SCALE
  5
52
102
{ACAD_REACTORS
330
47
102
}
330
47
100
AcDbScale
 70
     0
300
1:50
140
1.0
141
50.0
290
     0
  0
SCALE
  5
53
102
{ACAD_REACTORS
330
47
102
}
330
47
100
AcDbScale
 70
     0
300
1:100
140
1.0
141
100.0
290
     0
  0
SCALE
  5
54
102
{ACAD_REACTORS
330
47
102
}
330
47
100
AcDbScale
 70
     0
300
2:1
140
2.0
141
1.0
290
     0
  0
SCALE
  5
55
102
{ACAD_REACTORS
330
47
102
}
330
47
100
AcDbScale
 70
     0
300
4:1
140
4.0
141
1.0
290
     0
  0
SCALE
  5
56
102
{ACAD_REACTORS
330
47
102
}
330
47
100
AcDbScale
 70
     0
300
8:1
140
8.0
141
1.0
290
     0
  0
SCALE
  5
57
102
{ACAD_REACTORS
330
47
102
}
330
47
100
AcDbScale
 70
     0
300
10:1
140
10.0
141
1.0
290
     0
  0
SCALE
  5
58
102
{ACAD_REACTORS
330
47
102
}
330
47
100
AcDbScale
 70
     0
300
100:1
140
100.0
141
1.0
290
     0
  0
SCALE
  5
59
102
{ACAD_REACTORS
330
47
102
}
330
47
100
AcDbScale
 70
     0
300
1/128" = 1'-0"
140
0.0078125
141
12.0
290
     0
  0
SCALE
  5
5A
102
{ACAD_REACTORS
330
47
102
}
330
47
100
AcDbScale
 70
     0
300
1/64" = 1'-0"
140
0.015625
141
12.0
290
     0
  0
SCALE
  5
5B
102
{ACAD_REACTORS
330
47
102
}
330
47
100
AcDbScale
 70
     0
300
1/32" = 1'-0"
140
0.03125
141
12.0
290
     0
  0
SCALE
  5
5C
102
{ACAD_REACTORS
330
47
102
}
330
47
100
AcDbScale
 70
     0
300
1/16" = 1'-0"
140
0.0625
141
12.0
290
     0
  0
SCALE
  5
5D
102
{ACAD_REACTORS
330
47
102
}
330
47
100
AcDbScale
 70
     0
300
3/32" = 1'-0"
140
0.09375
141
12.0
290
     0
  0
SCALE
  5
5E
102
{ACAD_REACTORS
330
47
102
}
330
47
100
AcDbScale
 70
     0
300
1/8" = 1'-0"
140
0.125
141
12.0
290
     0
  0
SCALE
  5
5F
102
{ACAD_REACTORS
330
47
102
}
330
47
100
AcDbScale
 70
     0
300
3/16" = 1'-0"
140
0.1875
141
12.0
290
     0
  0
SCALE
  5
60
102
{ACAD_REACTORS
330
47
102
}
330
47
100
AcDbScale
 70
     0
300
1/4" = 1'-0"
140
0.25
141
12.0
290
     0
  0
SCALE
  5
61
102
{ACAD_REACTORS
330
47
102
}
330
47
100
AcDbScale
 70
     0
300
3/8" = 1'-0"
140
0.375
141
12.0
290
     0
  0
SCALE
  5
62
102
{ACAD_REACTORS
330
47
102
}
330
47
100
AcDbScale
 70
     0
300
1/2" = 1'-0"
140
0.5
141
12.0
290
     0
  0
SCALE
  5
63
102
{ACAD_REACTORS
330
47
102
}
330
47
100
AcDbScale
 70
     0
300
3/4" = 1'-0"
140
0.75
141
12.0
290
     0
  0
SCALE
  5
64
102
{ACAD_REACTORS
330
47
102
}
330
47
100
AcDbScale
 70
     0
300
1" = 1'-0"
140
1.0
141
12.0
290
     0
  0
SCALE
  5
65
102
{ACAD_REACTORS
330
47
102
}
330
47
100
AcDbScale
 70
     0
300
1-1/2" = 1'-0"
140
1.5
141
12.0
290
     0
  0
SCALE
  5
66
102
{ACAD_REACTORS
330
47
102
}
330
47
100
AcDbScale
 70
     0
300
3" = 1'-0"
140
3.0
141
12.0
290
     0
  0
SCALE
  5
67
102
{ACAD_REACTORS
330
47
102
}
330
47
100
AcDbScale
 70
     0
300
6" = 1'-0"
140
6.0
141
12.0
290
     0
  0
SCALE
  5
68
102
{ACAD_REACTORS
330
47
102
}
330
47
100
AcDbScale
 70
     0
300
1'-0" = 1'-0"
140
12.0
141
12.0
290
     0
  0
VISUALSTYLE
  5
2F
102
{ACAD_REACTORS
330
2A
102
}
102
{ACAD_XDICTIONARY
360
500
102
}
330
2A
100
AcDbVisualStyle
  2
2dWireframe
 70
     4
177
     2
291
     0
 71
     0
176
     1
 72
     2
176
     1
 73
     0
176
     1
 90
        0
176
     1
 40
0.6
176
     1
 41
30.0
176
     1
 62
     5
 63
     7
421
 16777215
176
     1
 74
     1
176
     1
 91
        4
176
     1
 64
     7
176
     1
 65
   257
176
     1
 75
     1
176
     1
175
     1
176
     1
 42
1.0
176
     1
 92
        0
176
     1
 66
   257
176
     1
 43
1.0
176
     1
 76
     1
176
     1
 77
     6
176
     1
 78
     2
176
     1
 67
     7
176
     1
 79
     5
176
     1
170
     0
176
     1
171
     0
176
     1
290
     0
176
     1
 93
        1
176
     1
 44
0.0
176
     1
173
     0
176
     1
  0
VISUALSTYLE
  5
32
102
{ACAD_REACTORS
330
2A
102
}
102
{ACAD_XDICTIONARY
360
506
102
}
330
2A
100
AcDbVisualStyle
  2
Basic
 70
     7
177
     2
291
     1
 71
     1
176
     1
 72
     0
176
     1
 73
     1
176
     1
 90
        0
176
     1
 40
0.6
176
     1
 41
30.0
176
     1
 62
     5
 63
     7
421
 16777215
176
     1
 74
     0
176
     1
 91
        4
176
     1
 64
     7
176
     1
 65
   257
176
     1
 75
     1
176
     1
175
     1
176
     1
 42
1.0
176
     1
 92
        8
176
     1
 66
     7
176
     1
 43
1.0
176
     1
 76
     1
176
     1
 77
     6
176
     1
 78
     2
176
     1
 67
     7
176
     1
 79
     5
176
     1
170
     0
176
     1
171
     0
176
     1
290
     0
176
     1
 93
        1
176
     1
 44
0.0
176
     1
173
     0
176
     1
  0
VISUALSTYLE
  5
36
102
{ACAD_REACTORS
330
2A
102
}
102
{ACAD_XDICTIONARY
360
50E
102
}
330
2A
100
AcDbVisualStyle
  2
Brighten
 70
    12
177
     2
291
     1
 71
     2
176
     1
 72
     2
176
     1
 73
     0
176
     1
 90
        0
176
     1
 40
0.6
176
     1
 41
30.0
176
     1
 62
     5
 63
     7
421
 16777215
176
     1
 74
     1
176
     1
 91
        4
176
     1
 64
     7
176
     1
 65
   257
176
     1
 75
     1
176
     1
175
     1
176
     1
 42
1.0
176
     1
 92
        8
176
     1
 66
     7
176
     1
 43
1.0
176
     1
 76
     1
176
     1
 77
     6
176
     1
 78
     2
176
     1
 67
     7
176
     1
 79
     5
176
     1
170
     0
176
     1
171
     0
176
     1
290
     0
176
     1
 93
        1
176
     1
 44
50.0
176
     1
173
     0
176
     1
  0
VISUALSTYLE
  5
3A
102
{ACAD_REACTORS
330
2A
102
}
102
{ACAD_XDICTIONARY
360
516
102
}
330
2A
100
AcDbVisualStyle
  2
ColorChange
 70
    16
177
     2
291
     1
 71
     2
176
     1
 72
     2
176
     1
 73
     3
176
     1
 90
        0
176
     1
 40
0.6
176
     1
 41
30.0
176
     1
 62
     5
 63
     8
421
  8421504
176
     1
 74
     1
176
     1
 91
        4
176
     1
 64
     7
176
     1
 65
   257
176
     1
 75
     1
176
     1
175
     1
176
     1
 42
1.0
176
     1
 92
        8
176
     1
 66
     8
424
  8421504
176
     1
 43
1.0
176
     1
 76
     1
176
     1
 77
     6
176
     1
 78
     2
176
     1
 67
     7
176
     1
 79
     5
176
     1
170
     0
176
     1
171
     0
176
     1
290
     0
176
     1
 93
        1
176
     1
 44
0.0
176
     1
173
     0
176
     1
  0
VISUALSTYLE
  5
34
102
{ACAD_REACTORS
330
2A
102
}
102
{ACAD_XDICTIONARY
360
50A
102
}
330
2A
100
AcDbVisualStyle
  2
Conceptual
 70
     9
177
     2
291
     0
 71
     3
176
     1
 72
     2
176
     1
 73
     0
176
     1
 90
        0
176
     1
 40
0.6
176
     1
 41
30.0
176
     1
 62
     5
 63
     7
421
 16777215
176
     1
 74
     2
176
     1
 91
        2
176
     1
 64
     7
176
     1
 65
   257
176
     1
 75
     1
176
     1
175
     1
176
     1
 42
179.0
176
     1
 92
        8
176
     1
 66
     7
176
     1
 43
1.0
176
     1
 76
     1
176
     1
 77
     6
176
     1
 78
     2
176
     1
 67
     7
176
     1
 79
     3
176
     1
170
     0
176
     1
171
     0
176
     1
290
     0
176
     1
 93
        1
176
     1
 44
0.0
176
     1
173
     0
176
     1
  0
VISUALSTYLE
  5
35
102
{ACAD_REACTORS
330
2A
102
}
102
{ACAD_XDICTIONARY
360
50C
102
}
330
2A
100
AcDbVisualStyle
  2
Dim
 70
    11
177
     2
291
     1
 71
     2
176
     1
 72
     2
176
     1
 73
     0
176
     1
 90
        0
176
     1
 40
0.6
176
     1
 41
30.0
176
     1
 62
     5
 63
     7
421
 16777215
176
     1
 74
     1
176
     1
 91
        4
176
     1
 64
     7
176
     1
 65
   257
176
     1
 75
     1
176
     1
175
     1
176
     1
 42
1.0
176
     1
 92
        8
176
     1
 66
     7
176
     1
 43
1.0
176
     1
 76
     1
176
     1
 77
     6
176
     1
 78
     2
176
     1
 67
     7
176
     1
 79
     5
176
     1
170
     0
176
     1
171
     0
176
     1
290
     0
176
     1
 93
        1
176
     1
 44
-50.0
176
     1
173
     0
176
     1
  0
VISUALSTYLE
  5
3D
102
{ACAD_REACTORS
330
2A
102
}
102
{ACAD_XDICTIONARY
360
51C
102
}
330
2A
100
AcDbVisualStyle
  2
EdgeColorOff
 70
    22
177
     2
291
     1
 71
     2
176
     0
 72
     2
176
     0
 73
     0
176
     0
 90
        0
176
     0
 40
0.6
176
     0
 41
30.0
176
     0
 62
     5
 63
     7
421
 16777215
176
     0
 74
     1
176
     0
 91
        4
176
     0
 64
     7
176
     0
 65
   257
176
     0
 75
     1
176
     0
175
     1
176
     0
 42
1.0
176
     0
 92
        8
176
     2
 66
     7
176
     0
 43
1.0
176
     0
 76
     1
176
     0
 77
     6
176
     0
 78
     2
176
     0
 67
     7
176
     0
 79
     5
176
     0
170
     0
176
     0
171
     0
176
     0
290
     0
176
     0
 93
        1
176
     0
 44
0.0
176
     0
173
     0
176
     0
  0
VISUALSTYLE
  5
39
102
{ACAD_REACTORS
330
2A
102
}
102
{ACAD_XDICTIONARY
360
514
102
}
330
2A
100
AcDbVisualStyle
  2
Facepattern
 70
    15
177
     2
291
     1
 71
     2
176
     1
 72
     2
176
     1
 73
     0
176
     1
 90
        0
176
     1
 40
0.6
176
     1
 41
30.0
176
     1
 62
     5
 63
     7
421
 16777215
176
     1
 74
     1
176
     1
 91
        4
176
     1
 64
     7
176
     1
 65
   257
176
     1
 75
     1
176
     1
175
     1
176
     1
 42
1.0
176
     1
 92
        8
176
     1
 66
     7
176
     1
 43
1.0
176
     1
 76
     1
176
     1
 77
     6
176
     1
 78
     2
176
     1
 67
     7
176
     1
 79
     5
176
     1
170
     0
176
     1
171
     0
176
     1
290
     0
176
     1
 93
        1
176
     1
 44
0.0
176
     1
173
     0
176
     1
  0
VISUALSTYLE
  5
2B
102
{ACAD_REACTORS
330
2A
102
}
102
{ACAD_XDICTIONARY
360
4F8
102
}
330
2A
100
AcDbVisualStyle
  2
Flat
 70
     0
177
     2
291
     1
 71
     2
176
     1
 72
     1
176
     1
 73
     1
176
     1
 90
        2
176
     1
 40
0.6
176
     1
 41
30.0
176
     1
 62
     5
 63
     7
421
 16777215
176
     1
 74
     0
176
     1
 91
        0
176
     1
 64
     7
176
     1
 65
   257
176
     1
 75
     1
176
     1
175
     1
176
     1
 42
1.0
176
     1
 92
        8
176
     1
 66
     7
176
     1
 43
1.0
176
     1
 76
     1
176
     1
 77
     6
176
     1
 78
     2
176
     1
 67
     7
176
     1
 79
     5
176
     1
170
     0
176
     1
171
     0
176
     1
290
     0
176
     1
 93
       13
176
     1
 44
0.0
176
     1
173
     0
176
     1
  0
VISUALSTYLE
  5
2C
102
{ACAD_REACTORS
330
2A
102
}
102
{ACAD_XDICTIONARY
360
4FA
102
}
330
2A
100
AcDbVisualStyle
  2
FlatWithEdges
 70
     1
177
     2
291
     1
 71
     2
176
     1
 72
     1
176
     1
 73
     1
176
     1
 90
        2
176
     1
 40
0.6
176
     1
 41
30.0
176
     1
 62
     5
 63
     7
421
 16777215
176
     1
 74
     1
176
     1
 91
        0
176
     1
 64
     7
176
     1
 65
   257
176
     1
 75
     1
176
     1
175
     1
176
     1
 42
1.0
176
     1
 92
        0
176
     1
 66
   257
176
     1
 43
1.0
176
     1
 76
     1
176
     1
 77
     6
176
     1
 78
     2
176
     1
 67
     7
176
     1
 79
     5
176
     1
170
     0
176
     1
171
     0
176
     1
290
     0
176
     1
 93
       13
176
     1
 44
0.0
176
     1
173
     0
176
     1
  0
VISUALSTYLE
  5
2D
102
{ACAD_REACTORS
330
2A
102
}
102
{ACAD_XDICTIONARY
360
4FC
102
}
330
2A
100
AcDbVisualStyle
  2
Gouraud
 70
     2
177
     2
291
     1
 71
     2
176
     1
 72
     2
176
     1
 73
     1
176
     1
 90
        2
176
     1
 40
0.6
176
     1
 41
30.0
176
     1
 62
     5
 63
     7
421
 16777215
176
     1
 74
     0
176
     1
 91
        0
176
     1
 64
     7
176
     1
 65
   257
176
     1
 75
     1
176
     1
175
     1
176
     1
 42
1.0
176
     1
 92
        0
176
     1
 66
     7
176
     1
 43
1.0
176
     1
 76
     1
176
     1
 77
     6
176
     1
 78
     2
176
     1
 67
     7
176
     1
 79
     5
176
     1
170
     0
176
     1
171
     0
176
     1
290
     0
176
     1
 93
       13
176
     1
 44
0.0
176
     1
173
     0
176
     1
  0
VISUALSTYLE
  5
2E
102
{ACAD_REACTORS
330
2A
102
}
102
{ACAD_XDICTIONARY
360
4FE
102
}
330
2A
100
AcDbVisualStyle
  2
GouraudWithEdges
 70
     3
177
     2
291
     1
 71
     2
176
     1
 72
     2
176
     1
 73
     1
176
     1
 90
        2
176
     1
 40
0.6
176
     1
 41
30.0
176
     1
 62
     5
 63
     7
421
 16777215
176
     1
 74
     1
176
     1
 91
        0
176
     1
 64
     7
176
     1
 65
   257
176
     1
 75
     1
176
     1
175
     1
176
     1
 42
1.0
176
     1
 92
        0
176
     1
 66
   257
176
     1
 43
1.0
176
     1
 76
     1
176
     1
 77
     6
176
     1
 78
     2
176
     1
 67
     7
176
     1
 79
     5
176
     1
170
     0
176
     1
171
     0
176
     1
290
     0
176
     1
 93
       13
176
     1
 44
0.0
176
     1
173
     0
176
     1
  0
VISUALSTYLE
  5
31
102
{ACAD_REACTORS
330
2A
102
}
102
{ACAD_XDICTIONARY
360
504
102
}
330
2A
100
AcDbVisualStyle
  2
Hidden
 70
     6
177
     2
291
     0
 71
     1
176
     1
 72
     2
176
     1
 73
     2
176
     1
 90
        0
176
     1
 40
0.6
176
     1
 41
30.0
176
     1
 62
     5
 63
     7
421
 16777215
176
     1
 74
     2
176
     1
 91
        2
176
     1
 64
     7
176
     1
 65
   257
176
     1
 75
     2
176
     1
175
     1
176
     1
 42
40.0
176
     1
 92
        0
176
     1
 66
   257
176
     1
 43
1.0
176
     1
 76
     1
176
     1
 77
     6
176
     1
 78
     2
176
     1
 67
     7
176
     1
 79
     3
176
     1
170
     0
176
     1
171
     0
176
     1
290
     0
176
     1
 93
        1
176
     1
 44
0.0
176
     1
173
     0
176
     1
  0
VISUALSTYLE
  5
3B
102
{ACAD_REACTORS
330
2A
102
}
102
{ACAD_XDICTIONARY
360
518
102
}
330
2A
100
AcDbVisualStyle
  2
JitterOff
 70
    20
177
     2
291
     1
 71
     2
176
     0
 72
     2
176
     0
 73
     0
176
     0
 90
        0
176
     0
 40
0.6
176
     0
 41
30.0
176
     0
 62
     5
 63
     7
421
 16777215
176
     0
 74
     1
176
     0
 91
        4
176
     0
 64
     7
176
     0
 65
   257
176
     0
 75
     1
176
     0
175
     1
176
     0
 42
1.0
176
     0
 92
       10
176
     2
 66
     7
176
     0
 43
1.0
176
     0
 76
     1
176
     0
 77
     6
176
     0
 78
     2
176
     0
 67
     7
176
     0
 79
     5
176
     0
170
     0
176
     0
171
     0
176
     0
290
     0
176
     0
 93
        1
176
     0
 44
0.0
176
     0
173
     0
176
     0
  0
VISUALSTYLE
  5
38
102
{ACAD_REACTORS
330
2A
102
}
102
{ACAD_XDICTIONARY
360
512
102
}
330
2A
100
AcDbVisualStyle
  2
Linepattern
 70
    14
177
     2
291
     1
 71
     2
176
     1
 72
     2
176
     1
 73
     0
176
     1
 90
        0
176
     1
 40
0.6
176
     1
 41
30.0
176
     1
 62
     5
 63
     7
421
 16777215
176
     1
 74
     1
176
     1
 91
        4
176
     1
 64
     7
176
     1
 65
   257
176
     1
 75
     7
176
     1
175
     7
176
     1
 42
1.0
176
     1
 92
        8
176
     1
 66
     7
176
     1
 43
1.0
176
     1
 76
     1
176
     1
 77
     6
176
     1
 78
     2
176
     1
 67
     7
176
     1
 79
     5
176
     1
170
     0
176
     1
171
     0
176
     1
290
     0
176
     1
 93
        1
176
     1
 44
0.0
176
     1
173
     0
176
     1
  0
VISUALSTYLE
  5
3C
102
{ACAD_REACTORS
330
2A
102
}
102
{ACAD_XDICTIONARY
360
51A
102
}
330
2A
100
AcDbVisualStyle
  2
OverhangOff
 70
    21
177
     2
291
     1
 71
     2
176
     0
 72
     2
176
     0
 73
     0
176
     0
 90
        0
176
     0
 40
0.6
176
     0
 41
30.0
176
     0
 62
     5
 63
     7
421
 16777215
176
     0
 74
     1
176
     0
 91
        4
176
     0
 64
     7
176
     0
 65
   257
176
     0
 75
     1
176
     0
175
     1
176
     0
 42
1.0
176
     0
 92
        9
176
     2
 66
     7
176
     0
 43
1.0
176
     0
 76
     1
176
     0
 77
     6
176
     0
 78
     2
176
     0
 67
     7
176
     0
 79
     5
176
     0
170
     0
176
     0
171
     0
176
     0
290
     0
176
     0
 93
        1
176
     0
 44
0.0
176
     0
173
     0
176
     0
  0
VISUALSTYLE
  5
33
102
{ACAD_REACTORS
330
2A
102
}
102
{ACAD_XDICTIONARY
360
508
102
}
330
2A
100
AcDbVisualStyle
  2
Realistic
 70
     8
177
     2
291
     0
 71
     2
176
     1
 72
     3
176
     1
 73
     0
176
     1
 90
        2
176
     1
 40
0.6
176
     1
 41
30.0
176
     1
 62
     5
 63
     7
421
 16777215
176
     1
 74
     0
176
     1
 91
        0
176
     1
 64
     7
176
     1
 65
   257
176
     1
 75
     1
176
     1
175
     1
176
     1
 42
1.0
176
     1
 92
        8
176
     1
 66
   257
176
     1
 43
1.0
176
     1
 76
     1
176
     1
 77
     6
176
     1
 78
     2
176
     1
 67
     7
176
     1
 79
     3
176
     1
170
     0
176
     1
171
     0
176
     1
290
     0
176
     1
 93
       13
176
     1
 44
0.0
176
     1
173
     0
176
     1
  0
VISUALSTYLE
  5
42
102
{ACAD_REACTORS
330
2A
102
}
102
{ACAD_XDICTIONARY
360
526
102
}
330
2A
100
AcDbVisualStyle
  2
Shaded
 70
    27
177
     2
291
     0
 71
     2
176
     1
 72
     2
176
     1
 73
     1
176
     1
 90
        2
176
     1
 40
0.6
176
     1
 41
30.0
176
     1
 62
     5
 63
     7
421
 16777215
176
     1
 74
     0
176
     1
 91
        4
176
     1
 64
     7
176
     1
 65
   257
176
     1
 75
     1
176
     1
175
     1
176
     1
 42
1.0
176
     1
 92
        8
176
     1
 66
   257
176
     1
 43
1.0
176
     1
 76
     1
176
     1
 77
     6
176
     1
 78
     2
176
     1
 67
     8
425
  7895160
176
     1
 79
     3
176
     1
170
     0
176
     1
171
     0
176
     1
290
     0
176
     1
 93
        5
176
     1
 44
0.0
176
     1
173
     0
176
     1
  0
VISUALSTYLE
  5
41
102
{ACAD_REACTORS
330
2A
102
}
102
{ACAD_XDICTIONARY
360
524
102
}
330
2A
100
AcDbVisualStyle
  2
Shaded with edges
 70
    26
177
     2
291
     0
 71
     2
176
     1
 72
     2
176
     1
 73
     1
176
     1
 90
        2
176
     1
 40
0.6
176
     1
 41
30.0
176
     1
 62
     5
 63
     7
421
 16777215
176
     1
 74
     1
176
     1
 91
       10
176
     1
 64
     7
176
     1
 65
   257
176
     1
 75
     2
176
     1
175
     1
176
     1
 42
1.0
176
     1
 92
        8
176
     1
 66
   257
176
     1
 43
1.0
176
     1
 76
     1
176
     1
 77
     6
176
     1
 78
     2
176
     1
 67
     7
176
     1
 79
     3
176
     1
170
     0
176
     1
171
     0
176
     1
290
     0
176
     1
 93
        5
176
     1
 44
0.0
176
     1
173
     0
176
     1
  0
VISUALSTYLE
  5
3E
102
{ACAD_REACTORS
330
2A
102
}
102
{ACAD_XDICTIONARY
360
51E
102
}
330
2A
100
AcDbVisualStyle
  2
Shades of Gray
 70
    23
177
     2
291
     0
 71
     2
176
     1
 72
     2
176
     1
 73
     3
176
     1
 90
        0
176
     1
 40
0.6
176
     1
 41
30.0
176
     1
 62
     5
 63
     7
421
 16777215
176
     1
 74
     2
176
     1
 91
        2
176
     1
 64
     7
176
     1
 65
     7
176
     1
 75
     1
176
     1
175
     1
176
     1
 42
40.0
176
     1
 92
        8
176
     1
 66
     7
176
     1
 43
1.0
176
     1
 76
     1
176
     1
 77
     6
176
     1
 78
     2
176
     1
 67
     7
176
     1
 79
     3
176
     1
170
     0
176
     1
171
     0
176
     1
290
     0
176
     1
 93
        1
176
     1
 44
0.0
176
     1
173
     0
176
     1
  0
VISUALSTYLE
  5
3F
102
{ACAD_REACTORS
330
2A
102
}
102
{ACAD_XDICTIONARY
360
520
102
}
330
2A
100
AcDbVisualStyle
  2
Sketchy
 70
    24
177
     2
291
     0
 71
     1
176
     1
 72
     2
176
     1
 73
     2
176
     1
 90
        0
176
     1
 40
0.6
176
     1
 41
30.0
176
     1
 62
     5
 63
     7
421
 16777215
176
     1
 74
     2
176
     1
 91
        2
176
     1
 64
     7
176
     1
 65
     7
176
     1
 75
     1
176
     1
175
     1
176
     1
 42
40.0
176
     1
 92
       11
176
     1
 66
     7
176
     1
 43
1.0
176
     1
 76
     1
176
     1
 77
     6
176
     1
 78
     2
176
     1
 67
     7
176
     1
 79
     6
176
     1
170
     0
176
     1
171
     0
176
     1
290
     0
176
     1
 93
        1
176
     1
 44
0.0
176
     1
173
     0
176
     1
  0
VISUALSTYLE
  5
37
102
{ACAD_REACTORS
330
2A
102
}
102
{ACAD_XDICTIONARY
360
510
102
}
330
2A
100
AcDbVisualStyle
  2
Thicken
 70
    13
177
     2
291
     1
 71
     2
176
     1
 72
     2
176
     1
 73
     0
176
     1
 90
        0
176
     1
 40
0.6
176
     1
 41
30.0
176
     1
 62
     5
 63
     7
421
 16777215
176
     1
 74
     1
176
     1
 91
        4
176
     1
 64
     7
176
     1
 65
   257
176
     1
 75
     1
176
     1
175
     1
176
     1
 42
1.0
176
     1
 92
       12
176
     1
 66
     7
176
     1
 43
1.0
176
     1
 76
     1
176
     1
 77
     6
176
     1
 78
     2
176
     1
 67
     7
176
     1
 79
     5
176
     1
170
     0
176
     1
171
     0
176
     1
290
     0
176
     1
 93
        1
176
     1
 44
0.0
176
     1
173
     0
176
     1
  0
VISUALSTYLE
  5
30
102
{ACAD_REACTORS
330
2A
102
}
102
{ACAD_XDICTIONARY
360
502
102
}
330
2A
100
AcDbVisualStyle
  2
Wireframe
 70
     5
177
     2
291
     0
 71
     0
176
     1
 72
     2
176
     1
 73
     0
176
     1
 90
        0
176
     1
 40
0.6
176
     1
 41
30.0
176
     1
 62
     5
 63
     7
421
 16777215
176
     1
 74
     1
176
     1
 91
        4
176
     1
 64
     7
176
     1
 65
   257
176
     1
 75
     1
176
     1
175
     1
176
     1
 42
1.0
176
     1
 92
        0
176
     1
 66
   257
176
     1
 43
1.0
176
     1
 76
     1
176
     1
 77
     6
176
     1
 78
     2
176
     1
 67
     7
176
     1
 79
     3
176
     1
170
     0
176
     1
171
     0
176
     1
290
     0
176
     1
 93
        1
176
     1
 44
0.0
176
     1
173
     0
176
     1
  0
VISUALSTYLE
  5
40
102
{ACAD_REACTORS
330
2A
102
}
102
{ACAD_XDICTIONARY
360
522
102
}
330
2A
100
AcDbVisualStyle
  2
X-Ray
 70
    25
177
     2
291
     0
 71
     2
176
     1
 72
     2
176
     1
 73
     1
176
     1
 90
        1
176
     1
 40
0.5
176
     1
 41
30.0
176
     1
 62
     5
 63
     7
421
 16777215
176
     1
 74
     1
176
     1
 91
        0
176
     1
 64
     7
176
     1
 65
   257
176
     1
 75
     1
176
     1
175
     1
176
     1
 42
1.0
176
     1
 92
        8
176
     1
 66
     7
176
     1
 43
1.0
176
     1
 76
     1
176
     1
 77
     6
176
     1
 78
     2
176
     1
 67
     7
176
     1
 79
     3
176
     1
170
     0
176
     1
171
     0
176
     1
290
     0
176
     1
 93
       13
176
     1
 44
0.0
176
     1
173
     0
176
     1
  0
DICTIONARYVAR
  5
4F7
102
{ACAD_REACTORS
330
4F6
102
}
330
4F6
100
DictionaryVariables
280
     0
  1
1:1
  0
DICTIONARY
  5
500
330
2F
100
AcDbDictionary
280
     1
281
     1
  3
ACAD_XREC_ROUNDTRIP
360
501
  0
DICTIONARY
  5
506
330
32
100
AcDbDictionary
280
     1
281
     1
  3
ACAD_XREC_ROUNDTRIP
360
507
  0
DICTIONARY
  5
50E
330
36
100
AcDbDictionary
280
     1
281
     1
  3
ACAD_XREC_ROUNDTRIP
360
50F
  0
DICTIONARY
  5
516
330
3A
100
AcDbDictionary
280
     1
281
     1
  3
ACAD_XREC_ROUNDTRIP
360
517
  0
DICTIONARY
  5
50A
330
34
100
AcDbDictionary
280
     1
281
     1
  3
ACAD_XREC_ROUNDTRIP
360
50B
  0
DICTIONARY
  5
50C
330
35
100
AcDbDictionary
280
     1
281
     1
  3
ACAD_XREC_ROUNDTRIP
360
50D
  0
DICTIONARY
  5
51C
330
3D
100
AcDbDictionary
280
     1
281
     1
  3
ACAD_XREC_ROUNDTRIP
360
51D
  0
DICTIONARY
  5
514
330
39
100
AcDbDictionary
280
     1
281
     1
  3
ACAD_XREC_ROUNDTRIP
360
515
  0
DICTIONARY
  5
4F8
330
2B
100
AcDbDictionary
280
     1
281
     1
  3
ACAD_XREC_ROUNDTRIP
360
4F9
  0
DICTIONARY
  5
4FA
330
2C
100
AcDbDictionary
280
     1
281
     1
  3
ACAD_XREC_ROUNDTRIP
360
4FB
  0
DICTIONARY
  5
4FC
330
2D
100
AcDbDictionary
280
     1
281
     1
  3
ACAD_XREC_ROUNDTRIP
360
4FD
  0
DICTIONARY
  5
4FE
330
2E
100
AcDbDictionary
280
     1
281
     1
  3
ACAD_XREC_ROUNDTRIP
360
4FF
  0
DICTIONARY
  5
504
330
31
100
AcDbDictionary
280
     1
281
     1
  3
ACAD_XREC_ROUNDTRIP
360
505
  0
DICTIONARY
  5
518
330
3B
100
AcDbDictionary
280
     1
281
     1
  3
ACAD_XREC_ROUNDTRIP
360
519
  0
DICTIONARY
  5
512
330
38
100
AcDbDictionary
280
     1
281
     1
  3
ACAD_XREC_ROUNDTRIP
360
513
  0
DICTIONARY
  5
51A
330
3C
100
AcDbDictionary
280
     1
281
     1
  3
ACAD_XREC_ROUNDTRIP
360
51B
  0
DICTIONARY
  5
508
330
33
100
AcDbDictionary
280
     1
281
     1
  3
ACAD_XREC_ROUNDTRIP
360
509
  0
DICTIONARY
  5
526
330
42
100
AcDbDictionary
280
     1
281
     1
  3
ACAD_XREC_ROUNDTRIP
360
527
  0
DICTIONARY
  5
524
330
41
100
AcDbDictionary
280
     1
281
     1
  3
ACAD_XREC_ROUNDTRIP
360
525
  0
DICTIONARY
  5
51E
330
3E
100
AcDbDictionary
280
     1
281
     1
  3
ACAD_XREC_ROUNDTRIP
360
51F
  0
DICTIONARY
  5
520
330
3F
100
AcDbDictionary
280
     1
281
     1
  3
ACAD_XREC_ROUNDTRIP
360
521
  0
DICTIONARY
  5
510
330
37
100
AcDbDictionary
280
     1
281
     1
  3
ACAD_XREC_ROUNDTRIP
360
511
  0
DICTIONARY
  5
502
330
30
100
AcDbDictionary
280
     1
281
     1
  3
ACAD_XREC_ROUNDTRIP
360
503
  0
DICTIONARY
  5
522
330
40
100
AcDbDictionary
280
     1
281
     1
  3
ACAD_XREC_ROUNDTRIP
360
523
  0
XRECORD
  5
501
102
{ACAD_REACTORS
330
500
102
}
330
500
100
AcDbXrecord
280
     1
102
RTVSPost2010Prop28
280
     1
102
RTVSPost2010PropOp28
 70
     1
102
RTVSPost2010Prop29
280
     1
102
RTVSPost2010PropOp29
 70
     1
102
RTVSPost2010Prop30
280
     0
102
RTVSPost2010PropOp30
 70
     1
102
RTVSPost2010Prop31
280
     0
102
RTVSPost2010PropOp31
 70
     1
102
RTVSPost2010Prop32
280
     0
102
RTVSPost2010PropOp32
 70
     1
102
RTVSPost2010Prop33
280
     0
102
RTVSPost2010PropOp33
 70
     1
102
RTVSPost2010Prop34
280
     0
102
RTVSPost2010PropOp34
 70
     1
102
RTVSPost2010Prop35
280
     0
102
RTVSPost2010PropOp35
 70
     1
102
RTVSPost2010Prop36
280
     0
102
RTVSPost2010PropOp36
 70
     1
102
RTVSPost2010Prop37
 90
       50
102
RTVSPost2010PropOp37
 70
     1
102
RTVSPost2010Prop38
140
0.0
102
RTVSPost2010PropOp38
 70
     1
102
RTVSPost2010Prop39
140
1.0
102
RTVSPost2010PropOp39
 70
     1
102
RTVSPost2010Prop40
 90
        0
102
RTVSPost2010PropOp40
 70
     1
102
RTVSPost2010Prop41ColorIndex
 90
       18
102
RTVSPost2010Prop41ColorRGB
 90
        0
102
RTVSPost2010PropOp41
 70
     1
102
RTVSPost2010Prop42
 90
       50
102
RTVSPost2010PropOp42
 70
     1
102
RTVSPost2010Prop43
 90
        3
102
RTVSPost2010PropOp43
 70
     1
102
RTVSPost2010Prop44ColorIndex
 90
        5
102
RTVSPost2010Prop44ColorRGB
 90
      255
102
RTVSPost2010PropOp44
 70
     1
102
RTVSPost2010Prop45
280
     0
102
RTVSPost2010PropOp45
 70
     1
102
RTVSPost2010Prop46
 90
       50
102
RTVSPost2010PropOp46
 70
     1
102
RTVSPost2010Prop47
 90
       50
102
RTVSPost2010PropOp47
 70
     1
102
RTVSPost2010Prop48
 90
       50
102
RTVSPost2010PropOp48
 70
     1
102
RTVSPost2010Prop49
280
     0
102
RTVSPost2010PropOp49
 70
     1
102
RTVSPost2010Prop50
 90
       50
102
RTVSPost2010PropOp50
 70
     1
102
RTVSPost2010Prop51ColorIndex
 90
      256
102
RTVSPost2010Prop51ColorRGB
 90
-16777216
102
RTVSPost2010PropOp51
 70
     0
102
RTVSPost2010Prop52
140
1.0
102
RTVSPost2010PropOp52
 70
     0
102
RTVSPost2010Prop53
 90
        2
102
RTVSPost2010PropOp53
 70
     1
102
RTVSPost2010Prop54
  1
strokes_ogs.tif
102
RTVSPost2010PropOp54
 70
     1
102
RTVSPost2010Prop55
280
     0
102
RTVSPost2010PropOp55
 70
     1
102
RTVSPost2010Prop56
140
1.0
102
RTVSPost2010PropOp56
 70
     1
102
RTVSPost2010Prop57
140
1.0
102
RTVSPost2010PropOp57
 70
     1
  0
XRECORD
  5
507
102
{ACAD_REACTORS
330
506
102
}
330
506
100
AcDbXrecord
280
     1
102
RTVSPost2010Prop28
280
     0
102
RTVSPost2010PropOp28
 70
     1
102
RTVSPost2010Prop29
280
     1
102
RTVSPost2010PropOp29
 70
     1
102
RTVSPost2010Prop30
280
     1
102
RTVSPost2010PropOp30
 70
     1
102
RTVSPost2010Prop31
280
     0
102
RTVSPost2010PropOp31
 70
     1
102
RTVSPost2010Prop32
280
     0
102
RTVSPost2010PropOp32
 70
     1
102
RTVSPost2010Prop33
280
     0
102
RTVSPost2010PropOp33
 70
     1
102
RTVSPost2010Prop34
280
     0
102
RTVSPost2010PropOp34
 70
     1
102
RTVSPost2010Prop35
280
     0
102
RTVSPost2010PropOp35
 70
     1
102
RTVSPost2010Prop36
280
     0
102
RTVSPost2010PropOp36
 70
     1
102
RTVSPost2010Prop37
 90
       50
102
RTVSPost2010PropOp37
 70
     1
102
RTVSPost2010Prop38
140
0.0
102
RTVSPost2010PropOp38
 70
     1
102
RTVSPost2010Prop39
140
1.0
102
RTVSPost2010PropOp39
 70
     1
102
RTVSPost2010Prop40
 90
        0
102
RTVSPost2010PropOp40
 70
     1
102
RTVSPost2010Prop41ColorIndex
 90
       18
102
RTVSPost2010Prop41ColorRGB
 90
        0
102
RTVSPost2010PropOp41
 70
     1
102
RTVSPost2010Prop42
 90
       50
102
RTVSPost2010PropOp42
 70
     1
102
RTVSPost2010Prop43
 90
        3
102
RTVSPost2010PropOp43
 70
     1
102
RTVSPost2010Prop44ColorIndex
 90
        5
102
RTVSPost2010Prop44ColorRGB
 90
      255
102
RTVSPost2010PropOp44
 70
     1
102
RTVSPost2010Prop45
280
     0
102
RTVSPost2010PropOp45
 70
     1
102
RTVSPost2010Prop46
 90
       50
102
RTVSPost2010PropOp46
 70
     1
102
RTVSPost2010Prop47
 90
       50
102
RTVSPost2010PropOp47
 70
     1
102
RTVSPost2010Prop48
 90
       50
102
RTVSPost2010PropOp48
 70
     1
102
RTVSPost2010Prop49
280
     0
102
RTVSPost2010PropOp49
 70
     1
102
RTVSPost2010Prop50
 90
       50
102
RTVSPost2010PropOp50
 70
     1
102
RTVSPost2010Prop51ColorIndex
 90
      256
102
RTVSPost2010Prop51ColorRGB
 90
-16777216
102
RTVSPost2010PropOp51
 70
     0
102
RTVSPost2010Prop52
140
1.0
102
RTVSPost2010PropOp52
 70
     0
102
RTVSPost2010Prop53
 90
        2
102
RTVSPost2010PropOp53
 70
     1
102
RTVSPost2010Prop54
  1
strokes_ogs.tif
102
RTVSPost2010PropOp54
 70
     1
102
RTVSPost2010Prop55
280
     0
102
RTVSPost2010PropOp55
 70
     1
102
RTVSPost2010Prop56
140
1.0
102
RTVSPost2010PropOp56
 70
     1
102
RTVSPost2010Prop57
140
1.0
102
RTVSPost2010PropOp57
 70
     1
  0
XRECORD
  5
50F
102
{ACAD_REACTORS
330
50E
102
}
330
50E
100
AcDbXrecord
280
     1
102
RTVSPost2010Prop28
280
     0
102
RTVSPost2010PropOp28
 70
     1
102
RTVSPost2010Prop29
280
     1
102
RTVSPost2010PropOp29
 70
     1
102
RTVSPost2010Prop30
280
     1
102
RTVSPost2010PropOp30
 70
     1
102
RTVSPost2010Prop31
280
     0
102
RTVSPost2010PropOp31
 70
     1
102
RTVSPost2010Prop32
280
     0
102
RTVSPost2010PropOp32
 70
     1
102
RTVSPost2010Prop33
280
     0
102
RTVSPost2010PropOp33
 70
     1
102
RTVSPost2010Prop34
280
     0
102
RTVSPost2010PropOp34
 70
     1
102
RTVSPost2010Prop35
280
     0
102
RTVSPost2010PropOp35
 70
     1
102
RTVSPost2010Prop36
280
     0
102
RTVSPost2010PropOp36
 70
     1
102
RTVSPost2010Prop37
 90
       50
102
RTVSPost2010PropOp37
 70
     1
102
RTVSPost2010Prop38
140
0.0
102
RTVSPost2010PropOp38
 70
     1
102
RTVSPost2010Prop39
140
1.0
102
RTVSPost2010PropOp39
 70
     1
102
RTVSPost2010Prop40
 90
        0
102
RTVSPost2010PropOp40
 70
     1
102
RTVSPost2010Prop41ColorIndex
 90
       18
102
RTVSPost2010Prop41ColorRGB
 90
        0
102
RTVSPost2010PropOp41
 70
     1
102
RTVSPost2010Prop42
 90
       50
102
RTVSPost2010PropOp42
 70
     1
102
RTVSPost2010Prop43
 90
        3
102
RTVSPost2010PropOp43
 70
     1
102
RTVSPost2010Prop44ColorIndex
 90
        5
102
RTVSPost2010Prop44ColorRGB
 90
      255
102
RTVSPost2010PropOp44
 70
     1
102
RTVSPost2010Prop45
280
     0
102
RTVSPost2010PropOp45
 70
     1
102
RTVSPost2010Prop46
 90
       50
102
RTVSPost2010PropOp46
 70
     1
102
RTVSPost2010Prop47
 90
       50
102
RTVSPost2010PropOp47
 70
     1
102
RTVSPost2010Prop48
 90
       50
102
RTVSPost2010PropOp48
 70
     1
102
RTVSPost2010Prop49
280
     0
102
RTVSPost2010PropOp49
 70
     1
102
RTVSPost2010Prop50
 90
       50
102
RTVSPost2010PropOp50
 70
     1
102
RTVSPost2010Prop51ColorIndex
 90
      256
102
RTVSPost2010Prop51ColorRGB
 90
-16777216
102
RTVSPost2010PropOp51
 70
     0
102
RTVSPost2010Prop52
140
1.0
102
RTVSPost2010PropOp52
 70
     0
102
RTVSPost2010Prop53
 90
        2
102
RTVSPost2010PropOp53
 70
     1
102
RTVSPost2010Prop54
  1
strokes_ogs.tif
102
RTVSPost2010PropOp54
 70
     1
102
RTVSPost2010Prop55
280
     0
102
RTVSPost2010PropOp55
 70
     1
102
RTVSPost2010Prop56
140
1.0
102
RTVSPost2010PropOp56
 70
     1
102
RTVSPost2010Prop57
140
1.0
102
RTVSPost2010PropOp57
 70
     1
  0
XRECORD
  5
517
102
{ACAD_REACTORS
330
516
102
}
330
516
100
AcDbXrecord
280
     1
102
RTVSPost2010Prop28
280
     0
102
RTVSPost2010PropOp28
 70
     1
102
RTVSPost2010Prop29
280
     1
102
RTVSPost2010PropOp29
 70
     1
102
RTVSPost2010Prop30
280
     1
102
RTVSPost2010PropOp30
 70
     1
102
RTVSPost2010Prop31
280
     0
102
RTVSPost2010PropOp31
 70
     1
102
RTVSPost2010Prop32
280
     0
102
RTVSPost2010PropOp32
 70
     1
102
RTVSPost2010Prop33
280
     0
102
RTVSPost2010PropOp33
 70
     1
102
RTVSPost2010Prop34
280
     0
102
RTVSPost2010PropOp34
 70
     1
102
RTVSPost2010Prop35
280
     0
102
RTVSPost2010PropOp35
 70
     1
102
RTVSPost2010Prop36
280
     0
102
RTVSPost2010PropOp36
 70
     1
102
RTVSPost2010Prop37
 90
       50
102
RTVSPost2010PropOp37
 70
     1
102
RTVSPost2010Prop38
140
0.0
102
RTVSPost2010PropOp38
 70
     1
102
RTVSPost2010Prop39
140
1.0
102
RTVSPost2010PropOp39
 70
     1
102
RTVSPost2010Prop40
 90
        0
102
RTVSPost2010PropOp40
 70
     1
102
RTVSPost2010Prop41ColorIndex
 90
       18
102
RTVSPost2010Prop41ColorRGB
 90
        0
102
RTVSPost2010PropOp41
 70
     1
102
RTVSPost2010Prop42
 90
       50
102
RTVSPost2010PropOp42
 70
     1
102
RTVSPost2010Prop43
 90
        3
102
RTVSPost2010PropOp43
 70
     1
102
RTVSPost2010Prop44ColorIndex
 90
        5
102
RTVSPost2010Prop44ColorRGB
 90
      255
102
RTVSPost2010PropOp44
 70
     1
102
RTVSPost2010Prop45
280
     0
102
RTVSPost2010PropOp45
 70
     1
102
RTVSPost2010Prop46
 90
       50
102
RTVSPost2010PropOp46
 70
     1
102
RTVSPost2010Prop47
 90
       50
102
RTVSPost2010PropOp47
 70
     1
102
RTVSPost2010Prop48
 90
       50
102
RTVSPost2010PropOp48
 70
     1
102
RTVSPost2010Prop49
280
     0
102
RTVSPost2010PropOp49
 70
     1
102
RTVSPost2010Prop50
 90
       50
102
RTVSPost2010PropOp50
 70
     1
102
RTVSPost2010Prop51ColorIndex
 90
      256
102
RTVSPost2010Prop51ColorRGB
 90
-16777216
102
RTVSPost2010PropOp51
 70
     0
102
RTVSPost2010Prop52
140
1.0
102
RTVSPost2010PropOp52
 70
     0
102
RTVSPost2010Prop53
 90
        2
102
RTVSPost2010PropOp53
 70
     1
102
RTVSPost2010Prop54
  1
strokes_ogs.tif
102
RTVSPost2010PropOp54
 70
     1
102
RTVSPost2010Prop55
280
     0
102
RTVSPost2010PropOp55
 70
     1
102
RTVSPost2010Prop56
140
1.0
102
RTVSPost2010PropOp56
 70
     1
102
RTVSPost2010Prop57
140
1.0
102
RTVSPost2010PropOp57
 70
     1
  0
XRECORD
  5
50B
102
{ACAD_REACTORS
330
50A
102
}
330
50A
100
AcDbXrecord
280
     1
102
RTVSPost2010Prop28
280
     0
102
RTVSPost2010PropOp28
 70
     1
102
RTVSPost2010Prop29
280
     1
102
RTVSPost2010PropOp29
 70
     1
102
RTVSPost2010Prop30
280
     1
102
RTVSPost2010PropOp30
 70
     1
102
RTVSPost2010Prop31
280
     0
102
RTVSPost2010PropOp31
 70
     1
102
RTVSPost2010Prop32
280
     0
102
RTVSPost2010PropOp32
 70
     1
102
RTVSPost2010Prop33
280
     0
102
RTVSPost2010PropOp33
 70
     1
102
RTVSPost2010Prop34
280
     0
102
RTVSPost2010PropOp34
 70
     1
102
RTVSPost2010Prop35
280
     0
102
RTVSPost2010PropOp35
 70
     1
102
RTVSPost2010Prop36
280
     0
102
RTVSPost2010PropOp36
 70
     1
102
RTVSPost2010Prop37
 90
       50
102
RTVSPost2010PropOp37
 70
     1
102
RTVSPost2010Prop38
140
0.0
102
RTVSPost2010PropOp38
 70
     1
102
RTVSPost2010Prop39
140
1.0
102
RTVSPost2010PropOp39
 70
     1
102
RTVSPost2010Prop40
 90
        0
102
RTVSPost2010PropOp40
 70
     1
102
RTVSPost2010Prop41ColorIndex
 90
       18
102
RTVSPost2010Prop41ColorRGB
 90
        0
102
RTVSPost2010PropOp41
 70
     1
102
RTVSPost2010Prop42
 90
       50
102
RTVSPost2010PropOp42
 70
     1
102
RTVSPost2010Prop43
 90
        3
102
RTVSPost2010PropOp43
 70
     1
102
RTVSPost2010Prop44ColorIndex
 90
        5
102
RTVSPost2010Prop44ColorRGB
 90
      255
102
RTVSPost2010PropOp44
 70
     1
102
RTVSPost2010Prop45
280
     0
102
RTVSPost2010PropOp45
 70
     1
102
RTVSPost2010Prop46
 90
       50
102
RTVSPost2010PropOp46
 70
     1
102
RTVSPost2010Prop47
 90
       50
102
RTVSPost2010PropOp47
 70
     1
102
RTVSPost2010Prop48
 90
       50
102
RTVSPost2010PropOp48
 70
     1
102
RTVSPost2010Prop49
280
     0
102
RTVSPost2010PropOp49
 70
     1
102
RTVSPost2010Prop50
 90
       50
102
RTVSPost2010PropOp50
 70
     1
102
RTVSPost2010Prop51ColorIndex
 90
      256
102
RTVSPost2010Prop51ColorRGB
 90
-16777216
102
RTVSPost2010PropOp51
 70
     0
102
RTVSPost2010Prop52
140
1.0
102
RTVSPost2010PropOp52
 70
     0
102
RTVSPost2010Prop53
 90
        2
102
RTVSPost2010PropOp53
 70
     1
102
RTVSPost2010Prop54
  1
strokes_ogs.tif
102
RTVSPost2010PropOp54
 70
     1
102
RTVSPost2010Prop55
280
     0
102
RTVSPost2010PropOp55
 70
     1
102
RTVSPost2010Prop56
140
1.0
102
RTVSPost2010PropOp56
 70
     1
102
RTVSPost2010Prop57
140
1.0
102
RTVSPost2010PropOp57
 70
     1
  0
XRECORD
  5
50D
102
{ACAD_REACTORS
330
50C
102
}
330
50C
100
AcDbXrecord
280
     1
102
RTVSPost2010Prop28
280
     0
102
RTVSPost2010PropOp28
 70
     1
102
RTVSPost2010Prop29
280
     1
102
RTVSPost2010PropOp29
 70
     1
102
RTVSPost2010Prop30
280
     1
102
RTVSPost2010PropOp30
 70
     1
102
RTVSPost2010Prop31
280
     0
102
RTVSPost2010PropOp31
 70
     1
102
RTVSPost2010Prop32
280
     0
102
RTVSPost2010PropOp32
 70
     1
102
RTVSPost2010Prop33
280
     0
102
RTVSPost2010PropOp33
 70
     1
102
RTVSPost2010Prop34
280
     0
102
RTVSPost2010PropOp34
 70
     1
102
RTVSPost2010Prop35
280
     0
102
RTVSPost2010PropOp35
 70
     1
102
RTVSPost2010Prop36
280
     0
102
RTVSPost2010PropOp36
 70
     1
102
RTVSPost2010Prop37
 90
       50
102
RTVSPost2010PropOp37
 70
     1
102
RTVSPost2010Prop38
140
0.0
102
RTVSPost2010PropOp38
 70
     1
102
RTVSPost2010Prop39
140
1.0
102
RTVSPost2010PropOp39
 70
     1
102
RTVSPost2010Prop40
 90
        0
102
RTVSPost2010PropOp40
 70
     1
102
RTVSPost2010Prop41ColorIndex
 90
       18
102
RTVSPost2010Prop41ColorRGB
 90
        0
102
RTVSPost2010PropOp41
 70
     1
102
RTVSPost2010Prop42
 90
       50
102
RTVSPost2010PropOp42
 70
     1
102
RTVSPost2010Prop43
 90
        3
102
RTVSPost2010PropOp43
 70
     1
102
RTVSPost2010Prop44ColorIndex
 90
        5
102
RTVSPost2010Prop44ColorRGB
 90
      255
102
RTVSPost2010PropOp44
 70
     1
102
RTVSPost2010Prop45
280
     0
102
RTVSPost2010PropOp45
 70
     1
102
RTVSPost2010Prop46
 90
       50
102
RTVSPost2010PropOp46
 70
     1
102
RTVSPost2010Prop47
 90
       50
102
RTVSPost2010PropOp47
 70
     1
102
RTVSPost2010Prop48
 90
       50
102
RTVSPost2010PropOp48
 70
     1
102
RTVSPost2010Prop49
280
     0
102
RTVSPost2010PropOp49
 70
     1
102
RTVSPost2010Prop50
 90
       50
102
RTVSPost2010PropOp50
 70
     1
102
RTVSPost2010Prop51ColorIndex
 90
      256
102
RTVSPost2010Prop51ColorRGB
 90
-16777216
102
RTVSPost2010PropOp51
 70
     0
102
RTVSPost2010Prop52
140
1.0
102
RTVSPost2010PropOp52
 70
     0
102
RTVSPost2010Prop53
 90
        2
102
RTVSPost2010PropOp53
 70
     1
102
RTVSPost2010Prop54
  1
strokes_ogs.tif
102
RTVSPost2010PropOp54
 70
     1
102
RTVSPost2010Prop55
280
     0
102
RTVSPost2010PropOp55
 70
     1
102
RTVSPost2010Prop56
140
1.0
102
RTVSPost2010PropOp56
 70
     1
102
RTVSPost2010Prop57
140
1.0
102
RTVSPost2010PropOp57
 70
     1
  0
XRECORD
  5
51D
102
{ACAD_REACTORS
330
51C
102
}
330
51C
100
AcDbXrecord
280
     1
102
RTVSPost2010Prop28
280
     0
102
RTVSPost2010PropOp28
 70
     0
102
RTVSPost2010Prop29
280
     1
102
RTVSPost2010PropOp29
 70
     0
102
RTVSPost2010Prop30
280
     1
102
RTVSPost2010PropOp30
 70
     0
102
RTVSPost2010Prop31
280
     0
102
RTVSPost2010PropOp31
 70
     0
102
RTVSPost2010Prop32
280
     0
102
RTVSPost2010PropOp32
 70
     0
102
RTVSPost2010Prop33
280
     0
102
RTVSPost2010PropOp33
 70
     0
102
RTVSPost2010Prop34
280
     0
102
RTVSPost2010PropOp34
 70
     0
102
RTVSPost2010Prop35
280
     0
102
RTVSPost2010PropOp35
 70
     0
102
RTVSPost2010Prop36
280
     0
102
RTVSPost2010PropOp36
 70
     0
102
RTVSPost2010Prop37
 90
       50
102
RTVSPost2010PropOp37
 70
     0
102
RTVSPost2010Prop38
140
0.0
102
RTVSPost2010PropOp38
 70
     0
102
RTVSPost2010Prop39
140
1.0
102
RTVSPost2010PropOp39
 70
     0
102
RTVSPost2010Prop40
 90
        0
102
RTVSPost2010PropOp40
 70
     0
102
RTVSPost2010Prop41ColorIndex
 90
       18
102
RTVSPost2010Prop41ColorRGB
 90
        0
102
RTVSPost2010PropOp41
 70
     0
102
RTVSPost2010Prop42
 90
       50
102
RTVSPost2010PropOp42
 70
     0
102
RTVSPost2010Prop43
 90
        3
102
RTVSPost2010PropOp43
 70
     0
102
RTVSPost2010Prop44ColorIndex
 90
        5
102
RTVSPost2010Prop44ColorRGB
 90
      255
102
RTVSPost2010PropOp44
 70
     0
102
RTVSPost2010Prop45
280
     0
102
RTVSPost2010PropOp45
 70
     0
102
RTVSPost2010Prop46
 90
       50
102
RTVSPost2010PropOp46
 70
     0
102
RTVSPost2010Prop47
 90
       50
102
RTVSPost2010PropOp47
 70
     0
102
RTVSPost2010Prop48
 90
       50
102
RTVSPost2010PropOp48
 70
     0
102
RTVSPost2010Prop49
280
     0
102
RTVSPost2010PropOp49
 70
     0
102
RTVSPost2010Prop50
 90
       50
102
RTVSPost2010PropOp50
 70
     0
102
RTVSPost2010Prop51ColorIndex
 90
      256
102
RTVSPost2010Prop51ColorRGB
 90
-16777216
102
RTVSPost2010PropOp51
 70
     0
102
RTVSPost2010Prop52
140
1.0
102
RTVSPost2010PropOp52
 70
     0
102
RTVSPost2010Prop53
 90
        2
102
RTVSPost2010PropOp53
 70
     0
102
RTVSPost2010Prop54
  1
strokes_ogs.tif
102
RTVSPost2010PropOp54
 70
     0
102
RTVSPost2010Prop55
280
     0
102
RTVSPost2010PropOp55
 70
     0
102
RTVSPost2010Prop56
140
1.0
102
RTVSPost2010PropOp56
 70
     0
102
RTVSPost2010Prop57
140
1.0
102
RTVSPost2010PropOp57
 70
     0
  0
XRECORD
  5
515
102
{ACAD_REACTORS
330
514
102
}
330
514
100
AcDbXrecord
280
     1
102
RTVSPost2010Prop28
280
     0
102
RTVSPost2010PropOp28
 70
     1
102
RTVSPost2010Prop29
280
     1
102
RTVSPost2010PropOp29
 70
     1
102
RTVSPost2010Prop30
280
     1
102
RTVSPost2010PropOp30
 70
     1
102
RTVSPost2010Prop31
280
     0
102
RTVSPost2010PropOp31
 70
     1
102
RTVSPost2010Prop32
280
     0
102
RTVSPost2010PropOp32
 70
     1
102
RTVSPost2010Prop33
280
     0
102
RTVSPost2010PropOp33
 70
     1
102
RTVSPost2010Prop34
280
     0
102
RTVSPost2010PropOp34
 70
     1
102
RTVSPost2010Prop35
280
     0
102
RTVSPost2010PropOp35
 70
     1
102
RTVSPost2010Prop36
280
     0
102
RTVSPost2010PropOp36
 70
     1
102
RTVSPost2010Prop37
 90
       50
102
RTVSPost2010PropOp37
 70
     1
102
RTVSPost2010Prop38
140
0.0
102
RTVSPost2010PropOp38
 70
     1
102
RTVSPost2010Prop39
140
1.0
102
RTVSPost2010PropOp39
 70
     1
102
RTVSPost2010Prop40
 90
        0
102
RTVSPost2010PropOp40
 70
     1
102
RTVSPost2010Prop41ColorIndex
 90
       18
102
RTVSPost2010Prop41ColorRGB
 90
        0
102
RTVSPost2010PropOp41
 70
     1
102
RTVSPost2010Prop42
 90
       50
102
RTVSPost2010PropOp42
 70
     1
102
RTVSPost2010Prop43
 90
        3
102
RTVSPost2010PropOp43
 70
     1
102
RTVSPost2010Prop44ColorIndex
 90
        5
102
RTVSPost2010Prop44ColorRGB
 90
      255
102
RTVSPost2010PropOp44
 70
     1
102
RTVSPost2010Prop45
280
     0
102
RTVSPost2010PropOp45
 70
     1
102
RTVSPost2010Prop46
 90
       50
102
RTVSPost2010PropOp46
 70
     1
102
RTVSPost2010Prop47
 90
       50
102
RTVSPost2010PropOp47
 70
     1
102
RTVSPost2010Prop48
 90
       50
102
RTVSPost2010PropOp48
 70
     1
102
RTVSPost2010Prop49
280
     0
102
RTVSPost2010PropOp49
 70
     1
102
RTVSPost2010Prop50
 90
       50
102
RTVSPost2010PropOp50
 70
     1
102
RTVSPost2010Prop51ColorIndex
 90
      256
102
RTVSPost2010Prop51ColorRGB
 90
-16777216
102
RTVSPost2010PropOp51
 70
     0
102
RTVSPost2010Prop52
140
1.0
102
RTVSPost2010PropOp52
 70
     0
102
RTVSPost2010Prop53
 90
        2
102
RTVSPost2010PropOp53
 70
     1
102
RTVSPost2010Prop54
  1
strokes_ogs.tif
102
RTVSPost2010PropOp54
 70
     1
102
RTVSPost2010Prop55
280
     0
102
RTVSPost2010PropOp55
 70
     1
102
RTVSPost2010Prop56
140
1.0
102
RTVSPost2010PropOp56
 70
     1
102
RTVSPost2010Prop57
140
1.0
102
RTVSPost2010PropOp57
 70
     1
  0
XRECORD
  5
4F9
102
{ACAD_REACTORS
330
4F8
102
}
330
4F8
100
AcDbXrecord
280
     1
102
RTVSPost2010Prop28
280
     0
102
RTVSPost2010PropOp28
 70
     1
102
RTVSPost2010Prop29
280
     1
102
RTVSPost2010PropOp29
 70
     1
102
RTVSPost2010Prop30
280
     1
102
RTVSPost2010PropOp30
 70
     1
102
RTVSPost2010Prop31
280
     0
102
RTVSPost2010PropOp31
 70
     1
102
RTVSPost2010Prop32
280
     0
102
RTVSPost2010PropOp32
 70
     1
102
RTVSPost2010Prop33
280
     0
102
RTVSPost2010PropOp33
 70
     1
102
RTVSPost2010Prop34
280
     0
102
RTVSPost2010PropOp34
 70
     1
102
RTVSPost2010Prop35
280
     0
102
RTVSPost2010PropOp35
 70
     1
102
RTVSPost2010Prop36
280
     0
102
RTVSPost2010PropOp36
 70
     1
102
RTVSPost2010Prop37
 90
       50
102
RTVSPost2010PropOp37
 70
     1
102
RTVSPost2010Prop38
140
0.0
102
RTVSPost2010PropOp38
 70
     1
102
RTVSPost2010Prop39
140
1.0
102
RTVSPost2010PropOp39
 70
     1
102
RTVSPost2010Prop40
 90
        0
102
RTVSPost2010PropOp40
 70
     1
102
RTVSPost2010Prop41ColorIndex
 90
       18
102
RTVSPost2010Prop41ColorRGB
 90
        0
102
RTVSPost2010PropOp41
 70
     1
102
RTVSPost2010Prop42
 90
       50
102
RTVSPost2010PropOp42
 70
     1
102
RTVSPost2010Prop43
 90
        3
102
RTVSPost2010PropOp43
 70
     1
102
RTVSPost2010Prop44ColorIndex
 90
        5
102
RTVSPost2010Prop44ColorRGB
 90
      255
102
RTVSPost2010PropOp44
 70
     1
102
RTVSPost2010Prop45
280
     0
102
RTVSPost2010PropOp45
 70
     1
102
RTVSPost2010Prop46
 90
       50
102
RTVSPost2010PropOp46
 70
     1
102
RTVSPost2010Prop47
 90
       50
102
RTVSPost2010PropOp47
 70
     1
102
RTVSPost2010Prop48
 90
       50
102
RTVSPost2010PropOp48
 70
     1
102
RTVSPost2010Prop49
280
     0
102
RTVSPost2010PropOp49
 70
     1
102
RTVSPost2010Prop50
 90
       50
102
RTVSPost2010PropOp50
 70
     1
102
RTVSPost2010Prop51ColorIndex
 90
      256
102
RTVSPost2010Prop51ColorRGB
 90
-16777216
102
RTVSPost2010PropOp51
 70
     0
102
RTVSPost2010Prop52
140
1.0
102
RTVSPost2010PropOp52
 70
     0
102
RTVSPost2010Prop53
 90
        2
102
RTVSPost2010PropOp53
 70
     1
102
RTVSPost2010Prop54
  1
strokes_ogs.tif
102
RTVSPost2010PropOp54
 70
     1
102
RTVSPost2010Prop55
280
     0
102
RTVSPost2010PropOp55
 70
     1
102
RTVSPost2010Prop56
140
1.0
102
RTVSPost2010PropOp56
 70
     1
102
RTVSPost2010Prop57
140
1.0
102
RTVSPost2010PropOp57
 70
     1
  0
XRECORD
  5
4FB
102
{ACAD_REACTORS
330
4FA
102
}
330
4FA
100
AcDbXrecord
280
     1
102
RTVSPost2010Prop28
280
     0
102
RTVSPost2010PropOp28
 70
     1
102
RTVSPost2010Prop29
280
     1
102
RTVSPost2010PropOp29
 70
     1
102
RTVSPost2010Prop30
280
     1
102
RTVSPost2010PropOp30
 70
     1
102
RTVSPost2010Prop31
280
     0
102
RTVSPost2010PropOp31
 70
     1
102
RTVSPost2010Prop32
280
     0
102
RTVSPost2010PropOp32
 70
     1
102
RTVSPost2010Prop33
280
     0
102
RTVSPost2010PropOp33
 70
     1
102
RTVSPost2010Prop34
280
     0
102
RTVSPost2010PropOp34
 70
     1
102
RTVSPost2010Prop35
280
     0
102
RTVSPost2010PropOp35
 70
     1
102
RTVSPost2010Prop36
280
     0
102
RTVSPost2010PropOp36
 70
     1
102
RTVSPost2010Prop37
 90
       50
102
RTVSPost2010PropOp37
 70
     1
102
RTVSPost2010Prop38
140
0.0
102
RTVSPost2010PropOp38
 70
     1
102
RTVSPost2010Prop39
140
1.0
102
RTVSPost2010PropOp39
 70
     1
102
RTVSPost2010Prop40
 90
        0
102
RTVSPost2010PropOp40
 70
     1
102
RTVSPost2010Prop41ColorIndex
 90
       18
102
RTVSPost2010Prop41ColorRGB
 90
        0
102
RTVSPost2010PropOp41
 70
     1
102
RTVSPost2010Prop42
 90
       50
102
RTVSPost2010PropOp42
 70
     1
102
RTVSPost2010Prop43
 90
        3
102
RTVSPost2010PropOp43
 70
     1
102
RTVSPost2010Prop44ColorIndex
 90
        5
102
RTVSPost2010Prop44ColorRGB
 90
      255
102
RTVSPost2010PropOp44
 70
     1
102
RTVSPost2010Prop45
280
     0
102
RTVSPost2010PropOp45
 70
     1
102
RTVSPost2010Prop46
 90
       50
102
RTVSPost2010PropOp46
 70
     1
102
RTVSPost2010Prop47
 90
       50
102
RTVSPost2010PropOp47
 70
     1
102
RTVSPost2010Prop48
 90
       50
102
RTVSPost2010PropOp48
 70
     1
102
RTVSPost2010Prop49
280
     0
102
RTVSPost2010PropOp49
 70
     1
102
RTVSPost2010Prop50
 90
       50
102
RTVSPost2010PropOp50
 70
     1
102
RTVSPost2010Prop51ColorIndex
 90
      256
102
RTVSPost2010Prop51ColorRGB
 90
-16777216
102
RTVSPost2010PropOp51
 70
     0
102
RTVSPost2010Prop52
140
1.0
102
RTVSPost2010PropOp52
 70
     0
102
RTVSPost2010Prop53
 90
        2
102
RTVSPost2010PropOp53
 70
     1
102
RTVSPost2010Prop54
  1
strokes_ogs.tif
102
RTVSPost2010PropOp54
 70
     1
102
RTVSPost2010Prop55
280
     0
102
RTVSPost2010PropOp55
 70
     1
102
RTVSPost2010Prop56
140
1.0
102
RTVSPost2010PropOp56
 70
     1
102
RTVSPost2010Prop57
140
1.0
102
RTVSPost2010PropOp57
 70
     1
  0
XRECORD
  5
4FD
102
{ACAD_REACTORS
330
4FC
102
}
330
4FC
100
AcDbXrecord
280
     1
102
RTVSPost2010Prop28
280
     0
102
RTVSPost2010PropOp28
 70
     1
102
RTVSPost2010Prop29
280
     1
102
RTVSPost2010PropOp29
 70
     1
102
RTVSPost2010Prop30
280
     1
102
RTVSPost2010PropOp30
 70
     1
102
RTVSPost2010Prop31
280
     0
102
RTVSPost2010PropOp31
 70
     1
102
RTVSPost2010Prop32
280
     0
102
RTVSPost2010PropOp32
 70
     1
102
RTVSPost2010Prop33
280
     0
102
RTVSPost2010PropOp33
 70
     1
102
RTVSPost2010Prop34
280
     0
102
RTVSPost2010PropOp34
 70
     1
102
RTVSPost2010Prop35
280
     0
102
RTVSPost2010PropOp35
 70
     1
102
RTVSPost2010Prop36
280
     0
102
RTVSPost2010PropOp36
 70
     1
102
RTVSPost2010Prop37
 90
       50
102
RTVSPost2010PropOp37
 70
     1
102
RTVSPost2010Prop38
140
0.0
102
RTVSPost2010PropOp38
 70
     1
102
RTVSPost2010Prop39
140
1.0
102
RTVSPost2010PropOp39
 70
     1
102
RTVSPost2010Prop40
 90
        0
102
RTVSPost2010PropOp40
 70
     1
102
RTVSPost2010Prop41ColorIndex
 90
       18
102
RTVSPost2010Prop41ColorRGB
 90
        0
102
RTVSPost2010PropOp41
 70
     1
102
RTVSPost2010Prop42
 90
       50
102
RTVSPost2010PropOp42
 70
     1
102
RTVSPost2010Prop43
 90
        3
102
RTVSPost2010PropOp43
 70
     1
102
RTVSPost2010Prop44ColorIndex
 90
        5
102
RTVSPost2010Prop44ColorRGB
 90
      255
102
RTVSPost2010PropOp44
 70
     1
102
RTVSPost2010Prop45
280
     0
102
RTVSPost2010PropOp45
 70
     1
102
RTVSPost2010Prop46
 90
       50
102
RTVSPost2010PropOp46
 70
     1
102
RTVSPost2010Prop47
 90
       50
102
RTVSPost2010PropOp47
 70
     1
102
RTVSPost2010Prop48
 90
       50
102
RTVSPost2010PropOp48
 70
     1
102
RTVSPost2010Prop49
280
     0
102
RTVSPost2010PropOp49
 70
     1
102
RTVSPost2010Prop50
 90
       50
102
RTVSPost2010PropOp50
 70
     1
102
RTVSPost2010Prop51ColorIndex
 90
      256
102
RTVSPost2010Prop51ColorRGB
 90
-16777216
102
RTVSPost2010PropOp51
 70
     0
102
RTVSPost2010Prop52
140
1.0
102
RTVSPost2010PropOp52
 70
     0
102
RTVSPost2010Prop53
 90
        2
102
RTVSPost2010PropOp53
 70
     1
102
RTVSPost2010Prop54
  1
strokes_ogs.tif
102
RTVSPost2010PropOp54
 70
     1
102
RTVSPost2010Prop55
280
     0
102
RTVSPost2010PropOp55
 70
     1
102
RTVSPost2010Prop56
140
1.0
102
RTVSPost2010PropOp56
 70
     1
102
RTVSPost2010Prop57
140
1.0
102
RTVSPost2010PropOp57
 70
     1
  0
XRECORD
  5
4FF
102
{ACAD_REACTORS
330
4FE
102
}
330
4FE
100
AcDbXrecord
280
     1
102
RTVSPost2010Prop28
280
     0
102
RTVSPost2010PropOp28
 70
     1
102
RTVSPost2010Prop29
280
     1
102
RTVSPost2010PropOp29
 70
     1
102
RTVSPost2010Prop30
280
     1
102
RTVSPost2010PropOp30
 70
     1
102
RTVSPost2010Prop31
280
     0
102
RTVSPost2010PropOp31
 70
     1
102
RTVSPost2010Prop32
280
     0
102
RTVSPost2010PropOp32
 70
     1
102
RTVSPost2010Prop33
280
     0
102
RTVSPost2010PropOp33
 70
     1
102
RTVSPost2010Prop34
280
     0
102
RTVSPost2010PropOp34
 70
     1
102
RTVSPost2010Prop35
280
     0
102
RTVSPost2010PropOp35
 70
     1
102
RTVSPost2010Prop36
280
     0
102
RTVSPost2010PropOp36
 70
     1
102
RTVSPost2010Prop37
 90
       50
102
RTVSPost2010PropOp37
 70
     1
102
RTVSPost2010Prop38
140
0.0
102
RTVSPost2010PropOp38
 70
     1
102
RTVSPost2010Prop39
140
1.0
102
RTVSPost2010PropOp39
 70
     1
102
RTVSPost2010Prop40
 90
        0
102
RTVSPost2010PropOp40
 70
     1
102
RTVSPost2010Prop41ColorIndex
 90
       18
102
RTVSPost2010Prop41ColorRGB
 90
        0
102
RTVSPost2010PropOp41
 70
     1
102
RTVSPost2010Prop42
 90
       50
102
RTVSPost2010PropOp42
 70
     1
102
RTVSPost2010Prop43
 90
        3
102
RTVSPost2010PropOp43
 70
     1
102
RTVSPost2010Prop44ColorIndex
 90
        5
102
RTVSPost2010Prop44ColorRGB
 90
      255
102
RTVSPost2010PropOp44
 70
     1
102
RTVSPost2010Prop45
280
     0
102
RTVSPost2010PropOp45
 70
     1
102
RTVSPost2010Prop46
 90
       50
102
RTVSPost2010PropOp46
 70
     1
102
RTVSPost2010Prop47
 90
       50
102
RTVSPost2010PropOp47
 70
     1
102
RTVSPost2010Prop48
 90
       50
102
RTVSPost2010PropOp48
 70
     1
102
RTVSPost2010Prop49
280
     0
102
RTVSPost2010PropOp49
 70
     1
102
RTVSPost2010Prop50
 90
       50
102
RTVSPost2010PropOp50
 70
     1
102
RTVSPost2010Prop51ColorIndex
 90
      256
102
RTVSPost2010Prop51ColorRGB
 90
-16777216
102
RTVSPost2010PropOp51
 70
     0
102
RTVSPost2010Prop52
140
1.0
102
RTVSPost2010PropOp52
 70
     0
102
RTVSPost2010Prop53
 90
        2
102
RTVSPost2010PropOp53
 70
     1
102
RTVSPost2010Prop54
  1
strokes_ogs.tif
102
RTVSPost2010PropOp54
 70
     1
102
RTVSPost2010Prop55
280
     0
102
RTVSPost2010PropOp55
 70
     1
102
RTVSPost2010Prop56
140
1.0
102
RTVSPost2010PropOp56
 70
     1
102
RTVSPost2010Prop57
140
1.0
102
RTVSPost2010PropOp57
 70
     1
  0
XRECORD
  5
505
102
{ACAD_REACTORS
330
504
102
}
330
504
100
AcDbXrecord
280
     1
102
RTVSPost2010Prop28
280
     0
102
RTVSPost2010PropOp28
 70
     1
102
RTVSPost2010Prop29
280
     1
102
RTVSPost2010PropOp29
 70
     1
102
RTVSPost2010Prop30
280
     1
102
RTVSPost2010PropOp30
 70
     1
102
RTVSPost2010Prop31
280
     0
102
RTVSPost2010PropOp31
 70
     1
102
RTVSPost2010Prop32
280
     0
102
RTVSPost2010PropOp32
 70
     1
102
RTVSPost2010Prop33
280
     0
102
RTVSPost2010PropOp33
 70
     1
102
RTVSPost2010Prop34
280
     0
102
RTVSPost2010PropOp34
 70
     1
102
RTVSPost2010Prop35
280
     0
102
RTVSPost2010PropOp35
 70
     1
102
RTVSPost2010Prop36
280
     0
102
RTVSPost2010PropOp36
 70
     1
102
RTVSPost2010Prop37
 90
       50
102
RTVSPost2010PropOp37
 70
     1
102
RTVSPost2010Prop38
140
0.0
102
RTVSPost2010PropOp38
 70
     1
102
RTVSPost2010Prop39
140
1.0
102
RTVSPost2010PropOp39
 70
     1
102
RTVSPost2010Prop40
 90
        0
102
RTVSPost2010PropOp40
 70
     1
102
RTVSPost2010Prop41ColorIndex
 90
       18
102
RTVSPost2010Prop41ColorRGB
 90
        0
102
RTVSPost2010PropOp41
 70
     1
102
RTVSPost2010Prop42
 90
       50
102
RTVSPost2010PropOp42
 70
     1
102
RTVSPost2010Prop43
 90
        3
102
RTVSPost2010PropOp43
 70
     1
102
RTVSPost2010Prop44ColorIndex
 90
        5
102
RTVSPost2010Prop44ColorRGB
 90
      255
102
RTVSPost2010PropOp44
 70
     1
102
RTVSPost2010Prop45
280
     0
102
RTVSPost2010PropOp45
 70
     1
102
RTVSPost2010Prop46
 90
       50
102
RTVSPost2010PropOp46
 70
     1
102
RTVSPost2010Prop47
 90
       50
102
RTVSPost2010PropOp47
 70
     1
102
RTVSPost2010Prop48
 90
       50
102
RTVSPost2010PropOp48
 70
     1
102
RTVSPost2010Prop49
280
     0
102
RTVSPost2010PropOp49
 70
     1
102
RTVSPost2010Prop50
 90
       50
102
RTVSPost2010PropOp50
 70
     1
102
RTVSPost2010Prop51ColorIndex
 90
      256
102
RTVSPost2010Prop51ColorRGB
 90
-16777216
102
RTVSPost2010PropOp51
 70
     0
102
RTVSPost2010Prop52
140
1.0
102
RTVSPost2010PropOp52
 70
     0
102
RTVSPost2010Prop53
 90
        2
102
RTVSPost2010PropOp53
 70
     1
102
RTVSPost2010Prop54
  1
strokes_ogs.tif
102
RTVSPost2010PropOp54
 70
     1
102
RTVSPost2010Prop55
280
     0
102
RTVSPost2010PropOp55
 70
     1
102
RTVSPost2010Prop56
140
1.0
102
RTVSPost2010PropOp56
 70
     1
102
RTVSPost2010Prop57
140
1.0
102
RTVSPost2010PropOp57
 70
     1
  0
XRECORD
  5
519
102
{ACAD_REACTORS
330
518
102
}
330
518
100
AcDbXrecord
280
     1
102
RTVSPost2010Prop28
280
     0
102
RTVSPost2010PropOp28
 70
     0
102
RTVSPost2010Prop29
280
     1
102
RTVSPost2010PropOp29
 70
     0
102
RTVSPost2010Prop30
280
     1
102
RTVSPost2010PropOp30
 70
     0
102
RTVSPost2010Prop31
280
     0
102
RTVSPost2010PropOp31
 70
     0
102
RTVSPost2010Prop32
280
     0
102
RTVSPost2010PropOp32
 70
     0
102
RTVSPost2010Prop33
280
     0
102
RTVSPost2010PropOp33
 70
     0
102
RTVSPost2010Prop34
280
     0
102
RTVSPost2010PropOp34
 70
     0
102
RTVSPost2010Prop35
280
     0
102
RTVSPost2010PropOp35
 70
     0
102
RTVSPost2010Prop36
280
     0
102
RTVSPost2010PropOp36
 70
     0
102
RTVSPost2010Prop37
 90
       50
102
RTVSPost2010PropOp37
 70
     0
102
RTVSPost2010Prop38
140
0.0
102
RTVSPost2010PropOp38
 70
     0
102
RTVSPost2010Prop39
140
1.0
102
RTVSPost2010PropOp39
 70
     0
102
RTVSPost2010Prop40
 90
        0
102
RTVSPost2010PropOp40
 70
     0
102
RTVSPost2010Prop41ColorIndex
 90
       18
102
RTVSPost2010Prop41ColorRGB
 90
        0
102
RTVSPost2010PropOp41
 70
     0
102
RTVSPost2010Prop42
 90
       50
102
RTVSPost2010PropOp42
 70
     0
102
RTVSPost2010Prop43
 90
        3
102
RTVSPost2010PropOp43
 70
     0
102
RTVSPost2010Prop44ColorIndex
 90
        5
102
RTVSPost2010Prop44ColorRGB
 90
      255
102
RTVSPost2010PropOp44
 70
     0
102
RTVSPost2010Prop45
280
     0
102
RTVSPost2010PropOp45
 70
     0
102
RTVSPost2010Prop46
 90
       50
102
RTVSPost2010PropOp46
 70
     0
102
RTVSPost2010Prop47
 90
       50
102
RTVSPost2010PropOp47
 70
     0
102
RTVSPost2010Prop48
 90
       50
102
RTVSPost2010PropOp48
 70
     0
102
RTVSPost2010Prop49
280
     0
102
RTVSPost2010PropOp49
 70
     0
102
RTVSPost2010Prop50
 90
       50
102
RTVSPost2010PropOp50
 70
     0
102
RTVSPost2010Prop51ColorIndex
 90
      256
102
RTVSPost2010Prop51ColorRGB
 90
-16777216
102
RTVSPost2010PropOp51
 70
     0
102
RTVSPost2010Prop52
140
1.0
102
RTVSPost2010PropOp52
 70
     0
102
RTVSPost2010Prop53
 90
        2
102
RTVSPost2010PropOp53
 70
     0
102
RTVSPost2010Prop54
  1
strokes_ogs.tif
102
RTVSPost2010PropOp54
 70
     0
102
RTVSPost2010Prop55
280
     0
102
RTVSPost2010PropOp55
 70
     0
102
RTVSPost2010Prop56
140
1.0
102
RTVSPost2010PropOp56
 70
     0
102
RTVSPost2010Prop57
140
1.0
102
RTVSPost2010PropOp57
 70
     0
  0
XRECORD
  5
513
102
{ACAD_REACTORS
330
512
102
}
330
512
100
AcDbXrecord
280
     1
102
RTVSPost2010Prop28
280
     0
102
RTVSPost2010PropOp28
 70
     1
102
RTVSPost2010Prop29
280
     1
102
RTVSPost2010PropOp29
 70
     1
102
RTVSPost2010Prop30
280
     1
102
RTVSPost2010PropOp30
 70
     1
102
RTVSPost2010Prop31
280
     0
102
RTVSPost2010PropOp31
 70
     1
102
RTVSPost2010Prop32
280
     0
102
RTVSPost2010PropOp32
 70
     1
102
RTVSPost2010Prop33
280
     0
102
RTVSPost2010PropOp33
 70
     1
102
RTVSPost2010Prop34
280
     0
102
RTVSPost2010PropOp34
 70
     1
102
RTVSPost2010Prop35
280
     0
102
RTVSPost2010PropOp35
 70
     1
102
RTVSPost2010Prop36
280
     0
102
RTVSPost2010PropOp36
 70
     1
102
RTVSPost2010Prop37
 90
       50
102
RTVSPost2010PropOp37
 70
     1
102
RTVSPost2010Prop38
140
0.0
102
RTVSPost2010PropOp38
 70
     1
102
RTVSPost2010Prop39
140
1.0
102
RTVSPost2010PropOp39
 70
     1
102
RTVSPost2010Prop40
 90
        0
102
RTVSPost2010PropOp40
 70
     1
102
RTVSPost2010Prop41ColorIndex
 90
       18
102
RTVSPost2010Prop41ColorRGB
 90
        0
102
RTVSPost2010PropOp41
 70
     1
102
RTVSPost2010Prop42
 90
       50
102
RTVSPost2010PropOp42
 70
     1
102
RTVSPost2010Prop43
 90
        3
102
RTVSPost2010PropOp43
 70
     1
102
RTVSPost2010Prop44ColorIndex
 90
        5
102
RTVSPost2010Prop44ColorRGB
 90
      255
102
RTVSPost2010PropOp44
 70
     1
102
RTVSPost2010Prop45
280
     0
102
RTVSPost2010PropOp45
 70
     1
102
RTVSPost2010Prop46
 90
       50
102
RTVSPost2010PropOp46
 70
     1
102
RTVSPost2010Prop47
 90
       50
102
RTVSPost2010PropOp47
 70
     1
102
RTVSPost2010Prop48
 90
       50
102
RTVSPost2010PropOp48
 70
     1
102
RTVSPost2010Prop49
280
     0
102
RTVSPost2010PropOp49
 70
     1
102
RTVSPost2010Prop50
 90
       50
102
RTVSPost2010PropOp50
 70
     1
102
RTVSPost2010Prop51ColorIndex
 90
      256
102
RTVSPost2010Prop51ColorRGB
 90
-16777216
102
RTVSPost2010PropOp51
 70
     0
102
RTVSPost2010Prop52
140
1.0
102
RTVSPost2010PropOp52
 70
     0
102
RTVSPost2010Prop53
 90
        2
102
RTVSPost2010PropOp53
 70
     1
102
RTVSPost2010Prop54
  1
strokes_ogs.tif
102
RTVSPost2010PropOp54
 70
     1
102
RTVSPost2010Prop55
280
     0
102
RTVSPost2010PropOp55
 70
     1
102
RTVSPost2010Prop56
140
1.0
102
RTVSPost2010PropOp56
 70
     1
102
RTVSPost2010Prop57
140
1.0
102
RTVSPost2010PropOp57
 70
     1
  0
XRECORD
  5
51B
102
{ACAD_REACTORS
330
51A
102
}
330
51A
100
AcDbXrecord
280
     1
102
RTVSPost2010Prop28
280
     0
102
RTVSPost2010PropOp28
 70
     0
102
RTVSPost2010Prop29
280
     1
102
RTVSPost2010PropOp29
 70
     0
102
RTVSPost2010Prop30
280
     1
102
RTVSPost2010PropOp30
 70
     0
102
RTVSPost2010Prop31
280
     0
102
RTVSPost2010PropOp31
 70
     0
102
RTVSPost2010Prop32
280
     0
102
RTVSPost2010PropOp32
 70
     0
102
RTVSPost2010Prop33
280
     0
102
RTVSPost2010PropOp33
 70
     0
102
RTVSPost2010Prop34
280
     0
102
RTVSPost2010PropOp34
 70
     0
102
RTVSPost2010Prop35
280
     0
102
RTVSPost2010PropOp35
 70
     0
102
RTVSPost2010Prop36
280
     0
102
RTVSPost2010PropOp36
 70
     0
102
RTVSPost2010Prop37
 90
       50
102
RTVSPost2010PropOp37
 70
     0
102
RTVSPost2010Prop38
140
0.0
102
RTVSPost2010PropOp38
 70
     0
102
RTVSPost2010Prop39
140
1.0
102
RTVSPost2010PropOp39
 70
     0
102
RTVSPost2010Prop40
 90
        0
102
RTVSPost2010PropOp40
 70
     0
102
RTVSPost2010Prop41ColorIndex
 90
       18
102
RTVSPost2010Prop41ColorRGB
 90
        0
102
RTVSPost2010PropOp41
 70
     0
102
RTVSPost2010Prop42
 90
       50
102
RTVSPost2010PropOp42
 70
     0
102
RTVSPost2010Prop43
 90
        3
102
RTVSPost2010PropOp43
 70
     0
102
RTVSPost2010Prop44ColorIndex
 90
        5
102
RTVSPost2010Prop44ColorRGB
 90
      255
102
RTVSPost2010PropOp44
 70
     0
102
RTVSPost2010Prop45
280
     0
102
RTVSPost2010PropOp45
 70
     0
102
RTVSPost2010Prop46
 90
       50
102
RTVSPost2010PropOp46
 70
     0
102
RTVSPost2010Prop47
 90
       50
102
RTVSPost2010PropOp47
 70
     0
102
RTVSPost2010Prop48
 90
       50
102
RTVSPost2010PropOp48
 70
     0
102
RTVSPost2010Prop49
280
     0
102
RTVSPost2010PropOp49
 70
     0
102
RTVSPost2010Prop50
 90
       50
102
RTVSPost2010PropOp50
 70
     0
102
RTVSPost2010Prop51ColorIndex
 90
      256
102
RTVSPost2010Prop51ColorRGB
 90
-16777216
102
RTVSPost2010PropOp51
 70
     0
102
RTVSPost2010Prop52
140
1.0
102
RTVSPost2010PropOp52
 70
     0
102
RTVSPost2010Prop53
 90
        2
102
RTVSPost2010PropOp53
 70
     0
102
RTVSPost2010Prop54
  1
strokes_ogs.tif
102
RTVSPost2010PropOp54
 70
     0
102
RTVSPost2010Prop55
280
     0
102
RTVSPost2010PropOp55
 70
     0
102
RTVSPost2010Prop56
140
1.0
102
RTVSPost2010PropOp56
 70
     0
102
RTVSPost2010Prop57
140
1.0
102
RTVSPost2010PropOp57
 70
     0
  0
XRECORD
  5
509
102
{ACAD_REACTORS
330
508
102
}
330
508
100
AcDbXrecord
280
     1
102
RTVSPost2010Prop28
280
     0
102
RTVSPost2010PropOp28
 70
     1
102
RTVSPost2010Prop29
280
     1
102
RTVSPost2010PropOp29
 70
     1
102
RTVSPost2010Prop30
280
     1
102
RTVSPost2010PropOp30
 70
     1
102
RTVSPost2010Prop31
280
     0
102
RTVSPost2010PropOp31
 70
     1
102
RTVSPost2010Prop32
280
     0
102
RTVSPost2010PropOp32
 70
     1
102
RTVSPost2010Prop33
280
     0
102
RTVSPost2010PropOp33
 70
     1
102
RTVSPost2010Prop34
280
     0
102
RTVSPost2010PropOp34
 70
     1
102
RTVSPost2010Prop35
280
     0
102
RTVSPost2010PropOp35
 70
     1
102
RTVSPost2010Prop36
280
     0
102
RTVSPost2010PropOp36
 70
     1
102
RTVSPost2010Prop37
 90
       50
102
RTVSPost2010PropOp37
 70
     1
102
RTVSPost2010Prop38
140
0.0
102
RTVSPost2010PropOp38
 70
     1
102
RTVSPost2010Prop39
140
1.0
102
RTVSPost2010PropOp39
 70
     1
102
RTVSPost2010Prop40
 90
        0
102
RTVSPost2010PropOp40
 70
     1
102
RTVSPost2010Prop41ColorIndex
 90
       18
102
RTVSPost2010Prop41ColorRGB
 90
        0
102
RTVSPost2010PropOp41
 70
     1
102
RTVSPost2010Prop42
 90
       50
102
RTVSPost2010PropOp42
 70
     1
102
RTVSPost2010Prop43
 90
        3
102
RTVSPost2010PropOp43
 70
     1
102
RTVSPost2010Prop44ColorIndex
 90
        5
102
RTVSPost2010Prop44ColorRGB
 90
      255
102
RTVSPost2010PropOp44
 70
     1
102
RTVSPost2010Prop45
280
     0
102
RTVSPost2010PropOp45
 70
     1
102
RTVSPost2010Prop46
 90
       50
102
RTVSPost2010PropOp46
 70
     1
102
RTVSPost2010Prop47
 90
       50
102
RTVSPost2010PropOp47
 70
     1
102
RTVSPost2010Prop48
 90
       50
102
RTVSPost2010PropOp48
 70
     1
102
RTVSPost2010Prop49
280
     0
102
RTVSPost2010PropOp49
 70
     1
102
RTVSPost2010Prop50
 90
       50
102
RTVSPost2010PropOp50
 70
     1
102
RTVSPost2010Prop51ColorIndex
 90
      256
102
RTVSPost2010Prop51ColorRGB
 90
-16777216
102
RTVSPost2010PropOp51
 70
     0
102
RTVSPost2010Prop52
140
1.0
102
RTVSPost2010PropOp52
 70
     0
102
RTVSPost2010Prop53
 90
        2
102
RTVSPost2010PropOp53
 70
     1
102
RTVSPost2010Prop54
  1
strokes_ogs.tif
102
RTVSPost2010PropOp54
 70
     1
102
RTVSPost2010Prop55
280
     0
102
RTVSPost2010PropOp55
 70
     1
102
RTVSPost2010Prop56
140
1.0
102
RTVSPost2010PropOp56
 70
     1
102
RTVSPost2010Prop57
140
1.0
102
RTVSPost2010PropOp57
 70
     1
  0
XRECORD
  5
527
102
{ACAD_REACTORS
330
526
102
}
330
526
100
AcDbXrecord
280
     1
102
RTVSPost2010Prop28
280
     0
102
RTVSPost2010PropOp28
 70
     1
102
RTVSPost2010Prop29
280
     1
102
RTVSPost2010PropOp29
 70
     1
102
RTVSPost2010Prop30
280
     1
102
RTVSPost2010PropOp30
 70
     1
102
RTVSPost2010Prop31
280
     0
102
RTVSPost2010PropOp31
 70
     1
102
RTVSPost2010Prop32
280
     0
102
RTVSPost2010PropOp32
 70
     1
102
RTVSPost2010Prop33
280
     0
102
RTVSPost2010PropOp33
 70
     1
102
RTVSPost2010Prop34
280
     0
102
RTVSPost2010PropOp34
 70
     1
102
RTVSPost2010Prop35
280
     0
102
RTVSPost2010PropOp35
 70
     1
102
RTVSPost2010Prop36
280
     0
102
RTVSPost2010PropOp36
 70
     1
102
RTVSPost2010Prop37
 90
       50
102
RTVSPost2010PropOp37
 70
     1
102
RTVSPost2010Prop38
140
0.0
102
RTVSPost2010PropOp38
 70
     1
102
RTVSPost2010Prop39
140
1.0
102
RTVSPost2010PropOp39
 70
     1
102
RTVSPost2010Prop40
 90
        0
102
RTVSPost2010PropOp40
 70
     1
102
RTVSPost2010Prop41ColorIndex
 90
       18
102
RTVSPost2010Prop41ColorRGB
 90
        0
102
RTVSPost2010PropOp41
 70
     1
102
RTVSPost2010Prop42
 90
       50
102
RTVSPost2010PropOp42
 70
     1
102
RTVSPost2010Prop43
 90
        3
102
RTVSPost2010PropOp43
 70
     1
102
RTVSPost2010Prop44ColorIndex
 90
        5
102
RTVSPost2010Prop44ColorRGB
 90
      255
102
RTVSPost2010PropOp44
 70
     1
102
RTVSPost2010Prop45
280
     0
102
RTVSPost2010PropOp45
 70
     1
102
RTVSPost2010Prop46
 90
       50
102
RTVSPost2010PropOp46
 70
     1
102
RTVSPost2010Prop47
 90
       50
102
RTVSPost2010PropOp47
 70
     1
102
RTVSPost2010Prop48
 90
       50
102
RTVSPost2010PropOp48
 70
     1
102
RTVSPost2010Prop49
280
     0
102
RTVSPost2010PropOp49
 70
     1
102
RTVSPost2010Prop50
 90
       50
102
RTVSPost2010PropOp50
 70
     1
102
RTVSPost2010Prop51ColorIndex
 90
      256
102
RTVSPost2010Prop51ColorRGB
 90
-16777216
102
RTVSPost2010PropOp51
 70
     0
102
RTVSPost2010Prop52
140
1.0
102
RTVSPost2010PropOp52
 70
     0
102
RTVSPost2010Prop53
 90
        2
102
RTVSPost2010PropOp53
 70
     1
102
RTVSPost2010Prop54
  1
strokes_ogs.tif
102
RTVSPost2010PropOp54
 70
     1
102
RTVSPost2010Prop55
280
     0
102
RTVSPost2010PropOp55
 70
     1
102
RTVSPost2010Prop56
140
1.0
102
RTVSPost2010PropOp56
 70
     1
102
RTVSPost2010Prop57
140
1.0
102
RTVSPost2010PropOp57
 70
     1
  0
XRECORD
  5
525
102
{ACAD_REACTORS
330
524
102
}
330
524
100
AcDbXrecord
280
     1
102
RTVSPost2010Prop28
280
     0
102
RTVSPost2010PropOp28
 70
     1
102
RTVSPost2010Prop29
280
     1
102
RTVSPost2010PropOp29
 70
     1
102
RTVSPost2010Prop30
280
     1
102
RTVSPost2010PropOp30
 70
     1
102
RTVSPost2010Prop31
280
     0
102
RTVSPost2010PropOp31
 70
     1
102
RTVSPost2010Prop32
280
     0
102
RTVSPost2010PropOp32
 70
     1
102
RTVSPost2010Prop33
280
     0
102
RTVSPost2010PropOp33
 70
     1
102
RTVSPost2010Prop34
280
     0
102
RTVSPost2010PropOp34
 70
     1
102
RTVSPost2010Prop35
280
     0
102
RTVSPost2010PropOp35
 70
     1
102
RTVSPost2010Prop36
280
     0
102
RTVSPost2010PropOp36
 70
     1
102
RTVSPost2010Prop37
 90
       50
102
RTVSPost2010PropOp37
 70
     1
102
RTVSPost2010Prop38
140
0.0
102
RTVSPost2010PropOp38
 70
     1
102
RTVSPost2010Prop39
140
1.0
102
RTVSPost2010PropOp39
 70
     1
102
RTVSPost2010Prop40
 90
        0
102
RTVSPost2010PropOp40
 70
     1
102
RTVSPost2010Prop41ColorIndex
 90
       18
102
RTVSPost2010Prop41ColorRGB
 90
        0
102
RTVSPost2010PropOp41
 70
     1
102
RTVSPost2010Prop42
 90
       50
102
RTVSPost2010PropOp42
 70
     1
102
RTVSPost2010Prop43
 90
        3
102
RTVSPost2010PropOp43
 70
     1
102
RTVSPost2010Prop44ColorIndex
 90
        5
102
RTVSPost2010Prop44ColorRGB
 90
      255
102
RTVSPost2010PropOp44
 70
     1
102
RTVSPost2010Prop45
280
     0
102
RTVSPost2010PropOp45
 70
     1
102
RTVSPost2010Prop46
 90
       50
102
RTVSPost2010PropOp46
 70
     1
102
RTVSPost2010Prop47
 90
       50
102
RTVSPost2010PropOp47
 70
     1
102
RTVSPost2010Prop48
 90
       50
102
RTVSPost2010PropOp48
 70
     1
102
RTVSPost2010Prop49
280
     0
102
RTVSPost2010PropOp49
 70
     1
102
RTVSPost2010Prop50
 90
       50
102
RTVSPost2010PropOp50
 70
     1
102
RTVSPost2010Prop51ColorIndex
 90
      256
102
RTVSPost2010Prop51ColorRGB
 90
-16777216
102
RTVSPost2010PropOp51
 70
     0
102
RTVSPost2010Prop52
140
1.0
102
RTVSPost2010PropOp52
 70
     0
102
RTVSPost2010Prop53
 90
        2
102
RTVSPost2010PropOp53
 70
     1
102
RTVSPost2010Prop54
  1
strokes_ogs.tif
102
RTVSPost2010PropOp54
 70
     1
102
RTVSPost2010Prop55
280
     0
102
RTVSPost2010PropOp55
 70
     1
102
RTVSPost2010Prop56
140
1.0
102
RTVSPost2010PropOp56
 70
     1
102
RTVSPost2010Prop57
140
1.0
102
RTVSPost2010PropOp57
 70
     1
  0
XRECORD
  5
51F
102
{ACAD_REACTORS
330
51E
102
}
330
51E
100
AcDbXrecord
280
     1
102
RTVSPost2010Prop28
280
     0
102
RTVSPost2010PropOp28
 70
     1
102
RTVSPost2010Prop29
280
     1
102
RTVSPost2010PropOp29
 70
     1
102
RTVSPost2010Prop30
280
     1
102
RTVSPost2010PropOp30
 70
     1
102
RTVSPost2010Prop31
280
     0
102
RTVSPost2010PropOp31
 70
     1
102
RTVSPost2010Prop32
280
     0
102
RTVSPost2010PropOp32
 70
     1
102
RTVSPost2010Prop33
280
     0
102
RTVSPost2010PropOp33
 70
     1
102
RTVSPost2010Prop34
280
     0
102
RTVSPost2010PropOp34
 70
     1
102
RTVSPost2010Prop35
280
     0
102
RTVSPost2010PropOp35
 70
     1
102
RTVSPost2010Prop36
280
     0
102
RTVSPost2010PropOp36
 70
     1
102
RTVSPost2010Prop37
 90
       50
102
RTVSPost2010PropOp37
 70
     1
102
RTVSPost2010Prop38
140
0.0
102
RTVSPost2010PropOp38
 70
     1
102
RTVSPost2010Prop39
140
1.0
102
RTVSPost2010PropOp39
 70
     1
102
RTVSPost2010Prop40
 90
        0
102
RTVSPost2010PropOp40
 70
     1
102
RTVSPost2010Prop41ColorIndex
 90
       18
102
RTVSPost2010Prop41ColorRGB
 90
        0
102
RTVSPost2010PropOp41
 70
     1
102
RTVSPost2010Prop42
 90
       50
102
RTVSPost2010PropOp42
 70
     1
102
RTVSPost2010Prop43
 90
        3
102
RTVSPost2010PropOp43
 70
     1
102
RTVSPost2010Prop44ColorIndex
 90
        5
102
RTVSPost2010Prop44ColorRGB
 90
      255
102
RTVSPost2010PropOp44
 70
     1
102
RTVSPost2010Prop45
280
     0
102
RTVSPost2010PropOp45
 70
     1
102
RTVSPost2010Prop46
 90
       50
102
RTVSPost2010PropOp46
 70
     1
102
RTVSPost2010Prop47
 90
       50
102
RTVSPost2010PropOp47
 70
     1
102
RTVSPost2010Prop48
 90
       50
102
RTVSPost2010PropOp48
 70
     1
102
RTVSPost2010Prop49
280
     0
102
RTVSPost2010PropOp49
 70
     1
102
RTVSPost2010Prop50
 90
       50
102
RTVSPost2010PropOp50
 70
     1
102
RTVSPost2010Prop51ColorIndex
 90
      256
102
RTVSPost2010Prop51ColorRGB
 90
-16777216
102
RTVSPost2010PropOp51
 70
     0
102
RTVSPost2010Prop52
140
1.0
102
RTVSPost2010PropOp52
 70
     0
102
RTVSPost2010Prop53
 90
        2
102
RTVSPost2010PropOp53
 70
     1
102
RTVSPost2010Prop54
  1
strokes_ogs.tif
102
RTVSPost2010PropOp54
 70
     1
102
RTVSPost2010Prop55
280
     0
102
RTVSPost2010PropOp55
 70
     1
102
RTVSPost2010Prop56
140
1.0
102
RTVSPost2010PropOp56
 70
     1
102
RTVSPost2010Prop57
140
1.0
102
RTVSPost2010PropOp57
 70
     1
  0
XRECORD
  5
521
102
{ACAD_REACTORS
330
520
102
}
330
520
100
AcDbXrecord
280
     1
102
RTVSPost2010Prop28
280
     0
102
RTVSPost2010PropOp28
 70
     1
102
RTVSPost2010Prop29
280
     1
102
RTVSPost2010PropOp29
 70
     1
102
RTVSPost2010Prop30
280
     1
102
RTVSPost2010PropOp30
 70
     1
102
RTVSPost2010Prop31
280
     0
102
RTVSPost2010PropOp31
 70
     1
102
RTVSPost2010Prop32
280
     0
102
RTVSPost2010PropOp32
 70
     1
102
RTVSPost2010Prop33
280
     0
102
RTVSPost2010PropOp33
 70
     1
102
RTVSPost2010Prop34
280
     0
102
RTVSPost2010PropOp34
 70
     1
102
RTVSPost2010Prop35
280
     0
102
RTVSPost2010PropOp35
 70
     1
102
RTVSPost2010Prop36
280
     0
102
RTVSPost2010PropOp36
 70
     1
102
RTVSPost2010Prop37
 90
       50
102
RTVSPost2010PropOp37
 70
     1
102
RTVSPost2010Prop38
140
0.0
102
RTVSPost2010PropOp38
 70
     1
102
RTVSPost2010Prop39
140
1.0
102
RTVSPost2010PropOp39
 70
     1
102
RTVSPost2010Prop40
 90
        0
102
RTVSPost2010PropOp40
 70
     1
102
RTVSPost2010Prop41ColorIndex
 90
       18
102
RTVSPost2010Prop41ColorRGB
 90
        0
102
RTVSPost2010PropOp41
 70
     1
102
RTVSPost2010Prop42
 90
       50
102
RTVSPost2010PropOp42
 70
     1
102
RTVSPost2010Prop43
 90
        3
102
RTVSPost2010PropOp43
 70
     1
102
RTVSPost2010Prop44ColorIndex
 90
        5
102
RTVSPost2010Prop44ColorRGB
 90
      255
102
RTVSPost2010PropOp44
 70
     1
102
RTVSPost2010Prop45
280
     0
102
RTVSPost2010PropOp45
 70
     1
102
RTVSPost2010Prop46
 90
       50
102
RTVSPost2010PropOp46
 70
     1
102
RTVSPost2010Prop47
 90
       50
102
RTVSPost2010PropOp47
 70
     1
102
RTVSPost2010Prop48
 90
       50
102
RTVSPost2010PropOp48
 70
     1
102
RTVSPost2010Prop49
280
     0
102
RTVSPost2010PropOp49
 70
     1
102
RTVSPost2010Prop50
 90
       50
102
RTVSPost2010PropOp50
 70
     1
102
RTVSPost2010Prop51ColorIndex
 90
      256
102
RTVSPost2010Prop51ColorRGB
 90
-16777216
102
RTVSPost2010PropOp51
 70
     0
102
RTVSPost2010Prop52
140
1.0
102
RTVSPost2010PropOp52
 70
     0
102
RTVSPost2010Prop53
 90
        2
102
RTVSPost2010PropOp53
 70
     1
102
RTVSPost2010Prop54
  1
strokes_ogs.tif
102
RTVSPost2010PropOp54
 70
     1
102
RTVSPost2010Prop55
280
     0
102
RTVSPost2010PropOp55
 70
     1
102
RTVSPost2010Prop56
140
1.0
102
RTVSPost2010PropOp56
 70
     1
102
RTVSPost2010Prop57
140
1.0
102
RTVSPost2010PropOp57
 70
     1
  0
XRECORD
  5
511
102
{ACAD_REACTORS
330
510
102
}
330
510
100
AcDbXrecord
280
     1
102
RTVSPost2010Prop28
280
     0
102
RTVSPost2010PropOp28
 70
     1
102
RTVSPost2010Prop29
280
     1
102
RTVSPost2010PropOp29
 70
     1
102
RTVSPost2010Prop30
280
     1
102
RTVSPost2010PropOp30
 70
     1
102
RTVSPost2010Prop31
280
     0
102
RTVSPost2010PropOp31
 70
     1
102
RTVSPost2010Prop32
280
     0
102
RTVSPost2010PropOp32
 70
     1
102
RTVSPost2010Prop33
280
     0
102
RTVSPost2010PropOp33
 70
     1
102
RTVSPost2010Prop34
280
     0
102
RTVSPost2010PropOp34
 70
     1
102
RTVSPost2010Prop35
280
     0
102
RTVSPost2010PropOp35
 70
     1
102
RTVSPost2010Prop36
280
     0
102
RTVSPost2010PropOp36
 70
     1
102
RTVSPost2010Prop37
 90
       50
102
RTVSPost2010PropOp37
 70
     1
102
RTVSPost2010Prop38
140
0.0
102
RTVSPost2010PropOp38
 70
     1
102
RTVSPost2010Prop39
140
1.0
102
RTVSPost2010PropOp39
 70
     1
102
RTVSPost2010Prop40
 90
        0
102
RTVSPost2010PropOp40
 70
     1
102
RTVSPost2010Prop41ColorIndex
 90
       18
102
RTVSPost2010Prop41ColorRGB
 90
        0
102
RTVSPost2010PropOp41
 70
     1
102
RTVSPost2010Prop42
 90
       50
102
RTVSPost2010PropOp42
 70
     1
102
RTVSPost2010Prop43
 90
        3
102
RTVSPost2010PropOp43
 70
     1
102
RTVSPost2010Prop44ColorIndex
 90
        5
102
RTVSPost2010Prop44ColorRGB
 90
      255
102
RTVSPost2010PropOp44
 70
     1
102
RTVSPost2010Prop45
280
     0
102
RTVSPost2010PropOp45
 70
     1
102
RTVSPost2010Prop46
 90
       50
102
RTVSPost2010PropOp46
 70
     1
102
RTVSPost2010Prop47
 90
       50
102
RTVSPost2010PropOp47
 70
     1
102
RTVSPost2010Prop48
 90
       50
102
RTVSPost2010PropOp48
 70
     1
102
RTVSPost2010Prop49
280
     0
102
RTVSPost2010PropOp49
 70
     1
102
RTVSPost2010Prop50
 90
       50
102
RTVSPost2010PropOp50
 70
     1
102
RTVSPost2010Prop51ColorIndex
 90
      256
102
RTVSPost2010Prop51ColorRGB
 90
-16777216
102
RTVSPost2010PropOp51
 70
     0
102
RTVSPost2010Prop52
140
1.0
102
RTVSPost2010PropOp52
 70
     0
102
RTVSPost2010Prop53
 90
        2
102
RTVSPost2010PropOp53
 70
     1
102
RTVSPost2010Prop54
  1
strokes_ogs.tif
102
RTVSPost2010PropOp54
 70
     1
102
RTVSPost2010Prop55
280
     0
102
RTVSPost2010PropOp55
 70
     1
102
RTVSPost2010Prop56
140
1.0
102
RTVSPost2010PropOp56
 70
     1
102
RTVSPost2010Prop57
140
1.0
102
RTVSPost2010PropOp57
 70
     1
  0
XRECORD
  5
503
102
{ACAD_REACTORS
330
502
102
}
330
502
100
AcDbXrecord
280
     1
102
RTVSPost2010Prop28
280
     0
102
RTVSPost2010PropOp28
 70
     1
102
RTVSPost2010Prop29
280
     1
102
RTVSPost2010PropOp29
 70
     1
102
RTVSPost2010Prop30
280
     1
102
RTVSPost2010PropOp30
 70
     1
102
RTVSPost2010Prop31
280
     0
102
RTVSPost2010PropOp31
 70
     1
102
RTVSPost2010Prop32
280
     0
102
RTVSPost2010PropOp32
 70
     1
102
RTVSPost2010Prop33
280
     0
102
RTVSPost2010PropOp33
 70
     1
102
RTVSPost2010Prop34
280
     0
102
RTVSPost2010PropOp34
 70
     1
102
RTVSPost2010Prop35
280
     0
102
RTVSPost2010PropOp35
 70
     1
102
RTVSPost2010Prop36
280
     0
102
RTVSPost2010PropOp36
 70
     1
102
RTVSPost2010Prop37
 90
       50
102
RTVSPost2010PropOp37
 70
     1
102
RTVSPost2010Prop38
140
0.0
102
RTVSPost2010PropOp38
 70
     1
102
RTVSPost2010Prop39
140
1.0
102
RTVSPost2010PropOp39
 70
     1
102
RTVSPost2010Prop40
 90
        0
102
RTVSPost2010PropOp40
 70
     1
102
RTVSPost2010Prop41ColorIndex
 90
       18
102
RTVSPost2010Prop41ColorRGB
 90
        0
102
RTVSPost2010PropOp41
 70
     1
102
RTVSPost2010Prop42
 90
       50
102
RTVSPost2010PropOp42
 70
     1
102
RTVSPost2010Prop43
 90
        3
102
RTVSPost2010PropOp43
 70
     1
102
RTVSPost2010Prop44ColorIndex
 90
        5
102
RTVSPost2010Prop44ColorRGB
 90
      255
102
RTVSPost2010PropOp44
 70
     1
102
RTVSPost2010Prop45
280
     0
102
RTVSPost2010PropOp45
 70
     1
102
RTVSPost2010Prop46
 90
       50
102
RTVSPost2010PropOp46
 70
     1
102
RTVSPost2010Prop47
 90
       50
102
RTVSPost2010PropOp47
 70
     1
102
RTVSPost2010Prop48
 90
       50
102
RTVSPost2010PropOp48
 70
     1
102
RTVSPost2010Prop49
280
     0
102
RTVSPost2010PropOp49
 70
     1
102
RTVSPost2010Prop50
 90
       50
102
RTVSPost2010PropOp50
 70
     1
102
RTVSPost2010Prop51ColorIndex
 90
      256
102
RTVSPost2010Prop51ColorRGB
 90
-16777216
102
RTVSPost2010PropOp51
 70
     0
102
RTVSPost2010Prop52
140
1.0
102
RTVSPost2010PropOp52
 70
     0
102
RTVSPost2010Prop53
 90
        2
102
RTVSPost2010PropOp53
 70
     1
102
RTVSPost2010Prop54
  1
strokes_ogs.tif
102
RTVSPost2010PropOp54
 70
     1
102
RTVSPost2010Prop55
280
     0
102
RTVSPost2010PropOp55
 70
     1
102
RTVSPost2010Prop56
140
1.0
102
RTVSPost2010PropOp56
 70
     1
102
RTVSPost2010Prop57
140
1.0
102
RTVSPost2010PropOp57
 70
     1
  0
XRECORD
  5
523
102
{ACAD_REACTORS
330
522
102
}
330
522
100
AcDbXrecord
280
     1
102
RTVSPost2010Prop28
280
     0
102
RTVSPost2010PropOp28
 70
     1
102
RTVSPost2010Prop29
280
     1
102
RTVSPost2010PropOp29
 70
     1
102
RTVSPost2010Prop30
280
     1
102
RTVSPost2010PropOp30
 70
     1
102
RTVSPost2010Prop31
280
     0
102
RTVSPost2010PropOp31
 70
     1
102
RTVSPost2010Prop32
280
     0
102
RTVSPost2010PropOp32
 70
     1
102
RTVSPost2010Prop33
280
     0
102
RTVSPost2010PropOp33
 70
     1
102
RTVSPost2010Prop34
280
     0
102
RTVSPost2010PropOp34
 70
     1
102
RTVSPost2010Prop35
280
     0
102
RTVSPost2010PropOp35
 70
     1
102
RTVSPost2010Prop36
280
     0
102
RTVSPost2010PropOp36
 70
     1
102
RTVSPost2010Prop37
 90
       50
102
RTVSPost2010PropOp37
 70
     1
102
RTVSPost2010Prop38
140
0.0
102
RTVSPost2010PropOp38
 70
     1
102
RTVSPost2010Prop39
140
1.0
102
RTVSPost2010PropOp39
 70
     1
102
RTVSPost2010Prop40
 90
        0
102
RTVSPost2010PropOp40
 70
     1
102
RTVSPost2010Prop41ColorIndex
 90
       18
102
RTVSPost2010Prop41ColorRGB
 90
        0
102
RTVSPost2010PropOp41
 70
     1
102
RTVSPost2010Prop42
 90
       50
102
RTVSPost2010PropOp42
 70
     1
102
RTVSPost2010Prop43
 90
        3
102
RTVSPost2010PropOp43
 70
     1
102
RTVSPost2010Prop44ColorIndex
 90
        5
102
RTVSPost2010Prop44ColorRGB
 90
      255
102
RTVSPost2010PropOp44
 70
     1
102
RTVSPost2010Prop45
280
     0
102
RTVSPost2010PropOp45
 70
     1
102
RTVSPost2010Prop46
 90
       50
102
RTVSPost2010PropOp46
 70
     1
102
RTVSPost2010Prop47
 90
       50
102
RTVSPost2010PropOp47
 70
     1
102
RTVSPost2010Prop48
 90
       50
102
RTVSPost2010PropOp48
 70
     1
102
RTVSPost2010Prop49
280
     0
102
RTVSPost2010PropOp49
 70
     1
102
RTVSPost2010Prop50
 90
       50
102
RTVSPost2010PropOp50
 70
     1
102
RTVSPost2010Prop51ColorIndex
 90
      256
102
RTVSPost2010Prop51ColorRGB
 90
-16777216
102
RTVSPost2010PropOp51
 70
     0
102
RTVSPost2010Prop52
140
1.0
102
RTVSPost2010PropOp52
 70
     0
102
RTVSPost2010Prop53
 90
        2
102
RTVSPost2010PropOp53
 70
     1
102
RTVSPost2010Prop54
  1
strokes_ogs.tif
102
RTVSPost2010PropOp54
 70
     1
102
RTVSPost2010Prop55
280
     0
102
RTVSPost2010PropOp55
 70
     1
102
RTVSPost2010Prop56
140
1.0
102
RTVSPost2010PropOp56
 70
     1
102
RTVSPost2010Prop57
140
1.0
102
RTVSPost2010PropOp57
 70
     1
  0
ENDSEC
  0
EOF
