  0
SECTION
  2
HEADER
  9
$ACADVER
  1
AC1024
  9
$ACADMAINTVER
 70
     6
  9
$DWGCODEPAGE
  3
ANSI_932
  9
$INSBASE
 10
0.0
 20
0.0
 30
0.0
  9
$EXTMIN
 10
-5910.0
 20
-4053.842299814336
 30
0.0
  9
$EXTMAX
 10
5910.0
 20
4053.842299814336
 30
0.0
  9
$LIMMIN
 10
-2100.0
 20
-1485.0
  9
$LIMMAX
 10
2100.0
 20
1485.0
  9
$ORTHOMODE
 70
     0
  9
$REGENMODE
 70
     1
  9
$FILLMODE
 70
     1
  9
$QTEXTMODE
 70
     0
  9
$MIRRTEXT
 70
     1
  9
$LTSCALE
 40
2.5
  9
$ATTMODE
 70
     1
  9
$TEXTSIZE
 40
0.2
  9
$TRACEWID
 40
0.05
  9
$TEXTSTYLE
  7
Standard
  9
$CLAYER
  8
0
  9
$CELTYPE
  6
ByLayer
  9
$CECOLOR
 62
   256
  9
$CELTSCALE
 40
1.0
  9
$DISPSILH
 70
     0
  9
$DIMSCALE
 40
1.0
  9
$DIMASZ
 40
30.00001907348633
  9
$DIMEXO
 40
1.0
  9
$DIMDLI
 40
10.0
  9
$DIMRND
 40
0.0
  9
$DIMDLE
 40
0.0
  9
$DIMEXE
 40
1.0
  9
$DIMTP
 40
0.0
  9
$DIMTM
 40
0.0
  9
$DIMTXT
 40
40.0
  9
$DIMCEN
 40
0.0
  9
$DIMTSZ
 40
0.0
  9
$DIMTOL
 70
     0
  9
$DIMLIM
 70
     0
  9
$DIMTIH
 70
     0
  9
$DIMTOH
 70
     0
  9
$DIMSE1
 70
     0
  9
$DIMSE2
 70
     0
  9
$DIMTAD
 70
     1
  9
$DIMZIN
 70
     8
  9
$DIMBLK
  1

  9
$DIMASO
 70
     1
  9
$DIMSHO
 70
     1
  9
$DIMPOST
  1

  9
$DIMAPOST
  1

  9
$DIMALT
 70
     0
  9
$DIMALTD
 70
     2
  9
$DIMALTF
 40
0.0393700787401575
  9
$DIMLFAC
 40
1.0
  9
$DIMTOFL
 70
     0
  9
$DIMTVP
 40
0.0
  9
$DIMTIX
 70
     0
  9
$DIMSOXD
 70
     0
  9
$DIMSAH
 70
     0
  9
$DIMBLK1
  1

  9
$DIMBLK2
  1

  9
$DIMSTYLE
  2
Standard
  9
$DIMCLRD
 70
     0
  9
$DIMCLRE
 70
     0
  9
$DIMCLRT
 70
     0
  9
$DIMTFAC
 40
0.65
  9
$DIMGAP
 40
0.09
  9
$DIMJUST
 70
     0
  9
$DIMSD1
 70
     0
  9
$DIMSD2
 70
     0
  9
$DIMTOLJ
 70
     0
  9
$DIMTZIN
 70
     0
  9
$DIMALTZ
 70
     0
  9
$DIMALTTZ
 70
     0
  9
$DIMUPT
 70
     0
  9
$DIMDEC
 70
     5
  9
$DIMTDEC
 70
     5
  9
$DIMALTU
 70
     2
  9
$DIMALTTD
 70
     5
  9
$DIMTXSTY
  7
Standard
  9
$DIMAUNIT
 70
     0
  9
$DIMADEC
 70
     5
  9
$DIMALTRND
 40
0.0
  9
$DIMAZIN
 70
     2
  9
$DIMDSEP
 70
    46
  9
$DIMATFIT
 70
     3
  9
$DIMFRAC
 70
     0
  9
$DIMLDRBLK
  1

  9
$DIMLUNIT
 70
     2
  9
$DIMLWD
 70
    -2
  9
$DIMLWE
 70
    -2
  9
$DIMTMOVE
 70
     0
  9
$DIMFXL
 40
1.0
  9
$DIMFXLON
 70
     0
  9
$DIMJOGANG
 40
0.7853981633974483
  9
$DIMTFILL
 70
     0
  9
$DIMTFILLCLR
 70
     0
  9
$DIMARCSYM
 70
     1
  9
$DIMLTYPE
  6

  9
$DIMLTEX1
  6

  9
$DIMLTEX2
  6

  9
$DIMTXTDIRECTION
 70
     0
  9
$LUNITS
 70
     2
  9
$LUPREC
 70
     4
  9
$SKETCHINC
 40
0.1
  9
$FILLETRAD
 40
0.5
  9
$AUNITS
 70
     0
  9
$AUPREC
 70
     0
  9
$MENU
  1
.
  9
$ELEVATION
 40
0.0
  9
$PELEVATION
 40
0.0
  9
$THICKNESS
 40
0.0
  9
$LIMCHECK
 70
     0
  9
$CHAMFERA
 40
0.0
  9
$CHAMFERB
 40
0.0
  9
$CHAMFERC
 40
0.0
  9
$CHAMFERD
 40
0.0
  9
$SKPOLY
 70
     0
  9
$TDCREATE
 40
2458956.713490915
  9
$TDUCREATE
 40
2458956.338490915
  9
$TDUPDATE
 40
2458956.713491597
  9
$TDUUPDATE
 40
2458956.338491597
  9
$TDINDWG
 40
0.0000000116
  9
$TDUSRTIMER
 40
0.0000000116
  9
$USRTIMER
 70
     1
  9
$ANGBASE
 50
0.0
  9
$ANGDIR
 70
     0
  9
$PDMODE
 70
     0
  9
$PDSIZE
 40
1.0
  9
$PLINEWID
 40
0.0
  9
$SPLFRAME
 70
     0
  9
$SPLINETYPE
 70
     6
  9
$SPLINESEGS
 70
     8
  9
$HANDSEED
  5
531
  9
$SURFTAB1
 70
     6
  9
$SURFTAB2
 70
     6
  9
$SURFTYPE
 70
     6
  9
$SURFU
 70
     6
  9
$SURFV
 70
     6
  9
$UCSBASE
  2

  9
$UCSNAME
  2

  9
$UCSORG
 10
0.0
 20
0.0
 30
0.0
  9
$UCSXDIR
 10
1.0
 20
0.0
 30
0.0
  9
$UCSYDIR
 10
0.0
 20
1.0
 30
0.0
  9
$UCSORTHOREF
  2

  9
$UCSORTHOVIEW
 70
     0
  9
$UCSORGTOP
 10
0.0
 20
0.0
 30
0.0
  9
$UCSORGBOTTOM
 10
0.0
 20
0.0
 30
0.0
  9
$UCSORGLEFT
 10
0.0
 20
0.0
 30
0.0
  9
$UCSORGRIGHT
 10
0.0
 20
0.0
 30
0.0
  9
$UCSORGFRONT
 10
0.0
 20
0.0
 30
0.0
  9
$UCSORGBACK
 10
0.0
 20
0.0
 30
0.0
  9
$PUCSBASE
  2

  9
$PUCSNAME
  2

  9
$PUCSORG
 10
0.0
 20
0.0
 30
0.0
  9
$PUCSXDIR
 10
1.0
 20
0.0
 30
0.0
  9
$PUCSYDIR
 10
0.0
 20
1.0
 30
0.0
  9
$PUCSORTHOREF
  2

  9
$PUCSORTHOVIEW
 70
     0
  9
$PUCSORGTOP
 10
0.0
 20
0.0
 30
0.0
  9
$PUCSORGBOTTOM
 10
0.0
 20
0.0
 30
0.0
  9
$PUCSORGLEFT
 10
0.0
 20
0.0
 30
0.0
  9
$PUCSORGRIGHT
 10
0.0
 20
0.0
 30
0.0
  9
$PUCSORGFRONT
 10
0.0
 20
0.0
 30
0.0
  9
$PUCSORGBACK
 10
0.0
 20
0.0
 30
0.0
  9
$USERI1
 70
     0
  9
$USERI2
 70
     0
  9
$USERI3
 70
     0
  9
$USERI4
 70
     0
  9
$USERI5
 70
     0
  9
$USERR1
 40
0.0
  9
$USERR2
 40
0.0
  9
$USERR3
 40
0.0
  9
$USERR4
 40
0.0
  9
$USERR5
 40
0.0
  9
$WORLDVIEW
 70
     1
  9
$SHADEDGE
 70
     3
  9
$SHADEDIF
 70
    70
  9
$TILEMODE
 70
     1
  9
$MAXACTVP
 70
    64
  9
$PINSBASE
 10
0.0
 20
0.0
 30
0.0
  9
$PLIMCHECK
 70
     0
  9
$PEXTMIN
 10
1.000000000000000E+20
 20
1.000000000000000E+20
 30
1.000000000000000E+20
  9
$PEXTMAX
 10
-1.000000000000000E+20
 20
-1.000000000000000E+20
 30
-1.000000000000000E+20
  9
$PLIMMIN
 10
0.0
 20
0.0
  9
$PLIMMAX
 10
12.0
 20
9.0
  9
$UNITMODE
 70
     0
  9
$VISRETAIN
 70
     0
  9
$PLINEGEN
 70
     1
  9
$PSLTSCALE
 70
     0
  9
$TREEDEPTH
 70
  3020
  9
$CMLSTYLE
  2
Standard
  9
$CMLJUST
 70
     0
  9
$CMLSCALE
 40
1.0
  9
$PROXYGRAPHICS
 70
     0
  9
$MEASUREMENT
 70
     1
  9
$CELWEIGHT
370
    -1
  9
$ENDCAPS
280
     0
  9
$JOINSTYLE
280
     0
  9
$LWDISPLAY
290
     1
  9
$INSUNITS
 70
     4
  9
$HYPERLINKBASE
  1

  9
$STYLESHEET
  1

  9
$XEDIT
290
     1
  9
$CEPSNTYPE
380
     0
  9
$PSTYLEMODE
290
     1
  9
$FINGERPRINTGUID
  2
{7EBFC625-57A3-4CE6-AAE5-A519CBDC9FFF}
  9
$VERSIONGUID
  2
{FAEB1C32-E019-11D5-929B-00C0DF256EC4}
  9
$EXTNAMES
290
     1
  9
$PSVPSCALE
 40
0.0
  9
$OLESTARTUP
290
     0
  9
$SORTENTS
280
   127
  9
$INDEXCTL
280
     0
  9
$HIDETEXT
280
     1
  9
$XCLIPFRAME
280
     2
  9
$HALOGAP
280
     0
  9
$OBSCOLOR
 70
   257
  9
$OBSLTYPE
280
     0
  9
$INTERSECTIONDISPLAY
280
     0
  9
$INTERSECTIONCOLOR
 70
   257
  9
$DIMASSOC
280
     2
  9
$PROJECTNAME
  1

  9
$CAMERADISPLAY
290
     0
  9
$LENSLENGTH
 40
50.0
  9
$CAMERAHEIGHT
 40
0.0
  9
$STEPSPERSEC
 40
2.0
  9
$STEPSIZE
 40
6.0
  9
$3DDWFPREC
 40
2.0
  9
$PSOLWIDTH
 40
0.25
  9
$PSOLHEIGHT
 40
4.0
  9
$LOFTANG1
 40
1.570796326794897
  9
$LOFTANG2
 40
1.570796326794897
  9
$LOFTMAG1
 40
0.0
  9
$LOFTMAG2
 40
0.0
  9
$LOFTPARAM
 70
     7
  9
$LOFTNORMALS
280
     1
  9
$LATITUDE
 40
37.795
  9
$LONGITUDE
 40
-122.394
  9
$NORTHDIRECTION
 40
0.0
  9
$TIMEZONE
 70
 -8000
  9
$LIGHTGLYPHDISPLAY
280
     1
  9
$TILEMODELIGHTSYNCH
280
     1
  9
$CMATERIAL
347
44
  9
$SOLIDHIST
280
     1
  9
$SHOWHIST
280
     1
  9
$DWFFRAME
280
     2
  9
$DGNFRAME
280
     2
  9
$REALWORLDSCALE
290
     1
  9
$INTERFERECOLOR
 62
   256
  9
$CSHADOW
280
     0
  9
$SHADOWPLANELOCATION
 40
0.0
  0
ENDSEC
  0
SECTION
  2
CLASSES
  0
CLASS
  1
ACDBDICTIONARYWDFLT
  2
AcDbDictionaryWithDefault
  3
ObjectDBX Classes
 90
        0
 91
        4
280
     0
281
     0
  0
CLASS
  1
VISUALSTYLE
  2
AcDbVisualStyle
  3
ObjectDBX Classes
 90
     4095
 91
        4
280
     0
281
     0
  0
CLASS
  1
MATERIAL
  2
AcDbMaterial
  3
ObjectDBX Classes
 90
     1153
 91
        4
280
     0
281
     0
  0
CLASS
  1
SCALE
  2
AcDbScale
  3
ObjectDBX Classes
 90
     1153
 91
        4
280
     0
281
     0
  0
CLASS
  1
SUN
  2
AcDbSun
  3
SCENEOE
 90
     1153
 91
        4
280
     0
281
     0
  0
CLASS
  1
DICTIONARYVAR
  2
AcDbDictionaryVar
  3
ObjectDBX Classes
 90
        0
 91
        4
280
     0
281
     0
  0
ENDSEC
  0
SECTION
  2
TABLES
  0
TABLE
  2
VPORT
  5
8
330
0
100
AcDbSymbolTable
 70
     1
  0
VPORT
  5
29
330
8
100
AcDbSymbolTableRecord
100
AcDbViewportTableRecord
  2
*Active
 70
     0
 10
0.0
 20
0.0
 11
1.0
 21
1.0
 12
0.0
 22
0.0
 13
0.0
 23
0.0
 14
0.5
 24
0.5
 15
0.5
 25
0.5
 16
0.0
 26
0.0
 36
1.0
 17
0.0000000000001101
 27
0.0
 37
0.0
 40
2756.612763873748
 41
1.457876148825689
 42
50.0
 43
0.0
 44
0.0
 50
0.0
 51
0.0
 71
     0
 72
  1000
 73
     1
 74
     1
 75
     0
 76
     0
 77
     0
 78
     0
281
     0
 65
     1
110
0.0
120
0.0
130
0.0
111
1.0
121
0.0
131
0.0
112
0.0
122
1.0
132
0.0
 79
     0
146
0.0
 60
     3
 61
     5
292
     1
282
     1
141
0.0
142
0.0
 63
   250
361
69
  0
ENDTAB
  0
TABLE
  2
LTYPE
  5
5
330
0
100
AcDbSymbolTable
 70
    67
  0
LTYPE
  5
14
330
5
100
AcDbSymbolTableRecord
100
AcDbLinetypeTableRecord
  2
ByBlock
 70
     0
  3

 72
    65
 73
     0
 40
0.0
  0
LTYPE
  5
15
330
5
100
AcDbSymbolTableRecord
100
AcDbLinetypeTableRecord
  2
ByLayer
 70
     0
  3

 72
    65
 73
     0
 40
0.0
  0
LTYPE
  5
16
330
5
100
AcDbSymbolTableRecord
100
AcDbLinetypeTableRecord
  2
Continuous
 70
     0
  3
Solid line
 72
    65
 73
     0
 40
0.0
  0
LTYPE
  5
6B
330
5
100
AcDbSymbolTableRecord
100
AcDbLinetypeTableRecord
  2
HIDDENX2
 70
     0
  3
Hidden (2x) ____ ____ ____ ____ ____ ____ ____ 
 72
    65
 73
     2
 40
19.05
 49
12.7
 74
     0
 49
-6.35
 74
     0
  0
LTYPE
  5
6C
330
5
100
AcDbSymbolTableRecord
100
AcDbLinetypeTableRecord
  2
HIDDEN
 70
     0
  3
Hidden __ __ __ __ __ __ __ __ __ __ __ __ __ __
 72
    65
 73
     2
 40
9.524999999999999
 49
6.35
 74
     0
 49
-3.175
 74
     0
  0
LTYPE
  5
6D
330
5
100
AcDbSymbolTableRecord
100
AcDbLinetypeTableRecord
  2
HIDDEN2
 70
     0
  3
Hidden (.5x) _ _ _ _ _ _ _ _ _ _ _ _ _ _ _ _ _ 
 72
    65
 73
     2
 40
4.762499999999999
 49
3.175
 74
     0
 49
-1.5875
 74
     0
  0
LTYPE
  5
6E
330
5
100
AcDbSymbolTableRecord
100
AcDbLinetypeTableRecord
  2
DASHED
 70
     0
  3
Dashed __ __ __ __ __ __ __ __ __ __ __ __ __ _
 72
    65
 73
     2
 40
19.05
 49
12.7
 74
     0
 49
-6.35
 74
     0
  0
LTYPE
  5
6F
330
5
100
AcDbSymbolTableRecord
100
AcDbLinetypeTableRecord
  2
DASHED2
 70
     0
  3
Dashed (.5x) _ _ _ _ _ _ _ _ _ _ _ _ _ _ _ _ _ 
 72
    65
 73
     2
 40
9.524999999999999
 49
6.35
 74
     0
 49
-3.175
 74
     0
  0
LTYPE
  5
70
330
5
100
AcDbSymbolTableRecord
100
AcDbLinetypeTableRecord
  2
DASHEDX2
 70
     0
  3
Dashed (2x) ____  ____  ____  ____  ____  ___
 72
    65
 73
     2
 40
38.09999999999999
 49
25.4
 74
     0
 49
-12.7
 74
     0
  0
LTYPE
  5
71
330
5
100
AcDbSymbolTableRecord
100
AcDbLinetypeTableRecord
  2
DOTX2
 70
     0
  3
Dot (2x) .  .  .  .  .  .  .  .  .  .  .  .  .  .
 72
    65
 73
     2
 40
12.7
 49
0.0
 74
     0
 49
-12.7
 74
     0
  0
LTYPE
  5
72
330
5
100
AcDbSymbolTableRecord
100
AcDbLinetypeTableRecord
  2
DOT
 70
     0
  3
Dot . . . . . . . . . . . . . . . . . . . . . . . .
 72
    65
 73
     2
 40
6.35
 49
0.0
 74
     0
 49
-6.35
 74
     0
  0
LTYPE
  5
73
330
5
100
AcDbSymbolTableRecord
100
AcDbLinetypeTableRecord
  2
DOT2
 70
     0
  3
Dot (.5x) ........................................
 72
    65
 73
     2
 40
3.175
 49
0.0
 74
     0
 49
-3.175
 74
     0
  0
LTYPE
  5
74
330
5
100
AcDbSymbolTableRecord
100
AcDbLinetypeTableRecord
  2
CENTERX2
 70
     0
  3
Center (2x) ________  __  ________  __  _____
 72
    65
 73
     4
 40
101.6
 49
63.5
 74
     0
 49
-12.7
 74
     0
 49
12.7
 74
     0
 49
-12.7
 74
     0
  0
LTYPE
  5
75
330
5
100
AcDbSymbolTableRecord
100
AcDbLinetypeTableRecord
  2
CENTER
 70
     0
  3
Center ____ _ ____ _ ____ _ ____ _ ____ _ ____
 72
    65
 73
     4
 40
50.8
 49
31.75
 74
     0
 49
-6.35
 74
     0
 49
6.35
 74
     0
 49
-6.35
 74
     0
  0
LTYPE
  5
76
330
5
100
AcDbSymbolTableRecord
100
AcDbLinetypeTableRecord
  2
CENTER2
 70
     0
  3
Center (.5x) ___ _ ___ _ ___ _ ___ _ ___ _ ___
 72
    65
 73
     4
 40
28.575
 49
19.05
 74
     0
 49
-3.175
 74
     0
 49
3.175
 74
     0
 49
-3.175
 74
     0
  0
LTYPE
  5
77
330
5
100
AcDbSymbolTableRecord
100
AcDbLinetypeTableRecord
  2
DASHDOTX2
 70
     0
  3
Dash dot (2x) ____  .  ____  .  ____  .  ___
 72
    65
 73
     4
 40
50.8
 49
25.4
 74
     0
 49
-12.7
 74
     0
 49
0.0
 74
     0
 49
-12.7
 74
     0
  0
LTYPE
  5
78
330
5
100
AcDbSymbolTableRecord
100
AcDbLinetypeTableRecord
  2
DASHDOT
 70
     0
  3
Dash dot __ . __ . __ . __ . __ . __ . __ . __
 72
    65
 73
     4
 40
25.4
 49
12.7
 74
     0
 49
-6.35
 74
     0
 49
0.0
 74
     0
 49
-6.35
 74
     0
  0
LTYPE
  5
79
330
5
100
AcDbSymbolTableRecord
100
AcDbLinetypeTableRecord
  2
DASHDOT2
 70
     0
  3
Dash dot (.5x) _._._._._._._._._._._._._._._.
 72
    65
 73
     4
 40
12.7
 49
6.35
 74
     0
 49
-3.175
 74
     0
 49
0.0
 74
     0
 49
-3.175
 74
     0
  0
LTYPE
  5
7A
330
5
100
AcDbSymbolTableRecord
100
AcDbLinetypeTableRecord
  2
DIVIDEX2
 70
     0
  3
Divide (2x) ________  .  .  ________  .  .  _
 72
    65
 73
     6
 40
63.5
 49
25.4
 74
     0
 49
-12.7
 74
     0
 49
0.0
 74
     0
 49
-12.7
 74
     0
 49
0.0
 74
     0
 49
-12.7
 74
     0
  0
LTYPE
  5
7B
330
5
100
AcDbSymbolTableRecord
100
AcDbLinetypeTableRecord
  2
DIVIDE
 70
     0
  3
Divide ____ . . ____ . . ____ . . ____ . . ____
 72
    65
 73
     6
 40
31.75
 49
12.7
 74
     0
 49
-6.35
 74
     0
 49
0.0
 74
     0
 49
-6.35
 74
     0
 49
0.0
 74
     0
 49
-6.35
 74
     0
  0
LTYPE
  5
7C
330
5
100
AcDbSymbolTableRecord
100
AcDbLinetypeTableRecord
  2
DIVIDE2
 70
     0
  3
Divide (.5x) __..__..__..__..__..__..__..__.._
 72
    65
 73
     6
 40
15.875
 49
6.35
 74
     0
 49
-3.175
 74
     0
 49
0.0
 74
     0
 49
-3.175
 74
     0
 49
0.0
 74
     0
 49
-3.175
 74
     0
  0
LTYPE
  5
7D
330
5
100
AcDbSymbolTableRecord
100
AcDbLinetypeTableRecord
  2
BORDERX2
 70
     0
  3
Border (2x) ____  ____  .  ____  ____  .  ___
 72
    65
 73
     6
 40
88.89999999999999
 49
25.4
 74
     0
 49
-12.7
 74
     0
 49
25.4
 74
     0
 49
-12.7
 74
     0
 49
0.0
 74
     0
 49
-12.7
 74
     0
  0
LTYPE
  5
7E
330
5
100
AcDbSymbolTableRecord
100
AcDbLinetypeTableRecord
  2
BORDER
 70
     0
  3
Border __ __ . __ __ . __ __ . __ __ . __ __ .
 72
    65
 73
     6
 40
44.45
 49
12.7
 74
     0
 49
-6.35
 74
     0
 49
12.7
 74
     0
 49
-6.35
 74
     0
 49
0.0
 74
     0
 49
-6.35
 74
     0
  0
LTYPE
  5
7F
330
5
100
AcDbSymbolTableRecord
100
AcDbLinetypeTableRecord
  2
BORDER2
 70
     0
  3
Border (.5x) __.__.__.__.__.__.__.__.__.__.__.
 72
    65
 73
     6
 40
22.225
 49
6.35
 74
     0
 49
-3.175
 74
     0
 49
6.35
 74
     0
 49
-3.175
 74
     0
 49
0.0
 74
     0
 49
-3.175
 74
     0
  0
LTYPE
  5
80
330
5
100
AcDbSymbolTableRecord
100
AcDbLinetypeTableRecord
  2
PHANTOMX2
 70
     0
  3
Phantom (2x) ____________    ____    ____   _
 72
    65
 73
     6
 40
127.0
 49
63.5
 74
     0
 49
-12.7
 74
     0
 49
12.7
 74
     0
 49
-12.7
 74
     0
 49
12.7
 74
     0
 49
-12.7
 74
     0
  0
LTYPE
  5
81
330
5
100
AcDbSymbolTableRecord
100
AcDbLinetypeTableRecord
  2
PHANTOM
 70
     0
  3
Phantom ______  __  __  ______  __  __  ______ 
 72
    65
 73
     6
 40
63.5
 49
31.75
 74
     0
 49
-6.35
 74
     0
 49
6.35
 74
     0
 49
-6.35
 74
     0
 49
6.35
 74
     0
 49
-6.35
 74
     0
  0
LTYPE
  5
82
330
5
100
AcDbSymbolTableRecord
100
AcDbLinetypeTableRecord
  2
PHANTOM2
 70
     0
  3
Phantom (.5x) ___ _ _ ___ _ _ ___ _ _ ___ _ _
 72
    65
 73
     6
 40
31.75
 49
15.875
 74
     0
 49
-3.175
 74
     0
 49
3.175
 74
     0
 49
-3.175
 74
     0
 49
3.175
 74
     0
 49
-3.175
 74
     0
  0
LTYPE
  5
83
330
5
100
AcDbSymbolTableRecord
100
AcDbLinetypeTableRecord
  2
ACAD_ISO06W100
 70
     0
  3
ISO long-dash triple-dot ____ ... ____ ... ____
 72
    65
 73
     8
 40
36.0
 49
24.0
 74
     0
 49
-3.0
 74
     0
 49
0.0
 74
     0
 49
-3.0
 74
     0
 49
0.0
 74
     0
 49
-3.0
 74
     0
 49
0.0
 74
     0
 49
-3.0
 74
     0
  0
LTYPE
  5
84
330
5
100
AcDbSymbolTableRecord
100
AcDbLinetypeTableRecord
  2
ACAD_ISO13W100
 70
     0
  3
ISO double-dash double-dot __ __ . . __ __ . . _
 72
    65
 73
     8
 40
36.0
 49
12.0
 74
     0
 49
-3.0
 74
     0
 49
12.0
 74
     0
 49
-3.0
 74
     0
 49
0.0
 74
     0
 49
-3.0
 74
     0
 49
0.0
 74
     0
 49
-3.0
 74
     0
  0
LTYPE
  5
85
330
5
100
AcDbSymbolTableRecord
100
AcDbLinetypeTableRecord
  2
ACAD_ISO14W100
 70
     0
  3
ISO dash triple-dot __ . . . __ . . . __ . . . _
 72
    65
 73
     8
 40
24.0
 49
12.0
 74
     0
 49
-3.0
 74
     0
 49
0.0
 74
     0
 49
-3.0
 74
     0
 49
0.0
 74
     0
 49
-3.0
 74
     0
 49
0.0
 74
     0
 49
-3.0
 74
     0
  0
LTYPE
  5
86
330
5
100
AcDbSymbolTableRecord
100
AcDbLinetypeTableRecord
  2
ACAD_ISO02W100
 70
     0
  3
ISO dash __ __ __ __ __ __ __ __ __ __ __ __ __
 72
    65
 73
     2
 40
15.0
 49
12.0
 74
     0
 49
-3.0
 74
     0
  0
LTYPE
  5
87
330
5
100
AcDbSymbolTableRecord
100
AcDbLinetypeTableRecord
  2
ACAD_ISO03W100
 70
     0
  3
ISO dash space __    __    __    __    __    __
 72
    65
 73
     2
 40
30.0
 49
12.0
 74
     0
 49
-18.0
 74
     0
  0
LTYPE
  5
88
330
5
100
AcDbSymbolTableRecord
100
AcDbLinetypeTableRecord
  2
ACAD_ISO04W100
 70
     0
  3
ISO long-dash dot ____ . ____ . ____ . ____ . _
 72
    65
 73
     4
 40
30.0
 49
24.0
 74
     0
 49
-3.0
 74
     0
 49
0.0
 74
     0
 49
-3.0
 74
     0
  0
LTYPE
  5
89
330
5
100
AcDbSymbolTableRecord
100
AcDbLinetypeTableRecord
  2
ACAD_ISO05W100
 70
     0
  3
ISO long-dash double-dot ____ .. ____ .. ____ . 
 72
    65
 73
     6
 40
33.0
 49
24.0
 74
     0
 49
-3.0
 74
     0
 49
0.0
 74
     0
 49
-3.0
 74
     0
 49
0.0
 74
     0
 49
-3.0
 74
     0
  0
LTYPE
  5
8A
330
5
100
AcDbSymbolTableRecord
100
AcDbLinetypeTableRecord
  2
ACAD_ISO07W100
 70
     0
  3
ISO dot . . . . . . . . . . . . . . . . . . . . 
 72
    65
 73
     2
 40
3.0
 49
0.0
 74
     0
 49
-3.0
 74
     0
  0
LTYPE
  5
8B
330
5
100
AcDbSymbolTableRecord
100
AcDbLinetypeTableRecord
  2
ACAD_ISO08W100
 70
     0
  3
ISO long-dash short-dash ____ __ ____ __ ____ _
 72
    65
 73
     4
 40
36.0
 49
24.0
 74
     0
 49
-3.0
 74
     0
 49
6.0
 74
     0
 49
-3.0
 74
     0
  0
LTYPE
  5
8C
330
5
100
AcDbSymbolTableRecord
100
AcDbLinetypeTableRecord
  2
ACAD_ISO09W100
 70
     0
  3
ISO long-dash double-short-dash ____ __ __ ____
 72
    65
 73
     6
 40
45.0
 49
24.0
 74
     0
 49
-3.0
 74
     0
 49
6.0
 74
     0
 49
-3.0
 74
     0
 49
6.0
 74
     0
 49
-3.0
 74
     0
  0
LTYPE
  5
8D
330
5
100
AcDbSymbolTableRecord
100
AcDbLinetypeTableRecord
  2
ACAD_ISO10W100
 70
     0
  3
ISO dash dot __ . __ . __ . __ . __ . __ . __ . 
 72
    65
 73
     4
 40
18.0
 49
12.0
 74
     0
 49
-3.0
 74
     0
 49
0.0
 74
     0
 49
-3.0
 74
     0
  0
LTYPE
  5
8E
330
5
100
AcDbSymbolTableRecord
100
AcDbLinetypeTableRecord
  2
ACAD_ISO11W100
 70
     0
  3
ISO double-dash dot __ __ . __ __ . __ __ . __ _
 72
    65
 73
     6
 40
33.0
 49
12.0
 74
     0
 49
-3.0
 74
     0
 49
12.0
 74
     0
 49
-3.0
 74
     0
 49
0.0
 74
     0
 49
-3.0
 74
     0
  0
LTYPE
  5
8F
330
5
100
AcDbSymbolTableRecord
100
AcDbLinetypeTableRecord
  2
ACAD_ISO12W100
 70
     0
  3
ISO dash double-dot __ . . __ . . __ . . __ . . 
 72
    65
 73
     6
 40
21.0
 49
12.0
 74
     0
 49
-3.0
 74
     0
 49
0.0
 74
     0
 49
-3.0
 74
     0
 49
0.0
 74
     0
 49
-3.0
 74
     0
  0
LTYPE
  5
90
330
5
100
AcDbSymbolTableRecord
100
AcDbLinetypeTableRecord
  2
ACAD_ISO15W100
 70
     0
  3
ISO double-dash triple-dot __ __ . . . __ __ . .
 72
    65
 73
    10
 40
39.0
 49
12.0
 74
     0
 49
-3.0
 74
     0
 49
12.0
 74
     0
 49
-3.0
 74
     0
 49
0.0
 74
     0
 49
-3.0
 74
     0
 49
0.0
 74
     0
 49
-3.0
 74
     0
 49
0.0
 74
     0
 49
-3.0
 74
     0
  0
LTYPE
  5
91
330
5
100
AcDbSymbolTableRecord
100
AcDbLinetypeTableRecord
  2
JIS_02_0.7
 70
     0
  3
HIDDEN0.75 _ _ _ _ _ _ _ _ _ _ _ _ _ _ _ _ _ 
 72
    65
 73
     2
 40
1.35
 49
0.75
 74
     0
 49
-0.6
 74
     0
  0
LTYPE
  5
92
330
5
100
AcDbSymbolTableRecord
100
AcDbLinetypeTableRecord
  2
JIS_02_1.0
 70
     0
  3
HIDDEN01 _ _ _ _ _ _ _ _ _ _ _ _ _ _ _ _ _ 
 72
    65
 73
     2
 40
2.0
 49
1.0
 74
     0
 49
-1.0
 74
     0
  0
LTYPE
  5
93
330
5
100
AcDbSymbolTableRecord
100
AcDbLinetypeTableRecord
  2
JIS_02_1.2
 70
     0
  3
HIDDEN01.25  _ _ _ _ _ _ _ _ _ _ _ _ _ _ _ _ _ 
 72
    65
 73
     2
 40
2.5
 49
1.25
 74
     0
 49
-1.25
 74
     0
  0
LTYPE
  5
94
330
5
100
AcDbSymbolTableRecord
100
AcDbLinetypeTableRecord
  2
JIS_02_2.0
 70
     0
  3
HIDDEN02 __ __ __ __ __ __ __ __ __ __ __ 
 72
    65
 73
     2
 40
3.0
 49
2.0
 74
     0
 49
-1.0
 74
     0
  0
LTYPE
  5
95
330
5
100
AcDbSymbolTableRecord
100
AcDbLinetypeTableRecord
  2
JIS_02_4.0
 70
     0
  3
HIDDEN04 ____ ____ ____ ____ ____ ____ ____ 
 72
    65
 73
     2
 40
5.5
 49
4.0
 74
     0
 49
-1.5
 74
     0
  0
LTYPE
  5
96
330
5
100
AcDbSymbolTableRecord
100
AcDbLinetypeTableRecord
  2
JIS_08_11
 70
     0
  3
1SASEN11 ___ _ ___ _ ___ _ ___ _ ___ _ ___
 72
    65
 73
     4
 40
12.8
 49
11.0
 74
     0
 49
-0.6
 74
     0
 49
0.6
 74
     0
 49
-0.6
 74
     0
  0
LTYPE
  5
97
330
5
100
AcDbSymbolTableRecord
100
AcDbLinetypeTableRecord
  2
JIS_08_15
 70
     0
  3
1SASEN15 ____ _ ____ _ ____ _ ____ _ ____ 
 72
    65
 73
     4
 40
17.25
 49
15.0
 74
     0
 49
-0.75
 74
     0
 49
0.75
 74
     0
 49
-0.75
 74
     0
  0
LTYPE
  5
98
330
5
100
AcDbSymbolTableRecord
100
AcDbLinetypeTableRecord
  2
JIS_08_25
 70
     0
  3
1SASEN25 ________  __  ________  __  _____
 72
    65
 73
     4
 40
28.0
 49
25.0
 74
     0
 49
-1.125
 74
     0
 49
0.75
 74
     0
 49
-1.125
 74
     0
  0
LTYPE
  5
99
330
5
100
AcDbSymbolTableRecord
100
AcDbLinetypeTableRecord
  2
JIS_08_37
 70
     0
  3
1SASEN37 ________  __  ________  __  _____
 72
    65
 73
     4
 40
40.5
 49
37.5
 74
     0
 49
-1.125
 74
     0
 49
0.75
 74
     0
 49
-1.125
 74
     0
  0
LTYPE
  5
9A
330
5
100
AcDbSymbolTableRecord
100
AcDbLinetypeTableRecord
  2
JIS_08_50
 70
     0
  3
1SASEN50 _______________  __  ____________
 72
    65
 73
     4
 40
53.0
 49
50.0
 74
     0
 49
-1.125
 74
     0
 49
0.75
 74
     0
 49
-1.125
 74
     0
  0
LTYPE
  5
9B
330
5
100
AcDbSymbolTableRecord
100
AcDbLinetypeTableRecord
  2
JIS_09_08
 70
     0
  3
2SASEN8 __ _ _ __ _ _ __ _ _ __ _ _ __ _ _ 
 72
    65
 73
     6
 40
10.75
 49
8.0
 74
     0
 49
-0.55
 74
     0
 49
0.55
 74
     0
 49
-0.55
 74
     0
 49
0.55
 74
     0
 49
-0.55
 74
     0
  0
LTYPE
  5
9C
330
5
100
AcDbSymbolTableRecord
100
AcDbLinetypeTableRecord
  2
JIS_09_15
 70
     0
  3
2SASEN15 ___ _ _ ___ _ _ ___ _ _ ___ _ _ ___ 
 72
    65
 73
     6
 40
18.9
 49
15.0
 74
     0
 49
-0.9
 74
     0
 49
0.6
 74
     0
 49
-0.9
 74
     0
 49
0.6
 74
     0
 49
-0.9
 74
     0
  0
LTYPE
  5
9D
330
5
100
AcDbSymbolTableRecord
100
AcDbLinetypeTableRecord
  2
JIS_09_29
 70
     0
  3
2SASEN29 ______　__  __  ______　__  __  ___
 72
    65
 73
     6
 40
34.0
 49
29.0
 74
     0
 49
-1.2
 74
     0
 49
0.7
 74
     0
 49
-1.2
 74
     0
 49
0.7
 74
     0
 49
-1.2
 74
     0
  0
LTYPE
  5
9E
330
5
100
AcDbSymbolTableRecord
100
AcDbLinetypeTableRecord
  2
JIS_09_50
 70
     0
  3
2SASEN50 ____________　__  __  _____________
 72
    65
 73
     6
 40
55.0
 49
50.0
 74
     0
 49
-1.2
 74
     0
 49
0.7
 74
     0
 49
-1.2
 74
     0
 49
0.7
 74
     0
 49
-1.2
 74
     0
  0
LTYPE
  5
9F
330
5
100
AcDbSymbolTableRecord
100
AcDbLinetypeTableRecord
  2
SXF_破線
 70
     0
  3
02 dashed -- -- -- -- -- --
 72
    65
 73
     2
 40
7.5
 49
6.0
 74
     0
 49
-1.5
 74
     0
  0
LTYPE
  5
A0
330
5
100
AcDbSymbolTableRecord
100
AcDbLinetypeTableRecord
  2
SXF_跳び破線
 70
     0
  3
03 dashed_spaced --  --  --  --
 72
    65
 73
     2
 40
12.0
 49
6.0
 74
     0
 49
-6.0
 74
     0
  0
LTYPE
  5
A1
330
5
100
AcDbSymbolTableRecord
100
AcDbLinetypeTableRecord
  2
SXF_一点長鎖線
 70
     0
  3
04 long_dashed_dotted ---- . ---- . ----
 72
    65
 73
     4
 40
15.25
 49
12.0
 74
     0
 49
-1.5
 74
     0
 49
0.25
 74
     0
 49
-1.5
 74
     0
  0
LTYPE
  5
A2
330
5
100
AcDbSymbolTableRecord
100
AcDbLinetypeTableRecord
  2
SXF_二点長鎖線
 70
     0
  3
05 long_dashed_double-dotted ---- . . ---- 
 72
    65
 73
     6
 40
17.0
 49
12.0
 74
     0
 49
-1.5
 74
     0
 49
0.25
 74
     0
 49
-1.5
 74
     0
 49
0.25
 74
     0
 49
-1.5
 74
     0
  0
LTYPE
  5
A3
330
5
100
AcDbSymbolTableRecord
100
AcDbLinetypeTableRecord
  2
SXF_三点長鎖線
 70
     0
  3
06 long_dashed_triplicate-dotted ---- ... ---- 
 72
    65
 73
     8
 40
18.75
 49
12.0
 74
     0
 49
-1.5
 74
     0
 49
0.25
 74
     0
 49
-1.5
 74
     0
 49
0.25
 74
     0
 49
-1.5
 74
     0
 49
0.25
 74
     0
 49
-1.5
 74
     0
  0
LTYPE
  5
A4
330
5
100
AcDbSymbolTableRecord
100
AcDbLinetypeTableRecord
  2
SXF_点線
 70
     0
  3
07 dotted . . . . . . . . . . . . 
 72
    65
 73
     2
 40
1.75
 49
0.25
 74
     0
 49
-1.5
 74
     0
  0
LTYPE
  5
A5
330
5
100
AcDbSymbolTableRecord
100
AcDbLinetypeTableRecord
  2
SXF_一点鎖線
 70
     0
  3
08 chain ---- - --- - --- - ---
 72
    65
 73
     4
 40
18.5
 49
12.0
 74
     0
 49
-1.5
 74
     0
 49
3.5
 74
     0
 49
-1.5
 74
     0
  0
LTYPE
  5
A6
330
5
100
AcDbSymbolTableRecord
100
AcDbLinetypeTableRecord
  2
SXF_二点鎖線
 70
     0
  3
09 chain_double_dash ---- - - ---- - - ----
 72
    65
 73
     6
 40
23.5
 49
12.0
 74
     0
 49
-1.5
 74
     0
 49
3.5
 74
     0
 49
-1.5
 74
     0
 49
3.5
 74
     0
 49
-1.5
 74
     0
  0
LTYPE
  5
A7
330
5
100
AcDbSymbolTableRecord
100
AcDbLinetypeTableRecord
  2
SXF_一点短鎖線
 70
     0
  3
10 dashed_dotted -- . -- . -- . --
 72
    65
 73
     4
 40
9.25
 49
6.0
 74
     0
 49
-1.5
 74
     0
 49
0.25
 74
     0
 49
-1.5
 74
     0
  0
LTYPE
  5
A8
330
5
100
AcDbSymbolTableRecord
100
AcDbLinetypeTableRecord
  2
SXF_一点二短鎖線
 70
     0
  3
11 double-dashed_dotted -- -- . -- --
 72
    65
 73
     6
 40
16.75
 49
6.0
 74
     0
 49
-1.5
 74
     0
 49
6.0
 74
     0
 49
-1.5
 74
     0
 49
0.25
 74
     0
 49
-1.5
 74
     0
  0
LTYPE
  5
A9
330
5
100
AcDbSymbolTableRecord
100
AcDbLinetypeTableRecord
  2
SXF_二点短鎖線
 70
     0
  3
12 dashed_double_dotted -- . . -- . . --
 72
    65
 73
     6
 40
11.0
 49
6.0
 74
     0
 49
-1.5
 74
     0
 49
0.25
 74
     0
 49
-1.5
 74
     0
 49
0.25
 74
     0
 49
-1.5
 74
     0
  0
LTYPE
  5
AA
330
5
100
AcDbSymbolTableRecord
100
AcDbLinetypeTableRecord
  2
SXF_二点二短鎖線
 70
     0
  3
13 double-dashed_double-dotted -- -- . . -- --
 72
    65
 73
     8
 40
18.5
 49
6.0
 74
     0
 49
-1.5
 74
     0
 49
6.0
 74
     0
 49
-1.5
 74
     0
 49
0.25
 74
     0
 49
-1.5
 74
     0
 49
0.25
 74
     0
 49
-1.5
 74
     0
  0
LTYPE
  5
AB
330
5
100
AcDbSymbolTableRecord
100
AcDbLinetypeTableRecord
  2
SXF_三点短鎖線
 70
     0
  3
14 dashed triplicate-dotted -- . . . -- . . . --
 72
    65
 73
     8
 40
12.75
 49
6.0
 74
     0
 49
-1.5
 74
     0
 49
0.25
 74
     0
 49
-1.5
 74
     0
 49
0.25
 74
     0
 49
-1.5
 74
     0
 49
0.25
 74
     0
 49
-1.5
 74
     0
  0
LTYPE
  5
AC
330
5
100
AcDbSymbolTableRecord
100
AcDbLinetypeTableRecord
  2
SXF_三点二短鎖線
 70
     0
  3
15 double-dashed triplicate-dotted -- -- . . . -- -- 
 72
    65
 73
    10
 40
20.25
 49
6.0
 74
     0
 49
-1.5
 74
     0
 49
6.0
 74
     0
 49
-1.5
 74
     0
 49
0.25
 74
     0
 49
-1.5
 74
     0
 49
0.25
 74
     0
 49
-1.5
 74
     0
 49
0.25
 74
     0
 49
-1.5
 74
     0
  0
ENDTAB
  0
TABLE
  2
LAYER
  5
2
330
0
100
AcDbSymbolTable
 70
     4
  0
LAYER
  5
10
330
2
100
AcDbSymbolTableRecord
100
AcDbLayerTableRecord
  2
0
 70
     0
 62
     7
  6
Continuous
370
    -3
390
F
347
46
  0
LAYER
  5
AD
330
2
100
AcDbSymbolTableRecord
100
AcDbLayerTableRecord
  2
2
 70
     0
 62
     7
  6
Continuous
370
    -3
390
F
347
46
  0
LAYER
  5
AE
330
2
100
AcDbSymbolTableRecord
100
AcDbLayerTableRecord
  2
3
 70
     0
 62
     7
  6
Continuous
370
    -3
390
F
347
46
  0
LAYER
  5
AF
330
2
100
AcDbSymbolTableRecord
100
AcDbLayerTableRecord
  2
ZUWAKU
 70
     0
 62
     7
  6
Continuous
370
    -3
390
F
347
46
  0
ENDTAB
  0
TABLE
  2
STYLE
  5
3
330
0
100
AcDbSymbolTable
 70
     3
  0
STYLE
  5
11
330
3
100
AcDbSymbolTableRecord
100
AcDbTextStyleTableRecord
  2
Standard
 70
     0
 40
0.0
 41
1.0
 50
0.0
 71
     0
 42
0.2
  3
txt.shx
  4
bigfont.shx
  0
STYLE
  5
101
330
3
100
AcDbSymbolTableRecord
100
AcDbTextStyleTableRecord
  2
dcStyle0
 70
     0
 40
0.0
 41
0.75
 50
0.0
 71
     0
 42
0.2
  3
ＭＳ Ｐゴシック
  4

1001
ACAD
1000
ＭＳ Ｐゴシック
1071
    32802
  0
STYLE
  5
150
330
3
100
AcDbSymbolTableRecord
100
AcDbTextStyleTableRecord
  2
dcStyle1
 70
     0
 40
0.0
 41
1.2
 50
0.0
 71
     0
 42
0.2
  3
txt.shx
  4
bigfont
  0
ENDTAB
  0
TABLE
  2
VIEW
  5
6
330
0
100
AcDbSymbolTable
 70
     0
  0
ENDTAB
  0
TABLE
  2
UCS
  5
7
330
0
100
AcDbSymbolTable
 70
     0
  0
ENDTAB
  0
TABLE
  2
APPID
  5
9
330
0
100
AcDbSymbolTable
 70
     2
  0
APPID
  5
12
330
9
100
AcDbSymbolTableRecord
100
AcDbRegAppTableRecord
  2
ACAD
 70
     0
  0
APPID
  5
6A
330
9
100
AcDbSymbolTableRecord
100
AcDbRegAppTableRecord
  2
DaFusionOut
 70
     0
  0
ENDTAB
  0
TABLE
  2
DIMSTYLE
  5
A
330
0
100
AcDbSymbolTable
 70
     2
100
AcDbDimStyleTable
  0
DIMSTYLE
105
27
330
A
100
AcDbSymbolTableRecord
100
AcDbDimStyleTableRecord
  2
Standard
 70
     0
178
     0
340
11
  0
DIMSTYLE
105
4E7
102
{ACAD_REACTORS
330
4E6
330
4E8
330
4EA
330
4EB
330
4EC
330
4EE
330
4F0
102
}
330
A
100
AcDbSymbolTableRecord
100
AcDbDimStyleTableRecord
  2
dc_Rotated
 70
     0
 41
30.00001907348633
 42
10.0
 44
10.0
 90
        1
 73
     0
 74
     0
 77
     3
 78
     8
 79
     2
140
40.0
147
9.99999999999992
172
     1
173
     1
176
     2
177
     2
271
     2
178
     2
271
     2
274
     4
283
     0
284
     8
288
     1
340
101
343
F9
344
F9
  0
ENDTAB
  0
TABLE
  2
BLOCK_RECORD
  5
1
330
0
100
AcDbSymbolTable
 70
    25
  0
BLOCK_RECORD
  5
1F
330
1
100
AcDbSymbolTableRecord
100
AcDbBlockTableRecord
  2
*Model_Space
340
22
 70
     0
280
     1
281
     0
  0
BLOCK_RECORD
  5
1B
330
1
100
AcDbSymbolTableRecord
100
AcDbBlockTableRecord
  2
*Paper_Space
340
1E
 70
     0
280
     1
281
     0
  0
BLOCK_RECORD
  5
23
330
1
100
AcDbSymbolTableRecord
100
AcDbBlockTableRecord
  2
*Paper_Space0
340
26
 70
     0
280
     1
281
     0
  0
BLOCK_RECORD
  5
B1
330
1
100
AcDbSymbolTableRecord
100
AcDbBlockTableRecord
  2
*D1
340
0
 70
     0
280
     1
281
     0
  0
BLOCK_RECORD
  5
B4
330
1
100
AcDbSymbolTableRecord
100
AcDbBlockTableRecord
  2
*D2
340
0
 70
     0
280
     1
281
     0
  0
BLOCK_RECORD
  5
B7
330
1
100
AcDbSymbolTableRecord
100
AcDbBlockTableRecord
  2
DA_DIMGROUP_0
340
0
102
{BLKREFS
331
4E9
102
}
 70
     0
280
     1
281
     0
  0
BLOCK_RECORD
  5
BA
330
1
100
AcDbSymbolTableRecord
100
AcDbBlockTableRecord
  2
*D4
340
0
 70
     0
280
     1
281
     0
  0
BLOCK_RECORD
  5
BD
330
1
100
AcDbSymbolTableRecord
100
AcDbBlockTableRecord
  2
*D5
340
0
 70
     0
280
     1
281
     0
  0
BLOCK_RECORD
  5
C0
330
1
100
AcDbSymbolTableRecord
100
AcDbBlockTableRecord
  2
*D6
340
0
 70
     0
280
     1
281
     0
  0
BLOCK_RECORD
  5
C3
330
1
100
AcDbSymbolTableRecord
100
AcDbBlockTableRecord
  2
DC_IMAGEDIMGROUP_1
340
0
102
{BLKREFS
331
4ED
102
}
 70
     0
280
     1
281
     0
  0
BLOCK_RECORD
  5
C6
330
1
100
AcDbSymbolTableRecord
100
AcDbBlockTableRecord
  2
*D8
340
0
 70
     0
280
     1
281
     0
  0
BLOCK_RECORD
  5
C9
330
1
100
AcDbSymbolTableRecord
100
AcDbBlockTableRecord
  2
DC_GROUP_W_GT10H_S_020_4_1
340
0
102
{BLKREFS
331
4EF
102
}
 70
     0
280
     1
281
     0
  0
BLOCK_RECORD
  5
CC
330
1
100
AcDbSymbolTableRecord
100
AcDbBlockTableRecord
  2
DC_GROUP_W_GT10H_S_020_4_2
340
0
102
{BLKREFS
331
4F6
102
}
 70
     0
280
     1
281
     0
  0
BLOCK_RECORD
  5
CF
330
1
100
AcDbSymbolTableRecord
100
AcDbBlockTableRecord
  2
DC_GROUP_W_GT10H_S_020_4_3
340
0
102
{BLKREFS
331
4F7
102
}
 70
     0
280
     1
281
     0
  0
BLOCK_RECORD
  5
D2
330
1
100
AcDbSymbolTableRecord
100
AcDbBlockTableRecord
  2
*D12
340
0
 70
     0
280
     1
281
     0
  0
BLOCK_RECORD
  5
D5
330
1
100
AcDbSymbolTableRecord
100
AcDbBlockTableRecord
  2
DC_GROUP_W_GT10H_S_020_4_4
340
0
102
{BLKREFS
331
4F1
102
}
 70
     0
280
     1
281
     0
  0
BLOCK_RECORD
  5
D8
330
1
100
AcDbSymbolTableRecord
100
AcDbBlockTableRecord
  2
DC_GROUP_W_GT10H_S_020_4_5
340
0
102
{BLKREFS
331
4F2
102
}
 70
     0
280
     1
281
     0
  0
BLOCK_RECORD
  5
DB
330
1
100
AcDbSymbolTableRecord
100
AcDbBlockTableRecord
  2
DC_GROUP_W_GT10H_S_020_4_6
340
0
102
{BLKREFS
331
16E
102
}
 70
     0
280
     1
281
     0
  0
BLOCK_RECORD
  5
DE
330
1
100
AcDbSymbolTableRecord
100
AcDbBlockTableRecord
  2
DC_GROUP_W_GT10H_S_020_4_7
340
0
102
{BLKREFS
331
16F
102
}
 70
     0
280
     1
281
     0
  0
BLOCK_RECORD
  5
E1
330
1
100
AcDbSymbolTableRecord
100
AcDbBlockTableRecord
  2
DC_GROUP_W_GT10H_S_020_4_8
340
0
102
{BLKREFS
331
4F8
102
}
 70
     0
280
     1
281
     0
  0
BLOCK_RECORD
  5
E4
330
1
100
AcDbSymbolTableRecord
100
AcDbBlockTableRecord
  2
DC_GROUP_W_GT10H_S_020_4_9
340
0
102
{BLKREFS
331
4F9
102
}
 70
     0
280
     1
281
     0
  0
BLOCK_RECORD
  5
E7
330
1
100
AcDbSymbolTableRecord
100
AcDbBlockTableRecord
  2
DC_GROUP_W_GT10H_S_020_4_10
340
0
102
{BLKREFS
331
4F3
102
}
 70
     0
280
     1
281
     0
  0
BLOCK_RECORD
  5
EA
330
1
100
AcDbSymbolTableRecord
100
AcDbBlockTableRecord
  2
DC_GROUP_W_GT10H_S_020_4_11
340
0
102
{BLKREFS
331
4F4
102
}
 70
     0
280
     1
281
     0
  0
BLOCK_RECORD
  5
ED
330
1
100
AcDbSymbolTableRecord
100
AcDbBlockTableRecord
  2
DC_GROUP_W_GT10H_S_020_4_12
340
0
102
{BLKREFS
331
296
102
}
 70
     0
280
     1
281
     0
  0
BLOCK_RECORD
  5
F0
330
1
100
AcDbSymbolTableRecord
100
AcDbBlockTableRecord
  2
DC_GROUP_W_GT10H_S_020_4_13
340
0
102
{BLKREFS
331
4FA
102
}
 70
     0
280
     1
281
     0
  0
BLOCK_RECORD
  5
F3
330
1
100
AcDbSymbolTableRecord
100
AcDbBlockTableRecord
  2
DC_GROUP_W_GT10H_S_020_4_14
340
0
102
{BLKREFS
331
4F5
102
}
 70
     0
280
     1
281
     0
  0
BLOCK_RECORD
  5
F9
330
1
100
AcDbSymbolTableRecord
100
AcDbBlockTableRecord
  2
_OPEN30
340
0
102
{BLKREFS
331
FF
331
100
331
106
331
107
331
10E
331
10F
331
111
331
117
331
118
331
11D
331
11E
331
123
331
124
331
12A
331
12C
331
131
331
132
331
136
331
138
331
165
331
166
331
16B
331
293
102
}
 70
     0
280
     1
281
     0
  0
ENDTAB
  0
ENDSEC
  0
SECTION
  2
BLOCKS
  0
BLOCK
  5
20
330
1F
100
AcDbEntity
  8
0
100
AcDbBlockBegin
  2
*Model_Space
 70
     0
 10
0.0
 20
0.0
 30
0.0
  3
*Model_Space
  1
*Model_Space
  0
ENDBLK
  5
21
330
1F
100
AcDbEntity
  8
0
100
AcDbBlockEnd
  0
BLOCK
  5
1C
330
1B
100
AcDbEntity
 67
     1
  8
0
100
AcDbBlockBegin
  2
*Paper_Space
 70
     0
 10
0.0
 20
0.0
 30
0.0
  3
*Paper_Space
  1
*Paper_Space
  0
ENDBLK
  5
1D
330
1B
100
AcDbEntity
 67
     1
  8
0
100
AcDbBlockEnd
  0
BLOCK
  5
24
330
23
100
AcDbEntity
  8
0
100
AcDbBlockBegin
  2
*Paper_Space0
 70
     0
 10
0.0
 20
0.0
 30
0.0
  3
*Paper_Space0
  1
*Paper_Space0
  0
ENDBLK
  5
25
330
23
100
AcDbEntity
  8
0
100
AcDbBlockEnd
  0
BLOCK
  5
B2
330
B1
100
AcDbEntity
  8
0
100
AcDbBlockBegin
  2
*D1
 70
     1
 10
0.0
 20
0.0
 30
0.0
  3
*D1
  1
*D1
  0
LINE
  5
F6
330
B1
100
AcDbEntity
  8
0
  6
Continuous
 62
     2
370
    13
100
AcDbLine
 10
-354.8884991520906
 20
206.4115754286819
 30
0.0
 11
-860.1036459824298
 21
711.6267222590213
 31
0.0
  0
LINE
  5
F7
330
B1
100
AcDbEntity
  8
0
  6
Continuous
 62
     2
370
    13
100
AcDbLine
 10
-72.04578667761137
 20
842.8076784964348
 30
0.0
 11
-400.4842382113137
 21
1171.246130030137
 31
0.0
  0
LINE
  5
F8
330
B1
100
AcDbEntity
  8
0
  6
Continuous
 62
     2
370
    13
100
AcDbLine
 10
-853.0325781705643
 20
704.5556544471558
 30
0.0
 11
-393.4131703994481
 21
1164.175062218272
 31
0.0
  0
INSERT
  5
FF
330
B1
100
AcDbEntity
  8
0
 62
     2
100
AcDbBlockReference
  2
_OPEN30
 10
-853.0325781705643
 20
704.5556544471558
 30
0.0
 41
30.00002807615286
 42
29.99989368223643
 50
225.0
  0
INSERT
  5
100
330
B1
100
AcDbEntity
  8
0
 62
     2
100
AcDbBlockReference
  2
_OPEN30
 10
-393.4131703994481
 20
1164.175062218272
 30
0.0
 41
30.00002807615286
 42
29.99989368223643
 50
44.99999999999997
  0
MTEXT
  5
102
330
B1
100
AcDbEntity
  8
0
 62
     2
100
AcDbMText
 10
-630.2939420968717
 20
941.4364261445792
 30
0.0
 40
40.0
 41
125.0
 46
0.0
 71
     8
 72
     1
  1
\T1.00;650
  7
dcStyle0
 11
0.7071067811865477
 21
0.7071067811865474
 31
0.0
 73
     1
 44
1.0
  0
ENDBLK
  5
B3
330
B1
100
AcDbEntity
  8
0
100
AcDbBlockEnd
  0
BLOCK
  5
B5
330
B4
100
AcDbEntity
  8
0
100
AcDbBlockBegin
  2
*D2
 70
     1
 10
0.0
 20
0.0
 30
0.0
  3
*D2
  1
*D2
  0
LINE
  5
103
330
B4
100
AcDbEntity
  8
0
  6
Continuous
 62
     2
370
    13
100
AcDbLine
 10
-347.8174313402251
 20
189.3405076168165
 30
0.0
 11
-347.8174313402251
 21
68.61250780046838
 31
0.0
  0
LINE
  5
104
330
B4
100
AcDbEntity
  8
0
  6
Continuous
 62
     2
370
    13
100
AcDbLine
 10
112.1825686597749
 20
171.9417184006584
 30
0.0
 11
112.1825686597749
 21
68.61250780046838
 31
0.0
  0
LINE
  5
105
330
B4
100
AcDbEntity
  8
0
  6
Continuous
 62
     2
370
    13
100
AcDbLine
 10
-347.8174313402251
 20
78.61250780046839
 30
0.0
 11
112.1825686597749
 21
78.61250780046839
 31
0.0
  0
INSERT
  5
106
330
B4
100
AcDbEntity
  8
0
 62
     2
100
AcDbBlockReference
  2
_OPEN30
 10
-347.8174313402251
 20
78.61250780046839
 30
0.0
 41
30.00002807615286
 42
29.99989368223643
 50
180.0
  0
INSERT
  5
107
330
B4
100
AcDbEntity
  8
0
 62
     2
100
AcDbBlockReference
  2
_OPEN30
 10
112.1825686597749
 20
78.61250780046839
 30
0.0
 41
30.00002807615286
 42
29.99989368223643
 50
360.0
  0
MTEXT
  5
108
330
B4
100
AcDbEntity
  8
0
 62
     2
100
AcDbMText
 10
-117.8174313402251
 20
88.61250780046839
 30
0.0
 40
40.0
 41
150.0
 46
0.0
 71
     8
 72
     1
  1
\T1.00;R460
  7
dcStyle0
 73
     1
 44
1.0
  0
ENDBLK
  5
B6
330
B4
100
AcDbEntity
  8
0
100
AcDbBlockEnd
  0
BLOCK
  5
B8
330
B7
100
AcDbEntity
  8
0
100
AcDbBlockBegin
  2
DA_DIMGROUP_0
 70
     0
 10
0.0
 20
0.0
 30
0.0
  3
DA_DIMGROUP_0
  1
DA_DIMGROUP_0
  0
LINE
  5
109
330
B7
100
AcDbEntity
  8
0
  6
Continuous
 62
     2
370
    13
100
AcDbLine
 10
-371.8224819742511
 20
-1003.879929392471
 30
0.0
 11
-556.5957066189601
 21
-1003.879929392471
 31
0.0
  0
LINE
  5
10A
330
B7
100
AcDbEntity
  8
0
  6
Continuous
 62
     2
370
    13
100
AcDbLine
 10
-47.86747862671497
 20
-303.8799293924517
 30
0.0
 11
-556.5957066189601
 21
-303.8799293924517
 31
0.0
  0
LINE
  5
10B
330
B7
100
AcDbEntity
  8
0
  6
Continuous
 62
     2
370
    13
100
AcDbLine
 10
-356.8958677313405
 20
-261.2683229296443
 30
0.0
 11
-556.5957066189601
 21
-261.2683229296443
 31
0.0
  0
LINE
  5
10C
330
B7
100
AcDbEntity
  8
0
  6
Continuous
 62
     2
370
    13
100
AcDbLine
 10
-546.5957066189601
 20
-303.8799293924517
 30
0.0
 11
-546.5957066189601
 21
-261.2683229296443
 31
0.0
  0
LINE
  5
10D
330
B7
100
AcDbEntity
  8
0
  6
Continuous
 62
     2
370
    13
100
AcDbLine
 10
-546.5957066189601
 20
-1003.879929392471
 30
0.0
 11
-546.5957066189601
 21
-303.8799293924517
 31
0.0
  0
INSERT
  5
10E
330
B7
100
AcDbEntity
  8
0
 62
     2
100
AcDbBlockReference
  2
_OPEN30
 10
-546.5957066189601
 20
-1003.879929392471
 30
0.0
 41
30.00002807615286
 42
29.99989368223643
 50
270.0
  0
INSERT
  5
10F
330
B7
100
AcDbEntity
  8
0
 62
     2
100
AcDbBlockReference
  2
_OPEN30
 10
-546.5957066189601
 20
-303.8799293924517
 30
0.0
 41
30.00002807615286
 42
29.99989368223643
 50
90.0
  0
LINE
  5
110
330
B7
100
AcDbEntity
  8
0
  6
Continuous
 62
     2
370
    13
100
AcDbLine
 10
-546.5957066189601
 20
-211.2683229296443
 30
0.0
 11
-546.5957066189601
 21
-261.2683229296443
 31
0.0
  0
INSERT
  5
111
330
B7
100
AcDbEntity
  8
0
 62
     2
100
AcDbBlockReference
  2
_OPEN30
 10
-546.5957066189601
 20
-261.2683229296443
 30
0.0
 41
30.00002807615286
 42
29.99989368223643
 50
270.0
  0
MTEXT
  5
112
330
B7
100
AcDbEntity
  8
0
 62
     2
100
AcDbMText
 10
-556.5957066189601
 20
-653.8799293924612
 30
0.0
 40
40.0
 41
250.0
 46
0.0
 71
     8
 72
     1
  1
\T1.00;機高±25
  7
dcStyle0
 11
6.123233995736766E-17
 21
1.0
 31
0.0
 73
     1
 44
1.0
  0
MTEXT
  5
113
330
B7
100
AcDbEntity
  8
0
 62
     2
100
AcDbMText
 10
-556.5957066189601
 20
-282.574126161048
 30
0.0
 40
40.0
 41
150.0
 46
0.0
 71
     8
 72
     1
  1
\T1.00;(43)
  7
dcStyle0
 11
6.123233995736766E-17
 21
1.0
 31
0.0
 73
     1
 44
1.0
  0
ENDBLK
  5
B9
330
B7
100
AcDbEntity
  8
0
100
AcDbBlockEnd
  0
BLOCK
  5
BB
330
BA
100
AcDbEntity
  8
0
100
AcDbBlockBegin
  2
*D4
 70
     1
 10
0.0
 20
0.0
 30
0.0
  3
*D4
  1
*D4
  0
LINE
  5
114
330
BA
100
AcDbEntity
  8
0
  6
Continuous
 62
     2
370
    13
100
AcDbLine
 10
-397.8164311645066
 20
249.3395074410977
 30
0.0
 11
-783.4532334032692
 21
634.9763096798605
 31
0.0
  0
LINE
  5
115
330
BA
100
AcDbEntity
  8
0
  6
Continuous
 62
     2
370
    13
100
AcDbLine
 10
-354.8884991520906
 20
376.1172029131728
 30
0.0
 11
-698.6004196610238
 21
719.829123422106
 31
0.0
  0
LINE
  5
116
330
BA
100
AcDbEntity
  8
0
  6
Continuous
 62
     2
370
    13
100
AcDbLine
 10
-776.3821655914038
 20
627.905241867995
 30
0.0
 11
-691.5293518491583
 21
712.7580556102405
 31
0.0
  0
INSERT
  5
117
330
BA
100
AcDbEntity
  8
0
 62
     2
100
AcDbBlockReference
  2
_OPEN30
 10
-776.3821655914038
 20
627.905241867995
 30
0.0
 41
30.00002807615286
 42
29.99989368223643
 50
225.0
  0
INSERT
  5
118
330
BA
100
AcDbEntity
  8
0
 62
     2
100
AcDbBlockReference
  2
_OPEN30
 10
-691.5293518491583
 20
712.7580556102405
 30
0.0
 41
30.00002807615286
 42
29.99989368223643
 50
45.0
  0
MTEXT
  5
119
330
BA
100
AcDbEntity
  8
0
 62
     2
100
AcDbMText
 10
-741.0268265321463
 20
677.4027165509833
 30
0.0
 40
40.0
 41
125.0
 46
0.0
 71
     8
 72
     1
  1
\T1.00;120
  7
dcStyle0
 11
0.7071067811865477
 21
0.7071067811865474
 31
0.0
 73
     1
 44
1.0
  0
ENDBLK
  5
BC
330
BA
100
AcDbEntity
  8
0
100
AcDbBlockEnd
  0
BLOCK
  5
BE
330
BD
100
AcDbEntity
  8
0
100
AcDbBlockBegin
  2
*D5
 70
     1
 10
0.0
 20
0.0
 30
0.0
  3
*D5
  1
*D5
  0
LINE
  5
11A
330
BD
100
AcDbEntity
  8
0
  6
Continuous
 62
     2
370
    13
100
AcDbLine
 10
-354.8884991520906
 20
376.1172029131728
 30
0.0
 11
-698.6004196610241
 21
719.8291234221065
 31
0.0
  0
LINE
  5
11B
330
BD
100
AcDbEntity
  8
0
  6
Continuous
 62
     2
370
    13
100
AcDbLine
 10
-72.04578667761137
 20
842.8076784964348
 30
0.0
 11
-323.8338256321534
 21
1094.595717450977
 31
0.0
  0
LINE
  5
11C
330
BD
100
AcDbEntity
  8
0
  6
Continuous
 62
     2
370
    13
100
AcDbLine
 10
-691.5293518491586
 20
712.758055610241
 30
0.0
 11
-316.7627578202879
 21
1087.524649639111
 31
0.0
  0
INSERT
  5
11D
330
BD
100
AcDbEntity
  8
0
 62
     2
100
AcDbBlockReference
  2
_OPEN30
 10
-691.5293518491586
 20
712.758055610241
 30
0.0
 41
30.00002807615286
 42
29.99989368223643
 50
225.0
  0
INSERT
  5
11E
330
BD
100
AcDbEntity
  8
0
 62
     2
100
AcDbBlockReference
  2
_OPEN30
 10
-316.7627578202879
 20
1087.524649639111
 30
0.0
 41
30.00002807615286
 42
29.99989368223643
 50
44.99999999999997
  0
MTEXT
  5
11F
330
BD
100
AcDbEntity
  8
0
 62
     2
100
AcDbMText
 10
-511.2171226465887
 20
907.2124204365417
 30
0.0
 40
40.0
 41
124.9999999999999
 46
0.0
 71
     8
 72
     1
  1
\T1.00;530
  7
dcStyle0
 11
0.7071067811865477
 21
0.7071067811865474
 31
0.0
 73
     1
 44
1.0
  0
ENDBLK
  5
BF
330
BD
100
AcDbEntity
  8
0
100
AcDbBlockEnd
  0
BLOCK
  5
C1
330
C0
100
AcDbEntity
  8
0
100
AcDbBlockBegin
  2
*D6
 70
     1
 10
0.0
 20
0.0
 30
0.0
  3
*D6
  1
*D6
  0
LINE
  5
120
330
C0
100
AcDbEntity
  8
0
  6
Continuous
 62
     2
370
    13
100
AcDbLine
 10
-347.8174313402251
 20
189.3405076168165
 30
0.0
 11
-347.8174313402251
 21
-13.16528241196171
 31
0.0
  0
LINE
  5
121
330
C0
100
AcDbEntity
  8
0
  6
Continuous
 62
     2
370
    13
100
AcDbLine
 10
-37.81743134038811
 20
189.3405076167624
 30
0.0
 11
-37.81743134038811
 21
-13.16528241196171
 31
0.0
  0
LINE
  5
122
330
C0
100
AcDbEntity
  8
0
  6
Continuous
 62
     2
370
    13
100
AcDbLine
 10
-347.8174313402251
 20
-3.165282411961703
 30
0.0
 11
-37.81743134038811
 21
-3.165282411961703
 31
0.0
  0
INSERT
  5
123
330
C0
100
AcDbEntity
  8
0
 62
     2
100
AcDbBlockReference
  2
_OPEN30
 10
-347.8174313402251
 20
-3.165282411961703
 30
0.0
 41
30.00002807615286
 42
29.99989368223643
 50
180.0
  0
INSERT
  5
124
330
C0
100
AcDbEntity
  8
0
 62
     2
100
AcDbBlockReference
  2
_OPEN30
 10
-37.81743134038811
 20
-3.165282411961703
 30
0.0
 41
30.00002807615286
 42
29.99989368223643
 50
360.0
  0
MTEXT
  5
125
330
C0
100
AcDbEntity
  8
0
 62
     2
100
AcDbMText
 10
-192.8174313403066
 20
6.834717588038297
 30
0.0
 40
40.0
 41
125.0
 46
0.0
 71
     8
 72
     1
  1
\T1.00;310
  7
dcStyle0
 73
     1
 44
1.0
  0
ENDBLK
  5
C2
330
C0
100
AcDbEntity
  8
0
100
AcDbBlockEnd
  0
BLOCK
  5
C4
330
C3
100
AcDbEntity
  8
0
100
AcDbBlockBegin
  2
DC_IMAGEDIMGROUP_1
 70
     0
 10
0.0
 20
0.0
 30
0.0
  3
DC_IMAGEDIMGROUP_1
  1
DC_IMAGEDIMGROUP_1
  0
LINE
  5
126
330
C3
100
AcDbEntity
  8
0
  6
Continuous
 62
     2
370
    13
100
AcDbLine
 10
262.1793880516029
 20
189.3405076167335
 30
0.0
 11
262.1793880516029
 21
-13.16528241196171
 31
0.0
  0
LINE
  5
127
330
C3
100
AcDbEntity
  8
0
  6
Continuous
 62
     2
370
    13
100
AcDbLine
 10
297.1793880517662
 20
189.3405076167774
 30
0.0
 11
297.1793880517662
 21
-13.16528241196171
 31
0.0
  0
LINE
  5
128
330
C3
100
AcDbEntity
  8
0
  6
Continuous
 62
     2
370
    13
100
AcDbLine
 10
297.1793880517662
 20
-3.165282411961703
 30
0.0
 11
262.1793880516029
 21
-3.165282411961703
 31
0.0
  0
LINE
  5
129
330
C3
100
AcDbEntity
  8
0
  6
Continuous
 62
     2
370
    13
100
AcDbLine
 10
386.1571880517662
 20
-3.165282411961703
 30
0.0
 11
297.1793880517662
 21
-3.165282411961703
 31
0.0
  0
INSERT
  5
12A
330
C3
100
AcDbEntity
  8
0
 62
     2
100
AcDbBlockReference
  2
_OPEN30
 10
297.1793880517662
 20
-3.165282411961703
 30
0.0
 41
30.00002807615286
 42
29.99989368223643
 50
180.0
  0
LINE
  5
12B
330
C3
100
AcDbEntity
  8
0
  6
Continuous
 62
     2
370
    13
100
AcDbLine
 10
212.1793880516029
 20
-3.165282411961697
 30
0.0
 11
262.1793880516029
 21
-3.165282411961703
 31
0.0
  0
INSERT
  5
12C
330
C3
100
AcDbEntity
  8
0
 62
     2
100
AcDbBlockReference
  2
_OPEN30
 10
262.1793880516029
 20
-3.165282411961703
 30
0.0
 41
30.00002807615286
 42
29.99989368223643
 50
360.0
  0
MTEXT
  5
12D
330
C3
100
AcDbEntity
  8
0
 62
     2
100
AcDbMText
 10
336.1571880517662
 20
6.834717588038297
 30
0.0
 40
40.0
 41
100.0
 46
0.0
 71
     7
 72
     1
  1
\T1.00;35
  7
dcStyle0
 73
     1
 44
1.0
  0
ENDBLK
  5
C5
330
C3
100
AcDbEntity
  8
0
100
AcDbBlockEnd
  0
BLOCK
  5
C7
330
C6
100
AcDbEntity
  8
0
100
AcDbBlockBegin
  2
*D8
 70
     1
 10
0.0
 20
0.0
 30
0.0
  3
*D8
  1
*D8
  0
LINE
  5
12E
330
C6
100
AcDbEntity
  8
0
  6
Continuous
 62
     2
370
    13
100
AcDbLine
 10
-37.81743134038811
 20
189.3405076167624
 30
0.0
 11
-37.81743134038811
 21
-13.16528241196171
 31
0.0
  0
LINE
  5
12F
330
C6
100
AcDbEntity
  8
0
  6
Continuous
 62
     2
370
    13
100
AcDbLine
 10
262.1793880516029
 20
189.3405076167335
 30
0.0
 11
262.1793880516029
 21
-13.16528241196171
 31
0.0
  0
LINE
  5
130
330
C6
100
AcDbEntity
  8
0
  6
Continuous
 62
     2
370
    13
100
AcDbLine
 10
-37.81743134038811
 20
-3.165282411961703
 30
0.0
 11
262.1793880516029
 21
-3.165282411961703
 31
0.0
  0
INSERT
  5
131
330
C6
100
AcDbEntity
  8
0
 62
     2
100
AcDbBlockReference
  2
_OPEN30
 10
-37.81743134038811
 20
-3.165282411961703
 30
0.0
 41
30.00002807615286
 42
29.99989368223643
 50
180.0
  0
INSERT
  5
132
330
C6
100
AcDbEntity
  8
0
 62
     2
100
AcDbBlockReference
  2
_OPEN30
 10
262.1793880516029
 20
-3.165282411961703
 30
0.0
 41
30.00002807615286
 42
29.99989368223643
 50
360.0
  0
MTEXT
  5
133
330
C6
100
AcDbEntity
  8
0
 62
     2
100
AcDbMText
 10
112.1809783556074
 20
6.834717588038297
 30
0.0
 40
40.0
 41
125.0
 46
0.0
 71
     8
 72
     1
  1
\T1.00;300
  7
dcStyle0
 73
     1
 44
1.0
  0
ENDBLK
  5
C8
330
C6
100
AcDbEntity
  8
0
100
AcDbBlockEnd
  0
BLOCK
  5
CA
330
C9
100
AcDbEntity
  8
0
100
AcDbBlockBegin
  2
DC_GROUP_W_GT10H_S_020_4_1
 70
     0
 10
0.0
 20
0.0
 30
0.0
  3
DC_GROUP_W_GT10H_S_020_4_1
  1
DC_GROUP_W_GT10H_S_020_4_1
  0
TEXT
  5
134
330
C9
100
AcDbEntity
  8
0
 62
     2
100
AcDbText
 10
200.4658644394372
 20
760.792471766335
 30
0.0
 40
40.0
  1
90°
 50
313.1090221470715
 41
0.6877579092159558
  7
dcStyle0
 72
     5
 11
255.1369637248668
 21
702.388097761277
 31
0.0
100
AcDbText
  0
LINE
  5
135
330
C9
100
AcDbEntity
  8
0
  6
Continuous
 62
     2
370
    13
100
AcDbLine
 10
424.3493029535925
 20
199.3405076169367
 30
0.0
 11
424.3472310105308
 21
199.4404861498924
 31
0.0
  0
INSERT
  5
136
330
C9
100
AcDbEntity
  8
0
 62
     2
100
AcDbBlockReference
  2
_OPEN30
 10
424.3493029535925
 20
199.3405076169367
 30
0.0
 41
30.00002807615286
 42
29.99989368223643
 50
271.1872208832647
  0
LINE
  5
137
330
C9
100
AcDbEntity
  8
0
  6
Continuous
 62
     2
370
    13
100
AcDbLine
 10
-347.8174313402283
 20
971.5072419097851
 30
0.0
 11
-347.7174528072726
 21
971.5051699667238
 31
0.0
  0
INSERT
  5
138
330
C9
100
AcDbEntity
  8
0
 62
     2
100
AcDbBlockReference
  2
_OPEN30
 10
-347.8174313402283
 20
971.5072419097851
 30
0.0
 41
30.00002807615286
 42
29.99989368223643
 50
178.8127791169958
  0
ARC
  5
139
330
C9
100
AcDbEntity
  8
0
  6
Continuous
 62
     2
370
    13
100
AcDbCircle
 10
-347.8174313402242
 20
199.3405076159686
 30
0.0
 40
772.1667342938167
100
AcDbArc
 50
0.0000000000718385
 51
90.0000000000003
  0
LINE
  5
13A
330
C9
100
AcDbEntity
  8
0
  6
Continuous
 62
     2
370
    13
100
AcDbLine
 10
-347.8174313402269
 20
854.3373270078555
 30
0.0
 11
-347.8174313402283
 21
971.5072419097851
 31
0.0
  0
LINE
  5
13B
330
C9
100
AcDbEntity
  8
0
  6
Continuous
 62
     2
370
    13
100
AcDbLine
 10
307.1793880517662
 20
199.3405076167899
 30
0.0
 11
424.3493029535925
 21
199.3405076169367
 31
0.0
  0
LINE
  5
13C
330
C9
100
AcDbEntity
  8
0
  6
Continuous
 62
     2
370
    13
100
AcDbLine
 10
-347.8174313402283
 20
971.5072419097851
 30
0.0
 11
-347.8174313402283
 21
981.5072419097851
 31
0.0
  0
LINE
  5
13D
330
C9
100
AcDbEntity
  8
0
  6
Continuous
 62
     2
370
    13
100
AcDbLine
 10
424.3493029535925
 20
199.3405076169367
 30
0.0
 11
434.3493029535925
 21
199.3405076169493
 31
0.0
  0
ENDBLK
  5
CB
330
C9
100
AcDbEntity
  8
0
100
AcDbBlockEnd
  0
BLOCK
  5
CD
330
CC
100
AcDbEntity
  8
0
100
AcDbBlockBegin
  2
DC_GROUP_W_GT10H_S_020_4_2
 70
     0
 10
0.0
 20
0.0
 30
0.0
  3
DC_GROUP_W_GT10H_S_020_4_2
  1
DC_GROUP_W_GT10H_S_020_4_2
  0
LINE
  5
13E
330
CC
100
AcDbEntity
  8
ZUWAKU
  6
Continuous
 62
     7
370
    13
100
AcDbLine
 10
-1970.0
 20
-1328.719233395221
 30
0.0
 11
1970.0
 21
-1328.719233395221
 31
0.0
  0
LINE
  5
13F
330
CC
100
AcDbEntity
  8
ZUWAKU
  6
Continuous
 62
     7
370
    13
100
AcDbLine
 10
1969.999999999996
 20
1351.280766604779
 30
0.0
 11
-1970.0
 21
1351.280766604779
 31
0.0
  0
LINE
  5
140
330
CC
100
AcDbEntity
  8
ZUWAKU
  6
Continuous
 62
     7
370
    13
100
AcDbLine
 10
1970.0
 20
-1328.719233395221
 30
0.0
 11
1969.999999999996
 21
1351.280766604779
 31
0.0
  0
LINE
  5
141
330
CC
100
AcDbEntity
  8
ZUWAKU
  6
Continuous
 62
     7
370
    13
100
AcDbLine
 10
-1970.0
 20
1351.280766604779
 30
0.0
 11
-1970.0
 21
-1328.719233395221
 31
0.0
  0
LINE
  5
142
330
CC
100
AcDbEntity
  8
ZUWAKU
  6
Continuous
 62
     4
370
    13
100
AcDbLine
 10
-344.9999999999997
 20
-1178.719233395222
 30
0.0
 11
50.00000000000028
 21
-1178.719233395222
 31
0.0
  0
LINE
  5
143
330
CC
100
AcDbEntity
  8
ZUWAKU
  6
Continuous
 62
     4
370
    13
100
AcDbLine
 10
-1850.0
 20
-1128.719233395222
 30
0.0
 11
-1850.0
 21
-1328.719233395221
 31
0.0
  0
LINE
  5
144
330
CC
100
AcDbEntity
  8
ZUWAKU
  6
Continuous
 62
     4
370
    13
100
AcDbLine
 10
-1970.0
 20
-1228.719233395222
 30
0.0
 11
1970.0
 21
-1228.719233395222
 31
0.0
  0
LINE
  5
145
330
CC
100
AcDbEntity
  8
ZUWAKU
  6
Continuous
 62
     4
370
    13
100
AcDbLine
 10
50.00000000000028
 20
-1328.719233395221
 30
0.0
 11
50.00000000000028
 21
-1128.719233395222
 31
0.0
  0
LINE
  5
146
330
CC
100
AcDbEntity
  8
ZUWAKU
  6
Continuous
 62
     4
370
    13
100
AcDbLine
 10
-344.9999999999997
 20
-1328.719233395221
 30
0.0
 11
-344.9999999999997
 21
-1128.719233395222
 31
0.0
  0
LINE
  5
147
330
CC
100
AcDbEntity
  8
ZUWAKU
  6
Continuous
 62
     4
370
    13
100
AcDbLine
 10
860.0
 20
-1128.719233395222
 30
0.0
 11
860.0
 21
-1328.719233395221
 31
0.0
  0
LINE
  5
148
330
CC
100
AcDbEntity
  8
ZUWAKU
  6
Continuous
 62
     4
370
    13
100
AcDbLine
 10
300.0000000000003
 20
-1128.719233395222
 30
0.0
 11
300.0000000000003
 21
-1328.719233395221
 31
0.0
  0
LINE
  5
149
330
CC
100
AcDbEntity
  8
ZUWAKU
  6
Continuous
 62
     4
370
    13
100
AcDbLine
 10
-264.9999999999997
 20
-1228.719233395222
 30
0.0
 11
-264.9999999999997
 21
-1328.719233395221
 31
0.0
  0
LINE
  5
14A
330
CC
100
AcDbEntity
  8
ZUWAKU
  6
Continuous
 62
     4
370
    13
100
AcDbLine
 10
-1310.0
 20
-1128.719233395222
 30
0.0
 11
-1310.0
 21
-1328.719233395221
 31
0.0
  0
LINE
  5
14B
330
CC
100
AcDbEntity
  8
ZUWAKU
  6
Continuous
 62
     4
370
    13
100
AcDbLine
 10
1970.0
 20
-1128.719233395222
 30
0.0
 11
-1970.0
 21
-1128.719233395222
 31
0.0
  0
LINE
  5
14C
330
CC
100
AcDbEntity
  8
ZUWAKU
  6
Continuous
 62
     4
370
    13
100
AcDbLine
 10
980.0
 20
-1128.719233395222
 30
0.0
 11
980.0
 21
-1328.719233395221
 31
0.0
  0
LINE
  5
14D
330
CC
100
AcDbEntity
  8
ZUWAKU
  6
Continuous
 62
     3
370
    13
100
AcDbLine
 10
-1875.0
 20
-1203.719233395222
 30
0.0
 11
-1910.0
 21
-1138.719233395222
 31
0.0
  0
LINE
  5
14E
330
CC
100
AcDbEntity
  8
ZUWAKU
  6
Continuous
 62
     3
370
    13
100
AcDbLine
 10
-1945.0
 20
-1203.719233395222
 30
0.0
 11
-1875.0
 21
-1203.719233395222
 31
0.0
  0
LINE
  5
14F
330
CC
100
AcDbEntity
  8
ZUWAKU
  6
Continuous
 62
     3
370
    13
100
AcDbLine
 10
-1910.0
 20
-1138.719233395222
 30
0.0
 11
-1945.0
 21
-1203.719233395222
 31
0.0
  0
TEXT
  5
151
330
CC
100
AcDbEntity
  8
ZUWAKU
 62
     2
100
AcDbText
 10
878.0
 20
-1318.719233395221
 30
0.0
 40
34.99999999999998
  1
番号
 41
1.527272727272728
  7
dcStyle1
 72
     5
 11
962.0
 21
-1318.719233395221
 31
0.0
100
AcDbText
  0
TEXT
  5
152
330
CC
100
AcDbEntity
  8
ZUWAKU
 62
     2
100
AcDbText
 10
-325.9999999999997
 20
-1318.719233395221
 30
0.0
 40
34.99999999999998
  1
度
 41
1.680000000000001
  7
dcStyle1
 72
     5
 11
-283.9999999999997
 21
-1318.719233395221
 31
0.0
100
AcDbText
  0
TEXT
  5
153
330
CC
100
AcDbEntity
  8
ZUWAKU
 62
     2
100
AcDbText
 10
-1948.219219698283
 20
-1318.719233395221
 30
0.0
 40
35.0
  1
番号
 41
1.272727272727273
  7
dcStyle1
 72
     5
 11
-1878.219219698283
 21
-1318.719233395221
 31
0.0
100
AcDbText
  0
TEXT
  5
154
330
CC
100
AcDbEntity
  8
ZUWAKU
 62
     2
100
AcDbText
 10
85.00000000000028
 20
-1198.719233395222
 30
0.0
 40
40.0
  1
シリーズ名
 41
1.086206896551724
  7
dcStyle1
 72
     5
 11
265.0000000000003
 21
-1198.719233395222
 31
0.0
100
AcDbText
  0
TEXT
  5
155
330
CC
100
AcDbEntity
  8
ZUWAKU
 62
     2
100
AcDbText
 10
115.0000000000003
 20
-1298.719233395222
 30
0.0
 40
40.0
  1
機　種
 41
1.235294117647059
  7
dcStyle1
 72
     5
 11
235.0000000000003
 21
-1298.719233395222
 31
0.0
100
AcDbText
  0
TEXT
  5
156
330
CC
100
AcDbEntity
  8
ZUWAKU
 62
     2
100
AcDbText
 10
-1945.0
 20
-1273.719233395222
 30
0.0
 40
35.0
  1
改訂
 41
1.272727272727273
  7
dcStyle1
 72
     5
 11
-1875.0
 21
-1273.719233395222
 31
0.0
100
AcDbText
  0
TEXT
  5
157
330
CC
100
AcDbEntity
  8
ZUWAKU
 62
     2
100
AcDbText
 10
-1744.5
 20
-1296.219233395222
 30
0.0
 40
34.99999999999998
  1
改　 訂　 記　 事
 41
1.061290322580646
  7
dcStyle1
 72
     5
 11
-1415.5
 21
-1296.219233395222
 31
0.0
100
AcDbText
  0
TEXT
  5
158
330
CC
100
AcDbEntity
  8
ZUWAKU
 62
     2
100
AcDbText
 10
-325.9999999999997
 20
-1273.719233395222
 30
0.0
 40
34.99999999999998
  1
尺
 41
1.680000000000001
  7
dcStyle1
 72
     5
 11
-283.9999999999997
 21
-1273.719233395222
 31
0.0
100
AcDbText
  0
TEXT
  5
159
330
CC
100
AcDbEntity
  8
ZUWAKU
 62
     2
100
AcDbText
 10
-269.9999999999997
 20
-1171.219233395222
 30
0.0
 40
34.99999999999998
  1
年　　月　　日
 41
1.195121951219512
  7
dcStyle1
 72
     5
 11
-24.9999999999998
 21
-1171.219233395222
 31
0.0
100
AcDbText
  0
TEXT
  5
15A
330
CC
100
AcDbEntity
  8
ZUWAKU
 62
     2
100
AcDbText
 10
878.0
 20
-1273.719233395222
 30
0.0
 40
34.99999999999998
  1
図面
 41
1.527272727272728
  7
dcStyle1
 72
     5
 11
962.0
 21
-1273.719233395222
 31
0.0
100
AcDbText
  0
TEXT
  5
15B
330
CC
100
AcDbEntity
  8
ZUWAKU
 62
     2
100
AcDbText
 10
880.0
 20
-1198.719233395222
 30
0.0
 40
40.0
  1
図名
 41
1.272727272727273
  7
dcStyle1
 72
     5
 11
960.0
 21
-1198.719233395222
 31
0.0
100
AcDbText
  0
TEXT
  5
15C
330
CC
100
AcDbEntity
  8
ZUWAKU
 62
     7
100
AcDbText
 10
-1027.5
 20
-1203.719233395222
 30
0.0
 40
50.0
  1
技術情報サービス
 41
1.191489361702128
  7
dcStyle1
 72
     5
 11
-627.4999999999998
 21
-1203.719233395222
 31
0.0
100
AcDbText
  0
TEXT
  5
15D
330
CC
100
AcDbEntity
  8
ZUWAKU
 62
     7
100
AcDbText
 10
-1173.411764705882
 20
-1298.719233395222
 30
0.0
 40
40.0
  1
MARUYASU KIKAI CO.,LTD.
 41
0.8990281013395455
  7
dcStyle1
 72
     5
 11
-481.5882352941175
 21
-1298.719233395222
 31
0.0
100
AcDbText
  0
TEXT
  5
15E
330
CC
100
AcDbEntity
  8
ZUWAKU
 62
     4
100
AcDbText
 10
1924.565543923691
 20
-1351.280766604779
 30
0.0
 40
20.0
  1
A3
 41
1.2
  7
dcStyle1
 72
     5
 11
1964.565543923691
 21
-1351.280766604779
 31
0.0
100
AcDbText
  0
ENDBLK
  5
CE
330
CC
100
AcDbEntity
  8
0
100
AcDbBlockEnd
  0
BLOCK
  5
D0
330
CF
100
AcDbEntity
  8
0
100
AcDbBlockBegin
  2
DC_GROUP_W_GT10H_S_020_4_3
 70
     0
 10
0.0
 20
0.0
 30
0.0
  3
DC_GROUP_W_GT10H_S_020_4_3
  1
DC_GROUP_W_GT10H_S_020_4_3
  0
POINT
  5
15F
330
CF
100
AcDbEntity
  8
ZUWAKU
  6
Continuous
 62
     2
100
AcDbPoint
 10
580.0000000000001
 20
-1178.719233395222
 30
0.0
  0
POINT
  5
160
330
CF
100
AcDbEntity
  8
ZUWAKU
  6
Continuous
 62
     2
100
AcDbPoint
 10
580.0000000000001
 20
-1278.719233395221
 30
0.0
  0
POINT
  5
161
330
CF
100
AcDbEntity
  8
ZUWAKU
  6
Continuous
 62
     2
100
AcDbPoint
 10
1940.0
 20
-1278.719233395221
 30
0.0
  0
POINT
  5
162
330
CF
100
AcDbEntity
  8
ZUWAKU
  6
Continuous
 62
     2
100
AcDbPoint
 10
1475.0
 20
-1178.719233395222
 30
0.0
  0
POINT
  5
163
330
CF
100
AcDbEntity
  8
ZUWAKU
  6
Continuous
 62
     2
100
AcDbPoint
 10
-107.4999999999997
 20
-1278.719233395221
 30
0.0
  0
ENDBLK
  5
D1
330
CF
100
AcDbEntity
  8
0
100
AcDbBlockEnd
  0
BLOCK
  5
D3
330
D2
100
AcDbEntity
  8
0
100
AcDbBlockBegin
  2
*D12
 70
     1
 10
0.0
 20
0.0
 30
0.0
  3
*D12
  1
*D12
  0
LINE
  5
164
330
D2
100
AcDbEntity
  8
0
  6
Continuous
 62
     2
370
    13
100
AcDbLine
 10
-476.5957066189601
 20
-1003.879929392471
 30
0.0
 11
-476.5957066189601
 21
-928.8799293924709
 31
0.0
  0
INSERT
  5
165
330
D2
100
AcDbEntity
  8
0
 62
     2
100
AcDbBlockReference
  2
_OPEN30
 10
-476.5957066189601
 20
-1003.879929392471
 30
0.0
 41
30.00002807615286
 42
29.99989368223643
 50
270.0
  0
INSERT
  5
166
330
D2
100
AcDbEntity
  8
0
 62
     2
100
AcDbBlockReference
  2
_OPEN30
 10
-476.5957066189601
 20
-928.8799293924709
 30
0.0
 41
30.00002807615286
 42
29.99989368223643
 50
90.0
  0
LINE
  5
167
330
D2
100
AcDbEntity
  8
0
  6
Continuous
 62
     2
370
    13
100
AcDbLine
 10
-371.8224819742511
 20
-1003.879929392471
 30
0.0
 11
-486.5957066189601
 21
-1003.879929392471
 31
0.0
  0
LINE
  5
168
330
D2
100
AcDbEntity
  8
0
  6
Continuous
 62
     2
370
    13
100
AcDbLine
 10
-286.071219315832
 20
-928.8799293924708
 30
0.0
 11
-486.5957066189601
 21
-928.8799293924709
 31
0.0
  0
MTEXT
  5
169
330
D2
100
AcDbEntity
  8
0
 62
     2
100
AcDbMText
 10
-486.5957066189601
 20
-966.3799293924708
 30
0.0
 40
40.0
 41
100.0
 46
0.0
 71
     8
 72
     1
  1
\T1.00;75
  7
dcStyle0
 11
6.123233995736766E-17
 21
1.0
 31
0.0
 73
     1
 44
1.0
  0
ENDBLK
  5
D4
330
D2
100
AcDbEntity
  8
0
100
AcDbBlockEnd
  0
BLOCK
  5
D6
330
D5
100
AcDbEntity
  8
0
100
AcDbBlockBegin
  2
DC_GROUP_W_GT10H_S_020_4_4
 70
     0
 10
0.0
 20
0.0
 30
0.0
  3
DC_GROUP_W_GT10H_S_020_4_4
  1
DC_GROUP_W_GT10H_S_020_4_4
  0
LINE
  5
16A
330
D5
100
AcDbEntity
  8
0
  6
Continuous
 62
     2
370
    13
100
AcDbLine
 10
-33.63779069807006
 20
772.4980200422544
 30
0.0
 11
31.04268917777244
 21
1190.571929823567
 31
0.0
  0
INSERT
  5
16B
330
D5
100
AcDbEntity
  8
0
 62
     2
100
AcDbBlockReference
  2
_OPEN30
 10
-33.63779069807006
 20
772.4980200422544
 30
0.0
 41
30.00002807615286
 42
29.99989368223643
 50
261.2054581657212
  0
LINE
  5
16C
330
D5
100
AcDbEntity
  8
0
  6
Continuous
 62
     2
370
    13
100
AcDbLine
 10
31.04268917777244
 20
1190.571929823567
 30
0.0
 11
967.0426891777724
 21
1190.571929823567
 31
0.0
  0
TEXT
  5
16D
330
D5
100
AcDbEntity
  8
0
 62
     2
100
AcDbText
 10
31.04268917777244
 20
1200.571929823567
 30
0.0
 40
40.0
  1
Rタイプのスイッチ又はコントロールユニット,インバータ
 41
0.7161876778991827
  7
dcStyle0
 72
     5
 11
967.0426891777724
 21
1200.571929823567
 31
0.0
100
AcDbText
  0
ENDBLK
  5
D7
330
D5
100
AcDbEntity
  8
0
100
AcDbBlockEnd
  0
BLOCK
  5
D9
330
D8
100
AcDbEntity
  8
0
100
AcDbBlockBegin
  2
DC_GROUP_W_GT10H_S_020_4_5
 70
     0
 10
0.0
 20
0.0
 30
0.0
  3
DC_GROUP_W_GT10H_S_020_4_5
  1
DC_GROUP_W_GT10H_S_020_4_5
  0
INSERT
  5
16E
330
D8
100
AcDbEntity
  8
2
  6
Continuous
100
AcDbBlockReference
  2
DC_GROUP_W_GT10H_S_020_4_6
 10
0.0
 20
0.0
 30
0.0
  0
INSERT
  5
16F
330
D8
100
AcDbEntity
  8
2
  6
Continuous
100
AcDbBlockReference
  2
DC_GROUP_W_GT10H_S_020_4_7
 10
0.0
 20
0.0
 30
0.0
  0
ENDBLK
  5
DA
330
D8
100
AcDbEntity
  8
0
100
AcDbBlockEnd
  0
BLOCK
  5
DC
330
DB
100
AcDbEntity
  8
0
100
AcDbBlockBegin
  2
DC_GROUP_W_GT10H_S_020_4_6
 70
     0
 10
0.0
 20
0.0
 30
0.0
  3
DC_GROUP_W_GT10H_S_020_4_6
  1
DC_GROUP_W_GT10H_S_020_4_6
  0
LINE
  5
170
330
DB
100
AcDbEntity
  8
2
  6
DASHED2
 62
     4
370
    13
100
AcDbLine
 10
-50.83258324317251
 20
793.3102038139795
 30
0.0
 11
-61.43918496097012
 21
782.7036020961838
 31
0.0
  0
LINE
  5
171
330
DB
100
AcDbEntity
  8
2
  6
DASHED2
 62
     4
370
    13
100
AcDbLine
 10
-61.43918496097012
 20
782.7036020961838
 30
0.0
 11
-1.335108560118101
 21
722.5995256953228
 31
0.0
  0
LINE
  5
172
330
DB
100
AcDbEntity
  8
2
  6
DASHED2
 62
     4
370
    13
100
AcDbLine
 10
0.7862117834418996
 20
724.7208460388823
 30
0.0
 11
-1.335108560118101
 21
722.5995256953228
 31
0.0
  0
LINE
  5
173
330
DB
100
AcDbEntity
  8
2
  6
DASHED2
 62
     4
370
    13
100
AcDbLine
 10
-50.83258324317251
 20
793.3102038139795
 30
0.0
 11
-47.46862221249319
 21
789.9462427833017
 31
0.0
  0
LINE
  5
174
330
DB
100
AcDbEntity
  8
2
  6
DASHED2
 62
     4
370
    13
100
AcDbLine
 10
-47.23736993832119
 20
789.6864814848162
 30
0.0
 11
1.109927840396267
 21
728.58049805395
 31
0.0
  0
ARC
  5
175
330
DB
100
AcDbEntity
  8
2
  6
DASHED2
 62
     4
370
    13
100
AcDbCircle
 10
-49.58994255605342
 20
787.8249224397408
 30
0.0
 40
3.000000000001046
100
AcDbArc
 50
38.35409432248134
 51
45.00000000000919
  0
ARC
  5
176
330
DB
100
AcDbEntity
  8
2
  6
DASHED2
 62
     4
370
    13
100
AcDbCircle
 10
-1.335108560117305
 20
726.8421663824428
 30
0.0
 40
3.000000000000001
100
AcDbArc
 50
314.9999999999783
 51
35.41143836011077
  0
LINE
  5
177
330
DB
100
AcDbEntity
  8
2
  6
CENTERX2
 62
     3
370
    13
100
AcDbLine
 10
-24.54493660053652
 20
741.8161045260978
 30
0.0
 11
-18.29362167455042
 21
748.0674194520824
 31
0.0
  0
LINE
  5
178
330
DB
100
AcDbEntity
  8
2
  6
CENTERX2
 62
     3
370
    13
100
AcDbLine
 10
-55.39623965900876
 20
790.8027924179472
 30
0.0
 11
-49.22612755854846
 21
784.632680317486
 31
0.0
  0
ENDBLK
  5
DD
330
DB
100
AcDbEntity
  8
0
100
AcDbBlockEnd
  0
BLOCK
  5
DF
330
DE
100
AcDbEntity
  8
0
100
AcDbBlockBegin
  2
DC_GROUP_W_GT10H_S_020_4_7
 70
     0
 10
0.0
 20
0.0
 30
0.0
  3
DC_GROUP_W_GT10H_S_020_4_7
  1
DC_GROUP_W_GT10H_S_020_4_7
  0
SPLINE
  5
179
330
DE
100
AcDbEntity
  8
2
  6
DASHED2
 62
     4
370
    13
100
AcDbSpline
210
0.0
220
0.0
230
1.0
 70
     8
 71
     3
 72
    11
 73
     7
 74
     0
 42
0.000000001
 43
0.0000000001
 40
0.0
 40
0.0
 40
0.0
 40
0.0
 40
0.5002901804
 40
0.7504078465
 40
0.8755233814
 40
1.0
 40
1.0
 40
1.0
 40
1.0
 10
-3.151545415386295
 20
735.4446906537624
 30
0.0
 10
-2.980831814468161
 20
735.13515298099
 30
0.0
 10
-2.755823930675774
 20
734.6497011342775
 30
0.0
 10
-2.630321439593786
 20
734.0372137218764
 30
0.0
 10
-2.642726928811953
 20
733.6831277144846
 30
0.0
 10
-2.702524169306457
 20
733.5096428008707
 30
0.0
 10
-2.754392820726366
 20
733.4386132824353
 30
0.0
  0
SPLINE
  5
17A
330
DE
100
AcDbEntity
  8
2
  6
DASHED2
 62
     4
370
    13
100
AcDbSpline
210
0.0
220
0.0
230
1.0
 70
     8
 71
     3
 72
    11
 73
     7
 74
     0
 42
0.000000001
 43
0.0000000001
 40
0.0
 40
0.0
 40
0.0
 40
0.0
 40
0.2386510257
 40
0.4853882043000001
 40
0.7399932082
 40
1.0
 40
1.0
 40
1.0
 40
1.0
 10
-21.19046557860759
 20
759.334638304463
 30
0.0
 10
-21.26053838573978
 20
759.3599375409802
 30
0.0
 10
-21.40946622436604
 20
759.395274624664
 30
0.0
 10
-21.6425284786601
 20
759.3955625755865
 30
0.0
 10
-21.87580283889645
 20
759.3397568801105
 30
0.0
 10
-22.02031317413673
 20
759.2654709746465
 30
0.0
 10
-22.08755896779223
 20
759.2200173821269
 30
0.0
  0
SPLINE
  5
17B
330
DE
100
AcDbEntity
  8
2
  6
DASHED2
 62
     4
370
    13
100
AcDbSpline
210
0.0
220
0.0
230
1.0
 70
     8
 71
     3
 72
    11
 73
     7
 74
     0
 42
0.000000001
 43
0.0000000001
 40
0.0
 40
0.0
 40
0.0
 40
0.0
 40
0.2599712863
 40
0.5145758675
 40
0.7613286667
 40
1.0
 40
1.0
 40
1.0
 40
1.0
 10
-7.141112405346462
 20
744.2733508899502
 30
0.0
 10
-7.095706672924734
 20
744.3405021256095
 30
0.0
 10
-7.021470288552678
 20
744.4848080880396
 30
0.0
 10
-6.965588733459072
 20
744.7177663059962
 30
0.0
 10
-6.965668719256769
 20
744.9505650823334
 30
0.0
 10
-7.000795413924038
 20
745.0993686435487
 30
0.0
 10
-7.025978611177948
 20
745.1693982151318
 30
0.0
  0
LINE
  5
17C
330
DE
100
AcDbEntity
  8
2
  6
DASHED2
 62
     4
370
    13
100
AcDbLine
 10
-22.10154456439966
 20
759.2103921213023
 30
0.0
 11
-22.09267375384195
 21
759.2015213107442
 31
0.0
  0
LINE
  5
17D
330
DE
100
AcDbEntity
  8
2
  6
DASHED2
 62
     4
370
    13
100
AcDbLine
 10
-17.14152441226008
 20
756.037608025474
 30
0.0
 11
-16.92868839193909
 21
756.2504440457959
 31
0.0
  0
LINE
  5
17E
330
DE
100
AcDbEntity
  8
2
  6
DASHED2
 62
     4
370
    13
100
AcDbLine
 10
-20.06475869312953
 20
758.4680548345356
 30
0.0
 11
-19.85085895206623
 21
758.681954575599
 31
0.0
  0
ARC
  5
17F
330
DE
100
AcDbEntity
  8
2
  6
DASHED2
 62
     4
370
    13
100
AcDbCircle
 10
-7.966427635841796
 20
744.8296995847539
 30
0.0
 40
1.0
100
AcDbArc
 50
26.85751011428973
 51
37.00930876088857
  0
ARC
  5
180
330
DE
100
AcDbEntity
  8
2
  6
DASHED2
 62
     4
370
    13
100
AcDbCircle
 10
-7.957016761590239
 20
744.8344726029032
 30
0.0
 40
0.9894479284999999
100
AcDbArc
 50
19.78535773128855
 51
26.85712879888941
  0
ARC
  5
181
330
DE
100
AcDbEntity
  8
2
  6
DASHED2
 62
     4
370
    13
100
AcDbCircle
 10
-63.06553055779102
 20
703.2955105690438
 30
0.0
 40
70.0
100
AcDbArc
 50
52.06735163788901
 51
52.99069123908898
  0
ARC
  5
182
330
DE
100
AcDbEntity
  8
2
  6
DASHED2
 62
     4
370
    13
100
AcDbCircle
 10
-63.06553055779102
 20
703.2955105690438
 30
0.0
 40
70.0
100
AcDbArc
 50
37.00930876088904
 51
48.95277020038902
  0
ARC
  5
183
330
DE
100
AcDbEntity
  8
2
  6
DASHED2
 62
     4
370
    13
100
AcDbCircle
 10
-62.77517979795846
 20
704.1246510588522
 30
0.0
 40
69.118634281
100
AcDbArc
 50
48.68318031798898
 51
51.83493047038901
  0
ARC
  5
184
330
DE
100
AcDbEntity
  8
2
  6
DASHED2
 62
     4
370
    13
100
AcDbCircle
 10
-42.36468337825897
 20
727.6967582493361
 30
0.0
 40
38.300844399
100
AcDbArc
 50
49.69461493378901
 51
53.99786809158906
  0
ARC
  5
185
330
DE
100
AcDbEntity
  8
2
  6
DASHED2
 62
     4
370
    13
100
AcDbCircle
 10
-21.4717505340667
 20
752.327628167839
 30
0.0
 40
6.002324386299999
100
AcDbArc
 50
40.80975383568898
 51
49.6979332280891
  0
ARC
  5
186
330
DE
100
AcDbEntity
  8
2
  6
DASHED2
 62
     4
370
    13
100
AcDbCircle
 10
-21.5213681080071
 20
758.3823633801302
 30
0.0
 40
1.0110570295
100
AcDbArc
 50
124.055724098988
 51
125.0178482884893
  0
ARC
  5
187
330
DE
100
AcDbEntity
  8
2
  6
DASHED2
 62
     4
370
    13
100
AcDbCircle
 10
-21.53134154205929
 20
758.3946134909769
 30
0.0
 40
1.0
100
AcDbArc
 50
52.99069123908949
 51
63.14248988568831
  0
ARC
  5
188
330
DE
100
AcDbEntity
  8
2
  6
DASHED2
 62
     4
370
    13
100
AcDbCircle
 10
-21.52657177610638
 20
758.4040199484269
 30
0.0
 40
0.9894533381999998
100
AcDbArc
 50
63.14281873048923
 51
70.14208586578935
  0
ARC
  5
189
330
DE
100
AcDbEntity
  8
2
  6
DASHED2
 62
     4
370
    13
100
AcDbCircle
 10
-21.53862165255623
 20
758.4099472740608
 30
0.0
 40
0.9662107361
100
AcDbArc
 50
124.1562344262892
 51
124.9896045903903
  0
LINE
  5
18A
330
DE
100
AcDbEntity
  8
2
  6
DASHED2
 62
     4
370
    13
100
AcDbLine
 10
-22.75969635347258
 20
758.7492340020814
 30
0.0
 11
-22.10154456439966
 21
759.2103921213023
 31
0.0
  0
LINE
  5
18B
330
DE
100
AcDbEntity
  8
2
  6
DASHED2
 62
     4
370
    13
100
AcDbLine
 10
-7.150649005445871
 20
744.2594965623424
 30
0.0
 11
-7.993913381301013
 21
743.0560135691916
 31
0.0
  0
LINE
  5
18C
330
DE
100
AcDbEntity
  8
2
  6
DASHED2
 62
     4
370
    13
100
AcDbLine
 10
3.934969626713723
 20
729.4916841449188
 30
0.0
 11
1.917582633258121
 21
731.5090711383747
 31
0.0
  0
LINE
  5
18D
330
DE
100
AcDbEntity
  8
2
  6
DASHED2
 62
     4
370
    13
100
AcDbLine
 10
0.0791050021720139
 20
724.0137392577975
 30
0.0
 11
3.953237216550747
 21
728.0962227880153
 31
0.0
  0
ARC
  5
18E
330
DE
100
AcDbEntity
  8
2
  6
DASHED2
 62
     4
370
    13
100
AcDbCircle
 10
-14.5702011893444
 20
729.1634212206712
 30
0.0
 40
13.032269387
100
AcDbArc
 50
28.81467972188898
 51
61.18531540458903
  0
ARC
  5
18F
330
DE
100
AcDbEntity
  8
2
  6
DASHED2
 62
     4
370
    13
100
AcDbCircle
 10
3.227840367380054
 20
728.7845998418792
 30
0.0
 40
1.0
100
AcDbArc
 50
316.4999523234892
 51
44.99817862718846
  0
ARC
  5
190
330
DE
100
AcDbEntity
  8
2
  6
DASHED2
 62
     4
370
    13
100
AcDbCircle
 10
-186.6879989601341
 20
579.6730421667477
 30
0.0
 40
242.1285714286
100
AcDbArc
 50
38.83563835088901
 51
46.52408151095005
  0
LINE
  5
191
330
DE
100
AcDbEntity
  8
2
  6
DASHED2
 62
     4
370
    13
100
AcDbLine
 10
-90.53235724458648
 20
639.0842786187485
 30
0.0
 11
-83.11200780444017
 21
646.1259273101155
 31
0.0
  0
LINE
  5
192
330
DE
100
AcDbEntity
  8
2
  6
DASHED2
 62
     4
370
    13
100
AcDbLine
 10
-127.2767625080967
 20
675.8286838822729
 30
0.0
 11
-120.235113816727
 21
683.2490333224165
 31
0.0
  0
LINE
  5
193
330
DE
100
AcDbEntity
  8
2
  6
DASHED2
 62
     4
370
    13
100
AcDbLine
 10
-83.11200780444017
 20
646.1259273101155
 30
0.0
 11
-120.235113816727
 21
683.2490333224165
 31
0.0
  0
LINE
  5
194
330
DE
100
AcDbEntity
  8
2
  6
DASHED2
 62
     4
370
    13
100
AcDbLine
 10
-91.92781860148943
 20
639.102546208586
 30
0.0
 11
-127.2584949182595
 21
674.4332225253698
 31
0.0
  0
ARC
  5
195
330
DE
100
AcDbEntity
  8
2
  6
DASHED2
 62
     4
370
    13
100
AcDbCircle
 10
-91.22071182030265
 20
639.8096529897725
 30
0.0
 40
1.0
100
AcDbArc
 50
224.999999999989
 51
313.4999999999895
  0
ARC
  5
196
330
DE
100
AcDbEntity
  8
2
  6
DASHED2
 62
     4
370
    13
100
AcDbCircle
 10
-126.551388137073
 20
675.140329306556
 30
0.0
 40
1.0
100
AcDbArc
 50
136.4999999999885
 51
224.999999999989
  0
LINE
  5
197
330
DE
100
AcDbEntity
  8
2
  6
DASHED2
 62
     4
370
    13
100
AcDbLine
 10
-90.53235724458648
 20
639.0842786187485
 30
0.0
 11
-83.11200780444017
 21
646.1259273101155
 31
0.0
  0
LINE
  5
198
330
DE
100
AcDbEntity
  8
2
  6
DASHED2
 62
     4
370
    13
100
AcDbLine
 10
-127.2767625080967
 20
675.8286838822729
 30
0.0
 11
-120.235113816727
 21
683.2490333224165
 31
0.0
  0
LINE
  5
199
330
DE
100
AcDbEntity
  8
2
  6
DASHED2
 62
     4
370
    13
100
AcDbLine
 10
-83.11200780444017
 20
646.1259273101155
 30
0.0
 11
-120.235113816727
 21
683.2490333224165
 31
0.0
  0
LINE
  5
19A
330
DE
100
AcDbEntity
  8
2
  6
DASHED2
 62
     4
370
    13
100
AcDbLine
 10
-91.92781860148943
 20
639.102546208586
 30
0.0
 11
-127.2584949182595
 21
674.4332225253698
 31
0.0
  0
ARC
  5
19B
330
DE
100
AcDbEntity
  8
2
  6
DASHED2
 62
     4
370
    13
100
AcDbCircle
 10
-91.22071182030265
 20
639.8096529897725
 30
0.0
 40
1.0
100
AcDbArc
 50
224.999999999989
 51
313.4999999999895
  0
ARC
  5
19C
330
DE
100
AcDbEntity
  8
2
  6
DASHED2
 62
     4
370
    13
100
AcDbCircle
 10
-126.551388137073
 20
675.140329306556
 30
0.0
 40
1.0
100
AcDbArc
 50
136.4999999999885
 51
224.999999999989
  0
LINE
  5
19D
330
DE
100
AcDbEntity
  8
2
  6
DASHED2
 62
     4
370
    13
100
AcDbLine
 10
-11.97706561706002
 20
717.2608694974682
 30
0.0
 11
-19.26026546328001
 21
724.5440693436911
 31
0.0
  0
LINE
  5
19E
330
DE
100
AcDbEntity
  8
2
  6
DASHED2
 62
     4
370
    13
100
AcDbLine
 10
-11.97706561706002
 20
717.2608694974682
 30
0.0
 11
-3.986758989649957
 21
725.2511761248755
 31
0.0
  0
LINE
  5
19F
330
DE
100
AcDbEntity
  8
2
  6
DASHED2
 62
     4
370
    13
100
AcDbLine
 10
-90.39520765066038
 20
653.4091271563385
 30
0.0
 11
-19.26026546328001
 21
724.5440693436911
 31
0.0
  0
LINE
  5
1A0
330
DE
100
AcDbEntity
  8
2
  6
DASHED2
 62
     4
370
    13
100
AcDbLine
 10
-41.10986500193656
 20
762.374282137176
 30
0.0
 11
-120.0229817823707
 21
683.4611653567721
 31
0.0
  0
LINE
  5
1A1
330
DE
100
AcDbEntity
  8
2
  6
DASHED2
 62
     4
370
    13
100
AcDbLine
 10
-13.53270053567053
 20
716.1294986475701
 30
0.0
 11
-18.97742275080589
 21
721.5742208627079
 31
0.0
  0
LINE
  5
1A2
330
DE
100
AcDbEntity
  8
2
  6
DASHED2
 62
     4
370
    13
100
AcDbLine
 10
-15.44188884487482
 20
714.2203103383671
 30
0.0
 11
-20.88661106001007
 21
719.6650325535041
 31
0.0
  0
LINE
  5
1A3
330
DE
100
AcDbEntity
  8
2
  6
DASHED2
 62
     4
370
    13
100
AcDbLine
 10
-16.43183833853607
 20
713.2303608447058
 30
0.0
 11
-21.87656055367142
 21
718.6750830598431
 31
0.0
  0
LINE
  5
1A4
330
DE
100
AcDbEntity
  8
2
  6
DASHED2
 62
     4
370
    13
100
AcDbLine
 10
-18.34102664774002
 20
711.3211725355026
 30
0.0
 11
-23.78574886287549
 21
716.7658947506401
 31
0.0
  0
LINE
  5
1A5
330
DE
100
AcDbEntity
  8
2
  6
DASHED2
 62
     4
370
    13
100
AcDbLine
 10
-19.33097614140127
 20
710.3312230418418
 30
0.0
 11
-24.77569835653674
 21
715.7759452569793
 31
0.0
  0
LINE
  5
1A6
330
DE
100
AcDbEntity
  8
2
  6
DASHED2
 62
     4
370
    13
100
AcDbLine
 10
-21.24016445060568
 20
708.4220347326385
 30
0.0
 11
-26.68488666574058
 21
713.8667569477756
 31
0.0
  0
LINE
  5
1A7
330
DE
100
AcDbEntity
  8
2
  6
DASHED2
 62
     4
370
    13
100
AcDbLine
 10
-22.23011394426692
 20
707.4320852389775
 30
0.0
 11
-27.67483615940239
 21
712.8768074541148
 31
0.0
  0
LINE
  5
1A8
330
DE
100
AcDbEntity
  8
2
  6
DASHED2
 62
     4
370
    13
100
AcDbLine
 10
-83.32413983879621
 20
646.3380593444716
 30
0.0
 11
-82.12205831077904
 21
647.5401408724885
 31
0.0
  0
LINE
  5
1A9
330
DE
100
AcDbEntity
  8
2
  6
DASHED2
 62
     4
370
    13
100
AcDbLine
 10
-80.21287000157497
 20
649.4493291816916
 30
0.0
 11
-79.2229205079135
 21
650.4392786753526
 31
0.0
  0
LINE
  5
1AA
330
DE
100
AcDbEntity
  8
2
  6
DASHED2
 62
     4
370
    13
100
AcDbLine
 10
-77.31373219870932
 20
652.3484669845559
 30
0.0
 11
-76.32378270504796
 21
653.3384164782168
 31
0.0
  0
LINE
  5
1AB
330
DE
100
AcDbEntity
  8
2
  6
DASHED2
 62
     4
370
    13
100
AcDbLine
 10
-74.414594395844
 20
655.2476047874203
 30
0.0
 11
-73.42464490218276
 21
656.2375542810811
 31
0.0
  0
LINE
  5
1AC
330
DE
100
AcDbEntity
  8
2
  6
DASHED2
 62
     4
370
    13
100
AcDbLine
 10
-71.5154565929787
 20
658.1467425902845
 30
0.0
 11
-70.52550709931722
 21
659.1366920839454
 31
0.0
  0
LINE
  5
1AD
330
DE
100
AcDbEntity
  8
2
  6
DASHED2
 62
     4
370
    13
100
AcDbLine
 10
-65.71718098724784
 20
663.9450181960132
 30
0.0
 11
-64.72723149358637
 21
664.9349676896742
 31
0.0
  0
LINE
  5
1AE
330
DE
100
AcDbEntity
  8
2
  6
DASHED2
 62
     4
370
    13
100
AcDbLine
 10
-62.81804318438253
 20
666.8441559988772
 30
0.0
 11
-61.82809369072106
 21
667.8341054925382
 31
0.0
  0
LINE
  5
1AF
330
DE
100
AcDbEntity
  8
2
  6
DASHED2
 62
     4
370
    13
100
AcDbLine
 10
-59.91890538151711
 20
669.7432938017417
 30
0.0
 11
-58.92895588785552
 21
670.7332432954028
 31
0.0
  0
LINE
  5
1B0
330
DE
100
AcDbEntity
  8
2
  6
DASHED2
 62
     4
370
    13
100
AcDbLine
 10
-57.01976757865157
 20
672.6424316046058
 30
0.0
 11
-56.02981808499055
 21
673.632381098267
 31
0.0
  0
LINE
  5
1B1
330
DE
100
AcDbEntity
  8
2
  6
DASHED2
 62
     4
370
    13
100
AcDbLine
 10
-51.22149197292072
 20
678.4407072103344
 30
0.0
 11
-50.23154247925959
 21
679.4306567039954
 31
0.0
  0
LINE
  5
1B2
330
DE
100
AcDbEntity
  8
2
  6
DASHED2
 62
     4
370
    13
100
AcDbLine
 10
-48.32235417005552
 20
681.3398450131989
 30
0.0
 11
-47.33240467639405
 21
682.3297945068597
 31
0.0
  0
LINE
  5
1B3
330
DE
100
AcDbEntity
  8
2
  6
DASHED2
 62
     4
370
    13
100
AcDbLine
 10
-45.42321636719032
 20
684.238982816063
 30
0.0
 11
-44.43326687352874
 21
685.228932309724
 31
0.0
  0
LINE
  5
1B4
330
DE
100
AcDbEntity
  8
2
  6
DASHED2
 62
     4
370
    13
100
AcDbLine
 10
-42.52407856432467
 20
687.1381206189275
 30
0.0
 11
-41.5341290706632
 21
688.1280701125883
 31
0.0
  0
LINE
  5
1B5
330
DE
100
AcDbEntity
  8
2
  6
DASHED2
 62
     4
370
    13
100
AcDbLine
 10
-39.62494076145947
 20
690.0372584217918
 30
0.0
 11
-38.63499126779789
 21
691.0272079154525
 31
0.0
  0
LINE
  5
1B6
330
DE
100
AcDbEntity
  8
2
  6
DASHED2
 62
     4
370
    13
100
AcDbLine
 10
-36.72580295859382
 20
692.936396224656
 30
0.0
 11
-35.73585346493246
 21
693.9263457183171
 31
0.0
  0
LINE
  5
1B7
330
DE
100
AcDbEntity
  8
2
  6
DASHED2
 62
     4
370
    13
100
AcDbLine
 10
-33.82666515572862
 20
695.8355340275203
 30
0.0
 11
-32.83671566206715
 21
696.8254835211811
 31
0.0
  0
LINE
  5
1B8
330
DE
100
AcDbEntity
  8
2
  6
DASHED2
 62
     4
370
    13
100
AcDbLine
 10
-30.92752735286308
 20
698.7346718303844
 30
0.0
 11
-29.93757785920172
 21
699.7246213240454
 31
0.0
  0
LINE
  5
1B9
330
DE
100
AcDbEntity
  8
2
  6
DASHED2
 62
     4
370
    13
100
AcDbLine
 10
-28.02838954999777
 20
701.6338096332489
 30
0.0
 11
-27.0384400563363
 21
702.6237591269099
 31
0.0
  0
LINE
  5
1BA
330
DE
100
AcDbEntity
  8
2
  6
DASHED2
 62
     4
370
    13
100
AcDbLine
 10
-25.12925174713212
 20
704.532947436113
 30
0.0
 11
-24.13930225347087
 21
705.522896929774
 31
0.0
  0
LINE
  5
1BB
330
DE
100
AcDbEntity
  8
2
  6
DASHED2
 62
     4
370
    13
100
AcDbLine
 10
-22.23011394426692
 20
707.4320852389775
 30
0.0
 11
-21.24016445060568
 21
708.4220347326385
 31
0.0
  0
LINE
  5
1BC
330
DE
100
AcDbEntity
  8
2
  6
DASHED2
 62
     4
370
    13
100
AcDbLine
 10
-19.33097614140127
 20
710.3312230418418
 30
0.0
 11
-18.34102664774002
 21
711.3211725355026
 31
0.0
  0
LINE
  5
1BD
330
DE
100
AcDbEntity
  8
2
  6
DASHED2
 62
     4
370
    13
100
AcDbLine
 10
-16.43183833853607
 20
713.2303608447058
 30
0.0
 11
-15.44188884487482
 21
714.2203103383671
 31
0.0
  0
LINE
  5
1BE
330
DE
100
AcDbEntity
  8
2
  6
DASHED2
 62
     4
370
    13
100
AcDbLine
 10
-13.53270053567053
 20
716.1294986475701
 30
0.0
 11
-12.18919765141607
 21
717.4730015318245
 31
0.0
  0
LINE
  5
1BF
330
DE
100
AcDbEntity
  8
2
  6
DASHED2
 62
     4
370
    13
100
AcDbLine
 10
-24.13930225347087
 20
705.522896929774
 30
0.0
 11
-29.58402446860612
 21
710.9676191449115
 31
0.0
  0
LINE
  5
1C0
330
DE
100
AcDbEntity
  8
2
  6
DASHED2
 62
     4
370
    13
100
AcDbLine
 10
-25.12925174713212
 20
704.532947436113
 30
0.0
 11
-30.57397396226759
 21
709.9776696512507
 31
0.0
  0
LINE
  5
1C1
330
DE
100
AcDbEntity
  8
2
  6
DASHED2
 62
     4
370
    13
100
AcDbLine
 10
-27.0384400563363
 20
702.6237591269099
 30
0.0
 11
-32.48316227147177
 21
708.0684813420472
 31
0.0
  0
LINE
  5
1C2
330
DE
100
AcDbEntity
  8
2
  6
DASHED2
 62
     4
370
    13
100
AcDbLine
 10
-28.02838954999777
 20
701.6338096332489
 30
0.0
 11
-33.47311176513301
 21
707.0785318483862
 31
0.0
  0
LINE
  5
1C3
330
DE
100
AcDbEntity
  8
2
  6
DASHED2
 62
     4
370
    13
100
AcDbLine
 10
-29.93757785920172
 20
699.7246213240454
 30
0.0
 11
-35.38230007433708
 21
705.1693435391827
 31
0.0
  0
LINE
  5
1C4
330
DE
100
AcDbEntity
  8
2
  6
DASHED2
 62
     4
370
    13
100
AcDbLine
 10
-75.9702293144527
 20
664.5814142990829
 30
0.0
 11
-71.16190320238309
 21
669.3897404111507
 31
0.0
  0
LINE
  5
1C5
330
DE
100
AcDbEntity
  8
2
  6
DASHED2
 62
     4
370
    13
100
AcDbLine
 10
-61.47454030012557
 20
679.0771033134041
 30
0.0
 11
-56.6662141880563
 21
683.8854294254719
 31
0.0
  0
LINE
  5
1C6
330
DE
100
AcDbEntity
  8
2
  6
DASHED2
 62
     4
370
    13
100
AcDbLine
 10
-18.97742275080589
 20
721.5742208627079
 30
0.0
 11
-20.88661106001007
 21
719.6650325535041
 31
0.0
  0
LINE
  5
1C7
330
DE
100
AcDbEntity
  8
2
  6
DASHED2
 62
     4
370
    13
100
AcDbLine
 10
-21.87656055367142
 20
718.6750830598431
 30
0.0
 11
-23.78574886287549
 21
716.7658947506401
 31
0.0
  0
LINE
  5
1C8
330
DE
100
AcDbEntity
  8
2
  6
DASHED2
 62
     4
370
    13
100
AcDbLine
 10
-24.77569835653674
 20
715.7759452569793
 30
0.0
 11
-26.68488666574058
 21
713.8667569477756
 31
0.0
  0
LINE
  5
1C9
330
DE
100
AcDbEntity
  8
2
  6
DASHED2
 62
     4
370
    13
100
AcDbLine
 10
-27.67483615940239
 20
712.8768074541148
 30
0.0
 11
-29.58402446860612
 21
710.9676191449115
 31
0.0
  0
LINE
  5
1CA
330
DE
100
AcDbEntity
  8
2
  6
DASHED2
 62
     4
370
    13
100
AcDbLine
 10
-30.57397396226759
 20
709.9776696512507
 30
0.0
 11
-32.48316227147177
 21
708.0684813420472
 31
0.0
  0
LINE
  5
1CB
330
DE
100
AcDbEntity
  8
2
  6
DASHED2
 62
     4
370
    13
100
AcDbLine
 10
-33.47311176513301
 20
707.0785318483862
 30
0.0
 11
-35.38230007433708
 21
705.1693435391827
 31
0.0
  0
LINE
  5
1CC
330
DE
100
AcDbEntity
  8
2
  6
DASHED2
 62
     4
370
    13
100
AcDbLine
 10
-36.37224956799855
 20
704.1793940455219
 30
0.0
 11
-38.28143787720251
 21
702.2702057363184
 31
0.0
  0
LINE
  5
1CD
330
DE
100
AcDbEntity
  8
2
  6
DASHED2
 62
     4
370
    13
100
AcDbLine
 10
-39.27138737086375
 20
701.2802562426576
 30
0.0
 11
-41.18057568006793
 21
699.3710679334541
 31
0.0
  0
LINE
  5
1CE
330
DE
100
AcDbEntity
  8
2
  6
DASHED2
 62
     4
370
    13
100
AcDbLine
 10
-42.17052517372917
 20
698.3811184397936
 30
0.0
 11
-44.07971348293324
 21
696.4719301305898
 31
0.0
  0
LINE
  5
1CF
330
DE
100
AcDbEntity
  8
2
  6
DASHED2
 62
     4
370
    13
100
AcDbLine
 10
-45.0696629765946
 20
695.481980636929
 30
0.0
 11
-46.97885128579867
 21
693.5727923277258
 31
0.0
  0
LINE
  5
1D0
330
DE
100
AcDbEntity
  8
2
  6
DASHED2
 62
     4
370
    13
100
AcDbLine
 10
-47.96880077945991
 20
692.582842834065
 30
0.0
 11
-49.87798908866421
 21
690.6736545248617
 31
0.0
  0
LINE
  5
1D1
330
DE
100
AcDbEntity
  8
2
  6
DASHED2
 62
     4
370
    13
100
AcDbLine
 10
-50.86793858232545
 20
689.6837050312005
 30
0.0
 11
-52.77712689152975
 21
687.7745167219972
 31
0.0
  0
LINE
  5
1D2
330
DE
100
AcDbEntity
  8
2
  6
DASHED2
 62
     4
370
    13
100
AcDbLine
 10
-53.76707638519076
 20
686.7845672283364
 30
0.0
 11
-55.67626469439472
 21
684.8753789191331
 31
0.0
  0
LINE
  5
1D3
330
DE
100
AcDbEntity
  8
2
  6
DASHED2
 62
     4
370
    13
100
AcDbLine
 10
-62.46448979378704
 20
678.0871538197433
 30
0.0
 11
-64.37367810299122
 21
676.1779655105403
 31
0.0
  0
LINE
  5
1D4
330
DE
100
AcDbEntity
  8
2
  6
DASHED2
 62
     4
370
    13
100
AcDbLine
 10
-65.36362759665246
 20
675.1880160168793
 30
0.0
 11
-67.27281590585642
 21
673.2788277076755
 31
0.0
  0
LINE
  5
1D5
330
DE
100
AcDbEntity
  8
2
  6
DASHED2
 62
     4
370
    13
100
AcDbLine
 10
-68.26276539951778
 20
672.2888782140147
 30
0.0
 11
-70.17195370872207
 21
670.3796899048117
 31
0.0
  0
LINE
  5
1D6
330
DE
100
AcDbEntity
  8
2
  6
DASHED2
 62
     4
370
    13
100
AcDbLine
 10
-76.96017880811394
 20
663.5914648054219
 30
0.0
 11
-78.869367117318
 21
661.6822764962188
 31
0.0
  0
LINE
  5
1D7
330
DE
100
AcDbEntity
  8
2
  6
DASHED2
 62
     4
370
    13
100
AcDbLine
 10
-79.85931661097948
 20
660.6923270025576
 30
0.0
 11
-81.76850492018343
 21
658.7831386933541
 31
0.0
  0
LINE
  5
1D8
330
DE
100
AcDbEntity
  8
2
  6
DASHED2
 62
     4
370
    13
100
AcDbLine
 10
-82.75845441384467
 20
657.7931891996933
 30
0.0
 11
-84.66764272304886
 21
655.8840008904903
 31
0.0
  0
LINE
  5
1D9
330
DE
100
AcDbEntity
  8
2
  6
DASHED2
 62
     4
370
    13
100
AcDbLine
 10
-85.65759221671021
 20
654.8940513968291
 30
0.0
 11
-87.56678052591417
 21
652.9848630876255
 31
0.0
  0
LINE
  5
1DA
330
DE
100
AcDbEntity
  8
2
  6
DASHED2
 62
     4
370
    13
100
AcDbLine
 10
-30.92752735286308
 20
698.7346718303844
 30
0.0
 11
-36.37224956799855
 21
704.1793940455219
 31
0.0
  0
LINE
  5
1DB
330
DE
100
AcDbEntity
  8
2
  6
DASHED2
 62
     4
370
    13
100
AcDbLine
 10
-32.83671566206715
 20
696.8254835211811
 30
0.0
 11
-38.28143787720251
 21
702.2702057363184
 31
0.0
  0
LINE
  5
1DC
330
DE
100
AcDbEntity
  8
2
  6
DASHED2
 62
     4
370
    13
100
AcDbLine
 10
-33.82666515572862
 20
695.8355340275203
 30
0.0
 11
-39.27138737086375
 21
701.2802562426576
 31
0.0
  0
LINE
  5
1DD
330
DE
100
AcDbEntity
  8
2
  6
DASHED2
 62
     4
370
    13
100
AcDbLine
 10
-35.73585346493246
 20
693.9263457183171
 30
0.0
 11
-41.18057568006793
 21
699.3710679334541
 31
0.0
  0
LINE
  5
1DE
330
DE
100
AcDbEntity
  8
2
  6
DASHED2
 62
     4
370
    13
100
AcDbLine
 10
-36.72580295859382
 20
692.936396224656
 30
0.0
 11
-42.17052517372917
 21
698.3811184397936
 31
0.0
  0
LINE
  5
1DF
330
DE
100
AcDbEntity
  8
2
  6
DASHED2
 62
     4
370
    13
100
AcDbLine
 10
-38.63499126779789
 20
691.0272079154525
 30
0.0
 11
-44.07971348293324
 21
696.4719301305898
 31
0.0
  0
LINE
  5
1E0
330
DE
100
AcDbEntity
  8
2
  6
DASHED2
 62
     4
370
    13
100
AcDbLine
 10
-39.62494076145947
 20
690.0372584217918
 30
0.0
 11
-45.0696629765946
 21
695.481980636929
 31
0.0
  0
LINE
  5
1E1
330
DE
100
AcDbEntity
  8
2
  6
DASHED2
 62
     4
370
    13
100
AcDbLine
 10
-41.5341290706632
 20
688.1280701125883
 30
0.0
 11
-46.97885128579867
 21
693.5727923277258
 31
0.0
  0
LINE
  5
1E2
330
DE
100
AcDbEntity
  8
2
  6
DASHED2
 62
     4
370
    13
100
AcDbLine
 10
-42.52407856432467
 20
687.1381206189275
 30
0.0
 11
-47.96880077945991
 21
692.582842834065
 31
0.0
  0
LINE
  5
1E3
330
DE
100
AcDbEntity
  8
2
  6
DASHED2
 62
     4
370
    13
100
AcDbLine
 10
-44.43326687352874
 20
685.228932309724
 30
0.0
 11
-49.87798908866421
 21
690.6736545248617
 31
0.0
  0
LINE
  5
1E4
330
DE
100
AcDbEntity
  8
2
  6
DASHED2
 62
     4
370
    13
100
AcDbLine
 10
-45.42321636719032
 20
684.238982816063
 30
0.0
 11
-50.86793858232545
 21
689.6837050312005
 31
0.0
  0
LINE
  5
1E5
330
DE
100
AcDbEntity
  8
2
  6
DASHED2
 62
     4
370
    13
100
AcDbLine
 10
-47.33240467639405
 20
682.3297945068597
 30
0.0
 11
-52.77712689152975
 21
687.7745167219972
 31
0.0
  0
LINE
  5
1E6
330
DE
100
AcDbEntity
  8
2
  6
DASHED2
 62
     4
370
    13
100
AcDbLine
 10
-48.32235417005552
 20
681.3398450131989
 30
0.0
 11
-53.76707638519076
 21
686.7845672283364
 31
0.0
  0
LINE
  5
1E7
330
DE
100
AcDbEntity
  8
2
  6
DASHED2
 62
     4
370
    13
100
AcDbLine
 10
-50.23154247925959
 20
679.4306567039954
 30
0.0
 11
-55.67626469439472
 21
684.8753789191331
 31
0.0
  0
LINE
  5
1E8
330
DE
100
AcDbEntity
  8
2
  6
DASHED2
 62
     4
370
    13
100
AcDbLine
 10
-51.22149197292072
 20
678.4407072103344
 30
0.0
 11
-56.6662141880563
 21
683.8854294254719
 31
0.0
  0
LINE
  5
1E9
330
DE
100
AcDbEntity
  8
2
  6
DASHED2
 62
     4
370
    13
100
AcDbLine
 10
-56.02981808499055
 20
673.632381098267
 30
0.0
 11
-61.47454030012557
 21
679.0771033134041
 31
0.0
  0
LINE
  5
1EA
330
DE
100
AcDbEntity
  8
2
  6
DASHED2
 62
     4
370
    13
100
AcDbLine
 10
-57.01976757865157
 20
672.6424316046058
 30
0.0
 11
-62.46448979378704
 21
678.0871538197433
 31
0.0
  0
LINE
  5
1EB
330
DE
100
AcDbEntity
  8
2
  6
DASHED2
 62
     4
370
    13
100
AcDbLine
 10
-58.92895588785552
 20
670.7332432954028
 30
0.0
 11
-64.37367810299122
 21
676.1779655105403
 31
0.0
  0
LINE
  5
1EC
330
DE
100
AcDbEntity
  8
2
  6
DASHED2
 62
     4
370
    13
100
AcDbLine
 10
-59.91890538151711
 20
669.7432938017417
 30
0.0
 11
-65.36362759665246
 21
675.1880160168793
 31
0.0
  0
LINE
  5
1ED
330
DE
100
AcDbEntity
  8
2
  6
DASHED2
 62
     4
370
    13
100
AcDbLine
 10
-61.82809369072106
 20
667.8341054925382
 30
0.0
 11
-67.27281590585642
 21
673.2788277076755
 31
0.0
  0
LINE
  5
1EE
330
DE
100
AcDbEntity
  8
2
  6
DASHED2
 62
     4
370
    13
100
AcDbLine
 10
-62.81804318438253
 20
666.8441559988772
 30
0.0
 11
-68.26276539951778
 21
672.2888782140147
 31
0.0
  0
LINE
  5
1EF
330
DE
100
AcDbEntity
  8
2
  6
DASHED2
 62
     4
370
    13
100
AcDbLine
 10
-64.72723149358637
 20
664.9349676896742
 30
0.0
 11
-70.17195370872207
 21
670.3796899048117
 31
0.0
  0
LINE
  5
1F0
330
DE
100
AcDbEntity
  8
2
  6
DASHED2
 62
     4
370
    13
100
AcDbLine
 10
-65.71718098724784
 20
663.9450181960132
 30
0.0
 11
-71.16190320238309
 21
669.3897404111507
 31
0.0
  0
LINE
  5
1F1
330
DE
100
AcDbEntity
  8
2
  6
DASHED2
 62
     4
370
    13
100
AcDbLine
 10
-70.52550709931722
 20
659.1366920839454
 30
0.0
 11
-75.9702293144527
 21
664.5814142990829
 31
0.0
  0
LINE
  5
1F2
330
DE
100
AcDbEntity
  8
2
  6
DASHED2
 62
     4
370
    13
100
AcDbLine
 10
-71.5154565929787
 20
658.1467425902845
 30
0.0
 11
-76.96017880811394
 21
663.5914648054219
 31
0.0
  0
LINE
  5
1F3
330
DE
100
AcDbEntity
  8
2
  6
DASHED2
 62
     4
370
    13
100
AcDbLine
 10
-73.42464490218276
 20
656.2375542810811
 30
0.0
 11
-78.869367117318
 21
661.6822764962188
 31
0.0
  0
LINE
  5
1F4
330
DE
100
AcDbEntity
  8
2
  6
DASHED2
 62
     4
370
    13
100
AcDbLine
 10
-74.414594395844
 20
655.2476047874203
 30
0.0
 11
-79.85931661097948
 21
660.6923270025576
 31
0.0
  0
LINE
  5
1F5
330
DE
100
AcDbEntity
  8
2
  6
DASHED2
 62
     4
370
    13
100
AcDbLine
 10
-76.32378270504796
 20
653.3384164782168
 30
0.0
 11
-81.76850492018343
 21
658.7831386933541
 31
0.0
  0
LINE
  5
1F6
330
DE
100
AcDbEntity
  8
2
  6
DASHED2
 62
     4
370
    13
100
AcDbLine
 10
-77.31373219870932
 20
652.3484669845559
 30
0.0
 11
-82.75845441384467
 21
657.7931891996933
 31
0.0
  0
LINE
  5
1F7
330
DE
100
AcDbEntity
  8
2
  6
DASHED2
 62
     4
370
    13
100
AcDbLine
 10
-79.2229205079135
 20
650.4392786753526
 30
0.0
 11
-84.66764272304886
 21
655.8840008904903
 31
0.0
  0
LINE
  5
1F8
330
DE
100
AcDbEntity
  8
2
  6
DASHED2
 62
     4
370
    13
100
AcDbLine
 10
-80.21287000157497
 20
649.4493291816916
 30
0.0
 11
-85.65759221671021
 21
654.8940513968291
 31
0.0
  0
LINE
  5
1F9
330
DE
100
AcDbEntity
  8
2
  6
DASHED2
 62
     4
370
    13
100
AcDbLine
 10
-82.12205831077904
 20
647.5401408724885
 30
0.0
 11
-87.56678052591417
 21
652.9848630876255
 31
0.0
  0
LINE
  5
1FA
330
DE
100
AcDbEntity
  8
2
  6
DASHED2
 62
     4
370
    13
100
AcDbLine
 10
-124.0534904351213
 20
669.5311617673823
 30
0.0
 11
-113.4468887173251
 21
658.9245600495819
 31
0.0
  0
LINE
  5
1FB
330
DE
100
AcDbEntity
  8
2
  6
DASHED2
 62
     4
370
    13
100
AcDbLine
 10
-124.0534904351213
 20
669.5311617673823
 30
0.0
 11
-123.2049622977019
 21
670.3796899048015
 31
0.0
  0
LINE
  5
1FC
330
DE
100
AcDbEntity
  8
2
  6
DASHED2
 62
     4
370
    13
100
AcDbLine
 10
-113.4468887173251
 20
658.9245600495819
 30
0.0
 11
-112.5983605799037
 21
659.7730881870034
 31
0.0
  0
LINE
  5
1FD
330
DE
100
AcDbEntity
  8
2
  6
CENTERX2
 62
     3
370
    13
100
AcDbLine
 10
-109.8052887944963
 20
656.5557523329045
 30
0.0
 11
-13.56805587456267
 21
752.7929852519327
 31
0.0
  0
ENDBLK
  5
E0
330
DE
100
AcDbEntity
  8
0
100
AcDbBlockEnd
  0
BLOCK
  5
E2
330
E1
100
AcDbEntity
  8
0
100
AcDbBlockBegin
  2
DC_GROUP_W_GT10H_S_020_4_8
 70
     0
 10
0.0
 20
0.0
 30
0.0
  3
DC_GROUP_W_GT10H_S_020_4_8
  1
DC_GROUP_W_GT10H_S_020_4_8
  0
SPLINE
  5
1FE
330
E1
100
AcDbEntity
  8
3
  6
DASHED2
 62
     4
370
    13
100
AcDbSpline
210
0.0
220
0.0
230
1.0
 70
     8
 71
     3
 72
    11
 73
     7
 74
     0
 42
0.000000001
 43
0.0000000001
 40
0.0
 40
0.0
 40
0.0
 40
0.0
 40
0.1244967847
 40
0.249613514
 40
0.4997230955
 40
1.0
 40
1.0
 40
1.0
 40
1.0
 10
186.6342277484487
 20
544.7570995029059
 30
0.0
 10
186.704901750353
 20
544.8094750252249
 30
0.0
 10
186.8789513508864
 20
544.8685104832498
 30
0.0
 10
187.2327752342892
 20
544.8812962958605
 30
0.0
 10
187.8454199405428
 20
544.7555592276899
 30
0.0
 10
188.3307796247962
 20
544.5306539354747
 30
0.0
 10
188.6403077761634
 20
544.359944681637
 30
0.0
  0
SPLINE
  5
1FF
330
E1
100
AcDbEntity
  8
3
  6
DASHED2
 62
     4
370
    13
100
AcDbSpline
210
0.0
220
0.0
230
1.0
 70
     8
 71
     3
 72
    11
 73
     7
 74
     0
 42
0.000000001
 43
0.0000000001
 40
0.0
 40
0.0
 40
0.0
 40
0.0
 40
0.2386510257
 40
0.4853882043000001
 40
0.7399932082
 40
1.0
 40
1.0
 40
1.0
 40
1.0
 10
198.3661899804884
 20
540.48508952779
 30
0.0
 10
198.2961171733562
 20
540.5103887643072
 30
0.0
 10
198.14718933473
 20
540.545725847991
 30
0.0
 10
197.914127080436
 20
540.5460137989135
 30
0.0
 10
197.6808527201997
 20
540.4902081034375
 30
0.0
 10
197.5363423849592
 20
540.4159221979735
 30
0.0
 10
197.469096591304
 20
540.3704686054539
 30
0.0
  0
SPLINE
  5
200
330
E1
100
AcDbEntity
  8
3
  6
DASHED2
 62
     4
370
    13
100
AcDbSpline
210
0.0
220
0.0
230
1.0
 70
     8
 71
     3
 72
    11
 73
     7
 74
     0
 42
0.000000001
 43
0.0000000001
 40
0.0
 40
0.0
 40
0.0
 40
0.0
 40
0.2599712863
 40
0.5145758675
 40
0.7613286667
 40
1.0
 40
1.0
 40
1.0
 40
1.0
 10
212.4155431537518
 20
525.4238021132787
 30
0.0
 10
212.4609488861732
 20
525.4909533489381
 30
0.0
 10
212.5351852705451
 20
525.6352593113684
 30
0.0
 10
212.5910668256388
 20
525.8682175293247
 30
0.0
 10
212.5909868398408
 20
526.1010163056617
 30
0.0
 10
212.5558601451735
 20
526.2498198668773
 30
0.0
 10
212.5306769479198
 20
526.3198494384601
 30
0.0
  0
LINE
  5
201
330
E1
100
AcDbEntity
  8
3
  6
DASHED2
 62
     4
370
    13
100
AcDbLine
 10
202.4620186706369
 20
537.2349467726021
 30
0.0
 11
202.6279671671575
 21
537.4008952691229
 31
0.0
  0
LINE
  5
202
330
E1
100
AcDbEntity
  8
3
  6
DASHED2
 62
     4
370
    13
100
AcDbLine
 10
199.5271482625102
 20
539.6537574544061
 30
0.0
 11
199.7057966070302
 21
539.8324057989262
 31
0.0
  0
ARC
  5
203
330
E1
100
AcDbEntity
  8
3
  6
DASHED2
 62
     4
370
    13
100
AcDbCircle
 10
211.590227923256
 20
525.9801508080823
 30
0.0
 40
0.9999999999999998
100
AcDbArc
 50
26.85751011429628
 51
37.00930876089511
  0
ARC
  5
204
330
E1
100
AcDbEntity
  8
3
  6
DASHED2
 62
     4
370
    13
100
AcDbCircle
 10
211.5996387975074
 20
525.9849238262318
 30
0.0
 40
0.9894479284999996
100
AcDbArc
 50
19.78535773129509
 51
26.85712879889594
  0
ARC
  5
205
330
E1
100
AcDbEntity
  8
3
  6
DASHED2
 62
     4
370
    13
100
AcDbCircle
 10
156.4911250013118
 20
484.4459617923659
 30
0.0
 40
69.99999999999999
100
AcDbArc
 50
37.00930876089558
 51
52.99222996370506
  0
ARC
  5
206
330
E1
100
AcDbEntity
  8
3
  6
DASHED2
 62
     4
370
    13
100
AcDbCircle
 10
177.1919721808408
 20
508.8472094726607
 30
0.0
 40
38.30084439899999
100
AcDbArc
 50
49.69461493379556
 51
53.99786809159561
  0
ARC
  5
207
330
E1
100
AcDbEntity
  8
3
  6
DASHED2
 62
     4
370
    13
100
AcDbCircle
 10
198.0849050250302
 20
533.4780793911659
 30
0.0
 40
6.002324386299997
100
AcDbArc
 50
40.80975383569553
 51
49.69793322809565
  0
ARC
  5
208
330
E1
100
AcDbEntity
  8
3
  6
DASHED2
 62
     4
370
    13
100
AcDbCircle
 10
198.03008378299
 20
539.5544711717539
 30
0.0
 40
0.9894533381999996
100
AcDbArc
 50
52.99222996370454
 51
70.1420858657959
  0
LINE
  5
209
330
E1
100
AcDbEntity
  8
3
  6
DASHED2
 62
     4
370
    13
100
AcDbLine
 10
196.2525672905856
 20
539.5182371220576
 30
0.0
 11
197.4690146972745
 21
540.3705854822902
 31
0.0
  0
LINE
  5
20A
330
E1
100
AcDbEntity
  8
3
  6
DASHED2
 62
     4
370
    13
100
AcDbLine
 10
212.4060065536521
 20
525.4099477856712
 30
0.0
 11
211.9448484323461
 21
524.7517959983593
 31
0.0
  0
LINE
  5
20B
330
E1
100
AcDbEntity
  8
3
  6
DASHED2
 62
     4
370
    13
100
AcDbLine
 10
184.7046855706604
 20
549.4290749834076
 30
0.0
 11
182.6872985772048
 21
551.4464619768632
 31
0.0
  0
LINE
  5
20C
330
E1
100
AcDbEntity
  8
3
  6
DASHED2
 62
     4
370
    13
100
AcDbLine
 10
181.2918372203017
 20
551.464729566701
 30
0.0
 11
177.2093536900827
 21
547.5905973523231
 31
0.0
  0
ARC
  5
20D
330
E1
100
AcDbEntity
  8
3
  6
DASHED2
 62
     4
370
    13
100
AcDbCircle
 10
182.3590373717875
 20
532.9412894419702
 30
0.0
 40
13.032269387
100
AcDbArc
 50
28.81467972189565
 51
61.18531540459557
  0
ARC
  5
20E
330
E1
100
AcDbEntity
  8
3
  6
DASHED2
 62
     4
370
    13
100
AcDbCircle
 10
181.9802142741649
 20
550.73933271753
 30
0.0
 40
0.9999999999999998
100
AcDbArc
 50
45.00182137279447
 51
133.5000476764954
  0
ARC
  5
20F
330
E1
100
AcDbEntity
  8
3
  6
DASHED2
 62
     4
370
    13
100
AcDbCircle
 10
32.8686565989826
 20
360.8234933900555
 30
0.0
 40
242.1285714285999
100
AcDbArc
 50
43.47591848915937
 51
51.16436164909551
  0
LINE
  5
210
330
E1
100
AcDbEntity
  8
3
  6
DASHED2
 62
     4
370
    13
100
AcDbLine
 10
129.0242983145109
 20
420.2347298420756
 30
0.0
 11
136.444647754657
 21
427.2763785334427
 31
0.0
  0
LINE
  5
211
330
E1
100
AcDbEntity
  8
3
  6
DASHED2
 62
     4
370
    13
100
AcDbLine
 10
116.4115794739663
 20
431.4702549155592
 30
0.0
 11
116.1994474396102
 21
431.2581228812032
 31
0.0
  0
LINE
  5
212
330
E1
100
AcDbEntity
  8
3
  6
DASHED2
 62
     4
370
    13
100
AcDbLine
 10
116.1467180501575
 20
431.7351163393682
 30
0.0
 11
115.9345860158015
 21
431.5229843050121
 31
0.0
  0
LINE
  5
213
330
E1
100
AcDbEntity
  8
3
  6
DASHED2
 62
     4
370
    13
100
AcDbLine
 10
114.4038204621416
 20
433.4780139273848
 30
0.0
 11
114.1916884277856
 21
433.2658818930287
 31
0.0
  0
LINE
  5
214
330
E1
100
AcDbEntity
  8
3
  6
DASHED2
 62
     4
370
    13
100
AcDbLine
 10
92.27989305100036
 20
456.9791351056003
 30
0.0
 11
99.32154174237039
 21
464.3994845457436
 31
0.0
  0
LINE
  5
215
330
E1
100
AcDbEntity
  8
3
  6
DASHED2
 62
     4
370
    13
100
AcDbLine
 10
136.444647754657
 20
427.2763785334427
 30
0.0
 11
99.32154174237039
 21
464.3994845457436
 31
0.0
  0
LINE
  5
216
330
E1
100
AcDbEntity
  8
3
  6
DASHED2
 62
     4
370
    13
100
AcDbLine
 10
127.6288369576078
 20
420.2529974319133
 30
0.0
 11
92.29816064083761
 21
455.5836737486972
 31
0.0
  0
ARC
  5
217
330
E1
100
AcDbEntity
  8
3
  6
DASHED2
 62
     4
370
    13
100
AcDbCircle
 10
128.3359437387945
 20
420.9601042130998
 30
0.0
 40
1.0
100
AcDbArc
 50
224.999999999989
 51
313.4999999999896
  0
ARC
  5
218
330
E1
100
AcDbEntity
  8
3
  6
DASHED2
 62
     4
370
    13
100
AcDbCircle
 10
93.00526742202427
 20
456.2907805298834
 30
0.0
 40
1.0
100
AcDbArc
 50
136.4999999999885
 51
224.999999999989
  0
LINE
  5
219
330
E1
100
AcDbEntity
  8
3
  6
DASHED2
 62
     4
370
    13
100
AcDbLine
 10
129.0242983145109
 20
420.2347298420756
 30
0.0
 11
136.444647754657
 21
427.2763785334427
 31
0.0
  0
LINE
  5
21A
330
E1
100
AcDbEntity
  8
3
  6
DASHED2
 62
     4
370
    13
100
AcDbLine
 10
117.9820898057811
 20
429.8997445837437
 30
0.0
 11
117.7699577714251
 21
429.6876125493879
 31
0.0
  0
LINE
  5
21B
330
E1
100
AcDbEntity
  8
3
  6
DASHED2
 62
     4
370
    13
100
AcDbLine
 10
114.5879771212411
 20
433.2938572682851
 30
0.0
 11
114.3758450868851
 21
433.0817252339293
 31
0.0
  0
LINE
  5
21C
330
E1
100
AcDbEntity
  8
3
  6
DASHED2
 62
     4
370
    13
100
AcDbLine
 10
108.6907066268162
 20
439.1911277627123
 30
0.0
 11
108.4785745924601
 21
438.9789957283564
 31
0.0
  0
LINE
  5
21D
330
E1
100
AcDbEntity
  8
3
  6
DASHED2
 62
     4
370
    13
100
AcDbLine
 10
92.27989305100036
 20
456.9791351056003
 30
0.0
 11
99.32154174237039
 21
464.3994845457436
 31
0.0
  0
LINE
  5
21E
330
E1
100
AcDbEntity
  8
3
  6
DASHED2
 62
     4
370
    13
100
AcDbLine
 10
136.444647754657
 20
427.2763785334427
 30
0.0
 11
99.32154174237039
 21
464.3994845457436
 31
0.0
  0
LINE
  5
21F
330
E1
100
AcDbEntity
  8
3
  6
DASHED2
 62
     4
370
    13
100
AcDbLine
 10
127.6288369576078
 20
420.2529974319133
 30
0.0
 11
92.29816064083761
 21
455.5836737486972
 31
0.0
  0
ARC
  5
220
330
E1
100
AcDbEntity
  8
3
  6
DASHED2
 62
     4
370
    13
100
AcDbCircle
 10
128.3359437387945
 20
420.9601042130998
 30
0.0
 40
1.0
100
AcDbArc
 50
224.999999999989
 51
313.4999999999896
  0
ARC
  5
221
330
E1
100
AcDbEntity
  8
3
  6
DASHED2
 62
     4
370
    13
100
AcDbCircle
 10
93.00526742202427
 20
456.2907805298834
 30
0.0
 40
1.0
100
AcDbArc
 50
136.4999999999885
 51
224.999999999989
  0
LINE
  5
222
330
E1
100
AcDbEntity
  8
3
  6
DASHED2
 62
     4
370
    13
100
AcDbLine
 10
108.4785745924601
 20
438.9789957283564
 30
0.0
 11
114.1916884277856
 21
433.2658818930287
 31
0.0
  0
LINE
  5
223
330
E1
100
AcDbEntity
  8
3
  6
DASHED2
 62
     4
370
    13
100
AcDbLine
 10
114.3758450868851
 20
433.0817252339293
 30
0.0
 11
115.9345860158015
 21
431.5229843050121
 31
0.0
  0
LINE
  5
224
330
E1
100
AcDbEntity
  8
3
  6
DASHED2
 62
     4
370
    13
100
AcDbLine
 10
117.7699577714251
 20
429.6876125493879
 30
0.0
 11
116.1994474396102
 21
431.2581228812032
 31
0.0
  0
LINE
  5
225
330
E1
100
AcDbEntity
  8
3
  6
DASHED2
 62
     4
370
    13
100
AcDbLine
 10
207.5795899420371
 20
498.4113207207956
 30
0.0
 11
200.2963900958171
 21
505.6945205670185
 31
0.0
  0
LINE
  5
226
330
E1
100
AcDbEntity
  8
3
  6
DASHED2
 62
     4
370
    13
100
AcDbLine
 10
207.5795899420371
 20
498.4113207207956
 30
0.0
 11
215.5698965694472
 21
506.4016273482027
 31
0.0
  0
LINE
  5
227
330
E1
100
AcDbEntity
  8
3
  6
DASHED2
 62
     4
370
    13
100
AcDbLine
 10
129.1614479084369
 20
434.5595783796657
 30
0.0
 11
200.2963900958171
 21
505.6945205670185
 31
0.0
  0
LINE
  5
228
330
E1
100
AcDbEntity
  8
3
  6
DASHED2
 62
     4
370
    13
100
AcDbLine
 10
206.0239550234265
 20
497.2799498708975
 30
0.0
 11
200.5792328082913
 21
502.724672086035
 31
0.0
  0
LINE
  5
229
330
E1
100
AcDbEntity
  8
3
  6
DASHED2
 62
     4
370
    13
100
AcDbLine
 10
204.1147667142226
 20
495.3707615616942
 30
0.0
 11
198.6700444990871
 21
500.8154837768315
 31
0.0
  0
LINE
  5
22A
330
E1
100
AcDbEntity
  8
3
  6
DASHED2
 62
     4
370
    13
100
AcDbLine
 10
203.1248172205611
 20
494.3808120680332
 30
0.0
 11
197.6800950054258
 21
499.8255342831705
 31
0.0
  0
LINE
  5
22B
330
E1
100
AcDbEntity
  8
3
  6
DASHED2
 62
     4
370
    13
100
AcDbLine
 10
201.2156289113571
 20
492.4716237588299
 30
0.0
 11
195.7709066962217
 21
497.9163459739672
 31
0.0
  0
LINE
  5
22C
330
E1
100
AcDbEntity
  8
3
  6
DASHED2
 62
     4
370
    13
100
AcDbLine
 10
200.2256794176959
 20
491.4816742651689
 30
0.0
 11
194.7809572025604
 21
496.9263964803064
 31
0.0
  0
LINE
  5
22D
330
E1
100
AcDbEntity
  8
3
  6
DASHED2
 62
     4
370
    13
100
AcDbLine
 10
198.3164911084917
 20
489.5724859559656
 30
0.0
 11
192.8717688933565
 21
495.0172081711029
 31
0.0
  0
LINE
  5
22E
330
E1
100
AcDbEntity
  8
3
  6
DASHED2
 62
     4
370
    13
100
AcDbLine
 10
197.3265416148305
 20
488.5825364623046
 30
0.0
 11
191.881819399695
 21
494.0272586774421
 31
0.0
  0
LINE
  5
22F
330
E1
100
AcDbEntity
  8
3
  6
DASHED2
 62
     4
370
    13
100
AcDbLine
 10
136.2325157203011
 20
427.4885105677988
 30
0.0
 11
137.4345972483182
 21
428.6905920958156
 31
0.0
  0
LINE
  5
230
330
E1
100
AcDbEntity
  8
3
  6
DASHED2
 62
     4
370
    13
100
AcDbLine
 10
139.3437855575224
 20
430.5997804050189
 30
0.0
 11
140.3337350511837
 21
431.5897298986799
 31
0.0
  0
LINE
  5
231
330
E1
100
AcDbEntity
  8
3
  6
DASHED2
 62
     4
370
    13
100
AcDbLine
 10
142.2429233603878
 20
433.4989182078832
 30
0.0
 11
143.2328728540491
 21
434.4888677015442
 31
0.0
  0
LINE
  5
232
330
E1
100
AcDbEntity
  8
3
  6
DASHED2
 62
     4
370
    13
100
AcDbLine
 10
145.1420611632533
 20
436.3980560107474
 30
0.0
 11
146.1320106569145
 21
437.3880055044085
 31
0.0
  0
LINE
  5
233
330
E1
100
AcDbEntity
  8
3
  6
DASHED2
 62
     4
370
    13
100
AcDbLine
 10
148.0411989661185
 20
439.2971938136117
 30
0.0
 11
149.0311484597799
 21
440.2871433072727
 31
0.0
  0
LINE
  5
234
330
E1
100
AcDbEntity
  8
3
  6
DASHED2
 62
     4
370
    13
100
AcDbLine
 10
153.8394745718493
 20
445.0954694193403
 30
0.0
 11
154.8294240655108
 21
446.0854189130013
 31
0.0
  0
LINE
  5
235
330
E1
100
AcDbEntity
  8
3
  6
DASHED2
 62
     4
370
    13
100
AcDbLine
 10
156.7386123747147
 20
447.9946072222046
 30
0.0
 11
157.7285618683762
 21
448.9845567158656
 31
0.0
  0
LINE
  5
236
330
E1
100
AcDbEntity
  8
3
  6
DASHED2
 62
     4
370
    13
100
AcDbLine
 10
159.6377501775802
 20
450.8937450250689
 30
0.0
 11
160.6276996712416
 21
451.8836945187299
 31
0.0
  0
LINE
  5
237
330
E1
100
AcDbEntity
  8
3
  6
DASHED2
 62
     4
370
    13
100
AcDbLine
 10
162.5368879804456
 20
453.7928828279332
 30
0.0
 11
163.5268374741068
 21
454.7828323215942
 31
0.0
  0
LINE
  5
238
330
E1
100
AcDbEntity
  8
3
  6
DASHED2
 62
     4
370
    13
100
AcDbLine
 10
168.3351635861764
 20
459.5911584336617
 30
0.0
 11
169.3251130798377
 21
460.5811079273228
 31
0.0
  0
LINE
  5
239
330
E1
100
AcDbEntity
  8
3
  6
DASHED2
 62
     4
370
    13
100
AcDbLine
 10
171.2343013890419
 20
462.490296236526
 30
0.0
 11
172.2242508827031
 21
463.4802457301871
 31
0.0
  0
LINE
  5
23A
330
E1
100
AcDbEntity
  8
3
  6
DASHED2
 62
     4
370
    13
100
AcDbLine
 10
174.1334391919071
 20
465.3894340393903
 30
0.0
 11
175.1233886855685
 21
466.3793835330513
 31
0.0
  0
LINE
  5
23B
330
E1
100
AcDbEntity
  8
3
  6
DASHED2
 62
     4
370
    13
100
AcDbLine
 10
177.0325769947725
 20
468.2885718422546
 30
0.0
 11
178.022526488434
 21
469.2785213359156
 31
0.0
  0
LINE
  5
23C
330
E1
100
AcDbEntity
  8
3
  6
DASHED2
 62
     4
370
    13
100
AcDbLine
 10
179.9317147976379
 20
471.1877096451189
 30
0.0
 11
180.9216642912994
 21
472.1776591387799
 31
0.0
  0
LINE
  5
23D
330
E1
100
AcDbEntity
  8
3
  6
DASHED2
 62
     4
370
    13
100
AcDbLine
 10
182.8308526005033
 20
474.0868474479832
 30
0.0
 11
183.8208020941648
 21
475.0767969416442
 31
0.0
  0
LINE
  5
23E
330
E1
100
AcDbEntity
  8
3
  6
DASHED2
 62
     4
370
    13
100
AcDbLine
 10
185.7299904033688
 20
476.9859852508475
 30
0.0
 11
186.71993989703
 21
477.9759347445085
 31
0.0
  0
LINE
  5
23F
330
E1
100
AcDbEntity
  8
3
  6
DASHED2
 62
     4
370
    13
100
AcDbLine
 10
188.6291282062342
 20
479.8851230537118
 30
0.0
 11
189.6190776998954
 21
480.8750725473728
 31
0.0
  0
LINE
  5
240
330
E1
100
AcDbEntity
  8
3
  6
DASHED2
 62
     4
370
    13
100
AcDbLine
 10
191.5282660090996
 20
482.7842608565761
 30
0.0
 11
192.5182155027609
 21
483.7742103502371
 31
0.0
  0
LINE
  5
241
330
E1
100
AcDbEntity
  8
3
  6
DASHED2
 62
     4
370
    13
100
AcDbLine
 10
194.427403811965
 20
485.6833986594403
 30
0.0
 11
195.4173533056263
 21
486.6733481531014
 31
0.0
  0
LINE
  5
242
330
E1
100
AcDbEntity
  8
3
  6
DASHED2
 62
     4
370
    13
100
AcDbLine
 10
197.3265416148305
 20
488.5825364623046
 30
0.0
 11
198.3164911084917
 21
489.5724859559656
 31
0.0
  0
LINE
  5
243
330
E1
100
AcDbEntity
  8
3
  6
DASHED2
 62
     4
370
    13
100
AcDbLine
 10
200.2256794176959
 20
491.4816742651689
 30
0.0
 11
201.2156289113571
 21
492.4716237588299
 31
0.0
  0
LINE
  5
244
330
E1
100
AcDbEntity
  8
3
  6
DASHED2
 62
     4
370
    13
100
AcDbLine
 10
203.1248172205611
 20
494.3808120680332
 30
0.0
 11
204.1147667142226
 21
495.3707615616942
 31
0.0
  0
LINE
  5
245
330
E1
100
AcDbEntity
  8
3
  6
DASHED2
 62
     4
370
    13
100
AcDbLine
 10
206.0239550234265
 20
497.2799498708975
 30
0.0
 11
207.3674579076812
 21
498.6234527551516
 31
0.0
  0
LINE
  5
246
330
E1
100
AcDbEntity
  8
3
  6
DASHED2
 62
     4
370
    13
100
AcDbLine
 10
195.4173533056263
 20
486.6733481531014
 30
0.0
 11
189.972631090491
 21
492.1180703682386
 31
0.0
  0
LINE
  5
247
330
E1
100
AcDbEntity
  8
3
  6
DASHED2
 62
     4
370
    13
100
AcDbLine
 10
194.427403811965
 20
485.6833986594403
 30
0.0
 11
188.9826815968296
 21
491.1281208745779
 31
0.0
  0
LINE
  5
248
330
E1
100
AcDbEntity
  8
3
  6
DASHED2
 62
     4
370
    13
100
AcDbLine
 10
192.5182155027609
 20
483.7742103502371
 30
0.0
 11
187.0734932876256
 21
489.2189325653744
 31
0.0
  0
LINE
  5
249
330
E1
100
AcDbEntity
  8
3
  6
DASHED2
 62
     4
370
    13
100
AcDbLine
 10
191.5282660090996
 20
482.7842608565761
 30
0.0
 11
186.0835437939641
 21
488.2289830717136
 31
0.0
  0
LINE
  5
24A
330
E1
100
AcDbEntity
  8
3
  6
DASHED2
 62
     4
370
    13
100
AcDbLine
 10
189.6190776998954
 20
480.8750725473728
 30
0.0
 11
184.1743554847602
 21
486.3197947625101
 31
0.0
  0
LINE
  5
24B
330
E1
100
AcDbEntity
  8
3
  6
DASHED2
 62
     4
370
    13
100
AcDbLine
 10
143.5864262446445
 20
445.73186552241
 30
0.0
 11
148.3947523567141
 21
450.5401916344778
 31
0.0
  0
LINE
  5
24C
330
E1
100
AcDbEntity
  8
3
  6
DASHED2
 62
     4
370
    13
100
AcDbLine
 10
158.0821152589716
 20
460.2275545367315
 30
0.0
 11
162.890441371041
 21
465.0358806487993
 31
0.0
  0
LINE
  5
24D
330
E1
100
AcDbEntity
  8
3
  6
DASHED2
 62
     4
370
    13
100
AcDbLine
 10
200.5792328082913
 20
502.724672086035
 30
0.0
 11
198.6700444990871
 21
500.8154837768315
 31
0.0
  0
LINE
  5
24E
330
E1
100
AcDbEntity
  8
3
  6
DASHED2
 62
     4
370
    13
100
AcDbLine
 10
197.6800950054258
 20
499.8255342831705
 30
0.0
 11
195.7709066962217
 21
497.9163459739672
 31
0.0
  0
LINE
  5
24F
330
E1
100
AcDbEntity
  8
3
  6
DASHED2
 62
     4
370
    13
100
AcDbLine
 10
194.7809572025604
 20
496.9263964803064
 30
0.0
 11
192.8717688933565
 21
495.0172081711029
 31
0.0
  0
LINE
  5
250
330
E1
100
AcDbEntity
  8
3
  6
DASHED2
 62
     4
370
    13
100
AcDbLine
 10
191.881819399695
 20
494.0272586774421
 30
0.0
 11
189.972631090491
 21
492.1180703682386
 31
0.0
  0
LINE
  5
251
330
E1
100
AcDbEntity
  8
3
  6
DASHED2
 62
     4
370
    13
100
AcDbLine
 10
188.9826815968296
 20
491.1281208745779
 30
0.0
 11
187.0734932876256
 21
489.2189325653744
 31
0.0
  0
LINE
  5
252
330
E1
100
AcDbEntity
  8
3
  6
DASHED2
 62
     4
370
    13
100
AcDbLine
 10
186.0835437939641
 20
488.2289830717136
 30
0.0
 11
184.1743554847602
 21
486.3197947625101
 31
0.0
  0
LINE
  5
253
330
E1
100
AcDbEntity
  8
3
  6
DASHED2
 62
     4
370
    13
100
AcDbLine
 10
183.1844059910987
 20
485.3298452688491
 30
0.0
 11
181.2752176818948
 21
483.4206569596458
 31
0.0
  0
LINE
  5
254
330
E1
100
AcDbEntity
  8
3
  6
DASHED2
 62
     4
370
    13
100
AcDbLine
 10
180.2852681882335
 20
482.430707465985
 30
0.0
 11
178.3760798790293
 21
480.5215191567815
 31
0.0
  0
LINE
  5
255
330
E1
100
AcDbEntity
  8
3
  6
DASHED2
 62
     4
370
    13
100
AcDbLine
 10
177.3861303853681
 20
479.5315696631207
 30
0.0
 11
175.4769420761639
 21
477.6223813539172
 31
0.0
  0
LINE
  5
256
330
E1
100
AcDbEntity
  8
3
  6
DASHED2
 62
     4
370
    13
100
AcDbLine
 10
174.4869925825027
 20
476.6324318602564
 30
0.0
 11
172.5778042732985
 21
474.7232435510529
 31
0.0
  0
LINE
  5
257
330
E1
100
AcDbEntity
  8
3
  6
DASHED2
 62
     4
370
    13
100
AcDbLine
 10
171.5878547796372
 20
473.7332940573921
 30
0.0
 11
169.6786664704331
 21
471.8241057481889
 31
0.0
  0
LINE
  5
258
330
E1
100
AcDbEntity
  8
3
  6
DASHED2
 62
     4
370
    13
100
AcDbLine
 10
168.6887169767718
 20
470.8341562545278
 30
0.0
 11
166.7795286675676
 21
468.9249679453243
 31
0.0
  0
LINE
  5
259
330
E1
100
AcDbEntity
  8
3
  6
DASHED2
 62
     4
370
    13
100
AcDbLine
 10
165.7895791739064
 20
467.9350184516636
 30
0.0
 11
163.8803908647024
 21
466.0258301424603
 31
0.0
  0
LINE
  5
25A
330
E1
100
AcDbEntity
  8
3
  6
DASHED2
 62
     4
370
    13
100
AcDbLine
 10
157.0921657653101
 20
459.2376050430707
 30
0.0
 11
155.1829774561062
 21
457.3284167338674
 31
0.0
  0
LINE
  5
25B
330
E1
100
AcDbEntity
  8
3
  6
DASHED2
 62
     4
370
    13
100
AcDbLine
 10
154.1930279624447
 20
456.3384672402064
 30
0.0
 11
152.2838396532407
 21
454.4292789310029
 31
0.0
  0
LINE
  5
25C
330
E1
100
AcDbEntity
  8
3
  6
DASHED2
 62
     4
370
    13
100
AcDbLine
 10
151.2938901595795
 20
453.4393294373421
 30
0.0
 11
149.3847018503753
 21
451.5301411281388
 31
0.0
  0
LINE
  5
25D
330
E1
100
AcDbEntity
  8
3
  6
DASHED2
 62
     4
370
    13
100
AcDbLine
 10
142.5964767509832
 20
444.7419160287492
 30
0.0
 11
140.6872884417793
 21
442.832727719546
 31
0.0
  0
LINE
  5
25E
330
E1
100
AcDbEntity
  8
3
  6
DASHED2
 62
     4
370
    13
100
AcDbLine
 10
139.6973389481178
 20
441.842778225885
 30
0.0
 11
137.7881506389138
 21
439.9335899166815
 31
0.0
  0
LINE
  5
25F
330
E1
100
AcDbEntity
  8
3
  6
DASHED2
 62
     4
370
    13
100
AcDbLine
 10
136.7982011452524
 20
438.9436404230207
 30
0.0
 11
134.8890128360484
 21
437.0344521138174
 31
0.0
  0
LINE
  5
260
330
E1
100
AcDbEntity
  8
3
  6
DASHED2
 62
     4
370
    13
100
AcDbLine
 10
133.8990633423869
 20
436.0445026201564
 30
0.0
 11
131.989875033183
 21
434.1353143109529
 31
0.0
  0
LINE
  5
261
330
E1
100
AcDbEntity
  8
3
  6
DASHED2
 62
     4
370
    13
100
AcDbLine
 10
188.6291282062342
 20
479.8851230537118
 30
0.0
 11
183.1844059910987
 21
485.3298452688491
 31
0.0
  0
LINE
  5
262
330
E1
100
AcDbEntity
  8
3
  6
DASHED2
 62
     4
370
    13
100
AcDbLine
 10
186.71993989703
 20
477.9759347445085
 30
0.0
 11
181.2752176818948
 21
483.4206569596458
 31
0.0
  0
LINE
  5
263
330
E1
100
AcDbEntity
  8
3
  6
DASHED2
 62
     4
370
    13
100
AcDbLine
 10
185.7299904033688
 20
476.9859852508475
 30
0.0
 11
180.2852681882335
 21
482.430707465985
 31
0.0
  0
LINE
  5
264
330
E1
100
AcDbEntity
  8
3
  6
DASHED2
 62
     4
370
    13
100
AcDbLine
 10
183.8208020941648
 20
475.0767969416442
 30
0.0
 11
178.3760798790293
 21
480.5215191567815
 31
0.0
  0
LINE
  5
265
330
E1
100
AcDbEntity
  8
3
  6
DASHED2
 62
     4
370
    13
100
AcDbLine
 10
182.8308526005033
 20
474.0868474479832
 30
0.0
 11
177.3861303853681
 21
479.5315696631207
 31
0.0
  0
LINE
  5
266
330
E1
100
AcDbEntity
  8
3
  6
DASHED2
 62
     4
370
    13
100
AcDbLine
 10
180.9216642912994
 20
472.1776591387799
 30
0.0
 11
175.4769420761639
 21
477.6223813539172
 31
0.0
  0
LINE
  5
267
330
E1
100
AcDbEntity
  8
3
  6
DASHED2
 62
     4
370
    13
100
AcDbLine
 10
179.9317147976379
 20
471.1877096451189
 30
0.0
 11
174.4869925825027
 21
476.6324318602564
 31
0.0
  0
LINE
  5
268
330
E1
100
AcDbEntity
  8
3
  6
DASHED2
 62
     4
370
    13
100
AcDbLine
 10
178.022526488434
 20
469.2785213359156
 30
0.0
 11
172.5778042732985
 21
474.7232435510529
 31
0.0
  0
LINE
  5
269
330
E1
100
AcDbEntity
  8
3
  6
DASHED2
 62
     4
370
    13
100
AcDbLine
 10
177.0325769947725
 20
468.2885718422546
 30
0.0
 11
171.5878547796372
 21
473.7332940573921
 31
0.0
  0
LINE
  5
26A
330
E1
100
AcDbEntity
  8
3
  6
DASHED2
 62
     4
370
    13
100
AcDbLine
 10
175.1233886855685
 20
466.3793835330513
 30
0.0
 11
169.6786664704331
 21
471.8241057481889
 31
0.0
  0
LINE
  5
26B
330
E1
100
AcDbEntity
  8
3
  6
DASHED2
 62
     4
370
    13
100
AcDbLine
 10
174.1334391919071
 20
465.3894340393903
 30
0.0
 11
168.6887169767718
 21
470.8341562545278
 31
0.0
  0
LINE
  5
26C
330
E1
100
AcDbEntity
  8
3
  6
DASHED2
 62
     4
370
    13
100
AcDbLine
 10
172.2242508827031
 20
463.4802457301871
 30
0.0
 11
166.7795286675676
 21
468.9249679453243
 31
0.0
  0
LINE
  5
26D
330
E1
100
AcDbEntity
  8
3
  6
DASHED2
 62
     4
370
    13
100
AcDbLine
 10
171.2343013890419
 20
462.490296236526
 30
0.0
 11
165.7895791739064
 21
467.9350184516636
 31
0.0
  0
LINE
  5
26E
330
E1
100
AcDbEntity
  8
3
  6
DASHED2
 62
     4
370
    13
100
AcDbLine
 10
169.3251130798377
 20
460.5811079273228
 30
0.0
 11
163.8803908647024
 21
466.0258301424603
 31
0.0
  0
LINE
  5
26F
330
E1
100
AcDbEntity
  8
3
  6
DASHED2
 62
     4
370
    13
100
AcDbLine
 10
168.3351635861764
 20
459.5911584336617
 30
0.0
 11
162.890441371041
 21
465.0358806487993
 31
0.0
  0
LINE
  5
270
330
E1
100
AcDbEntity
  8
3
  6
DASHED2
 62
     4
370
    13
100
AcDbLine
 10
163.5268374741068
 20
454.7828323215942
 30
0.0
 11
158.0821152589716
 21
460.2275545367315
 31
0.0
  0
LINE
  5
271
330
E1
100
AcDbEntity
  8
3
  6
DASHED2
 62
     4
370
    13
100
AcDbLine
 10
162.5368879804456
 20
453.7928828279332
 30
0.0
 11
157.0921657653101
 21
459.2376050430707
 31
0.0
  0
LINE
  5
272
330
E1
100
AcDbEntity
  8
3
  6
DASHED2
 62
     4
370
    13
100
AcDbLine
 10
160.6276996712416
 20
451.8836945187299
 30
0.0
 11
155.1829774561062
 21
457.3284167338674
 31
0.0
  0
LINE
  5
273
330
E1
100
AcDbEntity
  8
3
  6
DASHED2
 62
     4
370
    13
100
AcDbLine
 10
159.6377501775802
 20
450.8937450250689
 30
0.0
 11
154.1930279624447
 21
456.3384672402064
 31
0.0
  0
LINE
  5
274
330
E1
100
AcDbEntity
  8
3
  6
DASHED2
 62
     4
370
    13
100
AcDbLine
 10
157.7285618683762
 20
448.9845567158656
 30
0.0
 11
152.2838396532407
 21
454.4292789310029
 31
0.0
  0
LINE
  5
275
330
E1
100
AcDbEntity
  8
3
  6
DASHED2
 62
     4
370
    13
100
AcDbLine
 10
156.7386123747147
 20
447.9946072222046
 30
0.0
 11
151.2938901595795
 21
453.4393294373421
 31
0.0
  0
LINE
  5
276
330
E1
100
AcDbEntity
  8
3
  6
DASHED2
 62
     4
370
    13
100
AcDbLine
 10
154.8294240655108
 20
446.0854189130013
 30
0.0
 11
149.3847018503753
 21
451.5301411281388
 31
0.0
  0
LINE
  5
277
330
E1
100
AcDbEntity
  8
3
  6
DASHED2
 62
     4
370
    13
100
AcDbLine
 10
153.8394745718493
 20
445.0954694193403
 30
0.0
 11
148.3947523567141
 21
450.5401916344778
 31
0.0
  0
LINE
  5
278
330
E1
100
AcDbEntity
  8
3
  6
DASHED2
 62
     4
370
    13
100
AcDbLine
 10
149.0311484597799
 20
440.2871433072727
 30
0.0
 11
143.5864262446445
 21
445.73186552241
 31
0.0
  0
LINE
  5
279
330
E1
100
AcDbEntity
  8
3
  6
DASHED2
 62
     4
370
    13
100
AcDbLine
 10
148.0411989661185
 20
439.2971938136117
 30
0.0
 11
142.5964767509832
 21
444.7419160287492
 31
0.0
  0
LINE
  5
27A
330
E1
100
AcDbEntity
  8
3
  6
DASHED2
 62
     4
370
    13
100
AcDbLine
 10
146.1320106569145
 20
437.3880055044085
 30
0.0
 11
140.6872884417793
 21
442.832727719546
 31
0.0
  0
LINE
  5
27B
330
E1
100
AcDbEntity
  8
3
  6
DASHED2
 62
     4
370
    13
100
AcDbLine
 10
145.1420611632533
 20
436.3980560107474
 30
0.0
 11
139.6973389481178
 21
441.842778225885
 31
0.0
  0
LINE
  5
27C
330
E1
100
AcDbEntity
  8
3
  6
DASHED2
 62
     4
370
    13
100
AcDbLine
 10
143.2328728540491
 20
434.4888677015442
 30
0.0
 11
137.7881506389138
 21
439.9335899166815
 31
0.0
  0
LINE
  5
27D
330
E1
100
AcDbEntity
  8
3
  6
DASHED2
 62
     4
370
    13
100
AcDbLine
 10
142.2429233603878
 20
433.4989182078832
 30
0.0
 11
136.7982011452524
 21
438.9436404230207
 31
0.0
  0
LINE
  5
27E
330
E1
100
AcDbEntity
  8
3
  6
DASHED2
 62
     4
370
    13
100
AcDbLine
 10
140.3337350511837
 20
431.5897298986799
 30
0.0
 11
134.8890128360484
 21
437.0344521138174
 31
0.0
  0
LINE
  5
27F
330
E1
100
AcDbEntity
  8
3
  6
DASHED2
 62
     4
370
    13
100
AcDbLine
 10
139.3437855575224
 20
430.5997804050189
 30
0.0
 11
133.8990633423869
 21
436.0445026201564
 31
0.0
  0
LINE
  5
280
330
E1
100
AcDbEntity
  8
3
  6
DASHED2
 62
     4
370
    13
100
AcDbLine
 10
137.4345972483182
 20
428.6905920958156
 30
0.0
 11
131.989875033183
 21
434.1353143109529
 31
0.0
  0
LINE
  5
281
330
E1
100
AcDbEntity
  8
3
  6
DASHED2
 62
     4
370
    13
100
AcDbLine
 10
107.4137613853428
 20
440.4680730041864
 30
0.0
 11
107.2701124548663
 21
440.3341182094225
 31
0.0
  0
LINE
  5
282
330
E1
100
AcDbEntity
  8
3
  6
DASHED2
 62
     4
370
    13
100
AcDbLine
 10
96.25724718474234
 20
451.3469842617523
 30
0.0
 11
96.39120160205275
 21
451.4906327874805
 31
0.0
  0
LINE
  5
283
330
E1
100
AcDbEntity
  8
3
  6
DASHED2
 62
     4
370
    13
100
AcDbLine
 10
96.28246360455918
 20
449.9023145101259
 30
0.0
 11
105.825443107988
 21
440.3593350066935
 31
0.0
  0
ARC
  5
284
330
E1
100
AcDbEntity
  8
3
  6
DASHED2
 62
     4
370
    13
100
AcDbCircle
 10
106.5608341604221
 20
441.0947260591274
 30
0.0
 40
1.04
100
AcDbArc
 50
224.999999999989
 51
312.9999999999914
  0
ARC
  5
285
330
E1
100
AcDbEntity
  8
3
  6
DASHED2
 62
     4
370
    13
100
AcDbCircle
 10
106.7412424170589
 20
440.9725848528091
 30
0.0
 40
0.8276334429
100
AcDbArc
 50
309.6817606825885
 51
312.9966043322873
  0
ARC
  5
286
330
E1
100
AcDbEntity
  8
3
  6
DASHED2
 62
     4
370
    13
100
AcDbCircle
 10
97.01785465699353
 20
450.6377055625598
 30
0.0
 40
1.04
100
AcDbArc
 50
136.9999694719908
 51
224.999999999989
  0
LINE
  5
287
330
E1
100
AcDbEntity
  8
3
  6
DASHED2
 62
     4
370
    13
100
AcDbLine
 10
178.4467905571606
 20
543.5247333605034
 30
0.0
 11
99.5336737767262
 21
464.6116165800995
 31
0.0
  0
LINE
  5
288
330
E1
100
AcDbEntity
  8
3
  6
CENTERX2
 62
     3
370
    13
100
AcDbLine
 10
109.751366764612
 20
437.7062035562214
 30
0.0
 11
205.988599684534
 21
533.9434364752606
 31
0.0
  0
ENDBLK
  5
E3
330
E1
100
AcDbEntity
  8
0
100
AcDbBlockEnd
  0
BLOCK
  5
E5
330
E4
100
AcDbEntity
  8
0
100
AcDbBlockBegin
  2
DC_GROUP_W_GT10H_S_020_4_9
 70
     0
 10
0.0
 20
0.0
 30
0.0
  3
DC_GROUP_W_GT10H_S_020_4_9
  1
DC_GROUP_W_GT10H_S_020_4_9
  0
LINE
  5
289
330
E4
100
AcDbEntity
  8
3
  6
DASHED2
 62
     4
370
    13
100
AcDbLine
 10
246.5058182464584
 20
496.6789091069115
 30
0.0
 11
235.8992165286626
 21
486.0723073891141
 31
0.0
  0
LINE
  5
28A
330
E4
100
AcDbEntity
  8
3
  6
DASHED2
 62
     4
370
    13
100
AcDbLine
 10
235.8992165286626
 20
486.0723073891141
 30
0.0
 11
175.7951401278015
 21
546.1763837899662
 31
0.0
  0
LINE
  5
28B
330
E4
100
AcDbEntity
  8
3
  6
DASHED2
 62
     4
370
    13
100
AcDbLine
 10
177.916460471361
 20
548.2977041335259
 30
0.0
 11
175.7951401278015
 21
546.1763837899662
 31
0.0
  0
LINE
  5
28C
330
E4
100
AcDbEntity
  8
3
  6
DASHED2
 62
     4
370
    13
100
AcDbLine
 10
246.5058182464584
 20
496.6789091069115
 30
0.0
 11
243.1418572157807
 21
500.0428701375908
 31
0.0
  0
LINE
  5
28D
330
E4
100
AcDbEntity
  8
3
  6
DASHED2
 62
     4
370
    13
100
AcDbLine
 10
242.8820959172949
 20
500.274122411763
 30
0.0
 11
181.7761124864288
 21
548.6214201904804
 31
0.0
  0
ARC
  5
28E
330
E4
100
AcDbEntity
  8
3
  6
DASHED2
 62
     4
370
    13
100
AcDbCircle
 10
241.0205368722197
 20
497.9215497940306
 30
0.0
 40
3.000000000001046
100
AcDbArc
 50
44.99999999999082
 51
51.64590567751867
  0
ARC
  5
28F
330
E4
100
AcDbEntity
  8
3
  6
DASHED2
 62
     4
370
    13
100
AcDbCircle
 10
180.0377808149215
 20
546.1763837899671
 30
0.0
 40
3.000000000000001
100
AcDbArc
 50
54.58856163988926
 51
135.0000000000218
  0
LINE
  5
290
330
E4
100
AcDbEntity
  8
3
  6
CENTERX2
 62
     3
370
    13
100
AcDbLine
 10
195.0117189585764
 20
522.9665557495478
 30
0.0
 11
201.2630338845612
 21
529.2178706755337
 31
0.0
  0
LINE
  5
291
330
E4
100
AcDbEntity
  8
3
  6
CENTERX2
 62
     3
370
    13
100
AcDbLine
 10
243.6448534598364
 20
491.7616993004852
 30
0.0
 11
237.4747413593749
 21
497.9318114009455
 31
0.0
  0
ENDBLK
  5
E6
330
E4
100
AcDbEntity
  8
0
100
AcDbBlockEnd
  0
BLOCK
  5
E8
330
E7
100
AcDbEntity
  8
0
100
AcDbBlockBegin
  2
DC_GROUP_W_GT10H_S_020_4_10
 70
     0
 10
0.0
 20
0.0
 30
0.0
  3
DC_GROUP_W_GT10H_S_020_4_10
  1
DC_GROUP_W_GT10H_S_020_4_10
  0
LINE
  5
292
330
E7
100
AcDbEntity
  8
0
  6
Continuous
 62
     2
370
    13
100
AcDbLine
 10
169.3251130798377
 20
460.5811079273228
 30
0.0
 11
555.7016920195379
 21
221.5644863903931
 31
0.0
  0
INSERT
  5
293
330
E7
100
AcDbEntity
  8
0
 62
     2
100
AcDbBlockReference
  2
_OPEN30
 10
169.3251130798377
 20
460.5811079273228
 30
0.0
 41
30.00002807615286
 42
29.99989368223643
 50
148.2586284378163
  0
LINE
  5
294
330
E7
100
AcDbEntity
  8
0
  6
Continuous
 62
     2
370
    13
100
AcDbLine
 10
555.7016920195379
 20
221.5644863903931
 30
0.0
 11
1491.701692019538
 21
221.5644863903931
 31
0.0
  0
TEXT
  5
295
330
E7
100
AcDbEntity
  8
0
 62
     2
100
AcDbText
 10
555.7016920195379
 20
233.5644863903931
 30
0.0
 40
40.0
  1
Lタイプのスイッチ又はコントロールユニット,インバータ
 41
0.7189381836057513
  7
dcStyle0
 72
     5
 11
1491.701692019538
 21
233.5644863903931
 31
0.0
100
AcDbText
  0
ENDBLK
  5
E9
330
E7
100
AcDbEntity
  8
0
100
AcDbBlockEnd
  0
BLOCK
  5
EB
330
EA
100
AcDbEntity
  8
0
100
AcDbBlockBegin
  2
DC_GROUP_W_GT10H_S_020_4_11
 70
     0
 10
0.0
 20
0.0
 30
0.0
  3
DC_GROUP_W_GT10H_S_020_4_11
  1
DC_GROUP_W_GT10H_S_020_4_11
  0
INSERT
  5
296
330
EA
100
AcDbEntity
  8
0
  6
Continuous
100
AcDbBlockReference
  2
DC_GROUP_W_GT10H_S_020_4_12
 10
0.0
 20
0.0
 30
0.0
  0
ENDBLK
  5
EC
330
EA
100
AcDbEntity
  8
0
100
AcDbBlockEnd
  0
BLOCK
  5
EE
330
ED
100
AcDbEntity
  8
0
100
AcDbBlockBegin
  2
DC_GROUP_W_GT10H_S_020_4_12
 70
     0
 10
0.0
 20
0.0
 30
0.0
  3
DC_GROUP_W_GT10H_S_020_4_12
  1
DC_GROUP_W_GT10H_S_020_4_12
  0
LINE
  5
297
330
ED
100
AcDbEntity
  8
0
  6
Continuous
 62
     2
370
    13
100
AcDbLine
 10
179.8357614196958
 20
-417.6621281083738
 30
0.0
 11
208.7032748791778
 21
-467.6621281083738
 31
0.0
  0
LINE
  5
298
330
ED
100
AcDbEntity
  8
0
  6
Continuous
 62
     2
370
    13
100
AcDbLine
 10
208.7032748791778
 20
-467.6621281083738
 30
0.0
 11
150.968247960215
 21
-467.6621281083738
 31
0.0
  0
LINE
  5
299
330
ED
100
AcDbEntity
  8
0
  6
Continuous
 62
     2
370
    13
100
AcDbLine
 10
150.968247960215
 20
-467.6621281083738
 30
0.0
 11
179.8357614196958
 21
-417.6621281083738
 31
0.0
  0
TEXT
  5
29A
330
ED
100
AcDbEntity
  8
0
 62
     2
100
AcDbText
 10
172.3357614196958
 20
-463.9121281083738
 30
0.0
 40
25.0
  1
4
 41
0.7000000000000001
  7
dcStyle1
 72
     5
 11
187.3357614196958
 21
-463.9121281083738
 31
0.0
100
AcDbText
  0
ENDBLK
  5
EF
330
ED
100
AcDbEntity
  8
0
100
AcDbBlockEnd
  0
BLOCK
  5
F1
330
F0
100
AcDbEntity
  8
0
100
AcDbBlockBegin
  2
DC_GROUP_W_GT10H_S_020_4_13
 70
     0
 10
0.0
 20
0.0
 30
0.0
  3
DC_GROUP_W_GT10H_S_020_4_13
  1
DC_GROUP_W_GT10H_S_020_4_13
  0
LINE
  5
29B
330
F0
100
AcDbEntity
  8
2
  6
Continuous
 62
   140
370
    13
100
AcDbLine
 10
-154.0774696574798
 20
-517.4780953522292
 30
0.0
 11
-119.2645473923905
 21
-517.4780953522294
 31
0.0
  0
LINE
  5
29C
330
F0
100
AcDbEntity
  8
2
  6
Continuous
 62
   140
370
    13
100
AcDbLine
 10
-154.0774696574798
 20
-513.4780953522294
 30
0.0
 11
-119.2645473923907
 21
-513.4780953522294
 31
0.0
  0
LINE
  5
29D
330
F0
100
AcDbEntity
  8
2
  6
Continuous
 62
   140
370
    13
100
AcDbLine
 10
-156.0774696574798
 20
-606.0537325540904
 30
0.0
 11
-156.0774696574796
 21
-519.4780953522293
 31
0.0
  0
LINE
  5
29E
330
F0
100
AcDbEntity
  8
2
  6
Continuous
 62
   140
370
    13
100
AcDbLine
 10
-160.0774696574796
 20
-606.0537325540904
 30
0.0
 11
-160.0774696574796
 21
-519.4780953522293
 31
0.0
  0
LINE
  5
29F
330
F0
100
AcDbEntity
  8
2
  6
Continuous
 62
   140
370
    13
100
AcDbLine
 10
-162.0774696574796
 20
-612.0537325540903
 30
0.0
 11
-176.5926732795303
 21
-612.0537325540904
 31
0.0
  0
LINE
  5
2A0
330
F0
100
AcDbEntity
  8
2
  6
Continuous
 62
   140
370
    13
100
AcDbLine
 10
-162.0774696574767
 20
-608.0537325540902
 30
0.0
 11
-176.5926732795303
 21
-608.0537325540904
 31
0.0
  0
LINE
  5
2A1
330
F0
100
AcDbEntity
  8
2
  6
Continuous
 62
   140
370
    13
100
AcDbLine
 10
-176.5926732795303
 20
-613.0537325540902
 30
0.0
 11
-176.5926732795305
 21
-607.0537325540902
 31
0.0
  0
LINE
  5
2A2
330
F0
100
AcDbEntity
  8
2
  6
Continuous
 62
   140
370
    13
100
AcDbLine
 10
-186.5926732795305
 20
-615.0537325540896
 30
0.0
 11
-176.5926732795303
 21
-613.0537325540902
 31
0.0
  0
LINE
  5
2A3
330
F0
100
AcDbEntity
  8
2
  6
Continuous
 62
   140
370
    13
100
AcDbLine
 10
-191.5926732795305
 20
-615.0537325540897
 30
0.0
 11
-186.5926732795305
 21
-615.0537325540896
 31
0.0
  0
LINE
  5
2A4
330
F0
100
AcDbEntity
  8
2
  6
Continuous
 62
   140
370
    13
100
AcDbLine
 10
-191.5926732795305
 20
-605.0537325540902
 30
0.0
 11
-191.5926732795305
 21
-615.0537325540897
 31
0.0
  0
LINE
  5
2A5
330
F0
100
AcDbEntity
  8
2
  6
Continuous
 62
   140
370
    13
100
AcDbLine
 10
-186.5926732795305
 20
-605.0537325540902
 30
0.0
 11
-191.5926732795305
 21
-605.0537325540902
 31
0.0
  0
LINE
  5
2A6
330
F0
100
AcDbEntity
  8
2
  6
Continuous
 62
   140
370
    13
100
AcDbLine
 10
-176.5926732795305
 20
-607.0537325540902
 30
0.0
 11
-186.5926732795305
 21
-605.0537325540902
 31
0.0
  0
LINE
  5
2A7
330
F0
100
AcDbEntity
  8
2
  6
Continuous
 62
   140
370
    13
100
AcDbLine
 10
-199.0926732795305
 20
-608.0537325540903
 30
0.0
 11
-191.5926732795305
 21
-608.0537325540902
 31
0.0
  0
LINE
  5
2A8
330
F0
100
AcDbEntity
  8
2
  6
Continuous
 62
   140
370
    13
100
AcDbLine
 10
-191.5926732795305
 20
-612.0537325540902
 30
0.0
 11
-199.0926732795305
 21
-612.0537325540903
 31
0.0
  0
ARC
  5
2A9
330
F0
100
AcDbEntity
  8
2
  6
Continuous
 62
   140
370
    13
100
AcDbCircle
 10
-119.2645473923905
 20
-515.4780953522293
 30
0.0
 40
2.0
100
AcDbArc
 50
270.0
 51
90.0
  0
ARC
  5
2AA
330
F0
100
AcDbEntity
  8
2
  6
Continuous
 62
   140
370
    13
100
AcDbCircle
 10
-154.0774696574798
 20
-519.4780953522295
 30
0.0
 40
6.0
100
AcDbArc
 50
90.0
 51
180.0
  0
ARC
  5
2AB
330
F0
100
AcDbEntity
  8
2
  6
Continuous
 62
   140
370
    13
100
AcDbCircle
 10
-154.0774696574798
 20
-519.4780953522295
 30
0.0
 40
2.0
100
AcDbArc
 50
90.0
 51
180.0
  0
ARC
  5
2AC
330
F0
100
AcDbEntity
  8
2
  6
Continuous
 62
   140
370
    13
100
AcDbCircle
 10
-162.0774696574764
 20
-606.0537325540902
 30
0.0
 40
2.0
100
AcDbArc
 50
270.0
 51
0.0
  0
ARC
  5
2AD
330
F0
100
AcDbEntity
  8
2
  6
Continuous
 62
   140
370
    13
100
AcDbCircle
 10
-162.0774696574796
 20
-606.0537325540904
 30
0.0
 40
6.0
100
AcDbArc
 50
270.0
 51
0.0
  0
LINE
  5
2AE
330
F0
100
AcDbEntity
  8
2
  6
Continuous
 62
     3
370
    13
100
AcDbLine
 10
-127.5330286128466
 20
-517.4780953522294
 30
0.0
 11
-127.5330286128468
 21
-554.4780953522297
 31
0.0
  0
LINE
  5
2AF
330
F0
100
AcDbEntity
  8
2
  6
Continuous
 62
     3
370
    13
100
AcDbLine
 10
-126.5330286128468
 20
-555.4780953522297
 30
0.0
 11
-3.968485137855339
 21
-555.4780953522318
 31
0.0
  0
LINE
  5
2B0
330
F0
100
AcDbEntity
  8
2
  6
Continuous
 62
     3
370
    13
100
AcDbLine
 10
-61.4391849609728
 20
-555.4780953522329
 30
0.0
 11
-61.43918496097257
 21
-568.4780953522327
 31
0.0
  0
LINE
  5
2B1
330
F0
100
AcDbEntity
  8
2
  6
Continuous
 62
     3
370
    13
100
AcDbLine
 10
-61.43918496097257
 20
-568.4780953522327
 30
0.0
 11
1.664891439880023
 21
-568.4780953522327
 31
0.0
  0
LINE
  5
2B2
330
F0
100
AcDbEntity
  8
2
  6
Continuous
 62
     3
370
    13
100
AcDbLine
 10
-112.5800867281033
 20
-527.278095352234
 30
0.0
 11
-127.5330286128489
 21
-527.2780953522343
 31
0.0
  0
LINE
  5
2B3
330
F0
100
AcDbEntity
  8
2
  6
Continuous
 62
     3
370
    13
100
AcDbLine
 10
-113.2871935092911
 20
-527.2780953522301
 30
0.0
 11
-113.2871935092907
 21
-550.2780953522303
 31
0.0
  0
LINE
  5
2B4
330
F0
100
AcDbEntity
  8
2
  6
Continuous
 62
     3
370
    13
100
AcDbLine
 10
-123.1866884458988
 20
-527.278095352234
 30
0.0
 11
-123.1866884458965
 21
-552.2780953522279
 31
0.0
  0
LINE
  5
2B5
330
F0
100
AcDbEntity
  8
2
  6
Continuous
 62
     3
370
    13
100
AcDbLine
 10
-123.1866884458965
 20
-552.2780953522321
 30
0.0
 11
-115.4085138528521
 21
-552.2780953522304
 31
0.0
  0
LINE
  5
2B6
330
F0
100
AcDbEntity
  8
2
  6
Continuous
 62
     3
370
    13
100
AcDbLine
 10
-115.408513852853
 20
-552.2780953522295
 30
0.0
 11
-115.4085138528471
 21
-550.2780953522301
 31
0.0
  0
LINE
  5
2B7
330
F0
100
AcDbEntity
  8
2
  6
Continuous
 62
     3
370
    13
100
AcDbLine
 10
-115.4085138528471
 20
-550.2780953522301
 30
0.0
 11
-113.2871935092873
 21
-550.2780953522301
 31
0.0
  0
LINE
  5
2B8
330
F0
100
AcDbEntity
  8
2
  6
Continuous
 62
     3
370
    13
100
AcDbLine
 10
-11.95879176526495
 20
-475.4780953522318
 30
0.0
 11
-11.95879176526563
 21
-555.4780953522318
 31
0.0
  0
ARC
  5
2B9
330
F0
100
AcDbEntity
  8
2
  6
Continuous
 62
     3
370
    13
100
AcDbCircle
 10
-126.5330286128466
 20
-476.4780953522294
 30
0.0
 40
1.0
100
AcDbArc
 50
90.00000000000001
 51
180.0
  0
ARC
  5
2BA
330
F0
100
AcDbEntity
  8
2
  6
Continuous
 62
     3
370
    13
100
AcDbCircle
 10
-126.5330286128466
 20
-554.4780953522298
 30
0.0
 40
1.0
100
AcDbArc
 50
179.9999999999989
 51
270.0
  0
ARC
  5
2BB
330
F0
100
AcDbEntity
  8
2
  6
Continuous
 62
     3
370
    13
100
AcDbCircle
 10
-92.2207118203059
 20
-554.4780953522302
 30
0.0
 40
1.0
100
AcDbArc
 50
269.9999999999989
 51
359.9999999999989
  0
LINE
  5
2BC
330
F0
100
AcDbEntity
  8
2
  6
Continuous
 62
     3
370
    13
100
AcDbLine
 10
-124.0352165833216
 20
-517.4780953522295
 30
0.0
 11
-124.0352165833212
 21
-527.2780953522335
 31
0.0
  0
LINE
  5
2BD
330
F0
100
AcDbEntity
  8
2
  6
Continuous
 62
     3
370
    13
100
AcDbLine
 10
-3.968485137853747
 20
-475.478095352232
 30
0.0
 11
-3.968485137855112
 21
-555.4780953522318
 31
0.0
  0
LINE
  5
2BE
330
F0
100
AcDbEntity
  8
2
  6
Continuous
 62
     3
370
    13
100
AcDbLine
 10
1.664891439880023
 20
-462.4780953522327
 30
0.0
 11
1.664891439880023
 21
-464.4780953522331
 31
0.0
  0
LINE
  5
2BF
330
F0
100
AcDbEntity
  8
2
  6
Continuous
 62
     3
370
    13
100
AcDbLine
 10
0.079105002290305
 20
-464.4780953522331
 30
0.0
 11
1.664891439880023
 21
-464.4780953522331
 31
0.0
  0
ELLIPSE
  5
2C0
330
F0
100
AcDbEntity
  8
2
  6
Continuous
 62
     3
370
    13
100
AcDbEllipse
 10
-4.870642466053766
 20
-469.4780953522327
 30
0.0
 11
0.0
 21
-5.000000000000132
 31
0.0
210
0.0
220
0.0
230
1.0
 40
0.7071067811866028
 41
6.283185307176306
 42
7.853981633973776
  0
ELLIPSE
  5
2C1
330
F0
100
AcDbEntity
  8
2
  6
Continuous
 62
     3
370
    13
100
AcDbEllipse
 10
-3.456428903642689
 20
-469.4780953522327
 30
0.0
 11
0.0
 21
-4.999999999999972
 31
0.0
210
0.0
220
0.0
230
1.0
 40
0.7071067811866028
 41
6.283185307176306
 42
7.853981633973776
  0
LINE
  5
2C2
330
F0
100
AcDbEntity
  8
2
  6
Continuous
 62
     3
370
    13
100
AcDbLine
 10
0.079105002290305
 20
-464.4780953522331
 30
0.0
 11
0.079105002290305
 21
-469.4780953522327
 31
0.0
  0
LINE
  5
2C3
330
F0
100
AcDbEntity
  8
2
  6
Continuous
 62
     3
370
    13
100
AcDbLine
 10
-3.456428903642689
 20
-474.4780953522326
 30
0.0
 11
-40.22598152537643
 21
-474.4780953522326
 31
0.0
  0
LINE
  5
2C4
330
F0
100
AcDbEntity
  8
2
  6
Continuous
 62
     3
370
    13
100
AcDbLine
 10
-1.335108560120887
 20
-462.4780953522327
 30
0.0
 11
-1.335108560120887
 21
-469.4780953522327
 31
0.0
  0
ELLIPSE
  5
2C5
330
F0
100
AcDbEntity
  8
2
  6
Continuous
 62
     3
370
    13
100
AcDbEllipse
 10
-40.22598152537643
 20
-475.4780953522312
 30
0.0
 11
1.136868377216160E-13
 21
0.9999999999985789
 31
0.0
210
0.0
220
0.0
230
1.0
 40
0.707106781188949
 41
0.0000000050845874
 42
1.57079632679419
  0
ELLIPSE
  5
2C6
330
F0
100
AcDbEntity
  8
2
  6
Continuous
 62
     3
370
    13
100
AcDbEllipse
 10
-39.51887474419385
 20
-475.4780953522312
 30
0.0
 11
0.0
 21
0.9999999999985789
 31
0.0
210
0.0
220
0.0
230
1.0
 40
0.707106781188949
 41
0.0000000050844266
 42
1.57079632679419
  0
LINE
  5
2C7
330
F0
100
AcDbEntity
  8
2
  6
Continuous
 62
     3
370
    13
100
AcDbLine
 10
1.664891439880023
 20
-568.4780953522329
 30
0.0
 11
1.664891439880023
 21
-566.4780953522323
 31
0.0
  0
LINE
  5
2C8
330
F0
100
AcDbEntity
  8
2
  6
Continuous
 62
     3
370
    13
100
AcDbLine
 10
0.079105002290305
 20
-566.4780953522323
 30
0.0
 11
1.664891439880023
 21
-566.4780953522323
 31
0.0
  0
ELLIPSE
  5
2C9
330
F0
100
AcDbEntity
  8
2
  6
Continuous
 62
     3
370
    13
100
AcDbEllipse
 10
-4.870642466053766
 20
-561.4780953522328
 30
0.0
 11
0.0
 21
-5.000000000000132
 31
0.0
210
0.0
220
0.0
230
1.0
 40
0.7071067811866028
 41
1.570796326803307
 42
3.141592653593073
  0
ELLIPSE
  5
2CA
330
F0
100
AcDbEntity
  8
2
  6
Continuous
 62
     3
370
    13
100
AcDbEllipse
 10
-3.456428903642689
 20
-561.4780953522328
 30
0.0
 11
0.0
 21
-4.999999999999972
 31
0.0
210
0.0
220
0.0
230
1.0
 40
0.7071067811866028
 41
1.570796326803307
 42
3.141592653593073
  0
LINE
  5
2CB
330
F0
100
AcDbEntity
  8
2
  6
Continuous
 62
     3
370
    13
100
AcDbLine
 10
0.079105002290305
 20
-566.4780953522323
 30
0.0
 11
0.079105002290305
 21
-561.4780953522328
 31
0.0
  0
LINE
  5
2CC
330
F0
100
AcDbEntity
  8
2
  6
Continuous
 62
     3
370
    13
100
AcDbLine
 10
-3.456428903642689
 20
-556.4780953522329
 30
0.0
 11
-40.22598152537643
 21
-556.4780953522329
 31
0.0
  0
LINE
  5
2CD
330
F0
100
AcDbEntity
  8
2
  6
Continuous
 62
     3
370
    13
100
AcDbLine
 10
-1.335108560120887
 20
-568.4780953522329
 30
0.0
 11
-1.335108560120887
 21
-561.4780953522328
 31
0.0
  0
ELLIPSE
  5
2CE
330
F0
100
AcDbEntity
  8
2
  6
Continuous
 62
     3
370
    13
100
AcDbEllipse
 10
-40.22598152537643
 20
-555.4780953522343
 30
0.0
 11
1.136868377216160E-13
 21
-0.9999999999986358
 31
0.0
210
0.0
220
0.0
230
1.0
 40
0.707106781188949
 41
4.712388980385397
 42
6.283185302094998
  0
ELLIPSE
  5
2CF
330
F0
100
AcDbEntity
  8
2
  6
Continuous
 62
     3
370
    13
100
AcDbEllipse
 10
-39.51887474419385
 20
-555.4780953522343
 30
0.0
 11
0.0
 21
-0.9999999999986358
 31
0.0
210
0.0
220
0.0
230
1.0
 40
0.707106781188949
 41
4.712388980385397
 42
6.28318530209516
  0
LINE
  5
2D0
330
F0
100
AcDbEntity
  8
2
  6
Continuous
 62
     3
370
    13
100
AcDbLine
 10
3.934969626710938
 20
-465.4780953522326
 30
0.0
 11
0.079105002290305
 21
-465.4780953522326
 31
0.0
  0
LINE
  5
2D1
330
F0
100
AcDbEntity
  8
2
  6
Continuous
 62
     3
370
    13
100
AcDbLine
 10
3.934969626710938
 20
-565.4780953522329
 30
0.0
 11
0.079105002290305
 21
-565.4780953522327
 31
0.0
  0
LINE
  5
2D2
330
F0
100
AcDbEntity
  8
2
  6
Continuous
 62
     3
370
    13
100
AcDbLine
 10
4.227840367377382
 20
-466.4780953522326
 30
0.0
 11
4.227840367377382
 21
-564.4780953522329
 31
0.0
  0
LINE
  5
2D3
330
F0
100
AcDbEntity
  8
2
  6
Continuous
 62
     3
370
    13
100
AcDbLine
 10
0.079105002290305
 20
-465.4780953522326
 30
0.0
 11
0.079105002290305
 21
-565.4780953522327
 31
0.0
  0
ELLIPSE
  5
2D4
330
F0
100
AcDbEntity
  8
2
  6
Continuous
 62
     3
370
    13
100
AcDbEllipse
 10
3.934969626710938
 20
-466.4780953522326
 30
0.0
 11
0.0
 21
0.9999999999998059
 31
0.0
210
0.0
220
0.0
230
1.0
 40
0.2928707406665012
 41
4.712388980384983
 42
6.283185307179586
  0
ELLIPSE
  5
2D5
330
F0
100
AcDbEntity
  8
2
  6
Continuous
 62
     3
370
    13
100
AcDbEllipse
 10
3.934969626710938
 20
-564.4780953522329
 30
0.0
 11
0.0
 21
0.9999999999998059
 31
0.0
210
0.0
220
0.0
230
1.0
 40
0.2928707406665012
 41
3.141592653589793
 42
4.712388980384983
  0
LINE
  5
2D6
330
F0
100
AcDbEntity
  8
2
  6
Continuous
 62
     3
370
    13
100
AcDbLine
 10
-83.09373395264642
 20
-512.1396768540432
 30
0.0
 11
-83.09373395264691
 21
-555.4780953522304
 31
0.0
  0
LINE
  5
2D7
330
F0
100
AcDbEntity
  8
2
  6
Continuous
 62
     3
370
    13
100
AcDbLine
 10
-112.5800867281043
 20
-511.4025180346532
 30
0.0
 11
-112.5800867281033
 21
-527.2780953522315
 31
0.0
  0
LINE
  5
2D8
330
F0
100
AcDbEntity
  8
2
  6
Continuous
 62
     3
370
    13
100
AcDbLine
 10
-124.035216583322
 20
-511.1161397882714
 30
0.0
 11
-124.0352165833218
 21
-513.4780953522295
 31
0.0
  0
LINE
  5
2D9
330
F0
100
AcDbEntity
  8
2
  6
Continuous
 62
     3
370
    13
100
AcDbLine
 10
-44.0970893687636
 20
-462.4780953522327
 30
0.0
 11
1.664891439880023
 21
-462.4780953522327
 31
0.0
  0
LINE
  5
2DA
330
F0
100
AcDbEntity
  8
2
  6
Continuous
 62
     3
370
    13
100
AcDbLine
 10
-91.22071182030552
 20
-511.9365024073507
 30
0.0
 11
-91.2207118203059
 21
-554.4780953522302
 31
0.0
  0
LINE
  5
2DB
330
F0
100
AcDbEntity
  8
2
  6
Continuous
 62
     3
370
    13
100
AcDbLine
 10
-127.5330286128468
 20
-511.0286944875329
 30
0.0
 11
-127.5330286128468
 21
-513.4780953522293
 31
0.0
  0
LINE
  5
2DC
330
F0
100
AcDbEntity
  8
2
  6
Continuous
 62
     3
370
    13
100
AcDbLine
 10
-3.968485137855339
 20
-475.478095352232
 30
0.0
 11
-44.42208936876523
 21
-475.478095352233
 31
0.0
  0
LINE
  5
2DD
330
F0
100
AcDbEntity
  8
2
  6
DASHED2
 62
     4
370
    13
100
AcDbLine
 10
-61.4391849609728
 20
-462.4780953522327
 30
0.0
 11
-61.4391849609728
 21
-475.4780953522326
 31
0.0
  0
ARC
  5
2DE
330
F0
100
AcDbEntity
  8
2
  6
DASHED2
 62
     4
370
    13
100
AcDbCircle
 10
-92.22071182030521
 20
-476.4780953522301
 30
0.0
 40
1.0
100
AcDbArc
 50
0.0
 51
89.99999999999773
  0
LINE
  5
2DF
330
F0
100
AcDbEntity
  8
2
  6
DASHED2
 62
     4
370
    13
100
AcDbLine
 10
-61.4391849609728
 20
-462.4780953522327
 30
0.0
 11
-44.0970893687636
 21
-462.4780953522327
 31
0.0
  0
LINE
  5
2E0
330
F0
100
AcDbEntity
  8
2
  6
DASHED2
 62
     4
370
    13
100
AcDbLine
 10
-91.22071182030521
 20
-476.4780953522303
 30
0.0
 11
-91.22071182030552
 21
-511.9365024073507
 31
0.0
  0
LINE
  5
2E1
330
F0
100
AcDbEntity
  8
2
  6
DASHED2
 62
     4
370
    13
100
AcDbLine
 10
-127.5330286128466
 20
-476.4780953522293
 30
0.0
 11
-127.5330286128468
 21
-511.0286944875329
 31
0.0
  0
LINE
  5
2E2
330
F0
100
AcDbEntity
  8
2
  6
DASHED2
 62
     4
370
    13
100
AcDbLine
 10
-44.42208936876523
 20
-475.478095352233
 30
0.0
 11
-126.5330286128464
 21
-475.4780953522294
 31
0.0
  0
LINE
  5
2E3
330
F0
100
AcDbEntity
  8
2
  6
DIVIDE
 62
    91
370
    13
100
AcDbLine
 10
-51.11811714910715
 20
-475.478095352233
 30
0.0
 11
-57.61811714910692
 21
-475.478095352233
 31
0.0
  0
LINE
  5
2E4
330
F0
100
AcDbEntity
  8
2
  6
DIVIDE
 62
    91
370
    13
100
AcDbLine
 10
-54.36811714910715
 20
-472.228095352233
 30
0.0
 11
-54.36811714910715
 21
-478.728095352233
 31
0.0
  0
LINE
  5
2E5
330
F0
100
AcDbEntity
  8
2
  6
DIVIDE
 62
    91
370
    13
100
AcDbLine
 10
-51.11811714910556
 20
-555.4780953522338
 30
0.0
 11
-57.61811714910533
 21
-555.4780953522338
 31
0.0
  0
LINE
  5
2E6
330
F0
100
AcDbEntity
  8
2
  6
DIVIDE
 62
    91
370
    13
100
AcDbLine
 10
-54.36811714910556
 20
-552.2280953522338
 30
0.0
 11
-54.36811714910556
 21
-558.7280953522339
 31
0.0
  0
ENDBLK
  5
F2
330
F0
100
AcDbEntity
  8
0
100
AcDbBlockEnd
  0
BLOCK
  5
F4
330
F3
100
AcDbEntity
  8
0
100
AcDbBlockBegin
  2
DC_GROUP_W_GT10H_S_020_4_14
 70
     0
 10
0.0
 20
0.0
 30
0.0
  3
DC_GROUP_W_GT10H_S_020_4_14
  1
DC_GROUP_W_GT10H_S_020_4_14
  0
LINE
  5
2E7
330
F3
100
AcDbEntity
  8
0
  6
Continuous
 62
     7
370
    13
100
AcDbLine
 10
229.5112594043112
 20
-412.8799293924791
 30
0.0
 11
229.5112594043112
 21
-403.7184948600585
 31
0.0
  0
LINE
  5
2E8
330
F3
100
AcDbEntity
  8
0
  6
Continuous
 62
     7
370
    13
100
AcDbLine
 10
229.5112594043112
 20
-403.7184948600585
 30
0.0
 11
283.9953211661368
 21
-405.0805964041106
 31
0.0
  0
LINE
  5
2E9
330
F3
100
AcDbEntity
  8
0
  6
Continuous
 62
     7
370
    13
100
AcDbLine
 10
283.9953211661368
 20
-405.0805964041106
 30
0.0
 11
283.9953211661368
 21
-412.8799293924872
 31
0.0
  0
LINE
  5
2EA
330
F3
100
AcDbEntity
  8
0
  6
Continuous
 62
     7
370
    13
100
AcDbLine
 10
283.9953211661368
 20
-412.8799293924872
 30
0.0
 11
229.5112594043112
 21
-412.8799293924872
 31
0.0
  0
ENDBLK
  5
F5
330
F3
100
AcDbEntity
  8
0
100
AcDbBlockEnd
  0
BLOCK
  5
FA
330
F9
100
AcDbEntity
  8
0
100
AcDbBlockBegin
  2
_OPEN30
 70
     0
 10
0.0
 20
0.0
 30
0.0
  3
_OPEN30
  1
_OPEN30
  0
LINE
  5
FC
330
F9
100
AcDbEntity
  8
0
  6
ByBlock
 62
     0
370
    -2
100
AcDbLine
 10
-1.0
 20
0.267949
 30
0.0
 11
0.0
 21
0.0
 31
0.0
  0
LINE
  5
FD
330
F9
100
AcDbEntity
  8
0
  6
ByBlock
 62
     0
370
    -2
100
AcDbLine
 10
0.0
 20
0.0
 30
0.0
 11
-1.0
 21
-0.267949
 31
0.0
  0
LINE
  5
FE
330
F9
100
AcDbEntity
  8
0
  6
ByBlock
 62
     0
370
    -2
100
AcDbLine
 10
0.0
 20
0.0
 30
0.0
 11
-1.0
 21
0.0
 31
0.0
  0
ENDBLK
  5
FB
330
F9
100
AcDbEntity
  8
0
100
AcDbBlockEnd
  0
ENDSEC
  0
SECTION
  2
ENTITIES
  0
LINE
  5
2EB
330
1F
100
AcDbEntity
  8
0
  6
CENTERX2
 62
     3
370
    13
100
AcDbLine
 10
112.1825686597749
 20
199.3405076167783
 30
0.0
 11
112.1825686597749
 21
181.9417184006584
 31
0.0
  0
LINE
  5
2EC
330
1F
100
AcDbEntity
  8
0
  6
CENTERX2
 62
     3
370
    13
100
AcDbLine
 10
-152.3222180109051
 20
439.9265038119904
 30
0.0
 11
35.93763350445511
 21
672.4080591380343
 31
0.0
  0
LINE
  5
2ED
330
1F
100
AcDbEntity
  8
0
  6
CENTERX2
 62
     3
370
    13
100
AcDbLine
 10
125.2501201809928
 20
583.0955724614964
 30
0.0
 11
-107.23143514505
 21
394.8357209461353
 31
0.0
  0
LINE
  5
2EE
330
1F
100
AcDbEntity
  8
0
  6
CENTERX2
 62
     3
370
    13
100
AcDbLine
 10
-178.108432734075
 20
458.7607377302313
 30
0.0
 11
-14.71798763193397
 21
710.3599595650853
 31
0.0
  0
LINE
  5
2EF
330
1F
100
AcDbEntity
  8
0
  6
CENTERX2
 62
     3
370
    13
100
AcDbLine
 10
163.2020206079342
 20
532.4399513252174
 30
0.0
 11
-88.39720122691892
 21
369.0495062230755
 31
0.0
  0
LINE
  5
2F0
330
1F
100
AcDbEntity
  8
0
  6
CENTERX2
 62
     3
370
    13
100
AcDbLine
 10
-234.8271507479039
 20
488.0154051946984
 30
0.0
 11
-127.315419052622
 21
768.0930417603754
 31
0.0
  0
LINE
  5
2F1
330
1F
100
AcDbEntity
  8
0
  6
CENTERX2
 62
     3
370
    13
100
AcDbLine
 10
220.9351028033338
 20
419.8425199044193
 30
0.0
 11
-59.1425337623441
 21
312.3307882091374
 31
0.0
  0
LINE
  5
2F2
330
1F
100
AcDbEntity
  8
0
  6
CENTERX2
 62
     3
370
    13
100
AcDbLine
 10
-83.69276332055301
 20
788.7342949839945
 30
0.0
 11
-52.7694037892411
 21
819.6576545154453
 31
0.0
  0
LINE
  5
2F3
330
1F
100
AcDbEntity
  8
0
  6
CENTERX2
 62
     3
370
    13
100
AcDbLine
 10
-83.75718698631204
 20
819.1637397450822
 30
0.0
 11
-53.04857300716299
 21
788.4551257660723
 31
0.0
  0
LINE
  5
2F4
330
1F
100
AcDbEntity
  8
0
  6
CENTERX2
 62
     3
370
    13
100
AcDbLine
 10
241.2971868079321
 20
494.1093659523044
 30
0.0
 11
272.0058007870821
 21
463.4007519732934
 31
0.0
  0
LINE
  5
2F5
330
1F
100
AcDbEntity
  8
0
  6
CENTERX2
 62
     3
370
    13
100
AcDbLine
 10
272.4997155573042
 20
494.3885351703664
 30
0.0
 11
241.576356025992
 21
463.4651756389153
 31
0.0
  0
LINE
  5
2F6
330
1F
100
AcDbEntity
  8
0
  6
CENTERX2
 62
     3
370
    13
100
AcDbLine
 10
-233.081632990725
 20
314.0763059667124
 30
0.0
 11
-264.0049925220369
 21
283.1529464352614
 31
0.0
  0
LINE
  5
2F7
330
1F
100
AcDbEntity
  8
0
  6
CENTERX2
 62
     3
370
    13
100
AcDbLine
 10
-264.2841617400979
 20
313.7971367486493
 30
0.0
 11
-233.5755477609489
 21
283.0885227696383
 31
0.0
  0
LINE
  5
2F8
330
1F
100
AcDbEntity
  8
0
  6
CENTERX2
 62
     3
370
    13
100
AcDbLine
 10
-328.253161868033
 20
508.7225357954364
 30
0.0
 11
-312.552076745656
 21
808.3170871612206
 31
0.0
  0
LINE
  5
2F9
330
1F
100
AcDbEntity
  8
0
  6
CENTERX2
 62
     3
370
    13
100
AcDbLine
 10
261.1591482040681
 20
234.6058622114954
 30
0.0
 11
-38.43540316171493
 21
218.9047770891193
 31
0.0
  0
LINE
  5
2FA
330
1F
100
AcDbEntity
  8
0
  6
CENTERX2
 62
     3
370
    13
100
AcDbLine
 10
-223.5999519452409
 20
-461.6623518209752
 30
0.0
 11
-166.7628451935971
 21
-463.0832794897731
 31
0.0
  0
LINE
  5
2FB
330
1F
100
AcDbEntity
  8
0
  6
CENTERX2
 62
     3
370
    13
100
AcDbLine
 10
-311.8224819742461
 20
-1007.273442929934
 30
0.0
 11
-311.8224819742461
 21
-997.0923423406949
 31
0.0
  0
LINE
  5
2FC
330
1F
100
AcDbEntity
  8
0
  6
CENTERX2
 62
     3
370
    13
100
AcDbLine
 10
319.7588665741332
 20
-997.0923423406949
 30
0.0
 11
319.7588665741332
 21
-1007.273442929934
 31
0.0
  0
LINE
  5
2FD
330
1F
100
AcDbEntity
  8
0
  6
CENTERX2
 62
     3
370
    13
100
AcDbLine
 10
256.7588665741332
 20
-928.8799293924708
 30
0.0
 11
256.7588665741332
 21
-1003.879929392471
 31
0.0
  0
LINE
  5
2FE
330
1F
100
AcDbEntity
  8
0
  6
CENTERX2
 62
     3
370
    13
100
AcDbLine
 10
-248.8224819742479
 20
-928.8799293924708
 30
0.0
 11
-248.8224819742479
 21
-1023.879929392471
 31
0.0
  0
LINE
  5
2FF
330
1F
100
AcDbEntity
  8
0
  6
CENTERX2
 62
     3
370
    13
100
AcDbLine
 10
-68.510252771679
 20
-928.8799293924708
 30
0.0
 11
-68.510252771679
 21
-1023.879929392471
 31
0.0
  0
LINE
  5
300
330
1F
100
AcDbEntity
  8
0
  6
CENTERX2
 62
     3
370
    13
100
AcDbLine
 10
-131.510252771677
 20
-1007.273442929934
 30
0.0
 11
-131.510252771677
 21
-997.0923423406949
 31
0.0
  0
LINE
  5
301
330
1F
100
AcDbEntity
  8
0
  6
CENTERX2
 62
     3
370
    13
100
AcDbLine
 10
-205.70544371551
 20
474.8476454068334
 30
0.0
 11
-69.508878046076
 21
742.1484560033523
 31
0.0
  0
LINE
  5
302
330
1F
100
AcDbEntity
  8
0
  6
CENTERX2
 62
     3
370
    13
100
AcDbLine
 10
194.9905170463098
 20
477.6490609109653
 30
0.0
 11
-72.31029355020792
 21
341.4524952415313
 31
0.0
  0
LINE
  5
303
330
1F
100
AcDbEntity
  8
0
  6
CENTERX2
 62
     3
370
    13
100
AcDbLine
 10
-265.1140896040779
 20
498.3343226690804
 30
0.0
 11
-187.525148393659
 21
787.9001933718464
 31
0.0
  0
LINE
  5
304
330
1F
100
AcDbEntity
  8
0
  6
CENTERX2
 62
     3
370
    13
100
AcDbLine
 10
240.7422544148048
 20
359.6327905633823
 30
0.0
 11
-49.03721011735706
 21
281.9866170588684
 31
0.0
  0
LINE
  5
305
330
1F
100
AcDbEntity
  8
0
  6
CENTERX2
 62
     3
370
    13
100
AcDbLine
 10
-296.4221833300689
 20
505.0503839405444
 30
0.0
 11
-249.4912695482981
 21
801.3605119153021
 31
0.0
  0
LINE
  5
306
330
1F
100
AcDbEntity
  8
0
  6
CENTERX2
 62
     3
370
    13
100
AcDbLine
 10
254.2025729581501
 20
297.6666694088544
 30
0.0
 11
-42.10755501660697
 21
250.7357556270824
 31
0.0
  0
LINE
  5
307
330
1F
100
AcDbEntity
  8
0
  6
CENTERX2
 62
     3
370
    13
100
AcDbLine
 10
-172.22782398551
 20
-307.6481469731747
 30
0.0
 11
292.851061972674
 21
-319.2751191221816
 31
0.0
  0
LINE
  5
308
330
1F
100
AcDbEntity
  8
0
  6
CENTERX2
 62
     3
370
    13
100
AcDbLine
 10
281.2742514266961
 20
275.5731840878964
 30
0.0
 11
268.8088984843139
 21
263.1078311455144
 31
0.0
  0
LINE
  5
309
330
1F
100
AcDbEntity
  8
0
  6
CENTERX2
 62
     3
370
    13
100
AcDbLine
 10
268.8617144471582
 20
275.5203681250523
 30
0.0
 11
280.7661265071329
 21
263.6159560650774
 31
0.0
  0
LINE
  5
30A
330
1F
100
AcDbEntity
  8
0
  6
CENTERX2
 62
     3
370
    13
100
AcDbLine
 10
211.688133100582
 20
530.7894874707795
 30
0.0
 11
223.5925451605558
 21
518.8850754108053
 31
0.0
  0
LINE
  5
30B
330
1F
100
AcDbEntity
  8
0
  6
CENTERX2
 62
     3
370
    13
100
AcDbLine
 10
224.1006700801199
 20
530.8423034336233
 30
0.0
 11
211.6353171377382
 21
518.3769504912414
 31
0.0
  0
LINE
  5
30C
330
1F
100
AcDbEntity
  8
0
  6
CENTERX2
 62
     3
370
    13
100
AcDbLine
 10
-28.78098846579906
 20
758.7932560947793
 30
0.0
 11
-16.315635523418
 21
771.2586090371615
 31
0.0
  0
LINE
  5
30D
330
1F
100
AcDbEntity
  8
0
  6
CENTERX2
 62
     3
370
    13
100
AcDbLine
 10
-28.27286354623698
 20
770.7504841175983
 30
0.0
 11
-16.36845148626207
 21
758.8460720576236
 31
0.0
  0
LINE
  5
30E
330
1F
100
AcDbEntity
  8
0
  6
CENTERX2
 62
     3
370
    13
100
AcDbLine
 10
-283.541982891843
 20
827.9240654634582
 30
0.0
 11
-271.6375708318681
 21
816.0196534034835
 31
0.0
  0
LINE
  5
30F
330
1F
100
AcDbEntity
  8
0
  6
CENTERX2
 62
     3
370
    13
100
AcDbLine
 10
-284.0501078114071
 20
815.9668374406383
 30
0.0
 11
-271.5847548690249
 21
828.4321903830205
 31
0.0
  0
LINE
  5
310
330
1F
100
AcDbEntity
  8
0
  6
CENTERX2
 62
     3
370
    13
100
AcDbLine
 10
-170.2023447031399
 20
207.2499667693023
 30
0.0
 11
-157.736991760758
 21
219.7153197116854
 31
0.0
  0
LINE
  5
311
330
1F
100
AcDbEntity
  8
0
  6
CENTERX2
 62
     3
370
    13
100
AcDbLine
 10
-169.694219783576
 20
219.2071947921213
 30
0.0
 11
-157.7898077236009
 21
207.3027827321464
 31
0.0
  0
LINE
  5
312
330
1F
100
AcDbEntity
  8
0
  6
CENTERX2
 62
     3
370
    13
100
AcDbLine
 10
-339.3998472681219
 20
388.9128222766665
 30
0.0
 11
-327.495435208147
 21
377.0084102166923
 31
0.0
  0
LINE
  5
313
330
1F
100
AcDbEntity
  8
0
  6
CENTERX2
 62
     3
370
    13
100
AcDbLine
 10
-339.9079721876849
 20
376.9555942538473
 30
0.0
 11
-327.4426192453029
 21
389.4209471962304
 31
0.0
  0
LINE
  5
314
330
1F
100
AcDbEntity
  8
0
  6
CENTERX2
 62
     3
370
    13
100
AcDbLine
 10
-204.1434702000749
 20
449.0804859347575
 30
0.0
 11
-191.678117257693
 21
461.5458388771394
 31
0.0
  0
LINE
  5
315
330
1F
100
AcDbEntity
  8
0
  6
CENTERX2
 62
     3
370
    13
100
AcDbLine
 10
-203.635345280512
 20
461.0377139575764
 30
0.0
 11
-191.7309332205371
 21
449.1333018976025
 31
0.0
  0
LINE
  5
316
330
1F
100
AcDbEntity
  8
0
  6
CENTERX2
 62
     3
370
    13
100
AcDbLine
 10
-97.56932810252897
 20
354.9716967795935
 30
0.0
 11
-85.66491604255498
 21
343.0672847196195
 31
0.0
  0
LINE
  5
317
330
1F
100
AcDbEntity
  8
0
  6
CENTERX2
 62
     3
370
    13
100
AcDbLine
 10
-98.0774530220931
 20
343.0144687567754
 30
0.0
 11
-85.6121000797109
 21
355.4798216991574
 31
0.0
  0
LINE
  5
318
330
1F
100
AcDbEntity
  8
0
  6
CENTERX2
 62
     3
370
    13
100
AcDbLine
 10
-386.4142719530189
 20
160.7436670040224
 30
0.0
 11
149.7781338095592
 21
696.9360727666003
 31
0.0
  0
LINE
  5
319
330
1F
100
AcDbEntity
  8
0
  6
CENTERX2
 62
     3
370
    13
100
AcDbLine
 10
-304.8894993278091
 20
156.4125756044014
 30
0.0
 11
-390.7453633526411
 21
242.2684396292323
 31
0.0
  0
LINE
  5
31A
330
1F
100
AcDbEntity
  8
0
  6
CENTERX2
 62
     3
370
    13
100
AcDbLine
 10
-223.7746205102601
 20
199.3405076168183
 30
0.0
 11
-347.8174313402251
 21
199.3405076168165
 31
0.0
  0
LINE
  5
31B
330
1F
100
AcDbEntity
  8
0
  6
CENTERX2
 62
     3
370
    13
100
AcDbLine
 10
-347.8174313402251
 20
199.3405076168165
 30
0.0
 11
-347.8174313402251
 21
323.3833184467833
 31
0.0
  0
LINE
  5
31C
330
1F
100
AcDbEntity
  8
0
  6
CENTERX2
 62
     3
370
    13
100
AcDbLine
 10
112.6573642074518
 20
-284.7609031424156
 30
0.0
 11
110.942311737796
 21
-353.3630019283398
 31
0.0
  0
ARC
  5
31D
330
1F
100
AcDbEntity
  8
0
  6
CENTERX2
 62
     3
370
    13
100
AcDbCircle
 10
-347.8174313402251
 20
199.3405076168165
 30
0.0
 40
460.0
100
AcDbArc
 50
359.9999999999953
 51
90.0000000000002
  0
LINE
  5
31E
330
1F
100
AcDbEntity
  8
0
  6
Continuous
 62
     3
370
    13
100
AcDbLine
 10
-255.3224819742461
 20
-965.8799293924708
 30
0.0
 11
-255.3224819742461
 21
-938.8799293924708
 31
0.0
  0
LINE
  5
31F
330
1F
100
AcDbEntity
  8
0
  6
Continuous
 62
     3
370
    13
100
AcDbLine
 10
-242.3224819742461
 20
-965.8799293924708
 30
0.0
 11
-242.3224819742461
 21
-938.8799293924708
 31
0.0
  0
LINE
  5
320
330
1F
100
AcDbEntity
  8
0
  6
Continuous
 62
     3
370
    13
100
AcDbLine
 10
-242.3224819742461
 20
-975.8799293924708
 30
0.0
 11
-242.3224819742461
 21
-977.8799293924708
 31
0.0
  0
LINE
  5
321
330
1F
100
AcDbEntity
  8
0
  6
Continuous
 62
     3
370
    13
100
AcDbLine
 10
-255.3224819742461
 20
-977.8799293924708
 30
0.0
 11
-255.3224819742461
 21
-975.8799293924708
 31
0.0
  0
LINE
  5
322
330
1F
100
AcDbEntity
  8
0
  6
Continuous
 62
     3
370
    13
100
AcDbLine
 10
263.2588665741332
 20
-975.8799293924708
 30
0.0
 11
263.2588665741332
 21
-977.8799293924708
 31
0.0
  0
LINE
  5
323
330
1F
100
AcDbEntity
  8
0
  6
Continuous
 62
     3
370
    13
100
AcDbLine
 10
250.2588665741332
 20
-977.8799293924708
 30
0.0
 11
250.2588665741332
 21
-975.8799293924708
 31
0.0
  0
LINE
  5
324
330
1F
100
AcDbEntity
  8
0
  6
Continuous
 62
     3
370
    13
100
AcDbLine
 10
250.2588665741332
 20
-938.8799293924708
 30
0.0
 11
250.2588665741332
 21
-965.8799293924708
 31
0.0
  0
LINE
  5
325
330
1F
100
AcDbEntity
  8
0
  6
Continuous
 62
     3
370
    13
100
AcDbLine
 10
263.2588665741332
 20
-938.8799293924708
 30
0.0
 11
263.2588665741332
 21
-965.8799293924708
 31
0.0
  0
LINE
  5
326
330
1F
100
AcDbEntity
  8
0
  6
Continuous
 62
     3
370
    13
100
AcDbLine
 10
366.6793890514391
 20
-1003.879929392471
 30
0.0
 11
-361.8224819742511
 21
-1003.879929392471
 31
0.0
  0
LINE
  5
327
330
1F
100
AcDbEntity
  8
0
  6
Continuous
 62
     3
370
    13
100
AcDbLine
 10
-75.01025277167696
 20
-977.8799293924708
 30
0.0
 11
-75.01025277167696
 21
-975.8799293924708
 31
0.0
  0
LINE
  5
328
330
1F
100
AcDbEntity
  8
0
  6
Continuous
 62
     3
370
    13
100
AcDbLine
 10
-62.01025277167696
 20
-975.8799293924708
 30
0.0
 11
-62.01025277167696
 21
-977.8799293924708
 31
0.0
  0
LINE
  5
329
330
1F
100
AcDbEntity
  8
0
  6
Continuous
 62
     3
370
    13
100
AcDbLine
 10
-62.01025277167696
 20
-965.8799293924708
 30
0.0
 11
-62.01025277167696
 21
-938.8799293924708
 31
0.0
  0
LINE
  5
32A
330
1F
100
AcDbEntity
  8
0
  6
Continuous
 62
     3
370
    13
100
AcDbLine
 10
-75.01025277167696
 20
-965.8799293924708
 30
0.0
 11
-75.01025277167696
 21
-938.8799293924708
 31
0.0
  0
LINE
  5
32B
330
1F
100
AcDbEntity
  8
0
  6
Continuous
 62
     7
370
    13
100
AcDbLine
 10
73.03516959673402
 20
640.9050079481713
 30
0.0
 11
-133.726964774185
 21
423.5396871992605
 31
0.0
  0
LINE
  5
32C
330
1F
100
AcDbEntity
  8
0
  6
Continuous
 62
     7
370
    13
100
AcDbLine
 10
41.44485170277699
 20
607.6946737519604
 30
0.0
 11
60.53673479480199
 21
588.6027906599354
 31
0.0
  0
LINE
  5
32D
330
1F
100
AcDbEntity
  8
0
  6
Continuous
 62
     7
370
    13
100
AcDbLine
 10
6.973396119931977
 20
571.4554512161503
 30
0.0
 11
24.29751225899099
 21
554.1313350770913
 31
0.0
  0
LINE
  5
32E
330
1F
100
AcDbEntity
  8
0
  6
Continuous
 62
     7
370
    13
100
AcDbLine
 10
-27.49805946291099
 20
535.2162286803405
 30
0.0
 11
-11.94171027682
 21
519.6598794942493
 31
0.0
  0
LINE
  5
32F
330
1F
100
AcDbEntity
  8
0
  6
Continuous
 62
     7
370
    13
100
AcDbLine
 10
-61.969515045756
 20
498.9770061445304
 30
0.0
 11
-48.18093281263191
 21
485.1884239114063
 31
0.0
  0
LINE
  5
330
330
1F
100
AcDbEntity
  8
0
  6
Continuous
 62
     7
370
    13
100
AcDbLine
 10
-96.4409706286001
 20
462.7377836087203
 30
0.0
 11
-84.4201553484429
 21
450.7169683285633
 31
0.0
  0
LINE
  5
331
330
1F
100
AcDbEntity
  8
0
  6
Continuous
 62
     7
370
    13
100
AcDbLine
 10
-123.6182517578941
 20
413.4309741829693
 30
0.0
 11
93.74706899102102
 21
620.1931085538904
 31
0.0
  0
LINE
  5
332
330
1F
100
AcDbEntity
  8
0
  6
Continuous
 62
     7
370
    13
100
AcDbLine
 10
25.01183900023693
 20
682.1390731135264
 30
0.0
 11
-157.897237069112
 21
444.3513641271404
 31
0.0
  0
LINE
  5
333
330
1F
100
AcDbEntity
  8
0
  6
Continuous
 62
     7
370
    13
100
AcDbLine
 10
-146.850503464628
 20
435.3750260672873
 30
0.0
 11
47.91091073939992
 21
663.9715731552633
 31
0.0
  0
LINE
  5
334
330
1F
100
AcDbEntity
  8
0
  6
Continuous
 62
     7
370
    13
100
AcDbLine
 10
-124.1643290106069
 20
488.2052345695195
 30
0.0
 11
-110.953983129823
 21
477.5077074022743
 31
0.0
  0
LINE
  5
335
330
1F
100
AcDbEntity
  8
0
  6
Continuous
 62
     7
370
    13
100
AcDbLine
 10
-93.66974190993596
 20
527.8491831311803
 30
0.0
 11
-78.51755714121009
 21
515.5791858374423
 31
0.0
  0
LINE
  5
336
330
1F
100
AcDbEntity
  8
0
  6
Continuous
 62
     7
370
    13
100
AcDbLine
 10
-63.175154809265
 20
567.4931316928414
 30
0.0
 11
-46.08113115259789
 21
553.6506642726113
 31
0.0
  0
LINE
  5
337
330
1F
100
AcDbEntity
  8
0
  6
Continuous
 62
     7
370
    13
100
AcDbLine
 10
-32.68056770859403
 20
607.1370802545023
 30
0.0
 11
-13.64470516398592
 21
591.7221427077793
 31
0.0
  0
LINE
  5
338
330
1F
100
AcDbEntity
  8
0
  6
Continuous
 62
     7
370
    13
100
AcDbLine
 10
-2.185980607925103
 20
646.7810288161634
 30
0.0
 11
18.7917208246281
 21
629.7936211429474
 31
0.0
  0
LINE
  5
339
330
1F
100
AcDbEntity
  8
0
  6
Continuous
 62
     7
370
    13
100
AcDbLine
 10
82.63568218590717
 20
565.9496597816683
 30
0.0
 11
99.62308985912296
 21
544.9719583491164
 31
0.0
  0
LINE
  5
33A
330
1F
100
AcDbEntity
  8
0
  6
Continuous
 62
     7
370
    13
100
AcDbLine
 10
44.56420375073799
 20
533.5132337930554
 30
0.0
 11
59.97914129746096
 21
514.4773712484453
 31
0.0
  0
LINE
  5
33B
330
1F
100
AcDbEntity
  8
0
  6
Continuous
 62
     7
370
    13
100
AcDbLine
 10
6.492725315569942
 20
501.0768078044434
 30
0.0
 11
20.335192735801
 21
483.9827841477754
 31
0.0
  0
LINE
  5
33C
330
1F
100
AcDbEntity
  8
0
  6
Continuous
 62
     7
370
    13
100
AcDbLine
 10
-31.57875311959697
 20
468.6403818158303
 30
0.0
 11
-19.30875582586191
 21
453.4881970471044
 31
0.0
  0
LINE
  5
33D
330
1F
100
AcDbEntity
  8
0
  6
Continuous
 62
     7
370
    13
100
AcDbLine
 10
-69.65023155476706
 20
436.2039558272184
 30
0.0
 11
-58.95270438752209
 21
422.9936099464344
 31
0.0
  0
LINE
  5
33E
330
1F
100
AcDbEntity
  8
0
  6
Continuous
 62
     7
370
    13
100
AcDbLine
 10
116.8136341982222
 20
595.0688496964415
 30
0.0
 11
-111.7829128897531
 21
400.3074354924133
 31
0.0
  0
LINE
  5
33F
330
1F
100
AcDbEntity
  8
0
  6
Continuous
 62
     7
370
    13
100
AcDbLine
 10
-102.8065748299009
 20
389.2607018879294
 30
0.0
 11
134.981134156485
 21
572.1697779572783
 31
0.0
  0
LINE
  5
340
330
1F
100
AcDbEntity
  8
0
  6
Continuous
 62
     7
370
    13
100
AcDbLine
 10
-155.8098400599399
 20
508.7042262310943
 30
0.0
 11
-141.552440404869
 21
499.4453626358384
 31
0.0
  0
LINE
  5
341
330
1F
100
AcDbEntity
  8
0
  6
Continuous
 62
     7
370
    13
100
AcDbLine
 10
-129.626226519119
 20
551.3185534221334
 30
0.0
 11
-113.2721504441861
 21
540.6980922393413
 31
0.0
  0
LINE
  5
342
330
1F
100
AcDbEntity
  8
0
  6
Continuous
 62
     7
370
    13
100
AcDbLine
 10
-103.4426129783001
 20
593.9328806131734
 30
0.0
 11
-84.99186048350293
 21
581.9508218428434
 31
0.0
  0
LINE
  5
343
330
1F
100
AcDbEntity
  8
0
  6
Continuous
 62
     7
370
    13
100
AcDbLine
 10
-77.25899943748004
 20
636.5472078042114
 30
0.0
 11
-56.71157052282001
 21
623.2035514463473
 31
0.0
  0
LINE
  5
344
330
1F
100
AcDbEntity
  8
0
  6
Continuous
 62
     7
370
    13
100
AcDbLine
 10
-51.0753858966591
 20
679.1615349952524
 30
0.0
 11
-28.43128056213709
 21
664.4562810498483
 31
0.0
  0
LINE
  5
345
330
1F
100
AcDbEntity
  8
0
  6
Continuous
 62
     7
370
    13
100
AcDbLine
 10
-172.172742621648
 20
454.7792347608295
 30
0.0
 11
-2.545715649089971
 21
702.2158023092293
 31
0.0
  0
LINE
  5
346
330
1F
100
AcDbEntity
  8
0
  6
Continuous
 62
     7
370
    13
100
AcDbLine
 10
-27.08282337662308
 20
718.2098851317323
 30
0.0
 11
-184.1348848620901
 21
462.6046790842474
 31
0.0
  0
LINE
  5
347
330
1F
100
AcDbEntity
  8
0
  6
Continuous
 62
     7
370
    13
100
AcDbLine
 10
-84.55325987290303
 20
363.0230540950604
 30
0.0
 11
171.0519461745821
 21
520.0751155805274
 31
0.0
  0
LINE
  5
348
330
1F
100
AcDbEntity
  8
0
  6
Continuous
 62
     7
370
    13
100
AcDbLine
 10
155.057863352079
 20
544.6122233080603
 30
0.0
 11
-92.378704196321
 21
374.9851963355034
 31
0.0
  0
LINE
  5
349
330
1F
100
AcDbEntity
  8
0
  6
Continuous
 62
     7
370
    13
100
AcDbLine
 10
117.298342092698
 20
518.7266583950134
 30
0.0
 11
132.0035960381019
 21
496.0825530604914
 31
0.0
  0
LINE
  5
34A
330
1F
100
AcDbEntity
  8
0
  6
Continuous
 62
     7
370
    13
100
AcDbLine
 10
76.04561248919595
 20
490.4463684343314
 30
0.0
 11
89.38926884706098
 21
469.8989395196713
 31
0.0
  0
LINE
  5
34B
330
1F
100
AcDbEntity
  8
0
  6
Continuous
 62
     7
370
    13
100
AcDbLine
 10
34.79288288569296
 20
462.1660784736473
 30
0.0
 11
46.77494165602207
 21
443.7153259788504
 31
0.0
  0
LINE
  5
34C
330
1F
100
AcDbEntity
  8
0
  6
Continuous
 62
     7
370
    13
100
AcDbLine
 10
-6.459846717808887
 20
433.8857885129644
 30
0.0
 11
4.160614464982928
 21
417.5317124380313
 31
0.0
  0
LINE
  5
34D
330
1F
100
AcDbEntity
  8
0
  6
Continuous
 62
     7
370
    13
100
AcDbLine
 10
-47.7125763213121
 20
405.6054985522815
 30
0.0
 11
-38.45371272605598
 21
391.3480988972103
 31
0.0
  0
LINE
  5
34E
330
1F
100
AcDbEntity
  8
0
  6
Continuous
 62
     7
370
    13
100
AcDbLine
 10
-141.022737785773
 20
773.2151231785106
 30
0.0
 11
-241.500671567373
 21
490.5393170088473
 31
0.0
  0
LINE
  5
34F
330
1F
100
AcDbEntity
  8
0
  6
Continuous
 62
     7
370
    13
100
AcDbLine
 10
-223.2048692234109
 20
542.0111226327763
 30
0.0
 11
-207.3340019729601
 21
535.9188674905063
 31
0.0
  0
LINE
  5
350
330
1F
100
AcDbEntity
  8
0
  6
Continuous
 62
     7
370
    13
100
AcDbLine
 10
-206.453447279262
 20
589.1381038945824
 30
0.0
 11
-188.2486289625681
 21
582.1499288784494
 31
0.0
  0
LINE
  5
351
330
1F
100
AcDbEntity
  8
0
  6
Continuous
 62
     7
370
    13
100
AcDbLine
 10
-189.7020253351179
 20
636.2650851563744
 30
0.0
 11
-169.163255952182
 21
628.3809902663775
 31
0.0
  0
LINE
  5
352
330
1F
100
AcDbEntity
  8
0
  6
Continuous
 62
     7
370
    13
100
AcDbLine
 10
-172.950603390974
 20
683.3920664181653
 30
0.0
 11
-150.0778829417959
 21
674.6120516543074
 31
0.0
  0
LINE
  5
353
330
1F
100
AcDbEntity
  8
0
  6
Continuous
 62
     7
370
    13
100
AcDbLine
 10
-156.1991814468299
 20
730.5190476799576
 30
0.0
 11
-130.99250993141
 21
720.8431130422346
 31
0.0
  0
LINE
  5
354
330
1F
100
AcDbEntity
  8
0
  6
Continuous
 62
     7
370
    13
100
AcDbLine
 10
-228.2146478028601
 20
485.3390638546944
 30
0.0
 11
-113.7387822095409
 21
762.6373260789032
 31
0.0
  0
LINE
  5
355
330
1F
100
AcDbEntity
  8
0
  6
Continuous
 62
     7
370
    13
100
AcDbLine
 10
215.4793871218608
 20
433.4191567475004
 30
0.0
 11
-61.81887510234696
 21
318.9432911541815
 31
0.0
  0
LINE
  5
356
330
1F
100
AcDbEntity
  8
0
  6
Continuous
 62
     7
370
    13
100
AcDbLine
 10
173.685174085193
 20
416.1654290256313
 30
0.0
 11
183.361108722916
 21
390.9587575102114
 31
0.0
  0
LINE
  5
357
330
1F
100
AcDbEntity
  8
0
  6
Continuous
 62
     7
370
    13
100
AcDbLine
 10
127.4541126972658
 20
397.0800560152454
 30
0.0
 11
136.234127461124
 21
374.2073355660673
 31
0.0
  0
LINE
  5
358
330
1F
100
AcDbEntity
  8
0
  6
Continuous
 62
     7
370
    13
100
AcDbLine
 10
81.22305130933591
 20
377.9946830048593
 30
0.0
 11
89.10714619933287
 21
357.4559136219234
 31
0.0
  0
LINE
  5
359
330
1F
100
AcDbEntity
  8
0
  6
Continuous
 62
     7
370
    13
100
AcDbLine
 10
34.99198992140805
 20
358.9093099944735
 30
0.0
 11
41.98016493753994
 21
340.7044916777793
 31
0.0
  0
LINE
  5
35A
330
1F
100
AcDbEntity
  8
0
  6
Continuous
 62
     7
370
    13
100
AcDbLine
 10
-11.23907146653505
 20
339.8239369840815
 30
0.0
 11
-5.146816324265046
 21
323.9530697336304
 31
0.0
  0
LINE
  5
35B
330
1F
100
AcDbEntity
  8
0
  6
Continuous
 62
     7
370
    13
100
AcDbLine
 10
-56.61862194819491
 20
305.6572673896683
 30
0.0
 11
226.057184221469
 21
406.1352011712684
 31
0.0
  0
LINE
  5
35C
330
1F
100
AcDbEntity
  8
0
  6
Continuous
 62
     7
370
    13
100
AcDbLine
 10
-327.1776399747239
 20
808.9880440513293
 30
0.0
 11
-335.3863924024599
 21
509.0911642276224
 31
0.0
  0
LINE
  5
35D
330
1F
100
AcDbEntity
  8
0
  6
Continuous
 62
     7
370
    13
100
AcDbLine
 10
-337.437383633702
 20
514.9967097030653
 30
0.0
 11
-337.7423950890079
 21
509.1767444330324
 31
0.0
  0
LINE
  5
35E
330
1F
100
AcDbEntity
  8
0
  6
Continuous
 62
     7
370
    13
100
AcDbLine
 10
-318.4634224733641
 20
514.0023265344494
 30
0.0
 11
-318.7791714078901
 21
507.9774779557545
 31
0.0
  0
LINE
  5
35F
330
1F
100
AcDbEntity
  8
0
  6
Continuous
 62
     7
370
    13
100
AcDbLine
 10
-337.437383633702
 20
514.9967097030674
 30
0.0
 11
-335.241675201037
 21
514.8816375001584
 31
0.0
  0
LINE
  5
360
330
1F
100
AcDbEntity
  8
0
  6
Continuous
 62
     7
370
    13
100
AcDbLine
 10
-320.659130905982
 20
514.1173987373563
 30
0.0
 11
-318.4634224733641
 21
514.0023265344494
 31
0.0
  0
LINE
  5
361
330
1F
100
AcDbEntity
  8
0
  6
Continuous
 62
     7
370
    13
100
AcDbLine
 10
-321.1323875369569
 20
508.1898372860164
 30
0.0
 11
-297.948908989471
 21
807.2954813992783
 31
0.0
  0
LINE
  5
362
330
1F
100
AcDbEntity
  8
0
  6
Continuous
 62
     7
370
    13
100
AcDbLine
 10
-328.4264166463031
 20
763.3654929146005
 30
0.0
 11
-301.4634192079279
 21
761.9524220960352
 31
0.0
  0
LINE
  5
363
330
1F
100
AcDbEntity
  8
0
  6
Continuous
 62
     7
370
    13
100
AcDbLine
 10
-329.7949275400049
 20
713.3685962315674
 30
0.0
 11
-305.328503938516
 21
712.0863653036113
 31
0.0
  0
LINE
  5
364
330
1F
100
AcDbEntity
  8
0
  6
Continuous
 62
     7
370
    13
100
AcDbLine
 10
-331.1634384337081
 20
663.3716995485343
 30
0.0
 11
-309.193588669104
 21
662.2203085111853
 31
0.0
  0
LINE
  5
365
330
1F
100
AcDbEntity
  8
0
  6
Continuous
 62
     7
370
    13
100
AcDbLine
 10
-332.5319493274101
 20
613.3748028655023
 30
0.0
 11
-313.058673399692
 21
612.3542517187605
 31
0.0
  0
LINE
  5
366
330
1F
100
AcDbEntity
  8
0
  6
Continuous
 62
     7
370
    13
100
AcDbLine
 10
-333.9004602211121
 20
563.3779061824694
 30
0.0
 11
-316.92375813028
 21
562.4881949263363
 31
0.0
  0
LINE
  5
367
330
1F
100
AcDbEntity
  8
0
  6
Continuous
 62
     7
370
    13
100
AcDbLine
 10
15.33025596918401
 20
230.2341808268714
 30
0.0
 11
16.21996722531799
 21
213.2574787360393
 31
0.0
  0
LINE
  5
368
330
1F
100
AcDbEntity
  8
0
  6
Continuous
 62
     7
370
    13
100
AcDbLine
 10
65.19631276160908
 20
234.0992655574594
 30
0.0
 11
66.21686390834998
 21
214.6259896297413
 31
0.0
  0
LINE
  5
369
330
1F
100
AcDbEntity
  8
0
  6
Continuous
 62
     7
370
    13
100
AcDbLine
 10
115.0623695540339
 20
237.9643502880474
 30
0.0
 11
116.2137605913822
 21
215.9945005234445
 31
0.0
  0
LINE
  5
36A
330
1F
100
AcDbEntity
  8
0
  6
Continuous
 62
     7
370
    13
100
AcDbLine
 10
164.9284263464592
 20
241.8294350186363
 30
0.0
 11
166.2106572744151
 21
217.3630114171474
 31
0.0
  0
LINE
  5
36B
330
1F
100
AcDbEntity
  8
0
  6
Continuous
 62
     7
370
    13
100
AcDbLine
 10
214.7944831388832
 20
245.6945197492234
 30
0.0
 11
216.207553957448
 21
218.7315223108494
 31
0.0
  0
LINE
  5
36C
330
1F
100
AcDbEntity
  8
0
  6
Continuous
 62
     7
370
    13
100
AcDbLine
 10
260.1375424421258
 20
249.2090299676804
 30
0.0
 11
-38.96810167113495
 21
226.0255514201954
 31
0.0
  0
LINE
  5
36D
330
1F
100
AcDbEntity
  8
0
  6
Continuous
 62
     7
370
    13
100
AcDbLine
 10
-33.15561242270292
 20
228.6945164837884
 30
0.0
 11
-33.04054021979596
 21
226.4988080511703
 31
0.0
  0
LINE
  5
36E
330
1F
100
AcDbEntity
  8
0
  6
Continuous
 62
     7
370
    13
100
AcDbLine
 10
-32.27630145699391
 20
211.9162637561144
 30
0.0
 11
-32.16122925408399
 21
209.7205553234503
 31
0.0
  0
LINE
  5
36F
330
1F
100
AcDbEntity
  8
0
  6
Continuous
 62
     7
370
    13
100
AcDbLine
 10
-39.18046100139691
 20
228.3787675492613
 30
0.0
 11
-33.15561242270292
 21
228.6945164837884
 31
0.0
  0
LINE
  5
370
330
1F
100
AcDbEntity
  8
0
  6
Continuous
 62
     7
370
    13
100
AcDbLine
 10
-37.98119452411902
 20
209.4155438681435
 30
0.0
 11
-32.16122925408604
 21
209.7205553234494
 31
0.0
  0
LINE
  5
371
330
1F
100
AcDbEntity
  8
0
  6
Continuous
 62
     7
370
    13
100
AcDbLine
 10
-38.06677472952902
 20
211.7715465546914
 30
0.0
 11
261.8301050941768
 21
219.9802989824284
 31
0.0
  0
LINE
  5
372
330
1F
100
AcDbEntity
  8
0
  6
Continuous
 62
     7
370
    13
100
AcDbLine
 10
-42.45811849526308
 20
-396.9192604125369
 30
0.0
 11
-165.032135955744
 21
-393.8549099760107
 31
0.0
  0
LINE
  5
373
330
1F
100
AcDbEntity
  8
0
  6
Continuous
 62
     7
370
    13
100
AcDbLine
 10
-165.032135955744
 20
-393.8549099760107
 30
0.0
 11
-167.9362285685741
 21
-510.018614488635
 31
0.0
  0
LINE
  5
374
330
1F
100
AcDbEntity
  8
0
  6
Continuous
 62
     7
370
    13
100
AcDbLine
 10
-167.9362285685741
 20
-510.018614488635
 30
0.0
 11
-45.36221110809311
 21
-513.0829649251614
 31
0.0
  0
LINE
  5
375
330
1F
100
AcDbEntity
  8
0
  6
Continuous
 62
     7
370
    13
100
AcDbLine
 10
-45.36221110809311
 20
-513.0829649251614
 30
0.0
 11
-42.45811849526308
 21
-396.9192604125369
 31
0.0
  0
LINE
  5
376
330
1F
100
AcDbEntity
  8
0
  6
Continuous
 62
     7
370
    13
100
AcDbLine
 10
-128.350617393332
 20
-511.0082547680206
 30
0.0
 11
-125.4465247805031
 21
-394.8445502553964
 31
0.0
  0
LINE
  5
377
330
1F
100
AcDbEntity
  8
0
  6
Continuous
 62
     7
370
    13
100
AcDbLine
 10
283.9953211661368
 20
-928.8799293924708
 30
0.0
 11
229.5112594043112
 21
-928.8799293924708
 31
0.0
  0
LINE
  5
378
330
1F
100
AcDbEntity
  8
0
  6
Continuous
 62
     7
370
    13
100
AcDbLine
 10
-262.678888434798
 20
-937.8081326227469
 30
0.0
 11
-262.678888434798
 21
-929.9517261621957
 31
0.0
  0
LINE
  5
379
330
1F
100
AcDbEntity
  8
0
  6
Continuous
 62
     7
370
    13
100
AcDbLine
 10
-234.9660755136961
 20
-937.8081326227469
 30
0.0
 11
-234.9660755136961
 21
-929.9517261621957
 31
0.0
  0
LINE
  5
37A
330
1F
100
AcDbEntity
  8
0
  6
Continuous
 62
     7
370
    13
100
AcDbLine
 10
-255.7506852045231
 20
-937.6912376439099
 30
0.0
 11
-255.7506852045231
 21
-930.0686211410319
 31
0.0
  0
LINE
  5
37B
330
1F
100
AcDbEntity
  8
0
  6
Continuous
 62
     7
370
    13
100
AcDbLine
 10
-241.8942787439721
 20
-937.6912376439099
 30
0.0
 11
-241.8942787439721
 21
-930.0686211410319
 31
0.0
  0
LINE
  5
37C
330
1F
100
AcDbEntity
  8
0
  6
Continuous
 62
     7
370
    13
100
AcDbLine
 10
-262.678888434798
 20
-929.9517261621957
 30
0.0
 11
-260.8224819742479
 21
-928.8799293924708
 31
0.0
  0
LINE
  5
37D
330
1F
100
AcDbEntity
  8
0
  6
Continuous
 62
     7
370
    13
100
AcDbLine
 10
-234.9660755136961
 20
-929.9517261621957
 30
0.0
 11
-236.822481974247
 21
-928.8799293924708
 31
0.0
  0
LINE
  5
37E
330
1F
100
AcDbEntity
  8
0
  6
Continuous
 62
     7
370
    13
100
AcDbLine
 10
-260.8224819742479
 20
-938.8799293924708
 30
0.0
 11
-236.822481974247
 21
-938.8799293924708
 31
0.0
  0
LINE
  5
37F
330
1F
100
AcDbEntity
  8
0
  6
Continuous
 62
     7
370
    13
100
AcDbLine
 10
-260.8224819742479
 20
-938.8799293924708
 30
0.0
 11
-262.678888434798
 21
-937.8081326227469
 31
0.0
  0
LINE
  5
380
330
1F
100
AcDbEntity
  8
0
  6
Continuous
 62
     7
370
    13
100
AcDbLine
 10
-236.822481974247
 20
-938.8799293924708
 30
0.0
 11
-234.9660755136961
 21
-937.8081326227469
 31
0.0
  0
LINE
  5
381
330
1F
100
AcDbEntity
  8
0
  6
Continuous
 62
     7
370
    13
100
AcDbLine
 10
-221.598671418772
 20
-928.8799293924708
 30
0.0
 11
-276.071219315832
 21
-928.8799293924708
 31
0.0
  0
LINE
  5
382
330
1F
100
AcDbEntity
  8
0
  6
Continuous
 62
     7
370
    13
100
AcDbLine
 10
-330.8224819742461
 20
-1000.679929392471
 30
0.0
 11
-218.3224819742461
 21
-1000.679929392471
 31
0.0
  0
LINE
  5
383
330
1F
100
AcDbEntity
  8
0
  6
Continuous
 62
     7
370
    13
100
AcDbLine
 10
-330.8224819742461
 20
-1000.679929392471
 30
0.0
 11
-330.8224819742461
 21
-1003.879929392471
 31
0.0
  0
LINE
  5
384
330
1F
100
AcDbEntity
  8
0
  6
Continuous
 62
     7
370
    13
100
AcDbLine
 10
-330.8224819742461
 20
-1000.679929392471
 30
0.0
 11
-330.8224819742461
 21
-1003.879929392471
 31
0.0
  0
LINE
  5
385
330
1F
100
AcDbEntity
  8
0
  6
Continuous
 62
     7
370
    13
100
AcDbLine
 10
-240.8224819742461
 20
-977.8799293924708
 30
0.0
 11
-240.8224819742461
 21
-975.8799293924708
 31
0.0
  0
LINE
  5
386
330
1F
100
AcDbEntity
  8
0
  6
Continuous
 62
     7
370
    13
100
AcDbLine
 10
-241.894278743971
 20
-965.8799293924708
 30
0.0
 11
-241.894278743971
 21
-974.9989042049759
 31
0.0
  0
LINE
  5
387
330
1F
100
AcDbEntity
  8
0
  6
Continuous
 62
     7
370
    13
100
AcDbLine
 10
-234.9660755136961
 20
-965.8799293924708
 30
0.0
 11
-234.9660755136961
 21
-974.9989042049759
 31
0.0
  0
LINE
  5
388
330
1F
100
AcDbEntity
  8
0
  6
Continuous
 62
     7
370
    13
100
AcDbLine
 10
-241.894278743971
 20
-978.7609545799658
 30
0.0
 11
-241.894278743971
 21
-986.9989042049759
 31
0.0
  0
LINE
  5
389
330
1F
100
AcDbEntity
  8
0
  6
Continuous
 62
     7
370
    13
100
AcDbLine
 10
-234.9660755136961
 20
-978.760954579965
 30
0.0
 11
-234.9660755136961
 21
-986.9989042049759
 31
0.0
  0
LINE
  5
38A
330
1F
100
AcDbEntity
  8
0
  6
Continuous
 62
     7
370
    13
100
AcDbLine
 10
-218.3224819742461
 20
-1000.679929392471
 30
0.0
 11
-218.3224819742461
 21
-1003.879929392471
 31
0.0
  0
LINE
  5
38B
330
1F
100
AcDbEntity
  8
0
  6
Continuous
 62
     7
370
    13
100
AcDbLine
 10
-232.091184898029
 20
-990.1297260726517
 30
0.0
 11
-225.4186463401179
 21
-999.8146229770157
 31
0.0
  0
LINE
  5
38C
330
1F
100
AcDbEntity
  8
0
  6
Continuous
 62
     7
370
    13
100
AcDbLine
 10
-261.271688396153
 20
-987.8799293924708
 30
0.0
 11
-236.3732755523381
 21
-987.8799293924708
 31
0.0
  0
LINE
  5
38D
330
1F
100
AcDbEntity
  8
0
  6
Continuous
 62
     7
370
    13
100
AcDbLine
 10
-272.2263176083729
 20
-999.8146229770157
 30
0.0
 11
-265.553779050462
 21
-990.1297260726517
 31
0.0
  0
LINE
  5
38E
330
1F
100
AcDbEntity
  8
0
  6
Continuous
 62
     7
370
    13
100
AcDbLine
 10
-262.678888434798
 20
-986.9989042049759
 30
0.0
 11
-262.678888434798
 21
-978.760954579965
 31
0.0
  0
LINE
  5
38F
330
1F
100
AcDbEntity
  8
0
  6
Continuous
 62
     7
370
    13
100
AcDbLine
 10
-255.750685204519
 20
-986.9989042049759
 30
0.0
 11
-255.750685204519
 21
-978.7609545799658
 31
0.0
  0
LINE
  5
390
330
1F
100
AcDbEntity
  8
0
  6
Continuous
 62
     7
370
    13
100
AcDbLine
 10
-262.678888434798
 20
-974.9989042049759
 30
0.0
 11
-262.678888434798
 21
-965.8799293924708
 31
0.0
  0
LINE
  5
391
330
1F
100
AcDbEntity
  8
0
  6
Continuous
 62
     7
370
    13
100
AcDbLine
 10
-255.750685204519
 20
-974.9989042049759
 30
0.0
 11
-255.750685204519
 21
-965.8799293924708
 31
0.0
  0
LINE
  5
392
330
1F
100
AcDbEntity
  8
0
  6
Continuous
 62
     7
370
    13
100
AcDbLine
 10
-256.8224819742461
 20
-975.8799293924708
 30
0.0
 11
-256.8224819742461
 21
-977.8799293924708
 31
0.0
  0
LINE
  5
393
330
1F
100
AcDbEntity
  8
0
  6
Continuous
 62
     7
370
    13
100
AcDbLine
 10
-259.2147868196589
 20
-977.8799293924708
 30
0.0
 11
-238.4301771288319
 21
-977.8799293924708
 31
0.0
  0
LINE
  5
394
330
1F
100
AcDbEntity
  8
0
  6
Continuous
 62
     7
370
    13
100
AcDbLine
 10
-259.2147868196589
 20
-975.8799293924708
 30
0.0
 11
-238.4301771288319
 21
-975.8799293924708
 31
0.0
  0
LINE
  5
395
330
1F
100
AcDbEntity
  8
0
  6
Continuous
 62
     7
370
    13
100
AcDbLine
 10
-262.678888434798
 20
-965.8799293924708
 30
0.0
 11
-234.9660755136961
 21
-965.8799293924708
 31
0.0
  0
LINE
  5
396
330
1F
100
AcDbEntity
  8
0
  6
Continuous
 62
     7
370
    13
100
AcDbLine
 10
-240.822481974247
 20
-965.8799293924708
 30
0.0
 11
-240.822481974247
 21
-938.8799293924708
 31
0.0
  0
LINE
  5
397
330
1F
100
AcDbEntity
  8
0
  6
Continuous
 62
     7
370
    13
100
AcDbLine
 10
-256.822481974247
 20
-965.8799293924708
 30
0.0
 11
-256.822481974247
 21
-938.8799293924708
 31
0.0
  0
LINE
  5
398
330
1F
100
AcDbEntity
  8
0
  6
Continuous
 62
     7
370
    13
100
AcDbLine
 10
264.7588665741332
 20
-938.8799293924708
 30
0.0
 11
264.7588665741332
 21
-965.8799293924708
 31
0.0
  0
LINE
  5
399
330
1F
100
AcDbEntity
  8
0
  6
Continuous
 62
     7
370
    13
100
AcDbLine
 10
248.7588665741332
 20
-938.8799293924708
 30
0.0
 11
248.7588665741332
 21
-965.8799293924708
 31
0.0
  0
LINE
  5
39A
330
1F
100
AcDbEntity
  8
0
  6
Continuous
 62
     7
370
    13
100
AcDbLine
 10
242.902460113582
 20
-965.8799293924708
 30
0.0
 11
270.615273034683
 21
-965.8799293924708
 31
0.0
  0
LINE
  5
39B
330
1F
100
AcDbEntity
  8
0
  6
Continuous
 62
     7
370
    13
100
AcDbLine
 10
246.3665617287179
 20
-975.8799293924708
 30
0.0
 11
267.1511714195449
 21
-975.8799293924708
 31
0.0
  0
LINE
  5
39C
330
1F
100
AcDbEntity
  8
0
  6
Continuous
 62
     7
370
    13
100
AcDbLine
 10
246.3665617287179
 20
-977.8799293924708
 30
0.0
 11
267.1511714195449
 21
-977.8799293924708
 31
0.0
  0
LINE
  5
39D
330
1F
100
AcDbEntity
  8
0
  6
Continuous
 62
     7
370
    13
100
AcDbLine
 10
264.7588665741332
 20
-977.8799293924708
 30
0.0
 11
264.7588665741332
 21
-975.8799293924708
 31
0.0
  0
LINE
  5
39E
330
1F
100
AcDbEntity
  8
0
  6
Continuous
 62
     7
370
    13
100
AcDbLine
 10
263.6870698044049
 20
-965.8799293924708
 30
0.0
 11
263.6870698044049
 21
-974.9989042049759
 31
0.0
  0
LINE
  5
39F
330
1F
100
AcDbEntity
  8
0
  6
Continuous
 62
     7
370
    13
100
AcDbLine
 10
270.615273034683
 20
-965.8799293924708
 30
0.0
 11
270.615273034683
 21
-974.9989042049759
 31
0.0
  0
LINE
  5
3A0
330
1F
100
AcDbEntity
  8
0
  6
Continuous
 62
     7
370
    13
100
AcDbLine
 10
263.6870698044049
 20
-978.7609545799658
 30
0.0
 11
263.6870698044049
 21
-986.9989042049759
 31
0.0
  0
LINE
  5
3A1
330
1F
100
AcDbEntity
  8
0
  6
Continuous
 62
     7
370
    13
100
AcDbLine
 10
270.615273034683
 20
-978.760954579965
 30
0.0
 11
270.615273034683
 21
-986.9989042049759
 31
0.0
  0
LINE
  5
3A2
330
1F
100
AcDbEntity
  8
0
  6
Continuous
 62
     7
370
    13
100
AcDbLine
 10
273.4901636503482
 20
-990.1297260726517
 30
0.0
 11
280.1627022082589
 21
-999.8146229770157
 31
0.0
  0
LINE
  5
3A3
330
1F
100
AcDbEntity
  8
0
  6
Continuous
 62
     7
370
    13
100
AcDbLine
 10
244.3096601522238
 20
-987.8799293924708
 30
0.0
 11
269.2080729960389
 21
-987.8799293924708
 31
0.0
  0
LINE
  5
3A4
330
1F
100
AcDbEntity
  8
0
  6
Continuous
 62
     7
370
    13
100
AcDbLine
 10
233.3550309400048
 20
-999.8146229770157
 30
0.0
 11
240.0275694979168
 21
-990.1297260726517
 31
0.0
  0
LINE
  5
3A5
330
1F
100
AcDbEntity
  8
0
  6
Continuous
 62
     7
370
    13
100
AcDbLine
 10
226.2588665741332
 20
-1003.879929392471
 30
0.0
 11
226.2588665741332
 21
-1000.679929392471
 31
0.0
  0
LINE
  5
3A6
330
1F
100
AcDbEntity
  8
0
  6
Continuous
 62
     7
370
    13
100
AcDbLine
 10
242.902460113582
 20
-986.9989042049759
 30
0.0
 11
242.902460113582
 21
-978.760954579965
 31
0.0
  0
LINE
  5
3A7
330
1F
100
AcDbEntity
  8
0
  6
Continuous
 62
     7
370
    13
100
AcDbLine
 10
249.830663343856
 20
-986.9989042049759
 30
0.0
 11
249.830663343856
 21
-978.7609545799658
 31
0.0
  0
LINE
  5
3A8
330
1F
100
AcDbEntity
  8
0
  6
Continuous
 62
     7
370
    13
100
AcDbLine
 10
242.902460113582
 20
-974.9989042049759
 30
0.0
 11
242.902460113582
 21
-965.8799293924708
 31
0.0
  0
LINE
  5
3A9
330
1F
100
AcDbEntity
  8
0
  6
Continuous
 62
     7
370
    13
100
AcDbLine
 10
249.830663343856
 20
-974.9989042049759
 30
0.0
 11
249.830663343856
 21
-965.8799293924708
 31
0.0
  0
LINE
  5
3AA
330
1F
100
AcDbEntity
  8
0
  6
Continuous
 62
     7
370
    13
100
AcDbLine
 10
248.7588665741332
 20
-975.8799293924708
 30
0.0
 11
248.7588665741332
 21
-977.8799293924708
 31
0.0
  0
LINE
  5
3AB
330
1F
100
AcDbEntity
  8
0
  6
Continuous
 62
     7
370
    13
100
AcDbLine
 10
338.7588665741332
 20
-1003.879929392471
 30
0.0
 11
338.7588665741332
 21
-1000.679929392471
 31
0.0
  0
LINE
  5
3AC
330
1F
100
AcDbEntity
  8
0
  6
Continuous
 62
     7
370
    13
100
AcDbLine
 10
338.7588665741332
 20
-1003.879929392471
 30
0.0
 11
338.7588665741332
 21
-1000.679929392471
 31
0.0
  0
LINE
  5
3AD
330
1F
100
AcDbEntity
  8
0
  6
Continuous
 62
     7
370
    13
100
AcDbLine
 10
226.2588665741332
 20
-1000.679929392471
 30
0.0
 11
338.7588665741332
 21
-1000.679929392471
 31
0.0
  0
LINE
  5
3AE
330
1F
100
AcDbEntity
  8
0
  6
Continuous
 62
     7
370
    13
100
AcDbLine
 10
242.902460113582
 20
-937.8081326227469
 30
0.0
 11
244.7588665741332
 21
-938.8799293924708
 31
0.0
  0
LINE
  5
3AF
330
1F
100
AcDbEntity
  8
0
  6
Continuous
 62
     7
370
    13
100
AcDbLine
 10
270.615273034683
 20
-937.8081326227469
 30
0.0
 11
268.7588665741332
 21
-938.8799293924708
 31
0.0
  0
LINE
  5
3B0
330
1F
100
AcDbEntity
  8
0
  6
Continuous
 62
     7
370
    13
100
AcDbLine
 10
244.7588665741332
 20
-938.8799293924708
 30
0.0
 11
268.7588665741332
 21
-938.8799293924708
 31
0.0
  0
LINE
  5
3B1
330
1F
100
AcDbEntity
  8
0
  6
Continuous
 62
     7
370
    13
100
AcDbLine
 10
244.7588665741332
 20
-928.8799293924708
 30
0.0
 11
242.902460113582
 21
-929.9517261621957
 31
0.0
  0
LINE
  5
3B2
330
1F
100
AcDbEntity
  8
0
  6
Continuous
 62
     7
370
    13
100
AcDbLine
 10
268.7588665741332
 20
-928.8799293924708
 30
0.0
 11
270.615273034683
 21
-929.9517261621957
 31
0.0
  0
LINE
  5
3B3
330
1F
100
AcDbEntity
  8
0
  6
Continuous
 62
     7
370
    13
100
AcDbLine
 10
249.8306633438592
 20
-930.0686211410319
 30
0.0
 11
249.8306633438592
 21
-937.6912376439099
 31
0.0
  0
LINE
  5
3B4
330
1F
100
AcDbEntity
  8
0
  6
Continuous
 62
     7
370
    13
100
AcDbLine
 10
263.687069804409
 20
-930.0686211410319
 30
0.0
 11
263.687069804409
 21
-937.6912376439099
 31
0.0
  0
LINE
  5
3B5
330
1F
100
AcDbEntity
  8
0
  6
Continuous
 62
     7
370
    13
100
AcDbLine
 10
242.902460113582
 20
-929.9517261621957
 30
0.0
 11
242.902460113582
 21
-937.8081326227469
 31
0.0
  0
LINE
  5
3B6
330
1F
100
AcDbEntity
  8
0
  6
Continuous
 62
     7
370
    13
100
AcDbLine
 10
270.615273034683
 20
-929.9517261621957
 30
0.0
 11
270.615273034683
 21
-937.8081326227469
 31
0.0
  0
LINE
  5
3B7
330
1F
100
AcDbEntity
  8
0
  6
Continuous
 62
     7
370
    13
100
AcDbLine
 10
229.5112594043112
 20
-803.8799293924708
 30
0.0
 11
-221.598671418772
 21
-803.8799293924708
 31
0.0
  0
LINE
  5
3B8
330
1F
100
AcDbEntity
  8
0
  6
Continuous
 62
     7
370
    13
100
AcDbLine
 10
229.5112594043112
 20
-843.8799293924708
 30
0.0
 11
-221.598671418772
 21
-843.8799293924708
 31
0.0
  0
LINE
  5
3B9
330
1F
100
AcDbEntity
  8
0
  6
Continuous
 62
     7
370
    13
100
AcDbLine
 10
229.5112594043112
 20
-919.8799293924708
 30
0.0
 11
229.5112594043112
 21
-928.8799293924708
 31
0.0
  0
LINE
  5
3BA
330
1F
100
AcDbEntity
  8
0
  6
Continuous
 62
     7
370
    13
100
AcDbLine
 10
-221.598671418772
 20
-919.879929392471
 30
0.0
 11
-221.598671418772
 21
-928.8799293924708
 31
0.0
  0
LINE
  5
3BB
330
1F
100
AcDbEntity
  8
0
  6
Continuous
 62
     7
370
    13
100
AcDbLine
 10
-276.071219315832
 20
-412.8799293924257
 30
0.0
 11
-276.071219315832
 21
-928.8799293924708
 31
0.0
  0
LINE
  5
3BC
330
1F
100
AcDbEntity
  8
0
  6
Continuous
 62
     7
370
    13
100
AcDbLine
 10
-221.598671418772
 20
-412.8799293924257
 30
0.0
 11
-221.598671418772
 21
-919.879929392471
 31
0.0
  0
LINE
  5
3BD
330
1F
100
AcDbEntity
  8
0
  6
Continuous
 62
     7
370
    13
100
AcDbLine
 10
-221.598671418772
 20
-919.879929392471
 30
0.0
 11
-276.071219315832
 21
-919.8799293924708
 31
0.0
  0
LINE
  5
3BE
330
1F
100
AcDbEntity
  8
0
  6
Continuous
 62
     7
370
    13
100
AcDbLine
 10
-221.598671418772
 20
-418.8799293924257
 30
0.0
 11
-276.071219315832
 21
-418.8799293924257
 31
0.0
  0
LINE
  5
3BF
330
1F
100
AcDbEntity
  8
0
  6
Continuous
 62
     7
370
    13
100
AcDbLine
 10
-221.598671418772
 20
-412.8799293924257
 30
0.0
 11
-276.071219315832
 21
-412.8799293924257
 31
0.0
  0
LINE
  5
3C0
330
1F
100
AcDbEntity
  8
0
  6
Continuous
 62
     7
370
    13
100
AcDbLine
 10
283.9953211661368
 20
-418.8799293924791
 30
0.0
 11
229.5112594043112
 21
-418.8799293924791
 31
0.0
  0
LINE
  5
3C1
330
1F
100
AcDbEntity
  8
0
  6
Continuous
 62
     7
370
    13
100
AcDbLine
 10
283.9953211661368
 20
-412.8799293924791
 30
0.0
 11
229.5112594043112
 21
-412.8799293924791
 31
0.0
  0
LINE
  5
3C2
330
1F
100
AcDbEntity
  8
0
  6
Continuous
 62
     7
370
    13
100
AcDbLine
 10
283.9953211661368
 20
-919.8799293924708
 30
0.0
 11
229.5112594043112
 21
-919.8799293924708
 31
0.0
  0
LINE
  5
3C3
330
1F
100
AcDbEntity
  8
0
  6
Continuous
 62
     7
370
    13
100
AcDbLine
 10
229.5112594043112
 20
-412.8799293924791
 30
0.0
 11
229.5112594043112
 21
-919.8799293924708
 31
0.0
  0
LINE
  5
3C4
330
1F
100
AcDbEntity
  8
0
  6
Continuous
 62
     7
370
    13
100
AcDbLine
 10
283.9953211661368
 20
-412.8799293924791
 30
0.0
 11
283.9953211661368
 21
-928.8799293924708
 31
0.0
  0
LINE
  5
3C5
330
1F
100
AcDbEntity
  8
0
  6
Continuous
 62
     7
370
    13
100
AcDbLine
 10
256.7588665741332
 20
-928.8799293924708
 30
0.0
 11
256.7588665741332
 21
-412.8799293924791
 31
0.0
  0
LINE
  5
3C6
330
1F
100
AcDbEntity
  8
0
  6
Continuous
 62
     7
370
    13
100
AcDbLine
 10
-248.8224819742479
 20
-412.8799293924257
 30
0.0
 11
-248.8224819742479
 21
-928.8799293924708
 31
0.0
  0
LINE
  5
3C7
330
1F
100
AcDbEntity
  8
0
  6
Continuous
 62
     7
370
    13
100
AcDbLine
 10
-68.510252771679
 20
-555.4780953522308
 30
0.0
 11
-68.510252771679
 21
-803.8799293924708
 31
0.0
  0
LINE
  5
3C8
330
1F
100
AcDbEntity
  8
0
  6
Continuous
 62
     7
370
    13
100
AcDbLine
 10
-41.28644221620198
 20
-919.879929392471
 30
0.0
 11
-95.75899011326192
 21
-919.8799293924708
 31
0.0
  0
LINE
  5
3C9
330
1F
100
AcDbEntity
  8
0
  6
Continuous
 62
     7
370
    13
100
AcDbLine
 10
-95.75899011326192
 20
-555.4780953522303
 30
0.0
 11
-95.75899011326192
 21
-803.8799293924708
 31
0.0
  0
LINE
  5
3CA
330
1F
100
AcDbEntity
  8
0
  6
Continuous
 62
     7
370
    13
100
AcDbLine
 10
-41.28644221620198
 20
-919.879929392471
 30
0.0
 11
-41.28644221620198
 21
-928.8799293924708
 31
0.0
  0
LINE
  5
3CB
330
1F
100
AcDbEntity
  8
0
  6
Continuous
 62
     7
370
    13
100
AcDbLine
 10
-76.5102527716781
 20
-965.8799293924708
 30
0.0
 11
-76.5102527716781
 21
-938.8799293924708
 31
0.0
  0
LINE
  5
3CC
330
1F
100
AcDbEntity
  8
0
  6
Continuous
 62
     7
370
    13
100
AcDbLine
 10
-60.5102527716781
 20
-965.8799293924708
 30
0.0
 11
-60.5102527716781
 21
-938.8799293924708
 31
0.0
  0
LINE
  5
3CD
330
1F
100
AcDbEntity
  8
0
  6
Continuous
 62
     7
370
    13
100
AcDbLine
 10
-82.36665923222904
 20
-965.8799293924708
 30
0.0
 11
-54.65384631112693
 21
-965.8799293924708
 31
0.0
  0
LINE
  5
3CE
330
1F
100
AcDbEntity
  8
0
  6
Continuous
 62
     7
370
    13
100
AcDbLine
 10
-78.90255761709
 20
-975.8799293924708
 30
0.0
 11
-58.11794792626301
 21
-975.8799293924708
 31
0.0
  0
LINE
  5
3CF
330
1F
100
AcDbEntity
  8
0
  6
Continuous
 62
     7
370
    13
100
AcDbLine
 10
-78.90255761709
 20
-977.8799293924708
 30
0.0
 11
-58.11794792626301
 21
-977.8799293924708
 31
0.0
  0
LINE
  5
3D0
330
1F
100
AcDbEntity
  8
0
  6
Continuous
 62
     7
370
    13
100
AcDbLine
 10
-76.51025277167696
 20
-975.8799293924708
 30
0.0
 11
-76.51025277167696
 21
-977.8799293924708
 31
0.0
  0
LINE
  5
3D1
330
1F
100
AcDbEntity
  8
0
  6
Continuous
 62
     7
370
    13
100
AcDbLine
 10
-75.43845600195004
 20
-974.9989042049759
 30
0.0
 11
-75.43845600195004
 21
-965.8799293924708
 31
0.0
  0
LINE
  5
3D2
330
1F
100
AcDbEntity
  8
0
  6
Continuous
 62
     7
370
    13
100
AcDbLine
 10
-82.36665923222904
 20
-974.9989042049759
 30
0.0
 11
-82.36665923222904
 21
-965.8799293924708
 31
0.0
  0
LINE
  5
3D3
330
1F
100
AcDbEntity
  8
0
  6
Continuous
 62
     7
370
    13
100
AcDbLine
 10
-75.43845600195004
 20
-986.9989042049759
 30
0.0
 11
-75.43845600195004
 21
-978.7609545799658
 31
0.0
  0
LINE
  5
3D4
330
1F
100
AcDbEntity
  8
0
  6
Continuous
 62
     7
370
    13
100
AcDbLine
 10
-82.36665923222904
 20
-986.9989042049759
 30
0.0
 11
-82.36665923222904
 21
-978.760954579965
 31
0.0
  0
LINE
  5
3D5
330
1F
100
AcDbEntity
  8
0
  6
Continuous
 62
     7
370
    13
100
AcDbLine
 10
-91.91408840580402
 20
-999.8146229770157
 30
0.0
 11
-85.24154984789311
 21
-990.1297260726517
 31
0.0
  0
LINE
  5
3D6
330
1F
100
AcDbEntity
  8
0
  6
Continuous
 62
     7
370
    13
100
AcDbLine
 10
-80.95945919358405
 20
-987.8799293924708
 30
0.0
 11
-56.06104634976896
 21
-987.8799293924708
 31
0.0
  0
LINE
  5
3D7
330
1F
100
AcDbEntity
  8
0
  6
Continuous
 62
     7
370
    13
100
AcDbLine
 10
-51.7789556954599
 20
-990.1297260726517
 30
0.0
 11
-45.10641713754899
 21
-999.8146229770157
 31
0.0
  0
LINE
  5
3D8
330
1F
100
AcDbEntity
  8
0
  6
Continuous
 62
     7
370
    13
100
AcDbLine
 10
-38.01025277167696
 20
-1000.679929392471
 30
0.0
 11
-38.01025277167696
 21
-1003.879929392471
 31
0.0
  0
LINE
  5
3D9
330
1F
100
AcDbEntity
  8
0
  6
Continuous
 62
     7
370
    13
100
AcDbLine
 10
-54.65384631112693
 20
-978.760954579965
 30
0.0
 11
-54.65384631112693
 21
-986.9989042049759
 31
0.0
  0
LINE
  5
3DA
330
1F
100
AcDbEntity
  8
0
  6
Continuous
 62
     7
370
    13
100
AcDbLine
 10
-61.58204954140206
 20
-978.7609545799658
 30
0.0
 11
-61.58204954140206
 21
-986.9989042049759
 31
0.0
  0
LINE
  5
3DB
330
1F
100
AcDbEntity
  8
0
  6
Continuous
 62
     7
370
    13
100
AcDbLine
 10
-54.65384631112693
 20
-965.8799293924708
 30
0.0
 11
-54.65384631112693
 21
-974.9989042049759
 31
0.0
  0
LINE
  5
3DC
330
1F
100
AcDbEntity
  8
0
  6
Continuous
 62
     7
370
    13
100
AcDbLine
 10
-61.58204954140206
 20
-965.8799293924708
 30
0.0
 11
-61.58204954140206
 21
-974.9989042049759
 31
0.0
  0
LINE
  5
3DD
330
1F
100
AcDbEntity
  8
0
  6
Continuous
 62
     7
370
    13
100
AcDbLine
 10
-60.51025277167696
 20
-977.8799293924708
 30
0.0
 11
-60.51025277167696
 21
-975.8799293924708
 31
0.0
  0
LINE
  5
3DE
330
1F
100
AcDbEntity
  8
0
  6
Continuous
 62
     7
370
    13
100
AcDbLine
 10
-150.510252771677
 20
-1000.679929392471
 30
0.0
 11
-150.510252771677
 21
-1003.879929392471
 31
0.0
  0
LINE
  5
3DF
330
1F
100
AcDbEntity
  8
0
  6
Continuous
 62
     7
370
    13
100
AcDbLine
 10
-150.510252771677
 20
-1000.679929392471
 30
0.0
 11
-150.510252771677
 21
-1003.879929392471
 31
0.0
  0
LINE
  5
3E0
330
1F
100
AcDbEntity
  8
0
  6
Continuous
 62
     7
370
    13
100
AcDbLine
 10
-150.510252771677
 20
-1000.679929392471
 30
0.0
 11
-38.01025277167696
 21
-1000.679929392471
 31
0.0
  0
LINE
  5
3E1
330
1F
100
AcDbEntity
  8
0
  6
Continuous
 62
     7
370
    13
100
AcDbLine
 10
-41.28644221620198
 20
-928.8799293924708
 30
0.0
 11
-95.75899011326192
 21
-928.8799293924708
 31
0.0
  0
LINE
  5
3E2
330
1F
100
AcDbEntity
  8
0
  6
Continuous
 62
     7
370
    13
100
AcDbLine
 10
-56.5102527716781
 20
-938.8799293924708
 30
0.0
 11
-54.65384631112693
 21
-937.8081326227469
 31
0.0
  0
LINE
  5
3E3
330
1F
100
AcDbEntity
  8
0
  6
Continuous
 62
     7
370
    13
100
AcDbLine
 10
-80.510252771679
 20
-938.8799293924708
 30
0.0
 11
-82.36665923222904
 21
-937.8081326227469
 31
0.0
  0
LINE
  5
3E4
330
1F
100
AcDbEntity
  8
0
  6
Continuous
 62
     7
370
    13
100
AcDbLine
 10
-80.510252771679
 20
-938.8799293924708
 30
0.0
 11
-56.5102527716781
 21
-938.8799293924708
 31
0.0
  0
LINE
  5
3E5
330
1F
100
AcDbEntity
  8
0
  6
Continuous
 62
     7
370
    13
100
AcDbLine
 10
-54.65384631112693
 20
-929.9517261621957
 30
0.0
 11
-56.5102527716781
 21
-928.8799293924708
 31
0.0
  0
LINE
  5
3E6
330
1F
100
AcDbEntity
  8
0
  6
Continuous
 62
     7
370
    13
100
AcDbLine
 10
-82.36665923222904
 20
-929.9517261621957
 30
0.0
 11
-80.510252771679
 21
-928.8799293924708
 31
0.0
  0
LINE
  5
3E7
330
1F
100
AcDbEntity
  8
0
  6
Continuous
 62
     7
370
    13
100
AcDbLine
 10
-61.58204954140297
 20
-937.6912376439099
 30
0.0
 11
-61.58204954140297
 21
-930.0686211410319
 31
0.0
  0
LINE
  5
3E8
330
1F
100
AcDbEntity
  8
0
  6
Continuous
 62
     7
370
    13
100
AcDbLine
 10
-75.43845600195391
 20
-937.6912376439099
 30
0.0
 11
-75.43845600195391
 21
-930.0686211410319
 31
0.0
  0
LINE
  5
3E9
330
1F
100
AcDbEntity
  8
0
  6
Continuous
 62
     7
370
    13
100
AcDbLine
 10
-54.65384631112693
 20
-937.8081326227469
 30
0.0
 11
-54.65384631112693
 21
-929.9517261621957
 31
0.0
  0
LINE
  5
3EA
330
1F
100
AcDbEntity
  8
0
  6
Continuous
 62
     7
370
    13
100
AcDbLine
 10
-82.36665923222904
 20
-937.8081326227469
 30
0.0
 11
-82.36665923222904
 21
-929.9517261621957
 31
0.0
  0
LINE
  5
3EB
330
1F
100
AcDbEntity
  8
0
  6
Continuous
 62
     7
370
    13
100
AcDbLine
 10
94.12430690117299
 20
-843.8799293924708
 30
0.0
 11
94.12430690117299
 21
-803.8799293924708
 31
0.0
  0
LINE
  5
3EC
330
1F
100
AcDbEntity
  8
0
  6
Continuous
 62
     7
370
    13
100
AcDbLine
 10
-68.510252771679
 20
-843.8799293924708
 30
0.0
 11
-68.510252771679
 21
-928.8799293924708
 31
0.0
  0
LINE
  5
3ED
330
1F
100
AcDbEntity
  8
0
  6
Continuous
 62
     7
370
    13
100
AcDbLine
 10
-41.28644221620198
 20
-843.8799293924708
 30
0.0
 11
-41.28644221620198
 21
-919.879929392471
 31
0.0
  0
LINE
  5
3EE
330
1F
100
AcDbEntity
  8
0
  6
Continuous
 62
     7
370
    13
100
AcDbLine
 10
-95.75899011326192
 20
-843.8799293924708
 30
0.0
 11
-95.75899011326192
 21
-928.8799293924708
 31
0.0
  0
LINE
  5
3EF
330
1F
100
AcDbEntity
  8
0
  6
Continuous
 62
     7
370
    13
100
AcDbLine
 10
-221.598671418772
 20
-392.4407465894282
 30
0.0
 11
-276.071219315832
 21
-391.0789328919954
 31
0.0
  0
LINE
  5
3F0
330
1F
100
AcDbEntity
  8
0
  6
Continuous
 62
     7
370
    13
100
AcDbLine
 10
-276.071219315832
 20
-391.0789328919954
 30
0.0
 11
-276.071219315832
 21
-412.8799293924257
 31
0.0
  0
LINE
  5
3F1
330
1F
100
AcDbEntity
  8
0
  6
Continuous
 62
     7
370
    13
100
AcDbLine
 10
-221.598671418772
 20
-392.4407465894282
 30
0.0
 11
-221.598671418772
 21
-412.8799293924257
 31
0.0
  0
LINE
  5
3F2
330
1F
100
AcDbEntity
  8
0
  6
Continuous
 62
     7
370
    13
100
AcDbLine
 10
71.90863261544109
 20
583.7112325131543
 30
0.0
 11
-98.54173646894105
 21
413.2608634287724
 31
0.0
  0
LINE
  5
3F3
330
1F
100
AcDbEntity
  8
0
  6
Continuous
 62
     7
370
    13
100
AcDbLine
 10
-178.1118038557329
 20
199.3405076168165
 30
0.0
 11
-347.8174313402251
 21
369.0461351013073
 31
0.0
  0
LINE
  5
3F4
330
1F
100
AcDbEntity
  8
0
  6
Continuous
 62
     7
370
    13
100
AcDbLine
 10
-178.1118038557329
 20
199.3405076168165
 30
0.0
 11
297.1793880517662
 21
199.3405076167774
 31
0.0
  0
LINE
  5
3F5
330
1F
100
AcDbEntity
  8
0
  6
Continuous
 62
     7
370
    13
100
AcDbLine
 10
-347.8174313402251
 20
369.0461351013073
 30
0.0
 11
-347.8174313402269
 21
844.3373270078555
 31
0.0
  0
LINE
  5
3F6
330
1F
100
AcDbEntity
  8
0
  6
Continuous
 62
     7
370
    13
100
AcDbLine
 10
-347.8174313402269
 20
844.3373270078555
 30
0.0
 11
-64.97471886574704
 21
835.7366106845693
 31
0.0
  0
LINE
  5
3F7
330
1F
100
AcDbEntity
  8
0
  6
Continuous
 62
     7
370
    13
100
AcDbLine
 10
-64.97471886574704
 20
835.7366106845693
 30
0.0
 11
288.5786717275269
 21
482.1832200912943
 31
0.0
  0
LINE
  5
3F8
330
1F
100
AcDbEntity
  8
0
  6
Continuous
 62
     7
370
    13
100
AcDbLine
 10
288.5786717275269
 20
482.1832200912943
 30
0.0
 11
297.1793880517662
 21
199.3405076167774
 31
0.0
  0
LINE
  5
3F9
330
1F
100
AcDbEntity
  8
0
  6
Continuous
 62
     7
370
    13
100
AcDbLine
 10
1.596014798451051
 20
249.3405076168153
 30
0.0
 11
217.3648949607141
 21
249.3405076168144
 31
0.0
  0
LINE
  5
3FA
330
1F
100
AcDbEntity
  8
0
  6
Continuous
 62
     7
370
    13
100
AcDbLine
 10
-297.8174313402269
 20
764.5228339177552
 30
0.0
 11
-297.8174313402251
 21
548.7539537554915
 31
0.0
  0
LINE
  5
3FB
330
1F
100
AcDbEntity
  8
0
  6
Continuous
 62
     7
370
    13
100
AcDbLine
 10
-133.8970755282689
 20
448.6162024881014
 30
0.0
 11
36.55329355611298
 21
619.0665715724824
 31
0.0
  0
LINE
  5
3FC
330
1F
100
AcDbEntity
  8
0
  6
Continuous
 62
     7
370
    13
100
AcDbLine
 10
-82.60859585209005
 20
748.6677263556203
 30
0.0
 11
-212.0829658821731
 21
478.0449296963943
 31
0.0
  0
LINE
  5
3FD
330
1F
100
AcDbEntity
  8
0
  6
Continuous
 62
     7
370
    13
100
AcDbLine
 10
-188.493185973708
 20
527.3514620233723
 30
0.0
 11
-173.3460750624999
 21
519.6336235277975
 31
0.0
  0
LINE
  5
3FE
330
1F
100
AcDbEntity
  8
0
  6
Continuous
 62
     7
370
    13
100
AcDbLine
 10
-166.9074191419641
 20
572.4692763574644
 30
0.0
 11
-149.532791920293
 21
563.6164616125434
 31
0.0
  0
LINE
  5
3FF
330
1F
100
AcDbEntity
  8
0
  6
Continuous
 62
     7
370
    13
100
AcDbLine
 10
-145.3216523102201
 20
617.5870906915554
 30
0.0
 11
-125.7195087780781
 21
607.5992996972873
 31
0.0
  0
LINE
  5
400
330
1F
100
AcDbEntity
  8
0
  6
Continuous
 62
     7
370
    13
100
AcDbLine
 10
-123.735885478475
 20
662.7049050256473
 30
0.0
 11
-101.9062256358629
 21
651.5821377820303
 31
0.0
  0
LINE
  5
401
330
1F
100
AcDbEntity
  8
0
  6
Continuous
 62
     7
370
    13
100
AcDbLine
 10
-102.1501186467301
 20
707.8227193597384
 30
0.0
 11
-78.09294249364802
 21
695.5649758667723
 31
0.0
  0
LINE
  5
402
330
1F
100
AcDbEntity
  8
0
  6
Continuous
 62
     7
370
    13
100
AcDbLine
 10
-199.4040274220611
 20
471.5049092885245
 30
0.0
 11
-56.5701452469491
 21
735.3173149616705
 31
0.0
  0
LINE
  5
403
330
1F
100
AcDbEntity
  8
0
  6
Continuous
 62
     7
370
    13
100
AcDbLine
 10
188.1593760046289
 20
490.5877937100925
 30
0.0
 11
-75.65302966851709
 21
347.7539115349814
 31
0.0
  0
LINE
  5
404
330
1F
100
AcDbEntity
  8
0
  6
Continuous
 62
     7
370
    13
100
AcDbLine
 10
148.4070369097308
 20
469.0649964633924
 30
0.0
 11
160.664780402697
 21
445.0078203103103
 31
0.0
  0
LINE
  5
405
330
1F
100
AcDbEntity
  8
0
  6
Continuous
 62
     7
370
    13
100
AcDbLine
 10
104.4241988249878
 20
445.2517133211784
 30
0.0
 11
115.5469660686058
 21
423.4220534785663
 31
0.0
  0
LINE
  5
406
330
1F
100
AcDbEntity
  8
0
  6
Continuous
 62
     7
370
    13
100
AcDbLine
 10
60.44136074024505
 20
421.4384301789635
 30
0.0
 11
70.42915173451411
 21
401.8362866468224
 31
0.0
  0
LINE
  5
407
330
1F
100
AcDbEntity
  8
0
  6
Continuous
 62
     7
370
    13
100
AcDbLine
 10
16.45852265550207
 20
397.6251470367483
 30
0.0
 11
25.3113374004231
 21
380.2505198150773
 31
0.0
  0
LINE
  5
408
330
1F
100
AcDbEntity
  8
0
  6
Continuous
 62
     7
370
    13
100
AcDbLine
 10
-27.5243154292441
 20
373.8118638945414
 30
0.0
 11
-19.80647693366905
 21
358.6647529833324
 31
0.0
  0
LINE
  5
409
330
1F
100
AcDbEntity
  8
0
  6
Continuous
 62
     7
370
    13
100
AcDbLine
 10
-69.113009260647
 20
335.0749730748694
 30
0.0
 11
201.5097873985792
 21
464.5493431049513
 31
0.0
  0
LINE
  5
40A
330
1F
100
AcDbEntity
  8
0
  6
Continuous
 62
     7
370
    13
100
AcDbLine
 10
-201.7050966248239
 20
791.5797374152953
 30
0.0
 11
-272.085414926564
 21
499.9476627043405
 31
0.0
  0
LINE
  5
40B
330
1F
100
AcDbEntity
  8
0
  6
Continuous
 62
     7
370
    13
100
AcDbLine
 10
-259.4258238519869
 20
552.4046975566434
 30
0.0
 11
-243.0050848050751
 21
548.0047737899013
 31
0.0
  0
LINE
  5
40C
330
1F
100
AcDbEntity
  8
0
  6
Continuous
 62
     7
370
    13
100
AcDbLine
 10
-247.6922788797231
 20
601.0245126774735
 30
0.0
 11
-228.85672526709
 21
595.9775412979754
 31
0.0
  0
LINE
  5
40D
330
1F
100
AcDbEntity
  8
0
  6
Continuous
 62
     7
370
    13
100
AcDbLine
 10
-235.9587339074451
 20
649.6443277983553
 30
0.0
 11
-214.708365729088
 21
643.9503088061003
 31
0.0
  0
LINE
  5
40E
330
1F
100
AcDbEntity
  8
0
  6
Continuous
 62
     7
370
    13
100
AcDbLine
 10
-224.2251889351819
 20
698.2641429191863
 30
0.0
 11
-200.560006191102
 21
691.9230763141754
 31
0.0
  0
LINE
  5
40F
330
1F
100
AcDbEntity
  8
0
  6
Continuous
 62
     7
370
    13
100
AcDbLine
 10
-186.411646653115
 20
739.8958438222503
 30
0.0
 11
-212.4916439629169
 21
746.8839580400172
 31
0.0
  0
LINE
  5
410
330
1F
100
AcDbEntity
  8
0
  6
Continuous
 62
     7
370
    13
100
AcDbLine
 10
-258.3026977610989
 20
496.1352388238543
 30
0.0
 11
-173.508898152357
 21
783.6451246049542
 31
0.0
  0
LINE
  5
411
330
1F
100
AcDbEntity
  8
0
  6
Continuous
 62
     7
370
    13
100
AcDbLine
 10
236.4871856479131
 20
373.6490408046843
 30
0.0
 11
-51.02270013318707
 21
288.8552411959424
 31
0.0
  0
LINE
  5
412
330
1F
100
AcDbEntity
  8
0
  6
Continuous
 62
     7
370
    13
100
AcDbLine
 10
199.7260190829761
 20
334.6662949941244
 30
0.0
 11
192.7379048652092
 21
360.7462923039263
 31
0.0
  0
LINE
  5
413
330
1F
100
AcDbEntity
  8
0
  6
Continuous
 62
     7
370
    13
100
AcDbLine
 10
144.765137357133
 20
346.5979327659393
 30
0.0
 11
151.1062039621452
 21
322.9327500218583
 31
0.0
  0
LINE
  5
414
330
1F
100
AcDbEntity
  8
0
  6
Continuous
 62
     7
370
    13
100
AcDbLine
 10
96.79236984905901
 20
332.4495732279534
 30
0.0
 11
102.4863888413129
 21
311.1992050495965
 31
0.0
  0
LINE
  5
415
330
1F
100
AcDbEntity
  8
0
  6
Continuous
 62
     7
370
    13
100
AcDbLine
 10
48.81960234093503
 20
318.3012136899504
 30
0.0
 11
53.86657372043192
 21
299.4656600773183
 31
0.0
  0
LINE
  5
416
330
1F
100
AcDbEntity
  8
0
  6
Continuous
 62
     7
370
    13
100
AcDbLine
 10
0.8468348328599404
 20
304.1528541519663
 30
0.0
 11
5.24675859960098
 21
287.7321151050544
 31
0.0
  0
LINE
  5
417
330
1F
100
AcDbEntity
  8
0
  6
Continuous
 62
     7
370
    13
100
AcDbLine
 10
-47.21027625270108
 20
275.0725240304773
 30
0.0
 11
244.4217984582551
 21
345.4528423322163
 31
0.0
  0
LINE
  5
418
330
1F
100
AcDbEntity
  8
0
  6
Continuous
 62
     7
370
    13
100
AcDbLine
 10
-263.966087283829
 20
803.5466576750705
 30
0.0
 11
-303.4773142302211
 21
506.1530790909433
 31
0.0
  0
LINE
  5
419
330
1F
100
AcDbEntity
  8
0
  6
Continuous
 62
     7
370
    13
100
AcDbLine
 10
-287.0760201726171
 20
503.3314301281005
 30
0.0
 11
-287.061881653251
 21
503.4206972261675
 31
0.0
  0
LINE
  5
41A
330
1F
100
AcDbEntity
  8
0
  6
Continuous
 62
     7
370
    13
100
AcDbLine
 10
-289.3952953578989
 20
503.7902736498243
 30
0.0
 11
-287.061881653251
 21
503.4206972261675
 31
0.0
  0
LINE
  5
41B
330
1F
100
AcDbEntity
  8
0
  6
Continuous
 62
     7
370
    13
100
AcDbLine
 10
-289.3961148663129
 20
503.7858225443895
 30
0.0
 11
-235.074881826321
 21
798.8279863829594
 31
0.0
  0
LINE
  5
41C
330
1F
100
AcDbEntity
  8
0
  6
Continuous
 62
     7
370
    13
100
AcDbLine
 10
-269.9661421341841
 20
758.3853726036355
 30
0.0
 11
-243.2985569381131
 21
754.1616420475484
 31
0.0
  0
LINE
  5
41D
330
1F
100
AcDbEntity
  8
0
  6
Continuous
 62
     7
370
    13
100
AcDbLine
 10
-276.5532549604511
 20
708.8054124925793
 30
0.0
 11
-252.354890615868
 21
704.9727680990923
 31
0.0
  0
LINE
  5
41E
330
1F
100
AcDbEntity
  8
0
  6
Continuous
 62
     7
370
    13
100
AcDbLine
 10
-283.140367786719
 20
659.2254523815213
 30
0.0
 11
-261.4112242936219
 21
655.7838941506354
 31
0.0
  0
LINE
  5
41F
330
1F
100
AcDbEntity
  8
0
  6
Continuous
 62
     7
370
    13
100
AcDbLine
 10
-289.727480612986
 20
609.6454922704643
 30
0.0
 11
-270.4675579713769
 21
606.5950202021793
 31
0.0
  0
LINE
  5
420
330
1F
100
AcDbEntity
  8
0
  6
Continuous
 62
     7
370
    13
100
AcDbLine
 10
-296.314593439253
 20
560.0655321594063
 30
0.0
 11
-279.5238916491321
 21
557.4061462537213
 31
0.0
  0
LINE
  5
421
330
1F
100
AcDbEntity
  8
0
  6
Continuous
 62
     7
370
    13
100
AcDbLine
 10
59.437081245027
 20
276.6903809857754
 30
0.0
 11
62.48755331331199
 21
257.4304583441663
 31
0.0
  0
LINE
  5
422
330
1F
100
AcDbEntity
  8
0
  6
Continuous
 62
     7
370
    13
100
AcDbLine
 10
108.6259551934841
 20
285.7467146635304
 30
0.0
 11
112.0675134243702
 21
264.0175711704333
 31
0.0
  0
LINE
  5
423
330
1F
100
AcDbEntity
  8
0
  6
Continuous
 62
     7
370
    13
100
AcDbLine
 10
157.8148291419402
 20
294.8030483412854
 30
0.0
 11
161.6474735354268
 21
270.6046839967003
 31
0.0
  0
LINE
  5
424
330
1F
100
AcDbEntity
  8
0
  6
Continuous
 62
     7
370
    13
100
AcDbLine
 10
207.0037030903959
 20
303.8593820190395
 30
0.0
 11
211.2274336464839
 21
277.1917968229673
 31
0.0
  0
LINE
  5
425
330
1F
100
AcDbEntity
  8
0
  6
Continuous
 62
     7
370
    13
100
AcDbLine
 10
251.6700474258068
 20
312.0830571308304
 30
0.0
 11
-43.37211641276303
 21
257.7618240908384
 31
0.0
  0
LINE
  5
426
330
1F
100
AcDbEntity
  8
0
  6
Continuous
 62
     7
370
    13
100
AcDbLine
 10
-41.00485986620902
 20
243.6806247269303
 30
0.0
 11
256.388718717918
 21
283.1918516733233
 31
0.0
  0
LINE
  5
427
330
1F
100
AcDbEntity
  8
0
  6
Continuous
 62
     7
370
    13
100
AcDbLine
 10
166.5842651832172
 20
-328.3722767294736
 30
0.0
 11
167.1965738666449
 21
-303.8799293924747
 31
0.0
  0
LINE
  5
428
330
1F
100
AcDbEntity
  8
0
  6
Continuous
 62
     7
370
    13
100
AcDbLine
 10
116.6311231017621
 20
-325.8730576134476
 30
0.0
 11
117.180951307289
 21
-303.8799293924696
 31
0.0
  0
LINE
  5
429
330
1F
100
AcDbEntity
  8
0
  6
Continuous
 62
     7
370
    13
100
AcDbLine
 10
111.6358091596221
 20
-325.6231357151536
 30
0.0
 11
261.4952341389239
 21
-333.1207929999385
 31
0.0
  0
LINE
  5
42A
330
1F
100
AcDbEntity
  8
0
  6
Continuous
 62
     7
370
    13
100
AcDbLine
 10
112.1793893176919
 20
-303.8799293924676
 30
0.0
 11
-37.86747862671496
 21
-303.8799293924517
 31
0.0
  0
LINE
  5
42B
330
1F
100
AcDbEntity
  8
0
  6
Continuous
 62
     7
370
    13
100
AcDbLine
 10
67.16532874793302
 20
-303.8799293924646
 30
0.0
 11
66.67798102030702
 21
-323.3738384974226
 31
0.0
  0
LINE
  5
42C
330
1F
100
AcDbEntity
  8
0
  6
Continuous
 62
     7
370
    13
100
AcDbLine
 10
17.14970618857706
 20
-303.8799293924587
 30
0.0
 11
16.72483893885101
 21
-320.8746193813967
 31
0.0
  0
LINE
  5
42D
330
1F
100
AcDbEntity
  8
0
  6
Continuous
 62
     7
370
    13
100
AcDbLine
 10
262.2262557291142
 20
-303.8799293924847
 30
0.0
 11
112.1793893176919
 21
-303.8799293924676
 31
0.0
  0
LINE
  5
42E
330
1F
100
AcDbEntity
  8
0
  6
Continuous
 62
     7
370
    13
100
AcDbLine
 10
-38.22361735074992
 20
-318.1254783537677
 30
0.0
 11
111.6358091596221
 21
-325.6231357151536
 31
0.0
  0
LINE
  5
42F
330
1F
100
AcDbEntity
  8
0
  6
Continuous
 62
     7
370
    13
100
AcDbLine
 10
216.5374072646732
 20
-330.8714958455002
 30
0.0
 11
217.2121964260018
 21
-303.8799293924806
 31
0.0
  0
LINE
  5
430
330
1F
100
AcDbEntity
  8
0
  6
Continuous
 62
     7
370
    13
100
AcDbLine
 10
-349.9449150528999
 20
-383.2302157914372
 30
0.0
 11
-350.094868199862
 21
-389.2283416698859
 31
0.0
  0
LINE
  5
431
330
1F
100
AcDbEntity
  8
0
  6
Continuous
 62
     7
370
    13
100
AcDbLine
 10
-180.4422488776229
 20
-393.469657152962
 30
0.0
 11
-180.29229573066
 21
-387.4715312745133
 31
0.0
  0
LINE
  5
432
330
1F
100
AcDbEntity
  8
0
  6
Continuous
 62
     7
370
    13
100
AcDbLine
 10
299.6989233503168
 20
-405.4731864587169
 30
0.0
 11
299.848876497279
 21
-399.4750605802682
 31
0.0
  0
LINE
  5
433
330
1F
100
AcDbEntity
  8
0
  6
Continuous
 62
     7
370
    13
100
AcDbLine
 10
-350.094868199862
 20
-389.2283416698859
 30
0.0
 11
299.6989233503168
 21
-405.4731864587169
 31
0.0
  0
LINE
  5
434
330
1F
100
AcDbEntity
  8
0
  6
Continuous
 62
     7
370
    13
100
AcDbLine
 10
299.848876497279
 20
-399.4750605802682
 30
0.0
 11
-349.9449150528999
 21
-383.2302157914372
 31
0.0
  0
LINE
  5
435
330
1F
100
AcDbEntity
  8
0
  6
Continuous
 62
     7
370
    13
100
AcDbLine
 10
-177.2432484091009
 20
-265.5096384127207
 30
0.0
 11
-180.29229573066
 21
-387.4715312745133
 31
0.0
  0
LINE
  5
436
330
1F
100
AcDbEntity
  8
0
  6
Continuous
 62
     7
370
    13
100
AcDbLine
 10
-178.111803855679
 20
199.3405076167624
 30
0.0
 11
-37.81743134038811
 21
199.3405076167624
 31
0.0
  0
LINE
  5
437
330
1F
100
AcDbEntity
  8
0
  6
Continuous
 62
     7
370
    13
100
AcDbLine
 10
-347.8174313403881
 20
369.0461351014715
 30
0.0
 11
-178.111803855679
 21
199.3405076167624
 31
0.0
  0
LINE
  5
438
330
1F
100
AcDbEntity
  8
0
  6
Continuous
 62
     7
370
    13
100
AcDbLine
 10
-347.8174313403881
 20
509.3405076167624
 30
0.0
 11
-347.8174313403881
 21
369.0461351014715
 31
0.0
  0
LINE
  5
439
330
1F
100
AcDbEntity
  8
0
  6
Continuous
 62
     7
370
    13
100
AcDbLine
 10
-347.8174313402269
 20
844.3373270078555
 30
0.0
 11
-64.9747188657459
 21
835.7366106845693
 31
0.0
  0
LINE
  5
43A
330
1F
100
AcDbEntity
  8
0
  6
Continuous
 62
     7
370
    13
100
AcDbLine
 10
-64.9747188657459
 20
835.7366106845693
 30
0.0
 11
288.5786717275269
 21
482.1832200912963
 31
0.0
  0
LINE
  5
43B
330
1F
100
AcDbEntity
  8
0
  6
Continuous
 62
     7
370
    13
100
AcDbLine
 10
288.5786717275269
 20
482.1832200912963
 30
0.0
 11
297.1793880517662
 21
199.3405076167774
 31
0.0
  0
LINE
  5
43C
330
1F
100
AcDbEntity
  8
0
  6
Continuous
 62
     7
370
    13
100
AcDbLine
 10
297.1793880517662
 20
199.3405076167774
 30
0.0
 11
262.1793880516029
 21
199.3405076167335
 31
0.0
  0
LINE
  5
43D
330
1F
100
AcDbEntity
  8
0
  6
Continuous
 62
     7
370
    13
100
AcDbLine
 10
-347.8174313401651
 20
809.3373270087554
 30
0.0
 11
-347.8174313402269
 21
844.3373270078555
 31
0.0
  0
LINE
  5
43E
330
1F
100
AcDbEntity
  8
0
  6
Continuous
 62
     7
370
    13
100
AcDbLine
 10
299.848876497203
 20
-399.4750605802664
 30
0.0
 11
302.8579363129061
 21
-279.1126679527267
 31
0.0
  0
LINE
  5
43F
330
1F
100
AcDbEntity
  8
0
  6
Continuous
 62
     7
370
    13
100
AcDbLine
 10
262.8704294568952
 20
-278.1129802813216
 30
0.0
 11
259.8613696411931
 21
-398.4753729088613
 31
0.0
  0
LINE
  5
440
330
1F
100
AcDbEntity
  8
0
  6
Continuous
 62
     7
370
    13
100
AcDbLine
 10
264.509917197006
 20
-276.5534675529257
 30
0.0
 11
301.2984235845101
 21
-277.4731802126166
 31
0.0
  0
LINE
  5
441
330
1F
100
AcDbEntity
  8
0
  6
Continuous
 62
     7
370
    13
100
AcDbLine
 10
-349.9449150528999
 20
-383.2302157914372
 30
0.0
 11
-346.9358552371971
 21
-262.8678231638976
 31
0.0
  0
LINE
  5
442
330
1F
100
AcDbEntity
  8
0
  6
Continuous
 62
     7
370
    13
100
AcDbLine
 10
-345.296367497089
 20
-261.3083104355007
 30
0.0
 11
-38.595376194251
 21
-268.9758352181077
 31
0.0
  0
LINE
  5
443
330
1F
100
AcDbEntity
  8
0
  6
Continuous
 62
     7
370
    13
100
AcDbLine
 10
-37.03586346585598
 20
-270.6153229582176
 30
0.0
 11
-40.04492328155902
 21
-390.9777155857573
 31
0.0
  0
LINE
  5
444
330
1F
100
AcDbEntity
  8
0
  6
Continuous
 62
     7
370
    13
100
AcDbLine
 10
-40.04492328155902
 20
-390.9777155857573
 30
0.0
 11
-349.9449150528999
 21
-383.2302157914372
 31
0.0
  0
LINE
  5
445
330
1F
100
AcDbEntity
  8
0
  6
Continuous
 62
     7
370
    13
100
AcDbLine
 10
259.8613696411931
 20
-398.4753729088613
 30
0.0
 11
299.848876497203
 21
-399.4750605802664
 31
0.0
  0
ARC
  5
446
330
1F
100
AcDbEntity
  8
0
  6
Continuous
 62
     7
370
    13
100
AcDbCircle
 10
-259.2683867024659
 20
-934.6780427263018
 30
0.0
 40
5.79836107700975
100
AcDbArc
 50
52.6507685873545
 51
119.9999999999894
  0
ARC
  5
447
330
1F
100
AcDbEntity
  8
0
  6
Continuous
 62
     7
370
    13
100
AcDbCircle
 10
-238.3765772460299
 20
-934.6780427263018
 30
0.0
 40
5.798361077010821
100
AcDbArc
 50
59.99999999999309
 51
127.3492314126402
  0
ARC
  5
448
330
1F
100
AcDbEntity
  8
0
  6
Continuous
 62
     7
370
    13
100
AcDbCircle
 10
-248.822481974247
 20
-949.6645390832978
 30
0.0
 40
20.78460969082676
100
AcDbArc
 50
70.52877936551131
 51
109.4712206344917
  0
ARC
  5
449
330
1F
100
AcDbEntity
  8
0
  6
Continuous
 62
     7
370
    13
100
AcDbCircle
 10
-259.2683867024659
 20
-933.0818160586398
 30
0.0
 40
5.798361077009846
100
AcDbArc
 50
240.0000000000109
 51
307.3492314126448
  0
ARC
  5
44A
330
1F
100
AcDbEntity
  8
0
  6
Continuous
 62
     7
370
    13
100
AcDbCircle
 10
-238.3765772460299
 20
-933.081816058642
 30
0.0
 40
5.798361077007753
100
AcDbArc
 50
232.6507685873479
 51
300.000000000017
  0
ARC
  5
44B
330
1F
100
AcDbEntity
  8
0
  6
Continuous
 62
     7
370
    13
100
AcDbCircle
 10
-248.822481974247
 20
-918.0953197016438
 30
0.0
 40
20.78460969082725
100
AcDbArc
 50
250.5287793655085
 51
289.4712206344886
  0
ARC
  5
44C
330
1F
100
AcDbEntity
  8
0
  6
Continuous
 62
     7
370
    13
100
AcDbCircle
 10
-248.8224819742461
 20
-948.1984248944628
 30
0.0
 40
27.681504498008
100
AcDbArc
 50
270.0
 51
284.4942448420921
  0
ARC
  5
44D
330
1F
100
AcDbEntity
  8
0
  6
Continuous
 62
     7
370
    13
100
AcDbCircle
 10
-238.4301771288319
 20
-968.6291688226577
 30
0.0
 40
7.250760569813713
100
AcDbArc
 50
241.4609896847329
 51
298.5390103152449
  0
ARC
  5
44E
330
1F
100
AcDbEntity
  8
0
  6
Continuous
 62
     7
370
    13
100
AcDbCircle
 10
-238.4301771288319
 20
-985.1306899622837
 30
0.0
 40
7.250760569812691
100
AcDbArc
 50
61.46098968475719
 51
118.5390103152681
  0
ARC
  5
44F
330
1F
100
AcDbEntity
  8
0
  6
Continuous
 62
     7
370
    13
100
AcDbCircle
 10
-248.8224819742461
 20
-1005.561433890478
 30
0.0
 40
27.68150449800685
100
AcDbArc
 50
75.50575515790727
 51
90.0
  0
ARC
  5
450
330
1F
100
AcDbEntity
  8
0
  6
Continuous
 62
     7
370
    13
100
AcDbCircle
 10
-248.8224819742461
 20
-960.1984248944628
 30
0.0
 40
27.681504498008
100
AcDbArc
 50
270.0
 51
284.4942448420921
  0
ARC
  5
451
330
1F
100
AcDbEntity
  8
0
  6
Continuous
 62
     7
370
    13
100
AcDbCircle
 10
-238.4301771288319
 20
-980.6291688226577
 30
0.0
 40
7.250760569813713
100
AcDbArc
 50
241.4609896847329
 51
298.5390103152449
  0
ARC
  5
452
330
1F
100
AcDbEntity
  8
0
  6
Continuous
 62
     7
370
    13
100
AcDbCircle
 10
-236.3732755523381
 20
-993.079929392471
 30
0.0
 40
5.199999999999345
100
AcDbArc
 50
34.56541597135367
 51
90.0
  0
ARC
  5
453
330
1F
100
AcDbEntity
  8
0
  6
Continuous
 62
     7
370
    13
100
AcDbCircle
 10
-223.771688396153
 20
-998.6799293924709
 30
0.0
 40
1.999999999999135
100
AcDbArc
 50
214.5654159713326
 51
270.0
  0
ARC
  5
454
330
1F
100
AcDbEntity
  8
0
  6
Continuous
 62
     7
370
    13
100
AcDbCircle
 10
-273.8732755523381
 20
-998.6799293924709
 30
0.0
 40
2.0
100
AcDbArc
 50
270.0
 51
325.4345840286711
  0
ARC
  5
455
330
1F
100
AcDbEntity
  8
0
  6
Continuous
 62
     7
370
    13
100
AcDbCircle
 10
-261.271688396153
 20
-993.079929392471
 30
0.0
 40
5.200000000000102
100
AcDbArc
 50
90.0
 51
145.4345840286463
  0
ARC
  5
456
330
1F
100
AcDbEntity
  8
0
  6
Continuous
 62
     7
370
    13
100
AcDbCircle
 10
-259.2147868196589
 20
-980.6291688226577
 30
0.0
 40
7.250760569813713
100
AcDbArc
 50
241.4609896847329
 51
298.5390103152734
  0
ARC
  5
457
330
1F
100
AcDbEntity
  8
0
  6
Continuous
 62
     7
370
    13
100
AcDbCircle
 10
-248.8224819742461
 20
-960.1984248944628
 30
0.0
 40
27.68150449800738
100
AcDbArc
 50
255.5057551579124
 51
270.0
  0
ARC
  5
458
330
1F
100
AcDbEntity
  8
0
  6
Continuous
 62
     7
370
    13
100
AcDbCircle
 10
-248.8224819742461
 20
-1005.561433890478
 30
0.0
 40
27.68150449800692
100
AcDbArc
 50
90.0
 51
104.4942448420882
  0
ARC
  5
459
330
1F
100
AcDbEntity
  8
0
  6
Continuous
 62
     7
370
    13
100
AcDbCircle
 10
-259.2147868196589
 20
-985.1306899622837
 30
0.0
 40
7.250760569813898
100
AcDbArc
 50
61.46098968472556
 51
118.5390103152649
  0
ARC
  5
45A
330
1F
100
AcDbEntity
  8
0
  6
Continuous
 62
     7
370
    13
100
AcDbCircle
 10
-259.2147868196589
 20
-968.6291688226577
 30
0.0
 40
7.250760569813713
100
AcDbArc
 50
241.4609896847329
 51
298.5390103152734
  0
ARC
  5
45B
330
1F
100
AcDbEntity
  8
0
  6
Continuous
 62
     7
370
    13
100
AcDbCircle
 10
-248.8224819742461
 20
-948.1984248944628
 30
0.0
 40
27.68150449800738
100
AcDbArc
 50
255.5057551579124
 51
270.0
  0
ARC
  5
45C
330
1F
100
AcDbEntity
  8
0
  6
Continuous
 62
     7
370
    13
100
AcDbCircle
 10
256.7588665741332
 20
-948.1984248944628
 30
0.0
 40
27.681504498008
100
AcDbArc
 50
270.0
 51
284.4942448420853
  0
ARC
  5
45D
330
1F
100
AcDbEntity
  8
0
  6
Continuous
 62
     7
370
    13
100
AcDbCircle
 10
267.1511714195449
 20
-968.6291688226577
 30
0.0
 40
7.250760569814147
100
AcDbArc
 50
241.4609896847266
 51
298.5390103152607
  0
ARC
  5
45E
330
1F
100
AcDbEntity
  8
0
  6
Continuous
 62
     7
370
    13
100
AcDbCircle
 10
267.1511714195449
 20
-985.1306899622837
 30
0.0
 40
7.250760569813777
100
AcDbArc
 50
61.4609896847414
 51
118.5390103152745
  0
ARC
  5
45F
330
1F
100
AcDbEntity
  8
0
  6
Continuous
 62
     7
370
    13
100
AcDbCircle
 10
256.7588665741332
 20
-1005.561433890478
 30
0.0
 40
27.681504498006
100
AcDbArc
 50
75.50575515791411
 51
90.0
  0
ARC
  5
460
330
1F
100
AcDbEntity
  8
0
  6
Continuous
 62
     7
370
    13
100
AcDbCircle
 10
256.7588665741332
 20
-960.1984248944628
 30
0.0
 40
27.681504498008
100
AcDbArc
 50
270.0
 51
284.4942448420853
  0
ARC
  5
461
330
1F
100
AcDbEntity
  8
0
  6
Continuous
 62
     7
370
    13
100
AcDbCircle
 10
267.1511714195449
 20
-980.6291688226577
 30
0.0
 40
7.250760569814147
100
AcDbArc
 50
241.4609896847266
 51
298.5390103152607
  0
ARC
  5
462
330
1F
100
AcDbEntity
  8
0
  6
Continuous
 62
     7
370
    13
100
AcDbCircle
 10
269.2080729960389
 20
-993.079929392471
 30
0.0
 40
5.199999999999532
100
AcDbArc
 50
34.56541597135225
 51
90.0
  0
ARC
  5
463
330
1F
100
AcDbEntity
  8
0
  6
Continuous
 62
     7
370
    13
100
AcDbCircle
 10
281.8096601522238
 20
-998.6799293924709
 30
0.0
 40
1.999999999999135
100
AcDbArc
 50
214.5654159713326
 51
270.0
  0
ARC
  5
464
330
1F
100
AcDbEntity
  8
0
  6
Continuous
 62
     7
370
    13
100
AcDbCircle
 10
231.7080729960389
 20
-998.6799293924709
 30
0.0
 40
2.0
100
AcDbArc
 50
270.0
 51
325.4345840286821
  0
ARC
  5
465
330
1F
100
AcDbEntity
  8
0
  6
Continuous
 62
     7
370
    13
100
AcDbCircle
 10
244.3096601522238
 20
-993.079929392471
 30
0.0
 40
5.200000000000102
100
AcDbArc
 50
90.0
 51
145.4345840286335
  0
ARC
  5
466
330
1F
100
AcDbEntity
  8
0
  6
Continuous
 62
     7
370
    13
100
AcDbCircle
 10
246.3665617287179
 20
-980.6291688226577
 30
0.0
 40
7.250760569812192
100
AcDbArc
 50
241.4609896847551
 51
298.5390103152607
  0
ARC
  5
467
330
1F
100
AcDbEntity
  8
0
  6
Continuous
 62
     7
370
    13
100
AcDbCircle
 10
256.7588665741332
 20
-960.1984248944628
 30
0.0
 40
27.68150449800847
100
AcDbArc
 50
255.5057551579038
 51
270.0
  0
ARC
  5
468
330
1F
100
AcDbEntity
  8
0
  6
Continuous
 62
     7
370
    13
100
AcDbCircle
 10
256.7588665741332
 20
-1005.561433890478
 30
0.0
 40
27.68150449800692
100
AcDbArc
 50
90.0
 51
104.4942448420968
  0
ARC
  5
469
330
1F
100
AcDbEntity
  8
0
  6
Continuous
 62
     7
370
    13
100
AcDbCircle
 10
246.3665617287179
 20
-985.1306899622837
 30
0.0
 40
7.250760569813028
100
AcDbArc
 50
61.46098968473818
 51
118.5390103152428
  0
ARC
  5
46A
330
1F
100
AcDbEntity
  8
0
  6
Continuous
 62
     7
370
    13
100
AcDbCircle
 10
246.3665617287179
 20
-968.6291688226577
 30
0.0
 40
7.250760569812192
100
AcDbArc
 50
241.4609896847551
 51
298.5390103152607
  0
ARC
  5
46B
330
1F
100
AcDbEntity
  8
0
  6
Continuous
 62
     7
370
    13
100
AcDbCircle
 10
256.7588665741332
 20
-948.1984248944628
 30
0.0
 40
27.68150449800847
100
AcDbArc
 50
255.5057551579038
 51
270.0
  0
ARC
  5
46C
330
1F
100
AcDbEntity
  8
0
  6
Continuous
 62
     7
370
    13
100
AcDbCircle
 10
256.7588665741332
 20
-918.0953197016438
 30
0.0
 40
20.78460969082656
100
AcDbArc
 50
250.5287793655137
 51
289.4712206344909
  0
ARC
  5
46D
330
1F
100
AcDbEntity
  8
0
  6
Continuous
 62
     7
370
    13
100
AcDbCircle
 10
246.3129618459152
 20
-933.081816058642
 30
0.0
 40
5.798361077008707
100
AcDbArc
 50
239.9999999999888
 51
307.3492314126664
  0
ARC
  5
46E
330
1F
100
AcDbEntity
  8
0
  6
Continuous
 62
     7
370
    13
100
AcDbCircle
 10
267.2047713023512
 20
-933.0818160586398
 30
0.0
 40
5.798361077009426
100
AcDbArc
 50
232.6507685873605
 51
299.9999999999891
  0
ARC
  5
46F
330
1F
100
AcDbEntity
  8
0
  6
Continuous
 62
     7
370
    13
100
AcDbCircle
 10
256.7588665741332
 20
-949.6645390832978
 30
0.0
 40
20.78460969082706
100
AcDbArc
 50
70.52877936550894
 51
109.4712206344863
  0
ARC
  5
470
330
1F
100
AcDbEntity
  8
0
  6
Continuous
 62
     7
370
    13
100
AcDbCircle
 10
246.3129618459152
 20
-934.6780427263018
 30
0.0
 40
5.798361077010439
100
AcDbArc
 50
52.65076858734557
 51
120.0000000000011
  0
ARC
  5
471
330
1F
100
AcDbEntity
  8
0
  6
Continuous
 62
     7
370
    13
100
AcDbCircle
 10
267.2047713023512
 20
-934.6780427263018
 30
0.0
 40
5.798361077009798
100
AcDbArc
 50
60.00000000001061
 51
127.3492314126402
  0
ARC
  5
472
330
1F
100
AcDbEntity
  8
0
  6
Continuous
 62
     7
370
    13
100
AcDbCircle
 10
-68.51025277167696
 20
-948.1984248944628
 30
0.0
 40
27.68150449800744
100
AcDbArc
 50
255.505755157912
 51
270.0
  0
ARC
  5
473
330
1F
100
AcDbEntity
  8
0
  6
Continuous
 62
     7
370
    13
100
AcDbCircle
 10
-78.90255761709
 20
-968.6291688226577
 30
0.0
 40
7.250760569813713
100
AcDbArc
 50
241.4609896847329
 51
298.5390103152734
  0
ARC
  5
474
330
1F
100
AcDbEntity
  8
0
  6
Continuous
 62
     7
370
    13
100
AcDbCircle
 10
-78.90255761709
 20
-985.1306899622837
 30
0.0
 40
7.250760569813898
100
AcDbArc
 50
61.46098968472556
 51
118.5390103152649
  0
ARC
  5
475
330
1F
100
AcDbEntity
  8
0
  6
Continuous
 62
     7
370
    13
100
AcDbCircle
 10
-68.51025277167696
 20
-1005.561433890478
 30
0.0
 40
27.68150449800692
100
AcDbArc
 50
90.0
 51
104.4942448420886
  0
ARC
  5
476
330
1F
100
AcDbEntity
  8
0
  6
Continuous
 62
     7
370
    13
100
AcDbCircle
 10
-68.51025277167696
 20
-960.1984248944628
 30
0.0
 40
27.68150449800744
100
AcDbArc
 50
255.505755157912
 51
270.0
  0
ARC
  5
477
330
1F
100
AcDbEntity
  8
0
  6
Continuous
 62
     7
370
    13
100
AcDbCircle
 10
-78.90255761709
 20
-980.6291688226577
 30
0.0
 40
7.250760569813713
100
AcDbArc
 50
241.4609896847329
 51
298.5390103152734
  0
ARC
  5
478
330
1F
100
AcDbEntity
  8
0
  6
Continuous
 62
     7
370
    13
100
AcDbCircle
 10
-80.95945919358405
 20
-993.079929392471
 30
0.0
 40
5.200000000000102
100
AcDbArc
 50
90.0
 51
145.4345840286463
  0
ARC
  5
479
330
1F
100
AcDbEntity
  8
0
  6
Continuous
 62
     7
370
    13
100
AcDbCircle
 10
-93.56104634976896
 20
-998.6799293924709
 30
0.0
 40
2.0
100
AcDbArc
 50
270.0
 51
325.4345840286674
  0
ARC
  5
47A
330
1F
100
AcDbEntity
  8
0
  6
Continuous
 62
     7
370
    13
100
AcDbCircle
 10
-43.45945919358405
 20
-998.6799293924709
 30
0.0
 40
1.999999999999135
100
AcDbArc
 50
214.5654159713326
 51
270.0
  0
ARC
  5
47B
330
1F
100
AcDbEntity
  8
0
  6
Continuous
 62
     7
370
    13
100
AcDbCircle
 10
-56.06104634976896
 20
-993.079929392471
 30
0.0
 40
5.199999999999345
100
AcDbArc
 50
34.56541597135367
 51
90.0
  0
ARC
  5
47C
330
1F
100
AcDbEntity
  8
0
  6
Continuous
 62
     7
370
    13
100
AcDbCircle
 10
-58.11794792626301
 20
-980.6291688226577
 30
0.0
 40
7.250760569813713
100
AcDbArc
 50
241.4609896847329
 51
298.5390103152466
  0
ARC
  5
47D
330
1F
100
AcDbEntity
  8
0
  6
Continuous
 62
     7
370
    13
100
AcDbCircle
 10
-68.51025277167696
 20
-960.1984248944628
 30
0.0
 40
27.681504498008
100
AcDbArc
 50
270.0
 51
284.4942448420917
  0
ARC
  5
47E
330
1F
100
AcDbEntity
  8
0
  6
Continuous
 62
     7
370
    13
100
AcDbCircle
 10
-68.51025277167696
 20
-1005.561433890478
 30
0.0
 40
27.6815044980068
100
AcDbArc
 50
75.50575515790773
 51
90.0
  0
ARC
  5
47F
330
1F
100
AcDbEntity
  8
0
  6
Continuous
 62
     7
370
    13
100
AcDbCircle
 10
-58.11794792626301
 20
-985.1306899622837
 30
0.0
 40
7.250760569812799
100
AcDbArc
 50
61.46098968475561
 51
118.5390103152681
  0
ARC
  5
480
330
1F
100
AcDbEntity
  8
0
  6
Continuous
 62
     7
370
    13
100
AcDbCircle
 10
-58.11794792626301
 20
-968.6291688226577
 30
0.0
 40
7.250760569813713
100
AcDbArc
 50
241.4609896847329
 51
298.5390103152466
  0
ARC
  5
481
330
1F
100
AcDbEntity
  8
0
  6
Continuous
 62
     7
370
    13
100
AcDbCircle
 10
-68.51025277167696
 20
-948.1984248944628
 30
0.0
 40
27.681504498008
100
AcDbArc
 50
270.0
 51
284.4942448420917
  0
ARC
  5
482
330
1F
100
AcDbEntity
  8
0
  6
Continuous
 62
     7
370
    13
100
AcDbCircle
 10
-68.5102527716781
 20
-918.0953197016438
 30
0.0
 40
20.78460969082717
100
AcDbArc
 50
250.5287793655091
 51
289.4712206344892
  0
ARC
  5
483
330
1F
100
AcDbEntity
  8
0
  6
Continuous
 62
     7
370
    13
100
AcDbCircle
 10
-58.06434804346009
 20
-933.081816058642
 30
0.0
 40
5.798361077008168
100
AcDbArc
 50
232.6507685873426
 51
300.0000000000093
  0
ARC
  5
484
330
1F
100
AcDbEntity
  8
0
  6
Continuous
 62
     7
370
    13
100
AcDbCircle
 10
-78.95615749989702
 20
-933.0818160586398
 30
0.0
 40
5.798361077009392
100
AcDbArc
 50
240.0000000000186
 51
307.3492314126466
  0
ARC
  5
485
330
1F
100
AcDbEntity
  8
0
  6
Continuous
 62
     7
370
    13
100
AcDbCircle
 10
-68.5102527716781
 20
-949.6645390832978
 30
0.0
 40
20.78460969082683
100
AcDbArc
 50
70.52877936551072
 51
109.4712206344911
  0
ARC
  5
486
330
1F
100
AcDbEntity
  8
0
  6
Continuous
 62
     7
370
    13
100
AcDbCircle
 10
-58.06434804346009
 20
-934.6780427263018
 30
0.0
 40
5.798361077010365
100
AcDbArc
 50
60.00000000000087
 51
127.3492314126455
  0
ARC
  5
487
330
1F
100
AcDbEntity
  8
0
  6
Continuous
 62
     7
370
    13
100
AcDbCircle
 10
-78.95615749989702
 20
-934.6780427263018
 30
0.0
 40
5.798361077009886
100
AcDbArc
 50
52.65076858735272
 51
119.9999999999816
  0
ARC
  5
488
330
1F
100
AcDbEntity
  8
0
  6
Continuous
 62
     7
370
    13
100
AcDbCircle
 10
-344.2818974344279
 20
202.8760415226043
 30
0.0
 40
580.0000000000013
100
AcDbArc
 50
40.38134291550828
 51
40.94026547343219
  0
ARC
  5
489
330
1F
100
AcDbEntity
  8
0
  6
Continuous
 62
     7
370
    13
100
AcDbCircle
 10
-344.2818974344279
 20
202.8760415226043
 30
0.0
 40
580.0000000000007
100
AcDbArc
 50
28.3831228190307
 51
31.61515396848066
  0
ARC
  5
48A
330
1F
100
AcDbEntity
  8
0
  6
Continuous
 62
     7
370
    13
100
AcDbCircle
 10
-344.2818974346139
 20
202.8760415224265
 30
0.0
 40
309.9999999999998
100
AcDbArc
 50
28.3404685698978
 51
31.65630735230198
  0
ARC
  5
48B
330
1F
100
AcDbEntity
  8
0
  6
Continuous
 62
     7
370
    13
100
AcDbCircle
 10
-344.2818974344279
 20
202.8760415226043
 30
0.0
 40
580.0000000000007
100
AcDbArc
 50
22.38271869272626
 51
25.6168771809853
  0
ARC
  5
48C
330
1F
100
AcDbEntity
  8
0
  6
Continuous
 62
     7
370
    13
100
AcDbCircle
 10
-344.2818974344279
 20
202.8760415226043
 30
0.0
 40
580.0000000000013
100
AcDbArc
 50
34.38484603156662
 51
37.61794026068089
  0
ARC
  5
48D
330
1F
100
AcDbEntity
  8
0
  6
Continuous
 62
     7
370
    13
100
AcDbCircle
 10
-344.2818974346139
 20
202.8760415224265
 30
0.0
 40
309.9999999999997
100
AcDbArc
 50
34.34369264780396
 51
37.66152041982291
  0
ARC
  5
48E
330
1F
100
AcDbEntity
  8
0
  6
Continuous
 62
     7
370
    13
100
AcDbCircle
 10
-344.2818974344279
 20
202.8760415226043
 30
0.0
 40
580.0
100
AcDbArc
 50
16.3837528457202
 51
19.61728130726073
  0
ARC
  5
48F
330
1F
100
AcDbEntity
  8
0
  6
Continuous
 62
     7
370
    13
100
AcDbCircle
 10
-344.2818974346139
 20
202.8760415224265
 30
0.0
 40
309.9999999999994
100
AcDbArc
 50
16.34164733058426
 51
19.66028753808397
  0
ARC
  5
490
330
1F
100
AcDbEntity
  8
0
  6
Continuous
 62
     7
370
    13
100
AcDbCircle
 10
-344.2818974346139
 20
202.8760415224265
 30
0.0
 40
309.9999999999988
100
AcDbArc
 50
10.90151654727854
 51
13.65835266948958
  0
ARC
  5
491
330
1F
100
AcDbEntity
  8
0
  6
Continuous
 62
     7
370
    13
100
AcDbCircle
 10
-344.2818974344279
 20
202.8760415226043
 30
0.0
 40
580.0000000000007
100
AcDbArc
 50
10.38198880726587
 51
13.6162471542946
  0
ARC
  5
492
330
1F
100
AcDbEntity
  8
0
  6
Continuous
 62
     7
370
    13
100
AcDbCircle
 10
-344.2818974344279
 20
202.8760415226043
 30
0.0
 40
580.0000000000001
100
AcDbArc
 50
6.245376893568853
 51
7.618011192772121
  0
ARC
  5
493
330
1F
100
AcDbEntity
  8
0
  6
Continuous
 62
     7
370
    13
100
AcDbCircle
 10
-344.2818974346139
 20
202.8760415224265
 30
0.0
 40
309.9999999999997
100
AcDbArc
 50
22.3397124619283
 51
25.65953143015518
  0
ARC
  5
494
330
1F
100
AcDbEntity
  8
0
  6
Continuous
 62
     7
370
    13
100
AcDbCircle
 10
-344.2818974346151
 20
202.8760415224274
 30
0.0
 40
309.9999999999995
100
AcDbArc
 50
64.34046856984482
 51
67.66028753807169
  0
ARC
  5
495
330
1F
100
AcDbEntity
  8
0
  6
Continuous
 62
     7
370
    13
100
AcDbCircle
 10
-344.2818974344359
 20
202.8760415226125
 30
0.0
 40
580.0000000000017
100
AcDbArc
 50
82.38198880722793
 51
83.75462310643115
  0
ARC
  5
496
330
1F
100
AcDbEntity
  8
0
  6
Continuous
 62
     7
370
    13
100
AcDbCircle
 10
-344.2818974344359
 20
202.8760415226125
 30
0.0
 40
580.0000000000011
100
AcDbArc
 50
76.38375284570553
 51
79.61801119273427
  0
ARC
  5
497
330
1F
100
AcDbEntity
  8
0
  6
Continuous
 62
     7
370
    13
100
AcDbCircle
 10
-344.2818974346151
 20
202.8760415224274
 30
0.0
 40
309.9999999999998
100
AcDbArc
 50
76.34164733051038
 51
79.09848345272158
  0
ARC
  5
498
330
1F
100
AcDbEntity
  8
0
  6
Continuous
 62
     7
370
    13
100
AcDbCircle
 10
-344.2818974346151
 20
202.8760415224274
 30
0.0
 40
309.9999999999996
100
AcDbArc
 50
70.339712461916
 51
73.65835266941555
  0
ARC
  5
499
330
1F
100
AcDbEntity
  8
0
  6
Continuous
 62
     7
370
    13
100
AcDbCircle
 10
-344.2818974344359
 20
202.8760415226125
 30
0.0
 40
580.0000000000007
100
AcDbArc
 50
70.3827186927394
 51
73.61624715427995
  0
ARC
  5
49A
330
1F
100
AcDbEntity
  8
0
  6
Continuous
 62
     7
370
    13
100
AcDbCircle
 10
-344.2818974346151
 20
202.8760415224274
 30
0.0
 40
309.9999999999994
100
AcDbArc
 50
52.33847958017707
 51
55.65630735219575
  0
ARC
  5
49B
330
1F
100
AcDbEntity
  8
0
  6
Continuous
 62
     7
370
    13
100
AcDbCircle
 10
-344.2818974344359
 20
202.8760415226125
 30
0.0
 40
580.0000000000008
100
AcDbArc
 50
52.38205973931925
 51
55.61515396843354
  0
ARC
  5
49C
330
1F
100
AcDbEntity
  8
0
  6
Continuous
 62
     7
370
    13
100
AcDbCircle
 10
-344.2818974344359
 20
202.8760415226125
 30
0.0
 40
580.0000000000016
100
AcDbArc
 50
64.38312281901477
 51
67.61728130727386
  0
ARC
  5
49D
330
1F
100
AcDbEntity
  8
0
  6
Continuous
 62
     7
370
    13
100
AcDbCircle
 10
-344.2818974346151
 20
202.8760415224274
 30
0.0
 40
309.9999999999994
100
AcDbArc
 50
58.34369264769816
 51
61.65953143010217
  0
ARC
  5
49E
330
1F
100
AcDbEntity
  8
0
  6
Continuous
 62
     7
370
    13
100
AcDbCircle
 10
-344.2818974344359
 20
202.8760415226125
 30
0.0
 40
580.0000000000005
100
AcDbArc
 50
58.38484603151947
 51
61.61687718096946
  0
ARC
  5
49F
330
1F
100
AcDbEntity
  8
0
  6
Continuous
 62
     7
370
    13
100
AcDbCircle
 10
-344.2818974344359
 20
202.8760415226125
 30
0.0
 40
580.0000000000003
100
AcDbArc
 50
49.05973452656804
 51
49.61865708449189
  0
ARC
  5
4A0
330
1F
100
AcDbEntity
  8
0
  6
Continuous
 62
     7
370
    13
100
AcDbCircle
 10
-347.8174313403881
 20
199.3405076167624
 30
0.0
 40
310.0
100
AcDbArc
 50
0.0
 51
90.0
  0
ARC
  5
4A1
330
1F
100
AcDbEntity
  8
0
  6
Continuous
 62
     7
370
    13
100
AcDbCircle
 10
-347.8174313402251
 20
199.3405076168165
 30
0.0
 40
609.996819391828
100
AcDbArc
 50
359.9999999999922
 51
90.0000000000001
  0
ARC
  5
4A2
330
1F
100
AcDbEntity
  8
0
  6
Continuous
 62
     7
370
    13
100
AcDbCircle
 10
217.3648949607141
 20
264.3405076168283
 30
0.0
 40
15.0
100
AcDbArc
 50
269.9999999999913
 51
6.245376893567224
  0
ARC
  5
4A3
330
1F
100
AcDbEntity
  8
0
  6
Continuous
 62
     7
370
    13
100
AcDbCircle
 10
82.51523433324292
 20
573.1046307953534
 30
0.0
 40
15.00000000000032
100
AcDbArc
 50
40.9402654734313
 51
135.0
  0
ARC
  5
4A4
330
1F
100
AcDbEntity
  8
0
  6
Continuous
 62
     7
370
    13
100
AcDbCircle
 10
-25.14694258365193
 20
264.3405076168604
 30
0.0
 40
15.0000000000002
100
AcDbArc
 50
190.9015165472795
 51
202.6322259137027
  0
ARC
  5
4A5
330
1F
100
AcDbEntity
  8
0
  6
Continuous
 62
     7
370
    13
100
AcDbCircle
 10
-282.817431340181
 20
522.0109963733894
 30
0.0
 40
15.00000000000046
100
AcDbArc
 50
247.3677740862973
 51
259.0984834527171
  0
ARC
  5
4A6
330
1F
100
AcDbEntity
  8
0
  6
Continuous
 62
     7
370
    13
100
AcDbCircle
 10
25.94669183831206
 20
629.6731732902845
 30
0.0
 40
14.9999999999998
100
AcDbArc
 50
314.9999999999994
 51
49.05973452657133
  0
ARC
  5
4A7
330
1F
100
AcDbEntity
  8
0
  6
Continuous
 62
     7
370
    13
100
AcDbCircle
 10
-282.817431340213
 20
764.5228339177552
 30
0.0
 40
14.9999999999995
100
AcDbArc
 50
83.7546231064281
 51
180.000000000007
  0
ARC
  5
4A8
330
1F
100
AcDbEntity
  8
0
  6
Continuous
 62
     7
370
    13
100
AcDbCircle
 10
-38.63536370011002
 20
-270.5753354523606
 30
0.0
 40
1.600000000001057
100
AcDbArc
 50
358.5679038158132
 51
88.5679038157389
  0
ARC
  5
4A9
330
1F
100
AcDbEntity
  8
0
  6
Continuous
 62
     7
370
    13
100
AcDbCircle
 10
-345.3363550029451
 20
-262.9078106697536
 30
0.0
 40
1.599999999999898
100
AcDbArc
 50
88.56790381584472
 51
178.5679038158439
  0
ARC
  5
4AA
330
1F
100
AcDbEntity
  8
0
  6
Continuous
 62
     7
370
    13
100
AcDbCircle
 10
301.2584360786532
 20
-279.0726804468695
 30
0.0
 40
1.599999999999926
100
AcDbArc
 50
358.567903815804
 51
88.56790381581219
  0
ARC
  5
4AB
330
1F
100
AcDbEntity
  8
0
  6
Continuous
 62
     7
370
    13
100
AcDbCircle
 10
264.469929691149
 20
-278.1529677871777
 30
0.0
 40
1.599999999999011
100
AcDbArc
 50
88.56790381581135
 51
178.5679038158455
  0
LINE
  5
4AC
330
1F
100
AcDbEntity
  8
0
  6
Continuous
 62
     7
370
    13
100
AcDbLine
 10
-41.28644221620198
 20
-397.3316873336985
 30
0.0
 11
-41.28644221620198
 21
-462.4780953522327
 31
0.0
  0
LINE
  5
4AD
330
1F
100
AcDbEntity
  8
0
  6
Continuous
 62
     7
370
    13
100
AcDbLine
 10
-41.28644221620198
 20
-568.4780953522327
 30
0.0
 11
-41.28644221620198
 21
-803.8799293924708
 31
0.0
  0
ARC
  5
4AE
330
1F
100
AcDbEntity
  8
0
  6
DASHED2
 62
     7
370
    13
100
AcDbCircle
 10
-87.93513475114196
 20
402.6542617109744
 30
0.0
 40
15.00000000000044
100
AcDbArc
 50
135.0000000000031
 51
154.6517833020457
  0
ARC
  5
4AF
330
1F
100
AcDbEntity
  8
0
  6
DASHED2
 62
     7
370
    13
100
AcDbCircle
 10
-144.5036772460669
 20
459.2228042058994
 30
0.0
 40
15.00000000000073
100
AcDbArc
 50
295.3482166979583
 51
315.0
  0
LINE
  5
4B0
330
1F
100
AcDbEntity
  8
0
  6
DASHED2
 62
     4
370
    13
100
AcDbLine
 10
-66.74248581986103
 20
777.4003012372364
 30
0.0
 11
-41.99374847838794
 21
802.1490385788202
 31
0.0
  0
LINE
  5
4B1
330
1F
100
AcDbEntity
  8
0
  6
DASHED2
 62
     4
370
    13
100
AcDbLine
 10
-222.3059776798809
 20
300.1032239360204
 30
0.0
 11
-247.0547150214661
 21
324.8519612774933
 31
0.0
  0
LINE
  5
4B2
330
1F
100
AcDbEntity
  8
0
  6
DASHED2
 62
     4
370
    13
100
AcDbLine
 10
254.9910996206322
 20
505.1641904811404
 30
0.0
 11
230.242362279158
 21
480.4154531395554
 31
0.0
  0
LINE
  5
4B3
330
1F
100
AcDbEntity
  8
0
  6
DASHED2
 62
     4
370
    13
100
AcDbLine
 10
-66.74248581998108
 20
830.4333098262273
 30
0.0
 11
-41.9937484783959
 21
805.6845724847544
 31
0.0
  0
LINE
  5
4B4
330
1F
100
AcDbEntity
  8
0
  6
DASHED2
 62
     4
370
    13
100
AcDbLine
 10
-95.02675706738705
 20
805.6845724846344
 30
0.0
 11
-70.27801972591396
 21
830.4333098262196
 31
0.0
  0
LINE
  5
4B5
330
1F
100
AcDbEntity
  8
0
  6
DASHED2
 62
     4
370
    13
100
AcDbLine
 10
-95.0267570673791
 20
802.1490385787015
 30
0.0
 11
-70.27801972579391
 21
777.4003012372282
 31
0.0
  0
LINE
  5
4B6
330
1F
100
AcDbEntity
  8
0
  6
DASHED2
 62
     4
370
    13
100
AcDbLine
 10
230.2423622791662
 20
476.8799192336223
 30
0.0
 11
254.9910996207509
 21
452.1311818921495
 31
0.0
  0
LINE
  5
4B7
330
1F
100
AcDbEntity
  8
0
  6
DASHED2
 62
     4
370
    13
100
AcDbLine
 10
283.2753708681571
 20
476.8799192337424
 30
0.0
 11
258.5266335266838
 21
452.1311818921574
 31
0.0
  0
LINE
  5
4B8
330
1F
100
AcDbEntity
  8
0
  6
DASHED2
 62
     4
370
    13
100
AcDbLine
 10
258.5266335265642
 20
505.1641904811484
 30
0.0
 11
283.2753708681489
 21
480.4154531396753
 31
0.0
  0
LINE
  5
4B9
330
1F
100
AcDbEntity
  8
0
  6
DASHED2
 62
     4
370
    13
100
AcDbLine
 10
-275.3389862688721
 20
300.1032239359004
 30
0.0
 11
-250.5902489273981
 21
324.8519612774853
 31
0.0
  0
LINE
  5
4BA
330
1F
100
AcDbEntity
  8
0
  6
DASHED2
 62
     4
370
    13
100
AcDbLine
 10
-222.305977679873
 20
296.5676900300873
 30
0.0
 11
-247.0547150213461
 21
271.8189526885023
 31
0.0
  0
ARC
  5
4BB
330
1F
100
AcDbEntity
  8
0
  6
DASHED2
 62
     4
370
    13
100
AcDbCircle
 10
-93.25899011441697
 20
803.9168055316723
 30
0.0
 40
2.499999999999618
100
AcDbArc
 50
135.000000000129
 51
225.00000000014
  0
ARC
  5
4BC
330
1F
100
AcDbEntity
  8
0
  6
DASHED2
 62
     4
370
    13
100
AcDbCircle
 10
-68.51025277294411
 20
828.6655428732574
 30
0.0
 40
2.5000000000001
100
AcDbArc
 50
45.00000000011054
 51
135.0000000001253
  0
ARC
  5
4BD
330
1F
100
AcDbEntity
  8
0
  6
DASHED2
 62
     4
370
    13
100
AcDbCircle
 10
-43.76151543135802
 20
803.9168055317832
 30
0.0
 40
2.500000000000261
100
AcDbArc
 50
315.0000000001143
 51
45.00000000014737
  0
ARC
  5
4BE
330
1F
100
AcDbEntity
  8
0
  6
DASHED2
 62
     4
370
    13
100
AcDbCircle
 10
-68.51025277283202
 20
779.1680681901985
 30
0.0
 40
2.499999999999618
100
AcDbArc
 50
225.0000000001363
 51
315.0000000001437
  0
ARC
  5
4BF
330
1F
100
AcDbEntity
  8
0
  6
DASHED2
 62
     4
370
    13
100
AcDbCircle
 10
232.0101292321292
 20
478.6476861865924
 30
0.0
 40
2.500000000001065
100
AcDbArc
 50
135.0000000001327
 51
225.0000000001142
  0
ARC
  5
4C0
330
1F
100
AcDbEntity
  8
0
  6
DASHED2
 62
     4
370
    13
100
AcDbCircle
 10
256.7588665736021
 20
503.3964235281783
 30
0.0
 40
2.499999999999618
100
AcDbArc
 50
45.00000000012896
 51
135.0000000001253
  0
ARC
  5
4C1
330
1F
100
AcDbEntity
  8
0
  6
DASHED2
 62
     4
370
    13
100
AcDbCircle
 10
281.5076039151868
 20
478.6476861867043
 30
0.0
 40
2.499999999999618
100
AcDbArc
 50
315.0000000001363
 51
45.00000000014371
  0
ARC
  5
4C2
330
1F
100
AcDbEntity
  8
0
  6
DASHED2
 62
     4
370
    13
100
AcDbCircle
 10
256.7588665737139
 20
453.8989488451193
 30
0.0
 40
2.5000000000001
100
AcDbArc
 50
225.0000000001105
 51
315.0000000001289
  0
ARC
  5
4C3
330
1F
100
AcDbEntity
  8
0
  6
DASHED2
 62
     4
370
    13
100
AcDbCircle
 10
-248.822481974317
 20
273.5867196414645
 30
0.0
 40
2.499999999999457
100
AcDbArc
 50
225.0000000001326
 51
315.0000000001437
  0
ARC
  5
4C4
330
1F
100
AcDbEntity
  8
0
  6
DASHED2
 62
     4
370
    13
100
AcDbCircle
 10
-224.073744632843
 20
298.3354569830503
 30
0.0
 40
2.500000000000261
100
AcDbArc
 50
315.0000000001143
 51
45.00000000012896
  0
ARC
  5
4C5
330
1F
100
AcDbEntity
  8
0
  6
DASHED2
 62
     4
370
    13
100
AcDbCircle
 10
-248.822481974428
 20
323.0841943245234
 30
0.0
 40
2.499999999999297
100
AcDbArc
 50
45.00000000012896
 51
135.0000000001327
  0
ARC
  5
4C6
330
1F
100
AcDbEntity
  8
0
  6
DASHED2
 62
     4
370
    13
100
AcDbCircle
 10
-273.5712193159011
 20
298.3354569829385
 30
0.0
 40
2.5000000000001
100
AcDbArc
 50
135.0000000001474
 51
225.0000000001363
  0
LINE
  5
4C7
330
1F
100
AcDbEntity
  8
0
  6
Continuous
 62
     4
370
    13
100
AcDbLine
 10
-218.2923795842501
 20
-501.3073829518922
 30
0.0
 11
-168.4569226582751
 21
-502.5532693750474
 31
0.0
  0
LINE
  5
4C8
330
1F
100
AcDbEntity
  8
0
  6
Continuous
 62
     4
370
    13
100
AcDbLine
 10
-216.317996482584
 20
-422.3320588856509
 30
0.0
 11
-166.4825395566099
 21
-423.5779453088061
 31
0.0
  0
LINE
  5
4C9
330
1F
100
AcDbEntity
  8
0
  6
Continuous
 62
     4
370
    13
100
AcDbLine
 10
-216.317996482584
 20
-422.3320588856509
 30
0.0
 11
-218.2923795842501
 21
-501.3073829518922
 31
0.0
  0
LINE
  5
4CA
330
1F
100
AcDbEntity
  8
0
  6
Continuous
 62
     4
370
    13
100
AcDbLine
 10
-219.766031689586
 20
-424.4465453980871
 30
0.0
 11
-221.630449150146
 21
-499.0232438201327
 31
0.0
  0
LINE
  5
4CB
330
1F
100
AcDbEntity
  8
0
  6
Continuous
 62
     4
370
    13
100
AcDbLine
 10
-219.6810582396511
 20
-501.0726034952696
 30
0.0
 11
-218.2873811460181
 21
-501.1074454226107
 31
0.0
  0
LINE
  5
4CC
330
1F
100
AcDbEntity
  8
0
  6
Continuous
 62
     4
370
    13
100
AcDbLine
 10
-221.630449150146
 20
-499.0232438201327
 30
0.0
 11
-219.6810582396511
 21
-501.0726034952696
 31
0.0
  0
LINE
  5
4CD
330
1F
100
AcDbEntity
  8
0
  6
Continuous
 62
     4
370
    13
100
AcDbLine
 10
-217.7166720144489
 20
-422.4971544875915
 30
0.0
 11
-216.322994920816
 21
-422.5319964149326
 31
0.0
  0
LINE
  5
4CE
330
1F
100
AcDbEntity
  8
0
  6
Continuous
 62
     4
370
    13
100
AcDbLine
 10
-217.7166720144489
 20
-422.4971544875915
 30
0.0
 11
-219.766031689586
 21
-424.4465453980871
 31
0.0
  0
LINE
  5
4CF
330
1F
100
AcDbEntity
  8
0
  6
Continuous
 62
     4
370
    13
100
AcDbLine
 10
-166.4700434610299
 20
-423.078101485602
 30
0.0
 11
-168.469418753856
 21
-503.0531131982515
 31
0.0
  0
LINE
  5
4D0
330
1F
100
AcDbEntity
  8
0
  6
Continuous
 62
     4
370
    13
100
AcDbLine
 10
-168.469418753856
 20
-503.0531131982515
 30
0.0
 11
-167.762532840009
 21
-503.0707853460978
 31
0.0
  0
LINE
  5
4D1
330
1F
100
AcDbEntity
  8
0
  6
Continuous
 62
     4
370
    13
100
AcDbLine
 10
-166.4700434610299
 20
-423.078101485602
 30
0.0
 11
-165.7631575471839
 21
-423.0957736334483
 31
0.0
  0
LINE
  5
4D2
330
1F
100
AcDbEntity
  8
0
  6
Continuous
 62
     4
370
    13
100
AcDbLine
 10
249.3021987124012
 20
937.9234460059483
 30
0.0
 11
98.39205019809378
 21
971.8245395576891
 31
0.0
  0
LINE
  5
4D3
330
1F
100
AcDbEntity
  8
0
  6
Continuous
 62
     4
370
    13
100
AcDbLine
 10
98.39205019809378
 20
971.8245395576891
 30
0.0
 11
196.5863925509202
 21
864.9796007729833
 31
0.0
  0
LINE
  5
4D4
330
1F
100
AcDbEntity
  8
0
  6
Continuous
 62
     4
370
    13
100
AcDbLine
 10
346.5891903614211
 20
741.9038711184326
 30
0.0
 11
330.9583663829289
 21
730.6076269409746
 31
0.0
  0
LINE
  5
4D5
330
1F
100
AcDbEntity
  8
0
  6
Continuous
 62
     4
370
    13
100
AcDbLine
 10
330.9583663829289
 20
730.6076269409746
 30
0.0
 11
437.8033051676371
 21
632.4132845881475
 31
0.0
  0
LINE
  5
4D6
330
1F
100
AcDbEntity
  8
0
  6
Continuous
 62
     4
370
    13
100
AcDbLine
 10
437.8033051676371
 20
632.4132845881475
 30
0.0
 11
403.9022116158958
 21
783.3234331024532
 31
0.0
  0
LINE
  5
4D7
330
1F
100
AcDbEntity
  8
0
  6
Continuous
 62
     4
370
    13
100
AcDbLine
 10
403.9022116158958
 20
783.3234331024532
 30
0.0
 11
388.2713876374032
 21
772.0271889249925
 31
0.0
  0
LINE
  5
4D8
330
1F
100
AcDbEntity
  8
0
  6
Continuous
 62
     4
370
    13
100
AcDbLine
 10
238.00595453494
 20
922.2926220274553
 30
0.0
 11
249.3021987124012
 21
937.9234460059483
 31
0.0
  0
LINE
  5
4D9
330
1F
100
AcDbEntity
  8
0
  6
Continuous
 62
     4
370
    13
100
AcDbLine
 10
196.5863925509202
 20
864.9796007729833
 30
0.0
 11
207.8826367283791
 21
880.6104247514745
 31
0.0
  0
ARC
  5
4DA
330
1F
100
AcDbEntity
  8
0
  6
Continuous
 62
     4
370
    13
100
AcDbCircle
 10
-153.5971769503569
 20
380.4240574396963
 30
0.0
 40
668.5615557878644
100
AcDbArc
 50
35.85527276096643
 51
54.14472723903346
  0
ARC
  5
4DB
330
1F
100
AcDbEntity
  8
0
  6
Continuous
 62
     4
370
    13
100
AcDbCircle
 10
-153.5971769503481
 20
380.4240574397063
 30
0.0
 40
617.1337438041697
100
AcDbArc
 50
35.85527276096629
 51
54.14472723903359
  0
TEXT
  5
4DC
330
1F
100
AcDbEntity
  8
0
 62
     2
100
AcDbText
 10
456.4344317953758
 20
664.8444375536124
 30
0.0
 40
50.0
  1
R
 50
315.0000000000001
 41
0.8250825082508237
  7
dcStyle0
 72
     5
 11
482.9509360898713
 21
638.3279332591169
 31
0.0
100
AcDbText
  0
TEXT
  5
4DD
330
1F
100
AcDbEntity
  8
0
 62
     2
100
AcDbText
 10
106.7104359372854
 20
1014.931859377215
 30
0.0
 40
50.0
  1
L
 50
315.0000000000001
 41
0.9566326530612229
  7
dcStyle0
 72
     5
 11
133.2269402317809
 21
988.4153550827198
 31
0.0
100
AcDbText
  0
TEXT
  5
4DE
330
1F
100
AcDbEntity
  8
0
 62
     2
100
AcDbText
 10
420.0000000000001
 20
-1198.719233395221
 30
0.0
 40
40.0
  1
レスベヤシリーズ
 41
1.191489361702128
  7
dcStyle1
 72
     5
 11
740.0000000000001
 21
-1198.719233395221
 31
0.0
100
AcDbText
  0
TEXT
  5
4DF
330
1F
100
AcDbEntity
  8
0
 62
     2
100
AcDbText
 10
530.0000000000001
 20
-1298.719233395221
 30
0.0
 40
40.0
  1
GT10H
 41
0.5526315789473684
  7
dcStyle1
 72
     5
 11
630.0000000000001
 21
-1298.719233395221
 31
0.0
100
AcDbText
  0
TEXT
  5
4E0
330
1F
100
AcDbEntity
  8
0
 62
     2
100
AcDbText
 10
1640.0
 20
-1298.719233395221
 30
0.0
 40
40.0
  1
W_GT10H_S_020_4
 41
0.5526315789473685
  7
dcStyle1
 72
     5
 11
1940.0
 21
-1298.719233395221
 31
0.0
100
AcDbText
  0
TEXT
  5
4E1
330
1F
100
AcDbEntity
  8
0
 62
     2
100
AcDbText
 10
1215.0
 20
-1198.719233395221
 30
0.0
 40
40.0
  1
本体組立図  呼び幅　300 mm
 41
0.8005865102639298
  7
dcStyle1
 72
     5
 11
1735.0
 21
-1198.719233395221
 31
0.0
100
AcDbText
  0
TEXT
  5
4E2
330
1F
100
AcDbEntity
  8
0
 62
     2
100
AcDbText
 10
-147.4999999999997
 20
-1298.719233395221
 30
0.0
 40
40.0
  1
1/10
 41
0.5316455696202531
  7
dcStyle1
 72
     5
 11
-67.49999999999972
 21
-1298.719233395221
 31
0.0
100
AcDbText
  0
TEXT
  5
4E3
330
1F
100
AcDbEntity
  8
0
 62
     2
100
AcDbText
 10
-233.562748064812
 20
-1219.719233395221
 30
0.0
 40
31.99999999999999
  1
2020.5.1
 41
0.8736641221374046
  7
dcStyle1
 72
     5
 11
-59.16274806481206
 21
-1219.719233395221
 31
0.0
100
AcDbText
  0
TEXT
  5
4E4
330
1F
100
AcDbEntity
  8
0
 62
     2
100
AcDbText
 10
-1919.600000000021
 20
-1198.052566728555
 30
0.0
 40
31.99999999999999
  1
4
 41
0.6999999999999935
  7
dcStyle1
 72
     5
 11
-1900.400000000021
 21
-1198.052566728555
 31
0.0
100
AcDbText
  0
TEXT
  5
4E5
330
1F
100
AcDbEntity
  8
0
 62
     2
100
AcDbText
 10
-1813.167804474334
 20
-1199.694128688124
 30
0.0
 40
40.0
  1
脚スペーサ追加
 41
1.195121951219512
  7
dcStyle1
 72
     5
 11
-1533.167804474334
 21
-1199.694128688124
 31
0.0
100
AcDbText
  0
DIMENSION
  5
4E6
330
1F
100
AcDbEntity
  8
0
  6
Continuous
370
    13
100
AcDbDimension
280
     0
  2
*D1
 10
-393.4131703994481
 20
1164.175062218272
 30
0.0
 11
-623.2228742850062
 21
934.3653583327136
 31
0.0
 70
   160
 71
     8
 42
-1.0
 73
     0
 74
     0
 75
     0
  3
dc_Rotated
100
AcDbAlignedDimension
 13
-347.8174313402251
 23
199.3405076168165
 33
0.0
 14
-64.9747188657459
 24
835.7366106845693
 34
0.0
 50
44.99999999999998
100
AcDbRotatedDimension
1001
ACAD
1000
DSTYLE
1002
{
1070
   144
1040
1.0
1070
   274
1070
     4
1070
    41
1040
30.00001907348633
1070
    79
1070
     2
1070
   343
1005
F9
1070
   344
1005
F9
1070
   176
1070
     2
1070
   177
1070
     2
1070
   178
1070
     2
1070
   271
1070
     2
1070
    44
1040
10.0
1070
    42
1040
10.0
1070
   147
1040
9.99999999999992
1070
   173
1070
     1
1070
    77
1070
     3
1070
    73
1070
     0
1070
   172
1070
     1
1070
    74
1070
     0
1070
   283
1070
     0
1070
   340
1005
101
1070
   140
1040
40.0
1070
   284
1070
     8
1070
   288
1070
     1
1070
    78
1070
     8
1070
    90
1070
     1
1002
}
  0
DIMENSION
  5
4E8
330
1F
100
AcDbEntity
  8
0
  6
Continuous
370
    13
100
AcDbDimension
280
     0
  2
*D2
 10
112.1825686597749
 20
78.61250780046839
 30
0.0
 11
-117.8174313402251
 21
78.61250780046839
 31
0.0
 70
   160
  1
R<>
 71
     8
 42
-1.0
 73
     0
 74
     0
 75
     0
  3
dc_Rotated
100
AcDbAlignedDimension
 13
-347.8174313402251
 23
199.3405076168165
 33
0.0
 14
112.1825686597749
 24
181.9417184006584
 34
0.0
100
AcDbRotatedDimension
1001
ACAD
1000
DSTYLE
1002
{
1070
   144
1040
1.0
1070
   274
1070
     4
1070
    41
1040
30.00001907348633
1070
    79
1070
     2
1070
   343
1005
F9
1070
   344
1005
F9
1070
   176
1070
     2
1070
   177
1070
     2
1070
   178
1070
     2
1070
   271
1070
     2
1070
    44
1040
10.0
1070
    42
1040
10.0
1070
   147
1040
10.0
1070
   173
1070
     1
1070
    77
1070
     3
1070
    73
1070
     0
1070
   172
1070
     1
1070
    74
1070
     0
1070
   283
1070
     0
1070
   340
1005
101
1070
   140
1040
40.0
1070
   284
1070
     8
1070
   288
1070
     1
1070
    78
1070
     8
1070
    90
1070
     1
1002
}
  0
INSERT
  5
4E9
330
1F
100
AcDbEntity
  8
0
  6
Continuous
100
AcDbBlockReference
  2
DA_DIMGROUP_0
 10
0.0
 20
0.0
 30
0.0
  0
DIMENSION
  5
4EA
330
1F
100
AcDbEntity
  8
0
  6
Continuous
370
    13
100
AcDbDimension
280
     0
  2
*D4
 10
-691.5293518491583
 20
712.7580556102405
 30
0.0
 11
-733.955758720281
 21
670.3316487391179
 31
0.0
 70
   160
 71
     8
 42
-1.0
 73
     0
 74
     0
 75
     0
  3
dc_Rotated
100
AcDbAlignedDimension
 13
-390.7453633526411
 23
242.2684396292323
 33
0.0
 14
-347.8174313402251
 24
369.0461351013073
 34
0.0
 50
45.0
100
AcDbRotatedDimension
1001
ACAD
1000
DSTYLE
1002
{
1070
   144
1040
1.0
1070
   274
1070
     4
1070
    41
1040
30.00001907348633
1070
    79
1070
     2
1070
   343
1005
F9
1070
   344
1005
F9
1070
   176
1070
     2
1070
   177
1070
     2
1070
   178
1070
     2
1070
   271
1070
     2
1070
    44
1040
10.0
1070
    42
1040
10.0
1070
   147
1040
10.00000000000008
1070
   173
1070
     1
1070
    77
1070
     3
1070
    73
1070
     0
1070
   172
1070
     1
1070
    74
1070
     0
1070
   283
1070
     0
1070
   340
1005
101
1070
   140
1040
40.0
1070
   284
1070
     8
1070
   288
1070
     1
1070
    78
1070
     8
1070
    90
1070
     1
1002
}
  0
DIMENSION
  5
4EB
330
1F
100
AcDbEntity
  8
0
  6
Continuous
370
    13
100
AcDbDimension
280
     0
  2
*D5
 10
-316.7627578202879
 20
1087.524649639111
 30
0.0
 11
-504.1460548347233
 21
900.1413526246763
 31
0.0
 70
   160
 71
     8
 42
-1.0
 73
     0
 74
     0
 75
     0
  3
dc_Rotated
100
AcDbAlignedDimension
 13
-347.8174313402251
 23
369.0461351013073
 33
0.0
 14
-64.9747188657459
 24
835.7366106845693
 34
0.0
 50
44.99999999999999
100
AcDbRotatedDimension
1001
ACAD
1000
DSTYLE
1002
{
1070
   144
1040
1.0
1070
   274
1070
     4
1070
    41
1040
30.00001907348633
1070
    79
1070
     2
1070
   343
1005
F9
1070
   344
1005
F9
1070
   176
1070
     2
1070
   177
1070
     2
1070
   178
1070
     2
1070
   271
1070
     2
1070
    44
1040
10.0
1070
    42
1040
10.0
1070
   147
1040
10.00000000000008
1070
   173
1070
     1
1070
    77
1070
     3
1070
    73
1070
     0
1070
   172
1070
     1
1070
    74
1070
     0
1070
   283
1070
     0
1070
   340
1005
101
1070
   140
1040
40.0
1070
   284
1070
     8
1070
   288
1070
     1
1070
    78
1070
     8
1070
    90
1070
     1
1002
}
  0
DIMENSION
  5
4EC
330
1F
100
AcDbEntity
  8
0
  6
Continuous
370
    13
100
AcDbDimension
280
     0
  2
*D6
 10
-37.81743134038811
 20
-3.165282411961703
 30
0.0
 11
-192.8174313403066
 21
-3.165282411961703
 31
0.0
 70
   160
 71
     8
 42
-1.0
 73
     0
 74
     0
 75
     0
  3
dc_Rotated
100
AcDbAlignedDimension
 13
-347.8174313402251
 23
199.3405076168165
 33
0.0
 14
-37.81743134038811
 24
199.3405076167624
 34
0.0
100
AcDbRotatedDimension
1001
ACAD
1000
DSTYLE
1002
{
1070
   144
1040
1.0
1070
   274
1070
     4
1070
    41
1040
30.00001907348633
1070
    79
1070
     2
1070
   343
1005
F9
1070
   344
1005
F9
1070
   176
1070
     2
1070
   177
1070
     2
1070
   178
1070
     2
1070
   271
1070
     2
1070
    44
1040
10.0
1070
    42
1040
10.0
1070
   147
1040
10.0
1070
   173
1070
     1
1070
    77
1070
     3
1070
    73
1070
     0
1070
   172
1070
     1
1070
    74
1070
     0
1070
   283
1070
     0
1070
   340
1005
101
1070
   140
1040
40.0
1070
   284
1070
     8
1070
   288
1070
     1
1070
    78
1070
     8
1070
    90
1070
     1
1002
}
  0
INSERT
  5
4ED
330
1F
100
AcDbEntity
  8
0
  6
Continuous
100
AcDbBlockReference
  2
DC_IMAGEDIMGROUP_1
 10
0.0
 20
0.0
 30
0.0
  0
DIMENSION
  5
4EE
330
1F
100
AcDbEntity
  8
0
  6
Continuous
370
    13
100
AcDbDimension
280
     0
  2
*D8
 10
262.1793880516029
 20
-3.165282411961703
 30
0.0
 11
112.1809783556074
 21
-3.165282411961703
 31
0.0
 70
   160
 71
     8
 42
-1.0
 73
     0
 74
     0
 75
     0
  3
dc_Rotated
100
AcDbAlignedDimension
 13
-37.81743134038811
 23
199.3405076167624
 33
0.0
 14
262.1793880516029
 24
199.3405076167335
 34
0.0
100
AcDbRotatedDimension
1001
ACAD
1000
DSTYLE
1002
{
1070
   144
1040
1.0
1070
   274
1070
     4
1070
    41
1040
30.00001907348633
1070
    79
1070
     2
1070
   343
1005
F9
1070
   344
1005
F9
1070
   176
1070
     2
1070
   177
1070
     2
1070
   178
1070
     2
1070
   271
1070
     2
1070
    44
1040
10.0
1070
    42
1040
10.0
1070
   147
1040
10.0
1070
   173
1070
     1
1070
    77
1070
     3
1070
    73
1070
     0
1070
   172
1070
     1
1070
    74
1070
     0
1070
   283
1070
     0
1070
   340
1005
101
1070
   140
1040
40.0
1070
   284
1070
     8
1070
   288
1070
     1
1070
    78
1070
     8
1070
    90
1070
     1
1002
}
  0
INSERT
  5
4EF
330
1F
100
AcDbEntity
  8
0
  6
Continuous
100
AcDbBlockReference
  2
DC_GROUP_W_GT10H_S_020_4_1
 10
0.0
 20
0.0
 30
0.0
  0
DIMENSION
  5
4F0
330
1F
100
AcDbEntity
  8
0
  6
Continuous
370
    13
100
AcDbDimension
280
     0
  2
*D12
 10
-476.5957066189601
 20
-928.8799293924709
 30
0.0
 11
-476.5957066189601
 21
-966.3799293924708
 31
0.0
 70
   160
 71
     8
 42
-1.0
 73
     0
 74
     0
 75
     0
  3
dc_Rotated
100
AcDbAlignedDimension
 13
-361.8224819742511
 23
-1003.879929392471
 33
0.0
 14
-276.071219315832
 24
-928.8799293924708
 34
0.0
 50
90.0
100
AcDbRotatedDimension
1001
ACAD
1000
DSTYLE
1002
{
1070
   144
1040
1.0
1070
   274
1070
     4
1070
    41
1040
30.00001907348633
1070
    79
1070
     2
1070
   343
1005
F9
1070
   344
1005
F9
1070
   176
1070
     2
1070
   177
1070
     2
1070
   178
1070
     2
1070
   271
1070
     2
1070
    44
1040
10.0
1070
    42
1040
10.0
1070
   147
1040
10.0
1070
   173
1070
     1
1070
    77
1070
     3
1070
    73
1070
     0
1070
   172
1070
     1
1070
    74
1070
     0
1070
   283
1070
     0
1070
   340
1005
101
1070
   140
1040
40.0
1070
   284
1070
     8
1070
   288
1070
     1
1070
    78
1070
     8
1070
    90
1070
     1
1002
}
  0
INSERT
  5
4F1
330
1F
100
AcDbEntity
  8
0
  6
Continuous
100
AcDbBlockReference
  2
DC_GROUP_W_GT10H_S_020_4_4
 10
0.0
 20
0.0
 30
0.0
  0
INSERT
  5
4F2
330
1F
100
AcDbEntity
  8
0
  6
Continuous
100
AcDbBlockReference
  2
DC_GROUP_W_GT10H_S_020_4_5
 10
0.0
 20
0.0
 30
0.0
  0
INSERT
  5
4F3
330
1F
100
AcDbEntity
  8
0
  6
Continuous
100
AcDbBlockReference
  2
DC_GROUP_W_GT10H_S_020_4_10
 10
0.0
 20
0.0
 30
0.0
  0
INSERT
  5
4F4
330
1F
100
AcDbEntity
  8
0
  6
Continuous
100
AcDbBlockReference
  2
DC_GROUP_W_GT10H_S_020_4_11
 10
0.0
 20
0.0
 30
0.0
  0
INSERT
  5
4F5
330
1F
100
AcDbEntity
  8
0
  6
Continuous
100
AcDbBlockReference
  2
DC_GROUP_W_GT10H_S_020_4_14
 10
0.0
 20
0.0
 30
0.0
  0
INSERT
  5
4F6
330
1F
100
AcDbEntity
  8
ZUWAKU
  6
Continuous
100
AcDbBlockReference
  2
DC_GROUP_W_GT10H_S_020_4_2
 10
0.0
 20
0.0
 30
0.0
  0
INSERT
  5
4F7
330
1F
100
AcDbEntity
  8
ZUWAKU
  6
Continuous
100
AcDbBlockReference
  2
DC_GROUP_W_GT10H_S_020_4_3
 10
0.0
 20
0.0
 30
0.0
  0
INSERT
  5
4F8
330
1F
100
AcDbEntity
  8
3
  6
Continuous
100
AcDbBlockReference
  2
DC_GROUP_W_GT10H_S_020_4_8
 10
0.0
 20
0.0
 30
0.0
  0
INSERT
  5
4F9
330
1F
100
AcDbEntity
  8
3
  6
Continuous
100
AcDbBlockReference
  2
DC_GROUP_W_GT10H_S_020_4_9
 10
0.0
 20
0.0
 30
0.0
  0
INSERT
  5
4FA
330
1F
100
AcDbEntity
  8
2
  6
Continuous
100
AcDbBlockReference
  2
DC_GROUP_W_GT10H_S_020_4_13
 10
0.0
 20
0.0
 30
0.0
  0
VIEWPORT
  5
B0
330
1B
100
AcDbEntity
 67
     1
  8
0
100
AcDbViewport
 10
0.0
 20
0.0
 30
0.0
 40
11820.0
 41
8107.684599628672
 68
     1
 69
     1
 12
0.0
 22
0.0
 13
0.0
 23
0.0
 14
0.5
 24
0.5
 15
0.0
 25
0.0
 16
0.0
 26
0.0
 36
1.0
 17
0.0
 27
0.0
 37
0.0
 42
50.0
 43
0.0
 44
0.0
 45
8107.684599628672
 50
0.0
 51
0.0
 72
   100
 90
   557152
  1

281
     0
 71
     1
 74
     0
110
0.0
120
0.0
130
0.0
111
1.0
121
0.0
131
0.0
112
0.0
122
1.0
132
0.0
 79
     0
146
0.0
170
     0
 61
     5
292
     1
282
     1
141
0.0
142
0.0
 63
   256
  0
ENDSEC
  0
SECTION
  2
OBJECTS
  0
DICTIONARY
  5
C
330
0
100
AcDbDictionary
281
     1
  3
ACAD_DETAILVIEWSTYLE
350
52F
  3
ACAD_GROUP
350
D
  3
ACAD_LAYOUT
350
1A
  3
ACAD_MATERIAL
350
43
  3
ACAD_MLEADERSTYLE
350
52E
  3
ACAD_MLINESTYLE
350
17
  3
ACAD_PLOTSETTINGS
350
19
  3
ACAD_PLOTSTYLENAME
350
E
  3
ACAD_SCALELIST
350
47
  3
ACAD_SECTIONVIEWSTYLE
350
530
  3
ACAD_TABLESTYLE
350
52D
  3
ACAD_VISUALSTYLE
350
2A
  3
AcDbVariableDictionary
350
4FB
  0
SUN
  5
69
330
29
100
AcDbSun
 90
        1
290
     0
 63
     7
421
 16777215
 40
1.0
291
     1
 91
  2455826
 92
 54000000
292
     0
 70
     2
 71
   256
280
     1
  0
DICTIONARY
  5
52F
102
{ACAD_REACTORS
330
C
102
}
330
C
100
AcDbDictionary
281
     1
  0
DICTIONARY
  5
D
102
{ACAD_REACTORS
330
C
102
}
330
C
100
AcDbDictionary
281
     1
  0
DICTIONARY
  5
1A
102
{ACAD_REACTORS
330
C
102
}
330
C
100
AcDbDictionary
281
     1
  3
Layout1
350
1E
  3
Layout2
350
26
  3
Model
350
22
  0
DICTIONARY
  5
43
102
{ACAD_REACTORS
330
C
102
}
330
C
100
AcDbDictionary
281
     1
  3
ByBlock
350
45
  3
ByLayer
350
44
  3
Global
350
46
  0
DICTIONARY
  5
52E
102
{ACAD_REACTORS
330
C
102
}
330
C
100
AcDbDictionary
281
     1
  0
DICTIONARY
  5
17
102
{ACAD_REACTORS
330
C
102
}
330
C
100
AcDbDictionary
281
     1
  3
Standard
350
18
  0
DICTIONARY
  5
19
102
{ACAD_REACTORS
330
C
102
}
330
C
100
AcDbDictionary
281
     1
  0
ACDBDICTIONARYWDFLT
  5
E
102
{ACAD_REACTORS
330
C
102
}
330
C
100
AcDbDictionary
281
     1
  3
Normal
350
F
100
AcDbDictionaryWithDefault
340
F
  0
DICTIONARY
  5
47
102
{ACAD_REACTORS
330
C
102
}
330
C
100
AcDbDictionary
281
     1
  3
A0
350
48
  3
A1
350
49
  3
A2
350
4A
  3
A3
350
4B
  3
A4
350
4C
  3
A5
350
4D
  3
A6
350
4E
  3
A7
350
4F
  3
A8
350
50
  3
A9
350
51
  3
B0
350
52
  3
B1
350
53
  3
B2
350
54
  3
B3
350
55
  3
B4
350
56
  3
B5
350
57
  3
B6
350
58
  3
B7
350
59
  3
B8
350
5A
  3
B9
350
5B
  3
C0
350
5C
  3
C1
350
5D
  3
C2
350
5E
  3
C3
350
5F
  3
C4
350
60
  3
C5
350
61
  3
C6
350
62
  3
C7
350
63
  3
C8
350
64
  3
C9
350
65
  3
D0
350
66
  3
D1
350
67
  3
D2
350
68
  0
DICTIONARY
  5
530
102
{ACAD_REACTORS
330
C
102
}
330
C
100
AcDbDictionary
281
     1
  0
DICTIONARY
  5
52D
102
{ACAD_REACTORS
330
C
102
}
330
C
100
AcDbDictionary
281
     1
  0
DICTIONARY
  5
2A
102
{ACAD_REACTORS
330
C
102
}
330
C
100
AcDbDictionary
281
     1
  3
2dWireframe
350
2F
  3
Basic
350
32
  3
Brighten
350
36
  3
ColorChange
350
3A
  3
Conceptual
350
34
  3
Dim
350
35
  3
EdgeColorOff
350
3D
  3
Facepattern
350
39
  3
Flat
350
2B
  3
FlatWithEdges
350
2C
  3
Gouraud
350
2D
  3
GouraudWithEdges
350
2E
  3
Hidden
350
31
  3
JitterOff
350
3B
  3
Linepattern
350
38
  3
OverhangOff
350
3C
  3
Realistic
350
33
  3
Shaded
350
42
  3
Shaded with edges
350
41
  3
Shades of Gray
350
3E
  3
Sketchy
350
3F
  3
Thicken
350
37
  3
Wireframe
350
30
  3
X-Ray
350
40
  0
DICTIONARY
  5
4FB
102
{ACAD_REACTORS
330
C
102
}
330
C
100
AcDbDictionary
281
     1
  3
CANNOSCALE
350
4FC
  0
LAYOUT
  5
1E
102
{ACAD_REACTORS
330
1A
102
}
330
1A
100
AcDbPlotSettings
  1

  2
none_device
  4

  6

 40
0.0
 41
0.0
 42
0.0
 43
0.0
 44
0.0
 45
0.0
 46
0.0
 47
0.0
 48
0.0
 49
0.0
140
0.0
141
0.0
142
1.0
143
1.0
 70
   688
 72
     0
 73
     0
 74
     5
  7

 75
    16
 76
     0
 77
     2
 78
   300
147
1.0
148
0.0
149
0.0
100
AcDbLayout
  1
Layout1
 70
     0
 71
     1
 10
0.0
 20
0.0
 11
12.0
 21
9.0
 12
0.0
 22
0.0
 32
0.0
 14
1.000000000000000E+20
 24
1.000000000000000E+20
 34
1.000000000000000E+20
 15
-1.000000000000000E+20
 25
-1.000000000000000E+20
 35
-1.000000000000000E+20
146
0.0
 13
0.0
 23
0.0
 33
0.0
 16
1.0
 26
0.0
 36
0.0
 17
0.0
 27
1.0
 37
0.0
 76
     0
330
1B
331
B0
  0
LAYOUT
  5
26
102
{ACAD_REACTORS
330
1A
102
}
330
1A
100
AcDbPlotSettings
  1

  2
none_device
  4

  6

 40
0.0
 41
0.0
 42
0.0
 43
0.0
 44
0.0
 45
0.0
 46
0.0
 47
0.0
 48
0.0
 49
0.0
140
0.0
141
0.0
142
1.0
143
1.0
 70
   688
 72
     0
 73
     0
 74
     5
  7

 75
    16
 76
     0
 77
     2
 78
   300
147
1.0
148
0.0
149
0.0
100
AcDbLayout
  1
Layout2
 70
     1
 71
     2
 10
0.0
 20
0.0
 11
0.0
 21
0.0
 12
0.0
 22
0.0
 32
0.0
 14
0.0
 24
0.0
 34
0.0
 15
0.0
 25
0.0
 35
0.0
146
0.0
 13
0.0
 23
0.0
 33
0.0
 16
1.0
 26
0.0
 36
0.0
 17
0.0
 27
1.0
 37
0.0
 76
     0
330
23
  0
LAYOUT
  5
22
102
{ACAD_REACTORS
330
1A
102
}
330
1A
100
AcDbPlotSettings
  1

  2
none_device
  4
Letter_(8.50_x_11.00_Inches)
  6

 40
6.35
 41
6.35
 42
6.35000508
 43
6.35000508
 44
215.9
 45
279.4
 46
0.0
 47
0.0
 48
0.0
 49
0.0
140
0.0
141
0.0
142
1.0
143
1.0
 70
  1712
 72
     0
 73
     0
 74
     0
  7

 75
     0
 76
     0
 77
     2
 78
   300
147
1.0
148
0.0
149
0.0
100
AcDbLayout
  1
Model
 70
     1
 71
     0
 10
-2100.0
 20
-1485.0
 11
2100.0
 21
1485.0
 12
0.0
 22
0.0
 32
0.0
 14
-5910.0
 24
-4053.842299814336
 34
0.0
 15
5910.0
 25
4053.842299814336
 35
0.0
146
0.0
 13
0.0
 23
0.0
 33
0.0
 16
1.0
 26
0.0
 36
0.0
 17
0.0
 27
1.0
 37
0.0
 76
     0
330
1F
331
29
  0
MATERIAL
  5
45
102
{ACAD_REACTORS
330
43
102
}
330
43
100
AcDbMaterial
  1
ByBlock
 72
     1
 94
      127
  0
MATERIAL
  5
44
102
{ACAD_REACTORS
330
43
102
}
330
43
100
AcDbMaterial
  1
ByLayer
 72
     1
 94
      127
  0
MATERIAL
  5
46
102
{ACAD_REACTORS
330
43
102
}
330
43
100
AcDbMaterial
  1
Global
 72
     1
 94
      127
  0
MLINESTYLE
  5
18
102
{ACAD_REACTORS
330
17
102
}
330
17
100
AcDbMlineStyle
  2
Standard
 70
     0
  3

 62
   256
 51
90.0
 52
90.0
 71
     2
 49
0.5
 62
   256
  6
BYLAYER
 49
-0.5
 62
   256
  6
BYLAYER
  0
ACDBPLACEHOLDER
  5
F
102
{ACAD_REACTORS
330
E
102
}
330
E
  0
SCALE
  5
48
102
{ACAD_REACTORS
330
47
102
}
330
47
100
AcDbScale
 70
     0
300
1:1
140
1.0
141
1.0
290
     1
  0
SCALE
  5
49
102
{ACAD_REACTORS
330
47
102
}
330
47
100
AcDbScale
 70
     0
300
1:2
140
1.0
141
2.0
290
     0
  0
SCALE
  5
4A
102
{ACAD_REACTORS
330
47
102
}
330
47
100
AcDbScale
 70
     0
300
1:4
140
1.0
141
4.0
290
     0
  0
SCALE
  5
4B
102
{ACAD_REACTORS
330
47
102
}
330
47
100
AcDbScale
 70
     0
300
1:5
140
1.0
141
5.0
290
     0
  0
SCALE
  5
4C
102
{ACAD_REACTORS
330
47
102
}
330
47
100
AcDbScale
 70
     0
300
1:8
140
1.0
141
8.0
290
     0
  0
SCALE
  5
4D
102
{ACAD_REACTORS
330
47
102
}
330
47
100
AcDbScale
 70
     0
300
1:10
140
1.0
141
10.0
290
     0
  0
SCALE
  5
4E
102
{ACAD_REACTORS
330
47
102
}
330
47
100
AcDbScale
 70
     0
300
1:16
140
1.0
141
16.0
290
     0
  0
SCALE
  5
4F
102
{ACAD_REACTORS
330
47
102
}
330
47
100
AcDbScale
 70
     0
300
1:20
140
1.0
141
20.0
290
     0
  0
SCALE
  5
50
102
{ACAD_REACTORS
330
47
102
}
330
47
100
AcDbScale
 70
     0
300
1:30
140
1.0
141
30.0
290
     0
  0
SCALE
  5
51
102
{ACAD_REACTORS
330
47
102
}
330
47
100
AcDbScale
 70
     0
300
1:40
140
1.0
141
40.0
290
     0
  0
SCALE
  5
52
102
{ACAD_REACTORS
330
47
102
}
330
47
100
AcDbScale
 70
     0
300
1:50
140
1.0
141
50.0
290
     0
  0
SCALE
  5
53
102
{ACAD_REACTORS
330
47
102
}
330
47
100
AcDbScale
 70
     0
300
1:100
140
1.0
141
100.0
290
     0
  0
SCALE
  5
54
102
{ACAD_REACTORS
330
47
102
}
330
47
100
AcDbScale
 70
     0
300
2:1
140
2.0
141
1.0
290
     0
  0
SCALE
  5
55
102
{ACAD_REACTORS
330
47
102
}
330
47
100
AcDbScale
 70
     0
300
4:1
140
4.0
141
1.0
290
     0
  0
SCALE
  5
56
102
{ACAD_REACTORS
330
47
102
}
330
47
100
AcDbScale
 70
     0
300
8:1
140
8.0
141
1.0
290
     0
  0
SCALE
  5
57
102
{ACAD_REACTORS
330
47
102
}
330
47
100
AcDbScale
 70
     0
300
10:1
140
10.0
141
1.0
290
     0
  0
SCALE
  5
58
102
{ACAD_REACTORS
330
47
102
}
330
47
100
AcDbScale
 70
     0
300
100:1
140
100.0
141
1.0
290
     0
  0
SCALE
  5
59
102
{ACAD_REACTORS
330
47
102
}
330
47
100
AcDbScale
 70
     0
300
1/128" = 1'-0"
140
0.0078125
141
12.0
290
     0
  0
SCALE
  5
5A
102
{ACAD_REACTORS
330
47
102
}
330
47
100
AcDbScale
 70
     0
300
1/64" = 1'-0"
140
0.015625
141
12.0
290
     0
  0
SCALE
  5
5B
102
{ACAD_REACTORS
330
47
102
}
330
47
100
AcDbScale
 70
     0
300
1/32" = 1'-0"
140
0.03125
141
12.0
290
     0
  0
SCALE
  5
5C
102
{ACAD_REACTORS
330
47
102
}
330
47
100
AcDbScale
 70
     0
300
1/16" = 1'-0"
140
0.0625
141
12.0
290
     0
  0
SCALE
  5
5D
102
{ACAD_REACTORS
330
47
102
}
330
47
100
AcDbScale
 70
     0
300
3/32" = 1'-0"
140
0.09375
141
12.0
290
     0
  0
SCALE
  5
5E
102
{ACAD_REACTORS
330
47
102
}
330
47
100
AcDbScale
 70
     0
300
1/8" = 1'-0"
140
0.125
141
12.0
290
     0
  0
SCALE
  5
5F
102
{ACAD_REACTORS
330
47
102
}
330
47
100
AcDbScale
 70
     0
300
3/16" = 1'-0"
140
0.1875
141
12.0
290
     0
  0
SCALE
  5
60
102
{ACAD_REACTORS
330
47
102
}
330
47
100
AcDbScale
 70
     0
300
1/4" = 1'-0"
140
0.25
141
12.0
290
     0
  0
SCALE
  5
61
102
{ACAD_REACTORS
330
47
102
}
330
47
100
AcDbScale
 70
     0
300
3/8" = 1'-0"
140
0.375
141
12.0
290
     0
  0
SCALE
  5
62
102
{ACAD_REACTORS
330
47
102
}
330
47
100
AcDbScale
 70
     0
300
1/2" = 1'-0"
140
0.5
141
12.0
290
     0
  0
SCALE
  5
63
102
{ACAD_REACTORS
330
47
102
}
330
47
100
AcDbScale
 70
     0
300
3/4" = 1'-0"
140
0.75
141
12.0
290
     0
  0
SCALE
  5
64
102
{ACAD_REACTORS
330
47
102
}
330
47
100
AcDbScale
 70
     0
300
1" = 1'-0"
140
1.0
141
12.0
290
     0
  0
SCALE
  5
65
102
{ACAD_REACTORS
330
47
102
}
330
47
100
AcDbScale
 70
     0
300
1-1/2" = 1'-0"
140
1.5
141
12.0
290
     0
  0
SCALE
  5
66
102
{ACAD_REACTORS
330
47
102
}
330
47
100
AcDbScale
 70
     0
300
3" = 1'-0"
140
3.0
141
12.0
290
     0
  0
SCALE
  5
67
102
{ACAD_REACTORS
330
47
102
}
330
47
100
AcDbScale
 70
     0
300
6" = 1'-0"
140
6.0
141
12.0
290
     0
  0
SCALE
  5
68
102
{ACAD_REACTORS
330
47
102
}
330
47
100
AcDbScale
 70
     0
300
1'-0" = 1'-0"
140
12.0
141
12.0
290
     0
  0
VISUALSTYLE
  5
2F
102
{ACAD_REACTORS
330
2A
102
}
102
{ACAD_XDICTIONARY
360
505
102
}
330
2A
100
AcDbVisualStyle
  2
2dWireframe
 70
     4
177
     2
291
     0
 71
     0
176
     1
 72
     2
176
     1
 73
     0
176
     1
 90
        0
176
     1
 40
0.6
176
     1
 41
30.0
176
     1
 62
     5
 63
     7
421
 16777215
176
     1
 74
     1
176
     1
 91
        4
176
     1
 64
     7
176
     1
 65
   257
176
     1
 75
     1
176
     1
175
     1
176
     1
 42
1.0
176
     1
 92
        0
176
     1
 66
   257
176
     1
 43
1.0
176
     1
 76
     1
176
     1
 77
     6
176
     1
 78
     2
176
     1
 67
     7
176
     1
 79
     5
176
     1
170
     0
176
     1
171
     0
176
     1
290
     0
176
     1
 93
        1
176
     1
 44
0.0
176
     1
173
     0
176
     1
  0
VISUALSTYLE
  5
32
102
{ACAD_REACTORS
330
2A
102
}
102
{ACAD_XDICTIONARY
360
50B
102
}
330
2A
100
AcDbVisualStyle
  2
Basic
 70
     7
177
     2
291
     1
 71
     1
176
     1
 72
     0
176
     1
 73
     1
176
     1
 90
        0
176
     1
 40
0.6
176
     1
 41
30.0
176
     1
 62
     5
 63
     7
421
 16777215
176
     1
 74
     0
176
     1
 91
        4
176
     1
 64
     7
176
     1
 65
   257
176
     1
 75
     1
176
     1
175
     1
176
     1
 42
1.0
176
     1
 92
        8
176
     1
 66
     7
176
     1
 43
1.0
176
     1
 76
     1
176
     1
 77
     6
176
     1
 78
     2
176
     1
 67
     7
176
     1
 79
     5
176
     1
170
     0
176
     1
171
     0
176
     1
290
     0
176
     1
 93
        1
176
     1
 44
0.0
176
     1
173
     0
176
     1
  0
VISUALSTYLE
  5
36
102
{ACAD_REACTORS
330
2A
102
}
102
{ACAD_XDICTIONARY
360
513
102
}
330
2A
100
AcDbVisualStyle
  2
Brighten
 70
    12
177
     2
291
     1
 71
     2
176
     1
 72
     2
176
     1
 73
     0
176
     1
 90
        0
176
     1
 40
0.6
176
     1
 41
30.0
176
     1
 62
     5
 63
     7
421
 16777215
176
     1
 74
     1
176
     1
 91
        4
176
     1
 64
     7
176
     1
 65
   257
176
     1
 75
     1
176
     1
175
     1
176
     1
 42
1.0
176
     1
 92
        8
176
     1
 66
     7
176
     1
 43
1.0
176
     1
 76
     1
176
     1
 77
     6
176
     1
 78
     2
176
     1
 67
     7
176
     1
 79
     5
176
     1
170
     0
176
     1
171
     0
176
     1
290
     0
176
     1
 93
        1
176
     1
 44
50.0
176
     1
173
     0
176
     1
  0
VISUALSTYLE
  5
3A
102
{ACAD_REACTORS
330
2A
102
}
102
{ACAD_XDICTIONARY
360
51B
102
}
330
2A
100
AcDbVisualStyle
  2
ColorChange
 70
    16
177
     2
291
     1
 71
     2
176
     1
 72
     2
176
     1
 73
     3
176
     1
 90
        0
176
     1
 40
0.6
176
     1
 41
30.0
176
     1
 62
     5
 63
     8
421
  8421504
176
     1
 74
     1
176
     1
 91
        4
176
     1
 64
     7
176
     1
 65
   257
176
     1
 75
     1
176
     1
175
     1
176
     1
 42
1.0
176
     1
 92
        8
176
     1
 66
     8
424
  8421504
176
     1
 43
1.0
176
     1
 76
     1
176
     1
 77
     6
176
     1
 78
     2
176
     1
 67
     7
176
     1
 79
     5
176
     1
170
     0
176
     1
171
     0
176
     1
290
     0
176
     1
 93
        1
176
     1
 44
0.0
176
     1
173
     0
176
     1
  0
VISUALSTYLE
  5
34
102
{ACAD_REACTORS
330
2A
102
}
102
{ACAD_XDICTIONARY
360
50F
102
}
330
2A
100
AcDbVisualStyle
  2
Conceptual
 70
     9
177
     2
291
     0
 71
     3
176
     1
 72
     2
176
     1
 73
     0
176
     1
 90
        0
176
     1
 40
0.6
176
     1
 41
30.0
176
     1
 62
     5
 63
     7
421
 16777215
176
     1
 74
     2
176
     1
 91
        2
176
     1
 64
     7
176
     1
 65
   257
176
     1
 75
     1
176
     1
175
     1
176
     1
 42
179.0
176
     1
 92
        8
176
     1
 66
     7
176
     1
 43
1.0
176
     1
 76
     1
176
     1
 77
     6
176
     1
 78
     2
176
     1
 67
     7
176
     1
 79
     3
176
     1
170
     0
176
     1
171
     0
176
     1
290
     0
176
     1
 93
        1
176
     1
 44
0.0
176
     1
173
     0
176
     1
  0
VISUALSTYLE
  5
35
102
{ACAD_REACTORS
330
2A
102
}
102
{ACAD_XDICTIONARY
360
511
102
}
330
2A
100
AcDbVisualStyle
  2
Dim
 70
    11
177
     2
291
     1
 71
     2
176
     1
 72
     2
176
     1
 73
     0
176
     1
 90
        0
176
     1
 40
0.6
176
     1
 41
30.0
176
     1
 62
     5
 63
     7
421
 16777215
176
     1
 74
     1
176
     1
 91
        4
176
     1
 64
     7
176
     1
 65
   257
176
     1
 75
     1
176
     1
175
     1
176
     1
 42
1.0
176
     1
 92
        8
176
     1
 66
     7
176
     1
 43
1.0
176
     1
 76
     1
176
     1
 77
     6
176
     1
 78
     2
176
     1
 67
     7
176
     1
 79
     5
176
     1
170
     0
176
     1
171
     0
176
     1
290
     0
176
     1
 93
        1
176
     1
 44
-50.0
176
     1
173
     0
176
     1
  0
VISUALSTYLE
  5
3D
102
{ACAD_REACTORS
330
2A
102
}
102
{ACAD_XDICTIONARY
360
521
102
}
330
2A
100
AcDbVisualStyle
  2
EdgeColorOff
 70
    22
177
     2
291
     1
 71
     2
176
     0
 72
     2
176
     0
 73
     0
176
     0
 90
        0
176
     0
 40
0.6
176
     0
 41
30.0
176
     0
 62
     5
 63
     7
421
 16777215
176
     0
 74
     1
176
     0
 91
        4
176
     0
 64
     7
176
     0
 65
   257
176
     0
 75
     1
176
     0
175
     1
176
     0
 42
1.0
176
     0
 92
        8
176
     2
 66
     7
176
     0
 43
1.0
176
     0
 76
     1
176
     0
 77
     6
176
     0
 78
     2
176
     0
 67
     7
176
     0
 79
     5
176
     0
170
     0
176
     0
171
     0
176
     0
290
     0
176
     0
 93
        1
176
     0
 44
0.0
176
     0
173
     0
176
     0
  0
VISUALSTYLE
  5
39
102
{ACAD_REACTORS
330
2A
102
}
102
{ACAD_XDICTIONARY
360
519
102
}
330
2A
100
AcDbVisualStyle
  2
Facepattern
 70
    15
177
     2
291
     1
 71
     2
176
     1
 72
     2
176
     1
 73
     0
176
     1
 90
        0
176
     1
 40
0.6
176
     1
 41
30.0
176
     1
 62
     5
 63
     7
421
 16777215
176
     1
 74
     1
176
     1
 91
        4
176
     1
 64
     7
176
     1
 65
   257
176
     1
 75
     1
176
     1
175
     1
176
     1
 42
1.0
176
     1
 92
        8
176
     1
 66
     7
176
     1
 43
1.0
176
     1
 76
     1
176
     1
 77
     6
176
     1
 78
     2
176
     1
 67
     7
176
     1
 79
     5
176
     1
170
     0
176
     1
171
     0
176
     1
290
     0
176
     1
 93
        1
176
     1
 44
0.0
176
     1
173
     0
176
     1
  0
VISUALSTYLE
  5
2B
102
{ACAD_REACTORS
330
2A
102
}
102
{ACAD_XDICTIONARY
360
4FD
102
}
330
2A
100
AcDbVisualStyle
  2
Flat
 70
     0
177
     2
291
     1
 71
     2
176
     1
 72
     1
176
     1
 73
     1
176
     1
 90
        2
176
     1
 40
0.6
176
     1
 41
30.0
176
     1
 62
     5
 63
     7
421
 16777215
176
     1
 74
     0
176
     1
 91
        0
176
     1
 64
     7
176
     1
 65
   257
176
     1
 75
     1
176
     1
175
     1
176
     1
 42
1.0
176
     1
 92
        8
176
     1
 66
     7
176
     1
 43
1.0
176
     1
 76
     1
176
     1
 77
     6
176
     1
 78
     2
176
     1
 67
     7
176
     1
 79
     5
176
     1
170
     0
176
     1
171
     0
176
     1
290
     0
176
     1
 93
       13
176
     1
 44
0.0
176
     1
173
     0
176
     1
  0
VISUALSTYLE
  5
2C
102
{ACAD_REACTORS
330
2A
102
}
102
{ACAD_XDICTIONARY
360
4FF
102
}
330
2A
100
AcDbVisualStyle
  2
FlatWithEdges
 70
     1
177
     2
291
     1
 71
     2
176
     1
 72
     1
176
     1
 73
     1
176
     1
 90
        2
176
     1
 40
0.6
176
     1
 41
30.0
176
     1
 62
     5
 63
     7
421
 16777215
176
     1
 74
     1
176
     1
 91
        0
176
     1
 64
     7
176
     1
 65
   257
176
     1
 75
     1
176
     1
175
     1
176
     1
 42
1.0
176
     1
 92
        0
176
     1
 66
   257
176
     1
 43
1.0
176
     1
 76
     1
176
     1
 77
     6
176
     1
 78
     2
176
     1
 67
     7
176
     1
 79
     5
176
     1
170
     0
176
     1
171
     0
176
     1
290
     0
176
     1
 93
       13
176
     1
 44
0.0
176
     1
173
     0
176
     1
  0
VISUALSTYLE
  5
2D
102
{ACAD_REACTORS
330
2A
102
}
102
{ACAD_XDICTIONARY
360
501
102
}
330
2A
100
AcDbVisualStyle
  2
Gouraud
 70
     2
177
     2
291
     1
 71
     2
176
     1
 72
     2
176
     1
 73
     1
176
     1
 90
        2
176
     1
 40
0.6
176
     1
 41
30.0
176
     1
 62
     5
 63
     7
421
 16777215
176
     1
 74
     0
176
     1
 91
        0
176
     1
 64
     7
176
     1
 65
   257
176
     1
 75
     1
176
     1
175
     1
176
     1
 42
1.0
176
     1
 92
        0
176
     1
 66
     7
176
     1
 43
1.0
176
     1
 76
     1
176
     1
 77
     6
176
     1
 78
     2
176
     1
 67
     7
176
     1
 79
     5
176
     1
170
     0
176
     1
171
     0
176
     1
290
     0
176
     1
 93
       13
176
     1
 44
0.0
176
     1
173
     0
176
     1
  0
VISUALSTYLE
  5
2E
102
{ACAD_REACTORS
330
2A
102
}
102
{ACAD_XDICTIONARY
360
503
102
}
330
2A
100
AcDbVisualStyle
  2
GouraudWithEdges
 70
     3
177
     2
291
     1
 71
     2
176
     1
 72
     2
176
     1
 73
     1
176
     1
 90
        2
176
     1
 40
0.6
176
     1
 41
30.0
176
     1
 62
     5
 63
     7
421
 16777215
176
     1
 74
     1
176
     1
 91
        0
176
     1
 64
     7
176
     1
 65
   257
176
     1
 75
     1
176
     1
175
     1
176
     1
 42
1.0
176
     1
 92
        0
176
     1
 66
   257
176
     1
 43
1.0
176
     1
 76
     1
176
     1
 77
     6
176
     1
 78
     2
176
     1
 67
     7
176
     1
 79
     5
176
     1
170
     0
176
     1
171
     0
176
     1
290
     0
176
     1
 93
       13
176
     1
 44
0.0
176
     1
173
     0
176
     1
  0
VISUALSTYLE
  5
31
102
{ACAD_REACTORS
330
2A
102
}
102
{ACAD_XDICTIONARY
360
509
102
}
330
2A
100
AcDbVisualStyle
  2
Hidden
 70
     6
177
     2
291
     0
 71
     1
176
     1
 72
     2
176
     1
 73
     2
176
     1
 90
        0
176
     1
 40
0.6
176
     1
 41
30.0
176
     1
 62
     5
 63
     7
421
 16777215
176
     1
 74
     2
176
     1
 91
        2
176
     1
 64
     7
176
     1
 65
   257
176
     1
 75
     2
176
     1
175
     1
176
     1
 42
40.0
176
     1
 92
        0
176
     1
 66
   257
176
     1
 43
1.0
176
     1
 76
     1
176
     1
 77
     6
176
     1
 78
     2
176
     1
 67
     7
176
     1
 79
     3
176
     1
170
     0
176
     1
171
     0
176
     1
290
     0
176
     1
 93
        1
176
     1
 44
0.0
176
     1
173
     0
176
     1
  0
VISUALSTYLE
  5
3B
102
{ACAD_REACTORS
330
2A
102
}
102
{ACAD_XDICTIONARY
360
51D
102
}
330
2A
100
AcDbVisualStyle
  2
JitterOff
 70
    20
177
     2
291
     1
 71
     2
176
     0
 72
     2
176
     0
 73
     0
176
     0
 90
        0
176
     0
 40
0.6
176
     0
 41
30.0
176
     0
 62
     5
 63
     7
421
 16777215
176
     0
 74
     1
176
     0
 91
        4
176
     0
 64
     7
176
     0
 65
   257
176
     0
 75
     1
176
     0
175
     1
176
     0
 42
1.0
176
     0
 92
       10
176
     2
 66
     7
176
     0
 43
1.0
176
     0
 76
     1
176
     0
 77
     6
176
     0
 78
     2
176
     0
 67
     7
176
     0
 79
     5
176
     0
170
     0
176
     0
171
     0
176
     0
290
     0
176
     0
 93
        1
176
     0
 44
0.0
176
     0
173
     0
176
     0
  0
VISUALSTYLE
  5
38
102
{ACAD_REACTORS
330
2A
102
}
102
{ACAD_XDICTIONARY
360
517
102
}
330
2A
100
AcDbVisualStyle
  2
Linepattern
 70
    14
177
     2
291
     1
 71
     2
176
     1
 72
     2
176
     1
 73
     0
176
     1
 90
        0
176
     1
 40
0.6
176
     1
 41
30.0
176
     1
 62
     5
 63
     7
421
 16777215
176
     1
 74
     1
176
     1
 91
        4
176
     1
 64
     7
176
     1
 65
   257
176
     1
 75
     7
176
     1
175
     7
176
     1
 42
1.0
176
     1
 92
        8
176
     1
 66
     7
176
     1
 43
1.0
176
     1
 76
     1
176
     1
 77
     6
176
     1
 78
     2
176
     1
 67
     7
176
     1
 79
     5
176
     1
170
     0
176
     1
171
     0
176
     1
290
     0
176
     1
 93
        1
176
     1
 44
0.0
176
     1
173
     0
176
     1
  0
VISUALSTYLE
  5
3C
102
{ACAD_REACTORS
330
2A
102
}
102
{ACAD_XDICTIONARY
360
51F
102
}
330
2A
100
AcDbVisualStyle
  2
OverhangOff
 70
    21
177
     2
291
     1
 71
     2
176
     0
 72
     2
176
     0
 73
     0
176
     0
 90
        0
176
     0
 40
0.6
176
     0
 41
30.0
176
     0
 62
     5
 63
     7
421
 16777215
176
     0
 74
     1
176
     0
 91
        4
176
     0
 64
     7
176
     0
 65
   257
176
     0
 75
     1
176
     0
175
     1
176
     0
 42
1.0
176
     0
 92
        9
176
     2
 66
     7
176
     0
 43
1.0
176
     0
 76
     1
176
     0
 77
     6
176
     0
 78
     2
176
     0
 67
     7
176
     0
 79
     5
176
     0
170
     0
176
     0
171
     0
176
     0
290
     0
176
     0
 93
        1
176
     0
 44
0.0
176
     0
173
     0
176
     0
  0
VISUALSTYLE
  5
33
102
{ACAD_REACTORS
330
2A
102
}
102
{ACAD_XDICTIONARY
360
50D
102
}
330
2A
100
AcDbVisualStyle
  2
Realistic
 70
     8
177
     2
291
     0
 71
     2
176
     1
 72
     3
176
     1
 73
     0
176
     1
 90
        2
176
     1
 40
0.6
176
     1
 41
30.0
176
     1
 62
     5
 63
     7
421
 16777215
176
     1
 74
     0
176
     1
 91
        0
176
     1
 64
     7
176
     1
 65
   257
176
     1
 75
     1
176
     1
175
     1
176
     1
 42
1.0
176
     1
 92
        8
176
     1
 66
   257
176
     1
 43
1.0
176
     1
 76
     1
176
     1
 77
     6
176
     1
 78
     2
176
     1
 67
     7
176
     1
 79
     3
176
     1
170
     0
176
     1
171
     0
176
     1
290
     0
176
     1
 93
       13
176
     1
 44
0.0
176
     1
173
     0
176
     1
  0
VISUALSTYLE
  5
42
102
{ACAD_REACTORS
330
2A
102
}
102
{ACAD_XDICTIONARY
360
52B
102
}
330
2A
100
AcDbVisualStyle
  2
Shaded
 70
    27
177
     2
291
     0
 71
     2
176
     1
 72
     2
176
     1
 73
     1
176
     1
 90
        2
176
     1
 40
0.6
176
     1
 41
30.0
176
     1
 62
     5
 63
     7
421
 16777215
176
     1
 74
     0
176
     1
 91
        4
176
     1
 64
     7
176
     1
 65
   257
176
     1
 75
     1
176
     1
175
     1
176
     1
 42
1.0
176
     1
 92
        8
176
     1
 66
   257
176
     1
 43
1.0
176
     1
 76
     1
176
     1
 77
     6
176
     1
 78
     2
176
     1
 67
     8
425
  7895160
176
     1
 79
     3
176
     1
170
     0
176
     1
171
     0
176
     1
290
     0
176
     1
 93
        5
176
     1
 44
0.0
176
     1
173
     0
176
     1
  0
VISUALSTYLE
  5
41
102
{ACAD_REACTORS
330
2A
102
}
102
{ACAD_XDICTIONARY
360
529
102
}
330
2A
100
AcDbVisualStyle
  2
Shaded with edges
 70
    26
177
     2
291
     0
 71
     2
176
     1
 72
     2
176
     1
 73
     1
176
     1
 90
        2
176
     1
 40
0.6
176
     1
 41
30.0
176
     1
 62
     5
 63
     7
421
 16777215
176
     1
 74
     1
176
     1
 91
       10
176
     1
 64
     7
176
     1
 65
   257
176
     1
 75
     2
176
     1
175
     1
176
     1
 42
1.0
176
     1
 92
        8
176
     1
 66
   257
176
     1
 43
1.0
176
     1
 76
     1
176
     1
 77
     6
176
     1
 78
     2
176
     1
 67
     7
176
     1
 79
     3
176
     1
170
     0
176
     1
171
     0
176
     1
290
     0
176
     1
 93
        5
176
     1
 44
0.0
176
     1
173
     0
176
     1
  0
VISUALSTYLE
  5
3E
102
{ACAD_REACTORS
330
2A
102
}
102
{ACAD_XDICTIONARY
360
523
102
}
330
2A
100
AcDbVisualStyle
  2
Shades of Gray
 70
    23
177
     2
291
     0
 71
     2
176
     1
 72
     2
176
     1
 73
     3
176
     1
 90
        0
176
     1
 40
0.6
176
     1
 41
30.0
176
     1
 62
     5
 63
     7
421
 16777215
176
     1
 74
     2
176
     1
 91
        2
176
     1
 64
     7
176
     1
 65
     7
176
     1
 75
     1
176
     1
175
     1
176
     1
 42
40.0
176
     1
 92
        8
176
     1
 66
     7
176
     1
 43
1.0
176
     1
 76
     1
176
     1
 77
     6
176
     1
 78
     2
176
     1
 67
     7
176
     1
 79
     3
176
     1
170
     0
176
     1
171
     0
176
     1
290
     0
176
     1
 93
        1
176
     1
 44
0.0
176
     1
173
     0
176
     1
  0
VISUALSTYLE
  5
3F
102
{ACAD_REACTORS
330
2A
102
}
102
{ACAD_XDICTIONARY
360
525
102
}
330
2A
100
AcDbVisualStyle
  2
Sketchy
 70
    24
177
     2
291
     0
 71
     1
176
     1
 72
     2
176
     1
 73
     2
176
     1
 90
        0
176
     1
 40
0.6
176
     1
 41
30.0
176
     1
 62
     5
 63
     7
421
 16777215
176
     1
 74
     2
176
     1
 91
        2
176
     1
 64
     7
176
     1
 65
     7
176
     1
 75
     1
176
     1
175
     1
176
     1
 42
40.0
176
     1
 92
       11
176
     1
 66
     7
176
     1
 43
1.0
176
     1
 76
     1
176
     1
 77
     6
176
     1
 78
     2
176
     1
 67
     7
176
     1
 79
     6
176
     1
170
     0
176
     1
171
     0
176
     1
290
     0
176
     1
 93
        1
176
     1
 44
0.0
176
     1
173
     0
176
     1
  0
VISUALSTYLE
  5
37
102
{ACAD_REACTORS
330
2A
102
}
102
{ACAD_XDICTIONARY
360
515
102
}
330
2A
100
AcDbVisualStyle
  2
Thicken
 70
    13
177
     2
291
     1
 71
     2
176
     1
 72
     2
176
     1
 73
     0
176
     1
 90
        0
176
     1
 40
0.6
176
     1
 41
30.0
176
     1
 62
     5
 63
     7
421
 16777215
176
     1
 74
     1
176
     1
 91
        4
176
     1
 64
     7
176
     1
 65
   257
176
     1
 75
     1
176
     1
175
     1
176
     1
 42
1.0
176
     1
 92
       12
176
     1
 66
     7
176
     1
 43
1.0
176
     1
 76
     1
176
     1
 77
     6
176
     1
 78
     2
176
     1
 67
     7
176
     1
 79
     5
176
     1
170
     0
176
     1
171
     0
176
     1
290
     0
176
     1
 93
        1
176
     1
 44
0.0
176
     1
173
     0
176
     1
  0
VISUALSTYLE
  5
30
102
{ACAD_REACTORS
330
2A
102
}
102
{ACAD_XDICTIONARY
360
507
102
}
330
2A
100
AcDbVisualStyle
  2
Wireframe
 70
     5
177
     2
291
     0
 71
     0
176
     1
 72
     2
176
     1
 73
     0
176
     1
 90
        0
176
     1
 40
0.6
176
     1
 41
30.0
176
     1
 62
     5
 63
     7
421
 16777215
176
     1
 74
     1
176
     1
 91
        4
176
     1
 64
     7
176
     1
 65
   257
176
     1
 75
     1
176
     1
175
     1
176
     1
 42
1.0
176
     1
 92
        0
176
     1
 66
   257
176
     1
 43
1.0
176
     1
 76
     1
176
     1
 77
     6
176
     1
 78
     2
176
     1
 67
     7
176
     1
 79
     3
176
     1
170
     0
176
     1
171
     0
176
     1
290
     0
176
     1
 93
        1
176
     1
 44
0.0
176
     1
173
     0
176
     1
  0
VISUALSTYLE
  5
40
102
{ACAD_REACTORS
330
2A
102
}
102
{ACAD_XDICTIONARY
360
527
102
}
330
2A
100
AcDbVisualStyle
  2
X-Ray
 70
    25
177
     2
291
     0
 71
     2
176
     1
 72
     2
176
     1
 73
     1
176
     1
 90
        1
176
     1
 40
0.5
176
     1
 41
30.0
176
     1
 62
     5
 63
     7
421
 16777215
176
     1
 74
     1
176
     1
 91
        0
176
     1
 64
     7
176
     1
 65
   257
176
     1
 75
     1
176
     1
175
     1
176
     1
 42
1.0
176
     1
 92
        8
176
     1
 66
     7
176
     1
 43
1.0
176
     1
 76
     1
176
     1
 77
     6
176
     1
 78
     2
176
     1
 67
     7
176
     1
 79
     3
176
     1
170
     0
176
     1
171
     0
176
     1
290
     0
176
     1
 93
       13
176
     1
 44
0.0
176
     1
173
     0
176
     1
  0
DICTIONARYVAR
  5
4FC
102
{ACAD_REACTORS
330
4FB
102
}
330
4FB
100
DictionaryVariables
280
     0
  1
1:1
  0
DICTIONARY
  5
505
330
2F
100
AcDbDictionary
280
     1
281
     1
  3
ACAD_XREC_ROUNDTRIP
360
506
  0
DICTIONARY
  5
50B
330
32
100
AcDbDictionary
280
     1
281
     1
  3
ACAD_XREC_ROUNDTRIP
360
50C
  0
DICTIONARY
  5
513
330
36
100
AcDbDictionary
280
     1
281
     1
  3
ACAD_XREC_ROUNDTRIP
360
514
  0
DICTIONARY
  5
51B
330
3A
100
AcDbDictionary
280
     1
281
     1
  3
ACAD_XREC_ROUNDTRIP
360
51C
  0
DICTIONARY
  5
50F
330
34
100
AcDbDictionary
280
     1
281
     1
  3
ACAD_XREC_ROUNDTRIP
360
510
  0
DICTIONARY
  5
511
330
35
100
AcDbDictionary
280
     1
281
     1
  3
ACAD_XREC_ROUNDTRIP
360
512
  0
DICTIONARY
  5
521
330
3D
100
AcDbDictionary
280
     1
281
     1
  3
ACAD_XREC_ROUNDTRIP
360
522
  0
DICTIONARY
  5
519
330
39
100
AcDbDictionary
280
     1
281
     1
  3
ACAD_XREC_ROUNDTRIP
360
51A
  0
DICTIONARY
  5
4FD
330
2B
100
AcDbDictionary
280
     1
281
     1
  3
ACAD_XREC_ROUNDTRIP
360
4FE
  0
DICTIONARY
  5
4FF
330
2C
100
AcDbDictionary
280
     1
281
     1
  3
ACAD_XREC_ROUNDTRIP
360
500
  0
DICTIONARY
  5
501
330
2D
100
AcDbDictionary
280
     1
281
     1
  3
ACAD_XREC_ROUNDTRIP
360
502
  0
DICTIONARY
  5
503
330
2E
100
AcDbDictionary
280
     1
281
     1
  3
ACAD_XREC_ROUNDTRIP
360
504
  0
DICTIONARY
  5
509
330
31
100
AcDbDictionary
280
     1
281
     1
  3
ACAD_XREC_ROUNDTRIP
360
50A
  0
DICTIONARY
  5
51D
330
3B
100
AcDbDictionary
280
     1
281
     1
  3
ACAD_XREC_ROUNDTRIP
360
51E
  0
DICTIONARY
  5
517
330
38
100
AcDbDictionary
280
     1
281
     1
  3
ACAD_XREC_ROUNDTRIP
360
518
  0
DICTIONARY
  5
51F
330
3C
100
AcDbDictionary
280
     1
281
     1
  3
ACAD_XREC_ROUNDTRIP
360
520
  0
DICTIONARY
  5
50D
330
33
100
AcDbDictionary
280
     1
281
     1
  3
ACAD_XREC_ROUNDTRIP
360
50E
  0
DICTIONARY
  5
52B
330
42
100
AcDbDictionary
280
     1
281
     1
  3
ACAD_XREC_ROUNDTRIP
360
52C
  0
DICTIONARY
  5
529
330
41
100
AcDbDictionary
280
     1
281
     1
  3
ACAD_XREC_ROUNDTRIP
360
52A
  0
DICTIONARY
  5
523
330
3E
100
AcDbDictionary
280
     1
281
     1
  3
ACAD_XREC_ROUNDTRIP
360
524
  0
DICTIONARY
  5
525
330
3F
100
AcDbDictionary
280
     1
281
     1
  3
ACAD_XREC_ROUNDTRIP
360
526
  0
DICTIONARY
  5
515
330
37
100
AcDbDictionary
280
     1
281
     1
  3
ACAD_XREC_ROUNDTRIP
360
516
  0
DICTIONARY
  5
507
330
30
100
AcDbDictionary
280
     1
281
     1
  3
ACAD_XREC_ROUNDTRIP
360
508
  0
DICTIONARY
  5
527
330
40
100
AcDbDictionary
280
     1
281
     1
  3
ACAD_XREC_ROUNDTRIP
360
528
  0
XRECORD
  5
506
102
{ACAD_REACTORS
330
505
102
}
330
505
100
AcDbXrecord
280
     1
102
RTVSPost2010Prop28
280
     1
102
RTVSPost2010PropOp28
 70
     1
102
RTVSPost2010Prop29
280
     1
102
RTVSPost2010PropOp29
 70
     1
102
RTVSPost2010Prop30
280
     0
102
RTVSPost2010PropOp30
 70
     1
102
RTVSPost2010Prop31
280
     0
102
RTVSPost2010PropOp31
 70
     1
102
RTVSPost2010Prop32
280
     0
102
RTVSPost2010PropOp32
 70
     1
102
RTVSPost2010Prop33
280
     0
102
RTVSPost2010PropOp33
 70
     1
102
RTVSPost2010Prop34
280
     0
102
RTVSPost2010PropOp34
 70
     1
102
RTVSPost2010Prop35
280
     0
102
RTVSPost2010PropOp35
 70
     1
102
RTVSPost2010Prop36
280
     0
102
RTVSPost2010PropOp36
 70
     1
102
RTVSPost2010Prop37
 90
       50
102
RTVSPost2010PropOp37
 70
     1
102
RTVSPost2010Prop38
140
0.0
102
RTVSPost2010PropOp38
 70
     1
102
RTVSPost2010Prop39
140
1.0
102
RTVSPost2010PropOp39
 70
     1
102
RTVSPost2010Prop40
 90
        0
102
RTVSPost2010PropOp40
 70
     1
102
RTVSPost2010Prop41ColorIndex
 90
       18
102
RTVSPost2010Prop41ColorRGB
 90
        0
102
RTVSPost2010PropOp41
 70
     1
102
RTVSPost2010Prop42
 90
       50
102
RTVSPost2010PropOp42
 70
     1
102
RTVSPost2010Prop43
 90
        3
102
RTVSPost2010PropOp43
 70
     1
102
RTVSPost2010Prop44ColorIndex
 90
        5
102
RTVSPost2010Prop44ColorRGB
 90
      255
102
RTVSPost2010PropOp44
 70
     1
102
RTVSPost2010Prop45
280
     0
102
RTVSPost2010PropOp45
 70
     1
102
RTVSPost2010Prop46
 90
       50
102
RTVSPost2010PropOp46
 70
     1
102
RTVSPost2010Prop47
 90
       50
102
RTVSPost2010PropOp47
 70
     1
102
RTVSPost2010Prop48
 90
       50
102
RTVSPost2010PropOp48
 70
     1
102
RTVSPost2010Prop49
280
     0
102
RTVSPost2010PropOp49
 70
     1
102
RTVSPost2010Prop50
 90
       50
102
RTVSPost2010PropOp50
 70
     1
102
RTVSPost2010Prop51ColorIndex
 90
      256
102
RTVSPost2010Prop51ColorRGB
 90
-16777216
102
RTVSPost2010PropOp51
 70
     0
102
RTVSPost2010Prop52
140
1.0
102
RTVSPost2010PropOp52
 70
     0
102
RTVSPost2010Prop53
 90
        2
102
RTVSPost2010PropOp53
 70
     1
102
RTVSPost2010Prop54
  1
strokes_ogs.tif
102
RTVSPost2010PropOp54
 70
     1
102
RTVSPost2010Prop55
280
     0
102
RTVSPost2010PropOp55
 70
     1
102
RTVSPost2010Prop56
140
1.0
102
RTVSPost2010PropOp56
 70
     1
102
RTVSPost2010Prop57
140
1.0
102
RTVSPost2010PropOp57
 70
     1
  0
XRECORD
  5
50C
102
{ACAD_REACTORS
330
50B
102
}
330
50B
100
AcDbXrecord
280
     1
102
RTVSPost2010Prop28
280
     0
102
RTVSPost2010PropOp28
 70
     1
102
RTVSPost2010Prop29
280
     1
102
RTVSPost2010PropOp29
 70
     1
102
RTVSPost2010Prop30
280
     1
102
RTVSPost2010PropOp30
 70
     1
102
RTVSPost2010Prop31
280
     0
102
RTVSPost2010PropOp31
 70
     1
102
RTVSPost2010Prop32
280
     0
102
RTVSPost2010PropOp32
 70
     1
102
RTVSPost2010Prop33
280
     0
102
RTVSPost2010PropOp33
 70
     1
102
RTVSPost2010Prop34
280
     0
102
RTVSPost2010PropOp34
 70
     1
102
RTVSPost2010Prop35
280
     0
102
RTVSPost2010PropOp35
 70
     1
102
RTVSPost2010Prop36
280
     0
102
RTVSPost2010PropOp36
 70
     1
102
RTVSPost2010Prop37
 90
       50
102
RTVSPost2010PropOp37
 70
     1
102
RTVSPost2010Prop38
140
0.0
102
RTVSPost2010PropOp38
 70
     1
102
RTVSPost2010Prop39
140
1.0
102
RTVSPost2010PropOp39
 70
     1
102
RTVSPost2010Prop40
 90
        0
102
RTVSPost2010PropOp40
 70
     1
102
RTVSPost2010Prop41ColorIndex
 90
       18
102
RTVSPost2010Prop41ColorRGB
 90
        0
102
RTVSPost2010PropOp41
 70
     1
102
RTVSPost2010Prop42
 90
       50
102
RTVSPost2010PropOp42
 70
     1
102
RTVSPost2010Prop43
 90
        3
102
RTVSPost2010PropOp43
 70
     1
102
RTVSPost2010Prop44ColorIndex
 90
        5
102
RTVSPost2010Prop44ColorRGB
 90
      255
102
RTVSPost2010PropOp44
 70
     1
102
RTVSPost2010Prop45
280
     0
102
RTVSPost2010PropOp45
 70
     1
102
RTVSPost2010Prop46
 90
       50
102
RTVSPost2010PropOp46
 70
     1
102
RTVSPost2010Prop47
 90
       50
102
RTVSPost2010PropOp47
 70
     1
102
RTVSPost2010Prop48
 90
       50
102
RTVSPost2010PropOp48
 70
     1
102
RTVSPost2010Prop49
280
     0
102
RTVSPost2010PropOp49
 70
     1
102
RTVSPost2010Prop50
 90
       50
102
RTVSPost2010PropOp50
 70
     1
102
RTVSPost2010Prop51ColorIndex
 90
      256
102
RTVSPost2010Prop51ColorRGB
 90
-16777216
102
RTVSPost2010PropOp51
 70
     0
102
RTVSPost2010Prop52
140
1.0
102
RTVSPost2010PropOp52
 70
     0
102
RTVSPost2010Prop53
 90
        2
102
RTVSPost2010PropOp53
 70
     1
102
RTVSPost2010Prop54
  1
strokes_ogs.tif
102
RTVSPost2010PropOp54
 70
     1
102
RTVSPost2010Prop55
280
     0
102
RTVSPost2010PropOp55
 70
     1
102
RTVSPost2010Prop56
140
1.0
102
RTVSPost2010PropOp56
 70
     1
102
RTVSPost2010Prop57
140
1.0
102
RTVSPost2010PropOp57
 70
     1
  0
XRECORD
  5
514
102
{ACAD_REACTORS
330
513
102
}
330
513
100
AcDbXrecord
280
     1
102
RTVSPost2010Prop28
280
     0
102
RTVSPost2010PropOp28
 70
     1
102
RTVSPost2010Prop29
280
     1
102
RTVSPost2010PropOp29
 70
     1
102
RTVSPost2010Prop30
280
     1
102
RTVSPost2010PropOp30
 70
     1
102
RTVSPost2010Prop31
280
     0
102
RTVSPost2010PropOp31
 70
     1
102
RTVSPost2010Prop32
280
     0
102
RTVSPost2010PropOp32
 70
     1
102
RTVSPost2010Prop33
280
     0
102
RTVSPost2010PropOp33
 70
     1
102
RTVSPost2010Prop34
280
     0
102
RTVSPost2010PropOp34
 70
     1
102
RTVSPost2010Prop35
280
     0
102
RTVSPost2010PropOp35
 70
     1
102
RTVSPost2010Prop36
280
     0
102
RTVSPost2010PropOp36
 70
     1
102
RTVSPost2010Prop37
 90
       50
102
RTVSPost2010PropOp37
 70
     1
102
RTVSPost2010Prop38
140
0.0
102
RTVSPost2010PropOp38
 70
     1
102
RTVSPost2010Prop39
140
1.0
102
RTVSPost2010PropOp39
 70
     1
102
RTVSPost2010Prop40
 90
        0
102
RTVSPost2010PropOp40
 70
     1
102
RTVSPost2010Prop41ColorIndex
 90
       18
102
RTVSPost2010Prop41ColorRGB
 90
        0
102
RTVSPost2010PropOp41
 70
     1
102
RTVSPost2010Prop42
 90
       50
102
RTVSPost2010PropOp42
 70
     1
102
RTVSPost2010Prop43
 90
        3
102
RTVSPost2010PropOp43
 70
     1
102
RTVSPost2010Prop44ColorIndex
 90
        5
102
RTVSPost2010Prop44ColorRGB
 90
      255
102
RTVSPost2010PropOp44
 70
     1
102
RTVSPost2010Prop45
280
     0
102
RTVSPost2010PropOp45
 70
     1
102
RTVSPost2010Prop46
 90
       50
102
RTVSPost2010PropOp46
 70
     1
102
RTVSPost2010Prop47
 90
       50
102
RTVSPost2010PropOp47
 70
     1
102
RTVSPost2010Prop48
 90
       50
102
RTVSPost2010PropOp48
 70
     1
102
RTVSPost2010Prop49
280
     0
102
RTVSPost2010PropOp49
 70
     1
102
RTVSPost2010Prop50
 90
       50
102
RTVSPost2010PropOp50
 70
     1
102
RTVSPost2010Prop51ColorIndex
 90
      256
102
RTVSPost2010Prop51ColorRGB
 90
-16777216
102
RTVSPost2010PropOp51
 70
     0
102
RTVSPost2010Prop52
140
1.0
102
RTVSPost2010PropOp52
 70
     0
102
RTVSPost2010Prop53
 90
        2
102
RTVSPost2010PropOp53
 70
     1
102
RTVSPost2010Prop54
  1
strokes_ogs.tif
102
RTVSPost2010PropOp54
 70
     1
102
RTVSPost2010Prop55
280
     0
102
RTVSPost2010PropOp55
 70
     1
102
RTVSPost2010Prop56
140
1.0
102
RTVSPost2010PropOp56
 70
     1
102
RTVSPost2010Prop57
140
1.0
102
RTVSPost2010PropOp57
 70
     1
  0
XRECORD
  5
51C
102
{ACAD_REACTORS
330
51B
102
}
330
51B
100
AcDbXrecord
280
     1
102
RTVSPost2010Prop28
280
     0
102
RTVSPost2010PropOp28
 70
     1
102
RTVSPost2010Prop29
280
     1
102
RTVSPost2010PropOp29
 70
     1
102
RTVSPost2010Prop30
280
     1
102
RTVSPost2010PropOp30
 70
     1
102
RTVSPost2010Prop31
280
     0
102
RTVSPost2010PropOp31
 70
     1
102
RTVSPost2010Prop32
280
     0
102
RTVSPost2010PropOp32
 70
     1
102
RTVSPost2010Prop33
280
     0
102
RTVSPost2010PropOp33
 70
     1
102
RTVSPost2010Prop34
280
     0
102
RTVSPost2010PropOp34
 70
     1
102
RTVSPost2010Prop35
280
     0
102
RTVSPost2010PropOp35
 70
     1
102
RTVSPost2010Prop36
280
     0
102
RTVSPost2010PropOp36
 70
     1
102
RTVSPost2010Prop37
 90
       50
102
RTVSPost2010PropOp37
 70
     1
102
RTVSPost2010Prop38
140
0.0
102
RTVSPost2010PropOp38
 70
     1
102
RTVSPost2010Prop39
140
1.0
102
RTVSPost2010PropOp39
 70
     1
102
RTVSPost2010Prop40
 90
        0
102
RTVSPost2010PropOp40
 70
     1
102
RTVSPost2010Prop41ColorIndex
 90
       18
102
RTVSPost2010Prop41ColorRGB
 90
        0
102
RTVSPost2010PropOp41
 70
     1
102
RTVSPost2010Prop42
 90
       50
102
RTVSPost2010PropOp42
 70
     1
102
RTVSPost2010Prop43
 90
        3
102
RTVSPost2010PropOp43
 70
     1
102
RTVSPost2010Prop44ColorIndex
 90
        5
102
RTVSPost2010Prop44ColorRGB
 90
      255
102
RTVSPost2010PropOp44
 70
     1
102
RTVSPost2010Prop45
280
     0
102
RTVSPost2010PropOp45
 70
     1
102
RTVSPost2010Prop46
 90
       50
102
RTVSPost2010PropOp46
 70
     1
102
RTVSPost2010Prop47
 90
       50
102
RTVSPost2010PropOp47
 70
     1
102
RTVSPost2010Prop48
 90
       50
102
RTVSPost2010PropOp48
 70
     1
102
RTVSPost2010Prop49
280
     0
102
RTVSPost2010PropOp49
 70
     1
102
RTVSPost2010Prop50
 90
       50
102
RTVSPost2010PropOp50
 70
     1
102
RTVSPost2010Prop51ColorIndex
 90
      256
102
RTVSPost2010Prop51ColorRGB
 90
-16777216
102
RTVSPost2010PropOp51
 70
     0
102
RTVSPost2010Prop52
140
1.0
102
RTVSPost2010PropOp52
 70
     0
102
RTVSPost2010Prop53
 90
        2
102
RTVSPost2010PropOp53
 70
     1
102
RTVSPost2010Prop54
  1
strokes_ogs.tif
102
RTVSPost2010PropOp54
 70
     1
102
RTVSPost2010Prop55
280
     0
102
RTVSPost2010PropOp55
 70
     1
102
RTVSPost2010Prop56
140
1.0
102
RTVSPost2010PropOp56
 70
     1
102
RTVSPost2010Prop57
140
1.0
102
RTVSPost2010PropOp57
 70
     1
  0
XRECORD
  5
510
102
{ACAD_REACTORS
330
50F
102
}
330
50F
100
AcDbXrecord
280
     1
102
RTVSPost2010Prop28
280
     0
102
RTVSPost2010PropOp28
 70
     1
102
RTVSPost2010Prop29
280
     1
102
RTVSPost2010PropOp29
 70
     1
102
RTVSPost2010Prop30
280
     1
102
RTVSPost2010PropOp30
 70
     1
102
RTVSPost2010Prop31
280
     0
102
RTVSPost2010PropOp31
 70
     1
102
RTVSPost2010Prop32
280
     0
102
RTVSPost2010PropOp32
 70
     1
102
RTVSPost2010Prop33
280
     0
102
RTVSPost2010PropOp33
 70
     1
102
RTVSPost2010Prop34
280
     0
102
RTVSPost2010PropOp34
 70
     1
102
RTVSPost2010Prop35
280
     0
102
RTVSPost2010PropOp35
 70
     1
102
RTVSPost2010Prop36
280
     0
102
RTVSPost2010PropOp36
 70
     1
102
RTVSPost2010Prop37
 90
       50
102
RTVSPost2010PropOp37
 70
     1
102
RTVSPost2010Prop38
140
0.0
102
RTVSPost2010PropOp38
 70
     1
102
RTVSPost2010Prop39
140
1.0
102
RTVSPost2010PropOp39
 70
     1
102
RTVSPost2010Prop40
 90
        0
102
RTVSPost2010PropOp40
 70
     1
102
RTVSPost2010Prop41ColorIndex
 90
       18
102
RTVSPost2010Prop41ColorRGB
 90
        0
102
RTVSPost2010PropOp41
 70
     1
102
RTVSPost2010Prop42
 90
       50
102
RTVSPost2010PropOp42
 70
     1
102
RTVSPost2010Prop43
 90
        3
102
RTVSPost2010PropOp43
 70
     1
102
RTVSPost2010Prop44ColorIndex
 90
        5
102
RTVSPost2010Prop44ColorRGB
 90
      255
102
RTVSPost2010PropOp44
 70
     1
102
RTVSPost2010Prop45
280
     0
102
RTVSPost2010PropOp45
 70
     1
102
RTVSPost2010Prop46
 90
       50
102
RTVSPost2010PropOp46
 70
     1
102
RTVSPost2010Prop47
 90
       50
102
RTVSPost2010PropOp47
 70
     1
102
RTVSPost2010Prop48
 90
       50
102
RTVSPost2010PropOp48
 70
     1
102
RTVSPost2010Prop49
280
     0
102
RTVSPost2010PropOp49
 70
     1
102
RTVSPost2010Prop50
 90
       50
102
RTVSPost2010PropOp50
 70
     1
102
RTVSPost2010Prop51ColorIndex
 90
      256
102
RTVSPost2010Prop51ColorRGB
 90
-16777216
102
RTVSPost2010PropOp51
 70
     0
102
RTVSPost2010Prop52
140
1.0
102
RTVSPost2010PropOp52
 70
     0
102
RTVSPost2010Prop53
 90
        2
102
RTVSPost2010PropOp53
 70
     1
102
RTVSPost2010Prop54
  1
strokes_ogs.tif
102
RTVSPost2010PropOp54
 70
     1
102
RTVSPost2010Prop55
280
     0
102
RTVSPost2010PropOp55
 70
     1
102
RTVSPost2010Prop56
140
1.0
102
RTVSPost2010PropOp56
 70
     1
102
RTVSPost2010Prop57
140
1.0
102
RTVSPost2010PropOp57
 70
     1
  0
XRECORD
  5
512
102
{ACAD_REACTORS
330
511
102
}
330
511
100
AcDbXrecord
280
     1
102
RTVSPost2010Prop28
280
     0
102
RTVSPost2010PropOp28
 70
     1
102
RTVSPost2010Prop29
280
     1
102
RTVSPost2010PropOp29
 70
     1
102
RTVSPost2010Prop30
280
     1
102
RTVSPost2010PropOp30
 70
     1
102
RTVSPost2010Prop31
280
     0
102
RTVSPost2010PropOp31
 70
     1
102
RTVSPost2010Prop32
280
     0
102
RTVSPost2010PropOp32
 70
     1
102
RTVSPost2010Prop33
280
     0
102
RTVSPost2010PropOp33
 70
     1
102
RTVSPost2010Prop34
280
     0
102
RTVSPost2010PropOp34
 70
     1
102
RTVSPost2010Prop35
280
     0
102
RTVSPost2010PropOp35
 70
     1
102
RTVSPost2010Prop36
280
     0
102
RTVSPost2010PropOp36
 70
     1
102
RTVSPost2010Prop37
 90
       50
102
RTVSPost2010PropOp37
 70
     1
102
RTVSPost2010Prop38
140
0.0
102
RTVSPost2010PropOp38
 70
     1
102
RTVSPost2010Prop39
140
1.0
102
RTVSPost2010PropOp39
 70
     1
102
RTVSPost2010Prop40
 90
        0
102
RTVSPost2010PropOp40
 70
     1
102
RTVSPost2010Prop41ColorIndex
 90
       18
102
RTVSPost2010Prop41ColorRGB
 90
        0
102
RTVSPost2010PropOp41
 70
     1
102
RTVSPost2010Prop42
 90
       50
102
RTVSPost2010PropOp42
 70
     1
102
RTVSPost2010Prop43
 90
        3
102
RTVSPost2010PropOp43
 70
     1
102
RTVSPost2010Prop44ColorIndex
 90
        5
102
RTVSPost2010Prop44ColorRGB
 90
      255
102
RTVSPost2010PropOp44
 70
     1
102
RTVSPost2010Prop45
280
     0
102
RTVSPost2010PropOp45
 70
     1
102
RTVSPost2010Prop46
 90
       50
102
RTVSPost2010PropOp46
 70
     1
102
RTVSPost2010Prop47
 90
       50
102
RTVSPost2010PropOp47
 70
     1
102
RTVSPost2010Prop48
 90
       50
102
RTVSPost2010PropOp48
 70
     1
102
RTVSPost2010Prop49
280
     0
102
RTVSPost2010PropOp49
 70
     1
102
RTVSPost2010Prop50
 90
       50
102
RTVSPost2010PropOp50
 70
     1
102
RTVSPost2010Prop51ColorIndex
 90
      256
102
RTVSPost2010Prop51ColorRGB
 90
-16777216
102
RTVSPost2010PropOp51
 70
     0
102
RTVSPost2010Prop52
140
1.0
102
RTVSPost2010PropOp52
 70
     0
102
RTVSPost2010Prop53
 90
        2
102
RTVSPost2010PropOp53
 70
     1
102
RTVSPost2010Prop54
  1
strokes_ogs.tif
102
RTVSPost2010PropOp54
 70
     1
102
RTVSPost2010Prop55
280
     0
102
RTVSPost2010PropOp55
 70
     1
102
RTVSPost2010Prop56
140
1.0
102
RTVSPost2010PropOp56
 70
     1
102
RTVSPost2010Prop57
140
1.0
102
RTVSPost2010PropOp57
 70
     1
  0
XRECORD
  5
522
102
{ACAD_REACTORS
330
521
102
}
330
521
100
AcDbXrecord
280
     1
102
RTVSPost2010Prop28
280
     0
102
RTVSPost2010PropOp28
 70
     0
102
RTVSPost2010Prop29
280
     1
102
RTVSPost2010PropOp29
 70
     0
102
RTVSPost2010Prop30
280
     1
102
RTVSPost2010PropOp30
 70
     0
102
RTVSPost2010Prop31
280
     0
102
RTVSPost2010PropOp31
 70
     0
102
RTVSPost2010Prop32
280
     0
102
RTVSPost2010PropOp32
 70
     0
102
RTVSPost2010Prop33
280
     0
102
RTVSPost2010PropOp33
 70
     0
102
RTVSPost2010Prop34
280
     0
102
RTVSPost2010PropOp34
 70
     0
102
RTVSPost2010Prop35
280
     0
102
RTVSPost2010PropOp35
 70
     0
102
RTVSPost2010Prop36
280
     0
102
RTVSPost2010PropOp36
 70
     0
102
RTVSPost2010Prop37
 90
       50
102
RTVSPost2010PropOp37
 70
     0
102
RTVSPost2010Prop38
140
0.0
102
RTVSPost2010PropOp38
 70
     0
102
RTVSPost2010Prop39
140
1.0
102
RTVSPost2010PropOp39
 70
     0
102
RTVSPost2010Prop40
 90
        0
102
RTVSPost2010PropOp40
 70
     0
102
RTVSPost2010Prop41ColorIndex
 90
       18
102
RTVSPost2010Prop41ColorRGB
 90
        0
102
RTVSPost2010PropOp41
 70
     0
102
RTVSPost2010Prop42
 90
       50
102
RTVSPost2010PropOp42
 70
     0
102
RTVSPost2010Prop43
 90
        3
102
RTVSPost2010PropOp43
 70
     0
102
RTVSPost2010Prop44ColorIndex
 90
        5
102
RTVSPost2010Prop44ColorRGB
 90
      255
102
RTVSPost2010PropOp44
 70
     0
102
RTVSPost2010Prop45
280
     0
102
RTVSPost2010PropOp45
 70
     0
102
RTVSPost2010Prop46
 90
       50
102
RTVSPost2010PropOp46
 70
     0
102
RTVSPost2010Prop47
 90
       50
102
RTVSPost2010PropOp47
 70
     0
102
RTVSPost2010Prop48
 90
       50
102
RTVSPost2010PropOp48
 70
     0
102
RTVSPost2010Prop49
280
     0
102
RTVSPost2010PropOp49
 70
     0
102
RTVSPost2010Prop50
 90
       50
102
RTVSPost2010PropOp50
 70
     0
102
RTVSPost2010Prop51ColorIndex
 90
      256
102
RTVSPost2010Prop51ColorRGB
 90
-16777216
102
RTVSPost2010PropOp51
 70
     0
102
RTVSPost2010Prop52
140
1.0
102
RTVSPost2010PropOp52
 70
     0
102
RTVSPost2010Prop53
 90
        2
102
RTVSPost2010PropOp53
 70
     0
102
RTVSPost2010Prop54
  1
strokes_ogs.tif
102
RTVSPost2010PropOp54
 70
     0
102
RTVSPost2010Prop55
280
     0
102
RTVSPost2010PropOp55
 70
     0
102
RTVSPost2010Prop56
140
1.0
102
RTVSPost2010PropOp56
 70
     0
102
RTVSPost2010Prop57
140
1.0
102
RTVSPost2010PropOp57
 70
     0
  0
XRECORD
  5
51A
102
{ACAD_REACTORS
330
519
102
}
330
519
100
AcDbXrecord
280
     1
102
RTVSPost2010Prop28
280
     0
102
RTVSPost2010PropOp28
 70
     1
102
RTVSPost2010Prop29
280
     1
102
RTVSPost2010PropOp29
 70
     1
102
RTVSPost2010Prop30
280
     1
102
RTVSPost2010PropOp30
 70
     1
102
RTVSPost2010Prop31
280
     0
102
RTVSPost2010PropOp31
 70
     1
102
RTVSPost2010Prop32
280
     0
102
RTVSPost2010PropOp32
 70
     1
102
RTVSPost2010Prop33
280
     0
102
RTVSPost2010PropOp33
 70
     1
102
RTVSPost2010Prop34
280
     0
102
RTVSPost2010PropOp34
 70
     1
102
RTVSPost2010Prop35
280
     0
102
RTVSPost2010PropOp35
 70
     1
102
RTVSPost2010Prop36
280
     0
102
RTVSPost2010PropOp36
 70
     1
102
RTVSPost2010Prop37
 90
       50
102
RTVSPost2010PropOp37
 70
     1
102
RTVSPost2010Prop38
140
0.0
102
RTVSPost2010PropOp38
 70
     1
102
RTVSPost2010Prop39
140
1.0
102
RTVSPost2010PropOp39
 70
     1
102
RTVSPost2010Prop40
 90
        0
102
RTVSPost2010PropOp40
 70
     1
102
RTVSPost2010Prop41ColorIndex
 90
       18
102
RTVSPost2010Prop41ColorRGB
 90
        0
102
RTVSPost2010PropOp41
 70
     1
102
RTVSPost2010Prop42
 90
       50
102
RTVSPost2010PropOp42
 70
     1
102
RTVSPost2010Prop43
 90
        3
102
RTVSPost2010PropOp43
 70
     1
102
RTVSPost2010Prop44ColorIndex
 90
        5
102
RTVSPost2010Prop44ColorRGB
 90
      255
102
RTVSPost2010PropOp44
 70
     1
102
RTVSPost2010Prop45
280
     0
102
RTVSPost2010PropOp45
 70
     1
102
RTVSPost2010Prop46
 90
       50
102
RTVSPost2010PropOp46
 70
     1
102
RTVSPost2010Prop47
 90
       50
102
RTVSPost2010PropOp47
 70
     1
102
RTVSPost2010Prop48
 90
       50
102
RTVSPost2010PropOp48
 70
     1
102
RTVSPost2010Prop49
280
     0
102
RTVSPost2010PropOp49
 70
     1
102
RTVSPost2010Prop50
 90
       50
102
RTVSPost2010PropOp50
 70
     1
102
RTVSPost2010Prop51ColorIndex
 90
      256
102
RTVSPost2010Prop51ColorRGB
 90
-16777216
102
RTVSPost2010PropOp51
 70
     0
102
RTVSPost2010Prop52
140
1.0
102
RTVSPost2010PropOp52
 70
     0
102
RTVSPost2010Prop53
 90
        2
102
RTVSPost2010PropOp53
 70
     1
102
RTVSPost2010Prop54
  1
strokes_ogs.tif
102
RTVSPost2010PropOp54
 70
     1
102
RTVSPost2010Prop55
280
     0
102
RTVSPost2010PropOp55
 70
     1
102
RTVSPost2010Prop56
140
1.0
102
RTVSPost2010PropOp56
 70
     1
102
RTVSPost2010Prop57
140
1.0
102
RTVSPost2010PropOp57
 70
     1
  0
XRECORD
  5
4FE
102
{ACAD_REACTORS
330
4FD
102
}
330
4FD
100
AcDbXrecord
280
     1
102
RTVSPost2010Prop28
280
     0
102
RTVSPost2010PropOp28
 70
     1
102
RTVSPost2010Prop29
280
     1
102
RTVSPost2010PropOp29
 70
     1
102
RTVSPost2010Prop30
280
     1
102
RTVSPost2010PropOp30
 70
     1
102
RTVSPost2010Prop31
280
     0
102
RTVSPost2010PropOp31
 70
     1
102
RTVSPost2010Prop32
280
     0
102
RTVSPost2010PropOp32
 70
     1
102
RTVSPost2010Prop33
280
     0
102
RTVSPost2010PropOp33
 70
     1
102
RTVSPost2010Prop34
280
     0
102
RTVSPost2010PropOp34
 70
     1
102
RTVSPost2010Prop35
280
     0
102
RTVSPost2010PropOp35
 70
     1
102
RTVSPost2010Prop36
280
     0
102
RTVSPost2010PropOp36
 70
     1
102
RTVSPost2010Prop37
 90
       50
102
RTVSPost2010PropOp37
 70
     1
102
RTVSPost2010Prop38
140
0.0
102
RTVSPost2010PropOp38
 70
     1
102
RTVSPost2010Prop39
140
1.0
102
RTVSPost2010PropOp39
 70
     1
102
RTVSPost2010Prop40
 90
        0
102
RTVSPost2010PropOp40
 70
     1
102
RTVSPost2010Prop41ColorIndex
 90
       18
102
RTVSPost2010Prop41ColorRGB
 90
        0
102
RTVSPost2010PropOp41
 70
     1
102
RTVSPost2010Prop42
 90
       50
102
RTVSPost2010PropOp42
 70
     1
102
RTVSPost2010Prop43
 90
        3
102
RTVSPost2010PropOp43
 70
     1
102
RTVSPost2010Prop44ColorIndex
 90
        5
102
RTVSPost2010Prop44ColorRGB
 90
      255
102
RTVSPost2010PropOp44
 70
     1
102
RTVSPost2010Prop45
280
     0
102
RTVSPost2010PropOp45
 70
     1
102
RTVSPost2010Prop46
 90
       50
102
RTVSPost2010PropOp46
 70
     1
102
RTVSPost2010Prop47
 90
       50
102
RTVSPost2010PropOp47
 70
     1
102
RTVSPost2010Prop48
 90
       50
102
RTVSPost2010PropOp48
 70
     1
102
RTVSPost2010Prop49
280
     0
102
RTVSPost2010PropOp49
 70
     1
102
RTVSPost2010Prop50
 90
       50
102
RTVSPost2010PropOp50
 70
     1
102
RTVSPost2010Prop51ColorIndex
 90
      256
102
RTVSPost2010Prop51ColorRGB
 90
-16777216
102
RTVSPost2010PropOp51
 70
     0
102
RTVSPost2010Prop52
140
1.0
102
RTVSPost2010PropOp52
 70
     0
102
RTVSPost2010Prop53
 90
        2
102
RTVSPost2010PropOp53
 70
     1
102
RTVSPost2010Prop54
  1
strokes_ogs.tif
102
RTVSPost2010PropOp54
 70
     1
102
RTVSPost2010Prop55
280
     0
102
RTVSPost2010PropOp55
 70
     1
102
RTVSPost2010Prop56
140
1.0
102
RTVSPost2010PropOp56
 70
     1
102
RTVSPost2010Prop57
140
1.0
102
RTVSPost2010PropOp57
 70
     1
  0
XRECORD
  5
500
102
{ACAD_REACTORS
330
4FF
102
}
330
4FF
100
AcDbXrecord
280
     1
102
RTVSPost2010Prop28
280
     0
102
RTVSPost2010PropOp28
 70
     1
102
RTVSPost2010Prop29
280
     1
102
RTVSPost2010PropOp29
 70
     1
102
RTVSPost2010Prop30
280
     1
102
RTVSPost2010PropOp30
 70
     1
102
RTVSPost2010Prop31
280
     0
102
RTVSPost2010PropOp31
 70
     1
102
RTVSPost2010Prop32
280
     0
102
RTVSPost2010PropOp32
 70
     1
102
RTVSPost2010Prop33
280
     0
102
RTVSPost2010PropOp33
 70
     1
102
RTVSPost2010Prop34
280
     0
102
RTVSPost2010PropOp34
 70
     1
102
RTVSPost2010Prop35
280
     0
102
RTVSPost2010PropOp35
 70
     1
102
RTVSPost2010Prop36
280
     0
102
RTVSPost2010PropOp36
 70
     1
102
RTVSPost2010Prop37
 90
       50
102
RTVSPost2010PropOp37
 70
     1
102
RTVSPost2010Prop38
140
0.0
102
RTVSPost2010PropOp38
 70
     1
102
RTVSPost2010Prop39
140
1.0
102
RTVSPost2010PropOp39
 70
     1
102
RTVSPost2010Prop40
 90
        0
102
RTVSPost2010PropOp40
 70
     1
102
RTVSPost2010Prop41ColorIndex
 90
       18
102
RTVSPost2010Prop41ColorRGB
 90
        0
102
RTVSPost2010PropOp41
 70
     1
102
RTVSPost2010Prop42
 90
       50
102
RTVSPost2010PropOp42
 70
     1
102
RTVSPost2010Prop43
 90
        3
102
RTVSPost2010PropOp43
 70
     1
102
RTVSPost2010Prop44ColorIndex
 90
        5
102
RTVSPost2010Prop44ColorRGB
 90
      255
102
RTVSPost2010PropOp44
 70
     1
102
RTVSPost2010Prop45
280
     0
102
RTVSPost2010PropOp45
 70
     1
102
RTVSPost2010Prop46
 90
       50
102
RTVSPost2010PropOp46
 70
     1
102
RTVSPost2010Prop47
 90
       50
102
RTVSPost2010PropOp47
 70
     1
102
RTVSPost2010Prop48
 90
       50
102
RTVSPost2010PropOp48
 70
     1
102
RTVSPost2010Prop49
280
     0
102
RTVSPost2010PropOp49
 70
     1
102
RTVSPost2010Prop50
 90
       50
102
RTVSPost2010PropOp50
 70
     1
102
RTVSPost2010Prop51ColorIndex
 90
      256
102
RTVSPost2010Prop51ColorRGB
 90
-16777216
102
RTVSPost2010PropOp51
 70
     0
102
RTVSPost2010Prop52
140
1.0
102
RTVSPost2010PropOp52
 70
     0
102
RTVSPost2010Prop53
 90
        2
102
RTVSPost2010PropOp53
 70
     1
102
RTVSPost2010Prop54
  1
strokes_ogs.tif
102
RTVSPost2010PropOp54
 70
     1
102
RTVSPost2010Prop55
280
     0
102
RTVSPost2010PropOp55
 70
     1
102
RTVSPost2010Prop56
140
1.0
102
RTVSPost2010PropOp56
 70
     1
102
RTVSPost2010Prop57
140
1.0
102
RTVSPost2010PropOp57
 70
     1
  0
XRECORD
  5
502
102
{ACAD_REACTORS
330
501
102
}
330
501
100
AcDbXrecord
280
     1
102
RTVSPost2010Prop28
280
     0
102
RTVSPost2010PropOp28
 70
     1
102
RTVSPost2010Prop29
280
     1
102
RTVSPost2010PropOp29
 70
     1
102
RTVSPost2010Prop30
280
     1
102
RTVSPost2010PropOp30
 70
     1
102
RTVSPost2010Prop31
280
     0
102
RTVSPost2010PropOp31
 70
     1
102
RTVSPost2010Prop32
280
     0
102
RTVSPost2010PropOp32
 70
     1
102
RTVSPost2010Prop33
280
     0
102
RTVSPost2010PropOp33
 70
     1
102
RTVSPost2010Prop34
280
     0
102
RTVSPost2010PropOp34
 70
     1
102
RTVSPost2010Prop35
280
     0
102
RTVSPost2010PropOp35
 70
     1
102
RTVSPost2010Prop36
280
     0
102
RTVSPost2010PropOp36
 70
     1
102
RTVSPost2010Prop37
 90
       50
102
RTVSPost2010PropOp37
 70
     1
102
RTVSPost2010Prop38
140
0.0
102
RTVSPost2010PropOp38
 70
     1
102
RTVSPost2010Prop39
140
1.0
102
RTVSPost2010PropOp39
 70
     1
102
RTVSPost2010Prop40
 90
        0
102
RTVSPost2010PropOp40
 70
     1
102
RTVSPost2010Prop41ColorIndex
 90
       18
102
RTVSPost2010Prop41ColorRGB
 90
        0
102
RTVSPost2010PropOp41
 70
     1
102
RTVSPost2010Prop42
 90
       50
102
RTVSPost2010PropOp42
 70
     1
102
RTVSPost2010Prop43
 90
        3
102
RTVSPost2010PropOp43
 70
     1
102
RTVSPost2010Prop44ColorIndex
 90
        5
102
RTVSPost2010Prop44ColorRGB
 90
      255
102
RTVSPost2010PropOp44
 70
     1
102
RTVSPost2010Prop45
280
     0
102
RTVSPost2010PropOp45
 70
     1
102
RTVSPost2010Prop46
 90
       50
102
RTVSPost2010PropOp46
 70
     1
102
RTVSPost2010Prop47
 90
       50
102
RTVSPost2010PropOp47
 70
     1
102
RTVSPost2010Prop48
 90
       50
102
RTVSPost2010PropOp48
 70
     1
102
RTVSPost2010Prop49
280
     0
102
RTVSPost2010PropOp49
 70
     1
102
RTVSPost2010Prop50
 90
       50
102
RTVSPost2010PropOp50
 70
     1
102
RTVSPost2010Prop51ColorIndex
 90
      256
102
RTVSPost2010Prop51ColorRGB
 90
-16777216
102
RTVSPost2010PropOp51
 70
     0
102
RTVSPost2010Prop52
140
1.0
102
RTVSPost2010PropOp52
 70
     0
102
RTVSPost2010Prop53
 90
        2
102
RTVSPost2010PropOp53
 70
     1
102
RTVSPost2010Prop54
  1
strokes_ogs.tif
102
RTVSPost2010PropOp54
 70
     1
102
RTVSPost2010Prop55
280
     0
102
RTVSPost2010PropOp55
 70
     1
102
RTVSPost2010Prop56
140
1.0
102
RTVSPost2010PropOp56
 70
     1
102
RTVSPost2010Prop57
140
1.0
102
RTVSPost2010PropOp57
 70
     1
  0
XRECORD
  5
504
102
{ACAD_REACTORS
330
503
102
}
330
503
100
AcDbXrecord
280
     1
102
RTVSPost2010Prop28
280
     0
102
RTVSPost2010PropOp28
 70
     1
102
RTVSPost2010Prop29
280
     1
102
RTVSPost2010PropOp29
 70
     1
102
RTVSPost2010Prop30
280
     1
102
RTVSPost2010PropOp30
 70
     1
102
RTVSPost2010Prop31
280
     0
102
RTVSPost2010PropOp31
 70
     1
102
RTVSPost2010Prop32
280
     0
102
RTVSPost2010PropOp32
 70
     1
102
RTVSPost2010Prop33
280
     0
102
RTVSPost2010PropOp33
 70
     1
102
RTVSPost2010Prop34
280
     0
102
RTVSPost2010PropOp34
 70
     1
102
RTVSPost2010Prop35
280
     0
102
RTVSPost2010PropOp35
 70
     1
102
RTVSPost2010Prop36
280
     0
102
RTVSPost2010PropOp36
 70
     1
102
RTVSPost2010Prop37
 90
       50
102
RTVSPost2010PropOp37
 70
     1
102
RTVSPost2010Prop38
140
0.0
102
RTVSPost2010PropOp38
 70
     1
102
RTVSPost2010Prop39
140
1.0
102
RTVSPost2010PropOp39
 70
     1
102
RTVSPost2010Prop40
 90
        0
102
RTVSPost2010PropOp40
 70
     1
102
RTVSPost2010Prop41ColorIndex
 90
       18
102
RTVSPost2010Prop41ColorRGB
 90
        0
102
RTVSPost2010PropOp41
 70
     1
102
RTVSPost2010Prop42
 90
       50
102
RTVSPost2010PropOp42
 70
     1
102
RTVSPost2010Prop43
 90
        3
102
RTVSPost2010PropOp43
 70
     1
102
RTVSPost2010Prop44ColorIndex
 90
        5
102
RTVSPost2010Prop44ColorRGB
 90
      255
102
RTVSPost2010PropOp44
 70
     1
102
RTVSPost2010Prop45
280
     0
102
RTVSPost2010PropOp45
 70
     1
102
RTVSPost2010Prop46
 90
       50
102
RTVSPost2010PropOp46
 70
     1
102
RTVSPost2010Prop47
 90
       50
102
RTVSPost2010PropOp47
 70
     1
102
RTVSPost2010Prop48
 90
       50
102
RTVSPost2010PropOp48
 70
     1
102
RTVSPost2010Prop49
280
     0
102
RTVSPost2010PropOp49
 70
     1
102
RTVSPost2010Prop50
 90
       50
102
RTVSPost2010PropOp50
 70
     1
102
RTVSPost2010Prop51ColorIndex
 90
      256
102
RTVSPost2010Prop51ColorRGB
 90
-16777216
102
RTVSPost2010PropOp51
 70
     0
102
RTVSPost2010Prop52
140
1.0
102
RTVSPost2010PropOp52
 70
     0
102
RTVSPost2010Prop53
 90
        2
102
RTVSPost2010PropOp53
 70
     1
102
RTVSPost2010Prop54
  1
strokes_ogs.tif
102
RTVSPost2010PropOp54
 70
     1
102
RTVSPost2010Prop55
280
     0
102
RTVSPost2010PropOp55
 70
     1
102
RTVSPost2010Prop56
140
1.0
102
RTVSPost2010PropOp56
 70
     1
102
RTVSPost2010Prop57
140
1.0
102
RTVSPost2010PropOp57
 70
     1
  0
XRECORD
  5
50A
102
{ACAD_REACTORS
330
509
102
}
330
509
100
AcDbXrecord
280
     1
102
RTVSPost2010Prop28
280
     0
102
RTVSPost2010PropOp28
 70
     1
102
RTVSPost2010Prop29
280
     1
102
RTVSPost2010PropOp29
 70
     1
102
RTVSPost2010Prop30
280
     1
102
RTVSPost2010PropOp30
 70
     1
102
RTVSPost2010Prop31
280
     0
102
RTVSPost2010PropOp31
 70
     1
102
RTVSPost2010Prop32
280
     0
102
RTVSPost2010PropOp32
 70
     1
102
RTVSPost2010Prop33
280
     0
102
RTVSPost2010PropOp33
 70
     1
102
RTVSPost2010Prop34
280
     0
102
RTVSPost2010PropOp34
 70
     1
102
RTVSPost2010Prop35
280
     0
102
RTVSPost2010PropOp35
 70
     1
102
RTVSPost2010Prop36
280
     0
102
RTVSPost2010PropOp36
 70
     1
102
RTVSPost2010Prop37
 90
       50
102
RTVSPost2010PropOp37
 70
     1
102
RTVSPost2010Prop38
140
0.0
102
RTVSPost2010PropOp38
 70
     1
102
RTVSPost2010Prop39
140
1.0
102
RTVSPost2010PropOp39
 70
     1
102
RTVSPost2010Prop40
 90
        0
102
RTVSPost2010PropOp40
 70
     1
102
RTVSPost2010Prop41ColorIndex
 90
       18
102
RTVSPost2010Prop41ColorRGB
 90
        0
102
RTVSPost2010PropOp41
 70
     1
102
RTVSPost2010Prop42
 90
       50
102
RTVSPost2010PropOp42
 70
     1
102
RTVSPost2010Prop43
 90
        3
102
RTVSPost2010PropOp43
 70
     1
102
RTVSPost2010Prop44ColorIndex
 90
        5
102
RTVSPost2010Prop44ColorRGB
 90
      255
102
RTVSPost2010PropOp44
 70
     1
102
RTVSPost2010Prop45
280
     0
102
RTVSPost2010PropOp45
 70
     1
102
RTVSPost2010Prop46
 90
       50
102
RTVSPost2010PropOp46
 70
     1
102
RTVSPost2010Prop47
 90
       50
102
RTVSPost2010PropOp47
 70
     1
102
RTVSPost2010Prop48
 90
       50
102
RTVSPost2010PropOp48
 70
     1
102
RTVSPost2010Prop49
280
     0
102
RTVSPost2010PropOp49
 70
     1
102
RTVSPost2010Prop50
 90
       50
102
RTVSPost2010PropOp50
 70
     1
102
RTVSPost2010Prop51ColorIndex
 90
      256
102
RTVSPost2010Prop51ColorRGB
 90
-16777216
102
RTVSPost2010PropOp51
 70
     0
102
RTVSPost2010Prop52
140
1.0
102
RTVSPost2010PropOp52
 70
     0
102
RTVSPost2010Prop53
 90
        2
102
RTVSPost2010PropOp53
 70
     1
102
RTVSPost2010Prop54
  1
strokes_ogs.tif
102
RTVSPost2010PropOp54
 70
     1
102
RTVSPost2010Prop55
280
     0
102
RTVSPost2010PropOp55
 70
     1
102
RTVSPost2010Prop56
140
1.0
102
RTVSPost2010PropOp56
 70
     1
102
RTVSPost2010Prop57
140
1.0
102
RTVSPost2010PropOp57
 70
     1
  0
XRECORD
  5
51E
102
{ACAD_REACTORS
330
51D
102
}
330
51D
100
AcDbXrecord
280
     1
102
RTVSPost2010Prop28
280
     0
102
RTVSPost2010PropOp28
 70
     0
102
RTVSPost2010Prop29
280
     1
102
RTVSPost2010PropOp29
 70
     0
102
RTVSPost2010Prop30
280
     1
102
RTVSPost2010PropOp30
 70
     0
102
RTVSPost2010Prop31
280
     0
102
RTVSPost2010PropOp31
 70
     0
102
RTVSPost2010Prop32
280
     0
102
RTVSPost2010PropOp32
 70
     0
102
RTVSPost2010Prop33
280
     0
102
RTVSPost2010PropOp33
 70
     0
102
RTVSPost2010Prop34
280
     0
102
RTVSPost2010PropOp34
 70
     0
102
RTVSPost2010Prop35
280
     0
102
RTVSPost2010PropOp35
 70
     0
102
RTVSPost2010Prop36
280
     0
102
RTVSPost2010PropOp36
 70
     0
102
RTVSPost2010Prop37
 90
       50
102
RTVSPost2010PropOp37
 70
     0
102
RTVSPost2010Prop38
140
0.0
102
RTVSPost2010PropOp38
 70
     0
102
RTVSPost2010Prop39
140
1.0
102
RTVSPost2010PropOp39
 70
     0
102
RTVSPost2010Prop40
 90
        0
102
RTVSPost2010PropOp40
 70
     0
102
RTVSPost2010Prop41ColorIndex
 90
       18
102
RTVSPost2010Prop41ColorRGB
 90
        0
102
RTVSPost2010PropOp41
 70
     0
102
RTVSPost2010Prop42
 90
       50
102
RTVSPost2010PropOp42
 70
     0
102
RTVSPost2010Prop43
 90
        3
102
RTVSPost2010PropOp43
 70
     0
102
RTVSPost2010Prop44ColorIndex
 90
        5
102
RTVSPost2010Prop44ColorRGB
 90
      255
102
RTVSPost2010PropOp44
 70
     0
102
RTVSPost2010Prop45
280
     0
102
RTVSPost2010PropOp45
 70
     0
102
RTVSPost2010Prop46
 90
       50
102
RTVSPost2010PropOp46
 70
     0
102
RTVSPost2010Prop47
 90
       50
102
RTVSPost2010PropOp47
 70
     0
102
RTVSPost2010Prop48
 90
       50
102
RTVSPost2010PropOp48
 70
     0
102
RTVSPost2010Prop49
280
     0
102
RTVSPost2010PropOp49
 70
     0
102
RTVSPost2010Prop50
 90
       50
102
RTVSPost2010PropOp50
 70
     0
102
RTVSPost2010Prop51ColorIndex
 90
      256
102
RTVSPost2010Prop51ColorRGB
 90
-16777216
102
RTVSPost2010PropOp51
 70
     0
102
RTVSPost2010Prop52
140
1.0
102
RTVSPost2010PropOp52
 70
     0
102
RTVSPost2010Prop53
 90
        2
102
RTVSPost2010PropOp53
 70
     0
102
RTVSPost2010Prop54
  1
strokes_ogs.tif
102
RTVSPost2010PropOp54
 70
     0
102
RTVSPost2010Prop55
280
     0
102
RTVSPost2010PropOp55
 70
     0
102
RTVSPost2010Prop56
140
1.0
102
RTVSPost2010PropOp56
 70
     0
102
RTVSPost2010Prop57
140
1.0
102
RTVSPost2010PropOp57
 70
     0
  0
XRECORD
  5
518
102
{ACAD_REACTORS
330
517
102
}
330
517
100
AcDbXrecord
280
     1
102
RTVSPost2010Prop28
280
     0
102
RTVSPost2010PropOp28
 70
     1
102
RTVSPost2010Prop29
280
     1
102
RTVSPost2010PropOp29
 70
     1
102
RTVSPost2010Prop30
280
     1
102
RTVSPost2010PropOp30
 70
     1
102
RTVSPost2010Prop31
280
     0
102
RTVSPost2010PropOp31
 70
     1
102
RTVSPost2010Prop32
280
     0
102
RTVSPost2010PropOp32
 70
     1
102
RTVSPost2010Prop33
280
     0
102
RTVSPost2010PropOp33
 70
     1
102
RTVSPost2010Prop34
280
     0
102
RTVSPost2010PropOp34
 70
     1
102
RTVSPost2010Prop35
280
     0
102
RTVSPost2010PropOp35
 70
     1
102
RTVSPost2010Prop36
280
     0
102
RTVSPost2010PropOp36
 70
     1
102
RTVSPost2010Prop37
 90
       50
102
RTVSPost2010PropOp37
 70
     1
102
RTVSPost2010Prop38
140
0.0
102
RTVSPost2010PropOp38
 70
     1
102
RTVSPost2010Prop39
140
1.0
102
RTVSPost2010PropOp39
 70
     1
102
RTVSPost2010Prop40
 90
        0
102
RTVSPost2010PropOp40
 70
     1
102
RTVSPost2010Prop41ColorIndex
 90
       18
102
RTVSPost2010Prop41ColorRGB
 90
        0
102
RTVSPost2010PropOp41
 70
     1
102
RTVSPost2010Prop42
 90
       50
102
RTVSPost2010PropOp42
 70
     1
102
RTVSPost2010Prop43
 90
        3
102
RTVSPost2010PropOp43
 70
     1
102
RTVSPost2010Prop44ColorIndex
 90
        5
102
RTVSPost2010Prop44ColorRGB
 90
      255
102
RTVSPost2010PropOp44
 70
     1
102
RTVSPost2010Prop45
280
     0
102
RTVSPost2010PropOp45
 70
     1
102
RTVSPost2010Prop46
 90
       50
102
RTVSPost2010PropOp46
 70
     1
102
RTVSPost2010Prop47
 90
       50
102
RTVSPost2010PropOp47
 70
     1
102
RTVSPost2010Prop48
 90
       50
102
RTVSPost2010PropOp48
 70
     1
102
RTVSPost2010Prop49
280
     0
102
RTVSPost2010PropOp49
 70
     1
102
RTVSPost2010Prop50
 90
       50
102
RTVSPost2010PropOp50
 70
     1
102
RTVSPost2010Prop51ColorIndex
 90
      256
102
RTVSPost2010Prop51ColorRGB
 90
-16777216
102
RTVSPost2010PropOp51
 70
     0
102
RTVSPost2010Prop52
140
1.0
102
RTVSPost2010PropOp52
 70
     0
102
RTVSPost2010Prop53
 90
        2
102
RTVSPost2010PropOp53
 70
     1
102
RTVSPost2010Prop54
  1
strokes_ogs.tif
102
RTVSPost2010PropOp54
 70
     1
102
RTVSPost2010Prop55
280
     0
102
RTVSPost2010PropOp55
 70
     1
102
RTVSPost2010Prop56
140
1.0
102
RTVSPost2010PropOp56
 70
     1
102
RTVSPost2010Prop57
140
1.0
102
RTVSPost2010PropOp57
 70
     1
  0
XRECORD
  5
520
102
{ACAD_REACTORS
330
51F
102
}
330
51F
100
AcDbXrecord
280
     1
102
RTVSPost2010Prop28
280
     0
102
RTVSPost2010PropOp28
 70
     0
102
RTVSPost2010Prop29
280
     1
102
RTVSPost2010PropOp29
 70
     0
102
RTVSPost2010Prop30
280
     1
102
RTVSPost2010PropOp30
 70
     0
102
RTVSPost2010Prop31
280
     0
102
RTVSPost2010PropOp31
 70
     0
102
RTVSPost2010Prop32
280
     0
102
RTVSPost2010PropOp32
 70
     0
102
RTVSPost2010Prop33
280
     0
102
RTVSPost2010PropOp33
 70
     0
102
RTVSPost2010Prop34
280
     0
102
RTVSPost2010PropOp34
 70
     0
102
RTVSPost2010Prop35
280
     0
102
RTVSPost2010PropOp35
 70
     0
102
RTVSPost2010Prop36
280
     0
102
RTVSPost2010PropOp36
 70
     0
102
RTVSPost2010Prop37
 90
       50
102
RTVSPost2010PropOp37
 70
     0
102
RTVSPost2010Prop38
140
0.0
102
RTVSPost2010PropOp38
 70
     0
102
RTVSPost2010Prop39
140
1.0
102
RTVSPost2010PropOp39
 70
     0
102
RTVSPost2010Prop40
 90
        0
102
RTVSPost2010PropOp40
 70
     0
102
RTVSPost2010Prop41ColorIndex
 90
       18
102
RTVSPost2010Prop41ColorRGB
 90
        0
102
RTVSPost2010PropOp41
 70
     0
102
RTVSPost2010Prop42
 90
       50
102
RTVSPost2010PropOp42
 70
     0
102
RTVSPost2010Prop43
 90
        3
102
RTVSPost2010PropOp43
 70
     0
102
RTVSPost2010Prop44ColorIndex
 90
        5
102
RTVSPost2010Prop44ColorRGB
 90
      255
102
RTVSPost2010PropOp44
 70
     0
102
RTVSPost2010Prop45
280
     0
102
RTVSPost2010PropOp45
 70
     0
102
RTVSPost2010Prop46
 90
       50
102
RTVSPost2010PropOp46
 70
     0
102
RTVSPost2010Prop47
 90
       50
102
RTVSPost2010PropOp47
 70
     0
102
RTVSPost2010Prop48
 90
       50
102
RTVSPost2010PropOp48
 70
     0
102
RTVSPost2010Prop49
280
     0
102
RTVSPost2010PropOp49
 70
     0
102
RTVSPost2010Prop50
 90
       50
102
RTVSPost2010PropOp50
 70
     0
102
RTVSPost2010Prop51ColorIndex
 90
      256
102
RTVSPost2010Prop51ColorRGB
 90
-16777216
102
RTVSPost2010PropOp51
 70
     0
102
RTVSPost2010Prop52
140
1.0
102
RTVSPost2010PropOp52
 70
     0
102
RTVSPost2010Prop53
 90
        2
102
RTVSPost2010PropOp53
 70
     0
102
RTVSPost2010Prop54
  1
strokes_ogs.tif
102
RTVSPost2010PropOp54
 70
     0
102
RTVSPost2010Prop55
280
     0
102
RTVSPost2010PropOp55
 70
     0
102
RTVSPost2010Prop56
140
1.0
102
RTVSPost2010PropOp56
 70
     0
102
RTVSPost2010Prop57
140
1.0
102
RTVSPost2010PropOp57
 70
     0
  0
XRECORD
  5
50E
102
{ACAD_REACTORS
330
50D
102
}
330
50D
100
AcDbXrecord
280
     1
102
RTVSPost2010Prop28
280
     0
102
RTVSPost2010PropOp28
 70
     1
102
RTVSPost2010Prop29
280
     1
102
RTVSPost2010PropOp29
 70
     1
102
RTVSPost2010Prop30
280
     1
102
RTVSPost2010PropOp30
 70
     1
102
RTVSPost2010Prop31
280
     0
102
RTVSPost2010PropOp31
 70
     1
102
RTVSPost2010Prop32
280
     0
102
RTVSPost2010PropOp32
 70
     1
102
RTVSPost2010Prop33
280
     0
102
RTVSPost2010PropOp33
 70
     1
102
RTVSPost2010Prop34
280
     0
102
RTVSPost2010PropOp34
 70
     1
102
RTVSPost2010Prop35
280
     0
102
RTVSPost2010PropOp35
 70
     1
102
RTVSPost2010Prop36
280
     0
102
RTVSPost2010PropOp36
 70
     1
102
RTVSPost2010Prop37
 90
       50
102
RTVSPost2010PropOp37
 70
     1
102
RTVSPost2010Prop38
140
0.0
102
RTVSPost2010PropOp38
 70
     1
102
RTVSPost2010Prop39
140
1.0
102
RTVSPost2010PropOp39
 70
     1
102
RTVSPost2010Prop40
 90
        0
102
RTVSPost2010PropOp40
 70
     1
102
RTVSPost2010Prop41ColorIndex
 90
       18
102
RTVSPost2010Prop41ColorRGB
 90
        0
102
RTVSPost2010PropOp41
 70
     1
102
RTVSPost2010Prop42
 90
       50
102
RTVSPost2010PropOp42
 70
     1
102
RTVSPost2010Prop43
 90
        3
102
RTVSPost2010PropOp43
 70
     1
102
RTVSPost2010Prop44ColorIndex
 90
        5
102
RTVSPost2010Prop44ColorRGB
 90
      255
102
RTVSPost2010PropOp44
 70
     1
102
RTVSPost2010Prop45
280
     0
102
RTVSPost2010PropOp45
 70
     1
102
RTVSPost2010Prop46
 90
       50
102
RTVSPost2010PropOp46
 70
     1
102
RTVSPost2010Prop47
 90
       50
102
RTVSPost2010PropOp47
 70
     1
102
RTVSPost2010Prop48
 90
       50
102
RTVSPost2010PropOp48
 70
     1
102
RTVSPost2010Prop49
280
     0
102
RTVSPost2010PropOp49
 70
     1
102
RTVSPost2010Prop50
 90
       50
102
RTVSPost2010PropOp50
 70
     1
102
RTVSPost2010Prop51ColorIndex
 90
      256
102
RTVSPost2010Prop51ColorRGB
 90
-16777216
102
RTVSPost2010PropOp51
 70
     0
102
RTVSPost2010Prop52
140
1.0
102
RTVSPost2010PropOp52
 70
     0
102
RTVSPost2010Prop53
 90
        2
102
RTVSPost2010PropOp53
 70
     1
102
RTVSPost2010Prop54
  1
strokes_ogs.tif
102
RTVSPost2010PropOp54
 70
     1
102
RTVSPost2010Prop55
280
     0
102
RTVSPost2010PropOp55
 70
     1
102
RTVSPost2010Prop56
140
1.0
102
RTVSPost2010PropOp56
 70
     1
102
RTVSPost2010Prop57
140
1.0
102
RTVSPost2010PropOp57
 70
     1
  0
XRECORD
  5
52C
102
{ACAD_REACTORS
330
52B
102
}
330
52B
100
AcDbXrecord
280
     1
102
RTVSPost2010Prop28
280
     0
102
RTVSPost2010PropOp28
 70
     1
102
RTVSPost2010Prop29
280
     1
102
RTVSPost2010PropOp29
 70
     1
102
RTVSPost2010Prop30
280
     1
102
RTVSPost2010PropOp30
 70
     1
102
RTVSPost2010Prop31
280
     0
102
RTVSPost2010PropOp31
 70
     1
102
RTVSPost2010Prop32
280
     0
102
RTVSPost2010PropOp32
 70
     1
102
RTVSPost2010Prop33
280
     0
102
RTVSPost2010PropOp33
 70
     1
102
RTVSPost2010Prop34
280
     0
102
RTVSPost2010PropOp34
 70
     1
102
RTVSPost2010Prop35
280
     0
102
RTVSPost2010PropOp35
 70
     1
102
RTVSPost2010Prop36
280
     0
102
RTVSPost2010PropOp36
 70
     1
102
RTVSPost2010Prop37
 90
       50
102
RTVSPost2010PropOp37
 70
     1
102
RTVSPost2010Prop38
140
0.0
102
RTVSPost2010PropOp38
 70
     1
102
RTVSPost2010Prop39
140
1.0
102
RTVSPost2010PropOp39
 70
     1
102
RTVSPost2010Prop40
 90
        0
102
RTVSPost2010PropOp40
 70
     1
102
RTVSPost2010Prop41ColorIndex
 90
       18
102
RTVSPost2010Prop41ColorRGB
 90
        0
102
RTVSPost2010PropOp41
 70
     1
102
RTVSPost2010Prop42
 90
       50
102
RTVSPost2010PropOp42
 70
     1
102
RTVSPost2010Prop43
 90
        3
102
RTVSPost2010PropOp43
 70
     1
102
RTVSPost2010Prop44ColorIndex
 90
        5
102
RTVSPost2010Prop44ColorRGB
 90
      255
102
RTVSPost2010PropOp44
 70
     1
102
RTVSPost2010Prop45
280
     0
102
RTVSPost2010PropOp45
 70
     1
102
RTVSPost2010Prop46
 90
       50
102
RTVSPost2010PropOp46
 70
     1
102
RTVSPost2010Prop47
 90
       50
102
RTVSPost2010PropOp47
 70
     1
102
RTVSPost2010Prop48
 90
       50
102
RTVSPost2010PropOp48
 70
     1
102
RTVSPost2010Prop49
280
     0
102
RTVSPost2010PropOp49
 70
     1
102
RTVSPost2010Prop50
 90
       50
102
RTVSPost2010PropOp50
 70
     1
102
RTVSPost2010Prop51ColorIndex
 90
      256
102
RTVSPost2010Prop51ColorRGB
 90
-16777216
102
RTVSPost2010PropOp51
 70
     0
102
RTVSPost2010Prop52
140
1.0
102
RTVSPost2010PropOp52
 70
     0
102
RTVSPost2010Prop53
 90
        2
102
RTVSPost2010PropOp53
 70
     1
102
RTVSPost2010Prop54
  1
strokes_ogs.tif
102
RTVSPost2010PropOp54
 70
     1
102
RTVSPost2010Prop55
280
     0
102
RTVSPost2010PropOp55
 70
     1
102
RTVSPost2010Prop56
140
1.0
102
RTVSPost2010PropOp56
 70
     1
102
RTVSPost2010Prop57
140
1.0
102
RTVSPost2010PropOp57
 70
     1
  0
XRECORD
  5
52A
102
{ACAD_REACTORS
330
529
102
}
330
529
100
AcDbXrecord
280
     1
102
RTVSPost2010Prop28
280
     0
102
RTVSPost2010PropOp28
 70
     1
102
RTVSPost2010Prop29
280
     1
102
RTVSPost2010PropOp29
 70
     1
102
RTVSPost2010Prop30
280
     1
102
RTVSPost2010PropOp30
 70
     1
102
RTVSPost2010Prop31
280
     0
102
RTVSPost2010PropOp31
 70
     1
102
RTVSPost2010Prop32
280
     0
102
RTVSPost2010PropOp32
 70
     1
102
RTVSPost2010Prop33
280
     0
102
RTVSPost2010PropOp33
 70
     1
102
RTVSPost2010Prop34
280
     0
102
RTVSPost2010PropOp34
 70
     1
102
RTVSPost2010Prop35
280
     0
102
RTVSPost2010PropOp35
 70
     1
102
RTVSPost2010Prop36
280
     0
102
RTVSPost2010PropOp36
 70
     1
102
RTVSPost2010Prop37
 90
       50
102
RTVSPost2010PropOp37
 70
     1
102
RTVSPost2010Prop38
140
0.0
102
RTVSPost2010PropOp38
 70
     1
102
RTVSPost2010Prop39
140
1.0
102
RTVSPost2010PropOp39
 70
     1
102
RTVSPost2010Prop40
 90
        0
102
RTVSPost2010PropOp40
 70
     1
102
RTVSPost2010Prop41ColorIndex
 90
       18
102
RTVSPost2010Prop41ColorRGB
 90
        0
102
RTVSPost2010PropOp41
 70
     1
102
RTVSPost2010Prop42
 90
       50
102
RTVSPost2010PropOp42
 70
     1
102
RTVSPost2010Prop43
 90
        3
102
RTVSPost2010PropOp43
 70
     1
102
RTVSPost2010Prop44ColorIndex
 90
        5
102
RTVSPost2010Prop44ColorRGB
 90
      255
102
RTVSPost2010PropOp44
 70
     1
102
RTVSPost2010Prop45
280
     0
102
RTVSPost2010PropOp45
 70
     1
102
RTVSPost2010Prop46
 90
       50
102
RTVSPost2010PropOp46
 70
     1
102
RTVSPost2010Prop47
 90
       50
102
RTVSPost2010PropOp47
 70
     1
102
RTVSPost2010Prop48
 90
       50
102
RTVSPost2010PropOp48
 70
     1
102
RTVSPost2010Prop49
280
     0
102
RTVSPost2010PropOp49
 70
     1
102
RTVSPost2010Prop50
 90
       50
102
RTVSPost2010PropOp50
 70
     1
102
RTVSPost2010Prop51ColorIndex
 90
      256
102
RTVSPost2010Prop51ColorRGB
 90
-16777216
102
RTVSPost2010PropOp51
 70
     0
102
RTVSPost2010Prop52
140
1.0
102
RTVSPost2010PropOp52
 70
     0
102
RTVSPost2010Prop53
 90
        2
102
RTVSPost2010PropOp53
 70
     1
102
RTVSPost2010Prop54
  1
strokes_ogs.tif
102
RTVSPost2010PropOp54
 70
     1
102
RTVSPost2010Prop55
280
     0
102
RTVSPost2010PropOp55
 70
     1
102
RTVSPost2010Prop56
140
1.0
102
RTVSPost2010PropOp56
 70
     1
102
RTVSPost2010Prop57
140
1.0
102
RTVSPost2010PropOp57
 70
     1
  0
XRECORD
  5
524
102
{ACAD_REACTORS
330
523
102
}
330
523
100
AcDbXrecord
280
     1
102
RTVSPost2010Prop28
280
     0
102
RTVSPost2010PropOp28
 70
     1
102
RTVSPost2010Prop29
280
     1
102
RTVSPost2010PropOp29
 70
     1
102
RTVSPost2010Prop30
280
     1
102
RTVSPost2010PropOp30
 70
     1
102
RTVSPost2010Prop31
280
     0
102
RTVSPost2010PropOp31
 70
     1
102
RTVSPost2010Prop32
280
     0
102
RTVSPost2010PropOp32
 70
     1
102
RTVSPost2010Prop33
280
     0
102
RTVSPost2010PropOp33
 70
     1
102
RTVSPost2010Prop34
280
     0
102
RTVSPost2010PropOp34
 70
     1
102
RTVSPost2010Prop35
280
     0
102
RTVSPost2010PropOp35
 70
     1
102
RTVSPost2010Prop36
280
     0
102
RTVSPost2010PropOp36
 70
     1
102
RTVSPost2010Prop37
 90
       50
102
RTVSPost2010PropOp37
 70
     1
102
RTVSPost2010Prop38
140
0.0
102
RTVSPost2010PropOp38
 70
     1
102
RTVSPost2010Prop39
140
1.0
102
RTVSPost2010PropOp39
 70
     1
102
RTVSPost2010Prop40
 90
        0
102
RTVSPost2010PropOp40
 70
     1
102
RTVSPost2010Prop41ColorIndex
 90
       18
102
RTVSPost2010Prop41ColorRGB
 90
        0
102
RTVSPost2010PropOp41
 70
     1
102
RTVSPost2010Prop42
 90
       50
102
RTVSPost2010PropOp42
 70
     1
102
RTVSPost2010Prop43
 90
        3
102
RTVSPost2010PropOp43
 70
     1
102
RTVSPost2010Prop44ColorIndex
 90
        5
102
RTVSPost2010Prop44ColorRGB
 90
      255
102
RTVSPost2010PropOp44
 70
     1
102
RTVSPost2010Prop45
280
     0
102
RTVSPost2010PropOp45
 70
     1
102
RTVSPost2010Prop46
 90
       50
102
RTVSPost2010PropOp46
 70
     1
102
RTVSPost2010Prop47
 90
       50
102
RTVSPost2010PropOp47
 70
     1
102
RTVSPost2010Prop48
 90
       50
102
RTVSPost2010PropOp48
 70
     1
102
RTVSPost2010Prop49
280
     0
102
RTVSPost2010PropOp49
 70
     1
102
RTVSPost2010Prop50
 90
       50
102
RTVSPost2010PropOp50
 70
     1
102
RTVSPost2010Prop51ColorIndex
 90
      256
102
RTVSPost2010Prop51ColorRGB
 90
-16777216
102
RTVSPost2010PropOp51
 70
     0
102
RTVSPost2010Prop52
140
1.0
102
RTVSPost2010PropOp52
 70
     0
102
RTVSPost2010Prop53
 90
        2
102
RTVSPost2010PropOp53
 70
     1
102
RTVSPost2010Prop54
  1
strokes_ogs.tif
102
RTVSPost2010PropOp54
 70
     1
102
RTVSPost2010Prop55
280
     0
102
RTVSPost2010PropOp55
 70
     1
102
RTVSPost2010Prop56
140
1.0
102
RTVSPost2010PropOp56
 70
     1
102
RTVSPost2010Prop57
140
1.0
102
RTVSPost2010PropOp57
 70
     1
  0
XRECORD
  5
526
102
{ACAD_REACTORS
330
525
102
}
330
525
100
AcDbXrecord
280
     1
102
RTVSPost2010Prop28
280
     0
102
RTVSPost2010PropOp28
 70
     1
102
RTVSPost2010Prop29
280
     1
102
RTVSPost2010PropOp29
 70
     1
102
RTVSPost2010Prop30
280
     1
102
RTVSPost2010PropOp30
 70
     1
102
RTVSPost2010Prop31
280
     0
102
RTVSPost2010PropOp31
 70
     1
102
RTVSPost2010Prop32
280
     0
102
RTVSPost2010PropOp32
 70
     1
102
RTVSPost2010Prop33
280
     0
102
RTVSPost2010PropOp33
 70
     1
102
RTVSPost2010Prop34
280
     0
102
RTVSPost2010PropOp34
 70
     1
102
RTVSPost2010Prop35
280
     0
102
RTVSPost2010PropOp35
 70
     1
102
RTVSPost2010Prop36
280
     0
102
RTVSPost2010PropOp36
 70
     1
102
RTVSPost2010Prop37
 90
       50
102
RTVSPost2010PropOp37
 70
     1
102
RTVSPost2010Prop38
140
0.0
102
RTVSPost2010PropOp38
 70
     1
102
RTVSPost2010Prop39
140
1.0
102
RTVSPost2010PropOp39
 70
     1
102
RTVSPost2010Prop40
 90
        0
102
RTVSPost2010PropOp40
 70
     1
102
RTVSPost2010Prop41ColorIndex
 90
       18
102
RTVSPost2010Prop41ColorRGB
 90
        0
102
RTVSPost2010PropOp41
 70
     1
102
RTVSPost2010Prop42
 90
       50
102
RTVSPost2010PropOp42
 70
     1
102
RTVSPost2010Prop43
 90
        3
102
RTVSPost2010PropOp43
 70
     1
102
RTVSPost2010Prop44ColorIndex
 90
        5
102
RTVSPost2010Prop44ColorRGB
 90
      255
102
RTVSPost2010PropOp44
 70
     1
102
RTVSPost2010Prop45
280
     0
102
RTVSPost2010PropOp45
 70
     1
102
RTVSPost2010Prop46
 90
       50
102
RTVSPost2010PropOp46
 70
     1
102
RTVSPost2010Prop47
 90
       50
102
RTVSPost2010PropOp47
 70
     1
102
RTVSPost2010Prop48
 90
       50
102
RTVSPost2010PropOp48
 70
     1
102
RTVSPost2010Prop49
280
     0
102
RTVSPost2010PropOp49
 70
     1
102
RTVSPost2010Prop50
 90
       50
102
RTVSPost2010PropOp50
 70
     1
102
RTVSPost2010Prop51ColorIndex
 90
      256
102
RTVSPost2010Prop51ColorRGB
 90
-16777216
102
RTVSPost2010PropOp51
 70
     0
102
RTVSPost2010Prop52
140
1.0
102
RTVSPost2010PropOp52
 70
     0
102
RTVSPost2010Prop53
 90
        2
102
RTVSPost2010PropOp53
 70
     1
102
RTVSPost2010Prop54
  1
strokes_ogs.tif
102
RTVSPost2010PropOp54
 70
     1
102
RTVSPost2010Prop55
280
     0
102
RTVSPost2010PropOp55
 70
     1
102
RTVSPost2010Prop56
140
1.0
102
RTVSPost2010PropOp56
 70
     1
102
RTVSPost2010Prop57
140
1.0
102
RTVSPost2010PropOp57
 70
     1
  0
XRECORD
  5
516
102
{ACAD_REACTORS
330
515
102
}
330
515
100
AcDbXrecord
280
     1
102
RTVSPost2010Prop28
280
     0
102
RTVSPost2010PropOp28
 70
     1
102
RTVSPost2010Prop29
280
     1
102
RTVSPost2010PropOp29
 70
     1
102
RTVSPost2010Prop30
280
     1
102
RTVSPost2010PropOp30
 70
     1
102
RTVSPost2010Prop31
280
     0
102
RTVSPost2010PropOp31
 70
     1
102
RTVSPost2010Prop32
280
     0
102
RTVSPost2010PropOp32
 70
     1
102
RTVSPost2010Prop33
280
     0
102
RTVSPost2010PropOp33
 70
     1
102
RTVSPost2010Prop34
280
     0
102
RTVSPost2010PropOp34
 70
     1
102
RTVSPost2010Prop35
280
     0
102
RTVSPost2010PropOp35
 70
     1
102
RTVSPost2010Prop36
280
     0
102
RTVSPost2010PropOp36
 70
     1
102
RTVSPost2010Prop37
 90
       50
102
RTVSPost2010PropOp37
 70
     1
102
RTVSPost2010Prop38
140
0.0
102
RTVSPost2010PropOp38
 70
     1
102
RTVSPost2010Prop39
140
1.0
102
RTVSPost2010PropOp39
 70
     1
102
RTVSPost2010Prop40
 90
        0
102
RTVSPost2010PropOp40
 70
     1
102
RTVSPost2010Prop41ColorIndex
 90
       18
102
RTVSPost2010Prop41ColorRGB
 90
        0
102
RTVSPost2010PropOp41
 70
     1
102
RTVSPost2010Prop42
 90
       50
102
RTVSPost2010PropOp42
 70
     1
102
RTVSPost2010Prop43
 90
        3
102
RTVSPost2010PropOp43
 70
     1
102
RTVSPost2010Prop44ColorIndex
 90
        5
102
RTVSPost2010Prop44ColorRGB
 90
      255
102
RTVSPost2010PropOp44
 70
     1
102
RTVSPost2010Prop45
280
     0
102
RTVSPost2010PropOp45
 70
     1
102
RTVSPost2010Prop46
 90
       50
102
RTVSPost2010PropOp46
 70
     1
102
RTVSPost2010Prop47
 90
       50
102
RTVSPost2010PropOp47
 70
     1
102
RTVSPost2010Prop48
 90
       50
102
RTVSPost2010PropOp48
 70
     1
102
RTVSPost2010Prop49
280
     0
102
RTVSPost2010PropOp49
 70
     1
102
RTVSPost2010Prop50
 90
       50
102
RTVSPost2010PropOp50
 70
     1
102
RTVSPost2010Prop51ColorIndex
 90
      256
102
RTVSPost2010Prop51ColorRGB
 90
-16777216
102
RTVSPost2010PropOp51
 70
     0
102
RTVSPost2010Prop52
140
1.0
102
RTVSPost2010PropOp52
 70
     0
102
RTVSPost2010Prop53
 90
        2
102
RTVSPost2010PropOp53
 70
     1
102
RTVSPost2010Prop54
  1
strokes_ogs.tif
102
RTVSPost2010PropOp54
 70
     1
102
RTVSPost2010Prop55
280
     0
102
RTVSPost2010PropOp55
 70
     1
102
RTVSPost2010Prop56
140
1.0
102
RTVSPost2010PropOp56
 70
     1
102
RTVSPost2010Prop57
140
1.0
102
RTVSPost2010PropOp57
 70
     1
  0
XRECORD
  5
508
102
{ACAD_REACTORS
330
507
102
}
330
507
100
AcDbXrecord
280
     1
102
RTVSPost2010Prop28
280
     0
102
RTVSPost2010PropOp28
 70
     1
102
RTVSPost2010Prop29
280
     1
102
RTVSPost2010PropOp29
 70
     1
102
RTVSPost2010Prop30
280
     1
102
RTVSPost2010PropOp30
 70
     1
102
RTVSPost2010Prop31
280
     0
102
RTVSPost2010PropOp31
 70
     1
102
RTVSPost2010Prop32
280
     0
102
RTVSPost2010PropOp32
 70
     1
102
RTVSPost2010Prop33
280
     0
102
RTVSPost2010PropOp33
 70
     1
102
RTVSPost2010Prop34
280
     0
102
RTVSPost2010PropOp34
 70
     1
102
RTVSPost2010Prop35
280
     0
102
RTVSPost2010PropOp35
 70
     1
102
RTVSPost2010Prop36
280
     0
102
RTVSPost2010PropOp36
 70
     1
102
RTVSPost2010Prop37
 90
       50
102
RTVSPost2010PropOp37
 70
     1
102
RTVSPost2010Prop38
140
0.0
102
RTVSPost2010PropOp38
 70
     1
102
RTVSPost2010Prop39
140
1.0
102
RTVSPost2010PropOp39
 70
     1
102
RTVSPost2010Prop40
 90
        0
102
RTVSPost2010PropOp40
 70
     1
102
RTVSPost2010Prop41ColorIndex
 90
       18
102
RTVSPost2010Prop41ColorRGB
 90
        0
102
RTVSPost2010PropOp41
 70
     1
102
RTVSPost2010Prop42
 90
       50
102
RTVSPost2010PropOp42
 70
     1
102
RTVSPost2010Prop43
 90
        3
102
RTVSPost2010PropOp43
 70
     1
102
RTVSPost2010Prop44ColorIndex
 90
        5
102
RTVSPost2010Prop44ColorRGB
 90
      255
102
RTVSPost2010PropOp44
 70
     1
102
RTVSPost2010Prop45
280
     0
102
RTVSPost2010PropOp45
 70
     1
102
RTVSPost2010Prop46
 90
       50
102
RTVSPost2010PropOp46
 70
     1
102
RTVSPost2010Prop47
 90
       50
102
RTVSPost2010PropOp47
 70
     1
102
RTVSPost2010Prop48
 90
       50
102
RTVSPost2010PropOp48
 70
     1
102
RTVSPost2010Prop49
280
     0
102
RTVSPost2010PropOp49
 70
     1
102
RTVSPost2010Prop50
 90
       50
102
RTVSPost2010PropOp50
 70
     1
102
RTVSPost2010Prop51ColorIndex
 90
      256
102
RTVSPost2010Prop51ColorRGB
 90
-16777216
102
RTVSPost2010PropOp51
 70
     0
102
RTVSPost2010Prop52
140
1.0
102
RTVSPost2010PropOp52
 70
     0
102
RTVSPost2010Prop53
 90
        2
102
RTVSPost2010PropOp53
 70
     1
102
RTVSPost2010Prop54
  1
strokes_ogs.tif
102
RTVSPost2010PropOp54
 70
     1
102
RTVSPost2010Prop55
280
     0
102
RTVSPost2010PropOp55
 70
     1
102
RTVSPost2010Prop56
140
1.0
102
RTVSPost2010PropOp56
 70
     1
102
RTVSPost2010Prop57
140
1.0
102
RTVSPost2010PropOp57
 70
     1
  0
XRECORD
  5
528
102
{ACAD_REACTORS
330
527
102
}
330
527
100
AcDbXrecord
280
     1
102
RTVSPost2010Prop28
280
     0
102
RTVSPost2010PropOp28
 70
     1
102
RTVSPost2010Prop29
280
     1
102
RTVSPost2010PropOp29
 70
     1
102
RTVSPost2010Prop30
280
     1
102
RTVSPost2010PropOp30
 70
     1
102
RTVSPost2010Prop31
280
     0
102
RTVSPost2010PropOp31
 70
     1
102
RTVSPost2010Prop32
280
     0
102
RTVSPost2010PropOp32
 70
     1
102
RTVSPost2010Prop33
280
     0
102
RTVSPost2010PropOp33
 70
     1
102
RTVSPost2010Prop34
280
     0
102
RTVSPost2010PropOp34
 70
     1
102
RTVSPost2010Prop35
280
     0
102
RTVSPost2010PropOp35
 70
     1
102
RTVSPost2010Prop36
280
     0
102
RTVSPost2010PropOp36
 70
     1
102
RTVSPost2010Prop37
 90
       50
102
RTVSPost2010PropOp37
 70
     1
102
RTVSPost2010Prop38
140
0.0
102
RTVSPost2010PropOp38
 70
     1
102
RTVSPost2010Prop39
140
1.0
102
RTVSPost2010PropOp39
 70
     1
102
RTVSPost2010Prop40
 90
        0
102
RTVSPost2010PropOp40
 70
     1
102
RTVSPost2010Prop41ColorIndex
 90
       18
102
RTVSPost2010Prop41ColorRGB
 90
        0
102
RTVSPost2010PropOp41
 70
     1
102
RTVSPost2010Prop42
 90
       50
102
RTVSPost2010PropOp42
 70
     1
102
RTVSPost2010Prop43
 90
        3
102
RTVSPost2010PropOp43
 70
     1
102
RTVSPost2010Prop44ColorIndex
 90
        5
102
RTVSPost2010Prop44ColorRGB
 90
      255
102
RTVSPost2010PropOp44
 70
     1
102
RTVSPost2010Prop45
280
     0
102
RTVSPost2010PropOp45
 70
     1
102
RTVSPost2010Prop46
 90
       50
102
RTVSPost2010PropOp46
 70
     1
102
RTVSPost2010Prop47
 90
       50
102
RTVSPost2010PropOp47
 70
     1
102
RTVSPost2010Prop48
 90
       50
102
RTVSPost2010PropOp48
 70
     1
102
RTVSPost2010Prop49
280
     0
102
RTVSPost2010PropOp49
 70
     1
102
RTVSPost2010Prop50
 90
       50
102
RTVSPost2010PropOp50
 70
     1
102
RTVSPost2010Prop51ColorIndex
 90
      256
102
RTVSPost2010Prop51ColorRGB
 90
-16777216
102
RTVSPost2010PropOp51
 70
     0
102
RTVSPost2010Prop52
140
1.0
102
RTVSPost2010PropOp52
 70
     0
102
RTVSPost2010Prop53
 90
        2
102
RTVSPost2010PropOp53
 70
     1
102
RTVSPost2010Prop54
  1
strokes_ogs.tif
102
RTVSPost2010PropOp54
 70
     1
102
RTVSPost2010Prop55
280
     0
102
RTVSPost2010PropOp55
 70
     1
102
RTVSPost2010Prop56
140
1.0
102
RTVSPost2010PropOp56
 70
     1
102
RTVSPost2010Prop57
140
1.0
102
RTVSPost2010PropOp57
 70
     1
  0
ENDSEC
  0
EOF
