  0
SECTION
  2
HEADER
  9
$ACADVER
  1
AC1024
  9
$ACADMAINTVER
 70
     6
  9
$DWGCODEPAGE
  3
ANSI_932
  9
$INSBASE
 10
0.0
 20
0.0
 30
0.0
  9
$EXTMIN
 10
-1773.0
 20
-1216.152689944301
 30
0.0
  9
$EXTMAX
 10
1773.0
 20
1216.152689944301
 30
0.0
  9
$LIMMIN
 10
-630.0
 20
-445.5
  9
$LIMMAX
 10
630.0
 20
445.5
  9
$ORTHOMODE
 70
     0
  9
$REGENMODE
 70
     1
  9
$FILLMODE
 70
     1
  9
$QTEXTMODE
 70
     0
  9
$MIRRTEXT
 70
     1
  9
$LTSCALE
 40
0.75
  9
$ATTMODE
 70
     1
  9
$TEXTSIZE
 40
0.2
  9
$TRACEWID
 40
0.05
  9
$TEXTSTYLE
  7
Standard
  9
$CLAYER
  8
0
  9
$CELTYPE
  6
ByLayer
  9
$CECOLOR
 62
   256
  9
$CELTSCALE
 40
1.0
  9
$DISPSILH
 70
     0
  9
$DIMSCALE
 40
1.0
  9
$DIMASZ
 40
9.000005722045898
  9
$DIMEXO
 40
1.0
  9
$DIMDLI
 40
10.0
  9
$DIMRND
 40
0.0
  9
$DIMDLE
 40
0.0
  9
$DIMEXE
 40
1.0
  9
$DIMTP
 40
0.0
  9
$DIMTM
 40
0.0
  9
$DIMTXT
 40
12.0
  9
$DIMCEN
 40
0.0
  9
$DIMTSZ
 40
0.0
  9
$DIMTOL
 70
     0
  9
$DIMLIM
 70
     0
  9
$DIMTIH
 70
     0
  9
$DIMTOH
 70
     0
  9
$DIMSE1
 70
     0
  9
$DIMSE2
 70
     0
  9
$DIMTAD
 70
     1
  9
$DIMZIN
 70
     8
  9
$DIMBLK
  1

  9
$DIMASO
 70
     1
  9
$DIMSHO
 70
     1
  9
$DIMPOST
  1

  9
$DIMAPOST
  1

  9
$DIMALT
 70
     0
  9
$DIMALTD
 70
     2
  9
$DIMALTF
 40
0.0393700787401575
  9
$DIMLFAC
 40
1.0
  9
$DIMTOFL
 70
     0
  9
$DIMTVP
 40
0.0
  9
$DIMTIX
 70
     0
  9
$DIMSOXD
 70
     0
  9
$DIMSAH
 70
     0
  9
$DIMBLK1
  1

  9
$DIMBLK2
  1

  9
$DIMSTYLE
  2
Standard
  9
$DIMCLRD
 70
     0
  9
$DIMCLRE
 70
     0
  9
$DIMCLRT
 70
     0
  9
$DIMTFAC
 40
0.65
  9
$DIMGAP
 40
0.09
  9
$DIMJUST
 70
     0
  9
$DIMSD1
 70
     0
  9
$DIMSD2
 70
     0
  9
$DIMTOLJ
 70
     0
  9
$DIMTZIN
 70
     0
  9
$DIMALTZ
 70
     0
  9
$DIMALTTZ
 70
     0
  9
$DIMUPT
 70
     0
  9
$DIMDEC
 70
     1
  9
$DIMTDEC
 70
     1
  9
$DIMALTU
 70
     2
  9
$DIMALTTD
 70
     1
  9
$DIMTXSTY
  7
Standard
  9
$DIMAUNIT
 70
     0
  9
$DIMADEC
 70
     1
  9
$DIMALTRND
 40
0.0
  9
$DIMAZIN
 70
     2
  9
$DIMDSEP
 70
    46
  9
$DIMATFIT
 70
     3
  9
$DIMFRAC
 70
     0
  9
$DIMLDRBLK
  1

  9
$DIMLUNIT
 70
     2
  9
$DIMLWD
 70
    -2
  9
$DIMLWE
 70
    -2
  9
$DIMTMOVE
 70
     0
  9
$DIMFXL
 40
1.0
  9
$DIMFXLON
 70
     0
  9
$DIMJOGANG
 40
0.7853981633974483
  9
$DIMTFILL
 70
     0
  9
$DIMTFILLCLR
 70
     0
  9
$DIMARCSYM
 70
     1
  9
$DIMLTYPE
  6

  9
$DIMLTEX1
  6

  9
$DIMLTEX2
  6

  9
$DIMTXTDIRECTION
 70
     0
  9
$LUNITS
 70
     2
  9
$LUPREC
 70
     4
  9
$SKETCHINC
 40
0.1
  9
$FILLETRAD
 40
0.5
  9
$AUNITS
 70
     0
  9
$AUPREC
 70
     0
  9
$MENU
  1
.
  9
$ELEVATION
 40
0.0
  9
$PELEVATION
 40
0.0
  9
$THICKNESS
 40
0.0
  9
$LIMCHECK
 70
     0
  9
$CHAMFERA
 40
0.0
  9
$CHAMFERB
 40
0.0
  9
$CHAMFERC
 40
0.0
  9
$CHAMFERD
 40
0.0
  9
$SKPOLY
 70
     0
  9
$TDCREATE
 40
2459852.375385474
  9
$TDUCREATE
 40
2459852.000385474
  9
$TDUPDATE
 40
2459852.375386018
  9
$TDUUPDATE
 40
2459852.000386018
  9
$TDINDWG
 40
0.0000000116
  9
$TDUSRTIMER
 40
0.0000000116
  9
$USRTIMER
 70
     1
  9
$ANGBASE
 50
0.0
  9
$ANGDIR
 70
     0
  9
$PDMODE
 70
     0
  9
$PDSIZE
 40
1.0
  9
$PLINEWID
 40
0.0
  9
$SPLFRAME
 70
     0
  9
$SPLINETYPE
 70
     6
  9
$SPLINESEGS
 70
     8
  9
$HANDSEED
  5
4B6
  9
$SURFTAB1
 70
     6
  9
$SURFTAB2
 70
     6
  9
$SURFTYPE
 70
     6
  9
$SURFU
 70
     6
  9
$SURFV
 70
     6
  9
$UCSBASE
  2

  9
$UCSNAME
  2

  9
$UCSORG
 10
0.0
 20
0.0
 30
0.0
  9
$UCSXDIR
 10
1.0
 20
0.0
 30
0.0
  9
$UCSYDIR
 10
0.0
 20
1.0
 30
0.0
  9
$UCSORTHOREF
  2

  9
$UCSORTHOVIEW
 70
     0
  9
$UCSORGTOP
 10
0.0
 20
0.0
 30
0.0
  9
$UCSORGBOTTOM
 10
0.0
 20
0.0
 30
0.0
  9
$UCSORGLEFT
 10
0.0
 20
0.0
 30
0.0
  9
$UCSORGRIGHT
 10
0.0
 20
0.0
 30
0.0
  9
$UCSORGFRONT
 10
0.0
 20
0.0
 30
0.0
  9
$UCSORGBACK
 10
0.0
 20
0.0
 30
0.0
  9
$PUCSBASE
  2

  9
$PUCSNAME
  2

  9
$PUCSORG
 10
0.0
 20
0.0
 30
0.0
  9
$PUCSXDIR
 10
1.0
 20
0.0
 30
0.0
  9
$PUCSYDIR
 10
0.0
 20
1.0
 30
0.0
  9
$PUCSORTHOREF
  2

  9
$PUCSORTHOVIEW
 70
     0
  9
$PUCSORGTOP
 10
0.0
 20
0.0
 30
0.0
  9
$PUCSORGBOTTOM
 10
0.0
 20
0.0
 30
0.0
  9
$PUCSORGLEFT
 10
0.0
 20
0.0
 30
0.0
  9
$PUCSORGRIGHT
 10
0.0
 20
0.0
 30
0.0
  9
$PUCSORGFRONT
 10
0.0
 20
0.0
 30
0.0
  9
$PUCSORGBACK
 10
0.0
 20
0.0
 30
0.0
  9
$USERI1
 70
     0
  9
$USERI2
 70
     0
  9
$USERI3
 70
     0
  9
$USERI4
 70
     0
  9
$USERI5
 70
     0
  9
$USERR1
 40
0.0
  9
$USERR2
 40
0.0
  9
$USERR3
 40
0.0
  9
$USERR4
 40
0.0
  9
$USERR5
 40
0.0
  9
$WORLDVIEW
 70
     1
  9
$SHADEDGE
 70
     3
  9
$SHADEDIF
 70
    70
  9
$TILEMODE
 70
     1
  9
$MAXACTVP
 70
    64
  9
$PINSBASE
 10
0.0
 20
0.0
 30
0.0
  9
$PLIMCHECK
 70
     0
  9
$PEXTMIN
 10
1.000000000000000E+20
 20
1.000000000000000E+20
 30
1.000000000000000E+20
  9
$PEXTMAX
 10
-1.000000000000000E+20
 20
-1.000000000000000E+20
 30
-1.000000000000000E+20
  9
$PLIMMIN
 10
0.0
 20
0.0
  9
$PLIMMAX
 10
12.0
 20
9.0
  9
$UNITMODE
 70
     0
  9
$VISRETAIN
 70
     0
  9
$PLINEGEN
 70
     1
  9
$PSLTSCALE
 70
     0
  9
$TREEDEPTH
 70
  3020
  9
$CMLSTYLE
  2
Standard
  9
$CMLJUST
 70
     0
  9
$CMLSCALE
 40
1.0
  9
$PROXYGRAPHICS
 70
     0
  9
$MEASUREMENT
 70
     1
  9
$CELWEIGHT
370
    -1
  9
$ENDCAPS
280
     0
  9
$JOINSTYLE
280
     0
  9
$LWDISPLAY
290
     1
  9
$INSUNITS
 70
     4
  9
$HYPERLINKBASE
  1

  9
$STYLESHEET
  1

  9
$XEDIT
290
     1
  9
$CEPSNTYPE
380
     0
  9
$PSTYLEMODE
290
     1
  9
$FINGERPRINTGUID
  2
{776a3582-27fd-4345-b5fc-85d692e814fb}
  9
$VERSIONGUID
  2
{FAEB1C32-E019-11D5-929B-00C0DF256EC4}
  9
$EXTNAMES
290
     1
  9
$PSVPSCALE
 40
0.0
  9
$OLESTARTUP
290
     0
  9
$SORTENTS
280
   127
  9
$INDEXCTL
280
     0
  9
$HIDETEXT
280
     1
  9
$XCLIPFRAME
280
     2
  9
$HALOGAP
280
     0
  9
$OBSCOLOR
 70
   257
  9
$OBSLTYPE
280
     0
  9
$INTERSECTIONDISPLAY
280
     0
  9
$INTERSECTIONCOLOR
 70
   257
  9
$DIMASSOC
280
     2
  9
$PROJECTNAME
  1

  9
$CAMERADISPLAY
290
     0
  9
$LENSLENGTH
 40
50.0
  9
$CAMERAHEIGHT
 40
0.0
  9
$STEPSPERSEC
 40
2.0
  9
$STEPSIZE
 40
6.0
  9
$3DDWFPREC
 40
2.0
  9
$PSOLWIDTH
 40
0.25
  9
$PSOLHEIGHT
 40
4.0
  9
$LOFTANG1
 40
1.570796326794897
  9
$LOFTANG2
 40
1.570796326794897
  9
$LOFTMAG1
 40
0.0
  9
$LOFTMAG2
 40
0.0
  9
$LOFTPARAM
 70
     7
  9
$LOFTNORMALS
280
     1
  9
$LATITUDE
 40
37.795
  9
$LONGITUDE
 40
-122.394
  9
$NORTHDIRECTION
 40
0.0
  9
$TIMEZONE
 70
 -8000
  9
$LIGHTGLYPHDISPLAY
280
     1
  9
$TILEMODELIGHTSYNCH
280
     1
  9
$CMATERIAL
347
44
  9
$SOLIDHIST
280
     0
  9
$SHOWHIST
280
     1
  9
$DWFFRAME
280
     2
  9
$DGNFRAME
280
     2
  9
$REALWORLDSCALE
290
     1
  9
$INTERFERECOLOR
 62
   256
  9
$CSHADOW
280
     0
  9
$SHADOWPLANELOCATION
 40
0.0
  0
ENDSEC
  0
SECTION
  2
CLASSES
  0
CLASS
  1
ACDBDICTIONARYWDFLT
  2
AcDbDictionaryWithDefault
  3
ObjectDBX Classes
 90
        0
 91
        3
280
     0
281
     0
  0
CLASS
  1
VISUALSTYLE
  2
AcDbVisualStyle
  3
ObjectDBX Classes
 90
     4095
 91
        3
280
     0
281
     0
  0
CLASS
  1
MATERIAL
  2
AcDbMaterial
  3
ObjectDBX Classes
 90
     1153
 91
        3
280
     0
281
     0
  0
CLASS
  1
SCALE
  2
AcDbScale
  3
ObjectDBX Classes
 90
     1153
 91
        3
280
     0
281
     0
  0
CLASS
  1
TABLESTYLE
  2
AcDbTableStyle
  3
ObjectDBX Classes
 90
     4095
 91
        3
280
     0
281
     0
  0
CLASS
  1
MLEADERSTYLE
  2
AcDbMLeaderStyle
  3
ACDB_MLEADERSTYLE_CLASS
 90
     4095
 91
        3
280
     0
281
     0
  0
CLASS
  1
SUN
  2
AcDbSun
  3
SCENEOE
 90
     1153
 91
        3
280
     0
281
     0
  0
CLASS
  1
DICTIONARYVAR
  2
AcDbDictionaryVar
  3
ObjectDBX Classes
 90
        0
 91
        3
280
     0
281
     0
  0
CLASS
  1
CELLSTYLEMAP
  2
AcDbCellStyleMap
  3
ObjectDBX Classes
 90
     1152
 91
        3
280
     0
281
     0
  0
ENDSEC
  0
SECTION
  2
TABLES
  0
TABLE
  2
VPORT
  5
8
330
0
100
AcDbSymbolTable
 70
     1
  0
VPORT
  5
29
330
8
100
AcDbSymbolTableRecord
100
AcDbViewportTableRecord
  2
*Active
 70
     0
 10
0.0
 20
0.0
 11
1.0
 21
1.0
 12
0.0
 22
0.0
 13
0.0
 23
0.0
 14
0.5
 24
0.5
 15
0.5
 25
0.5
 16
0.0
 26
0.0
 36
1.0
 17
-0.0000000000000036
 27
0.0
 37
0.0
 40
826.9838291621245
 41
1.45787614882569
 42
50.0
 43
0.0
 44
0.0
 50
0.0
 51
0.0
 71
     0
 72
  1000
 73
     1
 74
     1
 75
     0
 76
     0
 77
     0
 78
     0
281
     0
 65
     1
110
0.0
120
0.0
130
0.0
111
1.0
121
0.0
131
0.0
112
0.0
122
1.0
132
0.0
 79
     0
146
0.0
348
2F
 60
     3
 61
     5
292
     1
282
     1
141
0.0
142
0.0
 63
   250
361
6D
  0
ENDTAB
  0
TABLE
  2
LTYPE
  5
5
330
0
100
AcDbSymbolTable
 70
    67
  0
LTYPE
  5
14
330
5
100
AcDbSymbolTableRecord
100
AcDbLinetypeTableRecord
  2
ByBlock
 70
     0
  3

 72
    65
 73
     0
 40
0.0
  0
LTYPE
  5
15
330
5
100
AcDbSymbolTableRecord
100
AcDbLinetypeTableRecord
  2
ByLayer
 70
     0
  3

 72
    65
 73
     0
 40
0.0
  0
LTYPE
  5
16
330
5
100
AcDbSymbolTableRecord
100
AcDbLinetypeTableRecord
  2
Continuous
 70
     0
  3
Solid line
 72
    65
 73
     0
 40
0.0
  0
LTYPE
  5
6F
330
5
100
AcDbSymbolTableRecord
100
AcDbLinetypeTableRecord
  2
HIDDENX2
 70
     0
  3
Hidden (2x) ____ ____ ____ ____ ____ ____ ____ 
 72
    65
 73
     2
 40
19.05
 49
12.7
 74
     0
 49
-6.35
 74
     0
  0
LTYPE
  5
70
330
5
100
AcDbSymbolTableRecord
100
AcDbLinetypeTableRecord
  2
HIDDEN
 70
     0
  3
Hidden __ __ __ __ __ __ __ __ __ __ __ __ __ __
 72
    65
 73
     2
 40
9.524999999999999
 49
6.35
 74
     0
 49
-3.175
 74
     0
  0
LTYPE
  5
71
330
5
100
AcDbSymbolTableRecord
100
AcDbLinetypeTableRecord
  2
HIDDEN2
 70
     0
  3
Hidden (.5x) _ _ _ _ _ _ _ _ _ _ _ _ _ _ _ _ _ 
 72
    65
 73
     2
 40
4.762499999999999
 49
3.175
 74
     0
 49
-1.5875
 74
     0
  0
LTYPE
  5
72
330
5
100
AcDbSymbolTableRecord
100
AcDbLinetypeTableRecord
  2
DASHED
 70
     0
  3
Dashed __ __ __ __ __ __ __ __ __ __ __ __ __ _
 72
    65
 73
     2
 40
19.05
 49
12.7
 74
     0
 49
-6.35
 74
     0
  0
LTYPE
  5
73
330
5
100
AcDbSymbolTableRecord
100
AcDbLinetypeTableRecord
  2
DASHED2
 70
     0
  3
Dashed (.5x) _ _ _ _ _ _ _ _ _ _ _ _ _ _ _ _ _ 
 72
    65
 73
     2
 40
9.524999999999999
 49
6.35
 74
     0
 49
-3.175
 74
     0
  0
LTYPE
  5
74
330
5
100
AcDbSymbolTableRecord
100
AcDbLinetypeTableRecord
  2
DASHEDX2
 70
     0
  3
Dashed (2x) ____  ____  ____  ____  ____  ___
 72
    65
 73
     2
 40
38.09999999999999
 49
25.4
 74
     0
 49
-12.7
 74
     0
  0
LTYPE
  5
75
330
5
100
AcDbSymbolTableRecord
100
AcDbLinetypeTableRecord
  2
DOTX2
 70
     0
  3
Dot (2x) .  .  .  .  .  .  .  .  .  .  .  .  .  .
 72
    65
 73
     2
 40
12.7
 49
0.0
 74
     0
 49
-12.7
 74
     0
  0
LTYPE
  5
76
330
5
100
AcDbSymbolTableRecord
100
AcDbLinetypeTableRecord
  2
DOT
 70
     0
  3
Dot . . . . . . . . . . . . . . . . . . . . . . . .
 72
    65
 73
     2
 40
6.35
 49
0.0
 74
     0
 49
-6.35
 74
     0
  0
LTYPE
  5
77
330
5
100
AcDbSymbolTableRecord
100
AcDbLinetypeTableRecord
  2
DOT2
 70
     0
  3
Dot (.5x) ........................................
 72
    65
 73
     2
 40
3.175
 49
0.0
 74
     0
 49
-3.175
 74
     0
  0
LTYPE
  5
78
330
5
100
AcDbSymbolTableRecord
100
AcDbLinetypeTableRecord
  2
CENTERX2
 70
     0
  3
Center (2x) ________  __  ________  __  _____
 72
    65
 73
     4
 40
101.6
 49
63.5
 74
     0
 49
-12.7
 74
     0
 49
12.7
 74
     0
 49
-12.7
 74
     0
  0
LTYPE
  5
79
330
5
100
AcDbSymbolTableRecord
100
AcDbLinetypeTableRecord
  2
CENTER
 70
     0
  3
Center ____ _ ____ _ ____ _ ____ _ ____ _ ____
 72
    65
 73
     4
 40
50.8
 49
31.75
 74
     0
 49
-6.35
 74
     0
 49
6.35
 74
     0
 49
-6.35
 74
     0
  0
LTYPE
  5
7A
330
5
100
AcDbSymbolTableRecord
100
AcDbLinetypeTableRecord
  2
CENTER2
 70
     0
  3
Center (.5x) ___ _ ___ _ ___ _ ___ _ ___ _ ___
 72
    65
 73
     4
 40
28.575
 49
19.05
 74
     0
 49
-3.175
 74
     0
 49
3.175
 74
     0
 49
-3.175
 74
     0
  0
LTYPE
  5
7B
330
5
100
AcDbSymbolTableRecord
100
AcDbLinetypeTableRecord
  2
DASHDOTX2
 70
     0
  3
Dash dot (2x) ____  .  ____  .  ____  .  ___
 72
    65
 73
     4
 40
50.8
 49
25.4
 74
     0
 49
-12.7
 74
     0
 49
0.0
 74
     0
 49
-12.7
 74
     0
  0
LTYPE
  5
7C
330
5
100
AcDbSymbolTableRecord
100
AcDbLinetypeTableRecord
  2
DASHDOT
 70
     0
  3
Dash dot __ . __ . __ . __ . __ . __ . __ . __
 72
    65
 73
     4
 40
25.4
 49
12.7
 74
     0
 49
-6.35
 74
     0
 49
0.0
 74
     0
 49
-6.35
 74
     0
  0
LTYPE
  5
7D
330
5
100
AcDbSymbolTableRecord
100
AcDbLinetypeTableRecord
  2
DASHDOT2
 70
     0
  3
Dash dot (.5x) _._._._._._._._._._._._._._._.
 72
    65
 73
     4
 40
12.7
 49
6.35
 74
     0
 49
-3.175
 74
     0
 49
0.0
 74
     0
 49
-3.175
 74
     0
  0
LTYPE
  5
7E
330
5
100
AcDbSymbolTableRecord
100
AcDbLinetypeTableRecord
  2
DIVIDEX2
 70
     0
  3
Divide (2x) ________  .  .  ________  .  .  _
 72
    65
 73
     6
 40
63.5
 49
25.4
 74
     0
 49
-12.7
 74
     0
 49
0.0
 74
     0
 49
-12.7
 74
     0
 49
0.0
 74
     0
 49
-12.7
 74
     0
  0
LTYPE
  5
7F
330
5
100
AcDbSymbolTableRecord
100
AcDbLinetypeTableRecord
  2
DIVIDE
 70
     0
  3
Divide ____ . . ____ . . ____ . . ____ . . ____
 72
    65
 73
     6
 40
31.75
 49
12.7
 74
     0
 49
-6.35
 74
     0
 49
0.0
 74
     0
 49
-6.35
 74
     0
 49
0.0
 74
     0
 49
-6.35
 74
     0
  0
LTYPE
  5
80
330
5
100
AcDbSymbolTableRecord
100
AcDbLinetypeTableRecord
  2
DIVIDE2
 70
     0
  3
Divide (.5x) __..__..__..__..__..__..__..__.._
 72
    65
 73
     6
 40
15.875
 49
6.35
 74
     0
 49
-3.175
 74
     0
 49
0.0
 74
     0
 49
-3.175
 74
     0
 49
0.0
 74
     0
 49
-3.175
 74
     0
  0
LTYPE
  5
81
330
5
100
AcDbSymbolTableRecord
100
AcDbLinetypeTableRecord
  2
BORDERX2
 70
     0
  3
Border (2x) ____  ____  .  ____  ____  .  ___
 72
    65
 73
     6
 40
88.89999999999999
 49
25.4
 74
     0
 49
-12.7
 74
     0
 49
25.4
 74
     0
 49
-12.7
 74
     0
 49
0.0
 74
     0
 49
-12.7
 74
     0
  0
LTYPE
  5
82
330
5
100
AcDbSymbolTableRecord
100
AcDbLinetypeTableRecord
  2
BORDER
 70
     0
  3
Border __ __ . __ __ . __ __ . __ __ . __ __ .
 72
    65
 73
     6
 40
44.45
 49
12.7
 74
     0
 49
-6.35
 74
     0
 49
12.7
 74
     0
 49
-6.35
 74
     0
 49
0.0
 74
     0
 49
-6.35
 74
     0
  0
LTYPE
  5
83
330
5
100
AcDbSymbolTableRecord
100
AcDbLinetypeTableRecord
  2
BORDER2
 70
     0
  3
Border (.5x) __.__.__.__.__.__.__.__.__.__.__.
 72
    65
 73
     6
 40
22.225
 49
6.35
 74
     0
 49
-3.175
 74
     0
 49
6.35
 74
     0
 49
-3.175
 74
     0
 49
0.0
 74
     0
 49
-3.175
 74
     0
  0
LTYPE
  5
84
330
5
100
AcDbSymbolTableRecord
100
AcDbLinetypeTableRecord
  2
PHANTOMX2
 70
     0
  3
Phantom (2x) ____________    ____    ____   _
 72
    65
 73
     6
 40
127.0
 49
63.5
 74
     0
 49
-12.7
 74
     0
 49
12.7
 74
     0
 49
-12.7
 74
     0
 49
12.7
 74
     0
 49
-12.7
 74
     0
  0
LTYPE
  5
85
330
5
100
AcDbSymbolTableRecord
100
AcDbLinetypeTableRecord
  2
PHANTOM
 70
     0
  3
Phantom ______  __  __  ______  __  __  ______ 
 72
    65
 73
     6
 40
63.5
 49
31.75
 74
     0
 49
-6.35
 74
     0
 49
6.35
 74
     0
 49
-6.35
 74
     0
 49
6.35
 74
     0
 49
-6.35
 74
     0
  0
LTYPE
  5
86
330
5
100
AcDbSymbolTableRecord
100
AcDbLinetypeTableRecord
  2
PHANTOM2
 70
     0
  3
Phantom (.5x) ___ _ _ ___ _ _ ___ _ _ ___ _ _
 72
    65
 73
     6
 40
31.75
 49
15.875
 74
     0
 49
-3.175
 74
     0
 49
3.175
 74
     0
 49
-3.175
 74
     0
 49
3.175
 74
     0
 49
-3.175
 74
     0
  0
LTYPE
  5
87
330
5
100
AcDbSymbolTableRecord
100
AcDbLinetypeTableRecord
  2
ACAD_ISO06W100
 70
     0
  3
ISO long-dash triple-dot ____ ... ____ ... ____
 72
    65
 73
     8
 40
36.0
 49
24.0
 74
     0
 49
-3.0
 74
     0
 49
0.0
 74
     0
 49
-3.0
 74
     0
 49
0.0
 74
     0
 49
-3.0
 74
     0
 49
0.0
 74
     0
 49
-3.0
 74
     0
  0
LTYPE
  5
88
330
5
100
AcDbSymbolTableRecord
100
AcDbLinetypeTableRecord
  2
ACAD_ISO13W100
 70
     0
  3
ISO double-dash double-dot __ __ . . __ __ . . _
 72
    65
 73
     8
 40
36.0
 49
12.0
 74
     0
 49
-3.0
 74
     0
 49
12.0
 74
     0
 49
-3.0
 74
     0
 49
0.0
 74
     0
 49
-3.0
 74
     0
 49
0.0
 74
     0
 49
-3.0
 74
     0
  0
LTYPE
  5
89
330
5
100
AcDbSymbolTableRecord
100
AcDbLinetypeTableRecord
  2
ACAD_ISO14W100
 70
     0
  3
ISO dash triple-dot __ . . . __ . . . __ . . . _
 72
    65
 73
     8
 40
24.0
 49
12.0
 74
     0
 49
-3.0
 74
     0
 49
0.0
 74
     0
 49
-3.0
 74
     0
 49
0.0
 74
     0
 49
-3.0
 74
     0
 49
0.0
 74
     0
 49
-3.0
 74
     0
  0
LTYPE
  5
8A
330
5
100
AcDbSymbolTableRecord
100
AcDbLinetypeTableRecord
  2
ACAD_ISO02W100
 70
     0
  3
ISO dash __ __ __ __ __ __ __ __ __ __ __ __ __
 72
    65
 73
     2
 40
15.0
 49
12.0
 74
     0
 49
-3.0
 74
     0
  0
LTYPE
  5
8B
330
5
100
AcDbSymbolTableRecord
100
AcDbLinetypeTableRecord
  2
ACAD_ISO03W100
 70
     0
  3
ISO dash space __    __    __    __    __    __
 72
    65
 73
     2
 40
30.0
 49
12.0
 74
     0
 49
-18.0
 74
     0
  0
LTYPE
  5
8C
330
5
100
AcDbSymbolTableRecord
100
AcDbLinetypeTableRecord
  2
ACAD_ISO04W100
 70
     0
  3
ISO long-dash dot ____ . ____ . ____ . ____ . _
 72
    65
 73
     4
 40
30.0
 49
24.0
 74
     0
 49
-3.0
 74
     0
 49
0.0
 74
     0
 49
-3.0
 74
     0
  0
LTYPE
  5
8D
330
5
100
AcDbSymbolTableRecord
100
AcDbLinetypeTableRecord
  2
ACAD_ISO05W100
 70
     0
  3
ISO long-dash double-dot ____ .. ____ .. ____ . 
 72
    65
 73
     6
 40
33.0
 49
24.0
 74
     0
 49
-3.0
 74
     0
 49
0.0
 74
     0
 49
-3.0
 74
     0
 49
0.0
 74
     0
 49
-3.0
 74
     0
  0
LTYPE
  5
8E
330
5
100
AcDbSymbolTableRecord
100
AcDbLinetypeTableRecord
  2
ACAD_ISO07W100
 70
     0
  3
ISO dot . . . . . . . . . . . . . . . . . . . . 
 72
    65
 73
     2
 40
3.0
 49
0.0
 74
     0
 49
-3.0
 74
     0
  0
LTYPE
  5
8F
330
5
100
AcDbSymbolTableRecord
100
AcDbLinetypeTableRecord
  2
ACAD_ISO08W100
 70
     0
  3
ISO long-dash short-dash ____ __ ____ __ ____ _
 72
    65
 73
     4
 40
36.0
 49
24.0
 74
     0
 49
-3.0
 74
     0
 49
6.0
 74
     0
 49
-3.0
 74
     0
  0
LTYPE
  5
90
330
5
100
AcDbSymbolTableRecord
100
AcDbLinetypeTableRecord
  2
ACAD_ISO09W100
 70
     0
  3
ISO long-dash double-short-dash ____ __ __ ____
 72
    65
 73
     6
 40
45.0
 49
24.0
 74
     0
 49
-3.0
 74
     0
 49
6.0
 74
     0
 49
-3.0
 74
     0
 49
6.0
 74
     0
 49
-3.0
 74
     0
  0
LTYPE
  5
91
330
5
100
AcDbSymbolTableRecord
100
AcDbLinetypeTableRecord
  2
ACAD_ISO10W100
 70
     0
  3
ISO dash dot __ . __ . __ . __ . __ . __ . __ . 
 72
    65
 73
     4
 40
18.0
 49
12.0
 74
     0
 49
-3.0
 74
     0
 49
0.0
 74
     0
 49
-3.0
 74
     0
  0
LTYPE
  5
92
330
5
100
AcDbSymbolTableRecord
100
AcDbLinetypeTableRecord
  2
ACAD_ISO11W100
 70
     0
  3
ISO double-dash dot __ __ . __ __ . __ __ . __ _
 72
    65
 73
     6
 40
33.0
 49
12.0
 74
     0
 49
-3.0
 74
     0
 49
12.0
 74
     0
 49
-3.0
 74
     0
 49
0.0
 74
     0
 49
-3.0
 74
     0
  0
LTYPE
  5
93
330
5
100
AcDbSymbolTableRecord
100
AcDbLinetypeTableRecord
  2
ACAD_ISO12W100
 70
     0
  3
ISO dash double-dot __ . . __ . . __ . . __ . . 
 72
    65
 73
     6
 40
21.0
 49
12.0
 74
     0
 49
-3.0
 74
     0
 49
0.0
 74
     0
 49
-3.0
 74
     0
 49
0.0
 74
     0
 49
-3.0
 74
     0
  0
LTYPE
  5
94
330
5
100
AcDbSymbolTableRecord
100
AcDbLinetypeTableRecord
  2
ACAD_ISO15W100
 70
     0
  3
ISO double-dash triple-dot __ __ . . . __ __ . .
 72
    65
 73
    10
 40
39.0
 49
12.0
 74
     0
 49
-3.0
 74
     0
 49
12.0
 74
     0
 49
-3.0
 74
     0
 49
0.0
 74
     0
 49
-3.0
 74
     0
 49
0.0
 74
     0
 49
-3.0
 74
     0
 49
0.0
 74
     0
 49
-3.0
 74
     0
  0
LTYPE
  5
95
330
5
100
AcDbSymbolTableRecord
100
AcDbLinetypeTableRecord
  2
JIS_02_0.7
 70
     0
  3
HIDDEN0.75 _ _ _ _ _ _ _ _ _ _ _ _ _ _ _ _ _ 
 72
    65
 73
     2
 40
1.35
 49
0.75
 74
     0
 49
-0.6
 74
     0
  0
LTYPE
  5
96
330
5
100
AcDbSymbolTableRecord
100
AcDbLinetypeTableRecord
  2
JIS_02_1.0
 70
     0
  3
HIDDEN01 _ _ _ _ _ _ _ _ _ _ _ _ _ _ _ _ _ 
 72
    65
 73
     2
 40
2.0
 49
1.0
 74
     0
 49
-1.0
 74
     0
  0
LTYPE
  5
97
330
5
100
AcDbSymbolTableRecord
100
AcDbLinetypeTableRecord
  2
JIS_02_1.2
 70
     0
  3
HIDDEN01.25  _ _ _ _ _ _ _ _ _ _ _ _ _ _ _ _ _ 
 72
    65
 73
     2
 40
2.5
 49
1.25
 74
     0
 49
-1.25
 74
     0
  0
LTYPE
  5
98
330
5
100
AcDbSymbolTableRecord
100
AcDbLinetypeTableRecord
  2
JIS_02_2.0
 70
     0
  3
HIDDEN02 __ __ __ __ __ __ __ __ __ __ __ 
 72
    65
 73
     2
 40
3.0
 49
2.0
 74
     0
 49
-1.0
 74
     0
  0
LTYPE
  5
99
330
5
100
AcDbSymbolTableRecord
100
AcDbLinetypeTableRecord
  2
JIS_02_4.0
 70
     0
  3
HIDDEN04 ____ ____ ____ ____ ____ ____ ____ 
 72
    65
 73
     2
 40
5.5
 49
4.0
 74
     0
 49
-1.5
 74
     0
  0
LTYPE
  5
9A
330
5
100
AcDbSymbolTableRecord
100
AcDbLinetypeTableRecord
  2
JIS_08_11
 70
     0
  3
1SASEN11 ___ _ ___ _ ___ _ ___ _ ___ _ ___
 72
    65
 73
     4
 40
12.8
 49
11.0
 74
     0
 49
-0.6
 74
     0
 49
0.6
 74
     0
 49
-0.6
 74
     0
  0
LTYPE
  5
9B
330
5
100
AcDbSymbolTableRecord
100
AcDbLinetypeTableRecord
  2
JIS_08_15
 70
     0
  3
1SASEN15 ____ _ ____ _ ____ _ ____ _ ____ 
 72
    65
 73
     4
 40
17.25
 49
15.0
 74
     0
 49
-0.75
 74
     0
 49
0.75
 74
     0
 49
-0.75
 74
     0
  0
LTYPE
  5
9C
330
5
100
AcDbSymbolTableRecord
100
AcDbLinetypeTableRecord
  2
JIS_08_25
 70
     0
  3
1SASEN25 ________  __  ________  __  _____
 72
    65
 73
     4
 40
28.0
 49
25.0
 74
     0
 49
-1.125
 74
     0
 49
0.75
 74
     0
 49
-1.125
 74
     0
  0
LTYPE
  5
9D
330
5
100
AcDbSymbolTableRecord
100
AcDbLinetypeTableRecord
  2
JIS_08_37
 70
     0
  3
1SASEN37 ________  __  ________  __  _____
 72
    65
 73
     4
 40
40.5
 49
37.5
 74
     0
 49
-1.125
 74
     0
 49
0.75
 74
     0
 49
-1.125
 74
     0
  0
LTYPE
  5
9E
330
5
100
AcDbSymbolTableRecord
100
AcDbLinetypeTableRecord
  2
JIS_08_50
 70
     0
  3
1SASEN50 _______________  __  ____________
 72
    65
 73
     4
 40
53.0
 49
50.0
 74
     0
 49
-1.125
 74
     0
 49
0.75
 74
     0
 49
-1.125
 74
     0
  0
LTYPE
  5
9F
330
5
100
AcDbSymbolTableRecord
100
AcDbLinetypeTableRecord
  2
JIS_09_08
 70
     0
  3
2SASEN8 __ _ _ __ _ _ __ _ _ __ _ _ __ _ _ 
 72
    65
 73
     6
 40
10.75
 49
8.0
 74
     0
 49
-0.55
 74
     0
 49
0.55
 74
     0
 49
-0.55
 74
     0
 49
0.55
 74
     0
 49
-0.55
 74
     0
  0
LTYPE
  5
A0
330
5
100
AcDbSymbolTableRecord
100
AcDbLinetypeTableRecord
  2
JIS_09_15
 70
     0
  3
2SASEN15 ___ _ _ ___ _ _ ___ _ _ ___ _ _ ___ 
 72
    65
 73
     6
 40
18.9
 49
15.0
 74
     0
 49
-0.9
 74
     0
 49
0.6
 74
     0
 49
-0.9
 74
     0
 49
0.6
 74
     0
 49
-0.9
 74
     0
  0
LTYPE
  5
A1
330
5
100
AcDbSymbolTableRecord
100
AcDbLinetypeTableRecord
  2
JIS_09_29
 70
     0
  3
2SASEN29 ______　__  __  ______　__  __  ___
 72
    65
 73
     6
 40
34.0
 49
29.0
 74
     0
 49
-1.2
 74
     0
 49
0.7
 74
     0
 49
-1.2
 74
     0
 49
0.7
 74
     0
 49
-1.2
 74
     0
  0
LTYPE
  5
A2
330
5
100
AcDbSymbolTableRecord
100
AcDbLinetypeTableRecord
  2
JIS_09_50
 70
     0
  3
2SASEN50 ____________　__  __  _____________
 72
    65
 73
     6
 40
55.0
 49
50.0
 74
     0
 49
-1.2
 74
     0
 49
0.7
 74
     0
 49
-1.2
 74
     0
 49
0.7
 74
     0
 49
-1.2
 74
     0
  0
LTYPE
  5
A3
330
5
100
AcDbSymbolTableRecord
100
AcDbLinetypeTableRecord
  2
SXF_破線
 70
     0
  3
02 dashed -- -- -- -- -- --
 72
    65
 73
     2
 40
7.5
 49
6.0
 74
     0
 49
-1.5
 74
     0
  0
LTYPE
  5
A4
330
5
100
AcDbSymbolTableRecord
100
AcDbLinetypeTableRecord
  2
SXF_跳び破線
 70
     0
  3
03 dashed_spaced --  --  --  --
 72
    65
 73
     2
 40
12.0
 49
6.0
 74
     0
 49
-6.0
 74
     0
  0
LTYPE
  5
A5
330
5
100
AcDbSymbolTableRecord
100
AcDbLinetypeTableRecord
  2
SXF_一点長鎖線
 70
     0
  3
04 long_dashed_dotted ---- . ---- . ----
 72
    65
 73
     4
 40
15.25
 49
12.0
 74
     0
 49
-1.5
 74
     0
 49
0.25
 74
     0
 49
-1.5
 74
     0
  0
LTYPE
  5
A6
330
5
100
AcDbSymbolTableRecord
100
AcDbLinetypeTableRecord
  2
SXF_二点長鎖線
 70
     0
  3
05 long_dashed_double-dotted ---- . . ---- 
 72
    65
 73
     6
 40
17.0
 49
12.0
 74
     0
 49
-1.5
 74
     0
 49
0.25
 74
     0
 49
-1.5
 74
     0
 49
0.25
 74
     0
 49
-1.5
 74
     0
  0
LTYPE
  5
A7
330
5
100
AcDbSymbolTableRecord
100
AcDbLinetypeTableRecord
  2
SXF_三点長鎖線
 70
     0
  3
06 long_dashed_triplicate-dotted ---- ... ---- 
 72
    65
 73
     8
 40
18.75
 49
12.0
 74
     0
 49
-1.5
 74
     0
 49
0.25
 74
     0
 49
-1.5
 74
     0
 49
0.25
 74
     0
 49
-1.5
 74
     0
 49
0.25
 74
     0
 49
-1.5
 74
     0
  0
LTYPE
  5
A8
330
5
100
AcDbSymbolTableRecord
100
AcDbLinetypeTableRecord
  2
SXF_点線
 70
     0
  3
07 dotted . . . . . . . . . . . . 
 72
    65
 73
     2
 40
1.75
 49
0.25
 74
     0
 49
-1.5
 74
     0
  0
LTYPE
  5
A9
330
5
100
AcDbSymbolTableRecord
100
AcDbLinetypeTableRecord
  2
SXF_一点鎖線
 70
     0
  3
08 chain ---- - --- - --- - ---
 72
    65
 73
     4
 40
18.5
 49
12.0
 74
     0
 49
-1.5
 74
     0
 49
3.5
 74
     0
 49
-1.5
 74
     0
  0
LTYPE
  5
AA
330
5
100
AcDbSymbolTableRecord
100
AcDbLinetypeTableRecord
  2
SXF_二点鎖線
 70
     0
  3
09 chain_double_dash ---- - - ---- - - ----
 72
    65
 73
     6
 40
23.5
 49
12.0
 74
     0
 49
-1.5
 74
     0
 49
3.5
 74
     0
 49
-1.5
 74
     0
 49
3.5
 74
     0
 49
-1.5
 74
     0
  0
LTYPE
  5
AB
330
5
100
AcDbSymbolTableRecord
100
AcDbLinetypeTableRecord
  2
SXF_一点短鎖線
 70
     0
  3
10 dashed_dotted -- . -- . -- . --
 72
    65
 73
     4
 40
9.25
 49
6.0
 74
     0
 49
-1.5
 74
     0
 49
0.25
 74
     0
 49
-1.5
 74
     0
  0
LTYPE
  5
AC
330
5
100
AcDbSymbolTableRecord
100
AcDbLinetypeTableRecord
  2
SXF_一点二短鎖線
 70
     0
  3
11 double-dashed_dotted -- -- . -- --
 72
    65
 73
     6
 40
16.75
 49
6.0
 74
     0
 49
-1.5
 74
     0
 49
6.0
 74
     0
 49
-1.5
 74
     0
 49
0.25
 74
     0
 49
-1.5
 74
     0
  0
LTYPE
  5
AD
330
5
100
AcDbSymbolTableRecord
100
AcDbLinetypeTableRecord
  2
SXF_二点短鎖線
 70
     0
  3
12 dashed_double_dotted -- . . -- . . --
 72
    65
 73
     6
 40
11.0
 49
6.0
 74
     0
 49
-1.5
 74
     0
 49
0.25
 74
     0
 49
-1.5
 74
     0
 49
0.25
 74
     0
 49
-1.5
 74
     0
  0
LTYPE
  5
AE
330
5
100
AcDbSymbolTableRecord
100
AcDbLinetypeTableRecord
  2
SXF_二点二短鎖線
 70
     0
  3
13 double-dashed_double-dotted -- -- . . -- --
 72
    65
 73
     8
 40
18.5
 49
6.0
 74
     0
 49
-1.5
 74
     0
 49
6.0
 74
     0
 49
-1.5
 74
     0
 49
0.25
 74
     0
 49
-1.5
 74
     0
 49
0.25
 74
     0
 49
-1.5
 74
     0
  0
LTYPE
  5
AF
330
5
100
AcDbSymbolTableRecord
100
AcDbLinetypeTableRecord
  2
SXF_三点短鎖線
 70
     0
  3
14 dashed triplicate-dotted -- . . . -- . . . --
 72
    65
 73
     8
 40
12.75
 49
6.0
 74
     0
 49
-1.5
 74
     0
 49
0.25
 74
     0
 49
-1.5
 74
     0
 49
0.25
 74
     0
 49
-1.5
 74
     0
 49
0.25
 74
     0
 49
-1.5
 74
     0
  0
LTYPE
  5
B0
330
5
100
AcDbSymbolTableRecord
100
AcDbLinetypeTableRecord
  2
SXF_三点二短鎖線
 70
     0
  3
15 double-dashed triplicate-dotted -- -- . . . -- -- 
 72
    65
 73
    10
 40
20.25
 49
6.0
 74
     0
 49
-1.5
 74
     0
 49
6.0
 74
     0
 49
-1.5
 74
     0
 49
0.25
 74
     0
 49
-1.5
 74
     0
 49
0.25
 74
     0
 49
-1.5
 74
     0
 49
0.25
 74
     0
 49
-1.5
 74
     0
  0
ENDTAB
  0
TABLE
  2
LAYER
  5
2
330
0
100
AcDbSymbolTable
 70
    12
  0
LAYER
  5
10
330
2
100
AcDbSymbolTableRecord
100
AcDbLayerTableRecord
  2
0
 70
     0
 62
     7
  6
Continuous
370
    -3
390
F
347
46
  0
LAYER
  5
B1
330
2
100
AcDbSymbolTableRecord
100
AcDbLayerTableRecord
  2
10
 70
     0
 62
     7
  6
Continuous
370
    -3
390
F
347
46
  0
LAYER
  5
B2
330
2
100
AcDbSymbolTableRecord
100
AcDbLayerTableRecord
  2
2
 70
     0
 62
     7
  6
Continuous
370
    -3
390
F
347
46
  0
LAYER
  5
B3
330
2
100
AcDbSymbolTableRecord
100
AcDbLayerTableRecord
  2
3
 70
     0
 62
     7
  6
Continuous
370
    -3
390
F
347
46
  0
LAYER
  5
B4
330
2
100
AcDbSymbolTableRecord
100
AcDbLayerTableRecord
  2
4
 70
     0
 62
     7
  6
Continuous
370
    -3
390
F
347
46
  0
LAYER
  5
B5
330
2
100
AcDbSymbolTableRecord
100
AcDbLayerTableRecord
  2
5
 70
     0
 62
     7
  6
Continuous
370
    -3
390
F
347
46
  0
LAYER
  5
B6
330
2
100
AcDbSymbolTableRecord
100
AcDbLayerTableRecord
  2
6
 70
     0
 62
     7
  6
Continuous
370
    -3
390
F
347
46
  0
LAYER
  5
B7
330
2
100
AcDbSymbolTableRecord
100
AcDbLayerTableRecord
  2
7
 70
     0
 62
     7
  6
Continuous
370
    -3
390
F
347
46
  0
LAYER
  5
B8
330
2
100
AcDbSymbolTableRecord
100
AcDbLayerTableRecord
  2
L-09
 70
     0
 62
     7
  6
Continuous
370
    -3
390
F
347
46
  0
LAYER
  5
B9
330
2
100
AcDbSymbolTableRecord
100
AcDbLayerTableRecord
  2
L-WORK
 70
     0
 62
     7
  6
Continuous
370
    -3
390
F
347
46
  0
LAYER
  5
BA
330
2
100
AcDbSymbolTableRecord
100
AcDbLayerTableRecord
  2
L-2
 70
     0
 62
     7
  6
Continuous
370
    -3
390
F
347
46
  0
LAYER
  5
BB
330
2
100
AcDbSymbolTableRecord
100
AcDbLayerTableRecord
  2
ZUWAKU
 70
     0
 62
     7
  6
Continuous
370
    -3
390
F
347
46
  0
ENDTAB
  0
TABLE
  2
STYLE
  5
3
330
0
100
AcDbSymbolTable
 70
     3
  0
STYLE
  5
11
330
3
100
AcDbSymbolTableRecord
100
AcDbTextStyleTableRecord
  2
Standard
 70
     0
 40
0.0
 41
1.0
 50
0.0
 71
     0
 42
0.2
  3
txt.shx
  4
bigfont.shx
  0
STYLE
  5
113
330
3
100
AcDbSymbolTableRecord
100
AcDbTextStyleTableRecord
  2
dcStyle0
 70
     0
 40
0.0
 41
1.0
 50
0.0
 71
     0
 42
0.2
  3
ＭＳ Ｐゴシック
  4

1001
ACAD
1000
ＭＳ Ｐゴシック
1071
    32802
  0
STYLE
  5
221
330
3
100
AcDbSymbolTableRecord
100
AcDbTextStyleTableRecord
  2
dcStyle1
 70
     0
 40
0.0
 41
1.0
 50
0.0
 71
     0
 42
0.2
  3
txt.shx
  4
bigfont
  0
ENDTAB
  0
TABLE
  2
VIEW
  5
6
330
0
100
AcDbSymbolTable
 70
     0
  0
ENDTAB
  0
TABLE
  2
UCS
  5
7
330
0
100
AcDbSymbolTable
 70
     0
  0
ENDTAB
  0
TABLE
  2
APPID
  5
9
330
0
100
AcDbSymbolTable
 70
     2
  0
APPID
  5
12
330
9
100
AcDbSymbolTableRecord
100
AcDbRegAppTableRecord
  2
ACAD
 70
     0
  0
APPID
  5
6E
330
9
100
AcDbSymbolTableRecord
100
AcDbRegAppTableRecord
  2
DaFusionOut
 70
     0
  0
ENDTAB
  0
TABLE
  2
DIMSTYLE
  5
A
330
0
100
AcDbSymbolTable
 70
     3
100
AcDbDimStyleTable
  0
DIMSTYLE
105
27
330
A
100
AcDbSymbolTableRecord
100
AcDbDimStyleTableRecord
  2
Standard
 70
     0
178
     0
340
11
  0
DIMSTYLE
105
42F
102
{ACAD_REACTORS
330
42E
330
430
330
433
330
436
330
437
330
438
330
43A
102
}
330
A
100
AcDbSymbolTableRecord
100
AcDbDimStyleTableRecord
  2
dc_Rotated
 70
     0
 41
9.000005722045898
 42
3.0
 44
2.5
 90
        1
 73
     0
 74
     0
 77
     3
 78
     8
 79
     2
140
12.0
147
3.0
172
     1
173
     1
176
     2
177
     2
271
     2
178
     4
271
     2
274
     4
283
     0
284
     8
288
     1
340
113
343
109
344
109
  0
DIMSTYLE
105
432
102
{ACAD_REACTORS
330
431
102
}
330
A
100
AcDbSymbolTableRecord
100
AcDbDimStyleTableRecord
  2
dc_Rotated_F1
 70
     0
 41
9.000005722045898
 42
3.0
 44
3.0
 90
        1
 73
     0
 74
     0
 75
     1
 76
     1
 77
     3
 78
     8
 79
     2
140
12.0
147
3.0
172
     1
173
     1
176
     2
177
     7
271
     2
178
     2
271
     2
274
     4
283
     0
284
     8
288
     1
340
113
343
109
344
109
  0
ENDTAB
  0
TABLE
  2
BLOCK_RECORD
  5
1
330
0
100
AcDbSymbolTable
 70
    27
  0
BLOCK_RECORD
  5
1F
330
1
100
AcDbSymbolTableRecord
100
AcDbBlockTableRecord
  2
*Model_Space
340
22
 70
     0
280
     1
281
     0
  0
BLOCK_RECORD
  5
1B
330
1
100
AcDbSymbolTableRecord
100
AcDbBlockTableRecord
  2
*Paper_Space
340
1E
 70
     0
280
     1
281
     0
  0
BLOCK_RECORD
  5
23
330
1
100
AcDbSymbolTableRecord
100
AcDbBlockTableRecord
  2
*Paper_Space0
340
26
 70
     0
280
     1
281
     0
  0
BLOCK_RECORD
  5
BD
330
1
100
AcDbSymbolTableRecord
100
AcDbBlockTableRecord
  2
*D1
340
0
 70
     0
280
     1
281
     0
  0
BLOCK_RECORD
  5
C0
330
1
100
AcDbSymbolTableRecord
100
AcDbBlockTableRecord
  2
*D2
340
0
 70
     0
280
     1
281
     0
  0
BLOCK_RECORD
  5
C3
330
1
100
AcDbSymbolTableRecord
100
AcDbBlockTableRecord
  2
*D3
340
0
 70
     0
280
     1
281
     0
  0
BLOCK_RECORD
  5
C6
330
1
100
AcDbSymbolTableRecord
100
AcDbBlockTableRecord
  2
*D4
340
0
 70
     0
280
     1
281
     0
  0
BLOCK_RECORD
  5
C9
330
1
100
AcDbSymbolTableRecord
100
AcDbBlockTableRecord
  2
DC_IMAGEDIMGROUP_1
340
0
102
{BLKREFS
331
434
102
}
 70
     0
280
     1
281
     0
  0
BLOCK_RECORD
  5
CC
330
1
100
AcDbSymbolTableRecord
100
AcDbBlockTableRecord
  2
DC_IMAGEDIMGROUP_2
340
0
102
{BLKREFS
331
435
102
}
 70
     0
280
     1
281
     0
  0
BLOCK_RECORD
  5
CF
330
1
100
AcDbSymbolTableRecord
100
AcDbBlockTableRecord
  2
DC_GROUP_W_GSTP_S_060_1_1
340
0
102
{BLKREFS
331
43E
102
}
 70
     0
280
     1
281
     0
  0
BLOCK_RECORD
  5
D2
330
1
100
AcDbSymbolTableRecord
100
AcDbBlockTableRecord
  2
DC_GROUP_W_GSTP_S_060_1_2
340
0
102
{BLKREFS
331
43F
102
}
 70
     0
280
     1
281
     0
  0
BLOCK_RECORD
  5
D5
330
1
100
AcDbSymbolTableRecord
100
AcDbBlockTableRecord
  2
DC_GROUP_W_GSTP_S_060_1_3
340
0
102
{BLKREFS
331
440
102
}
 70
     0
280
     1
281
     0
  0
BLOCK_RECORD
  5
D8
330
1
100
AcDbSymbolTableRecord
100
AcDbBlockTableRecord
  2
DC_GROUP_W_GSTP_S_060_1_4
340
0
102
{BLKREFS
331
441
102
}
 70
     0
280
     1
281
     0
  0
BLOCK_RECORD
  5
DB
330
1
100
AcDbSymbolTableRecord
100
AcDbBlockTableRecord
  2
*D11
340
0
 70
     0
280
     1
281
     0
  0
BLOCK_RECORD
  5
DE
330
1
100
AcDbSymbolTableRecord
100
AcDbBlockTableRecord
  2
*D12
340
0
 70
     0
280
     1
281
     0
  0
BLOCK_RECORD
  5
E1
330
1
100
AcDbSymbolTableRecord
100
AcDbBlockTableRecord
  2
*D13
340
0
 70
     0
280
     1
281
     0
  0
BLOCK_RECORD
  5
E4
330
1
100
AcDbSymbolTableRecord
100
AcDbBlockTableRecord
  2
DC_IMAGEDIMGROUP_3
340
0
102
{BLKREFS
331
439
102
}
 70
     0
280
     1
281
     0
  0
BLOCK_RECORD
  5
E7
330
1
100
AcDbSymbolTableRecord
100
AcDbBlockTableRecord
  2
DC_GROUP_W_GSTP_S_060_1_5
340
0
102
{BLKREFS
331
442
102
}
 70
     0
280
     1
281
     0
  0
BLOCK_RECORD
  5
EA
330
1
100
AcDbSymbolTableRecord
100
AcDbBlockTableRecord
  2
DC_GROUP_W_GSTP_S_060_1_6
340
0
102
{BLKREFS
331
443
102
}
 70
     0
280
     1
281
     0
  0
BLOCK_RECORD
  5
ED
330
1
100
AcDbSymbolTableRecord
100
AcDbBlockTableRecord
  2
*D17
340
0
 70
     0
280
     1
281
     0
  0
BLOCK_RECORD
  5
F0
330
1
100
AcDbSymbolTableRecord
100
AcDbBlockTableRecord
  2
DC_IMAGEDIMGROUP_4
340
0
102
{BLKREFS
331
43B
102
}
 70
     0
280
     1
281
     0
  0
BLOCK_RECORD
  5
F3
330
1
100
AcDbSymbolTableRecord
100
AcDbBlockTableRecord
  2
DC_GROUP_W_GSTP_S_060_1_7
340
0
102
{BLKREFS
331
460
102
}
 70
     0
280
     1
281
     0
  0
BLOCK_RECORD
  5
F6
330
1
100
AcDbSymbolTableRecord
100
AcDbBlockTableRecord
  2
DC_GROUP_W_GSTP_S_060_1_8
340
0
102
{BLKREFS
331
461
102
}
 70
     0
280
     1
281
     0
  0
BLOCK_RECORD
  5
F9
330
1
100
AcDbSymbolTableRecord
100
AcDbBlockTableRecord
  2
DC_GROUP_W_GSTP_S_060_1_9
340
0
102
{BLKREFS
331
43C
102
}
 70
     0
280
     1
281
     0
  0
BLOCK_RECORD
  5
FC
330
1
100
AcDbSymbolTableRecord
100
AcDbBlockTableRecord
  2
DC_GROUP_W_GSTP_S_060_1_10
340
0
102
{BLKREFS
331
47B
102
}
 70
     0
280
     1
281
     0
  0
BLOCK_RECORD
  5
FF
330
1
100
AcDbSymbolTableRecord
100
AcDbBlockTableRecord
  2
DC_GROUP_W_GSTP_S_060_1_11
340
0
102
{BLKREFS
331
47C
102
}
 70
     0
280
     1
281
     0
  0
BLOCK_RECORD
  5
102
330
1
100
AcDbSymbolTableRecord
100
AcDbBlockTableRecord
  2
DC_GROUP_W_GSTP_S_060_1_12
340
0
102
{BLKREFS
331
43D
102
}
 70
     0
280
     1
281
     0
  0
BLOCK_RECORD
  5
105
330
1
100
AcDbSymbolTableRecord
100
AcDbBlockTableRecord
  2
DC_GROUP_W_GSTP_S_060_1_13
340
0
102
{BLKREFS
331
235
102
}
 70
     0
280
     1
281
     0
  0
BLOCK_RECORD
  5
109
330
1
100
AcDbSymbolTableRecord
100
AcDbBlockTableRecord
  2
_Open30
340
0
102
{BLKREFS
331
10F
331
110
331
116
331
117
331
11D
331
11F
331
122
331
123
331
128
331
129
331
130
331
132
331
169
331
16A
331
16F
331
170
331
175
331
176
331
17E
331
180
331
1C5
331
1C6
331
1CE
331
1D0
331
1D2
102
}
 70
     0
280
     1
281
     0
  0
ENDTAB
  0
ENDSEC
  0
SECTION
  2
BLOCKS
  0
BLOCK
  5
20
330
1F
100
AcDbEntity
  8
0
100
AcDbBlockBegin
  2
*Model_Space
 70
     0
 10
0.0
 20
0.0
 30
0.0
  3
*Model_Space
  1

  0
ENDBLK
  5
21
330
1F
100
AcDbEntity
  8
0
100
AcDbBlockEnd
  0
BLOCK
  5
1C
330
1B
100
AcDbEntity
 67
     1
  8
0
100
AcDbBlockBegin
  2
*Paper_Space
 70
     0
 10
0.0
 20
0.0
 30
0.0
  3
*Paper_Space
  1

  0
ENDBLK
  5
1D
330
1B
100
AcDbEntity
 67
     1
  8
0
100
AcDbBlockEnd
  0
BLOCK
  5
24
330
23
100
AcDbEntity
  8
0
100
AcDbBlockBegin
  2
*Paper_Space0
 70
     0
 10
0.0
 20
0.0
 30
0.0
  3
*Paper_Space0
  1

  0
ENDBLK
  5
25
330
23
100
AcDbEntity
  8
0
100
AcDbBlockEnd
  0
BLOCK
  5
BE
330
BD
100
AcDbEntity
  8
0
100
AcDbBlockBegin
  2
*D1
 70
     1
 10
0.0
 20
0.0
 30
0.0
  3
*D1
  1

  0
LINE
  5
108
330
BD
100
AcDbEntity
  8
0
  6
Continuous
 62
     2
370
    13
100
AcDbLine
 10
-260.2294166686791
 20
222.6831642539815
 30
0.0
 11
139.7705833313205
 21
222.6831642539815
 31
0.0
  0
INSERT
  5
10F
330
BD
100
AcDbEntity
  8
0
 62
     2
100
AcDbBlockReference
  2
_Open30
 10
-260.2294166686791
 20
222.6831642539815
 30
0.0
 41
9.000008422845859
 42
8.99996810467093
 50
180.0
  0
INSERT
  5
110
330
BD
100
AcDbEntity
  8
0
 62
     2
100
AcDbBlockReference
  2
_Open30
 10
139.7705833313205
 20
222.6831642539815
 30
0.0
 41
9.000008422845859
 42
8.99996810467093
 50
360.0
  0
LINE
  5
111
330
BD
100
AcDbEntity
  8
0
  6
Continuous
 62
     2
370
    13
100
AcDbLine
 10
-260.2294166686791
 20
191.6831642539815
 30
0.0
 11
-260.2294166686791
 21
225.1831642539815
 31
0.0
  0
LINE
  5
112
330
BD
100
AcDbEntity
  8
0
  6
Continuous
 62
     2
370
    13
100
AcDbLine
 10
139.7705833313205
 20
191.6831642539816
 30
0.0
 11
139.7705833313205
 21
225.1831642539815
 31
0.0
  0
TEXT
  5
114
330
BD
100
AcDbEntity
  8
0
 62
     4
100
AcDbText
 10
-126.2294166686793
 20
225.6831642539815
 30
0.0
 40
12.0
  1
ストッパ幅＝呼び幅-100
 41
0.7380772586924421
  7
dcStyle0
 72
     5
 11
5.770583331320722
 21
225.6831642539815
 31
0.0
100
AcDbText
  0
ENDBLK
  5
BF
330
BD
100
AcDbEntity
  8
0
100
AcDbBlockEnd
  0
BLOCK
  5
C1
330
C0
100
AcDbEntity
  8
0
100
AcDbBlockBegin
  2
*D2
 70
     1
 10
0.0
 20
0.0
 30
0.0
  3
*D2
  1

  0
LINE
  5
115
330
C0
100
AcDbEntity
  8
0
  6
Continuous
 62
     2
370
    13
100
AcDbLine
 10
-387.7294166686791
 20
41.68316425398318
 30
0.0
 11
-387.7294166686791
 21
156.6831642539839
 31
0.0
  0
INSERT
  5
116
330
C0
100
AcDbEntity
  8
0
 62
     2
100
AcDbBlockReference
  2
_Open30
 10
-387.7294166686791
 20
41.68316425398318
 30
0.0
 41
9.000008422845859
 42
8.99996810467093
 50
270.0
  0
INSERT
  5
117
330
C0
100
AcDbEntity
  8
0
 62
     2
100
AcDbBlockReference
  2
_Open30
 10
-387.7294166686791
 20
156.6831642539839
 30
0.0
 41
9.000008422845859
 42
8.99996810467093
 50
90.0
  0
LINE
  5
118
330
C0
100
AcDbEntity
  8
0
  6
Continuous
 62
     2
370
    13
100
AcDbLine
 10
-359.7294166686791
 20
41.68316425398318
 30
0.0
 11
-390.7294166686791
 21
41.68316425398318
 31
0.0
  0
LINE
  5
119
330
C0
100
AcDbEntity
  8
0
  6
Continuous
 62
     2
370
    13
100
AcDbLine
 10
-359.7294166686806
 20
156.6831642539839
 30
0.0
 11
-390.7294166686791
 21
156.6831642539839
 31
0.0
  0
TEXT
  5
11A
330
C0
100
AcDbEntity
  8
0
 62
     2
100
AcDbText
 10
-390.7294166686791
 20
90.18316425398356
 30
0.0
 40
12.0
  1
115
 50
90.0
 41
0.6875
  7
dcStyle0
 72
     5
 11
-390.7294166686791
 21
108.1831642539836
 31
0.0
100
AcDbText
  0
ENDBLK
  5
C2
330
C0
100
AcDbEntity
  8
0
100
AcDbBlockEnd
  0
BLOCK
  5
C4
330
C3
100
AcDbEntity
  8
0
100
AcDbBlockBegin
  2
*D3
 70
     1
 10
0.0
 20
0.0
 30
0.0
  3
*D3
  1

  0
LINE
  5
11B
330
C3
100
AcDbEntity
  8
0
  6
Continuous
 62
     2
370
    13
100
AcDbLine
 10
-167.2634444427001
 20
-87.316835746018
 30
0.0
 11
-167.2634444427001
 21
-67.31683574601927
 31
0.0
  0
LINE
  5
11C
330
C3
100
AcDbEntity
  8
0
  6
Continuous
 62
     2
370
    13
100
AcDbLine
 10
-167.2634444427001
 20
-114.010175746018
 30
0.0
 11
-167.2634444427001
 21
-87.316835746018
 31
0.0
  0
INSERT
  5
11D
330
C3
100
AcDbEntity
  8
0
 62
     2
100
AcDbBlockReference
  2
_Open30
 10
-167.2634444427001
 20
-87.316835746018
 30
0.0
 41
9.000008422845859
 42
8.99996810467093
 50
90.0
  0
LINE
  5
11E
330
C3
100
AcDbEntity
  8
0
  6
Continuous
 62
     2
370
    13
100
AcDbLine
 10
-167.2634444427001
 20
-52.31683574601927
 30
0.0
 11
-167.2634444427001
 21
-67.31683574601927
 31
0.0
  0
INSERT
  5
11F
330
C3
100
AcDbEntity
  8
0
 62
     2
100
AcDbBlockReference
  2
_Open30
 10
-167.2634444427001
 20
-67.31683574601927
 30
0.0
 41
9.000008422845859
 42
8.99996810467093
 50
270.0
  0
TEXT
  5
120
330
C3
100
AcDbEntity
  8
0
 62
     2
100
AcDbText
 10
-170.2634444427001
 20
-111.010175746018
 30
0.0
 40
12.0
  1
20
 50
90.0
 41
0.6875
  7
dcStyle0
 72
     5
 11
-170.2634444427001
 21
-99.010175746018
 31
0.0
100
AcDbText
  0
ENDBLK
  5
C5
330
C3
100
AcDbEntity
  8
0
100
AcDbBlockEnd
  0
BLOCK
  5
C7
330
C6
100
AcDbEntity
  8
0
100
AcDbBlockBegin
  2
*D4
 70
     1
 10
0.0
 20
0.0
 30
0.0
  3
*D4
  1

  0
LINE
  5
121
330
C6
100
AcDbEntity
  8
0
  6
Continuous
 62
     2
370
    13
100
AcDbLine
 10
383.6696316693688
 20
-107.6844166694922
 30
0.0
 11
327.6696316693688
 21
-107.6844166694922
 31
0.0
  0
INSERT
  5
122
330
C6
100
AcDbEntity
  8
0
 62
     2
100
AcDbBlockReference
  2
_Open30
 10
383.6696316693688
 20
-107.6844166694922
 30
0.0
 41
9.000008422845859
 42
8.99996810467093
 50
360.0
  0
INSERT
  5
123
330
C6
100
AcDbEntity
  8
0
 62
     2
100
AcDbBlockReference
  2
_Open30
 10
327.6696316693688
 20
-107.6844166694922
 30
0.0
 41
9.000008422845859
 42
8.99996810467093
 50
180.0
  0
LINE
  5
124
330
C6
100
AcDbEntity
  8
0
  6
Continuous
 62
     2
370
    13
100
AcDbLine
 10
383.6696316693688
 20
-90.31683574601948
 30
0.0
 11
383.6696316693688
 21
-110.6844166694922
 31
0.0
  0
LINE
  5
125
330
C6
100
AcDbEntity
  8
0
  6
Continuous
 62
     2
370
    13
100
AcDbLine
 10
327.6696316693688
 20
-90.31683574601954
 30
0.0
 11
327.6696316693688
 21
-110.6844166694922
 31
0.0
  0
TEXT
  5
126
330
C6
100
AcDbEntity
  8
0
 62
     2
100
AcDbText
 10
349.6696316693685
 20
-104.6844166694922
 30
0.0
 40
12.0
  1
56
 41
0.6875
  7
dcStyle0
 72
     5
 11
361.6696316693685
 21
-104.6844166694922
 31
0.0
100
AcDbText
  0
ENDBLK
  5
C8
330
C6
100
AcDbEntity
  8
0
100
AcDbBlockEnd
  0
BLOCK
  5
CA
330
C9
100
AcDbEntity
  8
0
100
AcDbBlockBegin
  2
DC_IMAGEDIMGROUP_1
 70
     0
 10
0.0
 20
0.0
 30
0.0
  3
DC_IMAGEDIMGROUP_1
  1

  0
LINE
  5
127
330
C9
100
AcDbEntity
  8
0
  6
Continuous
 62
     2
370
    13
100
AcDbLine
 10
165.2969831658554
 20
150.6831642539832
 30
0.0
 11
165.2969831658554
 21
192.1831642539815
 31
0.0
  0
INSERT
  5
128
330
C9
100
AcDbEntity
  8
0
 62
     2
100
AcDbBlockReference
  2
_Open30
 10
165.2969831658554
 20
150.6831642539832
 30
0.0
 41
9.000008422845859
 42
8.99996810467093
 50
270.0
  0
INSERT
  5
129
330
C9
100
AcDbEntity
  8
0
 62
     2
100
AcDbBlockReference
  2
_Open30
 10
165.2969831658554
 20
192.1831642539815
 30
0.0
 41
9.000008422845859
 42
8.99996810467093
 50
90.0
  0
LINE
  5
12A
330
C9
100
AcDbEntity
  8
0
  6
Continuous
 62
     2
370
    13
100
AcDbLine
 10
166.7705833313219
 20
150.6831642539832
 30
0.0
 11
162.2969831658554
 21
150.6831642539832
 31
0.0
  0
LINE
  5
12B
330
C9
100
AcDbEntity
  8
0
  6
Continuous
 62
     2
370
    13
100
AcDbLine
 10
139.7705833313205
 20
192.1831642539815
 30
0.0
 11
168.2969831658554
 21
192.1831642539815
 31
0.0
  0
TEXT
  5
12C
330
C9
100
AcDbEntity
  8
0
 62
     2
100
AcDbText
 10
162.2969831658554
 20
159.4331642539823
 30
0.0
 40
12.0
  1
41.5
 50
90.0
 41
0.8074515347334411
  7
dcStyle0
 72
     5
 11
162.2969831658554
 21
183.4331642539823
 31
0.0
100
AcDbText
  0
ENDBLK
  5
CB
330
C9
100
AcDbEntity
  8
0
100
AcDbBlockEnd
  0
BLOCK
  5
CD
330
CC
100
AcDbEntity
  8
0
100
AcDbBlockBegin
  2
DC_IMAGEDIMGROUP_2
 70
     0
 10
0.0
 20
0.0
 30
0.0
  3
DC_IMAGEDIMGROUP_2
  1

  0
LINE
  5
12D
330
CC
100
AcDbEntity
  8
0
  6
Continuous
 62
     2
370
    13
100
AcDbLine
 10
-274.0529357749126
 20
128.6831642539816
 30
0.0
 11
-274.0529357749126
 21
132.6831642539832
 31
0.0
  0
LINE
  5
12E
330
CC
100
AcDbEntity
  8
0
  6
Continuous
 62
     2
370
    13
100
AcDbLine
 10
-268.2294166686788
 20
128.6831642539816
 30
0.0
 11
-277.0529357749126
 21
128.6831642539816
 31
0.0
  0
LINE
  5
12F
330
CC
100
AcDbEntity
  8
0
  6
Continuous
 62
     2
370
    13
100
AcDbLine
 10
-274.0529357749126
 20
108.4898242539816
 30
0.0
 11
-274.0529357749126
 21
128.6831642539816
 31
0.0
  0
INSERT
  5
130
330
CC
100
AcDbEntity
  8
0
 62
     2
100
AcDbBlockReference
  2
_Open30
 10
-274.0529357749126
 20
128.6831642539816
 30
0.0
 41
9.000008422845859
 42
8.99996810467093
 50
90.0
  0
LINE
  5
131
330
CC
100
AcDbEntity
  8
0
  6
Continuous
 62
     2
370
    13
100
AcDbLine
 10
-274.0529357749126
 20
149.5831642539815
 30
0.0
 11
-274.0529357749126
 21
132.6831642539832
 31
0.0
  0
INSERT
  5
132
330
CC
100
AcDbEntity
  8
0
 62
     2
100
AcDbBlockReference
  2
_Open30
 10
-274.0529357749126
 20
132.6831642539832
 30
0.0
 41
9.000008422845859
 42
8.99996810467093
 50
270.0
  0
TEXT
  5
133
330
CC
100
AcDbEntity
  8
0
 62
     2
100
AcDbText
 10
-277.0529357749126
 20
111.4898242539816
 30
0.0
 40
12.0
  1
4
 50
90.0
 41
0.6875
  7
dcStyle0
 72
     5
 11
-277.0529357749126
 21
117.4898242539816
 31
0.0
100
AcDbText
  0
ENDBLK
  5
CE
330
CC
100
AcDbEntity
  8
0
100
AcDbBlockEnd
  0
BLOCK
  5
D0
330
CF
100
AcDbEntity
  8
0
100
AcDbBlockBegin
  2
DC_GROUP_W_GSTP_S_060_1_1
 70
     0
 10
0.0
 20
0.0
 30
0.0
  3
DC_GROUP_W_GSTP_S_060_1_1
  1

  0
LINE
  5
134
330
CF
100
AcDbEntity
  8
3
  6
Continuous
 62
     7
370
    13
100
AcDbLine
 10
-5.72941666867905
 20
72.18316425398135
 30
0.0
 11
-5.72941666867905
 21
79.38316425398135
 31
0.0
  0
LINE
  5
135
330
CF
100
AcDbEntity
  8
3
  6
Continuous
 62
     7
370
    13
100
AcDbLine
 10
-5.72941666867905
 20
79.38316425398135
 30
0.0
 11
-7.115057314734258
 21
80.18316425398135
 31
0.0
  0
LINE
  5
136
330
CF
100
AcDbEntity
  8
3
  6
Continuous
 62
     7
370
    13
100
AcDbLine
 10
-5.72941666867905
 20
79.38316425398135
 30
0.0
 11
-18.72941666867905
 21
79.38316425398135
 31
0.0
  0
LINE
  5
137
330
CF
100
AcDbEntity
  8
3
  6
Continuous
 62
     7
370
    13
100
AcDbLine
 10
-18.72941666867905
 20
72.18316425398135
 30
0.0
 11
-18.72941666867905
 21
79.38316425398135
 31
0.0
  0
LINE
  5
138
330
CF
100
AcDbEntity
  8
3
  6
Continuous
 62
     7
370
    13
100
AcDbLine
 10
-18.72941666867905
 20
79.38316425398135
 30
0.0
 11
-17.34377602262407
 21
80.18316425398135
 31
0.0
  0
LINE
  5
139
330
CF
100
AcDbEntity
  8
3
  6
Continuous
 62
     7
370
    13
100
AcDbLine
 10
-7.115057314734258
 20
80.18316425398135
 30
0.0
 11
-17.34377602262407
 21
80.18316425398135
 31
0.0
  0
LINE
  5
13A
330
CF
100
AcDbEntity
  8
3
  6
Continuous
 62
     7
370
    13
100
AcDbLine
 10
-19.9294166686791
 20
72.18316425398135
 30
0.0
 11
-19.9294166686791
 21
70.18316425398135
 31
0.0
  0
LINE
  5
13B
330
CF
100
AcDbEntity
  8
3
  6
Continuous
 62
     7
370
    13
100
AcDbLine
 10
-4.529416668679232
 20
70.18316425398135
 30
0.0
 11
-19.9294166686791
 21
70.18316425398135
 31
0.0
  0
LINE
  5
13C
330
CF
100
AcDbEntity
  8
3
  6
Continuous
 62
     7
370
    13
100
AcDbLine
 10
-4.529416668679232
 20
70.18316425398135
 30
0.0
 11
-4.529416668679232
 21
72.18316425398135
 31
0.0
  0
LINE
  5
13D
330
CF
100
AcDbEntity
  8
3
  6
Continuous
 62
     7
370
    13
100
AcDbLine
 10
-4.529416668679232
 20
72.18316425398135
 30
0.0
 11
-19.9294166686791
 21
72.18316425398135
 31
0.0
  0
LINE
  5
13E
330
CF
100
AcDbEntity
  8
3
  6
Continuous
 62
     7
370
    13
100
AcDbLine
 10
-12.22941666867905
 20
72.18316425398135
 30
0.0
 11
-11.69351828381673
 21
70.18316425398135
 31
0.0
  0
LINE
  5
13F
330
CF
100
AcDbEntity
  8
3
  6
Continuous
 62
     7
370
    13
100
AcDbLine
 10
-12.76531505354137
 20
72.18316425398135
 30
0.0
 11
-12.22941666867905
 21
70.18316425398135
 31
0.0
  0
LINE
  5
140
330
CF
100
AcDbEntity
  8
3
  6
CENTERX2
 62
     3
370
    13
100
AcDbLine
 10
-12.22941666867905
 20
83.26316425398134
 30
0.0
 11
-12.22941666867905
 21
67.10316425398135
 31
0.0
  0
ENDBLK
  5
D1
330
CF
100
AcDbEntity
  8
0
100
AcDbBlockEnd
  0
BLOCK
  5
D3
330
D2
100
AcDbEntity
  8
0
100
AcDbBlockBegin
  2
DC_GROUP_W_GSTP_S_060_1_2
 70
     0
 10
0.0
 20
0.0
 30
0.0
  3
DC_GROUP_W_GSTP_S_060_1_2
  1

  0
LINE
  5
141
330
D2
100
AcDbEntity
  8
3
  6
Continuous
 62
     7
370
    13
100
AcDbLine
 10
-101.7294166686791
 20
72.18316425398164
 30
0.0
 11
-101.7294166686791
 21
79.38316425398165
 31
0.0
  0
LINE
  5
142
330
D2
100
AcDbEntity
  8
3
  6
Continuous
 62
     7
370
    13
100
AcDbLine
 10
-101.7294166686791
 20
79.38316425398165
 30
0.0
 11
-103.1150573147343
 21
80.18316425398164
 31
0.0
  0
LINE
  5
143
330
D2
100
AcDbEntity
  8
3
  6
Continuous
 62
     7
370
    13
100
AcDbLine
 10
-101.7294166686791
 20
79.38316425398165
 30
0.0
 11
-114.7294166686791
 21
79.38316425398165
 31
0.0
  0
LINE
  5
144
330
D2
100
AcDbEntity
  8
3
  6
Continuous
 62
     7
370
    13
100
AcDbLine
 10
-114.7294166686791
 20
72.18316425398164
 30
0.0
 11
-114.7294166686791
 21
79.38316425398165
 31
0.0
  0
LINE
  5
145
330
D2
100
AcDbEntity
  8
3
  6
Continuous
 62
     7
370
    13
100
AcDbLine
 10
-114.7294166686791
 20
79.38316425398165
 30
0.0
 11
-113.3437760226241
 21
80.18316425398164
 31
0.0
  0
LINE
  5
146
330
D2
100
AcDbEntity
  8
3
  6
Continuous
 62
     7
370
    13
100
AcDbLine
 10
-103.1150573147343
 20
80.18316425398164
 30
0.0
 11
-113.3437760226241
 21
80.18316425398164
 31
0.0
  0
LINE
  5
147
330
D2
100
AcDbEntity
  8
3
  6
Continuous
 62
     7
370
    13
100
AcDbLine
 10
-115.9294166686791
 20
72.18316425398164
 30
0.0
 11
-115.9294166686791
 21
70.18316425398164
 31
0.0
  0
LINE
  5
148
330
D2
100
AcDbEntity
  8
3
  6
Continuous
 62
     7
370
    13
100
AcDbLine
 10
-100.5294166686792
 20
70.18316425398164
 30
0.0
 11
-115.9294166686791
 21
70.18316425398164
 31
0.0
  0
LINE
  5
149
330
D2
100
AcDbEntity
  8
3
  6
Continuous
 62
     7
370
    13
100
AcDbLine
 10
-100.5294166686792
 20
70.18316425398164
 30
0.0
 11
-100.5294166686792
 21
72.18316425398164
 31
0.0
  0
LINE
  5
14A
330
D2
100
AcDbEntity
  8
3
  6
Continuous
 62
     7
370
    13
100
AcDbLine
 10
-100.5294166686792
 20
72.18316425398164
 30
0.0
 11
-115.9294166686791
 21
72.18316425398164
 31
0.0
  0
LINE
  5
14B
330
D2
100
AcDbEntity
  8
3
  6
Continuous
 62
     7
370
    13
100
AcDbLine
 10
-108.2294166686791
 20
72.18316425398164
 30
0.0
 11
-107.6935182838167
 21
70.18316425398164
 31
0.0
  0
LINE
  5
14C
330
D2
100
AcDbEntity
  8
3
  6
Continuous
 62
     7
370
    13
100
AcDbLine
 10
-108.7653150535414
 20
72.18316425398164
 30
0.0
 11
-108.2294166686791
 21
70.18316425398164
 31
0.0
  0
LINE
  5
14D
330
D2
100
AcDbEntity
  8
3
  6
CENTERX2
 62
     3
370
    13
100
AcDbLine
 10
-108.2294166686791
 20
83.26316425398164
 30
0.0
 11
-108.2294166686791
 21
67.10316425398165
 31
0.0
  0
ENDBLK
  5
D4
330
D2
100
AcDbEntity
  8
0
100
AcDbBlockEnd
  0
BLOCK
  5
D6
330
D5
100
AcDbEntity
  8
0
100
AcDbBlockBegin
  2
DC_GROUP_W_GSTP_S_060_1_3
 70
     0
 10
0.0
 20
0.0
 30
0.0
  3
DC_GROUP_W_GSTP_S_060_1_3
  1

  0
LINE
  5
14E
330
D5
100
AcDbEntity
  8
3
  6
PHANTOM
 62
   140
370
    13
100
AcDbLine
 10
-101.7294166686791
 20
122.1831642539811
 30
0.0
 11
-101.7294166686791
 21
129.3831642539812
 31
0.0
  0
LINE
  5
14F
330
D5
100
AcDbEntity
  8
3
  6
PHANTOM
 62
   140
370
    13
100
AcDbLine
 10
-101.7294166686791
 20
129.3831642539812
 30
0.0
 11
-103.1150573147343
 21
130.1831642539811
 31
0.0
  0
LINE
  5
150
330
D5
100
AcDbEntity
  8
3
  6
PHANTOM
 62
   140
370
    13
100
AcDbLine
 10
-101.7294166686791
 20
129.3831642539812
 30
0.0
 11
-114.7294166686791
 21
129.3831642539812
 31
0.0
  0
LINE
  5
151
330
D5
100
AcDbEntity
  8
3
  6
PHANTOM
 62
   140
370
    13
100
AcDbLine
 10
-114.7294166686791
 20
122.1831642539811
 30
0.0
 11
-114.7294166686791
 21
129.3831642539812
 31
0.0
  0
LINE
  5
152
330
D5
100
AcDbEntity
  8
3
  6
PHANTOM
 62
   140
370
    13
100
AcDbLine
 10
-114.7294166686791
 20
129.3831642539812
 30
0.0
 11
-113.3437760226241
 21
130.1831642539811
 31
0.0
  0
LINE
  5
153
330
D5
100
AcDbEntity
  8
3
  6
PHANTOM
 62
   140
370
    13
100
AcDbLine
 10
-103.1150573147343
 20
130.1831642539811
 30
0.0
 11
-113.3437760226241
 21
130.1831642539811
 31
0.0
  0
LINE
  5
154
330
D5
100
AcDbEntity
  8
3
  6
PHANTOM
 62
   140
370
    13
100
AcDbLine
 10
-115.9294166686791
 20
122.1831642539811
 30
0.0
 11
-115.9294166686791
 21
120.1831642539811
 31
0.0
  0
LINE
  5
155
330
D5
100
AcDbEntity
  8
3
  6
PHANTOM
 62
   140
370
    13
100
AcDbLine
 10
-100.5294166686792
 20
120.1831642539811
 30
0.0
 11
-115.9294166686791
 21
120.1831642539811
 31
0.0
  0
LINE
  5
156
330
D5
100
AcDbEntity
  8
3
  6
PHANTOM
 62
   140
370
    13
100
AcDbLine
 10
-100.5294166686792
 20
120.1831642539811
 30
0.0
 11
-100.5294166686792
 21
122.1831642539811
 31
0.0
  0
LINE
  5
157
330
D5
100
AcDbEntity
  8
3
  6
PHANTOM
 62
   140
370
    13
100
AcDbLine
 10
-100.5294166686792
 20
122.1831642539811
 30
0.0
 11
-115.9294166686791
 21
122.1831642539811
 31
0.0
  0
LINE
  5
158
330
D5
100
AcDbEntity
  8
3
  6
PHANTOM
 62
   140
370
    13
100
AcDbLine
 10
-108.2294166686791
 20
122.1831642539811
 30
0.0
 11
-107.6935182838167
 21
120.1831642539811
 31
0.0
  0
LINE
  5
159
330
D5
100
AcDbEntity
  8
3
  6
PHANTOM
 62
   140
370
    13
100
AcDbLine
 10
-108.7653150535414
 20
122.1831642539811
 30
0.0
 11
-108.2294166686791
 21
120.1831642539811
 31
0.0
  0
LINE
  5
15A
330
D5
100
AcDbEntity
  8
3
  6
PHANTOM
 62
   140
370
    13
100
AcDbLine
 10
-108.2294166686791
 20
133.2631642539812
 30
0.0
 11
-108.2294166686791
 21
117.1031642539811
 31
0.0
  0
ENDBLK
  5
D7
330
D5
100
AcDbEntity
  8
0
100
AcDbBlockEnd
  0
BLOCK
  5
D9
330
D8
100
AcDbEntity
  8
0
100
AcDbBlockBegin
  2
DC_GROUP_W_GSTP_S_060_1_4
 70
     0
 10
0.0
 20
0.0
 30
0.0
  3
DC_GROUP_W_GSTP_S_060_1_4
  1

  0
LINE
  5
15B
330
D8
100
AcDbEntity
  8
3
  6
PHANTOM
 62
   140
370
    13
100
AcDbLine
 10
-5.72941666867905
 20
122.1831642539811
 30
0.0
 11
-5.72941666867905
 21
129.3831642539812
 31
0.0
  0
LINE
  5
15C
330
D8
100
AcDbEntity
  8
3
  6
PHANTOM
 62
   140
370
    13
100
AcDbLine
 10
-5.72941666867905
 20
129.3831642539812
 30
0.0
 11
-7.115057314734258
 21
130.1831642539811
 31
0.0
  0
LINE
  5
15D
330
D8
100
AcDbEntity
  8
3
  6
PHANTOM
 62
   140
370
    13
100
AcDbLine
 10
-5.72941666867905
 20
129.3831642539812
 30
0.0
 11
-18.72941666867905
 21
129.3831642539812
 31
0.0
  0
LINE
  5
15E
330
D8
100
AcDbEntity
  8
3
  6
PHANTOM
 62
   140
370
    13
100
AcDbLine
 10
-18.72941666867905
 20
122.1831642539811
 30
0.0
 11
-18.72941666867905
 21
129.3831642539812
 31
0.0
  0
LINE
  5
15F
330
D8
100
AcDbEntity
  8
3
  6
PHANTOM
 62
   140
370
    13
100
AcDbLine
 10
-18.72941666867905
 20
129.3831642539812
 30
0.0
 11
-17.34377602262407
 21
130.1831642539811
 31
0.0
  0
LINE
  5
160
330
D8
100
AcDbEntity
  8
3
  6
PHANTOM
 62
   140
370
    13
100
AcDbLine
 10
-7.115057314734258
 20
130.1831642539811
 30
0.0
 11
-17.34377602262407
 21
130.1831642539811
 31
0.0
  0
LINE
  5
161
330
D8
100
AcDbEntity
  8
3
  6
PHANTOM
 62
   140
370
    13
100
AcDbLine
 10
-19.9294166686791
 20
122.1831642539811
 30
0.0
 11
-19.9294166686791
 21
120.1831642539811
 31
0.0
  0
LINE
  5
162
330
D8
100
AcDbEntity
  8
3
  6
PHANTOM
 62
   140
370
    13
100
AcDbLine
 10
-4.529416668679232
 20
120.1831642539811
 30
0.0
 11
-19.9294166686791
 21
120.1831642539811
 31
0.0
  0
LINE
  5
163
330
D8
100
AcDbEntity
  8
3
  6
PHANTOM
 62
   140
370
    13
100
AcDbLine
 10
-4.529416668679232
 20
120.1831642539811
 30
0.0
 11
-4.529416668679232
 21
122.1831642539811
 31
0.0
  0
LINE
  5
164
330
D8
100
AcDbEntity
  8
3
  6
PHANTOM
 62
   140
370
    13
100
AcDbLine
 10
-4.529416668679232
 20
122.1831642539811
 30
0.0
 11
-19.9294166686791
 21
122.1831642539811
 31
0.0
  0
LINE
  5
165
330
D8
100
AcDbEntity
  8
3
  6
PHANTOM
 62
   140
370
    13
100
AcDbLine
 10
-12.22941666867905
 20
122.1831642539811
 30
0.0
 11
-11.69351828381673
 21
120.1831642539811
 31
0.0
  0
LINE
  5
166
330
D8
100
AcDbEntity
  8
3
  6
PHANTOM
 62
   140
370
    13
100
AcDbLine
 10
-12.76531505354137
 20
122.1831642539811
 30
0.0
 11
-12.22941666867905
 21
120.1831642539811
 31
0.0
  0
LINE
  5
167
330
D8
100
AcDbEntity
  8
3
  6
PHANTOM
 62
   140
370
    13
100
AcDbLine
 10
-12.22941666867905
 20
133.2631642539812
 30
0.0
 11
-12.22941666867905
 21
117.1031642539811
 31
0.0
  0
ENDBLK
  5
DA
330
D8
100
AcDbEntity
  8
0
100
AcDbBlockEnd
  0
BLOCK
  5
DC
330
DB
100
AcDbEntity
  8
0
100
AcDbBlockBegin
  2
*D11
 70
     1
 10
0.0
 20
0.0
 30
0.0
  3
*D11
  1

  0
LINE
  5
168
330
DB
100
AcDbEntity
  8
0
  6
Continuous
 62
     2
370
    13
100
AcDbLine
 10
-356.7294166686791
 20
282.5133686094206
 30
0.0
 11
203.2705833313209
 21
282.5133686094206
 31
0.0
  0
INSERT
  5
169
330
DB
100
AcDbEntity
  8
0
 62
     2
100
AcDbBlockReference
  2
_Open30
 10
-356.7294166686791
 20
282.5133686094206
 30
0.0
 41
9.000008422845859
 42
8.99996810467093
 50
180.0
  0
INSERT
  5
16A
330
DB
100
AcDbEntity
  8
0
 62
     2
100
AcDbBlockReference
  2
_Open30
 10
203.2705833313209
 20
282.5133686094206
 30
0.0
 41
9.000008422845859
 42
8.99996810467093
 50
360.0
  0
LINE
  5
16B
330
DB
100
AcDbEntity
  8
0
  6
Continuous
 62
     2
370
    13
100
AcDbLine
 10
-356.7294166686791
 20
157.6831642539835
 30
0.0
 11
-356.7294166686791
 21
285.5133686094206
 31
0.0
  0
LINE
  5
16C
330
DB
100
AcDbEntity
  8
0
  6
Continuous
 62
     2
370
    13
100
AcDbLine
 10
203.2705833313209
 20
147.6831642539832
 30
0.0
 11
203.2705833313209
 21
285.5133686094206
 31
0.0
  0
TEXT
  5
16D
330
DB
100
AcDbEntity
  8
0
 62
     4
100
AcDbText
 10
-88.72941666867905
 20
285.5133686094206
 30
0.0
 40
12.0
  1
機幅
 41
0.6875
  7
dcStyle0
 72
     5
 11
-64.72941666867905
 21
285.5133686094206
 31
0.0
100
AcDbText
  0
ENDBLK
  5
DD
330
DB
100
AcDbEntity
  8
0
100
AcDbBlockEnd
  0
BLOCK
  5
DF
330
DE
100
AcDbEntity
  8
0
100
AcDbBlockBegin
  2
*D12
 70
     1
 10
0.0
 20
0.0
 30
0.0
  3
*D12
  1

  0
LINE
  5
16E
330
DE
100
AcDbEntity
  8
0
  6
Continuous
 62
     2
370
    13
100
AcDbLine
 10
-356.7294166686791
 20
257.4566917028375
 30
0.0
 11
-306.2294226286792
 21
257.4566917028375
 31
0.0
  0
INSERT
  5
16F
330
DE
100
AcDbEntity
  8
0
 62
     2
100
AcDbBlockReference
  2
_Open30
 10
-356.7294166686791
 20
257.4566917028375
 30
0.0
 41
9.000008422845859
 42
8.99996810467093
 50
180.0
  0
INSERT
  5
170
330
DE
100
AcDbEntity
  8
0
 62
     2
100
AcDbBlockReference
  2
_Open30
 10
-306.2294226286792
 20
257.4566917028375
 30
0.0
 41
9.000008422845859
 42
8.99996810467093
 50
360.0
  0
LINE
  5
171
330
DE
100
AcDbEntity
  8
0
  6
Continuous
 62
     2
370
    13
100
AcDbLine
 10
-356.7294166686791
 20
157.6831642539835
 30
0.0
 11
-356.7294166686791
 21
260.4566917028375
 31
0.0
  0
LINE
  5
172
330
DE
100
AcDbEntity
  8
0
  6
Continuous
 62
     2
370
    13
100
AcDbLine
 10
-306.2294226286792
 20
152.6831638184831
 30
0.0
 11
-306.2294226286792
 21
260.4566917028375
 31
0.0
  0
TEXT
  5
173
330
DE
100
AcDbEntity
  8
0
 62
     2
100
AcDbText
 10
-343.4794196486791
 20
260.4566917028375
 30
0.0
 40
12.0
  1
50.5
 41
0.8074515347334411
  7
dcStyle0
 72
     5
 11
-319.4794196486791
 21
260.4566917028375
 31
0.0
100
AcDbText
  0
ENDBLK
  5
E0
330
DE
100
AcDbEntity
  8
0
100
AcDbBlockEnd
  0
BLOCK
  5
E2
330
E1
100
AcDbEntity
  8
0
100
AcDbBlockBegin
  2
*D13
 70
     1
 10
0.0
 20
0.0
 30
0.0
  3
*D13
  1

  0
LINE
  5
174
330
E1
100
AcDbEntity
  8
0
  6
Continuous
 62
     2
370
    13
100
AcDbLine
 10
-306.2294226286792
 20
257.4566917028375
 30
0.0
 11
189.7705833313209
 21
257.4566917028375
 31
0.0
  0
INSERT
  5
175
330
E1
100
AcDbEntity
  8
0
 62
     2
100
AcDbBlockReference
  2
_Open30
 10
-306.2294226286792
 20
257.4566917028375
 30
0.0
 41
9.000008422845859
 42
8.99996810467093
 50
180.0
  0
INSERT
  5
176
330
E1
100
AcDbEntity
  8
0
 62
     2
100
AcDbBlockReference
  2
_Open30
 10
189.7705833313209
 20
257.4566917028375
 30
0.0
 41
9.000008422845859
 42
8.99996810467093
 50
360.0
  0
LINE
  5
177
330
E1
100
AcDbEntity
  8
0
  6
Continuous
 62
     2
370
    13
100
AcDbLine
 10
-306.2294226286792
 20
152.6831638184831
 30
0.0
 11
-306.2294226286792
 21
260.4566917028375
 31
0.0
  0
LINE
  5
178
330
E1
100
AcDbEntity
  8
0
  6
Continuous
 62
     2
370
    13
100
AcDbLine
 10
189.7705833313209
 20
153.1831642539853
 30
0.0
 11
189.7705833313209
 21
260.4566917028375
 31
0.0
  0
TEXT
  5
179
330
E1
100
AcDbEntity
  8
0
 62
     4
100
AcDbText
 10
-82.22941964867914
 20
260.4566917028375
 30
0.0
 40
12.0
  1
ローラ幅
 41
0.7570049223778872
  7
dcStyle0
 72
     5
 11
-34.22941964867914
 21
260.4566917028375
 31
0.0
100
AcDbText
  0
ENDBLK
  5
E3
330
E1
100
AcDbEntity
  8
0
100
AcDbBlockEnd
  0
BLOCK
  5
E5
330
E4
100
AcDbEntity
  8
0
100
AcDbBlockBegin
  2
DC_IMAGEDIMGROUP_3
 70
     0
 10
0.0
 20
0.0
 30
0.0
  3
DC_IMAGEDIMGROUP_3
  1

  0
LINE
  5
17A
330
E4
100
AcDbEntity
  8
0
  6
Continuous
 62
     2
370
    13
100
AcDbLine
 10
189.7705833313209
 20
257.4566917028375
 30
0.0
 11
203.2705833313209
 21
257.4566917028375
 31
0.0
  0
LINE
  5
17B
330
E4
100
AcDbEntity
  8
0
  6
Continuous
 62
     2
370
    13
100
AcDbLine
 10
189.7705833313209
 20
153.1831642539835
 30
0.0
 11
189.7705833313209
 21
260.4566917028375
 31
0.0
  0
LINE
  5
17C
330
E4
100
AcDbEntity
  8
0
  6
Continuous
 62
     2
370
    13
100
AcDbLine
 10
203.2705833313209
 20
147.6831642539832
 30
0.0
 11
203.2705833313209
 21
260.4566917028375
 31
0.0
  0
LINE
  5
17D
330
E4
100
AcDbEntity
  8
0
  6
Continuous
 62
     2
370
    13
100
AcDbLine
 10
241.9639233313208
 20
257.4566917028375
 30
0.0
 11
203.2705833313209
 21
257.4566917028375
 31
0.0
  0
INSERT
  5
17E
330
E4
100
AcDbEntity
  8
0
 62
     2
100
AcDbBlockReference
  2
_Open30
 10
203.2705833313209
 20
257.4566917028375
 30
0.0
 41
9.000008422845859
 42
8.99996810467093
 50
180.0
  0
LINE
  5
17F
330
E4
100
AcDbEntity
  8
0
  6
Continuous
 62
     2
370
    13
100
AcDbLine
 10
174.7705833313209
 20
257.4566917028375
 30
0.0
 11
189.7705833313209
 21
257.4566917028375
 31
0.0
  0
INSERT
  5
180
330
E4
100
AcDbEntity
  8
0
 62
     2
100
AcDbBlockReference
  2
_Open30
 10
189.7705833313209
 20
257.4566917028375
 30
0.0
 41
9.000008422845859
 42
8.99996810467093
 50
360.0
  0
TEXT
  5
181
330
E4
100
AcDbEntity
  8
0
 62
     2
100
AcDbText
 10
214.9639233313208
 20
260.4566917028375
 30
0.0
 40
12.0
  1
13.5
 41
0.8074515347334411
  7
dcStyle0
 72
     5
 11
238.9639233313208
 21
260.4566917028375
 31
0.0
100
AcDbText
  0
ENDBLK
  5
E6
330
E4
100
AcDbEntity
  8
0
100
AcDbBlockEnd
  0
BLOCK
  5
E8
330
E7
100
AcDbEntity
  8
0
100
AcDbBlockBegin
  2
DC_GROUP_W_GSTP_S_060_1_5
 70
     0
 10
0.0
 20
0.0
 30
0.0
  3
DC_GROUP_W_GSTP_S_060_1_5
  1

  0
POINT
  5
182
330
E7
100
AcDbEntity
  8
5
  6
PHANTOM
 62
   140
100
AcDbPoint
 10
334.6696316693688
 20
33.18366425398133
 30
0.0
  0
CIRCLE
  5
183
330
E7
100
AcDbEntity
  8
5
  6
PHANTOM
 62
   140
370
    13
100
AcDbCircle
 10
324.3696316693688
 20
33.18366425398133
 30
0.0
 40
4.1
  0
CIRCLE
  5
184
330
E7
100
AcDbEntity
  8
5
  6
PHANTOM
 62
   140
370
    13
100
AcDbCircle
 10
324.3696316693688
 20
33.18366425398133
 30
0.0
 40
4.65
  0
LINE
  5
185
330
E7
100
AcDbEntity
  8
5
  6
PHANTOM
 62
   140
370
    13
100
AcDbLine
 10
318.6696316693688
 20
40.28366425398136
 30
0.0
 11
331.6696316693688
 21
40.28366425398136
 31
0.0
  0
LINE
  5
186
330
E7
100
AcDbEntity
  8
5
  6
PHANTOM
 62
   140
370
    13
100
AcDbLine
 10
318.6696316693688
 20
26.08366425398137
 30
0.0
 11
331.6696316693688
 21
26.08366425398137
 31
0.0
  0
CIRCLE
  5
187
330
E7
100
AcDbEntity
  8
5
  6
PHANTOM
 62
   140
370
    13
100
AcDbCircle
 10
324.3696316693688
 20
33.18366425398133
 30
0.0
 40
1.6
  0
LINE
  5
188
330
E7
100
AcDbEntity
  8
5
  6
PHANTOM
 62
   140
370
    13
100
AcDbLine
 10
331.6696316693688
 20
40.28366425398136
 30
0.0
 11
331.6696316693688
 21
26.08366425398137
 31
0.0
  0
LINE
  5
189
330
E7
100
AcDbEntity
  8
5
  6
PHANTOM
 62
   140
370
    13
100
AcDbLine
 10
311.6696316693688
 20
34.43366425398133
 30
0.0
 11
307.0696316693688
 21
34.43366425398133
 31
0.0
  0
LINE
  5
18A
330
E7
100
AcDbEntity
  8
5
  6
PHANTOM
 62
   140
370
    13
100
AcDbLine
 10
307.0696316693688
 20
31.93366425398133
 30
0.0
 11
311.6696316693688
 21
31.93366425398133
 31
0.0
  0
LINE
  5
18B
330
E7
100
AcDbEntity
  8
5
  6
PHANTOM
 62
   140
370
    13
100
AcDbLine
 10
311.6696316693688
 20
38.68366425398133
 30
0.0
 11
311.6696316693688
 21
27.68366425398133
 31
0.0
  0
LINE
  5
18C
330
E7
100
AcDbEntity
  8
5
  6
PHANTOM
 62
   140
370
    13
100
AcDbLine
 10
315.1696316693688
 20
38.18366425398133
 30
0.0
 11
315.1696316693688
 21
28.18366425398133
 31
0.0
  0
LINE
  5
18D
330
E7
100
AcDbEntity
  8
5
  6
PHANTOM
 62
   140
370
    13
100
AcDbLine
 10
315.6746316693689
 20
39.18366425398133
 30
0.0
 11
315.6746316693689
 21
27.18366425398133
 31
0.0
  0
LINE
  5
18E
330
E7
100
AcDbEntity
  8
5
  6
PHANTOM
 62
   140
370
    13
100
AcDbLine
 10
318.6696316693688
 20
40.28366425398136
 30
0.0
 11
318.6696316693688
 21
26.08366425398137
 31
0.0
  0
LINE
  5
18F
330
E7
100
AcDbEntity
  8
5
  6
PHANTOM
 62
   140
370
    13
100
AcDbLine
 10
314.6696316693688
 20
38.68366425398133
 30
0.0
 11
314.6696316693688
 21
38.18366425398133
 31
0.0
  0
LINE
  5
190
330
E7
100
AcDbEntity
  8
5
  6
PHANTOM
 62
   140
370
    13
100
AcDbLine
 10
314.6696316693688
 20
38.18366425398133
 30
0.0
 11
315.6746316693689
 21
38.18366425398133
 31
0.0
  0
LINE
  5
191
330
E7
100
AcDbEntity
  8
5
  6
PHANTOM
 62
   140
370
    13
100
AcDbLine
 10
311.6696316693688
 20
38.68366425398133
 30
0.0
 11
314.6696316693688
 21
38.68366425398133
 31
0.0
  0
LINE
  5
192
330
E7
100
AcDbEntity
  8
5
  6
PHANTOM
 62
   140
370
    13
100
AcDbLine
 10
318.6746316693689
 20
39.18366425398133
 30
0.0
 11
315.6746316693689
 21
39.18366425398133
 31
0.0
  0
LINE
  5
193
330
E7
100
AcDbEntity
  8
5
  6
PHANTOM
 62
   140
370
    13
100
AcDbLine
 10
314.6696316693688
 20
28.18366425398133
 30
0.0
 11
314.6696316693688
 21
27.68366425398133
 31
0.0
  0
LINE
  5
194
330
E7
100
AcDbEntity
  8
5
  6
PHANTOM
 62
   140
370
    13
100
AcDbLine
 10
315.6746316693689
 20
28.18366425398133
 30
0.0
 11
314.6696316693688
 21
28.18366425398133
 31
0.0
  0
LINE
  5
195
330
E7
100
AcDbEntity
  8
5
  6
PHANTOM
 62
   140
370
    13
100
AcDbLine
 10
314.6696316693688
 20
27.68366425398133
 30
0.0
 11
311.6696316693688
 21
27.68366425398133
 31
0.0
  0
LINE
  5
196
330
E7
100
AcDbEntity
  8
5
  6
PHANTOM
 62
   140
370
    13
100
AcDbLine
 10
315.6746316693689
 20
27.18366425398133
 30
0.0
 11
318.6746316693689
 21
27.18366425398133
 31
0.0
  0
LINE
  5
197
330
E7
100
AcDbEntity
  8
5
  6
PHANTOM
 62
   140
370
    13
100
AcDbLine
 10
302.5696316693688
 20
29.18366425398133
 30
0.0
 11
302.5696316693688
 21
37.18366425398133
 31
0.0
  0
LINE
  5
198
330
E7
100
AcDbEntity
  8
5
  6
PHANTOM
 62
   140
370
    13
100
AcDbLine
 10
307.0696316693688
 20
37.18366425398133
 30
0.0
 11
307.0696316693688
 21
29.18366425398133
 31
0.0
  0
LINE
  5
199
330
E7
100
AcDbEntity
  8
5
  6
PHANTOM
 62
   140
370
    13
100
AcDbLine
 10
307.0696316693688
 20
37.18366425398133
 30
0.0
 11
302.5696316693688
 21
37.18366425398133
 31
0.0
  0
LINE
  5
19A
330
E7
100
AcDbEntity
  8
5
  6
PHANTOM
 62
   140
370
    13
100
AcDbLine
 10
302.5696316693688
 20
29.18366425398133
 30
0.0
 11
307.0696316693688
 21
29.18366425398133
 31
0.0
  0
LINE
  5
19B
330
E7
100
AcDbEntity
  8
5
  6
PHANTOM
 62
   140
370
    13
100
AcDbLine
 10
299.8936316693687
 20
33.18366425398133
 30
0.0
 11
340.2336316693688
 21
33.18366425398133
 31
0.0
  0
LINE
  5
19C
330
E7
100
AcDbEntity
  8
5
  6
PHANTOM
 62
   140
370
    13
100
AcDbLine
 10
324.3696316693688
 20
38.43366425398133
 30
0.0
 11
324.3696316693688
 21
27.93366425398133
 31
0.0
  0
POINT
  5
19D
330
E7
100
AcDbEntity
  8
5
  6
PHANTOM
 62
   140
100
AcDbPoint
 10
334.6696316693688
 20
33.18366425398133
 30
0.0
  0
LINE
  5
19E
330
E7
100
AcDbEntity
  8
5
  6
PHANTOM
 62
    91
370
    13
100
AcDbLine
 10
338.6696316693688
 20
28.44366425398138
 30
0.0
 11
331.6696316693688
 21
28.22466425398133
 31
0.0
  0
LINE
  5
19F
330
E7
100
AcDbEntity
  8
5
  6
PHANTOM
 62
    91
370
    13
100
AcDbLine
 10
338.6696316693688
 20
37.92366425398134
 30
0.0
 11
331.6696316693688
 21
38.14166425398136
 31
0.0
  0
LINE
  5
1A0
330
E7
100
AcDbEntity
  8
5
  6
PHANTOM
 62
    91
370
    13
100
AcDbLine
 10
338.6696316693688
 20
37.92366425398134
 30
0.0
 11
338.6696316693688
 21
28.44366425398138
 31
0.0
  0
LINE
  5
1A1
330
E7
100
AcDbEntity
  8
5
  6
PHANTOM
 62
    91
370
    13
100
AcDbLine
 10
338.6696316693688
 20
37.34166425398135
 30
0.0
 11
331.6696316693688
 21
37.56066425398134
 31
0.0
  0
LINE
  5
1A2
330
E7
100
AcDbEntity
  8
5
  6
PHANTOM
 62
    91
370
    13
100
AcDbLine
 10
338.6696316693688
 20
29.02466425398134
 30
0.0
 11
331.6696316693688
 21
28.80566425398135
 31
0.0
  0
ENDBLK
  5
E9
330
E7
100
AcDbEntity
  8
0
100
AcDbBlockEnd
  0
BLOCK
  5
EB
330
EA
100
AcDbEntity
  8
0
100
AcDbBlockBegin
  2
DC_GROUP_W_GSTP_S_060_1_6
 70
     0
 10
0.0
 20
0.0
 30
0.0
  3
DC_GROUP_W_GSTP_S_060_1_6
  1

  0
POINT
  5
1A3
330
EA
100
AcDbEntity
  8
5
  6
PHANTOM
 62
   140
100
AcDbPoint
 10
334.6696316693688
 20
-58.31583574601875
 30
0.0
  0
CIRCLE
  5
1A4
330
EA
100
AcDbEntity
  8
5
  6
PHANTOM
 62
   140
370
    13
100
AcDbCircle
 10
324.3696316693688
 20
-58.31583574601875
 30
0.0
 40
4.1
  0
CIRCLE
  5
1A5
330
EA
100
AcDbEntity
  8
5
  6
PHANTOM
 62
   140
370
    13
100
AcDbCircle
 10
324.3696316693688
 20
-58.31583574601875
 30
0.0
 40
4.65
  0
LINE
  5
1A6
330
EA
100
AcDbEntity
  8
5
  6
PHANTOM
 62
   140
370
    13
100
AcDbLine
 10
318.6696316693688
 20
-51.21583574601873
 30
0.0
 11
331.6696316693688
 21
-51.21583574601873
 31
0.0
  0
LINE
  5
1A7
330
EA
100
AcDbEntity
  8
5
  6
PHANTOM
 62
   140
370
    13
100
AcDbLine
 10
318.6696316693688
 20
-65.41583574601871
 30
0.0
 11
331.6696316693688
 21
-65.41583574601871
 31
0.0
  0
CIRCLE
  5
1A8
330
EA
100
AcDbEntity
  8
5
  6
PHANTOM
 62
   140
370
    13
100
AcDbCircle
 10
324.3696316693688
 20
-58.31583574601875
 30
0.0
 40
1.6
  0
LINE
  5
1A9
330
EA
100
AcDbEntity
  8
5
  6
PHANTOM
 62
   140
370
    13
100
AcDbLine
 10
331.6696316693688
 20
-51.21583574601873
 30
0.0
 11
331.6696316693688
 21
-65.41583574601871
 31
0.0
  0
LINE
  5
1AA
330
EA
100
AcDbEntity
  8
5
  6
PHANTOM
 62
   140
370
    13
100
AcDbLine
 10
311.6696316693688
 20
-57.06583574601875
 30
0.0
 11
307.0696316693688
 21
-57.06583574601875
 31
0.0
  0
LINE
  5
1AB
330
EA
100
AcDbEntity
  8
5
  6
PHANTOM
 62
   140
370
    13
100
AcDbLine
 10
307.0696316693688
 20
-59.56583574601875
 30
0.0
 11
311.6696316693688
 21
-59.56583574601875
 31
0.0
  0
LINE
  5
1AC
330
EA
100
AcDbEntity
  8
5
  6
PHANTOM
 62
   140
370
    13
100
AcDbLine
 10
311.6696316693688
 20
-52.81583574601875
 30
0.0
 11
311.6696316693688
 21
-63.81583574601875
 31
0.0
  0
LINE
  5
1AD
330
EA
100
AcDbEntity
  8
5
  6
PHANTOM
 62
   140
370
    13
100
AcDbLine
 10
315.1696316693688
 20
-53.31583574601875
 30
0.0
 11
315.1696316693688
 21
-63.31583574601875
 31
0.0
  0
LINE
  5
1AE
330
EA
100
AcDbEntity
  8
5
  6
PHANTOM
 62
   140
370
    13
100
AcDbLine
 10
315.6746316693689
 20
-52.31583574601875
 30
0.0
 11
315.6746316693689
 21
-64.31583574601875
 31
0.0
  0
LINE
  5
1AF
330
EA
100
AcDbEntity
  8
5
  6
PHANTOM
 62
   140
370
    13
100
AcDbLine
 10
318.6696316693688
 20
-51.21583574601873
 30
0.0
 11
318.6696316693688
 21
-65.41583574601871
 31
0.0
  0
LINE
  5
1B0
330
EA
100
AcDbEntity
  8
5
  6
PHANTOM
 62
   140
370
    13
100
AcDbLine
 10
314.6696316693688
 20
-52.81583574601875
 30
0.0
 11
314.6696316693688
 21
-53.31583574601875
 31
0.0
  0
LINE
  5
1B1
330
EA
100
AcDbEntity
  8
5
  6
PHANTOM
 62
   140
370
    13
100
AcDbLine
 10
314.6696316693688
 20
-53.31583574601875
 30
0.0
 11
315.6746316693689
 21
-53.31583574601875
 31
0.0
  0
LINE
  5
1B2
330
EA
100
AcDbEntity
  8
5
  6
PHANTOM
 62
   140
370
    13
100
AcDbLine
 10
311.6696316693688
 20
-52.81583574601875
 30
0.0
 11
314.6696316693688
 21
-52.81583574601875
 31
0.0
  0
LINE
  5
1B3
330
EA
100
AcDbEntity
  8
5
  6
PHANTOM
 62
   140
370
    13
100
AcDbLine
 10
318.6746316693689
 20
-52.31583574601875
 30
0.0
 11
315.6746316693689
 21
-52.31583574601875
 31
0.0
  0
LINE
  5
1B4
330
EA
100
AcDbEntity
  8
5
  6
PHANTOM
 62
   140
370
    13
100
AcDbLine
 10
314.6696316693688
 20
-63.31583574601875
 30
0.0
 11
314.6696316693688
 21
-63.81583574601875
 31
0.0
  0
LINE
  5
1B5
330
EA
100
AcDbEntity
  8
5
  6
PHANTOM
 62
   140
370
    13
100
AcDbLine
 10
315.6746316693689
 20
-63.31583574601875
 30
0.0
 11
314.6696316693688
 21
-63.31583574601875
 31
0.0
  0
LINE
  5
1B6
330
EA
100
AcDbEntity
  8
5
  6
PHANTOM
 62
   140
370
    13
100
AcDbLine
 10
314.6696316693688
 20
-63.81583574601875
 30
0.0
 11
311.6696316693688
 21
-63.81583574601875
 31
0.0
  0
LINE
  5
1B7
330
EA
100
AcDbEntity
  8
5
  6
PHANTOM
 62
   140
370
    13
100
AcDbLine
 10
315.6746316693689
 20
-64.31583574601875
 30
0.0
 11
318.6746316693689
 21
-64.31583574601875
 31
0.0
  0
LINE
  5
1B8
330
EA
100
AcDbEntity
  8
5
  6
PHANTOM
 62
   140
370
    13
100
AcDbLine
 10
302.5696316693688
 20
-62.31583574601875
 30
0.0
 11
302.5696316693688
 21
-54.31583574601875
 31
0.0
  0
LINE
  5
1B9
330
EA
100
AcDbEntity
  8
5
  6
PHANTOM
 62
   140
370
    13
100
AcDbLine
 10
307.0696316693688
 20
-54.31583574601875
 30
0.0
 11
307.0696316693688
 21
-62.31583574601875
 31
0.0
  0
LINE
  5
1BA
330
EA
100
AcDbEntity
  8
5
  6
PHANTOM
 62
   140
370
    13
100
AcDbLine
 10
307.0696316693688
 20
-54.31583574601875
 30
0.0
 11
302.5696316693688
 21
-54.31583574601875
 31
0.0
  0
LINE
  5
1BB
330
EA
100
AcDbEntity
  8
5
  6
PHANTOM
 62
   140
370
    13
100
AcDbLine
 10
302.5696316693688
 20
-62.31583574601875
 30
0.0
 11
307.0696316693688
 21
-62.31583574601875
 31
0.0
  0
LINE
  5
1BC
330
EA
100
AcDbEntity
  8
5
  6
PHANTOM
 62
   140
370
    13
100
AcDbLine
 10
299.8936316693687
 20
-58.31583574601875
 30
0.0
 11
340.2336316693688
 21
-58.31583574601875
 31
0.0
  0
LINE
  5
1BD
330
EA
100
AcDbEntity
  8
5
  6
PHANTOM
 62
   140
370
    13
100
AcDbLine
 10
324.3696316693688
 20
-53.06583574601875
 30
0.0
 11
324.3696316693688
 21
-63.56583574601875
 31
0.0
  0
POINT
  5
1BE
330
EA
100
AcDbEntity
  8
5
  6
PHANTOM
 62
   140
100
AcDbPoint
 10
334.6696316693688
 20
-58.31583574601875
 30
0.0
  0
LINE
  5
1BF
330
EA
100
AcDbEntity
  8
5
  6
PHANTOM
 62
    91
370
    13
100
AcDbLine
 10
338.6696316693688
 20
-63.0558357460187
 30
0.0
 11
331.6696316693688
 21
-63.27483574601875
 31
0.0
  0
LINE
  5
1C0
330
EA
100
AcDbEntity
  8
5
  6
PHANTOM
 62
    91
370
    13
100
AcDbLine
 10
338.6696316693688
 20
-53.57583574601874
 30
0.0
 11
331.6696316693688
 21
-53.35783574601872
 31
0.0
  0
LINE
  5
1C1
330
EA
100
AcDbEntity
  8
5
  6
PHANTOM
 62
    91
370
    13
100
AcDbLine
 10
338.6696316693688
 20
-53.57583574601874
 30
0.0
 11
338.6696316693688
 21
-63.0558357460187
 31
0.0
  0
LINE
  5
1C2
330
EA
100
AcDbEntity
  8
5
  6
PHANTOM
 62
    91
370
    13
100
AcDbLine
 10
338.6696316693688
 20
-54.15783574601873
 30
0.0
 11
331.6696316693688
 21
-53.93883574601874
 31
0.0
  0
LINE
  5
1C3
330
EA
100
AcDbEntity
  8
5
  6
PHANTOM
 62
    91
370
    13
100
AcDbLine
 10
338.6696316693688
 20
-62.47483574601874
 30
0.0
 11
331.6696316693688
 21
-62.69383574601873
 31
0.0
  0
ENDBLK
  5
EC
330
EA
100
AcDbEntity
  8
0
100
AcDbBlockEnd
  0
BLOCK
  5
EE
330
ED
100
AcDbEntity
  8
0
100
AcDbBlockBegin
  2
*D17
 70
     1
 10
0.0
 20
0.0
 30
0.0
  3
*D17
  1

  0
LINE
  5
1C4
330
ED
100
AcDbEntity
  8
0
  6
Continuous
 62
     2
370
    13
100
AcDbLine
 10
-387.7294166686791
 20
-71.31683574601854
 30
0.0
 11
-387.7294166686791
 21
41.68316425398318
 31
0.0
  0
INSERT
  5
1C5
330
ED
100
AcDbEntity
  8
0
 62
     2
100
AcDbBlockReference
  2
_Open30
 10
-387.7294166686791
 20
-71.31683574601854
 30
0.0
 41
9.000008422845859
 42
8.99996810467093
 50
270.0
  0
INSERT
  5
1C6
330
ED
100
AcDbEntity
  8
0
 62
     2
100
AcDbBlockReference
  2
_Open30
 10
-387.7294166686791
 20
41.68316425398318
 30
0.0
 41
9.000008422845859
 42
8.99996810467093
 50
90.0
  0
LINE
  5
1C7
330
ED
100
AcDbEntity
  8
0
  6
Continuous
 62
     2
370
    13
100
AcDbLine
 10
-330.7294166686777
 20
-71.31683574601854
 30
0.0
 11
-390.7294166686791
 21
-71.31683574601854
 31
0.0
  0
LINE
  5
1C8
330
ED
100
AcDbEntity
  8
0
  6
Continuous
 62
     2
370
    13
100
AcDbLine
 10
-359.7294166686791
 20
41.68316425398318
 30
0.0
 11
-390.7294166686791
 21
41.68316425398318
 31
0.0
  0
TEXT
  5
1C9
330
ED
100
AcDbEntity
  8
0
 62
     2
100
AcDbText
 10
-390.7294166686791
 20
-23.81683574601768
 30
0.0
 40
12.0
  1
113
 50
90.0
 41
0.6875
  7
dcStyle0
 72
     5
 11
-390.7294166686791
 21
-5.816835746017681
 31
0.0
100
AcDbText
  0
ENDBLK
  5
EF
330
ED
100
AcDbEntity
  8
0
100
AcDbBlockEnd
  0
BLOCK
  5
F1
330
F0
100
AcDbEntity
  8
0
100
AcDbBlockBegin
  2
DC_IMAGEDIMGROUP_4
 70
     0
 10
0.0
 20
0.0
 30
0.0
  3
DC_IMAGEDIMGROUP_4
  1

  0
LINE
  5
1CA
330
F0
100
AcDbEntity
  8
0
  6
Continuous
 62
     2
370
    13
100
AcDbLine
 10
-330.7294166686777
 20
-71.31683574601854
 30
0.0
 11
-390.7294166686791
 21
-71.31683574601854
 31
0.0
  0
LINE
  5
1CB
330
F0
100
AcDbEntity
  8
0
  6
Continuous
 62
     2
370
    13
100
AcDbLine
 10
-323.7294166686788
 20
-87.31683574601777
 30
0.0
 11
-390.7294166686791
 21
-87.31683574601777
 31
0.0
  0
LINE
  5
1CC
330
F0
100
AcDbEntity
  8
0
  6
Continuous
 62
     2
370
    13
100
AcDbLine
 10
-387.7294166686791
 20
-87.31683574601777
 30
0.0
 11
-387.7294166686791
 21
-71.31683574601854
 31
0.0
  0
LINE
  5
1CD
330
F0
100
AcDbEntity
  8
0
  6
Continuous
 62
     2
370
    13
100
AcDbLine
 10
-387.7294166686791
 20
-102.3168357460178
 30
0.0
 11
-387.7294166686791
 21
-87.31683574601777
 31
0.0
  0
INSERT
  5
1CE
330
F0
100
AcDbEntity
  8
0
 62
     2
100
AcDbBlockReference
  2
_Open30
 10
-387.7294166686791
 20
-87.31683574601777
 30
0.0
 41
9.000008422845859
 42
8.99996810467093
 50
90.0
  0
LINE
  5
1CF
330
F0
100
AcDbEntity
  8
0
  6
Continuous
 62
     2
370
    13
100
AcDbLine
 10
-387.7294166686791
 20
-72.31683574601777
 30
0.0
 11
-387.7294166686791
 21
-87.31683574601777
 31
0.0
  0
INSERT
  5
1D0
330
F0
100
AcDbEntity
  8
0
 62
     2
100
AcDbBlockReference
  2
_Open30
 10
-387.7294166686791
 20
-87.31683574601777
 30
0.0
 41
9.000008422845859
 42
8.99996810467093
 50
270.0
  0
LINE
  5
1D1
330
F0
100
AcDbEntity
  8
0
  6
Continuous
 62
     2
370
    13
100
AcDbLine
 10
-387.7294166686791
 20
-56.31683574601854
 30
0.0
 11
-387.7294166686791
 21
-71.31683574601854
 31
0.0
  0
INSERT
  5
1D2
330
F0
100
AcDbEntity
  8
0
 62
     2
100
AcDbBlockReference
  2
_Open30
 10
-387.7294166686791
 20
-71.31683574601854
 30
0.0
 41
9.000008422845859
 42
8.99996810467093
 50
270.0
  0
TEXT
  5
1D3
330
F0
100
AcDbEntity
  8
0
 62
     2
100
AcDbText
 10
-390.7294166686791
 20
-85.31683574601816
 30
0.0
 40
12.0
  1
16
 50
90.0
 41
0.6875
  7
dcStyle0
 72
     5
 11
-390.7294166686791
 21
-73.31683574601816
 31
0.0
100
AcDbText
  0
ENDBLK
  5
F2
330
F0
100
AcDbEntity
  8
0
100
AcDbBlockEnd
  0
BLOCK
  5
F4
330
F3
100
AcDbEntity
  8
0
100
AcDbBlockBegin
  2
DC_GROUP_W_GSTP_S_060_1_7
 70
     0
 10
0.0
 20
0.0
 30
0.0
  3
DC_GROUP_W_GSTP_S_060_1_7
  1

  0
LINE
  5
1D4
330
F3
100
AcDbEntity
  8
L-2
  6
Continuous
 62
     3
370
    13
100
AcDbLine
 10
-356.7294166686795
 20
157.6831642539833
 30
0.0
 11
-308.7294166686772
 21
157.6831642539833
 31
0.0
  0
LINE
  5
1D5
330
F3
100
AcDbEntity
  8
L-2
  6
Continuous
 62
     3
370
    13
100
AcDbLine
 10
-307.2294166686795
 20
151.6831642539833
 30
0.0
 11
-308.2294166686772
 21
151.6831642539833
 31
0.0
  0
LINE
  5
1D6
330
F3
100
AcDbEntity
  8
L-2
  6
Continuous
 62
     3
370
    13
100
AcDbLine
 10
-308.2294166686772
 20
151.6831642539833
 30
0.0
 11
-308.2294166686795
 21
157.1831642539833
 31
0.0
  0
LINE
  5
1D7
330
F3
100
AcDbEntity
  8
L-2
  6
Continuous
 62
     3
370
    13
100
AcDbLine
 10
-307.2294166686795
 20
151.6831642539833
 30
0.0
 11
-307.2294166686795
 21
157.6831642539833
 31
0.0
  0
LINE
  5
1D8
330
F3
100
AcDbEntity
  8
L-2
  6
Continuous
 62
     3
370
    13
100
AcDbLine
 10
-357.7294166686795
 20
124.6831642539828
 30
0.0
 11
-357.7294166686795
 21
157.6831642539833
 31
0.0
  0
LINE
  5
1D9
330
F3
100
AcDbEntity
  8
L-2
  6
Continuous
 62
     3
370
    13
100
AcDbLine
 10
-308.2294166686795
 20
158.6831642539833
 30
0.0
 11
-356.7294166686795
 21
158.6831642539833
 31
0.0
  0
LINE
  5
1DA
330
F3
100
AcDbEntity
  8
L-2
  6
Continuous
 62
     3
370
    13
100
AcDbLine
 10
-356.7294166686795
 20
124.6831642539828
 30
0.0
 11
-356.7294166686795
 21
157.6831642539833
 31
0.0
  0
LINE
  5
1DB
330
F3
100
AcDbEntity
  8
L-2
  6
Continuous
 62
     3
370
    13
100
AcDbLine
 10
-356.7294166686795
 20
124.6831642539828
 30
0.0
 11
-357.7294166686795
 21
124.6831642539828
 31
0.0
  0
ARC
  5
1DC
330
F3
100
AcDbEntity
  8
L-2
  6
Continuous
 62
     3
370
    13
100
AcDbCircle
 10
-308.2294166686795
 20
157.6831642539833
 30
0.0
 40
1.0
100
AcDbArc
 50
0.0
 51
90.0
  0
ARC
  5
1DD
330
F3
100
AcDbEntity
  8
L-2
  6
Continuous
 62
     3
370
    13
100
AcDbCircle
 10
-308.7294166686795
 20
157.1831642539833
 30
0.0
 40
0.5
100
AcDbArc
 50
0.0
 51
89.9999999997655
  0
ARC
  5
1DE
330
F3
100
AcDbEntity
  8
L-2
  6
Continuous
 62
     3
370
    13
100
AcDbCircle
 10
-356.7294166686795
 20
157.6831642539833
 30
0.0
 40
1.0
100
AcDbArc
 50
90.0
 51
180.0
  0
ENDBLK
  5
F5
330
F3
100
AcDbEntity
  8
0
100
AcDbBlockEnd
  0
BLOCK
  5
F7
330
F6
100
AcDbEntity
  8
0
100
AcDbBlockBegin
  2
DC_GROUP_W_GSTP_S_060_1_8
 70
     0
 10
0.0
 20
0.0
 30
0.0
  3
DC_GROUP_W_GSTP_S_060_1_8
  1

  0
LINE
  5
1DF
330
F6
100
AcDbEntity
  8
L-09
  6
Continuous
 62
     7
370
    13
100
AcDbLine
 10
-356.7294166686795
 20
141.6831642539833
 30
0.0
 11
-343.7294166686795
 21
141.6831642539833
 31
0.0
  0
LINE
  5
1E0
330
F6
100
AcDbEntity
  8
L-09
  6
Continuous
 62
     7
370
    13
100
AcDbLine
 10
190.2705833313228
 20
148.6831642539833
 30
0.0
 11
190.2705833313228
 21
149.1831642539833
 31
0.0
  0
LINE
  5
1E1
330
F6
100
AcDbEntity
  8
L-09
  6
Continuous
 62
     7
370
    13
100
AcDbLine
 10
203.2705833313228
 20
141.6831642539833
 30
0.0
 11
203.2705833313228
 21
144.6831642539833
 31
0.0
  0
LINE
  5
1E2
330
F6
100
AcDbEntity
  8
L-09
  6
Continuous
 62
     7
370
    13
100
AcDbLine
 10
190.2705833313228
 20
141.6831642539833
 30
0.0
 11
190.2705833313228
 21
148.6831642539833
 31
0.0
  0
LINE
  5
1E3
330
F6
100
AcDbEntity
  8
L-09
  6
Continuous
 62
     7
370
    13
100
AcDbLine
 10
198.2705833313228
 20
149.6831642539833
 30
0.0
 11
190.7705833313228
 21
149.6831642539833
 31
0.0
  0
LINE
  5
1E4
330
F6
100
AcDbEntity
  8
L-09
  6
Continuous
 62
     7
370
    13
100
AcDbLine
 10
203.2705833313228
 20
141.6831642539833
 30
0.0
 11
190.2705833313228
 21
141.6831642539833
 31
0.0
  0
LINE
  5
1E5
330
F6
100
AcDbEntity
  8
L-09
  6
Continuous
 62
     7
370
    13
100
AcDbLine
 10
-343.7294166686795
 20
141.6831642539833
 30
0.0
 11
-344.9294166686766
 21
141.6831642539833
 31
0.0
  0
LINE
  5
1E6
330
F6
100
AcDbEntity
  8
L-09
  6
Continuous
 62
     7
370
    13
100
AcDbLine
 10
-343.7294166686795
 20
149.1831642539833
 30
0.0
 11
-343.7294166686795
 21
148.6831642539833
 31
0.0
  0
LINE
  5
1E7
330
F6
100
AcDbEntity
  8
L-09
  6
Continuous
 62
     7
370
    13
100
AcDbLine
 10
-356.7294166686795
 20
144.6831642539833
 30
0.0
 11
-356.7294166686795
 21
141.6831642539833
 31
0.0
  0
LINE
  5
1E8
330
F6
100
AcDbEntity
  8
L-09
  6
Continuous
 62
     7
370
    13
100
AcDbLine
 10
-343.7294166686795
 20
148.6831642539833
 30
0.0
 11
-343.7294166686795
 21
141.6831642539833
 31
0.0
  0
LINE
  5
1E9
330
F6
100
AcDbEntity
  8
L-09
  6
Continuous
 62
     7
370
    13
100
AcDbLine
 10
-344.2294166686795
 20
149.6831642539833
 30
0.0
 11
-351.7294166686795
 21
149.6831642539833
 31
0.0
  0
ARC
  5
1EA
330
F6
100
AcDbEntity
  8
L-09
  6
Continuous
 62
     7
370
    13
100
AcDbCircle
 10
190.7705833313228
 20
149.1831642539833
 30
0.0
 40
0.5
100
AcDbArc
 50
90.0
 51
180.0
  0
ARC
  5
1EB
330
F6
100
AcDbEntity
  8
L-09
  6
Continuous
 62
     7
370
    13
100
AcDbCircle
 10
198.2705833313228
 20
144.6831642539833
 30
0.0
 40
5.0
100
AcDbArc
 50
0.0
 51
90.0
  0
ARC
  5
1EC
330
F6
100
AcDbEntity
  8
L-09
  6
Continuous
 62
     7
370
    13
100
AcDbCircle
 10
-344.2294166686795
 20
149.1831642539833
 30
0.0
 40
0.5
100
AcDbArc
 50
0.0
 51
90.0
  0
ARC
  5
1ED
330
F6
100
AcDbEntity
  8
L-09
  6
Continuous
 62
     7
370
    13
100
AcDbCircle
 10
-351.7294166686795
 20
144.6831642539833
 30
0.0
 40
5.0
100
AcDbArc
 50
90.0
 51
180.0
  0
ENDBLK
  5
F8
330
F6
100
AcDbEntity
  8
0
100
AcDbBlockEnd
  0
BLOCK
  5
FA
330
F9
100
AcDbEntity
  8
0
100
AcDbBlockBegin
  2
DC_GROUP_W_GSTP_S_060_1_9
 70
     0
 10
0.0
 20
0.0
 30
0.0
  3
DC_GROUP_W_GSTP_S_060_1_9
  1

  0
LINE
  5
1EE
330
F9
100
AcDbEntity
  8
0
  6
Continuous
 62
     7
370
    25
100
AcDbLine
 10
-306.5294277076789
 20
136.683163434483
 30
0.0
 11
-306.2294226286792
 21
136.9831638554831
 31
0.0
  0
LINE
  5
1EF
330
F9
100
AcDbEntity
  8
0
  6
Continuous
 62
     7
370
    25
100
AcDbLine
 10
-308.2294266826791
 20
136.683163434483
 30
0.0
 11
-306.5294277076789
 21
136.683163434483
 31
0.0
  0
LINE
  5
1F0
330
F9
100
AcDbEntity
  8
0
  6
Continuous
 62
     7
370
    25
100
AcDbLine
 10
-308.2294266826791
 20
134.6831631064831
 30
0.0
 11
-308.2294266826791
 21
135.0012973104831
 31
0.0
  0
LINE
  5
1F1
330
F9
100
AcDbEntity
  8
0
  6
Continuous
 62
     7
370
    25
100
AcDbLine
 10
-331.1294417976794
 20
134.6831631064831
 30
0.0
 11
-327.1294336916787
 21
134.6831631064831
 31
0.0
  0
LINE
  5
1F2
330
F9
100
AcDbEntity
  8
0
  6
Continuous
 62
     7
370
    25
100
AcDbLine
 10
-327.1294336916787
 20
148.6831637714831
 30
0.0
 11
-331.1294417976794
 21
148.6831637714831
 31
0.0
  0
LINE
  5
1F3
330
F9
100
AcDbEntity
  8
0
  6
Continuous
 62
     7
370
    25
100
AcDbLine
 10
188.7705923913234
 20
150.6831638664833
 30
0.0
 11
-305.2294206026788
 21
150.6831638664833
 31
0.0
  0
ARC
  5
1F4
330
F9
100
AcDbEntity
  8
0
  6
Continuous
 62
     7
370
    25
100
AcDbCircle
 10
188.7705833313228
 20
149.683163866483
 30
0.0
 40
0.9999999999996589
100
AcDbArc
 50
0.0
 51
90.0
  0
ARC
  5
1F5
330
F9
100
AcDbEntity
  8
0
  6
Continuous
 62
     7
370
    25
100
AcDbCircle
 10
188.7705833313228
 20
133.683163866483
 30
0.0
 40
0.999999999999943
100
AcDbArc
 50
270.0
 51
0.0
  0
ARC
  5
1F6
330
F9
100
AcDbEntity
  8
0
  6
Continuous
 62
     7
370
    25
100
AcDbCircle
 10
-305.2294269206789
 20
149.683163866483
 30
0.0
 40
0.9999999999996589
100
AcDbArc
 50
90.0
 51
180.0
  0
LINE
  5
1F7
330
F9
100
AcDbEntity
  8
0
  6
Continuous
 62
     7
370
    25
100
AcDbLine
 10
-306.2294226286792
 20
133.683162942483
 30
0.0
 11
-306.2294226286792
 21
149.6831638184831
 31
0.0
  0
LINE
  5
1F8
330
F9
100
AcDbEntity
  8
0
  6
Continuous
 62
     7
370
    25
100
AcDbLine
 10
-308.2294266826791
 20
148.6831637714831
 30
0.0
 11
-312.3294215796793
 21
148.6831637714831
 31
0.0
  0
LINE
  5
1F9
330
F9
100
AcDbEntity
  8
0
  6
Continuous
 62
     7
370
    25
100
AcDbLine
 10
-306.2294226286792
 20
146.383163720483
 30
0.0
 11
-306.5294277076789
 21
146.6831636764832
 31
0.0
  0
LINE
  5
1FA
330
F9
100
AcDbEntity
  8
0
  6
Continuous
 62
     7
370
    25
100
AcDbLine
 10
-306.5294277076789
 20
146.6831636764832
 30
0.0
 11
-308.2294266826791
 21
146.6831636764832
 31
0.0
  0
LINE
  5
1FB
330
F9
100
AcDbEntity
  8
0
  6
Continuous
 62
     7
370
    25
100
AcDbLine
 10
-308.2294266826791
 20
135.0012973104831
 30
0.0
 11
-308.2294266826791
 21
148.6831637714831
 31
0.0
  0
LINE
  5
1FC
330
F9
100
AcDbEntity
  8
0
  6
Continuous
 62
     7
370
    25
100
AcDbLine
 10
-306.5294277076789
 20
136.683163434483
 30
0.0
 11
-306.5294277076789
 21
146.6831636764832
 31
0.0
  0
LINE
  5
1FD
330
F9
100
AcDbEntity
  8
0
  6
Continuous
 62
     7
370
    25
100
AcDbLine
 10
-312.3294215796793
 20
134.6831631064831
 30
0.0
 11
-308.2294266826791
 21
134.6831631064831
 31
0.0
  0
ARC
  5
1FE
330
F9
100
AcDbEntity
  8
0
  6
Continuous
 62
     7
370
    25
100
AcDbCircle
 10
-305.2294269206789
 20
133.683163866483
 30
0.0
 40
0.999999999999943
100
AcDbArc
 50
180.0
 51
270.0
  0
LINE
  5
1FF
330
F9
100
AcDbEntity
  8
0
  6
Continuous
 62
     7
370
    25
100
AcDbLine
 10
-312.3294215796793
 20
149.6831638184831
 30
0.0
 11
-326.9294303056793
 21
149.6831638184831
 31
0.0
  0
LINE
  5
200
330
F9
100
AcDbEntity
  8
0
  6
Continuous
 62
     7
370
    25
100
AcDbLine
 10
-326.9294303056793
 20
133.683162942483
 30
0.0
 11
-312.3294215796793
 21
133.683162942483
 31
0.0
  0
LINE
  5
201
330
F9
100
AcDbEntity
  8
0
  6
Continuous
 62
     7
370
    25
100
AcDbLine
 10
-335.829417049679
 20
136.683163434483
 30
0.0
 11
-331.1294417976794
 21
136.683163434483
 31
0.0
  0
LINE
  5
202
330
F9
100
AcDbEntity
  8
0
  6
Continuous
 62
     7
370
    25
100
AcDbLine
 10
-331.1294417976794
 20
146.6831636764832
 30
0.0
 11
-335.829417049679
 21
146.6831636764832
 31
0.0
  0
LINE
  5
203
330
F9
100
AcDbEntity
  8
0
  6
Continuous
 62
     7
370
    25
100
AcDbLine
 10
-335.829417049679
 20
145.6831639784832
 30
0.0
 11
-343.2294231056792
 21
145.6831639784832
 31
0.0
  0
LINE
  5
204
330
F9
100
AcDbEntity
  8
0
  6
Continuous
 62
     7
370
    25
100
AcDbLine
 10
-343.2294231056792
 20
137.6831635984831
 30
0.0
 11
-335.829417049679
 21
137.6831635984831
 31
0.0
  0
LINE
  5
205
330
F9
100
AcDbEntity
  8
0
  6
Continuous
 62
     7
370
    25
100
AcDbLine
 10
-343.2294231056792
 20
145.6831639784832
 30
0.0
 11
-343.7294166686795
 21
145.1831638964832
 31
0.0
  0
LINE
  5
206
330
F9
100
AcDbEntity
  8
0
  6
Continuous
 62
     7
370
    25
100
AcDbLine
 10
-343.2294231056792
 20
145.6831639784832
 30
0.0
 11
-343.2294231056792
 21
142.8753353804832
 31
0.0
  0
LINE
  5
207
330
F9
100
AcDbEntity
  8
0
  6
Continuous
 62
     7
370
    25
100
AcDbLine
 10
-343.2294231056792
 20
142.8753353804832
 30
0.0
 11
-343.2294231056792
 21
137.6831635984831
 31
0.0
  0
LINE
  5
208
330
F9
100
AcDbEntity
  8
0
  6
Continuous
 62
     7
370
    25
100
AcDbLine
 10
-343.7294166686795
 20
138.1831636804829
 30
0.0
 11
-343.2294231056792
 21
137.6831635984831
 31
0.0
  0
LINE
  5
209
330
F9
100
AcDbEntity
  8
0
  6
Continuous
 62
     7
370
    25
100
AcDbLine
 10
-305.2294206026788
 20
132.6831646414832
 30
0.0
 11
-260.2294166686791
 21
132.6831646414832
 31
0.0
  0
LINE
  5
20A
330
F9
100
AcDbEntity
  8
0
  6
Continuous
 62
     7
370
    25
100
AcDbLine
 10
139.7705833313205
 20
132.6831646414832
 30
0.0
 11
188.7705923913234
 21
132.6831646414832
 31
0.0
  0
LINE
  5
20B
330
F9
100
AcDbEntity
  8
0
  6
Continuous
 62
     8
370
    25
100
AcDbLine
 10
188.7705923913234
 20
149.4616369864832
 30
0.0
 11
188.7705923913234
 21
150.6831638664833
 31
0.0
  0
LINE
  5
20C
330
F9
100
AcDbEntity
  8
0
  6
Continuous
 62
     8
370
    25
100
AcDbLine
 10
188.7705923913234
 20
132.6831646414832
 30
0.0
 11
188.7705923913234
 21
149.4616369864832
 31
0.0
  0
LINE
  5
20D
330
F9
100
AcDbEntity
  8
0
  6
Continuous
 62
     8
370
    25
100
AcDbLine
 10
-305.2294206026788
 20
150.6831638664833
 30
0.0
 11
-305.2294206026788
 21
132.6831646414832
 31
0.0
  0
LINE
  5
20E
330
F9
100
AcDbEntity
  8
0
  6
DASHED2
 62
     4
370
    25
100
AcDbLine
 10
-260.2294166686791
 20
132.6831646414832
 30
0.0
 11
139.7705833313205
 21
132.6831646414832
 31
0.0
  0
ENDBLK
  5
FB
330
F9
100
AcDbEntity
  8
0
100
AcDbBlockEnd
  0
BLOCK
  5
FD
330
FC
100
AcDbEntity
  8
0
100
AcDbBlockBegin
  2
DC_GROUP_W_GSTP_S_060_1_10
 70
     0
 10
0.0
 20
0.0
 30
0.0
  3
DC_GROUP_W_GSTP_S_060_1_10
  1

  0
LINE
  5
20F
330
FC
100
AcDbEntity
  8
ZUWAKU
  6
Continuous
 62
     7
370
    13
100
AcDbLine
 10
-591.0
 20
-398.6157700185664
 30
0.0
 11
591.0
 21
-398.6157700185664
 31
0.0
  0
LINE
  5
210
330
FC
100
AcDbEntity
  8
ZUWAKU
  6
Continuous
 62
     7
370
    13
100
AcDbLine
 10
590.9999999999989
 20
405.3842299814336
 30
0.0
 11
-591.0
 21
405.3842299814336
 31
0.0
  0
LINE
  5
211
330
FC
100
AcDbEntity
  8
ZUWAKU
  6
Continuous
 62
     7
370
    13
100
AcDbLine
 10
591.0
 20
-398.6157700185664
 30
0.0
 11
590.9999999999989
 21
405.3842299814336
 31
0.0
  0
LINE
  5
212
330
FC
100
AcDbEntity
  8
ZUWAKU
  6
Continuous
 62
     7
370
    13
100
AcDbLine
 10
-591.0
 20
405.3842299814336
 30
0.0
 11
-591.0
 21
-398.6157700185664
 31
0.0
  0
LINE
  5
213
330
FC
100
AcDbEntity
  8
ZUWAKU
  6
Continuous
 62
     4
370
    13
100
AcDbLine
 10
-103.4999999999999
 20
-353.6157700185665
 30
0.0
 11
15.00000000000009
 21
-353.6157700185665
 31
0.0
  0
LINE
  5
214
330
FC
100
AcDbEntity
  8
ZUWAKU
  6
Continuous
 62
     4
370
    13
100
AcDbLine
 10
-555.0
 20
-338.6157700185665
 30
0.0
 11
-555.0
 21
-398.6157700185664
 31
0.0
  0
LINE
  5
215
330
FC
100
AcDbEntity
  8
ZUWAKU
  6
Continuous
 62
     4
370
    13
100
AcDbLine
 10
-591.0
 20
-368.6157700185665
 30
0.0
 11
591.0
 21
-368.6157700185665
 31
0.0
  0
LINE
  5
216
330
FC
100
AcDbEntity
  8
ZUWAKU
  6
Continuous
 62
     4
370
    13
100
AcDbLine
 10
15.00000000000009
 20
-398.6157700185664
 30
0.0
 11
15.00000000000009
 21
-338.6157700185665
 31
0.0
  0
LINE
  5
217
330
FC
100
AcDbEntity
  8
ZUWAKU
  6
Continuous
 62
     4
370
    13
100
AcDbLine
 10
-103.4999999999999
 20
-398.6157700185664
 30
0.0
 11
-103.4999999999999
 21
-338.6157700185665
 31
0.0
  0
LINE
  5
218
330
FC
100
AcDbEntity
  8
ZUWAKU
  6
Continuous
 62
     4
370
    13
100
AcDbLine
 10
258.0
 20
-338.6157700185665
 30
0.0
 11
258.0
 21
-398.6157700185664
 31
0.0
  0
LINE
  5
219
330
FC
100
AcDbEntity
  8
ZUWAKU
  6
Continuous
 62
     4
370
    13
100
AcDbLine
 10
90.00000000000009
 20
-338.6157700185665
 30
0.0
 11
90.00000000000009
 21
-398.6157700185664
 31
0.0
  0
LINE
  5
21A
330
FC
100
AcDbEntity
  8
ZUWAKU
  6
Continuous
 62
     4
370
    13
100
AcDbLine
 10
-79.49999999999991
 20
-368.6157700185665
 30
0.0
 11
-79.49999999999991
 21
-398.6157700185664
 31
0.0
  0
LINE
  5
21B
330
FC
100
AcDbEntity
  8
ZUWAKU
  6
Continuous
 62
     4
370
    13
100
AcDbLine
 10
-393.0
 20
-338.6157700185665
 30
0.0
 11
-393.0
 21
-398.6157700185664
 31
0.0
  0
LINE
  5
21C
330
FC
100
AcDbEntity
  8
ZUWAKU
  6
Continuous
 62
     4
370
    13
100
AcDbLine
 10
591.0
 20
-338.6157700185665
 30
0.0
 11
-591.0
 21
-338.6157700185665
 31
0.0
  0
LINE
  5
21D
330
FC
100
AcDbEntity
  8
ZUWAKU
  6
Continuous
 62
     4
370
    13
100
AcDbLine
 10
294.0
 20
-338.6157700185665
 30
0.0
 11
294.0
 21
-398.6157700185664
 31
0.0
  0
LINE
  5
21E
330
FC
100
AcDbEntity
  8
ZUWAKU
  6
Continuous
 62
     3
370
    13
100
AcDbLine
 10
-562.5
 20
-361.1157700185665
 30
0.0
 11
-573.0
 21
-341.6157700185665
 31
0.0
  0
LINE
  5
21F
330
FC
100
AcDbEntity
  8
ZUWAKU
  6
Continuous
 62
     3
370
    13
100
AcDbLine
 10
-583.5
 20
-361.1157700185665
 30
0.0
 11
-562.5
 21
-361.1157700185665
 31
0.0
  0
LINE
  5
220
330
FC
100
AcDbEntity
  8
ZUWAKU
  6
Continuous
 62
     3
370
    13
100
AcDbLine
 10
-573.0
 20
-341.6157700185665
 30
0.0
 11
-583.5
 21
-361.1157700185665
 31
0.0
  0
TEXT
  5
222
330
FC
100
AcDbEntity
  8
ZUWAKU
 62
     2
100
AcDbText
 10
263.4
 20
-395.6157700185664
 30
0.0
 40
10.49999999999999
  1
番号
 41
1.527272727272731
  7
dcStyle1
 72
     5
 11
288.6
 21
-395.6157700185664
 31
0.0
100
AcDbText
  0
TEXT
  5
223
330
FC
100
AcDbEntity
  8
ZUWAKU
 62
     2
100
AcDbText
 10
-97.79999999999991
 20
-395.6157700185664
 30
0.0
 40
10.49999999999999
  1
度
 41
1.68
  7
dcStyle1
 72
     5
 11
-85.19999999999992
 21
-395.6157700185664
 31
0.0
100
AcDbText
  0
TEXT
  5
224
330
FC
100
AcDbEntity
  8
ZUWAKU
 62
     2
100
AcDbText
 10
-584.4657659094848
 20
-395.6157700185664
 30
0.0
 40
10.5
  1
番号
 41
1.272727272727273
  7
dcStyle1
 72
     5
 11
-563.4657659094848
 21
-395.6157700185664
 31
0.0
100
AcDbText
  0
TEXT
  5
225
330
FC
100
AcDbEntity
  8
ZUWAKU
 62
     2
100
AcDbText
 10
25.50000000000009
 20
-359.6157700185665
 30
0.0
 40
12.0
  1
シリーズ名
 41
1.086206896551724
  7
dcStyle1
 72
     5
 11
79.50000000000009
 21
-359.6157700185665
 31
0.0
100
AcDbText
  0
TEXT
  5
226
330
FC
100
AcDbEntity
  8
ZUWAKU
 62
     2
100
AcDbText
 10
34.50000000000009
 20
-389.6157700185665
 30
0.0
 40
12.0
  1
機　種
 41
1.235294117647059
  7
dcStyle1
 72
     5
 11
70.50000000000009
 21
-389.6157700185665
 31
0.0
100
AcDbText
  0
TEXT
  5
227
330
FC
100
AcDbEntity
  8
ZUWAKU
 62
     2
100
AcDbText
 10
-583.5
 20
-382.1157700185665
 30
0.0
 40
10.5
  1
改訂
 41
1.272727272727273
  7
dcStyle1
 72
     5
 11
-562.5
 21
-382.1157700185665
 31
0.0
100
AcDbText
  0
TEXT
  5
228
330
FC
100
AcDbEntity
  8
ZUWAKU
 62
     2
100
AcDbText
 10
-523.3499999999999
 20
-388.8657700185665
 30
0.0
 40
10.49999999999999
  1
改　 訂　 記　 事
 41
1.061290322580644
  7
dcStyle1
 72
     5
 11
-424.65
 21
-388.8657700185665
 31
0.0
100
AcDbText
  0
TEXT
  5
229
330
FC
100
AcDbEntity
  8
ZUWAKU
 62
     2
100
AcDbText
 10
-97.79999999999991
 20
-382.1157700185665
 30
0.0
 40
10.49999999999999
  1
尺
 41
1.68
  7
dcStyle1
 72
     5
 11
-85.19999999999992
 21
-382.1157700185665
 31
0.0
100
AcDbText
  0
TEXT
  5
22A
330
FC
100
AcDbEntity
  8
ZUWAKU
 62
     2
100
AcDbText
 10
-80.99999999999989
 20
-351.3657700185665
 30
0.0
 40
10.49999999999999
  1
年　　月　　日
 41
1.195121951219512
  7
dcStyle1
 72
     5
 11
-7.499999999999943
 21
-351.3657700185665
 31
0.0
100
AcDbText
  0
TEXT
  5
22B
330
FC
100
AcDbEntity
  8
ZUWAKU
 62
     2
100
AcDbText
 10
263.4
 20
-382.1157700185665
 30
0.0
 40
10.49999999999999
  1
図面
 41
1.527272727272731
  7
dcStyle1
 72
     5
 11
288.6
 21
-382.1157700185665
 31
0.0
100
AcDbText
  0
TEXT
  5
22C
330
FC
100
AcDbEntity
  8
ZUWAKU
 62
     2
100
AcDbText
 10
264.0
 20
-359.6157700185665
 30
0.0
 40
12.0
  1
図名
 41
1.272727272727273
  7
dcStyle1
 72
     5
 11
288.0
 21
-359.6157700185665
 31
0.0
100
AcDbText
  0
TEXT
  5
22D
330
FC
100
AcDbEntity
  8
ZUWAKU
 62
     7
100
AcDbText
 10
-308.2499999999999
 20
-361.1157700185665
 30
0.0
 40
15.0
  1
技術情報サービス
 41
1.191489361702127
  7
dcStyle1
 72
     5
 11
-188.2499999999999
 21
-361.1157700185665
 31
0.0
100
AcDbText
  0
TEXT
  5
22E
330
FC
100
AcDbEntity
  8
ZUWAKU
 62
     7
100
AcDbText
 10
-352.0235294117646
 20
-389.6157700185665
 30
0.0
 40
12.0
  1
MARUYASU KIKAI CO.,LTD.
 41
0.8990281013395457
  7
dcStyle1
 72
     5
 11
-144.4764705882352
 21
-389.6157700185665
 31
0.0
100
AcDbText
  0
TEXT
  5
22F
330
FC
100
AcDbEntity
  8
ZUWAKU
 62
     4
100
AcDbText
 10
577.3696631771073
 20
-405.3842299814336
 30
0.0
 40
6.0
  1
A3
 41
1.2
  7
dcStyle1
 72
     5
 11
589.3696631771073
 21
-405.3842299814336
 31
0.0
100
AcDbText
  0
ENDBLK
  5
FE
330
FC
100
AcDbEntity
  8
0
100
AcDbBlockEnd
  0
BLOCK
  5
100
330
FF
100
AcDbEntity
  8
0
100
AcDbBlockBegin
  2
DC_GROUP_W_GSTP_S_060_1_11
 70
     0
 10
0.0
 20
0.0
 30
0.0
  3
DC_GROUP_W_GSTP_S_060_1_11
  1

  0
POINT
  5
230
330
FF
100
AcDbEntity
  8
ZUWAKU
  6
Continuous
 62
     2
100
AcDbPoint
 10
174.0000000000001
 20
-353.6157700185665
 30
0.0
  0
POINT
  5
231
330
FF
100
AcDbEntity
  8
ZUWAKU
  6
Continuous
 62
     2
100
AcDbPoint
 10
174.0000000000001
 20
-383.6157700185664
 30
0.0
  0
POINT
  5
232
330
FF
100
AcDbEntity
  8
ZUWAKU
  6
Continuous
 62
     2
100
AcDbPoint
 10
582.0
 20
-383.6157700185664
 30
0.0
  0
POINT
  5
233
330
FF
100
AcDbEntity
  8
ZUWAKU
  6
Continuous
 62
     2
100
AcDbPoint
 10
442.5
 20
-353.6157700185665
 30
0.0
  0
POINT
  5
234
330
FF
100
AcDbEntity
  8
ZUWAKU
  6
Continuous
 62
     2
100
AcDbPoint
 10
-32.24999999999991
 20
-383.6157700185664
 30
0.0
  0
ENDBLK
  5
101
330
FF
100
AcDbEntity
  8
0
100
AcDbBlockEnd
  0
BLOCK
  5
103
330
102
100
AcDbEntity
  8
0
100
AcDbBlockBegin
  2
DC_GROUP_W_GSTP_S_060_1_12
 70
     0
 10
0.0
 20
0.0
 30
0.0
  3
DC_GROUP_W_GSTP_S_060_1_12
  1

  0
INSERT
  5
235
330
102
100
AcDbEntity
  8
10
  6
Continuous
100
AcDbBlockReference
  2
DC_GROUP_W_GSTP_S_060_1_13
 10
0.0
 20
0.0
 30
0.0
  0
ENDBLK
  5
104
330
102
100
AcDbEntity
  8
0
100
AcDbBlockEnd
  0
BLOCK
  5
106
330
105
100
AcDbEntity
  8
0
100
AcDbBlockBegin
  2
DC_GROUP_W_GSTP_S_060_1_13
 70
     0
 10
0.0
 20
0.0
 30
0.0
  3
DC_GROUP_W_GSTP_S_060_1_13
  1

  0
LINE
  5
236
330
105
100
AcDbEntity
  8
10
  6
Continuous
 62
     2
370
    13
100
AcDbLine
 10
-5.43202247191002
 20
-201.7247191011236
 30
0.0
 11
3.228231565934404
 21
-216.7247191011236
 31
0.0
  0
LINE
  5
237
330
105
100
AcDbEntity
  8
10
  6
Continuous
 62
     2
370
    13
100
AcDbLine
 10
3.228231565934404
 20
-216.7247191011236
 30
0.0
 11
-14.09227650975444
 21
-216.7247191011236
 31
0.0
  0
LINE
  5
238
330
105
100
AcDbEntity
  8
10
  6
Continuous
 62
     2
370
    13
100
AcDbLine
 10
-14.09227650975444
 20
-216.7247191011236
 30
0.0
 11
-5.43202247191002
 21
-201.7247191011236
 31
0.0
  0
TEXT
  5
239
330
105
100
AcDbEntity
  8
10
 62
     2
100
AcDbText
 10
-7.68202247191002
 20
-215.5997191011236
 30
0.0
 40
7.5
  1
1
 41
1.145454545454545
  7
dcStyle1
 72
     5
 11
-3.18202247191002
 21
-215.5997191011236
 31
0.0
100
AcDbText
  0
ENDBLK
  5
107
330
105
100
AcDbEntity
  8
0
100
AcDbBlockEnd
  0
BLOCK
  5
10A
330
109
100
AcDbEntity
  8
0
100
AcDbBlockBegin
  2
_Open30
 70
     0
 10
0.0
 20
0.0
 30
0.0
  3
_Open30
  1

  0
LINE
  5
10C
330
109
100
AcDbEntity
  8
0
  6
ByBlock
 62
     0
370
    -2
100
AcDbLine
 10
-1.0
 20
0.267949
 30
0.0
 11
0.0
 21
0.0
 31
0.0
  0
LINE
  5
10D
330
109
100
AcDbEntity
  8
0
  6
ByBlock
 62
     0
370
    -2
100
AcDbLine
 10
0.0
 20
0.0
 30
0.0
 11
-1.0
 21
-0.267949
 31
0.0
  0
LINE
  5
10E
330
109
100
AcDbEntity
  8
0
  6
ByBlock
 62
     0
370
    -2
100
AcDbLine
 10
0.0
 20
0.0
 30
0.0
 11
-1.0
 21
0.0
 31
0.0
  0
ENDBLK
  5
10B
330
109
100
AcDbEntity
  8
0
100
AcDbBlockEnd
  0
ENDSEC
  0
SECTION
  2
ENTITIES
  0
LINE
  5
23A
330
1F
100
AcDbEntity
  8
0
  6
Continuous
 62
     3
370
    13
100
AcDbLine
 10
-332.5703796180704
 20
-225.8748851226385
 30
0.0
 11
-52.7637952559301
 21
-225.8748851226385
 31
0.0
  0
LINE
  5
23B
330
1F
100
AcDbEntity
  8
0
  6
Continuous
 62
     3
370
    13
100
AcDbLine
 10
-332.5703796180704
 20
-245.8748851226385
 30
0.0
 11
-52.7637952559301
 21
-245.8748851226385
 31
0.0
  0
LINE
  5
23C
330
1F
100
AcDbEntity
  8
0
  6
Continuous
 62
     3
370
    13
100
AcDbLine
 10
-332.5703796180704
 20
-245.8748851226385
 30
0.0
 11
-332.5703796180704
 21
-205.8748851226384
 31
0.0
  0
LINE
  5
23D
330
1F
100
AcDbEntity
  8
0
  6
Continuous
 62
     3
370
    13
100
AcDbLine
 10
-332.5703796180704
 20
-205.8748851226384
 30
0.0
 11
-52.7637952559301
 21
-205.8748851226384
 31
0.0
  0
LINE
  5
23E
330
1F
100
AcDbEntity
  8
0
  6
Continuous
 62
     3
370
    13
100
AcDbLine
 10
-52.76379525592919
 20
-205.8748851226385
 30
0.0
 11
-52.76379525592828
 21
-245.8748851226385
 31
0.0
  0
LINE
  5
23F
330
1F
100
AcDbEntity
  8
0
  6
Continuous
 62
     3
370
    13
100
AcDbLine
 10
-207.6476439926601
 20
-205.8748851226384
 30
0.0
 11
-207.6476439926592
 21
-245.8748851226385
 31
0.0
  0
LINE
  5
240
330
1F
100
AcDbEntity
  8
0
  6
CENTERX2
 62
     3
370
    13
100
AcDbLine
 10
-60.22941666867905
 20
199.6437407642142
 30
0.0
 11
-60.22941666867905
 21
-111.5980857460183
 31
0.0
  0
LINE
  5
241
330
1F
100
AcDbEntity
  8
0
  6
CENTERX2
 62
     3
370
    13
100
AcDbLine
 10
-346.6671915267559
 20
141.6831642539833
 30
0.0
 11
193.8328187252466
 21
141.6831642539833
 31
0.0
  0
TEXT
  5
242
330
1F
100
AcDbEntity
  8
0
 62
     2
100
AcDbText
 10
-325.9860174781523
 20
-221.2670741202732
 30
0.0
 40
12.0
  1
ローラ幅（mm）
 41
0.7887032236248874
  7
dcStyle0
 72
     5
 11
-241.9860174781523
 21
-221.2670741202732
 31
0.0
100
AcDbText
  0
TEXT
  5
243
330
1F
100
AcDbEntity
  8
0
 62
     2
100
AcDbText
 10
-198.8460997826791
 20
-221.8748851226385
 30
0.0
 40
12.0
  1
200,  300,  400,  500
 41
0.8556340180973345
  7
dcStyle0
 72
     5
 11
-72.84609978267915
 21
-221.8748851226385
 31
0.0
100
AcDbText
  0
TEXT
  5
244
330
1F
100
AcDbEntity
  8
0
 62
     2
100
AcDbText
 10
-326.4654854325209
 20
-241.4494323819824
 30
0.0
 40
12.0
  1
昇降ストローク（mm）
 41
0.7949304174950299
  7
dcStyle0
 72
     5
 11
-206.4654854325209
 21
-241.4494323819824
 31
0.0
100
AcDbText
  0
TEXT
  5
245
330
1F
100
AcDbEntity
  8
0
 62
     2
100
AcDbText
 10
-198.8460997826791
 20
-241.1423365656656
 30
0.0
 40
12.0
  1
50
 41
0.6875
  7
dcStyle0
 72
     5
 11
-186.8460997826791
 21
-241.1423365656656
 31
0.0
100
AcDbText
  0
TEXT
  5
246
330
1F
100
AcDbEntity
  8
0
 62
     2
100
AcDbText
 10
9.692708333333258
 20
-216.7588287057612
 30
0.0
 40
12.0
  1
注1 本図はGS18Hローラ幅500に取付た場合です
 41
0.701350606394708
  7
dcStyle0
 72
     5
 11
261.6927083333333
 21
-216.7588287057612
 31
0.0
100
AcDbText
  0
TEXT
  5
247
330
1F
100
AcDbEntity
  8
0
 62
     2
100
AcDbText
 10
9.692708333333258
 20
-235.3723720993593
 30
0.0
 40
12.0
  1
注2 本図はシリンダ径φ32、ストローク50 mmの場合です
 41
0.739260389779879
  7
dcStyle0
 72
     5
 11
315.6927083333333
 21
-235.3723720993593
 31
0.0
100
AcDbText
  0
TEXT
  5
248
330
1F
100
AcDbEntity
  8
0
 62
     2
100
AcDbText
 10
9.692708333333258
 20
-197.101828441242
 30
0.0
 40
12.0
  1
※1 ストッパ幅・形状は仕様、搬送物サイズなどにより検討してください
 41
0.7751215987593404
  7
dcStyle0
 72
     5
 11
405.6927083333333
 21
-197.101828441242
 31
0.0
100
AcDbText
  0
TEXT
  5
249
330
1F
100
AcDbEntity
  8
0
 62
     2
100
AcDbText
 10
9.692708333333258
 20
-251.9966932672992
 30
0.0
 40
12.0
  1
注3 取付コンベヤフレームに取付用の穴を加工してください
 41
0.7523939284121322
  7
dcStyle0
 72
     5
 11
333.6927083333333
 21
-251.9966932672992
 31
0.0
100
AcDbText
  0
TEXT
  5
24A
330
1F
100
AcDbEntity
  8
0
 62
     2
100
AcDbText
 10
16.73688509334147
 20
228.8269772270451
 30
0.0
 40
12.0
  1
※1
 41
0.6875
  7
dcStyle0
 72
     5
 11
34.73688509334147
 21
228.8269772270451
 31
0.0
100
AcDbText
  0
TEXT
  5
24B
330
1F
100
AcDbEntity
  8
0
 62
     2
100
AcDbText
 10
-576.1437598505119
 20
-361.1157700185665
 30
0.0
 40
12.0
  1
1
 41
0.9545454545454546
  7
dcStyle1
 72
     5
 11
-570.1437598505119
 21
-361.1157700185665
 31
0.0
100
AcDbText
  0
TEXT
  5
24C
330
1F
100
AcDbEntity
  8
0
 62
     2
100
AcDbText
 10
-546.766853932584
 20
-360.3335414065752
 30
0.0
 40
12.0
  1
リニューアルのため変更
 41
1.184615384615385
  7
dcStyle1
 72
     5
 11
-414.766853932584
 21
-360.3335414065752
 31
0.0
100
AcDbText
  0
TEXT
  5
24D
330
1F
100
AcDbEntity
  8
2
 62
     2
100
AcDbText
 10
162.0000000000001
 20
-389.6157700185664
 30
0.0
 40
12.0
  1
GSTP
 41
0.56
  7
dcStyle1
 72
     5
 11
186.0000000000001
 21
-389.6157700185664
 31
0.0
100
AcDbText
  0
TEXT
  5
24E
330
1F
100
AcDbEntity
  8
2
 62
     2
100
AcDbText
 10
498.0
 20
-389.6157700185664
 30
0.0
 40
12.0
  1
W_GSTP_S_060_1
 41
0.5719844357976654
  7
dcStyle1
 72
     5
 11
582.0
 21
-389.6157700185664
 31
0.0
100
AcDbText
  0
TEXT
  5
24F
330
1F
100
AcDbEntity
  8
2
 62
     2
100
AcDbText
 10
-41.24999999999991
 20
-389.6157700185664
 30
0.0
 40
12.0
  1
1/3
 41
0.5338983050847458
  7
dcStyle1
 72
     5
 11
-23.24999999999991
 21
-389.6157700185664
 31
0.0
100
AcDbText
  0
TEXT
  5
250
330
1F
100
AcDbEntity
  8
2
 62
     2
100
AcDbText
 10
98.40000000000003
 20
-359.6157700185665
 30
0.0
 40
12.0
  1
レスベヤシリーズ(オプション)
 41
1.025581395348838
  7
dcStyle1
 72
     5
 11
249.6000000000001
 21
-359.6157700185665
 31
0.0
100
AcDbText
  0
TEXT
  5
251
330
1F
100
AcDbEntity
  8
2
 62
     2
100
AcDbText
 10
315.5999999999999
 20
-359.6157700185665
 30
0.0
 40
12.0
  1
組立図　ストッパ  GS18H  昇降ストローク　50  mm
 41
0.7245513866231654
  7
dcStyle1
 72
     5
 11
569.4000000000001
 21
-359.6157700185665
 31
0.0
100
AcDbText
  0
LINE
  5
252
330
1F
100
AcDbEntity
  8
2
  6
Continuous
 62
     7
370
    13
100
AcDbLine
 10
203.2705833313228
 20
37.68316425398324
 30
0.0
 11
203.2705833313228
 21
41.68316425398318
 31
0.0
  0
LINE
  5
253
330
1F
100
AcDbEntity
  8
2
  6
Continuous
 62
     7
370
    13
100
AcDbLine
 10
-356.7294166686791
 20
41.68316425398318
 30
0.0
 11
-356.7294166686791
 21
37.68316425398324
 31
0.0
  0
LINE
  5
254
330
1F
100
AcDbEntity
  8
2
  6
Continuous
 62
     7
370
    13
100
AcDbLine
 10
178.2705833313228
 20
-67.31683574601865
 30
0.0
 11
178.2705833313241
 21
37.68316425398318
 31
0.0
  0
LINE
  5
255
330
1F
100
AcDbEntity
  8
2
  6
Continuous
 62
     7
370
    13
100
AcDbLine
 10
174.2705833313228
 20
37.68316425398318
 30
0.0
 11
174.2705833313228
 21
-67.31683574601854
 31
0.0
  0
LINE
  5
256
330
1F
100
AcDbEntity
  8
2
  6
Continuous
 62
     7
370
    13
100
AcDbLine
 10
-327.7294166686777
 20
37.68316425398307
 30
0.0
 11
-327.7294166686791
 21
-67.31683574601854
 31
0.0
  0
LINE
  5
257
330
1F
100
AcDbEntity
  8
2
  6
Continuous
 62
     7
370
    13
100
AcDbLine
 10
-356.7294166686791
 20
37.68316425398324
 30
0.0
 11
-331.7294166686791
 21
37.68316425398318
 31
0.0
  0
LINE
  5
258
330
1F
100
AcDbEntity
  8
2
  6
Continuous
 62
     7
370
    13
100
AcDbLine
 10
-356.7294166686791
 20
41.68316425398318
 30
0.0
 11
-331.7294166686777
 21
41.68316425398318
 31
0.0
  0
LINE
  5
259
330
1F
100
AcDbEntity
  8
2
  6
Continuous
 62
     7
370
    13
100
AcDbLine
 10
203.2705833313228
 20
41.68316425398318
 30
0.0
 11
178.2705833313228
 21
41.68316425398318
 31
0.0
  0
LINE
  5
25A
330
1F
100
AcDbEntity
  8
2
  6
Continuous
 62
     7
370
    13
100
AcDbLine
 10
178.2705833313228
 20
37.68316425398318
 30
0.0
 11
203.2705833313228
 21
37.68316425398324
 31
0.0
  0
ARC
  5
25B
330
1F
100
AcDbEntity
  8
2
  6
Continuous
 62
     7
370
    13
100
AcDbCircle
 10
-331.7294166686777
 20
37.68316425398318
 30
0.0
 40
4.0
100
AcDbArc
 50
359.9999999999983
 51
90.0
  0
ARC
  5
25C
330
1F
100
AcDbEntity
  8
2
  6
Continuous
 62
     7
370
    13
100
AcDbCircle
 10
-327.7294166686777
 20
-67.31683574601854
 30
0.0
 40
4.0
100
AcDbArc
 50
180.0000000000017
 51
270.0
  0
ARC
  5
25D
330
1F
100
AcDbEntity
  8
2
  6
Continuous
 62
     7
370
    13
100
AcDbCircle
 10
178.2705833313228
 20
37.68316425398318
 30
0.0
 40
4.0
100
AcDbArc
 50
90.0
 51
180.0
  0
ARC
  5
25E
330
1F
100
AcDbEntity
  8
2
  6
Continuous
 62
     7
370
    13
100
AcDbCircle
 10
174.2705833313228
 20
-67.31683574601854
 30
0.0
 40
4.0
100
AcDbArc
 50
270.0
 51
359.9999999999984
  0
LINE
  5
25F
330
1F
100
AcDbEntity
  8
2
  6
Continuous
 62
     7
370
    13
100
AcDbLine
 10
-331.7294166686791
 20
37.68316425398324
 30
0.0
 11
-331.7294166686777
 21
-67.31683574601867
 31
0.0
  0
LINE
  5
260
330
1F
100
AcDbEntity
  8
2
  6
Continuous
 62
     7
370
    13
100
AcDbLine
 10
327.1696316693685
 20
-67.31683574601857
 30
0.0
 11
384.1696316693688
 21
-67.31683574601851
 31
0.0
  0
LINE
  5
261
330
1F
100
AcDbEntity
  8
2
  6
Continuous
 62
     7
370
    13
100
AcDbLine
 10
384.1696316693688
 20
-71.31683574601925
 30
0.0
 11
327.1696316693685
 21
-71.31683574601931
 31
0.0
  0
LINE
  5
262
330
1F
100
AcDbEntity
  8
2
  6
Continuous
 62
     7
370
    13
100
AcDbLine
 10
327.1696316693685
 20
-71.31683574601931
 30
0.0
 11
327.1696316693685
 21
-67.31683574601857
 31
0.0
  0
LINE
  5
263
330
1F
100
AcDbEntity
  8
2
  6
Continuous
 62
     7
370
    13
100
AcDbLine
 10
384.1696316693688
 20
-67.31683574601851
 30
0.0
 11
384.1696316693688
 21
-71.31683574601925
 31
0.0
  0
LINE
  5
264
330
1F
100
AcDbEntity
  8
2
  6
Continuous
 62
     7
370
    13
100
AcDbLine
 10
-325.7294166686788
 20
-67.31683574601854
 30
0.0
 11
-325.7294166686788
 21
-82.31683574601777
 31
0.0
  0
LINE
  5
265
330
1F
100
AcDbEntity
  8
2
  6
Continuous
 62
     7
370
    13
100
AcDbLine
 10
172.270583331323
 20
-82.31683574601857
 30
0.0
 11
172.270583331323
 21
-67.31683574601854
 31
0.0
  0
LINE
  5
266
330
1F
100
AcDbEntity
  8
2
  6
Continuous
 62
     7
370
    13
100
AcDbLine
 10
172.270583331323
 20
-71.31683574601854
 30
0.0
 11
174.2705833313228
 21
-71.31683574601854
 31
0.0
  0
LINE
  5
267
330
1F
100
AcDbEntity
  8
2
  6
Continuous
 62
     7
370
    13
100
AcDbLine
 10
-327.7294166686777
 20
-71.31683574601854
 30
0.0
 11
-325.7294166686788
 21
-71.31683574601777
 31
0.0
  0
ARC
  5
268
330
1F
100
AcDbEntity
  8
2
  6
Continuous
 62
     7
370
    13
100
AcDbCircle
 10
-320.7294166686788
 20
-82.31683574601777
 30
0.0
 40
5.0
100
AcDbArc
 50
180.0
 51
270.0
  0
ARC
  5
269
330
1F
100
AcDbEntity
  8
2
  6
Continuous
 62
     7
370
    13
100
AcDbCircle
 10
167.270583331323
 20
-82.31683574601854
 30
0.0
 40
5.0
100
AcDbArc
 50
270.0
 51
359.9999999999997
  0
LINE
  5
26A
330
1F
100
AcDbEntity
  8
2
  6
Continuous
 62
     7
370
    13
100
AcDbLine
 10
327.6696316693685
 20
-67.31683574601931
 30
0.0
 11
327.1696316693685
 21
-67.31683574601931
 31
0.0
  0
LINE
  5
26B
330
1F
100
AcDbEntity
  8
2
  6
Continuous
 62
     7
370
    13
100
AcDbLine
 10
323.1696316693685
 20
-71.31683574601908
 30
0.0
 11
323.1696316693678
 21
-87.31683574601954
 31
0.0
  0
LINE
  5
26C
330
1F
100
AcDbEntity
  8
2
  6
Continuous
 62
     7
370
    13
100
AcDbLine
 10
323.1696316693678
 20
-87.31683574601954
 30
0.0
 11
327.1696316693688
 21
-87.31683574601954
 31
0.0
  0
LINE
  5
26D
330
1F
100
AcDbEntity
  8
2
  6
Continuous
 62
     7
370
    13
100
AcDbLine
 10
327.1696316693688
 20
-87.31683574601954
 30
0.0
 11
327.1696316693685
 21
-71.31683574601931
 31
0.0
  0
ARC
  5
26E
330
1F
100
AcDbEntity
  8
2
  6
Continuous
 62
     7
370
    13
100
AcDbCircle
 10
327.1696316693685
 20
-71.31683574601931
 30
0.0
 40
4.0
100
AcDbArc
 50
90.00000000000006
 51
179.9999999999968
  0
LINE
  5
26F
330
1F
100
AcDbEntity
  8
2
  6
Continuous
 62
     7
370
    13
100
AcDbLine
 10
384.1696316693686
 20
-67.31683574601925
 30
0.0
 11
384.6696316693689
 21
-67.31683574601925
 31
0.0
  0
LINE
  5
270
330
1F
100
AcDbEntity
  8
2
  6
Continuous
 62
     7
370
    13
100
AcDbLine
 10
388.1696316693689
 20
-71.31683574601902
 30
0.0
 11
388.1696316693697
 21
-87.31683574601948
 31
0.0
  0
LINE
  5
271
330
1F
100
AcDbEntity
  8
2
  6
Continuous
 62
     7
370
    13
100
AcDbLine
 10
388.1696316693697
 20
-87.31683574601948
 30
0.0
 11
384.1696316693688
 21
-87.31683574601948
 31
0.0
  0
LINE
  5
272
330
1F
100
AcDbEntity
  8
2
  6
Continuous
 62
     7
370
    13
100
AcDbLine
 10
384.1696316693688
 20
-87.31683574601948
 30
0.0
 11
384.1696316693686
 21
-71.31683574601925
 31
0.0
  0
ARC
  5
273
330
1F
100
AcDbEntity
  8
2
  6
Continuous
 62
     7
370
    13
100
AcDbCircle
 10
384.1696316693689
 20
-71.31683574601925
 30
0.0
 40
4.0
100
AcDbArc
 50
0.0000000000033126
 51
90.00000000000006
  0
LINE
  5
274
330
1F
100
AcDbEntity
  8
2
  6
Continuous
 62
     7
370
    13
100
AcDbLine
 10
-214.72941666868
 20
-87.31683574601796
 30
0.0
 11
167.270583331323
 21
-87.31683574601854
 31
0.0
  0
LINE
  5
275
330
1F
100
AcDbEntity
  8
2
  6
Continuous
 62
     7
370
    13
100
AcDbLine
 10
-273.8296666003209
 20
-87.31683574601786
 30
0.0
 11
-259.72941666868
 21
-87.31683574601787
 31
0.0
  0
LINE
  5
276
330
1F
100
AcDbEntity
  8
2
  6
Continuous
 62
     7
370
    13
100
AcDbLine
 10
-320.7294166686788
 20
-87.31683574601777
 30
0.0
 11
-310.7209703710771
 21
-87.3168357460178
 31
0.0
  0
LINE
  5
277
330
1F
100
AcDbEntity
  8
2
  6
Continuous
 62
     7
370
    13
100
AcDbLine
 10
174.2705833313228
 20
-67.31683574601854
 30
0.0
 11
-281.9470691187155
 21
-67.31683574601898
 31
0.0
  0
LINE
  5
278
330
1F
100
AcDbEntity
  8
2
  6
Continuous
 62
     7
370
    13
100
AcDbLine
 10
-319.8295019646744
 20
-67.31683574601854
 30
0.0
 11
-327.7294166686791
 21
-67.31683574601854
 31
0.0
  0
LINE
  5
279
330
1F
100
AcDbEntity
  8
3
  6
Continuous
 62
     7
370
    13
100
AcDbLine
 10
139.7705833313205
 20
67.18316425398135
 30
0.0
 11
-260.2294166686786
 21
67.18316425398135
 31
0.0
  0
LINE
  5
27A
330
1F
100
AcDbEntity
  8
3
  6
Continuous
 62
     7
370
    13
100
AcDbLine
 10
-257.2294166686788
 20
142.1831642539815
 30
0.0
 11
-260.2294166686791
 21
139.1831642539815
 31
0.0
  0
LINE
  5
27B
330
1F
100
AcDbEntity
  8
3
  6
Continuous
 62
     7
370
    13
100
AcDbLine
 10
136.7705833313205
 20
142.1831642539815
 30
0.0
 11
-257.2294166686788
 21
142.1831642539815
 31
0.0
  0
LINE
  5
27C
330
1F
100
AcDbEntity
  8
3
  6
Continuous
 62
     7
370
    13
100
AcDbLine
 10
-260.2294166686786
 20
67.18316425398135
 30
0.0
 11
-260.2294166686791
 21
139.1831642539815
 31
0.0
  0
LINE
  5
27D
330
1F
100
AcDbEntity
  8
3
  6
Continuous
 62
     7
370
    13
100
AcDbLine
 10
139.7705833313205
 20
67.18316425398135
 30
0.0
 11
139.7705833313205
 21
139.1831642539815
 31
0.0
  0
LINE
  5
27E
330
1F
100
AcDbEntity
  8
3
  6
Continuous
 62
     7
370
    13
100
AcDbLine
 10
136.7705833313205
 20
142.1831642539815
 30
0.0
 11
139.7705833313205
 21
139.1831642539815
 31
0.0
  0
LINE
  5
27F
330
1F
100
AcDbEntity
  8
3
  6
Continuous
 62
     7
370
    13
100
AcDbLine
 10
-260.2294166686788
 20
70.18316425398135
 30
0.0
 11
139.7705833313205
 21
70.18316425398135
 31
0.0
  0
LINE
  5
280
330
1F
100
AcDbEntity
  8
3
  6
Continuous
 62
     7
370
    13
100
AcDbLine
 10
357.1696316693685
 20
71.6831642539814
 30
0.0
 11
357.1696316693685
 21
142.1831642539815
 31
0.0
  0
LINE
  5
281
330
1F
100
AcDbEntity
  8
3
  6
Continuous
 62
     7
370
    13
100
AcDbLine
 10
360.1696316693685
 20
142.1831642539815
 30
0.0
 11
357.1696316693685
 21
142.1831642539815
 31
0.0
  0
LINE
  5
282
330
1F
100
AcDbEntity
  8
3
  6
Continuous
 62
     7
370
    13
100
AcDbLine
 10
360.1696316693685
 20
71.6831642539814
 30
0.0
 11
360.1696316693685
 21
142.1831642539815
 31
0.0
  0
LINE
  5
283
330
1F
100
AcDbEntity
  8
3
  6
Continuous
 62
     7
370
    13
100
AcDbLine
 10
332.1699017010262
 20
67.18316425398139
 30
0.0
 11
355.6696316693685
 21
67.1831642539814
 31
0.0
  0
LINE
  5
284
330
1F
100
AcDbEntity
  8
3
  6
Continuous
 62
     7
370
    13
100
AcDbLine
 10
332.1699017010262
 20
70.18316425398139
 30
0.0
 11
332.1699017010262
 21
67.18316425398139
 31
0.0
  0
LINE
  5
285
330
1F
100
AcDbEntity
  8
3
  6
Continuous
 62
     7
370
    13
100
AcDbLine
 10
332.1699017010262
 20
70.18316425398139
 30
0.0
 11
355.6696316693685
 21
70.1831642539814
 31
0.0
  0
ARC
  5
286
330
1F
100
AcDbEntity
  8
3
  6
Continuous
 62
     7
370
    13
100
AcDbCircle
 10
355.6696316693685
 20
71.6831642539814
 30
0.0
 40
1.5
100
AcDbArc
 50
270.0000000000001
 51
0.0000000000000509
  0
ARC
  5
287
330
1F
100
AcDbEntity
  8
3
  6
Continuous
 62
     7
370
    13
100
AcDbCircle
 10
355.6696316693685
 20
71.6831642539814
 30
0.0
 40
4.5
100
AcDbArc
 50
270.0000000000001
 51
0.0000000000000509
  0
LINE
  5
288
330
1F
100
AcDbEntity
  8
3
  6
PHANTOM
 62
   140
370
    13
100
AcDbLine
 10
136.7705833313205
 20
192.1831642539815
 30
0.0
 11
139.7705833313205
 21
189.1831642539816
 31
0.0
  0
LINE
  5
289
330
1F
100
AcDbEntity
  8
3
  6
PHANTOM
 62
   140
370
    13
100
AcDbLine
 10
-257.2294166686788
 20
192.1831642539815
 30
0.0
 11
-260.2294166686791
 21
189.1831642539815
 31
0.0
  0
LINE
  5
28A
330
1F
100
AcDbEntity
  8
3
  6
PHANTOM
 62
   140
370
    13
100
AcDbLine
 10
-260.2294166686791
 20
159.1524887894554
 30
0.0
 11
-260.2294166686791
 21
189.1831642539815
 31
0.0
  0
LINE
  5
28B
330
1F
100
AcDbEntity
  8
3
  6
PHANTOM
 62
   140
370
    13
100
AcDbLine
 10
139.7705833313205
 20
189.1831642539816
 30
0.0
 11
139.7705833313205
 21
159.1524887894554
 31
0.0
  0
LINE
  5
28C
330
1F
100
AcDbEntity
  8
3
  6
PHANTOM
 62
   140
370
    13
100
AcDbLine
 10
360.1696316693713
 20
192.1831642539815
 30
0.0
 11
360.1696316693713
 21
166.1610544826867
 31
0.0
  0
LINE
  5
28D
330
1F
100
AcDbEntity
  8
3
  6
PHANTOM
 62
   140
370
    13
100
AcDbLine
 10
357.1696316693713
 20
192.1831642539815
 30
0.0
 11
357.1696316693713
 21
166.1610544826867
 31
0.0
  0
LINE
  5
28E
330
1F
100
AcDbEntity
  8
3
  6
PHANTOM
 62
   140
370
    13
100
AcDbLine
 10
360.1696316693713
 20
192.1831642539815
 30
0.0
 11
357.1696316693713
 21
192.1831642539815
 31
0.0
  0
LINE
  5
28F
330
1F
100
AcDbEntity
  8
3
  6
PHANTOM
 62
   140
370
    13
100
AcDbLine
 10
136.7705833313205
 20
192.1831642539815
 30
0.0
 11
-229.7929057773679
 21
192.1831642539815
 31
0.0
  0
LINE
  5
290
330
1F
100
AcDbEntity
  8
3
  6
PHANTOM
 62
   140
370
    13
100
AcDbLine
 10
-229.7929057773679
 20
192.1831642539815
 30
0.0
 11
-257.2294166686788
 21
192.1831642539815
 31
0.0
  0
LINE
  5
291
330
1F
100
AcDbEntity
  8
3
  6
PHANTOM
 62
   140
370
    13
100
AcDbLine
 10
332.1699017010262
 20
117.1831642539814
 30
0.0
 11
355.6696316693685
 21
117.1831642539814
 31
0.0
  0
LINE
  5
292
330
1F
100
AcDbEntity
  8
3
  6
PHANTOM
 62
   140
370
    13
100
AcDbLine
 10
332.1699017010262
 20
120.1831642539814
 30
0.0
 11
332.1699017010262
 21
117.1831642539814
 31
0.0
  0
LINE
  5
293
330
1F
100
AcDbEntity
  8
3
  6
PHANTOM
 62
   140
370
    13
100
AcDbLine
 10
332.1699017010262
 20
120.1831642539814
 30
0.0
 11
355.6696316693685
 21
120.1831642539814
 31
0.0
  0
LINE
  5
294
330
1F
100
AcDbEntity
  8
3
  6
CENTERX2
 62
     3
370
    13
100
AcDbLine
 10
358.6696316693713
 20
195.4529263465873
 30
0.0
 11
358.6696316693713
 21
163.8873388687998
 31
0.0
  0
LINE
  5
295
330
1F
100
AcDbEntity
  8
10
  6
CENTERX2
 62
     3
370
    13
100
AcDbLine
 10
361.4096316693715
 20
141.6831642539833
 30
0.0
 11
335.9296316693712
 21
141.6831642539832
 31
0.0
  0
LINE
  5
296
330
1F
100
AcDbEntity
  8
10
  6
CENTERX2
 62
     3
370
    13
100
AcDbLine
 10
348.6696316693713
 20
154.4231642539833
 30
0.0
 11
348.6696316693713
 21
128.9431642539832
 31
0.0
  0
LINE
  5
297
330
1F
100
AcDbEntity
  8
10
  6
CENTERX2
 62
     3
370
    13
100
AcDbLine
 10
368.6696316693713
 20
154.4231642539833
 30
0.0
 11
368.6696316693713
 21
128.9431642539832
 31
0.0
  0
LINE
  5
298
330
1F
100
AcDbEntity
  8
10
  6
CENTERX2
 62
     3
370
    13
100
AcDbLine
 10
355.9296316693715
 20
141.6831642539833
 30
0.0
 11
381.4096316693714
 21
141.6831642539833
 31
0.0
  0
LINE
  5
299
330
1F
100
AcDbEntity
  8
10
  6
CENTERX2
 62
     3
370
    13
100
AcDbLine
 10
328.6696316693713
 20
154.4231642539832
 30
0.0
 11
328.6696316693713
 21
128.9431642539832
 31
0.0
  0
LINE
  5
29A
330
1F
100
AcDbEntity
  8
10
  6
CENTERX2
 62
     3
370
    13
100
AcDbLine
 10
343.9096316693715
 20
141.6831642539833
 30
0.0
 11
315.9296316693712
 21
141.6831642539832
 31
0.0
  0
LINE
  5
29B
330
1F
100
AcDbEntity
  8
10
  6
CENTERX2
 62
     3
370
    13
100
AcDbLine
 10
308.6696316693713
 20
154.4231642539832
 30
0.0
 11
308.6696316693713
 21
128.9431642539832
 31
0.0
  0
LINE
  5
29C
330
1F
100
AcDbEntity
  8
10
  6
CENTERX2
 62
     3
370
    13
100
AcDbLine
 10
321.4096316693713
 20
141.6831642539832
 30
0.0
 11
295.9296316693712
 21
141.6831642539832
 31
0.0
  0
LINE
  5
29D
330
1F
100
AcDbEntity
  8
10
  6
CENTERX2
 62
     3
370
    13
100
AcDbLine
 10
375.9296316693714
 20
141.6831642539833
 30
0.0
 11
401.4096316693714
 21
141.6831642539833
 31
0.0
  0
LINE
  5
29E
330
1F
100
AcDbEntity
  8
10
  6
CENTERX2
 62
     3
370
    13
100
AcDbLine
 10
388.6696316693713
 20
154.4231642539833
 30
0.0
 11
388.6696316693714
 21
128.9431642539832
 31
0.0
  0
LINE
  5
29F
330
1F
100
AcDbEntity
  8
10
  6
CENTERX2
 62
     3
370
    13
100
AcDbLine
 10
395.9296316693714
 20
141.6831642539833
 30
0.0
 11
421.4096316693714
 21
141.6831642539833
 31
0.0
  0
LINE
  5
2A0
330
1F
100
AcDbEntity
  8
10
  6
CENTERX2
 62
     3
370
    13
100
AcDbLine
 10
408.6696316693713
 20
154.4231642539833
 30
0.0
 11
408.6696316693714
 21
128.9431642539833
 31
0.0
  0
LINE
  5
2A1
330
1F
100
AcDbEntity
  8
10
  6
CENTERX2
 62
     3
370
    13
100
AcDbLine
 10
376.069631669371
 20
141.6831642539833
 30
0.0
 11
401.2696316693717
 21
141.6831642539833
 31
0.0
  0
LINE
  5
2A2
330
1F
100
AcDbEntity
  8
10
  6
CENTERX2
 62
     3
370
    13
100
AcDbLine
 10
388.6696316693714
 20
154.2831642539836
 30
0.0
 11
388.6696316693714
 21
129.0831642539829
 31
0.0
  0
LINE
  5
2A3
330
1F
100
AcDbEntity
  8
10
  6
CENTERX2
 62
     3
370
    13
100
AcDbLine
 10
396.0696316693709
 20
141.6831642539832
 30
0.0
 11
421.2696316693718
 21
141.6831642539832
 31
0.0
  0
LINE
  5
2A4
330
1F
100
AcDbEntity
  8
10
  6
CENTERX2
 62
     3
370
    13
100
AcDbLine
 10
408.6696316693714
 20
154.2831642539837
 30
0.0
 11
408.6696316693714
 21
129.0831642539827
 31
0.0
  0
LINE
  5
2A5
330
1F
100
AcDbEntity
  8
10
  6
Continuous
 62
     3
370
    13
100
AcDbLine
 10
-356.7294166686791
 20
53.78316425398354
 30
0.0
 11
-356.7294166686791
 21
41.58316425398327
 31
0.0
  0
LINE
  5
2A6
330
1F
100
AcDbEntity
  8
10
  6
Continuous
 62
     3
370
    13
100
AcDbLine
 10
189.7705833313205
 20
137.6831642539833
 30
0.0
 11
189.7705833313205
 21
145.6831642539835
 31
0.0
  0
LINE
  5
2A7
330
1F
100
AcDbEntity
  8
7
  6
PHANTOM
 62
   140
370
    13
100
AcDbLine
 10
327.6696316693685
 20
128.6831489951926
 30
0.0
 11
383.6696316693685
 21
128.6831489951927
 31
0.0
  0
LINE
  5
2A8
330
1F
100
AcDbEntity
  8
7
  6
PHANTOM
 62
   140
370
    13
100
AcDbLine
 10
383.6696316693685
 20
-67.31683574601854
 30
0.0
 11
327.6696316693685
 21
-67.3168357460186
 31
0.0
  0
LINE
  5
2A9
330
1F
100
AcDbEntity
  8
7
  6
PHANTOM
 62
   140
370
    13
100
AcDbLine
 10
327.6696316693685
 20
-67.3168357460186
 30
0.0
 11
327.6696316693685
 21
128.6831489951926
 31
0.0
  0
LINE
  5
2AA
330
1F
100
AcDbEntity
  8
7
  6
PHANTOM
 62
   140
370
    13
100
AcDbLine
 10
383.6696316693685
 20
128.6831489951927
 30
0.0
 11
383.6696316693685
 21
-67.31683574601854
 31
0.0
  0
LINE
  5
2AB
330
1F
100
AcDbEntity
  8
7
  6
PHANTOM
 62
   140
370
    13
100
AcDbLine
 10
329.1696316693708
 20
-65.81683574601843
 30
0.0
 11
382.1696316693685
 21
-65.81683574601703
 31
0.0
  0
LINE
  5
2AC
330
1F
100
AcDbEntity
  8
7
  6
PHANTOM
 62
   140
370
    13
100
AcDbLine
 10
382.1696316693668
 20
128.6831489951927
 30
0.0
 11
382.1696316693685
 21
-67.31683574601854
 31
0.0
  0
LINE
  5
2AD
330
1F
100
AcDbEntity
  8
7
  6
PHANTOM
 62
   140
370
    13
100
AcDbLine
 10
327.6696316693688
 20
73.6831489951926
 30
0.0
 11
329.1696316693688
 21
73.6831489951926
 31
0.0
  0
LINE
  5
2AE
330
1F
100
AcDbEntity
  8
7
  6
PHANTOM
 62
   140
370
    13
100
AcDbLine
 10
329.1696316693674
 20
128.6831489951926
 30
0.0
 11
329.1696316693708
 21
-67.3168357460186
 31
0.0
  0
LINE
  5
2AF
330
1F
100
AcDbEntity
  8
7
  6
PHANTOM
 62
   140
370
    13
100
AcDbLine
 10
355.6696316693688
 20
128.6831489951927
 30
0.0
 11
355.6696316693688
 21
-67.31683574601857
 31
0.0
  0
LINE
  5
2B0
330
1F
100
AcDbEntity
  8
7
  6
PHANTOM
 62
   140
370
    13
100
AcDbLine
 10
-119.6294166686764
 20
-67.31683574601928
 30
0.0
 11
-265.2294166686761
 21
-67.31683574601925
 31
0.0
  0
LINE
  5
2B1
330
1F
100
AcDbEntity
  8
7
  6
PHANTOM
 62
   140
370
    13
100
AcDbLine
 10
0.3705833313235871
 20
-67.31683574601925
 30
0.0
 11
144.7705833313232
 21
-67.31683574601925
 31
0.0
  0
LINE
  5
2B2
330
1F
100
AcDbEntity
  8
7
  6
PHANTOM
 62
   140
370
    13
100
AcDbLine
 10
-265.2294166686761
 20
-67.31683574601857
 30
0.0
 11
-279.7294166686761
 21
-67.31683574601928
 31
0.0
  0
LINE
  5
2B3
330
1F
100
AcDbEntity
  8
7
  6
PHANTOM
 62
   140
370
    13
100
AcDbLine
 10
144.7705833313232
 20
-67.31683574601857
 30
0.0
 11
159.2705833313232
 21
-67.31683574601928
 31
0.0
  0
POINT
  5
2B4
330
1F
100
AcDbEntity
  8
6
  6
Continuous
 62
     7
100
AcDbPoint
 10
311.4696048412429
 20
-118.0207486478679
 30
0.0
  0
CIRCLE
  5
2B5
330
1F
100
AcDbEntity
  8
6
  6
Continuous
 62
     7
370
    18
100
AcDbCircle
 10
305.6694110546218
 20
-114.0206570951336
 30
0.0
 40
1.049999952316284
  0
CIRCLE
  5
2B6
330
1F
100
AcDbEntity
  8
6
  6
Continuous
 62
     7
370
    18
100
AcDbCircle
 10
317.2694095287429
 20
-114.0206570951335
 30
0.0
 40
1.049999952316284
  0
LINE
  5
2B7
330
1F
100
AcDbEntity
  8
6
  6
Continuous
 62
     7
370
    18
100
AcDbLine
 10
319.7696536693679
 20
-97.52053502482104
 30
0.0
 11
319.7696536693679
 21
-118.0207486478679
 31
0.0
  0
LINE
  5
2B8
330
1F
100
AcDbEntity
  8
6
  6
Continuous
 62
     7
370
    18
100
AcDbLine
 10
319.7696536693679
 20
-97.52053502482104
 30
0.0
 11
318.9696048412429
 21
-97.52053502482104
 31
0.0
  0
LINE
  5
2B9
330
1F
100
AcDbEntity
  8
6
  6
Continuous
 62
     7
370
    18
100
AcDbLine
 10
303.1695560131179
 20
-118.0207486478679
 30
0.0
 11
319.7696536693679
 21
-118.0207486478679
 31
0.0
  0
LINE
  5
2BA
330
1F
100
AcDbEntity
  8
6
  6
Continuous
 62
     7
370
    18
100
AcDbLine
 10
303.1695560131172
 20
-97.52053502482129
 30
0.0
 11
303.1695560131179
 21
-118.0207486478682
 31
0.0
  0
LINE
  5
2BB
330
1F
100
AcDbEntity
  8
6
  6
Continuous
 62
     7
370
    18
100
AcDbLine
 10
303.1695560131179
 20
-97.52053502482106
 30
0.0
 11
303.9696048412429
 21
-97.52053502482106
 31
0.0
  0
LINE
  5
2BC
330
1F
100
AcDbEntity
  8
6
  6
Continuous
 62
     7
370
    18
100
AcDbLine
 10
318.9694141063796
 20
-116.6206569997661
 30
0.0
 11
303.9694102916824
 21
-116.6206569997661
 31
0.0
  0
LINE
  5
2BD
330
1F
100
AcDbEntity
  8
6
  6
Continuous
 62
     7
370
    18
100
AcDbLine
 10
318.9694141063796
 20
-92.720657858073
 30
0.0
 11
318.9694141063796
 21
-116.6206569997661
 31
0.0
  0
LINE
  5
2BE
330
1F
100
AcDbEntity
  8
6
  6
Continuous
 62
     7
370
    18
100
AcDbLine
 10
303.9694102916824
 20
-92.72065785807301
 30
0.0
 11
318.9694141063796
 21
-92.720657858073
 31
0.0
  0
LINE
  5
2BF
330
1F
100
AcDbEntity
  8
6
  6
Continuous
 62
     7
370
    18
100
AcDbLine
 10
303.9694102916824
 20
-92.72065785807301
 30
0.0
 11
303.9694102916824
 21
-116.6206569997661
 31
0.0
  0
LINE
  5
2C0
330
1F
100
AcDbEntity
  8
6
  6
Continuous
 62
     7
370
    18
100
AcDbLine
 10
307.369408002864
 20
-116.6206569997661
 30
0.0
 11
307.369408002864
 21
-111.0206570951336
 31
0.0
  0
LINE
  5
2C1
330
1F
100
AcDbEntity
  8
6
  6
Continuous
 62
     7
370
    18
100
AcDbLine
 10
315.5694125805007
 20
-116.6206569997661
 30
0.0
 11
315.5694125805007
 21
-111.0206570951335
 31
0.0
  0
LINE
  5
2C2
330
1F
100
AcDbEntity
  8
6
  6
Continuous
 62
     7
370
    18
100
AcDbLine
 10
305.6694110546218
 20
-109.3206572858684
 30
0.0
 11
303.9694102916824
 21
-109.3206572858684
 31
0.0
  0
ARC
  5
2C3
330
1F
100
AcDbEntity
  8
6
  6
Continuous
 62
     7
370
    18
100
AcDbCircle
 10
305.6694110546218
 20
-111.0206570951336
 30
0.0
 40
1.700000047683715
100
AcDbArc
 50
359.9999949910444
 51
89.99999749552174
  0
LINE
  5
2C4
330
1F
100
AcDbEntity
  8
6
  6
Continuous
 62
     7
370
    18
100
AcDbLine
 10
318.9694141063796
 20
-109.3206572858684
 30
0.0
 11
317.2694095287429
 21
-109.3206572858684
 31
0.0
  0
ARC
  5
2C5
330
1F
100
AcDbEntity
  8
6
  6
Continuous
 62
     7
370
    18
100
AcDbCircle
 10
317.2694095287429
 20
-111.0206570951335
 30
0.0
 40
1.700000047683715
100
AcDbArc
 50
89.99999749552175
 51
180.0
  0
LINE
  5
2C6
330
1F
100
AcDbEntity
  8
6
  6
Continuous
 62
     7
370
    18
100
AcDbLine
 10
304.0377922337427
 20
-88.80320213515613
 30
0.0
 11
303.9694128552521
 21
-92.72065431465755
 31
0.0
  0
LINE
  5
2C7
330
1F
100
AcDbEntity
  8
6
  6
Continuous
 62
     7
370
    18
100
AcDbLine
 10
304.0377922337427
 20
-88.80320213515613
 30
0.0
 11
304.2626579310574
 21
-75.92065427519849
 31
0.0
  0
LINE
  5
2C8
330
1F
100
AcDbEntity
  8
6
  6
Continuous
 62
     7
370
    18
100
AcDbLine
 10
318.9010316463662
 20
-88.80320314644362
 30
0.0
 11
318.6761659157635
 21
-75.92065337942782
 31
0.0
  0
LINE
  5
2C9
330
1F
100
AcDbEntity
  8
6
  6
Continuous
 62
     7
370
    18
100
AcDbLine
 10
318.9010316463662
 20
-88.80320314644362
 30
0.0
 11
318.9694110248568
 21
-92.72065532594505
 31
0.0
  0
LINE
  5
2CA
330
1F
100
AcDbEntity
  8
6
  6
Continuous
 62
     7
370
    18
100
AcDbLine
 10
313.369408002864
 20
-88.72065785807301
 30
0.0
 11
309.5694125805007
 21
-88.72065785807301
 31
0.0
  0
LINE
  5
2CB
330
1F
100
AcDbEntity
  8
6
  6
Continuous
 62
     7
370
    18
100
AcDbLine
 10
313.369408002864
 20
-88.72065785807301
 30
0.0
 11
313.369408002864
 21
-75.92065862101246
 31
0.0
  0
LINE
  5
2CC
330
1F
100
AcDbEntity
  8
6
  6
Continuous
 62
     7
370
    18
100
AcDbLine
 10
309.5694125805007
 20
-75.92065862101246
 30
0.0
 11
309.5694125805007
 21
-88.72065785807301
 31
0.0
  0
LINE
  5
2CD
330
1F
100
AcDbEntity
  8
6
  6
Continuous
 62
     7
370
    18
100
AcDbLine
 10
303.9694102916824
 20
-84.62065556925465
 30
0.0
 11
304.1108363781082
 21
-84.62065556925465
 31
0.0
  0
LINE
  5
2CE
330
1F
100
AcDbEntity
  8
6
  6
Continuous
 62
     7
370
    18
100
AcDbLine
 10
303.9694102916824
 20
-84.62065556925465
 30
0.0
 11
303.9694102916824
 21
-83.12065556925465
 31
0.0
  0
LINE
  5
2CF
330
1F
100
AcDbEntity
  8
6
  6
Continuous
 62
     7
370
    18
100
AcDbLine
 10
318.9694141063796
 20
-84.62065556925464
 30
0.0
 11
318.9694141063796
 21
-83.12065556925464
 31
0.0
  0
LINE
  5
2D0
330
1F
100
AcDbEntity
  8
6
  6
Continuous
 62
     7
370
    18
100
AcDbLine
 10
318.8279880199539
 20
-84.62065556925464
 30
0.0
 11
318.9694141063796
 21
-84.62065556925464
 31
0.0
  0
CIRCLE
  5
2D1
330
1F
100
AcDbEntity
  8
6
  6
Continuous
 62
     7
370
    18
100
AcDbCircle
 10
311.4694141063796
 20
-64.62076619547535
 30
0.0
 40
7.5
  0
LINE
  5
2D2
330
1F
100
AcDbEntity
  8
6
  6
Continuous
 62
     7
370
    18
100
AcDbLine
 10
303.5696490917312
 20
-57.12076619547535
 30
0.0
 11
319.3689273510086
 21
-57.12076619547534
 31
0.0
  0
CIRCLE
  5
2D3
330
1F
100
AcDbEntity
  8
6
  6
Continuous
 62
     7
370
    18
100
AcDbCircle
 10
311.4694141063796
 20
-64.62076619547535
 30
0.0
 40
4.0
  0
LINE
  5
2D4
330
1F
100
AcDbEntity
  8
6
  6
Continuous
 62
     7
370
    18
100
AcDbLine
 10
311.4695579085078
 20
-57.12074778009007
 30
0.0
 11
305.246439866371
 21
-60.43478997185336
 31
0.0
  0
LINE
  5
2D5
330
1F
100
AcDbEntity
  8
6
  6
Continuous
 62
     7
370
    18
100
AcDbLine
 10
305.2462723902952
 20
-60.43482415723649
 30
0.0
 11
305.246028249617
 21
-68.80640618848649
 31
0.0
  0
LINE
  5
2D6
330
1F
100
AcDbEntity
  8
6
  6
Continuous
 62
     7
370
    18
100
AcDbLine
 10
305.2463759894592
 20
-68.80651684597926
 30
0.0
 11
311.4696368161233
 21
-72.12081037814589
 31
0.0
  0
LINE
  5
2D7
330
1F
100
AcDbEntity
  8
6
  6
Continuous
 62
     7
370
    18
100
AcDbLine
 10
311.4697527097601
 20
-72.1206368047455
 30
0.0
 11
317.6932290232949
 21
-68.80622851172248
 31
0.0
  0
LINE
  5
2D8
330
1F
100
AcDbEntity
  8
6
  6
Continuous
 62
     7
370
    18
100
AcDbLine
 10
317.6930135852992
 20
-68.80637567580325
 30
0.0
 11
317.692769444621
 21
-60.43479364455325
 31
0.0
  0
LINE
  5
2D9
330
1F
100
AcDbEntity
  8
6
  6
Continuous
 62
     7
370
    18
100
AcDbLine
 10
317.6925717608747
 20
-60.43492652619798
 30
0.0
 11
311.4694537187379
 21
-57.12088433443471
 31
0.0
  0
LINE
  5
2DA
330
1F
100
AcDbEntity
  8
6
  6
Continuous
 62
     7
370
    18
100
AcDbLine
 10
304.1369212780105
 20
-83.12077001017262
 30
0.0
 11
303.8601268444168
 21
-83.12077001017262
 31
0.0
  0
LINE
  5
2DB
330
1F
100
AcDbEntity
  8
6
  6
Continuous
 62
     7
370
    18
100
AcDbLine
 10
303.8601199041061
 20
-83.12077546199991
 30
0.0
 11
303.5696481321377
 21
-57.12076543110008
 31
0.0
  0
LINE
  5
2DC
330
1F
100
AcDbEntity
  8
6
  6
Continuous
 62
     7
370
    18
100
AcDbLine
 10
319.0966006438855
 20
-83.12077217756953
 30
0.0
 11
319.3689276350829
 21
-57.12076367315379
 31
0.0
  0
LINE
  5
2DD
330
1F
100
AcDbEntity
  8
6
  6
Continuous
 62
     7
370
    18
100
AcDbLine
 10
319.0965503368484
 20
-83.1207700101726
 30
0.0
 11
318.8018115673171
 21
-83.1207700101726
 31
0.0
  0
LINE
  5
2DE
330
1F
100
AcDbEntity
  8
6
  6
Continuous
 62
     7
370
    18
100
AcDbLine
 10
318.676163068782
 20
-75.92065862101245
 30
0.0
 11
304.2626575145828
 21
-75.92065862101246
 31
0.0
  0
LINE
  5
2DF
330
1F
100
AcDbEntity
  8
6
  6
Continuous
 62
     7
370
    18
100
AcDbLine
 10
316.1381555370558
 20
-112.1522016683345
 30
0.0
 11
318.4009051554524
 21
-109.8894520499378
 31
0.0
  0
LINE
  5
2E0
330
1F
100
AcDbEntity
  8
6
  6
Continuous
 62
     7
370
    18
100
AcDbLine
 10
317.9766151462948
 20
-111.7279554918984
 30
0.0
 11
316.5624017451021
 21
-110.3137420907057
 31
0.0
  0
CIRCLE
  5
2E1
330
1F
100
AcDbEntity
  8
6
  6
Continuous
 62
     7
370
    18
100
AcDbCircle
 10
317.2694095287429
 20
-111.0206570951335
 30
0.0
 40
1.600000023841857
  0
LINE
  5
2E2
330
1F
100
AcDbEntity
  8
6
  6
Continuous
 62
     7
370
    18
100
AcDbLine
 10
304.5381570552129
 20
-112.1522028062994
 30
0.0
 11
306.8009074743998
 21
-109.8894523871126
 31
0.0
  0
LINE
  5
2E3
330
1F
100
AcDbEntity
  8
6
  6
Continuous
 62
     7
370
    18
100
AcDbLine
 10
306.3766166749886
 20
-111.7279553759945
 30
0.0
 11
304.9624038111683
 21
-110.3137425121742
 31
0.0
  0
CIRCLE
  5
2E4
330
1F
100
AcDbEntity
  8
6
  6
Continuous
 62
     7
370
    18
100
AcDbCircle
 10
305.6694110546218
 20
-111.0206570951336
 30
0.0
 40
1.600000023841857
  0
LINE
  5
2E5
330
1F
100
AcDbEntity
  8
6
  6
Continuous
 62
     7
370
    18
100
AcDbLine
 10
309.7714004210395
 20
-88.12583594027119
 30
0.0
 11
309.719439226141
 21
-88.71975867144674
 31
0.0
  0
LINE
  5
2E6
330
1F
100
AcDbEntity
  8
6
  6
Continuous
 62
     7
370
    18
100
AcDbLine
 10
313.1672942752889
 20
-88.12637506750393
 30
0.0
 11
313.2192561098313
 21
-88.7202977631437
 31
0.0
  0
ARC
  5
2E7
330
1F
100
AcDbEntity
  8
6
  6
Continuous
 62
     7
370
    18
100
AcDbCircle
 10
311.4693530712234
 20
-91.92091420572926
 30
0.0
 40
4.5
100
AcDbArc
 50
73.61233828028855
 51
106.3876840315118
  0
ARC
  5
2E8
330
1F
100
AcDbEntity
  8
6
  6
Continuous
 62
     7
370
    18
100
AcDbCircle
 10
310.3690112743484
 20
-88.17921498697926
 30
0.0
 40
0.6000000238418579
100
AcDbArc
 50
106.3877386730268
 51
175.000100890741
  0
ARC
  5
2E9
330
1F
100
AcDbEntity
  8
6
  6
Continuous
 62
     7
370
    18
100
AcDbCircle
 10
312.5696948680984
 20
-88.17921498697926
 30
0.0
 40
0.6000000238418579
100
AcDbArc
 50
4.999953010685416
 51
73.61226997839796
  0
POINT
  5
2EA
330
1F
100
AcDbEntity
  8
6
  6
Continuous
 62
     7
100
AcDbPoint
 10
-237.2294163561803
 20
-95.02097765113402
 30
0.0
  0
POINT
  5
2EB
330
1F
100
AcDbEntity
  8
6
  6
Continuous
 62
     7
100
AcDbPoint
 10
-237.2294163561803
 20
-95.02097765113402
 30
0.0
  0
POINT
  5
2EC
330
1F
100
AcDbEntity
  8
6
  6
Continuous
 62
     7
100
AcDbPoint
 10
-237.2294163561803
 20
-95.02097765113402
 30
0.0
  0
POINT
  5
2ED
330
1F
100
AcDbEntity
  8
6
  6
Continuous
 62
     7
100
AcDbPoint
 10
-237.2294163561803
 20
-95.02097765113402
 30
0.0
  0
POINT
  5
2EE
330
1F
100
AcDbEntity
  8
6
  6
Continuous
 62
     7
100
AcDbPoint
 10
-237.2294163561803
 20
-95.02097765113402
 30
0.0
  0
POINT
  5
2EF
330
1F
100
AcDbEntity
  8
6
  6
Continuous
 62
     7
100
AcDbPoint
 10
-237.2294163561803
 20
-95.02097765113402
 30
0.0
  0
LINE
  5
2F0
330
1F
100
AcDbEntity
  8
6
  6
Continuous
 62
     7
370
    18
100
AcDbLine
 10
-213.9296116686803
 20
-95.02097765113402
 30
0.0
 11
-213.9296116686803
 21
-118.020977651134
 31
0.0
  0
LINE
  5
2F1
330
1F
100
AcDbEntity
  8
6
  6
Continuous
 62
     7
370
    18
100
AcDbLine
 10
-222.1295628405553
 20
-95.02097765113402
 30
0.0
 11
-222.1295628405553
 21
-118.020977651134
 31
0.0
  0
LINE
  5
2F2
330
1F
100
AcDbEntity
  8
6
  6
Continuous
 62
     7
370
    18
100
AcDbLine
 10
-216.3297581530553
 20
-95.02097765113402
 30
0.0
 11
-216.3297581530553
 21
-118.020977651134
 31
0.0
  0
LINE
  5
2F3
330
1F
100
AcDbEntity
  8
6
  6
Continuous
 62
     7
370
    18
100
AcDbLine
 10
-204.9296116686803
 20
-118.020977651134
 30
0.0
 11
-273.8901829577428
 21
-118.020977651134
 31
0.0
  0
LINE
  5
2F4
330
1F
100
AcDbEntity
  8
6
  6
Continuous
 62
     7
370
    18
100
AcDbLine
 10
-204.9296116686803
 20
-95.02097765113402
 30
0.0
 11
-217.5683445788366
 21
-95.02097765113402
 31
0.0
  0
LINE
  5
2F5
330
1F
100
AcDbEntity
  8
6
  6
Continuous
 62
     7
370
    18
100
AcDbLine
 10
-204.9296116686803
 20
-95.02097765113402
 30
0.0
 11
-204.9296116686803
 21
-118.020977651134
 31
0.0
  0
LINE
  5
2F6
330
1F
100
AcDbEntity
  8
6
  6
Continuous
 62
     7
370
    18
100
AcDbLine
 10
-206.5294651843053
 20
-114.0085569968372
 30
0.0
 11
-206.5294651843053
 21
-116.0334288230091
 31
0.0
  0
LINE
  5
2F7
330
1F
100
AcDbEntity
  8
6
  6
Continuous
 62
     7
370
    18
100
AcDbLine
 10
-206.5294651843053
 20
-114.0085569968372
 30
0.0
 11
-204.9296116686803
 21
-114.0085569968372
 31
0.0
  0
LINE
  5
2F8
330
1F
100
AcDbEntity
  8
6
  6
Continuous
 62
     7
370
    18
100
AcDbLine
 10
-206.5294651843053
 20
-116.0334288230091
 30
0.0
 11
-204.9296116686803
 21
-116.0334288230091
 31
0.0
  0
LINE
  5
2F9
330
1F
100
AcDbEntity
  8
6
  6
Continuous
 62
     7
370
    18
100
AcDbLine
 10
-260.5294651843053
 20
-95.02097765113402
 30
0.0
 11
-260.5294651843053
 21
-118.020977651134
 31
0.0
  0
LINE
  5
2FA
330
1F
100
AcDbEntity
  8
6
  6
Continuous
 62
     7
370
    18
100
AcDbLine
 10
-263.0293827700755
 20
-95.02078568885494
 30
0.0
 11
-263.9404308587348
 21
-91.6207079623376
 31
0.0
  0
LINE
  5
2FB
330
1F
100
AcDbEntity
  8
6
  6
Continuous
 62
     7
370
    18
100
AcDbLine
 10
-273.8296513415323
 20
-91.62106004859535
 30
0.0
 11
-263.9405979968058
 21
-91.62106004859547
 31
0.0
  0
LINE
  5
2FC
330
1F
100
AcDbEntity
  8
6
  6
Continuous
 62
     7
370
    18
100
AcDbLine
 10
-274.0778050280553
 20
-116.6210447898059
 30
0.0
 11
-274.0778050280553
 21
-117.3207518210559
 31
0.0
  0
LINE
  5
2FD
330
1F
100
AcDbEntity
  8
6
  6
Continuous
 62
     7
370
    18
100
AcDbLine
 10
-274.0777169631112
 20
-117.321045385462
 30
0.0
 11
-273.8901742576638
 21
-118.0209642849143
 31
0.0
  0
LINE
  5
2FE
330
1F
100
AcDbEntity
  8
6
  6
Continuous
 62
     7
370
    18
100
AcDbLine
 10
-272.0045628405562
 20
-91.02096239234552
 30
0.0
 11
-267.8544163561812
 21
-91.02096239234564
 31
0.0
  0
LINE
  5
2FF
330
1F
100
AcDbEntity
  8
6
  6
Continuous
 62
     7
370
    18
100
AcDbLine
 10
-267.8544163561803
 20
-91.02096239234501
 30
0.0
 11
-267.8544163561803
 21
-91.62106004859501
 31
0.0
  0
LINE
  5
300
330
1F
100
AcDbEntity
  8
6
  6
Continuous
 62
     7
370
    18
100
AcDbLine
 10
-272.0045628405553
 20
-91.02096239234501
 30
0.0
 11
-272.0045628405553
 21
-91.62106004859501
 31
0.0
  0
LINE
  5
301
330
1F
100
AcDbEntity
  8
6
  6
Continuous
 62
     7
370
    18
100
AcDbLine
 10
-271.5294041491491
 20
-96.84367052222782
 30
0.0
 11
-273.7294163561803
 21
-96.84367052222782
 31
0.0
  0
LINE
  5
302
330
1F
100
AcDbEntity
  8
6
  6
Continuous
 62
     7
370
    18
100
AcDbLine
 10
-271.5294041491491
 20
-99.19831529761845
 30
0.0
 11
-273.7294163561803
 21
-99.19831529761845
 31
0.0
  0
LINE
  5
303
330
1F
100
AcDbEntity
  8
6
  6
Continuous
 62
     7
370
    18
100
AcDbLine
 10
-271.5294041491491
 20
-96.84367052222782
 30
0.0
 11
-271.5294041491491
 21
-99.19831529761845
 31
0.0
  0
ARC
  5
304
330
1F
100
AcDbEntity
  8
6
  6
Continuous
 62
     7
370
    18
100
AcDbCircle
 10
-267.2293553210241
 20
-98.02097765113402
 30
0.0
 40
6.0
100
AcDbArc
 50
168.6839859654545
 51
191.3161729501288
  0
LINE
  5
305
330
1F
100
AcDbEntity
  8
6
  6
Continuous
 62
     7
370
    18
100
AcDbLine
 10
-310.03427170286
 20
-116.6209837546497
 30
0.0
 11
-273.7296604968053
 21
-116.6209837546497
 31
0.0
  0
LINE
  5
306
330
1F
100
AcDbEntity
  8
6
  6
Continuous
 62
     7
370
    18
100
AcDbLine
 10
-273.7296604968053
 20
-92.72098985816532
 30
0.0
 11
-310.7296604968053
 21
-92.72098985816532
 31
0.0
  0
ARC
  5
307
330
1F
100
AcDbEntity
  8
6
  6
Continuous
 62
     7
370
    18
100
AcDbCircle
 10
-190.7296604968053
 20
-103.7209898581653
 30
0.0
 40
120.0
100
AcDbArc
 50
182.215355692437
 51
186.17122367479
  0
ARC
  5
308
330
1F
100
AcDbEntity
  8
6
  6
Continuous
 62
     7
370
    18
100
AcDbCircle
 10
-190.7296604968053
 20
-103.7209898581653
 30
0.0
 40
120.0
100
AcDbArc
 50
180.0000111559001
 51
182.215355692437
  0
LINE
  5
309
330
1F
100
AcDbEntity
  8
6
  6
Continuous
 62
     7
370
    18
100
AcDbLine
 10
-310.7296604968053
 20
-88.82098070289189
 30
0.0
 11
-310.7296604968053
 21
-103.7209898581653
 31
0.0
  0
LINE
  5
30A
330
1F
100
AcDbEntity
  8
6
  6
Continuous
 62
     7
370
    18
100
AcDbLine
 10
-310.5989231921178
 20
-109.3209654441028
 30
0.0
 11
-291.4296574450475
 21
-109.3209654441028
 31
0.0
  0
LINE
  5
30B
330
1F
100
AcDbEntity
  8
6
  6
Continuous
 62
     7
370
    18
100
AcDbLine
 10
-273.7296604968053
 20
-116.6209837546497
 30
0.0
 11
-273.7296604968053
 21
-92.72098985816532
 31
0.0
  0
LINE
  5
30C
330
1F
100
AcDbEntity
  8
6
  6
Continuous
 62
     7
370
    18
100
AcDbLine
 10
-273.8296666003209
 20
-82.92098680640751
 30
0.0
 11
-282.1271214343053
 21
-82.92098680640751
 31
0.0
  0
LINE
  5
30D
330
1F
100
AcDbEntity
  8
6
  6
Continuous
 62
     7
370
    18
100
AcDbLine
 10
-277.7296604968053
 20
-88.42098680640751
 30
0.0
 11
-273.8296666003209
 21
-88.42098680640751
 31
0.0
  0
LINE
  5
30E
330
1F
100
AcDbEntity
  8
6
  6
Continuous
 62
     7
370
    18
100
AcDbLine
 10
-277.7296604968053
 20
-82.92098680640751
 30
0.0
 11
-277.7296604968053
 21
-88.42098680640751
 31
0.0
  0
LINE
  5
30F
330
1F
100
AcDbEntity
  8
6
  6
Continuous
 62
     7
370
    18
100
AcDbLine
 10
-273.8296666003209
 20
-92.72098985816532
 30
0.0
 11
-273.8296666003209
 21
-82.92098680640751
 31
0.0
  0
ARC
  5
310
330
1F
100
AcDbEntity
  8
6
  6
Continuous
 62
     7
370
    18
100
AcDbCircle
 10
-190.7296604968053
 20
-88.82098070289189
 30
0.0
 40
120.0
100
AcDbArc
 50
173.8287849766318
 51
179.9999974955217
  0
LINE
  5
311
330
1F
100
AcDbEntity
  8
6
  6
Continuous
 62
     7
370
    18
100
AcDbLine
 10
-310.03427170286
 20
-75.92098680640751
 30
0.0
 11
-297.5739064074498
 21
-75.92098680640751
 31
0.0
  0
LINE
  5
312
330
1F
100
AcDbEntity
  8
6
  6
Continuous
 62
     7
370
    18
100
AcDbLine
 10
-291.4296574450475
 20
-116.6209837546497
 30
0.0
 11
-291.4296574450475
 21
-109.3209654441028
 31
0.0
  0
LINE
  5
313
330
1F
100
AcDbEntity
  8
6
  6
Continuous
 62
     7
370
    18
100
AcDbLine
 10
-297.3295105088393
 20
-82.12097920231932
 30
0.0
 11
-297.3295119575794
 21
-84.62097920231932
 31
0.0
  0
LINE
  5
314
330
1F
100
AcDbEntity
  8
6
  6
Continuous
 62
     7
370
    18
100
AcDbLine
 10
-282.1295521711597
 20
-82.92097580360391
 30
0.0
 11
-282.1295531563098
 21
-84.62098801063516
 31
0.0
  0
LINE
  5
315
330
1F
100
AcDbEntity
  8
6
  6
Continuous
 62
     7
370
    18
100
AcDbLine
 10
-282.1295531563098
 20
-84.62098801063516
 30
0.0
 11
-297.3295119575794
 21
-84.62097920231932
 31
0.0
  0
LINE
  5
316
330
1F
100
AcDbEntity
  8
6
  6
Continuous
 62
     7
370
    18
100
AcDbLine
 10
-309.8294960214387
 20
-57.12097195861892
 30
0.0
 11
-309.8295047138793
 21
-72.12097195861892
 31
0.0
  0
LINE
  5
317
330
1F
100
AcDbEntity
  8
6
  6
Continuous
 62
     7
370
    18
100
AcDbLine
 10
-281.8294120980988
 20
-57.12098818455647
 30
0.0
 11
-309.8294960214387
 21
-57.12097195861892
 31
0.0
  0
LINE
  5
318
330
1F
100
AcDbEntity
  8
6
  6
Continuous
 62
     7
370
    18
100
AcDbLine
 10
-297.456152663098
 20
-72.12097912892736
 30
0.0
 11
-309.8295047138793
 21
-72.12097195861892
 31
0.0
  0
LINE
  5
319
330
1F
100
AcDbEntity
  8
6
  6
Continuous
 62
     7
370
    18
100
AcDbLine
 10
-319.8294960214387
 20
-57.12096616365861
 30
0.0
 11
-319.8295047138793
 21
-72.1209661636585
 31
0.0
  0
LINE
  5
31A
330
1F
100
AcDbEntity
  8
6
  6
Continuous
 62
     7
370
    18
100
AcDbLine
 10
-314.8294960214387
 20
-57.12096906113877
 30
0.0
 11
-314.8295047138793
 21
-72.12096906113877
 31
0.0
  0
LINE
  5
31B
330
1F
100
AcDbEntity
  8
6
  6
Continuous
 62
     7
370
    18
100
AcDbLine
 10
-314.8295047138793
 20
-72.12096906113877
 30
0.0
 11
-319.8295047138793
 21
-72.1209661636585
 31
0.0
  0
LINE
  5
31C
330
1F
100
AcDbEntity
  8
6
  6
Continuous
 62
     7
370
    18
100
AcDbLine
 10
-309.8294963689098
 20
-57.72058133361892
 30
0.0
 11
-313.6295451970348
 21
-57.72057913150556
 31
0.0
  0
LINE
  5
31D
330
1F
100
AcDbEntity
  8
6
  6
Continuous
 62
     7
370
    18
100
AcDbLine
 10
-309.8295043661249
 20
-71.52087430236892
 30
0.0
 11
-313.6295531942499
 21
-71.52087210025556
 31
0.0
  0
LINE
  5
31E
330
1F
100
AcDbEntity
  8
6
  6
Continuous
 62
     7
370
    18
100
AcDbLine
 10
-313.6295451970348
 20
-57.72057913150556
 30
0.0
 11
-313.6295531942499
 21
-71.52087210025556
 31
0.0
  0
LINE
  5
31F
330
1F
100
AcDbEntity
  8
6
  6
Continuous
 62
     7
370
    18
100
AcDbLine
 10
-314.8294979418681
 20
-60.43493390488877
 30
0.0
 11
-319.8294979418681
 21
-60.43493100740861
 31
0.0
  0
LINE
  5
320
330
1F
100
AcDbEntity
  8
6
  6
Continuous
 62
     7
370
    18
100
AcDbLine
 10
-314.8294960214387
 20
-57.12096906113877
 30
0.0
 11
-319.8294960214387
 21
-57.12096616365861
 31
0.0
  0
LINE
  5
321
330
1F
100
AcDbEntity
  8
6
  6
Continuous
 62
     7
370
    18
100
AcDbLine
 10
-282.1271193703444
 20
-82.92103958361676
 30
0.0
 11
-281.8294235388432
 21
-57.12098435279196
 31
0.0
  0
LINE
  5
322
330
1F
100
AcDbEntity
  8
6
  6
Continuous
 62
     7
370
    18
100
AcDbLine
 10
-297.3407931734844
 20
-82.12105761710845
 30
0.0
 11
-297.6292294073621
 21
-57.12098269067391
 31
0.0
  0
LINE
  5
323
330
1F
100
AcDbEntity
  8
6
  6
Continuous
 62
     7
370
    18
100
AcDbLine
 10
-314.8295027931665
 20
-68.80651593613877
 30
0.0
 11
-319.8295027931665
 21
-68.8065130386585
 31
0.0
  0
LINE
  5
324
330
1F
100
AcDbEntity
  8
6
  6
Continuous
 62
     7
370
    18
100
AcDbLine
 10
-309.8295039315028
 20
-70.77087430236892
 30
0.0
 11
-314.8295039315028
 21
-70.77087140488877
 31
0.0
  0
LINE
  5
325
330
1F
100
AcDbEntity
  8
6
  6
Continuous
 62
     7
370
    18
100
AcDbLine
 10
-309.8294968035318
 20
-58.47058133361892
 30
0.0
 11
-314.8294968035318
 21
-58.47057843613877
 31
0.0
  0
LINE
  5
326
330
1F
100
AcDbEntity
  8
6
  6
Continuous
 62
     7
370
    18
100
AcDbLine
 10
-282.1295522870662
 20
-83.12098801063516
 30
0.0
 11
-297.3295110883355
 21
-83.12097920231932
 31
0.0
  0
LINE
  5
327
330
1F
100
AcDbEntity
  8
6
  6
Continuous
 62
     7
370
    18
100
AcDbLine
 10
-297.3294585287183
 20
-82.92100579227176
 30
0.0
 11
-297.5739048194191
 21
-75.9209848007375
 31
0.0
  0
ARC
  5
328
330
1F
100
AcDbEntity
  8
6
  6
Continuous
 62
     7
370
    18
100
AcDbCircle
 10
-288.7217106677037
 20
-111.020977651134
 30
0.0
 40
3.807692289352416
100
AcDbArc
 50
166.3481159108235
 51
193.6523162123268
  0
LINE
  5
329
330
1F
100
AcDbEntity
  8
6
  6
Continuous
 62
     7
370
    18
100
AcDbLine
 10
-291.6257075051133
 20
-112.6038497613635
 30
0.0
 11
-291.4297093556513
 21
-112.6209973774635
 31
0.0
  0
ARC
  5
32A
330
1F
100
AcDbEntity
  8
6
  6
Continuous
 62
     7
370
    18
100
AcDbCircle
 10
-291.5472416735631
 20
-110.3346983542591
 30
0.0
 40
0.899999976158142
100
AcDbArc
 50
94.99936561441385
 51
166.3482525146074
  0
ARC
  5
32B
330
1F
100
AcDbEntity
  8
6
  6
Continuous
 62
     7
370
    18
100
AcDbCircle
 10
-291.5472416735631
 20
-111.7072874655872
 30
0.0
 40
0.899999976158142
100
AcDbArc
 50
193.6526850425428
 51
265.0005448530396
  0
LINE
  5
32C
330
1F
100
AcDbEntity
  8
6
  6
Continuous
 62
     7
370
    18
100
AcDbLine
 10
-291.6256963256881
 20
-109.4381133038236
 30
0.0
 11
-291.4296677747759
 21
-109.4209630279415
 31
0.0
  0
LINE
  5
32D
330
1F
100
AcDbEntity
  8
6
  6
Continuous
 62
     7
370
    18
100
AcDbLine
 10
-274.0321570218759
 20
-87.82719039232174
 30
0.0
 11
-273.9801958269775
 21
-88.42111312349729
 31
0.0
  0
LINE
  5
32E
330
1F
100
AcDbEntity
  8
6
  6
Continuous
 62
     7
370
    18
100
AcDbLine
 10
-277.4280518635044
 20
-87.82678814301872
 30
0.0
 11
-277.4800136980468
 21
-88.42071083865844
 31
0.0
  0
ARC
  5
32F
330
1F
100
AcDbEntity
  8
6
  6
Continuous
 62
     7
370
    18
100
AcDbCircle
 10
-275.7296147204381
 20
-91.62116686011845
 30
0.0
 40
4.5
100
AcDbArc
 50
73.61227749183182
 51
106.3876232430546
  0
ARC
  5
330
330
1F
100
AcDbEntity
  8
6
  6
Continuous
 62
     7
370
    18
100
AcDbCircle
 10
-274.6292729235631
 20
-87.87946764136845
 30
0.0
 40
0.6000000238418579
100
AcDbArc
 50
4.999885392040726
 51
73.6122228503186
  0
ARC
  5
331
330
1F
100
AcDbEntity
  8
6
  6
Continuous
 62
     7
370
    18
100
AcDbCircle
 10
-276.8299565173131
 20
-87.87949815894652
 30
0.0
 40
0.6000000238418579
100
AcDbArc
 50
106.3876815270347
 51
175.0000531362623
  0
LINE
  5
332
330
1F
100
AcDbEntity
  8
6
  6
Continuous
 62
     7
370
    18
100
AcDbLine
 10
-258.6288151598912
 20
-95.02097765113402
 30
0.0
 11
-258.6288151598912
 21
-118.020977651134
 31
0.0
  0
LINE
  5
333
330
1F
100
AcDbEntity
  8
6
  6
Continuous
 62
     7
370
    18
100
AcDbLine
 10
-251.8295140124303
 20
-95.02097765113402
 30
0.0
 11
-251.8295140124303
 21
-118.020977651134
 31
0.0
  0
LINE
  5
334
330
1F
100
AcDbEntity
  8
6
  6
Continuous
 62
     7
370
    18
100
AcDbLine
 10
-220.8909764147741
 20
-95.02097765113402
 30
0.0
 11
-263.0293431139928
 21
-95.02097765113402
 31
0.0
  0
LINE
  5
335
330
1F
100
AcDbEntity
  8
6
  6
Continuous
 62
     7
370
    18
100
AcDbLine
 10
-216.3297581530553
 20
-97.52097765113402
 30
0.0
 11
-222.1295628405553
 21
-97.52097765113402
 31
0.0
  0
LINE
  5
336
330
1F
100
AcDbEntity
  8
6
  6
Continuous
 62
     7
370
    18
100
AcDbLine
 10
-216.4796604968053
 20
-96.82096544410282
 30
0.0
 11
-221.9796604968053
 21
-96.82096544410282
 31
0.0
  0
ARC
  5
337
330
1F
100
AcDbEntity
  8
6
  6
Continuous
 62
     7
370
    18
100
AcDbCircle
 10
-219.2296604968053
 20
-101.8209654441028
 30
0.0
 40
7.0
100
AcDbArc
 50
73.74297999178903
 51
106.2570300261248
  0
LINE
  5
338
330
1F
100
AcDbEntity
  8
6
  6
Continuous
 62
     7
370
    18
100
AcDbLine
 10
-216.5537152981126
 20
-95.97374235052243
 30
0.0
 11
-216.4795924739813
 21
-96.82096996479353
 31
0.0
  0
LINE
  5
339
330
1F
100
AcDbEntity
  8
6
  6
Continuous
 62
     7
370
    18
100
AcDbLine
 10
-221.9054093849848
 20
-95.97375359772403
 30
0.0
 11
-221.9795335390074
 21
-96.82099641272035
 31
0.0
  0
ARC
  5
33A
330
1F
100
AcDbEntity
  8
6
  6
Continuous
 62
     7
370
    18
100
AcDbCircle
 10
-217.5499729968053
 20
-96.06089464332152
 30
0.0
 40
1.0
100
AcDbArc
 50
4.999946863738881
 51
73.74292535027712
  0
ARC
  5
33B
330
1F
100
AcDbEntity
  8
6
  6
Continuous
 62
     7
370
    18
100
AcDbCircle
 10
-220.9093479968053
 20
-96.06089464332152
 30
0.0
 40
1.0
100
AcDbArc
 50
106.257088310102
 51
175.0000463060718
  0
LINE
  5
33C
330
1F
100
AcDbEntity
  8
6
  6
Continuous
 62
     7
370
    18
100
AcDbLine
 10
-216.4796604968053
 20
-96.82096544410282
 30
0.0
 11
-216.4796604968053
 21
-97.52097765113402
 31
0.0
  0
LINE
  5
33D
330
1F
100
AcDbEntity
  8
6
  6
Continuous
 62
     7
370
    18
100
AcDbLine
 10
-221.9796604968053
 20
-96.82096544410282
 30
0.0
 11
-221.9796604968053
 21
-97.52097765113402
 31
0.0
  0
LINE
  5
33E
330
1F
100
AcDbEntity
  8
6
  6
Continuous
 62
     7
370
    18
100
AcDbLine
 10
-257.7288684403304
 20
-87.32104173804831
 30
0.0
 11
-257.7288684403304
 21
-95.02097765113402
 31
0.0
  0
LINE
  5
33F
330
1F
100
AcDbEntity
  8
6
  6
Continuous
 62
     7
370
    18
100
AcDbLine
 10
-252.2281360184554
 20
-88.32104173804831
 30
0.0
 11
-252.2281360184554
 21
-95.02097765113402
 31
0.0
  0
LINE
  5
340
330
1F
100
AcDbEntity
  8
6
  6
Continuous
 62
     7
370
    18
100
AcDbLine
 10
-222.2237414872054
 20
-88.32104173804831
 30
0.0
 11
-222.2237414872054
 21
-95.02097765113402
 31
0.0
  0
LINE
  5
341
330
1F
100
AcDbEntity
  8
6
  6
Continuous
 62
     7
370
    18
100
AcDbLine
 10
-257.7288684403304
 20
-87.32104173804831
 30
0.0
 11
-216.7291125809554
 21
-87.32104173804831
 31
0.0
  0
LINE
  5
342
330
1F
100
AcDbEntity
  8
6
  6
Continuous
 62
     7
370
    18
100
AcDbLine
 10
-257.7288684403304
 20
-88.32104173804831
 30
0.0
 11
-216.7291125809554
 21
-88.32104173804831
 31
0.0
  0
LINE
  5
343
330
1F
100
AcDbEntity
  8
6
  6
Continuous
 62
     7
370
    18
100
AcDbLine
 10
-252.2285022293929
 20
-86.6210447898059
 30
0.0
 11
-257.7285022293929
 21
-86.6210447898059
 31
0.0
  0
ARC
  5
344
330
1F
100
AcDbEntity
  8
6
  6
Continuous
 62
     7
370
    18
100
AcDbCircle
 10
-254.9785022293929
 20
-91.6210447898059
 30
0.0
 40
7.0
100
AcDbArc
 50
73.7429799917889
 51
106.2570300261245
  0
LINE
  5
345
330
1F
100
AcDbEntity
  8
6
  6
Continuous
 62
     7
370
    18
100
AcDbLine
 10
-252.3026140065706
 20
-85.7737948936788
 30
0.0
 11
-252.2284911824393
 21
-86.6210225079499
 31
0.0
  0
LINE
  5
346
330
1F
100
AcDbEntity
  8
6
  6
Continuous
 62
     7
370
    18
100
AcDbLine
 10
-257.6543205021292
 20
-85.77376013331244
 30
0.0
 11
-257.7284459860432
 21
-86.62101814903352
 31
0.0
  0
ARC
  5
347
330
1F
100
AcDbEntity
  8
6
  6
Continuous
 62
     7
370
    18
100
AcDbCircle
 10
-253.2988147293929
 20
-85.86094347144675
 30
0.0
 40
1.0
100
AcDbArc
 50
4.999953693934692
 51
73.74292535027895
  0
ARC
  5
348
330
1F
100
AcDbEntity
  8
6
  6
Continuous
 62
     7
370
    18
100
AcDbCircle
 10
-256.6581897293929
 20
-85.86094347144675
 30
0.0
 40
1.0
100
AcDbArc
 50
106.2570883101052
 51
175.0000531362552
  0
LINE
  5
349
330
1F
100
AcDbEntity
  8
6
  6
Continuous
 62
     7
370
    18
100
AcDbLine
 10
-252.2285022293929
 20
-86.6210447898059
 30
0.0
 11
-252.2285022293929
 21
-87.32104173804831
 31
0.0
  0
LINE
  5
34A
330
1F
100
AcDbEntity
  8
6
  6
Continuous
 62
     7
370
    18
100
AcDbLine
 10
-257.7285022293929
 20
-86.6210447898059
 30
0.0
 11
-257.7285022293929
 21
-87.32104173804831
 31
0.0
  0
LINE
  5
34B
330
1F
100
AcDbEntity
  8
6
  6
Continuous
 62
     7
370
    18
100
AcDbLine
 10
-216.7264270340804
 20
-86.6210447898059
 30
0.0
 11
-222.2264270340804
 21
-86.6210447898059
 31
0.0
  0
ARC
  5
34C
330
1F
100
AcDbEntity
  8
6
  6
Continuous
 62
     7
370
    18
100
AcDbCircle
 10
-219.4764270340804
 20
-91.6210447898059
 30
0.0
 40
7.0
100
AcDbArc
 50
73.7429799917889
 51
106.2570300261245
  0
LINE
  5
34D
330
1F
100
AcDbEntity
  8
6
  6
Continuous
 62
     7
370
    18
100
AcDbLine
 10
-216.8005585320282
 20
-85.77379419754132
 30
0.0
 11
-216.7264357078968
 21
-86.62102181181265
 31
0.0
  0
LINE
  5
34E
330
1F
100
AcDbEntity
  8
6
  6
Continuous
 62
     7
370
    18
100
AcDbLine
 10
-222.1522498268616
 20
-85.7737621593408
 30
0.0
 11
-222.2263739808843
 21
-86.62100497433724
 31
0.0
  0
ARC
  5
34F
330
1F
100
AcDbEntity
  8
6
  6
Continuous
 62
     7
370
    18
100
AcDbCircle
 10
-217.7967395340804
 20
-85.86094347144675
 30
0.0
 40
1.0
100
AcDbArc
 50
4.999953693934692
 51
73.74292535027895
  0
ARC
  5
350
330
1F
100
AcDbEntity
  8
6
  6
Continuous
 62
     7
370
    18
100
AcDbCircle
 10
-221.1561145340804
 20
-85.86094347144675
 30
0.0
 40
1.0
100
AcDbArc
 50
106.2570883101052
 51
175.0000531362552
  0
LINE
  5
351
330
1F
100
AcDbEntity
  8
6
  6
Continuous
 62
     7
370
    18
100
AcDbLine
 10
-216.7264270340804
 20
-86.6210447898059
 30
0.0
 11
-216.7264270340804
 21
-87.32104173804831
 31
0.0
  0
LINE
  5
352
330
1F
100
AcDbEntity
  8
6
  6
Continuous
 62
     7
370
    18
100
AcDbLine
 10
-222.2264270340804
 20
-86.6210447898059
 30
0.0
 11
-222.2264270340804
 21
-87.32104173804831
 31
0.0
  0
LINE
  5
353
330
1F
100
AcDbEntity
  8
6
  6
Continuous
 62
     7
370
    18
100
AcDbLine
 10
-236.9794117392
 20
-77.62099601108392
 30
0.0
 11
-236.979456590894
 21
-87.32103873569329
 31
0.0
  0
LINE
  5
354
330
1F
100
AcDbEntity
  8
6
  6
Continuous
 62
     7
370
    18
100
AcDbLine
 10
-222.9794514901284
 20
-77.62112248684369
 30
0.0
 11
-236.9794057137613
 21
-77.62099301903007
 31
0.0
  0
LINE
  5
355
330
1F
100
AcDbEntity
  8
6
  6
Continuous
 62
     7
370
    18
100
AcDbLine
 10
-222.979411739482
 20
-77.62112178035889
 30
0.0
 11
-222.9794565906116
 21
-87.32104243465554
 31
0.0
  0
LINE
  5
356
330
1F
100
AcDbEntity
  8
6
  6
Continuous
 62
     7
370
    18
100
AcDbLine
 10
-251.479426998271
 20
-77.62099000011838
 30
0.0
 11
-251.479471849965
 21
-87.32103272472776
 31
0.0
  0
LINE
  5
357
330
1F
100
AcDbEntity
  8
6
  6
Continuous
 62
     7
370
    18
100
AcDbLine
 10
-237.47942097382
 20
-77.62112572412505
 30
0.0
 11
-251.47942097382
 21
-77.62099625588806
 31
0.0
  0
LINE
  5
358
330
1F
100
AcDbEntity
  8
6
  6
Continuous
 62
     7
370
    18
100
AcDbLine
 10
-237.4794269984829
 20
-77.62110051060407
 30
0.0
 11
-237.479471849683
 21
-87.32103642369
 31
0.0
  0
LINE
  5
359
330
1F
100
AcDbEntity
  8
6
  6
Continuous
 62
     7
370
    18
100
AcDbLine
 10
-216.7291125809554
 20
-87.32104173804831
 30
0.0
 11
-216.7291125809554
 21
-95.02097765113402
 31
0.0
  0
LINE
  5
35A
330
1F
100
AcDbEntity
  8
6
  6
Continuous
 62
     7
370
    18
100
AcDbLine
 10
-239.5294360672835
 20
-76.57108751441555
 30
0.0
 11
-239.5294360672835
 21
-77.62107530738402
 31
0.0
  0
LINE
  5
35B
330
1F
100
AcDbEntity
  8
6
  6
Continuous
 62
     7
370
    18
100
AcDbLine
 10
-239.529436067284
 20
-76.571087514416
 30
0.0
 11
-249.4294299637684
 21
-76.57108751441578
 31
0.0
  0
LINE
  5
35C
330
1F
100
AcDbEntity
  8
6
  6
Continuous
 62
     7
370
    18
100
AcDbLine
 10
-239.5293902909164
 20
-74.42107835914211
 30
0.0
 11
-239.5293902909164
 21
-75.92107835914211
 31
0.0
  0
LINE
  5
35D
330
1F
100
AcDbEntity
  8
6
  6
Continuous
 62
     7
370
    18
100
AcDbLine
 10
-241.3413562332992
 20
-76.57108751441555
 30
0.0
 11
-241.3413562332992
 21
-75.92107835914211
 31
0.0
  0
LINE
  5
35E
330
1F
100
AcDbEntity
  8
6
  6
Continuous
 62
     7
370
    18
100
AcDbLine
 10
-249.4294299637679
 20
-76.57108751441555
 30
0.0
 11
-249.4294299637679
 21
-77.62107530738402
 31
0.0
  0
LINE
  5
35F
330
1F
100
AcDbEntity
  8
6
  6
Continuous
 62
     7
370
    18
100
AcDbLine
 10
-249.4294757401351
 20
-74.42107835914211
 30
0.0
 11
-249.4294757401351
 21
-75.92107835914211
 31
0.0
  0
LINE
  5
360
330
1F
100
AcDbEntity
  8
6
  6
Continuous
 62
     7
370
    18
100
AcDbLine
 10
-249.4233722245092
 20
-75.92107835914166
 30
0.0
 11
-239.5293902909154
 21
-75.92107835914143
 31
0.0
  0
LINE
  5
361
330
1F
100
AcDbEntity
  8
6
  6
Continuous
 62
     7
370
    18
100
AcDbLine
 10
-249.4294757401342
 20
-74.42107835914166
 30
0.0
 11
-239.5293902909154
 21
-74.42107835914143
 31
0.0
  0
LINE
  5
362
330
1F
100
AcDbEntity
  8
6
  6
Continuous
 62
     7
370
    18
100
AcDbLine
 10
-247.6175097977523
 20
-76.57108751441555
 30
0.0
 11
-247.6175097977523
 21
-75.92107835914211
 31
0.0
  0
LINE
  5
363
330
1F
100
AcDbEntity
  8
6
  6
Continuous
 62
     7
370
    18
100
AcDbLine
 10
-225.0294208084945
 20
-76.57107225562649
 30
0.0
 11
-225.0294208084945
 21
-77.62106004859518
 31
0.0
  0
LINE
  5
364
330
1F
100
AcDbEntity
  8
6
  6
Continuous
 62
     7
370
    18
100
AcDbLine
 10
-225.0294208084949
 20
-76.57107225562694
 30
0.0
 11
-234.9294147049793
 21
-76.57107225562694
 31
0.0
  0
LINE
  5
365
330
1F
100
AcDbEntity
  8
6
  6
Continuous
 62
     7
370
    18
100
AcDbLine
 10
-225.0293750321273
 20
-74.42106310035305
 30
0.0
 11
-225.0293750321273
 21
-75.92106310035305
 31
0.0
  0
LINE
  5
366
330
1F
100
AcDbEntity
  8
6
  6
Continuous
 62
     7
370
    18
100
AcDbLine
 10
-226.8413409745101
 20
-76.57107225562649
 30
0.0
 11
-226.8413409745101
 21
-75.92106310035305
 31
0.0
  0
LINE
  5
367
330
1F
100
AcDbEntity
  8
6
  6
Continuous
 62
     7
370
    18
100
AcDbLine
 10
-234.9294147049789
 20
-76.57107225562649
 30
0.0
 11
-234.9294147049789
 21
-77.62106004859518
 31
0.0
  0
LINE
  5
368
330
1F
100
AcDbEntity
  8
6
  6
Continuous
 62
     7
370
    18
100
AcDbLine
 10
-234.929460481346
 20
-74.42106310035305
 30
0.0
 11
-234.929460481346
 21
-75.92106310035305
 31
0.0
  0
LINE
  5
369
330
1F
100
AcDbEntity
  8
6
  6
Continuous
 62
     7
370
    18
100
AcDbLine
 10
-234.923356965721
 20
-75.92106310035305
 30
0.0
 11
-225.0293750321273
 21
-75.92106310035305
 31
0.0
  0
LINE
  5
36A
330
1F
100
AcDbEntity
  8
6
  6
Continuous
 62
     7
370
    18
100
AcDbLine
 10
-234.929460481346
 20
-74.42106310035305
 30
0.0
 11
-225.0293750321273
 21
-74.42106310035305
 31
0.0
  0
LINE
  5
36B
330
1F
100
AcDbEntity
  8
6
  6
Continuous
 62
     7
370
    18
100
AcDbLine
 10
-233.1174945389632
 20
-76.57107225562649
 30
0.0
 11
-233.1174945389632
 21
-75.92106310035305
 31
0.0
  0
LINE
  5
36C
330
1F
100
AcDbEntity
  8
6
  6
CENTERX2
 62
     3
370
    13
100
AcDbLine
 10
311.469604841242
 20
-54.7819714872234
 30
0.0
 11
311.4696048412429
 21
-120.267590078532
 31
0.0
  0
LINE
  5
36D
330
1F
100
AcDbEntity
  8
6
  6
CENTERX2
 62
     3
370
    13
100
AcDbLine
 10
321.4694141063796
 20
-64.62076619547534
 30
0.0
 11
301.4694102916824
 21
-64.62076619547535
 31
0.0
  0
LINE
  5
36E
330
1F
100
AcDbEntity
  8
6
  6
CENTERX2
 62
     3
370
    13
100
AcDbLine
 10
324.7571086224029
 20
-81.32098039234424
 30
0.0
 11
320.6197375359129
 21
-81.32098039234424
 31
0.0
  0
LINE
  5
36F
330
1F
100
AcDbEntity
  8
6
  6
CENTERX2
 62
     3
370
    13
100
AcDbLine
 10
-289.7296335773278
 20
-54.87922335250241
 30
0.0
 11
-289.7296519538847
 21
-86.59049654586173
 31
0.0
  0
LINE
  5
370
330
1F
100
AcDbEntity
  8
6
  6
CENTERX2
 62
     3
370
    13
100
AcDbLine
 10
-295.9366781020337
 20
-64.62098000945431
 30
0.0
 11
-322.3783284926587
 21
-64.62096468662273
 31
0.0
  0
LINE
  5
371
330
1F
100
AcDbEntity
  8
6
  6
CENTERX2
 62
     3
370
    13
100
AcDbLine
 10
-219.2296604968053
 20
-93.02099290992314
 30
0.0
 11
-219.2296604968053
 21
-118.020977651134
 31
0.0
  0
LINE
  5
372
330
1F
100
AcDbEntity
  8
6
  6
CENTERX2
 62
     3
370
    13
100
AcDbLine
 10
-221.1773001288454
 20
-81.32099565113393
 30
0.0
 11
-216.3263290706525
 21
-81.32099565113393
 31
0.0
  0
LINE
  5
373
330
1F
100
AcDbEntity
  8
6
  6
CENTERX2
 62
     3
370
    13
100
AcDbLine
 10
-257.8722012001742
 20
-81.32099565113393
 30
0.0
 11
-253.5355870732271
 21
-81.32099565113393
 31
0.0
  0
LINE
  5
374
330
1F
100
AcDbEntity
  8
6
  6
CENTERX2
 62
     3
370
    13
100
AcDbLine
 10
-218.72941666868
 20
-79.16090566620645
 30
0.0
 11
-218.72941666868
 21
-83.66090566620645
 31
0.0
  0
LINE
  5
375
330
1F
100
AcDbEntity
  8
6
  6
CENTERX2
 62
     3
370
    13
100
AcDbLine
 10
-255.72941666868
 20
-79.12683574601854
 30
0.0
 11
-255.72941666868
 21
-83.62683574601854
 31
0.0
  0
LINE
  5
376
330
1F
100
AcDbEntity
  8
6
  6
Continuous
 62
     7
370
    13
100
AcDbLine
 10
323.1696316693681
 20
-77.82073664786768
 30
0.0
 11
321.969635669368
 21
-77.82073664786768
 31
0.0
  0
LINE
  5
377
330
1F
100
AcDbEntity
  8
6
  6
Continuous
 62
     7
370
    13
100
AcDbLine
 10
323.1696316693681
 20
-97.52073364786784
 30
0.0
 11
320.1696316693681
 21
-97.52073364786784
 31
0.0
  0
LINE
  5
378
330
1F
100
AcDbEntity
  8
6
  6
Continuous
 62
     7
370
    13
100
AcDbLine
 10
323.1696316693681
 20
-113.120739647868
 30
0.0
 11
320.1696316693681
 21
-113.120739647868
 31
0.0
  0
LINE
  5
379
330
1F
100
AcDbEntity
  8
6
  6
Continuous
 62
     7
370
    13
100
AcDbLine
 10
323.1696316693681
 20
-117.3207366478677
 30
0.0
 11
321.969635669368
 21
-117.3207366478677
 31
0.0
  0
LINE
  5
37A
330
1F
100
AcDbEntity
  8
6
  6
Continuous
 62
     7
370
    13
100
AcDbLine
 10
321.969635669368
 20
-114.3207366478677
 30
0.0
 11
320.1696316693681
 21
-114.3207366478677
 31
0.0
  0
LINE
  5
37B
330
1F
100
AcDbEntity
  8
6
  6
Continuous
 62
     7
370
    13
100
AcDbLine
 10
323.1696316693681
 20
-77.82073664786768
 30
0.0
 11
323.1696316693681
 21
-97.52073364786784
 31
0.0
  0
LINE
  5
37C
330
1F
100
AcDbEntity
  8
6
  6
Continuous
 62
     7
370
    13
100
AcDbLine
 10
321.969635669368
 20
-114.3207366478677
 30
0.0
 11
321.969635669368
 21
-117.3207366478677
 31
0.0
  0
LINE
  5
37D
330
1F
100
AcDbEntity
  8
6
  6
Continuous
 62
     7
370
    13
100
AcDbLine
 10
320.1696316693681
 20
-97.52073364786784
 30
0.0
 11
320.1696316693681
 21
-113.120739647868
 31
0.0
  0
LINE
  5
37E
330
1F
100
AcDbEntity
  8
6
  6
Continuous
 62
     7
370
    13
100
AcDbLine
 10
323.1696316693681
 20
-113.120739647868
 30
0.0
 11
323.1696316693681
 21
-117.3207366478677
 31
0.0
  0
LINE
  5
37F
330
1F
100
AcDbEntity
  8
6
  6
Continuous
 62
     7
370
    13
100
AcDbLine
 10
321.969635669368
 20
-77.82073664786768
 30
0.0
 11
321.969635669368
 21
-96.32073664786768
 31
0.0
  0
LINE
  5
380
330
1F
100
AcDbEntity
  8
6
  6
Continuous
 62
     7
370
    13
100
AcDbLine
 10
321.016882669368
 20
-103.9966106478677
 30
0.0
 11
320.169632669368
 21
-104.0707356478678
 31
0.0
  0
LINE
  5
381
330
1F
100
AcDbEntity
  8
6
  6
Continuous
 62
     7
370
    13
100
AcDbLine
 10
321.016882669368
 20
-98.64485864786766
 30
0.0
 11
320.169632669368
 21
-98.57073464786791
 31
0.0
  0
ARC
  5
382
330
1F
100
AcDbEntity
  8
6
  6
Continuous
 62
     7
370
    13
100
AcDbCircle
 10
315.1696316693681
 20
-101.3207366478677
 30
0.0
 40
7.0
100
AcDbArc
 50
343.7429840000001
 51
16.25703400000003
  0
ARC
  5
383
330
1F
100
AcDbEntity
  8
6
  6
Continuous
 62
     7
370
    13
100
AcDbCircle
 10
320.9297256693681
 20
-103.0004176478677
 30
0.0
 40
1.0
100
AcDbArc
 50
274.9999540000001
 51
343.742912
  0
ARC
  5
384
330
1F
100
AcDbEntity
  8
6
  6
Continuous
 62
     7
370
    13
100
AcDbCircle
 10
320.9297256693681
 20
-99.64105664786794
 30
0.0
 40
1.0
100
AcDbArc
 50
16.25708800000006
 51
85.00004600000005
  0
LINE
  5
385
330
1F
100
AcDbEntity
  8
6
  6
Continuous
 62
     7
370
    13
100
AcDbLine
 10
321.969635669368
 20
-96.32073664786768
 30
0.0
 11
318.9696326693679
 21
-96.32073664786768
 31
0.0
  0
ARC
  5
386
330
1F
100
AcDbEntity
  8
6
  6
Continuous
 62
     7
370
    13
100
AcDbCircle
 10
320.1696316693681
 20
-113.120739647868
 30
0.0
 40
1.2
100
AcDbArc
 50
250.528916
 51
269.999982
  0
CIRCLE
  5
387
330
1F
100
AcDbEntity
  8
6
  6
Continuous
 62
     7
370
    13
100
AcDbCircle
 10
-255.72941666868
 20
-81.32099565113393
 30
0.0
 40
1.6
  0
LINE
  5
388
330
1F
100
AcDbEntity
  8
6
  6
Continuous
 62
     7
370
    13
100
AcDbLine
 10
-259.72941666868
 20
-77.82099565113393
 30
0.0
 11
-259.72941666868
 21
-94.1774106511339
 31
0.0
  0
LINE
  5
389
330
1F
100
AcDbEntity
  8
6
  6
Continuous
 62
     7
370
    13
100
AcDbLine
 10
-251.22941666868
 20
-77.82099565113393
 30
0.0
 11
-259.72941666868
 21
-77.82099565113393
 31
0.0
  0
LINE
  5
38A
330
1F
100
AcDbEntity
  8
6
  6
Continuous
 62
     7
370
    13
100
AcDbLine
 10
-256.58116066868
 20
-95.02097265113392
 30
0.0
 11
-259.7294256686803
 21
-94.17739765113404
 31
0.0
  0
LINE
  5
38B
330
1F
100
AcDbEntity
  8
6
  6
Continuous
 62
     7
370
    13
100
AcDbLine
 10
-214.72941666868
 20
-77.82099565113393
 30
0.0
 11
-223.22941666868
 21
-77.82099565113393
 31
0.0
  0
CIRCLE
  5
38C
330
1F
100
AcDbEntity
  8
6
  6
Continuous
 62
     7
370
    13
100
AcDbCircle
 10
-218.72941666868
 20
-81.32099565113393
 30
0.0
 40
1.6
  0
LINE
  5
38D
330
1F
100
AcDbEntity
  8
6
  6
Continuous
 62
     7
370
    13
100
AcDbLine
 10
-214.72941666868
 20
-77.82099565113393
 30
0.0
 11
-214.72941666868
 21
-94.1774106511339
 31
0.0
  0
LINE
  5
38E
330
1F
100
AcDbEntity
  8
6
  6
Continuous
 62
     7
370
    13
100
AcDbLine
 10
-214.7294176686803
 20
-94.17740665113391
 30
0.0
 11
-217.8776966686803
 21
-95.020985651134
 31
0.0
  0
LINE
  5
38F
330
1F
100
AcDbEntity
  8
6
  6
CENTER
 62
     2
370
    18
100
AcDbLine
 10
-269.9296116686803
 20
-90.42095628882939
 30
0.0
 11
-269.9296116686803
 21
-92.22106615211064
 31
0.0
  0
LINE
  5
390
330
1F
100
AcDbEntity
  8
6
  6
PHANTOM
 62
   140
370
    13
100
AcDbLine
 10
-251.22941666868
 20
-77.82099565113393
 30
0.0
 11
-251.22941666868
 21
-90.32099565113393
 31
0.0
  0
LINE
  5
391
330
1F
100
AcDbEntity
  8
6
  6
PHANTOM
 62
   140
370
    13
100
AcDbLine
 10
-223.22941666868
 20
-90.32099565113393
 30
0.0
 11
-251.22941666868
 21
-90.32099565113393
 31
0.0
  0
LINE
  5
392
330
1F
100
AcDbEntity
  8
6
  6
PHANTOM
 62
   140
370
    13
100
AcDbLine
 10
-223.22941666868
 20
-77.82099565113393
 30
0.0
 11
-223.22941666868
 21
-90.32099565113393
 31
0.0
  0
LINE
  5
393
330
1F
100
AcDbEntity
  8
4
  6
CENTERX2
 62
     3
370
    13
100
AcDbLine
 10
-39.22941666867951
 20
31.68316425398135
 30
0.0
 11
-39.22941666867951
 21
16.68316425398135
 31
0.0
  0
LINE
  5
394
330
1F
100
AcDbEntity
  8
4
  6
CENTERX2
 62
     3
370
    13
100
AcDbLine
 10
-31.72941666867951
 20
24.18316425398135
 30
0.0
 11
-46.72941666867951
 21
24.18316425398135
 31
0.0
  0
LINE
  5
395
330
1F
100
AcDbEntity
  8
4
  6
CENTERX2
 62
     3
370
    13
100
AcDbLine
 10
-99.2294166686795
 20
70.68316425398135
 30
0.0
 11
-99.2294166686795
 21
-82.81683574601854
 31
0.0
  0
LINE
  5
396
330
1F
100
AcDbEntity
  8
4
  6
CENTERX2
 62
     3
370
    13
100
AcDbLine
 10
-21.22941666867951
 20
70.68316425398135
 30
0.0
 11
-21.22941666867951
 21
-82.81683574601854
 31
0.0
  0
LINE
  5
397
330
1F
100
AcDbEntity
  8
4
  6
CENTERX2
 62
     3
370
    13
100
AcDbLine
 10
-95.7294166686795
 20
40.0471636207416
 30
0.0
 11
-95.7294166686795
 21
26.31916488722109
 31
0.0
  0
LINE
  5
398
330
1F
100
AcDbEntity
  8
4
  6
CENTERX2
 62
     3
370
    13
100
AcDbLine
 10
-88.86541730191925
 20
33.18316425398135
 30
0.0
 11
-102.5934160354398
 21
33.18316425398135
 31
0.0
  0
LINE
  5
399
330
1F
100
AcDbEntity
  8
4
  6
CENTERX2
 62
     3
370
    13
100
AcDbLine
 10
-95.7294166686795
 20
-51.4528363792584
 30
0.0
 11
-95.7294166686795
 21
-65.18083511277891
 31
0.0
  0
LINE
  5
39A
330
1F
100
AcDbEntity
  8
4
  6
CENTERX2
 62
     3
370
    13
100
AcDbLine
 10
-88.86541730191925
 20
-58.31683574601854
 30
0.0
 11
-102.5934160354398
 21
-58.31683574601854
 31
0.0
  0
LINE
  5
39B
330
1F
100
AcDbEntity
  8
4
  6
CENTERX2
 62
     3
370
    13
100
AcDbLine
 10
-31.72941666867951
 20
-23.81683574601854
 30
0.0
 11
-46.72941666867951
 21
-23.81683574601854
 31
0.0
  0
LINE
  5
39C
330
1F
100
AcDbEntity
  8
4
  6
CENTERX2
 62
     3
370
    13
100
AcDbLine
 10
-39.22941666867951
 20
-16.31683574601854
 30
0.0
 11
-39.22941666867951
 21
-31.31683574601854
 31
0.0
  0
LINE
  5
39D
330
1F
100
AcDbEntity
  8
4
  6
CENTERX2
 62
     3
370
    13
100
AcDbLine
 10
-73.7294166686795
 20
-23.81683574601854
 30
0.0
 11
-88.7294166686795
 21
-23.81683574601854
 31
0.0
  0
LINE
  5
39E
330
1F
100
AcDbEntity
  8
4
  6
CENTERX2
 62
     3
370
    13
100
AcDbLine
 10
-81.2294166686795
 20
-16.31683574601854
 30
0.0
 11
-81.2294166686795
 21
-31.31683574601854
 31
0.0
  0
LINE
  5
39F
330
1F
100
AcDbEntity
  8
4
  6
CENTERX2
 62
     3
370
    13
100
AcDbLine
 10
-73.7294166686795
 20
24.18316425398135
 30
0.0
 11
-88.7294166686795
 21
24.18316425398135
 31
0.0
  0
LINE
  5
3A0
330
1F
100
AcDbEntity
  8
4
  6
CENTERX2
 62
     3
370
    13
100
AcDbLine
 10
-81.2294166686795
 20
31.68316425398135
 30
0.0
 11
-81.2294166686795
 21
16.68316425398135
 31
0.0
  0
LINE
  5
3A1
330
1F
100
AcDbEntity
  8
4
  6
CENTERX2
 62
     3
370
    13
100
AcDbLine
 10
-40.17941467998003
 20
-58.31683592601823
 30
0.0
 11
-31.27941517944987
 21
-58.31683592601823
 31
0.0
  0
LINE
  5
3A2
330
1F
100
AcDbEntity
  8
4
  6
CENTERX2
 62
     3
370
    13
100
AcDbLine
 10
-35.72941492971518
 20
-62.76683567628365
 30
0.0
 11
-35.72941492971518
 21
-53.86683617575338
 31
0.0
  0
LINE
  5
3A3
330
1F
100
AcDbEntity
  8
4
  6
CENTERX2
 62
     3
370
    13
100
AcDbLine
 10
-40.17941467998003
 20
32.6831645039812
 30
0.0
 11
-31.27941517944987
 21
32.6831645039812
 31
0.0
  0
LINE
  5
3A4
330
1F
100
AcDbEntity
  8
4
  6
CENTERX2
 62
     3
370
    13
100
AcDbLine
 10
-35.72941492971518
 20
28.2331647537159
 30
0.0
 11
-35.72941492971518
 21
37.13316425424628
 31
0.0
  0
LINE
  5
3A5
330
1F
100
AcDbEntity
  8
4
  6
CENTERX2
 62
     3
370
    13
100
AcDbLine
 10
355.6696316693688
 20
70.68316425398139
 30
0.0
 11
355.6696316693688
 21
-82.81683574601855
 31
0.0
  0
LINE
  5
3A6
330
1F
100
AcDbEntity
  8
4
  6
CENTERX2
 62
     3
370
    13
100
AcDbLine
 10
340.6696316693688
 20
40.04716362074163
 30
0.0
 11
340.6696316693688
 21
26.31916488722112
 31
0.0
  0
LINE
  5
3A7
330
1F
100
AcDbEntity
  8
4
  6
CENTERX2
 62
     3
370
    13
100
AcDbLine
 10
329.6696316693688
 20
33.18316425398137
 30
0.0
 11
347.533631036129
 21
33.18316425398137
 31
0.0
  0
LINE
  5
3A8
330
1F
100
AcDbEntity
  8
4
  6
CENTERX2
 62
     3
370
    13
100
AcDbLine
 10
329.6696316693688
 20
24.18316425398137
 30
0.0
 11
381.6696316693688
 21
24.18316425398137
 31
0.0
  0
LINE
  5
3A9
330
1F
100
AcDbEntity
  8
4
  6
CENTERX2
 62
     3
370
    13
100
AcDbLine
 10
329.6696316693688
 20
-23.81683574601863
 30
0.0
 11
381.6696316693688
 21
-23.81683574601863
 31
0.0
  0
LINE
  5
3AA
330
1F
100
AcDbEntity
  8
4
  6
CENTERX2
 62
     3
370
    13
100
AcDbLine
 10
329.6696316693688
 20
-58.31683574601857
 30
0.0
 11
343.3976304028893
 21
-58.31683574601857
 31
0.0
  0
LINE
  5
3AB
330
1F
100
AcDbEntity
  8
4
  6
CENTERX2
 62
     3
370
    13
100
AcDbLine
 10
340.6696316693688
 20
-29.45283637925837
 30
0.0
 11
340.6696316693688
 21
-43.18083511277894
 31
0.0
  0
LINE
  5
3AC
330
1F
100
AcDbEntity
  8
4
  6
CENTERX2
 62
     3
370
    13
100
AcDbLine
 10
333.8056323026085
 20
-36.31683574601857
 30
0.0
 11
347.533631036129
 21
-36.31683574601857
 31
0.0
  0
LINE
  5
3AD
330
1F
100
AcDbEntity
  8
4
  6
CENTERX2
 62
     3
370
    13
100
AcDbLine
 10
370.6699017010262
 20
71.10264253063154
 30
0.0
 11
370.6699017010262
 21
53.55485299409132
 31
0.0
  0
LINE
  5
3AE
330
1F
100
AcDbEntity
  8
4
  6
Continuous
 62
     7
370
    18
100
AcDbLine
 10
-4.229416668679505
 20
45.18316425398135
 30
0.0
 11
-116.2294166686795
 21
45.18316425398135
 31
0.0
  0
LINE
  5
3AF
330
1F
100
AcDbEntity
  8
4
  6
Continuous
 62
     7
370
    18
100
AcDbLine
 10
-4.229416668679505
 20
45.18316425398135
 30
0.0
 11
-4.229416668679505
 21
-67.31683574601854
 31
0.0
  0
LINE
  5
3B0
330
1F
100
AcDbEntity
  8
4
  6
Continuous
 62
     7
370
    18
100
AcDbLine
 10
-116.2294166686795
 20
45.18316425398135
 30
0.0
 11
-116.2294166686795
 21
-67.31683574601854
 31
0.0
  0
LINE
  5
3B1
330
1F
100
AcDbEntity
  8
4
  6
Continuous
 62
     7
370
    18
100
AcDbLine
 10
-4.229416668679505
 20
-67.31683574601854
 30
0.0
 11
-116.2294166686795
 21
-67.31683574601854
 31
0.0
  0
LINE
  5
3B2
330
1F
100
AcDbEntity
  8
4
  6
Continuous
 62
     7
370
    18
100
AcDbLine
 10
-5.229416668679505
 20
55.18316425398135
 30
0.0
 11
-115.2294166686795
 21
55.18316425398135
 31
0.0
  0
LINE
  5
3B3
330
1F
100
AcDbEntity
  8
4
  6
Continuous
 62
     7
370
    18
100
AcDbLine
 10
-5.229416668679505
 20
67.18316425398135
 30
0.0
 11
-115.2294166686795
 21
67.18316425398135
 31
0.0
  0
LINE
  5
3B4
330
1F
100
AcDbEntity
  8
4
  6
Continuous
 62
     7
370
    18
100
AcDbLine
 10
-5.229416668679505
 20
67.18316425398135
 30
0.0
 11
-5.229416668679505
 21
55.18316425398135
 31
0.0
  0
LINE
  5
3B5
330
1F
100
AcDbEntity
  8
4
  6
Continuous
 62
     7
370
    18
100
AcDbLine
 10
-115.2294166686795
 20
67.18316425398135
 30
0.0
 11
-115.2294166686795
 21
55.18316425398135
 31
0.0
  0
LINE
  5
3B6
330
1F
100
AcDbEntity
  8
4
  6
Continuous
 62
     7
370
    18
100
AcDbLine
 10
-11.22941666867951
 20
55.18316425398135
 30
0.0
 11
-11.22941666867951
 21
45.18316425398135
 31
0.0
  0
LINE
  5
3B7
330
1F
100
AcDbEntity
  8
4
  6
Continuous
 62
     7
370
    18
100
AcDbLine
 10
-31.22941666867951
 20
55.18316425398135
 30
0.0
 11
-31.22941666867951
 21
45.18316425398135
 31
0.0
  0
LINE
  5
3B8
330
1F
100
AcDbEntity
  8
4
  6
Continuous
 62
     7
370
    18
100
AcDbLine
 10
-89.2294166686795
 20
55.18316425398135
 30
0.0
 11
-89.2294166686795
 21
45.18316425398135
 31
0.0
  0
LINE
  5
3B9
330
1F
100
AcDbEntity
  8
4
  6
Continuous
 62
     7
370
    18
100
AcDbLine
 10
-109.2294166686795
 20
55.18316425398135
 30
0.0
 11
-109.2294166686795
 21
45.18316425398135
 31
0.0
  0
LINE
  5
3BA
330
1F
100
AcDbEntity
  8
4
  6
Continuous
 62
     7
370
    18
100
AcDbLine
 10
-68.2294166686795
 20
55.18316425398135
 30
0.0
 11
-68.2294166686795
 21
50.83316425398144
 31
0.0
  0
LINE
  5
3BB
330
1F
100
AcDbEntity
  8
4
  6
Continuous
 62
     7
370
    18
100
AcDbLine
 10
-52.22941666867951
 20
55.18316425398135
 30
0.0
 11
-52.22941666867951
 21
50.83316425398144
 31
0.0
  0
LINE
  5
3BC
330
1F
100
AcDbEntity
  8
4
  6
Continuous
 62
     7
370
    18
100
AcDbLine
 10
-77.28361556796176
 20
-27.6483698609097
 30
0.0
 11
-77.28361556796176
 21
-67.31683574601854
 31
0.0
  0
LINE
  5
3BD
330
1F
100
AcDbEntity
  8
4
  6
Continuous
 62
     7
370
    18
100
AcDbLine
 10
-76.12892196444614
 20
-25.87473607695969
 30
0.0
 11
-76.12892196444614
 21
-67.31683574601854
 31
0.0
  0
LINE
  5
3BE
330
1F
100
AcDbEntity
  8
4
  6
Continuous
 62
     7
370
    18
100
AcDbLine
 10
-74.65431258944614
 20
45.18316425398135
 30
0.0
 11
-74.65431258944614
 21
-67.31683574601854
 31
0.0
  0
LINE
  5
3BF
330
1F
100
AcDbEntity
  8
4
  6
Continuous
 62
     7
370
    18
100
AcDbLine
 10
-69.60353149460548
 20
45.18316425398135
 30
0.0
 11
-69.60353149460548
 21
-67.31683574601854
 31
0.0
  0
LINE
  5
3C0
330
1F
100
AcDbEntity
  8
4
  6
Continuous
 62
     7
370
    18
100
AcDbLine
 10
-67.42941345261329
 20
45.18316425398135
 30
0.0
 11
-67.42941345261329
 21
-67.31683574601854
 31
0.0
  0
LINE
  5
3C1
330
1F
100
AcDbEntity
  8
4
  6
Continuous
 62
     7
370
    18
100
AcDbLine
 10
-53.02941748040189
 20
45.18316425398135
 30
0.0
 11
-53.02941748040189
 21
-67.31683574601854
 31
0.0
  0
LINE
  5
3C2
330
1F
100
AcDbEntity
  8
4
  6
Continuous
 62
     7
370
    18
100
AcDbLine
 10
-50.8552994384097
 20
45.18316425398135
 30
0.0
 11
-50.8552994384097
 21
-67.31683574601854
 31
0.0
  0
LINE
  5
3C3
330
1F
100
AcDbEntity
  8
4
  6
Continuous
 62
     7
370
    18
100
AcDbLine
 10
-45.80451949649364
 20
45.18316425398135
 30
0.0
 11
-45.80451949649364
 21
-67.31683574601854
 31
0.0
  0
LINE
  5
3C4
330
1F
100
AcDbEntity
  8
4
  6
Continuous
 62
     7
370
    18
100
AcDbLine
 10
-44.32992738101143
 20
-25.8746964005297
 30
0.0
 11
-44.32992738101143
 21
-67.31683574601854
 31
0.0
  0
LINE
  5
3C5
330
1F
100
AcDbEntity
  8
4
  6
Continuous
 62
     7
370
    18
100
AcDbLine
 10
-43.17522565641343
 20
-27.64836173866419
 30
0.0
 11
-43.17522565641343
 21
-67.31683574601854
 31
0.0
  0
LINE
  5
3C6
330
1F
100
AcDbEntity
  8
4
  6
Continuous
 62
     7
370
    18
100
AcDbLine
 10
-32.72946403139599
 20
45.18316425398135
 30
0.0
 11
-32.72946403139599
 21
-67.31683574601854
 31
0.0
  0
LINE
  5
3C7
330
1F
100
AcDbEntity
  8
4
  6
Continuous
 62
     7
370
    18
100
AcDbLine
 10
-30.54555059684594
 20
45.18316425398135
 30
0.0
 11
-30.54555059684594
 21
-67.31683574601854
 31
0.0
  0
LINE
  5
3C8
330
1F
100
AcDbEntity
  8
4
  6
Continuous
 62
     7
370
    18
100
AcDbLine
 10
-17.413322135719
 20
45.18316425398135
 30
0.0
 11
-17.413322135719
 21
-67.31683574601854
 31
0.0
  0
LINE
  5
3C9
330
1F
100
AcDbEntity
  8
4
  6
Continuous
 62
     7
370
    18
100
AcDbLine
 10
-15.22940623825366
 20
45.18316425398135
 30
0.0
 11
-15.22940623825366
 21
-67.31683574601854
 31
0.0
  0
LINE
  5
3CA
330
1F
100
AcDbEntity
  8
4
  6
Continuous
 62
     7
370
    18
100
AcDbLine
 10
-77.28361556796176
 20
45.18316425398135
 30
0.0
 11
-77.28361556796176
 21
28.0146983688725
 31
0.0
  0
LINE
  5
3CB
330
1F
100
AcDbEntity
  8
4
  6
Continuous
 62
     7
370
    18
100
AcDbLine
 10
-76.12892196444614
 20
45.18316425398135
 30
0.0
 11
-76.12892196444614
 21
26.24106458492261
 31
0.0
  0
LINE
  5
3CC
330
1F
100
AcDbEntity
  8
4
  6
Continuous
 62
     7
370
    18
100
AcDbLine
 10
-77.28361556796176
 20
20.35163013909019
 30
0.0
 11
-77.28361556796176
 21
-19.98530163112738
 31
0.0
  0
LINE
  5
3CD
330
1F
100
AcDbEntity
  8
4
  6
Continuous
 62
     7
370
    18
100
AcDbLine
 10
-76.12892196444614
 20
22.12526392304008
 30
0.0
 11
-76.12892196444614
 21
-21.75893541507739
 31
0.0
  0
LINE
  5
3CE
330
1F
100
AcDbEntity
  8
4
  6
Continuous
 62
     7
370
    18
100
AcDbLine
 10
-43.17522565641343
 20
20.35163826133581
 30
0.0
 11
-43.17522565641343
 21
-19.985309753373
 31
0.0
  0
LINE
  5
3CF
330
1F
100
AcDbEntity
  8
4
  6
Continuous
 62
     7
370
    18
100
AcDbLine
 10
-44.32992738101143
 20
22.12530359947019
 30
0.0
 11
-44.32992738101143
 21
-21.75897509150749
 31
0.0
  0
LINE
  5
3D0
330
1F
100
AcDbEntity
  8
4
  6
Continuous
 62
     7
370
    18
100
AcDbLine
 10
-44.32992738101143
 20
45.18316425398135
 30
0.0
 11
-44.32992738101143
 21
26.24102490849251
 31
0.0
  0
LINE
  5
3D1
330
1F
100
AcDbEntity
  8
4
  6
Continuous
 62
     7
370
    18
100
AcDbLine
 10
-43.17522565641343
 20
45.18316425398135
 30
0.0
 11
-43.17522565641343
 21
28.01469024662688
 31
0.0
  0
LINE
  5
3D2
330
1F
100
AcDbEntity
  8
4
  6
Continuous
 62
     7
370
    18
100
AcDbLine
 10
-49.22941666867951
 20
50.83316425398144
 30
0.0
 11
-71.2294166686795
 21
50.83316425398144
 31
0.0
  0
LINE
  5
3D3
330
1F
100
AcDbEntity
  8
4
  6
Continuous
 62
     7
370
    18
100
AcDbLine
 10
-49.22941666867951
 20
50.83316425398144
 30
0.0
 11
-49.22941666867951
 21
45.18316425398135
 31
0.0
  0
LINE
  5
3D4
330
1F
100
AcDbEntity
  8
4
  6
Continuous
 62
     7
370
    18
100
AcDbLine
 10
-71.2294166686795
 20
50.83316425398144
 30
0.0
 11
-71.2294166686795
 21
45.18316425398135
 31
0.0
  0
CIRCLE
  5
3D5
330
1F
100
AcDbEntity
  8
4
  6
Continuous
 62
     7
370
    18
100
AcDbCircle
 10
-81.2294166686795
 20
24.18316425398135
 30
0.0
 40
3.299999237060546
  0
CIRCLE
  5
3D6
330
1F
100
AcDbEntity
  8
4
  6
Continuous
 62
     7
370
    18
100
AcDbCircle
 10
-81.2294166686795
 20
24.18316425398135
 30
0.0
 40
5.5
  0
CIRCLE
  5
3D7
330
1F
100
AcDbEntity
  8
4
  6
Continuous
 62
     7
370
    18
100
AcDbCircle
 10
-81.2294166686795
 20
-23.81683574601854
 30
0.0
 40
3.299999237060546
  0
CIRCLE
  5
3D8
330
1F
100
AcDbEntity
  8
4
  6
Continuous
 62
     7
370
    18
100
AcDbCircle
 10
-81.2294166686795
 20
-23.81683574601854
 30
0.0
 40
5.5
  0
CIRCLE
  5
3D9
330
1F
100
AcDbEntity
  8
4
  6
Continuous
 62
     7
370
    18
100
AcDbCircle
 10
-39.22941666867951
 20
24.18316425398135
 30
0.0
 40
3.299999237060546
  0
CIRCLE
  5
3DA
330
1F
100
AcDbEntity
  8
4
  6
Continuous
 62
     7
370
    18
100
AcDbCircle
 10
-39.22941666867951
 20
24.18316425398135
 30
0.0
 40
5.5
  0
CIRCLE
  5
3DB
330
1F
100
AcDbEntity
  8
4
  6
Continuous
 62
     7
370
    18
100
AcDbCircle
 10
-39.22941666867951
 20
-23.81683574601854
 30
0.0
 40
3.299999237060546
  0
CIRCLE
  5
3DC
330
1F
100
AcDbEntity
  8
4
  6
Continuous
 62
     7
370
    18
100
AcDbCircle
 10
-39.22941666867951
 20
-23.81683574601854
 30
0.0
 40
5.5
  0
ARC
  5
3DD
330
1F
100
AcDbEntity
  8
4
  6
Continuous
 62
     7
370
    18
100
AcDbCircle
 10
-95.7294166686795
 20
-58.31683574601854
 30
0.0
 40
4.863999366760253
100
AcDbArc
 50
344.9999999999995
 51
255.0000000000011
  0
ARC
  5
3DE
330
1F
100
AcDbEntity
  8
4
  6
Continuous
 62
     7
370
    18
100
AcDbCircle
 10
-95.7294166686795
 20
33.18316425398135
 30
0.0
 40
4.863999366760253
100
AcDbArc
 50
345.0000000000002
 51
255.0000000000008
  0
CIRCLE
  5
3DF
330
1F
100
AcDbEntity
  8
4
  6
Continuous
 62
     7
370
    18
100
AcDbCircle
 10
-95.7294166686795
 20
33.18316425398135
 30
0.0
 40
4.282499313354491
  0
CIRCLE
  5
3E0
330
1F
100
AcDbEntity
  8
4
  6
Continuous
 62
     7
370
    18
100
AcDbCircle
 10
-95.7294166686795
 20
-58.31683574601854
 30
0.0
 40
4.282499313354491
  0
CIRCLE
  5
3E1
330
1F
100
AcDbEntity
  8
4
  6
Continuous
 62
     7
370
    18
100
AcDbCircle
 10
-35.72941492971518
 20
-58.31683592601846
 30
0.0
 40
2.949999750265139
  0
CIRCLE
  5
3E2
330
1F
100
AcDbEntity
  8
4
  6
Continuous
 62
     7
370
    18
100
AcDbCircle
 10
-35.72941492971518
 20
32.6831645039812
 30
0.0
 40
2.949999750265139
  0
LINE
  5
3E3
330
1F
100
AcDbEntity
  8
4
  6
Continuous
 62
     7
370
    18
100
AcDbLine
 10
333.6696316693688
 20
67.18316425398139
 30
0.0
 11
377.6696316693688
 21
67.18316425398139
 31
0.0
  0
LINE
  5
3E4
330
1F
100
AcDbEntity
  8
4
  6
Continuous
 62
     7
370
    18
100
AcDbLine
 10
333.6696316693688
 20
55.18316425398139
 30
0.0
 11
377.6696316693688
 21
55.18316425398139
 31
0.0
  0
LINE
  5
3E5
330
1F
100
AcDbEntity
  8
4
  6
Continuous
 62
     7
370
    18
100
AcDbLine
 10
331.6696316693688
 20
45.18316425398137
 30
0.0
 11
379.6696316693688
 21
45.18316425398137
 31
0.0
  0
LINE
  5
3E6
330
1F
100
AcDbEntity
  8
4
  6
Continuous
 62
     7
370
    18
100
AcDbLine
 10
331.6696316693688
 20
-67.31683574601857
 30
0.0
 11
379.6696316693688
 21
-67.31683574601857
 31
0.0
  0
LINE
  5
3E7
330
1F
100
AcDbEntity
  8
4
  6
Continuous
 62
     7
370
    18
100
AcDbLine
 10
331.6696316693688
 20
45.18316425398137
 30
0.0
 11
331.6696316693688
 21
-67.31683574601857
 31
0.0
  0
LINE
  5
3E8
330
1F
100
AcDbEntity
  8
4
  6
Continuous
 62
     7
370
    18
100
AcDbLine
 10
379.6696316693688
 20
45.18316425398137
 30
0.0
 11
379.6696316693688
 21
-67.31683574601857
 31
0.0
  0
LINE
  5
3E9
330
1F
100
AcDbEntity
  8
4
  6
Continuous
 62
     7
370
    18
100
AcDbLine
 10
345.6696316693688
 20
55.18316425398139
 30
0.0
 11
345.6696316693688
 21
45.18316425398137
 31
0.0
  0
LINE
  5
3EA
330
1F
100
AcDbEntity
  8
4
  6
Continuous
 62
     7
370
    18
100
AcDbLine
 10
365.6696316693688
 20
55.18316425398139
 30
0.0
 11
365.6696316693688
 21
45.18316425398137
 31
0.0
  0
LINE
  5
3EB
330
1F
100
AcDbEntity
  8
4
  6
Continuous
 62
     7
370
    18
100
AcDbLine
 10
333.6696316693688
 20
67.18316425398139
 30
0.0
 11
333.6696316693688
 21
55.18316425398139
 31
0.0
  0
LINE
  5
3EC
330
1F
100
AcDbEntity
  8
4
  6
Continuous
 62
     7
370
    18
100
AcDbLine
 10
377.6696316693688
 20
67.18316425398139
 30
0.0
 11
377.6696316693688
 21
55.18316425398139
 31
0.0
  0
LINE
  5
3ED
330
1F
100
AcDbEntity
  8
4
  6
Continuous
 62
     7
370
    18
100
AcDbLine
 10
368.1692982429036
 20
45.18316425398137
 30
0.0
 11
368.1692982429036
 21
-67.31683574601857
 31
0.0
  0
LINE
  5
3EE
330
1F
100
AcDbEntity
  8
4
  6
Continuous
 62
     7
370
    18
100
AcDbLine
 10
367.0773874737251
 20
45.18316425398137
 30
0.0
 11
367.0773874737251
 21
-67.31683574601857
 31
0.0
  0
LINE
  5
3EF
330
1F
100
AcDbEntity
  8
4
  6
Continuous
 62
     7
370
    18
100
AcDbLine
 10
364.4012564094978
 20
45.18316425398137
 30
0.0
 11
364.4012564094978
 21
-67.31683574601857
 31
0.0
  0
LINE
  5
3F0
330
1F
100
AcDbEntity
  8
4
  6
Continuous
 62
     7
370
    18
100
AcDbLine
 10
355.1691231775928
 20
45.18316425398137
 30
0.0
 11
355.1691231775926
 21
-67.31683574601857
 31
0.0
  0
LINE
  5
3F1
330
1F
100
AcDbEntity
  8
4
  6
Continuous
 62
     7
370
    18
100
AcDbLine
 10
366.6696316693688
 20
50.83316425398147
 30
0.0
 11
366.6696316693688
 21
45.18316425398137
 31
0.0
  0
LINE
  5
3F2
330
1F
100
AcDbEntity
  8
4
  6
Continuous
 62
     7
370
    18
100
AcDbLine
 10
365.6696316693688
 20
50.83316425398147
 30
0.0
 11
366.6696316693688
 21
50.83316425398147
 31
0.0
  0
LINE
  5
3F3
330
1F
100
AcDbEntity
  8
4
  6
Continuous
 62
     7
370
    18
100
AcDbLine
 10
344.6696316693688
 20
50.83316425398147
 30
0.0
 11
344.6696316693688
 21
45.18316425398137
 31
0.0
  0
LINE
  5
3F4
330
1F
100
AcDbEntity
  8
4
  6
Continuous
 62
     7
370
    18
100
AcDbLine
 10
344.6696316693688
 20
50.83316425398147
 30
0.0
 11
345.6696316693688
 21
50.83316425398147
 31
0.0
  0
ARC
  5
3F5
330
1F
100
AcDbEntity
  8
4
  6
Continuous
 62
     7
370
    18
100
AcDbCircle
 10
340.6696316693688
 20
33.18316425398137
 30
0.0
 40
4.863999366760253
100
AcDbArc
 50
284.9999999999991
 51
194.9999999999999
  0
ARC
  5
3F6
330
1F
100
AcDbEntity
  8
4
  6
Continuous
 62
     7
370
    18
100
AcDbCircle
 10
340.6696316693688
 20
-36.31683574601857
 30
0.0
 40
4.863999366760253
100
AcDbArc
 50
284.999999999999
 51
195.0000000000005
  0
CIRCLE
  5
3F7
330
1F
100
AcDbEntity
  8
4
  6
Continuous
 62
     7
370
    18
100
AcDbCircle
 10
340.6696316693688
 20
-36.31683574601857
 30
0.0
 40
4.282499313354491
  0
CIRCLE
  5
3F8
330
1F
100
AcDbEntity
  8
4
  6
Continuous
 62
     7
370
    18
100
AcDbCircle
 10
340.6696316693688
 20
33.18316425398137
 30
0.0
 40
4.282499313354491
  0
LINE
  5
3F9
330
1F
100
AcDbEntity
  8
4
  6
PHANTOM
 62
    91
370
    13
100
AcDbLine
 10
-69.62941380765665
 20
29.18316425398135
 30
0.0
 11
-74.62941380765665
 21
29.18316425398135
 31
0.0
  0
LINE
  5
3FA
330
1F
100
AcDbEntity
  8
4
  6
PHANTOM
 62
    91
370
    13
100
AcDbLine
 10
-69.62941380765665
 20
-1.31683574601854
 30
0.0
 11
-74.62941380765665
 21
-1.31683574601854
 31
0.0
  0
LINE
  5
3FB
330
1F
100
AcDbEntity
  8
4
  6
PHANTOM
 62
    91
370
    13
100
AcDbLine
 10
-71.22941514280069
 20
12.68316425398135
 30
0.0
 11
-71.22941514280069
 21
10.88316120222365
 31
0.0
  0
LINE
  5
3FC
330
1F
100
AcDbEntity
  8
4
  6
PHANTOM
 62
    91
370
    13
100
AcDbLine
 10
-71.22941514280069
 20
12.68316425398135
 30
0.0
 11
-73.0294181945585
 21
12.68316425398135
 31
0.0
  0
LINE
  5
3FD
330
1F
100
AcDbEntity
  8
4
  6
PHANTOM
 62
    91
370
    13
100
AcDbLine
 10
-73.0294181945585
 20
12.68316425398135
 30
0.0
 11
-73.0294181945585
 21
10.88316120222365
 31
0.0
  0
LINE
  5
3FE
330
1F
100
AcDbEntity
  8
4
  6
PHANTOM
 62
    91
370
    13
100
AcDbLine
 10
-71.22941514280069
 20
10.88316120222365
 30
0.0
 11
-73.0294181945585
 21
10.88316120222365
 31
0.0
  0
LINE
  5
3FF
330
1F
100
AcDbEntity
  8
4
  6
PHANTOM
 62
    91
370
    13
100
AcDbLine
 10
-70.77941666867923
 20
-1.31683574601854
 30
0.0
 11
-70.77941666867923
 21
-4.31683574601854
 31
0.0
  0
LINE
  5
400
330
1F
100
AcDbEntity
  8
4
  6
PHANTOM
 62
    91
370
    13
100
AcDbLine
 10
-73.4794166686795
 20
-1.31683574601854
 30
0.0
 11
-73.4794166686795
 21
-4.31683574601854
 31
0.0
  0
LINE
  5
401
330
1F
100
AcDbEntity
  8
4
  6
PHANTOM
 62
    91
370
    13
100
AcDbLine
 10
-50.82941952970236
 20
-45.81683574601854
 30
0.0
 11
-45.82941952970236
 21
-45.81683574601854
 31
0.0
  0
LINE
  5
402
330
1F
100
AcDbEntity
  8
4
  6
PHANTOM
 62
    91
370
    13
100
AcDbLine
 10
-50.82941952970236
 20
-15.31683574601854
 30
0.0
 11
-45.82941952970236
 21
-15.31683574601854
 31
0.0
  0
LINE
  5
403
330
1F
100
AcDbEntity
  8
4
  6
PHANTOM
 62
    91
370
    13
100
AcDbLine
 10
-49.22941819455832
 20
-29.31683574601854
 30
0.0
 11
-49.22941819455832
 21
-27.51683269426073
 31
0.0
  0
LINE
  5
404
330
1F
100
AcDbEntity
  8
4
  6
PHANTOM
 62
    91
370
    13
100
AcDbLine
 10
-49.22941819455832
 20
-29.31683574601854
 30
0.0
 11
-47.42941514280051
 21
-29.31683574601854
 31
0.0
  0
LINE
  5
405
330
1F
100
AcDbEntity
  8
4
  6
PHANTOM
 62
    91
370
    13
100
AcDbLine
 10
-47.42941514280051
 20
-29.31683574601854
 30
0.0
 11
-47.42941514280051
 21
-27.51683269426073
 31
0.0
  0
LINE
  5
406
330
1F
100
AcDbEntity
  8
4
  6
PHANTOM
 62
    91
370
    13
100
AcDbLine
 10
-49.22941819455832
 20
-27.51683269426073
 30
0.0
 11
-47.42941514280051
 21
-27.51683269426073
 31
0.0
  0
LINE
  5
407
330
1F
100
AcDbEntity
  8
4
  6
PHANTOM
 62
    91
370
    13
100
AcDbLine
 10
-49.67941666867932
 20
-15.31683574601854
 30
0.0
 11
-49.67941666867932
 21
-12.31683574601854
 31
0.0
  0
LINE
  5
408
330
1F
100
AcDbEntity
  8
4
  6
PHANTOM
 62
    91
370
    13
100
AcDbLine
 10
-46.97941666867951
 20
-15.31683574601854
 30
0.0
 11
-46.97941666867951
 21
-12.31683574601854
 31
0.0
  0
LINE
  5
409
330
1F
100
AcDbEntity
  8
4
  6
PHANTOM
 62
    91
370
    13
100
AcDbLine
 10
-45.82941952970236
 20
-15.31683574601854
 30
0.0
 11
-45.82941952970236
 21
-45.81683574601854
 31
0.0
  0
LINE
  5
40A
330
1F
100
AcDbEntity
  8
4
  6
PHANTOM
 62
    91
370
    13
100
AcDbLine
 10
-50.82941952970236
 20
-15.31683574601854
 30
0.0
 11
-50.82941952970236
 21
-45.81683574601854
 31
0.0
  0
LINE
  5
40B
330
1F
100
AcDbEntity
  8
4
  6
PHANTOM
 62
    91
370
    13
100
AcDbLine
 10
-69.62941380765665
 20
29.18316425398135
 30
0.0
 11
-69.62941380765665
 21
-1.31683574601854
 31
0.0
  0
LINE
  5
40C
330
1F
100
AcDbEntity
  8
4
  6
PHANTOM
 62
    91
370
    13
100
AcDbLine
 10
-74.62941380765665
 20
29.18316425398135
 30
0.0
 11
-74.62941380765665
 21
-1.31683574601854
 31
0.0
  0
LINE
  5
40D
330
1F
100
AcDbEntity
  8
4
  6
PHANTOM
 62
    91
370
    13
100
AcDbLine
 10
-69.62941380765665
 20
24.58318866804385
 30
0.0
 11
-74.62941380765665
 21
24.58318866804385
 31
0.0
  0
LINE
  5
40E
330
1F
100
AcDbEntity
  8
4
  6
PHANTOM
 62
    91
370
    13
100
AcDbLine
 10
-70.12941380765665
 20
23.68316425398135
 30
0.0
 11
-70.12941380765665
 21
0.6831642539814595
 31
0.0
  0
LINE
  5
40F
330
1F
100
AcDbEntity
  8
4
  6
PHANTOM
 62
    91
370
    13
100
AcDbLine
 10
-74.12941380765665
 20
23.68316425398135
 30
0.0
 11
-74.12941380765665
 21
0.6831642539814595
 31
0.0
  0
LINE
  5
410
330
1F
100
AcDbEntity
  8
4
  6
PHANTOM
 62
    91
370
    13
100
AcDbLine
 10
-70.12941380765665
 20
0.6831642539814595
 30
0.0
 11
-74.12941380765665
 21
0.6831642539814595
 31
0.0
  0
LINE
  5
411
330
1F
100
AcDbEntity
  8
4
  6
PHANTOM
 62
    91
370
    13
100
AcDbLine
 10
-70.12941380765665
 20
23.68316425398135
 30
0.0
 11
-74.12941380765665
 21
23.68316425398135
 31
0.0
  0
LINE
  5
412
330
1F
100
AcDbEntity
  8
4
  6
PHANTOM
 62
    91
370
    13
100
AcDbLine
 10
-45.82941952970236
 20
-41.21686016008104
 30
0.0
 11
-50.82941952970236
 21
-41.21686016008104
 31
0.0
  0
LINE
  5
413
330
1F
100
AcDbEntity
  8
4
  6
PHANTOM
 62
    91
370
    13
100
AcDbLine
 10
-46.32941952970236
 20
-40.31683574601854
 30
0.0
 11
-46.32941952970236
 21
-17.31683574601854
 31
0.0
  0
LINE
  5
414
330
1F
100
AcDbEntity
  8
4
  6
PHANTOM
 62
    91
370
    13
100
AcDbLine
 10
-50.32941952970236
 20
-40.31683574601854
 30
0.0
 11
-50.32941952970236
 21
-17.31683574601854
 31
0.0
  0
LINE
  5
415
330
1F
100
AcDbEntity
  8
4
  6
PHANTOM
 62
    91
370
    13
100
AcDbLine
 10
-46.32941952970236
 20
-17.31683574601854
 30
0.0
 11
-50.32941952970236
 21
-17.31683574601854
 31
0.0
  0
LINE
  5
416
330
1F
100
AcDbEntity
  8
4
  6
PHANTOM
 62
    91
370
    13
100
AcDbLine
 10
-46.32941952970236
 20
-40.31683574601854
 30
0.0
 11
-50.32941952970236
 21
-40.31683574601854
 31
0.0
  0
CIRCLE
  5
417
330
1F
100
AcDbEntity
  8
4
  6
PHANTOM
 62
    91
370
    13
100
AcDbCircle
 10
-72.1294166686796
 20
26.88316120222353
 30
0.0
 40
1.25
  0
CIRCLE
  5
418
330
1F
100
AcDbEntity
  8
4
  6
PHANTOM
 62
    91
370
    13
100
AcDbCircle
 10
-48.32941666867941
 20
-43.51683269426073
 30
0.0
 40
1.25
  0
LINE
  5
419
330
1F
100
AcDbEntity
  8
10
  6
Continuous
 62
     7
370
    13
100
AcDbLine
 10
203.2705833313228
 20
41.68316425398318
 30
0.0
 11
198.2705833313228
 21
41.68316425398318
 31
0.0
  0
LINE
  5
41A
330
1F
100
AcDbEntity
  8
10
  6
Continuous
 62
     7
370
    13
100
AcDbLine
 10
-351.7294166686791
 20
41.68316425398318
 30
0.0
 11
-356.7294166686791
 21
41.68316425398318
 31
0.0
  0
LINE
  5
41B
330
1F
100
AcDbEntity
  8
10
  6
Continuous
 62
     7
370
    13
100
AcDbLine
 10
-351.7294166686791
 20
53.68316425398318
 30
0.0
 11
-326.7294166686791
 21
53.68316425398318
 31
0.0
  0
LINE
  5
41C
330
1F
100
AcDbEntity
  8
10
  6
Continuous
 62
     7
370
    13
100
AcDbLine
 10
-326.7294166686791
 20
41.68316425398318
 30
0.0
 11
-351.7294166686791
 21
41.68316425398318
 31
0.0
  0
LINE
  5
41D
330
1F
100
AcDbEntity
  8
10
  6
Continuous
 62
     7
370
    13
100
AcDbLine
 10
-351.7294166686791
 20
41.68316425398318
 30
0.0
 11
-351.7294166686791
 21
53.68316425398318
 31
0.0
  0
LINE
  5
41E
330
1F
100
AcDbEntity
  8
10
  6
Continuous
 62
     7
370
    13
100
AcDbLine
 10
-326.7294166686791
 20
53.68316425398318
 30
0.0
 11
-326.7294166686791
 21
41.68316425398318
 31
0.0
  0
LINE
  5
41F
330
1F
100
AcDbEntity
  8
10
  6
Continuous
 62
     7
370
    13
100
AcDbLine
 10
189.7705833313205
 20
133.1831642539833
 30
0.0
 11
189.7705833313205
 21
150.1831642539835
 31
0.0
  0
LINE
  5
420
330
1F
100
AcDbEntity
  8
10
  6
Continuous
 62
     7
370
    13
100
AcDbLine
 10
190.2705833313223
 20
145.1831642539833
 30
0.0
 11
189.7705833313205
 21
145.6831642539835
 31
0.0
  0
LINE
  5
421
330
1F
100
AcDbEntity
  8
10
  6
Continuous
 62
     7
370
    13
100
AcDbLine
 10
190.2705833313205
 20
138.1831642539833
 30
0.0
 11
189.7705833313205
 21
137.6831642539833
 31
0.0
  0
LINE
  5
422
330
1F
100
AcDbEntity
  8
10
  6
Continuous
 62
     7
370
    13
100
AcDbLine
 10
190.2705833313223
 20
141.6831642539833
 30
0.0
 11
190.2705833313223
 21
136.7841847684144
 31
0.0
  0
LINE
  5
423
330
1F
100
AcDbEntity
  8
10
  6
Continuous
 62
     7
370
    13
100
AcDbLine
 10
198.2705833313228
 20
53.68316425398318
 30
0.0
 11
173.2705833313228
 21
53.68316425398318
 31
0.0
  0
LINE
  5
424
330
1F
100
AcDbEntity
  8
10
  6
Continuous
 62
     7
370
    13
100
AcDbLine
 10
173.2705833313228
 20
41.68316425398318
 30
0.0
 11
198.2705833313228
 21
41.68316425398318
 31
0.0
  0
LINE
  5
425
330
1F
100
AcDbEntity
  8
10
  6
Continuous
 62
     7
370
    13
100
AcDbLine
 10
198.2705833313228
 20
41.68316425398318
 30
0.0
 11
198.2705833313228
 21
53.68316425398318
 31
0.0
  0
LINE
  5
426
330
1F
100
AcDbEntity
  8
10
  6
Continuous
 62
     7
370
    13
100
AcDbLine
 10
173.2705833313228
 20
53.68316425398318
 30
0.0
 11
173.2705833313228
 21
41.68316425398318
 31
0.0
  0
CIRCLE
  5
427
330
1F
100
AcDbEntity
  8
10
  6
PHANTOM
 62
   140
370
    13
100
AcDbCircle
 10
308.6696316693713
 20
141.6831642539832
 30
0.0
 40
9.000000000000341
  0
CIRCLE
  5
428
330
1F
100
AcDbEntity
  8
10
  6
PHANTOM
 62
   140
370
    13
100
AcDbCircle
 10
328.6696316693713
 20
141.6831642539823
 30
0.0
 40
9.000000000001222
  0
CIRCLE
  5
429
330
1F
100
AcDbEntity
  8
10
  6
PHANTOM
 62
   140
370
    13
100
AcDbCircle
 10
388.6696316693714
 20
141.6831642539833
 30
0.0
 40
9.000000000000256
  0
CIRCLE
  5
42A
330
1F
100
AcDbEntity
  8
10
  6
PHANTOM
 62
   140
370
    13
100
AcDbCircle
 10
408.6696316693714
 20
141.6831642539832
 30
0.0
 40
9.000000000000341
  0
CIRCLE
  5
42B
330
1F
100
AcDbEntity
  8
10
  6
PHANTOM
 62
   140
370
    13
100
AcDbCircle
 10
348.6696316693713
 20
141.6831642539832
 30
0.0
 40
4.000000000000341
  0
CIRCLE
  5
42C
330
1F
100
AcDbEntity
  8
10
  6
PHANTOM
 62
   140
370
    13
100
AcDbCircle
 10
368.6696316693713
 20
141.6831642539832
 30
0.0
 40
4.000000000000341
  0
LINE
  5
42D
330
1F
100
AcDbEntity
  8
2
  6
DASHED2
 62
     4
370
    13
100
AcDbLine
 10
-325.7294166686788
 20
-71.31683574601777
 30
0.0
 11
-319.8295042478887
 21
-71.31683574601779
 31
0.0
  0
DIMENSION
  5
42E
330
1F
100
AcDbEntity
  8
0
  6
Continuous
370
    13
100
AcDbDimension
280
     0
  2
*D1
 10
139.7705833313205
 20
222.6831642539815
 30
0.0
 11
-60.22941666867928
 21
222.6831642539815
 31
0.0
 70
   160
  1
ストッパ幅＝呼び幅-100
 71
     8
 42
-1.0
 73
     0
 74
     0
 75
     0
  3
dc_Rotated
100
AcDbAlignedDimension
 13
-260.2294166686791
 23
188.6831642539815
 33
0.0
 14
139.7705833313205
 24
188.6831642539816
 34
0.0
100
AcDbRotatedDimension
1001
ACAD
1000
DSTYLE
1002
{
1070
   144
1040
1.0
1070
   274
1070
     4
1070
    41
1040
9.000005722045898
1070
    79
1070
     2
1070
   343
1005
109
1070
   344
1005
109
1070
   176
1070
     2
1070
   177
1070
     2
1070
   178
1070
     4
1070
   271
1070
     2
1070
    44
1040
2.5
1070
    42
1040
3.0
1070
   147
1040
3.0
1070
   173
1070
     1
1070
    77
1070
     3
1070
    73
1070
     0
1070
   172
1070
     1
1070
    74
1070
     0
1070
   283
1070
     0
1070
   340
1005
113
1070
   140
1040
12.0
1070
   284
1070
     8
1070
   288
1070
     1
1070
    78
1070
     8
1070
    90
1070
     1
1002
}
  0
DIMENSION
  5
430
330
1F
100
AcDbEntity
  8
0
  6
Continuous
370
    13
100
AcDbDimension
280
     0
  2
*D2
 10
-387.7294166686791
 20
156.6831642539839
 30
0.0
 11
-387.7294166686791
 21
99.18316425398356
 31
0.0
 70
   160
 71
     8
 42
-1.0
 73
     0
 74
     0
 75
     0
  3
dc_Rotated
100
AcDbAlignedDimension
 13
-356.7294166686791
 23
41.68316425398318
 33
0.0
 14
-356.7294166686806
 24
156.6831642539839
 34
0.0
 50
90.0
100
AcDbRotatedDimension
1001
ACAD
1000
DSTYLE
1002
{
1070
   144
1040
1.0
1070
   274
1070
     4
1070
    41
1040
9.000005722045898
1070
    79
1070
     2
1070
   343
1005
109
1070
   344
1005
109
1070
   176
1070
     2
1070
   177
1070
     2
1070
   178
1070
     2
1070
   271
1070
     2
1070
    44
1040
3.0
1070
    42
1040
3.0
1070
   147
1040
3.0
1070
   173
1070
     1
1070
    77
1070
     3
1070
    73
1070
     0
1070
   172
1070
     1
1070
    74
1070
     0
1070
   283
1070
     0
1070
   340
1005
113
1070
   140
1040
12.0
1070
   284
1070
     8
1070
   288
1070
     1
1070
    78
1070
     8
1070
    90
1070
     1
1002
}
  0
DIMENSION
  5
431
330
1F
100
AcDbEntity
  8
0
  6
Continuous
370
    13
100
AcDbDimension
280
     0
  2
*D3
 10
-167.2634444427001
 20
-67.31683574601927
 30
0.0
 11
-167.2634444427001
 21
-105.010175746018
 31
0.0
 70
   160
 71
     8
 42
-1.0
 73
     0
 74
     0
 75
     0
  3
dc_Rotated_F1
100
AcDbAlignedDimension
 13
-167.2634444427001
 23
-87.316835746018
 33
0.0
 14
-167.2634444427001
 24
-67.31683574601927
 34
0.0
 50
90.0
100
AcDbRotatedDimension
1001
ACAD
1000
DSTYLE
1002
{
1070
   144
1040
1.0
1070
   274
1070
     4
1070
    41
1040
9.000005722045898
1070
    79
1070
     2
1070
   343
1005
109
1070
   344
1005
109
1070
   176
1070
     2
1070
   177
1070
     7
1070
   178
1070
     2
1070
   271
1070
     2
1070
    44
1040
3.0
1070
    42
1040
3.0
1070
   147
1040
3.0
1070
   173
1070
     1
1070
    75
1070
     1
1070
    76
1070
     1
1070
    77
1070
     3
1070
    73
1070
     0
1070
   172
1070
     1
1070
    74
1070
     0
1070
   283
1070
     0
1070
   340
1005
113
1070
   140
1040
12.0
1070
   284
1070
     8
1070
   288
1070
     1
1070
    78
1070
     8
1070
    90
1070
     1
1002
}
  0
DIMENSION
  5
433
330
1F
100
AcDbEntity
  8
0
  6
Continuous
370
    13
100
AcDbDimension
280
     0
  2
*D4
 10
327.6696316693688
 20
-107.6844166694922
 30
0.0
 11
355.6696316693685
 21
-107.6844166694922
 31
0.0
 70
   160
 71
     8
 42
-1.0
 73
     0
 74
     0
 75
     0
  3
dc_Rotated
100
AcDbAlignedDimension
 13
383.6696316693688
 23
-87.31683574601948
 33
0.0
 14
327.6696316693688
 24
-87.31683574601954
 34
0.0
100
AcDbRotatedDimension
1001
ACAD
1000
DSTYLE
1002
{
1070
   144
1040
1.0
1070
   274
1070
     4
1070
    41
1040
9.000005722045898
1070
    79
1070
     2
1070
   343
1005
109
1070
   344
1005
109
1070
   176
1070
     2
1070
   177
1070
     2
1070
   178
1070
     2
1070
   271
1070
     2
1070
    44
1040
3.0
1070
    42
1040
3.0
1070
   147
1040
3.0
1070
   173
1070
     1
1070
    77
1070
     3
1070
    73
1070
     0
1070
   172
1070
     1
1070
    74
1070
     0
1070
   283
1070
     0
1070
   340
1005
113
1070
   140
1040
12.0
1070
   284
1070
     8
1070
   288
1070
     1
1070
    78
1070
     8
1070
    90
1070
     1
1002
}
  0
INSERT
  5
434
330
1F
100
AcDbEntity
  8
0
  6
Continuous
100
AcDbBlockReference
  2
DC_IMAGEDIMGROUP_1
 10
0.0
 20
0.0
 30
0.0
  0
INSERT
  5
435
330
1F
100
AcDbEntity
  8
0
  6
Continuous
100
AcDbBlockReference
  2
DC_IMAGEDIMGROUP_2
 10
0.0
 20
0.0
 30
0.0
  0
DIMENSION
  5
436
330
1F
100
AcDbEntity
  8
0
  6
Continuous
370
    13
100
AcDbDimension
280
     0
  2
*D11
 10
203.2705833313209
 20
282.5133686094206
 30
0.0
 11
-76.72941666867905
 21
282.5133686094206
 31
0.0
 70
   160
  1
機幅
 71
     8
 42
-1.0
 73
     0
 74
     0
 75
     0
  3
dc_Rotated
100
AcDbAlignedDimension
 13
-356.7294166686791
 23
154.6831642539835
 33
0.0
 14
203.2705833313209
 24
144.6831642539832
 34
0.0
100
AcDbRotatedDimension
1001
ACAD
1000
DSTYLE
1002
{
1070
   144
1040
1.0
1070
   274
1070
     4
1070
    41
1040
9.000005722045898
1070
    79
1070
     2
1070
   343
1005
109
1070
   344
1005
109
1070
   176
1070
     2
1070
   177
1070
     2
1070
   178
1070
     4
1070
   271
1070
     2
1070
    44
1040
3.0
1070
    42
1040
3.0
1070
   147
1040
3.0
1070
   173
1070
     1
1070
    77
1070
     3
1070
    73
1070
     0
1070
   172
1070
     1
1070
    74
1070
     0
1070
   283
1070
     0
1070
   340
1005
113
1070
   140
1040
12.0
1070
   284
1070
     8
1070
   288
1070
     1
1070
    78
1070
     8
1070
    90
1070
     1
1002
}
  0
DIMENSION
  5
437
330
1F
100
AcDbEntity
  8
0
  6
Continuous
370
    13
100
AcDbDimension
280
     0
  2
*D12
 10
-306.2294226286792
 20
257.4566917028375
 30
0.0
 11
-331.4794196486791
 21
257.4566917028375
 31
0.0
 70
   160
 71
     8
 42
-1.0
 73
     0
 74
     0
 75
     0
  3
dc_Rotated
100
AcDbAlignedDimension
 13
-356.7294166686791
 23
154.6831642539835
 33
0.0
 14
-306.2294226286792
 24
149.6831638184831
 34
0.0
100
AcDbRotatedDimension
1001
ACAD
1000
DSTYLE
1002
{
1070
   144
1040
1.0
1070
   274
1070
     4
1070
    41
1040
9.000005722045898
1070
    79
1070
     2
1070
   343
1005
109
1070
   344
1005
109
1070
   176
1070
     2
1070
   177
1070
     2
1070
   178
1070
     2
1070
   271
1070
     2
1070
    44
1040
3.0
1070
    42
1040
3.0
1070
   147
1040
3.0
1070
   173
1070
     1
1070
    77
1070
     3
1070
    73
1070
     0
1070
   172
1070
     1
1070
    74
1070
     0
1070
   283
1070
     0
1070
   340
1005
113
1070
   140
1040
12.0
1070
   284
1070
     8
1070
   288
1070
     1
1070
    78
1070
     8
1070
    90
1070
     1
1002
}
  0
DIMENSION
  5
438
330
1F
100
AcDbEntity
  8
0
  6
Continuous
370
    13
100
AcDbDimension
280
     0
  2
*D13
 10
189.7705833313209
 20
257.4566917028375
 30
0.0
 11
-58.22941964867914
 21
257.4566917028375
 31
0.0
 70
   160
  1
ローラ幅
 71
     8
 42
-1.0
 73
     0
 74
     0
 75
     0
  3
dc_Rotated
100
AcDbAlignedDimension
 13
-306.2294226286792
 23
149.6831638184831
 33
0.0
 14
189.7705833313209
 24
150.1831642539853
 34
0.0
100
AcDbRotatedDimension
1001
ACAD
1000
DSTYLE
1002
{
1070
   144
1040
1.0
1070
   274
1070
     4
1070
    41
1040
9.000005722045898
1070
    79
1070
     2
1070
   343
1005
109
1070
   344
1005
109
1070
   176
1070
     2
1070
   177
1070
     2
1070
   178
1070
     4
1070
   271
1070
     2
1070
    44
1040
3.0
1070
    42
1040
3.0
1070
   147
1040
3.0
1070
   173
1070
     1
1070
    77
1070
     3
1070
    73
1070
     0
1070
   172
1070
     1
1070
    74
1070
     0
1070
   283
1070
     0
1070
   340
1005
113
1070
   140
1040
12.0
1070
   284
1070
     8
1070
   288
1070
     1
1070
    78
1070
     8
1070
    90
1070
     1
1002
}
  0
INSERT
  5
439
330
1F
100
AcDbEntity
  8
0
  6
Continuous
100
AcDbBlockReference
  2
DC_IMAGEDIMGROUP_3
 10
0.0
 20
0.0
 30
0.0
  0
DIMENSION
  5
43A
330
1F
100
AcDbEntity
  8
0
  6
Continuous
370
    13
100
AcDbDimension
280
     0
  2
*D17
 10
-387.7294166686791
 20
41.68316425398318
 30
0.0
 11
-387.7294166686791
 21
-14.81683574601768
 31
0.0
 70
   160
 71
     8
 42
-1.0
 73
     0
 74
     0
 75
     0
  3
dc_Rotated
100
AcDbAlignedDimension
 13
-327.7294166686777
 23
-71.31683574601854
 33
0.0
 14
-356.7294166686791
 24
41.68316425398318
 34
0.0
 50
90.0
100
AcDbRotatedDimension
1001
ACAD
1000
DSTYLE
1002
{
1070
   144
1040
1.0
1070
   274
1070
     4
1070
    41
1040
9.000005722045898
1070
    79
1070
     2
1070
   343
1005
109
1070
   344
1005
109
1070
   176
1070
     2
1070
   177
1070
     2
1070
   178
1070
     2
1070
   271
1070
     2
1070
    44
1040
3.0
1070
    42
1040
3.0
1070
   147
1040
3.0
1070
   173
1070
     1
1070
    77
1070
     3
1070
    73
1070
     0
1070
   172
1070
     1
1070
    74
1070
     0
1070
   283
1070
     0
1070
   340
1005
113
1070
   140
1040
12.0
1070
   284
1070
     8
1070
   288
1070
     1
1070
    78
1070
     8
1070
    90
1070
     1
1002
}
  0
INSERT
  5
43B
330
1F
100
AcDbEntity
  8
0
  6
Continuous
100
AcDbBlockReference
  2
DC_IMAGEDIMGROUP_4
 10
0.0
 20
0.0
 30
0.0
  0
INSERT
  5
43C
330
1F
100
AcDbEntity
  8
0
  6
Continuous
100
AcDbBlockReference
  2
DC_GROUP_W_GSTP_S_060_1_9
 10
0.0
 20
0.0
 30
0.0
  0
INSERT
  5
43D
330
1F
100
AcDbEntity
  8
0
  6
Continuous
100
AcDbBlockReference
  2
DC_GROUP_W_GSTP_S_060_1_12
 10
0.0
 20
0.0
 30
0.0
  0
INSERT
  5
43E
330
1F
100
AcDbEntity
  8
3
  6
Continuous
100
AcDbBlockReference
  2
DC_GROUP_W_GSTP_S_060_1_1
 10
0.0
 20
0.0
 30
0.0
  0
INSERT
  5
43F
330
1F
100
AcDbEntity
  8
3
  6
Continuous
100
AcDbBlockReference
  2
DC_GROUP_W_GSTP_S_060_1_2
 10
0.0
 20
0.0
 30
0.0
  0
INSERT
  5
440
330
1F
100
AcDbEntity
  8
3
  6
Continuous
100
AcDbBlockReference
  2
DC_GROUP_W_GSTP_S_060_1_3
 10
0.0
 20
0.0
 30
0.0
  0
INSERT
  5
441
330
1F
100
AcDbEntity
  8
3
  6
Continuous
100
AcDbBlockReference
  2
DC_GROUP_W_GSTP_S_060_1_4
 10
0.0
 20
0.0
 30
0.0
  0
INSERT
  5
442
330
1F
100
AcDbEntity
  8
5
  6
Continuous
100
AcDbBlockReference
  2
DC_GROUP_W_GSTP_S_060_1_5
 10
0.0
 20
0.0
 30
0.0
  0
INSERT
  5
443
330
1F
100
AcDbEntity
  8
5
  6
Continuous
100
AcDbBlockReference
  2
DC_GROUP_W_GSTP_S_060_1_6
 10
0.0
 20
0.0
 30
0.0
  0
ARC
  5
444
330
1F
100
AcDbEntity
  8
L-WORK
  6
Continuous
 62
     7
370
    13
100
AcDbCircle
 10
-324.7294166686772
 20
122.1831642539826
 30
0.0
 40
11.00000000000006
100
AcDbArc
 50
155.3800226713432
 51
344.1733798681274
  0
LINE
  5
445
330
1F
100
AcDbEntity
  8
L-WORK
  6
Continuous
 62
     7
370
    13
100
AcDbLine
 10
-318.9328659702012
 20
132.1831642539826
 30
0.0
 11
-311.5700926589282
 21
132.1831642539826
 31
0.0
  0
LINE
  5
446
330
1F
100
AcDbEntity
  8
L-WORK
  6
Continuous
 62
     7
370
    13
100
AcDbLine
 10
-308.8997185896862
 20
127.1831642539826
 30
0.0
 11
-300.7294166686772
 21
127.1831642539826
 31
0.0
  0
LINE
  5
447
330
1F
100
AcDbEntity
  8
L-WORK
  6
Continuous
 62
     7
370
    13
100
AcDbLine
 10
-309.3592911046951
 20
127.4862046046931
 30
0.0
 11
-311.2943491499211
 21
132.0013400435566
 31
0.0
  0
LINE
  5
448
330
1F
100
AcDbEntity
  8
L-WORK
  6
Continuous
 62
     7
370
    13
100
AcDbLine
 10
-340.7294166686772
 20
107.1831642539825
 30
0.0
 11
-340.7294166686772
 21
123.1831642539826
 31
0.0
  0
LINE
  5
449
330
1F
100
AcDbEntity
  8
L-WORK
  6
Continuous
 62
     7
370
    13
100
AcDbLine
 10
-342.7294166686772
 20
133.1831642539826
 30
0.0
 11
-342.7294166686772
 21
125.1831642539826
 31
0.0
  0
LINE
  5
44A
330
1F
100
AcDbEntity
  8
L-WORK
  6
Continuous
 62
     7
370
    13
100
AcDbLine
 10
-300.7294166686772
 20
127.1831642539826
 30
0.0
 11
-300.7294166686772
 21
116.1831642539826
 31
0.0
  0
LINE
  5
44B
330
1F
100
AcDbEntity
  8
L-WORK
  6
Continuous
 62
     7
370
    13
100
AcDbLine
 10
-351.7294166686772
 20
84.48316425398298
 30
0.0
 11
-351.7294166686772
 21
104.1831642539825
 31
0.0
  0
LINE
  5
44C
330
1F
100
AcDbEntity
  8
L-WORK
  6
Continuous
 62
     7
370
    13
100
AcDbLine
 10
-345.2294166686772
 20
71.6859421174994
 30
0.0
 11
-345.2294166686772
 21
103.6831642539825
 31
0.0
  0
LINE
  5
44D
330
1F
100
AcDbEntity
  8
L-WORK
  6
Continuous
 62
     7
370
    13
100
AcDbLine
 10
-342.7294166686772
 20
133.1831642539826
 30
0.0
 11
-334.7294166686772
 21
133.1831642539826
 31
0.0
  0
LINE
  5
44E
330
1F
100
AcDbEntity
  8
L-WORK
  6
Continuous
 62
     7
370
    13
100
AcDbLine
 10
-334.7294166686772
 20
126.7657399489383
 30
0.0
 11
-334.7294166686772
 21
133.1831642539826
 31
0.0
  0
LINE
  5
44F
330
1F
100
AcDbEntity
  8
L-WORK
  6
Continuous
 62
     7
370
    13
100
AcDbLine
 10
-351.7294166686772
 20
104.1831642539825
 30
0.0
 11
-343.7294166686772
 21
104.1831642539825
 31
0.0
  0
LINE
  5
450
330
1F
100
AcDbEntity
  8
L-WORK
  6
Continuous
 62
     7
370
    13
100
AcDbLine
 10
-351.7294166686772
 20
71.1831642539833
 30
0.0
 11
-345.7294166686772
 21
71.1831642539833
 31
0.0
  0
ARC
  5
451
330
1F
100
AcDbEntity
  8
L-WORK
  6
Continuous
 62
     7
370
    13
100
AcDbCircle
 10
-324.7294166686772
 20
122.1831642539826
 30
0.0
 40
11.0
100
AcDbArc
 50
344.1733798681274
 51
59.13819761012118
  0
ARC
  5
452
330
1F
100
AcDbEntity
  8
L-WORK
  6
Continuous
 62
     7
370
    13
100
AcDbCircle
 10
-345.7294166686772
 20
116.1831642539826
 30
0.0
 40
44.99999999999912
100
AcDbArc
 50
270.0
 51
0.0
  0
ARC
  5
453
330
1F
100
AcDbEntity
  8
L-WORK
  6
Continuous
 62
     7
370
    13
100
AcDbCircle
 10
-311.5700926589282
 20
131.8831642539828
 30
0.0
 40
0.300000000001565
100
AcDbArc
 50
23.19859051353664
 51
90.0
  0
ARC
  5
454
330
1F
100
AcDbEntity
  8
L-WORK
  6
Continuous
 62
     7
370
    13
100
AcDbCircle
 10
-318.9328659702012
 20
131.8831642539828
 30
0.0
 40
0.2999999999998977
100
AcDbArc
 50
90.0
 51
239.1381976101712
  0
ARC
  5
455
330
1F
100
AcDbEntity
  8
L-WORK
  6
Continuous
 62
     7
370
    13
100
AcDbCircle
 10
-308.8997185896862
 20
127.6831642539826
 30
0.0
 40
0.4999999999999188
100
AcDbArc
 50
203.198590513643
 51
270.0
  0
ARC
  5
456
330
1F
100
AcDbEntity
  8
L-WORK
  6
Continuous
 62
     7
370
    13
100
AcDbCircle
 10
-341.7294166686772
 20
123.1831642539826
 30
0.0
 40
1.0
100
AcDbArc
 50
0.0
 51
90.0
  0
ARC
  5
457
330
1F
100
AcDbEntity
  8
L-WORK
  6
Continuous
 62
     7
370
    13
100
AcDbCircle
 10
-343.7294166686772
 20
107.1831642539825
 30
0.0
 40
3.0
100
AcDbArc
 50
270.0
 51
0.0
  0
ARC
  5
458
330
1F
100
AcDbEntity
  8
L-WORK
  6
Continuous
 62
     7
370
    13
100
AcDbCircle
 10
-345.7294166686772
 20
71.6831642539833
 30
0.0
 40
0.5
100
AcDbArc
 50
270.0
 51
0.0
  0
ARC
  5
459
330
1F
100
AcDbEntity
  8
L-WORK
  6
Continuous
 62
     7
370
    13
100
AcDbCircle
 10
-345.7294166686772
 20
103.6831642539825
 30
0.0
 40
0.5
100
AcDbArc
 50
0.0
 51
90.0
  0
ARC
  5
45A
330
1F
100
AcDbEntity
  8
L-WORK
  6
Continuous
 62
     7
370
    13
100
AcDbCircle
 10
-341.7294166686772
 20
125.1831642539826
 30
0.0
 40
1.0
100
AcDbArc
 50
180.0
 51
270.0
  0
LINE
  5
45B
330
1F
100
AcDbEntity
  8
0
  6
Continuous
 62
     7
370
    13
100
AcDbLine
 10
-335.829417049679
 20
146.6831636764832
 30
0.0
 11
-335.829417049679
 21
136.683163434483
 31
0.0
  0
LINE
  5
45C
330
1F
100
AcDbEntity
  8
0
  6
Continuous
 62
     7
370
    13
100
AcDbLine
 10
-331.1294417976794
 20
148.6831637714831
 30
0.0
 11
-331.1294417976794
 21
146.6831636764832
 31
0.0
  0
LINE
  5
45D
330
1F
100
AcDbEntity
  8
0
  6
Continuous
 62
     7
370
    13
100
AcDbLine
 10
-331.1294417976794
 20
136.683163434483
 30
0.0
 11
-331.1294417976794
 21
134.6831631064831
 31
0.0
  0
LINE
  5
45E
330
1F
100
AcDbEntity
  8
0
  6
Continuous
 62
     7
370
    13
100
AcDbLine
 10
-312.3294215796793
 20
134.6831631064831
 30
0.0
 11
-312.3294215796793
 21
133.683162942483
 31
0.0
  0
LINE
  5
45F
330
1F
100
AcDbEntity
  8
0
  6
Continuous
 62
     7
370
    13
100
AcDbLine
 10
-312.3294215796793
 20
149.6831638184831
 30
0.0
 11
-312.3294215796793
 21
148.6831637714831
 31
0.0
  0
INSERT
  5
460
330
1F
100
AcDbEntity
  8
L-2
  6
Continuous
100
AcDbBlockReference
  2
DC_GROUP_W_GSTP_S_060_1_7
 10
0.0
 20
0.0
 30
0.0
  0
INSERT
  5
461
330
1F
100
AcDbEntity
  8
L-09
  6
Continuous
100
AcDbBlockReference
  2
DC_GROUP_W_GSTP_S_060_1_8
 10
0.0
 20
0.0
 30
0.0
  0
LINE
  5
462
330
1F
100
AcDbEntity
  8
L-WORK
  6
PHANTOM
 62
    91
370
    13
100
AcDbLine
 10
-309.2294166686772
 20
127.1831642539826
 30
0.0
 11
-309.3592911046951
 21
127.4862046046931
 31
0.0
  0
LINE
  5
463
330
1F
100
AcDbEntity
  8
L-WORK
  6
PHANTOM
 62
    91
370
    13
100
AcDbLine
 10
-309.2294166686772
 20
127.1831642539826
 30
0.0
 11
-308.8997185896862
 21
127.1831642539826
 31
0.0
  0
LINE
  5
464
330
1F
100
AcDbEntity
  8
L-WORK
  6
CENTERX2
 62
     3
370
    13
100
AcDbLine
 10
-337.2294166686763
 20
122.1831642539826
 30
0.0
 11
-312.8657302931099
 21
122.1831642539826
 31
0.0
  0
LINE
  5
465
330
1F
100
AcDbEntity
  8
L-WORK
  6
CENTERX2
 62
     3
370
    13
100
AcDbLine
 10
-324.7294166686772
 20
106.430305808445
 30
0.0
 11
-324.7294166686772
 21
136.9027741986595
 31
0.0
  0
LINE
  5
466
330
1F
100
AcDbEntity
  8
7
  6
Continuous
 62
     7
370
    13
100
AcDbLine
 10
190.2705833313228
 20
134.6831642539833
 30
0.0
 11
190.2705833313228
 21
133.6831642539833
 31
0.0
  0
LINE
  5
467
330
1F
100
AcDbEntity
  8
7
  6
Continuous
 62
     7
370
    13
100
AcDbLine
 10
192.2705833313228
 20
109.6831642539833
 30
0.0
 11
192.2705833313228
 21
131.6831642539833
 31
0.0
  0
LINE
  5
468
330
1F
100
AcDbEntity
  8
7
  6
Continuous
 62
     7
370
    13
100
AcDbLine
 10
198.2705833313228
 20
108.6831642539833
 30
0.0
 11
193.2705833313228
 21
108.6831642539833
 31
0.0
  0
LINE
  5
469
330
1F
100
AcDbEntity
  8
7
  6
Continuous
 62
     7
370
    13
100
AcDbLine
 10
190.2705833313228
 20
141.6831642539833
 30
0.0
 11
190.2705833313228
 21
134.6831642539833
 31
0.0
  0
LINE
  5
46A
330
1F
100
AcDbEntity
  8
7
  6
Continuous
 62
     7
370
    13
100
AcDbLine
 10
-345.7294166686772
 20
131.6831642539833
 30
0.0
 11
-345.7294166686772
 21
109.1831642539833
 31
0.0
  0
LINE
  5
46B
330
1F
100
AcDbEntity
  8
7
  6
Continuous
 62
     7
370
    13
100
AcDbLine
 10
-346.7294166686772
 20
108.6831642539833
 30
0.0
 11
-351.7294166686772
 21
108.6831642539833
 31
0.0
  0
LINE
  5
46C
330
1F
100
AcDbEntity
  8
7
  6
Continuous
 62
     7
370
    13
100
AcDbLine
 10
-343.7294166686772
 20
133.6831642539833
 30
0.0
 11
-343.7294166686772
 21
141.6831642539833
 31
0.0
  0
ARC
  5
46D
330
1F
100
AcDbEntity
  8
7
  6
Continuous
 62
     7
370
    13
100
AcDbCircle
 10
-346.7294166686772
 20
109.6831642539833
 30
0.0
 40
1.0
100
AcDbArc
 50
270.0
 51
329.9999999999874
  0
ARC
  5
46E
330
1F
100
AcDbEntity
  8
7
  6
Continuous
 62
     7
370
    13
100
AcDbCircle
 10
191.2705833313228
 20
133.6831642539833
 30
0.0
 40
1.0
100
AcDbArc
 50
180.0
 51
270.0
  0
ARC
  5
46F
330
1F
100
AcDbEntity
  8
7
  6
Continuous
 62
     7
370
    13
100
AcDbCircle
 10
191.2705833313228
 20
131.6831642539833
 30
0.0
 40
1.0
100
AcDbArc
 50
0.0
 51
90.0
  0
ARC
  5
470
330
1F
100
AcDbEntity
  8
7
  6
Continuous
 62
     7
370
    13
100
AcDbCircle
 10
193.2705833313228
 20
109.6831642539833
 30
0.0
 40
1.0
100
AcDbArc
 50
180.0
 51
270.0
  0
ARC
  5
471
330
1F
100
AcDbEntity
  8
7
  6
Continuous
 62
     7
370
    13
100
AcDbCircle
 10
-344.7294166686772
 20
133.6831642539833
 30
0.0
 40
1.0
100
AcDbArc
 50
270.0
 51
0.0
  0
ARC
  5
472
330
1F
100
AcDbEntity
  8
7
  6
Continuous
 62
     7
370
    13
100
AcDbCircle
 10
-344.7294166686772
 20
131.6831642539833
 30
0.0
 40
1.0
100
AcDbArc
 50
90.0
 51
180.0
  0
LINE
  5
473
330
1F
100
AcDbEntity
  8
L-2
  6
Continuous
 62
     7
370
    13
100
AcDbLine
 10
-356.7294166686795
 20
141.6831642539833
 30
0.0
 11
-351.7294166686795
 21
141.6831642539833
 31
0.0
  0
LINE
  5
474
330
1F
100
AcDbEntity
  8
L-2
  6
Continuous
 62
     7
370
    13
100
AcDbLine
 10
-356.7294166686795
 20
41.68316425398319
 30
0.0
 11
-356.7294166686795
 21
141.6831642539833
 31
0.0
  0
LINE
  5
475
330
1F
100
AcDbEntity
  8
L-2
  6
Continuous
 62
     7
370
    13
100
AcDbLine
 10
-351.7294166686795
 20
41.68316425398319
 30
0.0
 11
-356.7294166686795
 21
41.68316425398319
 31
0.0
  0
LINE
  5
476
330
1F
100
AcDbEntity
  8
L-2
  6
Continuous
 62
     7
370
    13
100
AcDbLine
 10
-351.7294166686795
 20
141.6831642539833
 30
0.0
 11
-351.7294166686795
 21
41.68316425398319
 31
0.0
  0
LINE
  5
477
330
1F
100
AcDbEntity
  8
L-2
  6
Continuous
 62
     7
370
    13
100
AcDbLine
 10
203.2705833313228
 20
141.6831642539833
 30
0.0
 11
203.2705833313228
 21
41.68316425398319
 31
0.0
  0
LINE
  5
478
330
1F
100
AcDbEntity
  8
L-2
  6
Continuous
 62
     7
370
    13
100
AcDbLine
 10
203.2705833313228
 20
41.68316425398319
 30
0.0
 11
198.2705833313228
 21
41.68316425398319
 31
0.0
  0
LINE
  5
479
330
1F
100
AcDbEntity
  8
L-2
  6
Continuous
 62
     7
370
    13
100
AcDbLine
 10
198.2705833313228
 20
41.68316425398319
 30
0.0
 11
198.2705833313228
 21
141.6831642539833
 31
0.0
  0
LINE
  5
47A
330
1F
100
AcDbEntity
  8
L-2
  6
Continuous
 62
     7
370
    13
100
AcDbLine
 10
203.2705833313228
 20
141.6831642539833
 30
0.0
 11
198.2705833313228
 21
141.6831642539833
 31
0.0
  0
INSERT
  5
47B
330
1F
100
AcDbEntity
  8
ZUWAKU
  6
Continuous
100
AcDbBlockReference
  2
DC_GROUP_W_GSTP_S_060_1_10
 10
0.0
 20
0.0
 30
0.0
  0
INSERT
  5
47C
330
1F
100
AcDbEntity
  8
ZUWAKU
  6
Continuous
100
AcDbBlockReference
  2
DC_GROUP_W_GSTP_S_060_1_11
 10
0.0
 20
0.0
 30
0.0
  0
VIEWPORT
  5
BC
330
1B
100
AcDbEntity
 67
     1
  8
0
100
AcDbViewport
 10
0.0
 20
0.0
 30
0.0
 40
3546.0
 41
2432.305379888601
 68
     1
 69
     1
 12
0.0
 22
0.0
 13
0.0
 23
0.0
 14
0.5
 24
0.5
 15
0.0
 25
0.0
 16
0.0
 26
0.0
 36
1.0
 17
0.0
 27
0.0
 37
0.0
 42
50.0
 43
0.0
 44
0.0
 45
2432.305379888601
 50
0.0
 51
0.0
 72
   100
 90
   557152
  1

281
     0
 71
     1
 74
     0
110
0.0
120
0.0
130
0.0
111
1.0
121
0.0
131
0.0
112
0.0
122
1.0
132
0.0
 79
     0
146
0.0
170
     0
 61
     5
348
2F
292
     1
282
     1
141
0.0
142
0.0
 63
   256
  0
ENDSEC
  0
SECTION
  2
OBJECTS
  0
DICTIONARY
  5
C
330
0
100
AcDbDictionary
281
     1
  3
ACAD_DETAILVIEWSTYLE
350
4B4
  3
ACAD_GROUP
350
D
  3
ACAD_LAYOUT
350
1A
  3
ACAD_MATERIAL
350
43
  3
ACAD_MLEADERSTYLE
350
6B
  3
ACAD_MLINESTYLE
350
17
  3
ACAD_PLOTSETTINGS
350
19
  3
ACAD_PLOTSTYLENAME
350
E
  3
ACAD_SCALELIST
350
47
  3
ACAD_SECTIONVIEWSTYLE
350
4B5
  3
ACAD_TABLESTYLE
350
69
  3
ACAD_VISUALSTYLE
350
2A
  3
ACDB_RECOMPOSE_DATA
350
4B1
  3
AcDbVariableDictionary
350
47D
  0
SUN
  5
6D
330
29
100
AcDbSun
 90
        1
290
     0
 63
     7
421
 16777215
 40
1.0
291
     1
 91
  2455826
 92
 54000000
292
     0
 70
     2
 71
   256
280
     1
  0
DICTIONARY
  5
4B4
102
{ACAD_REACTORS
330
C
102
}
330
C
100
AcDbDictionary
281
     1
  0
DICTIONARY
  5
D
102
{ACAD_REACTORS
330
C
102
}
330
C
100
AcDbDictionary
281
     1
  0
DICTIONARY
  5
1A
102
{ACAD_REACTORS
330
C
102
}
330
C
100
AcDbDictionary
281
     1
  3
Layout1
350
1E
  3
Layout2
350
26
  3
Model
350
22
  0
DICTIONARY
  5
43
102
{ACAD_REACTORS
330
C
102
}
330
C
100
AcDbDictionary
281
     1
  3
ByBlock
350
45
  3
ByLayer
350
44
  3
Global
350
46
  0
DICTIONARY
  5
6B
102
{ACAD_REACTORS
330
C
102
}
330
C
100
AcDbDictionary
281
     1
  3
Standard
350
6C
  0
DICTIONARY
  5
17
102
{ACAD_REACTORS
330
C
102
}
330
C
100
AcDbDictionary
281
     1
  3
Standard
350
18
  0
DICTIONARY
  5
19
102
{ACAD_REACTORS
330
C
102
}
330
C
100
AcDbDictionary
281
     1
  0
ACDBDICTIONARYWDFLT
  5
E
102
{ACAD_REACTORS
330
C
102
}
330
C
100
AcDbDictionary
281
     1
  3
Normal
350
F
100
AcDbDictionaryWithDefault
340
F
  0
DICTIONARY
  5
47
102
{ACAD_REACTORS
330
C
102
}
330
C
100
AcDbDictionary
281
     1
  3
A0
350
48
  3
A1
350
49
  3
A2
350
4A
  3
A3
350
4B
  3
A4
350
4C
  3
A5
350
4D
  3
A6
350
4E
  3
A7
350
4F
  3
A8
350
50
  3
A9
350
51
  3
B0
350
52
  3
B1
350
53
  3
B2
350
54
  3
B3
350
55
  3
B4
350
56
  3
B5
350
57
  3
B6
350
58
  3
B7
350
59
  3
B8
350
5A
  3
B9
350
5B
  3
C0
350
5C
  3
C1
350
5D
  3
C2
350
5E
  3
C3
350
5F
  3
C4
350
60
  3
C5
350
61
  3
C6
350
62
  3
C7
350
63
  3
C8
350
64
  3
C9
350
65
  3
D0
350
66
  3
D1
350
67
  3
D2
350
68
  0
DICTIONARY
  5
4B5
102
{ACAD_REACTORS
330
C
102
}
330
C
100
AcDbDictionary
281
     1
  0
DICTIONARY
  5
69
102
{ACAD_REACTORS
330
C
102
}
330
C
100
AcDbDictionary
281
     1
  3
Standard
350
6A
  0
DICTIONARY
  5
2A
102
{ACAD_REACTORS
330
C
102
}
330
C
100
AcDbDictionary
281
     1
  3
2dWireframe
350
2F
  3
Basic
350
32
  3
Brighten
350
36
  3
ColorChange
350
3A
  3
Conceptual
350
34
  3
Dim
350
35
  3
EdgeColorOff
350
3D
  3
Facepattern
350
39
  3
Flat
350
2B
  3
FlatWithEdges
350
2C
  3
Gouraud
350
2D
  3
GouraudWithEdges
350
2E
  3
Hidden
350
31
  3
JitterOff
350
3B
  3
Linepattern
350
38
  3
OverhangOff
350
3C
  3
Realistic
350
33
  3
Shaded
350
42
  3
Shaded with edges
350
41
  3
Shades of Gray
350
3E
  3
Sketchy
350
3F
  3
Thicken
350
37
  3
Wireframe
350
30
  3
X-Ray
350
40
  0
XRECORD
  5
4B1
102
{ACAD_REACTORS
330
C
102
}
330
C
100
AcDbXrecord
280
     1
 90
        1
330
6A
  0
DICTIONARY
  5
47D
102
{ACAD_REACTORS
330
C
102
}
330
C
100
AcDbDictionary
281
     1
  3
CANNOSCALE
350
47E
  3
CMLEADERSTYLE
350
4B3
  3
CTABLESTYLE
350
4B2
  0
LAYOUT
  5
1E
102
{ACAD_REACTORS
330
1A
102
}
330
1A
100
AcDbPlotSettings
  1

  2
none_device
  4

  6

 40
0.0
 41
0.0
 42
0.0
 43
0.0
 44
0.0
 45
0.0
 46
0.0
 47
0.0
 48
0.0
 49
0.0
140
0.0
141
0.0
142
1.0
143
1.0
 70
   688
 72
     0
 73
     0
 74
     5
  7

 75
    16
 76
     0
 77
     2
 78
   300
147
1.0
148
0.0
149
0.0
100
AcDbLayout
  1
Layout1
 70
     0
 71
     1
 10
0.0
 20
0.0
 11
12.0
 21
9.0
 12
0.0
 22
0.0
 32
0.0
 14
1.000000000000000E+20
 24
1.000000000000000E+20
 34
1.000000000000000E+20
 15
-1.000000000000000E+20
 25
-1.000000000000000E+20
 35
-1.000000000000000E+20
146
0.0
 13
0.0
 23
0.0
 33
0.0
 16
1.0
 26
0.0
 36
0.0
 17
0.0
 27
1.0
 37
0.0
 76
     0
330
1B
331
BC
  0
LAYOUT
  5
26
102
{ACAD_REACTORS
330
1A
102
}
330
1A
100
AcDbPlotSettings
  1

  2
none_device
  4

  6

 40
0.0
 41
0.0
 42
0.0
 43
0.0
 44
0.0
 45
0.0
 46
0.0
 47
0.0
 48
0.0
 49
0.0
140
0.0
141
0.0
142
1.0
143
1.0
 70
   688
 72
     0
 73
     0
 74
     5
  7

 75
    16
 76
     0
 77
     2
 78
   300
147
1.0
148
0.0
149
0.0
100
AcDbLayout
  1
Layout2
 70
     1
 71
     2
 10
0.0
 20
0.0
 11
0.0
 21
0.0
 12
0.0
 22
0.0
 32
0.0
 14
0.0
 24
0.0
 34
0.0
 15
0.0
 25
0.0
 35
0.0
146
0.0
 13
0.0
 23
0.0
 33
0.0
 16
1.0
 26
0.0
 36
0.0
 17
0.0
 27
1.0
 37
0.0
 76
     0
330
23
  0
LAYOUT
  5
22
102
{ACAD_REACTORS
330
1A
102
}
330
1A
100
AcDbPlotSettings
  1

  2
none_device
  4
Letter_(8.50_x_11.00_Inches)
  6

 40
6.35
 41
6.35
 42
6.35000508
 43
6.35000508
 44
215.9
 45
279.4
 46
0.0
 47
0.0
 48
0.0
 49
0.0
140
0.0
141
0.0
142
1.0
143
1.0
 70
  1712
 72
     0
 73
     0
 74
     0
  7

 75
     0
 76
     0
 77
     2
 78
   300
147
1.0
148
0.0
149
0.0
100
AcDbLayout
  1
Model
 70
     1
 71
     0
 10
-630.0
 20
-445.5
 11
630.0
 21
445.5
 12
0.0
 22
0.0
 32
0.0
 14
-1773.0
 24
-1216.152689944301
 34
0.0
 15
1773.0
 25
1216.152689944301
 35
0.0
146
0.0
 13
0.0
 23
0.0
 33
0.0
 16
1.0
 26
0.0
 36
0.0
 17
0.0
 27
1.0
 37
0.0
 76
     0
330
1F
331
29
  0
MATERIAL
  5
45
102
{ACAD_REACTORS
330
43
102
}
330
43
100
AcDbMaterial
  1
ByBlock
 72
     1
 94
      127
  0
MATERIAL
  5
44
102
{ACAD_REACTORS
330
43
102
}
330
43
100
AcDbMaterial
  1
ByLayer
 72
     1
 94
      127
  0
MATERIAL
  5
46
102
{ACAD_REACTORS
330
43
102
}
330
43
100
AcDbMaterial
  1
Global
 72
     1
 94
      127
  0
MLEADERSTYLE
  5
6C
102
{ACAD_REACTORS
330
6B
102
}
330
6B
100
AcDbMLeaderStyle
179
     2
170
     2
171
     1
172
     0
 90
        2
 40
0.0
 41
0.0
173
     1
 91
-1056964608
340
14
 92
       -2
290
     1
 42
0.09
291
     1
 43
0.36
  3
Standard
341
0
 44
0.18
300

342
11
174
     1
178
     6
175
     1
176
     0
 93
-1056964608
 45
0.18
292
     0
297
     0
 46
0.18
343
0
 94
-1056964608
 47
1.0
 49
1.0
140
1.0
293
     1
141
0.0
294
     1
177
     0
142
1.0
295
     0
296
     0
143
0.125
271
     0
272
     9
273
     9
  0
MLINESTYLE
  5
18
102
{ACAD_REACTORS
330
17
102
}
330
17
100
AcDbMlineStyle
  2
Standard
 70
     0
  3

 62
   256
 51
90.0
 52
90.0
 71
     2
 49
0.5
 62
   256
  6
BYLAYER
 49
-0.5
 62
   256
  6
BYLAYER
  0
ACDBPLACEHOLDER
  5
F
102
{ACAD_REACTORS
330
E
102
}
330
E
  0
SCALE
  5
48
102
{ACAD_REACTORS
330
47
102
}
330
47
100
AcDbScale
 70
     0
300
1:1
140
1.0
141
1.0
290
     1
  0
SCALE
  5
49
102
{ACAD_REACTORS
330
47
102
}
330
47
100
AcDbScale
 70
     0
300
1:2
140
1.0
141
2.0
290
     0
  0
SCALE
  5
4A
102
{ACAD_REACTORS
330
47
102
}
330
47
100
AcDbScale
 70
     0
300
1:4
140
1.0
141
4.0
290
     0
  0
SCALE
  5
4B
102
{ACAD_REACTORS
330
47
102
}
330
47
100
AcDbScale
 70
     0
300
1:5
140
1.0
141
5.0
290
     0
  0
SCALE
  5
4C
102
{ACAD_REACTORS
330
47
102
}
330
47
100
AcDbScale
 70
     0
300
1:8
140
1.0
141
8.0
290
     0
  0
SCALE
  5
4D
102
{ACAD_REACTORS
330
47
102
}
330
47
100
AcDbScale
 70
     0
300
1:10
140
1.0
141
10.0
290
     0
  0
SCALE
  5
4E
102
{ACAD_REACTORS
330
47
102
}
330
47
100
AcDbScale
 70
     0
300
1:16
140
1.0
141
16.0
290
     0
  0
SCALE
  5
4F
102
{ACAD_REACTORS
330
47
102
}
330
47
100
AcDbScale
 70
     0
300
1:20
140
1.0
141
20.0
290
     0
  0
SCALE
  5
50
102
{ACAD_REACTORS
330
47
102
}
330
47
100
AcDbScale
 70
     0
300
1:30
140
1.0
141
30.0
290
     0
  0
SCALE
  5
51
102
{ACAD_REACTORS
330
47
102
}
330
47
100
AcDbScale
 70
     0
300
1:40
140
1.0
141
40.0
290
     0
  0
SCALE
  5
52
102
{ACAD_REACTORS
330
47
102
}
330
47
100
AcDbScale
 70
     0
300
1:50
140
1.0
141
50.0
290
     0
  0
SCALE
  5
53
102
{ACAD_REACTORS
330
47
102
}
330
47
100
AcDbScale
 70
     0
300
1:100
140
1.0
141
100.0
290
     0
  0
SCALE
  5
54
102
{ACAD_REACTORS
330
47
102
}
330
47
100
AcDbScale
 70
     0
300
2:1
140
2.0
141
1.0
290
     0
  0
SCALE
  5
55
102
{ACAD_REACTORS
330
47
102
}
330
47
100
AcDbScale
 70
     0
300
4:1
140
4.0
141
1.0
290
     0
  0
SCALE
  5
56
102
{ACAD_REACTORS
330
47
102
}
330
47
100
AcDbScale
 70
     0
300
8:1
140
8.0
141
1.0
290
     0
  0
SCALE
  5
57
102
{ACAD_REACTORS
330
47
102
}
330
47
100
AcDbScale
 70
     0
300
10:1
140
10.0
141
1.0
290
     0
  0
SCALE
  5
58
102
{ACAD_REACTORS
330
47
102
}
330
47
100
AcDbScale
 70
     0
300
100:1
140
100.0
141
1.0
290
     0
  0
SCALE
  5
59
102
{ACAD_REACTORS
330
47
102
}
330
47
100
AcDbScale
 70
     0
300
1/128" = 1'-0"
140
0.0078125
141
12.0
290
     0
  0
SCALE
  5
5A
102
{ACAD_REACTORS
330
47
102
}
330
47
100
AcDbScale
 70
     0
300
1/64" = 1'-0"
140
0.015625
141
12.0
290
     0
  0
SCALE
  5
5B
102
{ACAD_REACTORS
330
47
102
}
330
47
100
AcDbScale
 70
     0
300
1/32" = 1'-0"
140
0.03125
141
12.0
290
     0
  0
SCALE
  5
5C
102
{ACAD_REACTORS
330
47
102
}
330
47
100
AcDbScale
 70
     0
300
1/16" = 1'-0"
140
0.0625
141
12.0
290
     0
  0
SCALE
  5
5D
102
{ACAD_REACTORS
330
47
102
}
330
47
100
AcDbScale
 70
     0
300
3/32" = 1'-0"
140
0.09375
141
12.0
290
     0
  0
SCALE
  5
5E
102
{ACAD_REACTORS
330
47
102
}
330
47
100
AcDbScale
 70
     0
300
1/8" = 1'-0"
140
0.125
141
12.0
290
     0
  0
SCALE
  5
5F
102
{ACAD_REACTORS
330
47
102
}
330
47
100
AcDbScale
 70
     0
300
3/16" = 1'-0"
140
0.1875
141
12.0
290
     0
  0
SCALE
  5
60
102
{ACAD_REACTORS
330
47
102
}
330
47
100
AcDbScale
 70
     0
300
1/4" = 1'-0"
140
0.25
141
12.0
290
     0
  0
SCALE
  5
61
102
{ACAD_REACTORS
330
47
102
}
330
47
100
AcDbScale
 70
     0
300
3/8" = 1'-0"
140
0.375
141
12.0
290
     0
  0
SCALE
  5
62
102
{ACAD_REACTORS
330
47
102
}
330
47
100
AcDbScale
 70
     0
300
1/2" = 1'-0"
140
0.5
141
12.0
290
     0
  0
SCALE
  5
63
102
{ACAD_REACTORS
330
47
102
}
330
47
100
AcDbScale
 70
     0
300
3/4" = 1'-0"
140
0.75
141
12.0
290
     0
  0
SCALE
  5
64
102
{ACAD_REACTORS
330
47
102
}
330
47
100
AcDbScale
 70
     0
300
1" = 1'-0"
140
1.0
141
12.0
290
     0
  0
SCALE
  5
65
102
{ACAD_REACTORS
330
47
102
}
330
47
100
AcDbScale
 70
     0
300
1-1/2" = 1'-0"
140
1.5
141
12.0
290
     0
  0
SCALE
  5
66
102
{ACAD_REACTORS
330
47
102
}
330
47
100
AcDbScale
 70
     0
300
3" = 1'-0"
140
3.0
141
12.0
290
     0
  0
SCALE
  5
67
102
{ACAD_REACTORS
330
47
102
}
330
47
100
AcDbScale
 70
     0
300
6" = 1'-0"
140
6.0
141
12.0
290
     0
  0
SCALE
  5
68
102
{ACAD_REACTORS
330
47
102
}
330
47
100
AcDbScale
 70
     0
300
1'-0" = 1'-0"
140
12.0
141
12.0
290
     0
  0
TABLESTYLE
  5
6A
102
{ACAD_REACTORS
330
69
102
}
102
{ACAD_XDICTIONARY
360
4AF
102
}
330
69
100
AcDbTableStyle
  3
Standard
 70
     0
 71
     0
 40
0.06
 41
0.06
280
     0
281
     0
  7
Standard
140
0.18
170
     2
 62
     0
 63
   257
283
     0
 90
        4
 91
        0
  1

274
    -2
284
     1
 64
     0
275
    -2
285
     1
 65
     0
276
    -2
286
     1
 66
     0
277
    -2
287
     1
 67
     0
278
    -2
288
     1
 68
     0
279
    -2
289
     1
 69
     0
  7
Standard
140
0.25
170
     5
 62
     0
 63
   257
283
     0
 90
        4
 91
        0
  1

274
    -2
284
     1
 64
     0
275
    -2
285
     1
 65
     0
276
    -2
286
     1
 66
     0
277
    -2
287
     1
 67
     0
278
    -2
288
     1
 68
     0
279
    -2
289
     1
 69
     0
  7
Standard
140
0.18
170
     5
 62
     0
 63
   257
283
     0
 90
        4
 91
        0
  1

274
    -2
284
     1
 64
     0
275
    -2
285
     1
 65
     0
276
    -2
286
     1
 66
     0
277
    -2
287
     1
 67
     0
278
    -2
288
     1
 68
     0
279
    -2
289
     1
 69
     0
  0
VISUALSTYLE
  5
2F
102
{ACAD_REACTORS
330
2A
102
}
102
{ACAD_XDICTIONARY
360
487
102
}
330
2A
100
AcDbVisualStyle
  2
2dWireframe
 70
     4
177
     2
291
     0
 71
     0
176
     1
 72
     2
176
     1
 73
     0
176
     1
 90
        0
176
     1
 40
0.6
176
     1
 41
30.0
176
     1
 62
     5
 63
     7
421
 16777215
176
     1
 74
     1
176
     1
 91
        4
176
     1
 64
     7
176
     1
 65
   257
176
     1
 75
     1
176
     1
175
     1
176
     1
 42
1.0
176
     1
 92
        0
176
     1
 66
   257
176
     1
 43
1.0
176
     1
 76
     1
176
     1
 77
     6
176
     1
 78
     2
176
     1
 67
     7
176
     1
 79
     5
176
     1
170
     0
176
     1
171
     0
176
     1
290
     0
176
     1
 93
        1
176
     1
 44
0.0
176
     1
173
     0
176
     1
  0
VISUALSTYLE
  5
32
102
{ACAD_REACTORS
330
2A
102
}
102
{ACAD_XDICTIONARY
360
48D
102
}
330
2A
100
AcDbVisualStyle
  2
Basic
 70
     7
177
     2
291
     1
 71
     1
176
     1
 72
     0
176
     1
 73
     1
176
     1
 90
        0
176
     1
 40
0.6
176
     1
 41
30.0
176
     1
 62
     5
 63
     7
421
 16777215
176
     1
 74
     0
176
     1
 91
        4
176
     1
 64
     7
176
     1
 65
   257
176
     1
 75
     1
176
     1
175
     1
176
     1
 42
1.0
176
     1
 92
        8
176
     1
 66
     7
176
     1
 43
1.0
176
     1
 76
     1
176
     1
 77
     6
176
     1
 78
     2
176
     1
 67
     7
176
     1
 79
     5
176
     1
170
     0
176
     1
171
     0
176
     1
290
     0
176
     1
 93
        1
176
     1
 44
0.0
176
     1
173
     0
176
     1
  0
VISUALSTYLE
  5
36
102
{ACAD_REACTORS
330
2A
102
}
102
{ACAD_XDICTIONARY
360
495
102
}
330
2A
100
AcDbVisualStyle
  2
Brighten
 70
    12
177
     2
291
     1
 71
     2
176
     1
 72
     2
176
     1
 73
     0
176
     1
 90
        0
176
     1
 40
0.6
176
     1
 41
30.0
176
     1
 62
     5
 63
     7
421
 16777215
176
     1
 74
     1
176
     1
 91
        4
176
     1
 64
     7
176
     1
 65
   257
176
     1
 75
     1
176
     1
175
     1
176
     1
 42
1.0
176
     1
 92
        8
176
     1
 66
     7
176
     1
 43
1.0
176
     1
 76
     1
176
     1
 77
     6
176
     1
 78
     2
176
     1
 67
     7
176
     1
 79
     5
176
     1
170
     0
176
     1
171
     0
176
     1
290
     0
176
     1
 93
        1
176
     1
 44
50.0
176
     1
173
     0
176
     1
  0
VISUALSTYLE
  5
3A
102
{ACAD_REACTORS
330
2A
102
}
102
{ACAD_XDICTIONARY
360
49D
102
}
330
2A
100
AcDbVisualStyle
  2
ColorChange
 70
    16
177
     2
291
     1
 71
     2
176
     1
 72
     2
176
     1
 73
     3
176
     1
 90
        0
176
     1
 40
0.6
176
     1
 41
30.0
176
     1
 62
     5
 63
     8
421
  8421504
176
     1
 74
     1
176
     1
 91
        4
176
     1
 64
     7
176
     1
 65
   257
176
     1
 75
     1
176
     1
175
     1
176
     1
 42
1.0
176
     1
 92
        8
176
     1
 66
     8
424
  8421504
176
     1
 43
1.0
176
     1
 76
     1
176
     1
 77
     6
176
     1
 78
     2
176
     1
 67
     7
176
     1
 79
     5
176
     1
170
     0
176
     1
171
     0
176
     1
290
     0
176
     1
 93
        1
176
     1
 44
0.0
176
     1
173
     0
176
     1
  0
VISUALSTYLE
  5
34
102
{ACAD_REACTORS
330
2A
102
}
102
{ACAD_XDICTIONARY
360
491
102
}
330
2A
100
AcDbVisualStyle
  2
Conceptual
 70
     9
177
     2
291
     0
 71
     3
176
     1
 72
     2
176
     1
 73
     0
176
     1
 90
        0
176
     1
 40
0.6
176
     1
 41
30.0
176
     1
 62
     5
 63
     7
421
 16777215
176
     1
 74
     2
176
     1
 91
        2
176
     1
 64
     7
176
     1
 65
   257
176
     1
 75
     1
176
     1
175
     1
176
     1
 42
179.0
176
     1
 92
        8
176
     1
 66
     7
176
     1
 43
1.0
176
     1
 76
     1
176
     1
 77
     6
176
     1
 78
     2
176
     1
 67
     7
176
     1
 79
     3
176
     1
170
     0
176
     1
171
     0
176
     1
290
     0
176
     1
 93
        1
176
     1
 44
0.0
176
     1
173
     0
176
     1
  0
VISUALSTYLE
  5
35
102
{ACAD_REACTORS
330
2A
102
}
102
{ACAD_XDICTIONARY
360
493
102
}
330
2A
100
AcDbVisualStyle
  2
Dim
 70
    11
177
     2
291
     1
 71
     2
176
     1
 72
     2
176
     1
 73
     0
176
     1
 90
        0
176
     1
 40
0.6
176
     1
 41
30.0
176
     1
 62
     5
 63
     7
421
 16777215
176
     1
 74
     1
176
     1
 91
        4
176
     1
 64
     7
176
     1
 65
   257
176
     1
 75
     1
176
     1
175
     1
176
     1
 42
1.0
176
     1
 92
        8
176
     1
 66
     7
176
     1
 43
1.0
176
     1
 76
     1
176
     1
 77
     6
176
     1
 78
     2
176
     1
 67
     7
176
     1
 79
     5
176
     1
170
     0
176
     1
171
     0
176
     1
290
     0
176
     1
 93
        1
176
     1
 44
-50.0
176
     1
173
     0
176
     1
  0
VISUALSTYLE
  5
3D
102
{ACAD_REACTORS
330
2A
102
}
102
{ACAD_XDICTIONARY
360
4A3
102
}
330
2A
100
AcDbVisualStyle
  2
EdgeColorOff
 70
    22
177
     2
291
     1
 71
     2
176
     0
 72
     2
176
     0
 73
     0
176
     0
 90
        0
176
     0
 40
0.6
176
     0
 41
30.0
176
     0
 62
     5
 63
     7
421
 16777215
176
     0
 74
     1
176
     0
 91
        4
176
     0
 64
     7
176
     0
 65
   257
176
     0
 75
     1
176
     0
175
     1
176
     0
 42
1.0
176
     0
 92
        8
176
     2
 66
     7
176
     0
 43
1.0
176
     0
 76
     1
176
     0
 77
     6
176
     0
 78
     2
176
     0
 67
     7
176
     0
 79
     5
176
     0
170
     0
176
     0
171
     0
176
     0
290
     0
176
     0
 93
        1
176
     0
 44
0.0
176
     0
173
     0
176
     0
  0
VISUALSTYLE
  5
39
102
{ACAD_REACTORS
330
2A
102
}
102
{ACAD_XDICTIONARY
360
49B
102
}
330
2A
100
AcDbVisualStyle
  2
Facepattern
 70
    15
177
     2
291
     1
 71
     2
176
     1
 72
     2
176
     1
 73
     0
176
     1
 90
        0
176
     1
 40
0.6
176
     1
 41
30.0
176
     1
 62
     5
 63
     7
421
 16777215
176
     1
 74
     1
176
     1
 91
        4
176
     1
 64
     7
176
     1
 65
   257
176
     1
 75
     1
176
     1
175
     1
176
     1
 42
1.0
176
     1
 92
        8
176
     1
 66
     7
176
     1
 43
1.0
176
     1
 76
     1
176
     1
 77
     6
176
     1
 78
     2
176
     1
 67
     7
176
     1
 79
     5
176
     1
170
     0
176
     1
171
     0
176
     1
290
     0
176
     1
 93
        1
176
     1
 44
0.0
176
     1
173
     0
176
     1
  0
VISUALSTYLE
  5
2B
102
{ACAD_REACTORS
330
2A
102
}
102
{ACAD_XDICTIONARY
360
47F
102
}
330
2A
100
AcDbVisualStyle
  2
Flat
 70
     0
177
     2
291
     1
 71
     2
176
     1
 72
     1
176
     1
 73
     1
176
     1
 90
        2
176
     1
 40
0.6
176
     1
 41
30.0
176
     1
 62
     5
 63
     7
421
 16777215
176
     1
 74
     0
176
     1
 91
        0
176
     1
 64
     7
176
     1
 65
   257
176
     1
 75
     1
176
     1
175
     1
176
     1
 42
1.0
176
     1
 92
        8
176
     1
 66
     7
176
     1
 43
1.0
176
     1
 76
     1
176
     1
 77
     6
176
     1
 78
     2
176
     1
 67
     7
176
     1
 79
     5
176
     1
170
     0
176
     1
171
     0
176
     1
290
     0
176
     1
 93
       13
176
     1
 44
0.0
176
     1
173
     0
176
     1
  0
VISUALSTYLE
  5
2C
102
{ACAD_REACTORS
330
2A
102
}
102
{ACAD_XDICTIONARY
360
481
102
}
330
2A
100
AcDbVisualStyle
  2
FlatWithEdges
 70
     1
177
     2
291
     1
 71
     2
176
     1
 72
     1
176
     1
 73
     1
176
     1
 90
        2
176
     1
 40
0.6
176
     1
 41
30.0
176
     1
 62
     5
 63
     7
421
 16777215
176
     1
 74
     1
176
     1
 91
        0
176
     1
 64
     7
176
     1
 65
   257
176
     1
 75
     1
176
     1
175
     1
176
     1
 42
1.0
176
     1
 92
        0
176
     1
 66
   257
176
     1
 43
1.0
176
     1
 76
     1
176
     1
 77
     6
176
     1
 78
     2
176
     1
 67
     7
176
     1
 79
     5
176
     1
170
     0
176
     1
171
     0
176
     1
290
     0
176
     1
 93
       13
176
     1
 44
0.0
176
     1
173
     0
176
     1
  0
VISUALSTYLE
  5
2D
102
{ACAD_REACTORS
330
2A
102
}
102
{ACAD_XDICTIONARY
360
483
102
}
330
2A
100
AcDbVisualStyle
  2
Gouraud
 70
     2
177
     2
291
     1
 71
     2
176
     1
 72
     2
176
     1
 73
     1
176
     1
 90
        2
176
     1
 40
0.6
176
     1
 41
30.0
176
     1
 62
     5
 63
     7
421
 16777215
176
     1
 74
     0
176
     1
 91
        0
176
     1
 64
     7
176
     1
 65
   257
176
     1
 75
     1
176
     1
175
     1
176
     1
 42
1.0
176
     1
 92
        0
176
     1
 66
     7
176
     1
 43
1.0
176
     1
 76
     1
176
     1
 77
     6
176
     1
 78
     2
176
     1
 67
     7
176
     1
 79
     5
176
     1
170
     0
176
     1
171
     0
176
     1
290
     0
176
     1
 93
       13
176
     1
 44
0.0
176
     1
173
     0
176
     1
  0
VISUALSTYLE
  5
2E
102
{ACAD_REACTORS
330
2A
102
}
102
{ACAD_XDICTIONARY
360
485
102
}
330
2A
100
AcDbVisualStyle
  2
GouraudWithEdges
 70
     3
177
     2
291
     1
 71
     2
176
     1
 72
     2
176
     1
 73
     1
176
     1
 90
        2
176
     1
 40
0.6
176
     1
 41
30.0
176
     1
 62
     5
 63
     7
421
 16777215
176
     1
 74
     1
176
     1
 91
        0
176
     1
 64
     7
176
     1
 65
   257
176
     1
 75
     1
176
     1
175
     1
176
     1
 42
1.0
176
     1
 92
        0
176
     1
 66
   257
176
     1
 43
1.0
176
     1
 76
     1
176
     1
 77
     6
176
     1
 78
     2
176
     1
 67
     7
176
     1
 79
     5
176
     1
170
     0
176
     1
171
     0
176
     1
290
     0
176
     1
 93
       13
176
     1
 44
0.0
176
     1
173
     0
176
     1
  0
VISUALSTYLE
  5
31
102
{ACAD_REACTORS
330
2A
102
}
102
{ACAD_XDICTIONARY
360
48B
102
}
330
2A
100
AcDbVisualStyle
  2
Hidden
 70
     6
177
     2
291
     0
 71
     1
176
     1
 72
     2
176
     1
 73
     2
176
     1
 90
        0
176
     1
 40
0.6
176
     1
 41
30.0
176
     1
 62
     5
 63
     7
421
 16777215
176
     1
 74
     2
176
     1
 91
        2
176
     1
 64
     7
176
     1
 65
   257
176
     1
 75
     2
176
     1
175
     1
176
     1
 42
40.0
176
     1
 92
        0
176
     1
 66
   257
176
     1
 43
1.0
176
     1
 76
     1
176
     1
 77
     6
176
     1
 78
     2
176
     1
 67
     7
176
     1
 79
     3
176
     1
170
     0
176
     1
171
     0
176
     1
290
     0
176
     1
 93
        1
176
     1
 44
0.0
176
     1
173
     0
176
     1
  0
VISUALSTYLE
  5
3B
102
{ACAD_REACTORS
330
2A
102
}
102
{ACAD_XDICTIONARY
360
49F
102
}
330
2A
100
AcDbVisualStyle
  2
JitterOff
 70
    20
177
     2
291
     1
 71
     2
176
     0
 72
     2
176
     0
 73
     0
176
     0
 90
        0
176
     0
 40
0.6
176
     0
 41
30.0
176
     0
 62
     5
 63
     7
421
 16777215
176
     0
 74
     1
176
     0
 91
        4
176
     0
 64
     7
176
     0
 65
   257
176
     0
 75
     1
176
     0
175
     1
176
     0
 42
1.0
176
     0
 92
       10
176
     2
 66
     7
176
     0
 43
1.0
176
     0
 76
     1
176
     0
 77
     6
176
     0
 78
     2
176
     0
 67
     7
176
     0
 79
     5
176
     0
170
     0
176
     0
171
     0
176
     0
290
     0
176
     0
 93
        1
176
     0
 44
0.0
176
     0
173
     0
176
     0
  0
VISUALSTYLE
  5
38
102
{ACAD_REACTORS
330
2A
102
}
102
{ACAD_XDICTIONARY
360
499
102
}
330
2A
100
AcDbVisualStyle
  2
Linepattern
 70
    14
177
     2
291
     1
 71
     2
176
     1
 72
     2
176
     1
 73
     0
176
     1
 90
        0
176
     1
 40
0.6
176
     1
 41
30.0
176
     1
 62
     5
 63
     7
421
 16777215
176
     1
 74
     1
176
     1
 91
        4
176
     1
 64
     7
176
     1
 65
   257
176
     1
 75
     7
176
     1
175
     7
176
     1
 42
1.0
176
     1
 92
        8
176
     1
 66
     7
176
     1
 43
1.0
176
     1
 76
     1
176
     1
 77
     6
176
     1
 78
     2
176
     1
 67
     7
176
     1
 79
     5
176
     1
170
     0
176
     1
171
     0
176
     1
290
     0
176
     1
 93
        1
176
     1
 44
0.0
176
     1
173
     0
176
     1
  0
VISUALSTYLE
  5
3C
102
{ACAD_REACTORS
330
2A
102
}
102
{ACAD_XDICTIONARY
360
4A1
102
}
330
2A
100
AcDbVisualStyle
  2
OverhangOff
 70
    21
177
     2
291
     1
 71
     2
176
     0
 72
     2
176
     0
 73
     0
176
     0
 90
        0
176
     0
 40
0.6
176
     0
 41
30.0
176
     0
 62
     5
 63
     7
421
 16777215
176
     0
 74
     1
176
     0
 91
        4
176
     0
 64
     7
176
     0
 65
   257
176
     0
 75
     1
176
     0
175
     1
176
     0
 42
1.0
176
     0
 92
        9
176
     2
 66
     7
176
     0
 43
1.0
176
     0
 76
     1
176
     0
 77
     6
176
     0
 78
     2
176
     0
 67
     7
176
     0
 79
     5
176
     0
170
     0
176
     0
171
     0
176
     0
290
     0
176
     0
 93
        1
176
     0
 44
0.0
176
     0
173
     0
176
     0
  0
VISUALSTYLE
  5
33
102
{ACAD_REACTORS
330
2A
102
}
102
{ACAD_XDICTIONARY
360
48F
102
}
330
2A
100
AcDbVisualStyle
  2
Realistic
 70
     8
177
     2
291
     0
 71
     2
176
     1
 72
     3
176
     1
 73
     0
176
     1
 90
        2
176
     1
 40
0.6
176
     1
 41
30.0
176
     1
 62
     5
 63
     7
421
 16777215
176
     1
 74
     0
176
     1
 91
        0
176
     1
 64
     7
176
     1
 65
   257
176
     1
 75
     1
176
     1
175
     1
176
     1
 42
1.0
176
     1
 92
        8
176
     1
 66
   257
176
     1
 43
1.0
176
     1
 76
     1
176
     1
 77
     6
176
     1
 78
     2
176
     1
 67
     7
176
     1
 79
     3
176
     1
170
     0
176
     1
171
     0
176
     1
290
     0
176
     1
 93
       13
176
     1
 44
0.0
176
     1
173
     0
176
     1
  0
VISUALSTYLE
  5
42
102
{ACAD_REACTORS
330
2A
102
}
102
{ACAD_XDICTIONARY
360
4AD
102
}
330
2A
100
AcDbVisualStyle
  2
Shaded
 70
    27
177
     2
291
     0
 71
     2
176
     1
 72
     2
176
     1
 73
     1
176
     1
 90
        2
176
     1
 40
0.6
176
     1
 41
30.0
176
     1
 62
     5
 63
     7
421
 16777215
176
     1
 74
     0
176
     1
 91
        4
176
     1
 64
     7
176
     1
 65
   257
176
     1
 75
     1
176
     1
175
     1
176
     1
 42
1.0
176
     1
 92
        8
176
     1
 66
   257
176
     1
 43
1.0
176
     1
 76
     1
176
     1
 77
     6
176
     1
 78
     2
176
     1
 67
     8
425
  7895160
176
     1
 79
     3
176
     1
170
     0
176
     1
171
     0
176
     1
290
     0
176
     1
 93
        5
176
     1
 44
0.0
176
     1
173
     0
176
     1
  0
VISUALSTYLE
  5
41
102
{ACAD_REACTORS
330
2A
102
}
102
{ACAD_XDICTIONARY
360
4AB
102
}
330
2A
100
AcDbVisualStyle
  2
Shaded with edges
 70
    26
177
     2
291
     0
 71
     2
176
     1
 72
     2
176
     1
 73
     1
176
     1
 90
        2
176
     1
 40
0.6
176
     1
 41
30.0
176
     1
 62
     5
 63
     7
421
 16777215
176
     1
 74
     1
176
     1
 91
       10
176
     1
 64
     7
176
     1
 65
   257
176
     1
 75
     2
176
     1
175
     1
176
     1
 42
1.0
176
     1
 92
        8
176
     1
 66
   257
176
     1
 43
1.0
176
     1
 76
     1
176
     1
 77
     6
176
     1
 78
     2
176
     1
 67
     7
176
     1
 79
     3
176
     1
170
     0
176
     1
171
     0
176
     1
290
     0
176
     1
 93
        5
176
     1
 44
0.0
176
     1
173
     0
176
     1
  0
VISUALSTYLE
  5
3E
102
{ACAD_REACTORS
330
2A
102
}
102
{ACAD_XDICTIONARY
360
4A5
102
}
330
2A
100
AcDbVisualStyle
  2
Shades of Gray
 70
    23
177
     2
291
     0
 71
     2
176
     1
 72
     2
176
     1
 73
     3
176
     1
 90
        0
176
     1
 40
0.6
176
     1
 41
30.0
176
     1
 62
     5
 63
     7
421
 16777215
176
     1
 74
     2
176
     1
 91
        2
176
     1
 64
     7
176
     1
 65
     7
176
     1
 75
     1
176
     1
175
     1
176
     1
 42
40.0
176
     1
 92
        8
176
     1
 66
     7
176
     1
 43
1.0
176
     1
 76
     1
176
     1
 77
     6
176
     1
 78
     2
176
     1
 67
     7
176
     1
 79
     3
176
     1
170
     0
176
     1
171
     0
176
     1
290
     0
176
     1
 93
        1
176
     1
 44
0.0
176
     1
173
     0
176
     1
  0
VISUALSTYLE
  5
3F
102
{ACAD_REACTORS
330
2A
102
}
102
{ACAD_XDICTIONARY
360
4A7
102
}
330
2A
100
AcDbVisualStyle
  2
Sketchy
 70
    24
177
     2
291
     0
 71
     1
176
     1
 72
     2
176
     1
 73
     2
176
     1
 90
        0
176
     1
 40
0.6
176
     1
 41
30.0
176
     1
 62
     5
 63
     7
421
 16777215
176
     1
 74
     2
176
     1
 91
        2
176
     1
 64
     7
176
     1
 65
     7
176
     1
 75
     1
176
     1
175
     1
176
     1
 42
40.0
176
     1
 92
       11
176
     1
 66
     7
176
     1
 43
1.0
176
     1
 76
     1
176
     1
 77
     6
176
     1
 78
     2
176
     1
 67
     7
176
     1
 79
     6
176
     1
170
     0
176
     1
171
     0
176
     1
290
     0
176
     1
 93
        1
176
     1
 44
0.0
176
     1
173
     0
176
     1
  0
VISUALSTYLE
  5
37
102
{ACAD_REACTORS
330
2A
102
}
102
{ACAD_XDICTIONARY
360
497
102
}
330
2A
100
AcDbVisualStyle
  2
Thicken
 70
    13
177
     2
291
     1
 71
     2
176
     1
 72
     2
176
     1
 73
     0
176
     1
 90
        0
176
     1
 40
0.6
176
     1
 41
30.0
176
     1
 62
     5
 63
     7
421
 16777215
176
     1
 74
     1
176
     1
 91
        4
176
     1
 64
     7
176
     1
 65
   257
176
     1
 75
     1
176
     1
175
     1
176
     1
 42
1.0
176
     1
 92
       12
176
     1
 66
     7
176
     1
 43
1.0
176
     1
 76
     1
176
     1
 77
     6
176
     1
 78
     2
176
     1
 67
     7
176
     1
 79
     5
176
     1
170
     0
176
     1
171
     0
176
     1
290
     0
176
     1
 93
        1
176
     1
 44
0.0
176
     1
173
     0
176
     1
  0
VISUALSTYLE
  5
30
102
{ACAD_REACTORS
330
2A
102
}
102
{ACAD_XDICTIONARY
360
489
102
}
330
2A
100
AcDbVisualStyle
  2
Wireframe
 70
     5
177
     2
291
     0
 71
     0
176
     1
 72
     2
176
     1
 73
     0
176
     1
 90
        0
176
     1
 40
0.6
176
     1
 41
30.0
176
     1
 62
     5
 63
     7
421
 16777215
176
     1
 74
     1
176
     1
 91
        4
176
     1
 64
     7
176
     1
 65
   257
176
     1
 75
     1
176
     1
175
     1
176
     1
 42
1.0
176
     1
 92
        0
176
     1
 66
   257
176
     1
 43
1.0
176
     1
 76
     1
176
     1
 77
     6
176
     1
 78
     2
176
     1
 67
     7
176
     1
 79
     3
176
     1
170
     0
176
     1
171
     0
176
     1
290
     0
176
     1
 93
        1
176
     1
 44
0.0
176
     1
173
     0
176
     1
  0
VISUALSTYLE
  5
40
102
{ACAD_REACTORS
330
2A
102
}
102
{ACAD_XDICTIONARY
360
4A9
102
}
330
2A
100
AcDbVisualStyle
  2
X-Ray
 70
    25
177
     2
291
     0
 71
     2
176
     1
 72
     2
176
     1
 73
     1
176
     1
 90
        1
176
     1
 40
0.5
176
     1
 41
30.0
176
     1
 62
     5
 63
     7
421
 16777215
176
     1
 74
     1
176
     1
 91
        0
176
     1
 64
     7
176
     1
 65
   257
176
     1
 75
     1
176
     1
175
     1
176
     1
 42
1.0
176
     1
 92
        8
176
     1
 66
     7
176
     1
 43
1.0
176
     1
 76
     1
176
     1
 77
     6
176
     1
 78
     2
176
     1
 67
     7
176
     1
 79
     3
176
     1
170
     0
176
     1
171
     0
176
     1
290
     0
176
     1
 93
       13
176
     1
 44
0.0
176
     1
173
     0
176
     1
  0
DICTIONARYVAR
  5
47E
102
{ACAD_REACTORS
330
47D
102
}
330
47D
100
DictionaryVariables
280
     0
  1
1:1
  0
DICTIONARYVAR
  5
4B3
102
{ACAD_REACTORS
330
47D
102
}
330
47D
100
DictionaryVariables
280
     0
  1
Standard
  0
DICTIONARYVAR
  5
4B2
102
{ACAD_REACTORS
330
47D
102
}
330
47D
100
DictionaryVariables
280
     0
  1
Standard
  0
DICTIONARY
  5
4AF
330
6A
100
AcDbDictionary
280
     1
281
     1
  3
ACAD_ROUNDTRIP_2008_TABLESTYLE_CELLSTYLEMAP
360
4B0
  0
DICTIONARY
  5
487
330
2F
100
AcDbDictionary
280
     1
281
     1
  3
ACAD_XREC_ROUNDTRIP
360
488
  0
DICTIONARY
  5
48D
330
32
100
AcDbDictionary
280
     1
281
     1
  3
ACAD_XREC_ROUNDTRIP
360
48E
  0
DICTIONARY
  5
495
330
36
100
AcDbDictionary
280
     1
281
     1
  3
ACAD_XREC_ROUNDTRIP
360
496
  0
DICTIONARY
  5
49D
330
3A
100
AcDbDictionary
280
     1
281
     1
  3
ACAD_XREC_ROUNDTRIP
360
49E
  0
DICTIONARY
  5
491
330
34
100
AcDbDictionary
280
     1
281
     1
  3
ACAD_XREC_ROUNDTRIP
360
492
  0
DICTIONARY
  5
493
330
35
100
AcDbDictionary
280
     1
281
     1
  3
ACAD_XREC_ROUNDTRIP
360
494
  0
DICTIONARY
  5
4A3
330
3D
100
AcDbDictionary
280
     1
281
     1
  3
ACAD_XREC_ROUNDTRIP
360
4A4
  0
DICTIONARY
  5
49B
330
39
100
AcDbDictionary
280
     1
281
     1
  3
ACAD_XREC_ROUNDTRIP
360
49C
  0
DICTIONARY
  5
47F
330
2B
100
AcDbDictionary
280
     1
281
     1
  3
ACAD_XREC_ROUNDTRIP
360
480
  0
DICTIONARY
  5
481
330
2C
100
AcDbDictionary
280
     1
281
     1
  3
ACAD_XREC_ROUNDTRIP
360
482
  0
DICTIONARY
  5
483
330
2D
100
AcDbDictionary
280
     1
281
     1
  3
ACAD_XREC_ROUNDTRIP
360
484
  0
DICTIONARY
  5
485
330
2E
100
AcDbDictionary
280
     1
281
     1
  3
ACAD_XREC_ROUNDTRIP
360
486
  0
DICTIONARY
  5
48B
330
31
100
AcDbDictionary
280
     1
281
     1
  3
ACAD_XREC_ROUNDTRIP
360
48C
  0
DICTIONARY
  5
49F
330
3B
100
AcDbDictionary
280
     1
281
     1
  3
ACAD_XREC_ROUNDTRIP
360
4A0
  0
DICTIONARY
  5
499
330
38
100
AcDbDictionary
280
     1
281
     1
  3
ACAD_XREC_ROUNDTRIP
360
49A
  0
DICTIONARY
  5
4A1
330
3C
100
AcDbDictionary
280
     1
281
     1
  3
ACAD_XREC_ROUNDTRIP
360
4A2
  0
DICTIONARY
  5
48F
330
33
100
AcDbDictionary
280
     1
281
     1
  3
ACAD_XREC_ROUNDTRIP
360
490
  0
DICTIONARY
  5
4AD
330
42
100
AcDbDictionary
280
     1
281
     1
  3
ACAD_XREC_ROUNDTRIP
360
4AE
  0
DICTIONARY
  5
4AB
330
41
100
AcDbDictionary
280
     1
281
     1
  3
ACAD_XREC_ROUNDTRIP
360
4AC
  0
DICTIONARY
  5
4A5
330
3E
100
AcDbDictionary
280
     1
281
     1
  3
ACAD_XREC_ROUNDTRIP
360
4A6
  0
DICTIONARY
  5
4A7
330
3F
100
AcDbDictionary
280
     1
281
     1
  3
ACAD_XREC_ROUNDTRIP
360
4A8
  0
DICTIONARY
  5
497
330
37
100
AcDbDictionary
280
     1
281
     1
  3
ACAD_XREC_ROUNDTRIP
360
498
  0
DICTIONARY
  5
489
330
30
100
AcDbDictionary
280
     1
281
     1
  3
ACAD_XREC_ROUNDTRIP
360
48A
  0
DICTIONARY
  5
4A9
330
40
100
AcDbDictionary
280
     1
281
     1
  3
ACAD_XREC_ROUNDTRIP
360
4AA
  0
CELLSTYLEMAP
  5
4B0
102
{ACAD_REACTORS
330
4AF
102
}
330
4AF
100
AcDbCellStyleMap
 90
        3
300
CELLSTYLE
  1
TABLEFORMAT_BEGIN
 90
        5
170
     1
 91
        0
 92
    32768
 62
   257
 93
        1
300
CONTENTFORMAT
  1
CONTENTFORMAT_BEGIN
 90
        0
 91
        0
 92
        4
 93
        0
300

 40
0.0
140
1.0
 94
        5
 62
     0
340
11
144
0.25
309
CONTENTFORMAT_END
171
     1
301
MARGIN
  1
CELLMARGIN_BEGIN
 40
0.06
 40
0.06
 40
0.06
 40
0.06
 40
0.06
 40
0.06
309
CELLMARGIN_END
 94
        6
 95
        1
302
GRIDFORMAT
  1
GRIDFORMAT_BEGIN
 90
        0
 91
        1
 62
     0
 92
       -2
340
14
 93
        0
 40
0.045
309
GRIDFORMAT_END
 95
        2
302
GRIDFORMAT
  1
GRIDFORMAT_BEGIN
 90
        0
 91
        1
 62
     0
 92
       -2
340
14
 93
        0
 40
0.045
309
GRIDFORMAT_END
 95
        4
302
GRIDFORMAT
  1
GRIDFORMAT_BEGIN
 90
        0
 91
        1
 62
     0
 92
       -2
340
14
 93
        0
 40
0.045
309
GRIDFORMAT_END
 95
        8
302
GRIDFORMAT
  1
GRIDFORMAT_BEGIN
 90
        0
 91
        1
 62
     0
 92
       -2
340
14
 93
        0
 40
0.045
309
GRIDFORMAT_END
 95
       16
302
GRIDFORMAT
  1
GRIDFORMAT_BEGIN
 90
        0
 91
        1
 62
     0
 92
       -2
340
14
 93
        0
 40
0.045
309
GRIDFORMAT_END
 95
       32
302
GRIDFORMAT
  1
GRIDFORMAT_BEGIN
 90
        0
 91
        1
 62
     0
 92
       -2
340
14
 93
        0
 40
0.045
309
GRIDFORMAT_END
309
TABLEFORMAT_END
  1
CELLSTYLE_BEGIN
 90
        1
 91
        1
300
_TITLE
309
CELLSTYLE_END
300
CELLSTYLE
  1
TABLEFORMAT_BEGIN
 90
        5
170
     1
 91
        0
 92
        0
 62
   257
 93
        1
300
CONTENTFORMAT
  1
CONTENTFORMAT_BEGIN
 90
        0
 91
        0
 92
        4
 93
        0
300

 40
0.0
140
1.0
 94
        5
 62
     0
340
11
144
0.18
309
CONTENTFORMAT_END
171
     1
301
MARGIN
  1
CELLMARGIN_BEGIN
 40
0.06
 40
0.06
 40
0.06
 40
0.06
 40
0.06
 40
0.06
309
CELLMARGIN_END
 94
        6
 95
        1
302
GRIDFORMAT
  1
GRIDFORMAT_BEGIN
 90
        0
 91
        1
 62
     0
 92
       -2
340
14
 93
        0
 40
0.045
309
GRIDFORMAT_END
 95
        2
302
GRIDFORMAT
  1
GRIDFORMAT_BEGIN
 90
        0
 91
        1
 62
     0
 92
       -2
340
14
 93
        0
 40
0.045
309
GRIDFORMAT_END
 95
        4
302
GRIDFORMAT
  1
GRIDFORMAT_BEGIN
 90
        0
 91
        1
 62
     0
 92
       -2
340
14
 93
        0
 40
0.045
309
GRIDFORMAT_END
 95
        8
302
GRIDFORMAT
  1
GRIDFORMAT_BEGIN
 90
        0
 91
        1
 62
     0
 92
       -2
340
14
 93
        0
 40
0.045
309
GRIDFORMAT_END
 95
       16
302
GRIDFORMAT
  1
GRIDFORMAT_BEGIN
 90
        0
 91
        1
 62
     0
 92
       -2
340
14
 93
        0
 40
0.045
309
GRIDFORMAT_END
 95
       32
302
GRIDFORMAT
  1
GRIDFORMAT_BEGIN
 90
        0
 91
        1
 62
     0
 92
       -2
340
14
 93
        0
 40
0.045
309
GRIDFORMAT_END
309
TABLEFORMAT_END
  1
CELLSTYLE_BEGIN
 90
        2
 91
        1
300
_HEADER
309
CELLSTYLE_END
300
CELLSTYLE
  1
TABLEFORMAT_BEGIN
 90
        5
170
     1
 91
        0
 92
        0
 62
   257
 93
        1
300
CONTENTFORMAT
  1
CONTENTFORMAT_BEGIN
 90
        0
 91
        0
 92
        4
 93
        0
300

 40
0.0
140
1.0
 94
        2
 62
     0
340
11
144
0.18
309
CONTENTFORMAT_END
171
     1
301
MARGIN
  1
CELLMARGIN_BEGIN
 40
0.06
 40
0.06
 40
0.06
 40
0.06
 40
0.06
 40
0.06
309
CELLMARGIN_END
 94
        6
 95
        1
302
GRIDFORMAT
  1
GRIDFORMAT_BEGIN
 90
        0
 91
        1
 62
     0
 92
       -2
340
14
 93
        0
 40
0.045
309
GRIDFORMAT_END
 95
        2
302
GRIDFORMAT
  1
GRIDFORMAT_BEGIN
 90
        0
 91
        1
 62
     0
 92
       -2
340
14
 93
        0
 40
0.045
309
GRIDFORMAT_END
 95
        4
302
GRIDFORMAT
  1
GRIDFORMAT_BEGIN
 90
        0
 91
        1
 62
     0
 92
       -2
340
14
 93
        0
 40
0.045
309
GRIDFORMAT_END
 95
        8
302
GRIDFORMAT
  1
GRIDFORMAT_BEGIN
 90
        0
 91
        1
 62
     0
 92
       -2
340
14
 93
        0
 40
0.045
309
GRIDFORMAT_END
 95
       16
302
GRIDFORMAT
  1
GRIDFORMAT_BEGIN
 90
        0
 91
        1
 62
     0
 92
       -2
340
14
 93
        0
 40
0.045
309
GRIDFORMAT_END
 95
       32
302
GRIDFORMAT
  1
GRIDFORMAT_BEGIN
 90
        0
 91
        1
 62
     0
 92
       -2
340
14
 93
        0
 40
0.045
309
GRIDFORMAT_END
309
TABLEFORMAT_END
  1
CELLSTYLE_BEGIN
 90
        3
 91
        2
300
_DATA
309
CELLSTYLE_END
  0
XRECORD
  5
488
102
{ACAD_REACTORS
330
487
102
}
330
487
100
AcDbXrecord
280
     1
102
RTVSPost2010Prop28
280
     1
102
RTVSPost2010PropOp28
 70
     1
102
RTVSPost2010Prop29
280
     1
102
RTVSPost2010PropOp29
 70
     1
102
RTVSPost2010Prop30
280
     0
102
RTVSPost2010PropOp30
 70
     1
102
RTVSPost2010Prop31
280
     0
102
RTVSPost2010PropOp31
 70
     1
102
RTVSPost2010Prop32
280
     0
102
RTVSPost2010PropOp32
 70
     1
102
RTVSPost2010Prop33
280
     0
102
RTVSPost2010PropOp33
 70
     1
102
RTVSPost2010Prop34
280
     0
102
RTVSPost2010PropOp34
 70
     1
102
RTVSPost2010Prop35
280
     0
102
RTVSPost2010PropOp35
 70
     1
102
RTVSPost2010Prop36
280
     0
102
RTVSPost2010PropOp36
 70
     1
102
RTVSPost2010Prop37
 90
       50
102
RTVSPost2010PropOp37
 70
     1
102
RTVSPost2010Prop38
140
0.0
102
RTVSPost2010PropOp38
 70
     1
102
RTVSPost2010Prop39
140
1.0
102
RTVSPost2010PropOp39
 70
     1
102
RTVSPost2010Prop40
 90
        0
102
RTVSPost2010PropOp40
 70
     1
102
RTVSPost2010Prop41ColorIndex
 90
       18
102
RTVSPost2010Prop41ColorRGB
 90
        0
102
RTVSPost2010PropOp41
 70
     1
102
RTVSPost2010Prop42
 90
       50
102
RTVSPost2010PropOp42
 70
     1
102
RTVSPost2010Prop43
 90
        3
102
RTVSPost2010PropOp43
 70
     1
102
RTVSPost2010Prop44ColorIndex
 90
        5
102
RTVSPost2010Prop44ColorRGB
 90
      255
102
RTVSPost2010PropOp44
 70
     1
102
RTVSPost2010Prop45
280
     0
102
RTVSPost2010PropOp45
 70
     1
102
RTVSPost2010Prop46
 90
       50
102
RTVSPost2010PropOp46
 70
     1
102
RTVSPost2010Prop47
 90
       50
102
RTVSPost2010PropOp47
 70
     1
102
RTVSPost2010Prop48
 90
       50
102
RTVSPost2010PropOp48
 70
     1
102
RTVSPost2010Prop49
280
     0
102
RTVSPost2010PropOp49
 70
     1
102
RTVSPost2010Prop50
 90
       50
102
RTVSPost2010PropOp50
 70
     1
102
RTVSPost2010Prop51ColorIndex
 90
      256
102
RTVSPost2010Prop51ColorRGB
 90
-16777216
102
RTVSPost2010PropOp51
 70
     0
102
RTVSPost2010Prop52
140
1.0
102
RTVSPost2010PropOp52
 70
     0
102
RTVSPost2010Prop53
 90
        2
102
RTVSPost2010PropOp53
 70
     1
102
RTVSPost2010Prop54
  1
strokes_ogs.tif
102
RTVSPost2010PropOp54
 70
     1
102
RTVSPost2010Prop55
280
     0
102
RTVSPost2010PropOp55
 70
     1
102
RTVSPost2010Prop56
140
1.0
102
RTVSPost2010PropOp56
 70
     1
102
RTVSPost2010Prop57
140
1.0
102
RTVSPost2010PropOp57
 70
     1
  0
XRECORD
  5
48E
102
{ACAD_REACTORS
330
48D
102
}
330
48D
100
AcDbXrecord
280
     1
102
RTVSPost2010Prop28
280
     0
102
RTVSPost2010PropOp28
 70
     1
102
RTVSPost2010Prop29
280
     1
102
RTVSPost2010PropOp29
 70
     1
102
RTVSPost2010Prop30
280
     1
102
RTVSPost2010PropOp30
 70
     1
102
RTVSPost2010Prop31
280
     0
102
RTVSPost2010PropOp31
 70
     1
102
RTVSPost2010Prop32
280
     0
102
RTVSPost2010PropOp32
 70
     1
102
RTVSPost2010Prop33
280
     0
102
RTVSPost2010PropOp33
 70
     1
102
RTVSPost2010Prop34
280
     0
102
RTVSPost2010PropOp34
 70
     1
102
RTVSPost2010Prop35
280
     0
102
RTVSPost2010PropOp35
 70
     1
102
RTVSPost2010Prop36
280
     0
102
RTVSPost2010PropOp36
 70
     1
102
RTVSPost2010Prop37
 90
       50
102
RTVSPost2010PropOp37
 70
     1
102
RTVSPost2010Prop38
140
0.0
102
RTVSPost2010PropOp38
 70
     1
102
RTVSPost2010Prop39
140
1.0
102
RTVSPost2010PropOp39
 70
     1
102
RTVSPost2010Prop40
 90
        0
102
RTVSPost2010PropOp40
 70
     1
102
RTVSPost2010Prop41ColorIndex
 90
       18
102
RTVSPost2010Prop41ColorRGB
 90
        0
102
RTVSPost2010PropOp41
 70
     1
102
RTVSPost2010Prop42
 90
       50
102
RTVSPost2010PropOp42
 70
     1
102
RTVSPost2010Prop43
 90
        3
102
RTVSPost2010PropOp43
 70
     1
102
RTVSPost2010Prop44ColorIndex
 90
        5
102
RTVSPost2010Prop44ColorRGB
 90
      255
102
RTVSPost2010PropOp44
 70
     1
102
RTVSPost2010Prop45
280
     0
102
RTVSPost2010PropOp45
 70
     1
102
RTVSPost2010Prop46
 90
       50
102
RTVSPost2010PropOp46
 70
     1
102
RTVSPost2010Prop47
 90
       50
102
RTVSPost2010PropOp47
 70
     1
102
RTVSPost2010Prop48
 90
       50
102
RTVSPost2010PropOp48
 70
     1
102
RTVSPost2010Prop49
280
     0
102
RTVSPost2010PropOp49
 70
     1
102
RTVSPost2010Prop50
 90
       50
102
RTVSPost2010PropOp50
 70
     1
102
RTVSPost2010Prop51ColorIndex
 90
      256
102
RTVSPost2010Prop51ColorRGB
 90
-16777216
102
RTVSPost2010PropOp51
 70
     0
102
RTVSPost2010Prop52
140
1.0
102
RTVSPost2010PropOp52
 70
     0
102
RTVSPost2010Prop53
 90
        2
102
RTVSPost2010PropOp53
 70
     1
102
RTVSPost2010Prop54
  1
strokes_ogs.tif
102
RTVSPost2010PropOp54
 70
     1
102
RTVSPost2010Prop55
280
     0
102
RTVSPost2010PropOp55
 70
     1
102
RTVSPost2010Prop56
140
1.0
102
RTVSPost2010PropOp56
 70
     1
102
RTVSPost2010Prop57
140
1.0
102
RTVSPost2010PropOp57
 70
     1
  0
XRECORD
  5
496
102
{ACAD_REACTORS
330
495
102
}
330
495
100
AcDbXrecord
280
     1
102
RTVSPost2010Prop28
280
     0
102
RTVSPost2010PropOp28
 70
     1
102
RTVSPost2010Prop29
280
     1
102
RTVSPost2010PropOp29
 70
     1
102
RTVSPost2010Prop30
280
     1
102
RTVSPost2010PropOp30
 70
     1
102
RTVSPost2010Prop31
280
     0
102
RTVSPost2010PropOp31
 70
     1
102
RTVSPost2010Prop32
280
     0
102
RTVSPost2010PropOp32
 70
     1
102
RTVSPost2010Prop33
280
     0
102
RTVSPost2010PropOp33
 70
     1
102
RTVSPost2010Prop34
280
     0
102
RTVSPost2010PropOp34
 70
     1
102
RTVSPost2010Prop35
280
     0
102
RTVSPost2010PropOp35
 70
     1
102
RTVSPost2010Prop36
280
     0
102
RTVSPost2010PropOp36
 70
     1
102
RTVSPost2010Prop37
 90
       50
102
RTVSPost2010PropOp37
 70
     1
102
RTVSPost2010Prop38
140
0.0
102
RTVSPost2010PropOp38
 70
     1
102
RTVSPost2010Prop39
140
1.0
102
RTVSPost2010PropOp39
 70
     1
102
RTVSPost2010Prop40
 90
        0
102
RTVSPost2010PropOp40
 70
     1
102
RTVSPost2010Prop41ColorIndex
 90
       18
102
RTVSPost2010Prop41ColorRGB
 90
        0
102
RTVSPost2010PropOp41
 70
     1
102
RTVSPost2010Prop42
 90
       50
102
RTVSPost2010PropOp42
 70
     1
102
RTVSPost2010Prop43
 90
        3
102
RTVSPost2010PropOp43
 70
     1
102
RTVSPost2010Prop44ColorIndex
 90
        5
102
RTVSPost2010Prop44ColorRGB
 90
      255
102
RTVSPost2010PropOp44
 70
     1
102
RTVSPost2010Prop45
280
     0
102
RTVSPost2010PropOp45
 70
     1
102
RTVSPost2010Prop46
 90
       50
102
RTVSPost2010PropOp46
 70
     1
102
RTVSPost2010Prop47
 90
       50
102
RTVSPost2010PropOp47
 70
     1
102
RTVSPost2010Prop48
 90
       50
102
RTVSPost2010PropOp48
 70
     1
102
RTVSPost2010Prop49
280
     0
102
RTVSPost2010PropOp49
 70
     1
102
RTVSPost2010Prop50
 90
       50
102
RTVSPost2010PropOp50
 70
     1
102
RTVSPost2010Prop51ColorIndex
 90
      256
102
RTVSPost2010Prop51ColorRGB
 90
-16777216
102
RTVSPost2010PropOp51
 70
     0
102
RTVSPost2010Prop52
140
1.0
102
RTVSPost2010PropOp52
 70
     0
102
RTVSPost2010Prop53
 90
        2
102
RTVSPost2010PropOp53
 70
     1
102
RTVSPost2010Prop54
  1
strokes_ogs.tif
102
RTVSPost2010PropOp54
 70
     1
102
RTVSPost2010Prop55
280
     0
102
RTVSPost2010PropOp55
 70
     1
102
RTVSPost2010Prop56
140
1.0
102
RTVSPost2010PropOp56
 70
     1
102
RTVSPost2010Prop57
140
1.0
102
RTVSPost2010PropOp57
 70
     1
  0
XRECORD
  5
49E
102
{ACAD_REACTORS
330
49D
102
}
330
49D
100
AcDbXrecord
280
     1
102
RTVSPost2010Prop28
280
     0
102
RTVSPost2010PropOp28
 70
     1
102
RTVSPost2010Prop29
280
     1
102
RTVSPost2010PropOp29
 70
     1
102
RTVSPost2010Prop30
280
     1
102
RTVSPost2010PropOp30
 70
     1
102
RTVSPost2010Prop31
280
     0
102
RTVSPost2010PropOp31
 70
     1
102
RTVSPost2010Prop32
280
     0
102
RTVSPost2010PropOp32
 70
     1
102
RTVSPost2010Prop33
280
     0
102
RTVSPost2010PropOp33
 70
     1
102
RTVSPost2010Prop34
280
     0
102
RTVSPost2010PropOp34
 70
     1
102
RTVSPost2010Prop35
280
     0
102
RTVSPost2010PropOp35
 70
     1
102
RTVSPost2010Prop36
280
     0
102
RTVSPost2010PropOp36
 70
     1
102
RTVSPost2010Prop37
 90
       50
102
RTVSPost2010PropOp37
 70
     1
102
RTVSPost2010Prop38
140
0.0
102
RTVSPost2010PropOp38
 70
     1
102
RTVSPost2010Prop39
140
1.0
102
RTVSPost2010PropOp39
 70
     1
102
RTVSPost2010Prop40
 90
        0
102
RTVSPost2010PropOp40
 70
     1
102
RTVSPost2010Prop41ColorIndex
 90
       18
102
RTVSPost2010Prop41ColorRGB
 90
        0
102
RTVSPost2010PropOp41
 70
     1
102
RTVSPost2010Prop42
 90
       50
102
RTVSPost2010PropOp42
 70
     1
102
RTVSPost2010Prop43
 90
        3
102
RTVSPost2010PropOp43
 70
     1
102
RTVSPost2010Prop44ColorIndex
 90
        5
102
RTVSPost2010Prop44ColorRGB
 90
      255
102
RTVSPost2010PropOp44
 70
     1
102
RTVSPost2010Prop45
280
     0
102
RTVSPost2010PropOp45
 70
     1
102
RTVSPost2010Prop46
 90
       50
102
RTVSPost2010PropOp46
 70
     1
102
RTVSPost2010Prop47
 90
       50
102
RTVSPost2010PropOp47
 70
     1
102
RTVSPost2010Prop48
 90
       50
102
RTVSPost2010PropOp48
 70
     1
102
RTVSPost2010Prop49
280
     0
102
RTVSPost2010PropOp49
 70
     1
102
RTVSPost2010Prop50
 90
       50
102
RTVSPost2010PropOp50
 70
     1
102
RTVSPost2010Prop51ColorIndex
 90
      256
102
RTVSPost2010Prop51ColorRGB
 90
-16777216
102
RTVSPost2010PropOp51
 70
     0
102
RTVSPost2010Prop52
140
1.0
102
RTVSPost2010PropOp52
 70
     0
102
RTVSPost2010Prop53
 90
        2
102
RTVSPost2010PropOp53
 70
     1
102
RTVSPost2010Prop54
  1
strokes_ogs.tif
102
RTVSPost2010PropOp54
 70
     1
102
RTVSPost2010Prop55
280
     0
102
RTVSPost2010PropOp55
 70
     1
102
RTVSPost2010Prop56
140
1.0
102
RTVSPost2010PropOp56
 70
     1
102
RTVSPost2010Prop57
140
1.0
102
RTVSPost2010PropOp57
 70
     1
  0
XRECORD
  5
492
102
{ACAD_REACTORS
330
491
102
}
330
491
100
AcDbXrecord
280
     1
102
RTVSPost2010Prop28
280
     0
102
RTVSPost2010PropOp28
 70
     1
102
RTVSPost2010Prop29
280
     1
102
RTVSPost2010PropOp29
 70
     1
102
RTVSPost2010Prop30
280
     1
102
RTVSPost2010PropOp30
 70
     1
102
RTVSPost2010Prop31
280
     0
102
RTVSPost2010PropOp31
 70
     1
102
RTVSPost2010Prop32
280
     0
102
RTVSPost2010PropOp32
 70
     1
102
RTVSPost2010Prop33
280
     0
102
RTVSPost2010PropOp33
 70
     1
102
RTVSPost2010Prop34
280
     0
102
RTVSPost2010PropOp34
 70
     1
102
RTVSPost2010Prop35
280
     0
102
RTVSPost2010PropOp35
 70
     1
102
RTVSPost2010Prop36
280
     0
102
RTVSPost2010PropOp36
 70
     1
102
RTVSPost2010Prop37
 90
       50
102
RTVSPost2010PropOp37
 70
     1
102
RTVSPost2010Prop38
140
0.0
102
RTVSPost2010PropOp38
 70
     1
102
RTVSPost2010Prop39
140
1.0
102
RTVSPost2010PropOp39
 70
     1
102
RTVSPost2010Prop40
 90
        0
102
RTVSPost2010PropOp40
 70
     1
102
RTVSPost2010Prop41ColorIndex
 90
       18
102
RTVSPost2010Prop41ColorRGB
 90
        0
102
RTVSPost2010PropOp41
 70
     1
102
RTVSPost2010Prop42
 90
       50
102
RTVSPost2010PropOp42
 70
     1
102
RTVSPost2010Prop43
 90
        3
102
RTVSPost2010PropOp43
 70
     1
102
RTVSPost2010Prop44ColorIndex
 90
        5
102
RTVSPost2010Prop44ColorRGB
 90
      255
102
RTVSPost2010PropOp44
 70
     1
102
RTVSPost2010Prop45
280
     0
102
RTVSPost2010PropOp45
 70
     1
102
RTVSPost2010Prop46
 90
       50
102
RTVSPost2010PropOp46
 70
     1
102
RTVSPost2010Prop47
 90
       50
102
RTVSPost2010PropOp47
 70
     1
102
RTVSPost2010Prop48
 90
       50
102
RTVSPost2010PropOp48
 70
     1
102
RTVSPost2010Prop49
280
     0
102
RTVSPost2010PropOp49
 70
     1
102
RTVSPost2010Prop50
 90
       50
102
RTVSPost2010PropOp50
 70
     1
102
RTVSPost2010Prop51ColorIndex
 90
      256
102
RTVSPost2010Prop51ColorRGB
 90
-16777216
102
RTVSPost2010PropOp51
 70
     0
102
RTVSPost2010Prop52
140
1.0
102
RTVSPost2010PropOp52
 70
     0
102
RTVSPost2010Prop53
 90
        2
102
RTVSPost2010PropOp53
 70
     1
102
RTVSPost2010Prop54
  1
strokes_ogs.tif
102
RTVSPost2010PropOp54
 70
     1
102
RTVSPost2010Prop55
280
     0
102
RTVSPost2010PropOp55
 70
     1
102
RTVSPost2010Prop56
140
1.0
102
RTVSPost2010PropOp56
 70
     1
102
RTVSPost2010Prop57
140
1.0
102
RTVSPost2010PropOp57
 70
     1
  0
XRECORD
  5
494
102
{ACAD_REACTORS
330
493
102
}
330
493
100
AcDbXrecord
280
     1
102
RTVSPost2010Prop28
280
     0
102
RTVSPost2010PropOp28
 70
     1
102
RTVSPost2010Prop29
280
     1
102
RTVSPost2010PropOp29
 70
     1
102
RTVSPost2010Prop30
280
     1
102
RTVSPost2010PropOp30
 70
     1
102
RTVSPost2010Prop31
280
     0
102
RTVSPost2010PropOp31
 70
     1
102
RTVSPost2010Prop32
280
     0
102
RTVSPost2010PropOp32
 70
     1
102
RTVSPost2010Prop33
280
     0
102
RTVSPost2010PropOp33
 70
     1
102
RTVSPost2010Prop34
280
     0
102
RTVSPost2010PropOp34
 70
     1
102
RTVSPost2010Prop35
280
     0
102
RTVSPost2010PropOp35
 70
     1
102
RTVSPost2010Prop36
280
     0
102
RTVSPost2010PropOp36
 70
     1
102
RTVSPost2010Prop37
 90
       50
102
RTVSPost2010PropOp37
 70
     1
102
RTVSPost2010Prop38
140
0.0
102
RTVSPost2010PropOp38
 70
     1
102
RTVSPost2010Prop39
140
1.0
102
RTVSPost2010PropOp39
 70
     1
102
RTVSPost2010Prop40
 90
        0
102
RTVSPost2010PropOp40
 70
     1
102
RTVSPost2010Prop41ColorIndex
 90
       18
102
RTVSPost2010Prop41ColorRGB
 90
        0
102
RTVSPost2010PropOp41
 70
     1
102
RTVSPost2010Prop42
 90
       50
102
RTVSPost2010PropOp42
 70
     1
102
RTVSPost2010Prop43
 90
        3
102
RTVSPost2010PropOp43
 70
     1
102
RTVSPost2010Prop44ColorIndex
 90
        5
102
RTVSPost2010Prop44ColorRGB
 90
      255
102
RTVSPost2010PropOp44
 70
     1
102
RTVSPost2010Prop45
280
     0
102
RTVSPost2010PropOp45
 70
     1
102
RTVSPost2010Prop46
 90
       50
102
RTVSPost2010PropOp46
 70
     1
102
RTVSPost2010Prop47
 90
       50
102
RTVSPost2010PropOp47
 70
     1
102
RTVSPost2010Prop48
 90
       50
102
RTVSPost2010PropOp48
 70
     1
102
RTVSPost2010Prop49
280
     0
102
RTVSPost2010PropOp49
 70
     1
102
RTVSPost2010Prop50
 90
       50
102
RTVSPost2010PropOp50
 70
     1
102
RTVSPost2010Prop51ColorIndex
 90
      256
102
RTVSPost2010Prop51ColorRGB
 90
-16777216
102
RTVSPost2010PropOp51
 70
     0
102
RTVSPost2010Prop52
140
1.0
102
RTVSPost2010PropOp52
 70
     0
102
RTVSPost2010Prop53
 90
        2
102
RTVSPost2010PropOp53
 70
     1
102
RTVSPost2010Prop54
  1
strokes_ogs.tif
102
RTVSPost2010PropOp54
 70
     1
102
RTVSPost2010Prop55
280
     0
102
RTVSPost2010PropOp55
 70
     1
102
RTVSPost2010Prop56
140
1.0
102
RTVSPost2010PropOp56
 70
     1
102
RTVSPost2010Prop57
140
1.0
102
RTVSPost2010PropOp57
 70
     1
  0
XRECORD
  5
4A4
102
{ACAD_REACTORS
330
4A3
102
}
330
4A3
100
AcDbXrecord
280
     1
102
RTVSPost2010Prop28
280
     0
102
RTVSPost2010PropOp28
 70
     0
102
RTVSPost2010Prop29
280
     1
102
RTVSPost2010PropOp29
 70
     0
102
RTVSPost2010Prop30
280
     1
102
RTVSPost2010PropOp30
 70
     0
102
RTVSPost2010Prop31
280
     0
102
RTVSPost2010PropOp31
 70
     0
102
RTVSPost2010Prop32
280
     0
102
RTVSPost2010PropOp32
 70
     0
102
RTVSPost2010Prop33
280
     0
102
RTVSPost2010PropOp33
 70
     0
102
RTVSPost2010Prop34
280
     0
102
RTVSPost2010PropOp34
 70
     0
102
RTVSPost2010Prop35
280
     0
102
RTVSPost2010PropOp35
 70
     0
102
RTVSPost2010Prop36
280
     0
102
RTVSPost2010PropOp36
 70
     0
102
RTVSPost2010Prop37
 90
       50
102
RTVSPost2010PropOp37
 70
     0
102
RTVSPost2010Prop38
140
0.0
102
RTVSPost2010PropOp38
 70
     0
102
RTVSPost2010Prop39
140
1.0
102
RTVSPost2010PropOp39
 70
     0
102
RTVSPost2010Prop40
 90
        0
102
RTVSPost2010PropOp40
 70
     0
102
RTVSPost2010Prop41ColorIndex
 90
       18
102
RTVSPost2010Prop41ColorRGB
 90
        0
102
RTVSPost2010PropOp41
 70
     0
102
RTVSPost2010Prop42
 90
       50
102
RTVSPost2010PropOp42
 70
     0
102
RTVSPost2010Prop43
 90
        3
102
RTVSPost2010PropOp43
 70
     0
102
RTVSPost2010Prop44ColorIndex
 90
        5
102
RTVSPost2010Prop44ColorRGB
 90
      255
102
RTVSPost2010PropOp44
 70
     0
102
RTVSPost2010Prop45
280
     0
102
RTVSPost2010PropOp45
 70
     0
102
RTVSPost2010Prop46
 90
       50
102
RTVSPost2010PropOp46
 70
     0
102
RTVSPost2010Prop47
 90
       50
102
RTVSPost2010PropOp47
 70
     0
102
RTVSPost2010Prop48
 90
       50
102
RTVSPost2010PropOp48
 70
     0
102
RTVSPost2010Prop49
280
     0
102
RTVSPost2010PropOp49
 70
     0
102
RTVSPost2010Prop50
 90
       50
102
RTVSPost2010PropOp50
 70
     0
102
RTVSPost2010Prop51ColorIndex
 90
      256
102
RTVSPost2010Prop51ColorRGB
 90
-16777216
102
RTVSPost2010PropOp51
 70
     0
102
RTVSPost2010Prop52
140
1.0
102
RTVSPost2010PropOp52
 70
     0
102
RTVSPost2010Prop53
 90
        2
102
RTVSPost2010PropOp53
 70
     0
102
RTVSPost2010Prop54
  1
strokes_ogs.tif
102
RTVSPost2010PropOp54
 70
     0
102
RTVSPost2010Prop55
280
     0
102
RTVSPost2010PropOp55
 70
     0
102
RTVSPost2010Prop56
140
1.0
102
RTVSPost2010PropOp56
 70
     0
102
RTVSPost2010Prop57
140
1.0
102
RTVSPost2010PropOp57
 70
     0
  0
XRECORD
  5
49C
102
{ACAD_REACTORS
330
49B
102
}
330
49B
100
AcDbXrecord
280
     1
102
RTVSPost2010Prop28
280
     0
102
RTVSPost2010PropOp28
 70
     1
102
RTVSPost2010Prop29
280
     1
102
RTVSPost2010PropOp29
 70
     1
102
RTVSPost2010Prop30
280
     1
102
RTVSPost2010PropOp30
 70
     1
102
RTVSPost2010Prop31
280
     0
102
RTVSPost2010PropOp31
 70
     1
102
RTVSPost2010Prop32
280
     0
102
RTVSPost2010PropOp32
 70
     1
102
RTVSPost2010Prop33
280
     0
102
RTVSPost2010PropOp33
 70
     1
102
RTVSPost2010Prop34
280
     0
102
RTVSPost2010PropOp34
 70
     1
102
RTVSPost2010Prop35
280
     0
102
RTVSPost2010PropOp35
 70
     1
102
RTVSPost2010Prop36
280
     0
102
RTVSPost2010PropOp36
 70
     1
102
RTVSPost2010Prop37
 90
       50
102
RTVSPost2010PropOp37
 70
     1
102
RTVSPost2010Prop38
140
0.0
102
RTVSPost2010PropOp38
 70
     1
102
RTVSPost2010Prop39
140
1.0
102
RTVSPost2010PropOp39
 70
     1
102
RTVSPost2010Prop40
 90
        0
102
RTVSPost2010PropOp40
 70
     1
102
RTVSPost2010Prop41ColorIndex
 90
       18
102
RTVSPost2010Prop41ColorRGB
 90
        0
102
RTVSPost2010PropOp41
 70
     1
102
RTVSPost2010Prop42
 90
       50
102
RTVSPost2010PropOp42
 70
     1
102
RTVSPost2010Prop43
 90
        3
102
RTVSPost2010PropOp43
 70
     1
102
RTVSPost2010Prop44ColorIndex
 90
        5
102
RTVSPost2010Prop44ColorRGB
 90
      255
102
RTVSPost2010PropOp44
 70
     1
102
RTVSPost2010Prop45
280
     0
102
RTVSPost2010PropOp45
 70
     1
102
RTVSPost2010Prop46
 90
       50
102
RTVSPost2010PropOp46
 70
     1
102
RTVSPost2010Prop47
 90
       50
102
RTVSPost2010PropOp47
 70
     1
102
RTVSPost2010Prop48
 90
       50
102
RTVSPost2010PropOp48
 70
     1
102
RTVSPost2010Prop49
280
     0
102
RTVSPost2010PropOp49
 70
     1
102
RTVSPost2010Prop50
 90
       50
102
RTVSPost2010PropOp50
 70
     1
102
RTVSPost2010Prop51ColorIndex
 90
      256
102
RTVSPost2010Prop51ColorRGB
 90
-16777216
102
RTVSPost2010PropOp51
 70
     0
102
RTVSPost2010Prop52
140
1.0
102
RTVSPost2010PropOp52
 70
     0
102
RTVSPost2010Prop53
 90
        2
102
RTVSPost2010PropOp53
 70
     1
102
RTVSPost2010Prop54
  1
strokes_ogs.tif
102
RTVSPost2010PropOp54
 70
     1
102
RTVSPost2010Prop55
280
     0
102
RTVSPost2010PropOp55
 70
     1
102
RTVSPost2010Prop56
140
1.0
102
RTVSPost2010PropOp56
 70
     1
102
RTVSPost2010Prop57
140
1.0
102
RTVSPost2010PropOp57
 70
     1
  0
XRECORD
  5
480
102
{ACAD_REACTORS
330
47F
102
}
330
47F
100
AcDbXrecord
280
     1
102
RTVSPost2010Prop28
280
     0
102
RTVSPost2010PropOp28
 70
     1
102
RTVSPost2010Prop29
280
     1
102
RTVSPost2010PropOp29
 70
     1
102
RTVSPost2010Prop30
280
     1
102
RTVSPost2010PropOp30
 70
     1
102
RTVSPost2010Prop31
280
     0
102
RTVSPost2010PropOp31
 70
     1
102
RTVSPost2010Prop32
280
     0
102
RTVSPost2010PropOp32
 70
     1
102
RTVSPost2010Prop33
280
     0
102
RTVSPost2010PropOp33
 70
     1
102
RTVSPost2010Prop34
280
     0
102
RTVSPost2010PropOp34
 70
     1
102
RTVSPost2010Prop35
280
     0
102
RTVSPost2010PropOp35
 70
     1
102
RTVSPost2010Prop36
280
     0
102
RTVSPost2010PropOp36
 70
     1
102
RTVSPost2010Prop37
 90
       50
102
RTVSPost2010PropOp37
 70
     1
102
RTVSPost2010Prop38
140
0.0
102
RTVSPost2010PropOp38
 70
     1
102
RTVSPost2010Prop39
140
1.0
102
RTVSPost2010PropOp39
 70
     1
102
RTVSPost2010Prop40
 90
        0
102
RTVSPost2010PropOp40
 70
     1
102
RTVSPost2010Prop41ColorIndex
 90
       18
102
RTVSPost2010Prop41ColorRGB
 90
        0
102
RTVSPost2010PropOp41
 70
     1
102
RTVSPost2010Prop42
 90
       50
102
RTVSPost2010PropOp42
 70
     1
102
RTVSPost2010Prop43
 90
        3
102
RTVSPost2010PropOp43
 70
     1
102
RTVSPost2010Prop44ColorIndex
 90
        5
102
RTVSPost2010Prop44ColorRGB
 90
      255
102
RTVSPost2010PropOp44
 70
     1
102
RTVSPost2010Prop45
280
     0
102
RTVSPost2010PropOp45
 70
     1
102
RTVSPost2010Prop46
 90
       50
102
RTVSPost2010PropOp46
 70
     1
102
RTVSPost2010Prop47
 90
       50
102
RTVSPost2010PropOp47
 70
     1
102
RTVSPost2010Prop48
 90
       50
102
RTVSPost2010PropOp48
 70
     1
102
RTVSPost2010Prop49
280
     0
102
RTVSPost2010PropOp49
 70
     1
102
RTVSPost2010Prop50
 90
       50
102
RTVSPost2010PropOp50
 70
     1
102
RTVSPost2010Prop51ColorIndex
 90
      256
102
RTVSPost2010Prop51ColorRGB
 90
-16777216
102
RTVSPost2010PropOp51
 70
     0
102
RTVSPost2010Prop52
140
1.0
102
RTVSPost2010PropOp52
 70
     0
102
RTVSPost2010Prop53
 90
        2
102
RTVSPost2010PropOp53
 70
     1
102
RTVSPost2010Prop54
  1
strokes_ogs.tif
102
RTVSPost2010PropOp54
 70
     1
102
RTVSPost2010Prop55
280
     0
102
RTVSPost2010PropOp55
 70
     1
102
RTVSPost2010Prop56
140
1.0
102
RTVSPost2010PropOp56
 70
     1
102
RTVSPost2010Prop57
140
1.0
102
RTVSPost2010PropOp57
 70
     1
  0
XRECORD
  5
482
102
{ACAD_REACTORS
330
481
102
}
330
481
100
AcDbXrecord
280
     1
102
RTVSPost2010Prop28
280
     0
102
RTVSPost2010PropOp28
 70
     1
102
RTVSPost2010Prop29
280
     1
102
RTVSPost2010PropOp29
 70
     1
102
RTVSPost2010Prop30
280
     1
102
RTVSPost2010PropOp30
 70
     1
102
RTVSPost2010Prop31
280
     0
102
RTVSPost2010PropOp31
 70
     1
102
RTVSPost2010Prop32
280
     0
102
RTVSPost2010PropOp32
 70
     1
102
RTVSPost2010Prop33
280
     0
102
RTVSPost2010PropOp33
 70
     1
102
RTVSPost2010Prop34
280
     0
102
RTVSPost2010PropOp34
 70
     1
102
RTVSPost2010Prop35
280
     0
102
RTVSPost2010PropOp35
 70
     1
102
RTVSPost2010Prop36
280
     0
102
RTVSPost2010PropOp36
 70
     1
102
RTVSPost2010Prop37
 90
       50
102
RTVSPost2010PropOp37
 70
     1
102
RTVSPost2010Prop38
140
0.0
102
RTVSPost2010PropOp38
 70
     1
102
RTVSPost2010Prop39
140
1.0
102
RTVSPost2010PropOp39
 70
     1
102
RTVSPost2010Prop40
 90
        0
102
RTVSPost2010PropOp40
 70
     1
102
RTVSPost2010Prop41ColorIndex
 90
       18
102
RTVSPost2010Prop41ColorRGB
 90
        0
102
RTVSPost2010PropOp41
 70
     1
102
RTVSPost2010Prop42
 90
       50
102
RTVSPost2010PropOp42
 70
     1
102
RTVSPost2010Prop43
 90
        3
102
RTVSPost2010PropOp43
 70
     1
102
RTVSPost2010Prop44ColorIndex
 90
        5
102
RTVSPost2010Prop44ColorRGB
 90
      255
102
RTVSPost2010PropOp44
 70
     1
102
RTVSPost2010Prop45
280
     0
102
RTVSPost2010PropOp45
 70
     1
102
RTVSPost2010Prop46
 90
       50
102
RTVSPost2010PropOp46
 70
     1
102
RTVSPost2010Prop47
 90
       50
102
RTVSPost2010PropOp47
 70
     1
102
RTVSPost2010Prop48
 90
       50
102
RTVSPost2010PropOp48
 70
     1
102
RTVSPost2010Prop49
280
     0
102
RTVSPost2010PropOp49
 70
     1
102
RTVSPost2010Prop50
 90
       50
102
RTVSPost2010PropOp50
 70
     1
102
RTVSPost2010Prop51ColorIndex
 90
      256
102
RTVSPost2010Prop51ColorRGB
 90
-16777216
102
RTVSPost2010PropOp51
 70
     0
102
RTVSPost2010Prop52
140
1.0
102
RTVSPost2010PropOp52
 70
     0
102
RTVSPost2010Prop53
 90
        2
102
RTVSPost2010PropOp53
 70
     1
102
RTVSPost2010Prop54
  1
strokes_ogs.tif
102
RTVSPost2010PropOp54
 70
     1
102
RTVSPost2010Prop55
280
     0
102
RTVSPost2010PropOp55
 70
     1
102
RTVSPost2010Prop56
140
1.0
102
RTVSPost2010PropOp56
 70
     1
102
RTVSPost2010Prop57
140
1.0
102
RTVSPost2010PropOp57
 70
     1
  0
XRECORD
  5
484
102
{ACAD_REACTORS
330
483
102
}
330
483
100
AcDbXrecord
280
     1
102
RTVSPost2010Prop28
280
     0
102
RTVSPost2010PropOp28
 70
     1
102
RTVSPost2010Prop29
280
     1
102
RTVSPost2010PropOp29
 70
     1
102
RTVSPost2010Prop30
280
     1
102
RTVSPost2010PropOp30
 70
     1
102
RTVSPost2010Prop31
280
     0
102
RTVSPost2010PropOp31
 70
     1
102
RTVSPost2010Prop32
280
     0
102
RTVSPost2010PropOp32
 70
     1
102
RTVSPost2010Prop33
280
     0
102
RTVSPost2010PropOp33
 70
     1
102
RTVSPost2010Prop34
280
     0
102
RTVSPost2010PropOp34
 70
     1
102
RTVSPost2010Prop35
280
     0
102
RTVSPost2010PropOp35
 70
     1
102
RTVSPost2010Prop36
280
     0
102
RTVSPost2010PropOp36
 70
     1
102
RTVSPost2010Prop37
 90
       50
102
RTVSPost2010PropOp37
 70
     1
102
RTVSPost2010Prop38
140
0.0
102
RTVSPost2010PropOp38
 70
     1
102
RTVSPost2010Prop39
140
1.0
102
RTVSPost2010PropOp39
 70
     1
102
RTVSPost2010Prop40
 90
        0
102
RTVSPost2010PropOp40
 70
     1
102
RTVSPost2010Prop41ColorIndex
 90
       18
102
RTVSPost2010Prop41ColorRGB
 90
        0
102
RTVSPost2010PropOp41
 70
     1
102
RTVSPost2010Prop42
 90
       50
102
RTVSPost2010PropOp42
 70
     1
102
RTVSPost2010Prop43
 90
        3
102
RTVSPost2010PropOp43
 70
     1
102
RTVSPost2010Prop44ColorIndex
 90
        5
102
RTVSPost2010Prop44ColorRGB
 90
      255
102
RTVSPost2010PropOp44
 70
     1
102
RTVSPost2010Prop45
280
     0
102
RTVSPost2010PropOp45
 70
     1
102
RTVSPost2010Prop46
 90
       50
102
RTVSPost2010PropOp46
 70
     1
102
RTVSPost2010Prop47
 90
       50
102
RTVSPost2010PropOp47
 70
     1
102
RTVSPost2010Prop48
 90
       50
102
RTVSPost2010PropOp48
 70
     1
102
RTVSPost2010Prop49
280
     0
102
RTVSPost2010PropOp49
 70
     1
102
RTVSPost2010Prop50
 90
       50
102
RTVSPost2010PropOp50
 70
     1
102
RTVSPost2010Prop51ColorIndex
 90
      256
102
RTVSPost2010Prop51ColorRGB
 90
-16777216
102
RTVSPost2010PropOp51
 70
     0
102
RTVSPost2010Prop52
140
1.0
102
RTVSPost2010PropOp52
 70
     0
102
RTVSPost2010Prop53
 90
        2
102
RTVSPost2010PropOp53
 70
     1
102
RTVSPost2010Prop54
  1
strokes_ogs.tif
102
RTVSPost2010PropOp54
 70
     1
102
RTVSPost2010Prop55
280
     0
102
RTVSPost2010PropOp55
 70
     1
102
RTVSPost2010Prop56
140
1.0
102
RTVSPost2010PropOp56
 70
     1
102
RTVSPost2010Prop57
140
1.0
102
RTVSPost2010PropOp57
 70
     1
  0
XRECORD
  5
486
102
{ACAD_REACTORS
330
485
102
}
330
485
100
AcDbXrecord
280
     1
102
RTVSPost2010Prop28
280
     0
102
RTVSPost2010PropOp28
 70
     1
102
RTVSPost2010Prop29
280
     1
102
RTVSPost2010PropOp29
 70
     1
102
RTVSPost2010Prop30
280
     1
102
RTVSPost2010PropOp30
 70
     1
102
RTVSPost2010Prop31
280
     0
102
RTVSPost2010PropOp31
 70
     1
102
RTVSPost2010Prop32
280
     0
102
RTVSPost2010PropOp32
 70
     1
102
RTVSPost2010Prop33
280
     0
102
RTVSPost2010PropOp33
 70
     1
102
RTVSPost2010Prop34
280
     0
102
RTVSPost2010PropOp34
 70
     1
102
RTVSPost2010Prop35
280
     0
102
RTVSPost2010PropOp35
 70
     1
102
RTVSPost2010Prop36
280
     0
102
RTVSPost2010PropOp36
 70
     1
102
RTVSPost2010Prop37
 90
       50
102
RTVSPost2010PropOp37
 70
     1
102
RTVSPost2010Prop38
140
0.0
102
RTVSPost2010PropOp38
 70
     1
102
RTVSPost2010Prop39
140
1.0
102
RTVSPost2010PropOp39
 70
     1
102
RTVSPost2010Prop40
 90
        0
102
RTVSPost2010PropOp40
 70
     1
102
RTVSPost2010Prop41ColorIndex
 90
       18
102
RTVSPost2010Prop41ColorRGB
 90
        0
102
RTVSPost2010PropOp41
 70
     1
102
RTVSPost2010Prop42
 90
       50
102
RTVSPost2010PropOp42
 70
     1
102
RTVSPost2010Prop43
 90
        3
102
RTVSPost2010PropOp43
 70
     1
102
RTVSPost2010Prop44ColorIndex
 90
        5
102
RTVSPost2010Prop44ColorRGB
 90
      255
102
RTVSPost2010PropOp44
 70
     1
102
RTVSPost2010Prop45
280
     0
102
RTVSPost2010PropOp45
 70
     1
102
RTVSPost2010Prop46
 90
       50
102
RTVSPost2010PropOp46
 70
     1
102
RTVSPost2010Prop47
 90
       50
102
RTVSPost2010PropOp47
 70
     1
102
RTVSPost2010Prop48
 90
       50
102
RTVSPost2010PropOp48
 70
     1
102
RTVSPost2010Prop49
280
     0
102
RTVSPost2010PropOp49
 70
     1
102
RTVSPost2010Prop50
 90
       50
102
RTVSPost2010PropOp50
 70
     1
102
RTVSPost2010Prop51ColorIndex
 90
      256
102
RTVSPost2010Prop51ColorRGB
 90
-16777216
102
RTVSPost2010PropOp51
 70
     0
102
RTVSPost2010Prop52
140
1.0
102
RTVSPost2010PropOp52
 70
     0
102
RTVSPost2010Prop53
 90
        2
102
RTVSPost2010PropOp53
 70
     1
102
RTVSPost2010Prop54
  1
strokes_ogs.tif
102
RTVSPost2010PropOp54
 70
     1
102
RTVSPost2010Prop55
280
     0
102
RTVSPost2010PropOp55
 70
     1
102
RTVSPost2010Prop56
140
1.0
102
RTVSPost2010PropOp56
 70
     1
102
RTVSPost2010Prop57
140
1.0
102
RTVSPost2010PropOp57
 70
     1
  0
XRECORD
  5
48C
102
{ACAD_REACTORS
330
48B
102
}
330
48B
100
AcDbXrecord
280
     1
102
RTVSPost2010Prop28
280
     0
102
RTVSPost2010PropOp28
 70
     1
102
RTVSPost2010Prop29
280
     1
102
RTVSPost2010PropOp29
 70
     1
102
RTVSPost2010Prop30
280
     1
102
RTVSPost2010PropOp30
 70
     1
102
RTVSPost2010Prop31
280
     0
102
RTVSPost2010PropOp31
 70
     1
102
RTVSPost2010Prop32
280
     0
102
RTVSPost2010PropOp32
 70
     1
102
RTVSPost2010Prop33
280
     0
102
RTVSPost2010PropOp33
 70
     1
102
RTVSPost2010Prop34
280
     0
102
RTVSPost2010PropOp34
 70
     1
102
RTVSPost2010Prop35
280
     0
102
RTVSPost2010PropOp35
 70
     1
102
RTVSPost2010Prop36
280
     0
102
RTVSPost2010PropOp36
 70
     1
102
RTVSPost2010Prop37
 90
       50
102
RTVSPost2010PropOp37
 70
     1
102
RTVSPost2010Prop38
140
0.0
102
RTVSPost2010PropOp38
 70
     1
102
RTVSPost2010Prop39
140
1.0
102
RTVSPost2010PropOp39
 70
     1
102
RTVSPost2010Prop40
 90
        0
102
RTVSPost2010PropOp40
 70
     1
102
RTVSPost2010Prop41ColorIndex
 90
       18
102
RTVSPost2010Prop41ColorRGB
 90
        0
102
RTVSPost2010PropOp41
 70
     1
102
RTVSPost2010Prop42
 90
       50
102
RTVSPost2010PropOp42
 70
     1
102
RTVSPost2010Prop43
 90
        3
102
RTVSPost2010PropOp43
 70
     1
102
RTVSPost2010Prop44ColorIndex
 90
        5
102
RTVSPost2010Prop44ColorRGB
 90
      255
102
RTVSPost2010PropOp44
 70
     1
102
RTVSPost2010Prop45
280
     0
102
RTVSPost2010PropOp45
 70
     1
102
RTVSPost2010Prop46
 90
       50
102
RTVSPost2010PropOp46
 70
     1
102
RTVSPost2010Prop47
 90
       50
102
RTVSPost2010PropOp47
 70
     1
102
RTVSPost2010Prop48
 90
       50
102
RTVSPost2010PropOp48
 70
     1
102
RTVSPost2010Prop49
280
     0
102
RTVSPost2010PropOp49
 70
     1
102
RTVSPost2010Prop50
 90
       50
102
RTVSPost2010PropOp50
 70
     1
102
RTVSPost2010Prop51ColorIndex
 90
      256
102
RTVSPost2010Prop51ColorRGB
 90
-16777216
102
RTVSPost2010PropOp51
 70
     0
102
RTVSPost2010Prop52
140
1.0
102
RTVSPost2010PropOp52
 70
     0
102
RTVSPost2010Prop53
 90
        2
102
RTVSPost2010PropOp53
 70
     1
102
RTVSPost2010Prop54
  1
strokes_ogs.tif
102
RTVSPost2010PropOp54
 70
     1
102
RTVSPost2010Prop55
280
     0
102
RTVSPost2010PropOp55
 70
     1
102
RTVSPost2010Prop56
140
1.0
102
RTVSPost2010PropOp56
 70
     1
102
RTVSPost2010Prop57
140
1.0
102
RTVSPost2010PropOp57
 70
     1
  0
XRECORD
  5
4A0
102
{ACAD_REACTORS
330
49F
102
}
330
49F
100
AcDbXrecord
280
     1
102
RTVSPost2010Prop28
280
     0
102
RTVSPost2010PropOp28
 70
     0
102
RTVSPost2010Prop29
280
     1
102
RTVSPost2010PropOp29
 70
     0
102
RTVSPost2010Prop30
280
     1
102
RTVSPost2010PropOp30
 70
     0
102
RTVSPost2010Prop31
280
     0
102
RTVSPost2010PropOp31
 70
     0
102
RTVSPost2010Prop32
280
     0
102
RTVSPost2010PropOp32
 70
     0
102
RTVSPost2010Prop33
280
     0
102
RTVSPost2010PropOp33
 70
     0
102
RTVSPost2010Prop34
280
     0
102
RTVSPost2010PropOp34
 70
     0
102
RTVSPost2010Prop35
280
     0
102
RTVSPost2010PropOp35
 70
     0
102
RTVSPost2010Prop36
280
     0
102
RTVSPost2010PropOp36
 70
     0
102
RTVSPost2010Prop37
 90
       50
102
RTVSPost2010PropOp37
 70
     0
102
RTVSPost2010Prop38
140
0.0
102
RTVSPost2010PropOp38
 70
     0
102
RTVSPost2010Prop39
140
1.0
102
RTVSPost2010PropOp39
 70
     0
102
RTVSPost2010Prop40
 90
        0
102
RTVSPost2010PropOp40
 70
     0
102
RTVSPost2010Prop41ColorIndex
 90
       18
102
RTVSPost2010Prop41ColorRGB
 90
        0
102
RTVSPost2010PropOp41
 70
     0
102
RTVSPost2010Prop42
 90
       50
102
RTVSPost2010PropOp42
 70
     0
102
RTVSPost2010Prop43
 90
        3
102
RTVSPost2010PropOp43
 70
     0
102
RTVSPost2010Prop44ColorIndex
 90
        5
102
RTVSPost2010Prop44ColorRGB
 90
      255
102
RTVSPost2010PropOp44
 70
     0
102
RTVSPost2010Prop45
280
     0
102
RTVSPost2010PropOp45
 70
     0
102
RTVSPost2010Prop46
 90
       50
102
RTVSPost2010PropOp46
 70
     0
102
RTVSPost2010Prop47
 90
       50
102
RTVSPost2010PropOp47
 70
     0
102
RTVSPost2010Prop48
 90
       50
102
RTVSPost2010PropOp48
 70
     0
102
RTVSPost2010Prop49
280
     0
102
RTVSPost2010PropOp49
 70
     0
102
RTVSPost2010Prop50
 90
       50
102
RTVSPost2010PropOp50
 70
     0
102
RTVSPost2010Prop51ColorIndex
 90
      256
102
RTVSPost2010Prop51ColorRGB
 90
-16777216
102
RTVSPost2010PropOp51
 70
     0
102
RTVSPost2010Prop52
140
1.0
102
RTVSPost2010PropOp52
 70
     0
102
RTVSPost2010Prop53
 90
        2
102
RTVSPost2010PropOp53
 70
     0
102
RTVSPost2010Prop54
  1
strokes_ogs.tif
102
RTVSPost2010PropOp54
 70
     0
102
RTVSPost2010Prop55
280
     0
102
RTVSPost2010PropOp55
 70
     0
102
RTVSPost2010Prop56
140
1.0
102
RTVSPost2010PropOp56
 70
     0
102
RTVSPost2010Prop57
140
1.0
102
RTVSPost2010PropOp57
 70
     0
  0
XRECORD
  5
49A
102
{ACAD_REACTORS
330
499
102
}
330
499
100
AcDbXrecord
280
     1
102
RTVSPost2010Prop28
280
     0
102
RTVSPost2010PropOp28
 70
     1
102
RTVSPost2010Prop29
280
     1
102
RTVSPost2010PropOp29
 70
     1
102
RTVSPost2010Prop30
280
     1
102
RTVSPost2010PropOp30
 70
     1
102
RTVSPost2010Prop31
280
     0
102
RTVSPost2010PropOp31
 70
     1
102
RTVSPost2010Prop32
280
     0
102
RTVSPost2010PropOp32
 70
     1
102
RTVSPost2010Prop33
280
     0
102
RTVSPost2010PropOp33
 70
     1
102
RTVSPost2010Prop34
280
     0
102
RTVSPost2010PropOp34
 70
     1
102
RTVSPost2010Prop35
280
     0
102
RTVSPost2010PropOp35
 70
     1
102
RTVSPost2010Prop36
280
     0
102
RTVSPost2010PropOp36
 70
     1
102
RTVSPost2010Prop37
 90
       50
102
RTVSPost2010PropOp37
 70
     1
102
RTVSPost2010Prop38
140
0.0
102
RTVSPost2010PropOp38
 70
     1
102
RTVSPost2010Prop39
140
1.0
102
RTVSPost2010PropOp39
 70
     1
102
RTVSPost2010Prop40
 90
        0
102
RTVSPost2010PropOp40
 70
     1
102
RTVSPost2010Prop41ColorIndex
 90
       18
102
RTVSPost2010Prop41ColorRGB
 90
        0
102
RTVSPost2010PropOp41
 70
     1
102
RTVSPost2010Prop42
 90
       50
102
RTVSPost2010PropOp42
 70
     1
102
RTVSPost2010Prop43
 90
        3
102
RTVSPost2010PropOp43
 70
     1
102
RTVSPost2010Prop44ColorIndex
 90
        5
102
RTVSPost2010Prop44ColorRGB
 90
      255
102
RTVSPost2010PropOp44
 70
     1
102
RTVSPost2010Prop45
280
     0
102
RTVSPost2010PropOp45
 70
     1
102
RTVSPost2010Prop46
 90
       50
102
RTVSPost2010PropOp46
 70
     1
102
RTVSPost2010Prop47
 90
       50
102
RTVSPost2010PropOp47
 70
     1
102
RTVSPost2010Prop48
 90
       50
102
RTVSPost2010PropOp48
 70
     1
102
RTVSPost2010Prop49
280
     0
102
RTVSPost2010PropOp49
 70
     1
102
RTVSPost2010Prop50
 90
       50
102
RTVSPost2010PropOp50
 70
     1
102
RTVSPost2010Prop51ColorIndex
 90
      256
102
RTVSPost2010Prop51ColorRGB
 90
-16777216
102
RTVSPost2010PropOp51
 70
     0
102
RTVSPost2010Prop52
140
1.0
102
RTVSPost2010PropOp52
 70
     0
102
RTVSPost2010Prop53
 90
        2
102
RTVSPost2010PropOp53
 70
     1
102
RTVSPost2010Prop54
  1
strokes_ogs.tif
102
RTVSPost2010PropOp54
 70
     1
102
RTVSPost2010Prop55
280
     0
102
RTVSPost2010PropOp55
 70
     1
102
RTVSPost2010Prop56
140
1.0
102
RTVSPost2010PropOp56
 70
     1
102
RTVSPost2010Prop57
140
1.0
102
RTVSPost2010PropOp57
 70
     1
  0
XRECORD
  5
4A2
102
{ACAD_REACTORS
330
4A1
102
}
330
4A1
100
AcDbXrecord
280
     1
102
RTVSPost2010Prop28
280
     0
102
RTVSPost2010PropOp28
 70
     0
102
RTVSPost2010Prop29
280
     1
102
RTVSPost2010PropOp29
 70
     0
102
RTVSPost2010Prop30
280
     1
102
RTVSPost2010PropOp30
 70
     0
102
RTVSPost2010Prop31
280
     0
102
RTVSPost2010PropOp31
 70
     0
102
RTVSPost2010Prop32
280
     0
102
RTVSPost2010PropOp32
 70
     0
102
RTVSPost2010Prop33
280
     0
102
RTVSPost2010PropOp33
 70
     0
102
RTVSPost2010Prop34
280
     0
102
RTVSPost2010PropOp34
 70
     0
102
RTVSPost2010Prop35
280
     0
102
RTVSPost2010PropOp35
 70
     0
102
RTVSPost2010Prop36
280
     0
102
RTVSPost2010PropOp36
 70
     0
102
RTVSPost2010Prop37
 90
       50
102
RTVSPost2010PropOp37
 70
     0
102
RTVSPost2010Prop38
140
0.0
102
RTVSPost2010PropOp38
 70
     0
102
RTVSPost2010Prop39
140
1.0
102
RTVSPost2010PropOp39
 70
     0
102
RTVSPost2010Prop40
 90
        0
102
RTVSPost2010PropOp40
 70
     0
102
RTVSPost2010Prop41ColorIndex
 90
       18
102
RTVSPost2010Prop41ColorRGB
 90
        0
102
RTVSPost2010PropOp41
 70
     0
102
RTVSPost2010Prop42
 90
       50
102
RTVSPost2010PropOp42
 70
     0
102
RTVSPost2010Prop43
 90
        3
102
RTVSPost2010PropOp43
 70
     0
102
RTVSPost2010Prop44ColorIndex
 90
        5
102
RTVSPost2010Prop44ColorRGB
 90
      255
102
RTVSPost2010PropOp44
 70
     0
102
RTVSPost2010Prop45
280
     0
102
RTVSPost2010PropOp45
 70
     0
102
RTVSPost2010Prop46
 90
       50
102
RTVSPost2010PropOp46
 70
     0
102
RTVSPost2010Prop47
 90
       50
102
RTVSPost2010PropOp47
 70
     0
102
RTVSPost2010Prop48
 90
       50
102
RTVSPost2010PropOp48
 70
     0
102
RTVSPost2010Prop49
280
     0
102
RTVSPost2010PropOp49
 70
     0
102
RTVSPost2010Prop50
 90
       50
102
RTVSPost2010PropOp50
 70
     0
102
RTVSPost2010Prop51ColorIndex
 90
      256
102
RTVSPost2010Prop51ColorRGB
 90
-16777216
102
RTVSPost2010PropOp51
 70
     0
102
RTVSPost2010Prop52
140
1.0
102
RTVSPost2010PropOp52
 70
     0
102
RTVSPost2010Prop53
 90
        2
102
RTVSPost2010PropOp53
 70
     0
102
RTVSPost2010Prop54
  1
strokes_ogs.tif
102
RTVSPost2010PropOp54
 70
     0
102
RTVSPost2010Prop55
280
     0
102
RTVSPost2010PropOp55
 70
     0
102
RTVSPost2010Prop56
140
1.0
102
RTVSPost2010PropOp56
 70
     0
102
RTVSPost2010Prop57
140
1.0
102
RTVSPost2010PropOp57
 70
     0
  0
XRECORD
  5
490
102
{ACAD_REACTORS
330
48F
102
}
330
48F
100
AcDbXrecord
280
     1
102
RTVSPost2010Prop28
280
     0
102
RTVSPost2010PropOp28
 70
     1
102
RTVSPost2010Prop29
280
     1
102
RTVSPost2010PropOp29
 70
     1
102
RTVSPost2010Prop30
280
     1
102
RTVSPost2010PropOp30
 70
     1
102
RTVSPost2010Prop31
280
     0
102
RTVSPost2010PropOp31
 70
     1
102
RTVSPost2010Prop32
280
     0
102
RTVSPost2010PropOp32
 70
     1
102
RTVSPost2010Prop33
280
     0
102
RTVSPost2010PropOp33
 70
     1
102
RTVSPost2010Prop34
280
     0
102
RTVSPost2010PropOp34
 70
     1
102
RTVSPost2010Prop35
280
     0
102
RTVSPost2010PropOp35
 70
     1
102
RTVSPost2010Prop36
280
     0
102
RTVSPost2010PropOp36
 70
     1
102
RTVSPost2010Prop37
 90
       50
102
RTVSPost2010PropOp37
 70
     1
102
RTVSPost2010Prop38
140
0.0
102
RTVSPost2010PropOp38
 70
     1
102
RTVSPost2010Prop39
140
1.0
102
RTVSPost2010PropOp39
 70
     1
102
RTVSPost2010Prop40
 90
        0
102
RTVSPost2010PropOp40
 70
     1
102
RTVSPost2010Prop41ColorIndex
 90
       18
102
RTVSPost2010Prop41ColorRGB
 90
        0
102
RTVSPost2010PropOp41
 70
     1
102
RTVSPost2010Prop42
 90
       50
102
RTVSPost2010PropOp42
 70
     1
102
RTVSPost2010Prop43
 90
        3
102
RTVSPost2010PropOp43
 70
     1
102
RTVSPost2010Prop44ColorIndex
 90
        5
102
RTVSPost2010Prop44ColorRGB
 90
      255
102
RTVSPost2010PropOp44
 70
     1
102
RTVSPost2010Prop45
280
     0
102
RTVSPost2010PropOp45
 70
     1
102
RTVSPost2010Prop46
 90
       50
102
RTVSPost2010PropOp46
 70
     1
102
RTVSPost2010Prop47
 90
       50
102
RTVSPost2010PropOp47
 70
     1
102
RTVSPost2010Prop48
 90
       50
102
RTVSPost2010PropOp48
 70
     1
102
RTVSPost2010Prop49
280
     0
102
RTVSPost2010PropOp49
 70
     1
102
RTVSPost2010Prop50
 90
       50
102
RTVSPost2010PropOp50
 70
     1
102
RTVSPost2010Prop51ColorIndex
 90
      256
102
RTVSPost2010Prop51ColorRGB
 90
-16777216
102
RTVSPost2010PropOp51
 70
     0
102
RTVSPost2010Prop52
140
1.0
102
RTVSPost2010PropOp52
 70
     0
102
RTVSPost2010Prop53
 90
        2
102
RTVSPost2010PropOp53
 70
     1
102
RTVSPost2010Prop54
  1
strokes_ogs.tif
102
RTVSPost2010PropOp54
 70
     1
102
RTVSPost2010Prop55
280
     0
102
RTVSPost2010PropOp55
 70
     1
102
RTVSPost2010Prop56
140
1.0
102
RTVSPost2010PropOp56
 70
     1
102
RTVSPost2010Prop57
140
1.0
102
RTVSPost2010PropOp57
 70
     1
  0
XRECORD
  5
4AE
102
{ACAD_REACTORS
330
4AD
102
}
330
4AD
100
AcDbXrecord
280
     1
102
RTVSPost2010Prop28
280
     0
102
RTVSPost2010PropOp28
 70
     1
102
RTVSPost2010Prop29
280
     1
102
RTVSPost2010PropOp29
 70
     1
102
RTVSPost2010Prop30
280
     1
102
RTVSPost2010PropOp30
 70
     1
102
RTVSPost2010Prop31
280
     0
102
RTVSPost2010PropOp31
 70
     1
102
RTVSPost2010Prop32
280
     0
102
RTVSPost2010PropOp32
 70
     1
102
RTVSPost2010Prop33
280
     0
102
RTVSPost2010PropOp33
 70
     1
102
RTVSPost2010Prop34
280
     0
102
RTVSPost2010PropOp34
 70
     1
102
RTVSPost2010Prop35
280
     0
102
RTVSPost2010PropOp35
 70
     1
102
RTVSPost2010Prop36
280
     0
102
RTVSPost2010PropOp36
 70
     1
102
RTVSPost2010Prop37
 90
       50
102
RTVSPost2010PropOp37
 70
     1
102
RTVSPost2010Prop38
140
0.0
102
RTVSPost2010PropOp38
 70
     1
102
RTVSPost2010Prop39
140
1.0
102
RTVSPost2010PropOp39
 70
     1
102
RTVSPost2010Prop40
 90
        0
102
RTVSPost2010PropOp40
 70
     1
102
RTVSPost2010Prop41ColorIndex
 90
       18
102
RTVSPost2010Prop41ColorRGB
 90
        0
102
RTVSPost2010PropOp41
 70
     1
102
RTVSPost2010Prop42
 90
       50
102
RTVSPost2010PropOp42
 70
     1
102
RTVSPost2010Prop43
 90
        3
102
RTVSPost2010PropOp43
 70
     1
102
RTVSPost2010Prop44ColorIndex
 90
        5
102
RTVSPost2010Prop44ColorRGB
 90
      255
102
RTVSPost2010PropOp44
 70
     1
102
RTVSPost2010Prop45
280
     0
102
RTVSPost2010PropOp45
 70
     1
102
RTVSPost2010Prop46
 90
       50
102
RTVSPost2010PropOp46
 70
     1
102
RTVSPost2010Prop47
 90
       50
102
RTVSPost2010PropOp47
 70
     1
102
RTVSPost2010Prop48
 90
       50
102
RTVSPost2010PropOp48
 70
     1
102
RTVSPost2010Prop49
280
     0
102
RTVSPost2010PropOp49
 70
     1
102
RTVSPost2010Prop50
 90
       50
102
RTVSPost2010PropOp50
 70
     1
102
RTVSPost2010Prop51ColorIndex
 90
      256
102
RTVSPost2010Prop51ColorRGB
 90
-16777216
102
RTVSPost2010PropOp51
 70
     0
102
RTVSPost2010Prop52
140
1.0
102
RTVSPost2010PropOp52
 70
     0
102
RTVSPost2010Prop53
 90
        2
102
RTVSPost2010PropOp53
 70
     1
102
RTVSPost2010Prop54
  1
strokes_ogs.tif
102
RTVSPost2010PropOp54
 70
     1
102
RTVSPost2010Prop55
280
     0
102
RTVSPost2010PropOp55
 70
     1
102
RTVSPost2010Prop56
140
1.0
102
RTVSPost2010PropOp56
 70
     1
102
RTVSPost2010Prop57
140
1.0
102
RTVSPost2010PropOp57
 70
     1
  0
XRECORD
  5
4AC
102
{ACAD_REACTORS
330
4AB
102
}
330
4AB
100
AcDbXrecord
280
     1
102
RTVSPost2010Prop28
280
     0
102
RTVSPost2010PropOp28
 70
     1
102
RTVSPost2010Prop29
280
     1
102
RTVSPost2010PropOp29
 70
     1
102
RTVSPost2010Prop30
280
     1
102
RTVSPost2010PropOp30
 70
     1
102
RTVSPost2010Prop31
280
     0
102
RTVSPost2010PropOp31
 70
     1
102
RTVSPost2010Prop32
280
     0
102
RTVSPost2010PropOp32
 70
     1
102
RTVSPost2010Prop33
280
     0
102
RTVSPost2010PropOp33
 70
     1
102
RTVSPost2010Prop34
280
     0
102
RTVSPost2010PropOp34
 70
     1
102
RTVSPost2010Prop35
280
     0
102
RTVSPost2010PropOp35
 70
     1
102
RTVSPost2010Prop36
280
     0
102
RTVSPost2010PropOp36
 70
     1
102
RTVSPost2010Prop37
 90
       50
102
RTVSPost2010PropOp37
 70
     1
102
RTVSPost2010Prop38
140
0.0
102
RTVSPost2010PropOp38
 70
     1
102
RTVSPost2010Prop39
140
1.0
102
RTVSPost2010PropOp39
 70
     1
102
RTVSPost2010Prop40
 90
        0
102
RTVSPost2010PropOp40
 70
     1
102
RTVSPost2010Prop41ColorIndex
 90
       18
102
RTVSPost2010Prop41ColorRGB
 90
        0
102
RTVSPost2010PropOp41
 70
     1
102
RTVSPost2010Prop42
 90
       50
102
RTVSPost2010PropOp42
 70
     1
102
RTVSPost2010Prop43
 90
        3
102
RTVSPost2010PropOp43
 70
     1
102
RTVSPost2010Prop44ColorIndex
 90
        5
102
RTVSPost2010Prop44ColorRGB
 90
      255
102
RTVSPost2010PropOp44
 70
     1
102
RTVSPost2010Prop45
280
     0
102
RTVSPost2010PropOp45
 70
     1
102
RTVSPost2010Prop46
 90
       50
102
RTVSPost2010PropOp46
 70
     1
102
RTVSPost2010Prop47
 90
       50
102
RTVSPost2010PropOp47
 70
     1
102
RTVSPost2010Prop48
 90
       50
102
RTVSPost2010PropOp48
 70
     1
102
RTVSPost2010Prop49
280
     0
102
RTVSPost2010PropOp49
 70
     1
102
RTVSPost2010Prop50
 90
       50
102
RTVSPost2010PropOp50
 70
     1
102
RTVSPost2010Prop51ColorIndex
 90
      256
102
RTVSPost2010Prop51ColorRGB
 90
-16777216
102
RTVSPost2010PropOp51
 70
     0
102
RTVSPost2010Prop52
140
1.0
102
RTVSPost2010PropOp52
 70
     0
102
RTVSPost2010Prop53
 90
        2
102
RTVSPost2010PropOp53
 70
     1
102
RTVSPost2010Prop54
  1
strokes_ogs.tif
102
RTVSPost2010PropOp54
 70
     1
102
RTVSPost2010Prop55
280
     0
102
RTVSPost2010PropOp55
 70
     1
102
RTVSPost2010Prop56
140
1.0
102
RTVSPost2010PropOp56
 70
     1
102
RTVSPost2010Prop57
140
1.0
102
RTVSPost2010PropOp57
 70
     1
  0
XRECORD
  5
4A6
102
{ACAD_REACTORS
330
4A5
102
}
330
4A5
100
AcDbXrecord
280
     1
102
RTVSPost2010Prop28
280
     0
102
RTVSPost2010PropOp28
 70
     1
102
RTVSPost2010Prop29
280
     1
102
RTVSPost2010PropOp29
 70
     1
102
RTVSPost2010Prop30
280
     1
102
RTVSPost2010PropOp30
 70
     1
102
RTVSPost2010Prop31
280
     0
102
RTVSPost2010PropOp31
 70
     1
102
RTVSPost2010Prop32
280
     0
102
RTVSPost2010PropOp32
 70
     1
102
RTVSPost2010Prop33
280
     0
102
RTVSPost2010PropOp33
 70
     1
102
RTVSPost2010Prop34
280
     0
102
RTVSPost2010PropOp34
 70
     1
102
RTVSPost2010Prop35
280
     0
102
RTVSPost2010PropOp35
 70
     1
102
RTVSPost2010Prop36
280
     0
102
RTVSPost2010PropOp36
 70
     1
102
RTVSPost2010Prop37
 90
       50
102
RTVSPost2010PropOp37
 70
     1
102
RTVSPost2010Prop38
140
0.0
102
RTVSPost2010PropOp38
 70
     1
102
RTVSPost2010Prop39
140
1.0
102
RTVSPost2010PropOp39
 70
     1
102
RTVSPost2010Prop40
 90
        0
102
RTVSPost2010PropOp40
 70
     1
102
RTVSPost2010Prop41ColorIndex
 90
       18
102
RTVSPost2010Prop41ColorRGB
 90
        0
102
RTVSPost2010PropOp41
 70
     1
102
RTVSPost2010Prop42
 90
       50
102
RTVSPost2010PropOp42
 70
     1
102
RTVSPost2010Prop43
 90
        3
102
RTVSPost2010PropOp43
 70
     1
102
RTVSPost2010Prop44ColorIndex
 90
        5
102
RTVSPost2010Prop44ColorRGB
 90
      255
102
RTVSPost2010PropOp44
 70
     1
102
RTVSPost2010Prop45
280
     0
102
RTVSPost2010PropOp45
 70
     1
102
RTVSPost2010Prop46
 90
       50
102
RTVSPost2010PropOp46
 70
     1
102
RTVSPost2010Prop47
 90
       50
102
RTVSPost2010PropOp47
 70
     1
102
RTVSPost2010Prop48
 90
       50
102
RTVSPost2010PropOp48
 70
     1
102
RTVSPost2010Prop49
280
     0
102
RTVSPost2010PropOp49
 70
     1
102
RTVSPost2010Prop50
 90
       50
102
RTVSPost2010PropOp50
 70
     1
102
RTVSPost2010Prop51ColorIndex
 90
      256
102
RTVSPost2010Prop51ColorRGB
 90
-16777216
102
RTVSPost2010PropOp51
 70
     0
102
RTVSPost2010Prop52
140
1.0
102
RTVSPost2010PropOp52
 70
     0
102
RTVSPost2010Prop53
 90
        2
102
RTVSPost2010PropOp53
 70
     1
102
RTVSPost2010Prop54
  1
strokes_ogs.tif
102
RTVSPost2010PropOp54
 70
     1
102
RTVSPost2010Prop55
280
     0
102
RTVSPost2010PropOp55
 70
     1
102
RTVSPost2010Prop56
140
1.0
102
RTVSPost2010PropOp56
 70
     1
102
RTVSPost2010Prop57
140
1.0
102
RTVSPost2010PropOp57
 70
     1
  0
XRECORD
  5
4A8
102
{ACAD_REACTORS
330
4A7
102
}
330
4A7
100
AcDbXrecord
280
     1
102
RTVSPost2010Prop28
280
     0
102
RTVSPost2010PropOp28
 70
     1
102
RTVSPost2010Prop29
280
     1
102
RTVSPost2010PropOp29
 70
     1
102
RTVSPost2010Prop30
280
     1
102
RTVSPost2010PropOp30
 70
     1
102
RTVSPost2010Prop31
280
     0
102
RTVSPost2010PropOp31
 70
     1
102
RTVSPost2010Prop32
280
     0
102
RTVSPost2010PropOp32
 70
     1
102
RTVSPost2010Prop33
280
     0
102
RTVSPost2010PropOp33
 70
     1
102
RTVSPost2010Prop34
280
     0
102
RTVSPost2010PropOp34
 70
     1
102
RTVSPost2010Prop35
280
     0
102
RTVSPost2010PropOp35
 70
     1
102
RTVSPost2010Prop36
280
     0
102
RTVSPost2010PropOp36
 70
     1
102
RTVSPost2010Prop37
 90
       50
102
RTVSPost2010PropOp37
 70
     1
102
RTVSPost2010Prop38
140
0.0
102
RTVSPost2010PropOp38
 70
     1
102
RTVSPost2010Prop39
140
1.0
102
RTVSPost2010PropOp39
 70
     1
102
RTVSPost2010Prop40
 90
        0
102
RTVSPost2010PropOp40
 70
     1
102
RTVSPost2010Prop41ColorIndex
 90
       18
102
RTVSPost2010Prop41ColorRGB
 90
        0
102
RTVSPost2010PropOp41
 70
     1
102
RTVSPost2010Prop42
 90
       50
102
RTVSPost2010PropOp42
 70
     1
102
RTVSPost2010Prop43
 90
        3
102
RTVSPost2010PropOp43
 70
     1
102
RTVSPost2010Prop44ColorIndex
 90
        5
102
RTVSPost2010Prop44ColorRGB
 90
      255
102
RTVSPost2010PropOp44
 70
     1
102
RTVSPost2010Prop45
280
     0
102
RTVSPost2010PropOp45
 70
     1
102
RTVSPost2010Prop46
 90
       50
102
RTVSPost2010PropOp46
 70
     1
102
RTVSPost2010Prop47
 90
       50
102
RTVSPost2010PropOp47
 70
     1
102
RTVSPost2010Prop48
 90
       50
102
RTVSPost2010PropOp48
 70
     1
102
RTVSPost2010Prop49
280
     0
102
RTVSPost2010PropOp49
 70
     1
102
RTVSPost2010Prop50
 90
       50
102
RTVSPost2010PropOp50
 70
     1
102
RTVSPost2010Prop51ColorIndex
 90
      256
102
RTVSPost2010Prop51ColorRGB
 90
-16777216
102
RTVSPost2010PropOp51
 70
     0
102
RTVSPost2010Prop52
140
1.0
102
RTVSPost2010PropOp52
 70
     0
102
RTVSPost2010Prop53
 90
        2
102
RTVSPost2010PropOp53
 70
     1
102
RTVSPost2010Prop54
  1
strokes_ogs.tif
102
RTVSPost2010PropOp54
 70
     1
102
RTVSPost2010Prop55
280
     0
102
RTVSPost2010PropOp55
 70
     1
102
RTVSPost2010Prop56
140
1.0
102
RTVSPost2010PropOp56
 70
     1
102
RTVSPost2010Prop57
140
1.0
102
RTVSPost2010PropOp57
 70
     1
  0
XRECORD
  5
498
102
{ACAD_REACTORS
330
497
102
}
330
497
100
AcDbXrecord
280
     1
102
RTVSPost2010Prop28
280
     0
102
RTVSPost2010PropOp28
 70
     1
102
RTVSPost2010Prop29
280
     1
102
RTVSPost2010PropOp29
 70
     1
102
RTVSPost2010Prop30
280
     1
102
RTVSPost2010PropOp30
 70
     1
102
RTVSPost2010Prop31
280
     0
102
RTVSPost2010PropOp31
 70
     1
102
RTVSPost2010Prop32
280
     0
102
RTVSPost2010PropOp32
 70
     1
102
RTVSPost2010Prop33
280
     0
102
RTVSPost2010PropOp33
 70
     1
102
RTVSPost2010Prop34
280
     0
102
RTVSPost2010PropOp34
 70
     1
102
RTVSPost2010Prop35
280
     0
102
RTVSPost2010PropOp35
 70
     1
102
RTVSPost2010Prop36
280
     0
102
RTVSPost2010PropOp36
 70
     1
102
RTVSPost2010Prop37
 90
       50
102
RTVSPost2010PropOp37
 70
     1
102
RTVSPost2010Prop38
140
0.0
102
RTVSPost2010PropOp38
 70
     1
102
RTVSPost2010Prop39
140
1.0
102
RTVSPost2010PropOp39
 70
     1
102
RTVSPost2010Prop40
 90
        0
102
RTVSPost2010PropOp40
 70
     1
102
RTVSPost2010Prop41ColorIndex
 90
       18
102
RTVSPost2010Prop41ColorRGB
 90
        0
102
RTVSPost2010PropOp41
 70
     1
102
RTVSPost2010Prop42
 90
       50
102
RTVSPost2010PropOp42
 70
     1
102
RTVSPost2010Prop43
 90
        3
102
RTVSPost2010PropOp43
 70
     1
102
RTVSPost2010Prop44ColorIndex
 90
        5
102
RTVSPost2010Prop44ColorRGB
 90
      255
102
RTVSPost2010PropOp44
 70
     1
102
RTVSPost2010Prop45
280
     0
102
RTVSPost2010PropOp45
 70
     1
102
RTVSPost2010Prop46
 90
       50
102
RTVSPost2010PropOp46
 70
     1
102
RTVSPost2010Prop47
 90
       50
102
RTVSPost2010PropOp47
 70
     1
102
RTVSPost2010Prop48
 90
       50
102
RTVSPost2010PropOp48
 70
     1
102
RTVSPost2010Prop49
280
     0
102
RTVSPost2010PropOp49
 70
     1
102
RTVSPost2010Prop50
 90
       50
102
RTVSPost2010PropOp50
 70
     1
102
RTVSPost2010Prop51ColorIndex
 90
      256
102
RTVSPost2010Prop51ColorRGB
 90
-16777216
102
RTVSPost2010PropOp51
 70
     0
102
RTVSPost2010Prop52
140
1.0
102
RTVSPost2010PropOp52
 70
     0
102
RTVSPost2010Prop53
 90
        2
102
RTVSPost2010PropOp53
 70
     1
102
RTVSPost2010Prop54
  1
strokes_ogs.tif
102
RTVSPost2010PropOp54
 70
     1
102
RTVSPost2010Prop55
280
     0
102
RTVSPost2010PropOp55
 70
     1
102
RTVSPost2010Prop56
140
1.0
102
RTVSPost2010PropOp56
 70
     1
102
RTVSPost2010Prop57
140
1.0
102
RTVSPost2010PropOp57
 70
     1
  0
XRECORD
  5
48A
102
{ACAD_REACTORS
330
489
102
}
330
489
100
AcDbXrecord
280
     1
102
RTVSPost2010Prop28
280
     0
102
RTVSPost2010PropOp28
 70
     1
102
RTVSPost2010Prop29
280
     1
102
RTVSPost2010PropOp29
 70
     1
102
RTVSPost2010Prop30
280
     1
102
RTVSPost2010PropOp30
 70
     1
102
RTVSPost2010Prop31
280
     0
102
RTVSPost2010PropOp31
 70
     1
102
RTVSPost2010Prop32
280
     0
102
RTVSPost2010PropOp32
 70
     1
102
RTVSPost2010Prop33
280
     0
102
RTVSPost2010PropOp33
 70
     1
102
RTVSPost2010Prop34
280
     0
102
RTVSPost2010PropOp34
 70
     1
102
RTVSPost2010Prop35
280
     0
102
RTVSPost2010PropOp35
 70
     1
102
RTVSPost2010Prop36
280
     0
102
RTVSPost2010PropOp36
 70
     1
102
RTVSPost2010Prop37
 90
       50
102
RTVSPost2010PropOp37
 70
     1
102
RTVSPost2010Prop38
140
0.0
102
RTVSPost2010PropOp38
 70
     1
102
RTVSPost2010Prop39
140
1.0
102
RTVSPost2010PropOp39
 70
     1
102
RTVSPost2010Prop40
 90
        0
102
RTVSPost2010PropOp40
 70
     1
102
RTVSPost2010Prop41ColorIndex
 90
       18
102
RTVSPost2010Prop41ColorRGB
 90
        0
102
RTVSPost2010PropOp41
 70
     1
102
RTVSPost2010Prop42
 90
       50
102
RTVSPost2010PropOp42
 70
     1
102
RTVSPost2010Prop43
 90
        3
102
RTVSPost2010PropOp43
 70
     1
102
RTVSPost2010Prop44ColorIndex
 90
        5
102
RTVSPost2010Prop44ColorRGB
 90
      255
102
RTVSPost2010PropOp44
 70
     1
102
RTVSPost2010Prop45
280
     0
102
RTVSPost2010PropOp45
 70
     1
102
RTVSPost2010Prop46
 90
       50
102
RTVSPost2010PropOp46
 70
     1
102
RTVSPost2010Prop47
 90
       50
102
RTVSPost2010PropOp47
 70
     1
102
RTVSPost2010Prop48
 90
       50
102
RTVSPost2010PropOp48
 70
     1
102
RTVSPost2010Prop49
280
     0
102
RTVSPost2010PropOp49
 70
     1
102
RTVSPost2010Prop50
 90
       50
102
RTVSPost2010PropOp50
 70
     1
102
RTVSPost2010Prop51ColorIndex
 90
      256
102
RTVSPost2010Prop51ColorRGB
 90
-16777216
102
RTVSPost2010PropOp51
 70
     0
102
RTVSPost2010Prop52
140
1.0
102
RTVSPost2010PropOp52
 70
     0
102
RTVSPost2010Prop53
 90
        2
102
RTVSPost2010PropOp53
 70
     1
102
RTVSPost2010Prop54
  1
strokes_ogs.tif
102
RTVSPost2010PropOp54
 70
     1
102
RTVSPost2010Prop55
280
     0
102
RTVSPost2010PropOp55
 70
     1
102
RTVSPost2010Prop56
140
1.0
102
RTVSPost2010PropOp56
 70
     1
102
RTVSPost2010Prop57
140
1.0
102
RTVSPost2010PropOp57
 70
     1
  0
XRECORD
  5
4AA
102
{ACAD_REACTORS
330
4A9
102
}
330
4A9
100
AcDbXrecord
280
     1
102
RTVSPost2010Prop28
280
     0
102
RTVSPost2010PropOp28
 70
     1
102
RTVSPost2010Prop29
280
     1
102
RTVSPost2010PropOp29
 70
     1
102
RTVSPost2010Prop30
280
     1
102
RTVSPost2010PropOp30
 70
     1
102
RTVSPost2010Prop31
280
     0
102
RTVSPost2010PropOp31
 70
     1
102
RTVSPost2010Prop32
280
     0
102
RTVSPost2010PropOp32
 70
     1
102
RTVSPost2010Prop33
280
     0
102
RTVSPost2010PropOp33
 70
     1
102
RTVSPost2010Prop34
280
     0
102
RTVSPost2010PropOp34
 70
     1
102
RTVSPost2010Prop35
280
     0
102
RTVSPost2010PropOp35
 70
     1
102
RTVSPost2010Prop36
280
     0
102
RTVSPost2010PropOp36
 70
     1
102
RTVSPost2010Prop37
 90
       50
102
RTVSPost2010PropOp37
 70
     1
102
RTVSPost2010Prop38
140
0.0
102
RTVSPost2010PropOp38
 70
     1
102
RTVSPost2010Prop39
140
1.0
102
RTVSPost2010PropOp39
 70
     1
102
RTVSPost2010Prop40
 90
        0
102
RTVSPost2010PropOp40
 70
     1
102
RTVSPost2010Prop41ColorIndex
 90
       18
102
RTVSPost2010Prop41ColorRGB
 90
        0
102
RTVSPost2010PropOp41
 70
     1
102
RTVSPost2010Prop42
 90
       50
102
RTVSPost2010PropOp42
 70
     1
102
RTVSPost2010Prop43
 90
        3
102
RTVSPost2010PropOp43
 70
     1
102
RTVSPost2010Prop44ColorIndex
 90
        5
102
RTVSPost2010Prop44ColorRGB
 90
      255
102
RTVSPost2010PropOp44
 70
     1
102
RTVSPost2010Prop45
280
     0
102
RTVSPost2010PropOp45
 70
     1
102
RTVSPost2010Prop46
 90
       50
102
RTVSPost2010PropOp46
 70
     1
102
RTVSPost2010Prop47
 90
       50
102
RTVSPost2010PropOp47
 70
     1
102
RTVSPost2010Prop48
 90
       50
102
RTVSPost2010PropOp48
 70
     1
102
RTVSPost2010Prop49
280
     0
102
RTVSPost2010PropOp49
 70
     1
102
RTVSPost2010Prop50
 90
       50
102
RTVSPost2010PropOp50
 70
     1
102
RTVSPost2010Prop51ColorIndex
 90
      256
102
RTVSPost2010Prop51ColorRGB
 90
-16777216
102
RTVSPost2010PropOp51
 70
     0
102
RTVSPost2010Prop52
140
1.0
102
RTVSPost2010PropOp52
 70
     0
102
RTVSPost2010Prop53
 90
        2
102
RTVSPost2010PropOp53
 70
     1
102
RTVSPost2010Prop54
  1
strokes_ogs.tif
102
RTVSPost2010PropOp54
 70
     1
102
RTVSPost2010Prop55
280
     0
102
RTVSPost2010PropOp55
 70
     1
102
RTVSPost2010Prop56
140
1.0
102
RTVSPost2010PropOp56
 70
     1
102
RTVSPost2010Prop57
140
1.0
102
RTVSPost2010PropOp57
 70
     1
  0
ENDSEC
  0
EOF
