  0
SECTION
  2
HEADER
  9
$ACADVER
  1
AC1015
  9
$ACADMAINTVER
 70
     6
  9
$DWGCODEPAGE
  3
DOS932
  9
$INSBASE
 10
0.0
 20
0.0
 30
0.0
  9
$EXTMIN
 10
1240.09548385845
 20
-185.7810313571914
 30
0.0
  9
$EXTMAX
 10
2028.09548385845
 20
354.73127528472
 30
0.0
  9
$LIMMIN
 10
0.0
 20
0.0
  9
$LIMMAX
 10
12.0
 20
9.0
  9
$ORTHOMODE
 70
     0
  9
$REGENMODE
 70
     1
  9
$FILLMODE
 70
     1
  9
$QTEXTMODE
 70
     0
  9
$MIRRTEXT
 70
     1
  9
$LTSCALE
 40
1.0
  9
$ATTMODE
 70
     1
  9
$TEXTSIZE
 40
0.2
  9
$TRACEWID
 40
0.05
  9
$TEXTSTYLE
  7
Standard
  9
$CLAYER
  8
0
  9
$CELTYPE
  6
ByLayer
  9
$CECOLOR
 62
   256
  9
$CELTSCALE
 40
1.0
  9
$DISPSILH
 70
     0
  9
$DIMSCALE
 40
1.0
  9
$DIMASZ
 40
0.18
  9
$DIMEXO
 40
0.0625
  9
$DIMDLI
 40
0.38
  9
$DIMRND
 40
0.0
  9
$DIMDLE
 40
0.0
  9
$DIMEXE
 40
0.18
  9
$DIMTP
 40
0.0
  9
$DIMTM
 40
0.0
  9
$DIMTXT
 40
0.18
  9
$DIMCEN
 40
0.09
  9
$DIMTSZ
 40
0.0
  9
$DIMTOL
 70
     0
  9
$DIMLIM
 70
     0
  9
$DIMTIH
 70
     1
  9
$DIMTOH
 70
     1
  9
$DIMSE1
 70
     0
  9
$DIMSE2
 70
     0
  9
$DIMTAD
 70
     0
  9
$DIMZIN
 70
     0
  9
$DIMBLK
  1

  9
$DIMASO
 70
     1
  9
$DIMSHO
 70
     1
  9
$DIMPOST
  1

  9
$DIMAPOST
  1

  9
$DIMALT
 70
     0
  9
$DIMALTD
 70
     2
  9
$DIMALTF
 40
25.4
  9
$DIMLFAC
 40
1.0
  9
$DIMTOFL
 70
     0
  9
$DIMTVP
 40
0.0
  9
$DIMTIX
 70
     0
  9
$DIMSOXD
 70
     0
  9
$DIMSAH
 70
     0
  9
$DIMBLK1
  1

  9
$DIMBLK2
  1

  9
$DIMSTYLE
  2
Standard
  9
$DIMCLRD
 70
     0
  9
$DIMCLRE
 70
     0
  9
$DIMCLRT
 70
     0
  9
$DIMTFAC
 40
1.0
  9
$DIMGAP
 40
0.09
  9
$DIMJUST
 70
     0
  9
$DIMSD1
 70
     0
  9
$DIMSD2
 70
     0
  9
$DIMTOLJ
 70
     1
  9
$DIMTZIN
 70
     0
  9
$DIMALTZ
 70
     0
  9
$DIMALTTZ
 70
     0
  9
$DIMUPT
 70
     0
  9
$DIMDEC
 70
     4
  9
$DIMTDEC
 70
     4
  9
$DIMALTU
 70
     2
  9
$DIMALTTD
 70
     2
  9
$DIMTXSTY
  7
Standard
  9
$DIMAUNIT
 70
     0
  9
$DIMADEC
 70
     0
  9
$DIMALTRND
 40
0.0
  9
$DIMAZIN
 70
     0
  9
$DIMDSEP
 70
    46
  9
$DIMATFIT
 70
     3
  9
$DIMFRAC
 70
     0
  9
$DIMLDRBLK
  1

  9
$DIMLUNIT
 70
     2
  9
$DIMLWD
 70
    -2
  9
$DIMLWE
 70
    -2
  9
$DIMTMOVE
 70
     0
  9
$LUNITS
 70
     2
  9
$LUPREC
 70
     4
  9
$SKETCHINC
 40
0.1
  9
$FILLETRAD
 40
0.5
  9
$AUNITS
 70
     0
  9
$AUPREC
 70
     0
  9
$MENU
  1
.
  9
$ELEVATION
 40
0.0
  9
$PELEVATION
 40
0.0
  9
$THICKNESS
 40
0.0
  9
$LIMCHECK
 70
     0
  9
$CHAMFERA
 40
0.5
  9
$CHAMFERB
 40
0.5
  9
$CHAMFERC
 40
1.0
  9
$CHAMFERD
 40
0.0
  9
$SKPOLY
 70
     0
  9
$TDCREATE
 40
2455806.62160007
  9
$TDUCREATE
 40
2455806.24660007
  9
$TDUPDATE
 40
2455806.621600081
  9
$TDUUPDATE
 40
2455806.246600081
  9
$TDINDWG
 40
0.0000000116
  9
$TDUSRTIMER
 40
0.0000000116
  9
$USRTIMER
 70
     1
  9
$ANGBASE
 50
0.0
  9
$ANGDIR
 70
     0
  9
$PDMODE
 70
     0
  9
$PDSIZE
 40
0.0
  9
$PLINEWID
 40
0.0
  9
$SPLFRAME
 70
     0
  9
$SPLINETYPE
 70
     6
  9
$SPLINESEGS
 70
     8
  9
$HANDSEED
  5
31F
  9
$SURFTAB1
 70
     6
  9
$SURFTAB2
 70
     6
  9
$SURFTYPE
 70
     6
  9
$SURFU
 70
     6
  9
$SURFV
 70
     6
  9
$UCSBASE
  2

  9
$UCSNAME
  2

  9
$UCSORG
 10
0.0
 20
0.0
 30
0.0
  9
$UCSXDIR
 10
1.0
 20
0.0
 30
0.0
  9
$UCSYDIR
 10
0.0
 20
1.0
 30
0.0
  9
$UCSORTHOREF
  2

  9
$UCSORTHOVIEW
 70
     0
  9
$UCSORGTOP
 10
0.0
 20
0.0
 30
0.0
  9
$UCSORGBOTTOM
 10
0.0
 20
0.0
 30
0.0
  9
$UCSORGLEFT
 10
0.0
 20
0.0
 30
0.0
  9
$UCSORGRIGHT
 10
0.0
 20
0.0
 30
0.0
  9
$UCSORGFRONT
 10
0.0
 20
0.0
 30
0.0
  9
$UCSORGBACK
 10
0.0
 20
0.0
 30
0.0
  9
$PUCSBASE
  2

  9
$PUCSNAME
  2

  9
$PUCSORG
 10
0.0
 20
0.0
 30
0.0
  9
$PUCSXDIR
 10
1.0
 20
0.0
 30
0.0
  9
$PUCSYDIR
 10
0.0
 20
1.0
 30
0.0
  9
$PUCSORTHOREF
  2

  9
$PUCSORTHOVIEW
 70
     0
  9
$PUCSORGTOP
 10
0.0
 20
0.0
 30
0.0
  9
$PUCSORGBOTTOM
 10
0.0
 20
0.0
 30
0.0
  9
$PUCSORGLEFT
 10
0.0
 20
0.0
 30
0.0
  9
$PUCSORGRIGHT
 10
0.0
 20
0.0
 30
0.0
  9
$PUCSORGFRONT
 10
0.0
 20
0.0
 30
0.0
  9
$PUCSORGBACK
 10
0.0
 20
0.0
 30
0.0
  9
$USERI1
 70
     0
  9
$USERI2
 70
     0
  9
$USERI3
 70
     0
  9
$USERI4
 70
     0
  9
$USERI5
 70
     0
  9
$USERR1
 40
14.0
  9
$USERR2
 40
0.0
  9
$USERR3
 40
0.0
  9
$USERR4
 40
0.0
  9
$USERR5
 40
0.0
  9
$WORLDVIEW
 70
     1
  9
$SHADEDGE
 70
     3
  9
$SHADEDIF
 70
    70
  9
$TILEMODE
 70
     1
  9
$MAXACTVP
 70
    64
  9
$PINSBASE
 10
0.0
 20
0.0
 30
0.0
  9
$PLIMCHECK
 70
     0
  9
$PEXTMIN
 10
1.00000000000000E+20
 20
1.00000000000000E+20
 30
1.00000000000000E+20
  9
$PEXTMAX
 10
-1.00000000000000E+20
 20
-1.00000000000000E+20
 30
-1.00000000000000E+20
  9
$PLIMMIN
 10
0.0
 20
0.0
  9
$PLIMMAX
 10
12.0
 20
9.0
  9
$UNITMODE
 70
     0
  9
$VISRETAIN
 70
     1
  9
$PLINEGEN
 70
     0
  9
$PSLTSCALE
 70
     1
  9
$TREEDEPTH
 70
  3020
  9
$CMLSTYLE
  2
Standard
  9
$CMLJUST
 70
     0
  9
$CMLSCALE
 40
1.0
  9
$PROXYGRAPHICS
 70
     1
  9
$MEASUREMENT
 70
     1
  9
$CELWEIGHT
370
    -1
  9
$ENDCAPS
280
     0
  9
$JOINSTYLE
280
     0
  9
$LWDISPLAY
290
     0
  9
$INSUNITS
 70
     1
  9
$HYPERLINKBASE
  1

  9
$STYLESHEET
  1

  9
$XEDIT
290
     1
  9
$CEPSNTYPE
380
     0
  9
$PSTYLEMODE
290
     1
  9
$FINGERPRINTGUID
  2
{833971AC-A7C5-43BD-9A80-D49BE89D660F}
  9
$VERSIONGUID
  2
{FAEB1C32-E019-11D5-929B-00C0DF256EC4}
  9
$EXTNAMES
290
     1
  9
$PSVPSCALE
 40
0.0
  9
$OLESTARTUP
290
     0
  0
ENDSEC
  0
SECTION
  2
CLASSES
  0
CLASS
  1
ACDBDICTIONARYWDFLT
  2
AcDbDictionaryWithDefault
  3
ObjectDBX Classes
 90
        0
280
     0
281
     0
  0
CLASS
  1

  2
exOdDbCircle
  3

 90
        0
280
     0
281
     1
  0
CLASS
  1

  2
exOdDbSpline
  3

 90
        0
280
     0
281
     1
  0
CLASS
  1
ACDBPLACEHOLDER
  2
AcDbPlaceHolder
  3
ObjectDBX Classes
 90
        0
280
     0
281
     0
  0
CLASS
  1
LAYOUT
  2
AcDbLayout
  3
ObjectDBX Classes
 90
        0
280
     0
281
     0
  0
ENDSEC
  0
SECTION
  2
TABLES
  0
TABLE
  2
VPORT
  5
8
330
0
100
AcDbSymbolTable
 70
     1
  0
VPORT
  5
29
330
8
100
AcDbSymbolTableRecord
100
AcDbViewportTableRecord
  2
*Active
 70
     0
 10
0.0
 20
0.0
 11
1.0
 21
1.0
 12
1634.09548385845
 22
84.47512196376431
 13
0.0
 23
0.0
 14
0.5
 24
0.5
 15
0.5
 25
0.5
 16
0.0
 26
0.0
 36
1.0
 17
0.0
 27
0.0
 37
0.0
 40
594.5635373061026
 41
1.60267857142857
 42
50.0
 43
0.0
 44
0.0
 50
0.0
 51
0.0
 71
     0
 72
   100
 73
     1
 74
     3
 75
     0
 76
     0
 77
     0
 78
     0
281
     0
 65
     1
110
0.0
120
0.0
130
0.0
111
1.0
121
0.0
131
0.0
112
0.0
122
1.0
132
0.0
 79
     0
146
0.0
  0
ENDTAB
  0
TABLE
  2
LTYPE
  5
5
330
0
100
AcDbSymbolTable
 70
     8
  0
LTYPE
  5
14
330
5
100
AcDbSymbolTableRecord
100
AcDbLinetypeTableRecord
  2
ByBlock
 70
     0
  3

 72
    65
 73
     0
 40
0.0
  0
LTYPE
  5
15
330
5
100
AcDbSymbolTableRecord
100
AcDbLinetypeTableRecord
  2
ByLayer
 70
     0
  3

 72
    65
 73
     0
 40
0.0
  0
LTYPE
  5
16
330
5
100
AcDbSymbolTableRecord
100
AcDbLinetypeTableRecord
  2
Continuous
 70
     0
  3
Solid line
 72
    65
 73
     0
 40
0.0
  0
LTYPE
  5
2A
330
5
100
AcDbSymbolTableRecord
100
AcDbLinetypeTableRecord
  2
DASHED
 70
     0
  3
Dashed
 72
    65
 73
     2
 40
15.0
 49
7.0
 74
     0
 49
-8.0
 74
     0
  0
LTYPE
  5
2B
330
5
100
AcDbSymbolTableRecord
100
AcDbLinetypeTableRecord
  2
DOTTED
 70
     0
  3
Dotted
 72
    65
 73
     2
 40
1.0
 49
0.0
 74
     0
 49
-1.0
 74
     0
  0
LTYPE
  5
2C
330
5
100
AcDbSymbolTableRecord
100
AcDbLinetypeTableRecord
  2
DOT_CENTER
 70
     0
  3
Dot_Center
 72
    65
 73
     4
 40
14.0
 49
12.0
 74
     0
 49
-1.0
 74
     0
 49
0.0
 74
     0
 49
-1.0
 74
     0
  0
LTYPE
  5
2D
330
5
100
AcDbSymbolTableRecord
100
AcDbLinetypeTableRecord
  2
LONG_DASHED
 70
     0
  3
Long_Dashed
 72
    65
 73
     2
 40
15.0
 49
10.0
 74
     0
 49
-5.0
 74
     0
  0
LTYPE
  5
2E
330
5
100
AcDbSymbolTableRecord
100
AcDbLinetypeTableRecord
  2
DASH_CENTER
 70
     0
  3
Dash_Center
 72
    65
 73
     4
 40
14.0
 49
11.0
 74
     0
 49
-1.0
 74
     0
 49
1.0
 74
     0
 49
-1.0
 74
     0
  0
LTYPE
  5
2F
330
5
100
AcDbSymbolTableRecord
100
AcDbLinetypeTableRecord
  2
PHANTOM
 70
     0
  3
Phantom
 72
    65
 73
     6
 40
13.0
 49
10.0
 74
     0
 49
-1.0
 74
     0
 49
0.0
 74
     0
 49
-1.0
 74
     0
 49
0.0
 74
     0
 49
-1.0
 74
     0
  0
LTYPE
  5
30
330
5
100
AcDbSymbolTableRecord
100
AcDbLinetypeTableRecord
  2
CENTER_DASH_DASH
 70
     0
  3
Center_Dash_Dash
 72
    65
 73
     6
 40
14.0
 49
9.0
 74
     0
 49
-1.0
 74
     0
 49
1.0
 74
     0
 49
-1.0
 74
     0
 49
1.0
 74
     0
 49
-1.0
 74
     0
  0
ENDTAB
  0
TABLE
  2
LAYER
  5
2
330
0
100
AcDbSymbolTable
 70
     2
  0
LAYER
  5
10
330
2
100
AcDbSymbolTableRecord
100
AcDbLayerTableRecord
  2
0
 70
     0
 62
     7
  6
Continuous
370
    -3
390
F
  0
LAYER
  5
31
330
2
100
AcDbSymbolTableRecord
100
AcDbLayerTableRecord
  2
1
 70
     0
 62
     7
  6
Continuous
370
    -3
390
F
  0
ENDTAB
  0
TABLE
  2
STYLE
  5
3
330
0
100
AcDbSymbolTable
 70
     6
  0
STYLE
  5
11
330
3
100
AcDbSymbolTableRecord
100
AcDbTextStyleTableRecord
  2
Standard
 70
     0
 40
0.0
 41
1.0
 50
0.0
 71
     0
 42
0.2
  3
txt
  4

  0
STYLE
  5
4A
330
3
100
AcDbSymbolTableRecord
100
AcDbTextStyleTableRecord
  2
CONVERTER_1
 70
     0
 40
0.0
 41
0.9
 50
0.0
 71
     0
 42
0.2
  3
txt.shx
  4

  0
STYLE
  5
4D
330
3
100
AcDbSymbolTableRecord
100
AcDbTextStyleTableRecord
  2
CONVERTER_2
 70
     0
 40
0.0
 41
1.068
 50
0.0
 71
     0
 42
0.2
  3
msmincho.ttc
  4

1001
ACAD
1000
MS Mincho
1071
    32785
  0
STYLE
  5
50
330
3
100
AcDbSymbolTableRecord
100
AcDbTextStyleTableRecord
  2
CONVERTER_3
 70
     0
 40
0.0
 41
0.89
 50
0.0
 71
     0
 42
0.2
  3
MSMINCHO.TTC
  4

1001
ACAD
1000
MS Mincho
1071
    32785
  0
STYLE
  5
53
330
3
100
AcDbSymbolTableRecord
100
AcDbTextStyleTableRecord
  2
CONVERTER_4
 70
     0
 40
0.0
 41
0.801
 50
0.0
 71
     0
 42
0.2
  3
msmincho.ttc
  4

1001
ACAD
1000
MS Mincho
1071
    32785
  0
STYLE
  5
57
330
3
100
AcDbSymbolTableRecord
100
AcDbTextStyleTableRecord
  2
CONVERTER_5
 70
     0
 40
0.0
 41
0.9025
 50
0.0
 71
     0
 42
0.2
  3
complex.shx
  4

  0
ENDTAB
  0
TABLE
  2
VIEW
  5
6
330
0
100
AcDbSymbolTable
 70
     0
  0
ENDTAB
  0
TABLE
  2
UCS
  5
7
330
0
100
AcDbSymbolTable
 70
     0
  0
ENDTAB
  0
TABLE
  2
APPID
  5
9
330
0
100
AcDbSymbolTable
 70
     1
  0
APPID
  5
12
330
9
100
AcDbSymbolTableRecord
100
AcDbRegAppTableRecord
  2
ACAD
 70
     0
  0
ENDTAB
  0
TABLE
  2
DIMSTYLE
  5
A
330
0
100
AcDbSymbolTable
 70
    10
100
AcDbDimStyleTable
  0
DIMSTYLE
105
27
330
A
100
AcDbSymbolTableRecord
100
AcDbDimStyleTableRecord
  2
Standard
 70
     0
340
11
  0
DIMSTYLE
105
294
102
{ACAD_REACTORS
330
295
102
}
330
A
100
AcDbSymbolTableRecord
100
AcDbDimStyleTableRecord
  2
ME10_DIM_0
 70
     0
 41
6.4
 42
2.0
 44
2.0
 73
     0
 74
     0
 77
     1
 78
     8
140
6.4
147
2.0
172
     1
173
     1
176
     2
177
     2
178
     2
271
     2
340
4A
343
28E
344
28E
  0
DIMSTYLE
105
2A1
102
{ACAD_REACTORS
330
2A2
102
}
330
A
100
AcDbSymbolTableRecord
100
AcDbDimStyleTableRecord
  2
ME10_DIM_1
 70
     0
 41
6.4
 42
2.0
 44
2.0
 73
     0
 74
     0
 77
     1
 78
     8
140
6.4
147
2.0
172
     1
173
     1
176
     2
177
     2
178
     2
271
     2
340
4A
343
28E
344
28E
  0
DIMSTYLE
105
2AE
102
{ACAD_REACTORS
330
2AF
102
}
330
A
100
AcDbSymbolTableRecord
100
AcDbDimStyleTableRecord
  2
ME10_DIM_2
 70
     0
 41
6.4
 42
2.0
 44
2.0
 73
     0
 74
     0
 77
     1
 78
     8
140
6.4
147
2.0
172
     1
173
     1
176
     2
177
     2
178
     2
271
     2
340
4A
343
28E
344
28E
  0
DIMSTYLE
105
2BB
102
{ACAD_REACTORS
330
2BC
102
}
330
A
100
AcDbSymbolTableRecord
100
AcDbDimStyleTableRecord
  2
ME10_DIM_3
 70
     0
 41
6.4
 42
2.0
 44
2.0
 73
     0
 74
     0
 77
     1
 78
     8
140
6.4
147
2.0
172
     1
173
     1
176
     2
177
     2
178
     2
271
     2
340
4A
343
28E
344
28E
  0
DIMSTYLE
105
2C8
102
{ACAD_REACTORS
330
2C9
102
}
330
A
100
AcDbSymbolTableRecord
100
AcDbDimStyleTableRecord
  2
ME10_DIM_4
 70
     0
 41
6.4
 42
2.0
 44
2.0
 73
     0
 74
     0
 77
     1
 78
     8
140
6.4
147
2.0
172
     1
173
     1
176
     2
177
     2
178
     2
271
     2
340
4A
343
28E
344
28E
  0
DIMSTYLE
105
2D7
102
{ACAD_REACTORS
330
2D8
102
}
330
A
100
AcDbSymbolTableRecord
100
AcDbDimStyleTableRecord
  2
ME10_DIM_5
 70
     0
 41
6.4
 42
2.0
 44
2.0
 73
     0
 74
     0
 77
     1
 78
     8
140
6.4
147
2.0
172
     1
173
     1
176
     2
177
     2
178
     2
271
     2
340
4A
343
28E
344
28E
  0
DIMSTYLE
105
2E6
102
{ACAD_REACTORS
330
2E7
102
}
330
A
100
AcDbSymbolTableRecord
100
AcDbDimStyleTableRecord
  2
ME10_DIM_6
 70
     0
 41
6.4
 42
2.0
 44
2.0
 77
     1
 78
     8
140
6.4
147
2.0
172
     1
173
     1
176
     2
177
     2
178
     2
271
     2
340
4A
343
28E
344
28E
  0
DIMSTYLE
105
2F5
102
{ACAD_REACTORS
330
2F6
102
}
330
A
100
AcDbSymbolTableRecord
100
AcDbDimStyleTableRecord
  2
ME10_DIM_7
 70
     0
 41
6.4
 42
2.0
 44
2.0
 77
     1
 78
     8
140
6.4
147
2.0
172
     1
173
     1
176
     2
177
     2
178
     2
271
     2
340
4A
343
28E
344
28E
  0
DIMSTYLE
105
302
102
{ACAD_REACTORS
330
303
102
}
330
A
100
AcDbSymbolTableRecord
100
AcDbDimStyleTableRecord
  2
ME10_DIM_8
 70
     0
 41
6.4
 42
2.0
 44
2.0
 77
     1
 78
     8
140
6.4
147
2.0
172
     1
173
     1
176
     2
177
     2
178
     2
271
     2
340
4A
343
28E
344
28E
  0
ENDTAB
  0
TABLE
  2
BLOCK_RECORD
  5
1
330
0
100
AcDbSymbolTable
 70
    15
  0
BLOCK_RECORD
  5
1F
330
1
100
AcDbSymbolTableRecord
100
AcDbBlockTableRecord
  2
*Model_Space
340
22
  0
BLOCK_RECORD
  5
1B
330
1
100
AcDbSymbolTableRecord
100
AcDbBlockTableRecord
  2
*Paper_Space
340
1E
  0
BLOCK_RECORD
  5
23
330
1
100
AcDbSymbolTableRecord
100
AcDbBlockTableRecord
  2
*Paper_Space0
340
26
  0
BLOCK_RECORD
  5
32
330
1
100
AcDbSymbolTableRecord
100
AcDbBlockTableRecord
  2
Zuwaku-A3-web
340
0
102
{BLKREFS
331
35
102
}
  0
BLOCK_RECORD
  5
283
330
1
100
AcDbSymbolTableRecord
100
AcDbBlockTableRecord
  2
*D02
340
0
  0
BLOCK_RECORD
  5
28E
330
1
100
AcDbSymbolTableRecord
100
AcDbBlockTableRecord
  2
_Open30
340
0
  0
BLOCK_RECORD
  5
296
330
1
100
AcDbSymbolTableRecord
100
AcDbBlockTableRecord
  2
*D14
340
0
  0
BLOCK_RECORD
  5
2A3
330
1
100
AcDbSymbolTableRecord
100
AcDbBlockTableRecord
  2
*D25
340
0
  0
BLOCK_RECORD
  5
2B0
330
1
100
AcDbSymbolTableRecord
100
AcDbBlockTableRecord
  2
*D36
340
0
  0
BLOCK_RECORD
  5
2BD
330
1
100
AcDbSymbolTableRecord
100
AcDbBlockTableRecord
  2
*D47
340
0
  0
BLOCK_RECORD
  5
2CA
330
1
100
AcDbSymbolTableRecord
100
AcDbBlockTableRecord
  2
*D58
340
0
  0
BLOCK_RECORD
  5
2D9
330
1
100
AcDbSymbolTableRecord
100
AcDbBlockTableRecord
  2
*D69
340
0
  0
BLOCK_RECORD
  5
2E8
330
1
100
AcDbSymbolTableRecord
100
AcDbBlockTableRecord
  2
*D710
340
0
  0
BLOCK_RECORD
  5
2F7
330
1
100
AcDbSymbolTableRecord
100
AcDbBlockTableRecord
  2
*D811
340
0
  0
BLOCK_RECORD
  5
304
330
1
100
AcDbSymbolTableRecord
100
AcDbBlockTableRecord
  2
*D912
340
0
102
{BLKREFS
331
30C
102
}
  0
BLOCK_RECORD
  5
30D
330
1
100
AcDbSymbolTableRecord
100
AcDbBlockTableRecord
  2
*D1013
340
0
102
{BLKREFS
331
315
102
}
  0
BLOCK_RECORD
  5
316
330
1
100
AcDbSymbolTableRecord
100
AcDbBlockTableRecord
  2
*D1114
340
0
102
{BLKREFS
331
31E
102
}
  0
ENDTAB
  0
ENDSEC
  0
SECTION
  2
BLOCKS
  0
BLOCK
  5
20
330
1F
100
AcDbEntity
  8
0
100
AcDbBlockBegin
  2
*Model_Space
 70
     0
 71
     0
 10
0.0
 20
0.0
 30
0.0
  3
*Model_Space
  1

  0
ENDBLK
  5
21
330
1F
100
AcDbEntity
  8
0
100
AcDbBlockEnd
  0
BLOCK
  5
1C
330
1B
100
AcDbEntity
 67
     1
  8
0
100
AcDbBlockBegin
  2
*Paper_Space
 70
     0
 71
     0
 10
0.0
 20
0.0
 30
0.0
  3
*Paper_Space
  1

  0
ENDBLK
  5
1D
330
1B
100
AcDbEntity
 67
     1
  8
0
100
AcDbBlockEnd
  0
BLOCK
  5
24
330
23
100
AcDbEntity
  8
0
100
AcDbBlockBegin
  2
*Paper_Space0
 70
     0
 71
     0
 10
0.0
 20
0.0
 30
0.0
  3
*Paper_Space0
  1

  0
ENDBLK
  5
25
330
23
100
AcDbEntity
  8
0
100
AcDbBlockEnd
  0
BLOCK
  5
33
330
32
100
AcDbEntity
  8
0
100
AcDbBlockBegin
  2
Zuwaku-A3-web
 70
     0
 71
     0
 10
817.0477419292248
 20
43.36563764236
 30
0.0
  3
Zuwaku-A3-web
  1

  0
LINE
  5
36
330
32
100
AcDbEntity
  8
1
  6
Continuous
 62
     4
100
AcDbLine
 10
809.5423190864343
 20
-88.50038651515801
 30
0.0
 11
815.2743674014704
 21
-82.768338200122
 31
0.0
  0
LINE
  5
37
330
32
100
AcDbEntity
  8
1
  6
Continuous
 62
     7
100
AcDbLine
 10
620.047741929225
 20
-90.63436235764
 30
0.0
 11
1014.047741929225
 21
-90.63436235764
 31
0.0
  0
LINE
  5
38
330
32
100
AcDbEntity
  8
1
  6
Continuous
 62
     4
100
AcDbLine
 10
782.547741929225
 20
-75.63436235764
 30
0.0
 11
822.047741929225
 21
-75.63436235764
 31
0.0
  0
LINE
  5
39
330
32
100
AcDbEntity
  8
1
  6
Continuous
 62
     3
100
AcDbLine
 10
629.547741929225
 20
-78.13436235764
 30
0.0
 11
626.047741929225
 21
-71.63436235764
 31
0.0
  0
LINE
  5
3A
330
32
100
AcDbEntity
  8
1
  6
Continuous
 62
     3
100
AcDbLine
 10
622.547741929225
 20
-78.13436235764
 30
0.0
 11
629.547741929225
 21
-78.13436235764
 31
0.0
  0
LINE
  5
3B
330
32
100
AcDbEntity
  8
1
  6
Continuous
 62
     3
100
AcDbLine
 10
626.047741929225
 20
-71.63436235764
 30
0.0
 11
622.547741929225
 21
-78.13436235764
 31
0.0
  0
LINE
  5
3C
330
32
100
AcDbEntity
  8
1
  6
Continuous
 62
     4
100
AcDbLine
 10
632.047741929225
 20
-70.63436235764
 30
0.0
 11
632.047741929225
 21
-90.63436235764
 31
0.0
  0
LINE
  5
3D
330
32
100
AcDbEntity
  8
1
  6
Continuous
 62
     4
100
AcDbLine
 10
620.047741929225
 20
-80.63436235764
 30
0.0
 11
1014.047741929225
 21
-80.63436235764
 31
0.0
  0
LINE
  5
3E
330
32
100
AcDbEntity
  8
1
  6
Continuous
 62
     7
100
AcDbLine
 10
1014.047741929225
 20
177.36563764236
 30
0.0
 11
620.047741929225
 21
177.36563764236
 31
0.0
  0
LINE
  5
3F
330
32
100
AcDbEntity
  8
1
  6
Continuous
 62
     7
100
AcDbLine
 10
1014.047741929225
 20
-90.63436235764
 30
0.0
 11
1014.047741929225
 21
177.36563764236
 31
0.0
  0
LINE
  5
40
330
32
100
AcDbEntity
  8
1
  6
Continuous
 62
     4
100
AcDbLine
 10
822.047741929225
 20
-90.63436235764
 30
0.0
 11
822.047741929225
 21
-70.63436235764
 31
0.0
  0
LINE
  5
41
330
32
100
AcDbEntity
  8
1
  6
Continuous
 62
     4
100
AcDbLine
 10
782.547741929225
 20
-90.63436235764
 30
0.0
 11
782.547741929225
 21
-70.63436235764
 31
0.0
  0
LINE
  5
42
330
32
100
AcDbEntity
  8
1
  6
Continuous
 62
     4
100
AcDbLine
 10
903.047741929225
 20
-70.63436235764
 30
0.0
 11
903.047741929225
 21
-90.63436235764
 31
0.0
  0
LINE
  5
43
330
32
100
AcDbEntity
  8
1
  6
Continuous
 62
     4
100
AcDbLine
 10
847.047741929225
 20
-70.63436235764
 30
0.0
 11
847.047741929225
 21
-90.63436235764
 31
0.0
  0
LINE
  5
44
330
32
100
AcDbEntity
  8
1
  6
Continuous
 62
     4
100
AcDbLine
 10
790.547741929225
 20
-80.63436235764
 30
0.0
 11
790.547741929225
 21
-90.63436235764
 31
0.0
  0
LINE
  5
45
330
32
100
AcDbEntity
  8
1
  6
Continuous
 62
     4
100
AcDbLine
 10
686.047741929225
 20
-70.63436235764
 30
0.0
 11
686.047741929225
 21
-90.63436235764
 31
0.0
  0
LINE
  5
46
330
32
100
AcDbEntity
  8
1
  6
Continuous
 62
     7
100
AcDbLine
 10
620.047741929225
 20
177.36563764236
 30
0.0
 11
620.047741929225
 21
-90.63436235764
 31
0.0
  0
LINE
  5
47
330
32
100
AcDbEntity
  8
1
  6
Continuous
 62
     4
100
AcDbLine
 10
793.7923190864343
 20
-88.50038651515801
 30
0.0
 11
799.5243674014704
 21
-82.768338200122
 31
0.0
  0
LINE
  5
48
330
32
100
AcDbEntity
  8
1
  6
Continuous
 62
     4
100
AcDbLine
 10
1014.047741929225
 20
-70.63436235764
 30
0.0
 11
620.047741929225
 21
-70.63436235764
 31
0.0
  0
LINE
  5
49
330
32
100
AcDbEntity
  8
1
  6
Continuous
 62
     4
100
AcDbLine
 10
915.047741929225
 20
-70.63436235764
 30
0.0
 11
915.047741929225
 21
-90.63436235764
 31
0.0
  0
MTEXT
  5
4B
330
32
100
AcDbEntity
  8
1
 62
     2
100
AcDbMText
 10
801.0243674014704
 20
-86.88436235764
 30
0.0
 40
4.0
 41
0.0
 71
     5
 72
     1
  1
2
  7
CONVERTER_1
 73
     1
 44
0.60024009603842
  0
MTEXT
  5
4C
330
32
100
AcDbEntity
  8
1
 62
     2
100
AcDbMText
 10
793.231174797132
 20
-84.38436235764
 30
0.0
 40
4.0
 41
0.0
 71
     5
 72
     1
  1
1
  7
CONVERTER_1
 73
     1
 44
0.60024009603842
  0
MTEXT
  5
4E
330
32
100
AcDbEntity
  8
1
 62
     2
100
AcDbMText
 10
909.047741929225
 20
-87.88436235764
 30
0.0
 40
3.5
 41
0.0
 71
     5
 72
     1
  1
番号
  7
CONVERTER_2
 73
     1
 44
0.78031212484994
  0
MTEXT
  5
4F
330
32
100
AcDbEntity
  8
1
 62
     2
100
AcDbMText
 10
786.547741929225
 20
-87.88436235764
 30
0.0
 40
3.5
 41
0.0
 71
     5
 72
     1
  1
度
  7
CONVERTER_2
 73
     1
 44
0.78031212484994
  0
MTEXT
  5
51
330
32
100
AcDbEntity
  8
1
 62
     2
100
AcDbMText
 10
625.7258199593967
 20
-87.88436235764
 30
0.0
 40
3.5
 41
0.0
 71
     5
 72
     1
  1
番号
  7
CONVERTER_3
 73
     1
 44
0.78031212484994
  0
MTEXT
  5
52
330
32
100
AcDbEntity
  8
1
 62
     7
100
AcDbMText
 10
734.297741929225
 20
-75.63436235764
 30
0.0
 40
5.0
 41
0.0
 71
     5
 72
     1
  1
技術情報サービス
  7
CONVERTER_3
 73
     1
 44
1.20048019207683
  0
MTEXT
  5
54
330
32
100
AcDbEntity
  8
1
 62
     2
100
AcDbMText
 10
834.547741929225
 20
-75.63436235764
 30
0.0
 40
4.0
 41
0.0
 71
     5
 72
     1
  1
シリーズ名
  7
CONVERTER_4
 73
     1
 44
1.32052821128451
  0
MTEXT
  5
55
330
32
100
AcDbEntity
  8
1
 62
     2
100
AcDbMText
 10
834.547741929225
 20
-85.63436235764
 30
0.0
 40
4.0
 41
0.0
 71
     5
 72
     1
  1
機　種
  7
CONVERTER_3
 73
     1
 44
1.32052821128451
  0
MTEXT
  5
56
330
32
100
AcDbEntity
  8
1
 62
     2
100
AcDbMText
 10
809.797741929225
 20
-84.13436235764
 30
0.0
 40
4.0
 41
0.0
 71
     5
 72
     1
  1
1
  7
CONVERTER_1
 73
     1
 44
1.32052821128451
  0
MTEXT
  5
58
330
32
100
AcDbEntity
  8
1
 62
     7
100
AcDbMText
 10
734.297741929225
 20
-85.63436235764
 30
0.0
 40
4.0
 41
0.0
 71
     5
 72
     1
  1
MARUYASU KIKAI CO.,LTD.
  7
CONVERTER_5
 73
     1
 44
1.32052821128451
  0
MTEXT
  5
59
330
32
100
AcDbEntity
  8
1
 62
     2
100
AcDbMText
 10
626.047741929225
 20
-83.38436235764
 30
0.0
 40
3.5
 41
0.0
 71
     5
 72
     1
  1
改訂
  7
CONVERTER_3
 73
     1
 44
0.78031212484994
  0
MTEXT
  5
5A
330
32
100
AcDbEntity
  8
1
 62
     2
100
AcDbMText
 10
659.047741929225
 20
-85.63436235764
 30
0.0
 40
3.5
 41
0.0
 71
     5
 72
     1
  1
改　 訂　 記　 事
  7
CONVERTER_3
 73
     1
 44
1.32052821128451
  0
MTEXT
  5
5B
330
32
100
AcDbEntity
  8
1
 62
     2
100
AcDbMText
 10
786.547741929225
 20
-83.38436235764
 30
0.0
 40
3.5
 41
0.0
 71
     5
 72
     1
  1
尺
  7
CONVERTER_2
 73
     1
 44
0.78031212484994
  0
MTEXT
  5
5C
330
32
100
AcDbEntity
  8
1
 62
     2
100
AcDbMText
 10
802.297741929225
 20
-73.13436235764
 30
0.0
 40
3.5
 41
0.0
 71
     5
 72
     1
  1
年　　月　　日
  7
CONVERTER_3
 73
     1
 44
0.78031212484994
  0
MTEXT
  5
5D
330
32
100
AcDbEntity
  8
1
 62
     2
100
AcDbMText
 10
909.047741929225
 20
-83.38436235764
 30
0.0
 40
3.5
 41
0.0
 71
     5
 72
     1
  1
図面
  7
CONVERTER_2
 73
     1
 44
0.78031212484994
  0
MTEXT
  5
5E
330
32
100
AcDbEntity
  8
1
 62
     2
100
AcDbMText
 10
909.047741929225
 20
-75.63436235764
 30
0.0
 40
4.0
 41
0.0
 71
     5
 72
     1
  1
図名
  7
CONVERTER_3
 73
     1
 44
1.32052821128451
  0
MTEXT
  5
5F
330
32
100
AcDbEntity
  8
1
 62
     4
100
AcDbMText
 10
1013.504296321594
 20
-90.89051567859569
 30
0.0
 40
2.0
 41
0.0
 71
     3
 72
     1
  1
A3
  7
CONVERTER_1
 73
     1
 44
1.32052821128451
  0
ENDBLK
  5
34
330
32
100
AcDbEntity
  8
0
100
AcDbBlockEnd
  0
BLOCK
  5
28C
330
283
100
AcDbEntity
  8
0
100
AcDbBlockBegin
  2
*D02
 70
     1
 71
     0
 10
0.0
 20
0.0
 30
0.0
  3
*D02
  1

  0
LINE
  5
284
330
283
100
AcDbEntity
  8
1
  6
Continuous
 62
     2
100
AcDbLine
 10
1595.503355057019
 20
117.267787437825
 30
0.0
 11
1715.503355057019
 21
117.267787437825
 31
0.0
  0
LINE
  5
285
330
283
100
AcDbEntity
  8
1
  6
Continuous
 62
     2
100
AcDbLine
 10
1595.503355057019
 20
71.82706307627296
 30
0.0
 11
1595.503355057019
 21
119.267787437825
 31
0.0
  0
LINE
  5
286
330
283
100
AcDbEntity
  8
1
  6
Continuous
 62
     2
100
AcDbLine
 10
1715.503355057019
 20
74.02706307627295
 30
0.0
 11
1715.503355057019
 21
119.267787437825
 31
0.0
  0
LINE
  5
287
330
283
100
AcDbEntity
  8
1
 62
     2
100
AcDbLine
 10
1715.503355057019
 20
117.267787437825
 30
0.0
 11
1709.103355057019
 21
115.5529126062658
 31
0.0
  0
LINE
  5
288
330
283
100
AcDbEntity
  8
1
 62
     2
100
AcDbLine
 10
1715.503355057019
 20
117.267787437825
 30
0.0
 11
1709.103355057019
 21
118.9826622693842
 31
0.0
  0
LINE
  5
289
330
283
100
AcDbEntity
  8
1
 62
     2
100
AcDbLine
 10
1595.503355057019
 20
117.267787437825
 30
0.0
 11
1601.903355057019
 21
118.9826622693842
 31
0.0
  0
LINE
  5
28A
330
283
100
AcDbEntity
  8
1
 62
     2
100
AcDbLine
 10
1595.503355057019
 20
117.267787437825
 30
0.0
 11
1601.903355057019
 21
115.5529126062658
 31
0.0
  0
MTEXT
  5
28B
330
283
100
AcDbEntity
  8
1
 62
     2
100
AcDbMText
 10
1651.363627788632
 20
119.267787437825
 30
0.0
 40
6.4
 41
0.0
 71
     7
 72
     1
  1
120
  7
CONVERTER_1
 11
0.9999999999970621
 21
2.424068405545307E-6
 31
0.0
 73
     1
 44
0.60024009603842
  0
ENDBLK
  5
28D
330
283
100
AcDbEntity
  8
0
100
AcDbBlockEnd
  0
BLOCK
  5
28F
330
28E
100
AcDbEntity
  8
0
100
AcDbBlockBegin
  2
_Open30
 70
     0
 71
     0
 10
0.0
 20
0.0
 30
0.0
  3
_Open30
  1

  0
LINE
  5
291
330
28E
100
AcDbEntity
  8
0
  6
ByBlock
 62
     0
370
    -2
100
AcDbLine
 10
-1.0
 20
0.267949
 30
0.0
 11
0.0
 21
0.0
 31
0.0
  0
LINE
  5
292
330
28E
100
AcDbEntity
  8
0
  6
ByBlock
 62
     0
370
    -2
100
AcDbLine
 10
0.0
 20
0.0
 30
0.0
 11
-1.0
 21
-0.267949
 31
0.0
  0
LINE
  5
293
330
28E
100
AcDbEntity
  8
0
  6
ByBlock
 62
     0
370
    -2
100
AcDbLine
 10
0.0
 20
0.0
 30
0.0
 11
-1.0
 21
0.0
 31
0.0
  0
ENDBLK
  5
290
330
28E
100
AcDbEntity
  8
0
100
AcDbBlockEnd
  0
BLOCK
  5
29F
330
296
100
AcDbEntity
  8
0
100
AcDbBlockBegin
  2
*D14
 70
     1
 71
     0
 10
0.0
 20
0.0
 30
0.0
  3
*D14
  1

  0
LINE
  5
297
330
296
100
AcDbEntity
  8
1
  6
Continuous
 62
     2
100
AcDbLine
 10
1754.191278166993
 20
179.845220590962
 30
0.0
 11
1754.191278166993
 21
296.0452205909619
 31
0.0
  0
LINE
  5
298
330
296
100
AcDbEntity
  8
1
  6
Continuous
 62
     2
100
AcDbLine
 10
1717.503355057019
 20
296.0452205909619
 30
0.0
 11
1756.191278166993
 21
296.0452205909619
 31
0.0
  0
LINE
  5
299
330
296
100
AcDbEntity
  8
1
  6
Continuous
 62
     2
100
AcDbLine
 10
1717.503355057019
 20
179.845220590962
 30
0.0
 11
1756.191278166993
 21
179.845220590962
 31
0.0
  0
LINE
  5
29A
330
296
100
AcDbEntity
  8
1
 62
     2
100
AcDbLine
 10
1754.191278166993
 20
296.0452205909619
 30
0.0
 11
1755.906152998552
 21
289.6452205909619
 31
0.0
  0
LINE
  5
29B
330
296
100
AcDbEntity
  8
1
 62
     2
100
AcDbLine
 10
1754.191278166993
 20
296.0452205909619
 30
0.0
 11
1752.476403335434
 21
289.6452205909619
 31
0.0
  0
LINE
  5
29C
330
296
100
AcDbEntity
  8
1
 62
     2
100
AcDbLine
 10
1754.191278166993
 20
179.845220590962
 30
0.0
 11
1752.476403335434
 21
186.245220590962
 31
0.0
  0
LINE
  5
29D
330
296
100
AcDbEntity
  8
1
 62
     2
100
AcDbLine
 10
1754.191278166993
 20
179.845220590962
 30
0.0
 11
1755.906152998552
 21
186.245220590962
 31
0.0
  0
MTEXT
  5
29E
330
296
100
AcDbEntity
  8
1
 62
     2
100
AcDbMText
 10
1751.231278166993
 20
230.4040715249562
 30
0.0
 40
6.4
 41
0.0
 71
     7
 72
     1
  1
116
  7
CONVERTER_1
 11
0.0
 21
1.0
 31
0.0
 73
     1
 44
0.60024009603842
  0
ENDBLK
  5
2A0
330
296
100
AcDbEntity
  8
0
100
AcDbBlockEnd
  0
BLOCK
  5
2AC
330
2A3
100
AcDbEntity
  8
0
100
AcDbBlockBegin
  2
*D25
 70
     1
 71
     0
 10
0.0
 20
0.0
 30
0.0
  3
*D25
  1

  0
LINE
  5
2A4
330
2A3
100
AcDbEntity
  8
1
  6
Continuous
 62
     2
100
AcDbLine
 10
1735.816141935853
 20
192.9452205909619
 30
0.0
 11
1735.816141935853
 21
282.9452205909619
 31
0.0
  0
LINE
  5
2A5
330
2A3
100
AcDbEntity
  8
1
  6
Continuous
 62
     2
100
AcDbLine
 10
1717.803355057019
 20
282.9452205909619
 30
0.0
 11
1737.816141935853
 21
282.9452205909619
 31
0.0
  0
LINE
  5
2A6
330
2A3
100
AcDbEntity
  8
1
  6
Continuous
 62
     2
100
AcDbLine
 10
1717.803355057019
 20
192.9452205909619
 30
0.0
 11
1737.816141935853
 21
192.9452205909619
 31
0.0
  0
LINE
  5
2A7
330
2A3
100
AcDbEntity
  8
1
 62
     2
100
AcDbLine
 10
1735.816141935853
 20
282.9452205909619
 30
0.0
 11
1737.531016767412
 21
276.5452205909619
 31
0.0
  0
LINE
  5
2A8
330
2A3
100
AcDbEntity
  8
1
 62
     2
100
AcDbLine
 10
1735.816141935853
 20
282.9452205909619
 30
0.0
 11
1734.101267104294
 21
276.5452205909619
 31
0.0
  0
LINE
  5
2A9
330
2A3
100
AcDbEntity
  8
1
 62
     2
100
AcDbLine
 10
1735.816141935853
 20
192.9452205909619
 30
0.0
 11
1734.101267104294
 21
199.3452205909619
 31
0.0
  0
LINE
  5
2AA
330
2A3
100
AcDbEntity
  8
1
 62
     2
100
AcDbLine
 10
1735.816141935853
 20
192.9452205909619
 30
0.0
 11
1737.531016767412
 21
199.3452205909619
 31
0.0
  0
MTEXT
  5
2AB
330
2A3
100
AcDbEntity
  8
1
 62
     2
100
AcDbMText
 10
1732.856141935853
 20
233.636999695922
 30
0.0
 40
6.4
 41
0.0
 71
     7
 72
     1
  1
90
  7
CONVERTER_1
 11
0.0
 21
1.0
 31
0.0
 73
     1
 44
0.60024009603842
  0
ENDBLK
  5
2AD
330
2A3
100
AcDbEntity
  8
0
100
AcDbBlockEnd
  0
BLOCK
  5
2B9
330
2B0
100
AcDbEntity
  8
0
100
AcDbBlockBegin
  2
*D36
 70
     1
 71
     0
 10
0.0
 20
0.0
 30
0.0
  3
*D36
  1

  0
LINE
  5
2B1
330
2B0
100
AcDbEntity
  8
1
  6
Continuous
 62
     2
100
AcDbLine
 10
1772.091201705265
 20
-14.57293692372731
 30
0.0
 11
1772.091201705265
 21
85.4270630762729
 31
0.0
  0
LINE
  5
2B2
330
2B0
100
AcDbEntity
  8
1
  6
Continuous
 62
     2
100
AcDbLine
 10
1714.503355057019
 20
-14.57293692372731
 30
0.0
 11
1774.091201705265
 21
-14.57293692372731
 31
0.0
  0
LINE
  5
2B3
330
2B0
100
AcDbEntity
  8
1
  6
Continuous
 62
     2
100
AcDbLine
 10
1711.00335505701
 20
85.4270630762729
 30
0.0
 11
1774.091201705265
 21
85.4270630762729
 31
0.0
  0
LINE
  5
2B4
330
2B0
100
AcDbEntity
  8
1
 62
     2
100
AcDbLine
 10
1772.091201705265
 20
-14.57293692372731
 30
0.0
 11
1770.376326873706
 21
-8.1729369237273
 31
0.0
  0
LINE
  5
2B5
330
2B0
100
AcDbEntity
  8
1
 62
     2
100
AcDbLine
 10
1772.091201705265
 20
-14.57293692372731
 30
0.0
 11
1773.806076536824
 21
-8.1729369237273
 31
0.0
  0
LINE
  5
2B6
330
2B0
100
AcDbEntity
  8
1
 62
     2
100
AcDbLine
 10
1772.091201705265
 20
85.4270630762729
 30
0.0
 11
1773.806076536824
 21
79.0270630762729
 31
0.0
  0
LINE
  5
2B7
330
2B0
100
AcDbEntity
  8
1
 62
     2
100
AcDbLine
 10
1772.091201705265
 20
85.4270630762729
 30
0.0
 11
1770.376326873706
 21
79.0270630762729
 31
0.0
  0
MTEXT
  5
2B8
330
2B0
100
AcDbEntity
  8
1
 62
     2
100
AcDbMText
 10
1770.091201705265
 20
28.028526852514
 30
0.0
 40
6.4
 41
0.0
 71
     7
 72
     1
  1
100
  7
CONVERTER_1
 11
0.0
 21
1.0
 31
0.0
 73
     1
 44
0.60024009603842
  0
ENDBLK
  5
2BA
330
2B0
100
AcDbEntity
  8
0
100
AcDbBlockEnd
  0
BLOCK
  5
2C6
330
2BD
100
AcDbEntity
  8
0
100
AcDbBlockBegin
  2
*D47
 70
     1
 71
     0
 10
0.0
 20
0.0
 30
0.0
  3
*D47
  1

  0
LINE
  5
2BE
330
2BD
100
AcDbEntity
  8
1
  6
Continuous
 62
     2
100
AcDbLine
 10
1742.462426642481
 20
40.42706307627271
 30
0.0
 11
1742.462426642481
 21
0.42706307627271
 31
0.0
  0
LINE
  5
2BF
330
2BD
100
AcDbEntity
  8
1
  6
Continuous
 62
     2
100
AcDbLine
 10
1707.003355057019
 20
40.42706307627271
 30
0.0
 11
1744.462426642481
 21
40.42706307627271
 31
0.0
  0
LINE
  5
2C0
330
2BD
100
AcDbEntity
  8
1
  6
Continuous
 62
     2
100
AcDbLine
 10
1707.003355057019
 20
0.42706307627271
 30
0.0
 11
1744.462426642481
 21
0.42706307627271
 31
0.0
  0
LINE
  5
2C1
330
2BD
100
AcDbEntity
  8
1
 62
     2
100
AcDbLine
 10
1742.462426642481
 20
40.42706307627271
 30
0.0
 11
1744.17730147404
 21
34.02706307627271
 31
0.0
  0
LINE
  5
2C2
330
2BD
100
AcDbEntity
  8
1
 62
     2
100
AcDbLine
 10
1742.462426642481
 20
40.42706307627271
 30
0.0
 11
1740.747551810922
 21
34.02706307627271
 31
0.0
  0
LINE
  5
2C3
330
2BD
100
AcDbEntity
  8
1
 62
     2
100
AcDbLine
 10
1742.462426642481
 20
0.42706307627271
 30
0.0
 11
1740.747551810922
 21
6.82706307627271
 31
0.0
  0
LINE
  5
2C4
330
2BD
100
AcDbEntity
  8
1
 62
     2
100
AcDbLine
 10
1742.462426642481
 20
0.42706307627271
 30
0.0
 11
1744.17730147404
 21
6.82706307627271
 31
0.0
  0
MTEXT
  5
2C5
330
2BD
100
AcDbEntity
  8
1
 62
     2
100
AcDbMText
 10
1740.462426642481
 20
15.290080242505
 30
0.0
 40
6.4
 41
0.0
 71
     7
 72
     1
  1
40
  7
CONVERTER_1
 11
0.0
 21
1.0
 31
0.0
 73
     1
 44
0.60024009603842
  0
ENDBLK
  5
2C7
330
2BD
100
AcDbEntity
  8
0
100
AcDbBlockEnd
  0
BLOCK
  5
2D5
330
2CA
100
AcDbEntity
  8
0
100
AcDbBlockBegin
  2
*D58
 70
     1
 71
     0
 10
0.0
 20
0.0
 30
0.0
  3
*D58
  1

  0
LINE
  5
2CB
330
2CA
100
AcDbEntity
  8
1
  6
Continuous
 62
     2
100
AcDbLine
 10
1742.462426642481
 20
-14.5729369237273
 30
0.0
 11
1742.462426642481
 21
-27.3729369237273
 31
0.0
  0
LINE
  5
2CC
330
2CA
100
AcDbEntity
  8
1
  6
Continuous
 62
     2
100
AcDbLine
 10
1742.462426642481
 20
0.4270630762727
 30
0.0
 11
1742.462426642481
 21
-14.5729369237273
 31
0.0
  0
LINE
  5
2CD
330
2CA
100
AcDbEntity
  8
1
  6
Continuous
 62
     2
100
AcDbLine
 10
1742.462426642481
 20
13.22706307627271
 30
0.0
 11
1742.462426642481
 21
0.4270630762727
 31
0.0
  0
LINE
  5
2CE
330
2CA
100
AcDbEntity
  8
1
  6
Continuous
 62
     2
100
AcDbLine
 10
1707.003355057019
 20
0.4270630762727
 30
0.0
 11
1744.462426642481
 21
0.4270630762727
 31
0.0
  0
LINE
  5
2CF
330
2CA
100
AcDbEntity
  8
1
  6
Continuous
 62
     2
100
AcDbLine
 10
1714.503355057019
 20
-14.5729369237273
 30
0.0
 11
1744.462426642481
 21
-14.5729369237273
 31
0.0
  0
LINE
  5
2D0
330
2CA
100
AcDbEntity
  8
1
 62
     2
100
AcDbLine
 10
1742.462426642481
 20
0.4270630762727
 30
0.0
 11
1740.747551810922
 21
6.8270630762727
 31
0.0
  0
LINE
  5
2D1
330
2CA
100
AcDbEntity
  8
1
 62
     2
100
AcDbLine
 10
1742.462426642481
 20
0.4270630762727
 30
0.0
 11
1744.17730147404
 21
6.8270630762727
 31
0.0
  0
LINE
  5
2D2
330
2CA
100
AcDbEntity
  8
1
 62
     2
100
AcDbLine
 10
1742.462426642481
 20
-14.5729369237273
 30
0.0
 11
1744.17730147404
 21
-20.9729369237273
 31
0.0
  0
LINE
  5
2D3
330
2CA
100
AcDbEntity
  8
1
 62
     2
100
AcDbLine
 10
1742.462426642481
 20
-14.5729369237273
 30
0.0
 11
1740.747551810922
 21
-20.9729369237273
 31
0.0
  0
MTEXT
  5
2D4
330
2CA
100
AcDbEntity
  8
1
 62
     2
100
AcDbMText
 10
1740.462426642481
 20
-10.9129369237273
 30
0.0
 40
6.4
 41
0.0
 71
     7
 72
     1
  1
15
  7
CONVERTER_1
 11
0.0
 21
1.0
 31
0.0
 73
     1
 44
0.60024009603842
  0
ENDBLK
  5
2D6
330
2CA
100
AcDbEntity
  8
0
100
AcDbBlockEnd
  0
BLOCK
  5
2E4
330
2D9
100
AcDbEntity
  8
0
100
AcDbBlockBegin
  2
*D69
 70
     1
 71
     0
 10
0.0
 20
0.0
 30
0.0
  3
*D69
  1

  0
LINE
  5
2DA
330
2D9
100
AcDbEntity
  8
1
  6
Continuous
 62
     2
100
AcDbLine
 10
1610.503355057019
 20
-46.96451595221731
 30
0.0
 11
1623.303355057019
 21
-46.96451595221731
 31
0.0
  0
LINE
  5
2DB
330
2D9
100
AcDbEntity
  8
1
  6
Continuous
 62
     2
100
AcDbLine
 10
1595.503355057019
 20
-46.96451595221731
 30
0.0
 11
1610.503355057019
 21
-46.96451595221731
 31
0.0
  0
LINE
  5
2DC
330
2D9
100
AcDbEntity
  8
1
  6
Continuous
 62
     2
100
AcDbLine
 10
1582.703355057019
 20
-46.96451595221731
 30
0.0
 11
1595.503355057019
 21
-46.96451595221731
 31
0.0
  0
LINE
  5
2DD
330
2D9
100
AcDbEntity
  8
1
  6
Continuous
 62
     2
100
AcDbLine
 10
1595.503355057019
 20
-13.5729369237273
 30
0.0
 11
1595.503355057019
 21
-48.96451595221731
 31
0.0
  0
LINE
  5
2DE
330
2D9
100
AcDbEntity
  8
1
  6
Continuous
 62
     2
100
AcDbLine
 10
1610.503355057019
 20
-6.0729369237273
 30
0.0
 11
1610.503355057019
 21
-48.96451595221731
 31
0.0
  0
LINE
  5
2DF
330
2D9
100
AcDbEntity
  8
1
 62
     2
100
AcDbLine
 10
1595.503355057019
 20
-46.96451595221731
 30
0.0
 11
1589.103355057019
 21
-48.67939078377649
 31
0.0
  0
LINE
  5
2E0
330
2D9
100
AcDbEntity
  8
1
 62
     2
100
AcDbLine
 10
1595.503355057019
 20
-46.96451595221731
 30
0.0
 11
1589.103355057019
 21
-45.24964112065812
 31
0.0
  0
LINE
  5
2E1
330
2D9
100
AcDbEntity
  8
1
 62
     2
100
AcDbLine
 10
1610.503355057019
 20
-46.96451595221731
 30
0.0
 11
1616.903355057019
 21
-45.24964112065812
 31
0.0
  0
LINE
  5
2E2
330
2D9
100
AcDbEntity
  8
1
 62
     2
100
AcDbLine
 10
1610.503355057019
 20
-46.96451595221731
 30
0.0
 11
1616.903355057019
 21
-48.67939078377649
 31
0.0
  0
MTEXT
  5
2E3
330
2D9
100
AcDbEntity
  8
1
 62
     2
100
AcDbMText
 10
1598.275597397714
 20
-44.96451595221731
 30
0.0
 40
6.4
 41
0.0
 71
     7
 72
     1
  1
15
  7
CONVERTER_1
 11
0.9999999999970621
 21
2.424068405545307E-6
 31
0.0
 73
     1
 44
0.60024009603842
  0
ENDBLK
  5
2E5
330
2D9
100
AcDbEntity
  8
0
100
AcDbBlockEnd
  0
BLOCK
  5
2F3
330
2E8
100
AcDbEntity
  8
0
100
AcDbBlockBegin
  2
*D710
 70
     1
 71
     0
 10
0.0
 20
0.0
 30
0.0
  3
*D710
  1

  0
LINE
  5
2E9
330
2E8
100
AcDbEntity
  8
1
  6
Continuous
 62
     2
100
AcDbLine
 10
1715.503355057019
 20
-46.96451595221731
 30
0.0
 11
1728.303355057019
 21
-46.96451595221731
 31
0.0
  0
LINE
  5
2EA
330
2E8
100
AcDbEntity
  8
1
  6
Continuous
 62
     2
100
AcDbLine
 10
1700.503355057019
 20
-46.96451595221731
 30
0.0
 11
1715.503355057019
 21
-46.96451595221731
 31
0.0
  0
LINE
  5
2EB
330
2E8
100
AcDbEntity
  8
1
  6
Continuous
 62
     2
100
AcDbLine
 10
1687.703355057019
 20
-46.96451595221731
 30
0.0
 11
1700.503355057019
 21
-46.96451595221731
 31
0.0
  0
LINE
  5
2EC
330
2E8
100
AcDbEntity
  8
1
  6
Continuous
 62
     2
100
AcDbLine
 10
1700.503355057019
 20
-6.0729369237273
 30
0.0
 11
1700.503355057019
 21
-48.96451595221731
 31
0.0
  0
LINE
  5
2ED
330
2E8
100
AcDbEntity
  8
1
  6
Continuous
 62
     2
100
AcDbLine
 10
1715.503355057019
 20
-13.5729369237273
 30
0.0
 11
1715.503355057019
 21
-48.96451595221731
 31
0.0
  0
LINE
  5
2EE
330
2E8
100
AcDbEntity
  8
1
 62
     2
100
AcDbLine
 10
1700.503355057019
 20
-46.96451595221731
 30
0.0
 11
1694.103355057019
 21
-48.67939078377649
 31
0.0
  0
LINE
  5
2EF
330
2E8
100
AcDbEntity
  8
1
 62
     2
100
AcDbLine
 10
1700.503355057019
 20
-46.96451595221731
 30
0.0
 11
1694.103355057019
 21
-45.24964112065812
 31
0.0
  0
LINE
  5
2F0
330
2E8
100
AcDbEntity
  8
1
 62
     2
100
AcDbLine
 10
1715.503355057019
 20
-46.96451595221731
 30
0.0
 11
1721.903355057019
 21
-45.24964112065812
 31
0.0
  0
LINE
  5
2F1
330
2E8
100
AcDbEntity
  8
1
 62
     2
100
AcDbLine
 10
1715.503355057019
 20
-46.96451595221731
 30
0.0
 11
1721.903355057019
 21
-48.67939078377649
 31
0.0
  0
MTEXT
  5
2F2
330
2E8
100
AcDbEntity
  8
1
 62
     2
100
AcDbMText
 10
1704.163355057019
 20
-44.96451595221731
 30
0.0
 40
6.4
 41
0.0
 71
     7
 72
     1
  1
15
  7
CONVERTER_1
 11
0.9999999999970621
 21
2.424068405545307E-6
 31
0.0
 73
     1
 44
0.60024009603842
  0
ENDBLK
  5
2F4
330
2E8
100
AcDbEntity
  8
0
100
AcDbBlockEnd
  0
BLOCK
  5
300
330
2F7
100
AcDbEntity
  8
0
100
AcDbBlockBegin
  2
*D811
 70
     1
 71
     0
 10
0.0
 20
0.0
 30
0.0
  3
*D811
  1

  0
LINE
  5
2F8
330
2F7
100
AcDbEntity
  8
1
  6
Continuous
 62
     2
100
AcDbLine
 10
1610.503355057019
 20
-46.96451595221731
 30
0.0
 11
1700.503355057019
 21
-46.96451595221731
 31
0.0
  0
LINE
  5
2F9
330
2F7
100
AcDbEntity
  8
1
  6
Continuous
 62
     2
100
AcDbLine
 10
1610.503355057019
 20
-6.07293692372732
 30
0.0
 11
1610.503355057019
 21
-48.96451595221731
 31
0.0
  0
LINE
  5
2FA
330
2F7
100
AcDbEntity
  8
1
  6
Continuous
 62
     2
100
AcDbLine
 10
1700.503355057019
 20
-6.07293692372732
 30
0.0
 11
1700.503355057019
 21
-48.96451595221731
 31
0.0
  0
LINE
  5
2FB
330
2F7
100
AcDbEntity
  8
1
 62
     2
100
AcDbLine
 10
1610.503355057019
 20
-46.96451595221731
 30
0.0
 11
1616.903355057019
 21
-45.24964112065812
 31
0.0
  0
LINE
  5
2FC
330
2F7
100
AcDbEntity
  8
1
 62
     2
100
AcDbLine
 10
1610.503355057019
 20
-46.96451595221731
 30
0.0
 11
1616.903355057019
 21
-48.67939078377649
 31
0.0
  0
LINE
  5
2FD
330
2F7
100
AcDbEntity
  8
1
 62
     2
100
AcDbLine
 10
1700.503355057019
 20
-46.96451595221731
 30
0.0
 11
1694.103355057019
 21
-48.67939078377649
 31
0.0
  0
LINE
  5
2FE
330
2F7
100
AcDbEntity
  8
1
 62
     2
100
AcDbLine
 10
1700.503355057019
 20
-46.96451595221731
 30
0.0
 11
1694.103355057019
 21
-45.24964112065812
 31
0.0
  0
MTEXT
  5
2FF
330
2F7
100
AcDbEntity
  8
1
 62
     2
100
AcDbMText
 10
1650.703355057019
 20
-44.00451595221731
 30
0.0
 40
6.4
 41
0.0
 71
     7
 72
     1
  1
90
  7
CONVERTER_1
 11
0.9999999999970621
 21
2.424068405545307E-6
 31
0.0
 73
     1
 44
0.60024009603842
  0
ENDBLK
  5
301
330
2F7
100
AcDbEntity
  8
0
100
AcDbBlockEnd
  0
BLOCK
  5
30A
330
304
100
AcDbEntity
  8
0
100
AcDbBlockBegin
  2
*D912
 70
     1
 71
     0
 10
0.0
 20
0.0
 30
0.0
  3
*D912
  1

  0
LINE
  5
305
330
304
100
AcDbEntity
  8
1
  6
Continuous
 62
     2
100
AcDbLine
 10
1746.574746422281
 20
-44.46946121008809
 30
0.0
 11
1768.494746422281
 21
-44.46946121008809
 31
0.0
  0
LINE
  5
306
330
304
100
AcDbEntity
  8
1
  6
Continuous
 62
     2
100
AcDbLine
 10
1702.651893453713
 20
-1.66668541815815
 30
0.0
 11
1746.574746422281
 21
-44.46946121008809
 31
0.0
  0
LINE
  5
307
330
304
100
AcDbEntity
  8
1
 62
     2
100
AcDbLine
 10
1702.651893453713
 20
-1.66668541815815
 30
0.0
 11
1708.432280898898
 21
-4.90519073256767
 31
0.0
  0
LINE
  5
308
330
304
100
AcDbEntity
  8
1
 62
     2
100
AcDbLine
 10
1702.651893453713
 20
-1.66668541815815
 30
0.0
 11
1706.038603167755
 21
-7.36150701332038
 31
0.0
  0
MTEXT
  5
309
330
304
100
AcDbEntity
  8
1
 62
     2
100
AcDbMText
 10
1754.158746422312
 20
-41.50948665311007
 30
0.0
 40
6.4
 41
0.0
 71
     7
 72
     1
  1
\C2;{\Fgdt;n}\C2;6
  7
CONVERTER_1
 11
0.9999999999970621
 21
2.424068405545307E-6
 31
0.0
 73
     1
 44
0.60024009603842
  0
ENDBLK
  5
30B
330
304
100
AcDbEntity
  8
0
100
AcDbBlockEnd
  0
BLOCK
  5
313
330
30D
100
AcDbEntity
  8
0
100
AcDbBlockBegin
  2
*D1013
 70
     1
 71
     0
 10
0.0
 20
0.0
 30
0.0
  3
*D1013
  1

  0
LINE
  5
30E
330
30D
100
AcDbEntity
  8
1
  6
Continuous
 62
     2
100
AcDbLine
 10
1581.621995486357
 20
105.020918028165
 30
0.0
 11
1555.861995486357
 21
105.020918028165
 31
0.0
  0
LINE
  5
30F
330
30D
100
AcDbEntity
  8
1
  6
Continuous
 62
     2
100
AcDbLine
 10
1599.306202027124
 20
83.39430409076756
 30
0.0
 11
1581.621995486357
 21
105.020918028165
 31
0.0
  0
LINE
  5
310
330
30D
100
AcDbEntity
  8
1
 62
     2
100
AcDbLine
 10
1599.306202027124
 20
83.39430409076756
 30
0.0
 11
1593.927343621298
 21
87.2632416630202
 31
0.0
  0
LINE
  5
311
330
30D
100
AcDbEntity
  8
1
 62
     2
100
AcDbLine
 10
1599.306202027124
 20
83.39430409076756
 30
0.0
 11
1596.582442790445
 21
89.43433151690753
 31
0.0
  0
MTEXT
  5
312
330
30D
100
AcDbEntity
  8
1
 62
     2
100
AcDbMText
 10
1553.045995486388
 20
106.420892585143
 30
0.0
 40
6.4
 41
0.0
 71
     7
 72
     1
  1
\C2;{\Fgdt;n}\C2;18
  7
CONVERTER_1
 11
0.9999999999970621
 21
2.424068405545307E-6
 31
0.0
 73
     1
 44
0.60024009603842
  0
ENDBLK
  5
314
330
30D
100
AcDbEntity
  8
0
100
AcDbBlockEnd
  0
BLOCK
  5
31C
330
316
100
AcDbEntity
  8
0
100
AcDbBlockBegin
  2
*D1114
 70
     1
 71
     0
 10
0.0
 20
0.0
 30
0.0
  3
*D1114
  1

  0
LINE
  5
317
330
316
100
AcDbEntity
  8
1
  6
Continuous
 62
     2
100
AcDbLine
 10
1711.930244618738
 20
84.66474553070306
 30
0.0
 11
1724.518760379975
 21
107.191952908835
 31
0.0
  0
LINE
  5
318
330
316
100
AcDbEntity
  8
1
  6
Continuous
 62
     2
100
AcDbLine
 10
1724.518760379975
 20
107.191952908835
 30
0.0
 11
1750.278760379975
 21
107.191952908835
 31
0.0
  0
LINE
  5
319
330
316
100
AcDbEntity
  8
1
 62
     2
100
AcDbLine
 10
1711.930244618738
 20
84.66474553070306
 30
0.0
 11
1713.555265181782
 21
91.08814835612201
 31
0.0
  0
LINE
  5
31A
330
316
100
AcDbEntity
  8
1
 62
     2
100
AcDbLine
 10
1711.930244618738
 20
84.66474553070306
 30
0.0
 11
1716.549255120716
 21
89.41506527473472
 31
0.0
  0
MTEXT
  5
31B
330
316
100
AcDbEntity
  8
1
 62
     2
100
AcDbMText
 10
1732.102760380006
 20
108.591927465813
 30
0.0
 40
6.4
 41
0.0
 71
     7
 72
     1
  1
\C2;{\Fgdt;n}\C2;12
  7
CONVERTER_1
 11
0.9999999999970621
 21
2.424068405545307E-6
 31
0.0
 73
     1
 44
0.60024009603842
  0
ENDBLK
  5
31D
330
316
100
AcDbEntity
  8
0
100
AcDbBlockEnd
  0
ENDSEC
  0
SECTION
  2
ENTITIES
  0
INSERT
  5
35
330
1F
100
AcDbEntity
  8
0
100
AcDbBlockReference
  2
Zuwaku-A3-web
 10
1634.09548385845
 20
86.73127528472
 30
0.0
 41
2.0
 42
2.0
 43
2.0
  0
LINE
  5
60
330
1F
100
AcDbEntity
  8
1
  6
Continuous
 62
     7
100
AcDbLine
 10
1690.803355057019
 20
179.845220590962
 30
0.0
 11
1690.503355057019
 21
179.845220590962
 31
0.0
  0
LINE
  5
61
330
1F
100
AcDbEntity
  8
1
  6
Continuous
 62
     7
100
AcDbLine
 10
1703.20335505701
 20
179.845220590962
 30
0.0
 11
1695.603355057019
 21
179.845220590962
 31
0.0
  0
LINE
  5
62
330
1F
100
AcDbEntity
  8
1
  6
Continuous
 62
     7
100
AcDbLine
 10
1715.503355057019
 20
72.0270630762729
 30
0.0
 11
1712.503355057019
 21
75.0270630762729
 31
0.0
  0
LINE
  5
63
330
1F
100
AcDbEntity
  8
1
  6
Continuous
 62
     7
100
AcDbLine
 10
1712.503355057019
 20
-14.5729369237273
 30
0.0
 11
1715.503355057019
 21
-11.5729369237273
 31
0.0
  0
LINE
  5
64
330
1F
100
AcDbEntity
  8
1
  6
Continuous
 62
     7
100
AcDbLine
 10
1598.503355057019
 20
-14.5729369237273
 30
0.0
 11
1595.503355057019
 21
-11.5729369237273
 31
0.0
  0
LINE
  5
65
330
1F
100
AcDbEntity
  8
1
  6
Continuous
 62
     7
100
AcDbLine
 10
1598.503355057019
 20
-14.5729369237273
 30
0.0
 11
1712.503355057019
 21
-14.5729369237273
 31
0.0
  0
LINE
  5
66
330
1F
100
AcDbEntity
  8
1
  6
Continuous
 62
     7
100
AcDbLine
 10
1715.503355057019
 20
72.0270630762729
 30
0.0
 11
1715.503355057019
 21
-11.5729369237273
 31
0.0
  0
LINE
  5
67
330
1F
100
AcDbEntity
  8
1
  6
Continuous
 62
     7
100
AcDbLine
 10
1403.219955435887
 20
85.4270630762729
 30
0.0
 11
1404.819955435887
 21
85.4270630762729
 31
0.0
  0
LINE
  5
68
330
1F
100
AcDbEntity
  8
1
  6
Continuous
 62
     7
100
AcDbLine
 10
1403.219955435887
 20
-14.5729369237273
 30
0.0
 11
1403.219955435887
 21
85.4270630762729
 31
0.0
  0
LINE
  5
69
330
1F
100
AcDbEntity
  8
1
  6
Continuous
 62
     7
100
AcDbLine
 10
1404.819955435887
 20
-14.5729369237273
 30
0.0
 11
1403.219955435887
 21
-14.5729369237273
 31
0.0
  0
LINE
  5
6A
330
1F
100
AcDbEntity
  8
1
  6
Continuous
 62
     7
100
AcDbLine
 10
1404.819955435887
 20
85.4270630762729
 30
0.0
 11
1404.819955435887
 21
-14.5729369237273
 31
0.0
  0
LINE
  5
6B
330
1F
100
AcDbEntity
  8
1
  6
Continuous
 62
     7
100
AcDbLine
 10
1517.819955435887
 20
-14.5729369237273
 30
0.0
 11
1517.819955435887
 21
85.4270630762729
 31
0.0
  0
LINE
  5
6C
330
1F
100
AcDbEntity
  8
1
  6
Continuous
 62
     7
100
AcDbLine
 10
1519.419955435887
 20
-14.5729369237273
 30
0.0
 11
1517.819955435887
 21
-14.5729369237273
 31
0.0
  0
LINE
  5
6D
330
1F
100
AcDbEntity
  8
1
  6
Continuous
 62
     7
100
AcDbLine
 10
1519.419955435887
 20
85.4270630762729
 30
0.0
 11
1519.419955435887
 21
-14.5729369237273
 31
0.0
  0
LINE
  5
6E
330
1F
100
AcDbEntity
  8
1
  6
Continuous
 62
     7
100
AcDbLine
 10
1517.819955435887
 20
85.4270630762729
 30
0.0
 11
1519.419955435887
 21
85.4270630762729
 31
0.0
  0
LINE
  5
6F
330
1F
100
AcDbEntity
  8
1
  6
Continuous
 62
     7
100
AcDbLine
 10
1715.503355057019
 20
294.4452205909619
 30
0.0
 11
1690.503355057019
 21
294.4452205909619
 31
0.0
  0
LINE
  5
70
330
1F
100
AcDbEntity
  8
1
  6
Continuous
 62
     7
100
AcDbLine
 10
1715.503355057019
 20
296.0452205909618
 30
0.0
 11
1715.503355057019
 21
294.4452205909619
 31
0.0
  0
LINE
  5
71
330
1F
100
AcDbEntity
  8
1
  6
Continuous
 62
     7
100
AcDbLine
 10
1595.003355057019
 20
296.0452205909618
 30
0.0
 11
1615.003355057019
 21
296.0452205909618
 31
0.0
  0
LINE
  5
72
330
1F
100
AcDbEntity
  8
1
  6
Continuous
 62
     7
100
AcDbLine
 10
1595.003355057019
 20
294.4452205909619
 30
0.0
 11
1595.003355057019
 21
296.0452205909618
 31
0.0
  0
LINE
  5
73
330
1F
100
AcDbEntity
  8
1
  6
Continuous
 62
     7
100
AcDbLine
 10
1595.003355057019
 20
179.845220590962
 30
0.0
 11
1595.003355057019
 21
181.4452205909619
 31
0.0
  0
LINE
  5
74
330
1F
100
AcDbEntity
  8
1
  6
Continuous
 62
     7
100
AcDbLine
 10
1715.503355057019
 20
179.845220590962
 30
0.0
 11
1706.00335505701
 21
179.845220590962
 31
0.0
  0
LINE
  5
75
330
1F
100
AcDbEntity
  8
1
  6
Continuous
 62
     7
100
AcDbLine
 10
1715.503355057019
 20
181.4452205909619
 30
0.0
 11
1715.503355057019
 21
179.845220590962
 31
0.0
  0
LINE
  5
76
330
1F
100
AcDbEntity
  8
1
  6
Continuous
 62
     7
100
AcDbLine
 10
1595.003355057019
 20
181.4452205909619
 30
0.0
 11
1615.003355057019
 21
181.4452205909619
 31
0.0
  0
LINE
  5
77
330
1F
100
AcDbEntity
  8
1
  6
Continuous
 62
     7
100
AcDbLine
 10
1597.503355057019
 20
71.82706307627299
 30
0.0
 11
1595.503355057019
 21
69.82706307627299
 31
0.0
  0
LINE
  5
78
330
1F
100
AcDbEntity
  8
1
  6
Continuous
 62
     7
100
AcDbLine
 10
1615.003355057019
 20
71.82706307627299
 30
0.0
 11
1615.003355057019
 21
77.32706307627299
 31
0.0
  0
LINE
  5
79
330
1F
100
AcDbEntity
  8
1
  6
Continuous
 62
     7
100
AcDbLine
 10
1597.503355057019
 20
71.82706307627299
 30
0.0
 11
1615.003355057019
 21
71.82706307627299
 31
0.0
  0
LINE
  5
7A
330
1F
100
AcDbEntity
  8
1
  6
Continuous
 62
     7
100
AcDbLine
 10
1690.503355057019
 20
81.4270630762729
 30
0.0
 11
1690.503355057019
 21
75.02706307627301
 31
0.0
  0
LINE
  5
7B
330
1F
100
AcDbEntity
  8
1
  6
Continuous
 62
     7
100
AcDbLine
 10
1688.503355057019
 20
83.42706307627302
 30
0.0
 11
1617.003355057019
 21
83.42706307627302
 31
0.0
  0
LINE
  5
7C
330
1F
100
AcDbEntity
  8
1
  6
Continuous
 62
     7
100
AcDbLine
 10
1617.003355057019
 20
83.42706307627302
 30
0.0
 11
1615.003355057019
 21
81.4270630762729
 31
0.0
  0
LINE
  5
7D
330
1F
100
AcDbEntity
  8
1
  6
Continuous
 62
     7
100
AcDbLine
 10
1688.503355057019
 20
83.42706307627302
 30
0.0
 11
1690.503355057019
 21
81.4270630762729
 31
0.0
  0
LINE
  5
7E
330
1F
100
AcDbEntity
  8
1
  6
Continuous
 62
     7
100
AcDbLine
 10
1615.003355057019
 20
77.32706307627299
 30
0.0
 11
1615.003355057019
 21
81.4270630762729
 31
0.0
  0
LINE
  5
7F
330
1F
100
AcDbEntity
  8
1
  6
Continuous
 62
     7
100
AcDbLine
 10
1712.503355057019
 20
75.0270630762729
 30
0.0
 11
1690.503355057019
 21
75.02706307627301
 31
0.0
  0
LINE
  5
80
330
1F
100
AcDbEntity
  8
1
  6
Continuous
 62
     7
100
AcDbLine
 10
1595.503355057019
 20
69.82706307627299
 30
0.0
 11
1595.503355057019
 21
-11.5729369237273
 31
0.0
  0
LINE
  5
81
330
1F
100
AcDbEntity
  8
1
  6
Continuous
 62
     7
100
AcDbLine
 10
1615.003355057019
 20
181.4452205909619
 30
0.0
 11
1615.003355057019
 21
179.845220590962
 31
0.0
  0
LINE
  5
82
330
1F
100
AcDbEntity
  8
1
  6
Continuous
 62
     7
100
AcDbLine
 10
1615.003355057019
 20
179.845220590962
 30
0.0
 11
1595.003355057019
 21
179.845220590962
 31
0.0
  0
LINE
  5
83
330
1F
100
AcDbEntity
  8
1
  6
Continuous
 62
     7
100
AcDbLine
 10
1615.003355057019
 20
181.4452205909619
 30
0.0
 11
1690.503355057019
 21
181.4452205909619
 31
0.0
  0
LINE
  5
84
330
1F
100
AcDbEntity
  8
1
  6
Continuous
 62
     7
100
AcDbLine
 10
1690.503355057019
 20
181.4452205909619
 30
0.0
 11
1690.503355057019
 21
179.845220590962
 31
0.0
  0
LINE
  5
85
330
1F
100
AcDbEntity
  8
1
  6
Continuous
 62
     7
100
AcDbLine
 10
1690.503355057019
 20
179.845220590962
 30
0.0
 11
1615.003355057019
 21
179.845220590962
 31
0.0
  0
LINE
  5
86
330
1F
100
AcDbEntity
  8
1
  6
Continuous
 62
     7
100
AcDbLine
 10
1690.503355057019
 20
181.4452205909619
 30
0.0
 11
1715.503355057019
 21
181.4452205909619
 31
0.0
  0
LINE
  5
87
330
1F
100
AcDbEntity
  8
1
  6
Continuous
 62
     7
100
AcDbLine
 10
1690.503355057019
 20
296.0452205909618
 30
0.0
 11
1690.503355057019
 21
294.4452205909619
 31
0.0
  0
LINE
  5
88
330
1F
100
AcDbEntity
  8
1
  6
Continuous
 62
     7
100
AcDbLine
 10
1690.503355057019
 20
294.4452205909619
 30
0.0
 11
1615.003355057019
 21
294.4452205909619
 31
0.0
  0
LINE
  5
89
330
1F
100
AcDbEntity
  8
1
  6
Continuous
 62
     7
100
AcDbLine
 10
1690.503355057019
 20
296.0452205909618
 30
0.0
 11
1715.503355057019
 21
296.0452205909618
 31
0.0
  0
LINE
  5
8A
330
1F
100
AcDbEntity
  8
1
  6
Continuous
 62
     7
100
AcDbLine
 10
1615.003355057019
 20
296.0452205909618
 30
0.0
 11
1615.003355057019
 21
294.4452205909619
 31
0.0
  0
LINE
  5
8B
330
1F
100
AcDbEntity
  8
1
  6
Continuous
 62
     7
100
AcDbLine
 10
1615.003355057019
 20
296.0452205909618
 30
0.0
 11
1690.503355057019
 21
296.0452205909618
 31
0.0
  0
LINE
  5
8C
330
1F
100
AcDbEntity
  8
1
  6
Continuous
 62
     7
100
AcDbLine
 10
1615.003355057019
 20
294.4452205909619
 30
0.0
 11
1595.003355057019
 21
294.4452205909619
 31
0.0
  0
LINE
  5
8D
330
1F
100
AcDbEntity
  8
1
  6
DASHED
 62
     4
100
AcDbLine
 10
1703.110021723677
 20
282.9452205909619
 30
0.0
 11
1703.00335505701
 21
274.9452205909619
 31
0.0
  0
LINE
  5
8E
330
1F
100
AcDbEntity
  8
1
  6
Continuous
 62
     7
100
AcDbLine
 10
1714.896688390343
 20
282.9452205909619
 30
0.0
 11
1714.82335505701
 21
288.4452205909619
 31
0.0
  0
LINE
  5
8F
330
1F
100
AcDbEntity
  8
1
  6
Continuous
 62
     7
100
AcDbLine
 10
1714.82335505701
 20
288.4452205909619
 30
0.0
 11
1703.18335505701
 21
288.4452205909619
 31
0.0
  0
LINE
  5
90
330
1F
100
AcDbEntity
  8
1
  6
Continuous
 62
     7
100
AcDbLine
 10
1704.95335505701
 20
289.9452205909619
 30
0.0
 11
1713.05335505701
 21
289.9452205909619
 31
0.0
  0
LINE
  5
91
330
1F
100
AcDbEntity
  8
1
  6
Continuous
 62
     7
100
AcDbLine
 10
1704.95335505701
 20
289.9452205909619
 30
0.0
 11
1704.95335505701
 21
292.4452205909619
 31
0.0
  0
LINE
  5
92
330
1F
100
AcDbEntity
  8
1
  6
DASHED
 62
     4
100
AcDbLine
 10
1715.00335505701
 20
268.9452205909619
 30
0.0
 11
1715.00335505701
 21
274.9452205909619
 31
0.0
  0
LINE
  5
93
330
1F
100
AcDbEntity
  8
1
  6
DASHED
 62
     4
100
AcDbLine
 10
1703.00335505701
 20
268.9452205909619
 30
0.0
 11
1703.00335505701
 21
274.9452205909619
 31
0.0
  0
LINE
  5
94
330
1F
100
AcDbEntity
  8
1
  6
DASHED
 62
     4
100
AcDbLine
 10
1714.896688390343
 20
192.9452205909619
 30
0.0
 11
1715.00335505701
 21
200.9452205909619
 31
0.0
  0
LINE
  5
95
330
1F
100
AcDbEntity
  8
1
  6
Continuous
 62
     7
100
AcDbLine
 10
1703.110021723677
 20
192.9452205909619
 30
0.0
 11
1703.18335505701
 21
187.4452205909619
 31
0.0
  0
LINE
  5
96
330
1F
100
AcDbEntity
  8
1
  6
Continuous
 62
     7
100
AcDbLine
 10
1706.00335505701
 20
183.4452205909619
 30
0.0
 11
1706.00335505701
 21
183.2952205909618
 31
0.0
  0
LINE
  5
97
330
1F
100
AcDbEntity
  8
1
  6
Continuous
 62
     7
100
AcDbLine
 10
1712.00335505701
 20
183.4452205909619
 30
0.0
 11
1712.00335505701
 21
183.2952205909618
 31
0.0
  0
LINE
  5
98
330
1F
100
AcDbEntity
  8
1
  6
Continuous
 62
     7
100
AcDbLine
 10
1711.23942303451
 20
296.0452205909618
 30
0.0
 11
1711.23942303451
 21
299.4452205909619
 31
0.0
  0
LINE
  5
99
330
1F
100
AcDbEntity
  8
1
  6
Continuous
 62
     7
100
AcDbLine
 10
1706.76728707951
 20
292.595220590962
 30
0.0
 11
1706.76728707951
 21
292.4452205909619
 31
0.0
  0
LINE
  5
9A
330
1F
100
AcDbEntity
  8
1
  6
Continuous
 62
     7
100
AcDbLine
 10
1712.00335505701
 20
179.845220590962
 30
0.0
 11
1712.00335505701
 21
176.9452205909619
 31
0.0
  0
LINE
  5
9B
330
1F
100
AcDbEntity
  8
1
  6
Continuous
 62
     7
100
AcDbLine
 10
1711.23942303451
 20
179.845220590962
 30
0.0
 11
1711.23942303451
 21
176.4452205909619
 31
0.0
  0
LINE
  5
9C
330
1F
100
AcDbEntity
  8
1
  6
Continuous
 62
     7
100
AcDbLine
 10
1706.76728707951
 20
183.2952205909618
 30
0.0
 11
1706.76728707951
 21
183.4452205909619
 31
0.0
  0
LINE
  5
9D
330
1F
100
AcDbEntity
  8
1
  6
Continuous
 62
     7
100
AcDbLine
 10
1706.00335505701
 20
179.845220590962
 30
0.0
 11
1706.00335505701
 21
176.9452205909619
 31
0.0
  0
LINE
  5
9E
330
1F
100
AcDbEntity
  8
1
  6
Continuous
 62
     7
100
AcDbLine
 10
1712.00335505701
 20
298.9452205909619
 30
0.0
 11
1711.23942303451
 21
298.9452205909619
 31
0.0
  0
LINE
  5
9F
330
1F
100
AcDbEntity
  8
1
  6
Continuous
 62
     7
100
AcDbLine
 10
1706.00335505701
 20
298.9452205909619
 30
0.0
 11
1706.76728707951
 21
298.9452205909619
 31
0.0
  0
LINE
  5
A0
330
1F
100
AcDbEntity
  8
1
  6
Continuous
 62
     7
100
AcDbLine
 10
1711.23942303451
 20
292.4452205909619
 30
0.0
 11
1711.23942303451
 21
292.595220590962
 31
0.0
  0
LINE
  5
A1
330
1F
100
AcDbEntity
  8
1
  6
Continuous
 62
     7
100
AcDbLine
 10
1706.76728707951
 20
292.4452205909619
 30
0.0
 11
1711.23942303451
 21
292.4452205909619
 31
0.0
  0
LINE
  5
A2
330
1F
100
AcDbEntity
  8
1
  6
Continuous
 62
     7
100
AcDbLine
 10
1706.76728707951
 20
299.4452205909619
 30
0.0
 11
1706.76728707951
 21
296.0452205909618
 31
0.0
  0
LINE
  5
A3
330
1F
100
AcDbEntity
  8
1
  6
Continuous
 62
     7
100
AcDbLine
 10
1712.00335505701
 20
176.9452205909619
 30
0.0
 11
1711.23942303451
 21
176.9452205909619
 31
0.0
  0
LINE
  5
A4
330
1F
100
AcDbEntity
  8
1
  6
Continuous
 62
     7
100
AcDbLine
 10
1706.00335505701
 20
176.9452205909619
 30
0.0
 11
1706.76728707951
 21
176.9452205909619
 31
0.0
  0
LINE
  5
A5
330
1F
100
AcDbEntity
  8
1
  6
Continuous
 62
     7
100
AcDbLine
 10
1711.23942303451
 20
183.4452205909619
 30
0.0
 11
1711.23942303451
 21
183.2952205909618
 31
0.0
  0
LINE
  5
A6
330
1F
100
AcDbEntity
  8
1
  6
Continuous
 62
     7
100
AcDbLine
 10
1706.76728707951
 20
176.4452205909619
 30
0.0
 11
1706.76728707951
 21
179.845220590962
 31
0.0
  0
LINE
  5
A7
330
1F
100
AcDbEntity
  8
1
  6
Continuous
 62
     7
100
AcDbLine
 10
1712.00335505701
 20
176.9452205909619
 30
0.0
 11
1711.50335505701
 21
176.4452205909619
 31
0.0
  0
LINE
  5
A8
330
1F
100
AcDbEntity
  8
1
  6
Continuous
 62
     7
100
AcDbLine
 10
1706.50335505701
 20
176.4452205909619
 30
0.0
 11
1706.00335505701
 21
176.9452205909619
 31
0.0
  0
LINE
  5
A9
330
1F
100
AcDbEntity
  8
1
  6
Continuous
 62
     7
100
AcDbLine
 10
1711.50335505701
 20
299.4452205909619
 30
0.0
 11
1712.00335505701
 21
298.9452205909619
 31
0.0
  0
LINE
  5
AA
330
1F
100
AcDbEntity
  8
1
  6
Continuous
 62
     7
100
AcDbLine
 10
1706.50335505701
 20
299.4452205909619
 30
0.0
 11
1706.00335505701
 21
298.9452205909619
 31
0.0
  0
LINE
  5
AB
330
1F
100
AcDbEntity
  8
1
  6
Continuous
 62
     7
100
AcDbLine
 10
1706.50335505701
 20
299.4452205909619
 30
0.0
 11
1711.50335505701
 21
299.4452205909619
 31
0.0
  0
LINE
  5
AC
330
1F
100
AcDbEntity
  8
1
  6
Continuous
 62
     7
100
AcDbLine
 10
1712.00335505701
 20
298.9452205909619
 30
0.0
 11
1712.00335505701
 21
296.0452205909618
 31
0.0
  0
LINE
  5
AD
330
1F
100
AcDbEntity
  8
1
  6
Continuous
 62
     7
100
AcDbLine
 10
1706.50335505701
 20
176.4452205909619
 30
0.0
 11
1711.50335505701
 21
176.4452205909619
 31
0.0
  0
LINE
  5
AE
330
1F
100
AcDbEntity
  8
1
  6
Continuous
 62
     7
100
AcDbLine
 10
1706.00335505701
 20
298.9452205909619
 30
0.0
 11
1706.00335505701
 21
296.0452205909618
 31
0.0
  0
LINE
  5
AF
330
1F
100
AcDbEntity
  8
1
  6
Continuous
 62
     7
100
AcDbLine
 10
1703.18335505701
 20
187.4452205909619
 30
0.0
 11
1714.82335505701
 21
187.4452205909619
 31
0.0
  0
LINE
  5
B0
330
1F
100
AcDbEntity
  8
1
  6
Continuous
 62
     7
100
AcDbLine
 10
1704.95335505701
 20
185.9452205909619
 30
0.0
 11
1713.05335505701
 21
185.9452205909619
 31
0.0
  0
LINE
  5
B1
330
1F
100
AcDbEntity
  8
1
  6
Continuous
 62
     7
100
AcDbLine
 10
1713.05335505701
 20
185.9452205909619
 30
0.0
 11
1713.05335505701
 21
183.4452205909619
 31
0.0
  0
LINE
  5
B2
330
1F
100
AcDbEntity
  8
1
  6
DASHED
 62
     4
100
AcDbLine
 10
1703.00335505701
 20
200.9452205909619
 30
0.0
 11
1703.00335505701
 21
237.9452205909619
 31
0.0
  0
LINE
  5
B3
330
1F
100
AcDbEntity
  8
1
  6
DASHED
 62
     4
100
AcDbLine
 10
1715.00335505701
 20
200.9452205909619
 30
0.0
 11
1715.00335505701
 21
237.9452205909619
 31
0.0
  0
LINE
  5
B4
330
1F
100
AcDbEntity
  8
1
  6
Continuous
 62
     7
100
AcDbLine
 10
1714.82335505701
 20
187.4452205909619
 30
0.0
 11
1714.896688390343
 21
192.9452205909619
 31
0.0
  0
LINE
  5
B5
330
1F
100
AcDbEntity
  8
1
  6
Continuous
 62
     7
100
AcDbLine
 10
1713.50335505701
 20
185.9452205909619
 30
0.0
 11
1714.30335505701
 21
185.9452205909619
 31
0.0
  0
LINE
  5
B6
330
1F
100
AcDbEntity
  8
1
  6
Continuous
 62
     7
100
AcDbLine
 10
1704.95335505701
 20
183.4452205909619
 30
0.0
 11
1704.95335505701
 21
185.9452205909619
 31
0.0
  0
LINE
  5
B7
330
1F
100
AcDbEntity
  8
1
  6
Continuous
 62
     7
100
AcDbLine
 10
1713.05335505701
 20
183.4452205909619
 30
0.0
 11
1704.95335505701
 21
183.4452205909619
 31
0.0
  0
LINE
  5
B8
330
1F
100
AcDbEntity
  8
1
  6
Continuous
 62
     7
100
AcDbLine
 10
1703.70335505701
 20
185.9452205909619
 30
0.0
 11
1704.50335505701
 21
185.9452205909619
 31
0.0
  0
LINE
  5
B9
330
1F
100
AcDbEntity
  8
1
  6
Continuous
 62
     7
100
AcDbLine
 10
1714.30335505701
 20
185.9452205909619
 30
0.0
 11
1714.82335505701
 21
187.4452205909619
 31
0.0
  0
LINE
  5
BA
330
1F
100
AcDbEntity
  8
1
  6
Continuous
 62
     7
100
AcDbLine
 10
1713.05335505701
 20
185.9452205909619
 30
0.0
 11
1713.50335505701
 21
185.9452205909619
 31
0.0
  0
LINE
  5
BB
330
1F
100
AcDbEntity
  8
1
  6
DASHED
 62
     4
100
AcDbLine
 10
1703.00335505701
 20
200.9452205909619
 30
0.0
 11
1703.110021723677
 21
192.9452205909619
 31
0.0
  0
LINE
  5
BC
330
1F
100
AcDbEntity
  8
1
  6
Continuous
 62
     7
100
AcDbLine
 10
1703.70335505701
 20
185.9452205909619
 30
0.0
 11
1703.18335505701
 21
187.4452205909619
 31
0.0
  0
LINE
  5
BD
330
1F
100
AcDbEntity
  8
1
  6
Continuous
 62
     7
100
AcDbLine
 10
1704.95335505701
 20
185.9452205909619
 30
0.0
 11
1704.50335505701
 21
185.9452205909619
 31
0.0
  0
LINE
  5
BE
330
1F
100
AcDbEntity
  8
1
  6
Continuous
 62
     7
100
AcDbLine
 10
1704.50335505701
 20
289.9452205909619
 30
0.0
 11
1704.95335505701
 21
289.9452205909619
 31
0.0
  0
LINE
  5
BF
330
1F
100
AcDbEntity
  8
1
  6
Continuous
 62
     7
100
AcDbLine
 10
1703.18335505701
 20
288.4452205909619
 30
0.0
 11
1703.70335505701
 21
289.9452205909619
 31
0.0
  0
LINE
  5
C0
330
1F
100
AcDbEntity
  8
1
  6
Continuous
 62
     7
100
AcDbLine
 10
1703.18335505701
 20
288.4452205909619
 30
0.0
 11
1703.110021723677
 21
282.9452205909619
 31
0.0
  0
LINE
  5
C1
330
1F
100
AcDbEntity
  8
1
  6
Continuous
 62
     7
100
AcDbLine
 10
1713.50335505701
 20
289.9452205909619
 30
0.0
 11
1713.05335505701
 21
289.9452205909619
 31
0.0
  0
LINE
  5
C2
330
1F
100
AcDbEntity
  8
1
  6
Continuous
 62
     7
100
AcDbLine
 10
1714.82335505701
 20
288.4452205909619
 30
0.0
 11
1714.30335505701
 21
289.9452205909619
 31
0.0
  0
LINE
  5
C3
330
1F
100
AcDbEntity
  8
1
  6
Continuous
 62
     7
100
AcDbLine
 10
1704.50335505701
 20
289.9452205909619
 30
0.0
 11
1703.70335505701
 21
289.9452205909619
 31
0.0
  0
LINE
  5
C4
330
1F
100
AcDbEntity
  8
1
  6
Continuous
 62
     7
100
AcDbLine
 10
1713.05335505701
 20
292.4452205909619
 30
0.0
 11
1713.05335505701
 21
289.9452205909619
 31
0.0
  0
LINE
  5
C5
330
1F
100
AcDbEntity
  8
1
  6
Continuous
 62
     7
100
AcDbLine
 10
1704.95335505701
 20
292.4452205909619
 30
0.0
 11
1713.05335505701
 21
292.4452205909619
 31
0.0
  0
LINE
  5
C6
330
1F
100
AcDbEntity
  8
1
  6
Continuous
 62
     7
100
AcDbLine
 10
1714.30335505701
 20
289.9452205909619
 30
0.0
 11
1713.50335505701
 21
289.9452205909619
 31
0.0
  0
LINE
  5
C7
330
1F
100
AcDbEntity
  8
1
  6
DASHED
 62
     4
100
AcDbLine
 10
1715.00335505701
 20
274.9452205909619
 30
0.0
 11
1714.896688390343
 21
282.9452205909619
 31
0.0
  0
LINE
  5
C8
330
1F
100
AcDbEntity
  8
1
  6
DASHED
 62
     4
100
AcDbLine
 10
1715.00335505701
 20
237.9452205909619
 30
0.0
 11
1715.00335505701
 21
268.9452205909619
 31
0.0
  0
LINE
  5
C9
330
1F
100
AcDbEntity
  8
1
  6
DASHED
 62
     4
100
AcDbLine
 10
1703.00335505701
 20
237.9452205909619
 30
0.0
 11
1703.00335505701
 21
268.9452205909619
 31
0.0
  0
LINE
  5
CA
330
1F
100
AcDbEntity
  8
1
  6
DASH_CENTER
 62
     3
100
AcDbLine
 10
1700.00335505701
 20
79.4270630762729
 30
0.0
 11
1718.00335505701
 21
79.4270630762729
 31
0.0
  0
LINE
  5
CB
330
1F
100
AcDbEntity
  8
1
  6
DASH_CENTER
 62
     3
100
AcDbLine
 10
1709.00335505701
 20
88.4270630762729
 30
0.0
 11
1709.00335505701
 21
85.4270630762729
 31
0.0
  0
LINE
  5
CC
330
1F
100
AcDbEntity
  8
1
  6
DASH_CENTER
 62
     3
100
AcDbLine
 10
1709.00335505701
 20
85.4270630762729
 30
0.0
 11
1709.00335505701
 21
70.42706307627302
 31
0.0
  0
LINE
  5
CD
330
1F
100
AcDbEntity
  8
1
  6
Continuous
 62
     3
100
AcDbLine
 10
1715.803355057019
 20
192.9452205909619
 30
0.0
 11
1715.803355057019
 21
282.9452205909619
 31
0.0
  0
LINE
  5
CE
330
1F
100
AcDbEntity
  8
1
  6
Continuous
 62
     3
100
AcDbLine
 10
1595.20335505701
 20
192.9452205909619
 30
0.0
 11
1715.803355057019
 21
192.9452205909619
 31
0.0
  0
LINE
  5
CF
330
1F
100
AcDbEntity
  8
1
  6
Continuous
 62
     3
100
AcDbLine
 10
1595.20335505701
 20
282.9452205909619
 30
0.0
 11
1595.20335505701
 21
192.9452205909619
 31
0.0
  0
LINE
  5
D0
330
1F
100
AcDbEntity
  8
1
  6
Continuous
 62
     3
100
AcDbLine
 10
1715.803355057019
 20
282.9452205909619
 30
0.0
 11
1595.20335505701
 21
282.9452205909619
 31
0.0
  0
LINE
  5
D1
330
1F
100
AcDbEntity
  8
1
  6
DASHED
 62
     4
100
AcDbLine
 10
1612.303355057019
 20
288.4452205909619
 30
0.0
 11
1613.99479991384
 21
288.4452205909619
 31
0.0
  0
LINE
  5
D2
330
1F
100
AcDbEntity
  8
1
  6
Continuous
 62
     7
100
AcDbLine
 10
1513.819955435887
 20
79.4270630762729
 30
0.0
 11
1513.819955435887
 21
73.4270630762729
 31
0.0
  0
LINE
  5
D3
330
1F
100
AcDbEntity
  8
1
  6
Continuous
 62
     7
100
AcDbLine
 10
1612.303355057019
 20
185.4452205909619
 30
0.0
 11
1596.503355057019
 21
185.4452205909619
 31
0.0
  0
LINE
  5
D4
330
1F
100
AcDbEntity
  8
1
  6
PHANTOM
 62
     4
100
AcDbLine
 10
1612.303355057019
 20
187.4452205909619
 30
0.0
 11
1597.303355057019
 21
187.4452205909619
 31
0.0
  0
LINE
  5
D5
330
1F
100
AcDbEntity
  8
1
  6
Continuous
 62
     7
100
AcDbLine
 10
1597.003355057019
 20
187.4452205909619
 30
0.0
 11
1612.303355057019
 21
187.4452205909619
 31
0.0
  0
LINE
  5
D6
330
1F
100
AcDbEntity
  8
1
  6
Continuous
 62
     7
100
AcDbLine
 10
1612.303355057019
 20
288.4452205909619
 30
0.0
 11
1597.003355057019
 21
288.4452205909619
 31
0.0
  0
LINE
  5
D7
330
1F
100
AcDbEntity
  8
1
  6
DASHED
 62
     4
100
AcDbLine
 10
1612.303355057019
 20
290.4452205909619
 30
0.0
 11
1613.503355057019
 21
290.4452205909619
 31
0.0
  0
LINE
  5
D8
330
1F
100
AcDbEntity
  8
1
  6
PHANTOM
 62
     4
100
AcDbLine
 10
1596.703355057019
 20
288.4452205909619
 30
0.0
 11
1597.003355057019
 21
288.4452205909619
 31
0.0
  0
LINE
  5
D9
330
1F
100
AcDbEntity
  8
1
  6
Continuous
 62
     7
100
AcDbLine
 10
1597.003355057019
 20
288.4452205909619
 30
0.0
 11
1596.703355057019
 21
288.4452205909619
 31
0.0
  0
LINE
  5
DA
330
1F
100
AcDbEntity
  8
1
  6
Continuous
 62
     7
100
AcDbLine
 10
1602.003355057019
 20
185.4452205909619
 30
0.0
 11
1602.003355057019
 21
183.2952205909618
 31
0.0
  0
LINE
  5
DB
330
1F
100
AcDbEntity
  8
1
  6
PHANTOM
 62
     4
100
AcDbLine
 10
1596.503355057019
 20
288.4452205909619
 30
0.0
 11
1596.703355057019
 21
288.4452205909619
 31
0.0
  0
LINE
  5
DC
330
1F
100
AcDbEntity
  8
1
  6
DASHED
 62
     4
100
AcDbLine
 10
1596.303355057019
 20
212.9452205909619
 30
0.0
 11
1596.303355057019
 21
262.9452205909619
 31
0.0
  0
LINE
  5
DD
330
1F
100
AcDbEntity
  8
1
  6
DASH_CENTER
 62
     3
100
AcDbLine
 10
1592.043067863315
 20
237.9452205909619
 30
0.0
 11
1718.634988545205
 21
237.9452205909619
 31
0.0
  0
LINE
  5
DE
330
1F
100
AcDbEntity
  8
1
  6
PHANTOM
 62
     4
100
AcDbLine
 10
1596.703355057019
 20
288.4452205909619
 30
0.0
 11
1597.003355057019
 21
288.4452205909619
 31
0.0
  0
LINE
  5
DF
330
1F
100
AcDbEntity
  8
1
  6
Continuous
 62
     7
100
AcDbLine
 10
1596.703355057019
 20
288.4452205909619
 30
0.0
 11
1596.503355057019
 21
288.4452205909619
 31
0.0
  0
LINE
  5
E0
330
1F
100
AcDbEntity
  8
1
  6
Continuous
 62
     7
100
AcDbLine
 10
1596.503355057019
 20
288.4452205909619
 30
0.0
 11
1596.503355057019
 21
284.9452205909619
 31
0.0
  0
LINE
  5
E1
330
1F
100
AcDbEntity
  8
1
  6
DASHED
 62
     4
100
AcDbLine
 10
1613.503355057019
 20
284.9452205909619
 30
0.0
 11
1613.503355057019
 21
288.4452205909619
 31
0.0
  0
LINE
  5
E2
330
1F
100
AcDbEntity
  8
1
  6
Continuous
 62
     7
100
AcDbLine
 10
1597.003355057019
 20
187.4452205909619
 30
0.0
 11
1596.703355057019
 21
187.4452205909619
 31
0.0
  0
LINE
  5
E3
330
1F
100
AcDbEntity
  8
1
  6
DASHED
 62
     4
100
AcDbLine
 10
1614.003355057019
 20
187.4452205909619
 30
0.0
 11
1612.303355057019
 21
187.4452205909619
 31
0.0
  0
LINE
  5
E4
330
1F
100
AcDbEntity
  8
1
  6
Continuous
 62
     7
100
AcDbLine
 10
1596.703355057019
 20
187.4452205909619
 30
0.0
 11
1596.503355057019
 21
187.4452205909619
 31
0.0
  0
LINE
  5
E5
330
1F
100
AcDbEntity
  8
1
  6
DASHED
 62
     4
100
AcDbLine
 10
1613.503355057019
 20
187.4452205909619
 30
0.0
 11
1613.503355057019
 21
190.9452205909619
 31
0.0
  0
LINE
  5
E6
330
1F
100
AcDbEntity
  8
1
  6
Continuous
 62
     7
100
AcDbLine
 10
1596.503355057019
 20
187.4452205909619
 30
0.0
 11
1596.503355057019
 21
190.9452205909619
 31
0.0
  0
LINE
  5
E7
330
1F
100
AcDbEntity
  8
1
  6
DASHED
 62
     4
100
AcDbLine
 10
1613.703355057019
 20
212.9452205909619
 30
0.0
 11
1613.703355057019
 21
262.9452205909619
 31
0.0
  0
LINE
  5
E8
330
1F
100
AcDbEntity
  8
1
  6
DASHED
 62
     4
100
AcDbLine
 10
1596.303355057019
 20
262.9452205909619
 30
0.0
 11
1596.485173238837
 21
282.9452205909619
 31
0.0
  0
LINE
  5
E9
330
1F
100
AcDbEntity
  8
1
  6
DASHED
 62
     4
100
AcDbLine
 10
1613.703355057019
 20
262.9452205909619
 30
0.0
 11
1613.521536875201
 21
282.9452205909619
 31
0.0
  0
LINE
  5
EA
330
1F
100
AcDbEntity
  8
1
  6
DASHED
 62
     4
100
AcDbLine
 10
1596.303355057019
 20
212.9452205909619
 30
0.0
 11
1596.485173238837
 21
192.9452205909619
 31
0.0
  0
LINE
  5
EB
330
1F
100
AcDbEntity
  8
1
  6
DASHED
 62
     4
100
AcDbLine
 10
1613.503355057019
 20
190.9452205909619
 30
0.0
 11
1613.521536875201
 21
192.9452205909619
 31
0.0
  0
LINE
  5
EC
330
1F
100
AcDbEntity
  8
1
  6
Continuous
 62
     7
100
AcDbLine
 10
1611.503355057019
 20
187.4452205909619
 30
0.0
 11
1598.503355057019
 21
187.4452205909619
 31
0.0
  0
LINE
  5
ED
330
1F
100
AcDbEntity
  8
1
  6
DASHED
 62
     4
100
AcDbLine
 10
1613.503355057019
 20
185.4452205909619
 30
0.0
 11
1612.303355057019
 21
185.4452205909619
 31
0.0
  0
LINE
  5
EE
330
1F
100
AcDbEntity
  8
1
  6
Continuous
 62
     7
100
AcDbLine
 10
1597.003355057019
 20
187.4452205909619
 30
0.0
 11
1596.003355057019
 21
187.4452205909619
 31
0.0
  0
LINE
  5
EF
330
1F
100
AcDbEntity
  8
1
  6
DASHED
 62
     4
100
AcDbLine
 10
1614.003355057019
 20
186.4452205909619
 30
0.0
 11
1614.003355057019
 21
187.4452205909619
 31
0.0
  0
LINE
  5
F0
330
1F
100
AcDbEntity
  8
1
  6
Continuous
 62
     7
100
AcDbLine
 10
1596.003355057019
 20
186.4452205909619
 30
0.0
 11
1596.003355057019
 21
187.4452205909619
 31
0.0
  0
LINE
  5
F1
330
1F
100
AcDbEntity
  8
1
  6
Continuous
 62
     7
100
AcDbLine
 10
1596.003355057019
 20
186.4452205909619
 30
0.0
 11
1596.503355057019
 21
185.4452205909619
 31
0.0
  0
LINE
  5
F2
330
1F
100
AcDbEntity
  8
1
  6
DASHED
 62
     4
100
AcDbLine
 10
1614.003355057019
 20
186.4452205909619
 30
0.0
 11
1613.503355057019
 21
185.4452205909619
 31
0.0
  0
LINE
  5
F3
330
1F
100
AcDbEntity
  8
1
  6
DASHED
 62
     4
100
AcDbLine
 10
1613.503355057019
 20
290.4452205909619
 30
0.0
 11
1614.003355057019
 21
289.4452205909619
 31
0.0
  0
LINE
  5
F4
330
1F
100
AcDbEntity
  8
1
  6
Continuous
 62
     7
100
AcDbLine
 10
1596.503355057019
 20
290.4452205909619
 30
0.0
 11
1596.003355057019
 21
289.4452205909619
 31
0.0
  0
LINE
  5
F5
330
1F
100
AcDbEntity
  8
1
  6
Continuous
 62
     7
100
AcDbLine
 10
1596.003355057019
 20
288.4452205909619
 30
0.0
 11
1596.003355057019
 21
289.4452205909619
 31
0.0
  0
LINE
  5
F6
330
1F
100
AcDbEntity
  8
1
  6
DASHED
 62
     4
100
AcDbLine
 10
1614.003355057019
 20
288.4452205909619
 30
0.0
 11
1614.003355057019
 21
289.4452205909619
 31
0.0
  0
LINE
  5
F7
330
1F
100
AcDbEntity
  8
1
  6
Continuous
 62
     7
100
AcDbLine
 10
1596.003355057019
 20
288.4452205909619
 30
0.0
 11
1596.503355057019
 21
288.4452205909619
 31
0.0
  0
LINE
  5
F8
330
1F
100
AcDbEntity
  8
1
  6
Continuous
 62
     7
100
AcDbLine
 10
1596.503355057019
 20
290.4452205909619
 30
0.0
 11
1612.303355057019
 21
290.4452205909619
 31
0.0
  0
LINE
  5
F9
330
1F
100
AcDbEntity
  8
1
  6
DASH_CENTER
 62
     3
100
AcDbLine
 10
1605.003355057019
 20
282.0357255298608
 30
0.0
 11
1605.003355057019
 21
296.4507901092268
 31
0.0
  0
LINE
  5
FA
330
1F
100
AcDbEntity
  8
1
  6
DASH_CENTER
 62
     3
100
AcDbLine
 10
1605.00335505701
 20
86.0270630762729
 30
0.0
 11
1605.00335505701
 21
85.4270630762729
 31
0.0
  0
LINE
  5
FB
330
1F
100
AcDbEntity
  8
1
  6
DASH_CENTER
 62
     3
100
AcDbLine
 10
1605.00335505701
 20
86.0270630762729
 30
0.0
 11
1605.00335505701
 21
85.4270630762729
 31
0.0
  0
LINE
  5
FC
330
1F
100
AcDbEntity
  8
1
  6
DASH_CENTER
 62
     3
100
AcDbLine
 10
1614.00335505701
 20
76.4270630762729
 30
0.0
 11
1620.00335505701
 21
76.4270630762729
 31
0.0
  0
LINE
  5
FD
330
1F
100
AcDbEntity
  8
1
  6
DASH_CENTER
 62
     3
100
AcDbLine
 10
1590.00335505701
 20
76.4270630762729
 30
0.0
 11
1614.00335505701
 21
76.4270630762729
 31
0.0
  0
LINE
  5
FE
330
1F
100
AcDbEntity
  8
1
  6
DASH_CENTER
 62
     3
100
AcDbLine
 10
1605.00335505701
 20
86.4270630762729
 30
0.0
 11
1605.00335505701
 21
86.0270630762729
 31
0.0
  0
LINE
  5
FF
330
1F
100
AcDbEntity
  8
1
  6
DASH_CENTER
 62
     3
100
AcDbLine
 10
1605.00335505701
 20
88.4270630762729
 30
0.0
 11
1605.00335505701
 21
64.42706307627302
 31
0.0
  0
LINE
  5
100
330
1F
100
AcDbEntity
  8
1
  6
Continuous
 62
     7
100
AcDbLine
 10
1406.819955435887
 20
79.4270630762729
 30
0.0
 11
1406.669955435887
 21
79.4270630762729
 31
0.0
  0
LINE
  5
101
330
1F
100
AcDbEntity
  8
1
  6
Continuous
 62
     7
100
AcDbLine
 10
1406.819955435887
 20
73.4270630762729
 30
0.0
 11
1406.669955435887
 21
73.4270630762729
 31
0.0
  0
LINE
  5
102
330
1F
100
AcDbEntity
  8
1
  6
Continuous
 62
     7
100
AcDbLine
 10
1410.819955435887
 20
85.42706307627321
 30
0.0
 11
1503.819955435887
 21
85.42706307627321
 31
0.0
  0
LINE
  5
103
330
1F
100
AcDbEntity
  8
1
  6
Continuous
 62
     7
100
AcDbLine
 10
1406.819955435887
 20
73.4270630762729
 30
0.0
 11
1408.819955435887
 21
73.4270630762729
 31
0.0
  0
LINE
  5
104
330
1F
100
AcDbEntity
  8
1
  6
Continuous
 62
     7
100
AcDbLine
 10
1408.819955435887
 20
79.4270630762729
 30
0.0
 11
1408.819955435887
 21
84.92706307627321
 31
0.0
  0
LINE
  5
105
330
1F
100
AcDbEntity
  8
1
  6
Continuous
 62
     7
100
AcDbLine
 10
1409.819955435887
 20
67.42706307627302
 30
0.0
 11
1410.819955435887
 21
67.42706307627321
 31
0.0
  0
LINE
  5
106
330
1F
100
AcDbEntity
  8
1
  6
Continuous
 62
     7
100
AcDbLine
 10
1409.819955435887
 20
85.42706307627321
 30
0.0
 11
1410.819955435887
 21
85.42706307627321
 31
0.0
  0
LINE
  5
107
330
1F
100
AcDbEntity
  8
1
  6
Continuous
 62
     7
100
AcDbLine
 10
1409.819955435887
 20
85.42706307627321
 30
0.0
 11
1408.819955435887
 21
84.92706307627321
 31
0.0
  0
LINE
  5
108
330
1F
100
AcDbEntity
  8
1
  6
Continuous
 62
     7
100
AcDbLine
 10
1409.819955435887
 20
67.42706307627302
 30
0.0
 11
1408.819955435887
 21
67.92706307627302
 31
0.0
  0
LINE
  5
109
330
1F
100
AcDbEntity
  8
1
  6
Continuous
 62
     7
100
AcDbLine
 10
1406.819955435887
 20
73.4270630762729
 30
0.0
 11
1406.819955435887
 21
79.4270630762729
 31
0.0
  0
LINE
  5
10A
330
1F
100
AcDbEntity
  8
1
  6
Continuous
 62
     7
100
AcDbLine
 10
1408.819955435887
 20
67.92706307627302
 30
0.0
 11
1408.819955435887
 21
73.4270630762729
 31
0.0
  0
LINE
  5
10B
330
1F
100
AcDbEntity
  8
1
  6
Continuous
 62
     7
100
AcDbLine
 10
1513.819955435887
 20
73.4270630762729
 30
0.0
 11
1513.819955435887
 21
67.92706307627302
 31
0.0
  0
LINE
  5
10C
330
1F
100
AcDbEntity
  8
1
  6
DASH_CENTER
 62
     3
100
AcDbLine
 10
1401.986209006641
 20
76.4270630762729
 30
0.0
 11
1519.825524954152
 21
76.4270630762729
 31
0.0
  0
LINE
  5
10D
330
1F
100
AcDbEntity
  8
1
  6
Continuous
 62
     7
100
AcDbLine
 10
1511.819955435887
 20
67.42706307627302
 30
0.0
 11
1503.819955435887
 21
67.42706307627302
 31
0.0
  0
LINE
  5
10E
330
1F
100
AcDbEntity
  8
1
  6
Continuous
 62
     7
100
AcDbLine
 10
1515.819955435887
 20
79.4270630762729
 30
0.0
 11
1515.819955435887
 21
73.4270630762729
 31
0.0
  0
LINE
  5
10F
330
1F
100
AcDbEntity
  8
1
  6
Continuous
 62
     7
100
AcDbLine
 10
1513.819955435887
 20
67.92706307627302
 30
0.0
 11
1512.819955435887
 21
67.42706307627302
 31
0.0
  0
LINE
  5
110
330
1F
100
AcDbEntity
  8
1
  6
Continuous
 62
     7
100
AcDbLine
 10
1513.819955435887
 20
84.92706307627321
 30
0.0
 11
1512.819955435887
 21
85.42706307627321
 31
0.0
  0
LINE
  5
111
330
1F
100
AcDbEntity
  8
1
  6
Continuous
 62
     7
100
AcDbLine
 10
1511.819955435887
 20
85.42706307627321
 30
0.0
 11
1512.819955435887
 21
85.42706307627321
 31
0.0
  0
LINE
  5
112
330
1F
100
AcDbEntity
  8
1
  6
Continuous
 62
     7
100
AcDbLine
 10
1511.819955435887
 20
67.42706307627302
 30
0.0
 11
1512.819955435887
 21
67.42706307627302
 31
0.0
  0
LINE
  5
113
330
1F
100
AcDbEntity
  8
1
  6
Continuous
 62
     7
100
AcDbLine
 10
1515.819955435887
 20
79.4270630762729
 30
0.0
 11
1513.819955435887
 21
79.4270630762729
 31
0.0
  0
LINE
  5
114
330
1F
100
AcDbEntity
  8
1
  6
Continuous
 62
     7
100
AcDbLine
 10
1513.819955435887
 20
84.92706307627321
 30
0.0
 11
1513.819955435887
 21
79.4270630762729
 31
0.0
  0
LINE
  5
115
330
1F
100
AcDbEntity
  8
1
  6
Continuous
 62
     7
100
AcDbLine
 10
1515.819955435887
 20
73.4270630762729
 30
0.0
 11
1515.969955435887
 21
73.4270630762729
 31
0.0
  0
LINE
  5
116
330
1F
100
AcDbEntity
  8
1
  6
Continuous
 62
     7
100
AcDbLine
 10
1515.819955435887
 20
79.4270630762729
 30
0.0
 11
1515.969955435887
 21
79.4270630762729
 31
0.0
  0
LINE
  5
117
330
1F
100
AcDbEntity
  8
1
  6
Continuous
 62
     7
100
AcDbLine
 10
1503.819955435887
 20
67.42706307627302
 30
0.0
 11
1410.819955435887
 21
67.42706307627321
 31
0.0
  0
LINE
  5
118
330
1F
100
AcDbEntity
  8
1
  6
Continuous
 62
     7
100
AcDbLine
 10
1503.819955435887
 20
85.42706307627321
 30
0.0
 11
1511.819955435887
 21
85.42706307627321
 31
0.0
  0
LINE
  5
119
330
1F
100
AcDbEntity
  8
1
  6
Continuous
 62
     7
100
AcDbLine
 10
1512.819955435887
 20
67.42706307627302
 30
0.0
 11
1512.819955435887
 21
85.42706307627321
 31
0.0
  0
LINE
  5
11A
330
1F
100
AcDbEntity
  8
1
  6
Continuous
 62
     7
100
AcDbLine
 10
1513.819955435887
 20
73.4270630762729
 30
0.0
 11
1515.819955435887
 21
73.4270630762729
 31
0.0
  0
LINE
  5
11B
330
1F
100
AcDbEntity
  8
1
  6
Continuous
 62
     7
100
AcDbLine
 10
1409.819955435887
 20
67.42706307627302
 30
0.0
 11
1409.819955435887
 21
85.42706307627321
 31
0.0
  0
LINE
  5
11C
330
1F
100
AcDbEntity
  8
1
  6
Continuous
 62
     7
100
AcDbLine
 10
1408.819955435887
 20
79.4270630762729
 30
0.0
 11
1408.819955435887
 21
73.4270630762729
 31
0.0
  0
LINE
  5
11D
330
1F
100
AcDbEntity
  8
1
  6
Continuous
 62
     7
100
AcDbLine
 10
1408.819955435887
 20
79.4270630762729
 30
0.0
 11
1406.819955435887
 21
79.4270630762729
 31
0.0
  0
LINE
  5
11E
330
1F
100
AcDbEntity
  8
1
  6
DASHED
 62
     4
100
AcDbLine
 10
1613.521536875201
 20
282.9452205909619
 30
0.0
 11
1613.503355057019
 21
284.9452205909619
 31
0.0
  0
LINE
  5
11F
330
1F
100
AcDbEntity
  8
1
  6
Continuous
 62
     7
100
AcDbLine
 10
1596.485173238837
 20
282.9452205909619
 30
0.0
 11
1596.503355057019
 21
284.9452205909619
 31
0.0
  0
LINE
  5
120
330
1F
100
AcDbEntity
  8
1
  6
DASHED
 62
     4
100
AcDbLine
 10
1613.521536875201
 20
192.9452205909619
 30
0.0
 11
1613.703355057019
 21
212.9452205909619
 31
0.0
  0
LINE
  5
121
330
1F
100
AcDbEntity
  8
1
  6
Continuous
 62
     7
100
AcDbLine
 10
1596.485173238837
 20
192.9452205909619
 30
0.0
 11
1596.503355057019
 21
190.9452205909619
 31
0.0
  0
LINE
  5
122
330
1F
100
AcDbEntity
  8
1
  6
Continuous
 62
     7
100
AcDbLine
 10
1596.003355057019
 20
187.4452205909619
 30
0.0
 11
1612.303355057019
 21
187.4452205909619
 31
0.0
  0
LINE
  5
123
330
1F
100
AcDbEntity
  8
1
  6
Continuous
 62
     7
100
AcDbLine
 10
1608.003355057019
 20
183.2952205909618
 30
0.0
 11
1608.003355057019
 21
185.4452205909619
 31
0.0
  0
LINE
  5
124
330
1F
100
AcDbEntity
  8
1
  6
Continuous
 62
     7
100
AcDbLine
 10
1602.003355057019
 20
292.595220590962
 30
0.0
 11
1602.003355057019
 21
290.4452205909619
 31
0.0
  0
LINE
  5
125
330
1F
100
AcDbEntity
  8
1
  6
Continuous
 62
     7
100
AcDbLine
 10
1608.003355057019
 20
290.4452205909619
 30
0.0
 11
1608.003355057019
 21
292.595220590962
 31
0.0
  0
LINE
  5
126
330
1F
100
AcDbEntity
  8
1
  6
Continuous
 62
     7
100
AcDbLine
 10
1703.20335505701
 20
181.2366724752894
 30
0.0
 11
1705.69074766584
 21
181.2366724752894
 31
0.0
  0
LINE
  5
127
330
1F
100
AcDbEntity
  8
1
  6
Continuous
 62
     7
100
AcDbLine
 10
1703.20335505701
 20
173.1537687066349
 30
0.0
 11
1703.20335505701
 21
181.2366724752894
 31
0.0
  0
LINE
  5
128
330
1F
100
AcDbEntity
  8
1
  6
Continuous
 62
     7
100
AcDbLine
 10
1705.69074766584
 20
173.1537687066349
 30
0.0
 11
1703.20335505701
 21
173.1537687066349
 31
0.0
  0
LINE
  5
129
330
1F
100
AcDbEntity
  8
1
  6
Continuous
 62
     7
100
AcDbLine
 10
1690.00335505701
 20
179.1952205909619
 30
0.0
 11
1690.803355057019
 21
179.1952205909619
 31
0.0
  0
LINE
  5
12A
330
1F
100
AcDbEntity
  8
1
  6
Continuous
 62
     7
100
AcDbLine
 10
1689.20335505701
 20
178.395220590962
 30
0.0
 11
1690.00335505701
 21
179.1952205909619
 31
0.0
  0
LINE
  5
12B
330
1F
100
AcDbEntity
  8
1
  6
Continuous
 62
     7
100
AcDbLine
 10
1689.20335505701
 20
175.9952205909623
 30
0.0
 11
1689.20335505701
 21
178.395220590962
 31
0.0
  0
LINE
  5
12C
330
1F
100
AcDbEntity
  8
1
  6
Continuous
 62
     7
100
AcDbLine
 10
1690.00335505701
 20
175.1952205909619
 30
0.0
 11
1689.20335505701
 21
175.9952205909623
 31
0.0
  0
LINE
  5
12D
330
1F
100
AcDbEntity
  8
1
  6
Continuous
 62
     7
100
AcDbLine
 10
1703.20335505701
 20
175.1952205909619
 30
0.0
 11
1695.603355057019
 21
175.1952205909619
 31
0.0
  0
LINE
  5
12E
330
1F
100
AcDbEntity
  8
1
  6
Continuous
 62
     7
100
AcDbLine
 10
1706.00335505701
 20
180.2263095042076
 30
0.0
 11
1706.00335505701
 21
174.1641316777166
 31
0.0
  0
LINE
  5
12F
330
1F
100
AcDbEntity
  8
1
  6
DASH_CENTER
 62
     3
100
AcDbLine
 10
1706.00335505701
 20
177.1952205909619
 30
0.0
 11
1689.20335505701
 21
177.1952205909619
 31
0.0
  0
LINE
  5
130
330
1F
100
AcDbEntity
  8
1
  6
Continuous
 62
     7
100
AcDbLine
 10
1690.803355057019
 20
175.1952205909619
 30
0.0
 11
1690.00335505701
 21
175.1952205909619
 31
0.0
  0
LINE
  5
131
330
1F
100
AcDbEntity
  8
1
  6
Continuous
 62
     7
100
AcDbLine
 10
1695.290747665849
 20
173.1537687066345
 30
0.0
 11
1692.403355057019
 21
173.1537687066345
 31
0.0
  0
LINE
  5
132
330
1F
100
AcDbEntity
  8
1
  6
Continuous
 62
     7
100
AcDbLine
 10
1692.403355057019
 20
173.1537687066345
 30
0.0
 11
1692.403355057019
 21
181.2366724752894
 31
0.0
  0
LINE
  5
133
330
1F
100
AcDbEntity
  8
1
  6
Continuous
 62
     7
100
AcDbLine
 10
1692.403355057019
 20
181.2366724752894
 30
0.0
 11
1695.290747665849
 21
181.2366724752894
 31
0.0
  0
LINE
  5
134
330
1F
100
AcDbEntity
  8
1
  6
Continuous
 62
     7
100
AcDbLine
 10
1695.603355057019
 20
180.2263095042073
 30
0.0
 11
1695.603355057019
 21
174.1641316777166
 31
0.0
  0
LINE
  5
135
330
1F
100
AcDbEntity
  8
1
  6
Continuous
 62
     7
100
AcDbLine
 10
1695.603355057019
 20
179.1952205909619
 30
0.0
 11
1703.20335505701
 21
179.1952205909619
 31
0.0
  0
LINE
  5
136
330
1F
100
AcDbEntity
  8
1
  6
Continuous
 62
     3
100
AcDbLine
 10
1702.546907800941
 20
297.0742205909618
 30
0.0
 11
1695.603355057019
 21
297.0742205909618
 31
0.0
  0
LINE
  5
137
330
1F
100
AcDbEntity
  8
1
  6
Continuous
 62
     7
100
AcDbLine
 10
1703.20335505701
 20
296.6952205909619
 30
0.0
 11
1695.603355057019
 21
296.6952205909619
 31
0.0
  0
LINE
  5
138
330
1F
100
AcDbEntity
  8
1
  6
DASH_CENTER
 62
     3
100
AcDbLine
 10
1695.603355057019
 20
298.6952205909619
 30
0.0
 11
1692.403355057019
 21
298.6952205909619
 31
0.0
  0
LINE
  5
139
330
1F
100
AcDbEntity
  8
1
  6
Continuous
 62
     7
100
AcDbLine
 10
1695.603355057019
 20
301.7263095042076
 30
0.0
 11
1695.603355057019
 21
295.6641316777166
 31
0.0
  0
LINE
  5
13A
330
1F
100
AcDbEntity
  8
1
  6
Continuous
 62
     7
100
AcDbLine
 10
1695.290747665849
 20
296.6744946487984
 30
0.0
 11
1692.403355057019
 21
296.6744946487984
 31
0.0
  0
LINE
  5
13B
330
1F
100
AcDbEntity
  8
1
  6
Continuous
 62
     7
100
AcDbLine
 10
1695.290747665849
 20
300.7159465331258
 30
0.0
 11
1692.403355057019
 21
300.7159465331258
 31
0.0
  0
LINE
  5
13C
330
1F
100
AcDbEntity
  8
1
  6
Continuous
 62
     7
100
AcDbLine
 10
1695.290747665849
 20
294.6537687066345
 30
0.0
 11
1692.403355057019
 21
294.6537687066345
 31
0.0
  0
LINE
  5
13D
330
1F
100
AcDbEntity
  8
1
  6
Continuous
 62
     7
100
AcDbLine
 10
1692.403355057019
 20
294.6537687066345
 30
0.0
 11
1692.403355057019
 21
302.7366724752894
 31
0.0
  0
LINE
  5
13E
330
1F
100
AcDbEntity
  8
1
  6
Continuous
 62
     7
100
AcDbLine
 10
1692.403355057019
 20
302.7366724752894
 30
0.0
 11
1695.290747665849
 21
302.7366724752894
 31
0.0
  0
LINE
  5
13F
330
1F
100
AcDbEntity
  8
1
  6
Continuous
 62
     7
100
AcDbLine
 10
1690.00335505701
 20
300.6952205909619
 30
0.0
 11
1690.803355057019
 21
300.6952205909619
 31
0.0
  0
LINE
  5
140
330
1F
100
AcDbEntity
  8
1
  6
Continuous
 62
     3
100
AcDbLine
 10
1689.62435505701
 20
300.3162205909616
 30
0.0
 11
1690.803355057019
 21
300.3162205909616
 31
0.0
  0
LINE
  5
141
330
1F
100
AcDbEntity
  8
1
  6
DASH_CENTER
 62
     3
100
AcDbLine
 10
1689.20335505701
 20
298.6952205909619
 30
0.0
 11
1706.00335505701
 21
298.6952205909619
 31
0.0
  0
LINE
  5
142
330
1F
100
AcDbEntity
  8
1
  6
Continuous
 62
     3
100
AcDbLine
 10
1702.546907800941
 20
300.3162205909616
 30
0.0
 11
1703.20335505701
 21
300.6952205909619
 31
0.0
  0
LINE
  5
143
330
1F
100
AcDbEntity
  8
1
  6
Continuous
 62
     3
100
AcDbLine
 10
1695.603355057019
 20
300.3162205909616
 30
0.0
 11
1702.546907800941
 21
300.3162205909616
 31
0.0
  0
LINE
  5
144
330
1F
100
AcDbEntity
  8
1
  6
Continuous
 62
     3
100
AcDbLine
 10
1690.00335505701
 20
296.6952205909619
 30
0.0
 11
1690.00335505701
 21
300.6952205909619
 31
0.0
  0
LINE
  5
145
330
1F
100
AcDbEntity
  8
1
  6
Continuous
 62
     3
100
AcDbLine
 10
1690.803355057019
 20
297.0742205909618
 30
0.0
 11
1689.62435505701
 21
297.0742205909618
 31
0.0
  0
LINE
  5
146
330
1F
100
AcDbEntity
  8
1
  6
Continuous
 62
     3
100
AcDbLine
 10
1703.20335505701
 20
296.6952205909619
 30
0.0
 11
1702.546907800941
 21
297.0742205909618
 31
0.0
  0
LINE
  5
147
330
1F
100
AcDbEntity
  8
1
  6
Continuous
 62
     7
100
AcDbLine
 10
1702.546907800941
 20
296.6952205909619
 30
0.0
 11
1702.546907800941
 21
300.6952205909619
 31
0.0
  0
LINE
  5
148
330
1F
100
AcDbEntity
  8
1
  6
Continuous
 62
     7
100
AcDbLine
 10
1706.00335505701
 20
301.7263095042073
 30
0.0
 11
1706.00335505701
 21
295.6641316777162
 31
0.0
  0
LINE
  5
149
330
1F
100
AcDbEntity
  8
1
  6
Continuous
 62
     7
100
AcDbLine
 10
1703.20335505701
 20
300.7159465331255
 30
0.0
 11
1705.69074766584
 21
300.7159465331255
 31
0.0
  0
LINE
  5
14A
330
1F
100
AcDbEntity
  8
1
  6
Continuous
 62
     7
100
AcDbLine
 10
1703.20335505701
 20
296.674494648798
 30
0.0
 11
1705.69074766584
 21
296.674494648798
 31
0.0
  0
LINE
  5
14B
330
1F
100
AcDbEntity
  8
1
  6
Continuous
 62
     7
100
AcDbLine
 10
1695.603355057019
 20
300.6952205909619
 30
0.0
 11
1703.20335505701
 21
300.6952205909619
 31
0.0
  0
LINE
  5
14C
330
1F
100
AcDbEntity
  8
1
  6
Continuous
 62
     7
100
AcDbLine
 10
1689.20335505701
 20
299.8952205909617
 30
0.0
 11
1690.00335505701
 21
300.6952205909619
 31
0.0
  0
LINE
  5
14D
330
1F
100
AcDbEntity
  8
1
  6
Continuous
 62
     7
100
AcDbLine
 10
1689.20335505701
 20
297.4952205909618
 30
0.0
 11
1689.20335505701
 21
299.8952205909617
 31
0.0
  0
LINE
  5
14E
330
1F
100
AcDbEntity
  8
1
  6
Continuous
 62
     7
100
AcDbLine
 10
1690.00335505701
 20
296.6952205909619
 30
0.0
 11
1689.20335505701
 21
297.4952205909618
 31
0.0
  0
LINE
  5
14F
330
1F
100
AcDbEntity
  8
1
  6
Continuous
 62
     7
100
AcDbLine
 10
1690.803355057019
 20
296.6952205909619
 30
0.0
 11
1690.00335505701
 21
296.6952205909619
 31
0.0
  0
LINE
  5
150
330
1F
100
AcDbEntity
  8
1
  6
Continuous
 62
     7
100
AcDbLine
 10
1703.20335505701
 20
302.7366724752891
 30
0.0
 11
1705.69074766584
 21
302.7366724752891
 31
0.0
  0
LINE
  5
151
330
1F
100
AcDbEntity
  8
1
  6
Continuous
 62
     7
100
AcDbLine
 10
1703.20335505701
 20
294.6537687066344
 30
0.0
 11
1703.20335505701
 21
302.7366724752891
 31
0.0
  0
LINE
  5
152
330
1F
100
AcDbEntity
  8
1
  6
Continuous
 62
     7
100
AcDbLine
 10
1705.69074766584
 20
294.6537687066344
 30
0.0
 11
1703.20335505701
 21
294.6537687066344
 31
0.0
  0
LINE
  5
153
330
1F
100
AcDbEntity
  8
1
  6
DASH_CENTER
 62
     3
100
AcDbLine
 10
1692.403355057019
 20
79.0270630762731
 30
0.0
 11
1695.603355057019
 21
79.0270630762731
 31
0.0
  0
LINE
  5
154
330
1F
100
AcDbEntity
  8
1
  6
Continuous
 62
     7
100
AcDbLine
 10
1692.403355057019
 20
74.98561119194571
 30
0.0
 11
1692.403355057019
 21
83.06851496060031
 31
0.0
  0
LINE
  5
155
330
1F
100
AcDbEntity
  8
1
  6
DASH_CENTER
 62
     3
100
AcDbLine
 10
1706.00335505701
 20
79.0270630762731
 30
0.0
 11
1689.20335505701
 21
79.0270630762731
 31
0.0
  0
LINE
  5
156
330
1F
100
AcDbEntity
  8
1
  6
DASH_CENTER
 62
     3
100
AcDbLine
 10
1665.003355057019
 20
187.1404315266021
 30
0.0
 11
1665.003355057019
 21
177.4410466357862
 31
0.0
  0
LINE
  5
157
330
1F
100
AcDbEntity
  8
1
  6
Continuous
 62
     7
100
AcDbLine
 10
1598.203355057019
 20
71.82706307627299
 30
0.0
 11
1598.003355057019
 21
72.0270630762731
 31
0.0
  0
LINE
  5
158
330
1F
100
AcDbEntity
  8
1
  6
DASH_CENTER
 62
     3
100
AcDbLine
 10
1709.003355057019
 20
174.391228238339
 30
0.0
 11
1709.003355057019
 21
301.0330964251519
 31
0.0
  0
LINE
  5
159
330
1F
100
AcDbEntity
  8
1
  6
DASH_CENTER
 62
     3
100
AcDbLine
 10
1637.003355057019
 20
288.7951985906391
 30
0.0
 11
1637.003355057019
 21
300.2951985906391
 31
0.0
  0
LINE
  5
15A
330
1F
100
AcDbEntity
  8
1
  6
Continuous
 62
     7
100
AcDbLine
 10
1403.219955435887
 20
75.5270630762731
 30
0.0
 11
1397.569955435887
 21
75.5270630762731
 31
0.0
  0
LINE
  5
15B
330
1F
100
AcDbEntity
  8
1
  6
Continuous
 62
     7
100
AcDbLine
 10
1517.569955435887
 20
75.5270630762731
 30
0.0
 11
1517.569955435887
 21
81.3806164668662
 31
0.0
  0
LINE
  5
15C
330
1F
100
AcDbEntity
  8
1
  6
Continuous
 62
     7
100
AcDbLine
 10
1519.419955435887
 20
75.5270630762731
 30
0.0
 11
1524.969955435887
 21
75.5270630762731
 31
0.0
  0
LINE
  5
15D
330
1F
100
AcDbEntity
  8
1
  6
Continuous
 62
     7
100
AcDbLine
 10
1409.019955435887
 20
85.0270630762731
 30
0.0
 11
1407.069955435887
 21
85.0270630762731
 31
0.0
  0
LINE
  5
15E
330
1F
100
AcDbEntity
  8
1
  6
Continuous
 62
     7
100
AcDbLine
 10
1513.819955435887
 20
83.4270630762729
 30
0.0
 11
1514.969955435887
 21
83.4270630762729
 31
0.0
  0
LINE
  5
15F
330
1F
100
AcDbEntity
  8
1
  6
DASH_CENTER
 62
     3
100
AcDbLine
 10
1619.003355057019
 20
298.4493945461375
 30
0.0
 11
1619.003355057019
 21
289.4493945461375
 31
0.0
  0
LINE
  5
160
330
1F
100
AcDbEntity
  8
1
  6
DASH_CENTER
 62
     3
100
AcDbLine
 10
1619.003355057019
 20
299.5016678470302
 30
0.0
 11
1619.003355057019
 21
290.7016678470301
 31
0.0
  0
LINE
  5
161
330
1F
100
AcDbEntity
  8
1
  6
DASH_CENTER
 62
     3
100
AcDbLine
 10
1619.003355057019
 20
298.4493945461375
 30
0.0
 11
1619.003355057019
 21
288.7500096553216
 31
0.0
  0
LINE
  5
162
330
1F
100
AcDbEntity
  8
1
  6
DASH_CENTER
 62
     3
100
AcDbLine
 10
1654.003355057019
 20
299.5016678470302
 30
0.0
 11
1654.003355057019
 21
290.7016678470301
 31
0.0
  0
LINE
  5
163
330
1F
100
AcDbEntity
  8
1
  6
DASH_CENTER
 62
     3
100
AcDbLine
 10
1619.003355057019
 20
185.1887733348935
 30
0.0
 11
1619.003355057019
 21
176.3887733348935
 31
0.0
  0
LINE
  5
164
330
1F
100
AcDbEntity
  8
1
  6
Continuous
 62
     7
100
AcDbLine
 10
1690.803355057019
 20
192.9452205909619
 30
0.0
 11
1690.803355057019
 21
187.7952205909623
 31
0.0
  0
LINE
  5
165
330
1F
100
AcDbEntity
  8
1
  6
Continuous
 62
     7
100
AcDbLine
 10
1702.403355057019
 20
76.82706307627299
 30
0.0
 11
1702.403355057019
 21
75.0270630762731
 31
0.0
  0
LINE
  5
166
330
1F
100
AcDbEntity
  8
1
  6
Continuous
 62
     7
100
AcDbLine
 10
1690.803355057019
 20
75.0270630762731
 30
0.0
 11
1702.403355057019
 21
75.0270630762731
 31
0.0
  0
LINE
  5
167
330
1F
100
AcDbEntity
  8
1
  6
Continuous
 62
     7
100
AcDbLine
 10
1690.803355057019
 20
75.5270630762731
 30
0.0
 11
1690.803355057019
 21
75.0270630762731
 31
0.0
  0
LINE
  5
168
330
1F
100
AcDbEntity
  8
1
  6
DASH_CENTER
 62
     3
100
AcDbLine
 10
1461.319955435887
 20
90.11843489173251
 30
0.0
 11
1461.319955435887
 21
75.11843489173251
 31
0.0
  0
LINE
  5
169
330
1F
100
AcDbEntity
  8
1
  6
DASH_CENTER
 62
     3
100
AcDbLine
 10
1630.003355057019
 20
296.7703579434469
 30
0.0
 11
1630.003355057019
 21
288.6187056074272
 31
0.0
  0
LINE
  5
16A
330
1F
100
AcDbEntity
  8
1
  6
Continuous
 62
     7
100
AcDbLine
 10
1710.503355057019
 20
294.1952205909619
 30
0.0
 11
1715.003355057019
 21
294.1952205909619
 31
0.0
  0
LINE
  5
16B
330
1F
100
AcDbEntity
  8
1
  6
Continuous
 62
     7
100
AcDbLine
 10
1710.503355057019
 20
292.595220590962
 30
0.0
 11
1715.003355057019
 21
292.595220590962
 31
0.0
  0
LINE
  5
16C
330
1F
100
AcDbEntity
  8
1
  6
Continuous
 62
     7
100
AcDbLine
 10
1710.503355057019
 20
294.1952205909619
 30
0.0
 11
1710.503355057019
 21
292.595220590962
 31
0.0
  0
LINE
  5
16D
330
1F
100
AcDbEntity
  8
1
  6
Continuous
 62
     7
100
AcDbLine
 10
1710.503355057019
 20
181.6952205909619
 30
0.0
 11
1702.403355057019
 21
181.6952205909619
 31
0.0
  0
LINE
  5
16E
330
1F
100
AcDbEntity
  8
1
  6
Continuous
 62
     7
100
AcDbLine
 10
1710.503355057019
 20
183.2952205909618
 30
0.0
 11
1702.403355057019
 21
183.2952205909618
 31
0.0
  0
LINE
  5
16F
330
1F
100
AcDbEntity
  8
1
  6
Continuous
 62
     7
100
AcDbLine
 10
1710.503355057019
 20
183.2952205909618
 30
0.0
 11
1710.503355057019
 21
181.6952205909619
 31
0.0
  0
LINE
  5
170
330
1F
100
AcDbEntity
  8
1
  6
Continuous
 62
     7
100
AcDbLine
 10
1603.219472875604
 20
181.6952205909619
 30
0.0
 11
1598.003355057019
 21
181.6952205909619
 31
0.0
  0
LINE
  5
171
330
1F
100
AcDbEntity
  8
1
  6
Continuous
 62
     7
100
AcDbLine
 10
1603.219472875604
 20
183.2952205909618
 30
0.0
 11
1598.003355057019
 21
183.2952205909618
 31
0.0
  0
LINE
  5
172
330
1F
100
AcDbEntity
  8
1
  6
Continuous
 62
     7
100
AcDbLine
 10
1603.219472875604
 20
183.2952205909618
 30
0.0
 11
1603.219472875604
 21
181.6952205909619
 31
0.0
  0
LINE
  5
173
330
1F
100
AcDbEntity
  8
1
  6
Continuous
 62
     7
100
AcDbLine
 10
1603.219472875604
 20
294.1952205909619
 30
0.0
 11
1612.303355057019
 21
294.1952205909619
 31
0.0
  0
LINE
  5
174
330
1F
100
AcDbEntity
  8
1
  6
Continuous
 62
     7
100
AcDbLine
 10
1603.219472875604
 20
292.595220590962
 30
0.0
 11
1612.303355057019
 21
292.595220590962
 31
0.0
  0
LINE
  5
175
330
1F
100
AcDbEntity
  8
1
  6
Continuous
 62
     7
100
AcDbLine
 10
1603.219472875604
 20
294.1952205909619
 30
0.0
 11
1603.219472875604
 21
292.595220590962
 31
0.0
  0
LINE
  5
176
330
1F
100
AcDbEntity
  8
1
  6
DASH_CENTER
 62
     3
100
AcDbLine
 10
1404.319955435887
 20
79.0270630762731
 30
0.0
 11
1405.069955435887
 21
79.0270630762731
 31
0.0
  0
LINE
  5
177
330
1F
100
AcDbEntity
  8
1
  6
Continuous
 62
     7
100
AcDbLine
 10
1692.403355057019
 20
294.1952205909619
 30
0.0
 11
1702.403355057019
 21
294.1952205909619
 31
0.0
  0
LINE
  5
178
330
1F
100
AcDbEntity
  8
1
  6
Continuous
 62
     7
100
AcDbLine
 10
1690.803355057019
 20
294.095220590962
 30
0.0
 11
1690.803355057019
 21
292.595220590962
 31
0.0
  0
LINE
  5
179
330
1F
100
AcDbEntity
  8
1
  6
Continuous
 62
     7
100
AcDbLine
 10
1687.703355057019
 20
294.1952205909619
 30
0.0
 11
1689.203355057019
 21
294.1952205909619
 31
0.0
  0
LINE
  5
17A
330
1F
100
AcDbEntity
  8
1
  6
Continuous
 62
     7
100
AcDbLine
 10
1689.203355057019
 20
181.6952205909619
 30
0.0
 11
1687.703355057019
 21
181.6952205909619
 31
0.0
  0
LINE
  5
17B
330
1F
100
AcDbEntity
  8
1
  6
DASHED
 62
     4
100
AcDbLine
 10
1690.803355057019
 20
183.2952205909618
 30
0.0
 11
1690.803355057019
 21
181.7952205909618
 31
0.0
  0
LINE
  5
17C
330
1F
100
AcDbEntity
  8
1
  6
Continuous
 62
     7
100
AcDbLine
 10
1515.969955435887
 20
81.3806164668662
 30
0.0
 11
1515.969955435887
 21
75.5270630762731
 31
0.0
  0
LINE
  5
17D
330
1F
100
AcDbEntity
  8
1
  6
Continuous
 62
     7
100
AcDbLine
 10
1517.569955435887
 20
81.3806164668662
 30
0.0
 11
1517.569955435887
 21
83.0270630762731
 31
0.0
  0
LINE
  5
17E
330
1F
100
AcDbEntity
  8
1
  6
Continuous
 62
     7
100
AcDbLine
 10
1517.569955435887
 20
81.3806164668662
 30
0.0
 11
1515.969955435887
 21
81.3806164668662
 31
0.0
  0
LINE
  5
17F
330
1F
100
AcDbEntity
  8
1
  6
Continuous
 62
     7
100
AcDbLine
 10
1406.669955435887
 20
81.3806164668662
 30
0.0
 11
1406.669955435887
 21
82.4270630762729
 31
0.0
  0
LINE
  5
180
330
1F
100
AcDbEntity
  8
1
  6
Continuous
 62
     7
100
AcDbLine
 10
1405.069955435887
 20
81.3806164668662
 30
0.0
 11
1405.069955435887
 21
79.0270630762731
 31
0.0
  0
LINE
  5
181
330
1F
100
AcDbEntity
  8
1
  6
Continuous
 62
     7
100
AcDbLine
 10
1405.069955435887
 20
81.3806164668662
 30
0.0
 11
1406.669955435887
 21
81.3806164668662
 31
0.0
  0
LINE
  5
182
330
1F
100
AcDbEntity
  8
1
  6
Continuous
 62
     7
100
AcDbLine
 10
1525.469955435887
 20
76.0270630762731
 30
0.0
 11
1524.969955435887
 21
75.5270630762731
 31
0.0
  0
LINE
  5
183
330
1F
100
AcDbEntity
  8
1
  6
Continuous
 62
     7
100
AcDbLine
 10
1515.969955435887
 20
75.5270630762731
 30
0.0
 11
1515.969955435887
 21
70.0270630762731
 31
0.0
  0
LINE
  5
184
330
1F
100
AcDbEntity
  8
1
  6
Continuous
 62
     7
100
AcDbLine
 10
1515.969955435887
 20
75.5270630762731
 30
0.0
 11
1517.569955435887
 21
75.5270630762731
 31
0.0
  0
LINE
  5
185
330
1F
100
AcDbEntity
  8
1
  6
Continuous
 62
     7
100
AcDbLine
 10
1397.069955435887
 20
82.9270630762729
 30
0.0
 11
1397.569955435887
 21
83.4270630762729
 31
0.0
  0
LINE
  5
186
330
1F
100
AcDbEntity
  8
1
  6
Continuous
 62
     7
100
AcDbLine
 10
1397.069955435887
 20
76.02706307627281
 30
0.0
 11
1397.569955435887
 21
75.5270630762731
 31
0.0
  0
LINE
  5
187
330
1F
100
AcDbEntity
  8
1
  6
Continuous
 62
     7
100
AcDbLine
 10
1397.069955435887
 20
82.9270630762729
 30
0.0
 11
1397.069955435887
 21
76.02706307627281
 31
0.0
  0
LINE
  5
188
330
1F
100
AcDbEntity
  8
1
  6
Continuous
 62
     7
100
AcDbLine
 10
1406.669955435887
 20
75.5270630762731
 30
0.0
 11
1406.669955435887
 21
81.3806164668662
 31
0.0
  0
LINE
  5
189
330
1F
100
AcDbEntity
  8
1
  6
Continuous
 62
     7
100
AcDbLine
 10
1406.669955435887
 20
75.5270630762731
 30
0.0
 11
1404.819955435887
 21
75.5270630762731
 31
0.0
  0
LINE
  5
18A
330
1F
100
AcDbEntity
  8
1
  6
Continuous
 62
     7
100
AcDbLine
 10
1692.403355057019
 20
302.095220590962
 30
0.0
 11
1692.403355057019
 21
294.1952205909619
 31
0.0
  0
LINE
  5
18B
330
1F
100
AcDbEntity
  8
1
  6
Continuous
 62
     7
100
AcDbLine
 10
1690.803355057019
 20
302.0952205909616
 30
0.0
 11
1692.403355057019
 21
302.095220590962
 31
0.0
  0
LINE
  5
18C
330
1F
100
AcDbEntity
  8
1
  6
Continuous
 62
     7
100
AcDbLine
 10
1689.203355057019
 20
294.1952205909619
 30
0.0
 11
1690.803355057019
 21
294.1952205909619
 31
0.0
  0
LINE
  5
18D
330
1F
100
AcDbEntity
  8
1
  6
Continuous
 62
     7
100
AcDbLine
 10
1689.203355057019
 20
294.1952205909619
 30
0.0
 11
1690.803355057019
 21
294.1952205909619
 31
0.0
  0
LINE
  5
18E
330
1F
100
AcDbEntity
  8
1
  6
Continuous
 62
     7
100
AcDbLine
 10
1690.803355057019
 20
295.6952205909619
 30
0.0
 11
1690.803355057019
 21
302.0952205909616
 31
0.0
  0
LINE
  5
18F
330
1F
100
AcDbEntity
  8
1
  6
Continuous
 62
     7
100
AcDbLine
 10
1692.403355057019
 20
173.7952205909621
 30
0.0
 11
1692.403355057019
 21
181.6952205909619
 31
0.0
  0
LINE
  5
190
330
1F
100
AcDbEntity
  8
1
  6
Continuous
 62
     7
100
AcDbLine
 10
1690.803355057019
 20
173.7952205909622
 30
0.0
 11
1692.403355057019
 21
173.7952205909621
 31
0.0
  0
LINE
  5
191
330
1F
100
AcDbEntity
  8
1
  6
Continuous
 62
     7
100
AcDbLine
 10
1687.703355057019
 20
181.6952205909619
 30
0.0
 11
1612.303355057019
 21
181.6952205909619
 31
0.0
  0
LINE
  5
192
330
1F
100
AcDbEntity
  8
1
  6
Continuous
 62
     7
100
AcDbLine
 10
1689.203355057019
 20
181.6952205909619
 30
0.0
 11
1671.803355057019
 21
181.6952205909619
 31
0.0
  0
LINE
  5
193
330
1F
100
AcDbEntity
  8
1
  6
Continuous
 62
     7
100
AcDbLine
 10
1690.803355057019
 20
180.1952205909619
 30
0.0
 11
1690.803355057019
 21
173.7952205909622
 31
0.0
  0
LINE
  5
194
330
1F
100
AcDbEntity
  8
1
  6
DASH_CENTER
 62
     3
100
AcDbLine
 10
1654.003355057019
 20
187.1404315266021
 30
0.0
 11
1654.003355057019
 21
177.4410466357862
 31
0.0
  0
LINE
  5
195
330
1F
100
AcDbEntity
  8
1
  6
DASH_CENTER
 62
     3
100
AcDbLine
 10
1619.003355057019
 20
296.6187056074272
 30
0.0
 11
1619.003355057019
 21
288.6187056074272
 31
0.0
  0
LINE
  5
196
330
1F
100
AcDbEntity
  8
1
  6
Continuous
 62
     7
100
AcDbLine
 10
1598.503355057019
 20
74.32706307627299
 30
0.0
 11
1598.003355057019
 21
73.82706307627299
 31
0.0
  0
LINE
  5
197
330
1F
100
AcDbEntity
  8
1
  6
Continuous
 62
     7
100
AcDbLine
 10
1598.003355057019
 20
79.0270630762731
 30
0.0
 11
1598.503355057019
 21
78.5270630762731
 31
0.0
  0
LINE
  5
198
330
1F
100
AcDbEntity
  8
1
  6
Continuous
 62
     7
100
AcDbLine
 10
1598.356908447612
 20
80.6644986482811
 30
0.0
 11
1598.003355057019
 21
79.81094525768791
 31
0.0
  0
LINE
  5
199
330
1F
100
AcDbEntity
  8
1
  6
Continuous
 62
     7
100
AcDbLine
 10
1714.513064719174
 20
75.02900500870399
 30
0.0
 11
1715.003355057019
 21
75.627063076273
 31
0.0
  0
LINE
  5
19A
330
1F
100
AcDbEntity
  8
1
  6
Continuous
 62
     7
100
AcDbLine
 10
1714.649801666426
 20
81.3806164668662
 30
0.0
 11
1715.003355057019
 21
80.5270630762731
 31
0.0
  0
LINE
  5
19B
330
1F
100
AcDbEntity
  8
1
  6
Continuous
 62
     7
100
AcDbLine
 10
1711.356908447612
 20
84.1735096856797
 30
0.0
 11
1710.503355057019
 21
84.5270630762731
 31
0.0
  0
LINE
  5
19C
330
1F
100
AcDbEntity
  8
1
  6
Continuous
 62
     7
100
AcDbLine
 10
1702.403355057019
 20
76.82706307627299
 30
0.0
 11
1702.903355057019
 21
77.32706307627299
 31
0.0
  0
LINE
  5
19D
330
1F
100
AcDbEntity
  8
1
  6
Continuous
 62
     7
100
AcDbLine
 10
1702.403355057019
 20
84.0270630762731
 30
0.0
 11
1702.903355057019
 21
84.5270630762731
 31
0.0
  0
LINE
  5
19E
330
1F
100
AcDbEntity
  8
1
  6
DASH_CENTER
 62
     3
100
AcDbLine
 10
1513.647249744477
 20
76.0270630762731
 30
0.0
 11
1522.147249744477
 21
76.0270630762731
 31
0.0
  0
LINE
  5
19F
330
1F
100
AcDbEntity
  8
1
  6
DASH_CENTER
 62
     3
100
AcDbLine
 10
1513.647249744477
 20
79.0270630762731
 30
0.0
 11
1517.647249744477
 21
79.0270630762731
 31
0.0
  0
LINE
  5
1A0
330
1F
100
AcDbEntity
  8
1
  6
DASH_CENTER
 62
     3
100
AcDbLine
 10
1402.870118009277
 20
76.0270630762731
 30
0.0
 11
1409.151120867195
 21
76.0270630762731
 31
0.0
  0
LINE
  5
1A1
330
1F
100
AcDbEntity
  8
1
  6
Continuous
 62
     7
100
AcDbLine
 10
1515.969955435887
 20
84.98665487049951
 30
0.0
 11
1515.969955435887
 21
85.0270630762731
 31
0.0
  0
LINE
  5
1A2
330
1F
100
AcDbEntity
  8
1
  6
Continuous
 62
     7
100
AcDbLine
 10
1515.969955435887
 20
85.0270630762731
 30
0.0
 11
1517.569955435887
 21
85.0270630762731
 31
0.0
  0
LINE
  5
1A3
330
1F
100
AcDbEntity
  8
1
  6
Continuous
 62
     7
100
AcDbLine
 10
1517.569955435887
 20
83.0270630762731
 30
0.0
 11
1517.569955435887
 21
83.4270630762729
 31
0.0
  0
LINE
  5
1A4
330
1F
100
AcDbEntity
  8
1
  6
Continuous
 62
     7
100
AcDbLine
 10
1515.969955435887
 20
82.4270630762729
 30
0.0
 11
1515.969955435887
 21
84.98665487049951
 31
0.0
  0
LINE
  5
1A5
330
1F
100
AcDbEntity
  8
1
  6
Continuous
 62
     7
100
AcDbLine
 10
1405.069955435887
 20
85.0270630762731
 30
0.0
 11
1406.669955435887
 21
85.0270630762731
 31
0.0
  0
LINE
  5
1A6
330
1F
100
AcDbEntity
  8
1
  6
Continuous
 62
     7
100
AcDbLine
 10
1405.069955435887
 20
83.0270630762731
 30
0.0
 11
1405.069955435887
 21
83.4270630762729
 31
0.0
  0
LINE
  5
1A7
330
1F
100
AcDbEntity
  8
1
  6
Continuous
 62
     7
100
AcDbLine
 10
1406.669955435887
 20
82.4270630762729
 30
0.0
 11
1406.669955435887
 21
85.0270630762731
 31
0.0
  0
LINE
  5
1A8
330
1F
100
AcDbEntity
  8
1
  6
DASH_CENTER
 62
     3
100
AcDbLine
 10
1605.003355057019
 20
297.6428049118372
 30
0.0
 11
1605.003355057019
 21
176.1428049118372
 31
0.0
  0
LINE
  5
1A9
330
1F
100
AcDbEntity
  8
1
  6
Continuous
 62
     7
100
AcDbLine
 10
1598.003355057019
 20
79.81094525768791
 30
0.0
 11
1598.003355057019
 21
79.0270630762731
 31
0.0
  0
LINE
  5
1AA
330
1F
100
AcDbEntity
  8
1
  6
Continuous
 62
     7
100
AcDbLine
 10
1515.969955435887
 20
82.4270630762729
 30
0.0
 11
1515.969955435887
 21
81.3806164668662
 31
0.0
  0
LINE
  5
1AB
330
1F
100
AcDbEntity
  8
1
  6
Continuous
 62
     7
100
AcDbLine
 10
1407.669955435887
 20
83.4270630762729
 30
0.0
 11
1408.819955435887
 21
83.4270630762729
 31
0.0
  0
LINE
  5
1AC
330
1F
100
AcDbEntity
  8
1
  6
Continuous
 62
     7
100
AcDbLine
 10
1406.669955435887
 20
70.0270630762731
 30
0.0
 11
1406.669955435887
 21
75.5270630762731
 31
0.0
  0
LINE
  5
1AD
330
1F
100
AcDbEntity
  8
1
  6
Continuous
 62
     7
100
AcDbLine
 10
1405.069955435887
 20
70.0270630762731
 30
0.0
 11
1406.669955435887
 21
70.0270630762731
 31
0.0
  0
LINE
  5
1AE
330
1F
100
AcDbEntity
  8
1
  6
Continuous
 62
     7
100
AcDbLine
 10
1405.069955435887
 20
83.0270630762731
 30
0.0
 11
1405.069955435887
 21
81.3806164668662
 31
0.0
  0
LINE
  5
1AF
330
1F
100
AcDbEntity
  8
1
  6
Continuous
 62
     7
100
AcDbLine
 10
1515.569955435887
 20
85.0270630762731
 30
0.0
 11
1513.619955435887
 21
85.0270630762731
 31
0.0
  0
LINE
  5
1B0
330
1F
100
AcDbEntity
  8
1
  6
Continuous
 62
     7
100
AcDbLine
 10
1517.569955435887
 20
70.0270630762731
 30
0.0
 11
1517.569955435887
 21
75.5270630762731
 31
0.0
  0
LINE
  5
1B1
330
1F
100
AcDbEntity
  8
1
  6
Continuous
 62
     7
100
AcDbLine
 10
1515.969955435887
 20
70.0270630762731
 30
0.0
 11
1517.569955435887
 21
70.0270630762731
 31
0.0
  0
LINE
  5
1B2
330
1F
100
AcDbEntity
  8
1
  6
Continuous
 62
     7
100
AcDbLine
 10
1715.003355057019
 20
181.6952205909619
 30
0.0
 11
1710.503355057019
 21
181.6952205909619
 31
0.0
  0
LINE
  5
1B3
330
1F
100
AcDbEntity
  8
1
  6
Continuous
 62
     7
100
AcDbLine
 10
1598.003355057019
 20
181.6952205909619
 30
0.0
 11
1598.003355057019
 21
183.2952205909618
 31
0.0
  0
LINE
  5
1B4
330
1F
100
AcDbEntity
  8
1
  6
Continuous
 62
     7
100
AcDbLine
 10
1598.003355057019
 20
294.1952205909619
 30
0.0
 11
1603.219472875604
 21
294.1952205909619
 31
0.0
  0
LINE
  5
1B5
330
1F
100
AcDbEntity
  8
1
  6
Continuous
 62
     7
100
AcDbLine
 10
1715.003355057019
 20
294.1952205909619
 30
0.0
 11
1715.003355057019
 21
292.595220590962
 31
0.0
  0
LINE
  5
1B6
330
1F
100
AcDbEntity
  8
1
  6
Continuous
 62
     7
100
AcDbLine
 10
1598.003355057019
 20
292.595220590962
 30
0.0
 11
1603.219472875604
 21
292.595220590962
 31
0.0
  0
LINE
  5
1B7
330
1F
100
AcDbEntity
  8
1
  6
Continuous
 62
     7
100
AcDbLine
 10
1598.003355057019
 20
292.595220590962
 30
0.0
 11
1598.003355057019
 21
294.1952205909619
 31
0.0
  0
LINE
  5
1B8
330
1F
100
AcDbEntity
  8
1
  6
Continuous
 62
     7
100
AcDbLine
 10
1715.003355057019
 20
183.2952205909618
 30
0.0
 11
1710.503355057019
 21
183.2952205909618
 31
0.0
  0
LINE
  5
1B9
330
1F
100
AcDbEntity
  8
1
  6
Continuous
 62
     7
100
AcDbLine
 10
1715.003355057019
 20
183.2952205909618
 30
0.0
 11
1715.003355057019
 21
181.6952205909619
 31
0.0
  0
LINE
  5
1BA
330
1F
100
AcDbEntity
  8
1
  6
Continuous
 62
     7
100
AcDbLine
 10
1690.803355057019
 20
294.1952205909619
 30
0.0
 11
1690.803355057019
 21
292.595220590962
 31
0.0
  0
LINE
  5
1BB
330
1F
100
AcDbEntity
  8
1
  6
Continuous
 62
     7
100
AcDbLine
 10
1690.803355057019
 20
181.6952205909619
 30
0.0
 11
1689.203355057019
 21
181.6952205909619
 31
0.0
  0
LINE
  5
1BC
330
1F
100
AcDbEntity
  8
1
  6
Continuous
 62
     7
100
AcDbLine
 10
1671.803355057019
 20
294.1952205909619
 30
0.0
 11
1687.703355057019
 21
294.1952205909619
 31
0.0
  0
LINE
  5
1BD
330
1F
100
AcDbEntity
  8
1
  6
Continuous
 62
     7
100
AcDbLine
 10
1612.303355057019
 20
294.1952205909619
 30
0.0
 11
1612.303355057019
 21
292.595220590962
 31
0.0
  0
LINE
  5
1BE
330
1F
100
AcDbEntity
  8
1
  6
Continuous
 62
     7
100
AcDbLine
 10
1612.303355057019
 20
294.1952205909619
 30
0.0
 11
1689.203355057019
 21
294.1952205909619
 31
0.0
  0
LINE
  5
1BF
330
1F
100
AcDbEntity
  8
1
  6
Continuous
 62
     7
100
AcDbLine
 10
1612.303355057019
 20
181.6952205909619
 30
0.0
 11
1603.219472875604
 21
181.6952205909619
 31
0.0
  0
LINE
  5
1C0
330
1F
100
AcDbEntity
  8
1
  6
Continuous
 62
     7
100
AcDbLine
 10
1612.303355057019
 20
183.2952205909618
 30
0.0
 11
1603.219472875604
 21
183.2952205909618
 31
0.0
  0
LINE
  5
1C1
330
1F
100
AcDbEntity
  8
1
  6
Continuous
 62
     7
100
AcDbLine
 10
1612.303355057019
 20
183.2952205909618
 30
0.0
 11
1612.303355057019
 21
181.6952205909619
 31
0.0
  0
LINE
  5
1C2
330
1F
100
AcDbEntity
  8
1
  6
Continuous
 62
     7
100
AcDbLine
 10
1690.803355057019
 20
181.7952205909618
 30
0.0
 11
1690.803355057019
 21
181.6952205909619
 31
0.0
  0
LINE
  5
1C3
330
1F
100
AcDbEntity
  8
1
  6
Continuous
 62
     7
100
AcDbLine
 10
1612.303355057019
 20
292.595220590962
 30
0.0
 11
1612.303355057019
 21
282.6952205909619
 31
0.0
  0
LINE
  5
1C4
330
1F
100
AcDbEntity
  8
1
  6
Continuous
 62
     7
100
AcDbLine
 10
1690.803355057019
 20
292.595220590962
 30
0.0
 11
1690.803355057019
 21
282.6952205909619
 31
0.0
  0
LINE
  5
1C5
330
1F
100
AcDbEntity
  8
1
  6
Continuous
 62
     7
100
AcDbLine
 10
1690.803355057019
 20
294.1952205909619
 30
0.0
 11
1690.803355057019
 21
294.095220590962
 31
0.0
  0
LINE
  5
1C6
330
1F
100
AcDbEntity
  8
1
  6
Continuous
 62
     7
100
AcDbLine
 10
1690.803355057019
 20
292.595220590962
 30
0.0
 11
1702.403355057019
 21
292.595220590962
 31
0.0
  0
LINE
  5
1C7
330
1F
100
AcDbEntity
  8
1
  6
Continuous
 62
     7
100
AcDbLine
 10
1702.403355057019
 20
294.1952205909619
 30
0.0
 11
1702.403355057019
 21
292.595220590962
 31
0.0
  0
LINE
  5
1C8
330
1F
100
AcDbEntity
  8
1
  6
Continuous
 62
     7
100
AcDbLine
 10
1702.403355057019
 20
294.1952205909619
 30
0.0
 11
1710.503355057019
 21
294.1952205909619
 31
0.0
  0
LINE
  5
1C9
330
1F
100
AcDbEntity
  8
1
  6
Continuous
 62
     7
100
AcDbLine
 10
1702.403355057019
 20
292.595220590962
 30
0.0
 11
1710.503355057019
 21
292.595220590962
 31
0.0
  0
LINE
  5
1CA
330
1F
100
AcDbEntity
  8
1
  6
Continuous
 62
     7
100
AcDbLine
 10
1690.803355057019
 20
183.2952205909618
 30
0.0
 11
1690.803355057019
 21
181.6952205909619
 31
0.0
  0
LINE
  5
1CB
330
1F
100
AcDbEntity
  8
1
  6
Continuous
 62
     7
100
AcDbLine
 10
1690.803355057019
 20
181.6952205909619
 30
0.0
 11
1689.203355057019
 21
181.6952205909619
 31
0.0
  0
LINE
  5
1CC
330
1F
100
AcDbEntity
  8
1
  6
Continuous
 62
     7
100
AcDbLine
 10
1702.403355057019
 20
183.2952205909618
 30
0.0
 11
1702.403355057019
 21
181.6952205909619
 31
0.0
  0
LINE
  5
1CD
330
1F
100
AcDbEntity
  8
1
  6
Continuous
 62
     7
100
AcDbLine
 10
1702.403355057019
 20
181.6952205909619
 30
0.0
 11
1692.403355057019
 21
181.6952205909619
 31
0.0
  0
LINE
  5
1CE
330
1F
100
AcDbEntity
  8
1
  6
Continuous
 62
     7
100
AcDbLine
 10
1702.403355057019
 20
183.2952205909618
 30
0.0
 11
1690.803355057019
 21
183.2952205909618
 31
0.0
  0
LINE
  5
1CF
330
1F
100
AcDbEntity
  8
1
  6
Continuous
 62
     7
100
AcDbLine
 10
1690.803355057019
 20
187.7952205909623
 30
0.0
 11
1690.803355057019
 21
183.2952205909618
 31
0.0
  0
LINE
  5
1D0
330
1F
100
AcDbEntity
  8
1
  6
Continuous
 62
     7
100
AcDbLine
 10
1612.303355057019
 20
192.7952205909622
 30
0.0
 11
1612.303355057019
 21
183.2952205909618
 31
0.0
  0
LINE
  5
1D1
330
1F
100
AcDbEntity
  8
1
  6
Continuous
 62
     7
100
AcDbLine
 10
1598.503355057019
 20
78.5270630762731
 30
0.0
 11
1607.283705907217
 21
78.5270630762731
 31
0.0
  0
LINE
  5
1D2
330
1F
100
AcDbEntity
  8
1
  6
Continuous
 62
     7
100
AcDbLine
 10
1598.503355057019
 20
74.32706307627299
 30
0.0
 11
1607.283705907217
 21
74.32706307627299
 31
0.0
  0
LINE
  5
1D3
330
1F
100
AcDbEntity
  8
1
  6
Continuous
 62
     7
100
AcDbLine
 10
1598.003355057019
 20
73.82706307627299
 30
0.0
 11
1598.003355057019
 21
72.0270630762731
 31
0.0
  0
LINE
  5
1D4
330
1F
100
AcDbEntity
  8
1
  6
Continuous
 62
     7
100
AcDbLine
 10
1612.303355057019
 20
85.0270630762731
 30
0.0
 11
1612.303355057019
 21
83.4270630762729
 31
0.0
  0
LINE
  5
1D5
330
1F
100
AcDbEntity
  8
1
  6
DASHED
 62
     4
100
AcDbLine
 10
1690.791937290157
 20
85.0270630762731
 30
0.0
 11
1690.791937290157
 21
83.4270630762729
 31
0.0
  0
LINE
  5
1D6
330
1F
100
AcDbEntity
  8
1
  6
DASHED
 62
     4
100
AcDbLine
 10
1690.791937290157
 20
83.4270630762729
 30
0.0
 11
1688.392634120722
 21
83.4270630762729
 31
0.0
  0
LINE
  5
1D7
330
1F
100
AcDbEntity
  8
1
  6
Continuous
 62
     7
100
AcDbLine
 10
1703.403355057019
 20
81.5270630762731
 30
0.0
 11
1711.283705907217
 21
81.5270630762731
 31
0.0
  0
LINE
  5
1D8
330
1F
100
AcDbEntity
  8
1
  6
Continuous
 62
     7
100
AcDbLine
 10
1702.403355057019
 20
82.5270630762731
 30
0.0
 11
1702.403355057019
 21
84.0270630762731
 31
0.0
  0
LINE
  5
1D9
330
1F
100
AcDbEntity
  8
1
  6
Continuous
 62
     7
100
AcDbLine
 10
1690.803355057019
 20
85.0270630762731
 30
0.0
 11
1690.791937290157
 21
85.0270630762731
 31
0.0
  0
LINE
  5
1DA
330
1F
100
AcDbEntity
  8
1
  6
Continuous
 62
     7
100
AcDbLine
 10
1690.803355057019
 20
75.5270630762731
 30
0.0
 11
1690.803355057019
 21
85.0270630762731
 31
0.0
  0
LINE
  5
1DB
330
1F
100
AcDbEntity
  8
1
  6
Continuous
 62
     7
100
AcDbLine
 10
1689.203355057019
 20
85.0270630762731
 30
0.0
 11
1612.303355057019
 21
85.0270630762731
 31
0.0
  0
LINE
  5
1DC
330
1F
100
AcDbEntity
  8
1
  6
Continuous
 62
     7
100
AcDbLine
 10
1689.203355057019
 20
85.0270630762731
 30
0.0
 11
1690.803355057019
 21
85.0270630762731
 31
0.0
  0
LINE
  5
1DD
330
1F
100
AcDbEntity
  8
1
  6
Continuous
 62
     7
100
AcDbLine
 10
1692.403355057019
 20
75.5270630762731
 30
0.0
 11
1692.403355057019
 21
83.4270630762729
 31
0.0
  0
LINE
  5
1DE
330
1F
100
AcDbEntity
  8
1
  6
Continuous
 62
     7
100
AcDbLine
 10
1702.903355057019
 20
77.32706307627299
 30
0.0
 11
1711.283705907217
 21
77.32706307627299
 31
0.0
  0
LINE
  5
1DF
330
1F
100
AcDbEntity
  8
1
  6
Continuous
 62
     7
100
AcDbLine
 10
1711.356908447612
 20
84.1735096856797
 30
0.0
 11
1714.649801666426
 21
81.3806164668662
 31
0.0
  0
LINE
  5
1E0
330
1F
100
AcDbEntity
  8
1
  6
Continuous
 62
     7
100
AcDbLine
 10
1710.503355057019
 20
84.5270630762731
 30
0.0
 11
1702.903355057019
 21
84.5270630762731
 31
0.0
  0
LINE
  5
1E1
330
1F
100
AcDbEntity
  8
1
  6
Continuous
 62
     7
100
AcDbLine
 10
1714.513064719174
 20
75.02900500870399
 30
0.0
 11
1712.911918488764
 21
74.61849964452759
 31
0.0
  0
LINE
  5
1E2
330
1F
100
AcDbEntity
  8
1
  6
Continuous
 62
     7
100
AcDbLine
 10
1715.003355057019
 20
75.627063076273
 30
0.0
 11
1715.003355057019
 21
80.5270630762731
 31
0.0
  0
LINE
  5
1E3
330
1F
100
AcDbEntity
  8
1
  6
Continuous
 62
     7
100
AcDbLine
 10
1397.569955435887
 20
83.4270630762729
 30
0.0
 11
1403.219955435887
 21
83.4270630762729
 31
0.0
  0
LINE
  5
1E4
330
1F
100
AcDbEntity
  8
1
  6
Continuous
 62
     7
100
AcDbLine
 10
1405.069955435887
 20
83.4270630762729
 30
0.0
 11
1405.069955435887
 21
85.0270630762731
 31
0.0
  0
LINE
  5
1E5
330
1F
100
AcDbEntity
  8
1
  6
Continuous
 62
     7
100
AcDbLine
 10
1524.969955435887
 20
83.4270630762729
 30
0.0
 11
1519.419955435887
 21
83.4270630762729
 31
0.0
  0
LINE
  5
1E6
330
1F
100
AcDbEntity
  8
1
  6
Continuous
 62
     7
100
AcDbLine
 10
1525.469955435887
 20
82.9270630762729
 30
0.0
 11
1525.469955435887
 21
76.0270630762731
 31
0.0
  0
LINE
  5
1E7
330
1F
100
AcDbEntity
  8
1
  6
Continuous
 62
     7
100
AcDbLine
 10
1517.569955435887
 20
83.4270630762729
 30
0.0
 11
1517.569955435887
 21
85.0270630762731
 31
0.0
  0
LINE
  5
1E8
330
1F
100
AcDbEntity
  8
1
  6
Continuous
 62
     7
100
AcDbLine
 10
1525.469955435887
 20
82.9270630762729
 30
0.0
 11
1524.969955435887
 21
83.4270630762729
 31
0.0
  0
LINE
  5
1E9
330
1F
100
AcDbEntity
  8
1
  6
Continuous
 62
     7
100
AcDbLine
 10
1688.392634120722
 20
83.4270630762729
 30
0.0
 11
1692.403355057019
 21
83.4270630762729
 31
0.0
  0
LINE
  5
1EA
330
1F
100
AcDbEntity
  8
1
  6
Continuous
 62
     7
100
AcDbLine
 10
1612.303355057019
 20
83.4270630762729
 30
0.0
 11
1601.219472875604
 21
83.4270630762729
 31
0.0
  0
LINE
  5
1EB
330
1F
100
AcDbEntity
  8
1
  6
Continuous
 62
     7
100
AcDbLine
 10
1600.365919485011
 20
83.0735096856796
 30
0.0
 11
1598.356908447612
 21
80.6644986482811
 31
0.0
  0
LINE
  5
1EC
330
1F
100
AcDbEntity
  8
1
  6
Continuous
 62
     7
100
AcDbLine
 10
1600.365919485011
 20
83.0735096856796
 30
0.0
 11
1601.219472875604
 21
83.4270630762729
 31
0.0
  0
LINE
  5
1ED
330
1F
100
AcDbEntity
  8
1
  6
DOT_CENTER
 62
     3
100
AcDbLine
 10
1397.469955435887
 20
79.0270630762731
 30
0.0
 11
1403.669955435887
 21
79.0270630762731
 31
0.0
  0
LINE
  5
1EE
330
1F
100
AcDbEntity
  8
1
  6
DASH_CENTER
 62
     3
100
AcDbLine
 10
1405.069955435887
 20
79.0270630762731
 30
0.0
 11
1409.151120867195
 21
79.0270630762731
 31
0.0
  0
LINE
  5
1EF
330
1F
100
AcDbEntity
  8
1
  6
Continuous
 62
     7
100
AcDbLine
 10
1405.069955435887
 20
79.0270630762731
 30
0.0
 11
1405.069955435887
 21
70.0270630762731
 31
0.0
  0
LINE
  5
1F0
330
1F
100
AcDbEntity
  8
1
  6
DOT_CENTER
 62
     3
100
AcDbLine
 10
1400.569955435887
 20
76.0270630762731
 30
0.0
 11
1400.569955435887
 21
82.0270630762731
 31
0.0
  0
LINE
  5
1F1
330
1F
100
AcDbEntity
  8
1
  6
DOT_CENTER
 62
     3
100
AcDbLine
 10
1522.147249744477
 20
76.0270630762731
 30
0.0
 11
1522.147249744477
 21
82.0270630762731
 31
0.0
  0
LINE
  5
1F2
330
1F
100
AcDbEntity
  8
1
  6
DOT_CENTER
 62
     3
100
AcDbLine
 10
1517.647249744477
 20
79.0270630762731
 30
0.0
 11
1524.147249744477
 21
79.0270630762731
 31
0.0
  0
LINE
  5
1F3
330
1F
100
AcDbEntity
  8
1
  6
DOT_CENTER
 62
     3
100
AcDbLine
 10
1517.647249744477
 20
79.0270630762731
 30
0.0
 11
1524.147249744477
 21
79.0270630762731
 31
0.0
  0
LINE
  5
1F4
330
1F
100
AcDbEntity
  8
1
  6
DASH_CENTER
 62
     3
100
AcDbLine
 10
1630.003355057019
 20
185.1887733348935
 30
0.0
 11
1630.003355057019
 21
176.3887733348935
 31
0.0
  0
LINE
  5
1F5
330
1F
100
AcDbEntity
  8
1
  6
DASH_CENTER
 62
     3
100
AcDbLine
 10
1665.003355057019
 20
299.5016678470303
 30
0.0
 11
1665.003355057019
 21
290.7016678470304
 31
0.0
  0
LINE
  5
1F6
330
1F
100
AcDbEntity
  8
1
  6
PHANTOM
 62
   140
100
AcDbLine
 10
1602.503355057019
 20
69.42706307627279
 30
0.0
 11
1604.503355057019
 21
67.42706307627279
 31
0.0
  0
LINE
  5
1F7
330
1F
100
AcDbEntity
  8
1
  6
PHANTOM
 62
   140
100
AcDbLine
 10
1594.691890483594
 20
69.42706307627279
 30
0.0
 11
1593.103355057019
 21
69.42706307627279
 31
0.0
  0
LINE
  5
1F8
330
1F
100
AcDbEntity
  8
1
  6
PHANTOM
 62
   140
100
AcDbLine
 10
1597.691890483594
 20
-14.5729369237273
 30
0.0
 11
1602.503355057019
 21
-14.5729369237273
 31
0.0
  0
LINE
  5
1F9
330
1F
100
AcDbEntity
  8
1
  6
PHANTOM
 62
   140
100
AcDbLine
 10
1593.103355057019
 20
69.42706307627279
 30
0.0
 11
1591.503355057019
 21
69.42706307627279
 31
0.0
  0
LINE
  5
1FA
330
1F
100
AcDbEntity
  8
1
  6
PHANTOM
 62
   140
100
AcDbLine
 10
1593.103355057019
 20
-14.5729369237273
 30
0.0
 11
1597.691890483594
 21
-14.5729369237273
 31
0.0
  0
LINE
  5
1FB
330
1F
100
AcDbEntity
  8
1
  6
PHANTOM
 62
   140
100
AcDbLine
 10
1593.103355057019
 20
69.42706307627279
 30
0.0
 11
1593.103355057019
 21
-14.5729369237273
 31
0.0
  0
LINE
  5
1FC
330
1F
100
AcDbEntity
  8
1
  6
PHANTOM
 62
   140
100
AcDbLine
 10
1591.503355057019
 20
69.42706307627279
 30
0.0
 11
1591.503355057019
 21
-14.5729369237273
 31
0.0
  0
LINE
  5
1FD
330
1F
100
AcDbEntity
  8
1
  6
PHANTOM
 62
   140
100
AcDbLine
 10
1602.503355057019
 20
69.42706307627279
 30
0.0
 11
1594.691890483594
 21
69.42706307627279
 31
0.0
  0
LINE
  5
1FE
330
1F
100
AcDbEntity
  8
1
  6
PHANTOM
 62
   140
100
AcDbLine
 10
1591.503355057019
 20
-14.5729369237273
 30
0.0
 11
1593.103355057019
 21
-14.5729369237273
 31
0.0
  0
LINE
  5
1FF
330
1F
100
AcDbEntity
  8
1
  6
PHANTOM
 62
   140
100
AcDbLine
 10
1506.319955435887
 20
67.42706307627302
 30
0.0
 11
1506.319955435887
 21
66.627063076273
 31
0.0
  0
LINE
  5
200
330
1F
100
AcDbEntity
  8
1
  6
PHANTOM
 62
   140
100
AcDbLine
 10
1416.319955435887
 20
67.42706307627302
 30
0.0
 11
1506.319955435887
 21
67.42706307627302
 31
0.0
  0
LINE
  5
201
330
1F
100
AcDbEntity
  8
1
  6
PHANTOM
 62
   140
100
AcDbLine
 10
1416.319955435887
 20
66.627063076273
 30
0.0
 11
1416.319955435887
 21
67.42706307627302
 31
0.0
  0
LINE
  5
202
330
1F
100
AcDbEntity
  8
1
  6
PHANTOM
 62
   140
100
AcDbLine
 10
1506.319955435887
 20
66.627063076273
 30
0.0
 11
1416.319955435887
 21
66.627063076273
 31
0.0
  0
LINE
  5
203
330
1F
100
AcDbEntity
  8
1
  6
PHANTOM
 62
   140
100
AcDbLine
 10
1416.319955435887
 20
85.42706307627321
 30
0.0
 11
1416.319955435887
 21
86.2270630762732
 31
0.0
  0
LINE
  5
204
330
1F
100
AcDbEntity
  8
1
  6
PHANTOM
 62
   140
100
AcDbLine
 10
1506.319955435887
 20
85.42706307627321
 30
0.0
 11
1416.319955435887
 21
85.42706307627321
 31
0.0
  0
LINE
  5
205
330
1F
100
AcDbEntity
  8
1
  6
PHANTOM
 62
   140
100
AcDbLine
 10
1506.319955435887
 20
86.2270630762732
 30
0.0
 11
1506.319955435887
 21
85.42706307627321
 31
0.0
  0
LINE
  5
206
330
1F
100
AcDbEntity
  8
1
  6
PHANTOM
 62
   140
100
AcDbLine
 10
1416.319955435887
 20
86.2270630762732
 30
0.0
 11
1506.319955435887
 21
86.2270630762732
 31
0.0
  0
LINE
  5
207
330
1F
100
AcDbEntity
  8
1
  6
PHANTOM
 62
   140
100
AcDbLine
 10
1709.00335505701
 20
85.4270630762729
 30
0.0
 11
1605.00335505701
 21
85.4270630762729
 31
0.0
  0
LINE
  5
208
330
1F
100
AcDbEntity
  8
1
  6
PHANTOM
 62
   140
100
AcDbLine
 10
1605.522154133222
 20
67.4420284342406
 30
0.0
 11
1709.349221107818
 21
73.4370399815846
 31
0.0
  0
LINE
  5
209
330
1F
100
AcDbEntity
  8
1
  6
PHANTOM
 62
   140
100
AcDbLine
 10
1709.00335505701
 20
86.22706307627311
 30
0.0
 11
1605.00335505701
 21
86.22706307627311
 31
0.0
  0
LINE
  5
20A
330
1F
100
AcDbEntity
  8
1
  6
PHANTOM
 62
   140
100
AcDbLine
 10
1605.568269606664
 20
66.64335868828201
 30
0.0
 11
1709.395336581259
 21
72.63837023562621
 31
0.0
  0
LINE
  5
20B
330
1F
100
AcDbEntity
  8
0
  6
DASHED
 62
     4
100
AcDbLine
 10
1464.019955435887
 20
10.9599050762728
 30
0.0
 11
1464.019955435887
 21
9.1514970762727
 31
0.0
  0
LINE
  5
20C
330
1F
100
AcDbEntity
  8
0
  6
DASHED
 62
     4
100
AcDbLine
 10
1458.619955435887
 20
11.8530320762728
 30
0.0
 11
1458.619955435887
 21
9.1514970762727
 31
0.0
  0
LINE
  5
20D
330
1F
100
AcDbEntity
  8
0
  6
DASHED
 62
     4
100
AcDbLine
 10
1459.819955435887
 20
9.1514970762727
 30
0.0
 11
1459.819955435887
 21
2.1133650762728
 31
0.0
  0
LINE
  5
20E
330
1F
100
AcDbEntity
  8
0
  6
DASHED
 62
     4
100
AcDbLine
 10
1458.819955435887
 20
9.1514970762727
 30
0.0
 11
1458.819955435887
 21
1.65149707627271
 31
0.0
  0
LINE
  5
20F
330
1F
100
AcDbEntity
  8
0
  6
DASHED
 62
     4
100
AcDbLine
 10
1460.819955435887
 20
9.1514970762727
 30
0.0
 11
1460.819955435887
 21
1.97035407627271
 31
0.0
  0
LINE
  5
210
330
1F
100
AcDbEntity
  8
0
  6
DASHED
 62
     4
100
AcDbLine
 10
1461.819955435887
 20
9.1514970762727
 30
0.0
 11
1461.819955435887
 21
1.33264007627281
 31
0.0
  0
LINE
  5
211
330
1F
100
AcDbEntity
  8
0
  6
DASHED
 62
     4
100
AcDbLine
 10
1462.819955435887
 20
9.1514970762727
 30
0.0
 11
1462.819955435887
 21
1.18962907627281
 31
0.0
  0
LINE
  5
212
330
1F
100
AcDbEntity
  8
0
  6
DASHED
 62
     4
100
AcDbLine
 10
1463.819955435887
 20
9.1514970762727
 30
0.0
 11
1463.819955435887
 21
1.65149707627271
 31
0.0
  0
LINE
  5
213
330
1F
100
AcDbEntity
  8
0
  6
DASHED
 62
     4
100
AcDbLine
 10
1458.619955435887
 20
9.1514970762727
 30
0.0
 11
1464.019955435887
 21
9.1514970762727
 31
0.0
  0
LINE
  5
214
330
1F
100
AcDbEntity
  8
0
  6
DASHED
 62
     4
100
AcDbLine
 10
1464.019955435887
 20
16.42706307627279
 30
0.0
 11
1464.019955435887
 21
12.00990507627282
 31
0.0
  0
LINE
  5
215
330
1F
100
AcDbEntity
  8
0
  6
DASHED
 62
     4
100
AcDbLine
 10
1458.619955435887
 20
16.42706307627279
 30
0.0
 11
1458.619955435887
 21
12.90303207627281
 31
0.0
  0
LINE
  5
216
330
1F
100
AcDbEntity
  8
0
  6
DASHED
 62
     4
100
AcDbLine
 10
1457.619955435887
 20
16.42706307627279
 30
0.0
 11
1461.319955435887
 21
16.42706307627279
 31
0.0
  0
LINE
  5
217
330
1F
100
AcDbEntity
  8
0
  6
DASHED
 62
     4
100
AcDbLine
 10
1457.119955435887
 20
17.42706307627279
 30
0.0
 11
1457.619955435887
 21
16.42706307627279
 31
0.0
  0
LINE
  5
218
330
1F
100
AcDbEntity
  8
0
  6
DASHED
 62
     4
100
AcDbLine
 10
1465.019955435887
 20
16.42706307627279
 30
0.0
 11
1461.319955435887
 21
16.42706307627279
 31
0.0
  0
LINE
  5
219
330
1F
100
AcDbEntity
  8
0
  6
DASHED
 62
     4
100
AcDbLine
 10
1465.519955435887
 20
17.42706307627279
 30
0.0
 11
1465.019955435887
 21
16.42706307627279
 31
0.0
  0
LINE
  5
21A
330
1F
100
AcDbEntity
  8
0
  6
DASH_CENTER
 62
     3
100
AcDbLine
 10
1461.319955435887
 20
71.92706307627279
 30
0.0
 11
1461.319955435887
 21
-2.74910292372721
 31
0.0
  0
LINE
  5
21B
330
1F
100
AcDbEntity
  8
0
  6
DASHED
 62
     4
100
AcDbLine
 10
1444.349392435887
 20
66.92706307627279
 30
0.0
 11
1478.290517435887
 21
66.92706307627279
 31
0.0
  0
LINE
  5
21C
330
1F
100
AcDbEntity
  8
0
  6
DASHED
 62
     4
100
AcDbLine
 10
1482.319955435887
 20
62.8976260762727
 30
0.0
 11
1482.319955435887
 21
28.95650007627279
 31
0.0
  0
LINE
  5
21D
330
1F
100
AcDbEntity
  8
0
  6
DASHED
 62
     4
100
AcDbLine
 10
1478.290517435887
 20
24.92706307627279
 30
0.0
 11
1444.349392435887
 21
24.92706307627279
 31
0.0
  0
LINE
  5
21E
330
1F
100
AcDbEntity
  8
0
  6
DASHED
 62
     4
100
AcDbLine
 10
1440.319955435887
 20
28.95650007627279
 30
0.0
 11
1440.319955435887
 21
62.8976260762727
 31
0.0
  0
LINE
  5
21F
330
1F
100
AcDbEntity
  8
0
  6
DASH_CENTER
 62
     3
100
AcDbLine
 10
1435.319955435887
 20
45.92706307627279
 30
0.0
 11
1487.319955435887
 21
45.92706307627279
 31
0.0
  0
LINE
  5
220
330
1F
100
AcDbEntity
  8
0
  6
DASHED
 62
     4
100
AcDbLine
 10
1448.319955435887
 20
24.92706307627279
 30
0.0
 11
1448.834752435887
 21
19.93958007627279
 31
0.0
  0
LINE
  5
221
330
1F
100
AcDbEntity
  8
0
  6
DASHED
 62
     4
100
AcDbLine
 10
1451.619955435887
 20
17.42706307627279
 30
0.0
 11
1461.319955435887
 21
17.42706307627279
 31
0.0
  0
LINE
  5
222
330
1F
100
AcDbEntity
  8
0
  6
DASHED
 62
     4
100
AcDbLine
 10
1471.019955435887
 20
17.42706307627279
 30
0.0
 11
1461.319955435887
 21
17.42706307627279
 31
0.0
  0
LINE
  5
223
330
1F
100
AcDbEntity
  8
0
  6
DASHED
 62
     4
100
AcDbLine
 10
1474.319955435887
 20
24.92706307627279
 30
0.0
 11
1473.805157435887
 21
19.93958007627279
 31
0.0
  0
LINE
  5
224
330
1F
100
AcDbEntity
  8
1
  6
DASH_CENTER
 62
     3
100
AcDbLine
 10
1398.33941760544
 20
25.32706307627259
 30
0.0
 11
1415.129572573535
 21
25.32706307627259
 31
0.0
  0
LINE
  5
225
330
1F
100
AcDbEntity
  8
1
  6
DASH_CENTER
 62
     3
100
AcDbLine
 10
1399.129572573535
 20
54.92706307627279
 30
0.0
 11
1415.129572573535
 21
54.92706307627279
 31
0.0
  0
LINE
  5
226
330
1F
100
AcDbEntity
  8
1
  6
DASH_CENTER
 62
     3
100
AcDbLine
 10
1508.220183330144
 20
25.32706307627259
 30
0.0
 11
1524.570183330144
 21
25.32706307627259
 31
0.0
  0
LINE
  5
227
330
1F
100
AcDbEntity
  8
1
  6
DASH_CENTER
 62
     3
100
AcDbLine
 10
1506.720183330144
 20
54.92706307627279
 30
0.0
 11
1523.070183330144
 21
54.92706307627279
 31
0.0
  0
LINE
  5
228
330
1F
100
AcDbEntity
  8
1
  6
Continuous
 62
     7
100
AcDbLine
 10
1514.019955435887
 20
65.92706307627279
 30
0.0
 11
1515.319955435887
 21
65.92706307627279
 31
0.0
  0
LINE
  5
229
330
1F
100
AcDbEntity
  8
1
  6
Continuous
 62
     7
100
AcDbLine
 10
1514.019955435887
 20
15.42706307627279
 30
0.0
 11
1408.619955435887
 21
15.42706307627279
 31
0.0
  0
LINE
  5
22A
330
1F
100
AcDbEntity
  8
1
  6
Continuous
 62
     7
100
AcDbLine
 10
1408.619955435887
 20
15.42706307627279
 30
0.0
 11
1405.019955435887
 21
15.42706307627279
 31
0.0
  0
LINE
  5
22B
330
1F
100
AcDbEntity
  8
1
  6
Continuous
 62
     7
100
AcDbLine
 10
1408.619955435887
 20
65.92706307627279
 30
0.0
 11
1514.019955435887
 21
65.92706307627279
 31
0.0
  0
LINE
  5
22C
330
1F
100
AcDbEntity
  8
1
  6
Continuous
 62
     7
100
AcDbLine
 10
1405.019955435887
 20
15.42706307627279
 30
0.0
 11
1405.019955435887
 21
65.92706307627279
 31
0.0
  0
LINE
  5
22D
330
1F
100
AcDbEntity
  8
1
  6
Continuous
 62
     7
100
AcDbLine
 10
1517.619955435887
 20
15.42706307627279
 30
0.0
 11
1514.019955435887
 21
15.42706307627279
 31
0.0
  0
LINE
  5
22E
330
1F
100
AcDbEntity
  8
1
  6
Continuous
 62
     7
100
AcDbLine
 10
1517.619955435887
 20
65.92706307627279
 30
0.0
 11
1517.619955435887
 21
15.42706307627279
 31
0.0
  0
LINE
  5
22F
330
1F
100
AcDbEntity
  8
1
  6
Continuous
 62
     7
100
AcDbLine
 10
1405.019955435887
 20
65.92706307627279
 30
0.0
 11
1407.319955435887
 21
65.92706307627279
 31
0.0
  0
LINE
  5
230
330
1F
100
AcDbEntity
  8
1
  6
Continuous
 62
     7
100
AcDbLine
 10
1515.319955435887
 20
65.92706307627279
 30
0.0
 11
1515.319955435887
 21
69.92706307627279
 31
0.0
  0
LINE
  5
231
330
1F
100
AcDbEntity
  8
1
  6
Continuous
 62
     7
100
AcDbLine
 10
1515.319955435887
 20
65.92706307627279
 30
0.0
 11
1517.619955435887
 21
65.92706307627279
 31
0.0
  0
LINE
  5
232
330
1F
100
AcDbEntity
  8
1
  6
Continuous
 62
     7
100
AcDbLine
 10
1517.619955435887
 20
65.92706307627279
 30
0.0
 11
1517.619955435887
 21
69.92706307627279
 31
0.0
  0
LINE
  5
233
330
1F
100
AcDbEntity
  8
1
  6
Continuous
 62
     7
100
AcDbLine
 10
1515.319955435887
 20
69.92706307627279
 30
0.0
 11
1517.619955435887
 21
69.92706307627279
 31
0.0
  0
LINE
  5
234
330
1F
100
AcDbEntity
  8
1
  6
Continuous
 62
     7
100
AcDbLine
 10
1405.019955435887
 20
65.92706307627279
 30
0.0
 11
1405.019955435887
 21
69.92706307627279
 31
0.0
  0
LINE
  5
235
330
1F
100
AcDbEntity
  8
1
  6
Continuous
 62
     7
100
AcDbLine
 10
1407.319955435887
 20
65.92706307627279
 30
0.0
 11
1407.319955435887
 21
69.92706307627279
 31
0.0
  0
LINE
  5
236
330
1F
100
AcDbEntity
  8
1
  6
Continuous
 62
     7
100
AcDbLine
 10
1407.319955435887
 20
65.92706307627279
 30
0.0
 11
1408.619955435887
 21
65.92706307627279
 31
0.0
  0
LINE
  5
237
330
1F
100
AcDbEntity
  8
1
  6
Continuous
 62
     7
100
AcDbLine
 10
1405.019955435887
 20
69.92706307627279
 30
0.0
 11
1407.319955435887
 21
69.92706307627279
 31
0.0
  0
LINE
  5
238
330
1F
100
AcDbEntity
  8
1
  6
DASH_CENTER
 62
     3
100
AcDbLine
 10
1473.819955435887
 20
61.42706307627279
 30
0.0
 11
1479.819955435887
 21
61.42706307627279
 31
0.0
  0
LINE
  5
239
330
1F
100
AcDbEntity
  8
1
  6
DASH_CENTER
 62
     3
100
AcDbLine
 10
1476.819955435887
 20
64.42706307627279
 30
0.0
 11
1476.819955435887
 21
58.42706307627279
 31
0.0
  0
LINE
  5
23A
330
1F
100
AcDbEntity
  8
1
  6
DASH_CENTER
 62
     3
100
AcDbLine
 10
1473.819955435887
 20
30.42706307627279
 30
0.0
 11
1479.819955435887
 21
30.42706307627279
 31
0.0
  0
LINE
  5
23B
330
1F
100
AcDbEntity
  8
1
  6
DASH_CENTER
 62
     3
100
AcDbLine
 10
1476.819955435887
 20
33.42706307627279
 30
0.0
 11
1476.819955435887
 21
27.42706307627279
 31
0.0
  0
LINE
  5
23C
330
1F
100
AcDbEntity
  8
1
  6
DASH_CENTER
 62
     3
100
AcDbLine
 10
1442.819955435887
 20
30.42706307627279
 30
0.0
 11
1448.819955435887
 21
30.42706307627279
 31
0.0
  0
LINE
  5
23D
330
1F
100
AcDbEntity
  8
1
  6
DASH_CENTER
 62
     3
100
AcDbLine
 10
1445.819955435887
 20
33.42706307627279
 30
0.0
 11
1445.819955435887
 21
27.42706307627279
 31
0.0
  0
LINE
  5
23E
330
1F
100
AcDbEntity
  8
1
  6
DASH_CENTER
 62
     3
100
AcDbLine
 10
1442.819955435887
 20
61.42706307627279
 30
0.0
 11
1448.819955435887
 21
61.42706307627279
 31
0.0
  0
LINE
  5
23F
330
1F
100
AcDbEntity
  8
1
  6
DASH_CENTER
 62
     3
100
AcDbLine
 10
1445.819955435887
 20
64.42706307627279
 30
0.0
 11
1445.819955435887
 21
58.42706307627279
 31
0.0
  0
LINE
  5
240
330
1F
100
AcDbEntity
  8
1
  6
DASH_CENTER
 62
     3
100
AcDbLine
 10
1610.503355057019
 20
44.9270630762727
 30
0.0
 11
1610.503355057019
 21
35.9270630762727
 31
0.0
  0
LINE
  5
241
330
1F
100
AcDbEntity
  8
1
  6
DASH_CENTER
 62
     3
100
AcDbLine
 10
1606.003355057019
 20
40.4270630762727
 30
0.0
 11
1615.003355057019
 21
40.4270630762727
 31
0.0
  0
LINE
  5
242
330
1F
100
AcDbEntity
  8
1
  6
DASH_CENTER
 62
     3
100
AcDbLine
 10
1610.503355057019
 20
4.9270630762727
 30
0.0
 11
1610.503355057019
 21
-4.0729369237273
 31
0.0
  0
LINE
  5
243
330
1F
100
AcDbEntity
  8
1
  6
DASH_CENTER
 62
     3
100
AcDbLine
 10
1606.003355057019
 20
0.4270630762727
 30
0.0
 11
1615.003355057019
 21
0.4270630762727
 31
0.0
  0
LINE
  5
244
330
1F
100
AcDbEntity
  8
1
  6
DASH_CENTER
 62
     3
100
AcDbLine
 10
1700.503355057019
 20
4.9270630762727
 30
0.0
 11
1700.503355057019
 21
-4.0729369237273
 31
0.0
  0
LINE
  5
245
330
1F
100
AcDbEntity
  8
1
  6
DASH_CENTER
 62
     3
100
AcDbLine
 10
1696.003355057019
 20
0.4270630762727
 30
0.0
 11
1705.003355057019
 21
0.4270630762727
 31
0.0
  0
LINE
  5
246
330
1F
100
AcDbEntity
  8
1
  6
DASH_CENTER
 62
     3
100
AcDbLine
 10
1700.503355057019
 20
44.9270630762727
 30
0.0
 11
1700.503355057019
 21
35.9270630762727
 31
0.0
  0
LINE
  5
247
330
1F
100
AcDbEntity
  8
1
  6
DASH_CENTER
 62
     3
100
AcDbLine
 10
1696.003355057019
 20
40.4270630762727
 30
0.0
 11
1705.003355057019
 21
40.4270630762727
 31
0.0
  0
ARC
  5
248
330
1F
100
AcDbEntity
  8
1
  6
PHANTOM
 62
   140
100
AcDbCircle
 10
1709.00335505701
 20
79.4270630762729
 30
0.0
 40
5.999999999999892
100
AcDbArc
 50
-86.58037191171313
 51
-86.34406351139033
  0
ARC
  5
249
330
1F
100
AcDbEntity
  8
1
  6
Continuous
 62
     2
100
AcDbCircle
 10
1709.00335505701
 20
79.4270630762729
 30
0.0
 40
6.0
100
AcDbArc
 50
90.0
 51
-86.58037191171313
  0
ARC
  5
24A
330
1F
100
AcDbEntity
  8
1
  6
Continuous
 62
     2
100
AcDbCircle
 10
1709.00335505701
 20
79.4270630762729
 30
0.0
 40
5.999999999999868
100
AcDbArc
 50
-86.34406351139033
 51
90.0
  0
ARC
  5
24B
330
1F
100
AcDbEntity
  8
1
  6
DASHED
 62
     4
100
AcDbCircle
 10
1605.00335505701
 20
76.4270630762729
 30
0.0
 40
9.0
100
AcDbArc
 50
90.0
 51
-86.34406351139108
  0
ARC
  5
24C
330
1F
100
AcDbEntity
  8
1
  6
DASHED
 62
     4
100
AcDbCircle
 10
1605.00335505701
 20
76.4270630762729
 30
0.0
 40
8.999999999999908
100
AcDbArc
 50
-86.34406351139108
 51
0.0
  0
ARC
  5
24D
330
1F
100
AcDbEntity
  8
1
  6
DASHED
 62
     4
100
AcDbCircle
 10
1605.00335505701
 20
76.4270630762729
 30
0.0
 40
9.0
100
AcDbArc
 50
0.0
 51
90.0
  0
ARC
  5
24E
330
1F
100
AcDbEntity
  8
1
  6
Continuous
 62
     7
100
AcDbCircle
 10
1704.214279133114
 20
174.1641316777166
 30
0.0
 40
1.789075923895762
100
AcDbArc
 50
-34.38424746804568
 51
34.38424746805094
  0
ARC
  5
24F
330
1F
100
AcDbEntity
  8
1
  6
Continuous
 62
     7
100
AcDbCircle
 10
1699.31596244818
 20
177.1952205909619
 30
0.0
 40
6.68739260882961
100
AcDbArc
 50
-17.58795377399327
 51
17.58795377399885
  0
ARC
  5
250
330
1F
100
AcDbEntity
  8
1
  6
Continuous
 62
     7
100
AcDbCircle
 10
1704.214279133114
 20
180.2263095042076
 30
0.0
 40
1.789075923895714
100
AcDbArc
 50
-34.38424746804342
 51
34.38424746804868
  0
ARC
  5
251
330
1F
100
AcDbEntity
  8
1
  6
Continuous
 62
     7
100
AcDbCircle
 10
1693.814279133123
 20
180.2263095042073
 30
0.0
 40
1.789075923895826
100
AcDbArc
 50
-34.38424746804868
 51
34.3842474680562
  0
ARC
  5
252
330
1F
100
AcDbEntity
  8
1
  6
Continuous
 62
     7
100
AcDbCircle
 10
1688.915962448189
 20
177.1952205909619
 30
0.0
 40
6.687392608829636
100
AcDbArc
 50
-17.58795377399397
 51
17.5879537739949
  0
ARC
  5
253
330
1F
100
AcDbEntity
  8
1
  6
Continuous
 62
     7
100
AcDbCircle
 10
1693.814279133123
 20
174.1641316777166
 30
0.0
 40
1.789075923895986
100
AcDbArc
 50
-34.3842474680562
 51
34.38424746804868
  0
ARC
  5
254
330
1F
100
AcDbEntity
  8
1
  6
Continuous
 62
     7
100
AcDbCircle
 10
1693.814279133123
 20
301.7263095042076
 30
0.0
 40
1.789075923895826
100
AcDbArc
 50
-34.38424746804868
 51
34.38424746804868
  0
ARC
  5
255
330
1F
100
AcDbEntity
  8
1
  6
Continuous
 62
     7
100
AcDbCircle
 10
1688.915962448189
 20
298.6952205909619
 30
0.0
 40
6.687392608829653
100
AcDbArc
 50
-17.58795377399444
 51
17.58795377399722
  0
ARC
  5
256
330
1F
100
AcDbEntity
  8
1
  6
Continuous
 62
     7
100
AcDbCircle
 10
1693.814279133123
 20
295.6641316777166
 30
0.0
 40
1.789075923896019
100
AcDbArc
 50
-34.38424746805769
 51
34.38424746804718
  0
ARC
  5
257
330
1F
100
AcDbEntity
  8
1
  6
Continuous
 62
     7
100
AcDbCircle
 10
1704.214279133114
 20
295.6641316777166
 30
0.0
 40
1.789075923896051
100
AcDbArc
 50
-34.3842474680592
 51
34.38424746803667
  0
ARC
  5
258
330
1F
100
AcDbEntity
  8
1
  6
Continuous
 62
     7
100
AcDbCircle
 10
1699.31596244818
 20
298.6952205909619
 30
0.0
 40
6.687392608829773
100
AcDbArc
 50
-17.58795377399769
 51
17.58795377399444
  0
ARC
  5
259
330
1F
100
AcDbEntity
  8
1
  6
Continuous
 62
     7
100
AcDbCircle
 10
1704.214279133114
 20
301.7263095042073
 30
0.0
 40
1.789075923895826
100
AcDbArc
 50
-34.38424746804868
 51
34.38424746804868
  0
ARC
  5
25A
330
1F
100
AcDbEntity
  8
1
  6
Continuous
 62
     7
100
AcDbCircle
 10
1605.00335505701
 20
76.4270630762729
 30
0.0
 40
3.100000000006367
100
AcDbArc
 50
-42.64230997982931
 51
42.64230997983319
  0
ARC
  5
25B
330
1F
100
AcDbEntity
  8
1
  6
Continuous
 62
     7
100
AcDbCircle
 10
1709.00335505701
 20
79.4270630762729
 30
0.0
 40
3.100000000006367
100
AcDbArc
 50
-42.64230997982931
 51
42.64230997983319
  0
ARC
  5
25C
330
1F
100
AcDbEntity
  8
1
  6
Continuous
 62
     7
100
AcDbCircle
 10
1703.403355057012
 20
82.52706307626571
 30
0.0
 40
0.9999999999929514
100
AcDbArc
 50
179.9999999995766
 51
-89.99999999959614
  0
ARC
  5
25D
330
1F
100
AcDbEntity
  8
1
  6
PHANTOM
 62
   140
100
AcDbCircle
 10
1605.00335505701
 20
76.4270630762729
 30
0.0
 40
9.0
100
AcDbArc
 50
90.0
 51
-86.69539064469916
  0
ARC
  5
25E
330
1F
100
AcDbEntity
  8
1
  6
PHANTOM
 62
   140
100
AcDbCircle
 10
1709.00335505701
 20
79.4270630762729
 30
0.0
 40
6.000000000000064
100
AcDbArc
 50
-86.69539064469922
 51
90.0
  0
ARC
  5
25F
330
1F
100
AcDbEntity
  8
1
  6
PHANTOM
 62
   140
100
AcDbCircle
 10
1605.00335505701
 20
76.4270630762729
 30
0.0
 40
9.80000000000021
100
AcDbArc
 50
90.0
 51
-86.69539064469453
  0
ARC
  5
260
330
1F
100
AcDbEntity
  8
1
  6
PHANTOM
 62
   140
100
AcDbCircle
 10
1709.00335505701
 20
79.4270630762729
 30
0.0
 40
6.80000000000002
100
AcDbArc
 50
-86.6953906447001
 51
90.0
  0
ARC
  5
261
330
1F
100
AcDbEntity
  8
0
  6
DASHED
 62
     4
100
AcDbCircle
 10
1461.319955435887
 20
45.92706307627279
 30
0.0
 40
26.99999999999981
100
AcDbArc
 50
128.9424409999998
 51
141.0575589999999
  0
ARC
  5
262
330
1F
100
AcDbEntity
  8
0
  6
DASHED
 62
     4
100
AcDbCircle
 10
1461.319955435887
 20
45.92706307627279
 30
0.0
 40
26.9999999999998
100
AcDbArc
 50
38.94244100000038
 51
51.05755900000064
  0
ARC
  5
263
330
1F
100
AcDbEntity
  8
0
  6
DASHED
 62
     4
100
AcDbCircle
 10
1461.319955435887
 20
45.92706307627279
 30
0.0
 40
26.99999999999971
100
AcDbArc
 50
-51.05755900000071
 51
-38.94244100000047
  0
ARC
  5
264
330
1F
100
AcDbEntity
  8
0
  6
DASHED
 62
     4
100
AcDbCircle
 10
1461.319955435887
 20
45.92706307627279
 30
0.0
 40
27.00000000000001
100
AcDbArc
 50
-141.0575589999999
 51
-128.9424409999997
  0
ARC
  5
265
330
1F
100
AcDbEntity
  8
0
  6
DASHED
 62
     4
100
AcDbCircle
 10
1451.619955435887
 20
20.22706307627271
 30
0.0
 40
2.799999999999911
100
AcDbArc
 50
-174.1069200000004
 51
-90.0
  0
ARC
  5
266
330
1F
100
AcDbEntity
  8
0
  6
DASHED
 62
     4
100
AcDbCircle
 10
1471.019955435887
 20
20.22706307627271
 30
0.0
 40
2.799999999999919
100
AcDbArc
 50
-90.0
 51
-5.8930799999991
  0
CIRCLE
  5
267
330
1F
100
AcDbEntity
  8
0
  6
DASHED
 62
     4
100
AcDbCircle
 10
1461.319955435887
 20
45.92706307627279
 30
0.0
 40
17.5
  0
CIRCLE
  5
268
330
1F
100
AcDbEntity
  8
1
  6
Continuous
 62
     7
100
AcDbCircle
 10
1610.503355057019
 20
40.4270630762727
 30
0.0
 40
3.0
  0
CIRCLE
  5
269
330
1F
100
AcDbEntity
  8
1
  6
Continuous
 62
     7
100
AcDbCircle
 10
1610.503355057019
 20
0.4270630762727
 30
0.0
 40
3.0
  0
CIRCLE
  5
26A
330
1F
100
AcDbEntity
  8
1
  6
Continuous
 62
     7
100
AcDbCircle
 10
1700.503355057019
 20
0.4270630762727
 30
0.0
 40
3.0
  0
CIRCLE
  5
26B
330
1F
100
AcDbEntity
  8
1
  6
Continuous
 62
     7
100
AcDbCircle
 10
1700.503355057019
 20
40.4270630762727
 30
0.0
 40
3.0
  0
SPLINE
  5
26C
330
1F
100
AcDbEntity
  8
0
  6
DASHED
 62
     4
100
AcDbSpline
210
0.0
220
0.0
230
1.0
 70
     8
 71
     3
 72
    13
 73
     9
 74
     7
 42
0.0000000001
 43
0.0000000001
 44
0.00000001
 40
0.0
 40
0.0
 40
0.0
 40
0.0
 40
0.9147611463784781
 40
1.779727547603278
 40
2.724667874775471
 40
3.669608296374315
 40
4.53457478191815
 40
5.449336590938511
 40
5.449336590938511
 40
5.449336590938511
 40
5.449336590938511
 10
1458.819955435887
 20
1.651497076272705
 30
0.0
 10
1459.083134767396
 20
1.803059731201716
 30
0.0
 10
1459.595167343441
 20
2.097934773974298
 30
0.0
 10
1460.566364670346
 20
2.24210607419643
 30
0.0
 10
1461.31995498998
 20
1.651497537599293
 30
0.0
 10
1462.07354516789
 20
1.060888908171571
 30
0.0
 10
1463.044742805264
 20
1.205059688456354
 30
0.0
 10
1463.556775805937
 20
1.499934496046515
 30
0.0
 10
1463.819955435887
 20
1.651497076272705
 30
0.0
 11
1458.819955435887
 21
1.651497076272705
 31
0.0
 11
1459.641815008804
 21
2.053162107522768
 31
0.0
 11
1460.50359151922
 21
2.127378826272732
 31
0.0
 11
1461.319954935887
 21
1.65149754502271
 31
0.0
 11
1462.136318352554
 21
1.175616076272725
 31
0.0
 11
1462.998094987971
 21
1.249832326272759
 31
0.0
 11
1463.819955435887
 21
1.651497076272705
 31
0.0
  0
SPLINE
  5
26D
330
1F
100
AcDbEntity
  8
0
  6
DASHED
 62
     4
100
AcDbSpline
210
0.0
220
0.0
230
1.0
 70
     8
 71
     3
 72
    15
 73
    11
 74
     9
 42
0.0000000001
 43
0.0000000001
 44
0.00000001
 40
0.0
 40
0.0
 40
0.0
 40
0.0
 40
0.5941637552883543
 40
1.272455726315121
 40
2.037078557398442
 40
2.885662286808453
 40
3.734245852955765
 40
4.498868388867963
 40
5.177160343943641
 40
5.771325193655471
 40
5.771325193655471
 40
5.771325193655471
 40
5.771325193655471
 10
1458.619955435887
 20
11.8530320762728
 30
0.0
 10
1458.803810955356
 20
11.92845364583695
 30
0.0
 10
1459.197554273558
 20
12.08997579730681
 30
0.0
 10
1459.897975006478
 20
12.12201811511464
 30
0.0
 10
1460.617977880712
 20
11.82883312563306
 30
0.0
 10
1461.319955235048
 20
11.40646812314382
 30
0.0
 10
1462.021932433376
 20
10.98410306186671
 30
0.0
 10
1462.741935107057
 20
10.69091799717635
 30
0.0
 10
1463.442356170402
 20
10.72296041786488
 30
0.0
 10
1463.836099655609
 20
10.88448315720655
 30
0.0
 10
1464.019955435887
 20
10.9599050762728
 30
0.0
 11
1458.619955435887
 21
11.8530320762728
 31
0.0
 11
1459.181065977554
 21
12.04844325335613
 31
0.0
 11
1459.85884376922
 21
12.07484899293946
 31
0.0
 11
1460.58106620672
 21
11.82376569085613
 31
0.0
 11
1461.319955269221
 21
11.40646807627278
 31
0.0
 11
1462.05884414422
 21
10.98917046168942
 31
0.0
 11
1462.78106626922
 21
10.73808715960608
 31
0.0
 11
1463.458844040054
 21
10.76449302418944
 31
0.0
 11
1464.019955435887
 21
10.9599050762728
 31
0.0
  0
SPLINE
  5
26E
330
1F
100
AcDbEntity
  8
0
  6
DASHED
 62
     4
100
AcDbSpline
210
0.0
220
0.0
230
1.0
 70
     8
 71
     3
 72
    15
 73
    11
 74
     9
 42
0.0000000001
 43
0.0000000001
 44
0.00000001
 40
0.0
 40
0.0
 40
0.0
 40
0.0
 40
0.5941637552883462
 40
1.272455726315112
 40
2.037078557398428
 40
2.88566228680842
 40
3.734245852955713
 40
4.498868388867906
 40
5.177160343943583
 40
5.771325193655409
 40
5.771325193655409
 40
5.771325193655409
 40
5.771325193655409
 10
1458.619955435887
 20
12.90303207627281
 30
0.0
 10
1458.803810955356
 20
12.97845364583696
 30
0.0
 10
1459.197554273558
 20
13.13997579730679
 30
0.0
 10
1459.897975006478
 20
13.17201811511458
 30
0.0
 10
1460.617977880712
 20
12.87883312563304
 30
0.0
 10
1461.319955235048
 20
12.45646812314383
 30
0.0
 10
1462.021932433376
 20
12.03410306186675
 30
0.0
 10
1462.741935107057
 20
11.74091799717643
 30
0.0
 10
1463.442356170402
 20
11.77296041786491
 30
0.0
 10
1463.83609965561
 20
11.93448315720657
 30
0.0
 10
1464.019955435887
 20
12.00990507627282
 30
0.0
 11
1458.619955435887
 21
12.90303207627281
 31
0.0
 11
1459.181065977554
 21
13.09844325335612
 31
0.0
 11
1459.85884376922
 21
13.12484899293942
 31
0.0
 11
1460.58106620672
 21
12.8737656908561
 31
0.0
 11
1461.319955269221
 21
12.45646807627279
 31
0.0
 11
1462.05884414422
 21
12.03917046168947
 31
0.0
 11
1462.78106626922
 21
11.78808715960614
 31
0.0
 11
1463.458844040054
 21
11.81449302418947
 31
0.0
 11
1464.019955435887
 21
12.00990507627282
 31
0.0
  0
ARC
  5
26F
330
1F
100
AcDbEntity
  8
1
  6
Continuous
 62
     7
100
AcDbCircle
 10
1690.903355057019
 20
294.095220590962
 30
0.0
 40
1.5
100
AcDbArc
 50
-90.0
 51
0.0
  0
ARC
  5
270
330
1F
100
AcDbEntity
  8
1
  6
Continuous
 62
     7
100
AcDbCircle
 10
1689.303355057019
 20
295.6952205909619
 30
0.0
 40
1.5
100
AcDbArc
 50
-90.0
 51
0.0
  0
ARC
  5
271
330
1F
100
AcDbEntity
  8
1
  6
Continuous
 62
     7
100
AcDbCircle
 10
1689.303355057019
 20
180.1952205909619
 30
0.0
 40
1.5
100
AcDbArc
 50
0.0
 51
90.0
  0
ARC
  5
272
330
1F
100
AcDbEntity
  8
1
  6
Continuous
 62
     7
100
AcDbCircle
 10
1690.903355057019
 20
181.7952205909618
 30
0.0
 40
1.5
100
AcDbArc
 50
0.0
 51
90.0
  0
ARC
  5
273
330
1F
100
AcDbEntity
  8
1
  6
Continuous
 62
     7
100
AcDbCircle
 10
1407.069955435887
 20
83.0270630762731
 30
0.0
 40
2.0
100
AcDbArc
 50
90.0
 51
101.5369590328188
  0
ARC
  5
274
330
1F
100
AcDbEntity
  8
1
  6
Continuous
 62
     7
100
AcDbCircle
 10
1407.669955435887
 20
82.4270630762729
 30
0.0
 40
1.0
100
AcDbArc
 50
90.0
 51
180.0
  0
ARC
  5
275
330
1F
100
AcDbEntity
  8
1
  6
Continuous
 62
     7
100
AcDbCircle
 10
1514.969955435887
 20
82.4270630762729
 30
0.0
 40
1.0
100
AcDbArc
 50
0.0
 51
90.0
  0
ARC
  5
276
330
1F
100
AcDbEntity
  8
1
  6
Continuous
 62
     7
100
AcDbCircle
 10
1515.569955435887
 20
83.0270630762731
 30
0.0
 40
1.999999999999845
100
AcDbArc
 50
78.4630409671876
 51
90.0
  0
LINE
  5
277
330
1F
100
AcDbEntity
  8
1
 62
     2
100
AcDbLine
 10
1591.503355057019
 20
-3.22016742679301
 30
0.0
 11
1589.364868274043
 21
-9.49134514449091
 31
0.0
  0
LINE
  5
278
330
1F
100
AcDbEntity
  8
1
 62
     2
100
AcDbLine
 10
1591.503355057019
 20
-3.22016742679301
 30
0.0
 11
1586.515782318455
 21
-7.58192325047814
 31
0.0
  0
LEADER
  5
279
330
1F
100
AcDbEntity
  8
1
  6
Continuous
 62
     2
100
AcDbLeader
  3
Standard
 71
     0
 76
     3
 10
1591.503355057019
 20
-3.22016742679301
 30
0.0
 10
1572.089429718734
 20
-32.1880671861699
 30
0.0
 10
1489.220147811494
 20
-32.1880671861699
 30
0.0
  0
MTEXT
  5
27A
330
1F
100
AcDbEntity
  8
1
 62
     2
100
AcDbMText
 10
1275.307229852607
 20
-155.1884996644307
 30
0.0
 40
6.4
 41
0.0
 71
     7
 72
     1
  1
型式表示等削除
  7
CONVERTER_3
 73
     1
 44
0.60024009603842
  0
TEXT
  5
27B
330
1F
100
AcDbEntity
  8
1
 62
     2
100
AcDbText
 10
1250.79405885126
 20
-154.848583736381
 30
0.0
 40
6.4
  1
1
 41
0.9
  7
CONVERTER_1
100
AcDbText
  0
MTEXT
  5
27C
330
1F
100
AcDbEntity
  8
1
 62
     2
100
AcDbMText
 10
1620.586451309271
 20
-159.5310849736175
 30
0.0
 40
6.4
 41
0.0
 71
     9
 72
     1
  1
2011.8.26
  7
CONVERTER_1
 73
     1
 44
0.60024009603842
  0
MTEXT
  5
27D
330
1F
100
AcDbEntity
  8
1
 62
     2
100
AcDbMText
 10
1570.089429718744
 20
-29.8472683654709
 30
0.0
 40
6.4
 41
0.0
 71
     9
 72
     1
  1
カバー（カバー有りの場合）
  7
CONVERTER_3
 73
     1
 44
0.60024009603842
  0
TEXT
  5
27E
330
1F
100
AcDbEntity
  8
1
 62
     2
100
AcDbText
 10
1872.625596799234
 20
-155.2014436322911
 30
0.0
 40
6.4
  1
本体組立図　　間欠運転タイプ
 41
0.89
  7
CONVERTER_3
100
AcDbText
  0
MTEXT
  5
27F
330
1F
100
AcDbEntity
  8
1
 62
     2
100
AcDbMText
 10
1766.453489625201
 20
-155.5043807900033
 30
0.0
 40
8.0
 41
0.0
 71
     9
 72
     1
  1
N1シリーズ
  7
CONVERTER_3
 73
     1
 44
0.60024009603842
  0
MTEXT
  5
280
330
1F
100
AcDbEntity
  8
1
 62
     2
100
AcDbMText
 10
1755.926430379999
 20
-174.7277063681985
 30
0.0
 40
8.0
 41
0.0
 71
     9
 72
     1
  1
GSL
  7
CONVERTER_1
 73
     1
 44
0.60024009603842
  0
MTEXT
  5
281
330
1F
100
AcDbEntity
  8
1
 62
     2
100
AcDbMText
 10
2016.347488118652
 20
-175.1965718507714
 30
0.0
 40
6.4
 41
0.0
 71
     9
 72
     1
  1
W_GSL_S_030_1
  7
CONVERTER_1
 73
     1
 44
0.60024009603842
  0
TEXT
  5
282
330
1F
100
AcDbEntity
  8
1
 62
     2
100
AcDbText
 10
1850.279330818089
 20
-97.33579037970691
 30
0.0
 40
6.4
  1
本コンベヤは、必ず固定して御使用下さい
 41
0.89
  7
CONVERTER_3
100
AcDbText
  0
DIMENSION
  5
295
330
1F
100
AcDbEntity
  8
1
100
AcDbDimension
  2
*D02
 10
1715.503355057019
 20
117.267787437825
 30
0.0
 11
1658.083627788632
 21
122.467787437825
 31
0.0
 70
    32
  1
<>
 71
     5
 42
-1.0
 53
0.00013888888889
  3
ME10_DIM_0
100
AcDbAlignedDimension
 13
1595.503355057019
 23
69.82706307627299
 33
0.0
 14
1715.503355057019
 24
72.0270630762729
 34
0.0
100
AcDbRotatedDimension
  0
DIMENSION
  5
2A2
330
1F
100
AcDbEntity
  8
1
100
AcDbDimension
  2
*D14
 10
1754.191278166993
 20
296.0452205909619
 30
0.0
 11
1748.511278166993
 21
236.1640715249562
 31
0.0
 70
    32
  1
116
 71
     5
 42
-1.0
 53
90.0
  3
ME10_DIM_1
100
AcDbAlignedDimension
 13
1715.503355057019
 23
179.845220590962
 33
0.0
 14
1715.503355057019
 24
296.0452205909618
 34
0.0
 50
90.0
100
AcDbRotatedDimension
  0
DIMENSION
  5
2AF
330
1F
100
AcDbEntity
  8
1
100
AcDbDimension
  2
*D25
 10
1735.816141935853
 20
282.9452205909619
 30
0.0
 11
1730.136141935853
 21
238.436999695922
 31
0.0
 70
    32
  1
<>
 71
     5
 42
-1.0
 53
90.0
  3
ME10_DIM_2
100
AcDbAlignedDimension
 13
1715.803355057019
 23
192.9452205909619
 33
0.0
 14
1715.803355057019
 24
282.9452205909619
 34
0.0
 50
90.0
100
AcDbRotatedDimension
  0
DIMENSION
  5
2BC
330
1F
100
AcDbEntity
  8
1
100
AcDbDimension
  2
*D36
 10
1772.091201705265
 20
-14.57293692372731
 30
0.0
 11
1766.891201705265
 21
34.748526852514
 31
0.0
 70
    32
  1
<>
 71
     5
 42
-1.0
 53
90.0
  3
ME10_DIM_3
100
AcDbAlignedDimension
 13
1709.00335505701
 23
85.4270630762729
 33
0.0
 14
1712.503355057019
 24
-14.5729369237273
 34
0.0
 50
90.0
100
AcDbRotatedDimension
  0
DIMENSION
  5
2C9
330
1F
100
AcDbEntity
  8
1
100
AcDbDimension
  2
*D47
 10
1742.462426642481
 20
40.42706307627271
 30
0.0
 11
1737.262426642481
 21
20.090080242505
 31
0.0
 70
    32
  1
<>
 71
     5
 42
-1.0
 53
90.0
  3
ME10_DIM_4
100
AcDbAlignedDimension
 13
1705.003355057019
 23
0.4270630762727
 33
0.0
 14
1705.003355057019
 24
40.4270630762727
 34
0.0
 50
90.0
100
AcDbRotatedDimension
  0
DIMENSION
  5
2D8
330
1F
100
AcDbEntity
  8
1
100
AcDbDimension
  2
*D58
 10
1742.462426642481
 20
0.4270630762727
 30
0.0
 11
1737.262426642481
 21
-7.0729369237273
 31
0.0
 70
    32
  1
<>
 71
     5
 42
-1.0
 53
90.0
  3
ME10_DIM_5
100
AcDbAlignedDimension
 13
1712.503355057019
 23
-14.5729369237273
 33
0.0
 14
1705.003355057019
 24
0.4270630762727
 34
0.0
 50
90.0
100
AcDbRotatedDimension
  0
DIMENSION
  5
2E7
330
1F
100
AcDbEntity
  8
1
100
AcDbDimension
  2
*D69
 10
1595.503355057019
 20
-46.96451595221731
 30
0.0
 11
1602.115597397714
 21
-41.7645159522173
 31
0.0
 70
    32
  1
<>
 71
     5
 42
-1.0
 53
0.00013888888889
  3
ME10_DIM_6
100
AcDbAlignedDimension
 13
1610.503355057019
 23
-4.0729369237273
 33
0.0
 14
1595.503355057019
 24
-11.5729369237273
 34
0.0
100
AcDbRotatedDimension
  0
DIMENSION
  5
2F6
330
1F
100
AcDbEntity
  8
1
100
AcDbDimension
  2
*D710
 10
1700.503355057019
 20
-46.96451595221731
 30
0.0
 11
1708.003355057019
 21
-41.7645159522173
 31
0.0
 70
    32
  1
<>
 71
     5
 42
-1.0
 53
0.00013888888889
  3
ME10_DIM_7
100
AcDbAlignedDimension
 13
1715.503355057019
 23
-11.5729369237273
 33
0.0
 14
1700.503355057019
 24
-4.0729369237273
 34
0.0
100
AcDbRotatedDimension
  0
DIMENSION
  5
303
330
1F
100
AcDbEntity
  8
1
100
AcDbDimension
  2
*D811
 10
1610.503355057019
 20
-46.96451595221731
 30
0.0
 11
1655.503355057019
 21
-41.28451595221731
 31
0.0
 70
    32
  1
<>
 71
     5
 42
-1.0
 53
0.00013888888889
  3
ME10_DIM_8
100
AcDbAlignedDimension
 13
1700.503355057019
 23
-4.0729369237273
 33
0.0
 14
1610.503355057019
 24
-4.0729369237273
 34
0.0
100
AcDbRotatedDimension
  0
INSERT
  5
30C
330
1F
100
AcDbEntity
  8
1
100
AcDbBlockReference
  2
*D912
 10
0.0
 20
0.0
 30
0.0
  0
INSERT
  5
315
330
1F
100
AcDbEntity
  8
1
100
AcDbBlockReference
  2
*D1013
 10
0.0
 20
0.0
 30
0.0
  0
INSERT
  5
31E
330
1F
100
AcDbEntity
  8
1
100
AcDbBlockReference
  2
*D1114
 10
0.0
 20
0.0
 30
0.0
  0
ENDSEC
  0
SECTION
  2
OBJECTS
  0
DICTIONARY
  5
C
330
0
100
AcDbDictionary
281
     1
  3
ACAD_GROUP
350
D
  3
ACAD_LAYOUT
350
1A
  3
ACAD_MLINESTYLE
350
17
  3
ACAD_PLOTSETTINGS
350
19
  3
ACAD_PLOTSTYLENAME
350
E
  0
DICTIONARY
  5
D
102
{ACAD_REACTORS
330
C
102
}
330
C
100
AcDbDictionary
281
     1
  0
DICTIONARY
  5
1A
102
{ACAD_REACTORS
330
C
102
}
330
C
100
AcDbDictionary
281
     1
  3
Layout1
350
1E
  3
Layout2
350
26
  3
Model
350
22
  0
DICTIONARY
  5
17
102
{ACAD_REACTORS
330
C
102
}
330
C
100
AcDbDictionary
281
     1
  3
Standard
350
18
  0
DICTIONARY
  5
19
102
{ACAD_REACTORS
330
C
102
}
330
C
100
AcDbDictionary
281
     1
  0
ACDBDICTIONARYWDFLT
  5
E
102
{ACAD_REACTORS
330
C
102
}
330
C
100
AcDbDictionary
281
     1
  3
Normal
350
F
100
AcDbDictionaryWithDefault
340
F
  0
LAYOUT
  5
1E
102
{ACAD_REACTORS
330
1A
102
}
330
1A
100
AcDbPlotSettings
  1

  2

  4

  6

 40
0.0
 41
0.0
 42
0.0
 43
0.0
 44
0.0
 45
0.0
 46
0.0
 47
0.0
 48
0.0
 49
0.0
140
0.0
141
0.0
142
1.0
143
1.0
 70
   688
 72
     0
 73
     0
 74
     5
  7

 75
    16
147
1.0
148
0.0
149
0.0
100
AcDbLayout
  1
Layout1
 70
     1
 71
     1
 10
0.0
 20
0.0
 11
0.0
 21
0.0
 12
0.0
 22
0.0
 32
0.0
 14
0.0
 24
0.0
 34
0.0
 15
0.0
 25
0.0
 35
0.0
146
0.0
 13
0.0
 23
0.0
 33
0.0
 16
1.0
 26
0.0
 36
0.0
 17
0.0
 27
1.0
 37
0.0
 76
     0
330
1B
  0
LAYOUT
  5
26
102
{ACAD_REACTORS
330
1A
102
}
330
1A
100
AcDbPlotSettings
  1

  2

  4

  6

 40
0.0
 41
0.0
 42
0.0
 43
0.0
 44
0.0
 45
0.0
 46
0.0
 47
0.0
 48
0.0
 49
0.0
140
0.0
141
0.0
142
1.0
143
1.0
 70
   688
 72
     0
 73
     0
 74
     5
  7

 75
    16
147
1.0
148
0.0
149
0.0
100
AcDbLayout
  1
Layout2
 70
     1
 71
     2
 10
0.0
 20
0.0
 11
0.0
 21
0.0
 12
0.0
 22
0.0
 32
0.0
 14
0.0
 24
0.0
 34
0.0
 15
0.0
 25
0.0
 35
0.0
146
0.0
 13
0.0
 23
0.0
 33
0.0
 16
1.0
 26
0.0
 36
0.0
 17
0.0
 27
1.0
 37
0.0
 76
     0
330
23
  0
LAYOUT
  5
22
102
{ACAD_REACTORS
330
1A
102
}
330
1A
100
AcDbPlotSettings
  1

  2

  4

  6

 40
0.0
 41
0.0
 42
0.0
 43
0.0
 44
0.0
 45
0.0
 46
0.0
 47
0.0
 48
0.0
 49
0.0
140
0.0
141
0.0
142
1.0
143
1.0
 70
  1712
 72
     0
 73
     0
 74
     0
  7

 75
     0
147
1.0
148
0.0
149
0.0
100
AcDbLayout
  1
Model
 70
     1
 71
     0
 10
0.0
 20
0.0
 11
0.0
 21
0.0
 12
0.0
 22
0.0
 32
0.0
 14
1240.09548385845
 24
-185.7810313571914
 34
0.0
 15
2028.09548385845
 25
354.73127528472
 35
0.0
146
0.0
 13
0.0
 23
0.0
 33
0.0
 16
1.0
 26
0.0
 36
0.0
 17
0.0
 27
1.0
 37
0.0
 76
     0
330
1F
  0
MLINESTYLE
  5
18
102
{ACAD_REACTORS
330
17
102
}
330
17
100
AcDbMlineStyle
  2
Standard
 70
     0
  3

 62
   256
 51
90.0
 52
90.0
 71
     2
 49
0.5
 62
   256
  6
BYLAYER
 49
-0.5
 62
   256
  6
BYLAYER
  0
ACDBPLACEHOLDER
  5
F
102
{ACAD_REACTORS
330
E
102
}
330
E
  0
ENDSEC
  0
EOF
