  0
SECTION
  2
HEADER
  9
$ACADVER
  1
AC1015
  9
$ACADMAINTVER
 70
     6
  9
$DWGCODEPAGE
  3
ANSI_932
  9
$INSBASE
 10
0.0
 20
0.0
 30
0.0
  9
$EXTMIN
 10
-1182.0
 20
-810.7684599628672
 30
0.0
  9
$EXTMAX
 10
1182.0
 20
810.7684599628672
 30
0.0
  9
$LIMMIN
 10
-420.0
 20
-297.0
  9
$LIMMAX
 10
420.0
 20
297.0
  9
$ORTHOMODE
 70
     0
  9
$REGENMODE
 70
     1
  9
$FILLMODE
 70
     1
  9
$QTEXTMODE
 70
     0
  9
$MIRRTEXT
 70
     1
  9
$LTSCALE
 40
0.5
  9
$ATTMODE
 70
     1
  9
$TEXTSIZE
 40
0.2
  9
$TRACEWID
 40
0.05
  9
$TEXTSTYLE
  7
Standard
  9
$CLAYER
  8
0
  9
$CELTYPE
  6
ByLayer
  9
$CECOLOR
 62
   256
  9
$CELTSCALE
 40
1.0
  9
$DISPSILH
 70
     0
  9
$DIMSCALE
 40
1.0
  9
$DIMASZ
 40
6.000003814697266
  9
$DIMEXO
 40
1.0
  9
$DIMDLI
 40
10.0
  9
$DIMRND
 40
0.0
  9
$DIMDLE
 40
0.0
  9
$DIMEXE
 40
1.0
  9
$DIMTP
 40
0.0
  9
$DIMTM
 40
0.0
  9
$DIMTXT
 40
8.0
  9
$DIMCEN
 40
0.0
  9
$DIMTSZ
 40
0.0
  9
$DIMTOL
 70
     0
  9
$DIMLIM
 70
     0
  9
$DIMTIH
 70
     0
  9
$DIMTOH
 70
     0
  9
$DIMSE1
 70
     0
  9
$DIMSE2
 70
     0
  9
$DIMTAD
 70
     1
  9
$DIMZIN
 70
     8
  9
$DIMBLK
  1

  9
$DIMASO
 70
     1
  9
$DIMSHO
 70
     1
  9
$DIMPOST
  1

  9
$DIMAPOST
  1

  9
$DIMALT
 70
     0
  9
$DIMALTD
 70
     2
  9
$DIMALTF
 40
0.0393700787401575
  9
$DIMLFAC
 40
1.0
  9
$DIMTOFL
 70
     0
  9
$DIMTVP
 40
0.0
  9
$DIMTIX
 70
     0
  9
$DIMSOXD
 70
     0
  9
$DIMSAH
 70
     0
  9
$DIMBLK1
  1

  9
$DIMBLK2
  1

  9
$DIMSTYLE
  2
Standard
  9
$DIMCLRD
 70
     0
  9
$DIMCLRE
 70
     0
  9
$DIMCLRT
 70
     0
  9
$DIMTFAC
 40
0.65
  9
$DIMGAP
 40
0.09
  9
$DIMJUST
 70
     0
  9
$DIMSD1
 70
     0
  9
$DIMSD2
 70
     0
  9
$DIMTOLJ
 70
     0
  9
$DIMTZIN
 70
     0
  9
$DIMALTZ
 70
     0
  9
$DIMALTTZ
 70
     0
  9
$DIMUPT
 70
     0
  9
$DIMDEC
 70
     8
  9
$DIMTDEC
 70
     8
  9
$DIMALTU
 70
     2
  9
$DIMALTTD
 70
     8
  9
$DIMTXSTY
  7
Standard
  9
$DIMAUNIT
 70
     0
  9
$DIMADEC
 70
     8
  9
$DIMALTRND
 40
0.0
  9
$DIMAZIN
 70
     2
  9
$DIMDSEP
 70
    46
  9
$DIMATFIT
 70
     3
  9
$DIMFRAC
 70
     0
  9
$DIMLDRBLK
  1

  9
$DIMLUNIT
 70
     2
  9
$DIMLWD
 70
    -2
  9
$DIMLWE
 70
    -2
  9
$DIMTMOVE
 70
     0
  9
$LUNITS
 70
     2
  9
$LUPREC
 70
     4
  9
$SKETCHINC
 40
0.1
  9
$FILLETRAD
 40
0.5
  9
$AUNITS
 70
     0
  9
$AUPREC
 70
     0
  9
$MENU
  1
.
  9
$ELEVATION
 40
0.0
  9
$PELEVATION
 40
0.0
  9
$THICKNESS
 40
0.0
  9
$LIMCHECK
 70
     0
  9
$CHAMFERA
 40
0.0
  9
$CHAMFERB
 40
0.0
  9
$CHAMFERC
 40
0.0
  9
$CHAMFERD
 40
0.0
  9
$SKPOLY
 70
     0
  9
$TDCREATE
 40
2458456.560881979
  9
$TDUCREATE
 40
2458456.185881979
  9
$TDUPDATE
 40
2458456.560882581
  9
$TDUUPDATE
 40
2458456.185882581
  9
$TDINDWG
 40
0.0000000116
  9
$TDUSRTIMER
 40
0.0000000116
  9
$USRTIMER
 70
     1
  9
$ANGBASE
 50
0.0
  9
$ANGDIR
 70
     0
  9
$PDMODE
 70
     0
  9
$PDSIZE
 40
1.0
  9
$PLINEWID
 40
0.0
  9
$SPLFRAME
 70
     0
  9
$SPLINETYPE
 70
     6
  9
$SPLINESEGS
 70
     8
  9
$HANDSEED
  5
427
  9
$SURFTAB1
 70
     6
  9
$SURFTAB2
 70
     6
  9
$SURFTYPE
 70
     6
  9
$SURFU
 70
     6
  9
$SURFV
 70
     6
  9
$UCSBASE
  2

  9
$UCSNAME
  2

  9
$UCSORG
 10
0.0
 20
0.0
 30
0.0
  9
$UCSXDIR
 10
1.0
 20
0.0
 30
0.0
  9
$UCSYDIR
 10
0.0
 20
1.0
 30
0.0
  9
$UCSORTHOREF
  2

  9
$UCSORTHOVIEW
 70
     0
  9
$UCSORGTOP
 10
0.0
 20
0.0
 30
0.0
  9
$UCSORGBOTTOM
 10
0.0
 20
0.0
 30
0.0
  9
$UCSORGLEFT
 10
0.0
 20
0.0
 30
0.0
  9
$UCSORGRIGHT
 10
0.0
 20
0.0
 30
0.0
  9
$UCSORGFRONT
 10
0.0
 20
0.0
 30
0.0
  9
$UCSORGBACK
 10
0.0
 20
0.0
 30
0.0
  9
$PUCSBASE
  2

  9
$PUCSNAME
  2

  9
$PUCSORG
 10
0.0
 20
0.0
 30
0.0
  9
$PUCSXDIR
 10
1.0
 20
0.0
 30
0.0
  9
$PUCSYDIR
 10
0.0
 20
1.0
 30
0.0
  9
$PUCSORTHOREF
  2

  9
$PUCSORTHOVIEW
 70
     0
  9
$PUCSORGTOP
 10
0.0
 20
0.0
 30
0.0
  9
$PUCSORGBOTTOM
 10
0.0
 20
0.0
 30
0.0
  9
$PUCSORGLEFT
 10
0.0
 20
0.0
 30
0.0
  9
$PUCSORGRIGHT
 10
0.0
 20
0.0
 30
0.0
  9
$PUCSORGFRONT
 10
0.0
 20
0.0
 30
0.0
  9
$PUCSORGBACK
 10
0.0
 20
0.0
 30
0.0
  9
$USERI1
 70
     0
  9
$USERI2
 70
     0
  9
$USERI3
 70
     0
  9
$USERI4
 70
     0
  9
$USERI5
 70
     0
  9
$USERR1
 40
0.0
  9
$USERR2
 40
0.0
  9
$USERR3
 40
0.0
  9
$USERR4
 40
0.0
  9
$USERR5
 40
0.0
  9
$WORLDVIEW
 70
     1
  9
$SHADEDGE
 70
     3
  9
$SHADEDIF
 70
    70
  9
$TILEMODE
 70
     1
  9
$MAXACTVP
 70
    64
  9
$PINSBASE
 10
0.0
 20
0.0
 30
0.0
  9
$PLIMCHECK
 70
     0
  9
$PEXTMIN
 10
1.000000000000000E+20
 20
1.000000000000000E+20
 30
1.000000000000000E+20
  9
$PEXTMAX
 10
-1.000000000000000E+20
 20
-1.000000000000000E+20
 30
-1.000000000000000E+20
  9
$PLIMMIN
 10
0.0
 20
0.0
  9
$PLIMMAX
 10
12.0
 20
9.0
  9
$UNITMODE
 70
     0
  9
$VISRETAIN
 70
     0
  9
$PLINEGEN
 70
     1
  9
$PSLTSCALE
 70
     0
  9
$TREEDEPTH
 70
  3020
  9
$CMLSTYLE
  2
Standard
  9
$CMLJUST
 70
     0
  9
$CMLSCALE
 40
1.0
  9
$PROXYGRAPHICS
 70
     0
  9
$MEASUREMENT
 70
     1
  9
$CELWEIGHT
370
    -1
  9
$ENDCAPS
280
     0
  9
$JOINSTYLE
280
     0
  9
$LWDISPLAY
290
     1
  9
$INSUNITS
 70
     4
  9
$HYPERLINKBASE
  1

  9
$STYLESHEET
  1

  9
$XEDIT
290
     1
  9
$CEPSNTYPE
380
     0
  9
$PSTYLEMODE
290
     1
  9
$FINGERPRINTGUID
  2
{F7A4A68A-A781-4FE2-BEF8-7AF0ADA8F71F}
  9
$VERSIONGUID
  2
{FAEB1C32-E019-11D5-929B-00C0DF256EC4}
  9
$EXTNAMES
290
     1
  9
$PSVPSCALE
 40
0.0
  9
$OLESTARTUP
290
     0
  0
ENDSEC
  0
SECTION
  2
CLASSES
  0
CLASS
  1
ACDBDICTIONARYWDFLT
  2
AcDbDictionaryWithDefault
  3
ObjectDBX Classes
 90
        0
280
     0
281
     0
  0
CLASS
  1
VISUALSTYLE
  2
AcDbVisualStyle
  3
ObjectDBX Classes
 90
     4095
280
     0
281
     0
  0
CLASS
  1
MATERIAL
  2
AcDbMaterial
  3
ObjectDBX Classes
 90
     1153
280
     0
281
     0
  0
CLASS
  1
SCALE
  2
AcDbScale
  3
ObjectDBX Classes
 90
     1153
280
     0
281
     0
  0
CLASS
  1
SUN
  2
AcDbSun
  3
SCENEOE
 90
     1153
280
     0
281
     0
  0
CLASS
  1
DICTIONARYVAR
  2
AcDbDictionaryVar
  3
ObjectDBX Classes
 90
        0
280
     0
281
     0
  0
CLASS
  1
ACDBPLACEHOLDER
  2
AcDbPlaceHolder
  3
ObjectDBX Classes
 90
        0
280
     0
281
     0
  0
CLASS
  1
LAYOUT
  2
AcDbLayout
  3
ObjectDBX Classes
 90
        0
280
     0
281
     0
  0
ENDSEC
  0
SECTION
  2
TABLES
  0
TABLE
  2
VPORT
  5
8
102
{ACAD_XDICTIONARY
360
3EC
102
}
330
0
100
AcDbSymbolTable
 70
     1
  0
VPORT
  5
29
330
8
100
AcDbSymbolTableRecord
100
AcDbViewportTableRecord
  2
*Active
 70
     0
 10
0.0
 20
0.0
 11
1.0
 21
1.0
 12
0.0
 22
0.0
 13
0.0
 23
0.0
 14
0.5
 24
0.5
 15
0.5
 25
0.5
 16
0.0
 26
0.0
 36
1.0
 17
-0.0000000000000036
 27
0.0
 37
0.0
 40
551.3225527747496
 41
1.457876148825689
 42
50.0
 43
0.0
 44
0.0
 50
0.0
 51
0.0
 71
     0
 72
  1000
 73
     1
 74
     1
 75
     0
 76
     0
 77
     0
 78
     0
281
     0
 65
     1
110
0.0
120
0.0
130
0.0
111
1.0
121
0.0
131
0.0
112
0.0
122
1.0
132
0.0
 79
     0
146
0.0
  0
ENDTAB
  0
TABLE
  2
LTYPE
  5
5
330
0
100
AcDbSymbolTable
 70
    67
  0
LTYPE
  5
14
330
5
100
AcDbSymbolTableRecord
100
AcDbLinetypeTableRecord
  2
ByBlock
 70
     0
  3

 72
    65
 73
     0
 40
0.0
  0
LTYPE
  5
15
330
5
100
AcDbSymbolTableRecord
100
AcDbLinetypeTableRecord
  2
ByLayer
 70
     0
  3

 72
    65
 73
     0
 40
0.0
  0
LTYPE
  5
16
330
5
100
AcDbSymbolTableRecord
100
AcDbLinetypeTableRecord
  2
Continuous
 70
     0
  3
Solid line
 72
    65
 73
     0
 40
0.0
  0
LTYPE
  5
6B
330
5
100
AcDbSymbolTableRecord
100
AcDbLinetypeTableRecord
  2
HIDDENX2
 70
     0
  3
Hidden (2x) ____ ____ ____ ____ ____ ____ ____ 
 72
    65
 73
     2
 40
19.05
 49
12.7
 74
     0
 49
-6.35
 74
     0
  0
LTYPE
  5
6C
330
5
100
AcDbSymbolTableRecord
100
AcDbLinetypeTableRecord
  2
HIDDEN
 70
     0
  3
Hidden __ __ __ __ __ __ __ __ __ __ __ __ __ __
 72
    65
 73
     2
 40
9.524999999999999
 49
6.35
 74
     0
 49
-3.175
 74
     0
  0
LTYPE
  5
6D
330
5
100
AcDbSymbolTableRecord
100
AcDbLinetypeTableRecord
  2
HIDDEN2
 70
     0
  3
Hidden (.5x) _ _ _ _ _ _ _ _ _ _ _ _ _ _ _ _ _ 
 72
    65
 73
     2
 40
4.762499999999999
 49
3.175
 74
     0
 49
-1.5875
 74
     0
  0
LTYPE
  5
6E
330
5
100
AcDbSymbolTableRecord
100
AcDbLinetypeTableRecord
  2
DASHED
 70
     0
  3
Dashed __ __ __ __ __ __ __ __ __ __ __ __ __ _
 72
    65
 73
     2
 40
19.05
 49
12.7
 74
     0
 49
-6.35
 74
     0
  0
LTYPE
  5
6F
330
5
100
AcDbSymbolTableRecord
100
AcDbLinetypeTableRecord
  2
DASHED2
 70
     0
  3
Dashed (.5x) _ _ _ _ _ _ _ _ _ _ _ _ _ _ _ _ _ 
 72
    65
 73
     2
 40
9.524999999999999
 49
6.35
 74
     0
 49
-3.175
 74
     0
  0
LTYPE
  5
70
330
5
100
AcDbSymbolTableRecord
100
AcDbLinetypeTableRecord
  2
DASHEDX2
 70
     0
  3
Dashed (2x) ____  ____  ____  ____  ____  ___
 72
    65
 73
     2
 40
38.09999999999999
 49
25.4
 74
     0
 49
-12.7
 74
     0
  0
LTYPE
  5
71
330
5
100
AcDbSymbolTableRecord
100
AcDbLinetypeTableRecord
  2
DOTX2
 70
     0
  3
Dot (2x) .  .  .  .  .  .  .  .  .  .  .  .  .  .
 72
    65
 73
     2
 40
12.7
 49
0.0
 74
     0
 49
-12.7
 74
     0
  0
LTYPE
  5
72
330
5
100
AcDbSymbolTableRecord
100
AcDbLinetypeTableRecord
  2
DOT
 70
     0
  3
Dot . . . . . . . . . . . . . . . . . . . . . . . .
 72
    65
 73
     2
 40
6.35
 49
0.0
 74
     0
 49
-6.35
 74
     0
  0
LTYPE
  5
73
330
5
100
AcDbSymbolTableRecord
100
AcDbLinetypeTableRecord
  2
DOT2
 70
     0
  3
Dot (.5x) ........................................
 72
    65
 73
     2
 40
3.175
 49
0.0
 74
     0
 49
-3.175
 74
     0
  0
LTYPE
  5
74
330
5
100
AcDbSymbolTableRecord
100
AcDbLinetypeTableRecord
  2
CENTERX2
 70
     0
  3
Center (2x) ________  __  ________  __  _____
 72
    65
 73
     4
 40
101.6
 49
63.5
 74
     0
 49
-12.7
 74
     0
 49
12.7
 74
     0
 49
-12.7
 74
     0
  0
LTYPE
  5
75
330
5
100
AcDbSymbolTableRecord
100
AcDbLinetypeTableRecord
  2
CENTER
 70
     0
  3
Center ____ _ ____ _ ____ _ ____ _ ____ _ ____
 72
    65
 73
     4
 40
50.8
 49
31.75
 74
     0
 49
-6.35
 74
     0
 49
6.35
 74
     0
 49
-6.35
 74
     0
  0
LTYPE
  5
76
330
5
100
AcDbSymbolTableRecord
100
AcDbLinetypeTableRecord
  2
CENTER2
 70
     0
  3
Center (.5x) ___ _ ___ _ ___ _ ___ _ ___ _ ___
 72
    65
 73
     4
 40
28.575
 49
19.05
 74
     0
 49
-3.175
 74
     0
 49
3.175
 74
     0
 49
-3.175
 74
     0
  0
LTYPE
  5
77
330
5
100
AcDbSymbolTableRecord
100
AcDbLinetypeTableRecord
  2
DASHDOTX2
 70
     0
  3
Dash dot (2x) ____  .  ____  .  ____  .  ___
 72
    65
 73
     4
 40
50.8
 49
25.4
 74
     0
 49
-12.7
 74
     0
 49
0.0
 74
     0
 49
-12.7
 74
     0
  0
LTYPE
  5
78
330
5
100
AcDbSymbolTableRecord
100
AcDbLinetypeTableRecord
  2
DASHDOT
 70
     0
  3
Dash dot __ . __ . __ . __ . __ . __ . __ . __
 72
    65
 73
     4
 40
25.4
 49
12.7
 74
     0
 49
-6.35
 74
     0
 49
0.0
 74
     0
 49
-6.35
 74
     0
  0
LTYPE
  5
79
330
5
100
AcDbSymbolTableRecord
100
AcDbLinetypeTableRecord
  2
DASHDOT2
 70
     0
  3
Dash dot (.5x) _._._._._._._._._._._._._._._.
 72
    65
 73
     4
 40
12.7
 49
6.35
 74
     0
 49
-3.175
 74
     0
 49
0.0
 74
     0
 49
-3.175
 74
     0
  0
LTYPE
  5
7A
330
5
100
AcDbSymbolTableRecord
100
AcDbLinetypeTableRecord
  2
DIVIDEX2
 70
     0
  3
Divide (2x) ________  .  .  ________  .  .  _
 72
    65
 73
     6
 40
63.5
 49
25.4
 74
     0
 49
-12.7
 74
     0
 49
0.0
 74
     0
 49
-12.7
 74
     0
 49
0.0
 74
     0
 49
-12.7
 74
     0
  0
LTYPE
  5
7B
330
5
100
AcDbSymbolTableRecord
100
AcDbLinetypeTableRecord
  2
DIVIDE
 70
     0
  3
Divide ____ . . ____ . . ____ . . ____ . . ____
 72
    65
 73
     6
 40
31.75
 49
12.7
 74
     0
 49
-6.35
 74
     0
 49
0.0
 74
     0
 49
-6.35
 74
     0
 49
0.0
 74
     0
 49
-6.35
 74
     0
  0
LTYPE
  5
7C
330
5
100
AcDbSymbolTableRecord
100
AcDbLinetypeTableRecord
  2
DIVIDE2
 70
     0
  3
Divide (.5x) __..__..__..__..__..__..__..__.._
 72
    65
 73
     6
 40
15.875
 49
6.35
 74
     0
 49
-3.175
 74
     0
 49
0.0
 74
     0
 49
-3.175
 74
     0
 49
0.0
 74
     0
 49
-3.175
 74
     0
  0
LTYPE
  5
7D
330
5
100
AcDbSymbolTableRecord
100
AcDbLinetypeTableRecord
  2
BORDERX2
 70
     0
  3
Border (2x) ____  ____  .  ____  ____  .  ___
 72
    65
 73
     6
 40
88.89999999999999
 49
25.4
 74
     0
 49
-12.7
 74
     0
 49
25.4
 74
     0
 49
-12.7
 74
     0
 49
0.0
 74
     0
 49
-12.7
 74
     0
  0
LTYPE
  5
7E
330
5
100
AcDbSymbolTableRecord
100
AcDbLinetypeTableRecord
  2
BORDER
 70
     0
  3
Border __ __ . __ __ . __ __ . __ __ . __ __ .
 72
    65
 73
     6
 40
44.45
 49
12.7
 74
     0
 49
-6.35
 74
     0
 49
12.7
 74
     0
 49
-6.35
 74
     0
 49
0.0
 74
     0
 49
-6.35
 74
     0
  0
LTYPE
  5
7F
330
5
100
AcDbSymbolTableRecord
100
AcDbLinetypeTableRecord
  2
BORDER2
 70
     0
  3
Border (.5x) __.__.__.__.__.__.__.__.__.__.__.
 72
    65
 73
     6
 40
22.225
 49
6.35
 74
     0
 49
-3.175
 74
     0
 49
6.35
 74
     0
 49
-3.175
 74
     0
 49
0.0
 74
     0
 49
-3.175
 74
     0
  0
LTYPE
  5
80
330
5
100
AcDbSymbolTableRecord
100
AcDbLinetypeTableRecord
  2
PHANTOMX2
 70
     0
  3
Phantom (2x) ____________    ____    ____   _
 72
    65
 73
     6
 40
127.0
 49
63.5
 74
     0
 49
-12.7
 74
     0
 49
12.7
 74
     0
 49
-12.7
 74
     0
 49
12.7
 74
     0
 49
-12.7
 74
     0
  0
LTYPE
  5
81
330
5
100
AcDbSymbolTableRecord
100
AcDbLinetypeTableRecord
  2
PHANTOM
 70
     0
  3
Phantom ______  __  __  ______  __  __  ______ 
 72
    65
 73
     6
 40
63.5
 49
31.75
 74
     0
 49
-6.35
 74
     0
 49
6.35
 74
     0
 49
-6.35
 74
     0
 49
6.35
 74
     0
 49
-6.35
 74
     0
  0
LTYPE
  5
82
330
5
100
AcDbSymbolTableRecord
100
AcDbLinetypeTableRecord
  2
PHANTOM2
 70
     0
  3
Phantom (.5x) ___ _ _ ___ _ _ ___ _ _ ___ _ _
 72
    65
 73
     6
 40
31.75
 49
15.875
 74
     0
 49
-3.175
 74
     0
 49
3.175
 74
     0
 49
-3.175
 74
     0
 49
3.175
 74
     0
 49
-3.175
 74
     0
  0
LTYPE
  5
83
330
5
100
AcDbSymbolTableRecord
100
AcDbLinetypeTableRecord
  2
ACAD_ISO06W100
 70
     0
  3
ISO long-dash triple-dot ____ ... ____ ... ____
 72
    65
 73
     8
 40
36.0
 49
24.0
 74
     0
 49
-3.0
 74
     0
 49
0.0
 74
     0
 49
-3.0
 74
     0
 49
0.0
 74
     0
 49
-3.0
 74
     0
 49
0.0
 74
     0
 49
-3.0
 74
     0
  0
LTYPE
  5
84
330
5
100
AcDbSymbolTableRecord
100
AcDbLinetypeTableRecord
  2
ACAD_ISO13W100
 70
     0
  3
ISO double-dash double-dot __ __ . . __ __ . . _
 72
    65
 73
     8
 40
36.0
 49
12.0
 74
     0
 49
-3.0
 74
     0
 49
12.0
 74
     0
 49
-3.0
 74
     0
 49
0.0
 74
     0
 49
-3.0
 74
     0
 49
0.0
 74
     0
 49
-3.0
 74
     0
  0
LTYPE
  5
85
330
5
100
AcDbSymbolTableRecord
100
AcDbLinetypeTableRecord
  2
ACAD_ISO14W100
 70
     0
  3
ISO dash triple-dot __ . . . __ . . . __ . . . _
 72
    65
 73
     8
 40
24.0
 49
12.0
 74
     0
 49
-3.0
 74
     0
 49
0.0
 74
     0
 49
-3.0
 74
     0
 49
0.0
 74
     0
 49
-3.0
 74
     0
 49
0.0
 74
     0
 49
-3.0
 74
     0
  0
LTYPE
  5
86
330
5
100
AcDbSymbolTableRecord
100
AcDbLinetypeTableRecord
  2
ACAD_ISO02W100
 70
     0
  3
ISO dash __ __ __ __ __ __ __ __ __ __ __ __ __
 72
    65
 73
     2
 40
15.0
 49
12.0
 74
     0
 49
-3.0
 74
     0
  0
LTYPE
  5
87
330
5
100
AcDbSymbolTableRecord
100
AcDbLinetypeTableRecord
  2
ACAD_ISO03W100
 70
     0
  3
ISO dash space __    __    __    __    __    __
 72
    65
 73
     2
 40
30.0
 49
12.0
 74
     0
 49
-18.0
 74
     0
  0
LTYPE
  5
88
330
5
100
AcDbSymbolTableRecord
100
AcDbLinetypeTableRecord
  2
ACAD_ISO04W100
 70
     0
  3
ISO long-dash dot ____ . ____ . ____ . ____ . _
 72
    65
 73
     4
 40
30.0
 49
24.0
 74
     0
 49
-3.0
 74
     0
 49
0.0
 74
     0
 49
-3.0
 74
     0
  0
LTYPE
  5
89
330
5
100
AcDbSymbolTableRecord
100
AcDbLinetypeTableRecord
  2
ACAD_ISO05W100
 70
     0
  3
ISO long-dash double-dot ____ .. ____ .. ____ . 
 72
    65
 73
     6
 40
33.0
 49
24.0
 74
     0
 49
-3.0
 74
     0
 49
0.0
 74
     0
 49
-3.0
 74
     0
 49
0.0
 74
     0
 49
-3.0
 74
     0
  0
LTYPE
  5
8A
330
5
100
AcDbSymbolTableRecord
100
AcDbLinetypeTableRecord
  2
ACAD_ISO07W100
 70
     0
  3
ISO dot . . . . . . . . . . . . . . . . . . . . 
 72
    65
 73
     2
 40
3.0
 49
0.0
 74
     0
 49
-3.0
 74
     0
  0
LTYPE
  5
8B
330
5
100
AcDbSymbolTableRecord
100
AcDbLinetypeTableRecord
  2
ACAD_ISO08W100
 70
     0
  3
ISO long-dash short-dash ____ __ ____ __ ____ _
 72
    65
 73
     4
 40
36.0
 49
24.0
 74
     0
 49
-3.0
 74
     0
 49
6.0
 74
     0
 49
-3.0
 74
     0
  0
LTYPE
  5
8C
330
5
100
AcDbSymbolTableRecord
100
AcDbLinetypeTableRecord
  2
ACAD_ISO09W100
 70
     0
  3
ISO long-dash double-short-dash ____ __ __ ____
 72
    65
 73
     6
 40
45.0
 49
24.0
 74
     0
 49
-3.0
 74
     0
 49
6.0
 74
     0
 49
-3.0
 74
     0
 49
6.0
 74
     0
 49
-3.0
 74
     0
  0
LTYPE
  5
8D
330
5
100
AcDbSymbolTableRecord
100
AcDbLinetypeTableRecord
  2
ACAD_ISO10W100
 70
     0
  3
ISO dash dot __ . __ . __ . __ . __ . __ . __ . 
 72
    65
 73
     4
 40
18.0
 49
12.0
 74
     0
 49
-3.0
 74
     0
 49
0.0
 74
     0
 49
-3.0
 74
     0
  0
LTYPE
  5
8E
330
5
100
AcDbSymbolTableRecord
100
AcDbLinetypeTableRecord
  2
ACAD_ISO11W100
 70
     0
  3
ISO double-dash dot __ __ . __ __ . __ __ . __ _
 72
    65
 73
     6
 40
33.0
 49
12.0
 74
     0
 49
-3.0
 74
     0
 49
12.0
 74
     0
 49
-3.0
 74
     0
 49
0.0
 74
     0
 49
-3.0
 74
     0
  0
LTYPE
  5
8F
330
5
100
AcDbSymbolTableRecord
100
AcDbLinetypeTableRecord
  2
ACAD_ISO12W100
 70
     0
  3
ISO dash double-dot __ . . __ . . __ . . __ . . 
 72
    65
 73
     6
 40
21.0
 49
12.0
 74
     0
 49
-3.0
 74
     0
 49
0.0
 74
     0
 49
-3.0
 74
     0
 49
0.0
 74
     0
 49
-3.0
 74
     0
  0
LTYPE
  5
90
330
5
100
AcDbSymbolTableRecord
100
AcDbLinetypeTableRecord
  2
ACAD_ISO15W100
 70
     0
  3
ISO double-dash triple-dot __ __ . . . __ __ . .
 72
    65
 73
    10
 40
39.0
 49
12.0
 74
     0
 49
-3.0
 74
     0
 49
12.0
 74
     0
 49
-3.0
 74
     0
 49
0.0
 74
     0
 49
-3.0
 74
     0
 49
0.0
 74
     0
 49
-3.0
 74
     0
 49
0.0
 74
     0
 49
-3.0
 74
     0
  0
LTYPE
  5
91
330
5
100
AcDbSymbolTableRecord
100
AcDbLinetypeTableRecord
  2
JIS_02_0.7
 70
     0
  3
HIDDEN0.75 _ _ _ _ _ _ _ _ _ _ _ _ _ _ _ _ _ 
 72
    65
 73
     2
 40
1.35
 49
0.75
 74
     0
 49
-0.6
 74
     0
  0
LTYPE
  5
92
330
5
100
AcDbSymbolTableRecord
100
AcDbLinetypeTableRecord
  2
JIS_02_1.0
 70
     0
  3
HIDDEN01 _ _ _ _ _ _ _ _ _ _ _ _ _ _ _ _ _ 
 72
    65
 73
     2
 40
2.0
 49
1.0
 74
     0
 49
-1.0
 74
     0
  0
LTYPE
  5
93
330
5
100
AcDbSymbolTableRecord
100
AcDbLinetypeTableRecord
  2
JIS_02_1.2
 70
     0
  3
HIDDEN01.25  _ _ _ _ _ _ _ _ _ _ _ _ _ _ _ _ _ 
 72
    65
 73
     2
 40
2.5
 49
1.25
 74
     0
 49
-1.25
 74
     0
  0
LTYPE
  5
94
330
5
100
AcDbSymbolTableRecord
100
AcDbLinetypeTableRecord
  2
JIS_02_2.0
 70
     0
  3
HIDDEN02 __ __ __ __ __ __ __ __ __ __ __ 
 72
    65
 73
     2
 40
3.0
 49
2.0
 74
     0
 49
-1.0
 74
     0
  0
LTYPE
  5
95
330
5
100
AcDbSymbolTableRecord
100
AcDbLinetypeTableRecord
  2
JIS_02_4.0
 70
     0
  3
HIDDEN04 ____ ____ ____ ____ ____ ____ ____ 
 72
    65
 73
     2
 40
5.5
 49
4.0
 74
     0
 49
-1.5
 74
     0
  0
LTYPE
  5
96
330
5
100
AcDbSymbolTableRecord
100
AcDbLinetypeTableRecord
  2
JIS_08_11
 70
     0
  3
1SASEN11 ___ _ ___ _ ___ _ ___ _ ___ _ ___
 72
    65
 73
     4
 40
12.8
 49
11.0
 74
     0
 49
-0.6
 74
     0
 49
0.6
 74
     0
 49
-0.6
 74
     0
  0
LTYPE
  5
97
330
5
100
AcDbSymbolTableRecord
100
AcDbLinetypeTableRecord
  2
JIS_08_15
 70
     0
  3
1SASEN15 ____ _ ____ _ ____ _ ____ _ ____ 
 72
    65
 73
     4
 40
17.25
 49
15.0
 74
     0
 49
-0.75
 74
     0
 49
0.75
 74
     0
 49
-0.75
 74
     0
  0
LTYPE
  5
98
330
5
100
AcDbSymbolTableRecord
100
AcDbLinetypeTableRecord
  2
JIS_08_25
 70
     0
  3
1SASEN25 ________  __  ________  __  _____
 72
    65
 73
     4
 40
28.0
 49
25.0
 74
     0
 49
-1.125
 74
     0
 49
0.75
 74
     0
 49
-1.125
 74
     0
  0
LTYPE
  5
99
330
5
100
AcDbSymbolTableRecord
100
AcDbLinetypeTableRecord
  2
JIS_08_37
 70
     0
  3
1SASEN37 ________  __  ________  __  _____
 72
    65
 73
     4
 40
40.5
 49
37.5
 74
     0
 49
-1.125
 74
     0
 49
0.75
 74
     0
 49
-1.125
 74
     0
  0
LTYPE
  5
9A
330
5
100
AcDbSymbolTableRecord
100
AcDbLinetypeTableRecord
  2
JIS_08_50
 70
     0
  3
1SASEN50 _______________  __  ____________
 72
    65
 73
     4
 40
53.0
 49
50.0
 74
     0
 49
-1.125
 74
     0
 49
0.75
 74
     0
 49
-1.125
 74
     0
  0
LTYPE
  5
9B
330
5
100
AcDbSymbolTableRecord
100
AcDbLinetypeTableRecord
  2
JIS_09_08
 70
     0
  3
2SASEN8 __ _ _ __ _ _ __ _ _ __ _ _ __ _ _ 
 72
    65
 73
     6
 40
10.75
 49
8.0
 74
     0
 49
-0.55
 74
     0
 49
0.55
 74
     0
 49
-0.55
 74
     0
 49
0.55
 74
     0
 49
-0.55
 74
     0
  0
LTYPE
  5
9C
330
5
100
AcDbSymbolTableRecord
100
AcDbLinetypeTableRecord
  2
JIS_09_15
 70
     0
  3
2SASEN15 ___ _ _ ___ _ _ ___ _ _ ___ _ _ ___ 
 72
    65
 73
     6
 40
18.9
 49
15.0
 74
     0
 49
-0.9
 74
     0
 49
0.6
 74
     0
 49
-0.9
 74
     0
 49
0.6
 74
     0
 49
-0.9
 74
     0
  0
LTYPE
  5
9D
330
5
100
AcDbSymbolTableRecord
100
AcDbLinetypeTableRecord
  2
JIS_09_29
 70
     0
  3
2SASEN29 ______　__  __  ______　__  __  ___
 72
    65
 73
     6
 40
34.0
 49
29.0
 74
     0
 49
-1.2
 74
     0
 49
0.7
 74
     0
 49
-1.2
 74
     0
 49
0.7
 74
     0
 49
-1.2
 74
     0
  0
LTYPE
  5
9E
330
5
100
AcDbSymbolTableRecord
100
AcDbLinetypeTableRecord
  2
JIS_09_50
 70
     0
  3
2SASEN50 ____________　__  __  _____________
 72
    65
 73
     6
 40
55.0
 49
50.0
 74
     0
 49
-1.2
 74
     0
 49
0.7
 74
     0
 49
-1.2
 74
     0
 49
0.7
 74
     0
 49
-1.2
 74
     0
  0
LTYPE
  5
9F
330
5
100
AcDbSymbolTableRecord
100
AcDbLinetypeTableRecord
  2
SXF_破線
 70
     0
  3
02 dashed -- -- -- -- -- --
 72
    65
 73
     2
 40
7.5
 49
6.0
 74
     0
 49
-1.5
 74
     0
  0
LTYPE
  5
A0
330
5
100
AcDbSymbolTableRecord
100
AcDbLinetypeTableRecord
  2
SXF_跳び破線
 70
     0
  3
03 dashed_spaced --  --  --  --
 72
    65
 73
     2
 40
12.0
 49
6.0
 74
     0
 49
-6.0
 74
     0
  0
LTYPE
  5
A1
330
5
100
AcDbSymbolTableRecord
100
AcDbLinetypeTableRecord
  2
SXF_一点長鎖線
 70
     0
  3
04 long_dashed_dotted ---- . ---- . ----
 72
    65
 73
     4
 40
15.25
 49
12.0
 74
     0
 49
-1.5
 74
     0
 49
0.25
 74
     0
 49
-1.5
 74
     0
  0
LTYPE
  5
A2
330
5
100
AcDbSymbolTableRecord
100
AcDbLinetypeTableRecord
  2
SXF_二点長鎖線
 70
     0
  3
05 long_dashed_double-dotted ---- . . ---- 
 72
    65
 73
     6
 40
17.0
 49
12.0
 74
     0
 49
-1.5
 74
     0
 49
0.25
 74
     0
 49
-1.5
 74
     0
 49
0.25
 74
     0
 49
-1.5
 74
     0
  0
LTYPE
  5
A3
330
5
100
AcDbSymbolTableRecord
100
AcDbLinetypeTableRecord
  2
SXF_三点長鎖線
 70
     0
  3
06 long_dashed_triplicate-dotted ---- ... ---- 
 72
    65
 73
     8
 40
18.75
 49
12.0
 74
     0
 49
-1.5
 74
     0
 49
0.25
 74
     0
 49
-1.5
 74
     0
 49
0.25
 74
     0
 49
-1.5
 74
     0
 49
0.25
 74
     0
 49
-1.5
 74
     0
  0
LTYPE
  5
A4
330
5
100
AcDbSymbolTableRecord
100
AcDbLinetypeTableRecord
  2
SXF_点線
 70
     0
  3
07 dotted . . . . . . . . . . . . 
 72
    65
 73
     2
 40
1.75
 49
0.25
 74
     0
 49
-1.5
 74
     0
  0
LTYPE
  5
A5
330
5
100
AcDbSymbolTableRecord
100
AcDbLinetypeTableRecord
  2
SXF_一点鎖線
 70
     0
  3
08 chain ---- - --- - --- - ---
 72
    65
 73
     4
 40
18.5
 49
12.0
 74
     0
 49
-1.5
 74
     0
 49
3.5
 74
     0
 49
-1.5
 74
     0
  0
LTYPE
  5
A6
330
5
100
AcDbSymbolTableRecord
100
AcDbLinetypeTableRecord
  2
SXF_二点鎖線
 70
     0
  3
09 chain_double_dash ---- - - ---- - - ----
 72
    65
 73
     6
 40
23.5
 49
12.0
 74
     0
 49
-1.5
 74
     0
 49
3.5
 74
     0
 49
-1.5
 74
     0
 49
3.5
 74
     0
 49
-1.5
 74
     0
  0
LTYPE
  5
A7
330
5
100
AcDbSymbolTableRecord
100
AcDbLinetypeTableRecord
  2
SXF_一点短鎖線
 70
     0
  3
10 dashed_dotted -- . -- . -- . --
 72
    65
 73
     4
 40
9.25
 49
6.0
 74
     0
 49
-1.5
 74
     0
 49
0.25
 74
     0
 49
-1.5
 74
     0
  0
LTYPE
  5
A8
330
5
100
AcDbSymbolTableRecord
100
AcDbLinetypeTableRecord
  2
SXF_一点二短鎖線
 70
     0
  3
11 double-dashed_dotted -- -- . -- --
 72
    65
 73
     6
 40
16.75
 49
6.0
 74
     0
 49
-1.5
 74
     0
 49
6.0
 74
     0
 49
-1.5
 74
     0
 49
0.25
 74
     0
 49
-1.5
 74
     0
  0
LTYPE
  5
A9
330
5
100
AcDbSymbolTableRecord
100
AcDbLinetypeTableRecord
  2
SXF_二点短鎖線
 70
     0
  3
12 dashed_double_dotted -- . . -- . . --
 72
    65
 73
     6
 40
11.0
 49
6.0
 74
     0
 49
-1.5
 74
     0
 49
0.25
 74
     0
 49
-1.5
 74
     0
 49
0.25
 74
     0
 49
-1.5
 74
     0
  0
LTYPE
  5
AA
330
5
100
AcDbSymbolTableRecord
100
AcDbLinetypeTableRecord
  2
SXF_二点二短鎖線
 70
     0
  3
13 double-dashed_double-dotted -- -- . . -- --
 72
    65
 73
     8
 40
18.5
 49
6.0
 74
     0
 49
-1.5
 74
     0
 49
6.0
 74
     0
 49
-1.5
 74
     0
 49
0.25
 74
     0
 49
-1.5
 74
     0
 49
0.25
 74
     0
 49
-1.5
 74
     0
  0
LTYPE
  5
AB
330
5
100
AcDbSymbolTableRecord
100
AcDbLinetypeTableRecord
  2
SXF_三点短鎖線
 70
     0
  3
14 dashed triplicate-dotted -- . . . -- . . . --
 72
    65
 73
     8
 40
12.75
 49
6.0
 74
     0
 49
-1.5
 74
     0
 49
0.25
 74
     0
 49
-1.5
 74
     0
 49
0.25
 74
     0
 49
-1.5
 74
     0
 49
0.25
 74
     0
 49
-1.5
 74
     0
  0
LTYPE
  5
AC
330
5
100
AcDbSymbolTableRecord
100
AcDbLinetypeTableRecord
  2
SXF_三点二短鎖線
 70
     0
  3
15 double-dashed triplicate-dotted -- -- . . . -- -- 
 72
    65
 73
    10
 40
20.25
 49
6.0
 74
     0
 49
-1.5
 74
     0
 49
6.0
 74
     0
 49
-1.5
 74
     0
 49
0.25
 74
     0
 49
-1.5
 74
     0
 49
0.25
 74
     0
 49
-1.5
 74
     0
 49
0.25
 74
     0
 49
-1.5
 74
     0
  0
ENDTAB
  0
TABLE
  2
LAYER
  5
2
330
0
100
AcDbSymbolTable
 70
    13
  0
LAYER
  5
10
330
2
100
AcDbSymbolTableRecord
100
AcDbLayerTableRecord
  2
0
 70
     0
 62
     7
  6
Continuous
370
    -3
390
F
  0
LAYER
  5
AD
330
2
100
AcDbSymbolTableRecord
100
AcDbLayerTableRecord
  2
2
 70
     0
 62
     7
  6
Continuous
370
    -3
390
F
  0
LAYER
  5
AE
330
2
100
AcDbSymbolTableRecord
100
AcDbLayerTableRecord
  2
3
 70
     0
 62
     7
  6
Continuous
370
    -3
390
F
  0
LAYER
  5
AF
330
2
100
AcDbSymbolTableRecord
100
AcDbLayerTableRecord
  2
4
 70
     0
 62
     7
  6
Continuous
370
    -3
390
F
  0
LAYER
  5
B0
330
2
100
AcDbSymbolTableRecord
100
AcDbLayerTableRecord
  2
5
 70
     0
 62
     7
  6
Continuous
370
    -3
390
F
  0
LAYER
  5
B1
330
2
100
AcDbSymbolTableRecord
100
AcDbLayerTableRecord
  2
6
 70
     0
 62
     7
  6
Continuous
370
    -3
390
F
  0
LAYER
  5
B2
330
2
100
AcDbSymbolTableRecord
100
AcDbLayerTableRecord
  2
7
 70
     0
 62
     7
  6
Continuous
370
    -3
390
F
  0
LAYER
  5
B3
330
2
100
AcDbSymbolTableRecord
100
AcDbLayerTableRecord
  2
11
 70
     0
 62
     7
  6
Continuous
370
    -3
390
F
  0
LAYER
  5
B4
330
2
100
AcDbSymbolTableRecord
100
AcDbLayerTableRecord
  2
12
 70
     0
 62
     7
  6
Continuous
370
    -3
390
F
  0
LAYER
  5
B5
330
2
100
AcDbSymbolTableRecord
100
AcDbLayerTableRecord
  2
13
 70
     0
 62
     7
  6
Continuous
370
    -3
390
F
  0
LAYER
  5
B6
330
2
100
AcDbSymbolTableRecord
100
AcDbLayerTableRecord
  2
14
 70
     0
 62
     7
  6
Continuous
370
    -3
390
F
  0
LAYER
  5
B7
330
2
100
AcDbSymbolTableRecord
100
AcDbLayerTableRecord
  2
15
 70
     0
 62
     7
  6
Continuous
370
    -3
390
F
  0
LAYER
  5
B8
330
2
100
AcDbSymbolTableRecord
100
AcDbLayerTableRecord
  2
ZUWAKU
 70
     0
 62
     7
  6
Continuous
370
    -3
390
F
  0
ENDTAB
  0
TABLE
  2
STYLE
  5
3
330
0
100
AcDbSymbolTable
 70
     3
  0
STYLE
  5
11
330
3
100
AcDbSymbolTableRecord
100
AcDbTextStyleTableRecord
  2
Standard
 70
     0
 40
0.0
 41
1.0
 50
0.0
 71
     0
 42
0.2
  3
txt.shx
  4
bigfont.shx
  0
STYLE
  5
F6
330
3
100
AcDbSymbolTableRecord
100
AcDbTextStyleTableRecord
  2
dcStyle1
 70
     0
 40
0.0
 41
1.2
 50
0.0
 71
     0
 42
0.2
  3
txt.shx
  4
bigfont
  0
STYLE
  5
115
330
3
100
AcDbSymbolTableRecord
100
AcDbTextStyleTableRecord
  2
dcStyle0
 70
     0
 40
0.0
 41
0.75
 50
0.0
 71
     0
 42
0.2
  3
ＭＳ Ｐゴシック
  4

1001
ACAD
1000
ＭＳ Ｐゴシック
1071
    32802
  0
ENDTAB
  0
TABLE
  2
VIEW
  5
6
330
0
100
AcDbSymbolTable
 70
     0
  0
ENDTAB
  0
TABLE
  2
UCS
  5
7
330
0
100
AcDbSymbolTable
 70
     0
  0
ENDTAB
  0
TABLE
  2
APPID
  5
9
330
0
100
AcDbSymbolTable
 70
     3
  0
APPID
  5
12
330
9
100
AcDbSymbolTableRecord
100
AcDbRegAppTableRecord
  2
ACAD
 70
     0
  0
APPID
  5
6A
330
9
100
AcDbSymbolTableRecord
100
AcDbRegAppTableRecord
  2
DaFusionOut
 70
     0
  0
APPID
  5
3EE
330
9
100
AcDbSymbolTableRecord
100
AcDbRegAppTableRecord
  2
ACAD_DSTYLE_DIMARC_LENGTH_SYMBOL
 70
     0
  0
ENDTAB
  0
TABLE
  2
DIMSTYLE
  5
A
330
0
100
AcDbSymbolTable
 70
     3
100
AcDbDimStyleTable
  0
DIMSTYLE
105
27
330
A
100
AcDbSymbolTableRecord
100
AcDbDimStyleTableRecord
  2
Standard
 70
     0
178
     0
340
11
  0
DIMSTYLE
105
306
102
{ACAD_REACTORS
330
305
330
307
330
308
330
30C
330
30D
102
}
330
A
100
AcDbSymbolTableRecord
100
AcDbDimStyleTableRecord
  2
dc_Rotated
 70
     0
 41
6.000003814697266
 42
2.0
 44
2.0
 73
     0
 74
     0
 77
     3
 78
     8
 79
     2
140
8.0
147
2.0
172
     1
173
     1
176
     2
177
     2
271
     2
178
     2
271
     2
274
     4
283
     0
284
     8
288
     1
340
115
343
10B
344
10B
1001
ACAD_DSTYLE_DIMARC_LENGTH_SYMBOL
1070
   379
1070
     1
  0
DIMSTYLE
105
30A
102
{ACAD_REACTORS
330
309
330
30E
330
30F
102
}
330
A
100
AcDbSymbolTableRecord
100
AcDbDimStyleTableRecord
  2
dc_Diam06
 70
     0
 41
6.000003814697266
 42
2.0
 44
2.0
 77
     2
 78
     8
 79
     2
140
8.0
147
2.0
173
     1
176
     2
177
     2
271
     2
178
     2
271
     2
274
     4
283
     0
284
     8
288
     1
340
115
343
10B
344
10B
1001
ACAD_DSTYLE_DIMARC_LENGTH_SYMBOL
1070
   379
1070
     1
  0
ENDTAB
  0
TABLE
  2
BLOCK_RECORD
  5
1
330
0
100
AcDbSymbolTable
 70
    16
  0
BLOCK_RECORD
  5
1F
330
1
100
AcDbSymbolTableRecord
100
AcDbBlockTableRecord
  2
*Model_Space
340
22
  0
BLOCK_RECORD
  5
1B
330
1
100
AcDbSymbolTableRecord
100
AcDbBlockTableRecord
  2
*Paper_Space
340
1E
  0
BLOCK_RECORD
  5
23
330
1
100
AcDbSymbolTableRecord
100
AcDbBlockTableRecord
  2
*Paper_Space0
340
26
  0
BLOCK_RECORD
  5
BA
330
1
100
AcDbSymbolTableRecord
100
AcDbBlockTableRecord
  2
DC_GROUP_W_GSL_S_020_2_1
340
0
102
{BLKREFS
331
158
102
}
  0
BLOCK_RECORD
  5
BD
330
1
100
AcDbSymbolTableRecord
100
AcDbBlockTableRecord
  2
DC_GROUP_W_GSL_S_020_2_2
340
0
102
{BLKREFS
331
159
102
}
  0
BLOCK_RECORD
  5
C0
330
1
100
AcDbSymbolTableRecord
100
AcDbBlockTableRecord
  2
*D3
340
0
  0
BLOCK_RECORD
  5
C3
330
1
100
AcDbSymbolTableRecord
100
AcDbBlockTableRecord
  2
*D4
340
0
  0
BLOCK_RECORD
  5
C6
330
1
100
AcDbSymbolTableRecord
100
AcDbBlockTableRecord
  2
*D5
340
0
  0
BLOCK_RECORD
  5
C9
330
1
100
AcDbSymbolTableRecord
100
AcDbBlockTableRecord
  2
*D6
340
0
  0
BLOCK_RECORD
  5
CC
330
1
100
AcDbSymbolTableRecord
100
AcDbBlockTableRecord
  2
DA_DIMGROUP_0
340
0
102
{BLKREFS
331
30B
102
}
  0
BLOCK_RECORD
  5
CF
330
1
100
AcDbSymbolTableRecord
100
AcDbBlockTableRecord
  2
*D8
340
0
  0
BLOCK_RECORD
  5
D2
330
1
100
AcDbSymbolTableRecord
100
AcDbBlockTableRecord
  2
*D9
340
0
  0
BLOCK_RECORD
  5
D5
330
1
100
AcDbSymbolTableRecord
100
AcDbBlockTableRecord
  2
*D10
340
0
  0
BLOCK_RECORD
  5
D8
330
1
100
AcDbSymbolTableRecord
100
AcDbBlockTableRecord
  2
DC_GROUP_W_GSL_S_020_2_3
340
0
102
{BLKREFS
331
320
102
}
  0
BLOCK_RECORD
  5
DB
330
1
100
AcDbSymbolTableRecord
100
AcDbBlockTableRecord
  2
DC_GROUP_W_GSL_S_020_2_4
340
0
102
{BLKREFS
331
142
102
}
  0
BLOCK_RECORD
  5
DE
330
1
100
AcDbSymbolTableRecord
100
AcDbBlockTableRecord
  2
*D13
340
0
  0
BLOCK_RECORD
  5
E1
330
1
100
AcDbSymbolTableRecord
100
AcDbBlockTableRecord
  2
DC_GROUP_W_GSL_S_020_2_5
340
0
102
{BLKREFS
331
310
102
}
  0
BLOCK_RECORD
  5
10B
330
1
100
AcDbSymbolTableRecord
100
AcDbBlockTableRecord
  2
_OPEN30
340
0
102
{BLKREFS
331
111
331
112
331
118
331
119
331
11E
331
11F
331
124
331
128
331
129
331
12B
331
12C
331
133
331
134
331
139
331
13A
331
13F
331
148
331
14C
102
}
  0
ENDTAB
  0
ENDSEC
  0
SECTION
  2
BLOCKS
  0
BLOCK
  5
20
330
1F
100
AcDbEntity
  8
0
100
AcDbBlockBegin
  2
*Model_Space
 70
     0
 10
0.0
 20
0.0
 30
0.0
  3
*Model_Space
  1
*Model_Space
  0
ENDBLK
  5
21
330
1F
100
AcDbEntity
  8
0
100
AcDbBlockEnd
  0
BLOCK
  5
1C
330
1B
100
AcDbEntity
 67
     1
  8
0
100
AcDbBlockBegin
  2
*Paper_Space
 70
     0
 10
0.0
 20
0.0
 30
0.0
  3
*Paper_Space
  1
*Paper_Space
  0
ENDBLK
  5
1D
330
1B
100
AcDbEntity
 67
     1
  8
0
100
AcDbBlockEnd
  0
BLOCK
  5
24
330
23
100
AcDbEntity
  8
0
100
AcDbBlockBegin
  2
*Paper_Space0
 70
     0
 10
0.0
 20
0.0
 30
0.0
  3
*Paper_Space0
  1
*Paper_Space0
  0
ENDBLK
  5
25
330
23
100
AcDbEntity
  8
0
100
AcDbBlockEnd
  0
BLOCK
  5
BB
330
BA
100
AcDbEntity
  8
0
100
AcDbBlockBegin
  2
DC_GROUP_W_GSL_S_020_2_1
 70
     0
 10
0.0
 20
0.0
 30
0.0
  3
DC_GROUP_W_GSL_S_020_2_1
  1
DC_GROUP_W_GSL_S_020_2_1
  0
LINE
  5
E4
330
BA
100
AcDbEntity
  8
ZUWAKU
  6
Continuous
 62
     7
370
    13
100
AcDbLine
 10
-394.0
 20
-265.7438466790443
 30
0.0
 11
394.0
 21
-265.7438466790443
 31
0.0
  0
LINE
  5
E5
330
BA
100
AcDbEntity
  8
ZUWAKU
  6
Continuous
 62
     7
370
    13
100
AcDbLine
 10
393.9999999999992
 20
270.2561533209557
 30
0.0
 11
-394.0
 21
270.2561533209557
 31
0.0
  0
LINE
  5
E6
330
BA
100
AcDbEntity
  8
ZUWAKU
  6
Continuous
 62
     7
370
    13
100
AcDbLine
 10
394.0
 20
-265.7438466790443
 30
0.0
 11
393.9999999999992
 21
270.2561533209557
 31
0.0
  0
LINE
  5
E7
330
BA
100
AcDbEntity
  8
ZUWAKU
  6
Continuous
 62
     7
370
    13
100
AcDbLine
 10
-394.0
 20
270.2561533209557
 30
0.0
 11
-394.0
 21
-265.7438466790443
 31
0.0
  0
LINE
  5
E8
330
BA
100
AcDbEntity
  8
ZUWAKU
  6
Continuous
 62
     4
370
    13
100
AcDbLine
 10
-68.99999999999994
 20
-235.7438466790443
 30
0.0
 11
10.00000000000006
 21
-235.7438466790443
 31
0.0
  0
LINE
  5
E9
330
BA
100
AcDbEntity
  8
ZUWAKU
  6
Continuous
 62
     4
370
    13
100
AcDbLine
 10
-370.0
 20
-225.7438466790443
 30
0.0
 11
-370.0
 21
-265.7438466790443
 31
0.0
  0
LINE
  5
EA
330
BA
100
AcDbEntity
  8
ZUWAKU
  6
Continuous
 62
     4
370
    13
100
AcDbLine
 10
-394.0
 20
-245.7438466790443
 30
0.0
 11
394.0
 21
-245.7438466790443
 31
0.0
  0
LINE
  5
EB
330
BA
100
AcDbEntity
  8
ZUWAKU
  6
Continuous
 62
     4
370
    13
100
AcDbLine
 10
10.00000000000006
 20
-265.7438466790443
 30
0.0
 11
10.00000000000006
 21
-225.7438466790443
 31
0.0
  0
LINE
  5
EC
330
BA
100
AcDbEntity
  8
ZUWAKU
  6
Continuous
 62
     4
370
    13
100
AcDbLine
 10
-68.99999999999994
 20
-265.7438466790443
 30
0.0
 11
-68.99999999999994
 21
-225.7438466790443
 31
0.0
  0
LINE
  5
ED
330
BA
100
AcDbEntity
  8
ZUWAKU
  6
Continuous
 62
     4
370
    13
100
AcDbLine
 10
172.0
 20
-225.7438466790443
 30
0.0
 11
172.0
 21
-265.7438466790443
 31
0.0
  0
LINE
  5
EE
330
BA
100
AcDbEntity
  8
ZUWAKU
  6
Continuous
 62
     4
370
    13
100
AcDbLine
 10
60.00000000000006
 20
-225.7438466790443
 30
0.0
 11
60.00000000000006
 21
-265.7438466790443
 31
0.0
  0
LINE
  5
EF
330
BA
100
AcDbEntity
  8
ZUWAKU
  6
Continuous
 62
     4
370
    13
100
AcDbLine
 10
-52.99999999999994
 20
-245.7438466790443
 30
0.0
 11
-52.99999999999994
 21
-265.7438466790443
 31
0.0
  0
LINE
  5
F0
330
BA
100
AcDbEntity
  8
ZUWAKU
  6
Continuous
 62
     4
370
    13
100
AcDbLine
 10
-262.0
 20
-225.7438466790443
 30
0.0
 11
-262.0
 21
-265.7438466790443
 31
0.0
  0
LINE
  5
F1
330
BA
100
AcDbEntity
  8
ZUWAKU
  6
Continuous
 62
     4
370
    13
100
AcDbLine
 10
394.0
 20
-225.7438466790443
 30
0.0
 11
-394.0
 21
-225.7438466790443
 31
0.0
  0
LINE
  5
F2
330
BA
100
AcDbEntity
  8
ZUWAKU
  6
Continuous
 62
     4
370
    13
100
AcDbLine
 10
196.0
 20
-225.7438466790443
 30
0.0
 11
196.0
 21
-265.7438466790443
 31
0.0
  0
LINE
  5
F3
330
BA
100
AcDbEntity
  8
ZUWAKU
  6
Continuous
 62
     3
370
    13
100
AcDbLine
 10
-375.0
 20
-240.7438466790443
 30
0.0
 11
-382.0
 21
-227.7438466790443
 31
0.0
  0
LINE
  5
F4
330
BA
100
AcDbEntity
  8
ZUWAKU
  6
Continuous
 62
     3
370
    13
100
AcDbLine
 10
-389.0
 20
-240.7438466790443
 30
0.0
 11
-375.0
 21
-240.7438466790443
 31
0.0
  0
LINE
  5
F5
330
BA
100
AcDbEntity
  8
ZUWAKU
  6
Continuous
 62
     3
370
    13
100
AcDbLine
 10
-382.0
 20
-227.7438466790443
 30
0.0
 11
-389.0
 21
-240.7438466790443
 31
0.0
  0
TEXT
  5
F7
330
BA
100
AcDbEntity
  8
ZUWAKU
 62
     2
100
AcDbText
 10
175.6
 20
-263.7438466790443
 30
0.0
 40
6.999999999999996
  1
番号
 41
1.527272727272729
  7
dcStyle1
 72
     5
 11
192.4
 21
-263.7438466790443
 31
0.0
100
AcDbText
  0
TEXT
  5
F8
330
BA
100
AcDbEntity
  8
ZUWAKU
 62
     2
100
AcDbText
 10
-65.19999999999995
 20
-263.7438466790443
 30
0.0
 40
6.999999999999996
  1
度
 41
1.680000000000001
  7
dcStyle1
 72
     5
 11
-56.79999999999995
 21
-263.7438466790443
 31
0.0
100
AcDbText
  0
TEXT
  5
F9
330
BA
100
AcDbEntity
  8
ZUWAKU
 62
     2
100
AcDbText
 10
-389.6438439396566
 20
-263.7438466790443
 30
0.0
 40
7.0
  1
番号
 41
1.272727272727273
  7
dcStyle1
 72
     5
 11
-375.6438439396566
 21
-263.7438466790443
 31
0.0
100
AcDbText
  0
TEXT
  5
FA
330
BA
100
AcDbEntity
  8
ZUWAKU
 62
     2
100
AcDbText
 10
17.00000000000006
 20
-239.7438466790443
 30
0.0
 40
8.0
  1
シリーズ名
 41
1.086206896551724
  7
dcStyle1
 72
     5
 11
53.00000000000006
 21
-239.7438466790443
 31
0.0
100
AcDbText
  0
TEXT
  5
FB
330
BA
100
AcDbEntity
  8
ZUWAKU
 62
     2
100
AcDbText
 10
23.00000000000006
 20
-259.7438466790443
 30
0.0
 40
8.0
  1
機　種
 41
1.235294117647059
  7
dcStyle1
 72
     5
 11
47.00000000000006
 21
-259.7438466790443
 31
0.0
100
AcDbText
  0
TEXT
  5
FC
330
BA
100
AcDbEntity
  8
ZUWAKU
 62
     2
100
AcDbText
 10
-389.0
 20
-254.7438466790443
 30
0.0
 40
7.0
  1
改訂
 41
1.272727272727273
  7
dcStyle1
 72
     5
 11
-375.0
 21
-254.7438466790443
 31
0.0
100
AcDbText
  0
TEXT
  5
FD
330
BA
100
AcDbEntity
  8
ZUWAKU
 62
     2
100
AcDbText
 10
-348.9
 20
-259.2438466790443
 30
0.0
 40
6.999999999999996
  1
改　 訂　 記　 事
 41
1.061290322580645
  7
dcStyle1
 72
     5
 11
-283.1
 21
-259.2438466790443
 31
0.0
100
AcDbText
  0
TEXT
  5
FE
330
BA
100
AcDbEntity
  8
ZUWAKU
 62
     2
100
AcDbText
 10
-65.19999999999995
 20
-254.7438466790443
 30
0.0
 40
6.999999999999996
  1
尺
 41
1.680000000000001
  7
dcStyle1
 72
     5
 11
-56.79999999999995
 21
-254.7438466790443
 31
0.0
100
AcDbText
  0
TEXT
  5
FF
330
BA
100
AcDbEntity
  8
ZUWAKU
 62
     2
100
AcDbText
 10
-53.99999999999993
 20
-234.2438466790443
 30
0.0
 40
6.999999999999996
  1
年　　月　　日
 41
1.195121951219512
  7
dcStyle1
 72
     5
 11
-4.999999999999961
 21
-234.2438466790443
 31
0.0
100
AcDbText
  0
TEXT
  5
100
330
BA
100
AcDbEntity
  8
ZUWAKU
 62
     2
100
AcDbText
 10
175.6
 20
-254.7438466790443
 30
0.0
 40
6.999999999999996
  1
図面
 41
1.527272727272729
  7
dcStyle1
 72
     5
 11
192.4
 21
-254.7438466790443
 31
0.0
100
AcDbText
  0
TEXT
  5
101
330
BA
100
AcDbEntity
  8
ZUWAKU
 62
     2
100
AcDbText
 10
176.0
 20
-239.7438466790443
 30
0.0
 40
8.0
  1
図名
 41
1.272727272727273
  7
dcStyle1
 72
     5
 11
192.0
 21
-239.7438466790443
 31
0.0
100
AcDbText
  0
TEXT
  5
102
330
BA
100
AcDbEntity
  8
ZUWAKU
 62
     7
100
AcDbText
 10
-205.4999999999999
 20
-240.7438466790443
 30
0.0
 40
10.0
  1
技術情報サービス
 41
1.191489361702128
  7
dcStyle1
 72
     5
 11
-125.4999999999999
 21
-240.7438466790443
 31
0.0
100
AcDbText
  0
TEXT
  5
103
330
BA
100
AcDbEntity
  8
ZUWAKU
 62
     7
100
AcDbText
 10
-234.6823529411764
 20
-259.7438466790443
 30
0.0
 40
8.0
  1
MARUYASU KIKAI CO.,LTD.
 41
0.8990281013395461
  7
dcStyle1
 72
     5
 11
-96.31764705882344
 21
-259.7438466790443
 31
0.0
100
AcDbText
  0
TEXT
  5
104
330
BA
100
AcDbEntity
  8
ZUWAKU
 62
     4
100
AcDbText
 10
384.9131087847382
 20
-270.2561533209557
 30
0.0
 40
4.0
  1
A3
 41
1.2
  7
dcStyle1
 72
     5
 11
392.9131087847382
 21
-270.2561533209557
 31
0.0
100
AcDbText
  0
ENDBLK
  5
BC
330
BA
100
AcDbEntity
  8
0
100
AcDbBlockEnd
  0
BLOCK
  5
BE
330
BD
100
AcDbEntity
  8
0
100
AcDbBlockBegin
  2
DC_GROUP_W_GSL_S_020_2_2
 70
     0
 10
0.0
 20
0.0
 30
0.0
  3
DC_GROUP_W_GSL_S_020_2_2
  1
DC_GROUP_W_GSL_S_020_2_2
  0
POINT
  5
105
330
BD
100
AcDbEntity
  8
ZUWAKU
  6
Continuous
 62
     2
100
AcDbPoint
 10
116.0
 20
-235.7438466790443
 30
0.0
  0
POINT
  5
106
330
BD
100
AcDbEntity
  8
ZUWAKU
  6
Continuous
 62
     2
100
AcDbPoint
 10
116.0
 20
-255.7438466790443
 30
0.0
  0
POINT
  5
107
330
BD
100
AcDbEntity
  8
ZUWAKU
  6
Continuous
 62
     2
100
AcDbPoint
 10
388.0
 20
-255.7438466790443
 30
0.0
  0
POINT
  5
108
330
BD
100
AcDbEntity
  8
ZUWAKU
  6
Continuous
 62
     2
100
AcDbPoint
 10
295.0
 20
-235.7438466790443
 30
0.0
  0
POINT
  5
109
330
BD
100
AcDbEntity
  8
ZUWAKU
  6
Continuous
 62
     2
100
AcDbPoint
 10
-21.49999999999994
 20
-255.7438466790443
 30
0.0
  0
ENDBLK
  5
BF
330
BD
100
AcDbEntity
  8
0
100
AcDbBlockEnd
  0
BLOCK
  5
C1
330
C0
100
AcDbEntity
  8
0
100
AcDbBlockBegin
  2
*D3
 70
     1
 10
0.0
 20
0.0
 30
0.0
  3
*D3
  1
*D3
  0
LINE
  5
10A
330
C0
100
AcDbEntity
  8
15
  6
Continuous
 62
     2
370
    13
100
AcDbLine
 10
171.3125000000082
 20
71.28041811381033
 30
0.0
 11
171.3125000000082
 21
211.2804181138106
 31
0.0
  0
INSERT
  5
111
330
C0
100
AcDbEntity
  8
15
 62
     2
100
AcDbBlockReference
  2
_OPEN30
 10
171.3125000000082
 20
71.28041811381033
 30
0.0
 41
6.000005615230571
 42
5.999978736447286
 50
270.0
  0
INSERT
  5
112
330
C0
100
AcDbEntity
  8
15
 62
     2
100
AcDbBlockReference
  2
_OPEN30
 10
171.3125000000082
 20
211.2804181138106
 30
0.0
 41
6.000005615230571
 42
5.999978736447286
 50
90.0
  0
LINE
  5
113
330
C0
100
AcDbEntity
  8
15
  6
Continuous
 62
     2
370
    13
100
AcDbLine
 10
153.6125000000082
 20
71.28041811381033
 30
0.0
 11
173.3125000000082
 21
71.28041811381033
 31
0.0
  0
LINE
  5
114
330
C0
100
AcDbEntity
  8
15
  6
Continuous
 62
     2
370
    13
100
AcDbLine
 10
153.6125000000082
 20
211.2804181138106
 30
0.0
 11
173.3125000000082
 21
211.2804181138106
 31
0.0
  0
MTEXT
  5
116
330
C0
100
AcDbEntity
  8
15
 62
     2
100
AcDbMText
 10
169.3125000000082
 20
141.2804181138104
 30
0.0
 40
8.0
 41
25.0
 71
     8
 72
     1
  1
\T1.00;140
  7
dcStyle0
 11
6.123233995736766E-17
 21
1.0
 31
0.0
 73
     1
 44
1.0
  0
ENDBLK
  5
C2
330
C0
100
AcDbEntity
  8
0
100
AcDbBlockEnd
  0
BLOCK
  5
C4
330
C3
100
AcDbEntity
  8
0
100
AcDbBlockBegin
  2
*D4
 70
     1
 10
0.0
 20
0.0
 30
0.0
  3
*D4
  1
*D4
  0
LINE
  5
117
330
C3
100
AcDbEntity
  8
15
  6
Continuous
 62
     2
370
    13
100
AcDbLine
 10
187.3125000000082
 20
-126.8125000000002
 30
0.0
 11
187.3125000000082
 21
-26.81249999999992
 31
0.0
  0
INSERT
  5
118
330
C3
100
AcDbEntity
  8
15
 62
     2
100
AcDbBlockReference
  2
_OPEN30
 10
187.3125000000082
 20
-126.8125000000002
 30
0.0
 41
6.000005615230571
 42
5.999978736447286
 50
270.0
  0
INSERT
  5
119
330
C3
100
AcDbEntity
  8
15
 62
     2
100
AcDbBlockReference
  2
_OPEN30
 10
187.3125000000082
 20
-26.81249999999992
 30
0.0
 41
6.000005615230571
 42
5.999978736447286
 50
90.0
  0
LINE
  5
11A
330
C3
100
AcDbEntity
  8
15
  6
Continuous
 62
     2
370
    13
100
AcDbLine
 10
150.3125000000082
 20
-126.8125000000002
 30
0.0
 11
189.3125000000082
 21
-126.8125000000002
 31
0.0
  0
LINE
  5
11B
330
C3
100
AcDbEntity
  8
15
  6
Continuous
 62
     2
370
    13
100
AcDbLine
 10
116.3125000000082
 20
-26.81249999999992
 30
0.0
 11
189.3125000000082
 21
-26.81249999999992
 31
0.0
  0
MTEXT
  5
11C
330
C3
100
AcDbEntity
  8
15
 62
     2
100
AcDbMText
 10
185.3125000000082
 20
-76.81250000000006
 30
0.0
 40
8.0
 41
25.0
 71
     8
 72
     1
  1
\T1.00;100
  7
dcStyle0
 11
6.123233995736766E-17
 21
1.0
 31
0.0
 73
     1
 44
1.0
  0
ENDBLK
  5
C5
330
C3
100
AcDbEntity
  8
0
100
AcDbBlockEnd
  0
BLOCK
  5
C7
330
C6
100
AcDbEntity
  8
0
100
AcDbBlockBegin
  2
*D5
 70
     1
 10
0.0
 20
0.0
 30
0.0
  3
*D5
  1
*D5
  0
LINE
  5
11D
330
C6
100
AcDbEntity
  8
15
  6
Continuous
 62
     2
370
    13
100
AcDbLine
 10
-50.98750000000052
 20
-1.812499999999922
 30
0.0
 11
151.3125000000082
 21
-1.812499999999922
 31
0.0
  0
INSERT
  5
11E
330
C6
100
AcDbEntity
  8
15
 62
     2
100
AcDbBlockReference
  2
_OPEN30
 10
-50.98750000000052
 20
-1.812499999999922
 30
0.0
 41
6.000005615230571
 42
5.999978736447286
 50
180.0
  0
INSERT
  5
11F
330
C6
100
AcDbEntity
  8
15
 62
     2
100
AcDbBlockReference
  2
_OPEN30
 10
151.3125000000082
 20
-1.812499999999922
 30
0.0
 41
6.000005615230571
 42
5.999978736447286
 50
360.0
  0
LINE
  5
120
330
C6
100
AcDbEntity
  8
15
  6
Continuous
 62
     2
370
    13
100
AcDbLine
 10
-50.98750000000052
 20
-33.71249999999984
 30
0.0
 11
-50.98750000000052
 21
0.1875000000000782
 31
0.0
  0
LINE
  5
121
330
C6
100
AcDbEntity
  8
15
  6
Continuous
 62
     2
370
    13
100
AcDbLine
 10
151.3125000000082
 20
-41.41250000000003
 30
0.0
 11
151.3125000000082
 21
0.1875000000000782
 31
0.0
  0
MTEXT
  5
122
330
C6
100
AcDbEntity
  8
15
 62
     2
100
AcDbMText
 10
50.16250000000389
 20
0.1875000000000782
 30
0.0
 40
8.0
 41
25.0
 71
     8
 72
     1
  1
\T1.00;200
  7
dcStyle0
 73
     1
 44
1.0
  0
ENDBLK
  5
C8
330
C6
100
AcDbEntity
  8
0
100
AcDbBlockEnd
  0
BLOCK
  5
CA
330
C9
100
AcDbEntity
  8
0
100
AcDbBlockBegin
  2
*D6
 70
     1
 10
0.0
 20
0.0
 30
0.0
  3
*D6
  1
*D6
  0
LINE
  5
123
330
C9
100
AcDbEntity
  8
15
  6
Continuous
 62
     2
370
    13
100
AcDbLine
 10
157.6282070317616
 20
-16.81249999999992
 30
0.0
 11
148.5634727985412
 21
-28.12953052918362
 31
0.0
  0
INSERT
  5
124
330
C9
100
AcDbEntity
  8
15
 62
     2
100
AcDbBlockReference
  2
_OPEN30
 10
148.5634727985412
 20
-28.12953052918362
 30
0.0
 41
6.000005615230571
 42
5.999978736447286
 50
231.3059114194037
  0
LINE
  5
125
330
C9
100
AcDbEntity
  8
15
  6
Continuous
 62
     2
370
    13
100
AcDbLine
 10
177.6282070317616
 20
-16.81249999999992
 30
0.0
 11
157.6282070317616
 21
-16.81249999999992
 31
0.0
  0
MTEXT
  5
126
330
C9
100
AcDbEntity
  8
15
 62
     2
100
AcDbMText
 10
159.6282070317616
 20
-14.81249999999992
 30
0.0
 40
8.0
 41
30.0
 71
     7
 72
     1
  1
\T1.00;φ12
  7
dcStyle0
 73
     1
 44
1.0
  0
ENDBLK
  5
CB
330
C9
100
AcDbEntity
  8
0
100
AcDbBlockEnd
  0
BLOCK
  5
CD
330
CC
100
AcDbEntity
  8
0
100
AcDbBlockBegin
  2
DA_DIMGROUP_0
 70
     0
 10
0.0
 20
0.0
 30
0.0
  3
DA_DIMGROUP_0
  1
DA_DIMGROUP_0
  0
LINE
  5
127
330
CC
100
AcDbEntity
  8
15
  6
Continuous
 62
     2
370
    13
100
AcDbLine
 10
171.3125000000082
 20
-111.8125000000002
 30
0.0
 11
171.3125000000082
 21
-71.8125000000002
 31
0.0
  0
INSERT
  5
128
330
CC
100
AcDbEntity
  8
15
 62
     2
100
AcDbBlockReference
  2
_OPEN30
 10
171.3125000000082
 20
-111.8125000000002
 30
0.0
 41
6.000005615230571
 42
5.999978736447286
 50
270.0
  0
INSERT
  5
129
330
CC
100
AcDbEntity
  8
15
 62
     2
100
AcDbBlockReference
  2
_OPEN30
 10
171.3125000000082
 20
-71.8125000000002
 30
0.0
 41
6.000005615230571
 42
5.999978736447286
 50
90.0
  0
LINE
  5
12A
330
CC
100
AcDbEntity
  8
15
  6
Continuous
 62
     2
370
    13
100
AcDbLine
 10
171.3125000000082
 20
-111.8125000000002
 30
0.0
 11
171.3125000000082
 21
-126.8125000000002
 31
0.0
  0
INSERT
  5
12B
330
CC
100
AcDbEntity
  8
15
 62
     2
100
AcDbBlockReference
  2
_OPEN30
 10
171.3125000000082
 20
-111.8125000000002
 30
0.0
 41
6.000005615230571
 42
5.999978736447286
 50
90.0
  0
INSERT
  5
12C
330
CC
100
AcDbEntity
  8
15
 62
     2
100
AcDbBlockReference
  2
_OPEN30
 10
171.3125000000082
 20
-126.8125000000002
 30
0.0
 41
6.000005615230571
 42
5.999978736447286
 50
270.0
  0
LINE
  5
12D
330
CC
100
AcDbEntity
  8
15
  6
Continuous
 62
     2
370
    13
100
AcDbLine
 10
142.8125000000082
 20
-111.8125000000002
 30
0.0
 11
173.3125000000082
 21
-111.8125000000002
 31
0.0
  0
LINE
  5
12E
330
CC
100
AcDbEntity
  8
15
  6
Continuous
 62
     2
370
    13
100
AcDbLine
 10
142.8125000000082
 20
-71.8125000000002
 30
0.0
 11
173.3125000000082
 21
-71.8125000000002
 31
0.0
  0
LINE
  5
12F
330
CC
100
AcDbEntity
  8
15
  6
Continuous
 62
     2
370
    13
100
AcDbLine
 10
150.3125000000082
 20
-126.8125000000002
 30
0.0
 11
173.3125000000082
 21
-126.8125000000002
 31
0.0
  0
MTEXT
  5
130
330
CC
100
AcDbEntity
  8
15
 62
     2
100
AcDbMText
 10
169.3125000000082
 20
-91.8125000000002
 30
0.0
 40
8.0
 41
20.0
 71
     8
 72
     1
  1
\T1.00;40
  7
dcStyle0
 11
6.123233995736766E-17
 21
1.0
 31
0.0
 73
     1
 44
1.0
  0
MTEXT
  5
131
330
CC
100
AcDbEntity
  8
15
 62
     2
100
AcDbMText
 10
169.3125000000082
 20
-119.3125000000002
 30
0.0
 40
8.0
 41
20.0
 71
     8
 72
     1
  1
\T1.00;15
  7
dcStyle0
 11
6.123233995736766E-17
 21
1.0
 31
0.0
 73
     1
 44
1.0
  0
ENDBLK
  5
CE
330
CC
100
AcDbEntity
  8
0
100
AcDbBlockEnd
  0
BLOCK
  5
D0
330
CF
100
AcDbEntity
  8
0
100
AcDbBlockBegin
  2
*D8
 70
     1
 10
0.0
 20
0.0
 30
0.0
  3
*D8
  1
*D8
  0
LINE
  5
132
330
CF
100
AcDbEntity
  8
15
  6
Continuous
 62
     2
370
    13
100
AcDbLine
 10
-33.68749999999181
 20
-147.4859006734005
 30
0.0
 11
136.3125000000082
 21
-147.4859006734005
 31
0.0
  0
INSERT
  5
133
330
CF
100
AcDbEntity
  8
15
 62
     2
100
AcDbBlockReference
  2
_OPEN30
 10
-33.68749999999181
 20
-147.4859006734005
 30
0.0
 41
6.000005615230571
 42
5.999978736447286
 50
180.0
  0
INSERT
  5
134
330
CF
100
AcDbEntity
  8
15
 62
     2
100
AcDbBlockReference
  2
_OPEN30
 10
136.3125000000082
 20
-147.4859006734005
 30
0.0
 41
6.000005615230571
 42
5.999978736447286
 50
360.0
  0
LINE
  5
135
330
CF
100
AcDbEntity
  8
15
  6
Continuous
 62
     2
370
    13
100
AcDbLine
 10
-33.68749999999181
 20
-118.3125000000002
 30
0.0
 11
-33.68749999999181
 21
-149.4859006734005
 31
0.0
  0
LINE
  5
136
330
CF
100
AcDbEntity
  8
15
  6
Continuous
 62
     2
370
    13
100
AcDbLine
 10
136.3125000000082
 20
-118.3125000000002
 30
0.0
 11
136.3125000000082
 21
-149.4859006734005
 31
0.0
  0
MTEXT
  5
137
330
CF
100
AcDbEntity
  8
15
 62
     2
100
AcDbMText
 10
77.06743971100639
 20
-145.4859006734005
 30
0.0
 40
8.0
 41
25.0
 71
     8
 72
     1
  1
\T1.00;170
  7
dcStyle0
 73
     1
 44
1.0
  0
ENDBLK
  5
D1
330
CF
100
AcDbEntity
  8
0
100
AcDbBlockEnd
  0
BLOCK
  5
D3
330
D2
100
AcDbEntity
  8
0
100
AcDbBlockBegin
  2
*D9
 70
     1
 10
0.0
 20
0.0
 30
0.0
  3
*D9
  1
*D9
  0
LINE
  5
138
330
D2
100
AcDbEntity
  8
15
  6
Continuous
 62
     2
370
    13
100
AcDbLine
 10
191.3125000000082
 20
58.18041811381052
 30
0.0
 11
191.3125000000082
 21
224.3804181138105
 31
0.0
  0
INSERT
  5
139
330
D2
100
AcDbEntity
  8
15
 62
     2
100
AcDbBlockReference
  2
_OPEN30
 10
191.3125000000082
 20
58.18041811381052
 30
0.0
 41
6.000005615230571
 42
5.999978736447286
 50
270.0
  0
INSERT
  5
13A
330
D2
100
AcDbEntity
  8
15
 62
     2
100
AcDbBlockReference
  2
_OPEN30
 10
191.3125000000082
 20
224.3804181138105
 30
0.0
 41
6.000005615230571
 42
5.999978736447286
 50
90.0
  0
LINE
  5
13B
330
D2
100
AcDbEntity
  8
15
  6
Continuous
 62
     2
370
    13
100
AcDbLine
 10
153.3125000000081
 20
58.18041811381052
 30
0.0
 11
193.3125000000082
 21
58.18041811381052
 31
0.0
  0
LINE
  5
13C
330
D2
100
AcDbEntity
  8
15
  6
Continuous
 62
     2
370
    13
100
AcDbLine
 10
153.3125000000081
 20
224.3804181138105
 30
0.0
 11
193.3125000000082
 21
224.3804181138105
 31
0.0
  0
MTEXT
  5
13D
330
D2
100
AcDbEntity
  8
15
 62
     2
100
AcDbMText
 10
189.3125000000082
 20
141.2804181138105
 30
0.0
 40
8.0
 41
25.0
 71
     8
 72
     1
  1
\T1.00;166
  7
dcStyle0
 11
6.123233995736766E-17
 21
1.0
 31
0.0
 73
     1
 44
1.0
  0
ENDBLK
  5
D4
330
D2
100
AcDbEntity
  8
0
100
AcDbBlockEnd
  0
BLOCK
  5
D6
330
D5
100
AcDbEntity
  8
0
100
AcDbBlockBegin
  2
*D10
 70
     1
 10
0.0
 20
0.0
 30
0.0
  3
*D10
  1
*D10
  0
LINE
  5
13E
330
D5
100
AcDbEntity
  8
15
  6
Continuous
 62
     2
370
    13
100
AcDbLine
 10
-55.49059880634309
 20
-16.81249999999992
 30
0.0
 11
-45.93304946017656
 21
-29.12356666613677
 31
0.0
  0
INSERT
  5
13F
330
D5
100
AcDbEntity
  8
15
 62
     2
100
AcDbBlockReference
  2
_OPEN30
 10
-45.93304946017656
 20
-29.12356666613677
 30
0.0
 41
6.000005615230571
 42
5.999978736447286
 50
307.8235495460137
  0
LINE
  5
140
330
D5
100
AcDbEntity
  8
15
  6
Continuous
 62
     2
370
    13
100
AcDbLine
 10
-75.49059880634309
 20
-16.81249999999992
 30
0.0
 11
-55.49059880634309
 21
-16.81249999999992
 31
0.0
  0
MTEXT
  5
141
330
D5
100
AcDbEntity
  8
15
 62
     2
100
AcDbMText
 10
-57.49059880634309
 20
-14.81249999999992
 30
0.0
 40
8.0
 41
30.0
 71
     9
 72
     1
  1
\T1.00;φ22
  7
dcStyle0
 73
     1
 44
1.0
  0
ENDBLK
  5
D7
330
D5
100
AcDbEntity
  8
0
100
AcDbBlockEnd
  0
BLOCK
  5
D9
330
D8
100
AcDbEntity
  8
0
100
AcDbBlockBegin
  2
DC_GROUP_W_GSL_S_020_2_3
 70
     0
 10
0.0
 20
0.0
 30
0.0
  3
DC_GROUP_W_GSL_S_020_2_3
  1
DC_GROUP_W_GSL_S_020_2_3
  0
INSERT
  5
142
330
D8
100
AcDbEntity
  8
15
  6
Continuous
100
AcDbBlockReference
  2
DC_GROUP_W_GSL_S_020_2_4
 10
0.0
 20
0.0
 30
0.0
  0
ENDBLK
  5
DA
330
D8
100
AcDbEntity
  8
0
100
AcDbBlockEnd
  0
BLOCK
  5
DC
330
DB
100
AcDbEntity
  8
0
100
AcDbBlockBegin
  2
DC_GROUP_W_GSL_S_020_2_4
 70
     0
 10
0.0
 20
0.0
 30
0.0
  3
DC_GROUP_W_GSL_S_020_2_4
  1
DC_GROUP_W_GSL_S_020_2_4
  0
LINE
  5
143
330
DB
100
AcDbEntity
  8
15
  6
Continuous
 62
     2
370
    13
100
AcDbLine
 10
-65.52083333332519
 20
-87.5138793520888
 30
0.0
 11
-59.7473306414289
 21
-97.5138793520888
 31
0.0
  0
LINE
  5
144
330
DB
100
AcDbEntity
  8
15
  6
Continuous
 62
     2
370
    13
100
AcDbLine
 10
-59.7473306414289
 20
-97.5138793520888
 30
0.0
 11
-71.29433602522147
 21
-97.5138793520888
 31
0.0
  0
LINE
  5
145
330
DB
100
AcDbEntity
  8
15
  6
Continuous
 62
     2
370
    13
100
AcDbLine
 10
-71.29433602522147
 20
-97.5138793520888
 30
0.0
 11
-65.52083333332519
 21
-87.5138793520888
 31
0.0
  0
TEXT
  5
146
330
DB
100
AcDbEntity
  8
15
 62
     2
100
AcDbText
 10
-67.02083333332519
 20
-96.7638793520888
 30
0.0
 40
5.0
  1
2
 41
0.7411764705882353
  7
dcStyle1
 72
     5
 11
-64.02083333332519
 21
-96.7638793520888
 31
0.0
100
AcDbText
  0
ENDBLK
  5
DD
330
DB
100
AcDbEntity
  8
0
100
AcDbBlockEnd
  0
BLOCK
  5
DF
330
DE
100
AcDbEntity
  8
0
100
AcDbBlockBegin
  2
*D13
 70
     1
 10
0.0
 20
0.0
 30
0.0
  3
*D13
  1
*D13
  0
LINE
  5
147
330
DE
100
AcDbEntity
  8
15
  6
Continuous
 62
     2
370
    13
100
AcDbLine
 10
171.3211143618221
 20
-147.7721810161223
 30
0.0
 11
138.4052040053565
 21
-113.9620557554993
 31
0.0
  0
INSERT
  5
148
330
DE
100
AcDbEntity
  8
15
 62
     2
100
AcDbBlockReference
  2
_OPEN30
 10
138.4052040053565
 20
-113.9620557554993
 30
0.0
 41
6.000005615230571
 42
5.999978736447286
 50
134.2322086471571
  0
LINE
  5
149
330
DE
100
AcDbEntity
  8
15
  6
Continuous
 62
     2
370
    13
100
AcDbLine
 10
195.3211143618221
 20
-147.7721810161223
 30
0.0
 11
171.3211143618221
 21
-147.7721810161223
 31
0.0
  0
MTEXT
  5
14A
330
DE
100
AcDbEntity
  8
15
 62
     4
100
AcDbMText
 10
173.3211143618221
 20
-145.7721810161223
 30
0.0
 40
8.0
 41
35.0
 71
     7
 72
     1
  1
\T1.00;4-φ6
  7
dcStyle0
 73
     1
 44
1.0
  0
ENDBLK
  5
E0
330
DE
100
AcDbEntity
  8
0
100
AcDbBlockEnd
  0
BLOCK
  5
E2
330
E1
100
AcDbEntity
  8
0
100
AcDbBlockBegin
  2
DC_GROUP_W_GSL_S_020_2_5
 70
     0
 10
0.0
 20
0.0
 30
0.0
  3
DC_GROUP_W_GSL_S_020_2_5
  1
DC_GROUP_W_GSL_S_020_2_5
  0
LINE
  5
14B
330
E1
100
AcDbEntity
  8
15
  6
Continuous
 62
     2
370
    13
100
AcDbLine
 10
-50.12588227950891
 20
-125.5957804363779
 30
0.0
 11
-66.53980761779394
 21
-159.3459971438189
 31
0.0
  0
INSERT
  5
14C
330
E1
100
AcDbEntity
  8
15
 62
     2
100
AcDbBlockReference
  2
_OPEN30
 10
-50.12588227950891
 20
-125.5957804363779
 30
0.0
 41
6.000005615230571
 42
5.999978736447286
 50
64.06470460424273
  0
LINE
  5
14D
330
E1
100
AcDbEntity
  8
15
  6
Continuous
 62
     2
370
    13
100
AcDbLine
 10
-66.53980761779394
 20
-159.3459971438189
 30
0.0
 11
-160.1398076177941
 21
-159.3459971438189
 31
0.0
  0
TEXT
  5
14E
330
E1
100
AcDbEntity
  8
15
 62
     2
100
AcDbText
 10
-160.1398076174434
 20
-158.3459971438189
 30
0.0
 40
8.0
  1
カバー（カバー有りの場合）
 41
0.7111165137057072
  7
dcStyle0
 72
     5
 11
-66.53980761744333
 21
-158.3459971438189
 31
0.0
100
AcDbText
  0
ENDBLK
  5
E3
330
E1
100
AcDbEntity
  8
0
100
AcDbBlockEnd
  0
BLOCK
  5
10C
330
10B
100
AcDbEntity
  8
0
100
AcDbBlockBegin
  2
_OPEN30
 70
     0
 10
0.0
 20
0.0
 30
0.0
  3
_OPEN30
  1
_OPEN30
  0
LINE
  5
10E
330
10B
100
AcDbEntity
  8
0
  6
ByBlock
 62
     0
370
    -2
100
AcDbLine
 10
-1.0
 20
0.267949
 30
0.0
 11
0.0
 21
0.0
 31
0.0
  0
LINE
  5
10F
330
10B
100
AcDbEntity
  8
0
  6
ByBlock
 62
     0
370
    -2
100
AcDbLine
 10
0.0
 20
0.0
 30
0.0
 11
-1.0
 21
-0.267949
 31
0.0
  0
LINE
  5
110
330
10B
100
AcDbEntity
  8
0
  6
ByBlock
 62
     0
370
    -2
100
AcDbLine
 10
0.0
 20
0.0
 30
0.0
 11
-1.0
 21
0.0
 31
0.0
  0
ENDBLK
  5
10D
330
10B
100
AcDbEntity
  8
0
100
AcDbBlockEnd
  0
ENDSEC
  0
SECTION
  2
ENTITIES
  0
TEXT
  5
14F
330
1F
100
AcDbEntity
  8
0
 62
     2
100
AcDbText
 10
210.885152057245
 20
-172.5071556350633
 30
0.0
 40
8.0
  1
本コンベヤは、必ず固定して御使用下さい
 41
0.7420715513201062
  7
dcStyle0
 72
     5
 11
362.885152057245
 21
-172.5071556350633
 31
0.0
100
AcDbText
  0
TEXT
  5
150
330
1F
100
AcDbEntity
  8
0
 62
     2
100
AcDbText
 10
-383.1430760341912
 20
-239.1706043497171
 30
0.0
 40
6.4
  1
2
 41
0.7411764705882304
  7
dcStyle1
 72
     5
 11
-379.3030760341912
 21
-239.1706043497171
 31
0.0
100
AcDbText
  0
TEXT
  5
151
330
1F
100
AcDbEntity
  8
0
 62
     2
100
AcDbText
 10
-359.7078113549301
 20
-239.7371307375489
 30
0.0
 40
6.4
  1
モータリニューアルに伴う変更
 41
1.180722891566265
  7
dcStyle1
 72
     5
 11
-270.10781135493
 21
-239.7371307375489
 31
0.0
100
AcDbText
  0
TEXT
  5
152
330
1F
100
AcDbEntity
  8
0
 62
     2
100
AcDbText
 10
110.0
 20
-259.7438466790443
 30
0.0
 40
8.0
  1
GSL
 41
0.5526315789473684
  7
dcStyle1
 72
     5
 11
122.0
 21
-259.7438466790443
 31
0.0
100
AcDbText
  0
TEXT
  5
153
330
1F
100
AcDbEntity
  8
0
 62
     2
100
AcDbText
 10
-27.49999999999994
 20
-259.7438466790443
 30
0.0
 40
8.0
  1
1/2
 41
0.5338983050847458
  7
dcStyle1
 72
     5
 11
-15.49999999999994
 21
-259.7438466790443
 31
0.0
100
AcDbText
  0
TEXT
  5
154
330
1F
100
AcDbEntity
  8
0
 62
     2
100
AcDbText
 10
336.0
 20
-259.7438466790443
 30
0.0
 40
8.0
  1
W_GSL_S_020_2
 41
0.5617283950617283
  7
dcStyle1
 72
     5
 11
388.0
 21
-259.7438466790443
 31
0.0
100
AcDbText
  0
TEXT
  5
155
330
1F
100
AcDbEntity
  8
0
 62
     2
100
AcDbText
 10
251.0
 20
-239.7438466790443
 30
0.0
 40
8.0
  1
本体組立図　大型タイプ
 41
1.184615384615385
  7
dcStyle1
 72
     5
 11
339.0
 21
-239.7438466790443
 31
0.0
100
AcDbText
  0
TEXT
  5
156
330
1F
100
AcDbEntity
  8
0
 62
     2
100
AcDbText
 10
-47.80009704027176
 20
-244.7797994501052
 30
0.0
 40
8.0
  1
2018.12.1
 41
0.6258278145695364
  7
dcStyle1
 72
     5
 11
-11.80009704027176
 21
-244.7797994501052
 31
0.0
100
AcDbText
  0
TEXT
  5
157
330
1F
100
AcDbEntity
  8
0
 62
     2
100
AcDbText
 10
96.00000000000003
 20
-239.7438466790443
 30
0.0
 40
8.0
  1
N1シリーズ
 41
0.9459459459459459
  7
dcStyle1
 72
     5
 11
136.0
 21
-239.7438466790443
 31
0.0
100
AcDbText
  0
INSERT
  5
158
330
1F
100
AcDbEntity
  8
ZUWAKU
  6
Continuous
100
AcDbBlockReference
  2
DC_GROUP_W_GSL_S_020_2_1
 10
0.0
 20
0.0
 30
0.0
  0
INSERT
  5
159
330
1F
100
AcDbEntity
  8
ZUWAKU
  6
Continuous
100
AcDbBlockReference
  2
DC_GROUP_W_GSL_S_020_2_2
 10
0.0
 20
0.0
 30
0.0
  0
LINE
  5
15A
330
1F
100
AcDbEntity
  8
0
  6
Continuous
 62
     7
370
    13
100
AcDbLine
 10
141.8124999999994
 20
222.7804181138106
 30
0.0
 11
128.2125000000084
 21
222.7804181138106
 31
0.0
  0
LINE
  5
15B
330
1F
100
AcDbEntity
  8
0
  6
Continuous
 62
     7
370
    13
100
AcDbLine
 10
131.0125000000083
 20
224.3804181138105
 30
0.0
 11
139.0124999999995
 21
224.3804181138105
 31
0.0
  0
LINE
  5
15C
330
1F
100
AcDbEntity
  8
0
  6
Continuous
 62
     7
370
    13
100
AcDbLine
 10
147.8124999999994
 20
224.3804181138105
 30
0.0
 11
151.3125000000081
 21
224.3804181138105
 31
0.0
  0
LINE
  5
15D
330
1F
100
AcDbEntity
  8
0
  6
Continuous
 62
     7
370
    13
100
AcDbLine
 10
128.2125000000084
 20
59.78041811381032
 30
0.0
 11
141.8124999999994
 21
59.78041811381032
 31
0.0
  0
LINE
  5
15E
330
1F
100
AcDbEntity
  8
0
  6
Continuous
 62
     7
370
    13
100
AcDbLine
 10
147.8124999999994
 20
59.78041811381032
 30
0.0
 11
151.3125000000081
 21
59.78041811381032
 31
0.0
  0
LINE
  5
15F
330
1F
100
AcDbEntity
  8
0
  6
Continuous
 62
     7
370
    13
100
AcDbLine
 10
139.0124999999995
 20
58.18041811381052
 30
0.0
 11
131.0125000000083
 21
58.18041811381052
 31
0.0
  0
LINE
  5
160
330
1F
100
AcDbEntity
  8
0
  6
Continuous
 62
     7
370
    13
100
AcDbLine
 10
151.3125000000082
 20
-43.41250000000003
 30
0.0
 11
148.3125000000082
 21
-40.41249999999992
 31
0.0
  0
LINE
  5
161
330
1F
100
AcDbEntity
  8
0
  6
Continuous
 62
     7
370
    13
100
AcDbLine
 10
148.3125000000082
 20
-126.8125000000002
 30
0.0
 11
151.3125000000082
 21
-123.8125000000002
 31
0.0
  0
LINE
  5
162
330
1F
100
AcDbEntity
  8
0
  6
Continuous
 62
     7
370
    13
100
AcDbLine
 10
-46.1874999999917
 20
-126.8125000000002
 30
0.0
 11
-49.1874999999917
 21
-123.8125000000002
 31
0.0
  0
LINE
  5
163
330
1F
100
AcDbEntity
  8
0
  6
Continuous
 62
     7
370
    13
100
AcDbLine
 10
-46.1874999999917
 20
-126.8125000000002
 30
0.0
 11
148.3125000000082
 21
-126.8125000000002
 31
0.0
  0
LINE
  5
164
330
1F
100
AcDbEntity
  8
0
  6
Continuous
 62
     7
370
    13
100
AcDbLine
 10
151.3125000000082
 20
-43.41250000000003
 30
0.0
 11
151.3125000000082
 21
-123.8125000000002
 31
0.0
  0
LINE
  5
165
330
1F
100
AcDbEntity
  8
0
  6
Continuous
 62
     7
370
    13
100
AcDbLine
 10
151.3125000000081
 20
222.7804181138106
 30
0.0
 11
147.8124999999994
 21
222.7804181138106
 31
0.0
  0
LINE
  5
166
330
1F
100
AcDbEntity
  8
0
  6
Continuous
 62
     7
370
    13
100
AcDbLine
 10
151.3125000000081
 20
224.3804181138105
 30
0.0
 11
151.3125000000081
 21
222.7804181138106
 31
0.0
  0
LINE
  5
167
330
1F
100
AcDbEntity
  8
0
  6
Continuous
 62
     7
370
    13
100
AcDbLine
 10
-49.1874999999917
 20
222.7804181138106
 30
0.0
 11
-49.1874999999917
 21
224.3804181138105
 31
0.0
  0
LINE
  5
168
330
1F
100
AcDbEntity
  8
0
  6
Continuous
 62
     7
370
    13
100
AcDbLine
 10
-49.1874999999917
 20
58.18041811381052
 30
0.0
 11
-49.1874999999917
 21
59.78041811381032
 31
0.0
  0
LINE
  5
169
330
1F
100
AcDbEntity
  8
0
  6
Continuous
 62
     7
370
    13
100
AcDbLine
 10
151.3125000000081
 20
58.18041811381052
 30
0.0
 11
147.8124999999994
 21
58.18041811381052
 31
0.0
  0
LINE
  5
16A
330
1F
100
AcDbEntity
  8
0
  6
Continuous
 62
     7
370
    13
100
AcDbLine
 10
151.3125000000081
 20
59.78041811381032
 30
0.0
 11
151.3125000000081
 21
58.18041811381052
 31
0.0
  0
LINE
  5
16B
330
1F
100
AcDbEntity
  8
0
  6
Continuous
 62
     7
370
    13
100
AcDbLine
 10
-47.1874999999917
 20
-40.41249999999992
 30
0.0
 11
-49.1874999999917
 21
-42.41250000000003
 31
0.0
  0
LINE
  5
16C
330
1F
100
AcDbEntity
  8
0
  6
Continuous
 62
     7
370
    13
100
AcDbLine
 10
-47.1874999999917
 20
-40.41249999999992
 30
0.0
 11
-29.18749999999181
 21
-40.41249999999992
 31
0.0
  0
LINE
  5
16D
330
1F
100
AcDbEntity
  8
0
  6
Continuous
 62
     7
370
    13
100
AcDbLine
 10
116.3125000000082
 20
-28.81250000000004
 30
0.0
 11
116.3125000000082
 21
-40.41249999999992
 31
0.0
  0
LINE
  5
16E
330
1F
100
AcDbEntity
  8
0
  6
Continuous
 62
     7
370
    13
100
AcDbLine
 10
114.3125000000082
 20
-26.81249999999992
 30
0.0
 11
-27.18749999999181
 21
-26.81250000000004
 31
0.0
  0
LINE
  5
16F
330
1F
100
AcDbEntity
  8
0
  6
Continuous
 62
     7
370
    13
100
AcDbLine
 10
-27.18749999999181
 20
-26.81250000000004
 30
0.0
 11
-29.18749999999181
 21
-28.81250000000004
 31
0.0
  0
LINE
  5
170
330
1F
100
AcDbEntity
  8
0
  6
Continuous
 62
     7
370
    13
100
AcDbLine
 10
114.3125000000082
 20
-26.81249999999992
 30
0.0
 11
116.3125000000082
 21
-28.81250000000004
 31
0.0
  0
LINE
  5
171
330
1F
100
AcDbEntity
  8
0
  6
Continuous
 62
     7
370
    13
100
AcDbLine
 10
-29.18749999999181
 20
-40.41249999999992
 30
0.0
 11
-29.18749999999181
 21
-28.81250000000004
 31
0.0
  0
LINE
  5
172
330
1F
100
AcDbEntity
  8
0
  6
Continuous
 62
     7
370
    13
100
AcDbLine
 10
-49.1874999999917
 20
-42.41250000000003
 30
0.0
 11
-49.1874999999917
 21
-123.8125000000002
 31
0.0
  0
LINE
  5
173
330
1F
100
AcDbEntity
  8
0
  6
Continuous
 62
     7
370
    13
100
AcDbLine
 10
116.3125000000082
 20
-40.41249999999992
 30
0.0
 11
148.3125000000082
 21
-40.41249999999992
 31
0.0
  0
LINE
  5
174
330
1F
100
AcDbEntity
  8
0
  6
Continuous
 62
     7
370
    13
100
AcDbLine
 10
-29.18749999999181
 20
59.78041811381032
 30
0.0
 11
-29.18749999999181
 21
58.18041811381052
 31
0.0
  0
LINE
  5
175
330
1F
100
AcDbEntity
  8
0
  6
Continuous
 62
     7
370
    13
100
AcDbLine
 10
46.31250000000819
 20
59.78041811381032
 30
0.0
 11
46.31250000000819
 21
58.18041811381052
 31
0.0
  0
LINE
  5
176
330
1F
100
AcDbEntity
  8
0
  6
Continuous
 62
     7
370
    13
100
AcDbLine
 10
126.6125000000082
 20
58.18041811381052
 30
0.0
 11
-49.1874999999917
 21
58.18041811381052
 31
0.0
  0
LINE
  5
177
330
1F
100
AcDbEntity
  8
0
  6
Continuous
 62
     7
370
    13
100
AcDbLine
 10
-49.1874999999917
 20
59.78041811381032
 30
0.0
 11
125.9416561975971
 21
59.78041811381032
 31
0.0
  0
LINE
  5
178
330
1F
100
AcDbEntity
  8
0
  6
Continuous
 62
     7
370
    13
100
AcDbLine
 10
46.31250000000819
 20
224.3804181138105
 30
0.0
 11
46.31250000000819
 21
222.7804181138106
 31
0.0
  0
LINE
  5
179
330
1F
100
AcDbEntity
  8
0
  6
Continuous
 62
     7
370
    13
100
AcDbLine
 10
-29.18749999999181
 20
224.3804181138105
 30
0.0
 11
-29.18749999999181
 21
222.7804181138106
 31
0.0
  0
LINE
  5
17A
330
1F
100
AcDbEntity
  8
0
  6
Continuous
 62
     7
370
    13
100
AcDbLine
 10
-49.1874999999917
 20
224.3804181138105
 30
0.0
 11
126.6125000000082
 21
224.3804181138105
 31
0.0
  0
LINE
  5
17B
330
1F
100
AcDbEntity
  8
0
  6
Continuous
 62
     7
370
    13
100
AcDbLine
 10
125.9416561975971
 20
222.7804181138106
 30
0.0
 11
-49.1874999999917
 21
222.7804181138106
 31
0.0
  0
CIRCLE
  5
17C
330
1F
100
AcDbEntity
  8
0
  6
Continuous
 62
     7
370
    13
100
AcDbCircle
 10
136.3125000000082
 20
-71.8125000000002
 30
0.0
 40
3.0
  0
CIRCLE
  5
17D
330
1F
100
AcDbEntity
  8
0
  6
Continuous
 62
     7
370
    13
100
AcDbCircle
 10
136.3125000000082
 20
-111.8125000000002
 30
0.0
 40
3.0
  0
CIRCLE
  5
17E
330
1F
100
AcDbEntity
  8
0
  6
Continuous
 62
     7
370
    13
100
AcDbCircle
 10
-33.68749999999181
 20
-71.8125000000002
 30
0.0
 40
3.0
  0
CIRCLE
  5
17F
330
1F
100
AcDbEntity
  8
0
  6
Continuous
 62
     7
370
    13
100
AcDbCircle
 10
-33.68749999999181
 20
-111.8125000000002
 30
0.0
 40
3.0
  0
LINE
  5
180
330
1F
100
AcDbEntity
  8
0
  6
Continuous
 62
     7
370
    13
100
AcDbLine
 10
-264.3708996211237
 20
-41.81249999999992
 30
0.0
 11
-264.3708996211237
 21
-126.8125000000002
 31
0.0
  0
LINE
  5
181
330
1F
100
AcDbEntity
  8
0
  6
Continuous
 62
     7
370
    13
100
AcDbLine
 10
-264.3708996211237
 20
-33.81250000000004
 30
0.0
 11
-264.3708996211237
 21
-41.81249999999992
 31
0.0
  0
LINE
  5
182
330
1F
100
AcDbEntity
  8
0
  6
Continuous
 62
     7
370
    13
100
AcDbLine
 10
-101.3708996211236
 20
-41.81249999999992
 30
0.0
 11
-101.3708996211236
 21
-33.81250000000004
 31
0.0
  0
LINE
  5
183
330
1F
100
AcDbEntity
  8
0
  6
Continuous
 62
     7
370
    13
100
AcDbLine
 10
-101.3708996211236
 20
-33.81250000000004
 30
0.0
 11
-101.3708996211236
 21
-26.81250000000004
 31
0.0
  0
LINE
  5
184
330
1F
100
AcDbEntity
  8
0
  6
Continuous
 62
     7
370
    13
100
AcDbLine
 10
-265.9708996211239
 20
-26.81250000000004
 30
0.0
 11
-264.3708996211237
 21
-26.81250000000004
 31
0.0
  0
LINE
  5
185
330
1F
100
AcDbEntity
  8
0
  6
Continuous
 62
     7
370
    13
100
AcDbLine
 10
-265.9708996211239
 20
-126.8125000000002
 30
0.0
 11
-265.9708996211239
 21
-26.81250000000004
 31
0.0
  0
LINE
  5
186
330
1F
100
AcDbEntity
  8
0
  6
Continuous
 62
     7
370
    13
100
AcDbLine
 10
-264.3708996211237
 20
-126.8125000000002
 30
0.0
 11
-265.9708996211239
 21
-126.8125000000002
 31
0.0
  0
LINE
  5
187
330
1F
100
AcDbEntity
  8
0
  6
Continuous
 62
     7
370
    13
100
AcDbLine
 10
-264.3708996211237
 20
-26.81250000000004
 30
0.0
 11
-264.3708996211237
 21
-33.81250000000004
 31
0.0
  0
LINE
  5
188
330
1F
100
AcDbEntity
  8
0
  6
Continuous
 62
     7
370
    13
100
AcDbLine
 10
-101.3708996211236
 20
-126.8125000000002
 30
0.0
 11
-101.3708996211236
 21
-41.81249999999992
 31
0.0
  0
LINE
  5
189
330
1F
100
AcDbEntity
  8
0
  6
Continuous
 62
     7
370
    13
100
AcDbLine
 10
-99.7708996211237
 20
-126.8125000000002
 30
0.0
 11
-101.3708996211236
 21
-126.8125000000002
 31
0.0
  0
LINE
  5
18A
330
1F
100
AcDbEntity
  8
0
  6
Continuous
 62
     7
370
    13
100
AcDbLine
 10
-99.7708996211237
 20
-26.81250000000004
 30
0.0
 11
-99.7708996211237
 21
-126.8125000000002
 31
0.0
  0
LINE
  5
18B
330
1F
100
AcDbEntity
  8
0
  6
Continuous
 62
     7
370
    13
100
AcDbLine
 10
-101.3708996211236
 20
-26.81250000000004
 30
0.0
 11
-99.7708996211237
 21
-26.81250000000004
 31
0.0
  0
LINE
  5
18C
330
1F
100
AcDbEntity
  8
3
  6
PHANTOM
 62
   140
370
    13
100
AcDbLine
 10
145.1383463445584
 20
-38.80364547976743
 30
0.0
 11
-38.59011503497561
 21
-48.79626671290703
 31
0.0
  0
LINE
  5
18D
330
1F
100
AcDbEntity
  8
3
  6
PHANTOM
 62
   140
370
    13
100
AcDbLine
 10
-39.18750000000068
 20
-26.81250000000004
 30
0.0
 11
144.8124999999994
 21
-26.81250000000004
 31
0.0
  0
LINE
  5
18E
330
1F
100
AcDbEntity
  8
3
  6
PHANTOM
 62
   140
370
    13
100
AcDbLine
 10
-39.18750000000068
 20
-26.01250000000002
 30
0.0
 11
144.8124999999994
 21
-26.01250000000002
 31
0.0
  0
LINE
  5
18F
330
1F
100
AcDbEntity
  8
3
  6
PHANTOM
 62
   140
370
    13
100
AcDbLine
 10
145.1817925238329
 20
-39.60246487706971
 30
0.0
 11
-38.54666885570168
 21
-49.59508611020932
 31
0.0
  0
ARC
  5
190
330
1F
100
AcDbEntity
  8
3
  6
PHANTOM
 62
   140
370
    13
100
AcDbCircle
 10
144.8124999999994
 20
-32.81250000000004
 30
0.0
 40
6.799999999999939
100
AcDbArc
 50
273.6559364886074
 51
90.0
  0
ARC
  5
191
330
1F
100
AcDbEntity
  8
3
  6
PHANTOM
 62
   140
370
    13
100
AcDbCircle
 10
-39.18750000000068
 20
-37.81250000000004
 30
0.0
 40
11.80000000000001
100
AcDbArc
 50
90.0
 51
273.1131349426789
  0
LINE
  5
192
330
1F
100
AcDbEntity
  8
3
  6
PHANTOM
 62
   140
370
    13
100
AcDbLine
 10
-252.8708996211237
 20
-26.01249999999974
 30
0.0
 11
-112.8708996211236
 21
-26.01249999999974
 31
0.0
  0
LINE
  5
193
330
1F
100
AcDbEntity
  8
3
  6
PHANTOM
 62
   140
370
    13
100
AcDbLine
 10
-112.8708996211236
 20
-26.01249999999974
 30
0.0
 11
-112.8708996211236
 21
-26.81249999999972
 31
0.0
  0
LINE
  5
194
330
1F
100
AcDbEntity
  8
3
  6
PHANTOM
 62
   140
370
    13
100
AcDbLine
 10
-112.8708996211236
 20
-26.81249999999972
 30
0.0
 11
-252.8708996211237
 21
-26.81249999999972
 31
0.0
  0
LINE
  5
195
330
1F
100
AcDbEntity
  8
3
  6
PHANTOM
 62
   140
370
    13
100
AcDbLine
 10
-252.8708996211237
 20
-26.81249999999972
 30
0.0
 11
-252.8708996211237
 21
-26.01249999999974
 31
0.0
  0
LINE
  5
196
330
1F
100
AcDbEntity
  8
3
  6
PHANTOM
 62
   140
370
    13
100
AcDbLine
 10
-112.8708996211236
 20
-49.86249999999993
 30
0.0
 11
-252.8708996211237
 21
-49.86249999999993
 31
0.0
  0
LINE
  5
197
330
1F
100
AcDbEntity
  8
3
  6
PHANTOM
 62
   140
370
    13
100
AcDbLine
 10
-252.8708996211237
 20
-49.86249999999993
 30
0.0
 11
-252.8708996211237
 21
-49.06249999999992
 31
0.0
  0
LINE
  5
198
330
1F
100
AcDbEntity
  8
3
  6
PHANTOM
 62
   140
370
    13
100
AcDbLine
 10
-252.8708996211237
 20
-49.06249999999992
 30
0.0
 11
-112.8708996211236
 21
-49.06249999999992
 31
0.0
  0
LINE
  5
199
330
1F
100
AcDbEntity
  8
3
  6
PHANTOM
 62
   140
370
    13
100
AcDbLine
 10
-112.8708996211236
 20
-49.06249999999992
 30
0.0
 11
-112.8708996211236
 21
-49.86249999999993
 31
0.0
  0
ARC
  5
19A
330
1F
100
AcDbEntity
  8
3
  6
Continuous
 62
     7
370
    13
100
AcDbCircle
 10
-39.18750000000057
 20
-37.81249999999998
 30
0.0
 40
11.00000000000002
100
AcDbArc
 50
54.90319877241485
 51
204.6884232546944
  0
ARC
  5
19B
330
1F
100
AcDbEntity
  8
3
  6
Continuous
 62
     7
370
    13
100
AcDbCircle
 10
144.8124999999994
 20
-32.81250000000004
 30
0.0
 40
5.999999999999937
100
AcDbArc
 50
273.6559364886074
 51
304.6448842650964
  0
ARC
  5
19C
330
1F
100
AcDbEntity
  8
3
  6
Continuous
 62
     7
370
    13
100
AcDbCircle
 10
144.8124999999994
 20
-32.81249999999997
 30
0.0
 40
5.999999999999937
100
AcDbArc
 50
16.24044116190693
 51
121.7883306170483
  0
LINE
  5
19D
330
1F
100
AcDbEntity
  8
3
  6
Continuous
 62
     7
370
    13
100
AcDbLine
 10
-50.33749999999168
 20
216.7804181138104
 30
0.0
 11
-29.18749999999181
 21
216.7804181138104
 31
0.0
  0
LINE
  5
19E
330
1F
100
AcDbEntity
  8
3
  6
Continuous
 62
     7
370
    13
100
AcDbLine
 10
-260.3708996211237
 20
-48.46249999999984
 30
0.0
 11
-259.8708996211237
 21
-48.96249999999984
 31
0.0
  0
LINE
  5
19F
330
1F
100
AcDbEntity
  8
3
  6
Continuous
 62
     7
370
    13
100
AcDbLine
 10
-258.3708996211237
 20
-48.96249999999984
 30
0.0
 11
-259.8708996211237
 21
-48.96249999999984
 31
0.0
  0
LINE
  5
1A0
330
1F
100
AcDbEntity
  8
3
  6
Continuous
 62
     7
370
    13
100
AcDbLine
 10
-260.3708996211237
 20
-48.46249999999984
 30
0.0
 11
-260.3708996211237
 21
-27.21249999999984
 31
0.0
  0
LINE
  5
1A1
330
1F
100
AcDbEntity
  8
3
  6
Continuous
 62
     7
370
    13
100
AcDbLine
 10
-259.9708996211239
 20
-26.66249999999992
 30
0.0
 11
-258.3708996211237
 21
-26.66249999999992
 31
0.0
  0
LINE
  5
1A2
330
1F
100
AcDbEntity
  8
3
  6
Continuous
 62
     7
370
    13
100
AcDbLine
 10
-107.3708996211236
 20
-26.66249999999992
 30
0.0
 11
-105.7708996211237
 21
-26.66249999999992
 31
0.0
  0
LINE
  5
1A3
330
1F
100
AcDbEntity
  8
3
  6
Continuous
 62
     7
370
    13
100
AcDbLine
 10
-105.3708996211236
 20
-27.06250000000004
 30
0.0
 11
-105.3708996211236
 21
-48.46249999999984
 31
0.0
  0
LINE
  5
1A4
330
1F
100
AcDbEntity
  8
3
  6
Continuous
 62
     7
370
    13
100
AcDbLine
 10
-105.8708996211236
 20
-48.96249999999984
 30
0.0
 11
-107.3708996211236
 21
-48.96249999999984
 31
0.0
  0
LINE
  5
1A5
330
1F
100
AcDbEntity
  8
3
  6
Continuous
 62
     7
370
    13
100
AcDbLine
 10
-105.8708996211236
 20
-48.96249999999984
 30
0.0
 11
-105.3708996211236
 21
-48.46249999999984
 31
0.0
  0
LINE
  5
1A6
330
1F
100
AcDbEntity
  8
3
  6
Continuous
 62
     7
370
    13
100
AcDbLine
 10
-50.33749999999168
 20
64.18041811381042
 30
0.0
 11
-50.33749999999168
 21
65.78041811381033
 31
0.0
  0
LINE
  5
1A7
330
1F
100
AcDbEntity
  8
3
  6
Continuous
 62
     7
370
    13
100
AcDbLine
 10
-29.18749999999181
 20
63.78041811381032
 30
0.0
 11
-49.9374999999917
 21
63.78041811381032
 31
0.0
  0
LINE
  5
1A8
330
1F
100
AcDbEntity
  8
3
  6
Continuous
 62
     7
370
    13
100
AcDbLine
 10
-49.9374999999917
 20
218.7804181138104
 30
0.0
 11
-29.18749999999181
 21
218.7804181138104
 31
0.0
  0
LINE
  5
1A9
330
1F
100
AcDbEntity
  8
3
  6
Continuous
 62
     7
370
    13
100
AcDbLine
 10
-50.33749999999168
 20
216.7804181138104
 30
0.0
 11
-50.33749999999168
 21
218.3804181138104
 31
0.0
  0
ARC
  5
1AA
330
1F
100
AcDbEntity
  8
3
  6
Continuous
 62
     7
370
    13
100
AcDbCircle
 10
-259.9708996211239
 20
-27.06250000000004
 30
0.0
 40
0.4000000000001194
100
AcDbArc
 50
90.0
 51
180.0
  0
ARC
  5
1AB
330
1F
100
AcDbEntity
  8
3
  6
Continuous
 62
     7
370
    13
100
AcDbCircle
 10
-105.7708996211237
 20
-27.06250000000004
 30
0.0
 40
0.4000000000000909
100
AcDbArc
 50
0.0
 51
90.0
  0
ARC
  5
1AC
330
1F
100
AcDbEntity
  8
3
  6
Continuous
 62
     7
370
    13
100
AcDbCircle
 10
-49.9374999999917
 20
64.18041811381042
 30
0.0
 40
0.399999999999892
100
AcDbArc
 50
180.0
 51
270.0
  0
ARC
  5
1AD
330
1F
100
AcDbEntity
  8
3
  6
Continuous
 62
     7
370
    13
100
AcDbCircle
 10
-49.9374999999917
 20
218.3804181138104
 30
0.0
 40
0.4000000000000909
100
AcDbArc
 50
90.0
 51
180.0
  0
ARC
  5
1AE
330
1F
100
AcDbEntity
  8
3
  6
DASHED2
 62
     4
370
    13
100
AcDbCircle
 10
-39.18750000000057
 20
-37.81250000000009
 30
0.0
 40
11.0
100
AcDbArc
 50
204.6884232546939
 51
54.90319877241517
  0
ARC
  5
1AF
330
1F
100
AcDbEntity
  8
3
  6
DASHED2
 62
     4
370
    13
100
AcDbCircle
 10
144.8124999999994
 20
-32.81250000000004
 30
0.0
 40
6.0
100
AcDbArc
 50
121.7883306170481
 51
264.1148862644011
  0
ARC
  5
1B0
330
1F
100
AcDbEntity
  8
3
  6
DASHED2
 62
     4
370
    13
100
AcDbCircle
 10
144.8124999999994
 20
-32.81250000000004
 30
0.0
 40
5.999999999999937
100
AcDbArc
 50
304.6448842650964
 51
16.24044116190753
  0
LINE
  5
1B1
330
1F
100
AcDbEntity
  8
3
  6
DASHED2
 62
     4
370
    13
100
AcDbLine
 10
39.0124979883069
 20
-126.8125000000002
 30
0.0
 11
39.0124979883069
 21
-123.3124990462999
 31
0.0
  0
LINE
  5
1B2
330
1F
100
AcDbEntity
  8
3
  6
DASHED2
 62
     4
370
    13
100
AcDbLine
 10
48.01249760090673
 20
-126.8125000000002
 30
0.0
 11
48.01249760090673
 21
-123.3124990462999
 31
0.0
  0
LINE
  5
1B3
330
1F
100
AcDbEntity
  8
3
  6
DASHED2
 62
     4
370
    13
100
AcDbLine
 10
-178.370899814774
 20
-127.3125000000001
 30
0.0
 11
-178.370899814774
 21
-123.3125050205
 31
0.0
  0
LINE
  5
1B4
330
1F
100
AcDbEntity
  8
3
  6
DASHED2
 62
     4
370
    13
100
AcDbLine
 10
-187.3708994273738
 20
-127.3125000000001
 30
0.0
 11
-187.3708994273738
 21
-123.3125050205
 31
0.0
  0
ARC
  5
1B5
330
1F
100
AcDbEntity
  8
3
  6
DASHED2
 62
     4
370
    13
100
AcDbCircle
 10
-207.870913532724
 20
-107.3125151022
 30
0.0
 40
4.999982527328707
100
AcDbArc
 50
179.9998544186
 51
270.0001882701003
  0
LINE
  5
1B6
330
1F
100
AcDbEntity
  8
3
  6
DASHED2
 62
     4
370
    13
100
AcDbLine
 10
-212.8708960600238
 20
-107.3125023979
 30
0.0
 11
-212.8708960600238
 21
-57.3124904769999
 31
0.0
  0
ARC
  5
1B7
330
1F
100
AcDbEntity
  8
3
  6
DASHED2
 62
     4
370
    13
100
AcDbCircle
 10
-207.870913532724
 20
-57.31247777259993
 30
0.0
 40
4.999982527328762
100
AcDbArc
 50
89.9998117298997
 51
180.0001455813997
  0
LINE
  5
1B8
330
1F
100
AcDbEntity
  8
3
  6
DASHED2
 62
     4
370
    13
100
AcDbLine
 10
-207.870897103124
 20
-52.31249524529998
 30
0.0
 11
-157.8708963580239
 21
-52.31249524529998
 31
0.0
  0
ARC
  5
1B9
330
1F
100
AcDbEntity
  8
3
  6
DASHED2
 62
     4
370
    13
100
AcDbCircle
 10
-157.870879928424
 20
-57.31247777259993
 30
0.0
 40
4.999982527328764
100
AcDbArc
 50
359.9998544186003
 51
90.00018827010027
  0
LINE
  5
1BA
330
1F
100
AcDbEntity
  8
3
  6
DASHED2
 62
     4
370
    13
100
AcDbLine
 10
-152.8708974011238
 20
-57.3124904769999
 30
0.0
 11
-152.8708974011238
 21
-107.3125023979
 31
0.0
  0
ARC
  5
1BB
330
1F
100
AcDbEntity
  8
3
  6
DASHED2
 62
     4
370
    13
100
AcDbCircle
 10
-157.870879928424
 20
-107.3125151022
 30
0.0
 40
4.999982527328764
100
AcDbArc
 50
269.9998117298997
 51
0.0001455814000405
  0
LINE
  5
1BC
330
1F
100
AcDbEntity
  8
3
  6
DASHED2
 62
     4
370
    13
100
AcDbLine
 10
-157.8708963580239
 20
-112.3124976295
 30
0.0
 11
-207.870897103124
 21
-112.3124976295
 31
0.0
  0
CIRCLE
  5
1BD
330
1F
100
AcDbEntity
  8
3
  6
DASHED2
 62
     4
370
    13
100
AcDbCircle
 10
-158.1221598510239
 20
-57.56376848539995
 30
0.0
 40
2.249998315011545
  0
CIRCLE
  5
1BE
330
1F
100
AcDbEntity
  8
3
  6
DASHED2
 62
     4
370
    13
100
AcDbCircle
 10
-158.1221598510239
 20
-107.0612387451
 30
0.0
 40
2.249998315011533
  0
CIRCLE
  5
1BF
330
1F
100
AcDbEntity
  8
3
  6
DASHED2
 62
     4
370
    13
100
AcDbCircle
 10
-207.6196338360238
 20
-107.0612387451
 30
0.0
 40
2.249998315011533
  0
CIRCLE
  5
1C0
330
1F
100
AcDbEntity
  8
3
  6
DASHED2
 62
     4
370
    13
100
AcDbCircle
 10
-207.6196338360238
 20
-57.56376848539995
 30
0.0
 40
2.249998315011523
  0
LINE
  5
1C1
330
1F
100
AcDbEntity
  8
3
  6
DASHED2
 62
     4
370
    13
100
AcDbLine
 10
-189.7308805137239
 20
-122.3125029939
 30
0.0
 11
-189.7308805137239
 21
-112.3124976295
 31
0.0
  0
LINE
  5
1C2
330
1F
100
AcDbEntity
  8
3
  6
DASHED2
 62
     4
370
    13
100
AcDbLine
 10
-176.010912947324
 20
-112.3124976295
 30
0.0
 11
-176.010912947324
 21
-122.3125029939
 31
0.0
  0
LINE
  5
1C3
330
1F
100
AcDbEntity
  8
3
  6
DASHED2
 62
     4
370
    13
100
AcDbLine
 10
-170.0439846254238
 20
-120.6151564258
 30
0.0
 11
-173.8708971180239
 21
-121.7124928372999
 31
0.0
  0
LINE
  5
1C4
330
1F
100
AcDbEntity
  8
3
  6
DASHED2
 62
     4
370
    13
100
AcDbLine
 10
-173.8708971180239
 20
-121.7124928372999
 30
0.0
 11
-173.8708971180239
 21
-122.3125029939
 31
0.0
  0
LINE
  5
1C5
330
1F
100
AcDbEntity
  8
3
  6
DASHED2
 62
     4
370
    13
100
AcDbLine
 10
-167.8708970658239
 20
-112.3124976295
 30
0.0
 11
-167.8708970658239
 21
-117.7313645023
 31
0.0
  0
ARC
  5
1C6
330
1F
100
AcDbEntity
  8
3
  6
DASHED2
 62
     4
370
    13
100
AcDbCircle
 10
-170.8709254612239
 20
-117.7313500474999
 30
0.0
 40
3.000028395432686
100
AcDbArc
 50
286.0004160668999
 51
359.9997239365999
  0
LINE
  5
1C7
330
1F
100
AcDbEntity
  8
3
  6
DASHED2
 62
     4
370
    13
100
AcDbLine
 10
-191.8708963431238
 20
-122.3125029939
 30
0.0
 11
-191.8708963431238
 21
-121.7124928372999
 31
0.0
  0
LINE
  5
1C8
330
1F
100
AcDbEntity
  8
3
  6
DASHED2
 62
     4
370
    13
100
AcDbLine
 10
-191.8708963431238
 20
-121.7124928372999
 30
0.0
 11
-195.6978088356238
 21
-120.6151564258
 31
0.0
  0
ARC
  5
1C9
330
1F
100
AcDbEntity
  8
3
  6
DASHED2
 62
     4
370
    13
100
AcDbCircle
 10
-194.8708679999238
 20
-117.7313500474999
 30
0.0
 40
3.000028395432628
100
AcDbArc
 50
180.0002760634001
 51
253.9995839330998
  0
LINE
  5
1CA
330
1F
100
AcDbEntity
  8
3
  6
DASHED2
 62
     4
370
    13
100
AcDbLine
 10
-197.8708963953239
 20
-117.7313645023
 30
0.0
 11
-197.8708963953239
 21
-112.3124976295
 31
0.0
  0
LINE
  5
1CB
330
1F
100
AcDbEntity
  8
3
  6
DASHED2
 62
     4
370
    13
100
AcDbLine
 10
-173.8708971180239
 20
-122.3125029939
 30
0.0
 11
-191.8708963431238
 21
-122.3125029939
 31
0.0
  0
LINE
  5
1CC
330
1F
100
AcDbEntity
  8
3
  6
DASHED2
 62
     4
370
    13
100
AcDbLine
 10
-188.6708966568239
 20
-123.3125050205
 30
0.0
 11
-188.6708966568239
 21
-122.3125029939
 31
0.0
  0
LINE
  5
1CD
330
1F
100
AcDbEntity
  8
3
  6
DASHED2
 62
     4
370
    13
100
AcDbLine
 10
-177.0708968043239
 20
-123.3125050205
 30
0.0
 11
-177.0708968043239
 21
-122.3125029939
 31
0.0
  0
LINE
  5
1CE
330
1F
100
AcDbEntity
  8
3
  6
DASHED2
 62
     4
370
    13
100
AcDbLine
 10
-177.0708968043239
 20
-123.3125050205
 30
0.0
 11
-188.6708966568239
 21
-123.3125050205
 31
0.0
  0
LINE
  5
1CF
330
1F
100
AcDbEntity
  8
3
  6
DASHED2
 62
     4
370
    13
100
AcDbLine
 10
-29.18749999999181
 20
216.7804181138104
 30
0.0
 11
-28.03749999999161
 21
216.7804181138104
 31
0.0
  0
LINE
  5
1D0
330
1F
100
AcDbEntity
  8
3
  6
DASHED2
 62
     4
370
    13
100
AcDbLine
 10
-28.43749999999181
 20
63.78041811381032
 30
0.0
 11
-29.18749999999181
 21
63.78041811381032
 31
0.0
  0
LINE
  5
1D1
330
1F
100
AcDbEntity
  8
3
  6
DASHED2
 62
     4
370
    13
100
AcDbLine
 10
-29.18749999999181
 20
218.7804181138104
 30
0.0
 11
-28.43749999999159
 21
218.7804181138104
 31
0.0
  0
LINE
  5
1D2
330
1F
100
AcDbEntity
  8
3
  6
DASHED2
 62
     4
370
    13
100
AcDbLine
 10
-28.03749999999161
 20
218.3804181138104
 30
0.0
 11
-28.03749999999161
 21
216.7804181138104
 31
0.0
  0
ARC
  5
1D3
330
1F
100
AcDbEntity
  8
3
  6
DASHED2
 62
     4
370
    13
100
AcDbCircle
 10
-28.43749999999159
 20
218.3804181138104
 30
0.0
 40
0.4
100
AcDbArc
 50
0.0
 51
90.0
  0
LINE
  5
1D4
330
1F
100
AcDbEntity
  8
3
  6
DASHED2
 62
     4
370
    13
100
AcDbLine
 10
-28.03749999999195
 20
64.18041811381042
 30
0.0
 11
-28.03749999999195
 21
65.78041811381033
 31
0.0
  0
ARC
  5
1D5
330
1F
100
AcDbEntity
  8
3
  6
DASHED2
 62
     4
370
    13
100
AcDbCircle
 10
-28.43749999999193
 20
64.18041811381042
 30
0.0
 40
0.399999999999892
100
AcDbArc
 50
270.0
 51
0.0
  0
ARC
  5
1D6
330
1F
100
AcDbEntity
  8
3
  6
Continuous
 62
     2
370
    13
100
AcDbCircle
 10
144.8124999999992
 20
-32.81250000000106
 30
0.0
 40
5.999999999998968
100
AcDbArc
 50
264.1148862644015
 51
273.4196280882866
  0
LINE
  5
1D7
330
1F
100
AcDbEntity
  8
6
  6
Continuous
 62
     3
370
    13
100
AcDbLine
 10
-51.18750000000068
 20
-89.81249999999991
 30
0.0
 11
-49.68750000000068
 21
-89.81249999999991
 31
0.0
  0
LINE
  5
1D8
330
1F
100
AcDbEntity
  8
6
  6
Continuous
 62
     3
370
    13
100
AcDbLine
 10
-49.68750000000068
 20
-54.81249999999992
 30
0.0
 11
-51.18750000000068
 21
-54.81249999999992
 31
0.0
  0
LINE
  5
1D9
330
1F
100
AcDbEntity
  8
6
  6
Continuous
 62
     3
370
    13
100
AcDbLine
 10
-51.18750000000068
 20
-54.81249999999992
 30
0.0
 11
-51.18750000000068
 21
-89.81249999999991
 31
0.0
  0
LINE
  5
1DA
330
1F
100
AcDbEntity
  8
6
  6
Continuous
 62
     3
370
    13
100
AcDbLine
 10
-52.63749999999322
 20
158.7804181138103
 30
0.0
 11
-52.63749999999322
 21
123.7804181138103
 31
0.0
  0
LINE
  5
1DB
330
1F
100
AcDbEntity
  8
6
  6
Continuous
 62
     3
370
    13
100
AcDbLine
 10
-51.13749999999322
 20
158.7804181138103
 30
0.0
 11
-52.63749999999322
 21
158.7804181138103
 31
0.0
  0
LINE
  5
1DC
330
1F
100
AcDbEntity
  8
6
  6
Continuous
 62
     3
370
    13
100
AcDbLine
 10
-52.63749999999322
 20
123.7804181138103
 30
0.0
 11
-51.13749999999322
 21
123.7804181138103
 31
0.0
  0
LINE
  5
1DD
330
1F
100
AcDbEntity
  8
6
  6
DASHED2
 62
     4
370
    13
100
AcDbLine
 10
-27.18750000000068
 20
-89.81249999999991
 30
0.0
 11
-27.18750000000068
 21
-54.81249999999992
 31
0.0
  0
LINE
  5
1DE
330
1F
100
AcDbEntity
  8
6
  6
DASHED2
 62
     4
370
    13
100
AcDbLine
 10
-27.18750000000068
 20
-54.81249999999992
 30
0.0
 11
-28.68750000000068
 21
-54.81249999999992
 31
0.0
  0
LINE
  5
1DF
330
1F
100
AcDbEntity
  8
6
  6
DASHED2
 62
     4
370
    13
100
AcDbLine
 10
-28.68750000000068
 20
-89.81249999999991
 30
0.0
 11
-27.18750000000068
 21
-89.81249999999991
 31
0.0
  0
LINE
  5
1E0
330
1F
100
AcDbEntity
  8
12
  6
Continuous
 62
     3
370
    13
100
AcDbLine
 10
-49.68750000000216
 20
-93.31249999999991
 30
0.0
 11
-49.68750000000216
 21
-51.31249999999992
 31
0.0
  0
LINE
  5
1E1
330
1F
100
AcDbEntity
  8
12
  6
Continuous
 62
     3
370
    13
100
AcDbLine
 10
-49.1874999999917
 20
-93.31249999999991
 30
0.0
 11
-49.68750000000216
 21
-93.31249999999991
 31
0.0
  0
LINE
  5
1E2
330
1F
100
AcDbEntity
  8
12
  6
Continuous
 62
     3
370
    13
100
AcDbLine
 10
-49.68750000000216
 20
-51.31249999999992
 30
0.0
 11
-49.1874999999917
 21
-51.31249999999992
 31
0.0
  0
LINE
  5
1E3
330
1F
100
AcDbEntity
  8
12
  6
Continuous
 62
     3
370
    13
100
AcDbLine
 10
-50.4374999999917
 20
120.2804181138103
 30
0.0
 11
-51.13749999999322
 21
120.2804181138103
 31
0.0
  0
LINE
  5
1E4
330
1F
100
AcDbEntity
  8
12
  6
Continuous
 62
     3
370
    13
100
AcDbLine
 10
-51.13749999999322
 20
162.2804181138103
 30
0.0
 11
-50.4374999999917
 21
162.2804181138103
 31
0.0
  0
LINE
  5
1E5
330
1F
100
AcDbEntity
  8
12
  6
Continuous
 62
     3
370
    13
100
AcDbLine
 10
-51.13749999999322
 20
120.2804181138103
 30
0.0
 11
-51.13749999999322
 21
162.2804181138103
 31
0.0
  0
LINE
  5
1E6
330
1F
100
AcDbEntity
  8
12
  6
CENTERX2
 62
     3
370
    13
100
AcDbLine
 10
-207.9507720290928
 20
-72.31249999999991
 30
0.0
 11
-157.7910272131548
 21
-72.31249999999991
 31
0.0
  0
LINE
  5
1E7
330
1F
100
AcDbEntity
  8
12
  6
DASHED2
 62
     4
370
    13
100
AcDbLine
 10
-28.68750000000227
 20
-51.31249999999992
 30
0.0
 11
-28.68750000000227
 21
-93.31249999999991
 31
0.0
  0
LINE
  5
1E8
330
1F
100
AcDbEntity
  8
12
  6
DASHED2
 62
     4
370
    13
100
AcDbLine
 10
-28.68750000000227
 20
-93.31249999999991
 30
0.0
 11
-49.1874999999917
 21
-93.31249999999991
 31
0.0
  0
LINE
  5
1E9
330
1F
100
AcDbEntity
  8
12
  6
DASHED2
 62
     4
370
    13
100
AcDbLine
 10
-49.1874999999917
 20
-51.31249999999992
 30
0.0
 11
-28.68750000000227
 21
-51.31249999999992
 31
0.0
  0
LINE
  5
1EA
330
1F
100
AcDbEntity
  8
0
  6
CENTERX2
 62
     3
370
    13
100
AcDbLine
 10
-58.43106606678589
 20
141.2804181138103
 30
0.0
 11
155.1162320225642
 21
141.2804181138103
 31
0.0
  0
LINE
  5
1EB
330
1F
100
AcDbEntity
  8
0
  6
CENTERX2
 62
     3
370
    13
100
AcDbLine
 10
131.8125000000082
 20
-111.8125000000002
 30
0.0
 11
140.8125000000082
 21
-111.8125000000002
 31
0.0
  0
LINE
  5
1EC
330
1F
100
AcDbEntity
  8
0
  6
CENTERX2
 62
     3
370
    13
100
AcDbLine
 10
136.3125000000082
 20
-67.3125000000002
 30
0.0
 11
136.3125000000082
 21
-76.3125000000002
 31
0.0
  0
LINE
  5
1ED
330
1F
100
AcDbEntity
  8
0
  6
CENTERX2
 62
     3
370
    13
100
AcDbLine
 10
131.8125000000082
 20
-71.8125000000002
 30
0.0
 11
140.8125000000082
 21
-71.8125000000002
 31
0.0
  0
LINE
  5
1EE
330
1F
100
AcDbEntity
  8
0
  6
CENTERX2
 62
     3
370
    13
100
AcDbLine
 10
136.3125000000082
 20
-107.3125000000002
 30
0.0
 11
136.3125000000082
 21
-116.3125000000002
 31
0.0
  0
LINE
  5
1EF
330
1F
100
AcDbEntity
  8
0
  6
CENTERX2
 62
     3
370
    13
100
AcDbLine
 10
-38.18749999999181
 20
-111.8125000000002
 30
0.0
 11
-29.18749999999181
 21
-111.8125000000002
 31
0.0
  0
LINE
  5
1F0
330
1F
100
AcDbEntity
  8
0
  6
CENTERX2
 62
     3
370
    13
100
AcDbLine
 10
-33.68749999999181
 20
-67.3125000000002
 30
0.0
 11
-33.68749999999181
 21
-76.3125000000002
 31
0.0
  0
LINE
  5
1F1
330
1F
100
AcDbEntity
  8
0
  6
CENTERX2
 62
     3
370
    13
100
AcDbLine
 10
-38.18749999999181
 20
-71.8125000000002
 30
0.0
 11
-29.18749999999181
 21
-71.8125000000002
 31
0.0
  0
LINE
  5
1F2
330
1F
100
AcDbEntity
  8
0
  6
CENTERX2
 62
     3
370
    13
100
AcDbLine
 10
-33.68749999999181
 20
-107.3125000000002
 30
0.0
 11
-33.68749999999181
 21
-116.3125000000002
 31
0.0
  0
LINE
  5
1F3
330
1F
100
AcDbEntity
  8
0
  6
CENTERX2
 62
     3
370
    13
100
AcDbLine
 10
-182.8708996211236
 20
-23.24019468434918
 30
0.0
 11
-182.8708996211236
 21
-126.6270585045749
 31
0.0
  0
LINE
  5
1F4
330
1F
100
AcDbEntity
  8
0
  6
Continuous
 62
     3
370
    13
100
AcDbLine
 10
151.6125000000082
 20
211.2804181138106
 30
0.0
 11
-50.4374999999917
 21
211.2804181138106
 31
0.0
  0
LINE
  5
1F5
330
1F
100
AcDbEntity
  8
0
  6
Continuous
 62
     3
370
    13
100
AcDbLine
 10
-50.4374999999917
 20
211.2804181138106
 30
0.0
 11
-50.4374999999917
 21
71.28041811381033
 31
0.0
  0
LINE
  5
1F6
330
1F
100
AcDbEntity
  8
0
  6
Continuous
 62
     3
370
    13
100
AcDbLine
 10
-50.4374999999917
 20
71.28041811381033
 30
0.0
 11
151.6125000000082
 21
71.28041811381033
 31
0.0
  0
LINE
  5
1F7
330
1F
100
AcDbEntity
  8
0
  6
Continuous
 62
     3
370
    13
100
AcDbLine
 10
151.6125000000082
 20
71.28041811381033
 30
0.0
 11
151.6125000000082
 21
211.2804181138106
 31
0.0
  0
LINE
  5
1F8
330
1F
100
AcDbEntity
  8
11
  6
CENTERX2
 62
     3
370
    13
100
AcDbLine
 10
101.3125000000084
 20
63.52397085774205
 30
0.0
 11
101.3125000000084
 21
54.72397085774204
 31
0.0
  0
LINE
  5
1F9
330
1F
100
AcDbEntity
  8
11
  6
CENTERX2
 62
     3
370
    13
100
AcDbLine
 10
95.76993741578838
 20
-76.81250000000023
 30
0.0
 11
106.8550625842283
 21
-76.81250000000023
 31
0.0
  0
LINE
  5
1FA
330
1F
100
AcDbEntity
  8
11
  6
CENTERX2
 62
     3
370
    13
100
AcDbLine
 10
101.3125000000084
 20
-82.35506258422052
 30
0.0
 11
101.3125000000084
 21
-71.26993741577982
 31
0.0
  0
LINE
  5
1FB
330
1F
100
AcDbEntity
  8
11
  6
CENTERX2
 62
     3
370
    13
100
AcDbLine
 10
-14.18749999999181
 20
65.47562904945076
 30
0.0
 11
-14.18749999999181
 21
54.72397085774204
 31
0.0
  0
LINE
  5
1FC
330
1F
100
AcDbEntity
  8
11
  6
CENTERX2
 62
     3
370
    13
100
AcDbLine
 10
100.8125000000084
 20
63.52397085774205
 30
0.0
 11
100.8125000000084
 21
52.67920761610494
 31
0.0
  0
LINE
  5
1FD
330
1F
100
AcDbEntity
  8
11
  6
CENTERX2
 62
     3
370
    13
100
AcDbLine
 10
100.8125000000193
 20
-44.36224226120382
 30
0.0
 11
100.8125000000193
 21
-34.66275773881822
 31
0.0
  0
LINE
  5
1FE
330
1F
100
AcDbEntity
  8
11
  6
CENTERX2
 62
     3
370
    13
100
AcDbLine
 10
144.8125000000082
 20
-24.95345443157851
 30
0.0
 11
144.8125000000082
 21
-40.95345443157832
 31
0.0
  0
LINE
  5
1FF
330
1F
100
AcDbEntity
  8
11
  6
CENTERX2
 62
     3
370
    13
100
AcDbLine
 10
137.5655089093424
 20
-32.81250000000004
 30
0.0
 11
154.1655089093423
 21
-32.81250000000004
 31
0.0
  0
LINE
  5
200
330
1F
100
AcDbEntity
  8
11
  6
CENTERX2
 62
     3
370
    13
100
AcDbLine
 10
-39.18749999999181
 20
225.9780024346857
 30
0.0
 11
-39.18749999999181
 21
54.47800243468574
 31
0.0
  0
LINE
  5
201
330
1F
100
AcDbEntity
  8
11
  6
CENTERX2
 62
     3
370
    13
100
AcDbLine
 10
124.1858392941334
 20
-33.21249999999984
 30
0.0
 11
130.1858392941334
 21
-33.21249999999984
 31
0.0
  0
LINE
  5
202
330
1F
100
AcDbEntity
  8
11
  6
CENTERX2
 62
     3
370
    13
100
AcDbLine
 10
124.8289060767782
 20
227.0304181138106
 30
0.0
 11
130.8289060767782
 21
227.0304181138106
 31
0.0
  0
LINE
  5
203
330
1F
100
AcDbEntity
  8
11
  6
CENTERX2
 62
     3
370
    13
100
AcDbLine
 10
125.6435913465963
 20
55.53041811381032
 30
0.0
 11
129.6435913465963
 21
55.53041811381032
 31
0.0
  0
LINE
  5
204
330
1F
100
AcDbEntity
  8
11
  6
CENTERX2
 62
     3
370
    13
100
AcDbLine
 10
-14.18749999999181
 20
229.8816286115159
 30
0.0
 11
-14.18749999999181
 21
216.9539031302757
 31
0.0
  0
LINE
  5
205
330
1F
100
AcDbEntity
  8
11
  6
CENTERX2
 62
     3
370
    13
100
AcDbLine
 10
95.7710481156912
 20
-39.51250000001102
 30
0.0
 11
105.8539518843463
 21
-39.51250000001102
 31
0.0
  0
LINE
  5
206
330
1F
100
AcDbEntity
  8
11
  6
CENTERX2
 62
     3
370
    13
100
AcDbLine
 10
89.81250000000841
 20
-39.56224226119262
 30
0.0
 11
89.81250000000841
 21
-29.86275773880704
 31
0.0
  0
LINE
  5
207
330
1F
100
AcDbEntity
  8
11
  6
CENTERX2
 62
     3
370
    13
100
AcDbLine
 10
-25.18749999999181
 20
-39.56224226119262
 30
0.0
 11
-25.18749999999181
 21
-29.86275773880704
 31
0.0
  0
LINE
  5
208
330
1F
100
AcDbEntity
  8
11
  6
CENTERX2
 62
     3
370
    13
100
AcDbLine
 10
89.81250000000841
 20
63.52397085774205
 30
0.0
 11
89.81250000000841
 21
54.72397085774204
 31
0.0
  0
LINE
  5
209
330
1F
100
AcDbEntity
  8
11
  6
CENTERX2
 62
     3
370
    13
100
AcDbLine
 10
-25.18749999999181
 20
65.47562904945076
 30
0.0
 11
-25.18749999999181
 21
54.72397085774204
 31
0.0
  0
LINE
  5
20A
330
1F
100
AcDbEntity
  8
11
  6
CENTERX2
 62
     3
370
    13
100
AcDbLine
 10
89.81250000000841
 20
227.8368653698787
 30
0.0
 11
89.81250000000841
 21
219.0368653698788
 31
0.0
  0
LINE
  5
20B
330
1F
100
AcDbEntity
  8
11
  6
CENTERX2
 62
     3
370
    13
100
AcDbLine
 10
-25.18749999999181
 20
227.8368653698787
 30
0.0
 11
-25.18749999999181
 21
219.0368653698788
 31
0.0
  0
LINE
  5
20C
330
1F
100
AcDbEntity
  8
11
  6
CENTERX2
 62
     3
370
    13
100
AcDbLine
 10
-12.73006258421162
 20
-62.81250000000004
 30
0.0
 11
-1.644937415771665
 21
-62.81250000000004
 31
0.0
  0
LINE
  5
20D
330
1F
100
AcDbEntity
  8
11
  6
CENTERX2
 62
     3
370
    13
100
AcDbLine
 10
-7.187499999991815
 20
-68.35506258422032
 30
0.0
 11
-7.187499999991815
 21
-57.26993741577963
 31
0.0
  0
LINE
  5
20E
330
1F
100
AcDbEntity
  8
11
  6
CENTERX2
 62
     3
370
    13
100
AcDbLine
 10
-7.187499999991815
 20
-97.85506258422032
 30
0.0
 11
-7.187499999991815
 21
-86.76993741577962
 31
0.0
  0
LINE
  5
20F
330
1F
100
AcDbEntity
  8
11
  6
CENTERX2
 62
     3
370
    13
100
AcDbLine
 10
-12.73006258421162
 20
-92.31250000000003
 30
0.0
 11
-1.644937415771665
 21
-92.31250000000003
 31
0.0
  0
LINE
  5
210
330
1F
100
AcDbEntity
  8
11
  6
CENTERX2
 62
     3
370
    13
100
AcDbLine
 10
-7.187499999991815
 20
53.93044011413311
 30
0.0
 11
-7.187499999991815
 21
65.43044011413312
 31
0.0
  0
LINE
  5
211
330
1F
100
AcDbEntity
  8
11
  6
CENTERX2
 62
     3
370
    13
100
AcDbLine
 10
-7.187499999991815
 20
217.1303961134878
 30
0.0
 11
-7.187499999991815
 21
228.6303961134878
 31
0.0
  0
LINE
  5
212
330
1F
100
AcDbEntity
  8
11
  6
CENTERX2
 62
     3
370
    13
100
AcDbLine
 10
144.8125000000082
 20
55.27745548846885
 30
0.0
 11
144.8125000000082
 21
225.9780024346857
 31
0.0
  0
LINE
  5
213
330
1F
100
AcDbEntity
  8
11
  6
CENTERX2
 62
     3
370
    13
100
AcDbLine
 10
101.3125000000084
 20
219.0368653698786
 30
0.0
 11
101.3125000000084
 21
227.8368653698786
 31
0.0
  0
LINE
  5
214
330
1F
100
AcDbEntity
  8
11
  6
CENTERX2
 62
     3
370
    13
100
AcDbLine
 10
100.8125000000084
 20
219.0368653698786
 30
0.0
 11
100.8125000000084
 21
229.8816286115157
 31
0.0
  0
LINE
  5
215
330
1F
100
AcDbEntity
  8
11
  6
CENTERX2
 62
     3
370
    13
100
AcDbLine
 10
-19.22895188431971
 20
-39.51250000001102
 30
0.0
 11
-9.146048115664712
 21
-39.51250000001102
 31
0.0
  0
LINE
  5
216
330
1F
100
AcDbEntity
  8
11
  6
CENTERX2
 62
     3
370
    13
100
AcDbLine
 10
84.77104811568029
 20
-34.71249999999984
 30
0.0
 11
94.8539518843354
 21
-34.71249999999984
 31
0.0
  0
LINE
  5
217
330
1F
100
AcDbEntity
  8
11
  6
CENTERX2
 62
     3
370
    13
100
AcDbLine
 10
-30.22895188431971
 20
-34.71249999999984
 30
0.0
 11
-20.14604811566471
 21
-34.71249999999984
 31
0.0
  0
LINE
  5
218
330
1F
100
AcDbEntity
  8
11
  6
CENTERX2
 62
     3
370
    13
100
AcDbLine
 10
-14.18750000001342
 20
-44.55395188433886
 30
0.0
 11
-14.18750000001342
 21
-34.47104811568392
 31
0.0
  0
LINE
  5
219
330
1F
100
AcDbEntity
  8
11
  6
CENTERX2
 62
     3
370
    13
100
AcDbLine
 10
-266.3207370477337
 20
-36.21249999999984
 30
0.0
 11
-260.0397341898158
 21
-36.21249999999984
 31
0.0
  0
LINE
  5
21A
330
1F
100
AcDbEntity
  8
11
  6
CENTERX2
 62
     3
370
    13
100
AcDbLine
 10
-105.5436053125337
 20
-36.21249999999984
 30
0.0
 11
-97.04360531253371
 21
-36.21249999999984
 31
0.0
  0
LINE
  5
21B
330
1F
100
AcDbEntity
  8
11
  6
CENTERX2
 62
     3
370
    13
100
AcDbLine
 10
-264.8708996211237
 20
-33.21249999999984
 30
0.0
 11
-260.0397341898158
 21
-33.21249999999984
 31
0.0
  0
LINE
  5
21C
330
1F
100
AcDbEntity
  8
11
  6
CENTERX2
 62
     3
370
    13
100
AcDbLine
 10
-258.7208776208008
 20
-62.81250000000004
 30
0.0
 11
-270.2208776208008
 21
-62.81250000000004
 31
0.0
  0
LINE
  5
21D
330
1F
100
AcDbEntity
  8
11
  6
CENTERX2
 62
     3
370
    13
100
AcDbLine
 10
-258.7208776208008
 20
-92.31250000000023
 30
0.0
 11
-270.2208776208008
 21
-92.31250000000023
 31
0.0
  0
LINE
  5
21E
330
1F
100
AcDbEntity
  8
11
  6
CENTERX2
 62
     3
370
    13
100
AcDbLine
 10
-95.52092162144561
 20
-92.31250000000009
 30
0.0
 11
-107.0209216214456
 21
-92.31250000000009
 31
0.0
  0
LINE
  5
21F
330
1F
100
AcDbEntity
  8
11
  6
CENTERX2
 62
     3
370
    13
100
AcDbLine
 10
-95.52092162144561
 20
-62.81250000000004
 30
0.0
 11
-107.0209216214456
 21
-62.81250000000004
 31
0.0
  0
LINE
  5
220
330
1F
100
AcDbEntity
  8
11
  6
CENTER
 62
     3
370
    13
100
AcDbLine
 10
-97.04360531253371
 20
-36.21249999999984
 30
0.0
 11
-97.04360531253371
 21
-30.21249999999984
 31
0.0
  0
LINE
  5
221
330
1F
100
AcDbEntity
  8
11
  6
CENTER
 62
     3
370
    13
100
AcDbLine
 10
-268.6208996211237
 20
-36.21249999999984
 30
0.0
 11
-268.6208996211237
 21
-30.21249999999984
 31
0.0
  0
LINE
  5
222
330
1F
100
AcDbEntity
  8
11
  6
CENTER
 62
     3
370
    13
100
AcDbLine
 10
-271.7208996211239
 20
-33.21249999999984
 30
0.0
 11
-265.5208996211238
 21
-33.21249999999984
 31
0.0
  0
LINE
  5
223
330
1F
100
AcDbEntity
  8
11
  6
CENTER
 62
     3
370
    13
100
AcDbLine
 10
-105.5436053125337
 20
-33.21249999999984
 30
0.0
 11
-94.04360531253371
 21
-33.21249999999984
 31
0.0
  0
CIRCLE
  5
224
330
1F
100
AcDbEntity
  8
11
  6
Continuous
 62
     3
370
    13
100
AcDbCircle
 10
-97.04360531253371
 20
-33.21249999999984
 30
0.0
 40
2.0
  0
CIRCLE
  5
225
330
1F
100
AcDbEntity
  8
11
  6
Continuous
 62
     3
370
    13
100
AcDbCircle
 10
-268.6208996211237
 20
-33.21249999999984
 30
0.0
 40
2.0
  0
LINE
  5
226
330
1F
100
AcDbEntity
  8
11
  6
Continuous
 62
     7
370
    13
100
AcDbLine
 10
-43.82493557199962
 20
-29.16605339059334
 30
0.0
 11
-42.97138218140685
 21
-28.81250000000004
 31
0.0
  0
LINE
  5
227
330
1F
100
AcDbEntity
  8
11
  6
Continuous
 62
     7
370
    13
100
AcDbLine
 10
-43.82493557199962
 20
-29.16605339059334
 30
0.0
 11
-45.83394660939859
 21
-31.57506442799184
 31
0.0
  0
LINE
  5
228
330
1F
100
AcDbEntity
  8
11
  6
Continuous
 62
     7
370
    13
100
AcDbLine
 10
-31.88749999999186
 20
-28.81250000000004
 30
0.0
 11
-42.97138218140685
 21
-28.81250000000004
 31
0.0
  0
LINE
  5
229
330
1F
100
AcDbEntity
  8
11
  6
Continuous
 62
     7
370
    13
100
AcDbLine
 10
126.6010822331461
 20
-28.81250000000004
 30
0.0
 11
128.2125000000084
 21
-28.81250000000004
 31
0.0
  0
LINE
  5
22A
330
1F
100
AcDbEntity
  8
11
  6
Continuous
 62
     7
370
    13
100
AcDbLine
 10
150.8125000000082
 20
-36.61249999999993
 30
0.0
 11
150.8125000000082
 21
-31.71249999999984
 31
0.0
  0
LINE
  5
22B
330
1F
100
AcDbEntity
  8
11
  6
Continuous
 62
     7
370
    13
100
AcDbLine
 10
150.3222096621633
 20
-37.21055806756892
 30
0.0
 11
137.8332687066953
 21
-40.41249999999992
 31
0.0
  0
LINE
  5
22C
330
1F
100
AcDbEntity
  8
11
  6
Continuous
 62
     7
370
    13
100
AcDbLine
 10
146.3125000000082
 20
-27.71249999999984
 30
0.0
 11
138.7125000000084
 21
-27.71249999999984
 31
0.0
  0
LINE
  5
22D
330
1F
100
AcDbEntity
  8
11
  6
Continuous
 62
     7
370
    13
100
AcDbLine
 10
147.1660533906013
 20
-28.06605339059323
 30
0.0
 11
150.4589466094154
 21
-30.85894660940674
 31
0.0
  0
LINE
  5
22E
330
1F
100
AcDbEntity
  8
11
  6
Continuous
 62
     7
370
    13
100
AcDbLine
 10
138.7125000000084
 20
-34.91249999999992
 30
0.0
 11
147.0928508502064
 21
-34.91249999999992
 31
0.0
  0
LINE
  5
22F
330
1F
100
AcDbEntity
  8
11
  6
Continuous
 62
     7
370
    13
100
AcDbLine
 10
128.2125000000084
 20
-36.71249999999984
 30
0.0
 11
128.2125000000084
 21
-28.81250000000004
 31
0.0
  0
LINE
  5
230
330
1F
100
AcDbEntity
  8
11
  6
Continuous
 62
     7
370
    13
100
AcDbLine
 10
126.6125000000082
 20
-27.21249999999984
 30
0.0
 11
-31.88749999999186
 21
-27.21249999999984
 31
0.0
  0
LINE
  5
231
330
1F
100
AcDbEntity
  8
11
  6
Continuous
 62
     7
370
    13
100
AcDbLine
 10
138.2125000000084
 20
-29.71249999999984
 30
0.0
 11
138.2125000000084
 21
-28.21249999999984
 31
0.0
  0
LINE
  5
232
330
1F
100
AcDbEntity
  8
11
  6
Continuous
 62
     7
370
    13
100
AcDbLine
 10
139.2125000000084
 20
-30.71249999999984
 30
0.0
 11
147.0928508502064
 21
-30.71249999999984
 31
0.0
  0
LINE
  5
233
330
1F
100
AcDbEntity
  8
11
  6
Continuous
 62
     7
370
    13
100
AcDbLine
 10
-31.88749999999186
 20
-27.21249999999984
 30
0.0
 11
-31.88749999999186
 21
-28.81250000000004
 31
0.0
  0
LINE
  5
234
330
1F
100
AcDbEntity
  8
11
  6
Continuous
 62
     7
370
    13
100
AcDbLine
 10
-45.6874999999917
 20
-39.91249999999992
 30
0.0
 11
-36.90714914979367
 21
-39.91249999999992
 31
0.0
  0
LINE
  5
235
330
1F
100
AcDbEntity
  8
11
  6
Continuous
 62
     7
370
    13
100
AcDbLine
 10
-45.6874999999917
 20
-35.71249999999984
 30
0.0
 11
-36.90714914979367
 21
-35.71249999999984
 31
0.0
  0
LINE
  5
236
330
1F
100
AcDbEntity
  8
11
  6
Continuous
 62
     7
370
    13
100
AcDbLine
 10
138.2125000000084
 20
61.63041811381034
 30
0.0
 11
138.2125000000084
 21
60.03041811381032
 31
0.0
  0
LINE
  5
237
330
1F
100
AcDbEntity
  8
11
  6
Continuous
 62
     7
370
    13
100
AcDbLine
 10
138.2125000000084
 20
222.5304181138106
 30
0.0
 11
138.2125000000084
 21
220.9304181138105
 31
0.0
  0
LINE
  5
238
330
1F
100
AcDbEntity
  8
11
  6
Continuous
 62
     7
370
    13
100
AcDbLine
 10
-29.18749999999181
 20
71.28041811381033
 30
0.0
 11
-29.18749999999181
 21
60.03041811381032
 31
0.0
  0
LINE
  5
239
330
1F
100
AcDbEntity
  8
11
  6
Continuous
 62
     7
370
    13
100
AcDbLine
 10
-29.18749999999181
 20
222.5304181138106
 30
0.0
 11
-29.18749999999181
 21
211.2804181138106
 31
0.0
  0
LINE
  5
23A
330
1F
100
AcDbEntity
  8
11
  6
Continuous
 62
     7
370
    13
100
AcDbLine
 10
126.6125000000082
 20
222.5304181138106
 30
0.0
 11
126.6125000000082
 21
211.0304181138106
 31
0.0
  0
LINE
  5
23B
330
1F
100
AcDbEntity
  8
11
  6
Continuous
 62
     7
370
    13
100
AcDbLine
 10
150.8125000000082
 20
61.63041811381034
 30
0.0
 11
150.8125000000082
 21
60.03041811381032
 31
0.0
  0
LINE
  5
23C
330
1F
100
AcDbEntity
  8
11
  6
Continuous
 62
     7
370
    13
100
AcDbLine
 10
-46.1874999999917
 20
220.9304181138105
 30
0.0
 11
-46.1874999999917
 21
222.5304181138106
 31
0.0
  0
LINE
  5
23D
330
1F
100
AcDbEntity
  8
11
  6
Continuous
 62
     7
370
    13
100
AcDbLine
 10
150.8125000000082
 20
222.5304181138106
 30
0.0
 11
150.8125000000082
 21
220.9304181138105
 31
0.0
  0
LINE
  5
23E
330
1F
100
AcDbEntity
  8
11
  6
Continuous
 62
     7
370
    13
100
AcDbLine
 10
-46.1874999999917
 20
60.03041811381032
 30
0.0
 11
-46.1874999999917
 21
61.63041811381034
 31
0.0
  0
LINE
  5
23F
330
1F
100
AcDbEntity
  8
11
  6
Continuous
 62
     7
370
    13
100
AcDbLine
 10
-46.1874999999917
 20
-32.42861781858512
 30
0.0
 11
-46.1874999999917
 21
-35.21249999999984
 31
0.0
  0
LINE
  5
240
330
1F
100
AcDbEntity
  8
11
  6
Continuous
 62
     7
370
    13
100
AcDbLine
 10
138.2125000000084
 20
-28.21249999999984
 30
0.0
 11
138.7125000000084
 21
-27.71249999999984
 31
0.0
  0
LINE
  5
241
330
1F
100
AcDbEntity
  8
11
  6
Continuous
 62
     7
370
    13
100
AcDbLine
 10
138.2125000000084
 20
-35.41249999999992
 30
0.0
 11
138.7125000000084
 21
-34.91249999999992
 31
0.0
  0
LINE
  5
242
330
1F
100
AcDbEntity
  8
11
  6
Continuous
 62
     7
370
    13
100
AcDbLine
 10
147.1660533906013
 20
-28.06605339059323
 30
0.0
 11
146.3125000000082
 21
-27.71249999999984
 31
0.0
  0
LINE
  5
243
330
1F
100
AcDbEntity
  8
11
  6
Continuous
 62
     7
370
    13
100
AcDbLine
 10
150.4589466094154
 20
-30.85894660940674
 30
0.0
 11
150.8125000000082
 21
-31.71249999999984
 31
0.0
  0
LINE
  5
244
330
1F
100
AcDbEntity
  8
11
  6
Continuous
 62
     7
370
    13
100
AcDbLine
 10
150.3222096621633
 20
-37.21055806756892
 30
0.0
 11
150.8125000000082
 21
-36.61249999999993
 31
0.0
  0
LINE
  5
245
330
1F
100
AcDbEntity
  8
11
  6
Continuous
 62
     7
370
    13
100
AcDbLine
 10
-45.83394660939859
 20
-31.57506442799184
 30
0.0
 11
-46.1874999999917
 21
-32.42861781858512
 31
0.0
  0
LINE
  5
246
330
1F
100
AcDbEntity
  8
11
  6
Continuous
 62
     7
370
    13
100
AcDbLine
 10
-46.1874999999917
 20
-35.21249999999984
 30
0.0
 11
-45.6874999999917
 21
-35.71249999999984
 31
0.0
  0
LINE
  5
247
330
1F
100
AcDbEntity
  8
11
  6
Continuous
 62
     7
370
    13
100
AcDbLine
 10
-45.6874999999917
 20
-39.91249999999992
 30
0.0
 11
-46.1874999999917
 21
-40.41249999999992
 31
0.0
  0
LINE
  5
248
330
1F
100
AcDbEntity
  8
11
  6
Continuous
 62
     7
370
    13
100
AcDbLine
 10
126.6125000000082
 20
58.53041811381032
 30
0.0
 11
126.6125000000082
 21
52.13041811381085
 31
0.0
  0
LINE
  5
249
330
1F
100
AcDbEntity
  8
11
  6
Continuous
 62
     7
370
    13
100
AcDbLine
 10
126.6125000000082
 20
52.13041811381085
 30
0.0
 11
128.2125000000084
 21
52.13041811381074
 31
0.0
  0
LINE
  5
24A
330
1F
100
AcDbEntity
  8
11
  6
Continuous
 62
     7
370
    13
100
AcDbLine
 10
128.2125000000084
 20
52.13041811381074
 30
0.0
 11
128.2125000000084
 21
60.03041811381032
 31
0.0
  0
LINE
  5
24B
330
1F
100
AcDbEntity
  8
11
  6
Continuous
 62
     7
370
    13
100
AcDbLine
 10
126.6125000000082
 20
224.0304181138106
 30
0.0
 11
126.6125000000082
 21
230.4304181138104
 31
0.0
  0
LINE
  5
24C
330
1F
100
AcDbEntity
  8
11
  6
Continuous
 62
     7
370
    13
100
AcDbLine
 10
126.6125000000082
 20
230.4304181138104
 30
0.0
 11
128.2125000000084
 21
230.4304181138106
 31
0.0
  0
LINE
  5
24D
330
1F
100
AcDbEntity
  8
11
  6
Continuous
 62
     7
370
    13
100
AcDbLine
 10
128.2125000000084
 20
230.4304181138106
 30
0.0
 11
128.2125000000084
 21
222.5304181138106
 31
0.0
  0
LINE
  5
24E
330
1F
100
AcDbEntity
  8
11
  6
Continuous
 62
     7
370
    13
100
AcDbLine
 10
-40.97138218140685
 20
222.5304181138106
 30
0.0
 11
-40.97138218140685
 21
220.9304181138105
 31
0.0
  0
LINE
  5
24F
330
1F
100
AcDbEntity
  8
11
  6
Continuous
 62
     7
370
    13
100
AcDbLine
 10
-46.1874999999917
 20
220.9304181138105
 30
0.0
 11
-29.18749999999181
 21
220.9304181138105
 31
0.0
  0
LINE
  5
250
330
1F
100
AcDbEntity
  8
11
  6
Continuous
 62
     7
370
    13
100
AcDbLine
 10
-46.1874999999917
 20
222.5304181138106
 30
0.0
 11
126.6125000000082
 21
222.5304181138106
 31
0.0
  0
LINE
  5
251
330
1F
100
AcDbEntity
  8
11
  6
Continuous
 62
     7
370
    13
100
AcDbLine
 10
-40.97138218140685
 20
61.63041811381034
 30
0.0
 11
-40.97138218140685
 21
60.03041811381032
 31
0.0
  0
LINE
  5
252
330
1F
100
AcDbEntity
  8
11
  6
Continuous
 62
     7
370
    13
100
AcDbLine
 10
-29.18749999999181
 20
61.63041811381034
 30
0.0
 11
-46.1874999999917
 21
61.63041811381034
 31
0.0
  0
LINE
  5
253
330
1F
100
AcDbEntity
  8
11
  6
Continuous
 62
     7
370
    13
100
AcDbLine
 10
126.6125000000082
 20
60.03041811381032
 30
0.0
 11
-46.1874999999917
 21
60.03041811381032
 31
0.0
  0
LINE
  5
254
330
1F
100
AcDbEntity
  8
11
  6
Continuous
 62
     7
370
    13
100
AcDbLine
 10
146.3125000000082
 20
61.63041811381034
 30
0.0
 11
146.3125000000082
 21
60.03041811381032
 31
0.0
  0
LINE
  5
255
330
1F
100
AcDbEntity
  8
11
  6
Continuous
 62
     7
370
    13
100
AcDbLine
 10
150.8125000000082
 20
61.63041811381034
 30
0.0
 11
126.6125000000082
 21
61.63041811381034
 31
0.0
  0
LINE
  5
256
330
1F
100
AcDbEntity
  8
11
  6
Continuous
 62
     7
370
    13
100
AcDbLine
 10
150.8125000000082
 20
60.03041811381032
 30
0.0
 11
128.2125000000084
 21
60.03041811381032
 31
0.0
  0
LINE
  5
257
330
1F
100
AcDbEntity
  8
11
  6
Continuous
 62
     7
370
    13
100
AcDbLine
 10
146.3125000000082
 20
222.5304181138106
 30
0.0
 11
146.3125000000082
 21
220.9304181138105
 31
0.0
  0
LINE
  5
258
330
1F
100
AcDbEntity
  8
11
  6
Continuous
 62
     7
370
    13
100
AcDbLine
 10
126.6125000000082
 20
220.9304181138105
 30
0.0
 11
150.8125000000082
 21
220.9304181138105
 31
0.0
  0
LINE
  5
259
330
1F
100
AcDbEntity
  8
11
  6
Continuous
 62
     7
370
    13
100
AcDbLine
 10
128.2125000000084
 20
222.5304181138106
 30
0.0
 11
150.8125000000082
 21
222.5304181138106
 31
0.0
  0
LINE
  5
25A
330
1F
100
AcDbEntity
  8
11
  6
Continuous
 62
     7
370
    13
100
AcDbLine
 10
126.6125000000082
 20
-27.21249999999984
 30
0.0
 11
126.6125000000082
 21
-37.21249999999984
 31
0.0
  0
LINE
  5
25B
330
1F
100
AcDbEntity
  8
11
  6
Continuous
 62
     7
370
    13
100
AcDbLine
 10
126.6125000000082
 20
-36.71249999999984
 30
0.0
 11
128.2125000000084
 21
-36.71249999999984
 31
0.0
  0
LINE
  5
25C
330
1F
100
AcDbEntity
  8
11
  6
Continuous
 62
     7
370
    13
100
AcDbLine
 10
126.6125000000082
 20
-37.21249999999984
 30
0.0
 11
138.2125000000084
 21
-37.21249999999984
 31
0.0
  0
LINE
  5
25D
330
1F
100
AcDbEntity
  8
11
  6
Continuous
 62
     7
370
    13
100
AcDbLine
 10
138.2125000000084
 20
-35.41249999999992
 30
0.0
 11
138.2125000000084
 21
-37.21249999999984
 31
0.0
  0
LINE
  5
25E
330
1F
100
AcDbEntity
  8
11
  6
Continuous
 62
     7
370
    13
100
AcDbLine
 10
126.6125000000082
 20
71.28041811381033
 30
0.0
 11
126.6125000000082
 21
60.03041811381032
 31
0.0
  0
ARC
  5
25F
330
1F
100
AcDbEntity
  8
11
  6
Continuous
 62
     7
370
    13
100
AcDbCircle
 10
139.2125000000013
 20
-29.71250000000732
 30
0.0
 40
0.9999999999928946
100
AcDbArc
 50
179.9999999995717
 51
270.0000000004071
  0
ARC
  5
260
330
1F
100
AcDbEntity
  8
11
  6
Continuous
 62
     7
370
    13
100
AcDbCircle
 10
144.8124999999994
 20
-32.81250000000004
 30
0.0
 40
3.100000000006347
100
AcDbArc
 50
317.357690020171
 51
42.64230997983316
  0
ARC
  5
261
330
1F
100
AcDbEntity
  8
11
  6
Continuous
 62
     7
370
    13
100
AcDbCircle
 10
-39.18750000000068
 20
-37.81250000000004
 30
0.0
 40
3.100000000006347
100
AcDbArc
 50
317.357690020171
 51
42.64230997983316
  0
ARC
  5
262
330
1F
100
AcDbEntity
  8
11
  6
Continuous
 62
     7
370
    13
100
AcDbCircle
 10
126.7125000000084
 20
60.13041811381034
 30
0.0
 40
1.5
100
AcDbArc
 50
0.0
 51
90.0
  0
ARC
  5
263
330
1F
100
AcDbEntity
  8
11
  6
Continuous
 62
     7
370
    13
100
AcDbCircle
 10
125.1125000000082
 20
58.53041811381032
 30
0.0
 40
1.5
100
AcDbArc
 50
0.0
 51
90.0
  0
ARC
  5
264
330
1F
100
AcDbEntity
  8
11
  6
Continuous
 62
     7
370
    13
100
AcDbCircle
 10
125.1125000000082
 20
224.0304181138106
 30
0.0
 40
1.5
100
AcDbArc
 50
270.0
 51
0.0
  0
ARC
  5
265
330
1F
100
AcDbEntity
  8
11
  6
Continuous
 62
     7
370
    13
100
AcDbCircle
 10
126.7125000000084
 20
222.4304181138105
 30
0.0
 40
1.5
100
AcDbArc
 50
270.0
 51
0.0
  0
LINE
  5
266
330
1F
100
AcDbEntity
  8
11
  6
Continuous
 62
     7
370
    13
100
AcDbLine
 10
-264.1208996211237
 20
-41.81249999999992
 30
0.0
 11
-264.1208996211237
 21
-42.21249999999984
 31
0.0
  0
LINE
  5
267
330
1F
100
AcDbEntity
  8
11
  6
Continuous
 62
     7
370
    13
100
AcDbLine
 10
-264.1208996211237
 20
-33.81250000000004
 30
0.0
 11
-264.1208996211237
 21
-41.81249999999992
 31
0.0
  0
LINE
  5
268
330
1F
100
AcDbEntity
  8
11
  6
Continuous
 62
     7
370
    13
100
AcDbLine
 10
-103.2208996211239
 20
-41.81249999999992
 30
0.0
 11
-103.2208996211239
 21
-42.21249999999984
 31
0.0
  0
LINE
  5
269
330
1F
100
AcDbEntity
  8
11
  6
Continuous
 62
     7
370
    13
100
AcDbLine
 10
-93.72089962112386
 20
-29.31250000000004
 30
0.0
 11
-94.22089962112386
 21
-28.81250000000004
 31
0.0
  0
LINE
  5
26A
330
1F
100
AcDbEntity
  8
11
  6
Continuous
 62
     7
370
    13
100
AcDbLine
 10
-93.72089962112386
 20
-29.31250000000004
 30
0.0
 11
-93.72089962112386
 21
-36.21249999999984
 31
0.0
  0
LINE
  5
26B
330
1F
100
AcDbEntity
  8
11
  6
Continuous
 62
     7
370
    13
100
AcDbLine
 10
-94.22089962112386
 20
-28.81250000000004
 30
0.0
 11
-99.7708996211237
 21
-28.81250000000004
 31
0.0
  0
LINE
  5
26C
330
1F
100
AcDbEntity
  8
11
  6
Continuous
 62
     7
370
    13
100
AcDbLine
 10
-271.6208996211237
 20
-28.81250000000004
 30
0.0
 11
-265.9708996211239
 21
-28.81250000000004
 31
0.0
  0
LINE
  5
26D
330
1F
100
AcDbEntity
  8
11
  6
Continuous
 62
     7
370
    13
100
AcDbLine
 10
-103.2208996211239
 20
-42.21249999999984
 30
0.0
 11
-101.6208996211236
 21
-42.21249999999984
 31
0.0
  0
LINE
  5
26E
330
1F
100
AcDbEntity
  8
11
  6
Continuous
 62
     7
370
    13
100
AcDbLine
 10
-101.6208996211236
 20
-42.21249999999984
 30
0.0
 11
-101.6208996211236
 21
-41.81249999999992
 31
0.0
  0
LINE
  5
26F
330
1F
100
AcDbEntity
  8
11
  6
Continuous
 62
     7
370
    13
100
AcDbLine
 10
-103.6208996211236
 20
-27.21249999999984
 30
0.0
 11
-105.3708996211236
 21
-27.21249999999984
 31
0.0
  0
LINE
  5
270
330
1F
100
AcDbEntity
  8
11
  6
Continuous
 62
     7
370
    13
100
AcDbLine
 10
-264.1208996211237
 20
-42.21249999999984
 30
0.0
 11
-262.5208996211238
 21
-42.21249999999984
 31
0.0
  0
LINE
  5
271
330
1F
100
AcDbEntity
  8
11
  6
Continuous
 62
     7
370
    13
100
AcDbLine
 10
-262.5208996211238
 20
-42.21249999999984
 30
0.0
 11
-262.5208996211238
 21
-41.81249999999992
 31
0.0
  0
LINE
  5
272
330
1F
100
AcDbEntity
  8
11
  6
Continuous
 62
     7
370
    13
100
AcDbLine
 10
-261.5208996211238
 20
-28.81250000000004
 30
0.0
 11
-260.3708996211237
 21
-28.81250000000004
 31
0.0
  0
LINE
  5
273
330
1F
100
AcDbEntity
  8
11
  6
Continuous
 62
     7
370
    13
100
AcDbLine
 10
-264.1208996211237
 20
-27.21249999999984
 30
0.0
 11
-262.5208996211238
 21
-27.21249999999984
 31
0.0
  0
LINE
  5
274
330
1F
100
AcDbEntity
  8
11
  6
Continuous
 62
     7
370
    13
100
AcDbLine
 10
-103.2208996211239
 20
-27.21249999999984
 30
0.0
 11
-101.6208996211236
 21
-27.21249999999984
 31
0.0
  0
LINE
  5
275
330
1F
100
AcDbEntity
  8
11
  6
Continuous
 62
     7
370
    13
100
AcDbLine
 10
-262.5208996211238
 20
-41.81249999999992
 30
0.0
 11
-262.5208996211238
 21
-33.81250000000004
 31
0.0
  0
LINE
  5
276
330
1F
100
AcDbEntity
  8
11
  6
Continuous
 62
     7
370
    13
100
AcDbLine
 10
-272.1208996211237
 20
-29.31250000000004
 30
0.0
 11
-272.1208996211237
 21
-36.21250000000024
 31
0.0
  0
LINE
  5
277
330
1F
100
AcDbEntity
  8
11
  6
Continuous
 62
     7
370
    13
100
AcDbLine
 10
-272.1208996211237
 20
-36.21250000000024
 30
0.0
 11
-271.6208996211237
 21
-36.71249999999984
 31
0.0
  0
LINE
  5
278
330
1F
100
AcDbEntity
  8
11
  6
Continuous
 62
     7
370
    13
100
AcDbLine
 10
-272.1208996211237
 20
-29.31250000000004
 30
0.0
 11
-271.6208996211237
 21
-28.81250000000004
 31
0.0
  0
LINE
  5
279
330
1F
100
AcDbEntity
  8
11
  6
Continuous
 62
     7
370
    13
100
AcDbLine
 10
-103.2208996211239
 20
-33.81250000000004
 30
0.0
 11
-103.2208996211239
 21
-41.81249999999992
 31
0.0
  0
LINE
  5
27A
330
1F
100
AcDbEntity
  8
11
  6
Continuous
 62
     7
370
    13
100
AcDbLine
 10
-93.72089962112386
 20
-36.21249999999984
 30
0.0
 11
-94.22089962112386
 21
-36.71249999999984
 31
0.0
  0
LINE
  5
27B
330
1F
100
AcDbEntity
  8
11
  6
Continuous
 62
     7
370
    13
100
AcDbLine
 10
-264.1208996211237
 20
-30.85894660940674
 30
0.0
 11
-262.5208996211238
 21
-30.85894660940674
 31
0.0
  0
LINE
  5
27C
330
1F
100
AcDbEntity
  8
11
  6
Continuous
 62
     7
370
    13
100
AcDbLine
 10
-264.1208996211237
 20
-27.21249999999984
 30
0.0
 11
-264.1208996211237
 21
-33.81250000000004
 31
0.0
  0
LINE
  5
27D
330
1F
100
AcDbEntity
  8
11
  6
Continuous
 62
     7
370
    13
100
AcDbLine
 10
-262.5208996211238
 20
-33.81250000000004
 30
0.0
 11
-262.5208996211238
 21
-27.21249999999984
 31
0.0
  0
LINE
  5
27E
330
1F
100
AcDbEntity
  8
11
  6
Continuous
 62
     7
370
    13
100
AcDbLine
 10
-101.6208996211236
 20
-30.85894660940674
 30
0.0
 11
-103.2208996211239
 21
-30.85894660940674
 31
0.0
  0
LINE
  5
27F
330
1F
100
AcDbEntity
  8
11
  6
Continuous
 62
     7
370
    13
100
AcDbLine
 10
-101.6208996211236
 20
-33.81250000000004
 30
0.0
 11
-101.6208996211236
 21
-27.21249999999984
 31
0.0
  0
LINE
  5
280
330
1F
100
AcDbEntity
  8
11
  6
Continuous
 62
     7
370
    13
100
AcDbLine
 10
-103.2208996211239
 20
-27.21249999999984
 30
0.0
 11
-103.2208996211239
 21
-33.81250000000004
 31
0.0
  0
LINE
  5
281
330
1F
100
AcDbEntity
  8
11
  6
Continuous
 62
     7
370
    13
100
AcDbLine
 10
-105.3708996211236
 20
-28.81250000000004
 30
0.0
 11
-104.2208996211239
 21
-28.81250000000004
 31
0.0
  0
LINE
  5
282
330
1F
100
AcDbEntity
  8
11
  6
Continuous
 62
     7
370
    13
100
AcDbLine
 10
-260.3708996211237
 20
-27.21249999999984
 30
0.0
 11
-262.1208996211237
 21
-27.21249999999984
 31
0.0
  0
LINE
  5
283
330
1F
100
AcDbEntity
  8
11
  6
Continuous
 62
     7
370
    13
100
AcDbLine
 10
-99.7708996211237
 20
-36.71249999999984
 30
0.0
 11
-94.22089962112386
 21
-36.71249999999984
 31
0.0
  0
LINE
  5
284
330
1F
100
AcDbEntity
  8
11
  6
Continuous
 62
     7
370
    13
100
AcDbLine
 10
-101.6208996211236
 20
-41.81249999999992
 30
0.0
 11
-101.6208996211236
 21
-33.81250000000004
 31
0.0
  0
LINE
  5
285
330
1F
100
AcDbEntity
  8
11
  6
Continuous
 62
     7
370
    13
100
AcDbLine
 10
-265.9708996211239
 20
-36.71249999999984
 30
0.0
 11
-271.6208996211237
 21
-36.71249999999984
 31
0.0
  0
CIRCLE
  5
286
330
1F
100
AcDbEntity
  8
11
  6
Continuous
 62
     7
370
    13
100
AcDbCircle
 10
-97.04360531253371
 20
-33.21249999999984
 30
0.0
 40
1.600000000000108
  0
CIRCLE
  5
287
330
1F
100
AcDbEntity
  8
11
  6
Continuous
 62
     7
370
    13
100
AcDbCircle
 10
-268.6208996211237
 20
-33.21249999999984
 30
0.0
 40
1.599999999999909
  0
ARC
  5
288
330
1F
100
AcDbEntity
  8
11
  6
Continuous
 62
     7
370
    13
100
AcDbCircle
 10
-103.6208996211236
 20
-29.21249999999984
 30
0.0
 40
1.99999999999975
100
AcDbArc
 50
78.4630409671887
 51
90.0
  0
ARC
  5
289
330
1F
100
AcDbEntity
  8
11
  6
Continuous
 62
     7
370
    13
100
AcDbCircle
 10
-104.2208996211239
 20
-29.81250000000004
 30
0.0
 40
1.0
100
AcDbArc
 50
0.0
 51
90.0
  0
ARC
  5
28A
330
1F
100
AcDbEntity
  8
11
  6
Continuous
 62
     7
370
    13
100
AcDbCircle
 10
-261.5208996211238
 20
-29.81250000000004
 30
0.0
 40
1.0
100
AcDbArc
 50
90.0
 51
180.0
  0
ARC
  5
28B
330
1F
100
AcDbEntity
  8
11
  6
Continuous
 62
     7
370
    13
100
AcDbCircle
 10
-262.1208996211237
 20
-29.21249999999984
 30
0.0
 40
2.0
100
AcDbArc
 50
90.0
 51
101.5369590328193
  0
LINE
  5
28C
330
1F
100
AcDbEntity
  8
11
  6
DASHED2
 62
     4
370
    13
100
AcDbLine
 10
126.6010822331461
 20
-27.21249999999984
 30
0.0
 11
126.6010822331461
 21
-28.81250000000004
 31
0.0
  0
LINE
  5
28D
330
1F
100
AcDbEntity
  8
7
  6
DASHED2
 62
     4
370
    13
100
AcDbLine
 10
-49.38749999999186
 20
65.78041811381033
 30
0.0
 11
-35.18749999999181
 21
65.78041811381033
 31
0.0
  0
LINE
  5
28E
330
1F
100
AcDbEntity
  8
7
  6
DASHED2
 62
     4
370
    13
100
AcDbLine
 10
-28.18749999999181
 20
213.2804181138104
 30
0.0
 11
-28.18749999999181
 21
216.7804181138104
 31
0.0
  0
LINE
  5
28F
330
1F
100
AcDbEntity
  8
7
  6
DASHED2
 62
     4
370
    13
100
AcDbLine
 10
-29.18749999999181
 20
65.78041811381033
 30
0.0
 11
-28.03749999999195
 21
65.78041811381033
 31
0.0
  0
LINE
  5
290
330
1F
100
AcDbEntity
  8
7
  6
DASHED2
 62
     4
370
    13
100
AcDbLine
 10
-28.18749999999181
 20
65.78041811381033
 30
0.0
 11
-28.18749999999181
 21
69.28041811381033
 31
0.0
  0
LINE
  5
291
330
1F
100
AcDbEntity
  8
7
  6
DASHED2
 62
     4
370
    13
100
AcDbLine
 10
-27.93749999999181
 20
178.7804181138103
 30
0.0
 11
-27.93749999999181
 21
103.7804181138103
 31
0.0
  0
LINE
  5
292
330
1F
100
AcDbEntity
  8
7
  6
DASHED2
 62
     4
370
    13
100
AcDbLine
 10
-28.18749999999181
 20
69.28041811381033
 30
0.0
 11
-27.93749999999181
 21
103.7804181138103
 31
0.0
  0
LINE
  5
293
330
1F
100
AcDbEntity
  8
7
  6
DASHED2
 62
     4
370
    13
100
AcDbLine
 10
-28.18749999999181
 20
213.2804181138104
 30
0.0
 11
-27.93749999999181
 21
178.7804181138103
 31
0.0
  0
LINE
  5
294
330
1F
100
AcDbEntity
  8
7
  6
DASHED2
 62
     4
370
    13
100
AcDbLine
 10
-50.20197762837563
 20
71.27833083078431
 30
0.0
 11
-50.4374999999917
 21
103.7804181138103
 31
0.0
  0
LINE
  5
295
330
1F
100
AcDbEntity
  8
7
  6
DASHED2
 62
     4
370
    13
100
AcDbLine
 10
-50.20197671571032
 20
211.2826313446496
 30
0.0
 11
-50.4374999999917
 21
178.7804181138103
 31
0.0
  0
LINE
  5
296
330
1F
100
AcDbEntity
  8
3
  6
Continuous
 62
     7
370
    18
100
AcDbLine
 10
48.51249861420683
 20
-141.2737387047902
 30
0.0
 11
48.51249861420683
 21
-159.8257185930715
 31
0.0
  0
LINE
  5
297
330
1F
100
AcDbEntity
  8
3
  6
Continuous
 62
     7
370
    18
100
AcDbLine
 10
38.51249697510684
 20
-159.8257185930715
 30
0.0
 11
38.51249697510684
 21
-141.2737387047902
 31
0.0
  0
LINE
  5
298
330
1F
100
AcDbEntity
  8
3
  6
Continuous
 62
     7
370
    18
100
AcDbLine
 10
48.01249760090673
 20
-141.1676514698593
 30
0.0
 11
48.01249760090673
 21
-141.2737387047902
 31
0.0
  0
LINE
  5
299
330
1F
100
AcDbEntity
  8
3
  6
Continuous
 62
     7
370
    18
100
AcDbLine
 10
39.0124979883069
 20
-141.2737387047902
 30
0.0
 11
39.0124979883069
 21
-141.1676514698593
 31
0.0
  0
LINE
  5
29A
330
1F
100
AcDbEntity
  8
3
  6
Continuous
 62
     7
370
    18
100
AcDbLine
 10
42.70632448490687
 20
-160.8773233408716
 30
0.0
 11
42.66561823780671
 21
-160.7371481174715
 31
0.0
  0
LINE
  5
29B
330
1F
100
AcDbEntity
  8
3
  6
Continuous
 62
     7
370
    18
100
AcDbLine
 10
38.51249697510684
 20
-141.2737387047902
 30
0.0
 11
48.51249861420683
 21
-141.2737387047902
 31
0.0
  0
LINE
  5
29C
330
1F
100
AcDbEntity
  8
3
  6
Continuous
 62
     7
370
    18
100
AcDbLine
 10
38.51249697510684
 20
-159.8257185930715
 30
0.0
 11
48.51249861420683
 21
-159.8257185930715
 31
0.0
  0
LINE
  5
29D
330
1F
100
AcDbEntity
  8
3
  6
Continuous
 62
     7
370
    18
100
AcDbLine
 10
35.83749783930671
 20
-141.1676506253593
 30
0.0
 11
42.51249783930689
 21
-141.1676506253593
 31
0.0
  0
LINE
  5
29E
330
1F
100
AcDbEntity
  8
3
  6
Continuous
 62
     7
370
    18
100
AcDbLine
 10
42.51249783930689
 20
-141.1676506253593
 30
0.0
 11
41.51249783930689
 21
-139.1676506253593
 31
0.0
  0
LINE
  5
29F
330
1F
100
AcDbEntity
  8
3
  6
Continuous
 62
     7
370
    18
100
AcDbLine
 10
41.51249783930689
 20
-139.1676506253593
 30
0.0
 11
43.51249783930689
 21
-141.1676506253593
 31
0.0
  0
LINE
  5
2A0
330
1F
100
AcDbEntity
  8
3
  6
Continuous
 62
     7
370
    18
100
AcDbLine
 10
43.51249783930689
 20
-141.1676506253593
 30
0.0
 11
45.51249783930689
 21
-143.1676506253593
 31
0.0
  0
LINE
  5
2A1
330
1F
100
AcDbEntity
  8
3
  6
Continuous
 62
     7
370
    18
100
AcDbLine
 10
45.51249783930689
 20
-143.1676506253593
 30
0.0
 11
44.51249783930689
 21
-141.1676506253593
 31
0.0
  0
LINE
  5
2A2
330
1F
100
AcDbEntity
  8
3
  6
Continuous
 62
     7
370
    18
100
AcDbLine
 10
44.51249783930689
 20
-141.1676506253593
 30
0.0
 11
51.18749783930684
 21
-141.1676506253593
 31
0.0
  0
LINE
  5
2A3
330
1F
100
AcDbEntity
  8
3
  6
Continuous
 62
     7
370
    18
100
AcDbLine
 10
35.83749783930671
 20
-138.1676506253593
 30
0.0
 11
42.51249783930689
 21
-138.1676506253593
 31
0.0
  0
LINE
  5
2A4
330
1F
100
AcDbEntity
  8
3
  6
Continuous
 62
     7
370
    18
100
AcDbLine
 10
42.51249783930689
 20
-138.1676506253593
 30
0.0
 11
41.51249783930689
 21
-136.1676506253593
 31
0.0
  0
LINE
  5
2A5
330
1F
100
AcDbEntity
  8
3
  6
Continuous
 62
     7
370
    18
100
AcDbLine
 10
41.51249783930689
 20
-136.1676506253593
 30
0.0
 11
43.51249783930689
 21
-138.1676506253593
 31
0.0
  0
LINE
  5
2A6
330
1F
100
AcDbEntity
  8
3
  6
Continuous
 62
     7
370
    18
100
AcDbLine
 10
43.51249783930689
 20
-138.1676506253593
 30
0.0
 11
45.51249783930689
 21
-140.1676506253593
 31
0.0
  0
LINE
  5
2A7
330
1F
100
AcDbEntity
  8
3
  6
Continuous
 62
     7
370
    18
100
AcDbLine
 10
45.51249783930689
 20
-140.1676506253593
 30
0.0
 11
44.51249783930689
 21
-138.1676506253593
 31
0.0
  0
LINE
  5
2A8
330
1F
100
AcDbEntity
  8
3
  6
Continuous
 62
     7
370
    18
100
AcDbLine
 10
44.51249783930689
 20
-138.1676506253593
 30
0.0
 11
51.18749783930684
 21
-138.1676506253593
 31
0.0
  0
LINE
  5
2A9
330
1F
100
AcDbEntity
  8
3
  6
Continuous
 62
     7
370
    18
100
AcDbLine
 10
44.05358774568776
 20
-167.9964374051129
 30
0.0
 11
43.49104571040675
 21
-164.3455537075715
 31
0.0
  0
LINE
  5
2AA
330
1F
100
AcDbEntity
  8
3
  6
Continuous
 62
     7
370
    18
100
AcDbLine
 10
44.77369406461276
 20
-167.9964374051129
 30
0.0
 11
43.56632637680673
 21
-163.8387950176715
 31
0.0
  0
LINE
  5
2AB
330
1F
100
AcDbEntity
  8
3
  6
Continuous
 62
     7
370
    18
100
AcDbLine
 10
44.40094041530688
 20
-159.8257185930715
 30
0.0
 11
46.77348328816197
 21
-167.9964374051129
 31
0.0
  0
LINE
  5
2AC
330
1F
100
AcDbEntity
  8
3
  6
Continuous
 62
     7
370
    18
100
AcDbLine
 10
47.40511603750622
 20
-167.9964374051129
 30
0.0
 11
44.44435122310688
 21
-159.8257185930715
 31
0.0
  0
LINE
  5
2AD
330
1F
100
AcDbEntity
  8
3
  6
Continuous
 62
     7
370
    18
100
AcDbLine
 10
46.44434782560688
 20
-159.8257185930715
 30
0.0
 11
49.40347879863305
 21
-167.9964374051129
 31
0.0
  0
LINE
  5
2AE
330
1F
100
AcDbEntity
  8
3
  6
Continuous
 62
     7
370
    18
100
AcDbLine
 10
39.07864127463483
 20
-167.9964374051129
 30
0.0
 11
40.59257241780688
 21
-159.8257185930715
 31
0.0
  0
LINE
  5
2AF
330
1F
100
AcDbEntity
  8
3
  6
Continuous
 62
     7
370
    18
100
AcDbLine
 10
39.13280440229641
 20
-167.9964374051129
 30
0.0
 11
40.65421852170675
 21
-159.8257185930715
 31
0.0
  0
LINE
  5
2B0
330
1F
100
AcDbEntity
  8
3
  6
Continuous
 62
     7
370
    18
100
AcDbLine
 10
40.18228671894997
 20
-167.9964374051129
 30
0.0
 11
41.5145929426069
 21
-159.8257185930715
 31
0.0
  0
LINE
  5
2B1
330
1F
100
AcDbEntity
  8
3
  6
Continuous
 62
     7
370
    18
100
AcDbLine
 10
42.81459259690678
 20
-159.8257185930715
 30
0.0
 11
41.47909417958329
 21
-167.9964374051129
 31
0.0
  0
LINE
  5
2B2
330
1F
100
AcDbEntity
  8
3
  6
Continuous
 62
     7
370
    18
100
AcDbLine
 10
41.64908351049633
 20
-167.9964374051129
 30
0.0
 11
42.86249610480672
 21
-159.8257185930715
 31
0.0
  0
LINE
  5
2B3
330
1F
100
AcDbEntity
  8
3
  6
Continuous
 62
     7
370
    18
100
AcDbLine
 10
44.16249948440668
 20
-159.8257185930715
 30
0.0
 11
42.94868243102405
 21
-167.9964374051129
 31
0.0
  0
LINE
  5
2B4
330
1F
100
AcDbEntity
  8
3
  6
Continuous
 62
     7
370
    18
100
AcDbLine
 10
48.01249760090673
 20
-126.8125000000002
 30
0.0
 11
48.01249760090673
 21
-138.1676479174593
 31
0.0
  0
LINE
  5
2B5
330
1F
100
AcDbEntity
  8
3
  6
Continuous
 62
     7
370
    18
100
AcDbLine
 10
39.0124979883069
 20
-138.1676479174593
 30
0.0
 11
39.0124979883069
 21
-126.8125000000002
 31
0.0
  0
LINE
  5
2B6
330
1F
100
AcDbEntity
  8
3
  6
Continuous
 62
     7
370
    18
100
AcDbLine
 10
-187.8708995093739
 20
-141.2737446789903
 30
0.0
 11
-187.8708995093739
 21
-159.8257245672716
 31
0.0
  0
LINE
  5
2B7
330
1F
100
AcDbEntity
  8
3
  6
Continuous
 62
     7
370
    18
100
AcDbLine
 10
-177.870899732874
 20
-159.8257245672716
 30
0.0
 11
-177.870899732874
 21
-141.2737446789903
 31
0.0
  0
LINE
  5
2B8
330
1F
100
AcDbEntity
  8
3
  6
Continuous
 62
     7
370
    18
100
AcDbLine
 10
-187.3708994273738
 20
-141.1676574440594
 30
0.0
 11
-187.3708994273738
 21
-141.2737446789903
 31
0.0
  0
LINE
  5
2B9
330
1F
100
AcDbEntity
  8
3
  6
Continuous
 62
     7
370
    18
100
AcDbLine
 10
-178.370899814774
 20
-141.2737446789903
 30
0.0
 11
-178.370899814774
 21
-141.1676574440594
 31
0.0
  0
LINE
  5
2BA
330
1F
100
AcDbEntity
  8
3
  6
Continuous
 62
     7
370
    18
100
AcDbLine
 10
-182.8708996210739
 20
-159.8257245672716
 30
0.0
 11
-187.8708995093739
 21
-159.8257245672716
 31
0.0
  0
LINE
  5
2BB
330
1F
100
AcDbEntity
  8
3
  6
Continuous
 62
     7
370
    18
100
AcDbLine
 10
-177.870899732874
 20
-159.8257245672716
 30
0.0
 11
-182.8708996210739
 21
-159.8257245672716
 31
0.0
  0
LINE
  5
2BC
330
1F
100
AcDbEntity
  8
3
  6
Continuous
 62
     7
370
    18
100
AcDbLine
 10
-181.8708996210739
 20
-141.1676565995594
 30
0.0
 11
-180.8708996210739
 21
-139.1676565995594
 31
0.0
  0
LINE
  5
2BD
330
1F
100
AcDbEntity
  8
3
  6
Continuous
 62
     7
370
    18
100
AcDbLine
 10
-180.8708996210739
 20
-139.1676565995594
 30
0.0
 11
-182.8708996210739
 21
-141.1676565995594
 31
0.0
  0
LINE
  5
2BE
330
1F
100
AcDbEntity
  8
3
  6
Continuous
 62
     7
370
    18
100
AcDbLine
 10
-182.8708996210739
 20
-141.1676565995594
 30
0.0
 11
-184.8708996210739
 21
-143.1676565995594
 31
0.0
  0
LINE
  5
2BF
330
1F
100
AcDbEntity
  8
3
  6
Continuous
 62
     7
370
    18
100
AcDbLine
 10
-184.8708996210739
 20
-143.1676565995594
 30
0.0
 11
-183.8708996210739
 21
-141.1676565995594
 31
0.0
  0
LINE
  5
2C0
330
1F
100
AcDbEntity
  8
3
  6
Continuous
 62
     7
370
    18
100
AcDbLine
 10
-181.8708996210739
 20
-138.1676565995594
 30
0.0
 11
-180.8708996210739
 21
-136.1676565995594
 31
0.0
  0
LINE
  5
2C1
330
1F
100
AcDbEntity
  8
3
  6
Continuous
 62
     7
370
    18
100
AcDbLine
 10
-180.8708996210739
 20
-136.1676565995594
 30
0.0
 11
-182.8708996210739
 21
-138.1676565995594
 31
0.0
  0
LINE
  5
2C2
330
1F
100
AcDbEntity
  8
3
  6
Continuous
 62
     7
370
    18
100
AcDbLine
 10
-182.8708996210739
 20
-138.1676565995594
 30
0.0
 11
-184.8708996210739
 21
-140.1676565995594
 31
0.0
  0
LINE
  5
2C3
330
1F
100
AcDbEntity
  8
3
  6
Continuous
 62
     7
370
    18
100
AcDbLine
 10
-184.8708996210739
 20
-140.1676565995594
 30
0.0
 11
-183.8708996210739
 21
-138.1676565995594
 31
0.0
  0
LINE
  5
2C4
330
1F
100
AcDbEntity
  8
3
  6
Continuous
 62
     7
370
    18
100
AcDbLine
 10
-178.370899814774
 20
-138.1676538916593
 30
0.0
 11
-178.370899814774
 21
-127.3125000000001
 31
0.0
  0
LINE
  5
2C5
330
1F
100
AcDbEntity
  8
3
  6
Continuous
 62
     7
370
    18
100
AcDbLine
 10
-187.3708994273738
 20
-127.3125000000001
 30
0.0
 11
-187.3708994273738
 21
-138.1676538916593
 31
0.0
  0
LINE
  5
2C6
330
1F
100
AcDbEntity
  8
3
  6
Continuous
 62
     7
370
    18
100
AcDbLine
 10
-177.870899732874
 20
-141.2737446789903
 30
0.0
 11
-178.370899814774
 21
-141.2737446789903
 31
0.0
  0
LINE
  5
2C7
330
1F
100
AcDbEntity
  8
3
  6
Continuous
 62
     7
370
    18
100
AcDbLine
 10
-187.3708994273738
 20
-141.2737446789903
 30
0.0
 11
-187.8708995093739
 21
-141.2737446789903
 31
0.0
  0
LINE
  5
2C8
330
1F
100
AcDbEntity
  8
3
  6
Continuous
 62
     7
370
    18
100
AcDbLine
 10
-185.8708996471737
 20
-159.8257245672716
 30
0.0
 11
-184.8530048184739
 21
-167.9964374051129
 31
0.0
  0
LINE
  5
2C9
330
1F
100
AcDbEntity
  8
3
  6
Continuous
 62
     7
370
    18
100
AcDbLine
 10
-180.4206951667738
 20
-159.8257245672716
 30
0.0
 11
-179.6420123301415
 21
-167.9964374051129
 31
0.0
  0
LINE
  5
2CA
330
1F
100
AcDbEntity
  8
3
  6
Continuous
 62
     7
370
    18
100
AcDbLine
 10
-185.4459068883739
 20
-159.8257245672716
 30
0.0
 11
-184.6288216213738
 21
-167.9964374051129
 31
0.0
  0
LINE
  5
2CB
330
1F
100
AcDbEntity
  8
3
  6
Continuous
 62
     7
370
    18
100
AcDbLine
 10
-181.6126749065738
 20
-159.8257245672716
 30
0.0
 11
-180.3294482400157
 21
-167.9964374051129
 31
0.0
  0
LINE
  5
2CC
330
1F
100
AcDbEntity
  8
3
  6
Continuous
 62
     7
370
    18
100
AcDbLine
 10
-182.9126748664737
 20
-159.8257245672716
 30
0.0
 11
-181.4383293415738
 21
-167.9964374051129
 31
0.0
  0
LINE
  5
2CD
330
1F
100
AcDbEntity
  8
3
  6
Continuous
 62
     7
370
    18
100
AcDbLine
 10
-183.0246469646738
 20
-159.8257245672716
 30
0.0
 11
-182.7954506391911
 21
-167.9964374051129
 31
0.0
  0
LINE
  5
2CE
330
1F
100
AcDbEntity
  8
3
  6
Continuous
 62
     7
370
    18
100
AcDbLine
 10
-184.3246470118738
 20
-159.8257245672716
 30
0.0
 11
-184.050903716774
 21
-167.9964374051129
 31
0.0
  0
LINE
  5
2CF
330
1F
100
AcDbEntity
  8
3
  6
Continuous
 62
     7
370
    18
100
AcDbLine
 10
-179.9540215631305
 20
-167.9964374051129
 30
0.0
 11
-179.8804128222739
 21
-159.8257245672716
 31
0.0
  0
LINE
  5
2D0
330
1F
100
AcDbEntity
  8
3
  6
Continuous
 62
     7
370
    18
100
AcDbLine
 10
-175.195899621074
 20
-141.1676565995594
 30
0.0
 11
-181.8708996210739
 21
-141.1676565995594
 31
0.0
  0
LINE
  5
2D1
330
1F
100
AcDbEntity
  8
3
  6
Continuous
 62
     7
370
    18
100
AcDbLine
 10
-183.8708996210739
 20
-141.1676565995594
 30
0.0
 11
-190.5458996210739
 21
-141.1676565995594
 31
0.0
  0
LINE
  5
2D2
330
1F
100
AcDbEntity
  8
3
  6
Continuous
 62
     7
370
    18
100
AcDbLine
 10
-175.195899621074
 20
-138.1676565995594
 30
0.0
 11
-181.8708996210739
 21
-138.1676565995594
 31
0.0
  0
LINE
  5
2D3
330
1F
100
AcDbEntity
  8
3
  6
Continuous
 62
     7
370
    18
100
AcDbLine
 10
-183.8708996210739
 20
-138.1676565995594
 30
0.0
 11
-190.5458996210739
 21
-138.1676565995594
 31
0.0
  0
LINE
  5
2D4
330
1F
100
AcDbEntity
  8
3
  6
Continuous
 62
     7
370
    18
100
AcDbLine
 10
-185.3708966746239
 20
-70.3125019211
 30
0.0
 11
-187.4534722529238
 21
-70.3125019211
 31
0.0
  0
LINE
  5
2D5
330
1F
100
AcDbEntity
  8
3
  6
Continuous
 62
     7
370
    18
100
AcDbLine
 10
-185.3708966746239
 20
-74.31251002729996
 30
0.0
 11
-187.4534722529238
 21
-74.31251002729996
 31
0.0
  0
LINE
  5
2D6
330
1F
100
AcDbEntity
  8
3
  6
Continuous
 62
     7
370
    18
100
AcDbLine
 10
-185.3708966746239
 20
-74.31251002729996
 30
0.0
 11
-185.3708966746239
 21
-70.3125019211
 31
0.0
  0
CIRCLE
  5
2D7
330
1F
100
AcDbEntity
  8
3
  6
Continuous
 62
     7
370
    18
100
AcDbCircle
 10
-182.8709035343238
 20
-72.31250597420004
 30
0.0
 40
4.999995227320806
  0
LINE
  5
2D8
330
1F
100
AcDbEntity
  8
14
  6
PHANTOM
 62
   140
370
    13
100
AcDbLine
 10
145.1383463445584
 20
-38.80364547976743
 30
0.0
 11
-38.59011503497561
 21
-48.79626671290703
 31
0.0
  0
LINE
  5
2D9
330
1F
100
AcDbEntity
  8
14
  6
PHANTOM
 62
   140
370
    13
100
AcDbLine
 10
-39.18750000000068
 20
-26.81250000000004
 30
0.0
 11
144.8124999999994
 21
-26.81250000000004
 31
0.0
  0
LINE
  5
2DA
330
1F
100
AcDbEntity
  8
14
  6
PHANTOM
 62
   140
370
    13
100
AcDbLine
 10
-39.18750000000068
 20
-26.01250000000002
 30
0.0
 11
144.8124999999994
 21
-26.01250000000002
 31
0.0
  0
LINE
  5
2DB
330
1F
100
AcDbEntity
  8
14
  6
PHANTOM
 62
   140
370
    13
100
AcDbLine
 10
145.1817925238329
 20
-39.60246487706971
 30
0.0
 11
-38.54666885570168
 21
-49.59508611020932
 31
0.0
  0
ARC
  5
2DC
330
1F
100
AcDbEntity
  8
14
  6
PHANTOM
 62
   140
370
    13
100
AcDbCircle
 10
144.8124999999994
 20
-32.81250000000004
 30
0.0
 40
6.799999999999939
100
AcDbArc
 50
273.6559364886074
 51
90.0
  0
ARC
  5
2DD
330
1F
100
AcDbEntity
  8
14
  6
PHANTOM
 62
   140
370
    13
100
AcDbCircle
 10
-39.18750000000068
 20
-37.81250000000004
 30
0.0
 40
11.80000000000001
100
AcDbArc
 50
90.0
 51
273.1131349426789
  0
LINE
  5
2DE
330
1F
100
AcDbEntity
  8
14
  6
PHANTOM
 62
   140
370
    13
100
AcDbLine
 10
-252.8708996211237
 20
-26.01249999999974
 30
0.0
 11
-112.8708996211236
 21
-26.01249999999974
 31
0.0
  0
LINE
  5
2DF
330
1F
100
AcDbEntity
  8
14
  6
PHANTOM
 62
   140
370
    13
100
AcDbLine
 10
-112.8708996211236
 20
-26.01249999999974
 30
0.0
 11
-112.8708996211236
 21
-26.81249999999972
 31
0.0
  0
LINE
  5
2E0
330
1F
100
AcDbEntity
  8
14
  6
PHANTOM
 62
   140
370
    13
100
AcDbLine
 10
-112.8708996211236
 20
-26.81249999999972
 30
0.0
 11
-252.8708996211237
 21
-26.81249999999972
 31
0.0
  0
LINE
  5
2E1
330
1F
100
AcDbEntity
  8
14
  6
PHANTOM
 62
   140
370
    13
100
AcDbLine
 10
-252.8708996211237
 20
-26.81249999999972
 30
0.0
 11
-252.8708996211237
 21
-26.01249999999974
 31
0.0
  0
LINE
  5
2E2
330
1F
100
AcDbEntity
  8
14
  6
PHANTOM
 62
   140
370
    13
100
AcDbLine
 10
-112.8708996211236
 20
-49.86249999999993
 30
0.0
 11
-252.8708996211237
 21
-49.86249999999993
 31
0.0
  0
LINE
  5
2E3
330
1F
100
AcDbEntity
  8
14
  6
PHANTOM
 62
   140
370
    13
100
AcDbLine
 10
-252.8708996211237
 20
-49.86249999999993
 30
0.0
 11
-252.8708996211237
 21
-49.06249999999992
 31
0.0
  0
LINE
  5
2E4
330
1F
100
AcDbEntity
  8
14
  6
PHANTOM
 62
   140
370
    13
100
AcDbLine
 10
-252.8708996211237
 20
-49.06249999999992
 30
0.0
 11
-112.8708996211236
 21
-49.06249999999992
 31
0.0
  0
LINE
  5
2E5
330
1F
100
AcDbEntity
  8
14
  6
PHANTOM
 62
   140
370
    13
100
AcDbLine
 10
-112.8708996211236
 20
-49.06249999999992
 30
0.0
 11
-112.8708996211236
 21
-49.86249999999993
 31
0.0
  0
LINE
  5
2E6
330
1F
100
AcDbEntity
  8
7
  6
Continuous
 62
     7
370
    13
100
AcDbLine
 10
-35.18749999999181
 20
218.7804181138104
 30
0.0
 11
-35.18749999999181
 21
220.9304181138105
 31
0.0
  0
LINE
  5
2E7
330
1F
100
AcDbEntity
  8
7
  6
Continuous
 62
     7
370
    13
100
AcDbLine
 10
-35.18749999999181
 20
65.78041811381033
 30
0.0
 11
-29.18749999999181
 21
65.78041811381033
 31
0.0
  0
LINE
  5
2E8
330
1F
100
AcDbEntity
  8
7
  6
Continuous
 62
     7
370
    13
100
AcDbLine
 10
-29.18749999999181
 20
216.7804181138104
 30
0.0
 11
-50.1874999999917
 21
216.7804181138104
 31
0.0
  0
LINE
  5
2E9
330
1F
100
AcDbEntity
  8
7
  6
Continuous
 62
     7
370
    13
100
AcDbLine
 10
-50.1874999999917
 20
216.7804181138104
 30
0.0
 11
-50.1874999999917
 21
213.2804181138104
 31
0.0
  0
LINE
  5
2EA
330
1F
100
AcDbEntity
  8
7
  6
Continuous
 62
     7
370
    13
100
AcDbLine
 10
-43.1874999999917
 20
65.78041811381033
 30
0.0
 11
-50.1874999999917
 21
65.78041811381033
 31
0.0
  0
LINE
  5
2EB
330
1F
100
AcDbEntity
  8
7
  6
Continuous
 62
     7
370
    13
100
AcDbLine
 10
-50.1874999999917
 20
65.78041811381033
 30
0.0
 11
-50.1874999999917
 21
69.28041811381033
 31
0.0
  0
LINE
  5
2EC
330
1F
100
AcDbEntity
  8
7
  6
Continuous
 62
     7
370
    13
100
AcDbLine
 10
-50.4374999999917
 20
103.7804181138103
 30
0.0
 11
-50.4374999999917
 21
178.7804181138103
 31
0.0
  0
LINE
  5
2ED
330
1F
100
AcDbEntity
  8
7
  6
Continuous
 62
     7
370
    13
100
AcDbLine
 10
-43.1874999999917
 20
63.78041811381032
 30
0.0
 11
-43.1874999999917
 21
61.63041811381034
 31
0.0
  0
LINE
  5
2EE
330
1F
100
AcDbEntity
  8
7
  6
Continuous
 62
     7
370
    13
100
AcDbLine
 10
-35.18749999999181
 20
61.63041811381034
 30
0.0
 11
-35.18749999999181
 21
63.78041811381032
 31
0.0
  0
LINE
  5
2EF
330
1F
100
AcDbEntity
  8
7
  6
Continuous
 62
     7
370
    13
100
AcDbLine
 10
-43.1874999999917
 20
220.9304181138105
 30
0.0
 11
-43.1874999999917
 21
218.7804181138104
 31
0.0
  0
LINE
  5
2F0
330
1F
100
AcDbEntity
  8
7
  6
Continuous
 62
     7
370
    13
100
AcDbLine
 10
-50.20197762837563
 20
71.27833083078431
 30
0.0
 11
-50.1874999999917
 21
69.28041811381033
 31
0.0
  0
LINE
  5
2F1
330
1F
100
AcDbEntity
  8
7
  6
Continuous
 62
     7
370
    13
100
AcDbLine
 10
-50.20197671571032
 20
211.2826313446496
 30
0.0
 11
-50.1874999999917
 21
213.2804181138104
 31
0.0
  0
LINE
  5
2F2
330
1F
100
AcDbEntity
  8
7
  6
Continuous
 62
     7
370
    13
100
AcDbLine
 10
-254.8708996211237
 20
-26.81250000000004
 30
0.0
 11
-252.8708996211237
 21
-26.79800724637673
 31
0.0
  0
LINE
  5
2F3
330
1F
100
AcDbEntity
  8
7
  6
Continuous
 62
     7
370
    13
100
AcDbLine
 10
-110.8708996211236
 20
-26.81250000000004
 30
0.0
 11
-112.8708996211236
 21
-26.79800724637673
 31
0.0
  0
LINE
  5
2F4
330
1F
100
AcDbEntity
  8
7
  6
Continuous
 62
     7
370
    13
100
AcDbLine
 10
-145.3708996211236
 20
-49.06249999999992
 30
0.0
 11
-220.3708996211237
 21
-49.06249999999992
 31
0.0
  0
LINE
  5
2F5
330
1F
100
AcDbEntity
  8
7
  6
Continuous
 62
     7
370
    13
100
AcDbLine
 10
-145.3708996211236
 20
-49.06249999999992
 30
0.0
 11
-110.8708996211236
 21
-48.81249999999992
 31
0.0
  0
LINE
  5
2F6
330
1F
100
AcDbEntity
  8
7
  6
Continuous
 62
     7
370
    13
100
AcDbLine
 10
-220.3708996211237
 20
-49.06249999999992
 30
0.0
 11
-254.8708996211237
 21
-48.81249999999992
 31
0.0
  0
LINE
  5
2F7
330
1F
100
AcDbEntity
  8
7
  6
Continuous
 62
     7
370
    13
100
AcDbLine
 10
-107.3708996211236
 20
-48.81249999999992
 30
0.0
 11
-110.8708996211236
 21
-48.81249999999992
 31
0.0
  0
LINE
  5
2F8
330
1F
100
AcDbEntity
  8
7
  6
Continuous
 62
     7
370
    13
100
AcDbLine
 10
-107.3708996211236
 20
-26.81250000000004
 30
0.0
 11
-110.8708996211236
 21
-26.81250000000004
 31
0.0
  0
LINE
  5
2F9
330
1F
100
AcDbEntity
  8
7
  6
Continuous
 62
     7
370
    13
100
AcDbLine
 10
-254.8708996211237
 20
-26.81250000000004
 30
0.0
 11
-258.3708996211237
 21
-26.81250000000004
 31
0.0
  0
LINE
  5
2FA
330
1F
100
AcDbEntity
  8
7
  6
Continuous
 62
     7
370
    13
100
AcDbLine
 10
-258.3708996211237
 20
-48.81249999999992
 30
0.0
 11
-254.8708996211237
 21
-48.81249999999992
 31
0.0
  0
LINE
  5
2FB
330
1F
100
AcDbEntity
  8
7
  6
Continuous
 62
     7
370
    13
100
AcDbLine
 10
-258.3708996211237
 20
-48.96249999999984
 30
0.0
 11
-258.3708996211237
 21
-26.66249999999992
 31
0.0
  0
LINE
  5
2FC
330
1F
100
AcDbEntity
  8
7
  6
Continuous
 62
     7
370
    13
100
AcDbLine
 10
-107.3708996211236
 20
-48.96249999999984
 30
0.0
 11
-107.3708996211236
 21
-26.66249999999992
 31
0.0
  0
LINE
  5
2FD
330
1F
100
AcDbEntity
  8
7
  6
Continuous
 62
     7
370
    13
100
AcDbLine
 10
-103.2208996211239
 20
-33.81250000000004
 30
0.0
 11
-105.3708996211236
 21
-33.81250000000004
 31
0.0
  0
LINE
  5
2FE
330
1F
100
AcDbEntity
  8
7
  6
Continuous
 62
     7
370
    13
100
AcDbLine
 10
-103.2208996211239
 20
-41.81249999999992
 30
0.0
 11
-105.3708996211236
 21
-41.81249999999992
 31
0.0
  0
LINE
  5
2FF
330
1F
100
AcDbEntity
  8
7
  6
Continuous
 62
     7
370
    13
100
AcDbLine
 10
-262.5208996211234
 20
-33.81250000000004
 30
0.0
 11
-260.3708996211236
 21
-33.81250000000004
 31
0.0
  0
LINE
  5
300
330
1F
100
AcDbEntity
  8
7
  6
Continuous
 62
     7
370
    13
100
AcDbLine
 10
-262.5208996211234
 20
-41.81249999999992
 30
0.0
 11
-260.3708996211236
 21
-41.81249999999992
 31
0.0
  0
LINE
  5
301
330
1F
100
AcDbEntity
  8
7
  6
Continuous
 62
     7
370
    13
100
AcDbLine
 10
-41.42356797750085
 20
-35.81250000000004
 30
0.0
 11
-36.95143202250063
 21
-35.81250000000004
 31
0.0
  0
LINE
  5
302
330
1F
100
AcDbEntity
  8
7
  6
Continuous
 62
     7
370
    13
100
AcDbLine
 10
-41.42356797750085
 20
-39.81250000000004
 30
0.0
 11
-36.95143202250063
 21
-39.81250000000004
 31
0.0
  0
ARC
  5
303
330
1F
100
AcDbEntity
  8
7
  6
Continuous
 62
     7
370
    13
100
AcDbCircle
 10
-39.18750000000068
 20
-37.81250000000004
 30
0.0
 40
3.000000000000156
100
AcDbArc
 50
318.1896851042241
 51
41.81031489577592
  0
ARC
  5
304
330
1F
100
AcDbEntity
  8
7
  6
Continuous
 62
     7
370
    13
100
AcDbCircle
 10
-39.18750000000068
 20
-37.81250000000004
 30
0.0
 40
3.000000000000305
100
AcDbArc
 50
138.1896851042266
 51
221.8103148957734
  0
DIMENSION
  5
305
330
1F
100
AcDbEntity
  8
15
  6
Continuous
370
    13
100
AcDbDimension
  2
*D3
 10
171.3125000000082
 20
211.2804181138106
 30
0.0
 11
171.3125000000082
 21
141.2804181138104
 31
0.0
 70
   160
 71
     8
 42
-1.0
  3
dc_Rotated
100
AcDbAlignedDimension
 13
151.6125000000082
 23
71.28041811381033
 33
0.0
 14
151.6125000000082
 24
211.2804181138106
 34
0.0
 50
90.0
100
AcDbRotatedDimension
1001
ACAD
1000
DSTYLE
1002
{
1070
   144
1040
1.0
1070
   274
1070
     4
1070
    41
1040
6.000003814697266
1070
    79
1070
     2
1070
   343
1005
10B
1070
   344
1005
10B
1070
   176
1070
     2
1070
   177
1070
     2
1070
   178
1070
     2
1070
   271
1070
     2
1070
    44
1040
2.0
1070
    42
1040
2.0
1070
   147
1040
2.0
1070
   173
1070
     1
1070
    77
1070
     3
1070
    73
1070
     0
1070
   172
1070
     1
1070
    74
1070
     0
1070
   283
1070
     0
1070
   340
1005
115
1070
   140
1040
8.0
1070
   284
1070
     8
1070
   288
1070
     1
1070
    78
1070
     8
1070
    90
1070
     1
1002
}
  0
DIMENSION
  5
307
330
1F
100
AcDbEntity
  8
15
  6
Continuous
370
    13
100
AcDbDimension
  2
*D4
 10
187.3125000000082
 20
-26.81249999999992
 30
0.0
 11
187.3125000000082
 21
-76.81250000000006
 31
0.0
 70
   160
 71
     8
 42
-1.0
  3
dc_Rotated
100
AcDbAlignedDimension
 13
148.3125000000082
 23
-126.8125000000002
 33
0.0
 14
114.3125000000082
 24
-26.81249999999992
 34
0.0
 50
90.0
100
AcDbRotatedDimension
1001
ACAD
1000
DSTYLE
1002
{
1070
   144
1040
1.0
1070
   274
1070
     4
1070
    41
1040
6.000003814697266
1070
    79
1070
     2
1070
   343
1005
10B
1070
   344
1005
10B
1070
   176
1070
     2
1070
   177
1070
     2
1070
   178
1070
     2
1070
   271
1070
     2
1070
    44
1040
2.0
1070
    42
1040
2.0
1070
   147
1040
2.0
1070
   173
1070
     1
1070
    77
1070
     3
1070
    73
1070
     0
1070
   172
1070
     1
1070
    74
1070
     0
1070
   283
1070
     0
1070
   340
1005
115
1070
   140
1040
8.0
1070
   284
1070
     8
1070
   288
1070
     1
1070
    78
1070
     8
1070
    90
1070
     1
1002
}
  0
DIMENSION
  5
308
330
1F
100
AcDbEntity
  8
15
  6
Continuous
370
    13
100
AcDbDimension
  2
*D5
 10
151.3125000000082
 20
-1.812499999999922
 30
0.0
 11
50.16250000000389
 21
-1.812499999999922
 31
0.0
 70
   160
  1
200
 71
     8
 42
-1.0
  3
dc_Rotated
100
AcDbAlignedDimension
 13
-50.98750000000052
 23
-35.71249999999984
 33
0.0
 14
151.3125000000082
 24
-43.41250000000003
 34
0.0
100
AcDbRotatedDimension
1001
ACAD
1000
DSTYLE
1002
{
1070
   144
1040
1.0
1070
   274
1070
     4
1070
    41
1040
6.000003814697266
1070
    79
1070
     2
1070
   343
1005
10B
1070
   344
1005
10B
1070
   176
1070
     2
1070
   177
1070
     2
1070
   178
1070
     2
1070
   271
1070
     2
1070
    44
1040
2.0
1070
    42
1040
2.0
1070
   147
1040
2.0
1070
   173
1070
     1
1070
    77
1070
     3
1070
    73
1070
     0
1070
   172
1070
     1
1070
    74
1070
     0
1070
   283
1070
     0
1070
   340
1005
115
1070
   140
1040
8.0
1070
   284
1070
     8
1070
   288
1070
     1
1070
    78
1070
     8
1070
    90
1070
     1
1002
}
  0
DIMENSION
  5
309
330
1F
100
AcDbEntity
  8
15
  6
Continuous
370
    13
100
AcDbDimension
  2
*D6
 10
141.0615272014576
 20
-37.49546947081638
 30
0.0
 11
167.6282070317616
 21
-16.81249999999992
 31
0.0
 70
   163
  1
φ12
 71
     8
 42
-1.0
  3
dc_Diam06
100
AcDbDiametricDimension
 15
148.5634727985412
 25
-28.12953052918357
 35
0.0
 40
0.0
1001
ACAD
1000
DSTYLE
1002
{
1070
   144
1040
1.0
1070
   274
1070
     4
1070
    41
1040
6.000003814697266
1070
    79
1070
     2
1070
   343
1005
10B
1070
   344
1005
10B
1070
   176
1070
     2
1070
   177
1070
     2
1070
   178
1070
     2
1070
   271
1070
     2
1070
    44
1040
2.0
1070
    42
1040
2.0
1070
   147
1040
2.0
1070
   173
1070
     1
1070
    77
1070
     2
1070
   283
1070
     0
1070
   340
1005
115
1070
   140
1040
8.0
1070
   284
1070
     8
1070
   288
1070
     1
1070
    78
1070
     8
1070
    90
1070
     1
1002
}
  0
INSERT
  5
30B
330
1F
100
AcDbEntity
  8
15
  6
Continuous
100
AcDbBlockReference
  2
DA_DIMGROUP_0
 10
0.0
 20
0.0
 30
0.0
  0
DIMENSION
  5
30C
330
1F
100
AcDbEntity
  8
15
  6
Continuous
370
    13
100
AcDbDimension
  2
*D8
 10
136.3125000000082
 20
-147.4859006734005
 30
0.0
 11
77.06743971100639
 21
-147.4859006734005
 31
0.0
 70
   160
 71
     8
 42
-1.0
  3
dc_Rotated
100
AcDbAlignedDimension
 13
-33.68749999999181
 23
-116.3125000000002
 33
0.0
 14
136.3125000000082
 24
-116.3125000000002
 34
0.0
100
AcDbRotatedDimension
1001
ACAD
1000
DSTYLE
1002
{
1070
   144
1040
1.0
1070
   274
1070
     4
1070
    41
1040
6.000003814697266
1070
    79
1070
     2
1070
   343
1005
10B
1070
   344
1005
10B
1070
   176
1070
     2
1070
   177
1070
     2
1070
   178
1070
     2
1070
   271
1070
     8
1070
    44
1040
2.0
1070
    42
1040
2.0
1070
   147
1040
2.0
1070
   173
1070
     1
1070
    77
1070
     3
1070
    73
1070
     0
1070
   172
1070
     1
1070
    74
1070
     0
1070
   283
1070
     0
1070
   340
1005
115
1070
   140
1040
8.0
1070
   284
1070
     8
1070
   288
1070
     1
1070
    78
1070
     8
1070
    90
1070
     1
1002
}
  0
DIMENSION
  5
30D
330
1F
100
AcDbEntity
  8
15
  6
Continuous
370
    13
100
AcDbDimension
  2
*D9
 10
191.3125000000082
 20
224.3804181138105
 30
0.0
 11
191.3125000000082
 21
141.2804181138105
 31
0.0
 70
   160
  1
166
 71
     8
 42
-1.0
  3
dc_Rotated
100
AcDbAlignedDimension
 13
151.3125000000081
 23
58.18041811381052
 33
0.0
 14
151.3125000000081
 24
224.3804181138105
 34
0.0
 50
90.0
100
AcDbRotatedDimension
1001
ACAD
1000
DSTYLE
1002
{
1070
   144
1040
1.0
1070
   274
1070
     4
1070
    41
1040
6.000003814697266
1070
    79
1070
     2
1070
   343
1005
10B
1070
   344
1005
10B
1070
   176
1070
     2
1070
   177
1070
     2
1070
   178
1070
     2
1070
   271
1070
     2
1070
    44
1040
2.0
1070
    42
1040
2.0
1070
   147
1040
2.0
1070
   173
1070
     1
1070
    77
1070
     3
1070
    73
1070
     0
1070
   172
1070
     1
1070
    74
1070
     0
1070
   283
1070
     0
1070
   340
1005
115
1070
   140
1040
8.0
1070
   284
1070
     8
1070
   288
1070
     1
1070
    78
1070
     8
1070
    90
1070
     1
1002
}
  0
DIMENSION
  5
30E
330
1F
100
AcDbEntity
  8
15
  6
Continuous
370
    13
100
AcDbDimension
  2
*D10
 10
-32.44195053982462
 20
-46.50143333386325
 30
0.0
 11
-65.49059880634309
 21
-16.81249999999992
 31
0.0
 70
   163
  1
φ22
 71
     8
 42
-1.0
  3
dc_Diam06
100
AcDbDiametricDimension
 15
-45.93304946017651
 25
-29.1235666661367
 35
0.0
 40
0.0
1001
ACAD
1000
DSTYLE
1002
{
1070
   144
1040
1.0
1070
   274
1070
     4
1070
    41
1040
6.000003814697266
1070
    79
1070
     2
1070
   343
1005
10B
1070
   344
1005
10B
1070
   176
1070
     2
1070
   177
1070
     2
1070
   178
1070
     2
1070
   271
1070
     2
1070
    44
1040
2.0
1070
    42
1040
2.0
1070
   147
1040
2.0
1070
   173
1070
     1
1070
    77
1070
     2
1070
   283
1070
     0
1070
   340
1005
115
1070
   140
1040
8.0
1070
   284
1070
     8
1070
   288
1070
     1
1070
    78
1070
     8
1070
    90
1070
     1
1002
}
  0
DIMENSION
  5
30F
330
1F
100
AcDbEntity
  8
15
  6
Continuous
370
    13
100
AcDbDimension
  2
*D13
 10
134.21979599466
 20
-109.6629442445011
 30
0.0
 11
183.3211143618221
 21
-147.7721810161223
 31
0.0
 70
   163
  1
4-φ6
 71
     8
 42
-1.0
  3
dc_Diam06
100
AcDbDiametricDimension
 15
138.4052040053565
 25
-113.9620557554993
 35
0.0
 40
0.0
1001
ACAD
1000
DSTYLE
1002
{
1070
   144
1040
1.0
1070
   274
1070
     4
1070
    41
1040
6.000003814697266
1070
    79
1070
     2
1070
   343
1005
10B
1070
   344
1005
10B
1070
   176
1070
     2
1070
   177
1070
     2
1070
   178
1070
     4
1070
   271
1070
     8
1070
    44
1040
2.0
1070
    42
1040
2.0
1070
   147
1040
2.0
1070
   173
1070
     1
1070
    77
1070
     2
1070
   283
1070
     0
1070
   340
1005
115
1070
   140
1040
8.0
1070
   284
1070
     8
1070
   288
1070
     1
1070
    78
1070
     8
1070
    90
1070
     1
1002
}
  0
INSERT
  5
310
330
1F
100
AcDbEntity
  8
15
  6
Continuous
100
AcDbBlockReference
  2
DC_GROUP_W_GSL_S_020_2_5
 10
0.0
 20
0.0
 30
0.0
  0
LINE
  5
311
330
1F
100
AcDbEntity
  8
5
  6
Continuous
 62
     7
370
    13
100
AcDbLine
 10
-264.3708996211237
 20
-48.81249999999992
 30
0.0
 11
-261.1708996211237
 21
-48.81249999999992
 31
0.0
  0
LINE
  5
312
330
1F
100
AcDbEntity
  8
5
  6
Continuous
 62
     7
370
    13
100
AcDbLine
 10
-261.1708996211237
 20
-52.31249999999992
 30
0.0
 11
-261.1708996211237
 21
-48.81249999999992
 31
0.0
  0
LINE
  5
313
330
1F
100
AcDbEntity
  8
5
  6
Continuous
 62
     7
370
    13
100
AcDbLine
 10
-104.5708996211238
 20
-48.81249999999992
 30
0.0
 11
-101.3708996211236
 21
-48.81249999999992
 31
0.0
  0
LINE
  5
314
330
1F
100
AcDbEntity
  8
5
  6
Continuous
 62
     7
370
    13
100
AcDbLine
 10
-104.5708996211238
 20
-52.31249999999992
 30
0.0
 11
-104.5708996211238
 21
-48.81249999999992
 31
0.0
  0
LINE
  5
315
330
1F
100
AcDbEntity
  8
5
  6
Continuous
 62
     7
370
    13
100
AcDbLine
 10
-101.3708996211236
 20
-48.81249999999992
 30
0.0
 11
-101.3708996211236
 21
-122.3124999999998
 31
0.0
  0
LINE
  5
316
330
1F
100
AcDbEntity
  8
5
  6
Continuous
 62
     7
370
    13
100
AcDbLine
 10
-264.3708996211237
 20
-122.3124999999998
 30
0.0
 11
-264.3708996211237
 21
-48.81249999999992
 31
0.0
  0
LINE
  5
317
330
1F
100
AcDbEntity
  8
5
  6
Continuous
 62
     7
370
    13
100
AcDbLine
 10
-101.3708996211236
 20
-122.3124999999998
 30
0.0
 11
-264.3708996211237
 21
-122.3124999999998
 31
0.0
  0
LINE
  5
318
330
1F
100
AcDbEntity
  8
5
  6
Continuous
 62
     7
370
    13
100
AcDbLine
 10
-176.4677753836908
 20
-52.31249999999992
 30
0.0
 11
-101.3708996211236
 21
-52.31249999999992
 31
0.0
  0
LINE
  5
319
330
1F
100
AcDbEntity
  8
5
  6
Continuous
 62
     7
370
    13
100
AcDbLine
 10
-264.3708996211237
 20
-52.31249999999992
 30
0.0
 11
-189.2740238585565
 21
-52.31249999999992
 31
0.0
  0
CIRCLE
  5
31A
330
1F
100
AcDbEntity
  8
12
  6
Continuous
 62
     7
370
    13
100
AcDbCircle
 10
-182.8708996211236
 20
-72.31249999999991
 30
0.0
 40
21.0
  0
LINE
  5
31B
330
1F
100
AcDbEntity
  8
5
  6
DASHED2
 62
     4
370
    13
100
AcDbLine
 10
-189.2740238585565
 20
-52.31249999999992
 30
0.0
 11
-176.4677753836908
 21
-52.31249999999992
 31
0.0
  0
CIRCLE
  5
31C
330
1F
100
AcDbEntity
  8
6
  6
Continuous
 62
     7
370
    13
100
AcDbCircle
 10
-182.8629842520344
 20
-72.31249999999991
 30
0.0
 40
17.50000179008756
  0
LINE
  5
31D
330
1F
100
AcDbEntity
  8
7
  6
CENTERX2
 62
     3
370
    13
100
AcDbLine
 10
-100.5856342712407
 20
-37.81250000000004
 30
0.0
 11
-260.4919352784548
 21
-37.81250000000004
 31
0.0
  0
LINE
  5
31E
330
1F
100
AcDbEntity
  8
7
  6
CENTERX2
 62
     3
370
    13
100
AcDbLine
 10
-39.18750000000068
 20
-25.81250000000004
 30
0.0
 11
-39.18750000000068
 21
-49.81249999999992
 31
0.0
  0
LINE
  5
31F
330
1F
100
AcDbEntity
  8
7
  6
CENTERX2
 62
     3
370
    13
100
AcDbLine
 10
-54.18750000000068
 20
-37.81250000000004
 30
0.0
 11
-24.18750000000068
 21
-37.81250000000004
 31
0.0
  0
INSERT
  5
320
330
1F
100
AcDbEntity
  8
0
  6
Continuous
100
AcDbBlockReference
  2
DC_GROUP_W_GSL_S_020_2_3
 10
0.0
 20
0.0
 30
0.0
  0
LINE
  5
321
330
1F
100
AcDbEntity
  8
4
  6
PHANTOM
 62
   140
370
    13
100
AcDbLine
 10
-46.1771515582667
 20
225.6420240395703
 30
0.0
 11
-46.1771515582667
 21
216.7420240395702
 31
0.0
  0
LINE
  5
322
330
1F
100
AcDbEntity
  8
4
  6
PHANTOM
 62
   140
370
    13
100
AcDbLine
 10
-46.1771515582667
 20
64.55646360250043
 30
0.0
 11
-46.1771515582667
 21
56.55646360250042
 31
0.0
  0
LINE
  5
323
330
1F
100
AcDbEntity
  8
4
  6
PHANTOM
 62
   140
370
    13
100
AcDbLine
 10
-40.17715155826681
 20
221.0304181138104
 30
0.0
 11
-40.17715155826681
 21
222.5304181138104
 31
0.0
  0
LINE
  5
324
330
1F
100
AcDbEntity
  8
4
  6
PHANTOM
 62
   140
370
    13
100
AcDbLine
 10
-54.6771515582667
 20
221.0304181138104
 30
0.0
 11
-40.17715155826681
 21
221.0304181138104
 31
0.0
  0
LINE
  5
325
330
1F
100
AcDbEntity
  8
4
  6
PHANTOM
 62
   140
370
    13
100
AcDbLine
 10
-54.6771515582667
 20
61.53041811381032
 30
0.0
 11
-54.6771515582667
 21
221.0304181138104
 31
0.0
  0
LINE
  5
326
330
1F
100
AcDbEntity
  8
4
  6
PHANTOM
 62
   140
370
    13
100
AcDbLine
 10
-40.17715155826681
 20
61.53041811381032
 30
0.0
 11
-54.6771515582667
 21
61.53041811381032
 31
0.0
  0
LINE
  5
327
330
1F
100
AcDbEntity
  8
4
  6
PHANTOM
 62
   140
370
    13
100
AcDbLine
 10
-40.17715155826681
 20
60.03041811381032
 30
0.0
 11
-40.17715155826681
 21
61.53041811381032
 31
0.0
  0
LINE
  5
328
330
1F
100
AcDbEntity
  8
4
  6
PHANTOM
 62
   140
370
    13
100
AcDbLine
 10
-54.57715155826668
 20
60.03041811381032
 30
0.0
 11
-40.17715155826681
 21
60.03041811381032
 31
0.0
  0
LINE
  5
329
330
1F
100
AcDbEntity
  8
4
  6
PHANTOM
 62
   140
370
    13
100
AcDbLine
 10
-56.1771515582667
 20
220.9304181138102
 30
0.0
 11
-56.1771515582667
 21
61.63041811381034
 31
0.0
  0
LINE
  5
32A
330
1F
100
AcDbEntity
  8
4
  6
PHANTOM
 62
   140
370
    13
100
AcDbLine
 10
-40.17715155826681
 20
222.5304181138104
 30
0.0
 11
-54.57715155826668
 21
222.5304181138104
 31
0.0
  0
LINE
  5
32B
330
1F
100
AcDbEntity
  8
4
  6
PHANTOM
 62
   140
370
    13
100
AcDbLine
 10
-46.1771515582667
 20
-116.0957804363779
 30
0.0
 11
-46.1771515582667
 21
-110.0957804363779
 31
0.0
  0
LINE
  5
32C
330
1F
100
AcDbEntity
  8
4
  6
PHANTOM
 62
   140
370
    13
100
AcDbLine
 10
-49.1771515582667
 20
-113.0957804363779
 30
0.0
 11
-43.1771515582667
 21
-113.0957804363779
 31
0.0
  0
LINE
  5
32D
330
1F
100
AcDbEntity
  8
4
  6
PHANTOM
 62
   140
370
    13
100
AcDbLine
 10
-46.1771515582667
 20
-66.09578043637791
 30
0.0
 11
-46.1771515582667
 21
-60.09578043637791
 31
0.0
  0
LINE
  5
32E
330
1F
100
AcDbEntity
  8
4
  6
PHANTOM
 62
   140
370
    13
100
AcDbLine
 10
-49.1771515582667
 20
-63.09578043637791
 30
0.0
 11
-43.1771515582667
 21
-63.09578043637791
 31
0.0
  0
LINE
  5
32F
330
1F
100
AcDbEntity
  8
4
  6
PHANTOM
 62
   140
370
    13
100
AcDbLine
 10
-42.1771515582667
 20
-125.5957804363779
 30
0.0
 11
-40.17715155826681
 21
-123.5957804363779
 31
0.0
  0
LINE
  5
330
330
1F
100
AcDbEntity
  8
4
  6
PHANTOM
 62
   140
370
    13
100
AcDbLine
 10
-42.1771515582667
 20
-46.59578043637791
 30
0.0
 11
-40.17715155826681
 21
-48.59578043637791
 31
0.0
  0
LINE
  5
331
330
1F
100
AcDbEntity
  8
4
  6
PHANTOM
 62
   140
370
    13
100
AcDbLine
 10
-54.6771515582667
 20
-46.59578043637791
 30
0.0
 11
-54.6771515582667
 21
-125.5957804363779
 31
0.0
  0
LINE
  5
332
330
1F
100
AcDbEntity
  8
4
  6
PHANTOM
 62
   140
370
    13
100
AcDbLine
 10
-56.1771515582667
 20
-125.5957804363779
 30
0.0
 11
-56.1771515582667
 21
-46.59578043637791
 31
0.0
  0
LINE
  5
333
330
1F
100
AcDbEntity
  8
4
  6
PHANTOM
 62
   140
370
    13
100
AcDbLine
 10
-42.1771515582667
 20
-125.5957804363779
 30
0.0
 11
-56.1771515582667
 21
-125.5957804363779
 31
0.0
  0
LINE
  5
334
330
1F
100
AcDbEntity
  8
4
  6
PHANTOM
 62
   140
370
    13
100
AcDbLine
 10
-40.17715155826681
 20
-48.59578043637791
 30
0.0
 11
-40.17715155826681
 21
-123.5957804363779
 31
0.0
  0
LINE
  5
335
330
1F
100
AcDbEntity
  8
4
  6
PHANTOM
 62
   140
370
    13
100
AcDbLine
 10
-56.1771515582667
 20
-46.59578043637791
 30
0.0
 11
-42.1771515582667
 21
-46.59578043637791
 31
0.0
  0
ARC
  5
336
330
1F
100
AcDbEntity
  8
4
  6
PHANTOM
 62
   140
370
    13
100
AcDbCircle
 10
-54.57715155826668
 20
61.63041811381034
 30
0.0
 40
1.600000000000108
100
AcDbArc
 50
180.0
 51
270.0
  0
ARC
  5
337
330
1F
100
AcDbEntity
  8
4
  6
PHANTOM
 62
   140
370
    13
100
AcDbCircle
 10
-54.57715155826668
 20
220.9304181138102
 30
0.0
 40
1.600000000000193
100
AcDbArc
 50
90.0
 51
180.0
  0
LINE
  5
338
330
1F
100
AcDbEntity
  8
2
  6
Continuous
 62
     7
370
    13
100
AcDbLine
 10
139.0124999999995
 20
-28.77104811567254
 30
0.0
 11
141.4998926088293
 21
-28.77104811567254
 31
0.0
  0
LINE
  5
339
330
1F
100
AcDbEntity
  8
2
  6
Continuous
 62
     7
370
    13
100
AcDbLine
 10
139.0124999999995
 20
-36.85395188432714
 30
0.0
 11
139.0124999999995
 21
-28.77104811567254
 31
0.0
  0
LINE
  5
33A
330
1F
100
AcDbEntity
  8
2
  6
Continuous
 62
     7
370
    13
100
AcDbLine
 10
141.4998926088293
 20
-36.85395188432714
 30
0.0
 11
139.0124999999995
 21
-36.85395188432714
 31
0.0
  0
LINE
  5
33B
330
1F
100
AcDbEntity
  8
2
  6
Continuous
 62
     7
370
    13
100
AcDbLine
 10
125.8124999999994
 20
-30.81250000000004
 30
0.0
 11
126.6125000000082
 21
-30.81250000000004
 31
0.0
  0
LINE
  5
33C
330
1F
100
AcDbEntity
  8
2
  6
Continuous
 62
     7
370
    13
100
AcDbLine
 10
125.0124999999995
 20
-31.61249999999993
 30
0.0
 11
125.8124999999994
 21
-30.81250000000004
 31
0.0
  0
LINE
  5
33D
330
1F
100
AcDbEntity
  8
2
  6
Continuous
 62
     7
370
    13
100
AcDbLine
 10
125.0124999999995
 20
-34.01249999999974
 30
0.0
 11
125.0124999999995
 21
-31.61249999999993
 31
0.0
  0
LINE
  5
33E
330
1F
100
AcDbEntity
  8
2
  6
Continuous
 62
     7
370
    13
100
AcDbLine
 10
125.8124999999994
 20
-34.81250000000004
 30
0.0
 11
125.0124999999995
 21
-34.01249999999974
 31
0.0
  0
LINE
  5
33F
330
1F
100
AcDbEntity
  8
2
  6
Continuous
 62
     7
370
    13
100
AcDbLine
 10
139.0124999999995
 20
-34.81250000000004
 30
0.0
 11
131.0125000000083
 21
-34.81250000000004
 31
0.0
  0
LINE
  5
340
330
1F
100
AcDbEntity
  8
2
  6
Continuous
 62
     7
370
    13
100
AcDbLine
 10
141.4998926088293
 20
-30.79177405783611
 30
0.0
 11
139.0124999999995
 21
-30.79177405783611
 31
0.0
  0
LINE
  5
341
330
1F
100
AcDbEntity
  8
2
  6
Continuous
 62
     7
370
    13
100
AcDbLine
 10
141.4998926088293
 20
-34.83322594216362
 30
0.0
 11
139.0124999999995
 21
-34.83322594216362
 31
0.0
  0
LINE
  5
342
330
1F
100
AcDbEntity
  8
2
  6
Continuous
 62
     7
370
    13
100
AcDbLine
 10
141.8124999999994
 20
-29.78141108675434
 30
0.0
 11
141.8124999999994
 21
-35.84358891324542
 31
0.0
  0
LINE
  5
343
330
1F
100
AcDbEntity
  8
2
  6
Continuous
 62
     7
370
    13
100
AcDbLine
 10
138.3560527439301
 20
-34.81250000000004
 30
0.0
 11
138.3560527439301
 21
-30.81250000000004
 31
0.0
  0
LINE
  5
344
330
1F
100
AcDbEntity
  8
2
  6
Continuous
 62
     7
370
    13
100
AcDbLine
 10
131.0125000000083
 20
-29.78141108675434
 30
0.0
 11
131.0125000000083
 21
-35.84358891324542
 31
0.0
  0
LINE
  5
345
330
1F
100
AcDbEntity
  8
2
  6
Continuous
 62
     7
370
    13
100
AcDbLine
 10
130.6998926088382
 20
-34.83322594216362
 30
0.0
 11
128.2125000000084
 21
-34.83322594216362
 31
0.0
  0
LINE
  5
346
330
1F
100
AcDbEntity
  8
2
  6
Continuous
 62
     7
370
    13
100
AcDbLine
 10
130.6998926088382
 20
-30.79177405783611
 30
0.0
 11
128.2125000000084
 21
-30.79177405783611
 31
0.0
  0
LINE
  5
347
330
1F
100
AcDbEntity
  8
2
  6
Continuous
 62
     7
370
    13
100
AcDbLine
 10
130.6998926088382
 20
-36.85395188432714
 30
0.0
 11
128.2125000000084
 21
-36.85395188432714
 31
0.0
  0
LINE
  5
348
330
1F
100
AcDbEntity
  8
2
  6
Continuous
 62
     7
370
    13
100
AcDbLine
 10
128.2125000000084
 20
-36.85395188432714
 30
0.0
 11
128.2125000000084
 21
-28.77104811567254
 31
0.0
  0
LINE
  5
349
330
1F
100
AcDbEntity
  8
2
  6
Continuous
 62
     7
370
    13
100
AcDbLine
 10
128.2125000000084
 20
-28.77104811567254
 30
0.0
 11
130.6998926088382
 21
-28.77104811567254
 31
0.0
  0
LINE
  5
34A
330
1F
100
AcDbEntity
  8
2
  6
Continuous
 62
     7
370
    13
100
AcDbLine
 10
131.0125000000083
 20
-30.81250000000004
 30
0.0
 11
139.0124999999995
 21
-30.81250000000004
 31
0.0
  0
LINE
  5
34B
330
1F
100
AcDbEntity
  8
2
  6
Continuous
 62
     7
370
    13
100
AcDbLine
 10
126.6125000000082
 20
-34.81250000000004
 30
0.0
 11
125.8124999999994
 21
-34.81250000000004
 31
0.0
  0
LINE
  5
34C
330
1F
100
AcDbEntity
  8
2
  6
Continuous
 62
     7
370
    13
100
AcDbLine
 10
126.6125000000082
 20
53.53041811381055
 30
0.0
 11
125.8124999999994
 21
53.53041811381055
 31
0.0
  0
LINE
  5
34D
330
1F
100
AcDbEntity
  8
2
  6
Continuous
 62
     7
370
    13
100
AcDbLine
 10
131.0125000000083
 20
57.53041811381055
 30
0.0
 11
139.0124999999995
 21
57.53041811381055
 31
0.0
  0
LINE
  5
34E
330
1F
100
AcDbEntity
  8
2
  6
Continuous
 62
     7
370
    13
100
AcDbLine
 10
131.0125000000083
 20
229.0304181138106
 30
0.0
 11
139.0124999999995
 21
229.0304181138106
 31
0.0
  0
LINE
  5
34F
330
1F
100
AcDbEntity
  8
2
  6
Continuous
 62
     7
370
    13
100
AcDbLine
 10
126.6125000000082
 20
225.0304181138106
 30
0.0
 11
125.8124999999994
 21
225.0304181138106
 31
0.0
  0
LINE
  5
350
330
1F
100
AcDbEntity
  8
2
  6
Continuous
 62
     7
370
    13
100
AcDbLine
 10
131.0125000000083
 20
230.0615070270563
 30
0.0
 11
131.0125000000083
 21
223.9993292005651
 31
0.0
  0
LINE
  5
351
330
1F
100
AcDbEntity
  8
2
  6
Continuous
 62
     7
370
    13
100
AcDbLine
 10
128.2125000000084
 20
229.0511440559744
 30
0.0
 11
130.6998926088382
 21
229.0511440559744
 31
0.0
  0
LINE
  5
352
330
1F
100
AcDbEntity
  8
2
  6
Continuous
 62
     7
370
    13
100
AcDbLine
 10
128.2125000000084
 20
225.0096921716468
 30
0.0
 11
130.6998926088382
 21
225.0096921716468
 31
0.0
  0
LINE
  5
353
330
1F
100
AcDbEntity
  8
2
  6
Continuous
 62
     7
370
    13
100
AcDbLine
 10
128.2125000000084
 20
231.0718699981378
 30
0.0
 11
130.6998926088382
 21
231.0718699981378
 31
0.0
  0
LINE
  5
354
330
1F
100
AcDbEntity
  8
2
  6
Continuous
 62
     7
370
    13
100
AcDbLine
 10
128.2125000000084
 20
222.9889662294831
 30
0.0
 11
128.2125000000084
 21
231.0718699981378
 31
0.0
  0
LINE
  5
355
330
1F
100
AcDbEntity
  8
2
  6
Continuous
 62
     7
370
    13
100
AcDbLine
 10
130.6998926088382
 20
222.9889662294831
 30
0.0
 11
128.2125000000084
 21
222.9889662294831
 31
0.0
  0
LINE
  5
356
330
1F
100
AcDbEntity
  8
2
  6
Continuous
 62
     7
370
    13
100
AcDbLine
 10
128.2125000000084
 20
59.57186999813805
 30
0.0
 11
130.6998926088382
 21
59.57186999813805
 31
0.0
  0
LINE
  5
357
330
1F
100
AcDbEntity
  8
2
  6
Continuous
 62
     7
370
    13
100
AcDbLine
 10
128.2125000000084
 20
51.48896622948333
 30
0.0
 11
128.2125000000084
 21
59.57186999813805
 31
0.0
  0
LINE
  5
358
330
1F
100
AcDbEntity
  8
2
  6
Continuous
 62
     7
370
    13
100
AcDbLine
 10
130.6998926088382
 20
51.48896622948333
 30
0.0
 11
128.2125000000084
 21
51.48896622948333
 31
0.0
  0
LINE
  5
359
330
1F
100
AcDbEntity
  8
2
  6
Continuous
 62
     7
370
    13
100
AcDbLine
 10
130.6998926088382
 20
57.55114405597455
 30
0.0
 11
128.2125000000084
 21
57.55114405597455
 31
0.0
  0
LINE
  5
35A
330
1F
100
AcDbEntity
  8
2
  6
Continuous
 62
     7
370
    13
100
AcDbLine
 10
130.6998926088382
 20
53.50969217164694
 30
0.0
 11
128.2125000000084
 21
53.50969217164694
 31
0.0
  0
LINE
  5
35B
330
1F
100
AcDbEntity
  8
2
  6
Continuous
 62
     7
370
    13
100
AcDbLine
 10
131.0125000000083
 20
58.56150702705624
 30
0.0
 11
131.0125000000083
 21
52.49932920056502
 31
0.0
  0
LINE
  5
35C
330
1F
100
AcDbEntity
  8
2
  6
Continuous
 62
     7
370
    13
100
AcDbLine
 10
138.3560527439301
 20
53.53041811381055
 30
0.0
 11
138.3560527439301
 21
57.53041811381055
 31
0.0
  0
LINE
  5
35D
330
1F
100
AcDbEntity
  8
2
  6
Continuous
 62
     7
370
    13
100
AcDbLine
 10
141.8124999999994
 20
58.56150702705624
 30
0.0
 11
141.8124999999994
 21
52.49932920056502
 31
0.0
  0
LINE
  5
35E
330
1F
100
AcDbEntity
  8
2
  6
Continuous
 62
     7
370
    13
100
AcDbLine
 10
141.4998926088293
 20
53.50969217164694
 30
0.0
 11
139.0124999999995
 21
53.50969217164694
 31
0.0
  0
LINE
  5
35F
330
1F
100
AcDbEntity
  8
2
  6
Continuous
 62
     7
370
    13
100
AcDbLine
 10
141.4998926088293
 20
57.55114405597455
 30
0.0
 11
139.0124999999995
 21
57.55114405597455
 31
0.0
  0
LINE
  5
360
330
1F
100
AcDbEntity
  8
2
  6
Continuous
 62
     7
370
    13
100
AcDbLine
 10
139.0124999999995
 20
53.53041811381055
 30
0.0
 11
131.0125000000083
 21
53.53041811381055
 31
0.0
  0
LINE
  5
361
330
1F
100
AcDbEntity
  8
2
  6
Continuous
 62
     7
370
    13
100
AcDbLine
 10
125.8124999999994
 20
53.53041811381055
 30
0.0
 11
125.0124999999995
 21
54.33041811381073
 31
0.0
  0
LINE
  5
362
330
1F
100
AcDbEntity
  8
2
  6
Continuous
 62
     7
370
    13
100
AcDbLine
 10
125.0124999999995
 20
54.33041811381073
 30
0.0
 11
125.0124999999995
 21
56.73041811381065
 31
0.0
  0
LINE
  5
363
330
1F
100
AcDbEntity
  8
2
  6
Continuous
 62
     7
370
    13
100
AcDbLine
 10
125.0124999999995
 20
56.73041811381065
 30
0.0
 11
125.8124999999994
 21
57.53041811381055
 31
0.0
  0
LINE
  5
364
330
1F
100
AcDbEntity
  8
2
  6
Continuous
 62
     7
370
    13
100
AcDbLine
 10
125.8124999999994
 20
57.53041811381055
 30
0.0
 11
126.6125000000082
 21
57.53041811381055
 31
0.0
  0
LINE
  5
365
330
1F
100
AcDbEntity
  8
2
  6
Continuous
 62
     7
370
    13
100
AcDbLine
 10
141.4998926088293
 20
51.48896622948333
 30
0.0
 11
139.0124999999995
 21
51.48896622948333
 31
0.0
  0
LINE
  5
366
330
1F
100
AcDbEntity
  8
2
  6
Continuous
 62
     7
370
    13
100
AcDbLine
 10
139.0124999999995
 20
51.48896622948333
 30
0.0
 11
139.0124999999995
 21
59.57186999813805
 31
0.0
  0
LINE
  5
367
330
1F
100
AcDbEntity
  8
2
  6
Continuous
 62
     7
370
    13
100
AcDbLine
 10
139.0124999999995
 20
59.57186999813805
 30
0.0
 11
141.4998926088293
 21
59.57186999813805
 31
0.0
  0
LINE
  5
368
330
1F
100
AcDbEntity
  8
2
  6
Continuous
 62
     7
370
    13
100
AcDbLine
 10
141.4998926088293
 20
222.9889662294831
 30
0.0
 11
139.0124999999995
 21
222.9889662294831
 31
0.0
  0
LINE
  5
369
330
1F
100
AcDbEntity
  8
2
  6
Continuous
 62
     7
370
    13
100
AcDbLine
 10
139.0124999999995
 20
222.9889662294831
 30
0.0
 11
139.0124999999995
 21
231.0718699981378
 31
0.0
  0
LINE
  5
36A
330
1F
100
AcDbEntity
  8
2
  6
Continuous
 62
     7
370
    13
100
AcDbLine
 10
139.0124999999995
 20
231.0718699981378
 30
0.0
 11
141.4998926088293
 21
231.0718699981378
 31
0.0
  0
LINE
  5
36B
330
1F
100
AcDbEntity
  8
2
  6
Continuous
 62
     7
370
    13
100
AcDbLine
 10
139.0124999999995
 20
225.0304181138106
 30
0.0
 11
131.0125000000083
 21
225.0304181138106
 31
0.0
  0
LINE
  5
36C
330
1F
100
AcDbEntity
  8
2
  6
Continuous
 62
     7
370
    13
100
AcDbLine
 10
125.8124999999994
 20
225.0304181138106
 30
0.0
 11
125.0124999999995
 21
225.8304181138105
 31
0.0
  0
LINE
  5
36D
330
1F
100
AcDbEntity
  8
2
  6
Continuous
 62
     7
370
    13
100
AcDbLine
 10
125.0124999999995
 20
225.8304181138105
 30
0.0
 11
125.0124999999995
 21
228.2304181138104
 31
0.0
  0
LINE
  5
36E
330
1F
100
AcDbEntity
  8
2
  6
Continuous
 62
     7
370
    13
100
AcDbLine
 10
125.0124999999995
 20
228.2304181138104
 30
0.0
 11
125.8124999999994
 21
229.0304181138106
 31
0.0
  0
LINE
  5
36F
330
1F
100
AcDbEntity
  8
2
  6
Continuous
 62
     7
370
    13
100
AcDbLine
 10
125.8124999999994
 20
229.0304181138106
 30
0.0
 11
126.6125000000082
 21
229.0304181138106
 31
0.0
  0
LINE
  5
370
330
1F
100
AcDbEntity
  8
2
  6
Continuous
 62
     7
370
    13
100
AcDbLine
 10
139.0124999999995
 20
225.0096921716468
 30
0.0
 11
141.4998926088293
 21
225.0096921716468
 31
0.0
  0
LINE
  5
371
330
1F
100
AcDbEntity
  8
2
  6
Continuous
 62
     7
370
    13
100
AcDbLine
 10
139.0124999999995
 20
229.0511440559744
 30
0.0
 11
141.4998926088293
 21
229.0511440559744
 31
0.0
  0
LINE
  5
372
330
1F
100
AcDbEntity
  8
2
  6
Continuous
 62
     7
370
    13
100
AcDbLine
 10
141.8124999999994
 20
230.0615070270563
 30
0.0
 11
141.8124999999994
 21
223.9993292005651
 31
0.0
  0
LINE
  5
373
330
1F
100
AcDbEntity
  8
2
  6
Continuous
 62
     7
370
    13
100
AcDbLine
 10
138.3560527439301
 20
225.0304181138106
 30
0.0
 11
138.3560527439301
 21
229.0304181138106
 31
0.0
  0
ARC
  5
374
330
1F
100
AcDbEntity
  8
2
  6
Continuous
 62
     7
370
    13
100
AcDbCircle
 10
140.0234240761034
 20
-35.84358891324542
 30
0.0
 40
1.78907592389559
100
AcDbArc
 50
325.6157525319495
 51
34.38424746805279
  0
ARC
  5
375
330
1F
100
AcDbEntity
  8
2
  6
Continuous
 62
     7
370
    13
100
AcDbCircle
 10
135.1251073911693
 20
-32.81250000000004
 30
0.0
 40
6.687392608829661
100
AcDbArc
 50
342.4120462260054
 51
17.58795377399744
  0
ARC
  5
376
330
1F
100
AcDbEntity
  8
2
  6
Continuous
 62
     7
370
    13
100
AcDbCircle
 10
140.0234240761034
 20
-29.78141108675434
 30
0.0
 40
1.789075923895622
100
AcDbArc
 50
325.615752531948
 51
34.38424746805279
  0
ARC
  5
377
330
1F
100
AcDbEntity
  8
2
  6
Continuous
 62
     7
370
    13
100
AcDbCircle
 10
129.2234240761123
 20
-29.78141108675434
 30
0.0
 40
1.789075923895622
100
AcDbArc
 50
325.615752531948
 51
34.38424746805279
  0
ARC
  5
378
330
1F
100
AcDbEntity
  8
2
  6
Continuous
 62
     7
370
    13
100
AcDbCircle
 10
124.3251073911782
 20
-32.81250000000004
 30
0.0
 40
6.687392608829661
100
AcDbArc
 50
342.4120462260054
 51
17.58795377399744
  0
ARC
  5
379
330
1F
100
AcDbEntity
  8
2
  6
Continuous
 62
     7
370
    13
100
AcDbCircle
 10
129.2234240761123
 20
-35.84358891324542
 30
0.0
 40
1.78907592389559
100
AcDbArc
 50
325.6157525319495
 51
34.38424746805279
  0
ARC
  5
37A
330
1F
100
AcDbEntity
  8
2
  6
Continuous
 62
     7
370
    13
100
AcDbCircle
 10
129.2234240761123
 20
223.9993292005651
 30
0.0
 40
1.789075923895799
100
AcDbArc
 50
325.6157525319397
 51
34.38424746804979
  0
ARC
  5
37B
330
1F
100
AcDbEntity
  8
2
  6
Continuous
 62
     7
370
    13
100
AcDbCircle
 10
124.3251073911782
 20
227.0304181138106
 30
0.0
 40
6.687392608829705
100
AcDbArc
 50
342.4120462260042
 51
17.58795377399724
  0
ARC
  5
37C
330
1F
100
AcDbEntity
  8
2
  6
Continuous
 62
     7
370
    13
100
AcDbCircle
 10
129.2234240761123
 20
230.0615070270563
 30
0.0
 40
1.789075923895638
100
AcDbArc
 50
325.6157525319472
 51
34.38424746804526
  0
ARC
  5
37D
330
1F
100
AcDbEntity
  8
2
  6
Continuous
 62
     7
370
    13
100
AcDbCircle
 10
129.2234240761123
 20
52.49932920056502
 30
0.0
 40
1.789075923895574
100
AcDbArc
 50
325.6157525319502
 51
34.3842474680558
  0
ARC
  5
37E
330
1F
100
AcDbEntity
  8
2
  6
Continuous
 62
     7
370
    13
100
AcDbCircle
 10
124.3251073911782
 20
55.53041811381055
 30
0.0
 40
6.68739260882967
100
AcDbArc
 50
342.4120462260051
 51
17.58795377399816
  0
ARC
  5
37F
330
1F
100
AcDbEntity
  8
2
  6
Continuous
 62
     7
370
    13
100
AcDbCircle
 10
129.2234240761123
 20
58.56150702705624
 30
0.0
 40
1.789075923895574
100
AcDbArc
 50
325.6157525319502
 51
34.38424746805279
  0
ARC
  5
380
330
1F
100
AcDbEntity
  8
2
  6
Continuous
 62
     7
370
    13
100
AcDbCircle
 10
140.0234240761034
 20
58.56150702705624
 30
0.0
 40
1.789075923895574
100
AcDbArc
 50
325.6157525319502
 51
34.38424746805279
  0
ARC
  5
381
330
1F
100
AcDbEntity
  8
2
  6
Continuous
 62
     7
370
    13
100
AcDbCircle
 10
135.1251073911693
 20
55.53041811381055
 30
0.0
 40
6.68739260882967
100
AcDbArc
 50
342.4120462260051
 51
17.58795377399816
  0
ARC
  5
382
330
1F
100
AcDbEntity
  8
2
  6
Continuous
 62
     7
370
    13
100
AcDbCircle
 10
140.0234240761034
 20
52.49932920056502
 30
0.0
 40
1.789075923895574
100
AcDbArc
 50
325.6157525319502
 51
34.3842474680558
  0
ARC
  5
383
330
1F
100
AcDbEntity
  8
2
  6
Continuous
 62
     7
370
    13
100
AcDbCircle
 10
140.0234240761034
 20
230.0615070270563
 30
0.0
 40
1.789075923895638
100
AcDbArc
 50
325.6157525319472
 51
34.38424746804526
  0
ARC
  5
384
330
1F
100
AcDbEntity
  8
2
  6
Continuous
 62
     7
370
    13
100
AcDbCircle
 10
135.1251073911693
 20
227.0304181138106
 30
0.0
 40
6.687392608829705
100
AcDbArc
 50
342.4120462260042
 51
17.58795377399724
  0
ARC
  5
385
330
1F
100
AcDbEntity
  8
2
  6
Continuous
 62
     7
370
    13
100
AcDbCircle
 10
140.0234240761034
 20
223.9993292005651
 30
0.0
 40
1.789075923895799
100
AcDbArc
 50
325.6157525319397
 51
34.38424746804979
  0
LINE
  5
386
330
1F
100
AcDbEntity
  8
13
  6
Continuous
 62
     7
370
    13
100
AcDbLine
 10
142.5764320224991
 20
-34.81250000000004
 30
0.0
 11
147.0485679774994
 21
-34.81250000000004
 31
0.0
  0
LINE
  5
387
330
1F
100
AcDbEntity
  8
13
  6
Continuous
 62
     7
370
    13
100
AcDbLine
 10
142.5764320224991
 20
-30.81250000000004
 30
0.0
 11
147.0485679774994
 21
-30.81250000000004
 31
0.0
  0
LINE
  5
388
330
1F
100
AcDbEntity
  8
13
  6
Continuous
 62
     7
370
    13
100
AcDbLine
 10
140.7624999999995
 20
220.7804181138104
 30
0.0
 11
148.8624999999994
 21
220.7804181138104
 31
0.0
  0
LINE
  5
389
330
1F
100
AcDbEntity
  8
13
  6
Continuous
 62
     7
370
    13
100
AcDbLine
 10
148.8624999999994
 20
220.7804181138104
 30
0.0
 11
148.8624999999994
 21
218.2804181138104
 31
0.0
  0
LINE
  5
38A
330
1F
100
AcDbEntity
  8
13
  6
Continuous
 62
     7
370
    13
100
AcDbLine
 10
150.6324999999993
 20
216.7804181138104
 30
0.0
 11
150.1124999999994
 21
218.2804181138104
 31
0.0
  0
LINE
  5
38B
330
1F
100
AcDbEntity
  8
13
  6
Continuous
 62
     7
370
    13
100
AcDbLine
 10
138.9924999999992
 20
216.7804181138104
 30
0.0
 11
138.9191666666663
 21
211.2804181138106
 31
0.0
  0
LINE
  5
38C
330
1F
100
AcDbEntity
  8
13
  6
Continuous
 62
     7
370
    13
100
AcDbLine
 10
138.9924999999992
 20
216.7804181138104
 30
0.0
 11
139.5124999999995
 21
218.2804181138104
 31
0.0
  0
LINE
  5
38D
330
1F
100
AcDbEntity
  8
13
  6
Continuous
 62
     7
370
    13
100
AcDbLine
 10
139.5124999999995
 20
64.28041811381033
 30
0.0
 11
138.9924999999992
 21
65.78041811381033
 31
0.0
  0
LINE
  5
38E
330
1F
100
AcDbEntity
  8
13
  6
Continuous
 62
     7
370
    13
100
AcDbLine
 10
150.1124999999994
 20
64.28041811381033
 30
0.0
 11
150.6324999999993
 21
65.78041811381033
 31
0.0
  0
LINE
  5
38F
330
1F
100
AcDbEntity
  8
13
  6
Continuous
 62
     7
370
    13
100
AcDbLine
 10
148.8624999999994
 20
61.78041811381032
 30
0.0
 11
140.7624999999995
 21
61.78041811381032
 31
0.0
  0
LINE
  5
390
330
1F
100
AcDbEntity
  8
13
  6
Continuous
 62
     7
370
    13
100
AcDbLine
 10
140.7624999999995
 20
61.78041811381032
 30
0.0
 11
140.7624999999995
 21
64.28041811381033
 31
0.0
  0
LINE
  5
391
330
1F
100
AcDbEntity
  8
13
  6
Continuous
 62
     7
370
    13
100
AcDbLine
 10
150.6324999999993
 20
65.78041811381033
 30
0.0
 11
150.7058333333324
 21
71.28041811381033
 31
0.0
  0
LINE
  5
392
330
1F
100
AcDbEntity
  8
13
  6
Continuous
 62
     7
370
    13
100
AcDbLine
 10
148.8624999999994
 20
64.28041811381033
 30
0.0
 11
148.8624999999994
 21
61.78041811381032
 31
0.0
  0
LINE
  5
393
330
1F
100
AcDbEntity
  8
13
  6
Continuous
 62
     7
370
    13
100
AcDbLine
 10
139.5124999999995
 20
64.28041811381033
 30
0.0
 11
150.1124999999994
 21
64.28041811381033
 31
0.0
  0
LINE
  5
394
330
1F
100
AcDbEntity
  8
13
  6
Continuous
 62
     7
370
    13
100
AcDbLine
 10
138.9924999999992
 20
65.78041811381033
 30
0.0
 11
150.6324999999993
 21
65.78041811381033
 31
0.0
  0
LINE
  5
395
330
1F
100
AcDbEntity
  8
13
  6
Continuous
 62
     7
370
    13
100
AcDbLine
 10
141.8124999999994
 20
227.2804181138104
 30
0.0
 11
141.8124999999994
 21
222.5304181138106
 31
0.0
  0
LINE
  5
396
330
1F
100
AcDbEntity
  8
13
  6
Continuous
 62
     7
370
    13
100
AcDbLine
 10
142.3124999999994
 20
54.78041811381032
 30
0.0
 11
147.3124999999994
 21
54.78041811381032
 31
0.0
  0
LINE
  5
397
330
1F
100
AcDbEntity
  8
13
  6
Continuous
 62
     7
370
    13
100
AcDbLine
 10
147.8124999999994
 20
227.2804181138104
 30
0.0
 11
147.8124999999994
 21
222.5304181138106
 31
0.0
  0
LINE
  5
398
330
1F
100
AcDbEntity
  8
13
  6
Continuous
 62
     7
370
    13
100
AcDbLine
 10
142.3124999999994
 20
227.7804181138104
 30
0.0
 11
147.3124999999994
 21
227.7804181138104
 31
0.0
  0
LINE
  5
399
330
1F
100
AcDbEntity
  8
13
  6
Continuous
 62
     7
370
    13
100
AcDbLine
 10
142.3124999999994
 20
227.7804181138104
 30
0.0
 11
141.8124999999994
 21
227.2804181138104
 31
0.0
  0
LINE
  5
39A
330
1F
100
AcDbEntity
  8
13
  6
Continuous
 62
     7
370
    13
100
AcDbLine
 10
147.3124999999994
 20
227.7804181138104
 30
0.0
 11
147.8124999999994
 21
227.2804181138104
 31
0.0
  0
LINE
  5
39B
330
1F
100
AcDbEntity
  8
13
  6
Continuous
 62
     7
370
    13
100
AcDbLine
 10
142.3124999999994
 20
54.78041811381032
 30
0.0
 11
141.8124999999994
 21
55.28041811381032
 31
0.0
  0
LINE
  5
39C
330
1F
100
AcDbEntity
  8
13
  6
Continuous
 62
     7
370
    13
100
AcDbLine
 10
147.8124999999994
 20
55.28041811381032
 30
0.0
 11
147.3124999999994
 21
54.78041811381032
 31
0.0
  0
LINE
  5
39D
330
1F
100
AcDbEntity
  8
13
  6
Continuous
 62
     7
370
    13
100
AcDbLine
 10
147.0485679774994
 20
220.7804181138104
 30
0.0
 11
147.0485679774994
 21
220.9304181138105
 31
0.0
  0
LINE
  5
39E
330
1F
100
AcDbEntity
  8
13
  6
Continuous
 62
     7
370
    13
100
AcDbLine
 10
141.8124999999994
 20
60.03041811381032
 30
0.0
 11
141.8124999999994
 21
55.28041811381032
 31
0.0
  0
LINE
  5
39F
330
1F
100
AcDbEntity
  8
13
  6
Continuous
 62
     7
370
    13
100
AcDbLine
 10
147.8124999999994
 20
60.03041811381032
 30
0.0
 11
147.8124999999994
 21
55.28041811381032
 31
0.0
  0
LINE
  5
3A0
330
1F
100
AcDbEntity
  8
13
  6
Continuous
 62
     7
370
    13
100
AcDbLine
 10
142.5764320224991
 20
220.9304181138105
 30
0.0
 11
142.5764320224991
 21
220.7804181138104
 31
0.0
  0
LINE
  5
3A1
330
1F
100
AcDbEntity
  8
13
  6
Continuous
 62
     7
370
    13
100
AcDbLine
 10
138.9191666666663
 20
71.28041811381027
 30
0.0
 11
138.9924999999992
 21
65.78041811381033
 31
0.0
  0
LINE
  5
3A2
330
1F
100
AcDbEntity
  8
13
  6
Continuous
 62
     7
370
    13
100
AcDbLine
 10
140.7624999999995
 20
218.2804181138104
 30
0.0
 11
140.7624999999995
 21
220.7804181138104
 31
0.0
  0
LINE
  5
3A3
330
1F
100
AcDbEntity
  8
13
  6
Continuous
 62
     7
370
    13
100
AcDbLine
 10
139.5124999999995
 20
218.2804181138104
 30
0.0
 11
150.1124999999994
 21
218.2804181138104
 31
0.0
  0
LINE
  5
3A4
330
1F
100
AcDbEntity
  8
13
  6
Continuous
 62
     7
370
    13
100
AcDbLine
 10
150.6324999999993
 20
216.7804181138104
 30
0.0
 11
138.9924999999992
 21
216.7804181138104
 31
0.0
  0
LINE
  5
3A5
330
1F
100
AcDbEntity
  8
13
  6
Continuous
 62
     7
370
    13
100
AcDbLine
 10
150.7058333333324
 20
211.2804181138104
 30
0.0
 11
150.6324999999993
 21
216.7804181138104
 31
0.0
  0
ARC
  5
3A6
330
1F
100
AcDbEntity
  8
13
  6
Continuous
 62
     7
370
    13
100
AcDbCircle
 10
144.8124999999994
 20
-32.81250000000004
 30
0.0
 40
3.000000000000326
100
AcDbArc
 50
138.189685104227
 51
221.810314895773
  0
ARC
  5
3A7
330
1F
100
AcDbEntity
  8
13
  6
Continuous
 62
     7
370
    13
100
AcDbCircle
 10
144.8124999999994
 20
-32.81250000000004
 30
0.0
 40
3.000000000000156
100
AcDbArc
 50
318.1896851042241
 51
41.81031489577592
  0
LINE
  5
3A8
330
1F
100
AcDbEntity
  8
13
  6
CENTERX2
 62
     3
370
    13
100
AcDbLine
 10
144.8124999999994
 20
-23.81250000000004
 30
0.0
 11
144.8124999999994
 21
-41.81249999999992
 31
0.0
  0
LINE
  5
3A9
330
1F
100
AcDbEntity
  8
13
  6
CENTERX2
 62
     3
370
    13
100
AcDbLine
 10
135.8124999999994
 20
-32.81250000000004
 30
0.0
 11
153.8124999999994
 21
-32.81250000000004
 31
0.0
  0
LINE
  5
3AA
330
1F
100
AcDbEntity
  8
13
  6
DASHED2
 62
     4
370
    13
100
AcDbLine
 10
150.8124999999994
 20
178.2804181138103
 30
0.0
 11
150.7058333333324
 21
211.2804181138104
 31
0.0
  0
LINE
  5
3AB
330
1F
100
AcDbEntity
  8
13
  6
DASHED2
 62
     4
370
    13
100
AcDbLine
 10
138.8124999999994
 20
104.2804181138103
 30
0.0
 11
138.9191666666663
 21
71.28041811381027
 31
0.0
  0
LINE
  5
3AC
330
1F
100
AcDbEntity
  8
13
  6
DASHED2
 62
     4
370
    13
100
AcDbLine
 10
150.7058333333324
 20
71.28041811381033
 30
0.0
 11
150.8124999999994
 21
104.2804181138103
 31
0.0
  0
LINE
  5
3AD
330
1F
100
AcDbEntity
  8
13
  6
DASHED2
 62
     4
370
    13
100
AcDbLine
 10
138.8124999999994
 20
104.2804181138103
 30
0.0
 11
138.8124999999994
 21
178.2804181138103
 31
0.0
  0
LINE
  5
3AE
330
1F
100
AcDbEntity
  8
13
  6
DASHED2
 62
     4
370
    13
100
AcDbLine
 10
150.8124999999994
 20
104.2804181138103
 30
0.0
 11
150.8124999999994
 21
178.2804181138103
 31
0.0
  0
LINE
  5
3AF
330
1F
100
AcDbEntity
  8
13
  6
DASHED2
 62
     4
370
    13
100
AcDbLine
 10
138.9191666666663
 20
211.2804181138106
 30
0.0
 11
138.8124999999994
 21
178.2804181138103
 31
0.0
  0
ARC
  5
3B0
330
1F
100
AcDbEntity
  8
13
  6
PHANTOM
 62
   140
370
    13
100
AcDbCircle
 10
144.8124999999994
 20
-32.81250000000004
 30
0.0
 40
5.999999999999964
100
AcDbArc
 50
273.4196280882847
 51
273.6559364886074
  0
LINE
  5
3B1
330
1F
100
AcDbEntity
  8
3
  6
CENTERX2
 62
     3
370
    13
100
AcDbLine
 10
-21.4957043719935
 20
-57.56376278389988
 30
0.0
 11
-12.33451298505895
 21
-57.56376278389988
 31
0.0
  0
LINE
  5
3B2
330
1F
100
AcDbEntity
  8
3
  6
CENTERX2
 62
     3
370
    13
100
AcDbLine
 10
-23.27438389072836
 20
-107.0661720450713
 30
0.0
 11
-12.33451298505895
 21
-107.0661720450713
 31
0.0
  0
LINE
  5
3B3
330
1F
100
AcDbEntity
  8
3
  6
CENTERX2
 62
     3
370
    13
100
AcDbLine
 10
-28.9875001191931
 20
-82.31249046319991
 30
0.0
 11
61.84290791750686
 21
-82.31249046319991
 31
0.0
  0
LINE
  5
3B4
330
1F
100
AcDbEntity
  8
3
  6
CENTERX2
 62
     3
370
    13
100
AcDbLine
 10
-17.9875001787932
 20
-72.31249999999991
 30
0.0
 11
-55.98749895689321
 21
-72.31249999999991
 31
0.0
  0
LINE
  5
3B5
330
1F
100
AcDbEntity
  8
3
  6
CENTERX2
 62
     3
370
    13
100
AcDbLine
 10
58.28537116650682
 20
-118.3124889134999
 30
0.0
 11
43.94402052170676
 21
-118.3124889134999
 31
0.0
  0
LINE
  5
3B6
330
1F
100
AcDbEntity
  8
3
  6
CENTERX2
 62
     3
370
    13
100
AcDbLine
 10
-163.2486844547238
 20
-62.69028974940003
 30
0.0
 11
-152.9956350215239
 21
-52.43724776679998
 31
0.0
  0
LINE
  5
3B7
330
1F
100
AcDbEntity
  8
3
  6
CENTERX2
 62
     3
370
    13
100
AcDbLine
 10
-202.4931059333309
 20
-62.69028974940003
 30
0.0
 11
-212.7461584397238
 21
-52.43724776679998
 31
0.0
  0
LINE
  5
3B8
330
1F
100
AcDbEntity
  8
3
  6
CENTERX2
 62
     3
370
    13
100
AcDbLine
 10
-212.7461584397238
 20
-112.1877600092
 30
0.0
 11
-202.4931090065238
 21
-101.9347031254
 31
0.0
  0
LINE
  5
3B9
330
1F
100
AcDbEntity
  8
3
  6
CENTERX2
 62
     3
370
    13
100
AcDbLine
 10
-152.9956350215239
 20
-112.1877600092
 30
0.0
 11
-163.2486875279168
 21
-101.9347031254
 31
0.0
  0
ARC
  5
3BA
330
1F
100
AcDbEntity
  8
3
  6
CENTERX2
 62
     3
370
    13
100
AcDbCircle
 10
-182.8708967305238
 20
-82.31249643739997
 30
0.0
 40
35.0
100
AcDbArc
 50
123.4385365871662
 51
147.4590799969852
  0
ARC
  5
3BB
330
1F
100
AcDbEntity
  8
3
  6
CENTERX2
 62
     3
370
    13
100
AcDbCircle
 10
-182.8708967305238
 20
-82.31249643739997
 30
0.0
 40
35.0
100
AcDbArc
 50
212.5409200030147
 51
237.4819750970491
  0
ARC
  5
3BC
330
1F
100
AcDbEntity
  8
3
  6
CENTERX2
 62
     3
370
    13
100
AcDbCircle
 10
-182.8708967305238
 20
-82.31249643739997
 30
0.0
 40
35.0
100
AcDbArc
 50
302.5180249029509
 51
326.0307189659583
  0
ARC
  5
3BD
330
1F
100
AcDbEntity
  8
3
  6
CENTERX2
 62
     3
370
    13
100
AcDbCircle
 10
-182.8708967305238
 20
-82.31249643739997
 30
0.0
 40
35.0
100
AcDbArc
 50
33.96928103404167
 51
56.56146341283382
  0
LINE
  5
3BE
330
1F
100
AcDbEntity
  8
3
  6
CENTERX2
 62
     3
370
    13
100
AcDbLine
 10
-262.6834498575738
 20
-37.81250000000004
 30
0.0
 11
-251.5472199749227
 21
-37.81250000000004
 31
0.0
  0
LINE
  5
3BF
330
1F
100
AcDbEntity
  8
3
  6
CENTERX2
 62
     3
370
    13
100
AcDbLine
 10
-114.1945792673248
 20
-37.81250000000004
 30
0.0
 11
-103.0583493846736
 21
-37.81250000000004
 31
0.0
  0
LINE
  5
3C0
330
1F
100
AcDbEntity
  8
3
  6
CENTERX2
 62
     3
370
    13
100
AcDbLine
 10
-39.18749999999181
 20
209.9567384676097
 30
0.0
 11
-39.18749999999181
 21
221.0929683502603
 31
0.0
  0
LINE
  5
3C1
330
1F
100
AcDbEntity
  8
3
  6
DASHED2
 62
     4
370
    18
100
AcDbLine
 10
-18.98750034269324
 20
-83.81250095359988
 30
0.0
 11
-22.98750099829317
 21
-83.81250095359988
 31
0.0
  0
LINE
  5
3C2
330
1F
100
AcDbEntity
  8
3
  6
DASHED2
 62
     4
370
    18
100
AcDbLine
 10
-22.98750099829317
 20
-60.8124990462998
 30
0.0
 11
-18.98750034269324
 21
-60.8124990462998
 31
0.0
  0
LINE
  5
3C3
330
1F
100
AcDbEntity
  8
3
  6
DASHED2
 62
     4
370
    18
100
AcDbLine
 10
35.01249919540692
 20
-122.3124970196999
 30
0.0
 11
35.01249919540692
 21
-112.3124916552999
 31
0.0
  0
LINE
  5
3C4
330
1F
100
AcDbEntity
  8
3
  6
DASHED2
 62
     4
370
    18
100
AcDbLine
 10
49.31249911790678
 20
-122.3124970196999
 30
0.0
 11
49.31249911790678
 21
-123.3124990462999
 31
0.0
  0
LINE
  5
3C5
330
1F
100
AcDbEntity
  8
3
  6
DASHED2
 62
     4
370
    18
100
AcDbLine
 10
37.71250019670674
 20
-123.3124990462999
 30
0.0
 11
37.71250019670674
 21
-122.3124970196999
 31
0.0
  0
ARC
  5
3C6
330
1F
100
AcDbEntity
  8
3
  6
DASHED2
 62
     4
370
    18
100
AcDbCircle
 10
53.39151570340687
 20
-116.1124952083999
 30
0.0
 40
1.300005937319932
100
AcDbArc
 50
16.60131543940037
 51
89.99961862239999
  0
ARC
  5
3C7
330
1F
100
AcDbEntity
  8
3
  6
DASHED2
 62
     4
370
    18
100
AcDbCircle
 10
53.3915481621068
 20
-120.5125202061999
 30
0.0
 40
1.299968349920761
100
AcDbArc
 50
269.9989507786005
 51
343.3992340394004
  0
LINE
  5
3C8
330
1F
100
AcDbEntity
  8
3
  6
DASHED2
 62
     4
370
    18
100
AcDbLine
 10
53.3915243567069
 20
-121.8124885558999
 30
0.0
 11
50.01249979140675
 21
-121.8124885558999
 31
0.0
  0
LINE
  5
3C9
330
1F
100
AcDbEntity
  8
3
  6
DASHED2
 62
     4
370
    18
100
AcDbLine
 10
50.01249979140675
 20
-114.8124892710999
 30
0.0
 11
53.3915243567069
 21
-114.8124892710999
 31
0.0
  0
ARC
  5
3CA
330
1F
100
AcDbEntity
  8
3
  6
DASHED2
 62
     4
370
    18
100
AcDbCircle
 10
46.01251784210672
 20
-118.3124963640999
 30
0.0
 40
8.999980906220866
100
AcDbArc
 50
343.3984290371001
 51
16.60157096290004
  0
LINE
  5
3CB
330
1F
100
AcDbEntity
  8
3
  6
DASHED2
 62
     4
370
    18
100
AcDbLine
 10
9.512499672206786
 20
-89.81248331069989
 30
0.0
 11
15.01249964240674
 21
-89.81248331069989
 31
0.0
  0
LINE
  5
3CC
330
1F
100
AcDbEntity
  8
3
  6
DASHED2
 62
     4
370
    18
100
AcDbLine
 10
9.512499672206786
 20
-92.31248092649989
 30
0.0
 11
15.01249964240674
 21
-92.31248092649989
 31
0.0
  0
LINE
  5
3CD
330
1F
100
AcDbEntity
  8
3
  6
DASHED2
 62
     4
370
    18
100
AcDbLine
 10
9.512499672206786
 20
-107.3124964236999
 30
0.0
 11
15.01249964240674
 21
-107.3124964236999
 31
0.0
  0
LINE
  5
3CE
330
1F
100
AcDbEntity
  8
3
  6
DASHED2
 62
     4
370
    18
100
AcDbLine
 10
9.512499672206786
 20
-72.31249999999991
 30
0.0
 11
15.01249964240674
 21
-72.31249999999991
 31
0.0
  0
LINE
  5
3CF
330
1F
100
AcDbEntity
  8
3
  6
DASHED2
 62
     4
370
    18
100
AcDbLine
 10
9.512499672206786
 20
-74.81249761579991
 30
0.0
 11
15.01249964240674
 21
-74.81249761579991
 31
0.0
  0
LINE
  5
3D0
330
1F
100
AcDbEntity
  8
3
  6
DASHED2
 62
     4
370
    18
100
AcDbLine
 10
9.512499672206786
 20
-112.3124916552999
 30
0.0
 11
9.512499672206786
 21
-52.31248927109986
 31
0.0
  0
LINE
  5
3D1
330
1F
100
AcDbEntity
  8
3
  6
DASHED2
 62
     4
370
    18
100
AcDbLine
 10
9.512499672206786
 20
-57.3124845027999
 30
0.0
 11
15.01249964240674
 21
-57.3124845027999
 31
0.0
  0
LINE
  5
3D2
330
1F
100
AcDbEntity
  8
3
  6
DASHED2
 62
     4
370
    18
100
AcDbLine
 10
-18.98750034269324
 20
-52.31248927109986
 30
0.0
 11
-18.98750034269324
 21
-112.3124916552999
 31
0.0
  0
LINE
  5
3D3
330
1F
100
AcDbEntity
  8
3
  6
DASHED2
 62
     4
370
    18
100
AcDbLine
 10
-22.98750099829317
 20
-83.81250095359988
 30
0.0
 11
-22.98750099829317
 21
-60.8124990462998
 31
0.0
  0
LINE
  5
3D4
330
1F
100
AcDbEntity
  8
3
  6
DASHED2
 62
     4
370
    18
100
AcDbLine
 10
15.01249964240674
 20
-52.31248927109986
 30
0.0
 11
15.01249964240674
 21
-112.3124916552999
 31
0.0
  0
LINE
  5
3D5
330
1F
100
AcDbEntity
  8
3
  6
DASHED2
 62
     4
370
    18
100
AcDbLine
 10
53.01249842050674
 20
-112.3124916552999
 30
0.0
 11
-18.98750034269324
 21
-112.3124916552999
 31
0.0
  0
LINE
  5
3D6
330
1F
100
AcDbEntity
  8
3
  6
DASHED2
 62
     4
370
    18
100
AcDbLine
 10
53.01249842050674
 20
-52.31248927109986
 30
0.0
 11
53.01249842050674
 21
-112.3124916552999
 31
0.0
  0
LINE
  5
3D7
330
1F
100
AcDbEntity
  8
3
  6
DASHED2
 62
     4
370
    18
100
AcDbLine
 10
53.01249842050674
 20
-52.31248927109986
 30
0.0
 11
-18.98750034269324
 21
-52.31248927109986
 31
0.0
  0
LINE
  5
3D8
330
1F
100
AcDbEntity
  8
3
  6
DASHED2
 62
     4
370
    18
100
AcDbLine
 10
49.01250149020689
 20
-121.7124868630999
 30
0.0
 11
37.51250053650688
 21
-121.7124868630999
 31
0.0
  0
LINE
  5
3D9
330
1F
100
AcDbEntity
  8
3
  6
DASHED2
 62
     4
370
    18
100
AcDbLine
 10
49.01250149020689
 20
-121.7124868630999
 30
0.0
 11
49.01250149020689
 21
-112.3124916552999
 31
0.0
  0
LINE
  5
3DA
330
1F
100
AcDbEntity
  8
3
  6
DASHED2
 62
     4
370
    18
100
AcDbLine
 10
50.01249979140675
 20
-113.5124970673999
 30
0.0
 11
49.01250149020689
 21
-113.5124970673999
 31
0.0
  0
LINE
  5
3DB
330
1F
100
AcDbEntity
  8
3
  6
DASHED2
 62
     4
370
    18
100
AcDbLine
 10
50.01249979140675
 20
-113.5124970673999
 30
0.0
 11
50.01249979140675
 21
-122.3124970196999
 31
0.0
  0
LINE
  5
3DC
330
1F
100
AcDbEntity
  8
3
  6
DASHED2
 62
     4
370
    18
100
AcDbLine
 10
37.51250053650688
 20
-122.3124970196999
 30
0.0
 11
37.51250053650688
 21
-112.3124916552999
 31
0.0
  0
LINE
  5
3DD
330
1F
100
AcDbEntity
  8
3
  6
DASHED2
 62
     4
370
    18
100
AcDbLine
 10
35.01250105800682
 20
-122.3124970196999
 30
0.0
 11
50.01249979140675
 21
-122.3124970196999
 31
0.0
  0
LINE
  5
3DE
330
1F
100
AcDbEntity
  8
3
  6
DASHED2
 62
     4
370
    18
100
AcDbLine
 10
37.71250019670674
 20
-123.3124990462999
 30
0.0
 11
49.31249911790678
 21
-123.3124990462999
 31
0.0
  0
LINE
  5
3DF
330
1F
100
AcDbEntity
  8
3
  6
DASHED2
 62
     4
370
    18
100
AcDbLine
 10
50.91250012520686
 20
-114.8124892710999
 30
0.0
 11
50.91250012520686
 21
-121.8124885558999
 31
0.0
  0
LINE
  5
3E0
330
1F
100
AcDbEntity
  8
3
  6
DASHED2
 62
     4
370
    18
100
AcDbLine
 10
51.91249842650677
 20
-114.8124892710999
 30
0.0
 11
51.91249842650677
 21
-121.8124885558999
 31
0.0
  0
LINE
  5
3E1
330
1F
100
AcDbEntity
  8
3
  6
DASHED2
 62
     4
370
    18
100
AcDbLine
 10
-27.18750000000068
 20
-67.31250476829999
 30
0.0
 11
-22.98750099829317
 21
-67.31250476829999
 31
0.0
  0
LINE
  5
3E2
330
1F
100
AcDbEntity
  8
3
  6
DASHED2
 62
     4
370
    18
100
AcDbLine
 10
-22.98750099829317
 20
-77.31249523159991
 30
0.0
 11
-27.18750000000068
 21
-77.31249523159991
 31
0.0
  0
VIEWPORT
  5
B9
102
{ACAD_XDICTIONARY
360
3EA
102
}
330
1B
100
AcDbEntity
 67
     1
  8
0
100
AcDbViewport
 10
0.0
 20
0.0
 30
0.0
 40
2364.0
 41
1621.536919925734
 68
     1
 69
     1
 12
0.0
 22
0.0
 13
0.0
 23
0.0
 14
0.5
 24
0.5
 15
0.0
 25
0.0
 16
0.0
 26
0.0
 36
1.0
 17
0.0
 27
0.0
 37
0.0
 42
50.0
 43
0.0
 44
0.0
 45
1621.536919925734
 50
0.0
 51
0.0
 72
   100
 90
   557152
  1

281
     0
 71
     1
 74
     0
110
0.0
120
0.0
130
0.0
111
1.0
121
0.0
131
0.0
112
0.0
122
1.0
132
0.0
 79
     0
146
0.0
  0
ENDSEC
  0
SECTION
  2
OBJECTS
  0
DICTIONARY
  5
C
330
0
100
AcDbDictionary
281
     1
  3
ACAD_GROUP
350
D
  3
ACAD_LAYOUT
350
1A
  3
ACAD_MATERIAL
350
43
  3
ACAD_MLEADERSTYLE
350
3E5
  3
ACAD_MLINESTYLE
350
17
  3
ACAD_PLOTSETTINGS
350
19
  3
ACAD_PLOTSTYLENAME
350
E
  3
ACAD_SCALELIST
350
47
  3
ACAD_VISUALSTYLE
350
2A
  3
AcDbVariableDictionary
350
3E3
  0
DICTIONARY
  5
3EC
330
8
100
AcDbDictionary
280
     1
281
     1
  3
ACAD_XREC_ROUNDTRIP
360
3ED
  0
DICTIONARY
  5
3EA
330
B9
100
AcDbDictionary
280
     1
281
     1
  3
ACAD_XREC_ROUNDTRIP
360
3EB
  0
DICTIONARY
  5
D
102
{ACAD_REACTORS
330
C
102
}
330
C
100
AcDbDictionary
281
     1
  0
DICTIONARY
  5
1A
102
{ACAD_REACTORS
330
C
102
}
330
C
100
AcDbDictionary
281
     1
  3
Layout1
350
1E
  3
Layout2
350
26
  3
Model
350
22
  0
DICTIONARY
  5
43
102
{ACAD_REACTORS
330
C
102
}
330
C
100
AcDbDictionary
281
     1
  3
ByBlock
350
45
  3
ByLayer
350
44
  3
Global
350
46
  0
DICTIONARY
  5
3E5
102
{ACAD_REACTORS
330
C
102
}
330
C
100
AcDbDictionary
281
     1
  0
DICTIONARY
  5
17
102
{ACAD_REACTORS
330
C
102
}
330
C
100
AcDbDictionary
281
     1
  3
Standard
350
18
  0
DICTIONARY
  5
19
102
{ACAD_REACTORS
330
C
102
}
330
C
100
AcDbDictionary
281
     1
  0
ACDBDICTIONARYWDFLT
  5
E
102
{ACAD_REACTORS
330
C
102
}
330
C
100
AcDbDictionary
281
     1
  3
Normal
350
F
100
AcDbDictionaryWithDefault
340
F
  0
DICTIONARY
  5
47
102
{ACAD_REACTORS
330
C
102
}
330
C
100
AcDbDictionary
281
     1
  3
A0
350
48
  3
A1
350
49
  3
A2
350
4A
  3
A3
350
4B
  3
A4
350
4C
  3
A5
350
4D
  3
A6
350
4E
  3
A7
350
4F
  3
A8
350
50
  3
A9
350
51
  3
B0
350
52
  3
B1
350
53
  3
B2
350
54
  3
B3
350
55
  3
B4
350
56
  3
B5
350
57
  3
B6
350
58
  3
B7
350
59
  3
B8
350
5A
  3
B9
350
5B
  3
C0
350
5C
  3
C1
350
5D
  3
C2
350
5E
  3
C3
350
5F
  3
C4
350
60
  3
C5
350
61
  3
C6
350
62
  3
C7
350
63
  3
C8
350
64
  3
C9
350
65
  3
D0
350
66
  3
D1
350
67
  3
D2
350
68
  0
DICTIONARY
  5
2A
102
{ACAD_REACTORS
330
C
102
}
330
C
100
AcDbDictionary
281
     1
  3
2dWireframe
350
2F
  3
Basic
350
32
  3
Brighten
350
36
  3
ColorChange
350
3A
  3
Conceptual
350
34
  3
Dim
350
35
  3
EdgeColorOff
350
3D
  3
Facepattern
350
39
  3
Flat
350
2B
  3
FlatWithEdges
350
2C
  3
Gouraud
350
2D
  3
GouraudWithEdges
350
2E
  3
Hidden
350
31
  3
JitterOff
350
3B
  3
Linepattern
350
38
  3
OverhangOff
350
3C
  3
Realistic
350
33
  3
Shaded
350
42
  3
Shaded with edges
350
41
  3
Shades of Gray
350
3E
  3
Sketchy
350
3F
  3
Thicken
350
37
  3
Wireframe
350
30
  3
X-Ray
350
40
  0
DICTIONARY
  5
3E3
102
{ACAD_REACTORS
330
C
102
}
330
C
100
AcDbDictionary
281
     1
  3
CANNOSCALE
350
3EF
  3
DIMASSOC
350
3E8
  3
HIDETEXT
350
3E9
  3
MSLTSCALE
350
3F0
  0
XRECORD
  5
3ED
102
{ACAD_REACTORS
330
3EC
102
}
330
3EC
100
AcDbXrecord
280
     1
102
VTR_0.000_0.000_1.000_1.000_GRIDDISPLAY
 70
     3
102
VTR_0.000_0.000_1.000_1.000_GRIDMAJOR
 70
     5
102
VTR_0.000_0.000_1.000_1.000_DEFAULTLIGHTING
280
     1
102
VTR_0.000_0.000_1.000_1.000_DEFAULTLIGHTINGTYPE
 70
     1
102
VTR_0.000_0.000_1.000_1.000_BRIGHTNESS
141
0.0
102
VTR_0.000_0.000_1.000_1.000_CONTRAST
142
0.0
  0
XRECORD
  5
3EB
102
{ACAD_REACTORS
330
3EA
102
}
330
3EA
100
AcDbXrecord
280
     1
102
GRIDDISPLAY
 70
     2
102
GRIDMAJOR
 70
     5
102
DEFAULTLIGHTING
280
     1
102
DEFAULTLIGHTINGTYPE
 70
     1
102
BRIGHTNESS
141
0.0
102
CONTRAST
142
0.0
  0
LAYOUT
  5
1E
102
{ACAD_REACTORS
330
1A
102
}
330
1A
100
AcDbPlotSettings
  1

  2
none_device
  4

  6

 40
0.0
 41
0.0
 42
0.0
 43
0.0
 44
0.0
 45
0.0
 46
0.0
 47
0.0
 48
0.0
 49
0.0
140
0.0
141
0.0
142
1.0
143
1.0
 70
   688
 72
     0
 73
     0
 74
     5
  7

 75
    16
147
1.0
148
0.0
149
0.0
100
AcDbLayout
  1
Layout1
 70
     0
 71
     1
 10
0.0
 20
0.0
 11
12.0
 21
9.0
 12
0.0
 22
0.0
 32
0.0
 14
1.000000000000000E+20
 24
1.000000000000000E+20
 34
1.000000000000000E+20
 15
-1.000000000000000E+20
 25
-1.000000000000000E+20
 35
-1.000000000000000E+20
146
0.0
 13
0.0
 23
0.0
 33
0.0
 16
1.0
 26
0.0
 36
0.0
 17
0.0
 27
1.0
 37
0.0
 76
     0
330
1B
331
B9
  0
LAYOUT
  5
26
102
{ACAD_REACTORS
330
1A
102
}
330
1A
100
AcDbPlotSettings
  1

  2
none_device
  4

  6

 40
0.0
 41
0.0
 42
0.0
 43
0.0
 44
0.0
 45
0.0
 46
0.0
 47
0.0
 48
0.0
 49
0.0
140
0.0
141
0.0
142
1.0
143
1.0
 70
   688
 72
     0
 73
     0
 74
     5
  7

 75
    16
147
1.0
148
0.0
149
0.0
100
AcDbLayout
  1
Layout2
 70
     1
 71
     2
 10
0.0
 20
0.0
 11
0.0
 21
0.0
 12
0.0
 22
0.0
 32
0.0
 14
0.0
 24
0.0
 34
0.0
 15
0.0
 25
0.0
 35
0.0
146
0.0
 13
0.0
 23
0.0
 33
0.0
 16
1.0
 26
0.0
 36
0.0
 17
0.0
 27
1.0
 37
0.0
 76
     0
330
23
  0
LAYOUT
  5
22
102
{ACAD_REACTORS
330
1A
102
}
330
1A
100
AcDbPlotSettings
  1

  2
none_device
  4
Letter_(8.50_x_11.00_Inches)
  6

 40
6.35
 41
6.35
 42
6.35000508
 43
6.35000508
 44
215.9
 45
279.4
 46
0.0
 47
0.0
 48
0.0
 49
0.0
140
0.0
141
0.0
142
1.0
143
1.0
 70
  1712
 72
     0
 73
     0
 74
     0
  7

 75
     0
147
1.0
148
0.0
149
0.0
100
AcDbLayout
  1
Model
 70
     1
 71
     0
 10
-420.0
 20
-297.0
 11
420.0
 21
297.0
 12
0.0
 22
0.0
 32
0.0
 14
-1182.0
 24
-810.7684599628672
 34
0.0
 15
1182.0
 25
810.7684599628672
 35
0.0
146
0.0
 13
0.0
 23
0.0
 33
0.0
 16
1.0
 26
0.0
 36
0.0
 17
0.0
 27
1.0
 37
0.0
 76
     0
330
1F
331
29
  0
MATERIAL
  5
45
102
{ACAD_REACTORS
330
43
102
}
102
{ACAD_XDICTIONARY
360
423
102
}
330
43
100
AcDbMaterial
  1
ByBlock
  0
MATERIAL
  5
44
102
{ACAD_REACTORS
330
43
102
}
102
{ACAD_XDICTIONARY
360
421
102
}
330
43
100
AcDbMaterial
  1
ByLayer
  0
MATERIAL
  5
46
102
{ACAD_REACTORS
330
43
102
}
102
{ACAD_XDICTIONARY
360
425
102
}
330
43
100
AcDbMaterial
  1
Global
  0
MLINESTYLE
  5
18
102
{ACAD_REACTORS
330
17
102
}
330
17
100
AcDbMlineStyle
  2
Standard
 70
     0
  3

 62
   256
 51
90.0
 52
90.0
 71
     2
 49
0.5
 62
   256
  6
BYLAYER
 49
-0.5
 62
   256
  6
BYLAYER
  0
ACDBPLACEHOLDER
  5
F
102
{ACAD_REACTORS
330
E
102
}
330
E
  0
SCALE
  5
48
102
{ACAD_REACTORS
330
47
102
}
330
47
100
AcDbScale
 70
     0
300
1:1
140
1.0
141
1.0
290
     1
  0
SCALE
  5
49
102
{ACAD_REACTORS
330
47
102
}
330
47
100
AcDbScale
 70
     0
300
1:2
140
1.0
141
2.0
290
     0
  0
SCALE
  5
4A
102
{ACAD_REACTORS
330
47
102
}
330
47
100
AcDbScale
 70
     0
300
1:4
140
1.0
141
4.0
290
     0
  0
SCALE
  5
4B
102
{ACAD_REACTORS
330
47
102
}
330
47
100
AcDbScale
 70
     0
300
1:5
140
1.0
141
5.0
290
     0
  0
SCALE
  5
4C
102
{ACAD_REACTORS
330
47
102
}
330
47
100
AcDbScale
 70
     0
300
1:8
140
1.0
141
8.0
290
     0
  0
SCALE
  5
4D
102
{ACAD_REACTORS
330
47
102
}
330
47
100
AcDbScale
 70
     0
300
1:10
140
1.0
141
10.0
290
     0
  0
SCALE
  5
4E
102
{ACAD_REACTORS
330
47
102
}
330
47
100
AcDbScale
 70
     0
300
1:16
140
1.0
141
16.0
290
     0
  0
SCALE
  5
4F
102
{ACAD_REACTORS
330
47
102
}
330
47
100
AcDbScale
 70
     0
300
1:20
140
1.0
141
20.0
290
     0
  0
SCALE
  5
50
102
{ACAD_REACTORS
330
47
102
}
330
47
100
AcDbScale
 70
     0
300
1:30
140
1.0
141
30.0
290
     0
  0
SCALE
  5
51
102
{ACAD_REACTORS
330
47
102
}
330
47
100
AcDbScale
 70
     0
300
1:40
140
1.0
141
40.0
290
     0
  0
SCALE
  5
52
102
{ACAD_REACTORS
330
47
102
}
330
47
100
AcDbScale
 70
     0
300
1:50
140
1.0
141
50.0
290
     0
  0
SCALE
  5
53
102
{ACAD_REACTORS
330
47
102
}
330
47
100
AcDbScale
 70
     0
300
1:100
140
1.0
141
100.0
290
     0
  0
SCALE
  5
54
102
{ACAD_REACTORS
330
47
102
}
330
47
100
AcDbScale
 70
     0
300
2:1
140
2.0
141
1.0
290
     0
  0
SCALE
  5
55
102
{ACAD_REACTORS
330
47
102
}
330
47
100
AcDbScale
 70
     0
300
4:1
140
4.0
141
1.0
290
     0
  0
SCALE
  5
56
102
{ACAD_REACTORS
330
47
102
}
330
47
100
AcDbScale
 70
     0
300
8:1
140
8.0
141
1.0
290
     0
  0
SCALE
  5
57
102
{ACAD_REACTORS
330
47
102
}
330
47
100
AcDbScale
 70
     0
300
10:1
140
10.0
141
1.0
290
     0
  0
SCALE
  5
58
102
{ACAD_REACTORS
330
47
102
}
330
47
100
AcDbScale
 70
     0
300
100:1
140
100.0
141
1.0
290
     0
  0
SCALE
  5
59
102
{ACAD_REACTORS
330
47
102
}
330
47
100
AcDbScale
 70
     0
300
1/128" = 1'-0"
140
0.0078125
141
12.0
290
     0
  0
SCALE
  5
5A
102
{ACAD_REACTORS
330
47
102
}
330
47
100
AcDbScale
 70
     0
300
1/64" = 1'-0"
140
0.015625
141
12.0
290
     0
  0
SCALE
  5
5B
102
{ACAD_REACTORS
330
47
102
}
330
47
100
AcDbScale
 70
     0
300
1/32" = 1'-0"
140
0.03125
141
12.0
290
     0
  0
SCALE
  5
5C
102
{ACAD_REACTORS
330
47
102
}
330
47
100
AcDbScale
 70
     0
300
1/16" = 1'-0"
140
0.0625
141
12.0
290
     0
  0
SCALE
  5
5D
102
{ACAD_REACTORS
330
47
102
}
330
47
100
AcDbScale
 70
     0
300
3/32" = 1'-0"
140
0.09375
141
12.0
290
     0
  0
SCALE
  5
5E
102
{ACAD_REACTORS
330
47
102
}
330
47
100
AcDbScale
 70
     0
300
1/8" = 1'-0"
140
0.125
141
12.0
290
     0
  0
SCALE
  5
5F
102
{ACAD_REACTORS
330
47
102
}
330
47
100
AcDbScale
 70
     0
300
3/16" = 1'-0"
140
0.1875
141
12.0
290
     0
  0
SCALE
  5
60
102
{ACAD_REACTORS
330
47
102
}
330
47
100
AcDbScale
 70
     0
300
1/4" = 1'-0"
140
0.25
141
12.0
290
     0
  0
SCALE
  5
61
102
{ACAD_REACTORS
330
47
102
}
330
47
100
AcDbScale
 70
     0
300
3/8" = 1'-0"
140
0.375
141
12.0
290
     0
  0
SCALE
  5
62
102
{ACAD_REACTORS
330
47
102
}
330
47
100
AcDbScale
 70
     0
300
1/2" = 1'-0"
140
0.5
141
12.0
290
     0
  0
SCALE
  5
63
102
{ACAD_REACTORS
330
47
102
}
330
47
100
AcDbScale
 70
     0
300
3/4" = 1'-0"
140
0.75
141
12.0
290
     0
  0
SCALE
  5
64
102
{ACAD_REACTORS
330
47
102
}
330
47
100
AcDbScale
 70
     0
300
1" = 1'-0"
140
1.0
141
12.0
290
     0
  0
SCALE
  5
65
102
{ACAD_REACTORS
330
47
102
}
330
47
100
AcDbScale
 70
     0
300
1-1/2" = 1'-0"
140
1.5
141
12.0
290
     0
  0
SCALE
  5
66
102
{ACAD_REACTORS
330
47
102
}
330
47
100
AcDbScale
 70
     0
300
3" = 1'-0"
140
3.0
141
12.0
290
     0
  0
SCALE
  5
67
102
{ACAD_REACTORS
330
47
102
}
330
47
100
AcDbScale
 70
     0
300
6" = 1'-0"
140
6.0
141
12.0
290
     0
  0
SCALE
  5
68
102
{ACAD_REACTORS
330
47
102
}
330
47
100
AcDbScale
 70
     0
300
1'-0" = 1'-0"
140
12.0
141
12.0
290
     0
  0
VISUALSTYLE
  5
2F
102
{ACAD_REACTORS
330
2A
102
}
102
{ACAD_XDICTIONARY
360
3F9
102
}
330
2A
100
AcDbVisualStyle
  2
2dWireframe
 70
     4
 71
     0
 72
     2
 73
     0
 90
        0
 40
0.6
 41
30.0
 62
     5
 63
     7
 74
     1
 91
        4
 64
     7
 65
   257
 75
     1
175
     1
 42
1.0
 92
        0
 66
   257
 43
1.0
 76
     1
 77
     6
 78
     2
 67
     7
 79
     5
170
     0
171
     0
290
     0
174
     0
 93
        1
 44
0.0
173
     0
291
     0
 45
0.0
1001
ACAD
1000
AcDbSavedByObjectVersion
1070
     0
  0
VISUALSTYLE
  5
32
102
{ACAD_REACTORS
330
2A
102
}
102
{ACAD_XDICTIONARY
360
3FF
102
}
330
2A
100
AcDbVisualStyle
  2
Basic
 70
     7
 71
     1
 72
     0
 73
     1
 90
        0
 40
0.6
 41
30.0
 62
     5
 63
     7
 74
     0
 91
        4
 64
     7
 65
   257
 75
     1
175
     1
 42
1.0
 92
        8
 66
     7
 43
1.0
 76
     1
 77
     6
 78
     2
 67
     7
 79
     5
170
     0
171
     0
290
     0
174
     0
 93
        1
 44
0.0
173
     0
291
     1
 45
0.0
1001
ACAD
1000
AcDbSavedByObjectVersion
1070
     0
  0
VISUALSTYLE
  5
36
102
{ACAD_REACTORS
330
2A
102
}
102
{ACAD_XDICTIONARY
360
407
102
}
330
2A
100
AcDbVisualStyle
  2
Brighten
 70
    12
 71
     2
 72
     2
 73
     0
 90
        0
 40
0.6
 41
30.0
 62
     5
 63
     7
 74
     1
 91
        4
 64
     7
 65
   257
 75
     1
175
     1
 42
1.0
 92
        8
 66
     7
 43
1.0
 76
     1
 77
     6
 78
     2
 67
     7
 79
     5
170
     0
171
     0
290
     0
174
     0
 93
        1
 44
50.0
173
     0
291
     1
 45
0.0
1001
ACAD
1000
AcDbSavedByObjectVersion
1070
     0
  0
VISUALSTYLE
  5
3A
102
{ACAD_REACTORS
330
2A
102
}
102
{ACAD_XDICTIONARY
360
40F
102
}
330
2A
100
AcDbVisualStyle
  2
ColorChange
 70
    16
 71
     2
 72
     2
 73
     3
 90
        0
 40
0.6
 41
30.0
 62
     5
 63
     8
 74
     1
 91
        4
 64
     7
 65
   257
 75
     1
175
     1
 42
1.0
 92
        8
 66
     8
 43
1.0
 76
     1
 77
     6
 78
     2
 67
     7
 79
     5
170
     0
171
     0
290
     0
174
     0
 93
        1
 44
0.0
173
     0
291
     1
 45
0.0
1001
ACAD
1000
AcDbSavedByObjectVersion
1070
     0
  0
VISUALSTYLE
  5
34
102
{ACAD_REACTORS
330
2A
102
}
102
{ACAD_XDICTIONARY
360
403
102
}
330
2A
100
AcDbVisualStyle
  2
Conceptual
 70
     9
 71
     3
 72
     2
 73
     0
 90
        0
 40
0.6
 41
30.0
 62
     5
 63
     7
 74
     2
 91
        2
 64
     7
 65
   257
 75
     1
175
     1
 42
179.0
 92
        8
 66
     7
 43
1.0
 76
     1
 77
     6
 78
     2
 67
     7
 79
     3
170
     0
171
     0
290
     0
174
     0
 93
        1
 44
0.0
173
     0
291
     0
 45
0.0
1001
ACAD
1000
AcDbSavedByObjectVersion
1070
     0
  0
VISUALSTYLE
  5
35
102
{ACAD_REACTORS
330
2A
102
}
102
{ACAD_XDICTIONARY
360
405
102
}
330
2A
100
AcDbVisualStyle
  2
Dim
 70
    11
 71
     2
 72
     2
 73
     0
 90
        0
 40
0.6
 41
30.0
 62
     5
 63
     7
 74
     1
 91
        4
 64
     7
 65
   257
 75
     1
175
     1
 42
1.0
 92
        8
 66
     7
 43
1.0
 76
     1
 77
     6
 78
     2
 67
     7
 79
     5
170
     0
171
     0
290
     0
174
     0
 93
        1
 44
-50.0
173
     0
291
     1
 45
0.0
1001
ACAD
1000
AcDbSavedByObjectVersion
1070
     0
  0
VISUALSTYLE
  5
3D
102
{ACAD_REACTORS
330
2A
102
}
102
{ACAD_XDICTIONARY
360
415
102
}
330
2A
100
AcDbVisualStyle
  2
EdgeColorOff
 70
    22
 71
     2
 72
     2
 73
     0
 90
        0
 40
0.6
 41
30.0
 62
     5
 63
     7
 74
     1
 91
        4
 64
     7
 65
   257
 75
     1
175
     1
 42
1.0
 92
        8
 66
     7
 43
1.0
 76
     1
 77
     6
 78
     2
 67
     7
 79
     5
170
     0
171
     0
290
     0
174
     0
 93
        1
 44
0.0
173
     0
291
     1
 45
0.0
1001
ACAD
1000
AcDbSavedByObjectVersion
1070
     0
  0
VISUALSTYLE
  5
39
102
{ACAD_REACTORS
330
2A
102
}
102
{ACAD_XDICTIONARY
360
40D
102
}
330
2A
100
AcDbVisualStyle
  2
Facepattern
 70
    15
 71
     2
 72
     2
 73
     0
 90
        0
 40
0.6
 41
30.0
 62
     5
 63
     7
 74
     1
 91
        4
 64
     7
 65
   257
 75
     1
175
     1
 42
1.0
 92
        8
 66
     7
 43
1.0
 76
     1
 77
     6
 78
     2
 67
     7
 79
     5
170
     0
171
     0
290
     0
174
     0
 93
        1
 44
0.0
173
     0
291
     1
 45
0.0
1001
ACAD
1000
AcDbSavedByObjectVersion
1070
     0
  0
VISUALSTYLE
  5
2B
102
{ACAD_REACTORS
330
2A
102
}
102
{ACAD_XDICTIONARY
360
3F1
102
}
330
2A
100
AcDbVisualStyle
  2
Flat
 70
     0
 71
     2
 72
     1
 73
     1
 90
        2
 40
0.6
 41
30.0
 62
     5
 63
     7
 74
     0
 91
        0
 64
     7
 65
   257
 75
     1
175
     1
 42
1.0
 92
        8
 66
     7
 43
1.0
 76
     1
 77
     6
 78
     2
 67
     7
 79
     5
170
     0
171
     0
290
     0
174
     0
 93
       13
 44
0.0
173
     0
291
     1
 45
0.0
1001
ACAD
1000
AcDbSavedByObjectVersion
1070
     0
  0
VISUALSTYLE
  5
2C
102
{ACAD_REACTORS
330
2A
102
}
102
{ACAD_XDICTIONARY
360
3F3
102
}
330
2A
100
AcDbVisualStyle
  2
FlatWithEdges
 70
     1
 71
     2
 72
     1
 73
     1
 90
        2
 40
0.6
 41
30.0
 62
     5
 63
     7
 74
     1
 91
        0
 64
     7
 65
   257
 75
     1
175
     1
 42
1.0
 92
        0
 66
   257
 43
1.0
 76
     1
 77
     6
 78
     2
 67
     7
 79
     5
170
     0
171
     0
290
     0
174
     0
 93
       13
 44
0.0
173
     0
291
     1
 45
0.0
1001
ACAD
1000
AcDbSavedByObjectVersion
1070
     0
  0
VISUALSTYLE
  5
2D
102
{ACAD_REACTORS
330
2A
102
}
102
{ACAD_XDICTIONARY
360
3F5
102
}
330
2A
100
AcDbVisualStyle
  2
Gouraud
 70
     2
 71
     2
 72
     2
 73
     1
 90
        2
 40
0.6
 41
30.0
 62
     5
 63
     7
 74
     0
 91
        0
 64
     7
 65
   257
 75
     1
175
     1
 42
1.0
 92
        0
 66
     7
 43
1.0
 76
     1
 77
     6
 78
     2
 67
     7
 79
     5
170
     0
171
     0
290
     0
174
     0
 93
       13
 44
0.0
173
     0
291
     1
 45
0.0
1001
ACAD
1000
AcDbSavedByObjectVersion
1070
     0
  0
VISUALSTYLE
  5
2E
102
{ACAD_REACTORS
330
2A
102
}
102
{ACAD_XDICTIONARY
360
3F7
102
}
330
2A
100
AcDbVisualStyle
  2
GouraudWithEdges
 70
     3
 71
     2
 72
     2
 73
     1
 90
        2
 40
0.6
 41
30.0
 62
     5
 63
     7
 74
     1
 91
        0
 64
     7
 65
   257
 75
     1
175
     1
 42
1.0
 92
        0
 66
   257
 43
1.0
 76
     1
 77
     6
 78
     2
 67
     7
 79
     5
170
     0
171
     0
290
     0
174
     0
 93
       13
 44
0.0
173
     0
291
     1
 45
0.0
1001
ACAD
1000
AcDbSavedByObjectVersion
1070
     0
  0
VISUALSTYLE
  5
31
102
{ACAD_REACTORS
330
2A
102
}
102
{ACAD_XDICTIONARY
360
3FD
102
}
330
2A
100
AcDbVisualStyle
  2
Hidden
 70
     6
 71
     1
 72
     2
 73
     2
 90
        0
 40
0.6
 41
30.0
 62
     5
 63
     7
 74
     2
 91
        2
 64
     7
 65
   257
 75
     2
175
     1
 42
40.0
 92
        0
 66
   257
 43
1.0
 76
     1
 77
     6
 78
     2
 67
     7
 79
     3
170
     0
171
     0
290
     0
174
     0
 93
        1
 44
0.0
173
     0
291
     0
 45
0.0
1001
ACAD
1000
AcDbSavedByObjectVersion
1070
     0
  0
VISUALSTYLE
  5
3B
102
{ACAD_REACTORS
330
2A
102
}
102
{ACAD_XDICTIONARY
360
411
102
}
330
2A
100
AcDbVisualStyle
  2
JitterOff
 70
    20
 71
     2
 72
     2
 73
     0
 90
        0
 40
0.6
 41
30.0
 62
     5
 63
     7
 74
     1
 91
        4
 64
     7
 65
   257
 75
     1
175
     1
 42
1.0
 92
       10
 66
     7
 43
1.0
 76
     1
 77
     6
 78
     2
 67
     7
 79
     5
170
     0
171
     0
290
     0
174
     0
 93
        1
 44
0.0
173
     0
291
     1
 45
0.0
1001
ACAD
1000
AcDbSavedByObjectVersion
1070
     0
  0
VISUALSTYLE
  5
38
102
{ACAD_REACTORS
330
2A
102
}
102
{ACAD_XDICTIONARY
360
40B
102
}
330
2A
100
AcDbVisualStyle
  2
Linepattern
 70
    14
 71
     2
 72
     2
 73
     0
 90
        0
 40
0.6
 41
30.0
 62
     5
 63
     7
 74
     1
 91
        4
 64
     7
 65
   257
 75
     7
175
     7
 42
1.0
 92
        8
 66
     7
 43
1.0
 76
     1
 77
     6
 78
     2
 67
     7
 79
     5
170
     0
171
     0
290
     0
174
     0
 93
        1
 44
0.0
173
     0
291
     1
 45
0.0
1001
ACAD
1000
AcDbSavedByObjectVersion
1070
     0
  0
VISUALSTYLE
  5
3C
102
{ACAD_REACTORS
330
2A
102
}
102
{ACAD_XDICTIONARY
360
413
102
}
330
2A
100
AcDbVisualStyle
  2
OverhangOff
 70
    21
 71
     2
 72
     2
 73
     0
 90
        0
 40
0.6
 41
30.0
 62
     5
 63
     7
 74
     1
 91
        4
 64
     7
 65
   257
 75
     1
175
     1
 42
1.0
 92
        9
 66
     7
 43
1.0
 76
     1
 77
     6
 78
     2
 67
     7
 79
     5
170
     0
171
     0
290
     0
174
     0
 93
        1
 44
0.0
173
     0
291
     1
 45
0.0
1001
ACAD
1000
AcDbSavedByObjectVersion
1070
     0
  0
VISUALSTYLE
  5
33
102
{ACAD_REACTORS
330
2A
102
}
102
{ACAD_XDICTIONARY
360
401
102
}
330
2A
100
AcDbVisualStyle
  2
Realistic
 70
     8
 71
     2
 72
     3
 73
     0
 90
        2
 40
0.6
 41
30.0
 62
     5
 63
     7
 74
     0
 91
        0
 64
     7
 65
   257
 75
     1
175
     1
 42
1.0
 92
        8
 66
   257
 43
1.0
 76
     1
 77
     6
 78
     2
 67
     7
 79
     3
170
     0
171
     0
290
     0
174
     0
 93
       13
 44
0.0
173
     0
291
     0
 45
0.0
1001
ACAD
1000
AcDbSavedByObjectVersion
1070
     0
  0
VISUALSTYLE
  5
42
102
{ACAD_REACTORS
330
2A
102
}
102
{ACAD_XDICTIONARY
360
41F
102
}
330
2A
100
AcDbVisualStyle
  2
Shaded
 70
    27
 71
     2
 72
     2
 73
     1
 90
        2
 40
0.6
 41
30.0
 62
     5
 63
     7
 74
     0
 91
        4
 64
     7
 65
   257
 75
     1
175
     1
 42
1.0
 92
        8
 66
   257
 43
1.0
 76
     1
 77
     6
 78
     2
 67
     8
 79
     3
170
     0
171
     0
290
     0
174
     0
 93
        5
 44
0.0
173
     0
291
     0
 45
0.0
1001
ACAD
1000
AcDbSavedByObjectVersion
1070
     0
  0
VISUALSTYLE
  5
41
102
{ACAD_REACTORS
330
2A
102
}
102
{ACAD_XDICTIONARY
360
41D
102
}
330
2A
100
AcDbVisualStyle
  2
Shaded with edges
 70
    26
 71
     2
 72
     2
 73
     1
 90
        2
 40
0.6
 41
30.0
 62
     5
 63
     7
 74
     1
 91
       10
 64
     7
 65
   257
 75
     2
175
     1
 42
1.0
 92
        8
 66
   257
 43
1.0
 76
     1
 77
     6
 78
     2
 67
     7
 79
     3
170
     0
171
     0
290
     0
174
     0
 93
        5
 44
0.0
173
     0
291
     0
 45
0.0
1001
ACAD
1000
AcDbSavedByObjectVersion
1070
     0
  0
VISUALSTYLE
  5
3E
102
{ACAD_REACTORS
330
2A
102
}
102
{ACAD_XDICTIONARY
360
417
102
}
330
2A
100
AcDbVisualStyle
  2
Shades of Gray
 70
    23
 71
     2
 72
     2
 73
     3
 90
        0
 40
0.6
 41
30.0
 62
     5
 63
     7
 74
     2
 91
        2
 64
     7
 65
     7
 75
     1
175
     1
 42
40.0
 92
        8
 66
     7
 43
1.0
 76
     1
 77
     6
 78
     2
 67
     7
 79
     3
170
     0
171
     0
290
     0
174
     0
 93
        1
 44
0.0
173
     0
291
     0
 45
0.0
1001
ACAD
1000
AcDbSavedByObjectVersion
1070
     0
  0
VISUALSTYLE
  5
3F
102
{ACAD_REACTORS
330
2A
102
}
102
{ACAD_XDICTIONARY
360
419
102
}
330
2A
100
AcDbVisualStyle
  2
Sketchy
 70
    24
 71
     1
 72
     2
 73
     2
 90
        0
 40
0.6
 41
30.0
 62
     5
 63
     7
 74
     2
 91
        2
 64
     7
 65
     7
 75
     1
175
     1
 42
40.0
 92
       11
 66
     7
 43
1.0
 76
     1
 77
     6
 78
     2
 67
     7
 79
     6
170
     0
171
     0
290
     0
174
     0
 93
        1
 44
0.0
173
     0
291
     0
 45
0.0
1001
ACAD
1000
AcDbSavedByObjectVersion
1070
     0
  0
VISUALSTYLE
  5
37
102
{ACAD_REACTORS
330
2A
102
}
102
{ACAD_XDICTIONARY
360
409
102
}
330
2A
100
AcDbVisualStyle
  2
Thicken
 70
    13
 71
     2
 72
     2
 73
     0
 90
        0
 40
0.6
 41
30.0
 62
     5
 63
     7
 74
     1
 91
        4
 64
     7
 65
   257
 75
     1
175
     1
 42
1.0
 92
       12
 66
     7
 43
1.0
 76
     1
 77
     6
 78
     2
 67
     7
 79
     5
170
     0
171
     0
290
     0
174
     0
 93
        1
 44
0.0
173
     0
291
     1
 45
0.0
1001
ACAD
1000
AcDbSavedByObjectVersion
1070
     0
  0
VISUALSTYLE
  5
30
102
{ACAD_REACTORS
330
2A
102
}
102
{ACAD_XDICTIONARY
360
3FB
102
}
330
2A
100
AcDbVisualStyle
  2
Wireframe
 70
     5
 71
     0
 72
     2
 73
     0
 90
        0
 40
0.6
 41
30.0
 62
     5
 63
     7
 74
     1
 91
        4
 64
     7
 65
   257
 75
     1
175
     1
 42
1.0
 92
        0
 66
   257
 43
1.0
 76
     1
 77
     6
 78
     2
 67
     7
 79
     3
170
     0
171
     0
290
     0
174
     0
 93
        1
 44
0.0
173
     0
291
     0
 45
0.0
1001
ACAD
1000
AcDbSavedByObjectVersion
1070
     0
  0
VISUALSTYLE
  5
40
102
{ACAD_REACTORS
330
2A
102
}
102
{ACAD_XDICTIONARY
360
41B
102
}
330
2A
100
AcDbVisualStyle
  2
X-Ray
 70
    25
 71
     2
 72
     2
 73
     1
 90
        1
 40
0.5
 41
30.0
 62
     5
 63
     7
 74
     1
 91
        0
 64
     7
 65
   257
 75
     1
175
     1
 42
1.0
 92
        8
 66
     7
 43
1.0
 76
     1
 77
     6
 78
     2
 67
     7
 79
     3
170
     0
171
     0
290
     0
174
     0
 93
       13
 44
0.0
173
     0
291
     0
 45
0.0
1001
ACAD
1000
AcDbSavedByObjectVersion
1070
     0
  0
DICTIONARYVAR
  5
3EF
102
{ACAD_REACTORS
330
3E3
102
}
330
3E3
100
DictionaryVariables
280
     0
  1
1:1
  0
DICTIONARYVAR
  5
3E8
102
{ACAD_REACTORS
330
3E3
102
}
330
3E3
100
DictionaryVariables
280
     0
  1
2
  0
DICTIONARYVAR
  5
3E9
102
{ACAD_REACTORS
330
3E3
102
}
330
3E3
100
DictionaryVariables
280
     0
  1
1
  0
DICTIONARYVAR
  5
3F0
102
{ACAD_REACTORS
330
3E3
102
}
330
3E3
100
DictionaryVariables
280
     0
  1
1
  0
DICTIONARY
  5
423
330
45
100
AcDbDictionary
280
     1
281
     1
  3
ACAD_XREC_ROUNDTRIP
360
424
  0
DICTIONARY
  5
421
330
44
100
AcDbDictionary
280
     1
281
     1
  3
ACAD_XREC_ROUNDTRIP
360
422
  0
DICTIONARY
  5
425
330
46
100
AcDbDictionary
280
     1
281
     1
  3
ACAD_XREC_ROUNDTRIP
360
426
  0
DICTIONARY
  5
3F9
330
2F
100
AcDbDictionary
280
     1
281
     1
  3
ACAD_XREC_ROUNDTRIP
360
3FA
  0
DICTIONARY
  5
3FF
330
32
100
AcDbDictionary
280
     1
281
     1
  3
ACAD_XREC_ROUNDTRIP
360
400
  0
DICTIONARY
  5
407
330
36
100
AcDbDictionary
280
     1
281
     1
  3
ACAD_XREC_ROUNDTRIP
360
408
  0
DICTIONARY
  5
40F
330
3A
100
AcDbDictionary
280
     1
281
     1
  3
ACAD_XREC_ROUNDTRIP
360
410
  0
DICTIONARY
  5
403
330
34
100
AcDbDictionary
280
     1
281
     1
  3
ACAD_XREC_ROUNDTRIP
360
404
  0
DICTIONARY
  5
405
330
35
100
AcDbDictionary
280
     1
281
     1
  3
ACAD_XREC_ROUNDTRIP
360
406
  0
DICTIONARY
  5
415
330
3D
100
AcDbDictionary
280
     1
281
     1
  3
ACAD_XREC_ROUNDTRIP
360
416
  0
DICTIONARY
  5
40D
330
39
100
AcDbDictionary
280
     1
281
     1
  3
ACAD_XREC_ROUNDTRIP
360
40E
  0
DICTIONARY
  5
3F1
330
2B
100
AcDbDictionary
280
     1
281
     1
  3
ACAD_XREC_ROUNDTRIP
360
3F2
  0
DICTIONARY
  5
3F3
330
2C
100
AcDbDictionary
280
     1
281
     1
  3
ACAD_XREC_ROUNDTRIP
360
3F4
  0
DICTIONARY
  5
3F5
330
2D
100
AcDbDictionary
280
     1
281
     1
  3
ACAD_XREC_ROUNDTRIP
360
3F6
  0
DICTIONARY
  5
3F7
330
2E
100
AcDbDictionary
280
     1
281
     1
  3
ACAD_XREC_ROUNDTRIP
360
3F8
  0
DICTIONARY
  5
3FD
330
31
100
AcDbDictionary
280
     1
281
     1
  3
ACAD_XREC_ROUNDTRIP
360
3FE
  0
DICTIONARY
  5
411
330
3B
100
AcDbDictionary
280
     1
281
     1
  3
ACAD_XREC_ROUNDTRIP
360
412
  0
DICTIONARY
  5
40B
330
38
100
AcDbDictionary
280
     1
281
     1
  3
ACAD_XREC_ROUNDTRIP
360
40C
  0
DICTIONARY
  5
413
330
3C
100
AcDbDictionary
280
     1
281
     1
  3
ACAD_XREC_ROUNDTRIP
360
414
  0
DICTIONARY
  5
401
330
33
100
AcDbDictionary
280
     1
281
     1
  3
ACAD_XREC_ROUNDTRIP
360
402
  0
DICTIONARY
  5
41F
330
42
100
AcDbDictionary
280
     1
281
     1
  3
ACAD_XREC_ROUNDTRIP
360
420
  0
DICTIONARY
  5
41D
330
41
100
AcDbDictionary
280
     1
281
     1
  3
ACAD_XREC_ROUNDTRIP
360
41E
  0
DICTIONARY
  5
417
330
3E
100
AcDbDictionary
280
     1
281
     1
  3
ACAD_XREC_ROUNDTRIP
360
418
  0
DICTIONARY
  5
419
330
3F
100
AcDbDictionary
280
     1
281
     1
  3
ACAD_XREC_ROUNDTRIP
360
41A
  0
DICTIONARY
  5
409
330
37
100
AcDbDictionary
280
     1
281
     1
  3
ACAD_XREC_ROUNDTRIP
360
40A
  0
DICTIONARY
  5
3FB
330
30
100
AcDbDictionary
280
     1
281
     1
  3
ACAD_XREC_ROUNDTRIP
360
3FC
  0
DICTIONARY
  5
41B
330
40
100
AcDbDictionary
280
     1
281
     1
  3
ACAD_XREC_ROUNDTRIP
360
41C
  0
XRECORD
  5
424
102
{ACAD_REACTORS
330
423
102
}
330
423
100
AcDbXrecord
280
     1
102
MATERIAL
148
0.0
149
0.0
149
0.0
 93
        0
 94
      127
282
     0
 72
     1
 77
     1
171
     1
175
     1
179
     1
273
     0
  0
XRECORD
  5
422
102
{ACAD_REACTORS
330
421
102
}
330
421
100
AcDbXrecord
280
     1
102
MATERIAL
148
0.0
149
0.0
149
0.0
 93
        0
 94
      127
282
     0
 72
     1
 77
     1
171
     1
175
     1
179
     1
273
     0
  0
XRECORD
  5
426
102
{ACAD_REACTORS
330
425
102
}
330
425
100
AcDbXrecord
280
     1
102
MATERIAL
148
0.0
149
0.0
149
0.0
 93
        0
 94
      127
282
     0
 72
     1
 77
     1
171
     1
175
     1
179
     1
273
     0
  0
XRECORD
  5
3FA
102
{ACAD_REACTORS
330
3F9
102
}
330
3F9
100
AcDbXrecord
280
     1
102
RTVSPropertyOp0
 70
     1
102
RTVSPropertyOp1
 70
     1
102
RTVSPropertyOp2
 70
     1
102
RTVSPropertyOp3
 70
     1
102
RTVSPropertyOp4
 70
     1
102
RTVSPropertyOp5
 70
     1
102
RTVSPropertyOp6
 70
     1
102
RTVSPropertyOp7
 70
     1
102
RTVSPropertyOp8
 70
     1
102
RTVSPropertyOp9
 70
     1
102
RTVSPropertyOp10
 70
     1
102
RTVSPropertyOp11
 70
     1
102
RTVSPropertyOp12
 70
     1
102
RTVSPropertyOp13
 70
     1
102
RTVSPropertyOp14
 70
     1
102
RTVSPropertyOp15
 70
     1
102
RTVSPropertyOp16
 70
     1
102
RTVSPropertyOp17
 70
     1
102
RTVSPropertyOp18
 70
     1
102
RTVSPropertyOp19
 70
     1
102
RTVSPropertyOp20
 70
     1
102
RTVSPropertyOp21
 70
     1
102
RTVSPropertyOp22
 70
     1
102
RTVSPropertyOp23
 70
     1
102
RTVSPropertyOp24
 70
     1
102
RTVSPropertyOp25
 70
     1
102
RTVSPropertyOp26
 70
     1
102
RTVSPropertyOp27
 70
     1
102
RTVSPropertyOp28
 70
     1
102
RTVSPropertyOp29
 70
     1
102
RTVSPropertyOp30
 70
     1
102
RTVSPropertyOp31
 70
     1
102
RTVSPropertyOp32
 70
     1
102
RTVSPropertyOp33
 70
     1
102
RTVSPropertyOp34
 70
     1
102
RTVSPropertyOp35
 70
     1
102
RTVSPropertyOp36
 70
     1
102
RTVSPropertyOp37
 70
     1
102
RTVSPropertyOp38
 70
     1
102
RTVSPropertyOp39
 70
     1
102
RTVSPropertyOp40
 70
     1
102
RTVSPropertyOp41
 70
     1
102
RTVSPropertyOp42
 70
     1
102
RTVSPropertyOp43
 70
     1
102
RTVSPropertyOp44
 70
     1
102
RTVSPropertyOp45
 70
     1
102
RTVSPropertyOp46
 70
     1
102
RTVSPropertyOp47
 70
     1
102
RTVSPropertyOp48
 70
     1
102
RTVSPropertyOp49
 70
     1
102
RTVSPropertyOp50
 70
     1
102
RTVSPropertyOp51
 70
     0
102
RTVSPropertyOp52
 70
     0
102
RTVSPropertyOp53
 70
     1
102
RTVSPropertyOp54
 70
     1
102
RTVSPropertyOp55
 70
     1
102
RTVSPropertyOp56
 70
     1
102
RTVSPropertyOp57
 70
     1
102
RTVSPost2010Prop28
280
     1
102
RTVSPost2010PropOp28
 70
     1
102
RTVSPost2010Prop29
280
     1
102
RTVSPost2010PropOp29
 70
     1
102
RTVSPost2010Prop30
280
     0
102
RTVSPost2010PropOp30
 70
     1
102
RTVSPost2010Prop31
280
     0
102
RTVSPost2010PropOp31
 70
     1
102
RTVSPost2010Prop32
280
     0
102
RTVSPost2010PropOp32
 70
     1
102
RTVSPost2010Prop33
280
     0
102
RTVSPost2010PropOp33
 70
     1
102
RTVSPost2010Prop34
280
     0
102
RTVSPost2010PropOp34
 70
     1
102
RTVSPost2010Prop35
280
     0
102
RTVSPost2010PropOp35
 70
     1
102
RTVSPost2010Prop36
280
     0
102
RTVSPost2010PropOp36
 70
     1
102
RTVSPost2010Prop37
 90
       50
102
RTVSPost2010PropOp37
 70
     1
102
RTVSPost2010Prop38
140
0.0
102
RTVSPost2010PropOp38
 70
     1
102
RTVSPost2010Prop39
140
1.0
102
RTVSPost2010PropOp39
 70
     1
102
RTVSPost2010Prop40
 90
        0
102
RTVSPost2010PropOp40
 70
     1
102
RTVSPost2010Prop41ColorIndex
 90
       18
102
RTVSPost2010Prop41ColorRGB
 90
        0
102
RTVSPost2010PropOp41
 70
     1
102
RTVSPost2010Prop42
 90
       50
102
RTVSPost2010PropOp42
 70
     1
102
RTVSPost2010Prop43
 90
        3
102
RTVSPost2010PropOp43
 70
     1
102
RTVSPost2010Prop44ColorIndex
 90
        5
102
RTVSPost2010Prop44ColorRGB
 90
      255
102
RTVSPost2010PropOp44
 70
     1
102
RTVSPost2010Prop45
280
     0
102
RTVSPost2010PropOp45
 70
     1
102
RTVSPost2010Prop46
 90
       50
102
RTVSPost2010PropOp46
 70
     1
102
RTVSPost2010Prop47
 90
       50
102
RTVSPost2010PropOp47
 70
     1
102
RTVSPost2010Prop48
 90
       50
102
RTVSPost2010PropOp48
 70
     1
102
RTVSPost2010Prop49
280
     0
102
RTVSPost2010PropOp49
 70
     1
102
RTVSPost2010Prop50
 90
       50
102
RTVSPost2010PropOp50
 70
     1
102
RTVSPost2010Prop51ColorIndex
 90
      256
102
RTVSPost2010Prop51ColorRGB
 90
-16777216
102
RTVSPost2010PropOp51
 70
     0
102
RTVSPost2010Prop52
140
1.0
102
RTVSPost2010PropOp52
 70
     0
102
RTVSPost2010Prop53
 90
        2
102
RTVSPost2010PropOp53
 70
     1
102
RTVSPost2010Prop54
  1
strokes_ogs.tif
102
RTVSPost2010PropOp54
 70
     1
102
RTVSPost2010Prop55
280
     0
102
RTVSPost2010PropOp55
 70
     1
102
RTVSPost2010Prop56
140
1.0
102
RTVSPost2010PropOp56
 70
     1
102
RTVSPost2010Prop57
140
1.0
102
RTVSPost2010PropOp57
 70
     1
  0
XRECORD
  5
400
102
{ACAD_REACTORS
330
3FF
102
}
330
3FF
100
AcDbXrecord
280
     1
102
RTVSPropertyOp0
 70
     1
102
RTVSPropertyOp1
 70
     1
102
RTVSPropertyOp2
 70
     1
102
RTVSPropertyOp3
 70
     1
102
RTVSPropertyOp4
 70
     1
102
RTVSPropertyOp5
 70
     1
102
RTVSPropertyOp6
 70
     1
102
RTVSPropertyOp7
 70
     1
102
RTVSPropertyOp8
 70
     1
102
RTVSPropertyOp9
 70
     1
102
RTVSPropertyOp10
 70
     1
102
RTVSPropertyOp11
 70
     1
102
RTVSPropertyOp12
 70
     1
102
RTVSPropertyOp13
 70
     1
102
RTVSPropertyOp14
 70
     1
102
RTVSPropertyOp15
 70
     1
102
RTVSPropertyOp16
 70
     1
102
RTVSPropertyOp17
 70
     1
102
RTVSPropertyOp18
 70
     1
102
RTVSPropertyOp19
 70
     1
102
RTVSPropertyOp20
 70
     1
102
RTVSPropertyOp21
 70
     1
102
RTVSPropertyOp22
 70
     1
102
RTVSPropertyOp23
 70
     1
102
RTVSPropertyOp24
 70
     1
102
RTVSPropertyOp25
 70
     1
102
RTVSPropertyOp26
 70
     1
102
RTVSPropertyOp27
 70
     1
102
RTVSPropertyOp28
 70
     1
102
RTVSPropertyOp29
 70
     1
102
RTVSPropertyOp30
 70
     1
102
RTVSPropertyOp31
 70
     1
102
RTVSPropertyOp32
 70
     1
102
RTVSPropertyOp33
 70
     1
102
RTVSPropertyOp34
 70
     1
102
RTVSPropertyOp35
 70
     1
102
RTVSPropertyOp36
 70
     1
102
RTVSPropertyOp37
 70
     1
102
RTVSPropertyOp38
 70
     1
102
RTVSPropertyOp39
 70
     1
102
RTVSPropertyOp40
 70
     1
102
RTVSPropertyOp41
 70
     1
102
RTVSPropertyOp42
 70
     1
102
RTVSPropertyOp43
 70
     1
102
RTVSPropertyOp44
 70
     1
102
RTVSPropertyOp45
 70
     1
102
RTVSPropertyOp46
 70
     1
102
RTVSPropertyOp47
 70
     1
102
RTVSPropertyOp48
 70
     1
102
RTVSPropertyOp49
 70
     1
102
RTVSPropertyOp50
 70
     1
102
RTVSPropertyOp51
 70
     0
102
RTVSPropertyOp52
 70
     0
102
RTVSPropertyOp53
 70
     1
102
RTVSPropertyOp54
 70
     1
102
RTVSPropertyOp55
 70
     1
102
RTVSPropertyOp56
 70
     1
102
RTVSPropertyOp57
 70
     1
102
RTVSPost2010Prop28
280
     0
102
RTVSPost2010PropOp28
 70
     1
102
RTVSPost2010Prop29
280
     1
102
RTVSPost2010PropOp29
 70
     1
102
RTVSPost2010Prop30
280
     1
102
RTVSPost2010PropOp30
 70
     1
102
RTVSPost2010Prop31
280
     0
102
RTVSPost2010PropOp31
 70
     1
102
RTVSPost2010Prop32
280
     0
102
RTVSPost2010PropOp32
 70
     1
102
RTVSPost2010Prop33
280
     0
102
RTVSPost2010PropOp33
 70
     1
102
RTVSPost2010Prop34
280
     0
102
RTVSPost2010PropOp34
 70
     1
102
RTVSPost2010Prop35
280
     0
102
RTVSPost2010PropOp35
 70
     1
102
RTVSPost2010Prop36
280
     0
102
RTVSPost2010PropOp36
 70
     1
102
RTVSPost2010Prop37
 90
       50
102
RTVSPost2010PropOp37
 70
     1
102
RTVSPost2010Prop38
140
0.0
102
RTVSPost2010PropOp38
 70
     1
102
RTVSPost2010Prop39
140
1.0
102
RTVSPost2010PropOp39
 70
     1
102
RTVSPost2010Prop40
 90
        0
102
RTVSPost2010PropOp40
 70
     1
102
RTVSPost2010Prop41ColorIndex
 90
       18
102
RTVSPost2010Prop41ColorRGB
 90
        0
102
RTVSPost2010PropOp41
 70
     1
102
RTVSPost2010Prop42
 90
       50
102
RTVSPost2010PropOp42
 70
     1
102
RTVSPost2010Prop43
 90
        3
102
RTVSPost2010PropOp43
 70
     1
102
RTVSPost2010Prop44ColorIndex
 90
        5
102
RTVSPost2010Prop44ColorRGB
 90
      255
102
RTVSPost2010PropOp44
 70
     1
102
RTVSPost2010Prop45
280
     0
102
RTVSPost2010PropOp45
 70
     1
102
RTVSPost2010Prop46
 90
       50
102
RTVSPost2010PropOp46
 70
     1
102
RTVSPost2010Prop47
 90
       50
102
RTVSPost2010PropOp47
 70
     1
102
RTVSPost2010Prop48
 90
       50
102
RTVSPost2010PropOp48
 70
     1
102
RTVSPost2010Prop49
280
     0
102
RTVSPost2010PropOp49
 70
     1
102
RTVSPost2010Prop50
 90
       50
102
RTVSPost2010PropOp50
 70
     1
102
RTVSPost2010Prop51ColorIndex
 90
      256
102
RTVSPost2010Prop51ColorRGB
 90
-16777216
102
RTVSPost2010PropOp51
 70
     0
102
RTVSPost2010Prop52
140
1.0
102
RTVSPost2010PropOp52
 70
     0
102
RTVSPost2010Prop53
 90
        2
102
RTVSPost2010PropOp53
 70
     1
102
RTVSPost2010Prop54
  1
strokes_ogs.tif
102
RTVSPost2010PropOp54
 70
     1
102
RTVSPost2010Prop55
280
     0
102
RTVSPost2010PropOp55
 70
     1
102
RTVSPost2010Prop56
140
1.0
102
RTVSPost2010PropOp56
 70
     1
102
RTVSPost2010Prop57
140
1.0
102
RTVSPost2010PropOp57
 70
     1
  0
XRECORD
  5
408
102
{ACAD_REACTORS
330
407
102
}
330
407
100
AcDbXrecord
280
     1
102
RTVSPropertyOp0
 70
     1
102
RTVSPropertyOp1
 70
     1
102
RTVSPropertyOp2
 70
     1
102
RTVSPropertyOp3
 70
     1
102
RTVSPropertyOp4
 70
     1
102
RTVSPropertyOp5
 70
     1
102
RTVSPropertyOp6
 70
     1
102
RTVSPropertyOp7
 70
     1
102
RTVSPropertyOp8
 70
     1
102
RTVSPropertyOp9
 70
     1
102
RTVSPropertyOp10
 70
     1
102
RTVSPropertyOp11
 70
     1
102
RTVSPropertyOp12
 70
     1
102
RTVSPropertyOp13
 70
     1
102
RTVSPropertyOp14
 70
     1
102
RTVSPropertyOp15
 70
     1
102
RTVSPropertyOp16
 70
     1
102
RTVSPropertyOp17
 70
     1
102
RTVSPropertyOp18
 70
     1
102
RTVSPropertyOp19
 70
     1
102
RTVSPropertyOp20
 70
     1
102
RTVSPropertyOp21
 70
     1
102
RTVSPropertyOp22
 70
     1
102
RTVSPropertyOp23
 70
     1
102
RTVSPropertyOp24
 70
     1
102
RTVSPropertyOp25
 70
     1
102
RTVSPropertyOp26
 70
     1
102
RTVSPropertyOp27
 70
     1
102
RTVSPropertyOp28
 70
     1
102
RTVSPropertyOp29
 70
     1
102
RTVSPropertyOp30
 70
     1
102
RTVSPropertyOp31
 70
     1
102
RTVSPropertyOp32
 70
     1
102
RTVSPropertyOp33
 70
     1
102
RTVSPropertyOp34
 70
     1
102
RTVSPropertyOp35
 70
     1
102
RTVSPropertyOp36
 70
     1
102
RTVSPropertyOp37
 70
     1
102
RTVSPropertyOp38
 70
     1
102
RTVSPropertyOp39
 70
     1
102
RTVSPropertyOp40
 70
     1
102
RTVSPropertyOp41
 70
     1
102
RTVSPropertyOp42
 70
     1
102
RTVSPropertyOp43
 70
     1
102
RTVSPropertyOp44
 70
     1
102
RTVSPropertyOp45
 70
     1
102
RTVSPropertyOp46
 70
     1
102
RTVSPropertyOp47
 70
     1
102
RTVSPropertyOp48
 70
     1
102
RTVSPropertyOp49
 70
     1
102
RTVSPropertyOp50
 70
     1
102
RTVSPropertyOp51
 70
     0
102
RTVSPropertyOp52
 70
     0
102
RTVSPropertyOp53
 70
     1
102
RTVSPropertyOp54
 70
     1
102
RTVSPropertyOp55
 70
     1
102
RTVSPropertyOp56
 70
     1
102
RTVSPropertyOp57
 70
     1
102
RTVSPost2010Prop28
280
     0
102
RTVSPost2010PropOp28
 70
     1
102
RTVSPost2010Prop29
280
     1
102
RTVSPost2010PropOp29
 70
     1
102
RTVSPost2010Prop30
280
     1
102
RTVSPost2010PropOp30
 70
     1
102
RTVSPost2010Prop31
280
     0
102
RTVSPost2010PropOp31
 70
     1
102
RTVSPost2010Prop32
280
     0
102
RTVSPost2010PropOp32
 70
     1
102
RTVSPost2010Prop33
280
     0
102
RTVSPost2010PropOp33
 70
     1
102
RTVSPost2010Prop34
280
     0
102
RTVSPost2010PropOp34
 70
     1
102
RTVSPost2010Prop35
280
     0
102
RTVSPost2010PropOp35
 70
     1
102
RTVSPost2010Prop36
280
     0
102
RTVSPost2010PropOp36
 70
     1
102
RTVSPost2010Prop37
 90
       50
102
RTVSPost2010PropOp37
 70
     1
102
RTVSPost2010Prop38
140
0.0
102
RTVSPost2010PropOp38
 70
     1
102
RTVSPost2010Prop39
140
1.0
102
RTVSPost2010PropOp39
 70
     1
102
RTVSPost2010Prop40
 90
        0
102
RTVSPost2010PropOp40
 70
     1
102
RTVSPost2010Prop41ColorIndex
 90
       18
102
RTVSPost2010Prop41ColorRGB
 90
        0
102
RTVSPost2010PropOp41
 70
     1
102
RTVSPost2010Prop42
 90
       50
102
RTVSPost2010PropOp42
 70
     1
102
RTVSPost2010Prop43
 90
        3
102
RTVSPost2010PropOp43
 70
     1
102
RTVSPost2010Prop44ColorIndex
 90
        5
102
RTVSPost2010Prop44ColorRGB
 90
      255
102
RTVSPost2010PropOp44
 70
     1
102
RTVSPost2010Prop45
280
     0
102
RTVSPost2010PropOp45
 70
     1
102
RTVSPost2010Prop46
 90
       50
102
RTVSPost2010PropOp46
 70
     1
102
RTVSPost2010Prop47
 90
       50
102
RTVSPost2010PropOp47
 70
     1
102
RTVSPost2010Prop48
 90
       50
102
RTVSPost2010PropOp48
 70
     1
102
RTVSPost2010Prop49
280
     0
102
RTVSPost2010PropOp49
 70
     1
102
RTVSPost2010Prop50
 90
       50
102
RTVSPost2010PropOp50
 70
     1
102
RTVSPost2010Prop51ColorIndex
 90
      256
102
RTVSPost2010Prop51ColorRGB
 90
-16777216
102
RTVSPost2010PropOp51
 70
     0
102
RTVSPost2010Prop52
140
1.0
102
RTVSPost2010PropOp52
 70
     0
102
RTVSPost2010Prop53
 90
        2
102
RTVSPost2010PropOp53
 70
     1
102
RTVSPost2010Prop54
  1
strokes_ogs.tif
102
RTVSPost2010PropOp54
 70
     1
102
RTVSPost2010Prop55
280
     0
102
RTVSPost2010PropOp55
 70
     1
102
RTVSPost2010Prop56
140
1.0
102
RTVSPost2010PropOp56
 70
     1
102
RTVSPost2010Prop57
140
1.0
102
RTVSPost2010PropOp57
 70
     1
  0
XRECORD
  5
410
102
{ACAD_REACTORS
330
40F
102
}
330
40F
100
AcDbXrecord
280
     1
102
RTVSPropertyOp0
 70
     1
102
RTVSPropertyOp1
 70
     1
102
RTVSPropertyOp2
 70
     1
102
RTVSPropertyOp3
 70
     1
102
RTVSPropertyOp4
 70
     1
102
RTVSPropertyOp5
 70
     1
102
RTVSPropertyOp6
 70
     1
102
RTVSPropertyOp7
 70
     1
102
RTVSPropertyOp8
 70
     1
102
RTVSPropertyOp9
 70
     1
102
RTVSPropertyOp10
 70
     1
102
RTVSPropertyOp11
 70
     1
102
RTVSPropertyOp12
 70
     1
102
RTVSPropertyOp13
 70
     1
102
RTVSPropertyOp14
 70
     1
102
RTVSPropertyOp15
 70
     1
102
RTVSPropertyOp16
 70
     1
102
RTVSPropertyOp17
 70
     1
102
RTVSPropertyOp18
 70
     1
102
RTVSPropertyOp19
 70
     1
102
RTVSPropertyOp20
 70
     1
102
RTVSPropertyOp21
 70
     1
102
RTVSPropertyOp22
 70
     1
102
RTVSPropertyOp23
 70
     1
102
RTVSPropertyOp24
 70
     1
102
RTVSPropertyOp25
 70
     1
102
RTVSPropertyOp26
 70
     1
102
RTVSPropertyOp27
 70
     1
102
RTVSPropertyOp28
 70
     1
102
RTVSPropertyOp29
 70
     1
102
RTVSPropertyOp30
 70
     1
102
RTVSPropertyOp31
 70
     1
102
RTVSPropertyOp32
 70
     1
102
RTVSPropertyOp33
 70
     1
102
RTVSPropertyOp34
 70
     1
102
RTVSPropertyOp35
 70
     1
102
RTVSPropertyOp36
 70
     1
102
RTVSPropertyOp37
 70
     1
102
RTVSPropertyOp38
 70
     1
102
RTVSPropertyOp39
 70
     1
102
RTVSPropertyOp40
 70
     1
102
RTVSPropertyOp41
 70
     1
102
RTVSPropertyOp42
 70
     1
102
RTVSPropertyOp43
 70
     1
102
RTVSPropertyOp44
 70
     1
102
RTVSPropertyOp45
 70
     1
102
RTVSPropertyOp46
 70
     1
102
RTVSPropertyOp47
 70
     1
102
RTVSPropertyOp48
 70
     1
102
RTVSPropertyOp49
 70
     1
102
RTVSPropertyOp50
 70
     1
102
RTVSPropertyOp51
 70
     0
102
RTVSPropertyOp52
 70
     0
102
RTVSPropertyOp53
 70
     1
102
RTVSPropertyOp54
 70
     1
102
RTVSPropertyOp55
 70
     1
102
RTVSPropertyOp56
 70
     1
102
RTVSPropertyOp57
 70
     1
102
RTVSPost2010Prop28
280
     0
102
RTVSPost2010PropOp28
 70
     1
102
RTVSPost2010Prop29
280
     1
102
RTVSPost2010PropOp29
 70
     1
102
RTVSPost2010Prop30
280
     1
102
RTVSPost2010PropOp30
 70
     1
102
RTVSPost2010Prop31
280
     0
102
RTVSPost2010PropOp31
 70
     1
102
RTVSPost2010Prop32
280
     0
102
RTVSPost2010PropOp32
 70
     1
102
RTVSPost2010Prop33
280
     0
102
RTVSPost2010PropOp33
 70
     1
102
RTVSPost2010Prop34
280
     0
102
RTVSPost2010PropOp34
 70
     1
102
RTVSPost2010Prop35
280
     0
102
RTVSPost2010PropOp35
 70
     1
102
RTVSPost2010Prop36
280
     0
102
RTVSPost2010PropOp36
 70
     1
102
RTVSPost2010Prop37
 90
       50
102
RTVSPost2010PropOp37
 70
     1
102
RTVSPost2010Prop38
140
0.0
102
RTVSPost2010PropOp38
 70
     1
102
RTVSPost2010Prop39
140
1.0
102
RTVSPost2010PropOp39
 70
     1
102
RTVSPost2010Prop40
 90
        0
102
RTVSPost2010PropOp40
 70
     1
102
RTVSPost2010Prop41ColorIndex
 90
       18
102
RTVSPost2010Prop41ColorRGB
 90
        0
102
RTVSPost2010PropOp41
 70
     1
102
RTVSPost2010Prop42
 90
       50
102
RTVSPost2010PropOp42
 70
     1
102
RTVSPost2010Prop43
 90
        3
102
RTVSPost2010PropOp43
 70
     1
102
RTVSPost2010Prop44ColorIndex
 90
        5
102
RTVSPost2010Prop44ColorRGB
 90
      255
102
RTVSPost2010PropOp44
 70
     1
102
RTVSPost2010Prop45
280
     0
102
RTVSPost2010PropOp45
 70
     1
102
RTVSPost2010Prop46
 90
       50
102
RTVSPost2010PropOp46
 70
     1
102
RTVSPost2010Prop47
 90
       50
102
RTVSPost2010PropOp47
 70
     1
102
RTVSPost2010Prop48
 90
       50
102
RTVSPost2010PropOp48
 70
     1
102
RTVSPost2010Prop49
280
     0
102
RTVSPost2010PropOp49
 70
     1
102
RTVSPost2010Prop50
 90
       50
102
RTVSPost2010PropOp50
 70
     1
102
RTVSPost2010Prop51ColorIndex
 90
      256
102
RTVSPost2010Prop51ColorRGB
 90
-16777216
102
RTVSPost2010PropOp51
 70
     0
102
RTVSPost2010Prop52
140
1.0
102
RTVSPost2010PropOp52
 70
     0
102
RTVSPost2010Prop53
 90
        2
102
RTVSPost2010PropOp53
 70
     1
102
RTVSPost2010Prop54
  1
strokes_ogs.tif
102
RTVSPost2010PropOp54
 70
     1
102
RTVSPost2010Prop55
280
     0
102
RTVSPost2010PropOp55
 70
     1
102
RTVSPost2010Prop56
140
1.0
102
RTVSPost2010PropOp56
 70
     1
102
RTVSPost2010Prop57
140
1.0
102
RTVSPost2010PropOp57
 70
     1
  0
XRECORD
  5
404
102
{ACAD_REACTORS
330
403
102
}
330
403
100
AcDbXrecord
280
     1
102
RTVSPropertyOp0
 70
     1
102
RTVSPropertyOp1
 70
     1
102
RTVSPropertyOp2
 70
     1
102
RTVSPropertyOp3
 70
     1
102
RTVSPropertyOp4
 70
     1
102
RTVSPropertyOp5
 70
     1
102
RTVSPropertyOp6
 70
     1
102
RTVSPropertyOp7
 70
     1
102
RTVSPropertyOp8
 70
     1
102
RTVSPropertyOp9
 70
     1
102
RTVSPropertyOp10
 70
     1
102
RTVSPropertyOp11
 70
     1
102
RTVSPropertyOp12
 70
     1
102
RTVSPropertyOp13
 70
     1
102
RTVSPropertyOp14
 70
     1
102
RTVSPropertyOp15
 70
     1
102
RTVSPropertyOp16
 70
     1
102
RTVSPropertyOp17
 70
     1
102
RTVSPropertyOp18
 70
     1
102
RTVSPropertyOp19
 70
     1
102
RTVSPropertyOp20
 70
     1
102
RTVSPropertyOp21
 70
     1
102
RTVSPropertyOp22
 70
     1
102
RTVSPropertyOp23
 70
     1
102
RTVSPropertyOp24
 70
     1
102
RTVSPropertyOp25
 70
     1
102
RTVSPropertyOp26
 70
     1
102
RTVSPropertyOp27
 70
     1
102
RTVSPropertyOp28
 70
     1
102
RTVSPropertyOp29
 70
     1
102
RTVSPropertyOp30
 70
     1
102
RTVSPropertyOp31
 70
     1
102
RTVSPropertyOp32
 70
     1
102
RTVSPropertyOp33
 70
     1
102
RTVSPropertyOp34
 70
     1
102
RTVSPropertyOp35
 70
     1
102
RTVSPropertyOp36
 70
     1
102
RTVSPropertyOp37
 70
     1
102
RTVSPropertyOp38
 70
     1
102
RTVSPropertyOp39
 70
     1
102
RTVSPropertyOp40
 70
     1
102
RTVSPropertyOp41
 70
     1
102
RTVSPropertyOp42
 70
     1
102
RTVSPropertyOp43
 70
     1
102
RTVSPropertyOp44
 70
     1
102
RTVSPropertyOp45
 70
     1
102
RTVSPropertyOp46
 70
     1
102
RTVSPropertyOp47
 70
     1
102
RTVSPropertyOp48
 70
     1
102
RTVSPropertyOp49
 70
     1
102
RTVSPropertyOp50
 70
     1
102
RTVSPropertyOp51
 70
     0
102
RTVSPropertyOp52
 70
     0
102
RTVSPropertyOp53
 70
     1
102
RTVSPropertyOp54
 70
     1
102
RTVSPropertyOp55
 70
     1
102
RTVSPropertyOp56
 70
     1
102
RTVSPropertyOp57
 70
     1
102
RTVSPost2010Prop28
280
     0
102
RTVSPost2010PropOp28
 70
     1
102
RTVSPost2010Prop29
280
     1
102
RTVSPost2010PropOp29
 70
     1
102
RTVSPost2010Prop30
280
     1
102
RTVSPost2010PropOp30
 70
     1
102
RTVSPost2010Prop31
280
     0
102
RTVSPost2010PropOp31
 70
     1
102
RTVSPost2010Prop32
280
     0
102
RTVSPost2010PropOp32
 70
     1
102
RTVSPost2010Prop33
280
     0
102
RTVSPost2010PropOp33
 70
     1
102
RTVSPost2010Prop34
280
     0
102
RTVSPost2010PropOp34
 70
     1
102
RTVSPost2010Prop35
280
     0
102
RTVSPost2010PropOp35
 70
     1
102
RTVSPost2010Prop36
280
     0
102
RTVSPost2010PropOp36
 70
     1
102
RTVSPost2010Prop37
 90
       50
102
RTVSPost2010PropOp37
 70
     1
102
RTVSPost2010Prop38
140
0.0
102
RTVSPost2010PropOp38
 70
     1
102
RTVSPost2010Prop39
140
1.0
102
RTVSPost2010PropOp39
 70
     1
102
RTVSPost2010Prop40
 90
        0
102
RTVSPost2010PropOp40
 70
     1
102
RTVSPost2010Prop41ColorIndex
 90
       18
102
RTVSPost2010Prop41ColorRGB
 90
        0
102
RTVSPost2010PropOp41
 70
     1
102
RTVSPost2010Prop42
 90
       50
102
RTVSPost2010PropOp42
 70
     1
102
RTVSPost2010Prop43
 90
        3
102
RTVSPost2010PropOp43
 70
     1
102
RTVSPost2010Prop44ColorIndex
 90
        5
102
RTVSPost2010Prop44ColorRGB
 90
      255
102
RTVSPost2010PropOp44
 70
     1
102
RTVSPost2010Prop45
280
     0
102
RTVSPost2010PropOp45
 70
     1
102
RTVSPost2010Prop46
 90
       50
102
RTVSPost2010PropOp46
 70
     1
102
RTVSPost2010Prop47
 90
       50
102
RTVSPost2010PropOp47
 70
     1
102
RTVSPost2010Prop48
 90
       50
102
RTVSPost2010PropOp48
 70
     1
102
RTVSPost2010Prop49
280
     0
102
RTVSPost2010PropOp49
 70
     1
102
RTVSPost2010Prop50
 90
       50
102
RTVSPost2010PropOp50
 70
     1
102
RTVSPost2010Prop51ColorIndex
 90
      256
102
RTVSPost2010Prop51ColorRGB
 90
-16777216
102
RTVSPost2010PropOp51
 70
     0
102
RTVSPost2010Prop52
140
1.0
102
RTVSPost2010PropOp52
 70
     0
102
RTVSPost2010Prop53
 90
        2
102
RTVSPost2010PropOp53
 70
     1
102
RTVSPost2010Prop54
  1
strokes_ogs.tif
102
RTVSPost2010PropOp54
 70
     1
102
RTVSPost2010Prop55
280
     0
102
RTVSPost2010PropOp55
 70
     1
102
RTVSPost2010Prop56
140
1.0
102
RTVSPost2010PropOp56
 70
     1
102
RTVSPost2010Prop57
140
1.0
102
RTVSPost2010PropOp57
 70
     1
  0
XRECORD
  5
406
102
{ACAD_REACTORS
330
405
102
}
330
405
100
AcDbXrecord
280
     1
102
RTVSPropertyOp0
 70
     1
102
RTVSPropertyOp1
 70
     1
102
RTVSPropertyOp2
 70
     1
102
RTVSPropertyOp3
 70
     1
102
RTVSPropertyOp4
 70
     1
102
RTVSPropertyOp5
 70
     1
102
RTVSPropertyOp6
 70
     1
102
RTVSPropertyOp7
 70
     1
102
RTVSPropertyOp8
 70
     1
102
RTVSPropertyOp9
 70
     1
102
RTVSPropertyOp10
 70
     1
102
RTVSPropertyOp11
 70
     1
102
RTVSPropertyOp12
 70
     1
102
RTVSPropertyOp13
 70
     1
102
RTVSPropertyOp14
 70
     1
102
RTVSPropertyOp15
 70
     1
102
RTVSPropertyOp16
 70
     1
102
RTVSPropertyOp17
 70
     1
102
RTVSPropertyOp18
 70
     1
102
RTVSPropertyOp19
 70
     1
102
RTVSPropertyOp20
 70
     1
102
RTVSPropertyOp21
 70
     1
102
RTVSPropertyOp22
 70
     1
102
RTVSPropertyOp23
 70
     1
102
RTVSPropertyOp24
 70
     1
102
RTVSPropertyOp25
 70
     1
102
RTVSPropertyOp26
 70
     1
102
RTVSPropertyOp27
 70
     1
102
RTVSPropertyOp28
 70
     1
102
RTVSPropertyOp29
 70
     1
102
RTVSPropertyOp30
 70
     1
102
RTVSPropertyOp31
 70
     1
102
RTVSPropertyOp32
 70
     1
102
RTVSPropertyOp33
 70
     1
102
RTVSPropertyOp34
 70
     1
102
RTVSPropertyOp35
 70
     1
102
RTVSPropertyOp36
 70
     1
102
RTVSPropertyOp37
 70
     1
102
RTVSPropertyOp38
 70
     1
102
RTVSPropertyOp39
 70
     1
102
RTVSPropertyOp40
 70
     1
102
RTVSPropertyOp41
 70
     1
102
RTVSPropertyOp42
 70
     1
102
RTVSPropertyOp43
 70
     1
102
RTVSPropertyOp44
 70
     1
102
RTVSPropertyOp45
 70
     1
102
RTVSPropertyOp46
 70
     1
102
RTVSPropertyOp47
 70
     1
102
RTVSPropertyOp48
 70
     1
102
RTVSPropertyOp49
 70
     1
102
RTVSPropertyOp50
 70
     1
102
RTVSPropertyOp51
 70
     0
102
RTVSPropertyOp52
 70
     0
102
RTVSPropertyOp53
 70
     1
102
RTVSPropertyOp54
 70
     1
102
RTVSPropertyOp55
 70
     1
102
RTVSPropertyOp56
 70
     1
102
RTVSPropertyOp57
 70
     1
102
RTVSPost2010Prop28
280
     0
102
RTVSPost2010PropOp28
 70
     1
102
RTVSPost2010Prop29
280
     1
102
RTVSPost2010PropOp29
 70
     1
102
RTVSPost2010Prop30
280
     1
102
RTVSPost2010PropOp30
 70
     1
102
RTVSPost2010Prop31
280
     0
102
RTVSPost2010PropOp31
 70
     1
102
RTVSPost2010Prop32
280
     0
102
RTVSPost2010PropOp32
 70
     1
102
RTVSPost2010Prop33
280
     0
102
RTVSPost2010PropOp33
 70
     1
102
RTVSPost2010Prop34
280
     0
102
RTVSPost2010PropOp34
 70
     1
102
RTVSPost2010Prop35
280
     0
102
RTVSPost2010PropOp35
 70
     1
102
RTVSPost2010Prop36
280
     0
102
RTVSPost2010PropOp36
 70
     1
102
RTVSPost2010Prop37
 90
       50
102
RTVSPost2010PropOp37
 70
     1
102
RTVSPost2010Prop38
140
0.0
102
RTVSPost2010PropOp38
 70
     1
102
RTVSPost2010Prop39
140
1.0
102
RTVSPost2010PropOp39
 70
     1
102
RTVSPost2010Prop40
 90
        0
102
RTVSPost2010PropOp40
 70
     1
102
RTVSPost2010Prop41ColorIndex
 90
       18
102
RTVSPost2010Prop41ColorRGB
 90
        0
102
RTVSPost2010PropOp41
 70
     1
102
RTVSPost2010Prop42
 90
       50
102
RTVSPost2010PropOp42
 70
     1
102
RTVSPost2010Prop43
 90
        3
102
RTVSPost2010PropOp43
 70
     1
102
RTVSPost2010Prop44ColorIndex
 90
        5
102
RTVSPost2010Prop44ColorRGB
 90
      255
102
RTVSPost2010PropOp44
 70
     1
102
RTVSPost2010Prop45
280
     0
102
RTVSPost2010PropOp45
 70
     1
102
RTVSPost2010Prop46
 90
       50
102
RTVSPost2010PropOp46
 70
     1
102
RTVSPost2010Prop47
 90
       50
102
RTVSPost2010PropOp47
 70
     1
102
RTVSPost2010Prop48
 90
       50
102
RTVSPost2010PropOp48
 70
     1
102
RTVSPost2010Prop49
280
     0
102
RTVSPost2010PropOp49
 70
     1
102
RTVSPost2010Prop50
 90
       50
102
RTVSPost2010PropOp50
 70
     1
102
RTVSPost2010Prop51ColorIndex
 90
      256
102
RTVSPost2010Prop51ColorRGB
 90
-16777216
102
RTVSPost2010PropOp51
 70
     0
102
RTVSPost2010Prop52
140
1.0
102
RTVSPost2010PropOp52
 70
     0
102
RTVSPost2010Prop53
 90
        2
102
RTVSPost2010PropOp53
 70
     1
102
RTVSPost2010Prop54
  1
strokes_ogs.tif
102
RTVSPost2010PropOp54
 70
     1
102
RTVSPost2010Prop55
280
     0
102
RTVSPost2010PropOp55
 70
     1
102
RTVSPost2010Prop56
140
1.0
102
RTVSPost2010PropOp56
 70
     1
102
RTVSPost2010Prop57
140
1.0
102
RTVSPost2010PropOp57
 70
     1
  0
XRECORD
  5
416
102
{ACAD_REACTORS
330
415
102
}
330
415
100
AcDbXrecord
280
     1
102
RTVSPropertyOp0
 70
     0
102
RTVSPropertyOp1
 70
     0
102
RTVSPropertyOp2
 70
     0
102
RTVSPropertyOp3
 70
     0
102
RTVSPropertyOp4
 70
     0
102
RTVSPropertyOp5
 70
     0
102
RTVSPropertyOp6
 70
     0
102
RTVSPropertyOp7
 70
     0
102
RTVSPropertyOp8
 70
     0
102
RTVSPropertyOp9
 70
     0
102
RTVSPropertyOp10
 70
     0
102
RTVSPropertyOp11
 70
     0
102
RTVSPropertyOp12
 70
     0
102
RTVSPropertyOp13
 70
     0
102
RTVSPropertyOp14
 70
     2
102
RTVSPropertyOp15
 70
     0
102
RTVSPropertyOp16
 70
     0
102
RTVSPropertyOp17
 70
     0
102
RTVSPropertyOp18
 70
     0
102
RTVSPropertyOp19
 70
     0
102
RTVSPropertyOp20
 70
     0
102
RTVSPropertyOp21
 70
     0
102
RTVSPropertyOp22
 70
     0
102
RTVSPropertyOp23
 70
     0
102
RTVSPropertyOp24
 70
     0
102
RTVSPropertyOp25
 70
     0
102
RTVSPropertyOp26
 70
     0
102
RTVSPropertyOp27
 70
     0
102
RTVSPropertyOp28
 70
     0
102
RTVSPropertyOp29
 70
     0
102
RTVSPropertyOp30
 70
     0
102
RTVSPropertyOp31
 70
     0
102
RTVSPropertyOp32
 70
     0
102
RTVSPropertyOp33
 70
     0
102
RTVSPropertyOp34
 70
     0
102
RTVSPropertyOp35
 70
     0
102
RTVSPropertyOp36
 70
     0
102
RTVSPropertyOp37
 70
     0
102
RTVSPropertyOp38
 70
     0
102
RTVSPropertyOp39
 70
     0
102
RTVSPropertyOp40
 70
     0
102
RTVSPropertyOp41
 70
     0
102
RTVSPropertyOp42
 70
     0
102
RTVSPropertyOp43
 70
     0
102
RTVSPropertyOp44
 70
     0
102
RTVSPropertyOp45
 70
     0
102
RTVSPropertyOp46
 70
     0
102
RTVSPropertyOp47
 70
     0
102
RTVSPropertyOp48
 70
     0
102
RTVSPropertyOp49
 70
     0
102
RTVSPropertyOp50
 70
     0
102
RTVSPropertyOp51
 70
     0
102
RTVSPropertyOp52
 70
     0
102
RTVSPropertyOp53
 70
     0
102
RTVSPropertyOp54
 70
     0
102
RTVSPropertyOp55
 70
     0
102
RTVSPropertyOp56
 70
     0
102
RTVSPropertyOp57
 70
     0
102
RTVSPost2010Prop28
280
     0
102
RTVSPost2010PropOp28
 70
     0
102
RTVSPost2010Prop29
280
     1
102
RTVSPost2010PropOp29
 70
     0
102
RTVSPost2010Prop30
280
     1
102
RTVSPost2010PropOp30
 70
     0
102
RTVSPost2010Prop31
280
     0
102
RTVSPost2010PropOp31
 70
     0
102
RTVSPost2010Prop32
280
     0
102
RTVSPost2010PropOp32
 70
     0
102
RTVSPost2010Prop33
280
     0
102
RTVSPost2010PropOp33
 70
     0
102
RTVSPost2010Prop34
280
     0
102
RTVSPost2010PropOp34
 70
     0
102
RTVSPost2010Prop35
280
     0
102
RTVSPost2010PropOp35
 70
     0
102
RTVSPost2010Prop36
280
     0
102
RTVSPost2010PropOp36
 70
     0
102
RTVSPost2010Prop37
 90
       50
102
RTVSPost2010PropOp37
 70
     0
102
RTVSPost2010Prop38
140
0.0
102
RTVSPost2010PropOp38
 70
     0
102
RTVSPost2010Prop39
140
1.0
102
RTVSPost2010PropOp39
 70
     0
102
RTVSPost2010Prop40
 90
        0
102
RTVSPost2010PropOp40
 70
     0
102
RTVSPost2010Prop41ColorIndex
 90
       18
102
RTVSPost2010Prop41ColorRGB
 90
        0
102
RTVSPost2010PropOp41
 70
     0
102
RTVSPost2010Prop42
 90
       50
102
RTVSPost2010PropOp42
 70
     0
102
RTVSPost2010Prop43
 90
        3
102
RTVSPost2010PropOp43
 70
     0
102
RTVSPost2010Prop44ColorIndex
 90
        5
102
RTVSPost2010Prop44ColorRGB
 90
      255
102
RTVSPost2010PropOp44
 70
     0
102
RTVSPost2010Prop45
280
     0
102
RTVSPost2010PropOp45
 70
     0
102
RTVSPost2010Prop46
 90
       50
102
RTVSPost2010PropOp46
 70
     0
102
RTVSPost2010Prop47
 90
       50
102
RTVSPost2010PropOp47
 70
     0
102
RTVSPost2010Prop48
 90
       50
102
RTVSPost2010PropOp48
 70
     0
102
RTVSPost2010Prop49
280
     0
102
RTVSPost2010PropOp49
 70
     0
102
RTVSPost2010Prop50
 90
       50
102
RTVSPost2010PropOp50
 70
     0
102
RTVSPost2010Prop51ColorIndex
 90
      256
102
RTVSPost2010Prop51ColorRGB
 90
-16777216
102
RTVSPost2010PropOp51
 70
     0
102
RTVSPost2010Prop52
140
1.0
102
RTVSPost2010PropOp52
 70
     0
102
RTVSPost2010Prop53
 90
        2
102
RTVSPost2010PropOp53
 70
     0
102
RTVSPost2010Prop54
  1
strokes_ogs.tif
102
RTVSPost2010PropOp54
 70
     0
102
RTVSPost2010Prop55
280
     0
102
RTVSPost2010PropOp55
 70
     0
102
RTVSPost2010Prop56
140
1.0
102
RTVSPost2010PropOp56
 70
     0
102
RTVSPost2010Prop57
140
1.0
102
RTVSPost2010PropOp57
 70
     0
  0
XRECORD
  5
40E
102
{ACAD_REACTORS
330
40D
102
}
330
40D
100
AcDbXrecord
280
     1
102
RTVSPropertyOp0
 70
     1
102
RTVSPropertyOp1
 70
     1
102
RTVSPropertyOp2
 70
     1
102
RTVSPropertyOp3
 70
     1
102
RTVSPropertyOp4
 70
     1
102
RTVSPropertyOp5
 70
     1
102
RTVSPropertyOp6
 70
     1
102
RTVSPropertyOp7
 70
     1
102
RTVSPropertyOp8
 70
     1
102
RTVSPropertyOp9
 70
     1
102
RTVSPropertyOp10
 70
     1
102
RTVSPropertyOp11
 70
     1
102
RTVSPropertyOp12
 70
     1
102
RTVSPropertyOp13
 70
     1
102
RTVSPropertyOp14
 70
     1
102
RTVSPropertyOp15
 70
     1
102
RTVSPropertyOp16
 70
     1
102
RTVSPropertyOp17
 70
     1
102
RTVSPropertyOp18
 70
     1
102
RTVSPropertyOp19
 70
     1
102
RTVSPropertyOp20
 70
     1
102
RTVSPropertyOp21
 70
     1
102
RTVSPropertyOp22
 70
     1
102
RTVSPropertyOp23
 70
     1
102
RTVSPropertyOp24
 70
     1
102
RTVSPropertyOp25
 70
     1
102
RTVSPropertyOp26
 70
     1
102
RTVSPropertyOp27
 70
     1
102
RTVSPropertyOp28
 70
     1
102
RTVSPropertyOp29
 70
     1
102
RTVSPropertyOp30
 70
     1
102
RTVSPropertyOp31
 70
     1
102
RTVSPropertyOp32
 70
     1
102
RTVSPropertyOp33
 70
     1
102
RTVSPropertyOp34
 70
     1
102
RTVSPropertyOp35
 70
     1
102
RTVSPropertyOp36
 70
     1
102
RTVSPropertyOp37
 70
     1
102
RTVSPropertyOp38
 70
     1
102
RTVSPropertyOp39
 70
     1
102
RTVSPropertyOp40
 70
     1
102
RTVSPropertyOp41
 70
     1
102
RTVSPropertyOp42
 70
     1
102
RTVSPropertyOp43
 70
     1
102
RTVSPropertyOp44
 70
     1
102
RTVSPropertyOp45
 70
     1
102
RTVSPropertyOp46
 70
     1
102
RTVSPropertyOp47
 70
     1
102
RTVSPropertyOp48
 70
     1
102
RTVSPropertyOp49
 70
     1
102
RTVSPropertyOp50
 70
     1
102
RTVSPropertyOp51
 70
     0
102
RTVSPropertyOp52
 70
     0
102
RTVSPropertyOp53
 70
     1
102
RTVSPropertyOp54
 70
     1
102
RTVSPropertyOp55
 70
     1
102
RTVSPropertyOp56
 70
     1
102
RTVSPropertyOp57
 70
     1
102
RTVSPost2010Prop28
280
     0
102
RTVSPost2010PropOp28
 70
     1
102
RTVSPost2010Prop29
280
     1
102
RTVSPost2010PropOp29
 70
     1
102
RTVSPost2010Prop30
280
     1
102
RTVSPost2010PropOp30
 70
     1
102
RTVSPost2010Prop31
280
     0
102
RTVSPost2010PropOp31
 70
     1
102
RTVSPost2010Prop32
280
     0
102
RTVSPost2010PropOp32
 70
     1
102
RTVSPost2010Prop33
280
     0
102
RTVSPost2010PropOp33
 70
     1
102
RTVSPost2010Prop34
280
     0
102
RTVSPost2010PropOp34
 70
     1
102
RTVSPost2010Prop35
280
     0
102
RTVSPost2010PropOp35
 70
     1
102
RTVSPost2010Prop36
280
     0
102
RTVSPost2010PropOp36
 70
     1
102
RTVSPost2010Prop37
 90
       50
102
RTVSPost2010PropOp37
 70
     1
102
RTVSPost2010Prop38
140
0.0
102
RTVSPost2010PropOp38
 70
     1
102
RTVSPost2010Prop39
140
1.0
102
RTVSPost2010PropOp39
 70
     1
102
RTVSPost2010Prop40
 90
        0
102
RTVSPost2010PropOp40
 70
     1
102
RTVSPost2010Prop41ColorIndex
 90
       18
102
RTVSPost2010Prop41ColorRGB
 90
        0
102
RTVSPost2010PropOp41
 70
     1
102
RTVSPost2010Prop42
 90
       50
102
RTVSPost2010PropOp42
 70
     1
102
RTVSPost2010Prop43
 90
        3
102
RTVSPost2010PropOp43
 70
     1
102
RTVSPost2010Prop44ColorIndex
 90
        5
102
RTVSPost2010Prop44ColorRGB
 90
      255
102
RTVSPost2010PropOp44
 70
     1
102
RTVSPost2010Prop45
280
     0
102
RTVSPost2010PropOp45
 70
     1
102
RTVSPost2010Prop46
 90
       50
102
RTVSPost2010PropOp46
 70
     1
102
RTVSPost2010Prop47
 90
       50
102
RTVSPost2010PropOp47
 70
     1
102
RTVSPost2010Prop48
 90
       50
102
RTVSPost2010PropOp48
 70
     1
102
RTVSPost2010Prop49
280
     0
102
RTVSPost2010PropOp49
 70
     1
102
RTVSPost2010Prop50
 90
       50
102
RTVSPost2010PropOp50
 70
     1
102
RTVSPost2010Prop51ColorIndex
 90
      256
102
RTVSPost2010Prop51ColorRGB
 90
-16777216
102
RTVSPost2010PropOp51
 70
     0
102
RTVSPost2010Prop52
140
1.0
102
RTVSPost2010PropOp52
 70
     0
102
RTVSPost2010Prop53
 90
        2
102
RTVSPost2010PropOp53
 70
     1
102
RTVSPost2010Prop54
  1
strokes_ogs.tif
102
RTVSPost2010PropOp54
 70
     1
102
RTVSPost2010Prop55
280
     0
102
RTVSPost2010PropOp55
 70
     1
102
RTVSPost2010Prop56
140
1.0
102
RTVSPost2010PropOp56
 70
     1
102
RTVSPost2010Prop57
140
1.0
102
RTVSPost2010PropOp57
 70
     1
  0
XRECORD
  5
3F2
102
{ACAD_REACTORS
330
3F1
102
}
330
3F1
100
AcDbXrecord
280
     1
102
RTVSPropertyOp0
 70
     1
102
RTVSPropertyOp1
 70
     1
102
RTVSPropertyOp2
 70
     1
102
RTVSPropertyOp3
 70
     1
102
RTVSPropertyOp4
 70
     1
102
RTVSPropertyOp5
 70
     1
102
RTVSPropertyOp6
 70
     1
102
RTVSPropertyOp7
 70
     1
102
RTVSPropertyOp8
 70
     1
102
RTVSPropertyOp9
 70
     1
102
RTVSPropertyOp10
 70
     1
102
RTVSPropertyOp11
 70
     1
102
RTVSPropertyOp12
 70
     1
102
RTVSPropertyOp13
 70
     1
102
RTVSPropertyOp14
 70
     1
102
RTVSPropertyOp15
 70
     1
102
RTVSPropertyOp16
 70
     1
102
RTVSPropertyOp17
 70
     1
102
RTVSPropertyOp18
 70
     1
102
RTVSPropertyOp19
 70
     1
102
RTVSPropertyOp20
 70
     1
102
RTVSPropertyOp21
 70
     1
102
RTVSPropertyOp22
 70
     1
102
RTVSPropertyOp23
 70
     1
102
RTVSPropertyOp24
 70
     1
102
RTVSPropertyOp25
 70
     1
102
RTVSPropertyOp26
 70
     1
102
RTVSPropertyOp27
 70
     1
102
RTVSPropertyOp28
 70
     1
102
RTVSPropertyOp29
 70
     1
102
RTVSPropertyOp30
 70
     1
102
RTVSPropertyOp31
 70
     1
102
RTVSPropertyOp32
 70
     1
102
RTVSPropertyOp33
 70
     1
102
RTVSPropertyOp34
 70
     1
102
RTVSPropertyOp35
 70
     1
102
RTVSPropertyOp36
 70
     1
102
RTVSPropertyOp37
 70
     1
102
RTVSPropertyOp38
 70
     1
102
RTVSPropertyOp39
 70
     1
102
RTVSPropertyOp40
 70
     1
102
RTVSPropertyOp41
 70
     1
102
RTVSPropertyOp42
 70
     1
102
RTVSPropertyOp43
 70
     1
102
RTVSPropertyOp44
 70
     1
102
RTVSPropertyOp45
 70
     1
102
RTVSPropertyOp46
 70
     1
102
RTVSPropertyOp47
 70
     1
102
RTVSPropertyOp48
 70
     1
102
RTVSPropertyOp49
 70
     1
102
RTVSPropertyOp50
 70
     1
102
RTVSPropertyOp51
 70
     0
102
RTVSPropertyOp52
 70
     0
102
RTVSPropertyOp53
 70
     1
102
RTVSPropertyOp54
 70
     1
102
RTVSPropertyOp55
 70
     1
102
RTVSPropertyOp56
 70
     1
102
RTVSPropertyOp57
 70
     1
102
RTVSPost2010Prop28
280
     0
102
RTVSPost2010PropOp28
 70
     1
102
RTVSPost2010Prop29
280
     1
102
RTVSPost2010PropOp29
 70
     1
102
RTVSPost2010Prop30
280
     1
102
RTVSPost2010PropOp30
 70
     1
102
RTVSPost2010Prop31
280
     0
102
RTVSPost2010PropOp31
 70
     1
102
RTVSPost2010Prop32
280
     0
102
RTVSPost2010PropOp32
 70
     1
102
RTVSPost2010Prop33
280
     0
102
RTVSPost2010PropOp33
 70
     1
102
RTVSPost2010Prop34
280
     0
102
RTVSPost2010PropOp34
 70
     1
102
RTVSPost2010Prop35
280
     0
102
RTVSPost2010PropOp35
 70
     1
102
RTVSPost2010Prop36
280
     0
102
RTVSPost2010PropOp36
 70
     1
102
RTVSPost2010Prop37
 90
       50
102
RTVSPost2010PropOp37
 70
     1
102
RTVSPost2010Prop38
140
0.0
102
RTVSPost2010PropOp38
 70
     1
102
RTVSPost2010Prop39
140
1.0
102
RTVSPost2010PropOp39
 70
     1
102
RTVSPost2010Prop40
 90
        0
102
RTVSPost2010PropOp40
 70
     1
102
RTVSPost2010Prop41ColorIndex
 90
       18
102
RTVSPost2010Prop41ColorRGB
 90
        0
102
RTVSPost2010PropOp41
 70
     1
102
RTVSPost2010Prop42
 90
       50
102
RTVSPost2010PropOp42
 70
     1
102
RTVSPost2010Prop43
 90
        3
102
RTVSPost2010PropOp43
 70
     1
102
RTVSPost2010Prop44ColorIndex
 90
        5
102
RTVSPost2010Prop44ColorRGB
 90
      255
102
RTVSPost2010PropOp44
 70
     1
102
RTVSPost2010Prop45
280
     0
102
RTVSPost2010PropOp45
 70
     1
102
RTVSPost2010Prop46
 90
       50
102
RTVSPost2010PropOp46
 70
     1
102
RTVSPost2010Prop47
 90
       50
102
RTVSPost2010PropOp47
 70
     1
102
RTVSPost2010Prop48
 90
       50
102
RTVSPost2010PropOp48
 70
     1
102
RTVSPost2010Prop49
280
     0
102
RTVSPost2010PropOp49
 70
     1
102
RTVSPost2010Prop50
 90
       50
102
RTVSPost2010PropOp50
 70
     1
102
RTVSPost2010Prop51ColorIndex
 90
      256
102
RTVSPost2010Prop51ColorRGB
 90
-16777216
102
RTVSPost2010PropOp51
 70
     0
102
RTVSPost2010Prop52
140
1.0
102
RTVSPost2010PropOp52
 70
     0
102
RTVSPost2010Prop53
 90
        2
102
RTVSPost2010PropOp53
 70
     1
102
RTVSPost2010Prop54
  1
strokes_ogs.tif
102
RTVSPost2010PropOp54
 70
     1
102
RTVSPost2010Prop55
280
     0
102
RTVSPost2010PropOp55
 70
     1
102
RTVSPost2010Prop56
140
1.0
102
RTVSPost2010PropOp56
 70
     1
102
RTVSPost2010Prop57
140
1.0
102
RTVSPost2010PropOp57
 70
     1
  0
XRECORD
  5
3F4
102
{ACAD_REACTORS
330
3F3
102
}
330
3F3
100
AcDbXrecord
280
     1
102
RTVSPropertyOp0
 70
     1
102
RTVSPropertyOp1
 70
     1
102
RTVSPropertyOp2
 70
     1
102
RTVSPropertyOp3
 70
     1
102
RTVSPropertyOp4
 70
     1
102
RTVSPropertyOp5
 70
     1
102
RTVSPropertyOp6
 70
     1
102
RTVSPropertyOp7
 70
     1
102
RTVSPropertyOp8
 70
     1
102
RTVSPropertyOp9
 70
     1
102
RTVSPropertyOp10
 70
     1
102
RTVSPropertyOp11
 70
     1
102
RTVSPropertyOp12
 70
     1
102
RTVSPropertyOp13
 70
     1
102
RTVSPropertyOp14
 70
     1
102
RTVSPropertyOp15
 70
     1
102
RTVSPropertyOp16
 70
     1
102
RTVSPropertyOp17
 70
     1
102
RTVSPropertyOp18
 70
     1
102
RTVSPropertyOp19
 70
     1
102
RTVSPropertyOp20
 70
     1
102
RTVSPropertyOp21
 70
     1
102
RTVSPropertyOp22
 70
     1
102
RTVSPropertyOp23
 70
     1
102
RTVSPropertyOp24
 70
     1
102
RTVSPropertyOp25
 70
     1
102
RTVSPropertyOp26
 70
     1
102
RTVSPropertyOp27
 70
     1
102
RTVSPropertyOp28
 70
     1
102
RTVSPropertyOp29
 70
     1
102
RTVSPropertyOp30
 70
     1
102
RTVSPropertyOp31
 70
     1
102
RTVSPropertyOp32
 70
     1
102
RTVSPropertyOp33
 70
     1
102
RTVSPropertyOp34
 70
     1
102
RTVSPropertyOp35
 70
     1
102
RTVSPropertyOp36
 70
     1
102
RTVSPropertyOp37
 70
     1
102
RTVSPropertyOp38
 70
     1
102
RTVSPropertyOp39
 70
     1
102
RTVSPropertyOp40
 70
     1
102
RTVSPropertyOp41
 70
     1
102
RTVSPropertyOp42
 70
     1
102
RTVSPropertyOp43
 70
     1
102
RTVSPropertyOp44
 70
     1
102
RTVSPropertyOp45
 70
     1
102
RTVSPropertyOp46
 70
     1
102
RTVSPropertyOp47
 70
     1
102
RTVSPropertyOp48
 70
     1
102
RTVSPropertyOp49
 70
     1
102
RTVSPropertyOp50
 70
     1
102
RTVSPropertyOp51
 70
     0
102
RTVSPropertyOp52
 70
     0
102
RTVSPropertyOp53
 70
     1
102
RTVSPropertyOp54
 70
     1
102
RTVSPropertyOp55
 70
     1
102
RTVSPropertyOp56
 70
     1
102
RTVSPropertyOp57
 70
     1
102
RTVSPost2010Prop28
280
     0
102
RTVSPost2010PropOp28
 70
     1
102
RTVSPost2010Prop29
280
     1
102
RTVSPost2010PropOp29
 70
     1
102
RTVSPost2010Prop30
280
     1
102
RTVSPost2010PropOp30
 70
     1
102
RTVSPost2010Prop31
280
     0
102
RTVSPost2010PropOp31
 70
     1
102
RTVSPost2010Prop32
280
     0
102
RTVSPost2010PropOp32
 70
     1
102
RTVSPost2010Prop33
280
     0
102
RTVSPost2010PropOp33
 70
     1
102
RTVSPost2010Prop34
280
     0
102
RTVSPost2010PropOp34
 70
     1
102
RTVSPost2010Prop35
280
     0
102
RTVSPost2010PropOp35
 70
     1
102
RTVSPost2010Prop36
280
     0
102
RTVSPost2010PropOp36
 70
     1
102
RTVSPost2010Prop37
 90
       50
102
RTVSPost2010PropOp37
 70
     1
102
RTVSPost2010Prop38
140
0.0
102
RTVSPost2010PropOp38
 70
     1
102
RTVSPost2010Prop39
140
1.0
102
RTVSPost2010PropOp39
 70
     1
102
RTVSPost2010Prop40
 90
        0
102
RTVSPost2010PropOp40
 70
     1
102
RTVSPost2010Prop41ColorIndex
 90
       18
102
RTVSPost2010Prop41ColorRGB
 90
        0
102
RTVSPost2010PropOp41
 70
     1
102
RTVSPost2010Prop42
 90
       50
102
RTVSPost2010PropOp42
 70
     1
102
RTVSPost2010Prop43
 90
        3
102
RTVSPost2010PropOp43
 70
     1
102
RTVSPost2010Prop44ColorIndex
 90
        5
102
RTVSPost2010Prop44ColorRGB
 90
      255
102
RTVSPost2010PropOp44
 70
     1
102
RTVSPost2010Prop45
280
     0
102
RTVSPost2010PropOp45
 70
     1
102
RTVSPost2010Prop46
 90
       50
102
RTVSPost2010PropOp46
 70
     1
102
RTVSPost2010Prop47
 90
       50
102
RTVSPost2010PropOp47
 70
     1
102
RTVSPost2010Prop48
 90
       50
102
RTVSPost2010PropOp48
 70
     1
102
RTVSPost2010Prop49
280
     0
102
RTVSPost2010PropOp49
 70
     1
102
RTVSPost2010Prop50
 90
       50
102
RTVSPost2010PropOp50
 70
     1
102
RTVSPost2010Prop51ColorIndex
 90
      256
102
RTVSPost2010Prop51ColorRGB
 90
-16777216
102
RTVSPost2010PropOp51
 70
     0
102
RTVSPost2010Prop52
140
1.0
102
RTVSPost2010PropOp52
 70
     0
102
RTVSPost2010Prop53
 90
        2
102
RTVSPost2010PropOp53
 70
     1
102
RTVSPost2010Prop54
  1
strokes_ogs.tif
102
RTVSPost2010PropOp54
 70
     1
102
RTVSPost2010Prop55
280
     0
102
RTVSPost2010PropOp55
 70
     1
102
RTVSPost2010Prop56
140
1.0
102
RTVSPost2010PropOp56
 70
     1
102
RTVSPost2010Prop57
140
1.0
102
RTVSPost2010PropOp57
 70
     1
  0
XRECORD
  5
3F6
102
{ACAD_REACTORS
330
3F5
102
}
330
3F5
100
AcDbXrecord
280
     1
102
RTVSPropertyOp0
 70
     1
102
RTVSPropertyOp1
 70
     1
102
RTVSPropertyOp2
 70
     1
102
RTVSPropertyOp3
 70
     1
102
RTVSPropertyOp4
 70
     1
102
RTVSPropertyOp5
 70
     1
102
RTVSPropertyOp6
 70
     1
102
RTVSPropertyOp7
 70
     1
102
RTVSPropertyOp8
 70
     1
102
RTVSPropertyOp9
 70
     1
102
RTVSPropertyOp10
 70
     1
102
RTVSPropertyOp11
 70
     1
102
RTVSPropertyOp12
 70
     1
102
RTVSPropertyOp13
 70
     1
102
RTVSPropertyOp14
 70
     1
102
RTVSPropertyOp15
 70
     1
102
RTVSPropertyOp16
 70
     1
102
RTVSPropertyOp17
 70
     1
102
RTVSPropertyOp18
 70
     1
102
RTVSPropertyOp19
 70
     1
102
RTVSPropertyOp20
 70
     1
102
RTVSPropertyOp21
 70
     1
102
RTVSPropertyOp22
 70
     1
102
RTVSPropertyOp23
 70
     1
102
RTVSPropertyOp24
 70
     1
102
RTVSPropertyOp25
 70
     1
102
RTVSPropertyOp26
 70
     1
102
RTVSPropertyOp27
 70
     1
102
RTVSPropertyOp28
 70
     1
102
RTVSPropertyOp29
 70
     1
102
RTVSPropertyOp30
 70
     1
102
RTVSPropertyOp31
 70
     1
102
RTVSPropertyOp32
 70
     1
102
RTVSPropertyOp33
 70
     1
102
RTVSPropertyOp34
 70
     1
102
RTVSPropertyOp35
 70
     1
102
RTVSPropertyOp36
 70
     1
102
RTVSPropertyOp37
 70
     1
102
RTVSPropertyOp38
 70
     1
102
RTVSPropertyOp39
 70
     1
102
RTVSPropertyOp40
 70
     1
102
RTVSPropertyOp41
 70
     1
102
RTVSPropertyOp42
 70
     1
102
RTVSPropertyOp43
 70
     1
102
RTVSPropertyOp44
 70
     1
102
RTVSPropertyOp45
 70
     1
102
RTVSPropertyOp46
 70
     1
102
RTVSPropertyOp47
 70
     1
102
RTVSPropertyOp48
 70
     1
102
RTVSPropertyOp49
 70
     1
102
RTVSPropertyOp50
 70
     1
102
RTVSPropertyOp51
 70
     0
102
RTVSPropertyOp52
 70
     0
102
RTVSPropertyOp53
 70
     1
102
RTVSPropertyOp54
 70
     1
102
RTVSPropertyOp55
 70
     1
102
RTVSPropertyOp56
 70
     1
102
RTVSPropertyOp57
 70
     1
102
RTVSPost2010Prop28
280
     0
102
RTVSPost2010PropOp28
 70
     1
102
RTVSPost2010Prop29
280
     1
102
RTVSPost2010PropOp29
 70
     1
102
RTVSPost2010Prop30
280
     1
102
RTVSPost2010PropOp30
 70
     1
102
RTVSPost2010Prop31
280
     0
102
RTVSPost2010PropOp31
 70
     1
102
RTVSPost2010Prop32
280
     0
102
RTVSPost2010PropOp32
 70
     1
102
RTVSPost2010Prop33
280
     0
102
RTVSPost2010PropOp33
 70
     1
102
RTVSPost2010Prop34
280
     0
102
RTVSPost2010PropOp34
 70
     1
102
RTVSPost2010Prop35
280
     0
102
RTVSPost2010PropOp35
 70
     1
102
RTVSPost2010Prop36
280
     0
102
RTVSPost2010PropOp36
 70
     1
102
RTVSPost2010Prop37
 90
       50
102
RTVSPost2010PropOp37
 70
     1
102
RTVSPost2010Prop38
140
0.0
102
RTVSPost2010PropOp38
 70
     1
102
RTVSPost2010Prop39
140
1.0
102
RTVSPost2010PropOp39
 70
     1
102
RTVSPost2010Prop40
 90
        0
102
RTVSPost2010PropOp40
 70
     1
102
RTVSPost2010Prop41ColorIndex
 90
       18
102
RTVSPost2010Prop41ColorRGB
 90
        0
102
RTVSPost2010PropOp41
 70
     1
102
RTVSPost2010Prop42
 90
       50
102
RTVSPost2010PropOp42
 70
     1
102
RTVSPost2010Prop43
 90
        3
102
RTVSPost2010PropOp43
 70
     1
102
RTVSPost2010Prop44ColorIndex
 90
        5
102
RTVSPost2010Prop44ColorRGB
 90
      255
102
RTVSPost2010PropOp44
 70
     1
102
RTVSPost2010Prop45
280
     0
102
RTVSPost2010PropOp45
 70
     1
102
RTVSPost2010Prop46
 90
       50
102
RTVSPost2010PropOp46
 70
     1
102
RTVSPost2010Prop47
 90
       50
102
RTVSPost2010PropOp47
 70
     1
102
RTVSPost2010Prop48
 90
       50
102
RTVSPost2010PropOp48
 70
     1
102
RTVSPost2010Prop49
280
     0
102
RTVSPost2010PropOp49
 70
     1
102
RTVSPost2010Prop50
 90
       50
102
RTVSPost2010PropOp50
 70
     1
102
RTVSPost2010Prop51ColorIndex
 90
      256
102
RTVSPost2010Prop51ColorRGB
 90
-16777216
102
RTVSPost2010PropOp51
 70
     0
102
RTVSPost2010Prop52
140
1.0
102
RTVSPost2010PropOp52
 70
     0
102
RTVSPost2010Prop53
 90
        2
102
RTVSPost2010PropOp53
 70
     1
102
RTVSPost2010Prop54
  1
strokes_ogs.tif
102
RTVSPost2010PropOp54
 70
     1
102
RTVSPost2010Prop55
280
     0
102
RTVSPost2010PropOp55
 70
     1
102
RTVSPost2010Prop56
140
1.0
102
RTVSPost2010PropOp56
 70
     1
102
RTVSPost2010Prop57
140
1.0
102
RTVSPost2010PropOp57
 70
     1
  0
XRECORD
  5
3F8
102
{ACAD_REACTORS
330
3F7
102
}
330
3F7
100
AcDbXrecord
280
     1
102
RTVSPropertyOp0
 70
     1
102
RTVSPropertyOp1
 70
     1
102
RTVSPropertyOp2
 70
     1
102
RTVSPropertyOp3
 70
     1
102
RTVSPropertyOp4
 70
     1
102
RTVSPropertyOp5
 70
     1
102
RTVSPropertyOp6
 70
     1
102
RTVSPropertyOp7
 70
     1
102
RTVSPropertyOp8
 70
     1
102
RTVSPropertyOp9
 70
     1
102
RTVSPropertyOp10
 70
     1
102
RTVSPropertyOp11
 70
     1
102
RTVSPropertyOp12
 70
     1
102
RTVSPropertyOp13
 70
     1
102
RTVSPropertyOp14
 70
     1
102
RTVSPropertyOp15
 70
     1
102
RTVSPropertyOp16
 70
     1
102
RTVSPropertyOp17
 70
     1
102
RTVSPropertyOp18
 70
     1
102
RTVSPropertyOp19
 70
     1
102
RTVSPropertyOp20
 70
     1
102
RTVSPropertyOp21
 70
     1
102
RTVSPropertyOp22
 70
     1
102
RTVSPropertyOp23
 70
     1
102
RTVSPropertyOp24
 70
     1
102
RTVSPropertyOp25
 70
     1
102
RTVSPropertyOp26
 70
     1
102
RTVSPropertyOp27
 70
     1
102
RTVSPropertyOp28
 70
     1
102
RTVSPropertyOp29
 70
     1
102
RTVSPropertyOp30
 70
     1
102
RTVSPropertyOp31
 70
     1
102
RTVSPropertyOp32
 70
     1
102
RTVSPropertyOp33
 70
     1
102
RTVSPropertyOp34
 70
     1
102
RTVSPropertyOp35
 70
     1
102
RTVSPropertyOp36
 70
     1
102
RTVSPropertyOp37
 70
     1
102
RTVSPropertyOp38
 70
     1
102
RTVSPropertyOp39
 70
     1
102
RTVSPropertyOp40
 70
     1
102
RTVSPropertyOp41
 70
     1
102
RTVSPropertyOp42
 70
     1
102
RTVSPropertyOp43
 70
     1
102
RTVSPropertyOp44
 70
     1
102
RTVSPropertyOp45
 70
     1
102
RTVSPropertyOp46
 70
     1
102
RTVSPropertyOp47
 70
     1
102
RTVSPropertyOp48
 70
     1
102
RTVSPropertyOp49
 70
     1
102
RTVSPropertyOp50
 70
     1
102
RTVSPropertyOp51
 70
     0
102
RTVSPropertyOp52
 70
     0
102
RTVSPropertyOp53
 70
     1
102
RTVSPropertyOp54
 70
     1
102
RTVSPropertyOp55
 70
     1
102
RTVSPropertyOp56
 70
     1
102
RTVSPropertyOp57
 70
     1
102
RTVSPost2010Prop28
280
     0
102
RTVSPost2010PropOp28
 70
     1
102
RTVSPost2010Prop29
280
     1
102
RTVSPost2010PropOp29
 70
     1
102
RTVSPost2010Prop30
280
     1
102
RTVSPost2010PropOp30
 70
     1
102
RTVSPost2010Prop31
280
     0
102
RTVSPost2010PropOp31
 70
     1
102
RTVSPost2010Prop32
280
     0
102
RTVSPost2010PropOp32
 70
     1
102
RTVSPost2010Prop33
280
     0
102
RTVSPost2010PropOp33
 70
     1
102
RTVSPost2010Prop34
280
     0
102
RTVSPost2010PropOp34
 70
     1
102
RTVSPost2010Prop35
280
     0
102
RTVSPost2010PropOp35
 70
     1
102
RTVSPost2010Prop36
280
     0
102
RTVSPost2010PropOp36
 70
     1
102
RTVSPost2010Prop37
 90
       50
102
RTVSPost2010PropOp37
 70
     1
102
RTVSPost2010Prop38
140
0.0
102
RTVSPost2010PropOp38
 70
     1
102
RTVSPost2010Prop39
140
1.0
102
RTVSPost2010PropOp39
 70
     1
102
RTVSPost2010Prop40
 90
        0
102
RTVSPost2010PropOp40
 70
     1
102
RTVSPost2010Prop41ColorIndex
 90
       18
102
RTVSPost2010Prop41ColorRGB
 90
        0
102
RTVSPost2010PropOp41
 70
     1
102
RTVSPost2010Prop42
 90
       50
102
RTVSPost2010PropOp42
 70
     1
102
RTVSPost2010Prop43
 90
        3
102
RTVSPost2010PropOp43
 70
     1
102
RTVSPost2010Prop44ColorIndex
 90
        5
102
RTVSPost2010Prop44ColorRGB
 90
      255
102
RTVSPost2010PropOp44
 70
     1
102
RTVSPost2010Prop45
280
     0
102
RTVSPost2010PropOp45
 70
     1
102
RTVSPost2010Prop46
 90
       50
102
RTVSPost2010PropOp46
 70
     1
102
RTVSPost2010Prop47
 90
       50
102
RTVSPost2010PropOp47
 70
     1
102
RTVSPost2010Prop48
 90
       50
102
RTVSPost2010PropOp48
 70
     1
102
RTVSPost2010Prop49
280
     0
102
RTVSPost2010PropOp49
 70
     1
102
RTVSPost2010Prop50
 90
       50
102
RTVSPost2010PropOp50
 70
     1
102
RTVSPost2010Prop51ColorIndex
 90
      256
102
RTVSPost2010Prop51ColorRGB
 90
-16777216
102
RTVSPost2010PropOp51
 70
     0
102
RTVSPost2010Prop52
140
1.0
102
RTVSPost2010PropOp52
 70
     0
102
RTVSPost2010Prop53
 90
        2
102
RTVSPost2010PropOp53
 70
     1
102
RTVSPost2010Prop54
  1
strokes_ogs.tif
102
RTVSPost2010PropOp54
 70
     1
102
RTVSPost2010Prop55
280
     0
102
RTVSPost2010PropOp55
 70
     1
102
RTVSPost2010Prop56
140
1.0
102
RTVSPost2010PropOp56
 70
     1
102
RTVSPost2010Prop57
140
1.0
102
RTVSPost2010PropOp57
 70
     1
  0
XRECORD
  5
3FE
102
{ACAD_REACTORS
330
3FD
102
}
330
3FD
100
AcDbXrecord
280
     1
102
RTVSPropertyOp0
 70
     1
102
RTVSPropertyOp1
 70
     1
102
RTVSPropertyOp2
 70
     1
102
RTVSPropertyOp3
 70
     1
102
RTVSPropertyOp4
 70
     1
102
RTVSPropertyOp5
 70
     1
102
RTVSPropertyOp6
 70
     1
102
RTVSPropertyOp7
 70
     1
102
RTVSPropertyOp8
 70
     1
102
RTVSPropertyOp9
 70
     1
102
RTVSPropertyOp10
 70
     1
102
RTVSPropertyOp11
 70
     1
102
RTVSPropertyOp12
 70
     1
102
RTVSPropertyOp13
 70
     1
102
RTVSPropertyOp14
 70
     1
102
RTVSPropertyOp15
 70
     1
102
RTVSPropertyOp16
 70
     1
102
RTVSPropertyOp17
 70
     1
102
RTVSPropertyOp18
 70
     1
102
RTVSPropertyOp19
 70
     1
102
RTVSPropertyOp20
 70
     1
102
RTVSPropertyOp21
 70
     1
102
RTVSPropertyOp22
 70
     1
102
RTVSPropertyOp23
 70
     1
102
RTVSPropertyOp24
 70
     1
102
RTVSPropertyOp25
 70
     1
102
RTVSPropertyOp26
 70
     1
102
RTVSPropertyOp27
 70
     1
102
RTVSPropertyOp28
 70
     1
102
RTVSPropertyOp29
 70
     1
102
RTVSPropertyOp30
 70
     1
102
RTVSPropertyOp31
 70
     1
102
RTVSPropertyOp32
 70
     1
102
RTVSPropertyOp33
 70
     1
102
RTVSPropertyOp34
 70
     1
102
RTVSPropertyOp35
 70
     1
102
RTVSPropertyOp36
 70
     1
102
RTVSPropertyOp37
 70
     1
102
RTVSPropertyOp38
 70
     1
102
RTVSPropertyOp39
 70
     1
102
RTVSPropertyOp40
 70
     1
102
RTVSPropertyOp41
 70
     1
102
RTVSPropertyOp42
 70
     1
102
RTVSPropertyOp43
 70
     1
102
RTVSPropertyOp44
 70
     1
102
RTVSPropertyOp45
 70
     1
102
RTVSPropertyOp46
 70
     1
102
RTVSPropertyOp47
 70
     1
102
RTVSPropertyOp48
 70
     1
102
RTVSPropertyOp49
 70
     1
102
RTVSPropertyOp50
 70
     1
102
RTVSPropertyOp51
 70
     0
102
RTVSPropertyOp52
 70
     0
102
RTVSPropertyOp53
 70
     1
102
RTVSPropertyOp54
 70
     1
102
RTVSPropertyOp55
 70
     1
102
RTVSPropertyOp56
 70
     1
102
RTVSPropertyOp57
 70
     1
102
RTVSPost2010Prop28
280
     0
102
RTVSPost2010PropOp28
 70
     1
102
RTVSPost2010Prop29
280
     1
102
RTVSPost2010PropOp29
 70
     1
102
RTVSPost2010Prop30
280
     1
102
RTVSPost2010PropOp30
 70
     1
102
RTVSPost2010Prop31
280
     0
102
RTVSPost2010PropOp31
 70
     1
102
RTVSPost2010Prop32
280
     0
102
RTVSPost2010PropOp32
 70
     1
102
RTVSPost2010Prop33
280
     0
102
RTVSPost2010PropOp33
 70
     1
102
RTVSPost2010Prop34
280
     0
102
RTVSPost2010PropOp34
 70
     1
102
RTVSPost2010Prop35
280
     0
102
RTVSPost2010PropOp35
 70
     1
102
RTVSPost2010Prop36
280
     0
102
RTVSPost2010PropOp36
 70
     1
102
RTVSPost2010Prop37
 90
       50
102
RTVSPost2010PropOp37
 70
     1
102
RTVSPost2010Prop38
140
0.0
102
RTVSPost2010PropOp38
 70
     1
102
RTVSPost2010Prop39
140
1.0
102
RTVSPost2010PropOp39
 70
     1
102
RTVSPost2010Prop40
 90
        0
102
RTVSPost2010PropOp40
 70
     1
102
RTVSPost2010Prop41ColorIndex
 90
       18
102
RTVSPost2010Prop41ColorRGB
 90
        0
102
RTVSPost2010PropOp41
 70
     1
102
RTVSPost2010Prop42
 90
       50
102
RTVSPost2010PropOp42
 70
     1
102
RTVSPost2010Prop43
 90
        3
102
RTVSPost2010PropOp43
 70
     1
102
RTVSPost2010Prop44ColorIndex
 90
        5
102
RTVSPost2010Prop44ColorRGB
 90
      255
102
RTVSPost2010PropOp44
 70
     1
102
RTVSPost2010Prop45
280
     0
102
RTVSPost2010PropOp45
 70
     1
102
RTVSPost2010Prop46
 90
       50
102
RTVSPost2010PropOp46
 70
     1
102
RTVSPost2010Prop47
 90
       50
102
RTVSPost2010PropOp47
 70
     1
102
RTVSPost2010Prop48
 90
       50
102
RTVSPost2010PropOp48
 70
     1
102
RTVSPost2010Prop49
280
     0
102
RTVSPost2010PropOp49
 70
     1
102
RTVSPost2010Prop50
 90
       50
102
RTVSPost2010PropOp50
 70
     1
102
RTVSPost2010Prop51ColorIndex
 90
      256
102
RTVSPost2010Prop51ColorRGB
 90
-16777216
102
RTVSPost2010PropOp51
 70
     0
102
RTVSPost2010Prop52
140
1.0
102
RTVSPost2010PropOp52
 70
     0
102
RTVSPost2010Prop53
 90
        2
102
RTVSPost2010PropOp53
 70
     1
102
RTVSPost2010Prop54
  1
strokes_ogs.tif
102
RTVSPost2010PropOp54
 70
     1
102
RTVSPost2010Prop55
280
     0
102
RTVSPost2010PropOp55
 70
     1
102
RTVSPost2010Prop56
140
1.0
102
RTVSPost2010PropOp56
 70
     1
102
RTVSPost2010Prop57
140
1.0
102
RTVSPost2010PropOp57
 70
     1
  0
XRECORD
  5
412
102
{ACAD_REACTORS
330
411
102
}
330
411
100
AcDbXrecord
280
     1
102
RTVSPropertyOp0
 70
     0
102
RTVSPropertyOp1
 70
     0
102
RTVSPropertyOp2
 70
     0
102
RTVSPropertyOp3
 70
     0
102
RTVSPropertyOp4
 70
     0
102
RTVSPropertyOp5
 70
     0
102
RTVSPropertyOp6
 70
     0
102
RTVSPropertyOp7
 70
     0
102
RTVSPropertyOp8
 70
     0
102
RTVSPropertyOp9
 70
     0
102
RTVSPropertyOp10
 70
     0
102
RTVSPropertyOp11
 70
     0
102
RTVSPropertyOp12
 70
     0
102
RTVSPropertyOp13
 70
     0
102
RTVSPropertyOp14
 70
     2
102
RTVSPropertyOp15
 70
     0
102
RTVSPropertyOp16
 70
     0
102
RTVSPropertyOp17
 70
     0
102
RTVSPropertyOp18
 70
     0
102
RTVSPropertyOp19
 70
     0
102
RTVSPropertyOp20
 70
     0
102
RTVSPropertyOp21
 70
     0
102
RTVSPropertyOp22
 70
     0
102
RTVSPropertyOp23
 70
     0
102
RTVSPropertyOp24
 70
     0
102
RTVSPropertyOp25
 70
     0
102
RTVSPropertyOp26
 70
     0
102
RTVSPropertyOp27
 70
     0
102
RTVSPropertyOp28
 70
     0
102
RTVSPropertyOp29
 70
     0
102
RTVSPropertyOp30
 70
     0
102
RTVSPropertyOp31
 70
     0
102
RTVSPropertyOp32
 70
     0
102
RTVSPropertyOp33
 70
     0
102
RTVSPropertyOp34
 70
     0
102
RTVSPropertyOp35
 70
     0
102
RTVSPropertyOp36
 70
     0
102
RTVSPropertyOp37
 70
     0
102
RTVSPropertyOp38
 70
     0
102
RTVSPropertyOp39
 70
     0
102
RTVSPropertyOp40
 70
     0
102
RTVSPropertyOp41
 70
     0
102
RTVSPropertyOp42
 70
     0
102
RTVSPropertyOp43
 70
     0
102
RTVSPropertyOp44
 70
     0
102
RTVSPropertyOp45
 70
     0
102
RTVSPropertyOp46
 70
     0
102
RTVSPropertyOp47
 70
     0
102
RTVSPropertyOp48
 70
     0
102
RTVSPropertyOp49
 70
     0
102
RTVSPropertyOp50
 70
     0
102
RTVSPropertyOp51
 70
     0
102
RTVSPropertyOp52
 70
     0
102
RTVSPropertyOp53
 70
     0
102
RTVSPropertyOp54
 70
     0
102
RTVSPropertyOp55
 70
     0
102
RTVSPropertyOp56
 70
     0
102
RTVSPropertyOp57
 70
     0
102
RTVSPost2010Prop28
280
     0
102
RTVSPost2010PropOp28
 70
     0
102
RTVSPost2010Prop29
280
     1
102
RTVSPost2010PropOp29
 70
     0
102
RTVSPost2010Prop30
280
     1
102
RTVSPost2010PropOp30
 70
     0
102
RTVSPost2010Prop31
280
     0
102
RTVSPost2010PropOp31
 70
     0
102
RTVSPost2010Prop32
280
     0
102
RTVSPost2010PropOp32
 70
     0
102
RTVSPost2010Prop33
280
     0
102
RTVSPost2010PropOp33
 70
     0
102
RTVSPost2010Prop34
280
     0
102
RTVSPost2010PropOp34
 70
     0
102
RTVSPost2010Prop35
280
     0
102
RTVSPost2010PropOp35
 70
     0
102
RTVSPost2010Prop36
280
     0
102
RTVSPost2010PropOp36
 70
     0
102
RTVSPost2010Prop37
 90
       50
102
RTVSPost2010PropOp37
 70
     0
102
RTVSPost2010Prop38
140
0.0
102
RTVSPost2010PropOp38
 70
     0
102
RTVSPost2010Prop39
140
1.0
102
RTVSPost2010PropOp39
 70
     0
102
RTVSPost2010Prop40
 90
        0
102
RTVSPost2010PropOp40
 70
     0
102
RTVSPost2010Prop41ColorIndex
 90
       18
102
RTVSPost2010Prop41ColorRGB
 90
        0
102
RTVSPost2010PropOp41
 70
     0
102
RTVSPost2010Prop42
 90
       50
102
RTVSPost2010PropOp42
 70
     0
102
RTVSPost2010Prop43
 90
        3
102
RTVSPost2010PropOp43
 70
     0
102
RTVSPost2010Prop44ColorIndex
 90
        5
102
RTVSPost2010Prop44ColorRGB
 90
      255
102
RTVSPost2010PropOp44
 70
     0
102
RTVSPost2010Prop45
280
     0
102
RTVSPost2010PropOp45
 70
     0
102
RTVSPost2010Prop46
 90
       50
102
RTVSPost2010PropOp46
 70
     0
102
RTVSPost2010Prop47
 90
       50
102
RTVSPost2010PropOp47
 70
     0
102
RTVSPost2010Prop48
 90
       50
102
RTVSPost2010PropOp48
 70
     0
102
RTVSPost2010Prop49
280
     0
102
RTVSPost2010PropOp49
 70
     0
102
RTVSPost2010Prop50
 90
       50
102
RTVSPost2010PropOp50
 70
     0
102
RTVSPost2010Prop51ColorIndex
 90
      256
102
RTVSPost2010Prop51ColorRGB
 90
-16777216
102
RTVSPost2010PropOp51
 70
     0
102
RTVSPost2010Prop52
140
1.0
102
RTVSPost2010PropOp52
 70
     0
102
RTVSPost2010Prop53
 90
        2
102
RTVSPost2010PropOp53
 70
     0
102
RTVSPost2010Prop54
  1
strokes_ogs.tif
102
RTVSPost2010PropOp54
 70
     0
102
RTVSPost2010Prop55
280
     0
102
RTVSPost2010PropOp55
 70
     0
102
RTVSPost2010Prop56
140
1.0
102
RTVSPost2010PropOp56
 70
     0
102
RTVSPost2010Prop57
140
1.0
102
RTVSPost2010PropOp57
 70
     0
  0
XRECORD
  5
40C
102
{ACAD_REACTORS
330
40B
102
}
330
40B
100
AcDbXrecord
280
     1
102
RTVSPropertyOp0
 70
     1
102
RTVSPropertyOp1
 70
     1
102
RTVSPropertyOp2
 70
     1
102
RTVSPropertyOp3
 70
     1
102
RTVSPropertyOp4
 70
     1
102
RTVSPropertyOp5
 70
     1
102
RTVSPropertyOp6
 70
     1
102
RTVSPropertyOp7
 70
     1
102
RTVSPropertyOp8
 70
     1
102
RTVSPropertyOp9
 70
     1
102
RTVSPropertyOp10
 70
     1
102
RTVSPropertyOp11
 70
     1
102
RTVSPropertyOp12
 70
     1
102
RTVSPropertyOp13
 70
     1
102
RTVSPropertyOp14
 70
     1
102
RTVSPropertyOp15
 70
     1
102
RTVSPropertyOp16
 70
     1
102
RTVSPropertyOp17
 70
     1
102
RTVSPropertyOp18
 70
     1
102
RTVSPropertyOp19
 70
     1
102
RTVSPropertyOp20
 70
     1
102
RTVSPropertyOp21
 70
     1
102
RTVSPropertyOp22
 70
     1
102
RTVSPropertyOp23
 70
     1
102
RTVSPropertyOp24
 70
     1
102
RTVSPropertyOp25
 70
     1
102
RTVSPropertyOp26
 70
     1
102
RTVSPropertyOp27
 70
     1
102
RTVSPropertyOp28
 70
     1
102
RTVSPropertyOp29
 70
     1
102
RTVSPropertyOp30
 70
     1
102
RTVSPropertyOp31
 70
     1
102
RTVSPropertyOp32
 70
     1
102
RTVSPropertyOp33
 70
     1
102
RTVSPropertyOp34
 70
     1
102
RTVSPropertyOp35
 70
     1
102
RTVSPropertyOp36
 70
     1
102
RTVSPropertyOp37
 70
     1
102
RTVSPropertyOp38
 70
     1
102
RTVSPropertyOp39
 70
     1
102
RTVSPropertyOp40
 70
     1
102
RTVSPropertyOp41
 70
     1
102
RTVSPropertyOp42
 70
     1
102
RTVSPropertyOp43
 70
     1
102
RTVSPropertyOp44
 70
     1
102
RTVSPropertyOp45
 70
     1
102
RTVSPropertyOp46
 70
     1
102
RTVSPropertyOp47
 70
     1
102
RTVSPropertyOp48
 70
     1
102
RTVSPropertyOp49
 70
     1
102
RTVSPropertyOp50
 70
     1
102
RTVSPropertyOp51
 70
     0
102
RTVSPropertyOp52
 70
     0
102
RTVSPropertyOp53
 70
     1
102
RTVSPropertyOp54
 70
     1
102
RTVSPropertyOp55
 70
     1
102
RTVSPropertyOp56
 70
     1
102
RTVSPropertyOp57
 70
     1
102
RTVSPost2010Prop28
280
     0
102
RTVSPost2010PropOp28
 70
     1
102
RTVSPost2010Prop29
280
     1
102
RTVSPost2010PropOp29
 70
     1
102
RTVSPost2010Prop30
280
     1
102
RTVSPost2010PropOp30
 70
     1
102
RTVSPost2010Prop31
280
     0
102
RTVSPost2010PropOp31
 70
     1
102
RTVSPost2010Prop32
280
     0
102
RTVSPost2010PropOp32
 70
     1
102
RTVSPost2010Prop33
280
     0
102
RTVSPost2010PropOp33
 70
     1
102
RTVSPost2010Prop34
280
     0
102
RTVSPost2010PropOp34
 70
     1
102
RTVSPost2010Prop35
280
     0
102
RTVSPost2010PropOp35
 70
     1
102
RTVSPost2010Prop36
280
     0
102
RTVSPost2010PropOp36
 70
     1
102
RTVSPost2010Prop37
 90
       50
102
RTVSPost2010PropOp37
 70
     1
102
RTVSPost2010Prop38
140
0.0
102
RTVSPost2010PropOp38
 70
     1
102
RTVSPost2010Prop39
140
1.0
102
RTVSPost2010PropOp39
 70
     1
102
RTVSPost2010Prop40
 90
        0
102
RTVSPost2010PropOp40
 70
     1
102
RTVSPost2010Prop41ColorIndex
 90
       18
102
RTVSPost2010Prop41ColorRGB
 90
        0
102
RTVSPost2010PropOp41
 70
     1
102
RTVSPost2010Prop42
 90
       50
102
RTVSPost2010PropOp42
 70
     1
102
RTVSPost2010Prop43
 90
        3
102
RTVSPost2010PropOp43
 70
     1
102
RTVSPost2010Prop44ColorIndex
 90
        5
102
RTVSPost2010Prop44ColorRGB
 90
      255
102
RTVSPost2010PropOp44
 70
     1
102
RTVSPost2010Prop45
280
     0
102
RTVSPost2010PropOp45
 70
     1
102
RTVSPost2010Prop46
 90
       50
102
RTVSPost2010PropOp46
 70
     1
102
RTVSPost2010Prop47
 90
       50
102
RTVSPost2010PropOp47
 70
     1
102
RTVSPost2010Prop48
 90
       50
102
RTVSPost2010PropOp48
 70
     1
102
RTVSPost2010Prop49
280
     0
102
RTVSPost2010PropOp49
 70
     1
102
RTVSPost2010Prop50
 90
       50
102
RTVSPost2010PropOp50
 70
     1
102
RTVSPost2010Prop51ColorIndex
 90
      256
102
RTVSPost2010Prop51ColorRGB
 90
-16777216
102
RTVSPost2010PropOp51
 70
     0
102
RTVSPost2010Prop52
140
1.0
102
RTVSPost2010PropOp52
 70
     0
102
RTVSPost2010Prop53
 90
        2
102
RTVSPost2010PropOp53
 70
     1
102
RTVSPost2010Prop54
  1
strokes_ogs.tif
102
RTVSPost2010PropOp54
 70
     1
102
RTVSPost2010Prop55
280
     0
102
RTVSPost2010PropOp55
 70
     1
102
RTVSPost2010Prop56
140
1.0
102
RTVSPost2010PropOp56
 70
     1
102
RTVSPost2010Prop57
140
1.0
102
RTVSPost2010PropOp57
 70
     1
  0
XRECORD
  5
414
102
{ACAD_REACTORS
330
413
102
}
330
413
100
AcDbXrecord
280
     1
102
RTVSPropertyOp0
 70
     0
102
RTVSPropertyOp1
 70
     0
102
RTVSPropertyOp2
 70
     0
102
RTVSPropertyOp3
 70
     0
102
RTVSPropertyOp4
 70
     0
102
RTVSPropertyOp5
 70
     0
102
RTVSPropertyOp6
 70
     0
102
RTVSPropertyOp7
 70
     0
102
RTVSPropertyOp8
 70
     0
102
RTVSPropertyOp9
 70
     0
102
RTVSPropertyOp10
 70
     0
102
RTVSPropertyOp11
 70
     0
102
RTVSPropertyOp12
 70
     0
102
RTVSPropertyOp13
 70
     0
102
RTVSPropertyOp14
 70
     2
102
RTVSPropertyOp15
 70
     0
102
RTVSPropertyOp16
 70
     0
102
RTVSPropertyOp17
 70
     0
102
RTVSPropertyOp18
 70
     0
102
RTVSPropertyOp19
 70
     0
102
RTVSPropertyOp20
 70
     0
102
RTVSPropertyOp21
 70
     0
102
RTVSPropertyOp22
 70
     0
102
RTVSPropertyOp23
 70
     0
102
RTVSPropertyOp24
 70
     0
102
RTVSPropertyOp25
 70
     0
102
RTVSPropertyOp26
 70
     0
102
RTVSPropertyOp27
 70
     0
102
RTVSPropertyOp28
 70
     0
102
RTVSPropertyOp29
 70
     0
102
RTVSPropertyOp30
 70
     0
102
RTVSPropertyOp31
 70
     0
102
RTVSPropertyOp32
 70
     0
102
RTVSPropertyOp33
 70
     0
102
RTVSPropertyOp34
 70
     0
102
RTVSPropertyOp35
 70
     0
102
RTVSPropertyOp36
 70
     0
102
RTVSPropertyOp37
 70
     0
102
RTVSPropertyOp38
 70
     0
102
RTVSPropertyOp39
 70
     0
102
RTVSPropertyOp40
 70
     0
102
RTVSPropertyOp41
 70
     0
102
RTVSPropertyOp42
 70
     0
102
RTVSPropertyOp43
 70
     0
102
RTVSPropertyOp44
 70
     0
102
RTVSPropertyOp45
 70
     0
102
RTVSPropertyOp46
 70
     0
102
RTVSPropertyOp47
 70
     0
102
RTVSPropertyOp48
 70
     0
102
RTVSPropertyOp49
 70
     0
102
RTVSPropertyOp50
 70
     0
102
RTVSPropertyOp51
 70
     0
102
RTVSPropertyOp52
 70
     0
102
RTVSPropertyOp53
 70
     0
102
RTVSPropertyOp54
 70
     0
102
RTVSPropertyOp55
 70
     0
102
RTVSPropertyOp56
 70
     0
102
RTVSPropertyOp57
 70
     0
102
RTVSPost2010Prop28
280
     0
102
RTVSPost2010PropOp28
 70
     0
102
RTVSPost2010Prop29
280
     1
102
RTVSPost2010PropOp29
 70
     0
102
RTVSPost2010Prop30
280
     1
102
RTVSPost2010PropOp30
 70
     0
102
RTVSPost2010Prop31
280
     0
102
RTVSPost2010PropOp31
 70
     0
102
RTVSPost2010Prop32
280
     0
102
RTVSPost2010PropOp32
 70
     0
102
RTVSPost2010Prop33
280
     0
102
RTVSPost2010PropOp33
 70
     0
102
RTVSPost2010Prop34
280
     0
102
RTVSPost2010PropOp34
 70
     0
102
RTVSPost2010Prop35
280
     0
102
RTVSPost2010PropOp35
 70
     0
102
RTVSPost2010Prop36
280
     0
102
RTVSPost2010PropOp36
 70
     0
102
RTVSPost2010Prop37
 90
       50
102
RTVSPost2010PropOp37
 70
     0
102
RTVSPost2010Prop38
140
0.0
102
RTVSPost2010PropOp38
 70
     0
102
RTVSPost2010Prop39
140
1.0
102
RTVSPost2010PropOp39
 70
     0
102
RTVSPost2010Prop40
 90
        0
102
RTVSPost2010PropOp40
 70
     0
102
RTVSPost2010Prop41ColorIndex
 90
       18
102
RTVSPost2010Prop41ColorRGB
 90
        0
102
RTVSPost2010PropOp41
 70
     0
102
RTVSPost2010Prop42
 90
       50
102
RTVSPost2010PropOp42
 70
     0
102
RTVSPost2010Prop43
 90
        3
102
RTVSPost2010PropOp43
 70
     0
102
RTVSPost2010Prop44ColorIndex
 90
        5
102
RTVSPost2010Prop44ColorRGB
 90
      255
102
RTVSPost2010PropOp44
 70
     0
102
RTVSPost2010Prop45
280
     0
102
RTVSPost2010PropOp45
 70
     0
102
RTVSPost2010Prop46
 90
       50
102
RTVSPost2010PropOp46
 70
     0
102
RTVSPost2010Prop47
 90
       50
102
RTVSPost2010PropOp47
 70
     0
102
RTVSPost2010Prop48
 90
       50
102
RTVSPost2010PropOp48
 70
     0
102
RTVSPost2010Prop49
280
     0
102
RTVSPost2010PropOp49
 70
     0
102
RTVSPost2010Prop50
 90
       50
102
RTVSPost2010PropOp50
 70
     0
102
RTVSPost2010Prop51ColorIndex
 90
      256
102
RTVSPost2010Prop51ColorRGB
 90
-16777216
102
RTVSPost2010PropOp51
 70
     0
102
RTVSPost2010Prop52
140
1.0
102
RTVSPost2010PropOp52
 70
     0
102
RTVSPost2010Prop53
 90
        2
102
RTVSPost2010PropOp53
 70
     0
102
RTVSPost2010Prop54
  1
strokes_ogs.tif
102
RTVSPost2010PropOp54
 70
     0
102
RTVSPost2010Prop55
280
     0
102
RTVSPost2010PropOp55
 70
     0
102
RTVSPost2010Prop56
140
1.0
102
RTVSPost2010PropOp56
 70
     0
102
RTVSPost2010Prop57
140
1.0
102
RTVSPost2010PropOp57
 70
     0
  0
XRECORD
  5
402
102
{ACAD_REACTORS
330
401
102
}
330
401
100
AcDbXrecord
280
     1
102
RTVSPropertyOp0
 70
     1
102
RTVSPropertyOp1
 70
     1
102
RTVSPropertyOp2
 70
     1
102
RTVSPropertyOp3
 70
     1
102
RTVSPropertyOp4
 70
     1
102
RTVSPropertyOp5
 70
     1
102
RTVSPropertyOp6
 70
     1
102
RTVSPropertyOp7
 70
     1
102
RTVSPropertyOp8
 70
     1
102
RTVSPropertyOp9
 70
     1
102
RTVSPropertyOp10
 70
     1
102
RTVSPropertyOp11
 70
     1
102
RTVSPropertyOp12
 70
     1
102
RTVSPropertyOp13
 70
     1
102
RTVSPropertyOp14
 70
     1
102
RTVSPropertyOp15
 70
     1
102
RTVSPropertyOp16
 70
     1
102
RTVSPropertyOp17
 70
     1
102
RTVSPropertyOp18
 70
     1
102
RTVSPropertyOp19
 70
     1
102
RTVSPropertyOp20
 70
     1
102
RTVSPropertyOp21
 70
     1
102
RTVSPropertyOp22
 70
     1
102
RTVSPropertyOp23
 70
     1
102
RTVSPropertyOp24
 70
     1
102
RTVSPropertyOp25
 70
     1
102
RTVSPropertyOp26
 70
     1
102
RTVSPropertyOp27
 70
     1
102
RTVSPropertyOp28
 70
     1
102
RTVSPropertyOp29
 70
     1
102
RTVSPropertyOp30
 70
     1
102
RTVSPropertyOp31
 70
     1
102
RTVSPropertyOp32
 70
     1
102
RTVSPropertyOp33
 70
     1
102
RTVSPropertyOp34
 70
     1
102
RTVSPropertyOp35
 70
     1
102
RTVSPropertyOp36
 70
     1
102
RTVSPropertyOp37
 70
     1
102
RTVSPropertyOp38
 70
     1
102
RTVSPropertyOp39
 70
     1
102
RTVSPropertyOp40
 70
     1
102
RTVSPropertyOp41
 70
     1
102
RTVSPropertyOp42
 70
     1
102
RTVSPropertyOp43
 70
     1
102
RTVSPropertyOp44
 70
     1
102
RTVSPropertyOp45
 70
     1
102
RTVSPropertyOp46
 70
     1
102
RTVSPropertyOp47
 70
     1
102
RTVSPropertyOp48
 70
     1
102
RTVSPropertyOp49
 70
     1
102
RTVSPropertyOp50
 70
     1
102
RTVSPropertyOp51
 70
     0
102
RTVSPropertyOp52
 70
     0
102
RTVSPropertyOp53
 70
     1
102
RTVSPropertyOp54
 70
     1
102
RTVSPropertyOp55
 70
     1
102
RTVSPropertyOp56
 70
     1
102
RTVSPropertyOp57
 70
     1
102
RTVSPost2010Prop28
280
     0
102
RTVSPost2010PropOp28
 70
     1
102
RTVSPost2010Prop29
280
     1
102
RTVSPost2010PropOp29
 70
     1
102
RTVSPost2010Prop30
280
     1
102
RTVSPost2010PropOp30
 70
     1
102
RTVSPost2010Prop31
280
     0
102
RTVSPost2010PropOp31
 70
     1
102
RTVSPost2010Prop32
280
     0
102
RTVSPost2010PropOp32
 70
     1
102
RTVSPost2010Prop33
280
     0
102
RTVSPost2010PropOp33
 70
     1
102
RTVSPost2010Prop34
280
     0
102
RTVSPost2010PropOp34
 70
     1
102
RTVSPost2010Prop35
280
     0
102
RTVSPost2010PropOp35
 70
     1
102
RTVSPost2010Prop36
280
     0
102
RTVSPost2010PropOp36
 70
     1
102
RTVSPost2010Prop37
 90
       50
102
RTVSPost2010PropOp37
 70
     1
102
RTVSPost2010Prop38
140
0.0
102
RTVSPost2010PropOp38
 70
     1
102
RTVSPost2010Prop39
140
1.0
102
RTVSPost2010PropOp39
 70
     1
102
RTVSPost2010Prop40
 90
        0
102
RTVSPost2010PropOp40
 70
     1
102
RTVSPost2010Prop41ColorIndex
 90
       18
102
RTVSPost2010Prop41ColorRGB
 90
        0
102
RTVSPost2010PropOp41
 70
     1
102
RTVSPost2010Prop42
 90
       50
102
RTVSPost2010PropOp42
 70
     1
102
RTVSPost2010Prop43
 90
        3
102
RTVSPost2010PropOp43
 70
     1
102
RTVSPost2010Prop44ColorIndex
 90
        5
102
RTVSPost2010Prop44ColorRGB
 90
      255
102
RTVSPost2010PropOp44
 70
     1
102
RTVSPost2010Prop45
280
     0
102
RTVSPost2010PropOp45
 70
     1
102
RTVSPost2010Prop46
 90
       50
102
RTVSPost2010PropOp46
 70
     1
102
RTVSPost2010Prop47
 90
       50
102
RTVSPost2010PropOp47
 70
     1
102
RTVSPost2010Prop48
 90
       50
102
RTVSPost2010PropOp48
 70
     1
102
RTVSPost2010Prop49
280
     0
102
RTVSPost2010PropOp49
 70
     1
102
RTVSPost2010Prop50
 90
       50
102
RTVSPost2010PropOp50
 70
     1
102
RTVSPost2010Prop51ColorIndex
 90
      256
102
RTVSPost2010Prop51ColorRGB
 90
-16777216
102
RTVSPost2010PropOp51
 70
     0
102
RTVSPost2010Prop52
140
1.0
102
RTVSPost2010PropOp52
 70
     0
102
RTVSPost2010Prop53
 90
        2
102
RTVSPost2010PropOp53
 70
     1
102
RTVSPost2010Prop54
  1
strokes_ogs.tif
102
RTVSPost2010PropOp54
 70
     1
102
RTVSPost2010Prop55
280
     0
102
RTVSPost2010PropOp55
 70
     1
102
RTVSPost2010Prop56
140
1.0
102
RTVSPost2010PropOp56
 70
     1
102
RTVSPost2010Prop57
140
1.0
102
RTVSPost2010PropOp57
 70
     1
  0
XRECORD
  5
420
102
{ACAD_REACTORS
330
41F
102
}
330
41F
100
AcDbXrecord
280
     1
102
RTVSPropertyOp0
 70
     1
102
RTVSPropertyOp1
 70
     1
102
RTVSPropertyOp2
 70
     1
102
RTVSPropertyOp3
 70
     1
102
RTVSPropertyOp4
 70
     1
102
RTVSPropertyOp5
 70
     1
102
RTVSPropertyOp6
 70
     1
102
RTVSPropertyOp7
 70
     1
102
RTVSPropertyOp8
 70
     1
102
RTVSPropertyOp9
 70
     1
102
RTVSPropertyOp10
 70
     1
102
RTVSPropertyOp11
 70
     1
102
RTVSPropertyOp12
 70
     1
102
RTVSPropertyOp13
 70
     1
102
RTVSPropertyOp14
 70
     1
102
RTVSPropertyOp15
 70
     1
102
RTVSPropertyOp16
 70
     1
102
RTVSPropertyOp17
 70
     1
102
RTVSPropertyOp18
 70
     1
102
RTVSPropertyOp19
 70
     1
102
RTVSPropertyOp20
 70
     1
102
RTVSPropertyOp21
 70
     1
102
RTVSPropertyOp22
 70
     1
102
RTVSPropertyOp23
 70
     1
102
RTVSPropertyOp24
 70
     1
102
RTVSPropertyOp25
 70
     1
102
RTVSPropertyOp26
 70
     1
102
RTVSPropertyOp27
 70
     1
102
RTVSPropertyOp28
 70
     1
102
RTVSPropertyOp29
 70
     1
102
RTVSPropertyOp30
 70
     1
102
RTVSPropertyOp31
 70
     1
102
RTVSPropertyOp32
 70
     1
102
RTVSPropertyOp33
 70
     1
102
RTVSPropertyOp34
 70
     1
102
RTVSPropertyOp35
 70
     1
102
RTVSPropertyOp36
 70
     1
102
RTVSPropertyOp37
 70
     1
102
RTVSPropertyOp38
 70
     1
102
RTVSPropertyOp39
 70
     1
102
RTVSPropertyOp40
 70
     1
102
RTVSPropertyOp41
 70
     1
102
RTVSPropertyOp42
 70
     1
102
RTVSPropertyOp43
 70
     1
102
RTVSPropertyOp44
 70
     1
102
RTVSPropertyOp45
 70
     1
102
RTVSPropertyOp46
 70
     1
102
RTVSPropertyOp47
 70
     1
102
RTVSPropertyOp48
 70
     1
102
RTVSPropertyOp49
 70
     1
102
RTVSPropertyOp50
 70
     1
102
RTVSPropertyOp51
 70
     0
102
RTVSPropertyOp52
 70
     0
102
RTVSPropertyOp53
 70
     1
102
RTVSPropertyOp54
 70
     1
102
RTVSPropertyOp55
 70
     1
102
RTVSPropertyOp56
 70
     1
102
RTVSPropertyOp57
 70
     1
102
RTVSPost2010Prop28
280
     0
102
RTVSPost2010PropOp28
 70
     1
102
RTVSPost2010Prop29
280
     1
102
RTVSPost2010PropOp29
 70
     1
102
RTVSPost2010Prop30
280
     1
102
RTVSPost2010PropOp30
 70
     1
102
RTVSPost2010Prop31
280
     0
102
RTVSPost2010PropOp31
 70
     1
102
RTVSPost2010Prop32
280
     0
102
RTVSPost2010PropOp32
 70
     1
102
RTVSPost2010Prop33
280
     0
102
RTVSPost2010PropOp33
 70
     1
102
RTVSPost2010Prop34
280
     0
102
RTVSPost2010PropOp34
 70
     1
102
RTVSPost2010Prop35
280
     0
102
RTVSPost2010PropOp35
 70
     1
102
RTVSPost2010Prop36
280
     0
102
RTVSPost2010PropOp36
 70
     1
102
RTVSPost2010Prop37
 90
       50
102
RTVSPost2010PropOp37
 70
     1
102
RTVSPost2010Prop38
140
0.0
102
RTVSPost2010PropOp38
 70
     1
102
RTVSPost2010Prop39
140
1.0
102
RTVSPost2010PropOp39
 70
     1
102
RTVSPost2010Prop40
 90
        0
102
RTVSPost2010PropOp40
 70
     1
102
RTVSPost2010Prop41ColorIndex
 90
       18
102
RTVSPost2010Prop41ColorRGB
 90
        0
102
RTVSPost2010PropOp41
 70
     1
102
RTVSPost2010Prop42
 90
       50
102
RTVSPost2010PropOp42
 70
     1
102
RTVSPost2010Prop43
 90
        3
102
RTVSPost2010PropOp43
 70
     1
102
RTVSPost2010Prop44ColorIndex
 90
        5
102
RTVSPost2010Prop44ColorRGB
 90
      255
102
RTVSPost2010PropOp44
 70
     1
102
RTVSPost2010Prop45
280
     0
102
RTVSPost2010PropOp45
 70
     1
102
RTVSPost2010Prop46
 90
       50
102
RTVSPost2010PropOp46
 70
     1
102
RTVSPost2010Prop47
 90
       50
102
RTVSPost2010PropOp47
 70
     1
102
RTVSPost2010Prop48
 90
       50
102
RTVSPost2010PropOp48
 70
     1
102
RTVSPost2010Prop49
280
     0
102
RTVSPost2010PropOp49
 70
     1
102
RTVSPost2010Prop50
 90
       50
102
RTVSPost2010PropOp50
 70
     1
102
RTVSPost2010Prop51ColorIndex
 90
      256
102
RTVSPost2010Prop51ColorRGB
 90
-16777216
102
RTVSPost2010PropOp51
 70
     0
102
RTVSPost2010Prop52
140
1.0
102
RTVSPost2010PropOp52
 70
     0
102
RTVSPost2010Prop53
 90
        2
102
RTVSPost2010PropOp53
 70
     1
102
RTVSPost2010Prop54
  1
strokes_ogs.tif
102
RTVSPost2010PropOp54
 70
     1
102
RTVSPost2010Prop55
280
     0
102
RTVSPost2010PropOp55
 70
     1
102
RTVSPost2010Prop56
140
1.0
102
RTVSPost2010PropOp56
 70
     1
102
RTVSPost2010Prop57
140
1.0
102
RTVSPost2010PropOp57
 70
     1
  0
XRECORD
  5
41E
102
{ACAD_REACTORS
330
41D
102
}
330
41D
100
AcDbXrecord
280
     1
102
RTVSPropertyOp0
 70
     1
102
RTVSPropertyOp1
 70
     1
102
RTVSPropertyOp2
 70
     1
102
RTVSPropertyOp3
 70
     1
102
RTVSPropertyOp4
 70
     1
102
RTVSPropertyOp5
 70
     1
102
RTVSPropertyOp6
 70
     1
102
RTVSPropertyOp7
 70
     1
102
RTVSPropertyOp8
 70
     1
102
RTVSPropertyOp9
 70
     1
102
RTVSPropertyOp10
 70
     1
102
RTVSPropertyOp11
 70
     1
102
RTVSPropertyOp12
 70
     1
102
RTVSPropertyOp13
 70
     1
102
RTVSPropertyOp14
 70
     1
102
RTVSPropertyOp15
 70
     1
102
RTVSPropertyOp16
 70
     1
102
RTVSPropertyOp17
 70
     1
102
RTVSPropertyOp18
 70
     1
102
RTVSPropertyOp19
 70
     1
102
RTVSPropertyOp20
 70
     1
102
RTVSPropertyOp21
 70
     1
102
RTVSPropertyOp22
 70
     1
102
RTVSPropertyOp23
 70
     1
102
RTVSPropertyOp24
 70
     1
102
RTVSPropertyOp25
 70
     1
102
RTVSPropertyOp26
 70
     1
102
RTVSPropertyOp27
 70
     1
102
RTVSPropertyOp28
 70
     1
102
RTVSPropertyOp29
 70
     1
102
RTVSPropertyOp30
 70
     1
102
RTVSPropertyOp31
 70
     1
102
RTVSPropertyOp32
 70
     1
102
RTVSPropertyOp33
 70
     1
102
RTVSPropertyOp34
 70
     1
102
RTVSPropertyOp35
 70
     1
102
RTVSPropertyOp36
 70
     1
102
RTVSPropertyOp37
 70
     1
102
RTVSPropertyOp38
 70
     1
102
RTVSPropertyOp39
 70
     1
102
RTVSPropertyOp40
 70
     1
102
RTVSPropertyOp41
 70
     1
102
RTVSPropertyOp42
 70
     1
102
RTVSPropertyOp43
 70
     1
102
RTVSPropertyOp44
 70
     1
102
RTVSPropertyOp45
 70
     1
102
RTVSPropertyOp46
 70
     1
102
RTVSPropertyOp47
 70
     1
102
RTVSPropertyOp48
 70
     1
102
RTVSPropertyOp49
 70
     1
102
RTVSPropertyOp50
 70
     1
102
RTVSPropertyOp51
 70
     0
102
RTVSPropertyOp52
 70
     0
102
RTVSPropertyOp53
 70
     1
102
RTVSPropertyOp54
 70
     1
102
RTVSPropertyOp55
 70
     1
102
RTVSPropertyOp56
 70
     1
102
RTVSPropertyOp57
 70
     1
102
RTVSPost2010Prop28
280
     0
102
RTVSPost2010PropOp28
 70
     1
102
RTVSPost2010Prop29
280
     1
102
RTVSPost2010PropOp29
 70
     1
102
RTVSPost2010Prop30
280
     1
102
RTVSPost2010PropOp30
 70
     1
102
RTVSPost2010Prop31
280
     0
102
RTVSPost2010PropOp31
 70
     1
102
RTVSPost2010Prop32
280
     0
102
RTVSPost2010PropOp32
 70
     1
102
RTVSPost2010Prop33
280
     0
102
RTVSPost2010PropOp33
 70
     1
102
RTVSPost2010Prop34
280
     0
102
RTVSPost2010PropOp34
 70
     1
102
RTVSPost2010Prop35
280
     0
102
RTVSPost2010PropOp35
 70
     1
102
RTVSPost2010Prop36
280
     0
102
RTVSPost2010PropOp36
 70
     1
102
RTVSPost2010Prop37
 90
       50
102
RTVSPost2010PropOp37
 70
     1
102
RTVSPost2010Prop38
140
0.0
102
RTVSPost2010PropOp38
 70
     1
102
RTVSPost2010Prop39
140
1.0
102
RTVSPost2010PropOp39
 70
     1
102
RTVSPost2010Prop40
 90
        0
102
RTVSPost2010PropOp40
 70
     1
102
RTVSPost2010Prop41ColorIndex
 90
       18
102
RTVSPost2010Prop41ColorRGB
 90
        0
102
RTVSPost2010PropOp41
 70
     1
102
RTVSPost2010Prop42
 90
       50
102
RTVSPost2010PropOp42
 70
     1
102
RTVSPost2010Prop43
 90
        3
102
RTVSPost2010PropOp43
 70
     1
102
RTVSPost2010Prop44ColorIndex
 90
        5
102
RTVSPost2010Prop44ColorRGB
 90
      255
102
RTVSPost2010PropOp44
 70
     1
102
RTVSPost2010Prop45
280
     0
102
RTVSPost2010PropOp45
 70
     1
102
RTVSPost2010Prop46
 90
       50
102
RTVSPost2010PropOp46
 70
     1
102
RTVSPost2010Prop47
 90
       50
102
RTVSPost2010PropOp47
 70
     1
102
RTVSPost2010Prop48
 90
       50
102
RTVSPost2010PropOp48
 70
     1
102
RTVSPost2010Prop49
280
     0
102
RTVSPost2010PropOp49
 70
     1
102
RTVSPost2010Prop50
 90
       50
102
RTVSPost2010PropOp50
 70
     1
102
RTVSPost2010Prop51ColorIndex
 90
      256
102
RTVSPost2010Prop51ColorRGB
 90
-16777216
102
RTVSPost2010PropOp51
 70
     0
102
RTVSPost2010Prop52
140
1.0
102
RTVSPost2010PropOp52
 70
     0
102
RTVSPost2010Prop53
 90
        2
102
RTVSPost2010PropOp53
 70
     1
102
RTVSPost2010Prop54
  1
strokes_ogs.tif
102
RTVSPost2010PropOp54
 70
     1
102
RTVSPost2010Prop55
280
     0
102
RTVSPost2010PropOp55
 70
     1
102
RTVSPost2010Prop56
140
1.0
102
RTVSPost2010PropOp56
 70
     1
102
RTVSPost2010Prop57
140
1.0
102
RTVSPost2010PropOp57
 70
     1
  0
XRECORD
  5
418
102
{ACAD_REACTORS
330
417
102
}
330
417
100
AcDbXrecord
280
     1
102
RTVSPropertyOp0
 70
     1
102
RTVSPropertyOp1
 70
     1
102
RTVSPropertyOp2
 70
     1
102
RTVSPropertyOp3
 70
     1
102
RTVSPropertyOp4
 70
     1
102
RTVSPropertyOp5
 70
     1
102
RTVSPropertyOp6
 70
     1
102
RTVSPropertyOp7
 70
     1
102
RTVSPropertyOp8
 70
     1
102
RTVSPropertyOp9
 70
     1
102
RTVSPropertyOp10
 70
     1
102
RTVSPropertyOp11
 70
     1
102
RTVSPropertyOp12
 70
     1
102
RTVSPropertyOp13
 70
     1
102
RTVSPropertyOp14
 70
     1
102
RTVSPropertyOp15
 70
     1
102
RTVSPropertyOp16
 70
     1
102
RTVSPropertyOp17
 70
     1
102
RTVSPropertyOp18
 70
     1
102
RTVSPropertyOp19
 70
     1
102
RTVSPropertyOp20
 70
     1
102
RTVSPropertyOp21
 70
     1
102
RTVSPropertyOp22
 70
     1
102
RTVSPropertyOp23
 70
     1
102
RTVSPropertyOp24
 70
     1
102
RTVSPropertyOp25
 70
     1
102
RTVSPropertyOp26
 70
     1
102
RTVSPropertyOp27
 70
     1
102
RTVSPropertyOp28
 70
     1
102
RTVSPropertyOp29
 70
     1
102
RTVSPropertyOp30
 70
     1
102
RTVSPropertyOp31
 70
     1
102
RTVSPropertyOp32
 70
     1
102
RTVSPropertyOp33
 70
     1
102
RTVSPropertyOp34
 70
     1
102
RTVSPropertyOp35
 70
     1
102
RTVSPropertyOp36
 70
     1
102
RTVSPropertyOp37
 70
     1
102
RTVSPropertyOp38
 70
     1
102
RTVSPropertyOp39
 70
     1
102
RTVSPropertyOp40
 70
     1
102
RTVSPropertyOp41
 70
     1
102
RTVSPropertyOp42
 70
     1
102
RTVSPropertyOp43
 70
     1
102
RTVSPropertyOp44
 70
     1
102
RTVSPropertyOp45
 70
     1
102
RTVSPropertyOp46
 70
     1
102
RTVSPropertyOp47
 70
     1
102
RTVSPropertyOp48
 70
     1
102
RTVSPropertyOp49
 70
     1
102
RTVSPropertyOp50
 70
     1
102
RTVSPropertyOp51
 70
     0
102
RTVSPropertyOp52
 70
     0
102
RTVSPropertyOp53
 70
     1
102
RTVSPropertyOp54
 70
     1
102
RTVSPropertyOp55
 70
     1
102
RTVSPropertyOp56
 70
     1
102
RTVSPropertyOp57
 70
     1
102
RTVSPost2010Prop28
280
     0
102
RTVSPost2010PropOp28
 70
     1
102
RTVSPost2010Prop29
280
     1
102
RTVSPost2010PropOp29
 70
     1
102
RTVSPost2010Prop30
280
     1
102
RTVSPost2010PropOp30
 70
     1
102
RTVSPost2010Prop31
280
     0
102
RTVSPost2010PropOp31
 70
     1
102
RTVSPost2010Prop32
280
     0
102
RTVSPost2010PropOp32
 70
     1
102
RTVSPost2010Prop33
280
     0
102
RTVSPost2010PropOp33
 70
     1
102
RTVSPost2010Prop34
280
     0
102
RTVSPost2010PropOp34
 70
     1
102
RTVSPost2010Prop35
280
     0
102
RTVSPost2010PropOp35
 70
     1
102
RTVSPost2010Prop36
280
     0
102
RTVSPost2010PropOp36
 70
     1
102
RTVSPost2010Prop37
 90
       50
102
RTVSPost2010PropOp37
 70
     1
102
RTVSPost2010Prop38
140
0.0
102
RTVSPost2010PropOp38
 70
     1
102
RTVSPost2010Prop39
140
1.0
102
RTVSPost2010PropOp39
 70
     1
102
RTVSPost2010Prop40
 90
        0
102
RTVSPost2010PropOp40
 70
     1
102
RTVSPost2010Prop41ColorIndex
 90
       18
102
RTVSPost2010Prop41ColorRGB
 90
        0
102
RTVSPost2010PropOp41
 70
     1
102
RTVSPost2010Prop42
 90
       50
102
RTVSPost2010PropOp42
 70
     1
102
RTVSPost2010Prop43
 90
        3
102
RTVSPost2010PropOp43
 70
     1
102
RTVSPost2010Prop44ColorIndex
 90
        5
102
RTVSPost2010Prop44ColorRGB
 90
      255
102
RTVSPost2010PropOp44
 70
     1
102
RTVSPost2010Prop45
280
     0
102
RTVSPost2010PropOp45
 70
     1
102
RTVSPost2010Prop46
 90
       50
102
RTVSPost2010PropOp46
 70
     1
102
RTVSPost2010Prop47
 90
       50
102
RTVSPost2010PropOp47
 70
     1
102
RTVSPost2010Prop48
 90
       50
102
RTVSPost2010PropOp48
 70
     1
102
RTVSPost2010Prop49
280
     0
102
RTVSPost2010PropOp49
 70
     1
102
RTVSPost2010Prop50
 90
       50
102
RTVSPost2010PropOp50
 70
     1
102
RTVSPost2010Prop51ColorIndex
 90
      256
102
RTVSPost2010Prop51ColorRGB
 90
-16777216
102
RTVSPost2010PropOp51
 70
     0
102
RTVSPost2010Prop52
140
1.0
102
RTVSPost2010PropOp52
 70
     0
102
RTVSPost2010Prop53
 90
        2
102
RTVSPost2010PropOp53
 70
     1
102
RTVSPost2010Prop54
  1
strokes_ogs.tif
102
RTVSPost2010PropOp54
 70
     1
102
RTVSPost2010Prop55
280
     0
102
RTVSPost2010PropOp55
 70
     1
102
RTVSPost2010Prop56
140
1.0
102
RTVSPost2010PropOp56
 70
     1
102
RTVSPost2010Prop57
140
1.0
102
RTVSPost2010PropOp57
 70
     1
  0
XRECORD
  5
41A
102
{ACAD_REACTORS
330
419
102
}
330
419
100
AcDbXrecord
280
     1
102
RTVSPropertyOp0
 70
     1
102
RTVSPropertyOp1
 70
     1
102
RTVSPropertyOp2
 70
     1
102
RTVSPropertyOp3
 70
     1
102
RTVSPropertyOp4
 70
     1
102
RTVSPropertyOp5
 70
     1
102
RTVSPropertyOp6
 70
     1
102
RTVSPropertyOp7
 70
     1
102
RTVSPropertyOp8
 70
     1
102
RTVSPropertyOp9
 70
     1
102
RTVSPropertyOp10
 70
     1
102
RTVSPropertyOp11
 70
     1
102
RTVSPropertyOp12
 70
     1
102
RTVSPropertyOp13
 70
     1
102
RTVSPropertyOp14
 70
     1
102
RTVSPropertyOp15
 70
     1
102
RTVSPropertyOp16
 70
     1
102
RTVSPropertyOp17
 70
     1
102
RTVSPropertyOp18
 70
     1
102
RTVSPropertyOp19
 70
     1
102
RTVSPropertyOp20
 70
     1
102
RTVSPropertyOp21
 70
     1
102
RTVSPropertyOp22
 70
     1
102
RTVSPropertyOp23
 70
     1
102
RTVSPropertyOp24
 70
     1
102
RTVSPropertyOp25
 70
     1
102
RTVSPropertyOp26
 70
     1
102
RTVSPropertyOp27
 70
     1
102
RTVSPropertyOp28
 70
     1
102
RTVSPropertyOp29
 70
     1
102
RTVSPropertyOp30
 70
     1
102
RTVSPropertyOp31
 70
     1
102
RTVSPropertyOp32
 70
     1
102
RTVSPropertyOp33
 70
     1
102
RTVSPropertyOp34
 70
     1
102
RTVSPropertyOp35
 70
     1
102
RTVSPropertyOp36
 70
     1
102
RTVSPropertyOp37
 70
     1
102
RTVSPropertyOp38
 70
     1
102
RTVSPropertyOp39
 70
     1
102
RTVSPropertyOp40
 70
     1
102
RTVSPropertyOp41
 70
     1
102
RTVSPropertyOp42
 70
     1
102
RTVSPropertyOp43
 70
     1
102
RTVSPropertyOp44
 70
     1
102
RTVSPropertyOp45
 70
     1
102
RTVSPropertyOp46
 70
     1
102
RTVSPropertyOp47
 70
     1
102
RTVSPropertyOp48
 70
     1
102
RTVSPropertyOp49
 70
     1
102
RTVSPropertyOp50
 70
     1
102
RTVSPropertyOp51
 70
     0
102
RTVSPropertyOp52
 70
     0
102
RTVSPropertyOp53
 70
     1
102
RTVSPropertyOp54
 70
     1
102
RTVSPropertyOp55
 70
     1
102
RTVSPropertyOp56
 70
     1
102
RTVSPropertyOp57
 70
     1
102
RTVSPost2010Prop28
280
     0
102
RTVSPost2010PropOp28
 70
     1
102
RTVSPost2010Prop29
280
     1
102
RTVSPost2010PropOp29
 70
     1
102
RTVSPost2010Prop30
280
     1
102
RTVSPost2010PropOp30
 70
     1
102
RTVSPost2010Prop31
280
     0
102
RTVSPost2010PropOp31
 70
     1
102
RTVSPost2010Prop32
280
     0
102
RTVSPost2010PropOp32
 70
     1
102
RTVSPost2010Prop33
280
     0
102
RTVSPost2010PropOp33
 70
     1
102
RTVSPost2010Prop34
280
     0
102
RTVSPost2010PropOp34
 70
     1
102
RTVSPost2010Prop35
280
     0
102
RTVSPost2010PropOp35
 70
     1
102
RTVSPost2010Prop36
280
     0
102
RTVSPost2010PropOp36
 70
     1
102
RTVSPost2010Prop37
 90
       50
102
RTVSPost2010PropOp37
 70
     1
102
RTVSPost2010Prop38
140
0.0
102
RTVSPost2010PropOp38
 70
     1
102
RTVSPost2010Prop39
140
1.0
102
RTVSPost2010PropOp39
 70
     1
102
RTVSPost2010Prop40
 90
        0
102
RTVSPost2010PropOp40
 70
     1
102
RTVSPost2010Prop41ColorIndex
 90
       18
102
RTVSPost2010Prop41ColorRGB
 90
        0
102
RTVSPost2010PropOp41
 70
     1
102
RTVSPost2010Prop42
 90
       50
102
RTVSPost2010PropOp42
 70
     1
102
RTVSPost2010Prop43
 90
        3
102
RTVSPost2010PropOp43
 70
     1
102
RTVSPost2010Prop44ColorIndex
 90
        5
102
RTVSPost2010Prop44ColorRGB
 90
      255
102
RTVSPost2010PropOp44
 70
     1
102
RTVSPost2010Prop45
280
     0
102
RTVSPost2010PropOp45
 70
     1
102
RTVSPost2010Prop46
 90
       50
102
RTVSPost2010PropOp46
 70
     1
102
RTVSPost2010Prop47
 90
       50
102
RTVSPost2010PropOp47
 70
     1
102
RTVSPost2010Prop48
 90
       50
102
RTVSPost2010PropOp48
 70
     1
102
RTVSPost2010Prop49
280
     0
102
RTVSPost2010PropOp49
 70
     1
102
RTVSPost2010Prop50
 90
       50
102
RTVSPost2010PropOp50
 70
     1
102
RTVSPost2010Prop51ColorIndex
 90
      256
102
RTVSPost2010Prop51ColorRGB
 90
-16777216
102
RTVSPost2010PropOp51
 70
     0
102
RTVSPost2010Prop52
140
1.0
102
RTVSPost2010PropOp52
 70
     0
102
RTVSPost2010Prop53
 90
        2
102
RTVSPost2010PropOp53
 70
     1
102
RTVSPost2010Prop54
  1
strokes_ogs.tif
102
RTVSPost2010PropOp54
 70
     1
102
RTVSPost2010Prop55
280
     0
102
RTVSPost2010PropOp55
 70
     1
102
RTVSPost2010Prop56
140
1.0
102
RTVSPost2010PropOp56
 70
     1
102
RTVSPost2010Prop57
140
1.0
102
RTVSPost2010PropOp57
 70
     1
  0
XRECORD
  5
40A
102
{ACAD_REACTORS
330
409
102
}
330
409
100
AcDbXrecord
280
     1
102
RTVSPropertyOp0
 70
     1
102
RTVSPropertyOp1
 70
     1
102
RTVSPropertyOp2
 70
     1
102
RTVSPropertyOp3
 70
     1
102
RTVSPropertyOp4
 70
     1
102
RTVSPropertyOp5
 70
     1
102
RTVSPropertyOp6
 70
     1
102
RTVSPropertyOp7
 70
     1
102
RTVSPropertyOp8
 70
     1
102
RTVSPropertyOp9
 70
     1
102
RTVSPropertyOp10
 70
     1
102
RTVSPropertyOp11
 70
     1
102
RTVSPropertyOp12
 70
     1
102
RTVSPropertyOp13
 70
     1
102
RTVSPropertyOp14
 70
     1
102
RTVSPropertyOp15
 70
     1
102
RTVSPropertyOp16
 70
     1
102
RTVSPropertyOp17
 70
     1
102
RTVSPropertyOp18
 70
     1
102
RTVSPropertyOp19
 70
     1
102
RTVSPropertyOp20
 70
     1
102
RTVSPropertyOp21
 70
     1
102
RTVSPropertyOp22
 70
     1
102
RTVSPropertyOp23
 70
     1
102
RTVSPropertyOp24
 70
     1
102
RTVSPropertyOp25
 70
     1
102
RTVSPropertyOp26
 70
     1
102
RTVSPropertyOp27
 70
     1
102
RTVSPropertyOp28
 70
     1
102
RTVSPropertyOp29
 70
     1
102
RTVSPropertyOp30
 70
     1
102
RTVSPropertyOp31
 70
     1
102
RTVSPropertyOp32
 70
     1
102
RTVSPropertyOp33
 70
     1
102
RTVSPropertyOp34
 70
     1
102
RTVSPropertyOp35
 70
     1
102
RTVSPropertyOp36
 70
     1
102
RTVSPropertyOp37
 70
     1
102
RTVSPropertyOp38
 70
     1
102
RTVSPropertyOp39
 70
     1
102
RTVSPropertyOp40
 70
     1
102
RTVSPropertyOp41
 70
     1
102
RTVSPropertyOp42
 70
     1
102
RTVSPropertyOp43
 70
     1
102
RTVSPropertyOp44
 70
     1
102
RTVSPropertyOp45
 70
     1
102
RTVSPropertyOp46
 70
     1
102
RTVSPropertyOp47
 70
     1
102
RTVSPropertyOp48
 70
     1
102
RTVSPropertyOp49
 70
     1
102
RTVSPropertyOp50
 70
     1
102
RTVSPropertyOp51
 70
     0
102
RTVSPropertyOp52
 70
     0
102
RTVSPropertyOp53
 70
     1
102
RTVSPropertyOp54
 70
     1
102
RTVSPropertyOp55
 70
     1
102
RTVSPropertyOp56
 70
     1
102
RTVSPropertyOp57
 70
     1
102
RTVSPost2010Prop28
280
     0
102
RTVSPost2010PropOp28
 70
     1
102
RTVSPost2010Prop29
280
     1
102
RTVSPost2010PropOp29
 70
     1
102
RTVSPost2010Prop30
280
     1
102
RTVSPost2010PropOp30
 70
     1
102
RTVSPost2010Prop31
280
     0
102
RTVSPost2010PropOp31
 70
     1
102
RTVSPost2010Prop32
280
     0
102
RTVSPost2010PropOp32
 70
     1
102
RTVSPost2010Prop33
280
     0
102
RTVSPost2010PropOp33
 70
     1
102
RTVSPost2010Prop34
280
     0
102
RTVSPost2010PropOp34
 70
     1
102
RTVSPost2010Prop35
280
     0
102
RTVSPost2010PropOp35
 70
     1
102
RTVSPost2010Prop36
280
     0
102
RTVSPost2010PropOp36
 70
     1
102
RTVSPost2010Prop37
 90
       50
102
RTVSPost2010PropOp37
 70
     1
102
RTVSPost2010Prop38
140
0.0
102
RTVSPost2010PropOp38
 70
     1
102
RTVSPost2010Prop39
140
1.0
102
RTVSPost2010PropOp39
 70
     1
102
RTVSPost2010Prop40
 90
        0
102
RTVSPost2010PropOp40
 70
     1
102
RTVSPost2010Prop41ColorIndex
 90
       18
102
RTVSPost2010Prop41ColorRGB
 90
        0
102
RTVSPost2010PropOp41
 70
     1
102
RTVSPost2010Prop42
 90
       50
102
RTVSPost2010PropOp42
 70
     1
102
RTVSPost2010Prop43
 90
        3
102
RTVSPost2010PropOp43
 70
     1
102
RTVSPost2010Prop44ColorIndex
 90
        5
102
RTVSPost2010Prop44ColorRGB
 90
      255
102
RTVSPost2010PropOp44
 70
     1
102
RTVSPost2010Prop45
280
     0
102
RTVSPost2010PropOp45
 70
     1
102
RTVSPost2010Prop46
 90
       50
102
RTVSPost2010PropOp46
 70
     1
102
RTVSPost2010Prop47
 90
       50
102
RTVSPost2010PropOp47
 70
     1
102
RTVSPost2010Prop48
 90
       50
102
RTVSPost2010PropOp48
 70
     1
102
RTVSPost2010Prop49
280
     0
102
RTVSPost2010PropOp49
 70
     1
102
RTVSPost2010Prop50
 90
       50
102
RTVSPost2010PropOp50
 70
     1
102
RTVSPost2010Prop51ColorIndex
 90
      256
102
RTVSPost2010Prop51ColorRGB
 90
-16777216
102
RTVSPost2010PropOp51
 70
     0
102
RTVSPost2010Prop52
140
1.0
102
RTVSPost2010PropOp52
 70
     0
102
RTVSPost2010Prop53
 90
        2
102
RTVSPost2010PropOp53
 70
     1
102
RTVSPost2010Prop54
  1
strokes_ogs.tif
102
RTVSPost2010PropOp54
 70
     1
102
RTVSPost2010Prop55
280
     0
102
RTVSPost2010PropOp55
 70
     1
102
RTVSPost2010Prop56
140
1.0
102
RTVSPost2010PropOp56
 70
     1
102
RTVSPost2010Prop57
140
1.0
102
RTVSPost2010PropOp57
 70
     1
  0
XRECORD
  5
3FC
102
{ACAD_REACTORS
330
3FB
102
}
330
3FB
100
AcDbXrecord
280
     1
102
RTVSPropertyOp0
 70
     1
102
RTVSPropertyOp1
 70
     1
102
RTVSPropertyOp2
 70
     1
102
RTVSPropertyOp3
 70
     1
102
RTVSPropertyOp4
 70
     1
102
RTVSPropertyOp5
 70
     1
102
RTVSPropertyOp6
 70
     1
102
RTVSPropertyOp7
 70
     1
102
RTVSPropertyOp8
 70
     1
102
RTVSPropertyOp9
 70
     1
102
RTVSPropertyOp10
 70
     1
102
RTVSPropertyOp11
 70
     1
102
RTVSPropertyOp12
 70
     1
102
RTVSPropertyOp13
 70
     1
102
RTVSPropertyOp14
 70
     1
102
RTVSPropertyOp15
 70
     1
102
RTVSPropertyOp16
 70
     1
102
RTVSPropertyOp17
 70
     1
102
RTVSPropertyOp18
 70
     1
102
RTVSPropertyOp19
 70
     1
102
RTVSPropertyOp20
 70
     1
102
RTVSPropertyOp21
 70
     1
102
RTVSPropertyOp22
 70
     1
102
RTVSPropertyOp23
 70
     1
102
RTVSPropertyOp24
 70
     1
102
RTVSPropertyOp25
 70
     1
102
RTVSPropertyOp26
 70
     1
102
RTVSPropertyOp27
 70
     1
102
RTVSPropertyOp28
 70
     1
102
RTVSPropertyOp29
 70
     1
102
RTVSPropertyOp30
 70
     1
102
RTVSPropertyOp31
 70
     1
102
RTVSPropertyOp32
 70
     1
102
RTVSPropertyOp33
 70
     1
102
RTVSPropertyOp34
 70
     1
102
RTVSPropertyOp35
 70
     1
102
RTVSPropertyOp36
 70
     1
102
RTVSPropertyOp37
 70
     1
102
RTVSPropertyOp38
 70
     1
102
RTVSPropertyOp39
 70
     1
102
RTVSPropertyOp40
 70
     1
102
RTVSPropertyOp41
 70
     1
102
RTVSPropertyOp42
 70
     1
102
RTVSPropertyOp43
 70
     1
102
RTVSPropertyOp44
 70
     1
102
RTVSPropertyOp45
 70
     1
102
RTVSPropertyOp46
 70
     1
102
RTVSPropertyOp47
 70
     1
102
RTVSPropertyOp48
 70
     1
102
RTVSPropertyOp49
 70
     1
102
RTVSPropertyOp50
 70
     1
102
RTVSPropertyOp51
 70
     0
102
RTVSPropertyOp52
 70
     0
102
RTVSPropertyOp53
 70
     1
102
RTVSPropertyOp54
 70
     1
102
RTVSPropertyOp55
 70
     1
102
RTVSPropertyOp56
 70
     1
102
RTVSPropertyOp57
 70
     1
102
RTVSPost2010Prop28
280
     0
102
RTVSPost2010PropOp28
 70
     1
102
RTVSPost2010Prop29
280
     1
102
RTVSPost2010PropOp29
 70
     1
102
RTVSPost2010Prop30
280
     1
102
RTVSPost2010PropOp30
 70
     1
102
RTVSPost2010Prop31
280
     0
102
RTVSPost2010PropOp31
 70
     1
102
RTVSPost2010Prop32
280
     0
102
RTVSPost2010PropOp32
 70
     1
102
RTVSPost2010Prop33
280
     0
102
RTVSPost2010PropOp33
 70
     1
102
RTVSPost2010Prop34
280
     0
102
RTVSPost2010PropOp34
 70
     1
102
RTVSPost2010Prop35
280
     0
102
RTVSPost2010PropOp35
 70
     1
102
RTVSPost2010Prop36
280
     0
102
RTVSPost2010PropOp36
 70
     1
102
RTVSPost2010Prop37
 90
       50
102
RTVSPost2010PropOp37
 70
     1
102
RTVSPost2010Prop38
140
0.0
102
RTVSPost2010PropOp38
 70
     1
102
RTVSPost2010Prop39
140
1.0
102
RTVSPost2010PropOp39
 70
     1
102
RTVSPost2010Prop40
 90
        0
102
RTVSPost2010PropOp40
 70
     1
102
RTVSPost2010Prop41ColorIndex
 90
       18
102
RTVSPost2010Prop41ColorRGB
 90
        0
102
RTVSPost2010PropOp41
 70
     1
102
RTVSPost2010Prop42
 90
       50
102
RTVSPost2010PropOp42
 70
     1
102
RTVSPost2010Prop43
 90
        3
102
RTVSPost2010PropOp43
 70
     1
102
RTVSPost2010Prop44ColorIndex
 90
        5
102
RTVSPost2010Prop44ColorRGB
 90
      255
102
RTVSPost2010PropOp44
 70
     1
102
RTVSPost2010Prop45
280
     0
102
RTVSPost2010PropOp45
 70
     1
102
RTVSPost2010Prop46
 90
       50
102
RTVSPost2010PropOp46
 70
     1
102
RTVSPost2010Prop47
 90
       50
102
RTVSPost2010PropOp47
 70
     1
102
RTVSPost2010Prop48
 90
       50
102
RTVSPost2010PropOp48
 70
     1
102
RTVSPost2010Prop49
280
     0
102
RTVSPost2010PropOp49
 70
     1
102
RTVSPost2010Prop50
 90
       50
102
RTVSPost2010PropOp50
 70
     1
102
RTVSPost2010Prop51ColorIndex
 90
      256
102
RTVSPost2010Prop51ColorRGB
 90
-16777216
102
RTVSPost2010PropOp51
 70
     0
102
RTVSPost2010Prop52
140
1.0
102
RTVSPost2010PropOp52
 70
     0
102
RTVSPost2010Prop53
 90
        2
102
RTVSPost2010PropOp53
 70
     1
102
RTVSPost2010Prop54
  1
strokes_ogs.tif
102
RTVSPost2010PropOp54
 70
     1
102
RTVSPost2010Prop55
280
     0
102
RTVSPost2010PropOp55
 70
     1
102
RTVSPost2010Prop56
140
1.0
102
RTVSPost2010PropOp56
 70
     1
102
RTVSPost2010Prop57
140
1.0
102
RTVSPost2010PropOp57
 70
     1
  0
XRECORD
  5
41C
102
{ACAD_REACTORS
330
41B
102
}
330
41B
100
AcDbXrecord
280
     1
102
RTVSPropertyOp0
 70
     1
102
RTVSPropertyOp1
 70
     1
102
RTVSPropertyOp2
 70
     1
102
RTVSPropertyOp3
 70
     1
102
RTVSPropertyOp4
 70
     1
102
RTVSPropertyOp5
 70
     1
102
RTVSPropertyOp6
 70
     1
102
RTVSPropertyOp7
 70
     1
102
RTVSPropertyOp8
 70
     1
102
RTVSPropertyOp9
 70
     1
102
RTVSPropertyOp10
 70
     1
102
RTVSPropertyOp11
 70
     1
102
RTVSPropertyOp12
 70
     1
102
RTVSPropertyOp13
 70
     1
102
RTVSPropertyOp14
 70
     1
102
RTVSPropertyOp15
 70
     1
102
RTVSPropertyOp16
 70
     1
102
RTVSPropertyOp17
 70
     1
102
RTVSPropertyOp18
 70
     1
102
RTVSPropertyOp19
 70
     1
102
RTVSPropertyOp20
 70
     1
102
RTVSPropertyOp21
 70
     1
102
RTVSPropertyOp22
 70
     1
102
RTVSPropertyOp23
 70
     1
102
RTVSPropertyOp24
 70
     1
102
RTVSPropertyOp25
 70
     1
102
RTVSPropertyOp26
 70
     1
102
RTVSPropertyOp27
 70
     1
102
RTVSPropertyOp28
 70
     1
102
RTVSPropertyOp29
 70
     1
102
RTVSPropertyOp30
 70
     1
102
RTVSPropertyOp31
 70
     1
102
RTVSPropertyOp32
 70
     1
102
RTVSPropertyOp33
 70
     1
102
RTVSPropertyOp34
 70
     1
102
RTVSPropertyOp35
 70
     1
102
RTVSPropertyOp36
 70
     1
102
RTVSPropertyOp37
 70
     1
102
RTVSPropertyOp38
 70
     1
102
RTVSPropertyOp39
 70
     1
102
RTVSPropertyOp40
 70
     1
102
RTVSPropertyOp41
 70
     1
102
RTVSPropertyOp42
 70
     1
102
RTVSPropertyOp43
 70
     1
102
RTVSPropertyOp44
 70
     1
102
RTVSPropertyOp45
 70
     1
102
RTVSPropertyOp46
 70
     1
102
RTVSPropertyOp47
 70
     1
102
RTVSPropertyOp48
 70
     1
102
RTVSPropertyOp49
 70
     1
102
RTVSPropertyOp50
 70
     1
102
RTVSPropertyOp51
 70
     0
102
RTVSPropertyOp52
 70
     0
102
RTVSPropertyOp53
 70
     1
102
RTVSPropertyOp54
 70
     1
102
RTVSPropertyOp55
 70
     1
102
RTVSPropertyOp56
 70
     1
102
RTVSPropertyOp57
 70
     1
102
RTVSPost2010Prop28
280
     0
102
RTVSPost2010PropOp28
 70
     1
102
RTVSPost2010Prop29
280
     1
102
RTVSPost2010PropOp29
 70
     1
102
RTVSPost2010Prop30
280
     1
102
RTVSPost2010PropOp30
 70
     1
102
RTVSPost2010Prop31
280
     0
102
RTVSPost2010PropOp31
 70
     1
102
RTVSPost2010Prop32
280
     0
102
RTVSPost2010PropOp32
 70
     1
102
RTVSPost2010Prop33
280
     0
102
RTVSPost2010PropOp33
 70
     1
102
RTVSPost2010Prop34
280
     0
102
RTVSPost2010PropOp34
 70
     1
102
RTVSPost2010Prop35
280
     0
102
RTVSPost2010PropOp35
 70
     1
102
RTVSPost2010Prop36
280
     0
102
RTVSPost2010PropOp36
 70
     1
102
RTVSPost2010Prop37
 90
       50
102
RTVSPost2010PropOp37
 70
     1
102
RTVSPost2010Prop38
140
0.0
102
RTVSPost2010PropOp38
 70
     1
102
RTVSPost2010Prop39
140
1.0
102
RTVSPost2010PropOp39
 70
     1
102
RTVSPost2010Prop40
 90
        0
102
RTVSPost2010PropOp40
 70
     1
102
RTVSPost2010Prop41ColorIndex
 90
       18
102
RTVSPost2010Prop41ColorRGB
 90
        0
102
RTVSPost2010PropOp41
 70
     1
102
RTVSPost2010Prop42
 90
       50
102
RTVSPost2010PropOp42
 70
     1
102
RTVSPost2010Prop43
 90
        3
102
RTVSPost2010PropOp43
 70
     1
102
RTVSPost2010Prop44ColorIndex
 90
        5
102
RTVSPost2010Prop44ColorRGB
 90
      255
102
RTVSPost2010PropOp44
 70
     1
102
RTVSPost2010Prop45
280
     0
102
RTVSPost2010PropOp45
 70
     1
102
RTVSPost2010Prop46
 90
       50
102
RTVSPost2010PropOp46
 70
     1
102
RTVSPost2010Prop47
 90
       50
102
RTVSPost2010PropOp47
 70
     1
102
RTVSPost2010Prop48
 90
       50
102
RTVSPost2010PropOp48
 70
     1
102
RTVSPost2010Prop49
280
     0
102
RTVSPost2010PropOp49
 70
     1
102
RTVSPost2010Prop50
 90
       50
102
RTVSPost2010PropOp50
 70
     1
102
RTVSPost2010Prop51ColorIndex
 90
      256
102
RTVSPost2010Prop51ColorRGB
 90
-16777216
102
RTVSPost2010PropOp51
 70
     0
102
RTVSPost2010Prop52
140
1.0
102
RTVSPost2010PropOp52
 70
     0
102
RTVSPost2010Prop53
 90
        2
102
RTVSPost2010PropOp53
 70
     1
102
RTVSPost2010Prop54
  1
strokes_ogs.tif
102
RTVSPost2010PropOp54
 70
     1
102
RTVSPost2010Prop55
280
     0
102
RTVSPost2010PropOp55
 70
     1
102
RTVSPost2010Prop56
140
1.0
102
RTVSPost2010PropOp56
 70
     1
102
RTVSPost2010Prop57
140
1.0
102
RTVSPost2010PropOp57
 70
     1
  0
ENDSEC
  0
EOF
