  0
SECTION
  2
HEADER
  9
$ACADVER
  1
AC1015
  9
$ACADMAINTVER
 70
     6
  9
$DWGCODEPAGE
  3
DOS932
  9
$INSBASE
 10
0.0
 20
0.0
 30
0.0
  9
$EXTMIN
 10
1240.09548385845
 20
-190.2933379991028
 30
0.0
  9
$EXTMAX
 10
2816.09548385845
 20
890.73127528472
 30
0.0
  9
$LIMMIN
 10
0.0
 20
0.0
  9
$LIMMAX
 10
12.0
 20
9.0
  9
$ORTHOMODE
 70
     0
  9
$REGENMODE
 70
     1
  9
$FILLMODE
 70
     1
  9
$QTEXTMODE
 70
     0
  9
$MIRRTEXT
 70
     1
  9
$LTSCALE
 40
1.0
  9
$ATTMODE
 70
     1
  9
$TEXTSIZE
 40
0.2
  9
$TRACEWID
 40
0.05
  9
$TEXTSTYLE
  7
Standard
  9
$CLAYER
  8
0
  9
$CELTYPE
  6
ByLayer
  9
$CECOLOR
 62
   256
  9
$CELTSCALE
 40
1.0
  9
$DISPSILH
 70
     0
  9
$DIMSCALE
 40
1.0
  9
$DIMASZ
 40
0.18
  9
$DIMEXO
 40
0.0625
  9
$DIMDLI
 40
0.38
  9
$DIMRND
 40
0.0
  9
$DIMDLE
 40
0.0
  9
$DIMEXE
 40
0.18
  9
$DIMTP
 40
0.0
  9
$DIMTM
 40
0.0
  9
$DIMTXT
 40
0.18
  9
$DIMCEN
 40
0.09
  9
$DIMTSZ
 40
0.0
  9
$DIMTOL
 70
     0
  9
$DIMLIM
 70
     0
  9
$DIMTIH
 70
     1
  9
$DIMTOH
 70
     1
  9
$DIMSE1
 70
     0
  9
$DIMSE2
 70
     0
  9
$DIMTAD
 70
     0
  9
$DIMZIN
 70
     0
  9
$DIMBLK
  1

  9
$DIMASO
 70
     1
  9
$DIMSHO
 70
     1
  9
$DIMPOST
  1

  9
$DIMAPOST
  1

  9
$DIMALT
 70
     0
  9
$DIMALTD
 70
     2
  9
$DIMALTF
 40
25.4
  9
$DIMLFAC
 40
1.0
  9
$DIMTOFL
 70
     0
  9
$DIMTVP
 40
0.0
  9
$DIMTIX
 70
     0
  9
$DIMSOXD
 70
     0
  9
$DIMSAH
 70
     0
  9
$DIMBLK1
  1

  9
$DIMBLK2
  1

  9
$DIMSTYLE
  2
Standard
  9
$DIMCLRD
 70
     0
  9
$DIMCLRE
 70
     0
  9
$DIMCLRT
 70
     0
  9
$DIMTFAC
 40
1.0
  9
$DIMGAP
 40
0.09
  9
$DIMJUST
 70
     0
  9
$DIMSD1
 70
     0
  9
$DIMSD2
 70
     0
  9
$DIMTOLJ
 70
     1
  9
$DIMTZIN
 70
     0
  9
$DIMALTZ
 70
     0
  9
$DIMALTTZ
 70
     0
  9
$DIMUPT
 70
     0
  9
$DIMDEC
 70
     4
  9
$DIMTDEC
 70
     4
  9
$DIMALTU
 70
     2
  9
$DIMALTTD
 70
     2
  9
$DIMTXSTY
  7
Standard
  9
$DIMAUNIT
 70
     0
  9
$DIMADEC
 70
     0
  9
$DIMALTRND
 40
0.0
  9
$DIMAZIN
 70
     0
  9
$DIMDSEP
 70
    46
  9
$DIMATFIT
 70
     3
  9
$DIMFRAC
 70
     0
  9
$DIMLDRBLK
  1

  9
$DIMLUNIT
 70
     2
  9
$DIMLWD
 70
    -2
  9
$DIMLWE
 70
    -2
  9
$DIMTMOVE
 70
     0
  9
$LUNITS
 70
     2
  9
$LUPREC
 70
     4
  9
$SKETCHINC
 40
0.1
  9
$FILLETRAD
 40
0.5
  9
$AUNITS
 70
     0
  9
$AUPREC
 70
     0
  9
$MENU
  1
.
  9
$ELEVATION
 40
0.0
  9
$PELEVATION
 40
0.0
  9
$THICKNESS
 40
0.0
  9
$LIMCHECK
 70
     0
  9
$CHAMFERA
 40
0.5
  9
$CHAMFERB
 40
0.5
  9
$CHAMFERC
 40
1.0
  9
$CHAMFERD
 40
0.0
  9
$SKPOLY
 70
     0
  9
$TDCREATE
 40
2455806.621460637
  9
$TDUCREATE
 40
2455806.246460637
  9
$TDUPDATE
 40
2455806.621460648
  9
$TDUUPDATE
 40
2455806.246460648
  9
$TDINDWG
 40
0.0000000116
  9
$TDUSRTIMER
 40
0.0000000116
  9
$USRTIMER
 70
     1
  9
$ANGBASE
 50
0.0
  9
$ANGDIR
 70
     0
  9
$PDMODE
 70
     0
  9
$PDSIZE
 40
0.0
  9
$PLINEWID
 40
0.0
  9
$SPLFRAME
 70
     0
  9
$SPLINETYPE
 70
     6
  9
$SPLINESEGS
 70
     8
  9
$HANDSEED
  5
267
  9
$SURFTAB1
 70
     6
  9
$SURFTAB2
 70
     6
  9
$SURFTYPE
 70
     6
  9
$SURFU
 70
     6
  9
$SURFV
 70
     6
  9
$UCSBASE
  2

  9
$UCSNAME
  2

  9
$UCSORG
 10
0.0
 20
0.0
 30
0.0
  9
$UCSXDIR
 10
1.0
 20
0.0
 30
0.0
  9
$UCSYDIR
 10
0.0
 20
1.0
 30
0.0
  9
$UCSORTHOREF
  2

  9
$UCSORTHOVIEW
 70
     0
  9
$UCSORGTOP
 10
0.0
 20
0.0
 30
0.0
  9
$UCSORGBOTTOM
 10
0.0
 20
0.0
 30
0.0
  9
$UCSORGLEFT
 10
0.0
 20
0.0
 30
0.0
  9
$UCSORGRIGHT
 10
0.0
 20
0.0
 30
0.0
  9
$UCSORGFRONT
 10
0.0
 20
0.0
 30
0.0
  9
$UCSORGBACK
 10
0.0
 20
0.0
 30
0.0
  9
$PUCSBASE
  2

  9
$PUCSNAME
  2

  9
$PUCSORG
 10
0.0
 20
0.0
 30
0.0
  9
$PUCSXDIR
 10
1.0
 20
0.0
 30
0.0
  9
$PUCSYDIR
 10
0.0
 20
1.0
 30
0.0
  9
$PUCSORTHOREF
  2

  9
$PUCSORTHOVIEW
 70
     0
  9
$PUCSORGTOP
 10
0.0
 20
0.0
 30
0.0
  9
$PUCSORGBOTTOM
 10
0.0
 20
0.0
 30
0.0
  9
$PUCSORGLEFT
 10
0.0
 20
0.0
 30
0.0
  9
$PUCSORGRIGHT
 10
0.0
 20
0.0
 30
0.0
  9
$PUCSORGFRONT
 10
0.0
 20
0.0
 30
0.0
  9
$PUCSORGBACK
 10
0.0
 20
0.0
 30
0.0
  9
$USERI1
 70
     0
  9
$USERI2
 70
     0
  9
$USERI3
 70
     0
  9
$USERI4
 70
     0
  9
$USERI5
 70
     0
  9
$USERR1
 40
14.0
  9
$USERR2
 40
0.0
  9
$USERR3
 40
0.0
  9
$USERR4
 40
0.0
  9
$USERR5
 40
0.0
  9
$WORLDVIEW
 70
     1
  9
$SHADEDGE
 70
     3
  9
$SHADEDIF
 70
    70
  9
$TILEMODE
 70
     1
  9
$MAXACTVP
 70
    64
  9
$PINSBASE
 10
0.0
 20
0.0
 30
0.0
  9
$PLIMCHECK
 70
     0
  9
$PEXTMIN
 10
1.00000000000000E+20
 20
1.00000000000000E+20
 30
1.00000000000000E+20
  9
$PEXTMAX
 10
-1.00000000000000E+20
 20
-1.00000000000000E+20
 30
-1.00000000000000E+20
  9
$PLIMMIN
 10
0.0
 20
0.0
  9
$PLIMMAX
 10
12.0
 20
9.0
  9
$UNITMODE
 70
     0
  9
$VISRETAIN
 70
     1
  9
$PLINEGEN
 70
     0
  9
$PSLTSCALE
 70
     1
  9
$TREEDEPTH
 70
  3020
  9
$CMLSTYLE
  2
Standard
  9
$CMLJUST
 70
     0
  9
$CMLSCALE
 40
1.0
  9
$PROXYGRAPHICS
 70
     1
  9
$MEASUREMENT
 70
     1
  9
$CELWEIGHT
370
    -1
  9
$ENDCAPS
280
     0
  9
$JOINSTYLE
280
     0
  9
$LWDISPLAY
290
     0
  9
$INSUNITS
 70
     1
  9
$HYPERLINKBASE
  1

  9
$STYLESHEET
  1

  9
$XEDIT
290
     1
  9
$CEPSNTYPE
380
     0
  9
$PSTYLEMODE
290
     1
  9
$FINGERPRINTGUID
  2
{97EDE44F-4688-4375-8A36-8E59FA3EA81E}
  9
$VERSIONGUID
  2
{FAEB1C32-E019-11D5-929B-00C0DF256EC4}
  9
$EXTNAMES
290
     1
  9
$PSVPSCALE
 40
0.0
  9
$OLESTARTUP
290
     0
  0
ENDSEC
  0
SECTION
  2
CLASSES
  0
CLASS
  1
ACDBDICTIONARYWDFLT
  2
AcDbDictionaryWithDefault
  3
ObjectDBX Classes
 90
        0
280
     0
281
     0
  0
CLASS
  1

  2
exOdDbCircle
  3

 90
        0
280
     0
281
     1
  0
CLASS
  1

  2
exOdDbSpline
  3

 90
        0
280
     0
281
     1
  0
CLASS
  1

  2
exOdDbPolyline
  3

 90
        0
280
     0
281
     1
  0
CLASS
  1
ACDBPLACEHOLDER
  2
AcDbPlaceHolder
  3
ObjectDBX Classes
 90
        0
280
     0
281
     0
  0
CLASS
  1
LAYOUT
  2
AcDbLayout
  3
ObjectDBX Classes
 90
        0
280
     0
281
     0
  0
ENDSEC
  0
SECTION
  2
TABLES
  0
TABLE
  2
VPORT
  5
8
330
0
100
AcDbSymbolTable
 70
     1
  0
VPORT
  5
29
330
8
100
AcDbSymbolTableRecord
100
AcDbViewportTableRecord
  2
*Active
 70
     0
 10
0.0
 20
0.0
 11
1.0
 21
1.0
 12
2028.09548385845
 22
350.2189686428086
 13
0.0
 23
0.0
 14
0.5
 24
0.5
 15
0.5
 25
0.5
 16
0.0
 26
0.0
 36
1.0
 17
0.0
 27
0.0
 37
0.0
 40
1189.127074612205
 41
1.60267857142857
 42
50.0
 43
0.0
 44
0.0
 50
0.0
 51
0.0
 71
     0
 72
   100
 73
     1
 74
     3
 75
     0
 76
     0
 77
     0
 78
     0
281
     0
 65
     1
110
0.0
120
0.0
130
0.0
111
1.0
121
0.0
131
0.0
112
0.0
122
1.0
132
0.0
 79
     0
146
0.0
  0
ENDTAB
  0
TABLE
  2
LTYPE
  5
5
330
0
100
AcDbSymbolTable
 70
     8
  0
LTYPE
  5
14
330
5
100
AcDbSymbolTableRecord
100
AcDbLinetypeTableRecord
  2
ByBlock
 70
     0
  3

 72
    65
 73
     0
 40
0.0
  0
LTYPE
  5
15
330
5
100
AcDbSymbolTableRecord
100
AcDbLinetypeTableRecord
  2
ByLayer
 70
     0
  3

 72
    65
 73
     0
 40
0.0
  0
LTYPE
  5
16
330
5
100
AcDbSymbolTableRecord
100
AcDbLinetypeTableRecord
  2
Continuous
 70
     0
  3
Solid line
 72
    65
 73
     0
 40
0.0
  0
LTYPE
  5
2A
330
5
100
AcDbSymbolTableRecord
100
AcDbLinetypeTableRecord
  2
DASHED
 70
     0
  3
Dashed
 72
    65
 73
     2
 40
15.0
 49
7.0
 74
     0
 49
-8.0
 74
     0
  0
LTYPE
  5
2B
330
5
100
AcDbSymbolTableRecord
100
AcDbLinetypeTableRecord
  2
DOTTED
 70
     0
  3
Dotted
 72
    65
 73
     2
 40
1.0
 49
0.0
 74
     0
 49
-1.0
 74
     0
  0
LTYPE
  5
2C
330
5
100
AcDbSymbolTableRecord
100
AcDbLinetypeTableRecord
  2
DOT_CENTER
 70
     0
  3
Dot_Center
 72
    65
 73
     4
 40
14.0
 49
12.0
 74
     0
 49
-1.0
 74
     0
 49
0.0
 74
     0
 49
-1.0
 74
     0
  0
LTYPE
  5
2D
330
5
100
AcDbSymbolTableRecord
100
AcDbLinetypeTableRecord
  2
LONG_DASHED
 70
     0
  3
Long_Dashed
 72
    65
 73
     2
 40
15.0
 49
10.0
 74
     0
 49
-5.0
 74
     0
  0
LTYPE
  5
2E
330
5
100
AcDbSymbolTableRecord
100
AcDbLinetypeTableRecord
  2
DASH_CENTER
 70
     0
  3
Dash_Center
 72
    65
 73
     4
 40
14.0
 49
11.0
 74
     0
 49
-1.0
 74
     0
 49
1.0
 74
     0
 49
-1.0
 74
     0
  0
LTYPE
  5
2F
330
5
100
AcDbSymbolTableRecord
100
AcDbLinetypeTableRecord
  2
PHANTOM
 70
     0
  3
Phantom
 72
    65
 73
     6
 40
13.0
 49
10.0
 74
     0
 49
-1.0
 74
     0
 49
0.0
 74
     0
 49
-1.0
 74
     0
 49
0.0
 74
     0
 49
-1.0
 74
     0
  0
LTYPE
  5
30
330
5
100
AcDbSymbolTableRecord
100
AcDbLinetypeTableRecord
  2
CENTER_DASH_DASH
 70
     0
  3
Center_Dash_Dash
 72
    65
 73
     6
 40
14.0
 49
9.0
 74
     0
 49
-1.0
 74
     0
 49
1.0
 74
     0
 49
-1.0
 74
     0
 49
1.0
 74
     0
 49
-1.0
 74
     0
  0
ENDTAB
  0
TABLE
  2
LAYER
  5
2
330
0
100
AcDbSymbolTable
 70
     2
  0
LAYER
  5
10
330
2
100
AcDbSymbolTableRecord
100
AcDbLayerTableRecord
  2
0
 70
     0
 62
     7
  6
Continuous
370
    -3
390
F
  0
LAYER
  5
31
330
2
100
AcDbSymbolTableRecord
100
AcDbLayerTableRecord
  2
1
 70
     0
 62
     7
  6
Continuous
370
    -3
390
F
  0
ENDTAB
  0
TABLE
  2
STYLE
  5
3
330
0
100
AcDbSymbolTable
 70
     6
  0
STYLE
  5
11
330
3
100
AcDbSymbolTableRecord
100
AcDbTextStyleTableRecord
  2
Standard
 70
     0
 40
0.0
 41
1.0
 50
0.0
 71
     0
 42
0.2
  3
txt
  4

  0
STYLE
  5
4E
330
3
100
AcDbSymbolTableRecord
100
AcDbTextStyleTableRecord
  2
CONVERTER_1
 70
     0
 40
0.0
 41
0.9
 50
0.0
 71
     0
 42
0.2
  3
txt.shx
  4

  0
STYLE
  5
50
330
3
100
AcDbSymbolTableRecord
100
AcDbTextStyleTableRecord
  2
CONVERTER_2
 70
     0
 40
0.0
 41
0.89
 50
0.0
 71
     0
 42
0.2
  3
MSMINCHO.TTC
  4

1001
ACAD
1000
MS Mincho
1071
    32785
  0
STYLE
  5
52
330
3
100
AcDbSymbolTableRecord
100
AcDbTextStyleTableRecord
  2
CONVERTER_3
 70
     0
 40
0.0
 41
1.068
 50
0.0
 71
     0
 42
0.2
  3
msmincho.ttc
  4

1001
ACAD
1000
MS Mincho
1071
    32785
  0
STYLE
  5
58
330
3
100
AcDbSymbolTableRecord
100
AcDbTextStyleTableRecord
  2
CONVERTER_4
 70
     0
 40
0.0
 41
0.9025
 50
0.0
 71
     0
 42
0.2
  3
complex.shx
  4

  0
STYLE
  5
5C
330
3
100
AcDbSymbolTableRecord
100
AcDbTextStyleTableRecord
  2
CONVERTER_5
 70
     0
 40
0.0
 41
0.801
 50
0.0
 71
     0
 42
0.2
  3
msmincho.ttc
  4

1001
ACAD
1000
MS Mincho
1071
    32785
  0
ENDTAB
  0
TABLE
  2
VIEW
  5
6
330
0
100
AcDbSymbolTable
 70
     0
  0
ENDTAB
  0
TABLE
  2
UCS
  5
7
330
0
100
AcDbSymbolTable
 70
     0
  0
ENDTAB
  0
TABLE
  2
APPID
  5
9
330
0
100
AcDbSymbolTable
 70
     1
  0
APPID
  5
12
330
9
100
AcDbSymbolTableRecord
100
AcDbRegAppTableRecord
  2
ACAD
 70
     0
  0
ENDTAB
  0
TABLE
  2
DIMSTYLE
  5
A
330
0
100
AcDbSymbolTable
 70
    11
100
AcDbDimStyleTable
  0
DIMSTYLE
105
27
330
A
100
AcDbSymbolTableRecord
100
AcDbDimStyleTableRecord
  2
Standard
 70
     0
340
11
  0
DIMSTYLE
105
1E1
102
{ACAD_REACTORS
330
1E2
102
}
330
A
100
AcDbSymbolTableRecord
100
AcDbDimStyleTableRecord
  2
ME10_DIM_0
 70
     0
 41
12.8
 42
4.0
 44
4.0
 73
     0
 74
     0
 77
     1
 78
     8
140
12.8
147
2.8
172
     1
173
     1
176
     2
177
     2
178
     2
271
     2
340
4E
343
1DB
344
1DB
  0
DIMSTYLE
105
1F0
102
{ACAD_REACTORS
330
1F1
102
}
330
A
100
AcDbSymbolTableRecord
100
AcDbDimStyleTableRecord
  2
ME10_DIM_1
 70
     0
  3
{\Fgdt;n}<>
 41
12.8
 42
4.0
 44
4.0
 73
     0
 74
     0
 77
     1
 78
     8
140
12.8
147
2.8
172
     1
173
     1
176
     2
177
     2
178
     2
271
     2
340
4E
343
1DB
344
1DB
  0
DIMSTYLE
105
1FD
102
{ACAD_REACTORS
330
1FE
102
}
330
A
100
AcDbSymbolTableRecord
100
AcDbDimStyleTableRecord
  2
ME10_DIM_2
 70
     0
 41
12.8
 42
4.0
 44
4.0
 73
     0
 74
     0
 77
     1
 78
     8
140
12.8
147
2.8
172
     1
173
     1
176
     2
177
     2
178
     2
271
     2
340
50
343
1DB
344
1DB
  0
DIMSTYLE
105
20A
102
{ACAD_REACTORS
330
20B
102
}
330
A
100
AcDbSymbolTableRecord
100
AcDbDimStyleTableRecord
  2
ME10_DIM_3
 70
     0
  3
(ローラ幅)
 41
12.8
 42
4.0
 44
4.0
 73
     0
 74
     0
 77
     1
 78
     8
140
12.8
147
4.0
172
     1
173
     1
176
     2
177
     2
178
     2
271
     2
340
50
343
1DB
344
1DB
  0
DIMSTYLE
105
217
102
{ACAD_REACTORS
330
218
102
}
330
A
100
AcDbSymbolTableRecord
100
AcDbDimStyleTableRecord
  2
ME10_DIM_4
 70
     0
 41
12.8
 42
4.0
 44
4.0
 73
     0
 74
     0
 77
     1
 78
     8
140
12.8
147
4.0
172
     1
173
     1
176
     2
177
     2
178
     2
271
     2
340
4E
343
1DB
344
1DB
  0
DIMSTYLE
105
224
102
{ACAD_REACTORS
330
225
102
}
330
A
100
AcDbSymbolTableRecord
100
AcDbDimStyleTableRecord
  2
ME10_DIM_5
 70
     0
 41
12.8
 42
4.0
 44
4.0
 73
     0
 74
     0
 77
     1
 78
     8
140
12.8
147
4.0
172
     1
173
     1
176
     2
177
     2
178
     2
271
     2
340
50
343
1DB
344
1DB
  0
DIMSTYLE
105
237
102
{ACAD_REACTORS
330
238
102
}
330
A
100
AcDbSymbolTableRecord
100
AcDbDimStyleTableRecord
  2
ME10_DIM_6
 70
     0
 41
12.8
 42
4.0
 44
4.0
 73
     0
 74
     0
 77
     1
 78
     8
140
12.8
147
2.8
172
     1
173
     1
176
     2
177
     2
178
     2
271
     2
340
4E
343
232
344
1DB
  0
DIMSTYLE
105
249
102
{ACAD_REACTORS
330
24A
102
}
330
A
100
AcDbSymbolTableRecord
100
AcDbDimStyleTableRecord
  2
ME10_DIM_7
 70
     0
 41
6.4
 42
4.0
 44
4.0
 73
     0
 74
     0
 77
     1
 78
     8
140
12.8
147
2.8
172
     1
173
     1
176
     2
177
     2
178
     2
271
     2
340
4E
343
1DB
344
244
  0
DIMSTYLE
105
256
102
{ACAD_REACTORS
330
257
102
}
330
A
100
AcDbSymbolTableRecord
100
AcDbDimStyleTableRecord
  2
ME10_DIM_8
 70
     0
 41
12.8
 42
4.0
 44
4.0
 73
     0
 74
     0
 77
     1
 78
     8
140
12.8
147
4.0
172
     1
173
     1
176
     2
177
     2
178
     2
271
     2
340
4E
343
1DB
344
1DB
  0
DIMSTYLE
105
265
102
{ACAD_REACTORS
330
266
102
}
330
A
100
AcDbSymbolTableRecord
100
AcDbDimStyleTableRecord
  2
ME10_DIM_9
 70
     0
 41
12.8
 42
4.0
 44
4.0
 73
     0
 74
     0
 77
     1
 78
     8
140
12.8
147
4.0
172
     1
173
     1
176
     2
177
     2
178
     2
271
     2
340
4E
343
1DB
344
1DB
  0
ENDTAB
  0
TABLE
  2
BLOCK_RECORD
  5
1
330
0
100
AcDbSymbolTable
 70
    16
  0
BLOCK_RECORD
  5
1F
330
1
100
AcDbSymbolTableRecord
100
AcDbBlockTableRecord
  2
*Model_Space
340
22
  0
BLOCK_RECORD
  5
1B
330
1
100
AcDbSymbolTableRecord
100
AcDbBlockTableRecord
  2
*Paper_Space
340
1E
  0
BLOCK_RECORD
  5
23
330
1
100
AcDbSymbolTableRecord
100
AcDbBlockTableRecord
  2
*Paper_Space0
340
26
  0
BLOCK_RECORD
  5
32
330
1
100
AcDbSymbolTableRecord
100
AcDbBlockTableRecord
  2
Zuwaku-A3-web
340
0
102
{BLKREFS
331
38
102
}
  0
BLOCK_RECORD
  5
35
330
1
100
AcDbSymbolTableRecord
100
AcDbBlockTableRecord
  2
_2
340
0
102
{BLKREFS
331
39
102
}
  0
BLOCK_RECORD
  5
1CE
330
1
100
AcDbSymbolTableRecord
100
AcDbBlockTableRecord
  2
*D03
340
0
  0
BLOCK_RECORD
  5
1DB
330
1
100
AcDbSymbolTableRecord
100
AcDbBlockTableRecord
  2
_Open30
340
0
  0
BLOCK_RECORD
  5
1E3
330
1
100
AcDbSymbolTableRecord
100
AcDbBlockTableRecord
  2
*D15
340
0
  0
BLOCK_RECORD
  5
1F2
330
1
100
AcDbSymbolTableRecord
100
AcDbBlockTableRecord
  2
*D26
340
0
  0
BLOCK_RECORD
  5
1FF
330
1
100
AcDbSymbolTableRecord
100
AcDbBlockTableRecord
  2
*D37
340
0
  0
BLOCK_RECORD
  5
20C
330
1
100
AcDbSymbolTableRecord
100
AcDbBlockTableRecord
  2
*D48
340
0
  0
BLOCK_RECORD
  5
219
330
1
100
AcDbSymbolTableRecord
100
AcDbBlockTableRecord
  2
*D59
340
0
  0
BLOCK_RECORD
  5
226
330
1
100
AcDbSymbolTableRecord
100
AcDbBlockTableRecord
  2
*D610
340
0
  0
BLOCK_RECORD
  5
232
330
1
100
AcDbSymbolTableRecord
100
AcDbBlockTableRecord
  2
_Dot
340
0
  0
BLOCK_RECORD
  5
239
330
1
100
AcDbSymbolTableRecord
100
AcDbBlockTableRecord
  2
*D712
340
0
  0
BLOCK_RECORD
  5
244
330
1
100
AcDbSymbolTableRecord
100
AcDbBlockTableRecord
  2
_Origin
340
0
  0
BLOCK_RECORD
  5
24B
330
1
100
AcDbSymbolTableRecord
100
AcDbBlockTableRecord
  2
*D814
340
0
  0
BLOCK_RECORD
  5
258
330
1
100
AcDbSymbolTableRecord
100
AcDbBlockTableRecord
  2
*D915
340
0
  0
ENDTAB
  0
ENDSEC
  0
SECTION
  2
BLOCKS
  0
BLOCK
  5
20
330
1F
100
AcDbEntity
  8
0
100
AcDbBlockBegin
  2
*Model_Space
 70
     0
 71
     0
 10
0.0
 20
0.0
 30
0.0
  3
*Model_Space
  1

  0
ENDBLK
  5
21
330
1F
100
AcDbEntity
  8
0
100
AcDbBlockEnd
  0
BLOCK
  5
1C
330
1B
100
AcDbEntity
 67
     1
  8
0
100
AcDbBlockBegin
  2
*Paper_Space
 70
     0
 71
     0
 10
0.0
 20
0.0
 30
0.0
  3
*Paper_Space
  1

  0
ENDBLK
  5
1D
330
1B
100
AcDbEntity
 67
     1
  8
0
100
AcDbBlockEnd
  0
BLOCK
  5
24
330
23
100
AcDbEntity
  8
0
100
AcDbBlockBegin
  2
*Paper_Space0
 70
     0
 71
     0
 10
0.0
 20
0.0
 30
0.0
  3
*Paper_Space0
  1

  0
ENDBLK
  5
25
330
23
100
AcDbEntity
  8
0
100
AcDbBlockEnd
  0
BLOCK
  5
33
330
32
100
AcDbEntity
  8
0
100
AcDbBlockBegin
  2
Zuwaku-A3-web
 70
     0
 71
     0
 10
507.0238709646123
 20
88.68281882118001
 30
0.0
  3
Zuwaku-A3-web
  1

  0
LINE
  5
3A
330
32
100
AcDbEntity
  8
1
  6
Continuous
 62
     4
100
AcDbLine
 10
605.0238709646126
 20
-25.31718117882
 30
0.0
 11
605.0238709646126
 21
-45.31718117882
 31
0.0
  0
LINE
  5
3B
330
32
100
AcDbEntity
  8
1
  6
Continuous
 62
     4
100
AcDbLine
 10
704.0238709646126
 20
-25.31718117882
 30
0.0
 11
310.0238709646125
 21
-25.31718117882
 31
0.0
  0
LINE
  5
3C
330
32
100
AcDbEntity
  8
1
  6
Continuous
 62
     4
100
AcDbLine
 10
483.7684481218218
 20
-43.18320533633801
 30
0.0
 11
489.5004964368579
 21
-37.451157021302
 31
0.0
  0
LINE
  5
3D
330
32
100
AcDbEntity
  8
1
  6
Continuous
 62
     7
100
AcDbLine
 10
310.0238709646125
 20
222.68281882118
 30
0.0
 11
310.0238709646125
 21
-45.31718117882
 31
0.0
  0
LINE
  5
3E
330
32
100
AcDbEntity
  8
1
  6
Continuous
 62
     4
100
AcDbLine
 10
376.0238709646125
 20
-25.31718117882
 30
0.0
 11
376.0238709646125
 21
-45.31718117882
 31
0.0
  0
LINE
  5
3F
330
32
100
AcDbEntity
  8
1
  6
Continuous
 62
     4
100
AcDbLine
 10
480.5238709646125
 20
-35.31718117882
 30
0.0
 11
480.5238709646125
 21
-45.31718117882
 31
0.0
  0
LINE
  5
40
330
32
100
AcDbEntity
  8
1
  6
Continuous
 62
     4
100
AcDbLine
 10
537.0238709646126
 20
-25.31718117882
 30
0.0
 11
537.0238709646126
 21
-45.31718117882
 31
0.0
  0
LINE
  5
41
330
32
100
AcDbEntity
  8
1
  6
Continuous
 62
     4
100
AcDbLine
 10
593.0238709646126
 20
-25.31718117882
 30
0.0
 11
593.0238709646126
 21
-45.31718117882
 31
0.0
  0
LINE
  5
42
330
32
100
AcDbEntity
  8
1
  6
Continuous
 62
     4
100
AcDbLine
 10
472.5238709646125
 20
-45.31718117882
 30
0.0
 11
472.5238709646125
 21
-25.31718117882
 31
0.0
  0
LINE
  5
43
330
32
100
AcDbEntity
  8
1
  6
Continuous
 62
     4
100
AcDbLine
 10
512.0238709646126
 20
-45.31718117882
 30
0.0
 11
512.0238709646126
 21
-25.31718117882
 31
0.0
  0
LINE
  5
44
330
32
100
AcDbEntity
  8
1
  6
Continuous
 62
     7
100
AcDbLine
 10
704.0238709646126
 20
-45.31718117882
 30
0.0
 11
704.0238709646121
 21
222.68281882118
 31
0.0
  0
LINE
  5
45
330
32
100
AcDbEntity
  8
1
  6
Continuous
 62
     7
100
AcDbLine
 10
704.0238709646121
 20
222.68281882118
 30
0.0
 11
310.0238709646125
 21
222.68281882118
 31
0.0
  0
LINE
  5
46
330
32
100
AcDbEntity
  8
1
  6
Continuous
 62
     4
100
AcDbLine
 10
310.0238709646125
 20
-35.31718117882
 30
0.0
 11
704.0238709646126
 21
-35.31718117882
 31
0.0
  0
LINE
  5
47
330
32
100
AcDbEntity
  8
1
  6
Continuous
 62
     4
100
AcDbLine
 10
322.0238709646125
 20
-25.31718117882
 30
0.0
 11
322.0238709646125
 21
-45.31718117882
 31
0.0
  0
LINE
  5
48
330
32
100
AcDbEntity
  8
1
  6
Continuous
 62
     3
100
AcDbLine
 10
316.0238709646125
 20
-26.31718117882
 30
0.0
 11
312.5238709646125
 21
-32.81718117882
 31
0.0
  0
LINE
  5
49
330
32
100
AcDbEntity
  8
1
  6
Continuous
 62
     3
100
AcDbLine
 10
312.5238709646125
 20
-32.81718117882
 30
0.0
 11
319.5238709646125
 21
-32.81718117882
 31
0.0
  0
LINE
  5
4A
330
32
100
AcDbEntity
  8
1
  6
Continuous
 62
     3
100
AcDbLine
 10
319.5238709646125
 20
-32.81718117882
 30
0.0
 11
316.0238709646125
 21
-26.31718117882
 31
0.0
  0
LINE
  5
4B
330
32
100
AcDbEntity
  8
1
  6
Continuous
 62
     4
100
AcDbLine
 10
472.5238709646125
 20
-30.31718117882
 30
0.0
 11
512.0238709646126
 21
-30.31718117882
 31
0.0
  0
LINE
  5
4C
330
32
100
AcDbEntity
  8
1
  6
Continuous
 62
     7
100
AcDbLine
 10
310.0238709646125
 20
-45.31718117882
 30
0.0
 11
704.0238709646126
 21
-45.31718117882
 31
0.0
  0
LINE
  5
4D
330
32
100
AcDbEntity
  8
1
  6
Continuous
 62
     4
100
AcDbLine
 10
499.5184481218218
 20
-43.18320533633801
 30
0.0
 11
505.2504964368579
 21
-37.451157021302
 31
0.0
  0
MTEXT
  5
4F
330
32
100
AcDbEntity
  8
1
 62
     4
100
AcDbMText
 10
703.4804253569816
 20
-45.57333449977569
 30
0.0
 40
2.0
 41
0.0
 71
     3
 72
     1
  1
A3
  7
CONVERTER_1
 73
     1
 44
1.32052821128451
  0
MTEXT
  5
51
330
32
100
AcDbEntity
  8
1
 62
     2
100
AcDbMText
 10
599.0238709646126
 20
-30.31718117882
 30
0.0
 40
4.0
 41
0.0
 71
     5
 72
     1
  1
図名
  7
CONVERTER_2
 73
     1
 44
1.32052821128451
  0
MTEXT
  5
53
330
32
100
AcDbEntity
  8
1
 62
     2
100
AcDbMText
 10
599.0238709646126
 20
-38.06718117882
 30
0.0
 40
3.5
 41
0.0
 71
     5
 72
     1
  1
図面
  7
CONVERTER_3
 73
     1
 44
0.78031212484994
  0
MTEXT
  5
54
330
32
100
AcDbEntity
  8
1
 62
     2
100
AcDbMText
 10
492.2738709646125
 20
-27.81718117882
 30
0.0
 40
3.5
 41
0.0
 71
     5
 72
     1
  1
年　　月　　日
  7
CONVERTER_2
 73
     1
 44
0.78031212484994
  0
MTEXT
  5
55
330
32
100
AcDbEntity
  8
1
 62
     2
100
AcDbMText
 10
476.5238709646125
 20
-38.06718117882
 30
0.0
 40
3.5
 41
0.0
 71
     5
 72
     1
  1
尺
  7
CONVERTER_3
 73
     1
 44
0.78031212484994
  0
MTEXT
  5
56
330
32
100
AcDbEntity
  8
1
 62
     2
100
AcDbMText
 10
349.0238709646125
 20
-40.31718117882
 30
0.0
 40
3.5
 41
0.0
 71
     5
 72
     1
  1
改　 訂　 記　 事
  7
CONVERTER_2
 73
     1
 44
1.32052821128451
  0
MTEXT
  5
57
330
32
100
AcDbEntity
  8
1
 62
     2
100
AcDbMText
 10
316.0238709646125
 20
-38.06718117882
 30
0.0
 40
3.5
 41
0.0
 71
     5
 72
     1
  1
改訂
  7
CONVERTER_2
 73
     1
 44
0.78031212484994
  0
MTEXT
  5
59
330
32
100
AcDbEntity
  8
1
 62
     7
100
AcDbMText
 10
424.2738709646125
 20
-40.31718117882
 30
0.0
 40
4.0
 41
0.0
 71
     5
 72
     1
  1
MARUYASU KIKAI CO.,LTD.
  7
CONVERTER_4
 73
     1
 44
1.32052821128451
  0
MTEXT
  5
5A
330
32
100
AcDbEntity
  8
1
 62
     2
100
AcDbMText
 10
499.7738709646125
 20
-38.81718117882
 30
0.0
 40
4.0
 41
0.0
 71
     5
 72
     1
  1
1
  7
CONVERTER_1
 73
     1
 44
1.32052821128451
  0
MTEXT
  5
5B
330
32
100
AcDbEntity
  8
1
 62
     2
100
AcDbMText
 10
524.5238709646126
 20
-40.31718117882
 30
0.0
 40
4.0
 41
0.0
 71
     5
 72
     1
  1
機　種
  7
CONVERTER_2
 73
     1
 44
1.32052821128451
  0
MTEXT
  5
5D
330
32
100
AcDbEntity
  8
1
 62
     2
100
AcDbMText
 10
524.5238709646126
 20
-30.31718117882
 30
0.0
 40
4.0
 41
0.0
 71
     5
 72
     1
  1
シリーズ名
  7
CONVERTER_5
 73
     1
 44
1.32052821128451
  0
MTEXT
  5
5E
330
32
100
AcDbEntity
  8
1
 62
     7
100
AcDbMText
 10
424.2738709646125
 20
-30.31718117882
 30
0.0
 40
5.0
 41
0.0
 71
     5
 72
     1
  1
技術情報サービス
  7
CONVERTER_2
 73
     1
 44
1.20048019207683
  0
MTEXT
  5
5F
330
32
100
AcDbEntity
  8
1
 62
     2
100
AcDbMText
 10
315.7019489947842
 20
-42.56718117882
 30
0.0
 40
3.5
 41
0.0
 71
     5
 72
     1
  1
番号
  7
CONVERTER_2
 73
     1
 44
0.78031212484994
  0
MTEXT
  5
60
330
32
100
AcDbEntity
  8
1
 62
     2
100
AcDbMText
 10
476.5238709646125
 20
-42.56718117882
 30
0.0
 40
3.5
 41
0.0
 71
     5
 72
     1
  1
度
  7
CONVERTER_3
 73
     1
 44
0.78031212484994
  0
MTEXT
  5
61
330
32
100
AcDbEntity
  8
1
 62
     2
100
AcDbMText
 10
599.0238709646126
 20
-42.56718117882
 30
0.0
 40
3.5
 41
0.0
 71
     5
 72
     1
  1
番号
  7
CONVERTER_3
 73
     1
 44
0.78031212484994
  0
MTEXT
  5
62
330
32
100
AcDbEntity
  8
1
 62
     2
100
AcDbMText
 10
483.2073038325195
 20
-39.06718117882
 30
0.0
 40
4.0
 41
0.0
 71
     5
 72
     1
  1
1
  7
CONVERTER_1
 73
     1
 44
0.60024009603842
  0
MTEXT
  5
63
330
32
100
AcDbEntity
  8
1
 62
     2
100
AcDbMText
 10
491.0004964368579
 20
-41.56718117882
 30
0.0
 40
4.0
 41
0.0
 71
     5
 72
     1
  1
4
  7
CONVERTER_1
 73
     1
 44
0.60024009603842
  0
ENDBLK
  5
34
330
32
100
AcDbEntity
  8
0
100
AcDbBlockEnd
  0
BLOCK
  5
36
330
35
100
AcDbEntity
  8
0
100
AcDbBlockBegin
  2
_2
 70
     0
 71
     0
 10
2308.382598206084
 20
179.8679847429889
 30
0.0
  3
_2
  1

  0
LINE
  5
64
330
35
100
AcDbEntity
  8
1
  6
PHANTOM
 62
     4
100
AcDbLine
 10
2045.748500327559
 20
648.3702797517148
 30
0.0
 11
2045.748500327559
 21
649.3702797517148
 31
0.0
  0
ENDBLK
  5
37
330
35
100
AcDbEntity
  8
0
100
AcDbBlockEnd
  0
BLOCK
  5
1D9
330
1CE
100
AcDbEntity
  8
0
100
AcDbBlockBegin
  2
*D03
 70
     1
 71
     0
 10
0.0
 20
0.0
 30
0.0
  3
*D03
  1

  0
LINE
  5
1CF
330
1CE
100
AcDbEntity
  8
1
  6
Continuous
 62
     2
100
AcDbLine
 10
2505.277594770796
 20
345.547149264813
 30
0.0
 11
2554.8033483886
 21
345.547149264813
 31
0.0
  0
LINE
  5
1D0
330
1CE
100
AcDbEntity
  8
1
  6
Continuous
 62
     2
100
AcDbLine
 10
2492.777594770795
 20
345.547149264813
 30
0.0
 11
2505.277594770796
 21
345.547149264813
 31
0.0
  0
LINE
  5
1D1
330
1CE
100
AcDbEntity
  8
1
  6
Continuous
 62
     2
100
AcDbLine
 10
2467.177594770795
 20
345.547149264813
 30
0.0
 11
2492.777594770795
 21
345.547149264813
 31
0.0
  0
LINE
  5
1D2
330
1CE
100
AcDbEntity
  8
1
  6
Continuous
 62
     2
100
AcDbLine
 10
2492.777594770795
 20
318.367984742987
 30
0.0
 11
2492.777594770795
 21
349.547149264813
 31
0.0
  0
LINE
  5
1D3
330
1CE
100
AcDbEntity
  8
1
  6
Continuous
 62
     2
100
AcDbLine
 10
2505.277594770796
 20
305.867984742987
 30
0.0
 11
2505.277594770796
 21
349.547149264813
 31
0.0
  0
LINE
  5
1D4
330
1CE
100
AcDbEntity
  8
1
 62
     2
100
AcDbLine
 10
2492.777594770795
 20
345.547149264813
 30
0.0
 11
2479.977594770794
 21
342.1173996016947
 31
0.0
  0
LINE
  5
1D5
330
1CE
100
AcDbEntity
  8
1
 62
     2
100
AcDbLine
 10
2492.777594770795
 20
345.547149264813
 30
0.0
 11
2479.977594770794
 21
348.9768989279314
 31
0.0
  0
LINE
  5
1D6
330
1CE
100
AcDbEntity
  8
1
 62
     2
100
AcDbLine
 10
2505.277594770796
 20
345.547149264813
 30
0.0
 11
2518.077594770797
 21
348.9768989279314
 31
0.0
  0
LINE
  5
1D7
330
1CE
100
AcDbEntity
  8
1
 62
     2
100
AcDbLine
 10
2505.277594770796
 20
345.547149264813
 30
0.0
 11
2518.077594770797
 21
342.1173996016947
 31
0.0
  0
MTEXT
  5
1D8
330
1CE
100
AcDbEntity
  8
1
 62
     2
100
AcDbMText
 10
2523.7633483886
 20
348.347149264813
 30
0.0
 40
12.8
 41
0.0
 71
     7
 72
     1
  1
12.5
  7
CONVERTER_1
 11
0.9999999999970621
 21
2.424068405545307E-6
 31
0.0
 73
     1
 44
0.60024009603842
  0
ENDBLK
  5
1DA
330
1CE
100
AcDbEntity
  8
0
100
AcDbBlockEnd
  0
BLOCK
  5
1DC
330
1DB
100
AcDbEntity
  8
0
100
AcDbBlockBegin
  2
_Open30
 70
     0
 71
     0
 10
0.0
 20
0.0
 30
0.0
  3
_Open30
  1

  0
LINE
  5
1DE
330
1DB
100
AcDbEntity
  8
0
  6
ByBlock
 62
     0
370
    -2
100
AcDbLine
 10
-1.0
 20
0.267949
 30
0.0
 11
0.0
 21
0.0
 31
0.0
  0
LINE
  5
1DF
330
1DB
100
AcDbEntity
  8
0
  6
ByBlock
 62
     0
370
    -2
100
AcDbLine
 10
0.0
 20
0.0
 30
0.0
 11
-1.0
 21
-0.267949
 31
0.0
  0
LINE
  5
1E0
330
1DB
100
AcDbEntity
  8
0
  6
ByBlock
 62
     0
370
    -2
100
AcDbLine
 10
0.0
 20
0.0
 30
0.0
 11
-1.0
 21
0.0
 31
0.0
  0
ENDBLK
  5
1DD
330
1DB
100
AcDbEntity
  8
0
100
AcDbBlockEnd
  0
BLOCK
  5
1EE
330
1E3
100
AcDbEntity
  8
0
100
AcDbBlockBegin
  2
*D15
 70
     1
 71
     0
 10
0.0
 20
0.0
 30
0.0
  3
*D15
  1

  0
LINE
  5
1E4
330
1E3
100
AcDbEntity
  8
1
  6
Continuous
 62
     2
100
AcDbLine
 10
1721.828795003768
 20
286.8679847429871
 30
0.0
 11
1721.828795003768
 21
261.267984742987
 31
0.0
  0
LINE
  5
1E5
330
1E3
100
AcDbEntity
  8
1
  6
Continuous
 62
     2
100
AcDbLine
 10
1721.828795003768
 20
308.8679847429871
 30
0.0
 11
1721.828795003768
 21
286.8679847429871
 31
0.0
  0
LINE
  5
1E6
330
1E3
100
AcDbEntity
  8
1
  6
Continuous
 62
     2
100
AcDbLine
 10
1721.828795003768
 20
370.8637441011561
 30
0.0
 11
1721.828795003768
 21
308.8679847429871
 31
0.0
  0
LINE
  5
1E7
330
1E3
100
AcDbEntity
  8
1
  6
Continuous
 62
     2
100
AcDbLine
 10
1646.74850032756
 20
308.8679847429871
 30
0.0
 11
1725.828795003768
 21
308.8679847429871
 31
0.0
  0
LINE
  5
1E8
330
1E3
100
AcDbEntity
  8
1
  6
Continuous
 62
     2
100
AcDbLine
 10
1646.748500327561
 20
286.8679847429871
 30
0.0
 11
1725.828795003768
 21
286.8679847429871
 31
0.0
  0
LINE
  5
1E9
330
1E3
100
AcDbEntity
  8
1
 62
     2
100
AcDbLine
 10
1721.828795003768
 20
308.8679847429871
 30
0.0
 11
1718.39904534065
 21
321.6679847429871
 31
0.0
  0
LINE
  5
1EA
330
1E3
100
AcDbEntity
  8
1
 62
     2
100
AcDbLine
 10
1721.828795003768
 20
308.8679847429871
 30
0.0
 11
1725.258544666886
 21
321.6679847429871
 31
0.0
  0
LINE
  5
1EB
330
1E3
100
AcDbEntity
  8
1
 62
     2
100
AcDbLine
 10
1721.828795003768
 20
286.8679847429871
 30
0.0
 11
1725.258544666886
 21
274.0679847429871
 31
0.0
  0
LINE
  5
1EC
330
1E3
100
AcDbEntity
  8
1
 62
     2
100
AcDbLine
 10
1721.828795003768
 20
286.8679847429871
 30
0.0
 11
1718.39904534065
 21
274.0679847429871
 31
0.0
  0
MTEXT
  5
1ED
330
1E3
100
AcDbEntity
  8
1
 62
     2
100
AcDbMText
 10
1719.028795003768
 20
330.6717441011561
 30
0.0
 40
12.8
 41
0.0
 71
     7
 72
     1
  1
\C2;{\Fgdt;n}\C2;22
  7
CONVERTER_1
 11
0.0
 21
1.0
 31
0.0
 73
     1
 44
0.60024009603842
  0
ENDBLK
  5
1EF
330
1E3
100
AcDbEntity
  8
0
100
AcDbBlockEnd
  0
BLOCK
  5
1FB
330
1F2
100
AcDbEntity
  8
0
100
AcDbBlockBegin
  2
*D26
 70
     1
 71
     0
 10
0.0
 20
0.0
 30
0.0
  3
*D26
  1

  0
LINE
  5
1F3
330
1F2
100
AcDbEntity
  8
1
  6
Continuous
 62
     2
100
AcDbLine
 10
1637.748500327559
 20
420.0380594035261
 30
0.0
 11
2047.748500327559
 21
420.0380594035261
 31
0.0
  0
LINE
  5
1F4
330
1F2
100
AcDbEntity
  8
1
  6
Continuous
 62
     2
100
AcDbLine
 10
1637.748500327559
 20
308.867984742987
 30
0.0
 11
1637.748500327559
 21
424.0380594035261
 31
0.0
  0
LINE
  5
1F5
330
1F2
100
AcDbEntity
  8
1
  6
Continuous
 62
     2
100
AcDbLine
 10
2047.748500327559
 20
308.867984742987
 30
0.0
 11
2047.748500327559
 21
424.0380594035261
 31
0.0
  0
LINE
  5
1F6
330
1F2
100
AcDbEntity
  8
1
 62
     2
100
AcDbLine
 10
1637.748500327559
 20
420.0380594035261
 30
0.0
 11
1650.548500327559
 21
423.4678090666445
 31
0.0
  0
LINE
  5
1F7
330
1F2
100
AcDbEntity
  8
1
 62
     2
100
AcDbLine
 10
1637.748500327559
 20
420.0380594035261
 30
0.0
 11
1650.548500327559
 21
416.6083097404078
 31
0.0
  0
LINE
  5
1F8
330
1F2
100
AcDbEntity
  8
1
 62
     2
100
AcDbLine
 10
2047.748500327559
 20
420.0380594035261
 30
0.0
 11
2034.948500327559
 21
416.6083097404078
 31
0.0
  0
LINE
  5
1F9
330
1F2
100
AcDbEntity
  8
1
 62
     2
100
AcDbLine
 10
2047.748500327559
 20
420.0380594035261
 30
0.0
 11
2034.948500327559
 21
423.4678090666445
 31
0.0
  0
MTEXT
  5
1FA
330
1F2
100
AcDbEntity
  8
1
 62
     2
100
AcDbMText
 10
1830.329765907244
 20
422.8380594035261
 30
0.0
 40
12.8
 41
0.0
 71
     7
 72
     1
  1
機幅
  7
CONVERTER_2
 11
0.9999999999970621
 21
2.424068405545307E-6
 31
0.0
 73
     1
 44
0.60024009603842
  0
ENDBLK
  5
1FC
330
1F2
100
AcDbEntity
  8
0
100
AcDbBlockEnd
  0
BLOCK
  5
208
330
1FF
100
AcDbEntity
  8
0
100
AcDbBlockBegin
  2
*D37
 70
     1
 71
     0
 10
0.0
 20
0.0
 30
0.0
  3
*D37
  1

  0
LINE
  5
200
330
1FF
100
AcDbEntity
  8
1
  6
Continuous
 62
     2
100
AcDbLine
 10
2042.748500327557
 20
391.0428766564161
 30
0.0
 11
1642.74850032756
 21
391.0428766564161
 31
0.0
  0
LINE
  5
201
330
1FF
100
AcDbEntity
  8
1
  6
Continuous
 62
     2
100
AcDbLine
 10
1642.74850032756
 20
312.8679847429871
 30
0.0
 11
1642.74850032756
 21
395.0428766564161
 31
0.0
  0
LINE
  5
202
330
1FF
100
AcDbEntity
  8
1
  6
Continuous
 62
     2
100
AcDbLine
 10
2042.748500327557
 20
312.8679847429871
 30
0.0
 11
2042.748500327557
 21
395.0428766564161
 31
0.0
  0
LINE
  5
203
330
1FF
100
AcDbEntity
  8
1
 62
     2
100
AcDbLine
 10
2042.748500327557
 20
391.0428766564161
 30
0.0
 11
2029.948500327557
 21
387.6131269932978
 31
0.0
  0
LINE
  5
204
330
1FF
100
AcDbEntity
  8
1
 62
     2
100
AcDbLine
 10
2042.748500327557
 20
391.0428766564161
 30
0.0
 11
2029.948500327557
 21
394.4726263195345
 31
0.0
  0
LINE
  5
205
330
1FF
100
AcDbEntity
  8
1
 62
     2
100
AcDbLine
 10
1642.74850032756
 20
391.0428766564161
 30
0.0
 11
1655.54850032756
 21
394.4726263195345
 31
0.0
  0
LINE
  5
206
330
1FF
100
AcDbEntity
  8
1
 62
     2
100
AcDbLine
 10
1642.74850032756
 20
391.0428766564161
 30
0.0
 11
1655.54850032756
 21
387.6131269932978
 31
0.0
  0
MTEXT
  5
207
330
1FF
100
AcDbEntity
  8
1
 62
     2
100
AcDbMText
 10
1796.156274754537
 20
395.0428766564161
 30
0.0
 40
12.8
 41
0.0
 71
     7
 72
     1
  1
\C2;400\C2;(ローラ幅)
  7
CONVERTER_2
 11
0.9999999999970621
 21
2.424068405545307E-6
 31
0.0
 73
     1
 44
0.60024009603842
  0
ENDBLK
  5
209
330
1FF
100
AcDbEntity
  8
0
100
AcDbBlockEnd
  0
BLOCK
  5
215
330
20C
100
AcDbEntity
  8
0
100
AcDbBlockBegin
  2
*D48
 70
     1
 71
     0
 10
0.0
 20
0.0
 30
0.0
  3
*D48
  1

  0
LINE
  5
20D
330
20C
100
AcDbEntity
  8
1
  6
Continuous
 62
     2
100
AcDbLine
 10
2148.748500327558
 20
308.8679847429857
 30
0.0
 11
2148.748500327558
 21
153.8679847429893
 31
0.0
  0
LINE
  5
20E
330
20C
100
AcDbEntity
  8
1
  6
Continuous
 62
     2
100
AcDbLine
 10
2046.748500327557
 20
308.8679847429857
 30
0.0
 11
2152.748500327558
 21
308.8679847429857
 31
0.0
  0
LINE
  5
20F
330
20C
100
AcDbEntity
  8
1
  6
Continuous
 62
     2
100
AcDbLine
 10
2051.748500327559
 20
153.8679847429893
 30
0.0
 11
2152.748500327558
 21
153.8679847429893
 31
0.0
  0
LINE
  5
210
330
20C
100
AcDbEntity
  8
1
 62
     2
100
AcDbLine
 10
2148.748500327558
 20
308.8679847429857
 30
0.0
 11
2152.178249990677
 21
296.0679847429857
 31
0.0
  0
LINE
  5
211
330
20C
100
AcDbEntity
  8
1
 62
     2
100
AcDbLine
 10
2148.748500327558
 20
308.8679847429857
 30
0.0
 11
2145.31875066444
 21
296.0679847429857
 31
0.0
  0
LINE
  5
212
330
20C
100
AcDbEntity
  8
1
 62
     2
100
AcDbLine
 10
2148.748500327558
 20
153.8679847429893
 30
0.0
 11
2145.31875066444
 21
166.6679847429894
 31
0.0
  0
LINE
  5
213
330
20C
100
AcDbEntity
  8
1
 62
     2
100
AcDbLine
 10
2148.748500327558
 20
153.8679847429893
 30
0.0
 11
2152.178249990677
 21
166.6679847429894
 31
0.0
  0
MTEXT
  5
214
330
20C
100
AcDbEntity
  8
1
 62
     2
100
AcDbMText
 10
2144.748500327558
 20
212.8719556027562
 30
0.0
 40
12.8
 41
0.0
 71
     7
 72
     1
  1
155
  7
CONVERTER_1
 11
0.0
 21
1.0
 31
0.0
 73
     1
 44
0.60024009603842
  0
ENDBLK
  5
216
330
20C
100
AcDbEntity
  8
0
100
AcDbBlockEnd
  0
BLOCK
  5
222
330
219
100
AcDbEntity
  8
0
100
AcDbBlockBegin
  2
*D59
 70
     1
 71
     0
 10
0.0
 20
0.0
 30
0.0
  3
*D59
  1

  0
LINE
  5
21A
330
219
100
AcDbEntity
  8
1
  6
Continuous
 62
     2
100
AcDbLine
 10
2355.277594770794
 20
391.0428766564161
 30
0.0
 11
2505.277594770796
 21
391.0428766564161
 31
0.0
  0
LINE
  5
21B
330
219
100
AcDbEntity
  8
1
  6
Continuous
 62
     2
100
AcDbLine
 10
2355.277594770794
 20
305.8679847429871
 30
0.0
 11
2355.277594770794
 21
395.0428766564161
 31
0.0
  0
LINE
  5
21C
330
219
100
AcDbEntity
  8
1
  6
Continuous
 62
     2
100
AcDbLine
 10
2505.277594770796
 20
305.8679847429871
 30
0.0
 11
2505.277594770796
 21
395.0428766564161
 31
0.0
  0
LINE
  5
21D
330
219
100
AcDbEntity
  8
1
 62
     2
100
AcDbLine
 10
2355.277594770794
 20
391.0428766564161
 30
0.0
 11
2368.077594770794
 21
394.4726263195345
 31
0.0
  0
LINE
  5
21E
330
219
100
AcDbEntity
  8
1
 62
     2
100
AcDbLine
 10
2355.277594770794
 20
391.0428766564161
 30
0.0
 11
2368.077594770794
 21
387.6131269932978
 31
0.0
  0
LINE
  5
21F
330
219
100
AcDbEntity
  8
1
 62
     2
100
AcDbLine
 10
2505.277594770796
 20
391.0428766564161
 30
0.0
 11
2492.477594770795
 21
387.6131269932978
 31
0.0
  0
LINE
  5
220
330
219
100
AcDbEntity
  8
1
 62
     2
100
AcDbLine
 10
2505.277594770796
 20
391.0428766564161
 30
0.0
 11
2492.477594770795
 21
394.4726263195345
 31
0.0
  0
MTEXT
  5
221
330
219
100
AcDbEntity
  8
1
 62
     2
100
AcDbMText
 10
2418.232044125759
 20
395.0428766564161
 30
0.0
 40
12.8
 41
0.0
 71
     7
 72
     1
  1
機長
  7
CONVERTER_2
 11
0.9999999999970621
 21
2.424068405545307E-6
 31
0.0
 73
     1
 44
0.60024009603842
  0
ENDBLK
  5
223
330
219
100
AcDbEntity
  8
0
100
AcDbBlockEnd
  0
BLOCK
  5
230
330
226
100
AcDbEntity
  8
0
100
AcDbBlockBegin
  2
*D610
 70
     1
 71
     0
 10
0.0
 20
0.0
 30
0.0
  3
*D610
  1

  0
LINE
  5
227
330
226
100
AcDbEntity
  8
1
  6
Continuous
 62
     2
100
AcDbLine
 10
2355.277594770795
 20
345.547149264813
 30
0.0
 11
2367.777594770792
 21
345.547149264813
 31
0.0
  0
LINE
  5
228
330
226
100
AcDbEntity
  8
1
  6
Continuous
 62
     2
100
AcDbLine
 10
2301.04707799313
 20
345.547149264813
 30
0.0
 11
2355.277594770795
 21
345.547149264813
 31
0.0
  0
LINE
  5
229
330
226
100
AcDbEntity
  8
1
  6
Continuous
 62
     2
100
AcDbLine
 10
2355.277594770795
 20
305.867984742987
 30
0.0
 11
2355.277594770795
 21
349.547149264813
 31
0.0
  0
LINE
  5
22A
330
226
100
AcDbEntity
  8
1
  6
Continuous
 62
     2
100
AcDbLine
 10
2367.777594770792
 20
318.367984742987
 30
0.0
 11
2367.777594770792
 21
349.547149264813
 31
0.0
  0
LINE
  5
22B
330
226
100
AcDbEntity
  8
1
 62
     2
100
AcDbLine
 10
2355.277594770795
 20
345.547149264813
 30
0.0
 11
2342.477594770794
 21
342.1173996016947
 31
0.0
  0
LINE
  5
22C
330
226
100
AcDbEntity
  8
1
 62
     2
100
AcDbLine
 10
2355.277594770795
 20
345.547149264813
 30
0.0
 11
2342.477594770794
 21
348.9768989279314
 31
0.0
  0
CIRCLE
  5
22D
102
{ACAD_REACTORS
330
22E
102
}
330
226
100
AcDbEntity
  8
1
 62
     2
100
AcDbCircle
 10
2367.777594770792
 20
345.547149264813
 30
0.0
 40
3.2
  0
HATCH
  5
22E
330
226
100
AcDbEntity
  8
1
 62
     2
100
AcDbHatch
 10
0.0
 20
0.0
 30
0.0
210
0.0
220
0.0
230
1.0
  2
SOLID
 70
     1
 71
     1
 91
        1
 92
        1
 93
        1
 72
     2
 10
2367.777594770792
 20
345.547149264813
 40
3.2
 50
0.0
 51
360.0
 73
     1
 97
        1
330
22D
 75
     0
 76
     1
 98
        0
  0
MTEXT
  5
22F
330
226
100
AcDbEntity
  8
1
 62
     2
100
AcDbMText
 10
2301.04707799313
 20
348.347149264813
 30
0.0
 40
12.8
 41
0.0
 71
     7
 72
     1
  1
12.5
  7
CONVERTER_1
 11
0.9999999999970621
 21
2.424068405545307E-6
 31
0.0
 73
     1
 44
0.60024009603842
  0
ENDBLK
  5
231
330
226
100
AcDbEntity
  8
0
100
AcDbBlockEnd
  0
BLOCK
  5
233
330
232
100
AcDbEntity
  8
0
100
AcDbBlockBegin
  2
_Dot
 70
     0
 71
     0
 10
0.0
 20
0.0
 30
0.0
  3
_Dot
  1

  0
LWPOLYLINE
  5
235
330
232
100
AcDbEntity
  8
0
  6
ByBlock
 62
     0
100
AcDbPolyline
 90
        2
 70
     1
 43
0.5
 10
-0.25
 20
0.0
 42
1.0
 10
0.25
 20
0.0
 42
1.0
  0
LINE
  5
236
330
232
100
AcDbEntity
  8
0
  6
ByBlock
 62
     0
370
    -2
100
AcDbLine
 10
-0.5
 20
0.0
 30
0.0
 11
-1.0
 21
0.0
 31
0.0
  0
ENDBLK
  5
234
330
232
100
AcDbEntity
  8
0
100
AcDbBlockEnd
  0
BLOCK
  5
242
330
239
100
AcDbEntity
  8
0
100
AcDbBlockBegin
  2
*D712
 70
     1
 71
     0
 10
0.0
 20
0.0
 30
0.0
  3
*D712
  1

  0
LINE
  5
23A
330
239
100
AcDbEntity
  8
1
  6
Continuous
 62
     2
100
AcDbLine
 10
2392.777594770791
 20
345.547149264813
 30
0.0
 11
2436.13472636633
 21
345.547149264813
 31
0.0
  0
LINE
  5
23B
330
239
100
AcDbEntity
  8
1
  6
Continuous
 62
     2
100
AcDbLine
 10
2367.777594770791
 20
345.547149264813
 30
0.0
 11
2392.777594770791
 21
345.547149264813
 31
0.0
  0
LINE
  5
23C
330
239
100
AcDbEntity
  8
1
  6
Continuous
 62
     2
100
AcDbLine
 10
2367.777594770791
 20
318.367984742987
 30
0.0
 11
2367.777594770791
 21
349.547149264813
 31
0.0
  0
LINE
  5
23D
330
239
100
AcDbEntity
  8
1
  6
Continuous
 62
     2
100
AcDbLine
 10
2392.777594770791
 20
318.367984742987
 30
0.0
 11
2392.777594770791
 21
349.547149264813
 31
0.0
  0
CIRCLE
  5
23E
330
239
100
AcDbEntity
  8
1
 62
     2
100
AcDbCircle
 10
2367.777594770791
 20
345.547149264813
 30
0.0
 40
3.2
  0
LINE
  5
23F
330
239
100
AcDbEntity
  8
1
 62
     2
100
AcDbLine
 10
2392.777594770791
 20
345.547149264813
 30
0.0
 11
2405.577594770792
 21
348.9768989279314
 31
0.0
  0
LINE
  5
240
330
239
100
AcDbEntity
  8
1
 62
     2
100
AcDbLine
 10
2392.777594770791
 20
345.547149264813
 30
0.0
 11
2405.577594770792
 21
342.1173996016947
 31
0.0
  0
MTEXT
  5
241
330
239
100
AcDbEntity
  8
1
 62
     2
100
AcDbMText
 10
2404.13472636633
 20
348.347149264813
 30
0.0
 40
12.8
 41
0.0
 71
     7
 72
     1
  1
25P
  7
CONVERTER_1
 11
0.9999999999970621
 21
2.424068405545307E-6
 31
0.0
 73
     1
 44
0.60024009603842
  0
ENDBLK
  5
243
330
239
100
AcDbEntity
  8
0
100
AcDbBlockEnd
  0
BLOCK
  5
245
330
244
100
AcDbEntity
  8
0
100
AcDbBlockBegin
  2
_Origin
 70
     0
 71
     0
 10
0.0
 20
0.0
 30
0.0
  3
_Origin
  1

  0
CIRCLE
  5
247
330
244
100
AcDbEntity
  8
0
  6
ByBlock
 62
     0
370
    -2
100
AcDbCircle
 10
0.0
 20
0.0
 30
0.0
 40
0.5
  0
LINE
  5
248
330
244
100
AcDbEntity
  8
0
  6
ByBlock
 62
     0
370
    -2
100
AcDbLine
 10
0.0
 20
0.0
 30
0.0
 11
-1.0
 21
0.0
 31
0.0
  0
ENDBLK
  5
246
330
244
100
AcDbEntity
  8
0
100
AcDbBlockEnd
  0
BLOCK
  5
254
330
24B
100
AcDbEntity
  8
0
100
AcDbBlockBegin
  2
*D814
 70
     1
 71
     0
 10
0.0
 20
0.0
 30
0.0
  3
*D814
  1

  0
LINE
  5
24C
330
24B
100
AcDbEntity
  8
1
  6
Continuous
 62
     2
100
AcDbLine
 10
2118.748500327558
 20
308.8679847429859
 30
0.0
 11
2118.748500327558
 21
179.8679847429889
 31
0.0
  0
LINE
  5
24D
330
24B
100
AcDbEntity
  8
1
  6
Continuous
 62
     2
100
AcDbLine
 10
2046.748500327558
 20
308.8679847429859
 30
0.0
 11
2122.748500327558
 21
308.8679847429859
 31
0.0
  0
LINE
  5
24E
330
24B
100
AcDbEntity
  8
1
  6
Continuous
 62
     2
100
AcDbLine
 10
2051.74850032756
 20
179.8679847429889
 30
0.0
 11
2122.748500327558
 21
179.8679847429889
 31
0.0
  0
LINE
  5
24F
330
24B
100
AcDbEntity
  8
1
 62
     2
100
AcDbLine
 10
2118.748500327558
 20
308.8679847429859
 30
0.0
 11
2122.178249990677
 21
296.0679847429859
 31
0.0
  0
LINE
  5
250
330
24B
100
AcDbEntity
  8
1
 62
     2
100
AcDbLine
 10
2118.748500327558
 20
308.8679847429859
 30
0.0
 11
2115.31875066444
 21
296.0679847429859
 31
0.0
  0
LINE
  5
251
330
24B
100
AcDbEntity
  8
1
 62
     2
100
AcDbLine
 10
2118.748500327558
 20
179.8679847429889
 30
0.0
 11
2115.31875066444
 21
192.6679847429889
 31
0.0
  0
LINE
  5
252
330
24B
100
AcDbEntity
  8
1
 62
     2
100
AcDbLine
 10
2118.748500327558
 20
179.8679847429889
 30
0.0
 11
2122.178249990677
 21
192.6679847429889
 31
0.0
  0
MTEXT
  5
253
330
24B
100
AcDbEntity
  8
1
 62
     2
100
AcDbMText
 10
2112.828500327558
 20
230.0456634908269
 30
0.0
 40
12.8
 41
0.0
 71
     7
 72
     1
  1
129
  7
CONVERTER_1
 11
0.0
 21
1.0
 31
0.0
 73
     1
 44
0.60024009603842
  0
ENDBLK
  5
255
330
24B
100
AcDbEntity
  8
0
100
AcDbBlockEnd
  0
BLOCK
  5
263
330
258
100
AcDbEntity
  8
0
100
AcDbBlockBegin
  2
*D915
 70
     1
 71
     0
 10
0.0
 20
0.0
 30
0.0
  3
*D915
  1

  0
LINE
  5
259
330
258
100
AcDbEntity
  8
1
  6
Continuous
 62
     2
100
AcDbLine
 10
2118.748500327558
 20
153.8679847429893
 30
0.0
 11
2118.748500327558
 21
128.2679847429893
 31
0.0
  0
LINE
  5
25A
330
258
100
AcDbEntity
  8
1
  6
Continuous
 62
     2
100
AcDbLine
 10
2118.748500327558
 20
179.8679847429887
 30
0.0
 11
2118.748500327558
 21
153.8679847429893
 31
0.0
  0
LINE
  5
25B
330
258
100
AcDbEntity
  8
1
  6
Continuous
 62
     2
100
AcDbLine
 10
2118.748500327558
 20
205.4679847429888
 30
0.0
 11
2118.748500327558
 21
179.8679847429887
 31
0.0
  0
LINE
  5
25C
330
258
100
AcDbEntity
  8
1
  6
Continuous
 62
     2
100
AcDbLine
 10
2051.74850032756
 20
179.8679847429887
 30
0.0
 11
2122.748500327558
 21
179.8679847429887
 31
0.0
  0
LINE
  5
25D
330
258
100
AcDbEntity
  8
1
  6
Continuous
 62
     2
100
AcDbLine
 10
2051.74850032756
 20
153.8679847429893
 30
0.0
 11
2122.748500327558
 21
153.8679847429893
 31
0.0
  0
LINE
  5
25E
330
258
100
AcDbEntity
  8
1
 62
     2
100
AcDbLine
 10
2118.748500327558
 20
179.8679847429887
 30
0.0
 11
2115.31875066444
 21
192.6679847429888
 31
0.0
  0
LINE
  5
25F
330
258
100
AcDbEntity
  8
1
 62
     2
100
AcDbLine
 10
2118.748500327558
 20
179.8679847429887
 30
0.0
 11
2122.178249990677
 21
192.6679847429888
 31
0.0
  0
LINE
  5
260
330
258
100
AcDbEntity
  8
1
 62
     2
100
AcDbLine
 10
2118.748500327558
 20
153.8679847429893
 30
0.0
 11
2122.178249990677
 21
141.0679847429893
 31
0.0
  0
LINE
  5
261
330
258
100
AcDbEntity
  8
1
 62
     2
100
AcDbLine
 10
2118.748500327558
 20
153.8679847429893
 30
0.0
 11
2115.31875066444
 21
141.0679847429893
 31
0.0
  0
MTEXT
  5
262
330
258
100
AcDbEntity
  8
1
 62
     2
100
AcDbMText
 10
2112.828500327558
 20
156.9617635755373
 30
0.0
 40
12.8
 41
0.0
 71
     7
 72
     1
  1
26
  7
CONVERTER_1
 11
0.0
 21
1.0
 31
0.0
 73
     1
 44
0.60024009603842
  0
ENDBLK
  5
264
330
258
100
AcDbEntity
  8
0
100
AcDbBlockEnd
  0
ENDSEC
  0
SECTION
  2
ENTITIES
  0
INSERT
  5
38
330
1F
100
AcDbEntity
  8
0
100
AcDbBlockReference
  2
Zuwaku-A3-web
 10
2028.095483858449
 20
354.73127528472
 30
0.0
 41
4.0
 42
4.0
 43
4.0
  0
INSERT
  5
39
330
1F
100
AcDbEntity
  8
1
100
AcDbBlockReference
  2
_2
 10
2308.382598206084
 20
179.8679847429889
 30
0.0
  0
LINE
  5
65
330
1F
100
AcDbEntity
  8
1
  6
Continuous
 62
     2
100
AcDbLine
 10
1894.793287633189
 20
189.655656313419
 30
0.0
 11
1906.340293016981
 21
209.655656313419
 31
0.0
  0
LINE
  5
66
330
1F
100
AcDbEntity
  8
1
  6
Continuous
 62
     2
100
AcDbLine
 10
1917.887298400774
 20
189.655656313419
 30
0.0
 11
1894.793287633189
 21
189.655656313419
 31
0.0
  0
LINE
  5
67
330
1F
100
AcDbEntity
  8
1
  6
Continuous
 62
     2
100
AcDbLine
 10
1906.340293016981
 20
209.655656313419
 30
0.0
 11
1917.887298400774
 21
189.655656313419
 31
0.0
  0
LINE
  5
68
330
1F
100
AcDbEntity
  8
1
  6
Continuous
 62
   140
100
AcDbLine
 10
1794.853022236924
 20
135.3055190892131
 30
0.0
 11
1794.853022236924
 21
153.8679847429895
 31
0.0
  0
LINE
  5
69
330
1F
100
AcDbEntity
  8
1
  6
Continuous
 62
   140
100
AcDbLine
 10
1790.853022236924
 20
135.3055190892131
 30
0.0
 11
1790.853022236924
 21
153.8679847429895
 31
0.0
  0
LINE
  5
6A
330
1F
100
AcDbEntity
  8
1
  6
Continuous
 62
   140
100
AcDbLine
 10
1788.853022236924
 20
129.3055190892131
 30
0.0
 11
1687.103554065434
 21
129.3055190892131
 31
0.0
  0
LINE
  5
6B
330
1F
100
AcDbEntity
  8
1
  6
Continuous
 62
   140
100
AcDbLine
 10
1788.853022236926
 20
133.3055190892131
 30
0.0
 11
1687.103554065434
 21
133.3055190892131
 31
0.0
  0
LINE
  5
6C
330
1F
100
AcDbEntity
  8
1
  6
Continuous
 62
   140
100
AcDbLine
 10
1687.103554065434
 20
128.3055190892131
 30
0.0
 11
1687.103554065434
 21
134.3055190892131
 31
0.0
  0
LINE
  5
6D
330
1F
100
AcDbEntity
  8
1
  6
Continuous
 62
   140
100
AcDbLine
 10
1677.103554065434
 20
126.3055190892131
 30
0.0
 11
1687.103554065434
 21
128.3055190892131
 31
0.0
  0
LINE
  5
6E
330
1F
100
AcDbEntity
  8
1
  6
Continuous
 62
   140
100
AcDbLine
 10
1672.103554065434
 20
126.3055190892131
 30
0.0
 11
1677.103554065434
 21
126.3055190892131
 31
0.0
  0
LINE
  5
6F
330
1F
100
AcDbEntity
  8
1
  6
Continuous
 62
   140
100
AcDbLine
 10
1672.103554065434
 20
136.3055190892131
 30
0.0
 11
1672.103554065434
 21
126.3055190892131
 31
0.0
  0
LINE
  5
70
330
1F
100
AcDbEntity
  8
1
  6
Continuous
 62
   140
100
AcDbLine
 10
1677.103554065434
 20
136.3055190892131
 30
0.0
 11
1672.103554065434
 21
136.3055190892131
 31
0.0
  0
LINE
  5
71
330
1F
100
AcDbEntity
  8
1
  6
Continuous
 62
   140
100
AcDbLine
 10
1687.103554065434
 20
134.3055190892131
 30
0.0
 11
1677.103554065434
 21
136.3055190892131
 31
0.0
  0
LINE
  5
72
330
1F
100
AcDbEntity
  8
1
  6
Continuous
 62
   140
100
AcDbLine
 10
1664.603554065434
 20
133.3055190892131
 30
0.0
 11
1672.103554065434
 21
133.3055190892131
 31
0.0
  0
LINE
  5
73
330
1F
100
AcDbEntity
  8
1
  6
Continuous
 62
   140
100
AcDbLine
 10
1672.103554065434
 20
129.3055190892131
 30
0.0
 11
1664.603554065434
 21
129.3055190892131
 31
0.0
  0
LINE
  5
74
330
1F
100
AcDbEntity
  8
1
  6
DASHED
 62
   140
100
AcDbLine
 10
1740.24877132756
 20
211.417752720444
 30
0.0
 11
1788.853022236924
 21
211.417752720444
 31
0.0
  0
LINE
  5
75
330
1F
100
AcDbEntity
  8
1
  6
DASHED
 62
   140
100
AcDbLine
 10
1740.24877132756
 20
207.417752720444
 30
0.0
 11
1788.853022236924
 21
207.417752720444
 31
0.0
  0
LINE
  5
76
330
1F
100
AcDbEntity
  8
1
  6
DASHED
 62
   140
100
AcDbLine
 10
1790.853022236924
 20
153.8679847429895
 30
0.0
 11
1790.853022236924
 21
205.417752720444
 31
0.0
  0
LINE
  5
77
330
1F
100
AcDbEntity
  8
1
  6
DASHED
 62
   140
100
AcDbLine
 10
1794.853022236924
 20
153.8679847429895
 30
0.0
 11
1794.853022236924
 21
205.417752720444
 31
0.0
  0
LINE
  5
78
330
1F
100
AcDbEntity
  8
1
  6
Continuous
 62
     3
100
AcDbLine
 10
2007.748500327568
 20
230.3679847429856
 30
0.0
 11
2012.248500327554
 21
230.3679847429856
 31
0.0
  0
LINE
  5
79
330
1F
100
AcDbEntity
  8
1
  6
Continuous
 62
     3
100
AcDbLine
 10
2007.748500327568
 20
255.3679847429856
 30
0.0
 11
2011.748500327557
 21
255.3679847429856
 31
0.0
  0
LINE
  5
7A
330
1F
100
AcDbEntity
  8
1
  6
Continuous
 62
     3
100
AcDbLine
 10
2007.748500327568
 20
230.3679847429856
 30
0.0
 11
2007.748500327568
 21
255.3679847429856
 31
0.0
  0
LINE
  5
7B
330
1F
100
AcDbEntity
  8
1
  6
Continuous
 62
     3
100
AcDbLine
 10
2037.74850032757
 20
232.867984742986
 30
0.0
 11
2037.748500327569
 21
237.8679847429856
 31
0.0
  0
LINE
  5
7C
330
1F
100
AcDbEntity
  8
1
  6
Continuous
 62
     3
100
AcDbLine
 10
2037.74850032757
 20
232.867984742986
 30
0.0
 11
2036.248500327549
 21
232.867984742986
 31
0.0
  0
LINE
  5
7D
330
1F
100
AcDbEntity
  8
1
  6
Continuous
 62
     7
100
AcDbLine
 10
2005.74850032755
 20
267.8679847429856
 30
0.0
 11
2005.74850032755
 21
186.8679847429856
 31
0.0
  0
LINE
  5
7E
330
1F
100
AcDbEntity
  8
1
  6
Continuous
 62
     7
100
AcDbLine
 10
1998.74850032755
 20
179.8679847429856
 30
0.0
 11
1948.74850032755
 21
179.8679847429856
 31
0.0
  0
LINE
  5
7F
330
1F
100
AcDbEntity
  8
1
  6
Continuous
 62
     7
100
AcDbLine
 10
1948.74850032755
 20
179.8679847429856
 30
0.0
 11
1948.74850032755
 21
183.8679847429856
 31
0.0
  0
LINE
  5
80
330
1F
100
AcDbEntity
  8
1
  6
Continuous
 62
     7
100
AcDbLine
 10
1948.74850032755
 20
183.8679847429856
 30
0.0
 11
1998.74850032755
 21
183.8679847429856
 31
0.0
  0
LINE
  5
81
330
1F
100
AcDbEntity
  8
1
  6
Continuous
 62
     7
100
AcDbLine
 10
2001.74850032755
 20
186.8679847429856
 30
0.0
 11
2001.74850032755
 21
267.8679847429856
 31
0.0
  0
LINE
  5
82
330
1F
100
AcDbEntity
  8
1
  6
Continuous
 62
     7
100
AcDbLine
 10
2001.74850032755
 20
267.8679847429856
 30
0.0
 11
2005.74850032755
 21
267.8679847429856
 31
0.0
  0
LINE
  5
83
330
1F
100
AcDbEntity
  8
1
  6
DASH_CENTER
 62
     3
100
AcDbLine
 10
1957.74850032755
 20
188.8679847429856
 30
0.0
 11
1957.74850032755
 21
174.8679847429856
 31
0.0
  0
LINE
  5
84
330
1F
100
AcDbEntity
  8
1
  6
DASH_CENTER
 62
     3
100
AcDbLine
 10
1992.74850032755
 20
188.8679847429856
 30
0.0
 11
1992.74850032755
 21
174.8679847429856
 31
0.0
  0
LINE
  5
85
330
1F
100
AcDbEntity
  8
1
  6
DASH_CENTER
 62
     3
100
AcDbLine
 10
2010.74850032755
 20
227.8679847429856
 30
0.0
 11
1996.74850032755
 21
227.8679847429856
 31
0.0
  0
LINE
  5
86
330
1F
100
AcDbEntity
  8
1
  6
DASH_CENTER
 62
     3
100
AcDbLine
 10
2010.74850032755
 20
261.1020034587535
 30
0.0
 11
1996.74850032755
 21
261.1020034587535
 31
0.0
  0
LINE
  5
87
330
1F
100
AcDbEntity
  8
1
  6
DASH_CENTER
 62
     3
100
AcDbLine
 10
2010.74850032755
 20
194.6339660272186
 30
0.0
 11
1996.74850032755
 21
194.6339660272186
 31
0.0
  0
LINE
  5
88
330
1F
100
AcDbEntity
  8
0
  6
Continuous
 62
     7
100
AcDbLine
 10
1927.74850032755
 20
267.8679847429856
 30
0.0
 11
1927.74850032755
 21
187.8679847429879
 31
0.0
  0
LINE
  5
89
330
1F
100
AcDbEntity
  8
0
  6
DASH_CENTER
 62
     3
100
AcDbLine
 10
1915.74850032755
 20
227.8679847429856
 30
0.0
 11
2008.413391966068
 21
227.8679847429856
 31
0.0
  0
LINE
  5
8A
330
1F
100
AcDbEntity
  8
0
  6
Continuous
 62
     7
100
AcDbLine
 10
1969.748500327552
 20
187.8679847429856
 30
0.0
 11
1969.748500327552
 21
267.8679847429856
 31
0.0
  0
LINE
  5
8B
330
1F
100
AcDbEntity
  8
0
  6
DASH_CENTER
 62
     3
100
AcDbLine
 10
1995.748500327552
 20
242.8679847429856
 30
0.0
 11
2037.925670327551
 21
242.8679847429856
 31
0.0
  0
LINE
  5
8C
330
1F
100
AcDbEntity
  8
0
  6
Continuous
 62
     7
100
AcDbLine
 10
1927.74850032755
 20
267.8679847429856
 30
0.0
 11
2000.748500327552
 21
267.8679847429856
 31
0.0
  0
LINE
  5
8D
330
1F
100
AcDbEntity
  8
0
  6
Continuous
 62
     7
100
AcDbLine
 10
1927.74850032755
 20
187.8679847429879
 30
0.0
 11
2000.748500327552
 21
187.8679847429856
 31
0.0
  0
LINE
  5
8E
330
1F
100
AcDbEntity
  8
0
  6
Continuous
 62
     7
100
AcDbLine
 10
1961.748500327552
 20
267.8679847429856
 30
0.0
 11
1961.748500327549
 21
187.8679847429856
 31
0.0
  0
LINE
  5
8F
330
1F
100
AcDbEntity
  8
0
  6
Continuous
 62
     4
100
AcDbLine
 10
2005.748500327549
 20
237.8679847429865
 30
0.0
 11
2007.748500327568
 21
237.8679847429865
 31
0.0
  0
LINE
  5
90
330
1F
100
AcDbEntity
  8
0
  6
Continuous
 62
     4
100
AcDbLine
 10
2005.748500327549
 20
247.8679847429856
 30
0.0
 11
2007.748500327568
 21
247.8679847429856
 31
0.0
  0
LINE
  5
91
330
1F
100
AcDbEntity
  8
1
  6
Continuous
 62
   140
100
AcDbLine
 10
1631.696677327559
 20
241.3909092429898
 30
0.0
 11
1632.54820932756
 21
241.6179842429886
 31
0.0
  0
LINE
  5
92
330
1F
100
AcDbEntity
  8
1
  6
Continuous
 62
   140
100
AcDbLine
 10
1631.54820932756
 20
241.1976622429905
 30
0.0
 11
1631.54820932756
 21
219.7883072429907
 31
0.0
  0
LINE
  5
93
330
1F
100
AcDbEntity
  8
1
  6
Continuous
 62
   140
100
AcDbLine
 10
1626.70350332756
 20
238.904829242991
 30
0.0
 11
1631.366316327559
 21
239.3287212429899
 31
0.0
  0
LINE
  5
94
330
1F
100
AcDbEntity
  8
1
  6
Continuous
 62
   140
100
AcDbLine
 10
1632.748500327559
 20
238.6676942429897
 30
0.0
 11
1632.54820932756
 21
238.8679842429886
 31
0.0
  0
LINE
  5
95
330
1F
100
AcDbEntity
  8
1
  6
Continuous
 62
   140
100
AcDbLine
 10
1632.54820932756
 20
241.6179842429886
 30
0.0
 11
1632.54820932756
 21
220.8679842429886
 31
0.0
  0
LINE
  5
96
330
1F
100
AcDbEntity
  8
1
  6
Continuous
 62
   140
100
AcDbLine
 10
1632.748500327559
 20
221.0682752429896
 30
0.0
 11
1632.54820932756
 21
220.8679842429886
 31
0.0
  0
LINE
  5
97
330
1F
100
AcDbEntity
  8
1
  6
Continuous
 62
   140
100
AcDbLine
 10
1632.54820932756
 20
219.3679842429886
 30
0.0
 11
1632.54820932756
 21
220.8679842429886
 31
0.0
  0
LINE
  5
98
330
1F
100
AcDbEntity
  8
1
  6
Continuous
 62
   140
100
AcDbLine
 10
1631.696677327559
 20
219.5950602429896
 30
0.0
 11
1632.54820932756
 21
219.3679842429886
 31
0.0
  0
LINE
  5
99
330
1F
100
AcDbEntity
  8
1
  6
Continuous
 62
   140
100
AcDbLine
 10
1626.70350332756
 20
220.8311392429899
 30
0.0
 11
1631.38789732756
 21
220.4052852429907
 31
0.0
  0
LINE
  5
9A
330
1F
100
AcDbEntity
  8
1
  6
Continuous
 62
   140
100
AcDbLine
 10
1635.748500327559
 20
199.8679847429889
 30
0.0
 11
1635.748500327559
 21
259.8668457429889
 31
0.0
  0
LINE
  5
9B
330
1F
100
AcDbEntity
  8
1
  6
Continuous
 62
   140
100
AcDbLine
 10
1632.748500327559
 20
199.8679847429889
 30
0.0
 11
1632.748500327559
 21
259.8679847429888
 31
0.0
  0
LINE
  5
9C
330
1F
100
AcDbEntity
  8
1
  6
Continuous
 62
   140
100
AcDbLine
 10
1635.74877132756
 20
199.8668457429888
 30
0.0
 11
1632.748500327559
 21
199.8668457429888
 31
0.0
  0
LINE
  5
9D
330
1F
100
AcDbEntity
  8
1
  6
Continuous
 62
   140
100
AcDbLine
 10
1635.748500327559
 20
259.8668457429889
 30
0.0
 11
1632.748500327559
 21
259.8668457429889
 31
0.0
  0
LINE
  5
9E
330
1F
100
AcDbEntity
  8
1
  6
DASHED
 62
   140
100
AcDbLine
 10
1637.74877132756
 20
255.8679847429888
 30
0.0
 11
1739.74877132756
 21
255.8679847429906
 31
0.0
  0
LINE
  5
9F
330
1F
100
AcDbEntity
  8
1
  6
Continuous
 62
   140
100
AcDbLine
 10
1635.74877132756
 20
259.8679847429888
 30
0.0
 11
1637.74877132756
 21
259.8679847429888
 31
0.0
  0
LINE
  5
A0
330
1F
100
AcDbEntity
  8
1
  6
Continuous
 62
   140
100
AcDbLine
 10
1635.74877132756
 20
199.8679847429889
 30
0.0
 11
1637.74877132756
 21
199.8679847429889
 31
0.0
  0
LINE
  5
A1
330
1F
100
AcDbEntity
  8
1
  6
PHANTOM
 62
   140
100
AcDbLine
 10
1740.24877132756
 20
214.3679847429889
 30
0.0
 11
1739.74877132756
 21
214.3679847429889
 31
0.0
  0
LINE
  5
A2
330
1F
100
AcDbEntity
  8
1
  6
PHANTOM
 62
   140
100
AcDbLine
 10
1740.24877132756
 20
204.3679847429889
 30
0.0
 11
1739.74877132756
 21
204.3679847429889
 31
0.0
  0
LINE
  5
A3
330
1F
100
AcDbEntity
  8
1
  6
PHANTOM
 62
   140
100
AcDbLine
 10
1740.24877132756
 20
214.3679847429889
 30
0.0
 11
1740.24877132756
 21
204.3679847429889
 31
0.0
  0
LINE
  5
A4
330
1F
100
AcDbEntity
  8
1
  6
Continuous
 62
   140
100
AcDbLine
 10
1626.24877132756
 20
221.3290862429898
 30
0.0
 11
1626.24877132756
 21
238.4068832429896
 31
0.0
  0
LINE
  5
A5
330
1F
100
AcDbEntity
  8
1
  6
DASHED
 62
   140
100
AcDbLine
 10
1637.74877132756
 20
203.8679847429906
 30
0.0
 11
1739.74877132756
 21
203.8679847429906
 31
0.0
  0
LINE
  5
A6
330
1F
100
AcDbEntity
  8
1
  6
DASHED
 62
   140
100
AcDbLine
 10
1739.74877132756
 20
203.8679847429906
 30
0.0
 11
1739.74877132756
 21
255.8679847429906
 31
0.0
  0
LINE
  5
A7
330
1F
100
AcDbEntity
  8
1
  6
DASH_CENTER
 62
     3
100
AcDbLine
 10
1755.170484030189
 20
229.8679847429889
 30
0.0
 11
1622.170484030189
 21
229.8679847429889
 31
0.0
  0
LINE
  5
A8
330
1F
100
AcDbEntity
  8
1
  6
Continuous
 62
     7
100
AcDbLine
 10
1948.748500327552
 20
179.8679847429889
 30
0.0
 11
2007.248500327552
 21
179.8679847429889
 31
0.0
  0
LINE
  5
A9
330
1F
100
AcDbEntity
  8
1
  6
Continuous
 62
     7
100
AcDbLine
 10
1867.92794935871
 20
245.8679847429889
 30
0.0
 11
1639.748500327561
 21
245.8679847429889
 31
0.0
  0
LINE
  5
AA
330
1F
100
AcDbEntity
  8
1
  6
DASH_CENTER
 62
     3
100
AcDbLine
 10
1869.94125899588
 20
239.8679847429889
 30
0.0
 11
1631.588522635838
 21
239.8679847429889
 31
0.0
  0
LINE
  5
AB
330
1F
100
AcDbEntity
  8
1
  6
Continuous
 62
     7
100
AcDbLine
 10
1864.748500327561
 20
233.8679847429889
 30
0.0
 11
1639.748500327561
 21
233.8679847429889
 31
0.0
  0
LINE
  5
AC
330
1F
100
AcDbEntity
  8
1
  6
DASH_CENTER
 62
     3
100
AcDbLine
 10
2038.099326495489
 20
524.3702797517093
 30
0.0
 11
2052.099326495489
 21
524.3702797517093
 31
0.0
  0
LINE
  5
AD
330
1F
100
AcDbEntity
  8
1
  6
DASH_CENTER
 62
     3
100
AcDbLine
 10
2038.099326495489
 20
624.3702797517184
 30
0.0
 11
2052.099326495489
 21
624.3702797517184
 31
0.0
  0
LINE
  5
AE
330
1F
100
AcDbEntity
  8
1
  6
Continuous
 62
     3
100
AcDbLine
 10
2042.748500327557
 20
287.867984742987
 30
0.0
 11
2045.748500327557
 21
287.867984742987
 31
0.0
  0
LINE
  5
AF
330
1F
100
AcDbEntity
  8
1
  6
Continuous
 62
     3
100
AcDbLine
 10
2011.748500327556
 20
240.867984742987
 30
0.0
 11
2011.748500327556
 21
284.867984742987
 31
0.0
  0
LINE
  5
B0
330
1F
100
AcDbEntity
  8
1
  6
Continuous
 62
     3
100
AcDbLine
 10
2045.748500327557
 20
237.867984742987
 30
0.0
 11
2045.748500327557
 21
287.867984742987
 31
0.0
  0
LINE
  5
B1
330
1F
100
AcDbEntity
  8
1
  6
Continuous
 62
     3
100
AcDbLine
 10
2014.748500327556
 20
237.867984742987
 30
0.0
 11
2045.748500327557
 21
237.867984742987
 31
0.0
  0
LINE
  5
B2
330
1F
100
AcDbEntity
  8
1
  6
Continuous
 62
     3
100
AcDbLine
 10
2013.748500327554
 20
286.867984742987
 30
0.0
 11
2011.748500327556
 21
284.867984742987
 31
0.0
  0
LINE
  5
B3
330
1F
100
AcDbEntity
  8
1
  6
Continuous
 62
     3
100
AcDbLine
 10
2011.748500327556
 20
240.867984742987
 30
0.0
 11
2014.748500327556
 21
237.867984742987
 31
0.0
  0
LINE
  5
B4
330
1F
100
AcDbEntity
  8
1
  6
DASH_CENTER
 62
     3
100
AcDbLine
 10
2041.298893921359
 20
265.367984742987
 30
0.0
 11
2051.298893921359
 21
265.367984742987
 31
0.0
  0
LINE
  5
B5
330
1F
100
AcDbEntity
  8
1
  6
DASH_CENTER
 62
     3
100
AcDbLine
 10
2041.298893921359
 20
245.367984742987
 30
0.0
 11
2051.298893921359
 21
245.367984742987
 31
0.0
  0
LINE
  5
B6
330
1F
100
AcDbEntity
  8
1
  6
DASHED
 62
     4
100
AcDbLine
 10
2045.748500327556
 20
628.8702797517184
 30
0.0
 11
2045.748500327556
 21
619.8702797517202
 31
0.0
  0
LINE
  5
B7
330
1F
100
AcDbEntity
  8
1
  6
DASHED
 62
     4
100
AcDbLine
 10
2011.748500327556
 20
628.8702797517184
 30
0.0
 11
2045.748500327556
 21
628.8702797517184
 31
0.0
  0
LINE
  5
B8
330
1F
100
AcDbEntity
  8
1
  6
DASHED
 62
     4
100
AcDbLine
 10
2011.748500327556
 20
619.8702797517202
 30
0.0
 11
2011.748500327556
 21
628.8702797517184
 31
0.0
  0
LINE
  5
B9
330
1F
100
AcDbEntity
  8
1
  6
DASHED
 62
     4
100
AcDbLine
 10
2045.748500327556
 20
619.8702797517202
 30
0.0
 11
2011.748500327556
 21
619.8702797517202
 31
0.0
  0
LINE
  5
BA
330
1F
100
AcDbEntity
  8
1
  6
DASHED
 62
     4
100
AcDbLine
 10
2011.748500327556
 20
528.8702797517075
 30
0.0
 11
2045.748500327556
 21
528.8702797517093
 31
0.0
  0
LINE
  5
BB
330
1F
100
AcDbEntity
  8
1
  6
DASHED
 62
     4
100
AcDbLine
 10
2011.748500327556
 20
519.8702797517102
 30
0.0
 11
2011.748500327556
 21
528.8702797517075
 31
0.0
  0
LINE
  5
BC
330
1F
100
AcDbEntity
  8
1
  6
DASHED
 62
     4
100
AcDbLine
 10
2045.748500327556
 20
519.8702797517102
 30
0.0
 11
2011.748500327556
 21
519.8702797517102
 31
0.0
  0
LINE
  5
BD
330
1F
100
AcDbEntity
  8
1
  6
DASHED
 62
     4
100
AcDbLine
 10
2045.748500327556
 20
528.8702797517093
 30
0.0
 11
2045.748500327556
 21
519.8702797517102
 31
0.0
  0
LINE
  5
BE
330
1F
100
AcDbEntity
  8
1
  6
Continuous
 62
     3
100
AcDbLine
 10
2037.74850032757
 20
232.867984742986
 30
0.0
 11
2036.248500327549
 21
232.867984742986
 31
0.0
  0
LINE
  5
BF
330
1F
100
AcDbEntity
  8
1
  6
Continuous
 62
     3
100
AcDbLine
 10
2037.74850032757
 20
232.867984742986
 30
0.0
 11
2037.748500327569
 21
237.867984742987
 31
0.0
  0
LINE
  5
C0
330
1F
100
AcDbEntity
  8
1
  6
DASH_CENTER
 62
     3
100
AcDbLine
 10
2024.248500327552
 20
265.4905951043386
 30
0.0
 11
2024.248500327563
 21
219.1451761867577
 31
0.0
  0
LINE
  5
C1
330
1F
100
AcDbEntity
  8
1
  6
Continuous
 62
     2
100
AcDbLine
 10
2034.748500327548
 20
237.867984742987
 30
0.0
 11
2034.74850032755
 21
221.867984742987
 31
0.0
  0
LINE
  5
C2
330
1F
100
AcDbEntity
  8
1
  6
Continuous
 62
     2
100
AcDbLine
 10
2034.74850032755
 20
221.867984742987
 30
0.0
 11
2013.748500327552
 21
221.867984742987
 31
0.0
  0
LINE
  5
C3
330
1F
100
AcDbEntity
  8
1
  6
Continuous
 62
     2
100
AcDbLine
 10
2036.24850032755
 20
237.867984742987
 30
0.0
 11
2036.24850032755
 21
225.117984742987
 31
0.0
  0
LINE
  5
C4
330
1F
100
AcDbEntity
  8
1
  6
Continuous
 62
     2
100
AcDbLine
 10
2013.748500327552
 20
225.117984742987
 30
0.0
 11
2012.248500327552
 21
225.117984742987
 31
0.0
  0
LINE
  5
C5
330
1F
100
AcDbEntity
  8
1
  6
Continuous
 62
     2
100
AcDbLine
 10
2036.24850032755
 20
225.117984742987
 30
0.0
 11
2034.74850032755
 21
225.117984742987
 31
0.0
  0
LINE
  5
C6
330
1F
100
AcDbEntity
  8
1
  6
Continuous
 62
     2
100
AcDbLine
 10
2013.748500327552
 20
221.867984742987
 30
0.0
 11
2013.74850032755
 21
238.8679847429906
 31
0.0
  0
LINE
  5
C7
330
1F
100
AcDbEntity
  8
1
  6
Continuous
 62
     2
100
AcDbLine
 10
2012.248500327552
 20
225.117984742987
 30
0.0
 11
2012.248500327552
 21
240.3679847429906
 31
0.0
  0
LINE
  5
C8
330
1F
100
AcDbEntity
  8
1
  6
DASH_CENTER
 62
     3
100
AcDbLine
 10
2010.715882055005
 20
275.367984742987
 30
0.0
 11
2037.781118600106
 21
275.367984742987
 31
0.0
  0
LINE
  5
C9
330
1F
100
AcDbEntity
  8
1
  6
DASH_CENTER
 62
     3
100
AcDbLine
 10
2024.248500327556
 20
261.8353664704376
 30
0.0
 11
2024.248500327556
 21
308.867984742987
 31
0.0
  0
LINE
  5
CA
330
1F
100
AcDbEntity
  8
1
  6
DASHED
 62
     4
100
AcDbLine
 10
2032.748500327556
 20
645.3702797517166
 30
0.0
 11
2032.748500327556
 21
646.5702797517137
 31
0.0
  0
LINE
  5
CB
330
1F
100
AcDbEntity
  8
1
  6
DASHED
 62
     4
100
AcDbLine
 10
2015.748500327556
 20
645.3702797517166
 30
0.0
 11
2032.748500327556
 21
645.3702797517166
 31
0.0
  0
LINE
  5
CC
330
1F
100
AcDbEntity
  8
1
  6
DASHED
 62
     4
100
AcDbLine
 10
2015.748500327556
 20
646.5702797517137
 30
0.0
 11
2015.748500327556
 21
645.3702797517166
 31
0.0
  0
LINE
  5
CD
330
1F
100
AcDbEntity
  8
1
  6
DASHED
 62
     4
100
AcDbLine
 10
2032.748500327556
 20
646.5702797517137
 30
0.0
 11
2015.748500327556
 21
646.5702797517137
 31
0.0
  0
LINE
  5
CE
330
1F
100
AcDbEntity
  8
1
  6
DASHED
 62
     4
100
AcDbLine
 10
2013.748500327556
 20
619.3702797517166
 30
0.0
 11
2034.748500327556
 21
619.3702797517166
 31
0.0
  0
LINE
  5
CF
330
1F
100
AcDbEntity
  8
1
  6
DASHED
 62
     4
100
AcDbLine
 10
2032.248500327556
 20
644.3702797517166
 30
0.0
 11
2032.248500327556
 21
645.3702797517166
 31
0.0
  0
LINE
  5
D0
330
1F
100
AcDbEntity
  8
1
  6
DASHED
 62
     4
100
AcDbLine
 10
2034.748500327556
 20
644.3702797517166
 30
0.0
 11
2013.748500327556
 21
644.3702797517166
 31
0.0
  0
LINE
  5
D1
330
1F
100
AcDbEntity
  8
1
  6
DASHED
 62
     4
100
AcDbLine
 10
2016.248500327556
 20
645.3702797517166
 30
0.0
 11
2016.248500327556
 21
644.3702797517166
 31
0.0
  0
LINE
  5
D2
330
1F
100
AcDbEntity
  8
1
  6
DASHED
 62
     4
100
AcDbLine
 10
2013.748500327556
 20
629.3702797517166
 30
0.0
 11
2013.748500327556
 21
644.3702797517166
 31
0.0
  0
LINE
  5
D3
330
1F
100
AcDbEntity
  8
1
  6
DASHED
 62
     4
100
AcDbLine
 10
2013.748500327556
 20
629.3702797517166
 30
0.0
 11
2034.748500327556
 21
629.3702797517166
 31
0.0
  0
LINE
  5
D4
330
1F
100
AcDbEntity
  8
1
  6
DASHED
 62
     4
100
AcDbLine
 10
2034.748500327556
 20
644.3702797517166
 30
0.0
 11
2034.748500327556
 21
629.3702797517166
 31
0.0
  0
LINE
  5
D5
330
1F
100
AcDbEntity
  8
1
  6
DASHED
 62
     4
100
AcDbLine
 10
2034.748500327556
 20
589.3702797517093
 30
0.0
 11
2013.748500327556
 21
589.3702797517093
 31
0.0
  0
LINE
  5
D6
330
1F
100
AcDbEntity
  8
1
  6
DASHED
 62
     4
100
AcDbLine
 10
2034.748500327556
 20
559.3702797517093
 30
0.0
 11
2013.748500327556
 21
559.3702797517093
 31
0.0
  0
LINE
  5
D7
330
1F
100
AcDbEntity
  8
1
  6
DASHED
 62
     4
100
AcDbLine
 10
2034.748500327556
 20
519.3702797517129
 30
0.0
 11
2034.748500327556
 21
504.3702797517129
 31
0.0
  0
LINE
  5
D8
330
1F
100
AcDbEntity
  8
1
  6
DASHED
 62
     4
100
AcDbLine
 10
2034.748500327556
 20
519.3702797517129
 30
0.0
 11
2013.748500327556
 21
519.3702797517129
 31
0.0
  0
LINE
  5
D9
330
1F
100
AcDbEntity
  8
1
  6
DASHED
 62
     4
100
AcDbLine
 10
2013.748500327556
 20
504.3702797517129
 30
0.0
 11
2013.748500327556
 21
519.3702797517129
 31
0.0
  0
LINE
  5
DA
330
1F
100
AcDbEntity
  8
1
  6
DASHED
 62
     4
100
AcDbLine
 10
2016.248500327556
 20
504.3702797517129
 30
0.0
 11
2016.248500327556
 21
503.3702797517129
 31
0.0
  0
LINE
  5
DB
330
1F
100
AcDbEntity
  8
1
  6
DASHED
 62
     4
100
AcDbLine
 10
2013.748500327556
 20
504.3702797517129
 30
0.0
 11
2034.748500327556
 21
504.3702797517129
 31
0.0
  0
LINE
  5
DC
330
1F
100
AcDbEntity
  8
1
  6
DASHED
 62
     4
100
AcDbLine
 10
2032.248500327556
 20
503.3702797517129
 30
0.0
 11
2032.248500327556
 21
504.3702797517129
 31
0.0
  0
LINE
  5
DD
330
1F
100
AcDbEntity
  8
1
  6
DASHED
 62
     4
100
AcDbLine
 10
2034.748500327556
 20
529.3702797517102
 30
0.0
 11
2013.748500327556
 21
529.3702797517102
 31
0.0
  0
LINE
  5
DE
330
1F
100
AcDbEntity
  8
1
  6
DASHED
 62
     4
100
AcDbLine
 10
2034.748500327556
 20
619.3702797517102
 30
0.0
 11
2034.748500327556
 21
529.3702797517102
 31
0.0
  0
LINE
  5
DF
330
1F
100
AcDbEntity
  8
1
  6
DASHED
 62
     4
100
AcDbLine
 10
2013.748500327556
 20
529.3702797517102
 30
0.0
 11
2013.748500327556
 21
619.3702797517102
 31
0.0
  0
LINE
  5
E0
330
1F
100
AcDbEntity
  8
1
  6
DASH_CENTER
 62
     3
100
AcDbLine
 10
2024.248500327556
 20
496.131387999378
 30
0.0
 11
2024.248500327556
 21
652.4983352379162
 31
0.0
  0
LINE
  5
E1
330
1F
100
AcDbEntity
  8
1
  6
DASHED
 62
     4
100
AcDbLine
 10
2015.748500327556
 20
502.170279751714
 30
0.0
 11
2032.748500327556
 21
502.170279751714
 31
0.0
  0
LINE
  5
E2
330
1F
100
AcDbEntity
  8
1
  6
DASHED
 62
     4
100
AcDbLine
 10
2015.748500327556
 20
503.3702797517129
 30
0.0
 11
2015.748500327556
 21
502.170279751714
 31
0.0
  0
LINE
  5
E3
330
1F
100
AcDbEntity
  8
1
  6
DASHED
 62
     4
100
AcDbLine
 10
2032.748500327556
 20
503.3702797517129
 30
0.0
 11
2015.748500327556
 21
503.3702797517129
 31
0.0
  0
LINE
  5
E4
330
1F
100
AcDbEntity
  8
1
  6
DASHED
 62
     4
100
AcDbLine
 10
2032.748500327556
 20
502.170279751714
 30
0.0
 11
2032.748500327556
 21
503.3702797517129
 31
0.0
  0
LINE
  5
E5
330
1F
100
AcDbEntity
  8
1
  6
Continuous
 62
     7
100
AcDbLine
 10
1644.748500327561
 20
308.867984742987
 30
0.0
 11
1644.748500327561
 21
286.867984742987
 31
0.0
  0
LINE
  5
E6
330
1F
100
AcDbEntity
  8
1
  6
Continuous
 62
     7
100
AcDbLine
 10
2040.748500327557
 20
286.867984742987
 30
0.0
 11
2040.748500327557
 21
308.867984742987
 31
0.0
  0
LINE
  5
E7
330
1F
100
AcDbEntity
  8
1
  6
Continuous
 62
     3
100
AcDbLine
 10
2042.748500327557
 20
293.867984742987
 30
0.0
 11
2045.748500327557
 21
293.867984742987
 31
0.0
  0
LINE
  5
E8
330
1F
100
AcDbEntity
  8
1
  6
Continuous
 62
     3
100
AcDbLine
 10
2042.748500327557
 20
301.867984742987
 30
0.0
 11
2045.748500327557
 21
301.867984742987
 31
0.0
  0
LINE
  5
E9
330
1F
100
AcDbEntity
  8
1
  6
Continuous
 62
     7
100
AcDbLine
 10
1644.748500327561
 20
522.8702797517166
 30
0.0
 11
1644.748500327561
 21
500.8702797517166
 31
0.0
  0
LINE
  5
EA
330
1F
100
AcDbEntity
  8
1
  6
Continuous
 62
     7
100
AcDbLine
 10
1644.748500327561
 20
547.8702797517166
 30
0.0
 11
1644.748500327561
 21
525.8702797517166
 31
0.0
  0
LINE
  5
EB
330
1F
100
AcDbEntity
  8
1
  6
Continuous
 62
     7
100
AcDbLine
 10
1644.748500327561
 20
572.8702797517166
 30
0.0
 11
1644.748500327561
 21
550.8702797517166
 31
0.0
  0
LINE
  5
EC
330
1F
100
AcDbEntity
  8
1
  6
Continuous
 62
     7
100
AcDbLine
 10
1644.748500327561
 20
597.8702797517166
 30
0.0
 11
1644.748500327561
 21
575.8702797517166
 31
0.0
  0
LINE
  5
ED
330
1F
100
AcDbEntity
  8
1
  6
Continuous
 62
     7
100
AcDbLine
 10
1644.748500327561
 20
622.8702797517166
 30
0.0
 11
1644.748500327561
 21
600.8702797517166
 31
0.0
  0
LINE
  5
EE
330
1F
100
AcDbEntity
  8
1
  6
Continuous
 62
     7
100
AcDbLine
 10
1644.748500327561
 20
647.8702797517166
 30
0.0
 11
1644.748500327561
 21
625.8702797517166
 31
0.0
  0
LINE
  5
EF
330
1F
100
AcDbEntity
  8
1
  6
Continuous
 62
     7
100
AcDbLine
 10
2040.748500327557
 20
500.8702797517166
 30
0.0
 11
2040.748500327557
 21
522.8702797517166
 31
0.0
  0
LINE
  5
F0
330
1F
100
AcDbEntity
  8
1
  6
Continuous
 62
     7
100
AcDbLine
 10
2040.748500327557
 20
525.8702797517166
 30
0.0
 11
2040.748500327557
 21
547.8702797517166
 31
0.0
  0
LINE
  5
F1
330
1F
100
AcDbEntity
  8
1
  6
Continuous
 62
     7
100
AcDbLine
 10
2040.748500327557
 20
550.8702797517166
 30
0.0
 11
2040.748500327557
 21
572.8702797517166
 31
0.0
  0
LINE
  5
F2
330
1F
100
AcDbEntity
  8
1
  6
Continuous
 62
     7
100
AcDbLine
 10
2040.748500327557
 20
575.8702797517166
 30
0.0
 11
2040.748500327557
 21
597.8702797517166
 31
0.0
  0
LINE
  5
F3
330
1F
100
AcDbEntity
  8
1
  6
Continuous
 62
     7
100
AcDbLine
 10
2040.748500327557
 20
600.8702797517166
 30
0.0
 11
2040.748500327557
 21
622.8702797517166
 31
0.0
  0
LINE
  5
F4
330
1F
100
AcDbEntity
  8
1
  6
Continuous
 62
     7
100
AcDbLine
 10
2040.748500327557
 20
625.8702797517166
 30
0.0
 11
2040.748500327557
 21
647.8702797517166
 31
0.0
  0
LINE
  5
F5
330
1F
100
AcDbEntity
  8
1
  6
Continuous
 62
     3
100
AcDbLine
 10
2042.748500327557
 20
507.8702797517166
 30
0.0
 11
2045.748500327557
 21
507.8702797517166
 31
0.0
  0
LINE
  5
F6
330
1F
100
AcDbEntity
  8
1
  6
Continuous
 62
     3
100
AcDbLine
 10
2042.748500327557
 20
515.8702797517166
 30
0.0
 11
2045.748500327557
 21
515.8702797517166
 31
0.0
  0
LINE
  5
F7
330
1F
100
AcDbEntity
  8
1
  6
Continuous
 62
     3
100
AcDbLine
 10
2042.748500327557
 20
532.8702797517166
 30
0.0
 11
2045.748500327557
 21
532.8702797517148
 31
0.0
  0
LINE
  5
F8
330
1F
100
AcDbEntity
  8
1
  6
Continuous
 62
     3
100
AcDbLine
 10
2042.748500327557
 20
540.8702797517166
 30
0.0
 11
2045.748500327557
 21
540.8702797517166
 31
0.0
  0
LINE
  5
F9
330
1F
100
AcDbEntity
  8
1
  6
Continuous
 62
     3
100
AcDbLine
 10
2042.748500327557
 20
557.8702797517166
 30
0.0
 11
2045.748500327557
 21
557.8702797517166
 31
0.0
  0
LINE
  5
FA
330
1F
100
AcDbEntity
  8
1
  6
Continuous
 62
     3
100
AcDbLine
 10
2042.748500327557
 20
565.8702797517166
 30
0.0
 11
2045.748500327557
 21
565.8702797517148
 31
0.0
  0
LINE
  5
FB
330
1F
100
AcDbEntity
  8
1
  6
Continuous
 62
     3
100
AcDbLine
 10
2042.748500327557
 20
582.8702797517166
 30
0.0
 11
2045.748500327557
 21
582.8702797517166
 31
0.0
  0
LINE
  5
FC
330
1F
100
AcDbEntity
  8
1
  6
Continuous
 62
     3
100
AcDbLine
 10
2042.748500327557
 20
590.8702797517166
 30
0.0
 11
2045.748500327557
 21
590.8702797517166
 31
0.0
  0
LINE
  5
FD
330
1F
100
AcDbEntity
  8
1
  6
Continuous
 62
     3
100
AcDbLine
 10
2042.748500327557
 20
607.8702797517166
 30
0.0
 11
2045.748500327557
 21
607.8702797517148
 31
0.0
  0
LINE
  5
FE
330
1F
100
AcDbEntity
  8
1
  6
Continuous
 62
     3
100
AcDbLine
 10
2042.748500327557
 20
615.8702797517166
 30
0.0
 11
2045.748500327557
 21
615.8702797517166
 31
0.0
  0
LINE
  5
FF
330
1F
100
AcDbEntity
  8
1
  6
Continuous
 62
     3
100
AcDbLine
 10
2042.748500327557
 20
632.8702797517166
 30
0.0
 11
2045.748500327557
 21
632.8702797517166
 31
0.0
  0
LINE
  5
100
330
1F
100
AcDbEntity
  8
1
  6
Continuous
 62
     3
100
AcDbLine
 10
2042.748500327557
 20
640.8702797517166
 30
0.0
 11
2045.748500327557
 21
640.8702797517148
 31
0.0
  0
LINE
  5
101
330
1F
100
AcDbEntity
  8
1
  6
Continuous
 62
     7
100
AcDbLine
 10
1642.748500327561
 20
647.8702797517166
 30
0.0
 11
1642.748500327561
 21
625.8702797517166
 31
0.0
  0
LINE
  5
102
330
1F
100
AcDbEntity
  8
1
  6
Continuous
 62
     3
100
AcDbLine
 10
1639.748500327563
 20
640.8702797517148
 30
0.0
 11
1642.748500327561
 21
640.8702797517166
 31
0.0
  0
LINE
  5
103
330
1F
100
AcDbEntity
  8
1
  6
Continuous
 62
     3
100
AcDbLine
 10
1636.748500327561
 20
632.8702797517166
 30
0.0
 11
1642.748500327561
 21
632.8702797517166
 31
0.0
  0
LINE
  5
104
330
1F
100
AcDbEntity
  8
1
  6
Continuous
 62
     3
100
AcDbLine
 10
1636.748500327561
 20
639.8702797517175
 30
0.0
 11
1636.748500327561
 21
632.8702797517166
 31
0.0
  0
LINE
  5
105
330
1F
100
AcDbEntity
  8
1
  6
DASH_CENTER
 62
     3
100
AcDbLine
 10
1632.352676526179
 20
636.8702797517166
 30
0.0
 11
2052.164894915349
 21
636.8702797517166
 31
0.0
  0
LINE
  5
106
330
1F
100
AcDbEntity
  8
1
  6
Continuous
 62
     3
100
AcDbLine
 10
2048.748500327557
 20
632.8702797517166
 30
0.0
 11
2048.748500327557
 21
639.8702797517166
 31
0.0
  0
LINE
  5
107
330
1F
100
AcDbEntity
  8
1
  6
Continuous
 62
     3
100
AcDbLine
 10
2047.748500327559
 20
632.8702797517166
 30
0.0
 11
2048.748500327557
 21
632.8702797517166
 31
0.0
  0
LINE
  5
108
330
1F
100
AcDbEntity
  8
1
  6
Continuous
 62
     3
100
AcDbLine
 10
2047.748500327559
 20
639.8702797517166
 30
0.0
 11
2048.748500327557
 21
639.8702797517166
 31
0.0
  0
LINE
  5
109
330
1F
100
AcDbEntity
  8
1
  6
Continuous
 62
     7
100
AcDbLine
 10
2042.748500327557
 20
625.8702797517166
 30
0.0
 11
2042.748500327557
 21
647.8702797517166
 31
0.0
  0
LINE
  5
10A
330
1F
100
AcDbEntity
  8
1
  6
Continuous
 62
     7
100
AcDbLine
 10
2042.748500327557
 20
647.8702797517166
 30
0.0
 11
1642.748500327561
 21
647.8702797517166
 31
0.0
  0
LINE
  5
10B
330
1F
100
AcDbEntity
  8
1
  6
Continuous
 62
     7
100
AcDbLine
 10
1642.748500327561
 20
625.8702797517166
 30
0.0
 11
2042.748500327557
 21
625.8702797517166
 31
0.0
  0
LINE
  5
10C
330
1F
100
AcDbEntity
  8
1
  6
Continuous
 62
     7
100
AcDbLine
 10
1642.748500327561
 20
622.8702797517166
 30
0.0
 11
1642.748500327561
 21
600.8702797517166
 31
0.0
  0
LINE
  5
10D
330
1F
100
AcDbEntity
  8
1
  6
Continuous
 62
     3
100
AcDbLine
 10
1639.748500327563
 20
615.8702797517166
 30
0.0
 11
1642.748500327561
 21
615.8702797517166
 31
0.0
  0
LINE
  5
10E
330
1F
100
AcDbEntity
  8
1
  6
Continuous
 62
     3
100
AcDbLine
 10
1636.748500327563
 20
607.8702797517148
 30
0.0
 11
1642.748500327561
 21
607.8702797517166
 31
0.0
  0
LINE
  5
10F
330
1F
100
AcDbEntity
  8
1
  6
Continuous
 62
     3
100
AcDbLine
 10
1636.748500327561
 20
614.8702797517175
 30
0.0
 11
1636.748500327561
 21
607.8702797517166
 31
0.0
  0
LINE
  5
110
330
1F
100
AcDbEntity
  8
1
  6
DASH_CENTER
 62
     3
100
AcDbLine
 10
1632.352676526179
 20
611.8702797517166
 30
0.0
 11
2052.164894915349
 21
611.8702797517166
 31
0.0
  0
LINE
  5
111
330
1F
100
AcDbEntity
  8
1
  6
Continuous
 62
     3
100
AcDbLine
 10
2048.748500327557
 20
607.8702797517166
 30
0.0
 11
2048.748500327557
 21
614.8702797517166
 31
0.0
  0
LINE
  5
112
330
1F
100
AcDbEntity
  8
1
  6
Continuous
 62
     3
100
AcDbLine
 10
2047.748500327559
 20
607.8702797517166
 30
0.0
 11
2048.748500327557
 21
607.8702797517166
 31
0.0
  0
LINE
  5
113
330
1F
100
AcDbEntity
  8
1
  6
Continuous
 62
     3
100
AcDbLine
 10
2047.748500327559
 20
614.8702797517166
 30
0.0
 11
2048.748500327557
 21
614.8702797517166
 31
0.0
  0
LINE
  5
114
330
1F
100
AcDbEntity
  8
1
  6
Continuous
 62
     7
100
AcDbLine
 10
2042.748500327557
 20
600.8702797517166
 30
0.0
 11
2042.748500327557
 21
622.8702797517166
 31
0.0
  0
LINE
  5
115
330
1F
100
AcDbEntity
  8
1
  6
Continuous
 62
     7
100
AcDbLine
 10
2042.748500327557
 20
622.8702797517166
 30
0.0
 11
1642.748500327561
 21
622.8702797517166
 31
0.0
  0
LINE
  5
116
330
1F
100
AcDbEntity
  8
1
  6
Continuous
 62
     7
100
AcDbLine
 10
1642.748500327561
 20
600.8702797517166
 30
0.0
 11
2042.748500327557
 21
600.8702797517166
 31
0.0
  0
LINE
  5
117
330
1F
100
AcDbEntity
  8
1
  6
Continuous
 62
     7
100
AcDbLine
 10
1642.748500327561
 20
597.8702797517166
 30
0.0
 11
1642.748500327561
 21
575.8702797517166
 31
0.0
  0
LINE
  5
118
330
1F
100
AcDbEntity
  8
1
  6
Continuous
 62
     3
100
AcDbLine
 10
1639.748500327563
 20
590.8702797517166
 30
0.0
 11
1642.748500327561
 21
590.8702797517166
 31
0.0
  0
LINE
  5
119
330
1F
100
AcDbEntity
  8
1
  6
Continuous
 62
     3
100
AcDbLine
 10
1636.748500327561
 20
582.8702797517166
 30
0.0
 11
1642.748500327561
 21
582.8702797517166
 31
0.0
  0
LINE
  5
11A
330
1F
100
AcDbEntity
  8
1
  6
Continuous
 62
     3
100
AcDbLine
 10
1636.748500327561
 20
589.8702797517175
 30
0.0
 11
1636.748500327561
 21
582.8702797517166
 31
0.0
  0
LINE
  5
11B
330
1F
100
AcDbEntity
  8
1
  6
DASH_CENTER
 62
     3
100
AcDbLine
 10
1632.352676526179
 20
586.8702797517166
 30
0.0
 11
2052.164894915349
 21
586.8702797517166
 31
0.0
  0
LINE
  5
11C
330
1F
100
AcDbEntity
  8
1
  6
Continuous
 62
     3
100
AcDbLine
 10
2048.748500327557
 20
582.8702797517166
 30
0.0
 11
2048.748500327557
 21
589.8702797517166
 31
0.0
  0
LINE
  5
11D
330
1F
100
AcDbEntity
  8
1
  6
Continuous
 62
     3
100
AcDbLine
 10
2047.748500327559
 20
582.8702797517166
 30
0.0
 11
2048.748500327557
 21
582.8702797517166
 31
0.0
  0
LINE
  5
11E
330
1F
100
AcDbEntity
  8
1
  6
Continuous
 62
     3
100
AcDbLine
 10
2047.748500327559
 20
589.8702797517166
 30
0.0
 11
2048.748500327557
 21
589.8702797517166
 31
0.0
  0
LINE
  5
11F
330
1F
100
AcDbEntity
  8
1
  6
Continuous
 62
     7
100
AcDbLine
 10
2042.748500327557
 20
575.8702797517166
 30
0.0
 11
2042.748500327557
 21
597.8702797517166
 31
0.0
  0
LINE
  5
120
330
1F
100
AcDbEntity
  8
1
  6
Continuous
 62
     7
100
AcDbLine
 10
2042.748500327557
 20
597.8702797517166
 30
0.0
 11
1642.748500327561
 21
597.8702797517166
 31
0.0
  0
LINE
  5
121
330
1F
100
AcDbEntity
  8
1
  6
Continuous
 62
     7
100
AcDbLine
 10
1642.748500327561
 20
575.8702797517166
 30
0.0
 11
2042.748500327557
 21
575.8702797517166
 31
0.0
  0
LINE
  5
122
330
1F
100
AcDbEntity
  8
1
  6
Continuous
 62
     7
100
AcDbLine
 10
1642.748500327561
 20
572.8702797517166
 30
0.0
 11
1642.748500327561
 21
550.8702797517166
 31
0.0
  0
LINE
  5
123
330
1F
100
AcDbEntity
  8
1
  6
Continuous
 62
     3
100
AcDbLine
 10
1639.748500327563
 20
565.8702797517148
 30
0.0
 11
1642.748500327561
 21
565.8702797517166
 31
0.0
  0
LINE
  5
124
330
1F
100
AcDbEntity
  8
1
  6
Continuous
 62
     3
100
AcDbLine
 10
1636.748500327561
 20
557.8702797517166
 30
0.0
 11
1642.748500327561
 21
557.8702797517166
 31
0.0
  0
LINE
  5
125
330
1F
100
AcDbEntity
  8
1
  6
Continuous
 62
     3
100
AcDbLine
 10
1636.748500327561
 20
564.8702797517175
 30
0.0
 11
1636.748500327561
 21
557.8702797517166
 31
0.0
  0
LINE
  5
126
330
1F
100
AcDbEntity
  8
1
  6
DASH_CENTER
 62
     3
100
AcDbLine
 10
1632.352676526179
 20
561.8702797517166
 30
0.0
 11
2052.164894915349
 21
561.8702797517166
 31
0.0
  0
LINE
  5
127
330
1F
100
AcDbEntity
  8
1
  6
Continuous
 62
     3
100
AcDbLine
 10
2048.748500327557
 20
557.8702797517166
 30
0.0
 11
2048.748500327557
 21
564.8702797517166
 31
0.0
  0
LINE
  5
128
330
1F
100
AcDbEntity
  8
1
  6
Continuous
 62
     3
100
AcDbLine
 10
2047.748500327559
 20
557.8702797517166
 30
0.0
 11
2048.748500327557
 21
557.8702797517166
 31
0.0
  0
LINE
  5
129
330
1F
100
AcDbEntity
  8
1
  6
Continuous
 62
     3
100
AcDbLine
 10
2047.748500327559
 20
564.8702797517166
 30
0.0
 11
2048.748500327557
 21
564.8702797517166
 31
0.0
  0
LINE
  5
12A
330
1F
100
AcDbEntity
  8
1
  6
Continuous
 62
     7
100
AcDbLine
 10
2042.748500327557
 20
550.8702797517166
 30
0.0
 11
2042.748500327557
 21
572.8702797517166
 31
0.0
  0
LINE
  5
12B
330
1F
100
AcDbEntity
  8
1
  6
Continuous
 62
     7
100
AcDbLine
 10
2042.748500327557
 20
572.8702797517166
 30
0.0
 11
1642.748500327561
 21
572.8702797517166
 31
0.0
  0
LINE
  5
12C
330
1F
100
AcDbEntity
  8
1
  6
Continuous
 62
     7
100
AcDbLine
 10
1642.748500327561
 20
550.8702797517166
 30
0.0
 11
2042.748500327557
 21
550.8702797517166
 31
0.0
  0
LINE
  5
12D
330
1F
100
AcDbEntity
  8
1
  6
Continuous
 62
     7
100
AcDbLine
 10
1642.748500327561
 20
547.8702797517166
 30
0.0
 11
1642.748500327561
 21
525.8702797517166
 31
0.0
  0
LINE
  5
12E
330
1F
100
AcDbEntity
  8
1
  6
Continuous
 62
     3
100
AcDbLine
 10
1639.748500327563
 20
540.8702797517166
 30
0.0
 11
1642.748500327561
 21
540.8702797517166
 31
0.0
  0
LINE
  5
12F
330
1F
100
AcDbEntity
  8
1
  6
Continuous
 62
     3
100
AcDbLine
 10
1636.748500327563
 20
532.8702797517148
 30
0.0
 11
1642.748500327561
 21
532.8702797517166
 31
0.0
  0
LINE
  5
130
330
1F
100
AcDbEntity
  8
1
  6
Continuous
 62
     3
100
AcDbLine
 10
1636.748500327561
 20
539.8702797517175
 30
0.0
 11
1636.748500327561
 21
532.8702797517166
 31
0.0
  0
LINE
  5
131
330
1F
100
AcDbEntity
  8
1
  6
DASH_CENTER
 62
     3
100
AcDbLine
 10
1632.352676526179
 20
536.8702797517166
 30
0.0
 11
2052.164894915349
 21
536.8702797517166
 31
0.0
  0
LINE
  5
132
330
1F
100
AcDbEntity
  8
1
  6
Continuous
 62
     3
100
AcDbLine
 10
2048.748500327557
 20
532.8702797517166
 30
0.0
 11
2048.748500327557
 21
539.8702797517166
 31
0.0
  0
LINE
  5
133
330
1F
100
AcDbEntity
  8
1
  6
Continuous
 62
     3
100
AcDbLine
 10
2047.748500327559
 20
532.8702797517166
 30
0.0
 11
2048.748500327557
 21
532.8702797517166
 31
0.0
  0
LINE
  5
134
330
1F
100
AcDbEntity
  8
1
  6
Continuous
 62
     3
100
AcDbLine
 10
2047.748500327559
 20
539.8702797517166
 30
0.0
 11
2048.748500327557
 21
539.8702797517166
 31
0.0
  0
LINE
  5
135
330
1F
100
AcDbEntity
  8
1
  6
Continuous
 62
     7
100
AcDbLine
 10
2042.748500327557
 20
525.8702797517166
 30
0.0
 11
2042.748500327557
 21
547.8702797517166
 31
0.0
  0
LINE
  5
136
330
1F
100
AcDbEntity
  8
1
  6
Continuous
 62
     7
100
AcDbLine
 10
2042.748500327557
 20
547.8702797517166
 30
0.0
 11
1642.748500327561
 21
547.8702797517166
 31
0.0
  0
LINE
  5
137
330
1F
100
AcDbEntity
  8
1
  6
Continuous
 62
     7
100
AcDbLine
 10
1642.748500327561
 20
500.8702797517166
 30
0.0
 11
2042.748500327557
 21
500.8702797517166
 31
0.0
  0
LINE
  5
138
330
1F
100
AcDbEntity
  8
1
  6
Continuous
 62
     7
100
AcDbLine
 10
2042.748500327557
 20
522.8702797517166
 30
0.0
 11
1642.748500327561
 21
522.8702797517166
 31
0.0
  0
LINE
  5
139
330
1F
100
AcDbEntity
  8
1
  6
Continuous
 62
     7
100
AcDbLine
 10
2042.748500327557
 20
500.8702797517166
 30
0.0
 11
2042.748500327557
 21
522.8702797517166
 31
0.0
  0
LINE
  5
13A
330
1F
100
AcDbEntity
  8
1
  6
Continuous
 62
     3
100
AcDbLine
 10
2047.748500327559
 20
514.8702797517166
 30
0.0
 11
2048.748500327557
 21
514.8702797517166
 31
0.0
  0
LINE
  5
13B
330
1F
100
AcDbEntity
  8
1
  6
Continuous
 62
     3
100
AcDbLine
 10
2047.748500327559
 20
507.8702797517166
 30
0.0
 11
2048.748500327557
 21
507.8702797517166
 31
0.0
  0
LINE
  5
13C
330
1F
100
AcDbEntity
  8
1
  6
Continuous
 62
     3
100
AcDbLine
 10
2048.748500327557
 20
507.8702797517166
 30
0.0
 11
2048.748500327557
 21
514.8702797517166
 31
0.0
  0
LINE
  5
13D
330
1F
100
AcDbEntity
  8
1
  6
DASH_CENTER
 62
     3
100
AcDbLine
 10
1632.352676526179
 20
511.8702797517166
 30
0.0
 11
2052.164894915349
 21
511.8702797517166
 31
0.0
  0
LINE
  5
13E
330
1F
100
AcDbEntity
  8
1
  6
Continuous
 62
     3
100
AcDbLine
 10
1636.748500327561
 20
514.8702797517175
 30
0.0
 11
1636.748500327561
 21
507.8702797517166
 31
0.0
  0
LINE
  5
13F
330
1F
100
AcDbEntity
  8
1
  6
Continuous
 62
     3
100
AcDbLine
 10
1636.748500327561
 20
507.8702797517166
 30
0.0
 11
1642.748500327561
 21
507.8702797517166
 31
0.0
  0
LINE
  5
140
330
1F
100
AcDbEntity
  8
1
  6
Continuous
 62
     3
100
AcDbLine
 10
1639.748500327563
 20
515.8702797517166
 30
0.0
 11
1642.748500327561
 21
515.8702797517166
 31
0.0
  0
LINE
  5
141
330
1F
100
AcDbEntity
  8
1
  6
Continuous
 62
     7
100
AcDbLine
 10
1642.748500327561
 20
522.8702797517166
 30
0.0
 11
1642.748500327561
 21
500.8702797517166
 31
0.0
  0
LINE
  5
142
330
1F
100
AcDbEntity
  8
1
  6
Continuous
 62
     7
100
AcDbLine
 10
1642.748500327561
 20
308.867984742987
 30
0.0
 11
1642.748500327561
 21
286.867984742987
 31
0.0
  0
LINE
  5
143
330
1F
100
AcDbEntity
  8
1
  6
Continuous
 62
     3
100
AcDbLine
 10
1639.748500327563
 20
301.867984742987
 30
0.0
 11
1642.748500327561
 21
301.867984742987
 31
0.0
  0
LINE
  5
144
330
1F
100
AcDbEntity
  8
1
  6
Continuous
 62
     3
100
AcDbLine
 10
1639.748500327563
 20
293.867984742987
 30
0.0
 11
1642.748500327561
 21
293.867984742987
 31
0.0
  0
LINE
  5
145
330
1F
100
AcDbEntity
  8
1
  6
Continuous
 62
     3
100
AcDbLine
 10
1636.748500327561
 20
301.867984742987
 30
0.0
 11
1636.748500327561
 21
293.867984742987
 31
0.0
  0
LINE
  5
146
330
1F
100
AcDbEntity
  8
1
  6
DASH_CENTER
 62
     3
100
AcDbLine
 10
1632.352676526179
 20
297.867984742987
 30
0.0
 11
2052.164894915349
 21
297.867984742987
 31
0.0
  0
LINE
  5
147
330
1F
100
AcDbEntity
  8
1
  6
Continuous
 62
     3
100
AcDbLine
 10
2048.748500327557
 20
293.867984742987
 30
0.0
 11
2048.748500327557
 21
301.867984742987
 31
0.0
  0
LINE
  5
148
330
1F
100
AcDbEntity
  8
1
  6
Continuous
 62
     3
100
AcDbLine
 10
2047.748500327559
 20
293.867984742987
 30
0.0
 11
2048.748500327557
 21
293.867984742987
 31
0.0
  0
LINE
  5
149
330
1F
100
AcDbEntity
  8
1
  6
Continuous
 62
     3
100
AcDbLine
 10
2047.748500327559
 20
301.867984742987
 30
0.0
 11
2048.748500327557
 21
301.867984742987
 31
0.0
  0
LINE
  5
14A
330
1F
100
AcDbEntity
  8
1
  6
Continuous
 62
     7
100
AcDbLine
 10
2042.748500327557
 20
286.867984742987
 30
0.0
 11
2042.748500327557
 21
308.867984742987
 31
0.0
  0
LINE
  5
14B
330
1F
100
AcDbEntity
  8
1
  6
Continuous
 62
     7
100
AcDbLine
 10
2042.748500327557
 20
308.867984742987
 30
0.0
 11
1642.748500327561
 21
308.867984742987
 31
0.0
  0
LINE
  5
14C
330
1F
100
AcDbEntity
  8
1
  6
Continuous
 62
     7
100
AcDbLine
 10
1642.748500327561
 20
286.867984742987
 30
0.0
 11
2042.748500327557
 21
286.867984742987
 31
0.0
  0
LINE
  5
14D
330
1F
100
AcDbEntity
  8
1
  6
DASH_CENTER
 62
     3
100
AcDbLine
 10
2492.777594770794
 20
281.367984742987
 30
0.0
 11
2492.777594770794
 21
314.367984742987
 31
0.0
  0
LINE
  5
14E
330
1F
100
AcDbEntity
  8
1
  6
DASH_CENTER
 62
     3
100
AcDbLine
 10
2351.277594770794
 20
297.867984742987
 30
0.0
 11
2509.277594770794
 21
297.867984742987
 31
0.0
  0
LINE
  5
14F
330
1F
100
AcDbEntity
  8
1
  6
DASH_CENTER
 62
     3
100
AcDbLine
 10
2467.777594770794
 20
281.367984742987
 30
0.0
 11
2467.777594770794
 21
314.367984742987
 31
0.0
  0
LINE
  5
150
330
1F
100
AcDbEntity
  8
1
  6
DASH_CENTER
 62
     3
100
AcDbLine
 10
2442.777594770792
 20
281.367984742987
 30
0.0
 11
2442.777594770792
 21
314.367984742987
 31
0.0
  0
LINE
  5
151
330
1F
100
AcDbEntity
  8
1
  6
DASH_CENTER
 62
     3
100
AcDbLine
 10
2417.777594770792
 20
281.367984742987
 30
0.0
 11
2417.777594770792
 21
314.367984742987
 31
0.0
  0
LINE
  5
152
330
1F
100
AcDbEntity
  8
1
  6
DASH_CENTER
 62
     3
100
AcDbLine
 10
2392.777594770791
 20
281.367984742987
 30
0.0
 11
2392.777594770791
 21
314.367984742987
 31
0.0
  0
LINE
  5
153
330
1F
100
AcDbEntity
  8
1
  6
DASH_CENTER
 62
     3
100
AcDbLine
 10
2367.777594770791
 20
281.367984742986
 30
0.0
 11
2367.777594770791
 21
314.367984742987
 31
0.0
  0
LINE
  5
154
330
1F
100
AcDbEntity
  8
1
  6
Continuous
 62
     3
100
AcDbLine
 10
1636.748500327561
 20
301.867984742987
 30
0.0
 11
1637.748500327559
 21
301.867984742987
 31
0.0
  0
LINE
  5
155
330
1F
100
AcDbEntity
  8
1
  6
Continuous
 62
     3
100
AcDbLine
 10
1636.748500327561
 20
293.867984742987
 30
0.0
 11
1637.748500327559
 21
293.867984742987
 31
0.0
  0
LINE
  5
156
330
1F
100
AcDbEntity
  8
1
  6
Continuous
 62
     3
100
AcDbLine
 10
1636.748500327561
 20
639.8702797517175
 30
0.0
 11
1639.748500327562
 21
639.8702797517148
 31
0.0
  0
LINE
  5
157
330
1F
100
AcDbEntity
  8
1
  6
Continuous
 62
     3
100
AcDbLine
 10
1636.748500327561
 20
614.8702797517175
 30
0.0
 11
1639.748500327562
 21
614.8702797517175
 31
0.0
  0
LINE
  5
158
330
1F
100
AcDbEntity
  8
1
  6
Continuous
 62
     3
100
AcDbLine
 10
1636.748500327561
 20
589.8702797517175
 30
0.0
 11
1639.748500327562
 21
589.8702797517166
 31
0.0
  0
LINE
  5
159
330
1F
100
AcDbEntity
  8
1
  6
Continuous
 62
     3
100
AcDbLine
 10
1636.748500327561
 20
564.8702797517175
 30
0.0
 11
1639.748500327562
 21
564.8702797517148
 31
0.0
  0
LINE
  5
15A
330
1F
100
AcDbEntity
  8
1
  6
Continuous
 62
     3
100
AcDbLine
 10
1636.748500327561
 20
539.8702797517175
 30
0.0
 11
1639.748500327562
 21
539.8702797517175
 31
0.0
  0
LINE
  5
15B
330
1F
100
AcDbEntity
  8
1
  6
Continuous
 62
     3
100
AcDbLine
 10
1636.748500327561
 20
514.8702797517175
 30
0.0
 11
1639.748500327562
 21
514.8702797517166
 31
0.0
  0
LINE
  5
15C
330
1F
100
AcDbEntity
  8
1
  6
Continuous
 62
     7
100
AcDbLine
 10
1642.748500327561
 20
525.8702797517166
 30
0.0
 11
2042.748500327557
 21
525.8702797517166
 31
0.0
  0
LINE
  5
15D
330
1F
100
AcDbEntity
  8
1
  6
Continuous
 62
     7
100
AcDbLine
 10
1639.748500327562
 20
582.8702797517166
 30
0.0
 11
1639.748500327562
 21
564.8702797517148
 31
0.0
  0
LINE
  5
15E
330
1F
100
AcDbEntity
  8
1
  6
Continuous
 62
     7
100
AcDbLine
 10
1639.748500327562
 20
607.8702797517148
 30
0.0
 11
1639.748500327562
 21
589.8702797517166
 31
0.0
  0
LINE
  5
15F
330
1F
100
AcDbEntity
  8
1
  6
Continuous
 62
     7
100
AcDbLine
 10
1639.748500327562
 20
632.8702797517166
 30
0.0
 11
1639.748500327562
 21
614.8702797517175
 31
0.0
  0
LINE
  5
160
330
1F
100
AcDbEntity
  8
1
  6
Continuous
 62
     7
100
AcDbLine
 10
1639.748500327562
 20
557.8702797517166
 30
0.0
 11
1639.748500327562
 21
539.8702797517175
 31
0.0
  0
LINE
  5
161
330
1F
100
AcDbEntity
  8
1
  6
Continuous
 62
     7
100
AcDbLine
 10
1639.748500327562
 20
532.8702797517148
 30
0.0
 11
1639.748500327562
 21
514.8702797517166
 31
0.0
  0
LINE
  5
162
330
1F
100
AcDbEntity
  8
1
  6
Continuous
 62
     7
100
AcDbLine
 10
1639.748500327562
 20
507.8702797517166
 30
0.0
 11
1639.748500327561
 21
499.3702797517166
 31
0.0
  0
LINE
  5
163
330
1F
100
AcDbEntity
  8
1
  6
Continuous
 62
     7
100
AcDbLine
 10
1637.748500327558
 20
507.8702797517166
 30
0.0
 11
1637.748500327559
 21
499.3702797517166
 31
0.0
  0
LINE
  5
164
330
1F
100
AcDbEntity
  8
1
  6
Continuous
 62
     7
100
AcDbLine
 10
1637.748500327558
 20
532.8702797517166
 30
0.0
 11
1637.748500327557
 21
514.8702797517166
 31
0.0
  0
LINE
  5
165
330
1F
100
AcDbEntity
  8
1
  6
Continuous
 62
     7
100
AcDbLine
 10
1637.748500327558
 20
557.8702797517166
 30
0.0
 11
1637.748500327557
 21
539.8702797517175
 31
0.0
  0
LINE
  5
166
330
1F
100
AcDbEntity
  8
1
  6
Continuous
 62
     7
100
AcDbLine
 10
1637.748500327558
 20
582.8702797517166
 30
0.0
 11
1637.748500327557
 21
564.8702797517166
 31
0.0
  0
LINE
  5
167
330
1F
100
AcDbEntity
  8
1
  6
Continuous
 62
     7
100
AcDbLine
 10
1637.748500327558
 20
607.8702797517166
 30
0.0
 11
1637.748500327557
 21
589.8702797517166
 31
0.0
  0
LINE
  5
168
330
1F
100
AcDbEntity
  8
1
  6
Continuous
 62
     7
100
AcDbLine
 10
1637.748500327558
 20
632.8702797517166
 30
0.0
 11
1637.748500327557
 21
614.8702797517175
 31
0.0
  0
LINE
  5
169
330
1F
100
AcDbEntity
  8
1
  6
Continuous
 62
     7
100
AcDbLine
 10
2505.277594770796
 20
301.867984742987
 30
0.0
 11
2505.277594770794
 21
179.8679847429889
 31
0.0
  0
LINE
  5
16A
330
1F
100
AcDbEntity
  8
1
  6
Continuous
 62
     7
100
AcDbLine
 10
2355.277594770794
 20
179.8679847429906
 30
0.0
 11
2355.277594770794
 21
301.867984742987
 31
0.0
  0
LINE
  5
16B
330
1F
100
AcDbEntity
  8
1
  6
Continuous
 62
     7
100
AcDbLine
 10
2355.277594770792
 20
153.8679847429906
 30
0.0
 11
2505.277594770794
 21
153.8679847429889
 31
0.0
  0
LINE
  5
16C
330
1F
100
AcDbEntity
  8
1
  6
Continuous
 62
     7
100
AcDbLine
 10
1662.748500327559
 20
499.3702797517166
 30
0.0
 11
1662.748500327559
 21
500.8702797517166
 31
0.0
  0
LINE
  5
16D
330
1F
100
AcDbEntity
  8
1
  6
Continuous
 62
     7
100
AcDbLine
 10
2022.748500327559
 20
649.3702797517148
 30
0.0
 11
2022.748500327559
 21
647.8702797517166
 31
0.0
  0
LINE
  5
16E
330
1F
100
AcDbEntity
  8
1
  6
DASH_CENTER
 62
     3
100
AcDbLine
 10
1842.748500327559
 20
142.5950092086098
 30
0.0
 11
1842.748500327559
 21
344.1699717109262
 31
0.0
  0
LINE
  5
16F
330
1F
100
AcDbEntity
  8
1
  6
DASH_CENTER
 62
     3
100
AcDbLine
 10
1842.748500327559
 20
666.085886209847
 30
0.0
 11
1842.748500327559
 21
473.085886209847
 31
0.0
  0
LINE
  5
170
330
1F
100
AcDbEntity
  8
1
  6
Continuous
 62
     7
100
AcDbLine
 10
2047.748500327559
 20
499.3702797517166
 30
0.0
 11
2047.748500327559
 21
649.3702797517148
 31
0.0
  0
LINE
  5
171
330
1F
100
AcDbEntity
  8
1
  6
Continuous
 62
     7
100
AcDbLine
 10
2022.748500327559
 20
500.8702797517166
 30
0.0
 11
2022.748500327559
 21
499.3702797517166
 31
0.0
  0
LINE
  5
172
330
1F
100
AcDbEntity
  8
1
  6
Continuous
 62
     7
100
AcDbLine
 10
2045.748500327557
 20
499.3702797517166
 30
0.0
 11
2045.748500327557
 21
649.3702797517148
 31
0.0
  0
LINE
  5
173
330
1F
100
AcDbEntity
  8
1
  6
Continuous
 62
     7
100
AcDbLine
 10
1639.748500327561
 20
649.3702797517148
 30
0.0
 11
1639.748500327562
 21
639.8702797517148
 31
0.0
  0
LINE
  5
174
330
1F
100
AcDbEntity
  8
1
  6
Continuous
 62
     7
100
AcDbLine
 10
1662.748500327559
 20
647.8702797517166
 30
0.0
 11
1662.748500327559
 21
649.3702797517148
 31
0.0
  0
LINE
  5
175
330
1F
100
AcDbEntity
  8
1
  6
Continuous
 62
     7
100
AcDbLine
 10
2047.748500327559
 20
649.3702797517148
 30
0.0
 11
1637.748500327559
 21
649.3702797517148
 31
0.0
  0
LINE
  5
176
330
1F
100
AcDbEntity
  8
1
  6
Continuous
 62
     7
100
AcDbLine
 10
1637.748500327559
 20
649.3702797517148
 30
0.0
 11
1637.748500327558
 21
639.8702797517166
 31
0.0
  0
LINE
  5
177
330
1F
100
AcDbEntity
  8
1
  6
Continuous
 62
     7
100
AcDbLine
 10
1637.748500327559
 20
499.3702797517166
 30
0.0
 11
2047.748500327559
 21
499.3702797517166
 31
0.0
  0
LINE
  5
178
330
1F
100
AcDbEntity
  8
1
  6
Continuous
 62
     7
100
AcDbLine
 10
1637.748500327559
 20
304.867984742987
 30
0.0
 11
1637.748500327559
 21
179.8679847429889
 31
0.0
  0
LINE
  5
179
330
1F
100
AcDbEntity
  8
1
  6
Continuous
 62
     7
100
AcDbLine
 10
1662.748500327559
 20
179.8679847429889
 30
0.0
 11
1662.748500327559
 21
181.8679847429889
 31
0.0
  0
LINE
  5
17A
330
1F
100
AcDbEntity
  8
1
  6
Continuous
 62
     7
100
AcDbLine
 10
1639.748500327561
 20
304.867984742987
 30
0.0
 11
1637.748500327559
 21
304.867984742987
 31
0.0
  0
LINE
  5
17B
330
1F
100
AcDbEntity
  8
1
  6
Continuous
 62
     7
100
AcDbLine
 10
1639.748500327561
 20
181.8679847429889
 30
0.0
 11
1662.748500327559
 21
181.8679847429889
 31
0.0
  0
LINE
  5
17C
330
1F
100
AcDbEntity
  8
1
  6
Continuous
 62
     7
100
AcDbLine
 10
2022.748500327559
 20
181.8679847429889
 30
0.0
 11
2045.748500327557
 21
181.8679847429889
 31
0.0
  0
LINE
  5
17D
330
1F
100
AcDbEntity
  8
1
  6
Continuous
 62
     7
100
AcDbLine
 10
2047.748500327559
 20
304.867984742987
 30
0.0
 11
2045.748500327557
 21
304.867984742987
 31
0.0
  0
LINE
  5
17E
330
1F
100
AcDbEntity
  8
1
  6
Continuous
 62
     7
100
AcDbLine
 10
2022.748500327559
 20
181.8679847429889
 30
0.0
 11
2022.748500327559
 21
179.8679847429889
 31
0.0
  0
LINE
  5
17F
330
1F
100
AcDbEntity
  8
1
  6
Continuous
 62
     7
100
AcDbLine
 10
2045.748500327557
 20
304.867984742987
 30
0.0
 11
2045.748500327557
 21
181.8679847429889
 31
0.0
  0
LINE
  5
180
330
1F
100
AcDbEntity
  8
1
  6
Continuous
 62
     7
100
AcDbLine
 10
2047.748500327559
 20
179.8679847429889
 30
0.0
 11
2047.748500327559
 21
304.867984742987
 31
0.0
  0
LINE
  5
181
330
1F
100
AcDbEntity
  8
1
  6
Continuous
 62
     7
100
AcDbLine
 10
2355.277594770792
 20
153.8679847429906
 30
0.0
 11
2355.277594770792
 21
176.8679847429906
 31
0.0
  0
LINE
  5
182
330
1F
100
AcDbEntity
  8
1
  6
Continuous
 62
     7
100
AcDbLine
 10
2358.277594770794
 20
304.867984742987
 30
0.0
 11
2502.277594770796
 21
304.867984742987
 31
0.0
  0
LINE
  5
183
330
1F
100
AcDbEntity
  8
1
  6
Continuous
 62
     7
100
AcDbLine
 10
2505.277594770794
 20
176.8679847429889
 30
0.0
 11
2505.277594770794
 21
153.8679847429889
 31
0.0
  0
LINE
  5
184
330
1F
100
AcDbEntity
  8
1
  6
Continuous
 62
     7
100
AcDbLine
 10
2505.277594770794
 20
179.8679847429889
 30
0.0
 11
2355.277594770794
 21
179.8679847429906
 31
0.0
  0
LINE
  5
185
330
1F
100
AcDbEntity
  8
1
  6
Continuous
 62
     7
100
AcDbLine
 10
2047.748500327559
 20
179.8679847429889
 30
0.0
 11
1637.748500327559
 21
179.8679847429889
 31
0.0
  0
LINE
  5
186
330
1F
100
AcDbEntity
  8
1
  6
Continuous
 62
     7
100
AcDbLine
 10
2047.748500327559
 20
153.8679847429906
 30
0.0
 11
2047.748500327559
 21
179.8679847429889
 31
0.0
  0
LINE
  5
187
330
1F
100
AcDbEntity
  8
1
  6
Continuous
 62
     7
100
AcDbLine
 10
1637.748500327559
 20
153.8679847429889
 30
0.0
 11
2047.748500327559
 21
153.8679847429906
 31
0.0
  0
LINE
  5
188
330
1F
100
AcDbEntity
  8
1
  6
Continuous
 62
     7
100
AcDbLine
 10
1637.748500327559
 20
179.8679847429889
 30
0.0
 11
1637.748500327559
 21
153.8679847429889
 31
0.0
  0
LINE
  5
189
330
1F
100
AcDbEntity
  8
1
  6
Continuous
 62
     7
100
AcDbLine
 10
2505.277594770796
 20
301.867984742987
 30
0.0
 11
2502.277594770796
 21
304.867984742987
 31
0.0
  0
LINE
  5
18A
330
1F
100
AcDbEntity
  8
1
  6
Continuous
 62
     7
100
AcDbLine
 10
2358.277594770794
 20
304.867984742987
 30
0.0
 11
2355.277594770794
 21
301.867984742987
 31
0.0
  0
LINE
  5
18B
330
1F
100
AcDbEntity
  8
1
  6
DASH_CENTER
 62
     3
100
AcDbLine
 10
1652.748500327559
 20
169.097362721441
 30
0.0
 11
1652.748500327559
 21
187.097362721441
 31
0.0
  0
LINE
  5
18C
330
1F
100
AcDbEntity
  8
1
  6
DASH_CENTER
 62
     3
100
AcDbLine
 10
2032.748500327559
 20
169.097362721441
 30
0.0
 11
2032.748500327559
 21
187.097362721441
 31
0.0
  0
LINE
  5
18D
330
1F
100
AcDbEntity
  8
1
  6
Continuous
 62
     7
100
AcDbLine
 10
1639.748500327561
 20
304.867984742987
 30
0.0
 11
1639.748500327561
 21
181.8679847429889
 31
0.0
  0
LINE
  5
18E
330
1F
100
AcDbEntity
  8
1
  6
Continuous
 62
     4
100
AcDbLine
 10
1855.487071916078
 20
717.1848705478518
 30
0.0
 11
1842.748500327559
 21
674.722965252788
 31
0.0
  0
LINE
  5
18F
330
1F
100
AcDbEntity
  8
1
  6
Continuous
 62
     4
100
AcDbLine
 10
1847.843928962967
 20
717.1848705478518
 30
0.0
 11
1855.487071916078
 21
717.1848705478518
 31
0.0
  0
LINE
  5
190
330
1F
100
AcDbEntity
  8
1
  6
Continuous
 62
     4
100
AcDbLine
 10
1847.843928962967
 20
745.4928074112271
 30
0.0
 11
1847.843928962967
 21
717.1848705478518
 31
0.0
  0
LINE
  5
191
330
1F
100
AcDbEntity
  8
1
  6
Continuous
 62
     4
100
AcDbLine
 10
1837.653071692149
 20
745.4928074112271
 30
0.0
 11
1847.843928962967
 21
745.4928074112271
 31
0.0
  0
LINE
  5
192
330
1F
100
AcDbEntity
  8
1
  6
Continuous
 62
     4
100
AcDbLine
 10
1837.653071692149
 20
717.1848705478518
 30
0.0
 11
1837.653071692149
 21
745.4928074112271
 31
0.0
  0
LINE
  5
193
330
1F
100
AcDbEntity
  8
1
  6
Continuous
 62
     4
100
AcDbLine
 10
1830.009928739038
 20
717.1848705478518
 30
0.0
 11
1837.653071692149
 21
717.1848705478518
 31
0.0
  0
LINE
  5
194
330
1F
100
AcDbEntity
  8
1
  6
Continuous
 62
     4
100
AcDbLine
 10
1842.748500327559
 20
674.722965252788
 30
0.0
 11
1830.009928739038
 21
717.1848705478518
 31
0.0
  0
LINE
  5
195
330
1F
100
AcDbEntity
  8
1
  6
DASHED
 62
     4
100
AcDbLine
 10
2044.548500327557
 20
176.6679847429899
 30
0.0
 11
1640.948500327559
 21
176.6679847429899
 31
0.0
  0
LINE
  5
196
330
1F
100
AcDbEntity
  8
1
  6
DASHED
 62
     4
100
AcDbLine
 10
2044.548500327557
 20
153.8679847429906
 30
0.0
 11
2044.548500327557
 21
176.6679847429899
 31
0.0
  0
LINE
  5
197
330
1F
100
AcDbEntity
  8
1
  6
DASHED
 62
     4
100
AcDbLine
 10
1640.948500327559
 20
153.8679847429889
 30
0.0
 11
1640.948500327559
 21
176.6679847429899
 31
0.0
  0
LINE
  5
198
330
1F
100
AcDbEntity
  8
1
  6
DASHED
 62
     4
100
AcDbLine
 10
2502.077594770795
 20
176.6679847429899
 30
0.0
 11
2358.477594770795
 21
176.6679847429899
 31
0.0
  0
LINE
  5
199
330
1F
100
AcDbEntity
  8
1
  6
DASHED
 62
     4
100
AcDbLine
 10
2502.077594770795
 20
153.8679847429889
 30
0.0
 11
2502.077594770795
 21
176.6679847429899
 31
0.0
  0
LINE
  5
19A
330
1F
100
AcDbEntity
  8
1
  6
DASHED
 62
     4
100
AcDbLine
 10
2358.477594770795
 20
153.8679847429906
 30
0.0
 11
2358.477594770795
 21
176.6679847429899
 31
0.0
  0
LINE
  5
19B
330
1F
100
AcDbEntity
  8
1
  6
DASH_CENTER
 62
     3
100
AcDbLine
 10
2380.027594770791
 20
163.8679847429889
 30
0.0
 11
2390.527594770791
 21
163.8679847429889
 31
0.0
  0
LINE
  5
19C
330
1F
100
AcDbEntity
  8
1
  6
DASH_CENTER
 62
     3
100
AcDbLine
 10
2385.277594770791
 20
169.1179847429889
 30
0.0
 11
2385.277594770791
 21
158.6179847429889
 31
0.0
  0
LINE
  5
19D
330
1F
100
AcDbEntity
  8
1
  6
DASH_CENTER
 62
     3
100
AcDbLine
 10
2470.027594770794
 20
163.8679847429879
 30
0.0
 11
2480.527594770794
 21
163.8679847429879
 31
0.0
  0
LINE
  5
19E
330
1F
100
AcDbEntity
  8
1
  6
DASH_CENTER
 62
     3
100
AcDbLine
 10
2475.277594770794
 20
169.1179847429879
 30
0.0
 11
2475.277594770794
 21
158.6179847429879
 31
0.0
  0
LINE
  5
19F
330
1F
100
AcDbEntity
  8
1
  6
DASH_CENTER
 62
     3
100
AcDbLine
 10
2039.47154433308
 20
163.8679847429889
 30
0.0
 11
2052.489221248537
 21
163.8679847429889
 31
0.0
  0
LINE
  5
1A0
330
1F
100
AcDbEntity
  8
1
  6
DASH_CENTER
 62
     3
100
AcDbLine
 10
1632.627735135739
 20
163.8679847429889
 30
0.0
 11
1646.981079943042
 21
163.8679847429889
 31
0.0
  0
ARC
  5
1A1
330
1F
100
AcDbEntity
  8
0
  6
Continuous
 62
     7
100
AcDbCircle
 10
2000.748500327552
 20
266.8679847429856
 30
0.0
 40
1.0
100
AcDbArc
 50
0.0
 51
90.0
  0
ARC
  5
1A2
330
1F
100
AcDbEntity
  8
0
  6
Continuous
 62
     7
100
AcDbCircle
 10
2000.748500327552
 20
188.8679847429856
 30
0.0
 40
1.0
100
AcDbArc
 50
-90.0
 51
0.0
  0
ARC
  5
1A3
330
1F
100
AcDbEntity
  8
1
  6
Continuous
 62
   140
100
AcDbCircle
 10
1631.748209327561
 20
241.1976622429905
 30
0.0
 40
0.1999999999991347
100
AcDbArc
 50
104.9314170002485
 51
180.0
  0
ARC
  5
1A4
330
1F
100
AcDbEntity
  8
1
  6
Continuous
 62
   140
100
AcDbCircle
 10
1631.748209327561
 20
219.7883072429907
 30
0.0
 40
0.200000000000955
100
AcDbArc
 50
180.0
 51
-104.9314170001164
  0
ARC
  5
1A5
330
1F
100
AcDbEntity
  8
1
  6
Continuous
 62
   140
100
AcDbCircle
 10
1631.36979032756
 20
220.20610724299
 30
0.0
 40
0.1999999999995911
100
AcDbArc
 50
26.86193800037973
 51
84.80557100031383
  0
ARC
  5
1A6
330
1F
100
AcDbEntity
  8
1
  6
Continuous
 62
   140
100
AcDbCircle
 10
1631.348209327559
 20
239.5279002429909
 30
0.0
 40
0.2000000000010774
100
AcDbArc
 50
-84.80557099984131
 51
0.0
  0
ARC
  5
1A7
330
1F
100
AcDbEntity
  8
1
  6
Continuous
 62
   140
100
AcDbCircle
 10
1626.74877132756
 20
238.4068832429896
 30
0.0
 40
0.5000000000010183
100
AcDbArc
 50
95.19442900009767
 51
180.0
  0
ARC
  5
1A8
330
1F
100
AcDbEntity
  8
1
  6
Continuous
 62
   140
100
AcDbCircle
 10
1626.74877132756
 20
221.3290862429898
 30
0.0
 40
0.5
100
AcDbArc
 50
180.0
 51
-95.19442900011624
  0
ARC
  5
1A9
330
1F
100
AcDbEntity
  8
1
  6
Continuous
 62
     7
100
AcDbCircle
 10
2367.777594770791
 20
297.867984742987
 30
0.0
 40
10.9999999999997
100
AcDbArc
 50
39.52119635864346
 51
140.478803641352
  0
ARC
  5
1AA
330
1F
100
AcDbEntity
  8
1
  6
DASHED
 62
     4
100
AcDbCircle
 10
2367.777594770791
 20
297.867984742987
 30
0.0
 40
10.99999999999865
100
AcDbArc
 50
140.478803641352
 51
39.52119635864346
  0
ARC
  5
1AB
330
1F
100
AcDbEntity
  8
1
  6
Continuous
 62
     7
100
AcDbCircle
 10
2392.777594770791
 20
297.867984742987
 30
0.0
 40
10.9999999999997
100
AcDbArc
 50
39.52119635864346
 51
140.478803641352
  0
ARC
  5
1AC
330
1F
100
AcDbEntity
  8
1
  6
DASHED
 62
     4
100
AcDbCircle
 10
2392.777594770791
 20
297.867984742987
 30
0.0
 40
10.99999999999865
100
AcDbArc
 50
140.478803641352
 51
39.52119635864346
  0
ARC
  5
1AD
330
1F
100
AcDbEntity
  8
1
  6
Continuous
 62
     7
100
AcDbCircle
 10
2417.777594770791
 20
297.867984742987
 30
0.0
 40
11.00000000000181
100
AcDbArc
 50
39.52119635863441
 51
140.478803641352
  0
ARC
  5
1AE
330
1F
100
AcDbEntity
  8
1
  6
DASHED
 62
     4
100
AcDbCircle
 10
2417.777594770791
 20
297.867984742987
 30
0.0
 40
10.99999999999865
100
AcDbArc
 50
140.478803641352
 51
39.52119635863441
  0
ARC
  5
1AF
330
1F
100
AcDbEntity
  8
1
  6
Continuous
 62
     7
100
AcDbCircle
 10
2442.777594770791
 20
297.867984742987
 30
0.0
 40
11.00000000000181
100
AcDbArc
 50
39.52119635863441
 51
140.478803641352
  0
ARC
  5
1B0
330
1F
100
AcDbEntity
  8
1
  6
DASHED
 62
     4
100
AcDbCircle
 10
2442.777594770791
 20
297.867984742987
 30
0.0
 40
10.99999999999865
100
AcDbArc
 50
140.478803641352
 51
39.52119635863441
  0
ARC
  5
1B1
330
1F
100
AcDbEntity
  8
1
  6
Continuous
 62
     7
100
AcDbCircle
 10
2467.777594770794
 20
297.867984742987
 30
0.0
 40
11.00000000000111
100
AcDbArc
 50
39.52119635863743
 51
140.4788036413566
  0
ARC
  5
1B2
330
1F
100
AcDbEntity
  8
1
  6
DASHED
 62
     4
100
AcDbCircle
 10
2467.777594770794
 20
297.867984742987
 30
0.0
 40
10.9999999999997
100
AcDbArc
 50
140.4788036413566
 51
39.52119635863743
  0
ARC
  5
1B3
330
1F
100
AcDbEntity
  8
1
  6
Continuous
 62
     7
100
AcDbCircle
 10
2492.777594770794
 20
297.867984742987
 30
0.0
 40
11.00000000000111
100
AcDbArc
 50
39.52119635863743
 51
140.4788036413566
  0
ARC
  5
1B4
330
1F
100
AcDbEntity
  8
1
  6
DASHED
 62
     4
100
AcDbCircle
 10
2492.777594770794
 20
297.867984742987
 30
0.0
 40
10.9999999999997
100
AcDbArc
 50
140.4788036413566
 51
39.52119635863743
  0
CIRCLE
  5
1B5
330
1F
100
AcDbEntity
  8
1
  6
Continuous
 62
     3
100
AcDbCircle
 10
2024.248500327556
 20
275.367984742987
 30
0.0
 40
5.0
  0
CIRCLE
  5
1B6
330
1F
100
AcDbEntity
  8
1
  6
Continuous
 62
     3
100
AcDbCircle
 10
2024.248500327556
 20
275.367984742987
 30
0.0
 40
10.5
  0
CIRCLE
  5
1B7
330
1F
100
AcDbEntity
  8
1
  6
Continuous
 62
     7
100
AcDbCircle
 10
2385.277594770791
 20
163.8679847429889
 30
0.0
 40
3.5
  0
CIRCLE
  5
1B8
330
1F
100
AcDbEntity
  8
1
  6
Continuous
 62
     7
100
AcDbCircle
 10
2475.277594770794
 20
163.8679847429879
 30
0.0
 40
3.5
  0
SPLINE
  5
1B9
330
1F
100
AcDbEntity
  8
1
  6
Continuous
 62
     3
100
AcDbSpline
210
0.0
220
0.0
230
1.0
 70
     8
 71
     3
 72
    10
 73
     6
 74
     4
 42
0.0000000001
 43
0.0000000001
 44
0.00000001
 40
0.0
 40
0.0
 40
0.0
 40
0.0
 40
4.009717906764944
 40
9.445684401998918
 40
13.58215522092176
 40
13.58215522092176
 40
13.58215522092176
 40
13.58215522092176
 10
1867.92794935871
 20
245.8679847429889
 30
0.0
 10
1868.350383205032
 20
244.4237995458289
 30
0.0
 10
1869.345509766518
 20
241.0217353838096
 30
0.0
 10
1863.353212621039
 20
238.8191220753742
 30
0.0
 10
1864.327491825206
 20
235.3619210139945
 30
0.0
 10
1864.748500327561
 20
233.8679847429889
 30
0.0
 11
1867.92794935871
 21
245.8679847429889
 31
0.0
 11
1868.264963062328
 21
241.8724548087492
 31
0.0
 11
1864.456011882369
 21
237.9941017245139
 31
0.0
 11
1864.748500327561
 21
233.8679847429889
 31
0.0
  0
ARC
  5
1BA
330
1F
100
AcDbEntity
  8
1
  6
DASHED
 62
   140
100
AcDbCircle
 10
1788.853022236924
 20
205.417752720444
 30
0.0
 40
6.0
100
AcDbArc
 50
0.0
 51
90.0
  0
ARC
  5
1BB
330
1F
100
AcDbEntity
  8
1
  6
DASHED
 62
   140
100
AcDbCircle
 10
1788.853022236924
 20
205.417752720444
 30
0.0
 40
2.0
100
AcDbArc
 50
0.0
 51
90.0
  0
ARC
  5
1BC
330
1F
100
AcDbEntity
  8
1
  6
Continuous
 62
   140
100
AcDbCircle
 10
1788.853022236926
 20
135.3055190892131
 30
0.0
 40
2.0
100
AcDbArc
 50
-90.0
 51
0.0
  0
ARC
  5
1BD
330
1F
100
AcDbEntity
  8
1
  6
Continuous
 62
   140
100
AcDbCircle
 10
1788.853022236924
 20
135.3055190892131
 30
0.0
 40
6.0
100
AcDbArc
 50
-90.0
 51
0.0
  0
ARC
  5
1BE
330
1F
100
AcDbEntity
  8
1
  6
Continuous
 62
     7
100
AcDbCircle
 10
1998.74850032755
 20
186.8679847429856
 30
0.0
 40
3.0
100
AcDbArc
 50
-90.0
 51
0.0
  0
ARC
  5
1BF
330
1F
100
AcDbEntity
  8
1
  6
Continuous
 62
     7
100
AcDbCircle
 10
1998.74850032755
 20
186.8679847429856
 30
0.0
 40
7.0
100
AcDbArc
 50
-90.0
 51
0.0
  0
ARC
  5
1C0
330
1F
100
AcDbEntity
  8
1
  6
Continuous
 62
     7
100
AcDbCircle
 10
2502.277594770794
 20
176.8679847429889
 30
0.0
 40
3.0
100
AcDbArc
 50
0.0
 51
90.0
  0
ARC
  5
1C1
330
1F
100
AcDbEntity
  8
1
  6
Continuous
 62
     7
100
AcDbCircle
 10
2358.277594770792
 20
176.8679847429906
 30
0.0
 40
3.0
100
AcDbArc
 50
90.0
 51
180.0
  0
LINE
  5
1C2
330
1F
100
AcDbEntity
  8
1
 62
     2
100
AcDbLine
 10
1632.54820932756
 20
241.6179842429886
 30
0.0
 11
1621.625904689706
 21
249.1217462427831
 31
0.0
  0
LINE
  5
1C3
330
1F
100
AcDbEntity
  8
1
 62
     2
100
AcDbLine
 10
1632.54820932756
 20
241.6179842429886
 30
0.0
 11
1626.841097043203
 21
253.5775850776903
 31
0.0
  0
LEADER
  5
1C4
330
1F
100
AcDbEntity
  8
1
  6
Continuous
 62
     2
100
AcDbLeader
  3
Standard
 71
     0
 76
     3
 10
1632.54820932756
 20
241.6179842429886
 30
0.0
 10
1604.911309219056
 20
273.964699521626
 30
0.0
 10
1474.537918902746
 20
273.964699521626
 30
0.0
  0
MTEXT
  5
1C5
330
1F
100
AcDbEntity
  8
1
 62
     2
100
AcDbMText
 10
1906.340293016981
 20
196.155656313419
 30
0.0
 40
10.0
 41
0.0
 71
     5
 72
     1
  1
1
  7
CONVERTER_1
 73
     1
 44
0.60024009603842
  0
MTEXT
  5
1C6
330
1F
100
AcDbEntity
  8
1
 62
     2
100
AcDbMText
 10
1294.724226085978
 20
-129.6623668623901
 30
0.0
 40
12.8
 41
0.0
 71
     7
 72
     1
  1
型式表示等削除及びモータベース変更
  7
CONVERTER_5
 73
     1
 44
0.60024009603842
  0
TEXT
  5
1C7
330
1F
100
AcDbEntity
  8
1
 62
     2
100
AcDbText
 10
1261.442472268431
 20
-127.9431150657844
 30
0.0
 40
12.8
  1
1
 41
0.9
  7
CONVERTER_1
100
AcDbText
  0
MTEXT
  5
1C8
330
1F
100
AcDbEntity
  8
1
 62
     2
100
AcDbMText
 10
1600.911309219056
 20
277.964699521626
 30
0.0
 40
12.8
 41
0.0
 71
     9
 72
     1
  1
コントロールユニット
  7
CONVERTER_2
 73
     1
 44
0.60024009603842
  0
MTEXT
  5
1C9
330
1F
100
AcDbEntity
  8
1
 62
     2
100
AcDbMText
 10
2618.49291090202
 20
-122.8620807649952
 30
0.0
 40
12.8
 41
0.0
 71
     5
 72
     1
  1
本体組立図 ローラ幅 600 mm以下,機長 15 cm,20 cm
  7
CONVERTER_5
 73
     1
 44
0.60024009603842
  0
TEXT
  5
1CA
330
1F
100
AcDbEntity
  8
1
 62
     2
100
AcDbText
 10
2193.061714445271
 20
-130.5204231187928
 30
0.0
 40
16.0
  1
レスベヤシリーズ
 41
0.89
  7
CONVERTER_2
100
AcDbText
  0
MTEXT
  5
1CB
330
1F
100
AcDbEntity
  8
1
 62
     2
100
AcDbMText
 10
2257.525855185967
 20
-161.4985920738639
 30
0.0
 40
16.0
 41
0.0
 71
     5
 72
     1
  1
G22S
  7
CONVERTER_1
 73
     1
 44
1.20048019207683
  0
MTEXT
  5
1CC
330
1F
100
AcDbEntity
  8
1
 62
     2
100
AcDbMText
 10
2706.037180218501
 20
-159.7968157271114
 30
0.0
 40
12.8
 41
0.0
 71
     5
 72
     1
  1
W_G22S_S_010_1
  7
CONVERTER_1
 73
     1
 44
1.20048019207683
  0
TEXT
  5
1CD
330
1F
100
AcDbEntity
  8
1
 62
     2
100
AcDbText
 10
1926.519764374705
 20
-137.0135181587214
 30
0.0
 40
12.8
  1
2011.8.26
 41
0.9
  7
CONVERTER_1
100
AcDbText
  0
DIMENSION
  5
1E2
330
1F
100
AcDbEntity
  8
1
100
AcDbDimension
  2
*D03
 10
2492.777594770795
 20
345.547149264813
 30
0.0
 11
2539.2833483886
 21
354.747149264813
 31
0.0
 70
    32
  1
<>
 71
     5
 42
-1.0
 53
0.00013888888889
  3
ME10_DIM_0
100
AcDbAlignedDimension
 13
2505.277594770796
 23
301.867984742987
 33
0.0
 14
2492.777594770794
 24
314.367984742987
 34
0.0
100
AcDbRotatedDimension
  0
DIMENSION
  5
1F1
330
1F
100
AcDbEntity
  8
1
100
AcDbDimension
  2
*D15
 10
1721.828795003768
 20
308.8679847429871
 30
0.0
 11
1712.628795003768
 21
353.5837441011561
 31
0.0
 70
    32
  1
<>
 71
     5
 42
-1.0
 53
90.0
  3
ME10_DIM_1
100
AcDbAlignedDimension
 13
1642.748500327561
 23
286.867984742987
 33
0.0
 14
1642.748500327561
 24
308.867984742987
 34
0.0
 50
90.0
100
AcDbRotatedDimension
  0
DIMENSION
  5
1FE
330
1F
100
AcDbEntity
  8
1
100
AcDbDimension
  2
*D26
 10
1637.748500327559
 20
420.0380594035261
 30
0.0
 11
1842.240877018355
 21
429.0380594035261
 31
0.0
 70
    32
  1
機幅
 71
     5
 42
-1.0
 53
0.00013888888889
  3
ME10_DIM_2
100
AcDbAlignedDimension
 13
2047.748500327559
 23
304.867984742987
 33
0.0
 14
1637.748500327559
 24
304.867984742987
 34
0.0
100
AcDbRotatedDimension
  0
DIMENSION
  5
20B
330
1F
100
AcDbEntity
  8
1
100
AcDbDimension
  2
*D37
 10
2042.748500327557
 20
391.0428766564161
 30
0.0
 11
1844.156274754537
 21
401.4428766564161
 31
0.0
 70
    32
  1
<>
 71
     5
 42
-1.0
 53
0.00013888888889
  3
ME10_DIM_3
100
AcDbAlignedDimension
 13
1642.748500327561
 23
308.867984742987
 33
0.0
 14
2042.748500327557
 24
308.867984742987
 34
0.0
100
AcDbRotatedDimension
  0
DIMENSION
  5
218
330
1F
100
AcDbEntity
  8
1
100
AcDbDimension
  2
*D48
 10
2148.748500327558
 20
308.8679847429857
 30
0.0
 11
2138.348500327558
 21
226.3119556027562
 31
0.0
 70
    32
  1
<>
 71
     5
 42
-1.0
 53
90.0
  3
ME10_DIM_4
100
AcDbAlignedDimension
 13
2047.748500327559
 23
153.8679847429906
 33
0.0
 14
2042.748500327557
 24
308.867984742987
 34
0.0
 50
90.0
100
AcDbRotatedDimension
  0
DIMENSION
  5
225
330
1F
100
AcDbEntity
  8
1
100
AcDbDimension
  2
*D59
 10
2355.277594770794
 20
391.0428766564161
 30
0.0
 11
2430.14315523687
 21
401.2428766564161
 31
0.0
 70
    32
  1
機長
 71
     5
 42
-1.0
 53
0.00013888888889
  3
ME10_DIM_5
100
AcDbAlignedDimension
 13
2505.277594770796
 23
301.867984742987
 33
0.0
 14
2355.277594770794
 24
301.867984742987
 34
0.0
100
AcDbRotatedDimension
  0
DIMENSION
  5
238
330
1F
100
AcDbEntity
  8
1
100
AcDbDimension
  2
*D610
 10
2355.277594770795
 20
345.547149264813
 30
0.0
 11
2316.56707799313
 21
354.747149264813
 31
0.0
 70
    32
  1
<>
 71
     5
 42
-1.0
 53
0.00013888888889
  3
ME10_DIM_6
100
AcDbAlignedDimension
 13
2367.777594770791
 23
314.367984742987
 33
0.0
 14
2355.277594770794
 24
301.867984742987
 34
0.0
100
AcDbRotatedDimension
  0
DIMENSION
  5
24A
330
1F
100
AcDbEntity
  8
1
100
AcDbDimension
  2
*D712
 10
2367.777594770791
 20
345.547149264813
 30
0.0
 11
2420.13472636633
 21
354.747149264813
 31
0.0
 70
    32
  1
25P
 71
     5
 42
-1.0
 53
0.00013888888889
  3
ME10_DIM_7
100
AcDbAlignedDimension
 13
2392.777594770791
 23
314.367984742987
 33
0.0
 14
2367.777594770791
 24
314.367984742987
 34
0.0
100
AcDbRotatedDimension
  0
DIMENSION
  5
257
330
1F
100
AcDbEntity
  8
1
100
AcDbDimension
  2
*D814
 10
2118.748500327558
 20
308.8679847429859
 30
0.0
 11
2107.388500327558
 21
243.4856634908269
 31
0.0
 70
    32
  1
<>
 71
     5
 42
-1.0
 53
90.0
  3
ME10_DIM_8
100
AcDbAlignedDimension
 13
2047.748500327559
 23
179.8679847429889
 33
0.0
 14
2042.748500327557
 24
308.867984742987
 34
0.0
 50
90.0
100
AcDbRotatedDimension
  0
DIMENSION
  5
266
330
1F
100
AcDbEntity
  8
1
100
AcDbDimension
  2
*D915
 10
2118.748500327558
 20
179.8679847429887
 30
0.0
 11
2107.388500327558
 21
166.5617635755373
 31
0.0
 70
    32
  1
<>
 71
     5
 42
-1.0
 53
90.0
  3
ME10_DIM_9
100
AcDbAlignedDimension
 13
2047.748500327559
 23
153.8679847429906
 33
0.0
 14
2047.748500327559
 24
179.8679847429889
 34
0.0
 50
90.0
100
AcDbRotatedDimension
  0
ENDSEC
  0
SECTION
  2
OBJECTS
  0
DICTIONARY
  5
C
330
0
100
AcDbDictionary
281
     1
  3
ACAD_GROUP
350
D
  3
ACAD_LAYOUT
350
1A
  3
ACAD_MLINESTYLE
350
17
  3
ACAD_PLOTSETTINGS
350
19
  3
ACAD_PLOTSTYLENAME
350
E
  0
DICTIONARY
  5
D
102
{ACAD_REACTORS
330
C
102
}
330
C
100
AcDbDictionary
281
     1
  0
DICTIONARY
  5
1A
102
{ACAD_REACTORS
330
C
102
}
330
C
100
AcDbDictionary
281
     1
  3
Layout1
350
1E
  3
Layout2
350
26
  3
Model
350
22
  0
DICTIONARY
  5
17
102
{ACAD_REACTORS
330
C
102
}
330
C
100
AcDbDictionary
281
     1
  3
Standard
350
18
  0
DICTIONARY
  5
19
102
{ACAD_REACTORS
330
C
102
}
330
C
100
AcDbDictionary
281
     1
  0
ACDBDICTIONARYWDFLT
  5
E
102
{ACAD_REACTORS
330
C
102
}
330
C
100
AcDbDictionary
281
     1
  3
Normal
350
F
100
AcDbDictionaryWithDefault
340
F
  0
LAYOUT
  5
1E
102
{ACAD_REACTORS
330
1A
102
}
330
1A
100
AcDbPlotSettings
  1

  2

  4

  6

 40
0.0
 41
0.0
 42
0.0
 43
0.0
 44
0.0
 45
0.0
 46
0.0
 47
0.0
 48
0.0
 49
0.0
140
0.0
141
0.0
142
1.0
143
1.0
 70
   688
 72
     0
 73
     0
 74
     5
  7

 75
    16
147
1.0
148
0.0
149
0.0
100
AcDbLayout
  1
Layout1
 70
     1
 71
     1
 10
0.0
 20
0.0
 11
0.0
 21
0.0
 12
0.0
 22
0.0
 32
0.0
 14
0.0
 24
0.0
 34
0.0
 15
0.0
 25
0.0
 35
0.0
146
0.0
 13
0.0
 23
0.0
 33
0.0
 16
1.0
 26
0.0
 36
0.0
 17
0.0
 27
1.0
 37
0.0
 76
     0
330
1B
  0
LAYOUT
  5
26
102
{ACAD_REACTORS
330
1A
102
}
330
1A
100
AcDbPlotSettings
  1

  2

  4

  6

 40
0.0
 41
0.0
 42
0.0
 43
0.0
 44
0.0
 45
0.0
 46
0.0
 47
0.0
 48
0.0
 49
0.0
140
0.0
141
0.0
142
1.0
143
1.0
 70
   688
 72
     0
 73
     0
 74
     5
  7

 75
    16
147
1.0
148
0.0
149
0.0
100
AcDbLayout
  1
Layout2
 70
     1
 71
     2
 10
0.0
 20
0.0
 11
0.0
 21
0.0
 12
0.0
 22
0.0
 32
0.0
 14
0.0
 24
0.0
 34
0.0
 15
0.0
 25
0.0
 35
0.0
146
0.0
 13
0.0
 23
0.0
 33
0.0
 16
1.0
 26
0.0
 36
0.0
 17
0.0
 27
1.0
 37
0.0
 76
     0
330
23
  0
LAYOUT
  5
22
102
{ACAD_REACTORS
330
1A
102
}
330
1A
100
AcDbPlotSettings
  1

  2

  4

  6

 40
0.0
 41
0.0
 42
0.0
 43
0.0
 44
0.0
 45
0.0
 46
0.0
 47
0.0
 48
0.0
 49
0.0
140
0.0
141
0.0
142
1.0
143
1.0
 70
  1712
 72
     0
 73
     0
 74
     0
  7

 75
     0
147
1.0
148
0.0
149
0.0
100
AcDbLayout
  1
Model
 70
     1
 71
     0
 10
0.0
 20
0.0
 11
0.0
 21
0.0
 12
0.0
 22
0.0
 32
0.0
 14
1240.09548385845
 24
-190.2933379991028
 34
0.0
 15
2816.09548385845
 25
890.73127528472
 35
0.0
146
0.0
 13
0.0
 23
0.0
 33
0.0
 16
1.0
 26
0.0
 36
0.0
 17
0.0
 27
1.0
 37
0.0
 76
     0
330
1F
  0
MLINESTYLE
  5
18
102
{ACAD_REACTORS
330
17
102
}
330
17
100
AcDbMlineStyle
  2
Standard
 70
     0
  3

 62
   256
 51
90.0
 52
90.0
 71
     2
 49
0.5
 62
   256
  6
BYLAYER
 49
-0.5
 62
   256
  6
BYLAYER
  0
ACDBPLACEHOLDER
  5
F
102
{ACAD_REACTORS
330
E
102
}
330
E
  0
ENDSEC
  0
EOF
