  0
SECTION
  2
HEADER
  9
$ACADVER
  1
AC1015
  9
$ACADMAINTVER
 70
     6
  9
$DWGCODEPAGE
  3
DOS932
  9
$INSBASE
 10
0.0
 20
0.0
 30
0.0
  9
$EXTMIN
 10
0.0
 20
-4.51230664191138
 30
0.0
  9
$EXTMAX
 10
788.0
 20
536.0
 30
0.0
  9
$LIMMIN
 10
0.0
 20
0.0
  9
$LIMMAX
 10
12.0
 20
9.0
  9
$ORTHOMODE
 70
     0
  9
$REGENMODE
 70
     1
  9
$FILLMODE
 70
     1
  9
$QTEXTMODE
 70
     0
  9
$MIRRTEXT
 70
     1
  9
$LTSCALE
 40
1.0
  9
$ATTMODE
 70
     1
  9
$TEXTSIZE
 40
0.2
  9
$TRACEWID
 40
0.05
  9
$TEXTSTYLE
  7
Standard
  9
$CLAYER
  8
0
  9
$CELTYPE
  6
ByLayer
  9
$CECOLOR
 62
   256
  9
$CELTSCALE
 40
1.0
  9
$DISPSILH
 70
     0
  9
$DIMSCALE
 40
1.0
  9
$DIMASZ
 40
0.18
  9
$DIMEXO
 40
0.0625
  9
$DIMDLI
 40
0.38
  9
$DIMRND
 40
0.0
  9
$DIMDLE
 40
0.0
  9
$DIMEXE
 40
0.18
  9
$DIMTP
 40
0.0
  9
$DIMTM
 40
0.0
  9
$DIMTXT
 40
0.18
  9
$DIMCEN
 40
0.09
  9
$DIMTSZ
 40
0.0
  9
$DIMTOL
 70
     0
  9
$DIMLIM
 70
     0
  9
$DIMTIH
 70
     1
  9
$DIMTOH
 70
     1
  9
$DIMSE1
 70
     0
  9
$DIMSE2
 70
     0
  9
$DIMTAD
 70
     0
  9
$DIMZIN
 70
     0
  9
$DIMBLK
  1

  9
$DIMASO
 70
     1
  9
$DIMSHO
 70
     1
  9
$DIMPOST
  1

  9
$DIMAPOST
  1

  9
$DIMALT
 70
     0
  9
$DIMALTD
 70
     2
  9
$DIMALTF
 40
25.4
  9
$DIMLFAC
 40
1.0
  9
$DIMTOFL
 70
     0
  9
$DIMTVP
 40
0.0
  9
$DIMTIX
 70
     0
  9
$DIMSOXD
 70
     0
  9
$DIMSAH
 70
     0
  9
$DIMBLK1
  1

  9
$DIMBLK2
  1

  9
$DIMSTYLE
  2
Standard
  9
$DIMCLRD
 70
     0
  9
$DIMCLRE
 70
     0
  9
$DIMCLRT
 70
     0
  9
$DIMTFAC
 40
1.0
  9
$DIMGAP
 40
0.09
  9
$DIMJUST
 70
     0
  9
$DIMSD1
 70
     0
  9
$DIMSD2
 70
     0
  9
$DIMTOLJ
 70
     1
  9
$DIMTZIN
 70
     0
  9
$DIMALTZ
 70
     0
  9
$DIMALTTZ
 70
     0
  9
$DIMUPT
 70
     0
  9
$DIMDEC
 70
     4
  9
$DIMTDEC
 70
     4
  9
$DIMALTU
 70
     2
  9
$DIMALTTD
 70
     2
  9
$DIMTXSTY
  7
Standard
  9
$DIMAUNIT
 70
     0
  9
$DIMADEC
 70
     0
  9
$DIMALTRND
 40
0.0
  9
$DIMAZIN
 70
     0
  9
$DIMDSEP
 70
    46
  9
$DIMATFIT
 70
     3
  9
$DIMFRAC
 70
     0
  9
$DIMLDRBLK
  1

  9
$DIMLUNIT
 70
     2
  9
$DIMLWD
 70
    -2
  9
$DIMLWE
 70
    -2
  9
$DIMTMOVE
 70
     0
  9
$LUNITS
 70
     2
  9
$LUPREC
 70
     4
  9
$SKETCHINC
 40
0.1
  9
$FILLETRAD
 40
0.5
  9
$AUNITS
 70
     0
  9
$AUPREC
 70
     0
  9
$MENU
  1
.
  9
$ELEVATION
 40
0.0
  9
$PELEVATION
 40
0.0
  9
$THICKNESS
 40
0.0
  9
$LIMCHECK
 70
     0
  9
$CHAMFERA
 40
0.5
  9
$CHAMFERB
 40
0.5
  9
$CHAMFERC
 40
1.0
  9
$CHAMFERD
 40
0.0
  9
$SKPOLY
 70
     0
  9
$TDCREATE
 40
2455807.403412893
  9
$TDUCREATE
 40
2455807.028412893
  9
$TDUPDATE
 40
2455807.403412905
  9
$TDUUPDATE
 40
2455807.028412905
  9
$TDINDWG
 40
0.0000000116
  9
$TDUSRTIMER
 40
0.0000000116
  9
$USRTIMER
 70
     1
  9
$ANGBASE
 50
0.0
  9
$ANGDIR
 70
     0
  9
$PDMODE
 70
     0
  9
$PDSIZE
 40
0.0
  9
$PLINEWID
 40
0.0
  9
$SPLFRAME
 70
     0
  9
$SPLINETYPE
 70
     6
  9
$SPLINESEGS
 70
     8
  9
$HANDSEED
  5
433
  9
$SURFTAB1
 70
     6
  9
$SURFTAB2
 70
     6
  9
$SURFTYPE
 70
     6
  9
$SURFU
 70
     6
  9
$SURFV
 70
     6
  9
$UCSBASE
  2

  9
$UCSNAME
  2

  9
$UCSORG
 10
0.0
 20
0.0
 30
0.0
  9
$UCSXDIR
 10
1.0
 20
0.0
 30
0.0
  9
$UCSYDIR
 10
0.0
 20
1.0
 30
0.0
  9
$UCSORTHOREF
  2

  9
$UCSORTHOVIEW
 70
     0
  9
$UCSORGTOP
 10
0.0
 20
0.0
 30
0.0
  9
$UCSORGBOTTOM
 10
0.0
 20
0.0
 30
0.0
  9
$UCSORGLEFT
 10
0.0
 20
0.0
 30
0.0
  9
$UCSORGRIGHT
 10
0.0
 20
0.0
 30
0.0
  9
$UCSORGFRONT
 10
0.0
 20
0.0
 30
0.0
  9
$UCSORGBACK
 10
0.0
 20
0.0
 30
0.0
  9
$PUCSBASE
  2

  9
$PUCSNAME
  2

  9
$PUCSORG
 10
0.0
 20
0.0
 30
0.0
  9
$PUCSXDIR
 10
1.0
 20
0.0
 30
0.0
  9
$PUCSYDIR
 10
0.0
 20
1.0
 30
0.0
  9
$PUCSORTHOREF
  2

  9
$PUCSORTHOVIEW
 70
     0
  9
$PUCSORGTOP
 10
0.0
 20
0.0
 30
0.0
  9
$PUCSORGBOTTOM
 10
0.0
 20
0.0
 30
0.0
  9
$PUCSORGLEFT
 10
0.0
 20
0.0
 30
0.0
  9
$PUCSORGRIGHT
 10
0.0
 20
0.0
 30
0.0
  9
$PUCSORGFRONT
 10
0.0
 20
0.0
 30
0.0
  9
$PUCSORGBACK
 10
0.0
 20
0.0
 30
0.0
  9
$USERI1
 70
     0
  9
$USERI2
 70
     0
  9
$USERI3
 70
     0
  9
$USERI4
 70
     0
  9
$USERI5
 70
     0
  9
$USERR1
 40
14.0
  9
$USERR2
 40
0.0
  9
$USERR3
 40
0.0
  9
$USERR4
 40
0.0
  9
$USERR5
 40
0.0
  9
$WORLDVIEW
 70
     1
  9
$SHADEDGE
 70
     3
  9
$SHADEDIF
 70
    70
  9
$TILEMODE
 70
     1
  9
$MAXACTVP
 70
    64
  9
$PINSBASE
 10
0.0
 20
0.0
 30
0.0
  9
$PLIMCHECK
 70
     0
  9
$PEXTMIN
 10
1.00000000000000E+20
 20
1.00000000000000E+20
 30
1.00000000000000E+20
  9
$PEXTMAX
 10
-1.00000000000000E+20
 20
-1.00000000000000E+20
 30
-1.00000000000000E+20
  9
$PLIMMIN
 10
0.0
 20
0.0
  9
$PLIMMAX
 10
12.0
 20
9.0
  9
$UNITMODE
 70
     0
  9
$VISRETAIN
 70
     1
  9
$PLINEGEN
 70
     0
  9
$PSLTSCALE
 70
     1
  9
$TREEDEPTH
 70
  3020
  9
$CMLSTYLE
  2
Standard
  9
$CMLJUST
 70
     0
  9
$CMLSCALE
 40
1.0
  9
$PROXYGRAPHICS
 70
     1
  9
$MEASUREMENT
 70
     1
  9
$CELWEIGHT
370
    -1
  9
$ENDCAPS
280
     0
  9
$JOINSTYLE
280
     0
  9
$LWDISPLAY
290
     0
  9
$INSUNITS
 70
     1
  9
$HYPERLINKBASE
  1

  9
$STYLESHEET
  1

  9
$XEDIT
290
     1
  9
$CEPSNTYPE
380
     0
  9
$PSTYLEMODE
290
     1
  9
$FINGERPRINTGUID
  2
{D4C92B6B-EE4F-4E85-94EE-DC8472C82074}
  9
$VERSIONGUID
  2
{FAEB1C32-E019-11D5-929B-00C0DF256EC4}
  9
$EXTNAMES
290
     1
  9
$PSVPSCALE
 40
0.0
  9
$OLESTARTUP
290
     0
  0
ENDSEC
  0
SECTION
  2
CLASSES
  0
CLASS
  1
ACDBDICTIONARYWDFLT
  2
AcDbDictionaryWithDefault
  3
ObjectDBX Classes
 90
        0
280
     0
281
     0
  0
CLASS
  1

  2
exOdDbCircle
  3

 90
        0
280
     0
281
     1
  0
CLASS
  1

  2
exOdDbSpline
  3

 90
        0
280
     0
281
     1
  0
CLASS
  1

  2
exOdDbPolyline
  3

 90
        0
280
     0
281
     1
  0
CLASS
  1
ACDBPLACEHOLDER
  2
AcDbPlaceHolder
  3
ObjectDBX Classes
 90
        0
280
     0
281
     0
  0
CLASS
  1
LAYOUT
  2
AcDbLayout
  3
ObjectDBX Classes
 90
        0
280
     0
281
     0
  0
ENDSEC
  0
SECTION
  2
TABLES
  0
TABLE
  2
VPORT
  5
8
330
0
100
AcDbSymbolTable
 70
     1
  0
VPORT
  5
29
330
8
100
AcDbSymbolTableRecord
100
AcDbViewportTableRecord
  2
*Active
 70
     0
 10
0.0
 20
0.0
 11
1.0
 21
1.0
 12
394.0
 22
265.7438466790443
 13
0.0
 23
0.0
 14
0.5
 24
0.5
 15
0.5
 25
0.5
 16
0.0
 26
0.0
 36
1.0
 17
0.0
 27
0.0
 37
0.0
 40
594.5635373061026
 41
1.60267857142857
 42
50.0
 43
0.0
 44
0.0
 50
0.0
 51
0.0
 71
     0
 72
   100
 73
     1
 74
     3
 75
     0
 76
     0
 77
     0
 78
     0
281
     0
 65
     1
110
0.0
120
0.0
130
0.0
111
1.0
121
0.0
131
0.0
112
0.0
122
1.0
132
0.0
 79
     0
146
0.0
  0
ENDTAB
  0
TABLE
  2
LTYPE
  5
5
330
0
100
AcDbSymbolTable
 70
     8
  0
LTYPE
  5
14
330
5
100
AcDbSymbolTableRecord
100
AcDbLinetypeTableRecord
  2
ByBlock
 70
     0
  3

 72
    65
 73
     0
 40
0.0
  0
LTYPE
  5
15
330
5
100
AcDbSymbolTableRecord
100
AcDbLinetypeTableRecord
  2
ByLayer
 70
     0
  3

 72
    65
 73
     0
 40
0.0
  0
LTYPE
  5
16
330
5
100
AcDbSymbolTableRecord
100
AcDbLinetypeTableRecord
  2
Continuous
 70
     0
  3
Solid line
 72
    65
 73
     0
 40
0.0
  0
LTYPE
  5
2A
330
5
100
AcDbSymbolTableRecord
100
AcDbLinetypeTableRecord
  2
DASHED
 70
     0
  3
Dashed
 72
    65
 73
     2
 40
15.0
 49
7.0
 74
     0
 49
-8.0
 74
     0
  0
LTYPE
  5
2B
330
5
100
AcDbSymbolTableRecord
100
AcDbLinetypeTableRecord
  2
DOTTED
 70
     0
  3
Dotted
 72
    65
 73
     2
 40
1.0
 49
0.0
 74
     0
 49
-1.0
 74
     0
  0
LTYPE
  5
2C
330
5
100
AcDbSymbolTableRecord
100
AcDbLinetypeTableRecord
  2
DOT_CENTER
 70
     0
  3
Dot_Center
 72
    65
 73
     4
 40
14.0
 49
12.0
 74
     0
 49
-1.0
 74
     0
 49
0.0
 74
     0
 49
-1.0
 74
     0
  0
LTYPE
  5
2D
330
5
100
AcDbSymbolTableRecord
100
AcDbLinetypeTableRecord
  2
LONG_DASHED
 70
     0
  3
Long_Dashed
 72
    65
 73
     2
 40
15.0
 49
10.0
 74
     0
 49
-5.0
 74
     0
  0
LTYPE
  5
2E
330
5
100
AcDbSymbolTableRecord
100
AcDbLinetypeTableRecord
  2
DASH_CENTER
 70
     0
  3
Dash_Center
 72
    65
 73
     4
 40
14.0
 49
11.0
 74
     0
 49
-1.0
 74
     0
 49
1.0
 74
     0
 49
-1.0
 74
     0
  0
LTYPE
  5
2F
330
5
100
AcDbSymbolTableRecord
100
AcDbLinetypeTableRecord
  2
PHANTOM
 70
     0
  3
Phantom
 72
    65
 73
     6
 40
13.0
 49
10.0
 74
     0
 49
-1.0
 74
     0
 49
0.0
 74
     0
 49
-1.0
 74
     0
 49
0.0
 74
     0
 49
-1.0
 74
     0
  0
LTYPE
  5
30
330
5
100
AcDbSymbolTableRecord
100
AcDbLinetypeTableRecord
  2
CENTER_DASH_DASH
 70
     0
  3
Center_Dash_Dash
 72
    65
 73
     6
 40
14.0
 49
9.0
 74
     0
 49
-1.0
 74
     0
 49
1.0
 74
     0
 49
-1.0
 74
     0
 49
1.0
 74
     0
 49
-1.0
 74
     0
  0
ENDTAB
  0
TABLE
  2
LAYER
  5
2
330
0
100
AcDbSymbolTable
 70
     2
  0
LAYER
  5
10
330
2
100
AcDbSymbolTableRecord
100
AcDbLayerTableRecord
  2
0
 70
     0
 62
     7
  6
Continuous
370
    -3
390
F
  0
LAYER
  5
31
330
2
100
AcDbSymbolTableRecord
100
AcDbLayerTableRecord
  2
1
 70
     0
 62
     7
  6
Continuous
370
    -3
390
F
  0
ENDTAB
  0
TABLE
  2
STYLE
  5
3
330
0
100
AcDbSymbolTable
 70
     6
  0
STYLE
  5
11
330
3
100
AcDbSymbolTableRecord
100
AcDbTextStyleTableRecord
  2
Standard
 70
     0
 40
0.0
 41
1.0
 50
0.0
 71
     0
 42
0.2
  3
txt
  4

  0
STYLE
  5
4A
330
3
100
AcDbSymbolTableRecord
100
AcDbTextStyleTableRecord
  2
CONVERTER_1
 70
     0
 40
0.0
 41
0.9
 50
0.0
 71
     0
 42
0.2
  3
txt.shx
  4

  0
STYLE
  5
4C
330
3
100
AcDbSymbolTableRecord
100
AcDbTextStyleTableRecord
  2
CONVERTER_2
 70
     0
 40
0.0
 41
0.89
 50
0.0
 71
     0
 42
0.2
  3
MSMINCHO.TTC
  4

1001
ACAD
1000
MS Mincho
1071
    32785
  0
STYLE
  5
4E
330
3
100
AcDbSymbolTableRecord
100
AcDbTextStyleTableRecord
  2
CONVERTER_3
 70
     0
 40
0.0
 41
1.068
 50
0.0
 71
     0
 42
0.2
  3
msmincho.ttc
  4

1001
ACAD
1000
MS Mincho
1071
    32785
  0
STYLE
  5
54
330
3
100
AcDbSymbolTableRecord
100
AcDbTextStyleTableRecord
  2
CONVERTER_4
 70
     0
 40
0.0
 41
0.9025
 50
0.0
 71
     0
 42
0.2
  3
complex.shx
  4

  0
STYLE
  5
58
330
3
100
AcDbSymbolTableRecord
100
AcDbTextStyleTableRecord
  2
CONVERTER_5
 70
     0
 40
0.0
 41
0.801
 50
0.0
 71
     0
 42
0.2
  3
msmincho.ttc
  4

1001
ACAD
1000
MS Mincho
1071
    32785
  0
ENDTAB
  0
TABLE
  2
VIEW
  5
6
330
0
100
AcDbSymbolTable
 70
     0
  0
ENDTAB
  0
TABLE
  2
UCS
  5
7
330
0
100
AcDbSymbolTable
 70
     0
  0
ENDTAB
  0
TABLE
  2
APPID
  5
9
330
0
100
AcDbSymbolTable
 70
     1
  0
APPID
  5
12
330
9
100
AcDbSymbolTableRecord
100
AcDbRegAppTableRecord
  2
ACAD
 70
     0
  0
ENDTAB
  0
TABLE
  2
DIMSTYLE
  5
A
330
0
100
AcDbSymbolTable
 70
    25
100
AcDbDimStyleTable
  0
DIMSTYLE
105
27
330
A
100
AcDbSymbolTableRecord
100
AcDbDimStyleTableRecord
  2
Standard
 70
     0
340
11
  0
DIMSTYLE
105
2F4
102
{ACAD_REACTORS
330
2F5
102
}
330
A
100
AcDbSymbolTableRecord
100
AcDbDimStyleTableRecord
  2
ME10_DIM_0
 70
     0
 41
6.4
 42
2.0
 44
2.0
 73
     0
 74
     0
 77
     1
 78
     8
140
6.4
147
1.4
172
     1
173
     1
176
     2
177
     2
178
     2
271
     2
340
4C
343
2EE
344
2EE
  0
DIMSTYLE
105
302
102
{ACAD_REACTORS
330
303
102
}
330
A
100
AcDbSymbolTableRecord
100
AcDbDimStyleTableRecord
  2
ME10_DIM_1
 70
     0
 41
6.4
 42
2.0
 44
2.0
 73
     0
 74
     0
 77
     1
 78
     8
140
6.4
147
1.4
172
     1
173
     1
176
     2
177
     2
178
     2
271
     2
340
4C
343
2EE
344
2EE
  0
DIMSTYLE
105
30F
102
{ACAD_REACTORS
330
310
102
}
330
A
100
AcDbSymbolTableRecord
100
AcDbDimStyleTableRecord
  2
ME10_DIM_2
 70
     0
 41
6.4
 42
2.0
 44
2.0
 73
     0
 74
     0
 77
     1
 78
     8
140
6.4
147
1.4
172
     1
173
     1
176
     2
177
     2
178
     2
271
     2
340
4A
343
2EE
344
2EE
  0
DIMSTYLE
105
31C
102
{ACAD_REACTORS
330
31D
102
}
330
A
100
AcDbSymbolTableRecord
100
AcDbDimStyleTableRecord
  2
ME10_DIM_3
 70
     0
 41
6.4
 42
2.0
 44
2.0
 73
     0
 74
     0
 77
     1
 78
     8
140
6.4
147
1.4
172
     1
173
     1
176
     2
177
     2
178
     2
271
     2
340
4A
343
2EE
344
2EE
  0
DIMSTYLE
105
32B
102
{ACAD_REACTORS
330
32C
102
}
330
A
100
AcDbSymbolTableRecord
100
AcDbDimStyleTableRecord
  2
ME10_DIM_4
 70
     0
 41
6.4
 42
2.0
 44
2.0
 73
     0
 74
     0
 77
     1
 78
     8
140
6.4
147
1.4
172
     1
173
     1
176
     2
177
     2
178
     2
271
     2
340
4A
343
2EE
344
2EE
  0
DIMSTYLE
105
33A
102
{ACAD_REACTORS
330
33B
102
}
330
A
100
AcDbSymbolTableRecord
100
AcDbDimStyleTableRecord
  2
ME10_DIM_5
 70
     0
 41
6.4
 42
2.0
 44
2.0
 73
     0
 74
     0
 77
     1
 78
     8
140
6.4
147
1.4
172
     1
173
     1
176
     2
177
     2
178
     2
271
     2
340
4A
343
2EE
344
2EE
  0
DIMSTYLE
105
347
102
{ACAD_REACTORS
330
348
102
}
330
A
100
AcDbSymbolTableRecord
100
AcDbDimStyleTableRecord
  2
ME10_DIM_6
 70
     0
 41
6.4
 42
2.0
 44
2.0
 73
     0
 74
     0
 77
     1
 78
     8
140
6.4
147
1.4
172
     1
173
     1
176
     2
177
     2
178
     2
271
     2
340
4A
343
2EE
344
2EE
  0
DIMSTYLE
105
356
102
{ACAD_REACTORS
330
357
102
}
330
A
100
AcDbSymbolTableRecord
100
AcDbDimStyleTableRecord
  2
ME10_DIM_7
 70
     0
 41
6.4
 42
2.0
 44
2.0
 73
     0
 74
     0
 77
     1
 78
     8
140
6.4
147
1.4
172
     1
173
     1
176
     2
177
     2
178
     2
271
     2
340
4A
343
2EE
344
2EE
  0
DIMSTYLE
105
365
102
{ACAD_REACTORS
330
366
102
}
330
A
100
AcDbSymbolTableRecord
100
AcDbDimStyleTableRecord
  2
ME10_DIM_8
 70
     0
 41
6.4
 42
2.0
 44
2.0
 73
     0
 74
     0
 77
     1
 78
     8
140
6.4
147
2.0
172
     1
173
     1
176
     2
177
     2
178
     2
271
     2
340
4A
343
2EE
344
2EE
  0
DIMSTYLE
105
374
102
{ACAD_REACTORS
330
375
102
}
330
A
100
AcDbSymbolTableRecord
100
AcDbDimStyleTableRecord
  2
ME10_DIM_9
 70
     0
 41
6.4
 42
2.0
 44
2.0
 73
     0
 74
     0
 77
     1
 78
     8
140
6.4
147
2.0
172
     1
173
     1
176
     2
177
     2
178
     2
271
     2
340
4A
343
2EE
344
2EE
  0
DIMSTYLE
105
381
102
{ACAD_REACTORS
330
382
102
}
330
A
100
AcDbSymbolTableRecord
100
AcDbDimStyleTableRecord
  2
ME10_DIM_10
 70
     0
 41
6.4
 42
2.0
 44
2.0
 73
     0
 74
     0
 77
     1
 78
     8
140
6.4
147
1.4
172
     1
173
     1
176
     2
177
     2
178
     2
271
     2
340
4A
343
2EE
344
2EE
  0
DIMSTYLE
105
38E
102
{ACAD_REACTORS
330
38F
102
}
330
A
100
AcDbSymbolTableRecord
100
AcDbDimStyleTableRecord
  2
ME10_DIM_11
 70
     0
 41
6.4
 42
2.0
 44
2.0
 73
     0
 74
     0
 77
     1
 78
     8
140
6.4
147
2.0
172
     1
173
     1
176
     2
177
     2
178
     2
271
     2
340
4A
343
2EE
344
2EE
  0
DIMSTYLE
105
39C
102
{ACAD_REACTORS
330
39D
102
}
330
A
100
AcDbSymbolTableRecord
100
AcDbDimStyleTableRecord
  2
ME10_DIM_12
 70
     0
 41
5.12
 42
2.0
 44
2.0
 73
     0
 74
     0
 77
     1
 78
     8
140
6.4
147
2.0
172
     1
173
     1
176
     2
177
     2
178
     2
271
     2
340
4A
343
2EE
344
2EE
  0
DIMSTYLE
105
3AB
102
{ACAD_REACTORS
330
3AC
102
}
330
A
100
AcDbSymbolTableRecord
100
AcDbDimStyleTableRecord
  2
ME10_DIM_13
 70
     0
 41
5.12
 42
2.0
 44
2.0
 73
     0
 74
     0
 77
     1
 78
     8
140
6.4
147
2.0
172
     1
173
     1
176
     2
177
     2
178
     2
271
     2
340
4A
343
2EE
344
2EE
  0
DIMSTYLE
105
3B8
102
{ACAD_REACTORS
330
3B9
102
}
330
A
100
AcDbSymbolTableRecord
100
AcDbDimStyleTableRecord
  2
ME10_DIM_14
 70
     0
 41
6.4
 42
2.0
 44
2.0
 77
     1
 78
     8
140
6.4
147
1.4
172
     1
173
     1
176
     2
177
     2
178
     2
271
     2
340
4A
343
2EE
344
2EE
  0
DIMSTYLE
105
3C7
102
{ACAD_REACTORS
330
3C8
102
}
330
A
100
AcDbSymbolTableRecord
100
AcDbDimStyleTableRecord
  2
ME10_DIM_15
 70
     0
 41
5.12
 42
2.0
 44
2.0
 73
     0
 74
     0
 77
     1
 78
     8
140
6.4
147
2.0
172
     1
173
     1
176
     2
177
     2
178
     2
271
     2
340
4A
343
2EE
344
2EE
  0
DIMSTYLE
105
3D4
102
{ACAD_REACTORS
330
3D5
102
}
330
A
100
AcDbSymbolTableRecord
100
AcDbDimStyleTableRecord
  2
ME10_DIM_16
 70
     0
 41
6.4
 42
2.0
 44
2.0
 77
     1
 78
     8
140
6.4
147
1.4
172
     1
173
     1
176
     2
177
     2
178
     2
271
     2
340
4A
343
2EE
344
2EE
  0
DIMSTYLE
105
3E1
102
{ACAD_REACTORS
330
3E2
102
}
330
A
100
AcDbSymbolTableRecord
100
AcDbDimStyleTableRecord
  2
ME10_DIM_17
 70
     0
 41
6.4
 42
2.0
 44
2.0
 77
     1
 78
     8
140
6.4
147
1.4
172
     1
173
     1
176
     2
177
     2
178
     2
271
     2
340
4A
343
2EE
344
2EE
  0
DIMSTYLE
105
3EE
102
{ACAD_REACTORS
330
3EF
102
}
330
A
100
AcDbSymbolTableRecord
100
AcDbDimStyleTableRecord
  2
ME10_DIM_18
 70
     0
 41
6.4
 42
2.0
 44
2.0
 77
     1
 78
     8
140
6.4
147
1.4
172
     1
173
     1
176
     2
177
     2
178
     2
271
     2
340
4A
343
2EE
344
2EE
  0
DIMSTYLE
105
3FB
102
{ACAD_REACTORS
330
3FC
102
}
330
A
100
AcDbSymbolTableRecord
100
AcDbDimStyleTableRecord
  2
ME10_DIM_19
 70
     0
 41
6.4
 42
2.0
 44
2.0
 77
     1
 78
     8
140
6.4
147
1.4
172
     1
173
     1
176
     2
177
     2
178
     2
271
     2
340
4A
343
2EE
344
2EE
  0
DIMSTYLE
105
408
102
{ACAD_REACTORS
330
409
102
}
330
A
100
AcDbSymbolTableRecord
100
AcDbDimStyleTableRecord
  2
ME10_DIM_20
 70
     0
 41
6.4
 42
2.0
 44
2.0
 73
     0
 74
     0
 77
     1
 78
     8
140
6.4
147
1.4
172
     1
173
     1
176
     2
177
     2
178
     2
271
     2
340
4A
343
2EE
344
2EE
  0
DIMSTYLE
105
417
102
{ACAD_REACTORS
330
418
102
}
330
A
100
AcDbSymbolTableRecord
100
AcDbDimStyleTableRecord
  2
ME10_DIM_21
 70
     0
 41
6.4
 42
2.0
 44
2.0
 73
     0
 74
     0
 77
     1
 78
     8
140
6.4
147
1.4
172
     1
173
     1
176
     2
177
     2
178
     2
271
     2
340
4A
343
2EE
344
2EE
  0
DIMSTYLE
105
424
102
{ACAD_REACTORS
330
425
102
}
330
A
100
AcDbSymbolTableRecord
100
AcDbDimStyleTableRecord
  2
ME10_DIM_22
 70
     0
 41
5.12
 42
2.0
 44
2.0
 73
     0
 74
     0
 77
     1
 78
     8
140
6.4
147
2.0
172
     1
173
     1
176
     2
177
     2
178
     2
271
     2
340
4A
343
2EE
344
2EE
  0
DIMSTYLE
105
431
102
{ACAD_REACTORS
330
432
102
}
330
A
100
AcDbSymbolTableRecord
100
AcDbDimStyleTableRecord
  2
ME10_DIM_23
 70
     0
 41
5.12
 42
2.0
 44
2.0
 73
     0
 74
     0
 77
     1
 78
     8
140
6.4
147
2.0
172
     1
173
     1
176
     2
177
     2
178
     2
271
     2
340
4A
343
2EE
344
2EE
  0
ENDTAB
  0
TABLE
  2
BLOCK_RECORD
  5
1
330
0
100
AcDbSymbolTable
 70
    27
  0
BLOCK_RECORD
  5
1F
330
1
100
AcDbSymbolTableRecord
100
AcDbBlockTableRecord
  2
*Model_Space
340
22
  0
BLOCK_RECORD
  5
1B
330
1
100
AcDbSymbolTableRecord
100
AcDbBlockTableRecord
  2
*Paper_Space
340
1E
  0
BLOCK_RECORD
  5
23
330
1
100
AcDbSymbolTableRecord
100
AcDbBlockTableRecord
  2
*Paper_Space0
340
26
  0
BLOCK_RECORD
  5
32
330
1
100
AcDbSymbolTableRecord
100
AcDbBlockTableRecord
  2
Zuwaku-A3-web
340
0
102
{BLKREFS
331
35
102
}
  0
BLOCK_RECORD
  5
2E2
330
1
100
AcDbSymbolTableRecord
100
AcDbBlockTableRecord
  2
*D02
340
0
  0
BLOCK_RECORD
  5
2EE
330
1
100
AcDbSymbolTableRecord
100
AcDbBlockTableRecord
  2
_Open30
340
0
  0
BLOCK_RECORD
  5
2F6
330
1
100
AcDbSymbolTableRecord
100
AcDbBlockTableRecord
  2
*D14
340
0
  0
BLOCK_RECORD
  5
304
330
1
100
AcDbSymbolTableRecord
100
AcDbBlockTableRecord
  2
*D25
340
0
  0
BLOCK_RECORD
  5
311
330
1
100
AcDbSymbolTableRecord
100
AcDbBlockTableRecord
  2
*D36
340
0
  0
BLOCK_RECORD
  5
31E
330
1
100
AcDbSymbolTableRecord
100
AcDbBlockTableRecord
  2
*D47
340
0
  0
BLOCK_RECORD
  5
32D
330
1
100
AcDbSymbolTableRecord
100
AcDbBlockTableRecord
  2
*D58
340
0
  0
BLOCK_RECORD
  5
33C
330
1
100
AcDbSymbolTableRecord
100
AcDbBlockTableRecord
  2
*D69
340
0
  0
BLOCK_RECORD
  5
349
330
1
100
AcDbSymbolTableRecord
100
AcDbBlockTableRecord
  2
*D710
340
0
  0
BLOCK_RECORD
  5
358
330
1
100
AcDbSymbolTableRecord
100
AcDbBlockTableRecord
  2
*D811
340
0
  0
BLOCK_RECORD
  5
367
330
1
100
AcDbSymbolTableRecord
100
AcDbBlockTableRecord
  2
*D912
340
0
  0
BLOCK_RECORD
  5
376
330
1
100
AcDbSymbolTableRecord
100
AcDbBlockTableRecord
  2
*D1013
340
0
  0
BLOCK_RECORD
  5
383
330
1
100
AcDbSymbolTableRecord
100
AcDbBlockTableRecord
  2
*D1114
340
0
  0
BLOCK_RECORD
  5
390
330
1
100
AcDbSymbolTableRecord
100
AcDbBlockTableRecord
  2
*D1215
340
0
  0
BLOCK_RECORD
  5
39E
330
1
100
AcDbSymbolTableRecord
100
AcDbBlockTableRecord
  2
*D1316
340
0
  0
BLOCK_RECORD
  5
3AD
330
1
100
AcDbSymbolTableRecord
100
AcDbBlockTableRecord
  2
*D1417
340
0
  0
BLOCK_RECORD
  5
3BA
330
1
100
AcDbSymbolTableRecord
100
AcDbBlockTableRecord
  2
*D1518
340
0
  0
BLOCK_RECORD
  5
3C9
330
1
100
AcDbSymbolTableRecord
100
AcDbBlockTableRecord
  2
*D1619
340
0
  0
BLOCK_RECORD
  5
3D6
330
1
100
AcDbSymbolTableRecord
100
AcDbBlockTableRecord
  2
*D1720
340
0
  0
BLOCK_RECORD
  5
3E3
330
1
100
AcDbSymbolTableRecord
100
AcDbBlockTableRecord
  2
*D1821
340
0
  0
BLOCK_RECORD
  5
3F0
330
1
100
AcDbSymbolTableRecord
100
AcDbBlockTableRecord
  2
*D1922
340
0
  0
BLOCK_RECORD
  5
3FD
330
1
100
AcDbSymbolTableRecord
100
AcDbBlockTableRecord
  2
*D2023
340
0
  0
BLOCK_RECORD
  5
40A
330
1
100
AcDbSymbolTableRecord
100
AcDbBlockTableRecord
  2
*D2124
340
0
  0
BLOCK_RECORD
  5
419
330
1
100
AcDbSymbolTableRecord
100
AcDbBlockTableRecord
  2
*D2225
340
0
  0
BLOCK_RECORD
  5
426
330
1
100
AcDbSymbolTableRecord
100
AcDbBlockTableRecord
  2
*D2326
340
0
  0
ENDTAB
  0
ENDSEC
  0
SECTION
  2
BLOCKS
  0
BLOCK
  5
20
330
1F
100
AcDbEntity
  8
0
100
AcDbBlockBegin
  2
*Model_Space
 70
     0
 71
     0
 10
0.0
 20
0.0
 30
0.0
  3
*Model_Space
  1

  0
ENDBLK
  5
21
330
1F
100
AcDbEntity
  8
0
100
AcDbBlockEnd
  0
BLOCK
  5
1C
330
1B
100
AcDbEntity
 67
     1
  8
0
100
AcDbBlockBegin
  2
*Paper_Space
 70
     0
 71
     0
 10
0.0
 20
0.0
 30
0.0
  3
*Paper_Space
  1

  0
ENDBLK
  5
1D
330
1B
100
AcDbEntity
 67
     1
  8
0
100
AcDbBlockEnd
  0
BLOCK
  5
24
330
23
100
AcDbEntity
  8
0
100
AcDbBlockBegin
  2
*Paper_Space0
 70
     0
 71
     0
 10
0.0
 20
0.0
 30
0.0
  3
*Paper_Space0
  1

  0
ENDBLK
  5
25
330
23
100
AcDbEntity
  8
0
100
AcDbBlockEnd
  0
BLOCK
  5
33
330
32
100
AcDbEntity
  8
0
100
AcDbBlockBegin
  2
Zuwaku-A3-web
 70
     0
 71
     0
 10
196.9999999999998
 20
134.0
 30
0.0
  3
Zuwaku-A3-web
  1

  0
LINE
  5
36
330
32
100
AcDbEntity
  8
1
  6
Continuous
 62
     4
100
AcDbLine
 10
295.0000000000001
 20
20.0
 30
0.0
 11
295.0000000000001
 21
0.0
 31
0.0
  0
LINE
  5
37
330
32
100
AcDbEntity
  8
1
  6
Continuous
 62
     4
100
AcDbLine
 10
394.0
 20
20.0
 30
0.0
 11
0.0
 21
20.0
 31
0.0
  0
LINE
  5
38
330
32
100
AcDbEntity
  8
1
  6
Continuous
 62
     4
100
AcDbLine
 10
173.7445771572093
 20
2.13397584248199
 30
0.0
 11
179.4766254722454
 21
7.866024157518
 31
0.0
  0
LINE
  5
39
330
32
100
AcDbEntity
  8
1
  6
Continuous
 62
     7
100
AcDbLine
 10
0.0
 20
268.0
 30
0.0
 11
0.0
 21
0.0
 31
0.0
  0
LINE
  5
3A
330
32
100
AcDbEntity
  8
1
  6
Continuous
 62
     4
100
AcDbLine
 10
66.0
 20
20.0
 30
0.0
 11
66.0
 21
0.0
 31
0.0
  0
LINE
  5
3B
330
32
100
AcDbEntity
  8
1
  6
Continuous
 62
     4
100
AcDbLine
 10
170.5
 20
10.0
 30
0.0
 11
170.5
 21
0.0
 31
0.0
  0
LINE
  5
3C
330
32
100
AcDbEntity
  8
1
  6
Continuous
 62
     4
100
AcDbLine
 10
227.0
 20
20.0
 30
0.0
 11
227.0
 21
0.0
 31
0.0
  0
LINE
  5
3D
330
32
100
AcDbEntity
  8
1
  6
Continuous
 62
     4
100
AcDbLine
 10
283.0000000000001
 20
20.0
 30
0.0
 11
283.0000000000001
 21
0.0
 31
0.0
  0
LINE
  5
3E
330
32
100
AcDbEntity
  8
1
  6
Continuous
 62
     4
100
AcDbLine
 10
162.5
 20
0.0
 30
0.0
 11
162.5
 21
20.0
 31
0.0
  0
LINE
  5
3F
330
32
100
AcDbEntity
  8
1
  6
Continuous
 62
     4
100
AcDbLine
 10
202.0
 20
0.0
 30
0.0
 11
202.0
 21
20.0
 31
0.0
  0
LINE
  5
40
330
32
100
AcDbEntity
  8
1
  6
Continuous
 62
     7
100
AcDbLine
 10
394.0
 20
0.0
 30
0.0
 11
393.9999999999996
 21
268.0
 31
0.0
  0
LINE
  5
41
330
32
100
AcDbEntity
  8
1
  6
Continuous
 62
     7
100
AcDbLine
 10
393.9999999999996
 20
268.0
 30
0.0
 11
0.0
 21
268.0
 31
0.0
  0
LINE
  5
42
330
32
100
AcDbEntity
  8
1
  6
Continuous
 62
     4
100
AcDbLine
 10
0.0
 20
10.0
 30
0.0
 11
394.0
 21
10.0
 31
0.0
  0
LINE
  5
43
330
32
100
AcDbEntity
  8
1
  6
Continuous
 62
     4
100
AcDbLine
 10
12.0
 20
20.0
 30
0.0
 11
12.0
 21
0.0
 31
0.0
  0
LINE
  5
44
330
32
100
AcDbEntity
  8
1
  6
Continuous
 62
     3
100
AcDbLine
 10
6.0
 20
19.0
 30
0.0
 11
2.5
 21
12.5
 31
0.0
  0
LINE
  5
45
330
32
100
AcDbEntity
  8
1
  6
Continuous
 62
     3
100
AcDbLine
 10
2.5
 20
12.5
 30
0.0
 11
9.5
 21
12.5
 31
0.0
  0
LINE
  5
46
330
32
100
AcDbEntity
  8
1
  6
Continuous
 62
     3
100
AcDbLine
 10
9.5
 20
12.5
 30
0.0
 11
6.0
 21
19.0
 31
0.0
  0
LINE
  5
47
330
32
100
AcDbEntity
  8
1
  6
Continuous
 62
     4
100
AcDbLine
 10
162.5
 20
15.0
 30
0.0
 11
202.0
 21
15.0
 31
0.0
  0
LINE
  5
48
330
32
100
AcDbEntity
  8
1
  6
Continuous
 62
     7
100
AcDbLine
 10
0.0
 20
0.0
 30
0.0
 11
394.0
 21
0.0
 31
0.0
  0
LINE
  5
49
330
32
100
AcDbEntity
  8
1
  6
Continuous
 62
     4
100
AcDbLine
 10
189.4945771572093
 20
2.13397584248199
 30
0.0
 11
195.2266254722454
 21
7.866024157518
 31
0.0
  0
MTEXT
  5
4B
330
32
100
AcDbEntity
  8
1
 62
     4
100
AcDbMText
 10
393.4565543923691
 20
-0.25615332095569
 30
0.0
 40
2.0
 41
0.0
 71
     3
 72
     1
  1
A3
  7
CONVERTER_1
 73
     1
 44
1.32052821128451
  0
MTEXT
  5
4D
330
32
100
AcDbEntity
  8
1
 62
     2
100
AcDbMText
 10
289.0000000000001
 20
15.0
 30
0.0
 40
4.0
 41
0.0
 71
     5
 72
     1
  1
図名
  7
CONVERTER_2
 73
     1
 44
1.32052821128451
  0
MTEXT
  5
4F
330
32
100
AcDbEntity
  8
1
 62
     2
100
AcDbMText
 10
289.0000000000001
 20
7.25
 30
0.0
 40
3.5
 41
0.0
 71
     5
 72
     1
  1
図面
  7
CONVERTER_3
 73
     1
 44
0.78031212484994
  0
MTEXT
  5
50
330
32
100
AcDbEntity
  8
1
 62
     2
100
AcDbMText
 10
182.25
 20
17.5
 30
0.0
 40
3.5
 41
0.0
 71
     5
 72
     1
  1
年　　月　　日
  7
CONVERTER_2
 73
     1
 44
0.78031212484994
  0
MTEXT
  5
51
330
32
100
AcDbEntity
  8
1
 62
     2
100
AcDbMText
 10
166.5
 20
7.25
 30
0.0
 40
3.5
 41
0.0
 71
     5
 72
     1
  1
尺
  7
CONVERTER_3
 73
     1
 44
0.78031212484994
  0
MTEXT
  5
52
330
32
100
AcDbEntity
  8
1
 62
     2
100
AcDbMText
 10
39.0
 20
5.0
 30
0.0
 40
3.5
 41
0.0
 71
     5
 72
     1
  1
改　 訂　 記　 事
  7
CONVERTER_2
 73
     1
 44
1.32052821128451
  0
MTEXT
  5
53
330
32
100
AcDbEntity
  8
1
 62
     2
100
AcDbMText
 10
6.0
 20
7.25
 30
0.0
 40
3.5
 41
0.0
 71
     5
 72
     1
  1
改訂
  7
CONVERTER_2
 73
     1
 44
0.78031212484994
  0
MTEXT
  5
55
330
32
100
AcDbEntity
  8
1
 62
     7
100
AcDbMText
 10
114.25
 20
5.0
 30
0.0
 40
4.0
 41
0.0
 71
     5
 72
     1
  1
MARUYASU KIKAI CO.,LTD.
  7
CONVERTER_4
 73
     1
 44
1.32052821128451
  0
MTEXT
  5
56
330
32
100
AcDbEntity
  8
1
 62
     2
100
AcDbMText
 10
189.75
 20
6.5
 30
0.0
 40
4.0
 41
0.0
 71
     5
 72
     1
  1
1
  7
CONVERTER_1
 73
     1
 44
1.32052821128451
  0
MTEXT
  5
57
330
32
100
AcDbEntity
  8
1
 62
     2
100
AcDbMText
 10
214.5
 20
5.0
 30
0.0
 40
4.0
 41
0.0
 71
     5
 72
     1
  1
機　種
  7
CONVERTER_2
 73
     1
 44
1.32052821128451
  0
MTEXT
  5
59
330
32
100
AcDbEntity
  8
1
 62
     2
100
AcDbMText
 10
214.5
 20
15.0
 30
0.0
 40
4.0
 41
0.0
 71
     5
 72
     1
  1
シリーズ名
  7
CONVERTER_5
 73
     1
 44
1.32052821128451
  0
MTEXT
  5
5A
330
32
100
AcDbEntity
  8
1
 62
     7
100
AcDbMText
 10
114.25
 20
15.0
 30
0.0
 40
5.0
 41
0.0
 71
     5
 72
     1
  1
技術情報サービス
  7
CONVERTER_2
 73
     1
 44
1.20048019207683
  0
MTEXT
  5
5B
330
32
100
AcDbEntity
  8
1
 62
     2
100
AcDbMText
 10
5.67807803017169
 20
2.75
 30
0.0
 40
3.5
 41
0.0
 71
     5
 72
     1
  1
番号
  7
CONVERTER_2
 73
     1
 44
0.78031212484994
  0
MTEXT
  5
5C
330
32
100
AcDbEntity
  8
1
 62
     2
100
AcDbMText
 10
166.5
 20
2.75
 30
0.0
 40
3.5
 41
0.0
 71
     5
 72
     1
  1
度
  7
CONVERTER_3
 73
     1
 44
0.78031212484994
  0
MTEXT
  5
5D
330
32
100
AcDbEntity
  8
1
 62
     2
100
AcDbMText
 10
289.0000000000001
 20
2.75
 30
0.0
 40
3.5
 41
0.0
 71
     5
 72
     1
  1
番号
  7
CONVERTER_3
 73
     1
 44
0.78031212484994
  0
MTEXT
  5
5E
330
32
100
AcDbEntity
  8
1
 62
     2
100
AcDbMText
 10
173.183432867907
 20
6.25
 30
0.0
 40
4.0
 41
0.0
 71
     5
 72
     1
  1
1
  7
CONVERTER_1
 73
     1
 44
0.60024009603842
  0
MTEXT
  5
5F
330
32
100
AcDbEntity
  8
1
 62
     2
100
AcDbMText
 10
180.9766254722454
 20
3.75
 30
0.0
 40
4.0
 41
0.0
 71
     5
 72
     1
  1
2
  7
CONVERTER_1
 73
     1
 44
0.60024009603842
  0
ENDBLK
  5
34
330
32
100
AcDbEntity
  8
0
100
AcDbBlockEnd
  0
BLOCK
  5
2EC
330
2E2
100
AcDbEntity
  8
0
100
AcDbBlockBegin
  2
*D02
 70
     1
 71
     0
 10
0.0
 20
0.0
 30
0.0
  3
*D02
  1

  0
LINE
  5
2E3
330
2E2
100
AcDbEntity
  8
1
  6
Continuous
 62
     2
100
AcDbLine
 10
101.548843083795
 20
218.4782046293355
 30
0.0
 11
101.548843083795
 21
249.110802025203
 31
0.0
  0
LINE
  5
2E4
330
2E2
100
AcDbEntity
  8
1
  6
Continuous
 62
     2
100
AcDbLine
 10
101.548843083795
 20
193.9782046293355
 30
0.0
 11
101.548843083795
 21
218.4782046293355
 31
0.0
  0
LINE
  5
2E5
330
2E2
100
AcDbEntity
  8
1
  6
Continuous
 62
     2
100
AcDbLine
 10
87.40611169997712
 20
193.9782046293355
 30
0.0
 11
103.548843083795
 21
193.9782046293355
 31
0.0
  0
LINE
  5
2E6
330
2E2
100
AcDbEntity
  8
1
  6
Continuous
 62
     2
100
AcDbLine
 10
129.2100739189219
 20
218.4782046293355
 30
0.0
 11
99.54884308379501
 21
218.4782046293355
 31
0.0
  0
LINE
  5
2E7
330
2E2
100
AcDbEntity
  8
1
 62
     2
100
AcDbLine
 10
101.548843083795
 20
193.9782046293355
 30
0.0
 11
99.83396825223582
 21
200.3782046293355
 31
0.0
  0
LINE
  5
2E8
330
2E2
100
AcDbEntity
  8
1
 62
     2
100
AcDbLine
 10
101.548843083795
 20
193.9782046293355
 30
0.0
 11
103.2637179153542
 21
200.3782046293355
 31
0.0
  0
LINE
  5
2E9
330
2E2
100
AcDbEntity
  8
1
 62
     2
100
AcDbLine
 10
101.548843083795
 20
218.4782046293355
 30
0.0
 11
103.2637179153542
 21
212.0782046293355
 31
0.0
  0
LINE
  5
2EA
330
2E2
100
AcDbEntity
  8
1
 62
     2
100
AcDbLine
 10
101.548843083795
 20
218.4782046293355
 30
0.0
 11
99.83396825223582
 21
212.0782046293355
 31
0.0
  0
MTEXT
  5
2EB
330
2E2
100
AcDbEntity
  8
1
 62
     2
100
AcDbMText
 10
100.148843083795
 20
223.510802025203
 30
0.0
 40
6.4
 41
0.0
 71
     7
 72
     1
  1
18～45
  7
CONVERTER_2
 11
0.0
 21
1.0
 31
0.0
 73
     1
 44
0.60024009603842
  0
ENDBLK
  5
2ED
330
2E2
100
AcDbEntity
  8
0
100
AcDbBlockEnd
  0
BLOCK
  5
2EF
330
2EE
100
AcDbEntity
  8
0
100
AcDbBlockBegin
  2
_Open30
 70
     0
 71
     0
 10
0.0
 20
0.0
 30
0.0
  3
_Open30
  1

  0
LINE
  5
2F1
330
2EE
100
AcDbEntity
  8
0
  6
ByBlock
 62
     0
370
    -2
100
AcDbLine
 10
-1.0
 20
0.267949
 30
0.0
 11
0.0
 21
0.0
 31
0.0
  0
LINE
  5
2F2
330
2EE
100
AcDbEntity
  8
0
  6
ByBlock
 62
     0
370
    -2
100
AcDbLine
 10
0.0
 20
0.0
 30
0.0
 11
-1.0
 21
-0.267949
 31
0.0
  0
LINE
  5
2F3
330
2EE
100
AcDbEntity
  8
0
  6
ByBlock
 62
     0
370
    -2
100
AcDbLine
 10
0.0
 20
0.0
 30
0.0
 11
-1.0
 21
0.0
 31
0.0
  0
ENDBLK
  5
2F0
330
2EE
100
AcDbEntity
  8
0
100
AcDbBlockEnd
  0
BLOCK
  5
300
330
2F6
100
AcDbEntity
  8
0
100
AcDbBlockBegin
  2
*D14
 70
     1
 71
     0
 10
0.0
 20
0.0
 30
0.0
  3
*D14
  1

  0
LINE
  5
2F7
330
2F6
100
AcDbEntity
  8
1
  6
Continuous
 62
     2
100
AcDbLine
 10
473.6720853427891
 20
216.9775444575557
 30
0.0
 11
473.6720853427891
 21
249.840854401114
 31
0.0
  0
LINE
  5
2F8
330
2F6
100
AcDbEntity
  8
1
  6
Continuous
 62
     2
100
AcDbLine
 10
473.6720853427891
 20
193.9782046293355
 30
0.0
 11
473.6720853427891
 21
216.9775444575557
 31
0.0
  0
LINE
  5
2F9
330
2F6
100
AcDbEntity
  8
1
  6
Continuous
 62
     2
100
AcDbLine
 10
508.8238171240014
 20
193.9782046293355
 30
0.0
 11
471.6720853427891
 21
193.9782046293355
 31
0.0
  0
LINE
  5
2FA
330
2F6
100
AcDbEntity
  8
1
  6
Continuous
 62
     2
100
AcDbLine
 10
492.2909188465064
 20
216.9775444575557
 30
0.0
 11
471.6720853427891
 21
216.9775444575557
 31
0.0
  0
LINE
  5
2FB
330
2F6
100
AcDbEntity
  8
1
 62
     2
100
AcDbLine
 10
473.6720853427891
 20
193.9782046293355
 30
0.0
 11
471.9572105112299
 21
200.3782046293355
 31
0.0
  0
LINE
  5
2FC
330
2F6
100
AcDbEntity
  8
1
 62
     2
100
AcDbLine
 10
473.6720853427891
 20
193.9782046293355
 30
0.0
 11
475.3869601743483
 21
200.3782046293355
 31
0.0
  0
LINE
  5
2FD
330
2F6
100
AcDbEntity
  8
1
 62
     2
100
AcDbLine
 10
473.6720853427891
 20
216.9775444575557
 30
0.0
 11
475.3869601743483
 21
210.5775444575557
 31
0.0
  0
LINE
  5
2FE
330
2F6
100
AcDbEntity
  8
1
 62
     2
100
AcDbLine
 10
473.6720853427891
 20
216.9775444575557
 30
0.0
 11
471.9572105112299
 21
210.5775444575557
 31
0.0
  0
MTEXT
  5
2FF
330
2F6
100
AcDbEntity
  8
1
 62
     2
100
AcDbMText
 10
472.272085342789
 20
222.320854401114
 30
0.0
 40
6.4
 41
0.0
 71
     7
 72
     1
  1
22～55
  7
CONVERTER_2
 11
0.0
 21
1.0
 31
0.0
 73
     1
 44
0.60024009603842
  0
ENDBLK
  5
301
330
2F6
100
AcDbEntity
  8
0
100
AcDbBlockEnd
  0
BLOCK
  5
30D
330
304
100
AcDbEntity
  8
0
100
AcDbBlockBegin
  2
*D25
 70
     1
 71
     0
 10
0.0
 20
0.0
 30
0.0
  3
*D25
  1

  0
LINE
  5
305
330
304
100
AcDbEntity
  8
1
  6
Continuous
 62
     2
100
AcDbLine
 10
121.30513528624
 20
234.4782046293355
 30
0.0
 11
121.30513528624
 21
202.4782046293355
 31
0.0
  0
LINE
  5
306
330
304
100
AcDbEntity
  8
1
  6
Continuous
 62
     2
100
AcDbLine
 10
132.529516994633
 20
234.4782046293355
 30
0.0
 11
119.30513528624
 21
234.4782046293355
 31
0.0
  0
LINE
  5
307
330
304
100
AcDbEntity
  8
1
  6
Continuous
 62
     2
100
AcDbLine
 10
132.529516994633
 20
202.4782046293355
 30
0.0
 11
119.30513528624
 21
202.4782046293355
 31
0.0
  0
LINE
  5
308
330
304
100
AcDbEntity
  8
1
 62
     2
100
AcDbLine
 10
121.30513528624
 20
234.4782046293355
 30
0.0
 11
123.0200101177992
 21
228.0782046293355
 31
0.0
  0
LINE
  5
309
330
304
100
AcDbEntity
  8
1
 62
     2
100
AcDbLine
 10
121.30513528624
 20
234.4782046293355
 30
0.0
 11
119.5902604546808
 21
228.0782046293355
 31
0.0
  0
LINE
  5
30A
330
304
100
AcDbEntity
  8
1
 62
     2
100
AcDbLine
 10
121.30513528624
 20
202.4782046293355
 30
0.0
 11
119.5902604546808
 21
208.8782046293355
 31
0.0
  0
LINE
  5
30B
330
304
100
AcDbEntity
  8
1
 62
     2
100
AcDbLine
 10
121.30513528624
 20
202.4782046293355
 30
0.0
 11
123.0200101177992
 21
208.8782046293355
 31
0.0
  0
MTEXT
  5
30C
330
304
100
AcDbEntity
  8
1
 62
     2
100
AcDbMText
 10
119.90513528624
 20
221.458064779415
 30
0.0
 40
6.4
 41
0.0
 71
     7
 72
     1
  1
32
  7
CONVERTER_1
 11
0.0
 21
1.0
 31
0.0
 73
     1
 44
0.60024009603842
  0
ENDBLK
  5
30E
330
304
100
AcDbEntity
  8
0
100
AcDbBlockEnd
  0
BLOCK
  5
31A
330
311
100
AcDbEntity
  8
0
100
AcDbBlockBegin
  2
*D36
 70
     1
 71
     0
 10
0.0
 20
0.0
 30
0.0
  3
*D36
  1

  0
LINE
  5
312
330
311
100
AcDbEntity
  8
1
  6
Continuous
 62
     2
100
AcDbLine
 10
505.8238171240014
 20
456.4516474644161
 30
0.0
 11
525.8238171240014
 21
456.4516474644161
 31
0.0
  0
LINE
  5
313
330
311
100
AcDbEntity
  8
1
  6
Continuous
 62
     2
100
AcDbLine
 10
505.8238171240014
 20
421.0466553298098
 30
0.0
 11
505.8238171240014
 21
458.4516474644161
 31
0.0
  0
LINE
  5
314
330
311
100
AcDbEntity
  8
1
  6
Continuous
 62
     2
100
AcDbLine
 10
525.8238171240014
 20
388.0466553298098
 30
0.0
 11
525.8238171240014
 21
458.4516474644161
 31
0.0
  0
LINE
  5
315
330
311
100
AcDbEntity
  8
1
 62
     2
100
AcDbLine
 10
505.8238171240014
 20
456.4516474644161
 30
0.0
 11
512.2238171240014
 21
458.1665222959753
 31
0.0
  0
LINE
  5
316
330
311
100
AcDbEntity
  8
1
 62
     2
100
AcDbLine
 10
505.8238171240014
 20
456.4516474644161
 30
0.0
 11
512.2238171240014
 21
454.7367726328569
 31
0.0
  0
LINE
  5
317
330
311
100
AcDbEntity
  8
1
 62
     2
100
AcDbLine
 10
525.8238171240014
 20
456.4516474644161
 30
0.0
 11
519.4238171240014
 21
454.7367726328569
 31
0.0
  0
LINE
  5
318
330
311
100
AcDbEntity
  8
1
 62
     2
100
AcDbLine
 10
525.8238171240014
 20
456.4516474644161
 30
0.0
 11
519.4238171240014
 21
458.1665222959753
 31
0.0
  0
MTEXT
  5
319
330
311
100
AcDbEntity
  8
1
 62
     2
100
AcDbMText
 10
511.4601444850524
 20
457.8516474644161
 30
0.0
 40
6.4
 41
0.0
 71
     7
 72
     1
  1
20
  7
CONVERTER_1
 11
0.9999999999970621
 21
2.424068405545307E-6
 31
0.0
 73
     1
 44
0.60024009603842
  0
ENDBLK
  5
31B
330
311
100
AcDbEntity
  8
0
100
AcDbBlockEnd
  0
BLOCK
  5
329
330
31E
100
AcDbEntity
  8
0
100
AcDbBlockBegin
  2
*D47
 70
     1
 71
     0
 10
0.0
 20
0.0
 30
0.0
  3
*D47
  1

  0
LINE
  5
31F
330
31E
100
AcDbEntity
  8
1
  6
Continuous
 62
     2
100
AcDbLine
 10
507.3238171240014
 20
441.4516474644161
 30
0.0
 11
520.1238171240015
 21
441.4516474644161
 31
0.0
  0
LINE
  5
320
330
31E
100
AcDbEntity
  8
1
  6
Continuous
 62
     2
100
AcDbLine
 10
505.8238171240014
 20
441.4516474644161
 30
0.0
 11
507.3238171240014
 21
441.4516474644161
 31
0.0
  0
LINE
  5
321
330
31E
100
AcDbEntity
  8
1
  6
Continuous
 62
     2
100
AcDbLine
 10
483.7282933446214
 20
441.4516474644161
 30
0.0
 11
505.8238171240014
 21
441.4516474644161
 31
0.0
  0
LINE
  5
322
330
31E
100
AcDbEntity
  8
1
  6
Continuous
 62
     2
100
AcDbLine
 10
505.8238171240014
 20
421.0466553298098
 30
0.0
 11
505.8238171240014
 21
443.4516474644161
 31
0.0
  0
LINE
  5
323
330
31E
100
AcDbEntity
  8
1
  6
Continuous
 62
     2
100
AcDbLine
 10
507.3238171240014
 20
421.0466553298098
 30
0.0
 11
507.3238171240014
 21
443.4516474644161
 31
0.0
  0
LINE
  5
324
330
31E
100
AcDbEntity
  8
1
 62
     2
100
AcDbLine
 10
505.8238171240014
 20
441.4516474644161
 30
0.0
 11
499.4238171240014
 21
439.7367726328569
 31
0.0
  0
LINE
  5
325
330
31E
100
AcDbEntity
  8
1
 62
     2
100
AcDbLine
 10
505.8238171240014
 20
441.4516474644161
 30
0.0
 11
499.4238171240014
 21
443.1665222959753
 31
0.0
  0
LINE
  5
326
330
31E
100
AcDbEntity
  8
1
 62
     2
100
AcDbLine
 10
507.3238171240014
 20
441.4516474644161
 30
0.0
 11
513.7238171240014
 21
443.1665222959753
 31
0.0
  0
LINE
  5
327
330
31E
100
AcDbEntity
  8
1
 62
     2
100
AcDbLine
 10
507.3238171240014
 20
441.4516474644161
 30
0.0
 11
513.7238171240014
 21
439.7367726328569
 31
0.0
  0
MTEXT
  5
328
330
31E
100
AcDbEntity
  8
1
 62
     2
100
AcDbMText
 10
483.7282933446214
 20
442.874325850012
 30
0.0
 40
6.4
 41
0.0
 71
     7
 72
     1
  1
1.5
  7
CONVERTER_1
 11
0.9999999999970621
 21
2.424068405545307E-6
 31
0.0
 73
     1
 44
0.60024009603842
  0
ENDBLK
  5
32A
330
31E
100
AcDbEntity
  8
0
100
AcDbBlockEnd
  0
BLOCK
  5
338
330
32D
100
AcDbEntity
  8
0
100
AcDbBlockBegin
  2
*D58
 70
     1
 71
     0
 10
0.0
 20
0.0
 30
0.0
  3
*D58
  1

  0
LINE
  5
32E
330
32D
100
AcDbEntity
  8
1
  6
Continuous
 62
     2
100
AcDbLine
 10
170.529516994633
 20
441.4516474644161
 30
0.0
 11
183.329516994633
 21
441.4516474644161
 31
0.0
  0
LINE
  5
32F
330
32D
100
AcDbEntity
  8
1
  6
Continuous
 62
     2
100
AcDbLine
 10
161.529516994633
 20
441.4516474644161
 30
0.0
 11
170.529516994633
 21
441.4516474644161
 31
0.0
  0
LINE
  5
330
330
32D
100
AcDbEntity
  8
1
  6
Continuous
 62
     2
100
AcDbLine
 10
148.729516994633
 20
441.4516474644161
 30
0.0
 11
161.529516994633
 21
441.4516474644161
 31
0.0
  0
LINE
  5
331
330
32D
100
AcDbEntity
  8
1
  6
Continuous
 62
     2
100
AcDbLine
 10
161.529516994633
 20
421.04665532981
 30
0.0
 11
161.529516994633
 21
443.4516474644161
 31
0.0
  0
LINE
  5
332
330
32D
100
AcDbEntity
  8
1
  6
Continuous
 62
     2
100
AcDbLine
 10
170.529516994633
 20
421.04665532981
 30
0.0
 11
170.529516994633
 21
443.4516474644161
 31
0.0
  0
LINE
  5
333
330
32D
100
AcDbEntity
  8
1
 62
     2
100
AcDbLine
 10
161.529516994633
 20
441.4516474644161
 30
0.0
 11
155.129516994633
 21
439.7367726328569
 31
0.0
  0
LINE
  5
334
330
32D
100
AcDbEntity
  8
1
 62
     2
100
AcDbLine
 10
161.529516994633
 20
441.4516474644161
 30
0.0
 11
155.129516994633
 21
443.1665222959753
 31
0.0
  0
LINE
  5
335
330
32D
100
AcDbEntity
  8
1
 62
     2
100
AcDbLine
 10
170.529516994633
 20
441.4516474644161
 30
0.0
 11
176.929516994633
 21
443.1665222959753
 31
0.0
  0
LINE
  5
336
330
32D
100
AcDbEntity
  8
1
 62
     2
100
AcDbLine
 10
170.529516994633
 20
441.4516474644161
 30
0.0
 11
176.929516994633
 21
439.7367726328569
 31
0.0
  0
MTEXT
  5
337
330
32D
100
AcDbEntity
  8
1
 62
     2
100
AcDbMText
 10
162.443073594874
 20
443.8116474644161
 30
0.0
 40
6.4
 41
0.0
 71
     7
 72
     1
  1
9
  7
CONVERTER_1
 11
0.9999999999970621
 21
2.424068405545307E-6
 31
0.0
 73
     1
 44
0.60024009603842
  0
ENDBLK
  5
339
330
32D
100
AcDbEntity
  8
0
100
AcDbBlockEnd
  0
BLOCK
  5
345
330
33C
100
AcDbEntity
  8
0
100
AcDbBlockBegin
  2
*D69
 70
     1
 71
     0
 10
0.0
 20
0.0
 30
0.0
  3
*D69
  1

  0
LINE
  5
33D
330
33C
100
AcDbEntity
  8
1
  6
Continuous
 62
     2
100
AcDbLine
 10
115.381041407317
 20
425.04665532981
 30
0.0
 11
115.381041407317
 21
393.04665532981
 31
0.0
  0
LINE
  5
33E
330
33C
100
AcDbEntity
  8
1
  6
Continuous
 62
     2
100
AcDbLine
 10
130.529516994633
 20
425.04665532981
 30
0.0
 11
113.381041407317
 21
425.04665532981
 31
0.0
  0
LINE
  5
33F
330
33C
100
AcDbEntity
  8
1
  6
Continuous
 62
     2
100
AcDbLine
 10
130.529516994633
 20
393.04665532981
 30
0.0
 11
113.381041407317
 21
393.04665532981
 31
0.0
  0
LINE
  5
340
330
33C
100
AcDbEntity
  8
1
 62
     2
100
AcDbLine
 10
115.381041407317
 20
425.04665532981
 30
0.0
 11
117.0959162388762
 21
418.64665532981
 31
0.0
  0
LINE
  5
341
330
33C
100
AcDbEntity
  8
1
 62
     2
100
AcDbLine
 10
115.381041407317
 20
425.04665532981
 30
0.0
 11
113.6661665757578
 21
418.64665532981
 31
0.0
  0
LINE
  5
342
330
33C
100
AcDbEntity
  8
1
 62
     2
100
AcDbLine
 10
115.381041407317
 20
393.04665532981
 30
0.0
 11
113.6661665757578
 21
399.44665532981
 31
0.0
  0
LINE
  5
343
330
33C
100
AcDbEntity
  8
1
 62
     2
100
AcDbLine
 10
115.381041407317
 20
393.04665532981
 30
0.0
 11
117.0959162388762
 21
399.44665532981
 31
0.0
  0
MTEXT
  5
344
330
33C
100
AcDbEntity
  8
1
 62
     2
100
AcDbMText
 10
113.981041407317
 20
412.593139276034
 30
0.0
 40
6.4
 41
0.0
 71
     7
 72
     1
  1
32
  7
CONVERTER_1
 11
0.0
 21
1.0
 31
0.0
 73
     1
 44
0.60024009603842
  0
ENDBLK
  5
346
330
33C
100
AcDbEntity
  8
0
100
AcDbBlockEnd
  0
BLOCK
  5
354
330
349
100
AcDbEntity
  8
0
100
AcDbBlockBegin
  2
*D710
 70
     1
 71
     0
 10
0.0
 20
0.0
 30
0.0
  3
*D710
  1

  0
LINE
  5
34A
330
349
100
AcDbEntity
  8
1
  6
Continuous
 62
     2
100
AcDbLine
 10
136.529516994633
 20
456.4516474644161
 30
0.0
 11
149.329516994633
 21
456.4516474644161
 31
0.0
  0
LINE
  5
34B
330
349
100
AcDbEntity
  8
1
  6
Continuous
 62
     2
100
AcDbLine
 10
132.529516994633
 20
456.4516474644161
 30
0.0
 11
136.529516994633
 21
456.4516474644161
 31
0.0
  0
LINE
  5
34C
330
349
100
AcDbEntity
  8
1
  6
Continuous
 62
     2
100
AcDbLine
 10
119.729516994633
 20
456.4516474644161
 30
0.0
 11
132.529516994633
 21
456.4516474644161
 31
0.0
  0
LINE
  5
34D
330
349
100
AcDbEntity
  8
1
  6
Continuous
 62
     2
100
AcDbLine
 10
132.529516994633
 20
427.0466553298099
 30
0.0
 11
132.529516994633
 21
458.4516474644161
 31
0.0
  0
LINE
  5
34E
330
349
100
AcDbEntity
  8
1
  6
Continuous
 62
     2
100
AcDbLine
 10
136.529516994633
 20
427.0466553298099
 30
0.0
 11
136.529516994633
 21
458.4516474644161
 31
0.0
  0
LINE
  5
34F
330
349
100
AcDbEntity
  8
1
 62
     2
100
AcDbLine
 10
132.529516994633
 20
456.4516474644161
 30
0.0
 11
126.129516994633
 21
454.7367726328569
 31
0.0
  0
LINE
  5
350
330
349
100
AcDbEntity
  8
1
 62
     2
100
AcDbLine
 10
132.529516994633
 20
456.4516474644161
 30
0.0
 11
126.129516994633
 21
458.1665222959753
 31
0.0
  0
LINE
  5
351
330
349
100
AcDbEntity
  8
1
 62
     2
100
AcDbLine
 10
136.529516994633
 20
456.4516474644161
 30
0.0
 11
142.929516994633
 21
458.1665222959753
 31
0.0
  0
LINE
  5
352
330
349
100
AcDbEntity
  8
1
 62
     2
100
AcDbLine
 10
136.529516994633
 20
456.4516474644161
 30
0.0
 11
142.929516994633
 21
454.7367726328569
 31
0.0
  0
MTEXT
  5
353
330
349
100
AcDbEntity
  8
1
 62
     2
100
AcDbMText
 10
119.737054988943
 20
457.8516474644161
 30
0.0
 40
6.4
 41
0.0
 71
     7
 72
     1
  1
4
  7
CONVERTER_1
 11
0.9999999999970621
 21
2.424068405545307E-6
 31
0.0
 73
     1
 44
0.60024009603842
  0
ENDBLK
  5
355
330
349
100
AcDbEntity
  8
0
100
AcDbBlockEnd
  0
BLOCK
  5
363
330
358
100
AcDbEntity
  8
0
100
AcDbBlockBegin
  2
*D811
 70
     1
 71
     0
 10
0.0
 20
0.0
 30
0.0
  3
*D811
  1

  0
LINE
  5
359
330
358
100
AcDbEntity
  8
1
  6
Continuous
 62
     2
100
AcDbLine
 10
533.3238171240014
 20
100.3052876908721
 30
0.0
 11
554.4328664724975
 21
100.3052876908721
 31
0.0
  0
LINE
  5
35A
330
358
100
AcDbEntity
  8
1
  6
Continuous
 62
     2
100
AcDbLine
 10
525.8238171240014
 20
100.3052876908721
 30
0.0
 11
533.3238171240014
 21
100.3052876908721
 31
0.0
  0
LINE
  5
35B
330
358
100
AcDbEntity
  8
1
  6
Continuous
 62
     2
100
AcDbLine
 10
513.0238171240014
 20
100.3052876908721
 30
0.0
 11
525.8238171240014
 21
100.3052876908721
 31
0.0
  0
LINE
  5
35C
330
358
100
AcDbEntity
  8
1
  6
Continuous
 62
     2
100
AcDbLine
 10
533.3238171240014
 20
109.081413763123
 30
0.0
 11
533.3238171240014
 21
98.30528769087209
 31
0.0
  0
LINE
  5
35D
330
358
100
AcDbEntity
  8
1
  6
Continuous
 62
     2
100
AcDbLine
 10
525.8238171240014
 20
141.9782046293355
 30
0.0
 11
525.8238171240014
 21
98.30528769087209
 31
0.0
  0
LINE
  5
35E
330
358
100
AcDbEntity
  8
1
 62
     2
100
AcDbLine
 10
525.8238171240014
 20
100.3052876908721
 30
0.0
 11
519.4238171240014
 21
98.59041285931291
 31
0.0
  0
LINE
  5
35F
330
358
100
AcDbEntity
  8
1
 62
     2
100
AcDbLine
 10
525.8238171240014
 20
100.3052876908721
 30
0.0
 11
519.4238171240014
 21
102.0201625224313
 31
0.0
  0
LINE
  5
360
330
358
100
AcDbEntity
  8
1
 62
     2
100
AcDbLine
 10
533.3238171240014
 20
100.3052876908721
 30
0.0
 11
539.7238171240014
 21
102.0201625224313
 31
0.0
  0
LINE
  5
361
330
358
100
AcDbEntity
  8
1
 62
     2
100
AcDbLine
 10
533.3238171240014
 20
100.3052876908721
 30
0.0
 11
539.7238171240014
 21
98.59041285931291
 31
0.0
  0
MTEXT
  5
362
330
358
100
AcDbEntity
  8
1
 62
     2
100
AcDbMText
 10
542.7528664724974
 20
102.3052876908721
 30
0.0
 40
6.4
 41
0.0
 71
     7
 72
     1
  1
7.5
  7
CONVERTER_1
 11
0.9999999999970621
 21
2.424068405545307E-6
 31
0.0
 73
     1
 44
0.60024009603842
  0
ENDBLK
  5
364
330
358
100
AcDbEntity
  8
0
100
AcDbBlockEnd
  0
BLOCK
  5
372
330
367
100
AcDbEntity
  8
0
100
AcDbBlockBegin
  2
*D912
 70
     1
 71
     0
 10
0.0
 20
0.0
 30
0.0
  3
*D912
  1

  0
LINE
  5
368
330
367
100
AcDbEntity
  8
1
  6
Continuous
 62
     2
100
AcDbLine
 10
167.029516994633
 20
115.2789764367595
 30
0.0
 11
188.2557243439219
 21
115.2789764367595
 31
0.0
  0
LINE
  5
369
330
367
100
AcDbEntity
  8
1
  6
Continuous
 62
     2
100
AcDbLine
 10
159.529516994633
 20
115.2789764367595
 30
0.0
 11
167.029516994633
 21
115.2789764367595
 31
0.0
  0
LINE
  5
36A
330
367
100
AcDbEntity
  8
1
  6
Continuous
 62
     2
100
AcDbLine
 10
146.729516994633
 20
115.2789764367595
 30
0.0
 11
159.529516994633
 21
115.2789764367595
 31
0.0
  0
LINE
  5
36B
330
367
100
AcDbEntity
  8
1
  6
Continuous
 62
     2
100
AcDbLine
 10
167.029516994633
 20
125.0814137631231
 30
0.0
 11
167.029516994633
 21
113.2789764367595
 31
0.0
  0
LINE
  5
36C
330
367
100
AcDbEntity
  8
1
  6
Continuous
 62
     2
100
AcDbLine
 10
159.529516994633
 20
141.9782046293355
 30
0.0
 11
159.529516994633
 21
113.2789764367595
 31
0.0
  0
LINE
  5
36D
330
367
100
AcDbEntity
  8
1
 62
     2
100
AcDbLine
 10
159.529516994633
 20
115.2789764367595
 30
0.0
 11
153.129516994633
 21
113.5641016052003
 31
0.0
  0
LINE
  5
36E
330
367
100
AcDbEntity
  8
1
 62
     2
100
AcDbLine
 10
159.529516994633
 20
115.2789764367595
 30
0.0
 11
153.129516994633
 21
116.9938512683187
 31
0.0
  0
LINE
  5
36F
330
367
100
AcDbEntity
  8
1
 62
     2
100
AcDbLine
 10
167.029516994633
 20
115.2789764367595
 30
0.0
 11
173.429516994633
 21
116.9938512683187
 31
0.0
  0
LINE
  5
370
330
367
100
AcDbEntity
  8
1
 62
     2
100
AcDbLine
 10
167.029516994633
 20
115.2789764367595
 30
0.0
 11
173.429516994633
 21
113.5641016052003
 31
0.0
  0
MTEXT
  5
371
330
367
100
AcDbEntity
  8
1
 62
     2
100
AcDbMText
 10
176.5757243439219
 20
117.2789764367595
 30
0.0
 40
6.4
 41
0.0
 71
     7
 72
     1
  1
7.5
  7
CONVERTER_1
 11
0.9999999999970621
 21
2.424068405545307E-6
 31
0.0
 73
     1
 44
0.60024009603842
  0
ENDBLK
  5
373
330
367
100
AcDbEntity
  8
0
100
AcDbBlockEnd
  0
BLOCK
  5
37F
330
376
100
AcDbEntity
  8
0
100
AcDbBlockBegin
  2
*D1013
 70
     1
 71
     0
 10
0.0
 20
0.0
 30
0.0
  3
*D1013
  1

  0
LINE
  5
377
330
376
100
AcDbEntity
  8
1
  6
Continuous
 62
     2
100
AcDbLine
 10
95.15002955520143
 20
409.04665532981
 30
0.0
 11
95.15002955520143
 21
389.04665532981
 31
0.0
  0
LINE
  5
378
330
376
100
AcDbEntity
  8
1
  6
Continuous
 62
     2
100
AcDbLine
 10
128.5050602720021
 20
409.04665532981
 30
0.0
 11
93.15002955520143
 21
409.04665532981
 31
0.0
  0
LINE
  5
379
330
376
100
AcDbEntity
  8
1
  6
Continuous
 62
     2
100
AcDbLine
 10
104.2734244133124
 20
389.04665532981
 30
0.0
 11
93.15002955520143
 21
389.04665532981
 31
0.0
  0
LINE
  5
37A
330
376
100
AcDbEntity
  8
1
 62
     2
100
AcDbLine
 10
95.15002955520143
 20
409.04665532981
 30
0.0
 11
96.86490438676061
 21
402.64665532981
 31
0.0
  0
LINE
  5
37B
330
376
100
AcDbEntity
  8
1
 62
     2
100
AcDbLine
 10
95.15002955520143
 20
409.04665532981
 30
0.0
 11
93.43515472364224
 21
402.64665532981
 31
0.0
  0
LINE
  5
37C
330
376
100
AcDbEntity
  8
1
 62
     2
100
AcDbLine
 10
95.15002955520143
 20
389.04665532981
 30
0.0
 11
93.43515472364224
 21
395.44665532981
 31
0.0
  0
LINE
  5
37D
330
376
100
AcDbEntity
  8
1
 62
     2
100
AcDbLine
 10
95.15002955520143
 20
389.04665532981
 30
0.0
 11
96.86490438676061
 21
395.44665532981
 31
0.0
  0
MTEXT
  5
37E
330
376
100
AcDbEntity
  8
1
 62
     2
100
AcDbMText
 10
93.75002955520144
 20
394.5255879681591
 30
0.0
 40
6.4
 41
0.0
 71
     7
 72
     1
  1
20
  7
CONVERTER_1
 11
0.0
 21
1.0
 31
0.0
 73
     1
 44
0.60024009603842
  0
ENDBLK
  5
380
330
376
100
AcDbEntity
  8
0
100
AcDbBlockEnd
  0
BLOCK
  5
38C
330
383
100
AcDbEntity
  8
0
100
AcDbBlockBegin
  2
*D1114
 70
     1
 71
     0
 10
0.0
 20
0.0
 30
0.0
  3
*D1114
  1

  0
LINE
  5
384
330
383
100
AcDbEntity
  8
1
  6
Continuous
 62
     2
100
AcDbLine
 10
567.9751588055735
 20
193.9782046293355
 30
0.0
 11
567.9751588055735
 21
163.9782046293355
 31
0.0
  0
LINE
  5
385
330
383
100
AcDbEntity
  8
1
  6
Continuous
 62
     2
100
AcDbLine
 10
554.8238171240014
 20
163.9782046293355
 30
0.0
 11
569.9751588055735
 21
163.9782046293355
 31
0.0
  0
LINE
  5
386
330
383
100
AcDbEntity
  8
1
  6
Continuous
 62
     2
100
AcDbLine
 10
524.8238171240014
 20
193.9782046293355
 30
0.0
 11
569.9751588055735
 21
193.9782046293355
 31
0.0
  0
LINE
  5
387
330
383
100
AcDbEntity
  8
1
 62
     2
100
AcDbLine
 10
567.9751588055735
 20
193.9782046293355
 30
0.0
 11
569.6900336371327
 21
187.5782046293355
 31
0.0
  0
LINE
  5
388
330
383
100
AcDbEntity
  8
1
 62
     2
100
AcDbLine
 10
567.9751588055735
 20
193.9782046293355
 30
0.0
 11
566.2602839740143
 21
187.5782046293355
 31
0.0
  0
LINE
  5
389
330
383
100
AcDbEntity
  8
1
 62
     2
100
AcDbLine
 10
567.9751588055735
 20
163.9782046293355
 30
0.0
 11
566.2602839740143
 21
170.3782046293355
 31
0.0
  0
LINE
  5
38A
330
383
100
AcDbEntity
  8
1
 62
     2
100
AcDbLine
 10
567.9751588055735
 20
163.9782046293355
 30
0.0
 11
569.6900336371327
 21
170.3782046293355
 31
0.0
  0
MTEXT
  5
38B
330
383
100
AcDbEntity
  8
1
 62
     2
100
AcDbMText
 10
565.9751588055735
 20
173.7521462460069
 30
0.0
 40
6.4
 41
0.0
 71
     7
 72
     1
  1
30
  7
CONVERTER_1
 11
0.0
 21
1.0
 31
0.0
 73
     1
 44
0.60024009603842
  0
ENDBLK
  5
38D
330
383
100
AcDbEntity
  8
0
100
AcDbBlockEnd
  0
BLOCK
  5
39A
330
390
100
AcDbEntity
  8
0
100
AcDbBlockBegin
  2
*D1215
 70
     1
 71
     0
 10
0.0
 20
0.0
 30
0.0
  3
*D1215
  1

  0
LINE
  5
391
330
390
100
AcDbEntity
  8
1
  6
Continuous
 62
     2
100
AcDbLine
 10
453.0460600251466
 20
207.9775444575556
 30
0.0
 11
453.0460600251466
 21
225.9775444575556
 31
0.0
  0
LINE
  5
392
330
390
100
AcDbEntity
  8
1
  6
Continuous
 62
     2
100
AcDbLine
 10
490.2284425411171
 20
207.9775444575556
 30
0.0
 11
451.0460600251466
 21
207.9775444575556
 31
0.0
  0
LINE
  5
393
330
390
100
AcDbEntity
  8
1
  6
Continuous
 62
     2
100
AcDbLine
 10
463.8662131069336
 20
225.9775444575556
 30
0.0
 11
451.0460600251466
 21
225.9775444575556
 31
0.0
  0
LINE
  5
394
330
390
100
AcDbEntity
  8
1
  6
Continuous
 62
     2
100
AcDbLine
 10
490.2284425411171
 20
225.9775444575556
 30
0.0
 11
478.6342598807236
 21
225.9775444575556
 31
0.0
  0
LINE
  5
395
330
390
100
AcDbEntity
  8
1
 62
     2
100
AcDbLine
 10
453.0460600251466
 20
225.9775444575556
 30
0.0
 11
454.4179598903939
 21
220.8575444575556
 31
0.0
  0
LINE
  5
396
330
390
100
AcDbEntity
  8
1
 62
     2
100
AcDbLine
 10
453.0460600251466
 20
225.9775444575556
 30
0.0
 11
451.6741601598992
 21
220.8575444575556
 31
0.0
  0
LINE
  5
397
330
390
100
AcDbEntity
  8
1
 62
     2
100
AcDbLine
 10
453.0460600251466
 20
207.9775444575556
 30
0.0
 11
451.6741601598992
 21
213.0975444575556
 31
0.0
  0
LINE
  5
398
330
390
100
AcDbEntity
  8
1
 62
     2
100
AcDbLine
 10
453.0460600251466
 20
207.9775444575556
 30
0.0
 11
454.4179598903939
 21
213.0975444575556
 31
0.0
  0
MTEXT
  5
399
330
390
100
AcDbEntity
  8
1
 62
     2
100
AcDbMText
 10
451.0460600251466
 20
213.5971813695805
 30
0.0
 40
6.4
 41
0.0
 71
     7
 72
     1
  1
18
  7
CONVERTER_1
 11
0.0
 21
1.0
 31
0.0
 73
     1
 44
0.60024009603842
  0
ENDBLK
  5
39B
330
390
100
AcDbEntity
  8
0
100
AcDbBlockEnd
  0
BLOCK
  5
3A9
330
39E
100
AcDbEntity
  8
0
100
AcDbBlockBegin
  2
*D1316
 70
     1
 71
     0
 10
0.0
 20
0.0
 30
0.0
  3
*D1316
  1

  0
LINE
  5
39F
330
39E
100
AcDbEntity
  8
1
  6
Continuous
 62
     2
100
AcDbLine
 10
275.465831842576
 20
258.623299636965
 30
0.0
 11
285.705831842576
 21
258.623299636965
 31
0.0
  0
LINE
  5
3A0
330
39E
100
AcDbEntity
  8
1
  6
Continuous
 62
     2
100
AcDbLine
 10
263.465831842576
 20
258.623299636965
 30
0.0
 11
275.465831842576
 21
258.623299636965
 31
0.0
  0
LINE
  5
3A1
330
39E
100
AcDbEntity
  8
1
  6
Continuous
 62
     2
100
AcDbLine
 10
253.225831842576
 20
258.623299636965
 30
0.0
 11
263.465831842576
 21
258.623299636965
 31
0.0
  0
LINE
  5
3A2
330
39E
100
AcDbEntity
  8
1
  6
Continuous
 62
     2
100
AcDbLine
 10
263.465831842576
 20
236.1282046293355
 30
0.0
 11
263.465831842576
 21
260.623299636965
 31
0.0
  0
LINE
  5
3A3
330
39E
100
AcDbEntity
  8
1
  6
Continuous
 62
     2
100
AcDbLine
 10
275.465831842576
 20
250.0535854055727
 30
0.0
 11
275.465831842576
 21
260.623299636965
 31
0.0
  0
LINE
  5
3A4
330
39E
100
AcDbEntity
  8
1
 62
     2
100
AcDbLine
 10
263.465831842576
 20
258.623299636965
 30
0.0
 11
258.345831842576
 21
257.2513997717176
 31
0.0
  0
LINE
  5
3A5
330
39E
100
AcDbEntity
  8
1
 62
     2
100
AcDbLine
 10
263.465831842576
 20
258.623299636965
 30
0.0
 11
258.345831842576
 21
259.9951995022124
 31
0.0
  0
LINE
  5
3A6
330
39E
100
AcDbEntity
  8
1
 62
     2
100
AcDbLine
 10
275.465831842576
 20
258.623299636965
 30
0.0
 11
280.585831842576
 21
259.9951995022124
 31
0.0
  0
LINE
  5
3A7
330
39E
100
AcDbEntity
  8
1
 62
     2
100
AcDbLine
 10
275.465831842576
 20
258.623299636965
 30
0.0
 11
280.585831842576
 21
257.2513997717176
 31
0.0
  0
MTEXT
  5
3A8
330
39E
100
AcDbEntity
  8
1
 62
     2
100
AcDbMText
 10
265.465384003774
 20
260.623299636965
 30
0.0
 40
6.4
 41
0.0
 71
     7
 72
     1
  1
12
  7
CONVERTER_1
 11
0.9999999999970621
 21
2.424068405545307E-6
 31
0.0
 73
     1
 44
0.60024009603842
  0
ENDBLK
  5
3AA
330
39E
100
AcDbEntity
  8
0
100
AcDbBlockEnd
  0
BLOCK
  5
3B6
330
3AD
100
AcDbEntity
  8
0
100
AcDbBlockBegin
  2
*D1417
 70
     1
 71
     0
 10
0.0
 20
0.0
 30
0.0
  3
*D1417
  1

  0
LINE
  5
3AE
330
3AD
100
AcDbEntity
  8
1
  6
Continuous
 62
     2
100
AcDbLine
 10
256.465831842576
 20
114.2371216514903
 30
0.0
 11
282.465831842576
 21
114.2371216514903
 31
0.0
  0
LINE
  5
3AF
330
3AD
100
AcDbEntity
  8
1
  6
Continuous
 62
     2
100
AcDbLine
 10
282.465831842576
 20
146.9782046293356
 30
0.0
 11
282.465831842576
 21
112.2371216514903
 31
0.0
  0
LINE
  5
3B0
330
3AD
100
AcDbEntity
  8
1
  6
Continuous
 62
     2
100
AcDbLine
 10
256.465831842576
 20
146.9782046293356
 30
0.0
 11
256.465831842576
 21
112.2371216514903
 31
0.0
  0
LINE
  5
3B1
330
3AD
100
AcDbEntity
  8
1
 62
     2
100
AcDbLine
 10
256.465831842576
 20
114.2371216514903
 30
0.0
 11
262.865831842576
 21
115.9519964830495
 31
0.0
  0
LINE
  5
3B2
330
3AD
100
AcDbEntity
  8
1
 62
     2
100
AcDbLine
 10
256.465831842576
 20
114.2371216514903
 30
0.0
 11
262.865831842576
 21
112.5222468199311
 31
0.0
  0
LINE
  5
3B3
330
3AD
100
AcDbEntity
  8
1
 62
     2
100
AcDbLine
 10
282.465831842576
 20
114.2371216514903
 30
0.0
 11
276.065831842576
 21
112.5222468199311
 31
0.0
  0
LINE
  5
3B4
330
3AD
100
AcDbEntity
  8
1
 62
     2
100
AcDbLine
 10
282.465831842576
 20
114.2371216514903
 30
0.0
 11
276.065831842576
 21
115.9519964830495
 31
0.0
  0
MTEXT
  5
3B5
330
3AD
100
AcDbEntity
  8
1
 62
     2
100
AcDbMText
 10
265.236804477712
 20
116.5971216514903
 30
0.0
 40
6.4
 41
0.0
 71
     7
 72
     1
  1
26
  7
CONVERTER_1
 11
0.9999999999970621
 21
2.424068405545307E-6
 31
0.0
 73
     1
 44
0.60024009603842
  0
ENDBLK
  5
3B7
330
3AD
100
AcDbEntity
  8
0
100
AcDbBlockEnd
  0
BLOCK
  5
3C5
330
3BA
100
AcDbEntity
  8
0
100
AcDbBlockBegin
  2
*D1518
 70
     1
 71
     0
 10
0.0
 20
0.0
 30
0.0
  3
*D1518
  1

  0
LINE
  5
3BB
330
3BA
100
AcDbEntity
  8
1
  6
Continuous
 62
     2
100
AcDbLine
 10
602.34335066772
 20
101.3008483847482
 30
0.0
 11
624.356708407871
 21
101.3008483847482
 31
0.0
  0
LINE
  5
3BC
330
3BA
100
AcDbEntity
  8
1
  6
Continuous
 62
     2
100
AcDbLine
 10
624.356708407871
 20
101.3008483847482
 30
0.0
 11
636.356708407871
 21
101.3008483847482
 31
0.0
  0
LINE
  5
3BD
330
3BA
100
AcDbEntity
  8
1
  6
Continuous
 62
     2
100
AcDbLine
 10
636.356708407871
 20
101.3008483847482
 30
0.0
 11
646.596708407871
 21
101.3008483847482
 31
0.0
  0
LINE
  5
3BE
330
3BA
100
AcDbEntity
  8
1
  6
Continuous
 62
     2
100
AcDbLine
 10
636.3567084078711
 20
107.5666602800345
 30
0.0
 11
636.3567084078711
 21
99.30084838474819
 31
0.0
  0
LINE
  5
3BF
330
3BA
100
AcDbEntity
  8
1
  6
Continuous
 62
     2
100
AcDbLine
 10
624.3567084078711
 20
154.9782046293355
 30
0.0
 11
624.3567084078711
 21
99.30084838474819
 31
0.0
  0
LINE
  5
3C0
330
3BA
100
AcDbEntity
  8
1
 62
     2
100
AcDbLine
 10
624.356708407871
 20
101.3008483847482
 30
0.0
 11
619.236708407871
 21
99.92894851950085
 31
0.0
  0
LINE
  5
3C1
330
3BA
100
AcDbEntity
  8
1
 62
     2
100
AcDbLine
 10
624.356708407871
 20
101.3008483847482
 30
0.0
 11
619.236708407871
 21
102.6727482499955
 31
0.0
  0
LINE
  5
3C2
330
3BA
100
AcDbEntity
  8
1
 62
     2
100
AcDbLine
 10
636.356708407871
 20
101.3008483847482
 30
0.0
 11
641.476708407871
 21
102.6727482499955
 31
0.0
  0
LINE
  5
3C3
330
3BA
100
AcDbEntity
  8
1
 62
     2
100
AcDbLine
 10
636.356708407871
 20
101.3008483847482
 30
0.0
 11
641.476708407871
 21
99.92894851950085
 31
0.0
  0
MTEXT
  5
3C4
330
3BA
100
AcDbEntity
  8
1
 62
     2
100
AcDbMText
 10
602.34335066772
 20
103.3008483847482
 30
0.0
 40
6.4
 41
0.0
 71
     7
 72
     1
  1
12
  7
CONVERTER_1
 11
0.9999999999970621
 21
2.424068405545307E-6
 31
0.0
 73
     1
 44
0.60024009603842
  0
ENDBLK
  5
3C6
330
3BA
100
AcDbEntity
  8
0
100
AcDbBlockEnd
  0
BLOCK
  5
3D2
330
3C9
100
AcDbEntity
  8
0
100
AcDbBlockBegin
  2
*D1619
 70
     1
 71
     0
 10
0.0
 20
0.0
 30
0.0
  3
*D1619
  1

  0
LINE
  5
3CA
330
3C9
100
AcDbEntity
  8
1
  6
Continuous
 62
     2
100
AcDbLine
 10
617.3567084078711
 20
84.81192297808347
 30
0.0
 11
643.3567084078711
 21
84.81192297808347
 31
0.0
  0
LINE
  5
3CB
330
3C9
100
AcDbEntity
  8
1
  6
Continuous
 62
     2
100
AcDbLine
 10
643.3567084078711
 20
146.9782046293355
 30
0.0
 11
643.3567084078711
 21
82.81192297808347
 31
0.0
  0
LINE
  5
3CC
330
3C9
100
AcDbEntity
  8
1
  6
Continuous
 62
     2
100
AcDbLine
 10
617.3567084078711
 20
146.9782046293355
 30
0.0
 11
617.3567084078711
 21
82.81192297808347
 31
0.0
  0
LINE
  5
3CD
330
3C9
100
AcDbEntity
  8
1
 62
     2
100
AcDbLine
 10
617.3567084078711
 20
84.81192297808347
 30
0.0
 11
623.7567084078711
 21
86.52679780964266
 31
0.0
  0
LINE
  5
3CE
330
3C9
100
AcDbEntity
  8
1
 62
     2
100
AcDbLine
 10
617.3567084078711
 20
84.81192297808347
 30
0.0
 11
623.7567084078711
 21
83.09704814652429
 31
0.0
  0
LINE
  5
3CF
330
3C9
100
AcDbEntity
  8
1
 62
     2
100
AcDbLine
 10
643.3567084078711
 20
84.81192297808347
 30
0.0
 11
636.9567084078711
 21
83.09704814652429
 31
0.0
  0
LINE
  5
3D0
330
3C9
100
AcDbEntity
  8
1
 62
     2
100
AcDbLine
 10
643.3567084078711
 20
84.81192297808347
 30
0.0
 11
636.9567084078711
 21
86.52679780964266
 31
0.0
  0
MTEXT
  5
3D1
330
3C9
100
AcDbEntity
  8
1
 62
     2
100
AcDbMText
 10
625.977002121729
 20
87.17192297808347
 30
0.0
 40
6.4
 41
0.0
 71
     7
 72
     1
  1
26
  7
CONVERTER_1
 11
0.9999999999970621
 21
2.424068405545307E-6
 31
0.0
 73
     1
 44
0.60024009603842
  0
ENDBLK
  5
3D3
330
3C9
100
AcDbEntity
  8
0
100
AcDbBlockEnd
  0
BLOCK
  5
3DF
330
3D6
100
AcDbEntity
  8
0
100
AcDbBlockBegin
  2
*D1720
 70
     1
 71
     0
 10
0.0
 20
0.0
 30
0.0
  3
*D1720
  1

  0
LINE
  5
3D7
330
3D6
100
AcDbEntity
  8
1
  6
Continuous
 62
     2
100
AcDbLine
 10
620.3567084078711
 20
258.623299636965
 30
0.0
 11
652.3567084078711
 21
258.623299636965
 31
0.0
  0
LINE
  5
3D8
330
3D6
100
AcDbEntity
  8
1
  6
Continuous
 62
     2
100
AcDbLine
 10
620.3567084078711
 20
233.9175444575557
 30
0.0
 11
620.3567084078711
 21
260.623299636965
 31
0.0
  0
LINE
  5
3D9
330
3D6
100
AcDbEntity
  8
1
  6
Continuous
 62
     2
100
AcDbLine
 10
652.3567084078711
 20
233.9175444575557
 30
0.0
 11
652.3567084078711
 21
260.623299636965
 31
0.0
  0
LINE
  5
3DA
330
3D6
100
AcDbEntity
  8
1
 62
     2
100
AcDbLine
 10
620.3567084078711
 20
258.623299636965
 30
0.0
 11
626.7567084078711
 21
260.3381744685242
 31
0.0
  0
LINE
  5
3DB
330
3D6
100
AcDbEntity
  8
1
 62
     2
100
AcDbLine
 10
620.3567084078711
 20
258.623299636965
 30
0.0
 11
626.7567084078711
 21
256.9084248054058
 31
0.0
  0
LINE
  5
3DC
330
3D6
100
AcDbEntity
  8
1
 62
     2
100
AcDbLine
 10
652.3567084078711
 20
258.623299636965
 30
0.0
 11
645.9567084078711
 21
256.9084248054058
 31
0.0
  0
LINE
  5
3DD
330
3D6
100
AcDbEntity
  8
1
 62
     2
100
AcDbLine
 10
652.3567084078711
 20
258.623299636965
 30
0.0
 11
645.9567084078711
 21
260.3381744685242
 31
0.0
  0
MTEXT
  5
3DE
330
3D6
100
AcDbEntity
  8
1
 62
     2
100
AcDbMText
 10
631.812654529395
 20
260.023299636965
 30
0.0
 40
6.4
 41
0.0
 71
     7
 72
     1
  1
32
  7
CONVERTER_1
 11
0.9999999999970621
 21
2.424068405545307E-6
 31
0.0
 73
     1
 44
0.60024009603842
  0
ENDBLK
  5
3E0
330
3D6
100
AcDbEntity
  8
0
100
AcDbBlockEnd
  0
BLOCK
  5
3EC
330
3E3
100
AcDbEntity
  8
0
100
AcDbBlockBegin
  2
*D1821
 70
     1
 71
     0
 10
0.0
 20
0.0
 30
0.0
  3
*D1821
  1

  0
LINE
  5
3E4
330
3E3
100
AcDbEntity
  8
1
  6
Continuous
 62
     2
100
AcDbLine
 10
641.2859161909304
 20
324.903769842373
 30
0.0
 11
661.2859161909304
 21
324.903769842373
 31
0.0
  0
LINE
  5
3E5
330
3E3
100
AcDbEntity
  8
1
  6
Continuous
 62
     2
100
AcDbLine
 10
661.2859161909304
 20
348.04665532981
 30
0.0
 11
661.2859161909304
 21
322.903769842373
 31
0.0
  0
LINE
  5
3E6
330
3E3
100
AcDbEntity
  8
1
  6
Continuous
 62
     2
100
AcDbLine
 10
641.2859161909304
 20
348.0466553298099
 30
0.0
 11
641.2859161909304
 21
322.903769842373
 31
0.0
  0
LINE
  5
3E7
330
3E3
100
AcDbEntity
  8
1
 62
     2
100
AcDbLine
 10
641.2859161909304
 20
324.903769842373
 30
0.0
 11
647.6859161909304
 21
326.6186446739322
 31
0.0
  0
LINE
  5
3E8
330
3E3
100
AcDbEntity
  8
1
 62
     2
100
AcDbLine
 10
641.2859161909304
 20
324.903769842373
 30
0.0
 11
647.6859161909304
 21
323.1888950108138
 31
0.0
  0
LINE
  5
3E9
330
3E3
100
AcDbEntity
  8
1
 62
     2
100
AcDbLine
 10
661.2859161909304
 20
324.903769842373
 30
0.0
 11
654.8859161909304
 21
323.1888950108138
 31
0.0
  0
LINE
  5
3EA
330
3E3
100
AcDbEntity
  8
1
 62
     2
100
AcDbLine
 10
661.2859161909304
 20
324.903769842373
 30
0.0
 11
654.8859161909304
 21
326.6186446739322
 31
0.0
  0
MTEXT
  5
3EB
330
3E3
100
AcDbEntity
  8
1
 62
     2
100
AcDbMText
 10
646.3734921442424
 20
326.303769842373
 30
0.0
 40
6.4
 41
0.0
 71
     7
 72
     1
  1
20
  7
CONVERTER_1
 11
0.9999999999970621
 21
2.424068405545307E-6
 31
0.0
 73
     1
 44
0.60024009603842
  0
ENDBLK
  5
3ED
330
3E3
100
AcDbEntity
  8
0
100
AcDbBlockEnd
  0
BLOCK
  5
3F9
330
3F0
100
AcDbEntity
  8
0
100
AcDbBlockBegin
  2
*D1922
 70
     1
 71
     0
 10
0.0
 20
0.0
 30
0.0
  3
*D1922
  1

  0
LINE
  5
3F1
330
3F0
100
AcDbEntity
  8
1
  6
Continuous
 62
     2
100
AcDbLine
 10
262.916243867627
 20
323.194336308814
 30
0.0
 11
300.916243867627
 21
323.194336308814
 31
0.0
  0
LINE
  5
3F2
330
3F0
100
AcDbEntity
  8
1
  6
Continuous
 62
     2
100
AcDbLine
 10
300.916243867627
 20
346.04665532981
 30
0.0
 11
300.916243867627
 21
321.194336308814
 31
0.0
  0
LINE
  5
3F3
330
3F0
100
AcDbEntity
  8
1
  6
Continuous
 62
     2
100
AcDbLine
 10
262.916243867627
 20
346.04665532981
 30
0.0
 11
262.916243867627
 21
321.194336308814
 31
0.0
  0
LINE
  5
3F4
330
3F0
100
AcDbEntity
  8
1
 62
     2
100
AcDbLine
 10
262.916243867627
 20
323.194336308814
 30
0.0
 11
269.316243867627
 21
324.9092111403732
 31
0.0
  0
LINE
  5
3F5
330
3F0
100
AcDbEntity
  8
1
 62
     2
100
AcDbLine
 10
262.916243867627
 20
323.194336308814
 30
0.0
 11
269.316243867627
 21
321.4794614772548
 31
0.0
  0
LINE
  5
3F6
330
3F0
100
AcDbEntity
  8
1
 62
     2
100
AcDbLine
 10
300.916243867627
 20
323.194336308814
 30
0.0
 11
294.5162438676271
 21
321.4794614772548
 31
0.0
  0
LINE
  5
3F7
330
3F0
100
AcDbEntity
  8
1
 62
     2
100
AcDbLine
 10
300.916243867627
 20
323.194336308814
 30
0.0
 11
294.5162438676271
 21
324.9092111403732
 31
0.0
  0
MTEXT
  5
3F8
330
3F0
100
AcDbEntity
  8
1
 62
     2
100
AcDbMText
 10
277.242835884421
 20
324.594336308814
 30
0.0
 40
6.4
 41
0.0
 71
     7
 72
     1
  1
38
  7
CONVERTER_1
 11
0.9999999999970621
 21
2.424068405545307E-6
 31
0.0
 73
     1
 44
0.60024009603842
  0
ENDBLK
  5
3FA
330
3F0
100
AcDbEntity
  8
0
100
AcDbBlockEnd
  0
BLOCK
  5
406
330
3FD
100
AcDbEntity
  8
0
100
AcDbBlockBegin
  2
*D2023
 70
     1
 71
     0
 10
0.0
 20
0.0
 30
0.0
  3
*D2023
  1

  0
LINE
  5
3FE
330
3FD
100
AcDbEntity
  8
1
  6
Continuous
 62
     2
100
AcDbLine
 10
138.529516994633
 20
258.623299636965
 30
0.0
 11
218.5295169946332
 21
258.623299636965
 31
0.0
  0
LINE
  5
3FF
330
3FD
100
AcDbEntity
  8
1
  6
Continuous
 62
     2
100
AcDbLine
 10
138.529516994633
 20
236.4782046293355
 30
0.0
 11
138.529516994633
 21
260.623299636965
 31
0.0
  0
LINE
  5
400
330
3FD
100
AcDbEntity
  8
1
  6
Continuous
 62
     2
100
AcDbLine
 10
218.5295169946332
 20
221.4782046293355
 30
0.0
 11
218.5295169946332
 21
260.623299636965
 31
0.0
  0
LINE
  5
401
330
3FD
100
AcDbEntity
  8
1
 62
     2
100
AcDbLine
 10
138.529516994633
 20
258.623299636965
 30
0.0
 11
144.929516994633
 21
260.3381744685242
 31
0.0
  0
LINE
  5
402
330
3FD
100
AcDbEntity
  8
1
 62
     2
100
AcDbLine
 10
138.529516994633
 20
258.623299636965
 30
0.0
 11
144.929516994633
 21
256.9084248054058
 31
0.0
  0
LINE
  5
403
330
3FD
100
AcDbEntity
  8
1
 62
     2
100
AcDbLine
 10
218.5295169946332
 20
258.623299636965
 30
0.0
 11
212.1295169946332
 21
256.9084248054058
 31
0.0
  0
LINE
  5
404
330
3FD
100
AcDbEntity
  8
1
 62
     2
100
AcDbLine
 10
218.5295169946332
 20
258.623299636965
 30
0.0
 11
212.1295169946332
 21
260.3381744685242
 31
0.0
  0
MTEXT
  5
405
330
3FD
100
AcDbEntity
  8
1
 62
     2
100
AcDbMText
 10
170.551935242537
 20
260.023299636965
 30
0.0
 40
6.4
 41
0.0
 71
     7
 72
     1
  1
80
  7
CONVERTER_1
 11
0.9999999999970621
 21
2.424068405545307E-6
 31
0.0
 73
     1
 44
0.60024009603842
  0
ENDBLK
  5
407
330
3FD
100
AcDbEntity
  8
0
100
AcDbBlockEnd
  0
BLOCK
  5
415
330
40A
100
AcDbEntity
  8
0
100
AcDbBlockBegin
  2
*D2124
 70
     1
 71
     0
 10
0.0
 20
0.0
 30
0.0
  3
*D2124
  1

  0
LINE
  5
40B
330
40A
100
AcDbEntity
  8
1
  6
Continuous
 62
     2
100
AcDbLine
 10
138.529516994633
 20
258.623299636965
 30
0.0
 11
151.329516994633
 21
258.623299636965
 31
0.0
  0
LINE
  5
40C
330
40A
100
AcDbEntity
  8
1
  6
Continuous
 62
     2
100
AcDbLine
 10
134.529516994633
 20
258.623299636965
 30
0.0
 11
138.529516994633
 21
258.623299636965
 31
0.0
  0
LINE
  5
40D
330
40A
100
AcDbEntity
  8
1
  6
Continuous
 62
     2
100
AcDbLine
 10
113.729074825697
 20
258.623299636965
 30
0.0
 11
134.529516994633
 21
258.623299636965
 31
0.0
  0
LINE
  5
40E
330
40A
100
AcDbEntity
  8
1
  6
Continuous
 62
     2
100
AcDbLine
 10
134.529516994633
 20
236.4782046293355
 30
0.0
 11
134.529516994633
 21
260.623299636965
 31
0.0
  0
LINE
  5
40F
330
40A
100
AcDbEntity
  8
1
  6
Continuous
 62
     2
100
AcDbLine
 10
138.529516994633
 20
236.4782046293355
 30
0.0
 11
138.529516994633
 21
260.623299636965
 31
0.0
  0
LINE
  5
410
330
40A
100
AcDbEntity
  8
1
 62
     2
100
AcDbLine
 10
134.529516994633
 20
258.623299636965
 30
0.0
 11
128.129516994633
 21
256.9084248054058
 31
0.0
  0
LINE
  5
411
330
40A
100
AcDbEntity
  8
1
 62
     2
100
AcDbLine
 10
134.529516994633
 20
258.623299636965
 30
0.0
 11
128.129516994633
 21
260.3381744685242
 31
0.0
  0
LINE
  5
412
330
40A
100
AcDbEntity
  8
1
 62
     2
100
AcDbLine
 10
138.529516994633
 20
258.623299636965
 30
0.0
 11
144.929516994633
 21
260.3381744685242
 31
0.0
  0
LINE
  5
413
330
40A
100
AcDbEntity
  8
1
 62
     2
100
AcDbLine
 10
138.529516994633
 20
258.623299636965
 30
0.0
 11
144.929516994633
 21
256.9084248054058
 31
0.0
  0
MTEXT
  5
414
330
40A
100
AcDbEntity
  8
1
 62
     2
100
AcDbMText
 10
113.729074825697
 20
260.023299636965
 30
0.0
 40
6.4
 41
0.0
 71
     7
 72
     1
  1
4
  7
CONVERTER_1
 11
0.9999999999970621
 21
2.424068405545307E-6
 31
0.0
 73
     1
 44
0.60024009603842
  0
ENDBLK
  5
416
330
40A
100
AcDbEntity
  8
0
100
AcDbBlockEnd
  0
BLOCK
  5
422
330
419
100
AcDbEntity
  8
0
100
AcDbBlockBegin
  2
*D2225
 70
     1
 71
     0
 10
0.0
 20
0.0
 30
0.0
  3
*D2225
  1

  0
LINE
  5
41A
330
419
100
AcDbEntity
  8
1
  6
Continuous
 62
     2
100
AcDbLine
 10
136.529516994633
 20
456.4516474644161
 30
0.0
 11
186.529516994633
 21
456.4516474644161
 31
0.0
  0
LINE
  5
41B
330
419
100
AcDbEntity
  8
1
  6
Continuous
 62
     2
100
AcDbLine
 10
136.529516994633
 20
427.04665532981
 30
0.0
 11
136.529516994633
 21
458.4516474644161
 31
0.0
  0
LINE
  5
41C
330
419
100
AcDbEntity
  8
1
  6
Continuous
 62
     2
100
AcDbLine
 10
186.529516994633
 20
415.04665532981
 30
0.0
 11
186.529516994633
 21
458.4516474644161
 31
0.0
  0
LINE
  5
41D
330
419
100
AcDbEntity
  8
1
 62
     2
100
AcDbLine
 10
136.529516994633
 20
456.4516474644161
 30
0.0
 11
141.649516994633
 21
457.8235473296635
 31
0.0
  0
LINE
  5
41E
330
419
100
AcDbEntity
  8
1
 62
     2
100
AcDbLine
 10
136.529516994633
 20
456.4516474644161
 30
0.0
 11
141.649516994633
 21
455.0797475991687
 31
0.0
  0
LINE
  5
41F
330
419
100
AcDbEntity
  8
1
 62
     2
100
AcDbLine
 10
186.529516994633
 20
456.4516474644161
 30
0.0
 11
181.409516994633
 21
455.0797475991687
 31
0.0
  0
LINE
  5
420
330
419
100
AcDbEntity
  8
1
 62
     2
100
AcDbLine
 10
186.529516994633
 20
456.4516474644161
 30
0.0
 11
181.409516994633
 21
457.8235473296635
 31
0.0
  0
MTEXT
  5
421
330
419
100
AcDbEntity
  8
1
 62
     2
100
AcDbMText
 10
157.176107987365
 20
458.4516474644161
 30
0.0
 40
6.4
 41
0.0
 71
     7
 72
     1
  1
50
  7
CONVERTER_1
 11
0.9999999999970621
 21
2.424068405545307E-6
 31
0.0
 73
     1
 44
0.60024009603842
  0
ENDBLK
  5
423
330
419
100
AcDbEntity
  8
0
100
AcDbBlockEnd
  0
BLOCK
  5
42F
330
426
100
AcDbEntity
  8
0
100
AcDbBlockBegin
  2
*D2326
 70
     1
 71
     0
 10
0.0
 20
0.0
 30
0.0
  3
*D2326
  1

  0
LINE
  5
427
330
426
100
AcDbEntity
  8
1
  6
Continuous
 62
     2
100
AcDbLine
 10
550.4353358312292
 20
389.0466553298099
 30
0.0
 11
550.4353358312292
 21
419.0466553298099
 31
0.0
  0
LINE
  5
428
330
426
100
AcDbEntity
  8
1
  6
Continuous
 62
     2
100
AcDbLine
 10
509.3238171240013
 20
419.0466553298099
 30
0.0
 11
552.4353358312292
 21
419.0466553298099
 31
0.0
  0
LINE
  5
429
330
426
100
AcDbEntity
  8
1
  6
Continuous
 62
     2
100
AcDbLine
 10
527.8238171240013
 20
389.0466553298099
 30
0.0
 11
552.4353358312292
 21
389.0466553298099
 31
0.0
  0
LINE
  5
42A
330
426
100
AcDbEntity
  8
1
 62
     2
100
AcDbLine
 10
550.4353358312292
 20
389.0466553298099
 30
0.0
 11
549.0634359659819
 21
394.1666553298099
 31
0.0
  0
LINE
  5
42B
330
426
100
AcDbEntity
  8
1
 62
     2
100
AcDbLine
 10
550.4353358312292
 20
389.0466553298099
 30
0.0
 11
551.8072356964765
 21
394.1666553298099
 31
0.0
  0
LINE
  5
42C
330
426
100
AcDbEntity
  8
1
 62
     2
100
AcDbLine
 10
550.4353358312292
 20
419.0466553298099
 30
0.0
 11
551.8072356964765
 21
413.9266553298099
 31
0.0
  0
LINE
  5
42D
330
426
100
AcDbEntity
  8
1
 62
     2
100
AcDbLine
 10
550.4353358312292
 20
419.0466553298099
 30
0.0
 11
549.0634359659819
 21
413.9266553298099
 31
0.0
  0
MTEXT
  5
42E
330
426
100
AcDbEntity
  8
1
 62
     2
100
AcDbMText
 10
548.4353358312292
 20
399.2466553298099
 30
0.0
 40
6.4
 41
0.0
 71
     7
 72
     1
  1
30
  7
CONVERTER_1
 11
0.0
 21
1.0
 31
0.0
 73
     1
 44
0.60024009603842
  0
ENDBLK
  5
430
330
426
100
AcDbEntity
  8
0
100
AcDbBlockEnd
  0
ENDSEC
  0
SECTION
  2
ENTITIES
  0
INSERT
  5
35
330
1F
100
AcDbEntity
  8
0
100
AcDbBlockReference
  2
Zuwaku-A3-web
 10
393.9999999999996
 20
268.0
 30
0.0
 41
2.0
 42
2.0
 43
2.0
  0
LINE
  5
60
330
1F
100
AcDbEntity
  8
1
  6
Continuous
 62
     2
100
AcDbLine
 10
142.8849904644877
 20
461.717745252078
 30
0.0
 11
148.658493156384
 21
471.717745252078
 31
0.0
  0
LINE
  5
61
330
1F
100
AcDbEntity
  8
1
  6
Continuous
 62
     2
100
AcDbLine
 10
154.4319958482803
 20
461.717745252078
 30
0.0
 11
142.8849904644877
 21
461.717745252078
 31
0.0
  0
LINE
  5
62
330
1F
100
AcDbEntity
  8
1
  6
Continuous
 62
     2
100
AcDbLine
 10
148.658493156384
 20
471.717745252078
 30
0.0
 11
154.4319958482803
 21
461.717745252078
 31
0.0
  0
LINE
  5
63
330
1F
100
AcDbEntity
  8
1
  6
Continuous
 62
     7
100
AcDbLine
 10
451.183184257603
 20
191.9782046293355
 30
0.0
 11
522.8238171240014
 21
191.9782046293355
 31
0.0
  0
LINE
  5
64
330
1F
100
AcDbEntity
  8
1
  6
Continuous
 62
     3
100
AcDbLine
 10
451.183184257603
 20
194.9782046293353
 30
0.0
 11
500.8238171240013
 21
194.9782046293353
 31
0.0
  0
LINE
  5
65
330
1F
100
AcDbEntity
  8
1
  6
Continuous
 62
     3
100
AcDbLine
 10
451.183184257603
 20
195.7782046293353
 30
0.0
 11
500.8238171240013
 21
195.7782046293353
 31
0.0
  0
LINE
  5
66
330
1F
100
AcDbEntity
  8
1
  6
Continuous
 62
     7
100
AcDbLine
 10
458.6892964956964
 20
387.0466553298099
 30
0.0
 11
522.8238171240014
 21
387.0466553298099
 31
0.0
  0
LINE
  5
67
330
1F
100
AcDbEntity
  8
1
  6
Continuous
 62
     7
100
AcDbLine
 10
458.6892964956964
 20
389.0466553298099
 30
0.0
 11
525.8238171240014
 21
389.0466553298099
 31
0.0
  0
LINE
  5
68
330
1F
100
AcDbEntity
  8
1
  6
Continuous
 62
     3
100
AcDbLine
 10
458.6892964956964
 20
390.0466553298099
 30
0.0
 11
500.8238171240014
 21
390.0466553298099
 31
0.0
  0
LINE
  5
69
330
1F
100
AcDbEntity
  8
1
  6
Continuous
 62
     3
100
AcDbLine
 10
458.6892964956964
 20
390.8466553298099
 30
0.0
 11
500.8238171240014
 21
390.8466553298099
 31
0.0
  0
LINE
  5
6A
330
1F
100
AcDbEntity
  8
1
  6
Continuous
 62
     3
100
AcDbLine
 10
515.2603170593654
 20
165.9782046293355
 30
0.0
 11
516.2603170593654
 21
166.9782046293355
 31
0.0
  0
LINE
  5
6B
330
1F
100
AcDbEntity
  8
1
  6
Continuous
 62
     3
100
AcDbLine
 10
515.2603170593654
 20
161.9782046293355
 30
0.0
 11
515.2603170593654
 21
165.9782046293355
 31
0.0
  0
LINE
  5
6C
330
1F
100
AcDbEntity
  8
1
  6
Continuous
 62
     3
100
AcDbLine
 10
516.2603170593654
 20
160.9782046293355
 30
0.0
 11
515.2603170593654
 21
161.9782046293355
 31
0.0
  0
LINE
  5
6D
330
1F
100
AcDbEntity
  8
1
  6
Continuous
 62
     3
100
AcDbLine
 10
517.3238171240014
 20
160.9782046293355
 30
0.0
 11
516.2603170593654
 21
160.9782046293355
 31
0.0
  0
LINE
  5
6E
330
1F
100
AcDbEntity
  8
1
  6
Continuous
 62
     3
100
AcDbLine
 10
516.2603170593654
 20
160.9782046293355
 30
0.0
 11
516.2603170593654
 21
166.9782046293355
 31
0.0
  0
LINE
  5
6F
330
1F
100
AcDbEntity
  8
1
  6
Continuous
 62
     3
100
AcDbLine
 10
517.3238171240014
 20
161.5197046293357
 30
0.0
 11
515.7188170593654
 21
161.5197046293357
 31
0.0
  0
LINE
  5
70
330
1F
100
AcDbEntity
  8
1
  6
Continuous
 62
     3
100
AcDbLine
 10
516.2603170593654
 20
166.9782046293355
 30
0.0
 11
517.3238171240014
 21
166.9782046293355
 31
0.0
  0
LINE
  5
71
330
1F
100
AcDbEntity
  8
1
  6
Continuous
 62
     3
100
AcDbLine
 10
515.7188170593654
 20
166.4367046293356
 30
0.0
 11
517.3238171240014
 21
166.4367046293356
 31
0.0
  0
LINE
  5
72
330
1F
100
AcDbEntity
  8
1
  6
Continuous
 62
     3
100
AcDbLine
 10
523.8238171240014
 20
170.0782046293357
 30
0.0
 11
523.8238171240014
 21
157.8782046293355
 31
0.0
  0
LINE
  5
73
330
1F
100
AcDbEntity
  8
1
  6
Continuous
 62
     3
100
AcDbLine
 10
522.3238171240014
 20
170.0782046293357
 30
0.0
 11
523.8238171240014
 21
170.0782046293357
 31
0.0
  0
LINE
  5
74
330
1F
100
AcDbEntity
  8
1
  6
Continuous
 62
     3
100
AcDbLine
 10
522.3238171240014
 20
157.8782046293355
 30
0.0
 11
522.3238171240014
 21
170.0782046293357
 31
0.0
  0
LINE
  5
75
330
1F
100
AcDbEntity
  8
1
  6
Continuous
 62
     3
100
AcDbLine
 10
523.8238171240014
 20
157.8782046293355
 30
0.0
 11
522.3238171240014
 21
157.8782046293355
 31
0.0
  0
LINE
  5
76
330
1F
100
AcDbEntity
  8
1
  6
Continuous
 62
     3
100
AcDbLine
 10
522.3238171240014
 20
160.9282046293357
 30
0.0
 11
523.8238171240014
 21
160.9282046293357
 31
0.0
  0
LINE
  5
77
330
1F
100
AcDbEntity
  8
1
  6
Continuous
 62
     3
100
AcDbLine
 10
522.3238171240014
 20
167.0282046293356
 30
0.0
 11
523.8238171240014
 21
167.0282046293356
 31
0.0
  0
LINE
  5
78
330
1F
100
AcDbEntity
  8
1
  6
Continuous
 62
     3
100
AcDbLine
 10
522.3238171240014
 20
158.2047019374394
 30
0.0
 11
517.7703991113865
 21
158.2047019374394
 31
0.0
  0
LINE
  5
79
330
1F
100
AcDbEntity
  8
1
  6
Continuous
 62
     3
100
AcDbLine
 10
522.3238171240014
 20
169.7517073212318
 30
0.0
 11
522.3238171240014
 21
158.2047019374394
 31
0.0
  0
LINE
  5
7A
330
1F
100
AcDbEntity
  8
1
  6
Continuous
 62
     3
100
AcDbLine
 10
517.7703991113865
 20
169.7517073212318
 30
0.0
 11
522.3238171240014
 21
169.7517073212318
 31
0.0
  0
LINE
  5
7B
330
1F
100
AcDbEntity
  8
1
  6
Continuous
 62
     3
100
AcDbLine
 10
517.7703991113865
 20
161.0914532833875
 30
0.0
 11
522.3238171240014
 21
161.0914532833875
 31
0.0
  0
LINE
  5
7C
330
1F
100
AcDbEntity
  8
1
  6
Continuous
 62
     3
100
AcDbLine
 10
517.7703991113865
 20
166.8649559752838
 30
0.0
 11
522.3238171240014
 21
166.8649559752838
 31
0.0
  0
LINE
  5
7D
330
1F
100
AcDbEntity
  8
1
  6
Continuous
 62
     3
100
AcDbLine
 10
517.3238171240014
 20
159.6480776104132
 30
0.0
 11
517.3238171240014
 21
168.3083316482579
 31
0.0
  0
LINE
  5
7E
330
1F
100
AcDbEntity
  8
1
  6
Continuous
 62
     3
100
AcDbLine
 10
500.8238171240013
 20
195.7782046293353
 30
0.0
 11
500.8238171240013
 21
194.9782046293353
 31
0.0
  0
LINE
  5
7F
330
1F
100
AcDbEntity
  8
1
  6
Continuous
 62
     3
100
AcDbLine
 10
85.40611169997712
 20
195.7782046293353
 30
0.0
 11
134.529516994633
 21
195.7782046293353
 31
0.0
  0
LINE
  5
80
330
1F
100
AcDbEntity
  8
1
  6
Continuous
 62
     3
100
AcDbLine
 10
134.529516994633
 20
195.7782046293353
 30
0.0
 11
134.529516994633
 21
194.9782046293353
 31
0.0
  0
LINE
  5
81
330
1F
100
AcDbEntity
  8
1
  6
Continuous
 62
     3
100
AcDbLine
 10
85.40611169997712
 20
194.9782046293353
 30
0.0
 11
134.529516994633
 21
194.9782046293353
 31
0.0
  0
LINE
  5
82
330
1F
100
AcDbEntity
  8
1
  6
Continuous
 62
     3
100
AcDbLine
 10
517.8238171240014
 20
356.1599039838619
 30
0.0
 11
517.3238171240014
 21
356.1599039838619
 31
0.0
  0
LINE
  5
83
330
1F
100
AcDbEntity
  8
1
  6
Continuous
 62
     3
100
AcDbLine
 10
517.8238171240014
 20
361.9334066757581
 30
0.0
 11
517.3238171240014
 21
361.9334066757581
 31
0.0
  0
LINE
  5
84
330
1F
100
AcDbEntity
  8
1
  6
Continuous
 62
     3
100
AcDbLine
 10
172.129516994633
 20
365.29665532981
 30
0.0
 11
172.129516994633
 21
352.79665532981
 31
0.0
  0
LINE
  5
85
330
1F
100
AcDbEntity
  8
1
  6
Continuous
 62
     3
100
AcDbLine
 10
158.029516994633
 20
365.1466553298099
 30
0.0
 11
158.029516994633
 21
352.94665532981
 31
0.0
  0
LINE
  5
86
330
1F
100
AcDbEntity
  8
1
  6
Continuous
 62
     3
100
AcDbLine
 10
153.029516994633
 20
356.5881553298099
 30
0.0
 11
152.588016994633
 21
356.5881553298099
 31
0.0
  0
LINE
  5
87
330
1F
100
AcDbEntity
  8
1
  6
Continuous
 62
     3
100
AcDbLine
 10
153.029516994633
 20
356.1466553298099
 30
0.0
 11
152.129516994633
 21
357.04665532981
 31
0.0
  0
LINE
  5
88
330
1F
100
AcDbEntity
  8
1
  6
Continuous
 62
     3
100
AcDbLine
 10
153.029516994633
 20
354.7165283108878
 30
0.0
 11
153.029516994633
 21
363.3767823487322
 31
0.0
  0
LINE
  5
89
330
1F
100
AcDbEntity
  8
1
  6
Continuous
 62
     3
100
AcDbLine
 10
158.029516994633
 20
356.1599039838619
 30
0.0
 11
153.4760989820183
 21
356.1599039838619
 31
0.0
  0
LINE
  5
8A
330
1F
100
AcDbEntity
  8
1
  6
Continuous
 62
     3
100
AcDbLine
 10
158.029516994633
 20
361.933406675758
 30
0.0
 11
153.4760989820183
 21
361.933406675758
 31
0.0
  0
LINE
  5
8B
330
1F
100
AcDbEntity
  8
1
  6
Continuous
 62
     3
100
AcDbLine
 10
158.029516994633
 20
353.2731526379137
 30
0.0
 11
153.4760989820183
 21
353.2731526379137
 31
0.0
  0
LINE
  5
8C
330
1F
100
AcDbEntity
  8
1
  6
Continuous
 62
     3
100
AcDbLine
 10
153.4760989820183
 20
364.8201580217063
 30
0.0
 11
158.029516994633
 21
364.8201580217063
 31
0.0
  0
LINE
  5
8D
330
1F
100
AcDbEntity
  8
1
  6
Continuous
 62
     3
100
AcDbLine
 10
158.029516994633
 20
365.1466553298099
 30
0.0
 11
159.529516994633
 21
365.1466553298099
 31
0.0
  0
LINE
  5
8E
330
1F
100
AcDbEntity
  8
1
  6
Continuous
 62
     3
100
AcDbLine
 10
159.529516994633
 20
352.94665532981
 30
0.0
 11
158.029516994633
 21
352.94665532981
 31
0.0
  0
LINE
  5
8F
330
1F
100
AcDbEntity
  8
1
  6
Continuous
 62
     3
100
AcDbLine
 10
152.588016994633
 20
361.50515532981
 30
0.0
 11
153.029516994633
 21
361.50515532981
 31
0.0
  0
LINE
  5
90
330
1F
100
AcDbEntity
  8
1
  6
Continuous
 62
     3
100
AcDbLine
 10
176.129516994633
 20
363.3767823487322
 30
0.0
 11
176.129516994633
 21
354.7165283108878
 31
0.0
  0
LINE
  5
91
330
1F
100
AcDbEntity
  8
1
  6
Continuous
 62
     3
100
AcDbLine
 10
172.129516994633
 20
361.933406675758
 30
0.0
 11
175.6829350072478
 21
361.933406675758
 31
0.0
  0
LINE
  5
92
330
1F
100
AcDbEntity
  8
1
  6
Continuous
 62
     3
100
AcDbLine
 10
172.129516994633
 20
356.1599039838619
 30
0.0
 11
175.6829350072478
 21
356.1599039838619
 31
0.0
  0
LINE
  5
93
330
1F
100
AcDbEntity
  8
1
  6
Continuous
 62
     3
100
AcDbLine
 10
152.129516994633
 20
361.04665532981
 30
0.0
 11
153.029516994633
 21
361.94665532981
 31
0.0
  0
LINE
  5
94
330
1F
100
AcDbEntity
  8
1
  6
Continuous
 62
     3
100
AcDbLine
 10
152.129516994633
 20
357.04665532981
 30
0.0
 11
152.129516994633
 21
361.04665532981
 31
0.0
  0
LINE
  5
95
330
1F
100
AcDbEntity
  8
1
  6
Continuous
 62
     3
100
AcDbLine
 10
172.129516994633
 20
364.8201580217063
 30
0.0
 11
175.6829350072478
 21
364.8201580217063
 31
0.0
  0
LINE
  5
96
330
1F
100
AcDbEntity
  8
1
  6
Continuous
 62
     3
100
AcDbLine
 10
175.6829350072478
 20
353.2731526379137
 30
0.0
 11
172.129516994633
 21
353.2731526379137
 31
0.0
  0
LINE
  5
97
330
1F
100
AcDbEntity
  8
1
  6
Continuous
 62
     3
100
AcDbLine
 10
172.129516994633
 20
352.79665532981
 30
0.0
 11
170.529516994633
 21
352.79665532981
 31
0.0
  0
LINE
  5
98
330
1F
100
AcDbEntity
  8
1
  6
Continuous
 62
     3
100
AcDbLine
 10
170.529516994633
 20
365.29665532981
 30
0.0
 11
172.129516994633
 21
365.29665532981
 31
0.0
  0
LINE
  5
99
330
1F
100
AcDbEntity
  8
1
  6
DASH_CENTER
 62
     3
100
AcDbLine
 10
166.029516994633
 20
422.9816411936219
 30
0.0
 11
166.029516994633
 21
414.04665532981
 31
0.0
  0
LINE
  5
9A
330
1F
100
AcDbEntity
  8
1
  6
Continuous
 62
     7
100
AcDbLine
 10
161.529516994633
 20
419.04665532981
 30
0.0
 11
170.529516994633
 21
419.04665532981
 31
0.0
  0
LINE
  5
9B
330
1F
100
AcDbEntity
  8
1
  6
Continuous
 62
     7
100
AcDbLine
 10
185.529516994633
 20
414.04665532981
 30
0.0
 11
185.529516994633
 21
404.04665532981
 31
0.0
  0
LINE
  5
9C
330
1F
100
AcDbEntity
  8
1
  6
Continuous
 62
     7
100
AcDbLine
 10
186.529516994633
 20
405.04665532981
 30
0.0
 11
185.529516994633
 21
404.04665532981
 31
0.0
  0
LINE
  5
9D
330
1F
100
AcDbEntity
  8
1
  6
Continuous
 62
     7
100
AcDbLine
 10
185.529516994633
 20
414.04665532981
 30
0.0
 11
186.529516994633
 21
413.04665532981
 31
0.0
  0
LINE
  5
9E
330
1F
100
AcDbEntity
  8
1
  6
Continuous
 62
     7
100
AcDbLine
 10
185.529516994633
 20
404.04665532981
 30
0.0
 11
170.529516994633
 21
404.04665532981
 31
0.0
  0
LINE
  5
9F
330
1F
100
AcDbEntity
  8
1
  6
Continuous
 62
     7
100
AcDbLine
 10
186.529516994633
 20
413.04665532981
 30
0.0
 11
186.529516994633
 21
405.04665532981
 31
0.0
  0
LINE
  5
A0
330
1F
100
AcDbEntity
  8
1
  6
Continuous
 62
     7
100
AcDbLine
 10
170.529516994633
 20
414.04665532981
 30
0.0
 11
185.529516994633
 21
414.04665532981
 31
0.0
  0
LINE
  5
A1
330
1F
100
AcDbEntity
  8
1
  6
Continuous
 62
     7
100
AcDbLine
 10
136.529516994633
 20
404.04665532981
 30
0.0
 11
161.529516994633
 21
404.04665532981
 31
0.0
  0
LINE
  5
A2
330
1F
100
AcDbEntity
  8
1
  6
Continuous
 62
     7
100
AcDbLine
 10
136.529516994633
 20
414.04665532981
 30
0.0
 11
161.529516994633
 21
414.04665532981
 31
0.0
  0
LINE
  5
A3
330
1F
100
AcDbEntity
  8
1
  6
DASH_CENTER
 62
     3
100
AcDbLine
 10
130.5050602720021
 20
409.04665532981
 30
0.0
 11
191.6207614921378
 21
409.04665532981
 31
0.0
  0
LINE
  5
A4
330
1F
100
AcDbEntity
  8
1
  6
Continuous
 62
     7
100
AcDbLine
 10
161.529516994633
 20
347.04665532981
 30
0.0
 11
170.529516994633
 21
347.04665532981
 31
0.0
  0
LINE
  5
A5
330
1F
100
AcDbEntity
  8
1
  6
Continuous
 62
     7
100
AcDbLine
 10
170.529516994633
 20
347.04665532981
 30
0.0
 11
170.529516994633
 21
419.04665532981
 31
0.0
  0
LINE
  5
A6
330
1F
100
AcDbEntity
  8
1
  6
Continuous
 62
     7
100
AcDbLine
 10
161.529516994633
 20
419.04665532981
 30
0.0
 11
161.529516994633
 21
347.04665532981
 31
0.0
  0
LINE
  5
A7
330
1F
100
AcDbEntity
  8
1
  6
Continuous
 62
     3
100
AcDbLine
 10
136.529516994633
 20
390.84665532981
 30
0.0
 11
136.529516994633
 21
390.04665532981
 31
0.0
  0
LINE
  5
A8
330
1F
100
AcDbEntity
  8
1
  6
DASH_CENTER
 62
     3
100
AcDbLine
 10
146.9343570660393
 20
359.04665532981
 30
0.0
 11
181.3655163930094
 21
359.04665532981
 31
0.0
  0
LINE
  5
A9
330
1F
100
AcDbEntity
  8
1
  6
Continuous
 62
     3
100
AcDbLine
 10
136.529516994633
 20
390.04665532981
 30
0.0
 11
106.2734244133124
 21
390.04665532981
 31
0.0
  0
LINE
  5
AA
330
1F
100
AcDbEntity
  8
1
  6
Continuous
 62
     7
100
AcDbLine
 10
132.529516994633
 20
425.04665532981
 30
0.0
 11
132.529516994633
 21
393.04665532981
 31
0.0
  0
LINE
  5
AB
330
1F
100
AcDbEntity
  8
1
  6
Continuous
 62
     7
100
AcDbLine
 10
136.529516994633
 20
425.04665532981
 30
0.0
 11
132.529516994633
 21
425.04665532981
 31
0.0
  0
LINE
  5
AC
330
1F
100
AcDbEntity
  8
1
  6
Continuous
 62
     7
100
AcDbLine
 10
136.529516994633
 20
393.04665532981
 30
0.0
 11
136.529516994633
 21
425.04665532981
 31
0.0
  0
LINE
  5
AD
330
1F
100
AcDbEntity
  8
1
  6
Continuous
 62
     7
100
AcDbLine
 10
132.529516994633
 20
393.04665532981
 30
0.0
 11
136.529516994633
 21
393.04665532981
 31
0.0
  0
LINE
  5
AE
330
1F
100
AcDbEntity
  8
1
  6
Continuous
 62
     7
100
AcDbLine
 10
159.029516994633
 20
389.04665532981
 30
0.0
 11
106.2734244133124
 21
389.04665532981
 31
0.0
  0
LINE
  5
AF
330
1F
100
AcDbEntity
  8
1
  6
Continuous
 62
     3
100
AcDbLine
 10
131.529516994633
 20
390.04665532981
 30
0.0
 11
131.529516994633
 21
389.04665532981
 31
0.0
  0
LINE
  5
B0
330
1F
100
AcDbEntity
  8
1
  6
Continuous
 62
     3
100
AcDbLine
 10
111.529516994633
 20
389.04665532981
 30
0.0
 11
111.529516994633
 21
390.04665532981
 31
0.0
  0
LINE
  5
B1
330
1F
100
AcDbEntity
  8
1
  6
Continuous
 62
     7
100
AcDbLine
 10
161.529516994633
 20
339.04665532981
 30
0.0
 11
161.529516994633
 21
386.54665532981
 31
0.0
  0
LINE
  5
B2
330
1F
100
AcDbEntity
  8
1
  6
Continuous
 62
     7
100
AcDbLine
 10
159.529516994633
 20
339.04665532981
 30
0.0
 11
159.529516994633
 21
386.54665532981
 31
0.0
  0
LINE
  5
B3
330
1F
100
AcDbEntity
  8
1
  6
Continuous
 62
     7
100
AcDbLine
 10
161.529516994633
 20
339.04665532981
 30
0.0
 11
159.529516994633
 21
339.04665532981
 31
0.0
  0
LINE
  5
B4
330
1F
100
AcDbEntity
  8
1
  6
Continuous
 62
     7
100
AcDbLine
 10
146.5295169946329
 20
387.04665532981
 30
0.0
 11
159.029516994633
 21
387.04665532981
 31
0.0
  0
LINE
  5
B5
330
1F
100
AcDbEntity
  8
1
  6
Continuous
 62
     7
100
AcDbLine
 10
146.5295169946329
 20
387.04665532981
 30
0.0
 11
106.2734244133124
 21
387.04665532981
 31
0.0
  0
LINE
  5
B6
330
1F
100
AcDbEntity
  8
1
  6
Continuous
 62
     3
100
AcDbLine
 10
106.2734244133124
 20
390.84665532981
 30
0.0
 11
136.529516994633
 21
390.84665532981
 31
0.0
  0
LINE
  5
B7
330
1F
100
AcDbEntity
  8
1
  6
Continuous
 62
     3
100
AcDbLine
 10
500.8238171240014
 20
390.8466553298099
 30
0.0
 11
500.8238171240014
 21
390.0466553298099
 31
0.0
  0
LINE
  5
B8
330
1F
100
AcDbEntity
  8
1
  6
DASH_CENTER
 62
     3
100
AcDbLine
 10
515.5502371151557
 20
359.04665532981
 30
0.0
 11
536.0511241374595
 21
359.04665532981
 31
0.0
  0
LINE
  5
B9
330
1F
100
AcDbEntity
  8
1
  6
Continuous
 62
     3
100
AcDbLine
 10
517.3238171240014
 20
361.9334066757581
 30
0.0
 11
517.3238171240014
 21
356.1599039838619
 31
0.0
  0
LINE
  5
BA
330
1F
100
AcDbEntity
  8
1
  6
Continuous
 62
     3
100
AcDbLine
 10
516.8238171240014
 20
356.6599039838619
 30
0.0
 11
517.3238171240014
 21
356.1599039838619
 31
0.0
  0
LINE
  5
BB
330
1F
100
AcDbEntity
  8
1
  6
Continuous
 62
     3
100
AcDbLine
 10
516.8238171240014
 20
361.4334066757581
 30
0.0
 11
517.3238171240014
 21
361.9334066757581
 31
0.0
  0
LINE
  5
BC
330
1F
100
AcDbEntity
  8
1
  6
Continuous
 62
     3
100
AcDbLine
 10
516.8238171240014
 20
361.4334066757581
 30
0.0
 11
516.8238171240014
 21
356.6599039838619
 31
0.0
  0
LINE
  5
BD
330
1F
100
AcDbEntity
  8
1
  6
Continuous
 62
     3
100
AcDbLine
 10
523.8238171240014
 20
359.04665532981
 30
0.0
 11
522.8238171240014
 21
358.04665532981
 31
0.0
  0
LINE
  5
BE
330
1F
100
AcDbEntity
  8
1
  6
Continuous
 62
     3
100
AcDbLine
 10
523.8238171240014
 20
360.04665532981
 30
0.0
 11
522.8238171240014
 21
359.04665532981
 31
0.0
  0
LINE
  5
BF
330
1F
100
AcDbEntity
  8
1
  6
Continuous
 62
     3
100
AcDbLine
 10
522.8238171240014
 20
353.2731526379138
 30
0.0
 11
523.8238171240014
 21
353.2731526379138
 31
0.0
  0
LINE
  5
C0
330
1F
100
AcDbEntity
  8
1
  6
Continuous
 62
     3
100
AcDbLine
 10
522.8238171240014
 20
364.8201580217062
 30
0.0
 11
523.8238171240014
 21
364.8201580217062
 31
0.0
  0
LINE
  5
C1
330
1F
100
AcDbEntity
  8
1
  6
Continuous
 62
     3
100
AcDbLine
 10
517.8238171240014
 20
354.7165283108878
 30
0.0
 11
517.8238171240014
 21
363.3767823487321
 31
0.0
  0
LINE
  5
C2
330
1F
100
AcDbEntity
  8
1
  6
Continuous
 62
     3
100
AcDbLine
 10
518.2703991113866
 20
361.9334066757581
 30
0.0
 11
522.8238171240014
 21
361.9334066757581
 31
0.0
  0
LINE
  5
C3
330
1F
100
AcDbEntity
  8
1
  6
Continuous
 62
     3
100
AcDbLine
 10
518.2703991113866
 20
356.1599039838619
 30
0.0
 11
522.8238171240014
 21
356.1599039838619
 31
0.0
  0
LINE
  5
C4
330
1F
100
AcDbEntity
  8
1
  6
Continuous
 62
     3
100
AcDbLine
 10
518.2703991113866
 20
364.8201580217062
 30
0.0
 11
522.8238171240014
 21
364.8201580217062
 31
0.0
  0
LINE
  5
C5
330
1F
100
AcDbEntity
  8
1
  6
Continuous
 62
     3
100
AcDbLine
 10
522.8238171240014
 20
364.8201580217062
 30
0.0
 11
522.8238171240014
 21
353.2731526379138
 31
0.0
  0
LINE
  5
C6
330
1F
100
AcDbEntity
  8
1
  6
Continuous
 62
     3
100
AcDbLine
 10
522.8238171240014
 20
353.2731526379138
 30
0.0
 11
518.2703991113866
 21
353.2731526379138
 31
0.0
  0
LINE
  5
C7
330
1F
100
AcDbEntity
  8
1
  6
Continuous
 62
     3
100
AcDbLine
 10
534.8199646732526
 20
363.3767823487321
 30
0.0
 11
534.8199646732526
 21
354.7165283108878
 31
0.0
  0
LINE
  5
C8
330
1F
100
AcDbEntity
  8
1
  6
Continuous
 62
     3
100
AcDbLine
 10
534.3733826858671
 20
356.1599039838619
 30
0.0
 11
530.8199646732526
 21
356.1599039838619
 31
0.0
  0
LINE
  5
C9
330
1F
100
AcDbEntity
  8
1
  6
Continuous
 62
     3
100
AcDbLine
 10
534.3733826858671
 20
361.9334066757581
 30
0.0
 11
530.8199646732526
 21
361.9334066757581
 31
0.0
  0
LINE
  5
CA
330
1F
100
AcDbEntity
  8
1
  6
Continuous
 62
     3
100
AcDbLine
 10
534.3733826858671
 20
353.2731526379138
 30
0.0
 11
530.8199646732526
 21
353.2731526379138
 31
0.0
  0
LINE
  5
CB
330
1F
100
AcDbEntity
  8
1
  6
Continuous
 62
     3
100
AcDbLine
 10
530.8199646732526
 20
353.2731526379138
 30
0.0
 11
530.8199646732526
 21
364.8201580217062
 31
0.0
  0
LINE
  5
CC
330
1F
100
AcDbEntity
  8
1
  6
Continuous
 62
     3
100
AcDbLine
 10
530.8199646732526
 20
364.8201580217062
 30
0.0
 11
534.3733826858671
 21
364.8201580217062
 31
0.0
  0
LINE
  5
CD
330
1F
100
AcDbEntity
  8
1
  6
Continuous
 62
     7
100
AcDbLine
 10
525.8238171240014
 20
386.0466553298099
 30
0.0
 11
525.8238171240014
 21
393.0466553298099
 31
0.0
  0
LINE
  5
CE
330
1F
100
AcDbEntity
  8
1
  6
DASH_CENTER
 62
     3
100
AcDbLine
 10
514.8238171240014
 20
415.0081760165078
 30
0.0
 11
514.8238171240014
 21
389.5466553298099
 31
0.0
  0
LINE
  5
CF
330
1F
100
AcDbEntity
  8
1
  6
Continuous
 62
     7
100
AcDbLine
 10
517.8238171240014
 20
394.0466553298099
 30
0.0
 11
517.8238171240014
 21
391.5466553298099
 31
0.0
  0
LINE
  5
D0
330
1F
100
AcDbEntity
  8
1
  6
Continuous
 62
     3
100
AcDbLine
 10
517.2823171240016
 20
394.0466553298099
 30
0.0
 11
517.2823171240016
 21
391.0051553298099
 31
0.0
  0
LINE
  5
D1
330
1F
100
AcDbEntity
  8
1
  6
Continuous
 62
     7
100
AcDbLine
 10
511.8238171240014
 20
399.0466553298099
 30
0.0
 11
511.8238171240014
 21
408.5466553298099
 31
0.0
  0
LINE
  5
D2
330
1F
100
AcDbEntity
  8
1
  6
Continuous
 62
     3
100
AcDbLine
 10
512.3653171240013
 20
399.0466553298099
 30
0.0
 11
512.3653171240013
 21
407.6087498175114
 31
0.0
  0
LINE
  5
D3
330
1F
100
AcDbEntity
  8
1
  6
Continuous
 62
     3
100
AcDbLine
 10
512.3653171240013
 20
407.6087498175114
 30
0.0
 11
511.8238171240014
 21
408.5466553298099
 31
0.0
  0
LINE
  5
D4
330
1F
100
AcDbEntity
  8
1
  6
Continuous
 62
     3
100
AcDbLine
 10
512.3653171240013
 20
391.0051553298099
 30
0.0
 11
512.3653171240013
 21
394.0466553298099
 31
0.0
  0
LINE
  5
D5
330
1F
100
AcDbEntity
  8
1
  6
Continuous
 62
     3
100
AcDbLine
 10
517.8238171240014
 20
391.5466553298099
 30
0.0
 11
511.8238171240014
 21
391.5466553298099
 31
0.0
  0
LINE
  5
D6
330
1F
100
AcDbEntity
  8
1
  6
Continuous
 62
     3
100
AcDbLine
 10
517.2823171240016
 20
407.6087498175114
 30
0.0
 11
517.2823171240016
 21
399.0466553298099
 31
0.0
  0
LINE
  5
D7
330
1F
100
AcDbEntity
  8
1
  6
Continuous
 62
     3
100
AcDbLine
 10
517.8238171240014
 20
408.5466553298099
 30
0.0
 11
517.2823171240016
 21
407.6087498175114
 31
0.0
  0
LINE
  5
D8
330
1F
100
AcDbEntity
  8
1
  6
Continuous
 62
     7
100
AcDbLine
 10
517.8238171240014
 20
407.6087498175114
 30
0.0
 11
511.8238171240014
 21
407.6087498175114
 31
0.0
  0
LINE
  5
D9
330
1F
100
AcDbEntity
  8
1
  6
Continuous
 62
     7
100
AcDbLine
 10
510.4936901050792
 20
412.5466553298099
 30
0.0
 11
519.1539441429235
 21
412.5466553298099
 31
0.0
  0
LINE
  5
DA
330
1F
100
AcDbEntity
  8
1
  6
Continuous
 62
     7
100
AcDbLine
 10
511.9370657780534
 20
408.5466553298099
 30
0.0
 11
511.9370657780534
 21
412.1000733424248
 31
0.0
  0
LINE
  5
DB
330
1F
100
AcDbEntity
  8
1
  6
Continuous
 62
     7
100
AcDbLine
 10
517.7105684699495
 20
408.5466553298099
 30
0.0
 11
517.7105684699495
 21
412.1000733424248
 31
0.0
  0
LINE
  5
DC
330
1F
100
AcDbEntity
  8
1
  6
Continuous
 62
     7
100
AcDbLine
 10
511.8238171240014
 20
391.5466553298099
 30
0.0
 11
511.8238171240014
 21
394.0466553298099
 31
0.0
  0
LINE
  5
DD
330
1F
100
AcDbEntity
  8
1
  6
Continuous
 62
     7
100
AcDbLine
 10
512.8238171240014
 20
390.5466553298099
 30
0.0
 11
511.8238171240014
 21
391.5466553298099
 31
0.0
  0
LINE
  5
DE
330
1F
100
AcDbEntity
  8
1
  6
Continuous
 62
     7
100
AcDbLine
 10
517.8238171240014
 20
391.5466553298099
 30
0.0
 11
516.8238171240014
 21
390.5466553298099
 31
0.0
  0
LINE
  5
DF
330
1F
100
AcDbEntity
  8
1
  6
Continuous
 62
     7
100
AcDbLine
 10
517.8238171240014
 20
408.5466553298099
 30
0.0
 11
517.8238171240014
 21
399.0466553298099
 31
0.0
  0
LINE
  5
E0
330
1F
100
AcDbEntity
  8
1
  6
Continuous
 62
     7
100
AcDbLine
 10
509.0503144321052
 20
408.5466553298099
 30
0.0
 11
509.0503144321052
 21
412.1000733424248
 31
0.0
  0
LINE
  5
E1
330
1F
100
AcDbEntity
  8
1
  6
Continuous
 62
     7
100
AcDbLine
 10
520.5973198158977
 20
408.5466553298099
 30
0.0
 11
509.0503144321052
 21
408.5466553298099
 31
0.0
  0
LINE
  5
E2
330
1F
100
AcDbEntity
  8
1
  6
Continuous
 62
     7
100
AcDbLine
 10
520.5973198158977
 20
412.1000733424248
 30
0.0
 11
520.5973198158977
 21
408.5466553298099
 31
0.0
  0
LINE
  5
E3
330
1F
100
AcDbEntity
  8
1
  6
Continuous
 62
     7
100
AcDbLine
 10
508.8238171240014
 20
394.0466553298099
 30
0.0
 11
524.8238171240014
 21
394.0466553298099
 31
0.0
  0
LINE
  5
E4
330
1F
100
AcDbEntity
  8
1
  6
Continuous
 62
     7
100
AcDbLine
 10
525.8238171240014
 20
349.04665532981
 30
0.0
 11
530.8238171240014
 21
349.04665532981
 31
0.0
  0
LINE
  5
E5
330
1F
100
AcDbEntity
  8
1
  6
Continuous
 62
     7
100
AcDbLine
 10
508.8238171240014
 20
399.0466553298099
 30
0.0
 11
524.8238171240014
 21
399.0466553298099
 31
0.0
  0
LINE
  5
E6
330
1F
100
AcDbEntity
  8
1
  6
Continuous
 62
     7
100
AcDbLine
 10
508.8238171240014
 20
399.0466553298099
 30
0.0
 11
508.8238171240014
 21
394.0466553298099
 31
0.0
  0
LINE
  5
E7
330
1F
100
AcDbEntity
  8
1
  6
Continuous
 62
     7
100
AcDbLine
 10
530.8238171240014
 20
349.04665532981
 30
0.0
 11
530.8238171240014
 21
393.0466553298099
 31
0.0
  0
LINE
  5
E8
330
1F
100
AcDbEntity
  8
1
  6
Continuous
 62
     7
100
AcDbLine
 10
490.8238171240014
 20
390.0466553298099
 30
0.0
 11
490.8238171240014
 21
389.0466553298099
 31
0.0
  0
LINE
  5
E9
330
1F
100
AcDbEntity
  8
1
  6
Continuous
 62
     7
100
AcDbLine
 10
470.8238171240014
 20
389.0466553298099
 30
0.0
 11
470.8238171240014
 21
390.0466553298099
 31
0.0
  0
LINE
  5
EA
330
1F
100
AcDbEntity
  8
1
  6
Continuous
 62
     7
100
AcDbLine
 10
525.8238171240014
 20
339.04665532981
 30
0.0
 11
523.8238171240014
 21
339.04665532981
 31
0.0
  0
LINE
  5
EB
330
1F
100
AcDbEntity
  8
1
  6
Continuous
 62
     7
100
AcDbLine
 10
523.8238171240014
 20
339.04665532981
 30
0.0
 11
523.8238171240014
 21
386.0466553298099
 31
0.0
  0
LINE
  5
EC
330
1F
100
AcDbEntity
  8
1
  6
Continuous
 62
     7
100
AcDbLine
 10
525.8238171240014
 20
339.04665532981
 30
0.0
 11
525.8238171240014
 21
386.0466553298099
 31
0.0
  0
LINE
  5
ED
330
1F
100
AcDbEntity
  8
1
  6
Continuous
 62
     7
100
AcDbLine
 10
505.8238171240014
 20
419.0466553298099
 30
0.0
 11
507.3238171240014
 21
419.0466553298099
 31
0.0
  0
LINE
  5
EE
330
1F
100
AcDbEntity
  8
1
  6
Continuous
 62
     7
100
AcDbLine
 10
505.8238171240014
 20
419.0466553298099
 30
0.0
 11
505.8238171240014
 21
391.0466553298099
 31
0.0
  0
LINE
  5
EF
330
1F
100
AcDbEntity
  8
1
  6
Continuous
 62
     7
100
AcDbLine
 10
507.3238171240014
 20
419.0466553298099
 30
0.0
 11
507.3238171240014
 21
391.0466553298099
 31
0.0
  0
LINE
  5
F0
330
1F
100
AcDbEntity
  8
1
  6
Continuous
 62
     7
100
AcDbLine
 10
525.8238171240014
 20
389.0466553298099
 30
0.0
 11
525.8238171240014
 21
390.5466553298099
 31
0.0
  0
LINE
  5
F1
330
1F
100
AcDbEntity
  8
1
  6
Continuous
 62
     7
100
AcDbLine
 10
507.8238171240014
 20
390.5466553298099
 30
0.0
 11
525.8238171240014
 21
390.5466553298099
 31
0.0
  0
LINE
  5
F2
330
1F
100
AcDbEntity
  8
1
  6
Continuous
 62
     7
100
AcDbLine
 10
159.529516994633
 20
143.9782046293355
 30
0.0
 11
157.529516994633
 21
143.9782046293355
 31
0.0
  0
LINE
  5
F3
330
1F
100
AcDbEntity
  8
1
  6
Continuous
 62
     7
100
AcDbLine
 10
144.529516994633
 20
193.9782046293355
 30
0.0
 11
85.40611169997712
 21
193.9782046293355
 31
0.0
  0
LINE
  5
F4
330
1F
100
AcDbEntity
  8
1
  6
Continuous
 62
     7
100
AcDbLine
 10
85.40611169997712
 20
191.9782046293355
 30
0.0
 11
156.529516994633
 21
191.9782046293355
 31
0.0
  0
LINE
  5
F5
330
1F
100
AcDbEntity
  8
1
  6
Continuous
 62
     7
100
AcDbLine
 10
159.529516994633
 20
143.9782046293355
 30
0.0
 11
159.529516994633
 21
190.9782046293355
 31
0.0
  0
LINE
  5
F6
330
1F
100
AcDbEntity
  8
1
  6
Continuous
 62
     7
100
AcDbLine
 10
157.529516994633
 20
190.9782046293355
 30
0.0
 11
157.529516994633
 21
143.9782046293355
 31
0.0
  0
LINE
  5
F7
330
1F
100
AcDbEntity
  8
1
  6
Continuous
 62
     7
100
AcDbLine
 10
156.529516994633
 20
193.9782046293355
 30
0.0
 11
144.529516994633
 21
193.9782046293355
 31
0.0
  0
LINE
  5
F8
330
1F
100
AcDbEntity
  8
1
  6
Continuous
 62
     3
100
AcDbLine
 10
114.5295169946312
 20
193.9782046293353
 30
0.0
 11
114.5295169946312
 21
194.9782046293353
 31
0.0
  0
LINE
  5
F9
330
1F
100
AcDbEntity
  8
1
  6
Continuous
 62
     3
100
AcDbLine
 10
94.52951699463122
 20
193.9782046293353
 30
0.0
 11
94.52951699463122
 21
194.9782046293353
 31
0.0
  0
LINE
  5
FA
330
1F
100
AcDbEntity
  8
1
  6
DASH_CENTER
 62
     3
100
AcDbLine
 10
148.2740345979248
 20
163.9782046293355
 30
0.0
 11
187.6227236346289
 21
163.9782046293355
 31
0.0
  0
LINE
  5
FB
330
1F
100
AcDbEntity
  8
1
  6
Continuous
 62
     7
100
AcDbLine
 10
170.9795169946332
 20
136.9782046293355
 30
0.0
 11
170.9795169946332
 21
146.9782046293355
 31
0.0
  0
LINE
  5
FC
330
1F
100
AcDbEntity
  8
1
  6
Continuous
 62
     7
100
AcDbLine
 10
162.9795169946328
 20
136.9782046293355
 30
0.0
 11
162.9795169946328
 21
146.9782046293355
 31
0.0
  0
LINE
  5
FD
330
1F
100
AcDbEntity
  8
1
  6
Continuous
 62
     7
100
AcDbLine
 10
159.529516994633
 20
214.4782046293355
 30
0.0
 11
138.529516994633
 21
214.4782046293355
 31
0.0
  0
LINE
  5
FE
330
1F
100
AcDbEntity
  8
1
  6
Continuous
 62
     7
100
AcDbLine
 10
159.529516994633
 20
222.4782046293355
 30
0.0
 11
138.529516994633
 21
222.4782046293355
 31
0.0
  0
LINE
  5
FF
330
1F
100
AcDbEntity
  8
1
  6
Continuous
 62
     7
100
AcDbLine
 10
184.5295169946331
 20
222.4782046293355
 30
0.0
 11
214.5295169946332
 21
222.4782046293352
 31
0.0
  0
LINE
  5
100
330
1F
100
AcDbEntity
  8
1
  6
DASH_CENTER
 62
     3
100
AcDbLine
 10
131.2100739189219
 20
218.4782046293355
 30
0.0
 11
223.6316506933737
 21
218.4782046293355
 31
0.0
  0
LINE
  5
101
330
1F
100
AcDbEntity
  8
1
  6
Continuous
 62
     7
100
AcDbLine
 10
214.5295169946332
 20
214.4782046293355
 30
0.0
 11
184.5295169946327
 21
214.4782046293355
 31
0.0
  0
LINE
  5
102
330
1F
100
AcDbEntity
  8
1
  6
Continuous
 62
     3
100
AcDbLine
 10
218.5295169946332
 20
219.4921256679101
 30
0.0
 11
218.5295169946332
 21
217.4782046293355
 31
0.0
  0
LINE
  5
103
330
1F
100
AcDbEntity
  8
1
  6
Continuous
 62
     7
100
AcDbLine
 10
134.529516994633
 20
234.4782046293355
 30
0.0
 11
134.529516994633
 21
202.4782046293355
 31
0.0
  0
LINE
  5
104
330
1F
100
AcDbEntity
  8
1
  6
Continuous
 62
     7
100
AcDbLine
 10
138.529516994633
 20
234.4782046293355
 30
0.0
 11
134.529516994633
 21
234.4782046293355
 31
0.0
  0
LINE
  5
105
330
1F
100
AcDbEntity
  8
1
  6
Continuous
 62
     7
100
AcDbLine
 10
138.529516994633
 20
202.4782046293355
 30
0.0
 11
138.529516994633
 21
234.4782046293355
 31
0.0
  0
LINE
  5
106
330
1F
100
AcDbEntity
  8
1
  6
Continuous
 62
     7
100
AcDbLine
 10
134.529516994633
 20
202.4782046293355
 30
0.0
 11
138.529516994633
 21
202.4782046293355
 31
0.0
  0
LINE
  5
107
330
1F
100
AcDbEntity
  8
1
  6
Continuous
 62
     7
100
AcDbLine
 10
165.9795169946328
 20
133.9782046293355
 30
0.0
 11
168.0795169946332
 21
133.9782046293355
 31
0.0
  0
LINE
  5
108
330
1F
100
AcDbEntity
  8
1
  6
Continuous
 62
     7
100
AcDbLine
 10
171.0795169946332
 20
240.9782046293355
 30
0.0
 11
171.0795169946332
 21
235.4782046293355
 31
0.0
  0
LINE
  5
109
330
1F
100
AcDbEntity
  8
1
  6
Continuous
 62
     3
100
AcDbLine
 10
165.9795169946328
 20
243.9782046293355
 30
0.0
 11
168.0795169946332
 21
243.9782046293355
 31
0.0
  0
LINE
  5
10A
330
1F
100
AcDbEntity
  8
1
  6
Continuous
 62
     7
100
AcDbLine
 10
162.9795169946328
 20
235.4782046293355
 30
0.0
 11
162.9795169946328
 21
240.9782046293355
 31
0.0
  0
LINE
  5
10B
330
1F
100
AcDbEntity
  8
1
  6
Continuous
 62
     7
100
AcDbLine
 10
163.029516994633
 20
180.9782046293355
 30
0.0
 11
163.029516994633
 21
201.4782046293355
 31
0.0
  0
LINE
  5
10C
330
1F
100
AcDbEntity
  8
1
  6
Continuous
 62
     7
100
AcDbLine
 10
171.029516994633
 20
180.9782046293355
 30
0.0
 11
171.029516994633
 21
201.4782046293355
 31
0.0
  0
LINE
  5
10D
330
1F
100
AcDbEntity
  8
1
  6
DASH_CENTER
 62
     3
100
AcDbLine
 10
167.029516994633
 20
248.0535854055728
 30
0.0
 11
167.029516994633
 21
127.0814137631231
 31
0.0
  0
LINE
  5
10E
330
1F
100
AcDbEntity
  8
1
  6
DASH_CENTER
 62
     3
100
AcDbLine
 10
175.0295169946334
 20
238.6174948291316
 30
0.0
 11
175.0295169946334
 21
196.6174948291316
 31
0.0
  0
LINE
  5
10F
330
1F
100
AcDbEntity
  8
1
  6
DASH_CENTER
 62
     3
100
AcDbLine
 10
184.529516994633
 20
210.4782046293355
 30
0.0
 11
167.029516994633
 21
210.4782046293355
 31
0.0
  0
LINE
  5
110
330
1F
100
AcDbEntity
  8
1
  6
DASH_CENTER
 62
     3
100
AcDbLine
 10
168.5576489991508
 20
226.4782046293355
 30
0.0
 11
182.4038150187848
 21
226.4782046293355
 31
0.0
  0
LINE
  5
111
330
1F
100
AcDbEntity
  8
1
  6
Continuous
 62
     3
100
AcDbLine
 10
170.029516994633
 20
231.4782046293355
 30
0.0
 11
170.029516994633
 21
221.4782046293354
 31
0.0
  0
LINE
  5
112
330
1F
100
AcDbEntity
  8
1
  6
Continuous
 62
     3
100
AcDbLine
 10
180.0295169946339
 20
231.4782046293355
 30
0.0
 11
170.029516994633
 21
231.4782046293355
 31
0.0
  0
LINE
  5
113
330
1F
100
AcDbEntity
  8
1
  6
Continuous
 62
     3
100
AcDbLine
 10
180.0295169946339
 20
221.4782046293354
 30
0.0
 11
180.0295169946339
 21
231.4782046293355
 31
0.0
  0
LINE
  5
114
330
1F
100
AcDbEntity
  8
1
  6
Continuous
 62
     3
100
AcDbLine
 10
170.029516994633
 20
221.4782046293354
 30
0.0
 11
180.0295169946339
 21
221.4782046293354
 31
0.0
  0
LINE
  5
115
330
1F
100
AcDbEntity
  8
1
  6
Continuous
 62
     7
100
AcDbLine
 10
184.529516994633
 20
227.4782046293355
 30
0.0
 11
184.529516994633
 21
209.4782046293355
 31
0.0
  0
LINE
  5
116
330
1F
100
AcDbEntity
  8
1
  6
Continuous
 62
     7
100
AcDbLine
 10
167.029516994633
 20
235.4782046293355
 30
0.0
 11
176.529516994633
 21
235.4782046293355
 31
0.0
  0
LINE
  5
117
330
1F
100
AcDbEntity
  8
1
  6
Continuous
 62
     7
100
AcDbLine
 10
167.029516994633
 20
233.4782046293355
 30
0.0
 11
167.029516994633
 21
203.4782046293355
 31
0.0
  0
LINE
  5
118
330
1F
100
AcDbEntity
  8
1
  6
Continuous
 62
     7
100
AcDbLine
 10
161.529516994633
 20
235.4782046293355
 30
0.0
 11
167.529516994633
 21
235.4782046293355
 31
0.0
  0
LINE
  5
119
330
1F
100
AcDbEntity
  8
1
  6
Continuous
 62
     7
100
AcDbLine
 10
161.529516994633
 20
225.4782046293354
 30
0.0
 11
165.029516994633
 21
225.4782046293355
 31
0.0
  0
LINE
  5
11A
330
1F
100
AcDbEntity
  8
1
  6
Continuous
 62
     7
100
AcDbLine
 10
161.529516994633
 20
211.4782046293355
 30
0.0
 11
165.029516994633
 21
211.4782046293355
 31
0.0
  0
LINE
  5
11B
330
1F
100
AcDbEntity
  8
1
  6
Continuous
 62
     7
100
AcDbLine
 10
159.529516994633
 20
203.4782046293354
 30
0.0
 11
159.529516994633
 21
233.4782046293355
 31
0.0
  0
LINE
  5
11C
330
1F
100
AcDbEntity
  8
1
  6
Continuous
 62
     7
100
AcDbLine
 10
176.529516994633
 20
201.4782046293355
 30
0.0
 11
161.529516994633
 21
201.4782046293354
 31
0.0
  0
LINE
  5
11D
330
1F
100
AcDbEntity
  8
1
  6
DASH_CENTER
 62
     3
100
AcDbLine
 10
175.0295169946334
 20
184.1174948291316
 30
0.0
 11
175.0295169946334
 21
142.1174948291316
 31
0.0
  0
LINE
  5
11E
330
1F
100
AcDbEntity
  8
1
  6
DASH_CENTER
 62
     3
100
AcDbLine
 10
184.529516994633
 20
155.9782046293355
 30
0.0
 11
167.029516994633
 21
155.9782046293355
 31
0.0
  0
LINE
  5
11F
330
1F
100
AcDbEntity
  8
1
  6
DASH_CENTER
 62
     3
100
AcDbLine
 10
168.5576489991508
 20
171.9782046293355
 30
0.0
 11
182.4038150187848
 21
171.9782046293355
 31
0.0
  0
LINE
  5
120
330
1F
100
AcDbEntity
  8
1
  6
Continuous
 62
     3
100
AcDbLine
 10
170.029516994633
 20
176.9782046293355
 30
0.0
 11
170.029516994633
 21
166.9782046293354
 31
0.0
  0
LINE
  5
121
330
1F
100
AcDbEntity
  8
1
  6
Continuous
 62
     3
100
AcDbLine
 10
180.0295169946339
 20
176.9782046293355
 30
0.0
 11
170.029516994633
 21
176.9782046293355
 31
0.0
  0
LINE
  5
122
330
1F
100
AcDbEntity
  8
1
  6
Continuous
 62
     3
100
AcDbLine
 10
180.0295169946339
 20
166.9782046293354
 30
0.0
 11
180.0295169946339
 21
176.9782046293355
 31
0.0
  0
LINE
  5
123
330
1F
100
AcDbEntity
  8
1
  6
Continuous
 62
     3
100
AcDbLine
 10
170.029516994633
 20
166.9782046293354
 30
0.0
 11
180.0295169946339
 21
166.9782046293354
 31
0.0
  0
LINE
  5
124
330
1F
100
AcDbEntity
  8
1
  6
Continuous
 62
     7
100
AcDbLine
 10
184.529516994633
 20
172.9782046293355
 30
0.0
 11
184.529516994633
 21
154.9782046293355
 31
0.0
  0
LINE
  5
125
330
1F
100
AcDbEntity
  8
1
  6
Continuous
 62
     7
100
AcDbLine
 10
167.029516994633
 20
180.9782046293355
 30
0.0
 11
176.529516994633
 21
180.9782046293355
 31
0.0
  0
LINE
  5
126
330
1F
100
AcDbEntity
  8
1
  6
Continuous
 62
     7
100
AcDbLine
 10
167.029516994633
 20
178.9782046293355
 30
0.0
 11
167.029516994633
 21
148.9782046293355
 31
0.0
  0
LINE
  5
127
330
1F
100
AcDbEntity
  8
1
  6
Continuous
 62
     7
100
AcDbLine
 10
161.529516994633
 20
180.9782046293355
 30
0.0
 11
167.529516994633
 21
180.9782046293355
 31
0.0
  0
LINE
  5
128
330
1F
100
AcDbEntity
  8
1
  6
Continuous
 62
     7
100
AcDbLine
 10
161.529516994633
 20
170.9782046293354
 30
0.0
 11
165.029516994633
 21
170.9782046293355
 31
0.0
  0
LINE
  5
129
330
1F
100
AcDbEntity
  8
1
  6
Continuous
 62
     7
100
AcDbLine
 10
161.529516994633
 20
156.9782046293355
 30
0.0
 11
165.029516994633
 21
156.9782046293355
 31
0.0
  0
LINE
  5
12A
330
1F
100
AcDbEntity
  8
1
  6
Continuous
 62
     7
100
AcDbLine
 10
159.529516994633
 20
148.9782046293354
 30
0.0
 11
159.529516994633
 21
178.9782046293355
 31
0.0
  0
LINE
  5
12B
330
1F
100
AcDbEntity
  8
1
  6
Continuous
 62
     7
100
AcDbLine
 10
176.529516994633
 20
146.9782046293355
 30
0.0
 11
161.529516994633
 21
146.9782046293354
 31
0.0
  0
LINE
  5
12C
330
1F
100
AcDbEntity
  8
1
  6
Continuous
 62
     3
100
AcDbLine
 10
151.0295169946347
 20
159.6480776104132
 30
0.0
 11
151.0295169946347
 21
168.3083316482579
 31
0.0
  0
LINE
  5
12D
330
1F
100
AcDbEntity
  8
1
  6
Continuous
 62
     3
100
AcDbLine
 10
151.4760989820198
 20
166.8649559752838
 30
0.0
 11
156.0295169946347
 21
166.8649559752838
 31
0.0
  0
LINE
  5
12E
330
1F
100
AcDbEntity
  8
1
  6
Continuous
 62
     3
100
AcDbLine
 10
151.4760989820198
 20
161.0914532833875
 30
0.0
 11
156.0295169946347
 21
161.0914532833875
 31
0.0
  0
LINE
  5
12F
330
1F
100
AcDbEntity
  8
1
  6
Continuous
 62
     3
100
AcDbLine
 10
151.4760989820198
 20
169.7517073212318
 30
0.0
 11
156.0295169946347
 21
169.7517073212318
 31
0.0
  0
LINE
  5
130
330
1F
100
AcDbEntity
  8
1
  6
Continuous
 62
     3
100
AcDbLine
 10
156.0295169946347
 20
169.7517073212318
 30
0.0
 11
156.0295169946347
 21
158.2047019374394
 31
0.0
  0
LINE
  5
131
330
1F
100
AcDbEntity
  8
1
  6
Continuous
 62
     3
100
AcDbLine
 10
156.0295169946347
 20
158.2047019374394
 30
0.0
 11
151.4760989820198
 21
158.2047019374394
 31
0.0
  0
LINE
  5
132
330
1F
100
AcDbEntity
  8
1
  6
Continuous
 62
     3
100
AcDbLine
 10
156.0295169946347
 20
167.0282046293356
 30
0.0
 11
157.5295169946347
 21
167.0282046293356
 31
0.0
  0
LINE
  5
133
330
1F
100
AcDbEntity
  8
1
  6
Continuous
 62
     3
100
AcDbLine
 10
156.0295169946347
 20
160.9282046293357
 30
0.0
 11
157.5295169946347
 21
160.9282046293357
 31
0.0
  0
LINE
  5
134
330
1F
100
AcDbEntity
  8
1
  6
Continuous
 62
     3
100
AcDbLine
 10
157.5295169946347
 20
157.8782046293355
 30
0.0
 11
156.0295169946347
 21
157.8782046293355
 31
0.0
  0
LINE
  5
135
330
1F
100
AcDbEntity
  8
1
  6
Continuous
 62
     3
100
AcDbLine
 10
156.0295169946347
 20
157.8782046293355
 30
0.0
 11
156.0295169946347
 21
170.0782046293357
 31
0.0
  0
LINE
  5
136
330
1F
100
AcDbEntity
  8
1
  6
Continuous
 62
     3
100
AcDbLine
 10
156.0295169946347
 20
170.0782046293357
 30
0.0
 11
157.5295169946347
 21
170.0782046293357
 31
0.0
  0
LINE
  5
137
330
1F
100
AcDbEntity
  8
1
  6
Continuous
 62
     3
100
AcDbLine
 10
157.5295169946347
 20
170.0782046293357
 30
0.0
 11
157.5295169946347
 21
157.8782046293355
 31
0.0
  0
LINE
  5
138
330
1F
100
AcDbEntity
  8
1
  6
Continuous
 62
     3
100
AcDbLine
 10
149.4245169299987
 20
166.4367046293356
 30
0.0
 11
151.0295169946347
 21
166.4367046293356
 31
0.0
  0
LINE
  5
139
330
1F
100
AcDbEntity
  8
1
  6
Continuous
 62
     3
100
AcDbLine
 10
149.9660169299988
 20
166.9782046293355
 30
0.0
 11
151.0295169946347
 21
166.9782046293355
 31
0.0
  0
LINE
  5
13A
330
1F
100
AcDbEntity
  8
1
  6
Continuous
 62
     3
100
AcDbLine
 10
151.0295169946347
 20
161.5197046293357
 30
0.0
 11
149.4245169299987
 21
161.5197046293357
 31
0.0
  0
LINE
  5
13B
330
1F
100
AcDbEntity
  8
1
  6
Continuous
 62
     3
100
AcDbLine
 10
149.9660169299988
 20
160.9782046293355
 30
0.0
 11
149.9660169299988
 21
166.9782046293355
 31
0.0
  0
LINE
  5
13C
330
1F
100
AcDbEntity
  8
1
  6
Continuous
 62
     3
100
AcDbLine
 10
151.0295169946347
 20
160.9782046293355
 30
0.0
 11
149.9660169299988
 21
160.9782046293355
 31
0.0
  0
LINE
  5
13D
330
1F
100
AcDbEntity
  8
1
  6
Continuous
 62
     3
100
AcDbLine
 10
149.9660169299988
 20
160.9782046293355
 30
0.0
 11
148.9660169299988
 21
161.9782046293355
 31
0.0
  0
LINE
  5
13E
330
1F
100
AcDbEntity
  8
1
  6
Continuous
 62
     3
100
AcDbLine
 10
148.9660169299988
 20
161.9782046293355
 30
0.0
 11
148.9660169299988
 21
165.9782046293355
 31
0.0
  0
LINE
  5
13F
330
1F
100
AcDbEntity
  8
1
  6
Continuous
 62
     3
100
AcDbLine
 10
148.9660169299988
 20
165.9782046293355
 30
0.0
 11
149.9660169299988
 21
166.9782046293355
 31
0.0
  0
LINE
  5
140
330
1F
100
AcDbEntity
  8
1
  6
Continuous
 62
     7
100
AcDbLine
 10
515.2284425411174
 20
246.9175444575557
 30
0.0
 11
524.3738171240013
 21
246.9175444575557
 31
0.0
  0
LINE
  5
141
330
1F
100
AcDbEntity
  8
1
  6
Continuous
 62
     3
100
AcDbLine
 10
505.2284425411174
 20
196.9175444575557
 30
0.0
 11
507.2284425411174
 21
196.9175444575557
 31
0.0
  0
LINE
  5
142
330
1F
100
AcDbEntity
  8
1
  6
Continuous
 62
     7
100
AcDbLine
 10
515.2284425411174
 20
238.9175444575557
 30
0.0
 11
524.2738171240012
 21
238.9175444575557
 31
0.0
  0
LINE
  5
143
330
1F
100
AcDbEntity
  8
1
  6
Continuous
 62
     7
100
AcDbLine
 10
537.3238171240014
 20
180.9782046293353
 30
0.0
 11
537.3238171240014
 21
233.9175444575557
 31
0.0
  0
LINE
  5
144
330
1F
100
AcDbEntity
  8
1
  6
Continuous
 62
     7
100
AcDbLine
 10
529.3238171240014
 20
180.9782046293353
 30
0.0
 11
529.3238171240014
 21
233.9175444575557
 31
0.0
  0
LINE
  5
145
330
1F
100
AcDbEntity
  8
1
  6
Continuous
 62
     7
100
AcDbLine
 10
529.3238171240014
 20
115.9782046293355
 30
0.0
 11
529.3238171240014
 21
146.9782046293353
 31
0.0
  0
LINE
  5
146
330
1F
100
AcDbEntity
  8
1
  6
Continuous
 62
     7
100
AcDbLine
 10
537.3238171240018
 20
115.9782046293355
 30
0.0
 11
537.3238171240014
 21
146.9782046293353
 31
0.0
  0
LINE
  5
147
330
1F
100
AcDbEntity
  8
1
  6
Continuous
 62
     3
100
AcDbLine
 10
532.2738171240012
 20
112.9782046293355
 30
0.0
 11
534.3738171240013
 21
112.9782046293355
 31
0.0
  0
LINE
  5
148
330
1F
100
AcDbEntity
  8
1
  6
DASH_CENTER
 62
     3
100
AcDbLine
 10
533.3238171240014
 20
233.9175444575557
 30
0.0
 11
533.3238171240014
 21
111.081413763123
 31
0.0
  0
LINE
  5
149
330
1F
100
AcDbEntity
  8
1
  6
DASH_CENTER
 62
     3
100
AcDbLine
 10
524.3238171240014
 20
242.9175444575557
 30
0.0
 11
515.2284425411174
 21
242.9175444575557
 31
0.0
  0
LINE
  5
14A
330
1F
100
AcDbEntity
  8
1
  6
DASH_CENTER
 62
     3
100
AcDbLine
 10
506.2284425411174
 20
233.9175444575557
 30
0.0
 11
506.2284425411174
 21
194.0404287597977
 31
0.0
  0
LINE
  5
14B
330
1F
100
AcDbEntity
  8
1
  6
DASH_CENTER
 62
     3
100
AcDbLine
 10
492.2284425411171
 20
225.9775444575557
 30
0.0
 11
504.8283480244698
 21
225.9775444575557
 31
0.0
  0
LINE
  5
14C
330
1F
100
AcDbEntity
  8
1
  6
DASH_CENTER
 62
     3
100
AcDbLine
 10
498.2284425411171
 20
220.9775444575557
 30
0.0
 11
498.2284425411171
 21
231.9775444575557
 31
0.0
  0
LINE
  5
14D
330
1F
100
AcDbEntity
  8
1
  6
DASH_CENTER
 62
     3
100
AcDbLine
 10
492.2284425411171
 20
207.9775444575557
 30
0.0
 11
504.8283480244698
 21
207.9775444575557
 31
0.0
  0
LINE
  5
14E
330
1F
100
AcDbEntity
  8
1
  6
DASH_CENTER
 62
     3
100
AcDbLine
 10
498.2284425411171
 20
201.9775444575557
 30
0.0
 11
498.2284425411171
 21
212.9775444575557
 31
0.0
  0
LINE
  5
14F
330
1F
100
AcDbEntity
  8
1
  6
Continuous
 62
     7
100
AcDbLine
 10
515.2284425411172
 20
231.9775444575557
 30
0.0
 11
515.2284425411172
 21
201.9775444575557
 31
0.0
  0
LINE
  5
150
330
1F
100
AcDbEntity
  8
1
  6
Continuous
 62
     7
100
AcDbLine
 10
498.2284425411171
 20
233.9775444575557
 30
0.0
 11
513.2284425411172
 21
233.9775444575557
 31
0.0
  0
LINE
  5
151
330
1F
100
AcDbEntity
  8
1
  6
Continuous
 62
     7
100
AcDbLine
 10
496.2284425411171
 20
230.4775444575557
 30
0.0
 11
496.2284425411171
 21
231.9775444575557
 31
0.0
  0
LINE
  5
152
330
1F
100
AcDbEntity
  8
1
  6
Continuous
 62
     7
100
AcDbLine
 10
513.2284425411172
 20
199.9775444575557
 30
0.0
 11
498.2284425411171
 21
199.9775444575557
 31
0.0
  0
LINE
  5
153
330
1F
100
AcDbEntity
  8
1
  6
Continuous
 62
     7
100
AcDbLine
 10
496.2284425411171
 20
201.9775444575557
 30
0.0
 11
496.2284425411171
 21
203.4775444575557
 31
0.0
  0
LINE
  5
154
330
1F
100
AcDbEntity
  8
1
  6
Continuous
 62
     7
100
AcDbLine
 10
496.7284425411171
 20
203.9775444575557
 30
0.0
 11
498.2284425411171
 21
203.9775444575557
 31
0.0
  0
LINE
  5
155
330
1F
100
AcDbEntity
  8
1
  6
Continuous
 62
     7
100
AcDbLine
 10
500.7284425411171
 20
211.100043456755
 30
0.0
 11
500.7284425411171
 21
222.8550454583565
 31
0.0
  0
LINE
  5
156
330
1F
100
AcDbEntity
  8
1
  6
Continuous
 62
     7
100
AcDbLine
 10
496.7284425411171
 20
229.9775444575557
 30
0.0
 11
498.2284425411171
 21
229.9775444575557
 31
0.0
  0
LINE
  5
157
330
1F
100
AcDbEntity
  8
1
  6
DASH_CENTER
 62
     3
100
AcDbLine
 10
494.2909188465064
 20
216.9775444575557
 30
0.0
 11
515.2284425411172
 21
216.9775444575557
 31
0.0
  0
LINE
  5
158
330
1F
100
AcDbEntity
  8
1
  6
Continuous
 62
     3
100
AcDbLine
 10
495.5826912300525
 20
210.9775444575557
 30
0.0
 11
495.5826912300525
 21
216.9775444575557
 31
0.0
  0
LINE
  5
159
330
1F
100
AcDbEntity
  8
1
  6
Continuous
 62
     3
100
AcDbLine
 10
498.5826912300525
 20
213.9775444575557
 30
0.0
 11
495.5826912300525
 21
210.9775444575557
 31
0.0
  0
LINE
  5
15A
330
1F
100
AcDbEntity
  8
1
  6
Continuous
 62
     3
100
AcDbLine
 10
495.5826912300525
 20
216.9775444575557
 30
0.0
 11
495.5826912300525
 21
222.9775444575557
 31
0.0
  0
LINE
  5
15B
330
1F
100
AcDbEntity
  8
1
  6
Continuous
 62
     3
100
AcDbLine
 10
495.5826912300525
 20
222.9775444575557
 30
0.0
 11
498.5826912300525
 21
219.9775444575558
 31
0.0
  0
LINE
  5
15C
330
1F
100
AcDbEntity
  8
1
  6
Continuous
 62
     3
100
AcDbLine
 10
498.5826912300525
 20
219.9775444575558
 30
0.0
 11
498.5826912300525
 21
213.9775444575557
 31
0.0
  0
LINE
  5
15D
330
1F
100
AcDbEntity
  8
1
  6
Continuous
 62
     3
100
AcDbLine
 10
498.5826912300525
 20
219.9775444575558
 30
0.0
 11
500.7284425411171
 21
219.9775444575557
 31
0.0
  0
LINE
  5
15E
330
1F
100
AcDbEntity
  8
1
  6
Continuous
 62
     3
100
AcDbLine
 10
500.7284425411171
 20
213.9775444575557
 30
0.0
 11
498.5826912300525
 21
213.9775444575557
 31
0.0
  0
LINE
  5
15F
330
1F
100
AcDbEntity
  8
1
  6
Continuous
 62
     7
100
AcDbLine
 10
525.8238171240014
 20
143.9782046293355
 30
0.0
 11
523.8238171240014
 21
143.9782046293355
 31
0.0
  0
LINE
  5
160
330
1F
100
AcDbEntity
  8
1
  6
Continuous
 62
     7
100
AcDbLine
 10
510.8238171240014
 20
193.9782046293355
 30
0.0
 11
451.183184257603
 21
193.9782046293355
 31
0.0
  0
LINE
  5
161
330
1F
100
AcDbEntity
  8
1
  6
Continuous
 62
     7
100
AcDbLine
 10
525.8238171240014
 20
143.9782046293355
 30
0.0
 11
525.8238171240014
 21
190.9782046293355
 31
0.0
  0
LINE
  5
162
330
1F
100
AcDbEntity
  8
1
  6
Continuous
 62
     7
100
AcDbLine
 10
523.8238171240014
 20
190.9782046293355
 30
0.0
 11
523.8238171240014
 21
143.9782046293355
 31
0.0
  0
LINE
  5
163
330
1F
100
AcDbEntity
  8
1
  6
Continuous
 62
     7
100
AcDbLine
 10
522.8238171240014
 20
193.9782046293355
 30
0.0
 11
510.8238171240014
 21
193.9782046293355
 31
0.0
  0
LINE
  5
164
330
1F
100
AcDbEntity
  8
1
  6
Continuous
 62
     3
100
AcDbLine
 10
480.8238171239996
 20
193.9782046293353
 30
0.0
 11
480.8238171239996
 21
194.9782046293353
 31
0.0
  0
LINE
  5
165
330
1F
100
AcDbEntity
  8
1
  6
Continuous
 62
     3
100
AcDbLine
 10
460.8238171239996
 20
193.9782046293353
 30
0.0
 11
460.8238171239996
 21
194.9782046293353
 31
0.0
  0
LINE
  5
166
330
1F
100
AcDbEntity
  8
1
  6
DASH_CENTER
 62
     3
100
AcDbLine
 10
541.3238171240018
 20
184.1174948291314
 30
0.0
 11
541.3238171240018
 21
142.1174948291314
 31
0.0
  0
LINE
  5
167
330
1F
100
AcDbEntity
  8
1
  6
DASH_CENTER
 62
     3
100
AcDbLine
 10
550.8238171240014
 20
155.9782046293355
 30
0.0
 11
533.3238171240014
 21
155.9782046293355
 31
0.0
  0
LINE
  5
168
330
1F
100
AcDbEntity
  8
1
  6
DASH_CENTER
 62
     3
100
AcDbLine
 10
534.8519491285192
 20
171.9782046293355
 30
0.0
 11
548.6981151481532
 21
171.9782046293355
 31
0.0
  0
LINE
  5
169
330
1F
100
AcDbEntity
  8
1
  6
Continuous
 62
     3
100
AcDbLine
 10
536.3238171240014
 20
176.9782046293355
 30
0.0
 11
536.3238171240014
 21
166.9782046293353
 31
0.0
  0
LINE
  5
16A
330
1F
100
AcDbEntity
  8
1
  6
Continuous
 62
     3
100
AcDbLine
 10
546.3238171240023
 20
176.9782046293355
 30
0.0
 11
536.3238171240014
 21
176.9782046293355
 31
0.0
  0
LINE
  5
16B
330
1F
100
AcDbEntity
  8
1
  6
Continuous
 62
     3
100
AcDbLine
 10
546.3238171240023
 20
166.9782046293353
 30
0.0
 11
546.3238171240023
 21
176.9782046293355
 31
0.0
  0
LINE
  5
16C
330
1F
100
AcDbEntity
  8
1
  6
Continuous
 62
     3
100
AcDbLine
 10
536.3238171240014
 20
166.9782046293353
 30
0.0
 11
546.3238171240023
 21
166.9782046293353
 31
0.0
  0
LINE
  5
16D
330
1F
100
AcDbEntity
  8
1
  6
Continuous
 62
     7
100
AcDbLine
 10
550.8238171240014
 20
172.9782046293355
 30
0.0
 11
550.8238171240014
 21
154.9782046293355
 31
0.0
  0
LINE
  5
16E
330
1F
100
AcDbEntity
  8
1
  6
Continuous
 62
     7
100
AcDbLine
 10
533.3238171240014
 20
180.9782046293355
 30
0.0
 11
542.8238171240014
 21
180.9782046293355
 31
0.0
  0
LINE
  5
16F
330
1F
100
AcDbEntity
  8
1
  6
Continuous
 62
     7
100
AcDbLine
 10
533.3238171240014
 20
178.9782046293355
 30
0.0
 11
533.3238171240014
 21
148.9782046293355
 31
0.0
  0
LINE
  5
170
330
1F
100
AcDbEntity
  8
1
  6
Continuous
 62
     7
100
AcDbLine
 10
527.8238171240014
 20
180.9782046293355
 30
0.0
 11
533.8238171240014
 21
180.9782046293355
 31
0.0
  0
LINE
  5
171
330
1F
100
AcDbEntity
  8
1
  6
Continuous
 62
     7
100
AcDbLine
 10
527.8238171240014
 20
170.9782046293353
 30
0.0
 11
531.3238171240014
 21
170.9782046293355
 31
0.0
  0
LINE
  5
172
330
1F
100
AcDbEntity
  8
1
  6
Continuous
 62
     7
100
AcDbLine
 10
527.8238171240014
 20
156.9782046293355
 30
0.0
 11
531.3238171240014
 21
156.9782046293355
 31
0.0
  0
LINE
  5
173
330
1F
100
AcDbEntity
  8
1
  6
Continuous
 62
     7
100
AcDbLine
 10
525.8238171240014
 20
148.9782046293353
 30
0.0
 11
525.8238171240014
 21
178.9782046293355
 31
0.0
  0
LINE
  5
174
330
1F
100
AcDbEntity
  8
1
  6
Continuous
 62
     7
100
AcDbLine
 10
542.8238171240014
 20
146.9782046293355
 30
0.0
 11
527.8238171240014
 21
146.9782046293353
 31
0.0
  0
LINE
  5
175
330
1F
100
AcDbEntity
  8
1
  6
DASH_CENTER
 62
     3
100
AcDbLine
 10
512.7288008057126
 20
163.9782046293355
 30
0.0
 11
552.8238171240014
 21
163.9782046293355
 31
0.0
  0
LINE
  5
176
330
1F
100
AcDbEntity
  8
1
  6
Continuous
 62
     7
100
AcDbLine
 10
228.848214771458
 20
389.04665532981
 30
0.0
 11
262.9162438676271
 21
389.04665532981
 31
0.0
  0
LINE
  5
177
330
1F
100
AcDbEntity
  8
1
  6
Continuous
 62
     7
100
AcDbLine
 10
300.9162438676271
 20
389.04665532981
 30
0.0
 11
333.345921352018
 21
389.04665532981
 31
0.0
  0
LINE
  5
178
330
1F
100
AcDbEntity
  8
1
  6
DASHED
 62
     4
100
AcDbLine
 10
227.1823619307494
 20
387.04665532981
 30
0.0
 11
262.9162438676271
 21
387.04665532981
 31
0.0
  0
LINE
  5
179
330
1F
100
AcDbEntity
  8
1
  6
DASHED
 62
     4
100
AcDbLine
 10
300.9162438676271
 20
387.04665532981
 30
0.0
 11
331.6800685113094
 21
387.04665532981
 31
0.0
  0
LINE
  5
17A
330
1F
100
AcDbEntity
  8
1
  6
Continuous
 62
     7
100
AcDbLine
 10
228.848214771458
 20
339.04665532981
 30
0.0
 11
333.345921352018
 21
339.04665532981
 31
0.0
  0
LINE
  5
17B
330
1F
100
AcDbEntity
  8
1
  6
Continuous
 62
     7
100
AcDbLine
 10
602.7735311494989
 20
339.04665532981
 30
0.0
 11
700.7777806078098
 21
339.04665532981
 31
0.0
  0
LINE
  5
17C
330
1F
100
AcDbEntity
  8
1
  6
DASHED
 62
     4
100
AcDbLine
 10
661.2859161909304
 20
387.04665532981
 30
0.0
 11
699.1119277671012
 21
387.04665532981
 31
0.0
  0
LINE
  5
17D
330
1F
100
AcDbEntity
  8
1
  6
DASHED
 62
     4
100
AcDbLine
 10
601.1076783087904
 20
387.04665532981
 30
0.0
 11
641.2859161909304
 21
387.04665532981
 31
0.0
  0
LINE
  5
17E
330
1F
100
AcDbEntity
  8
1
  6
Continuous
 62
     7
100
AcDbLine
 10
661.2859161909304
 20
389.04665532981
 30
0.0
 11
700.7777806078098
 21
389.04665532981
 31
0.0
  0
LINE
  5
17F
330
1F
100
AcDbEntity
  8
1
  6
Continuous
 62
     7
100
AcDbLine
 10
602.7735311494989
 20
389.04665532981
 30
0.0
 11
641.2859161909304
 21
389.04665532981
 31
0.0
  0
LINE
  5
180
330
1F
100
AcDbEntity
  8
1
  6
Continuous
 62
     7
100
AcDbLine
 10
606.5091369744894
 20
419.0466553298099
 30
0.0
 11
694.8589035763984
 21
419.0466553298099
 31
0.0
  0
LINE
  5
181
330
1F
100
AcDbEntity
  8
1
  6
Continuous
 62
     7
100
AcDbLine
 10
607.9743597816106
 20
390.5466553298099
 30
0.0
 11
641.2859161909304
 21
390.5466553298099
 31
0.0
  0
LINE
  5
182
330
1F
100
AcDbEntity
  8
1
  6
Continuous
 62
     7
100
AcDbLine
 10
661.2859161909304
 20
390.5466553298099
 30
0.0
 11
696.3241263835196
 21
390.5466553298099
 31
0.0
  0
LINE
  5
183
330
1F
100
AcDbEntity
  8
1
  6
Continuous
 62
     7
100
AcDbLine
 10
657.0594188828267
 20
410.1000733424248
 30
0.0
 11
657.0594188828267
 21
406.5466553298099
 31
0.0
  0
LINE
  5
184
330
1F
100
AcDbEntity
  8
1
  6
Continuous
 62
     7
100
AcDbLine
 10
657.0594188828267
 20
406.5466553298099
 30
0.0
 11
645.5124134990342
 21
406.5466553298099
 31
0.0
  0
LINE
  5
185
330
1F
100
AcDbEntity
  8
1
  6
Continuous
 62
     7
100
AcDbLine
 10
645.5124134990342
 20
406.5466553298099
 30
0.0
 11
645.5124134990342
 21
410.1000733424248
 31
0.0
  0
LINE
  5
186
330
1F
100
AcDbEntity
  8
1
  6
Continuous
 62
     7
100
AcDbLine
 10
654.1726675368786
 20
406.5466553298099
 30
0.0
 11
654.1726675368786
 21
410.1000733424248
 31
0.0
  0
LINE
  5
187
330
1F
100
AcDbEntity
  8
1
  6
Continuous
 62
     7
100
AcDbLine
 10
648.3991648449824
 20
406.5466553298099
 30
0.0
 11
648.3991648449824
 21
410.1000733424248
 31
0.0
  0
LINE
  5
188
330
1F
100
AcDbEntity
  8
1
  6
Continuous
 62
     7
100
AcDbLine
 10
646.9557891720082
 20
410.5466553298099
 30
0.0
 11
655.6160432098525
 21
410.5466553298099
 31
0.0
  0
LINE
  5
189
330
1F
100
AcDbEntity
  8
1
  6
Continuous
 62
     7
100
AcDbLine
 10
654.2859161909304
 20
405.6087498175114
 30
0.0
 11
648.2859161909304
 21
405.6087498175114
 31
0.0
  0
LINE
  5
18A
330
1F
100
AcDbEntity
  8
1
  6
Continuous
 62
     3
100
AcDbLine
 10
654.2859161909304
 20
406.5466553298099
 30
0.0
 11
653.7444161909305
 21
405.6087498175114
 31
0.0
  0
LINE
  5
18B
330
1F
100
AcDbEntity
  8
1
  6
Continuous
 62
     3
100
AcDbLine
 10
648.8274161909303
 20
405.6087498175114
 30
0.0
 11
648.2859161909304
 21
406.5466553298099
 31
0.0
  0
LINE
  5
18C
330
1F
100
AcDbEntity
  8
1
  6
Continuous
 62
     7
100
AcDbLine
 10
654.2859161909304
 20
406.5466553298099
 30
0.0
 11
654.2859161909304
 21
399.0466553298099
 31
0.0
  0
LINE
  5
18D
330
1F
100
AcDbEntity
  8
1
  6
Continuous
 62
     3
100
AcDbLine
 10
653.7444161909305
 20
405.6087498175114
 30
0.0
 11
653.7444161909305
 21
399.0466553298099
 31
0.0
  0
LINE
  5
18E
330
1F
100
AcDbEntity
  8
1
  6
Continuous
 62
     7
100
AcDbLine
 10
648.2859161909304
 20
399.0466553298099
 30
0.0
 11
648.2859161909304
 21
406.5466553298099
 31
0.0
  0
LINE
  5
18F
330
1F
100
AcDbEntity
  8
1
  6
Continuous
 62
     3
100
AcDbLine
 10
648.8274161909303
 20
399.0466553298099
 30
0.0
 11
648.8274161909303
 21
405.6087498175114
 31
0.0
  0
LINE
  5
190
330
1F
100
AcDbEntity
  8
1
  6
Continuous
 62
     7
100
AcDbLine
 10
645.5124134990341
 20
359.04665532981
 30
0.0
 11
648.3991648449822
 21
354.04665532981
 31
0.0
  0
LINE
  5
191
330
1F
100
AcDbEntity
  8
1
  6
Continuous
 62
     7
100
AcDbLine
 10
648.3991648449822
 20
354.04665532981
 30
0.0
 11
654.1726675368785
 21
354.04665532981
 31
0.0
  0
LINE
  5
192
330
1F
100
AcDbEntity
  8
1
  6
Continuous
 62
     7
100
AcDbLine
 10
654.1726675368785
 20
354.04665532981
 30
0.0
 11
657.0594188828267
 21
359.04665532981
 31
0.0
  0
LINE
  5
193
330
1F
100
AcDbEntity
  8
1
  6
Continuous
 62
     7
100
AcDbLine
 10
657.0594188828267
 20
359.04665532981
 30
0.0
 11
654.1726675368785
 21
364.04665532981
 31
0.0
  0
LINE
  5
194
330
1F
100
AcDbEntity
  8
1
  6
Continuous
 62
     7
100
AcDbLine
 10
654.1726675368785
 20
364.04665532981
 30
0.0
 11
648.3991648449822
 21
364.04665532981
 31
0.0
  0
LINE
  5
195
330
1F
100
AcDbEntity
  8
1
  6
Continuous
 62
     7
100
AcDbLine
 10
648.3991648449822
 20
364.04665532981
 30
0.0
 11
645.5124134990341
 21
359.04665532981
 31
0.0
  0
LINE
  5
196
330
1F
100
AcDbEntity
  8
1
  6
DASH_CENTER
 62
     3
100
AcDbLine
 10
644.3577129606549
 20
359.04665532981
 30
0.0
 11
658.2141194212059
 21
359.04665532981
 31
0.0
  0
LINE
  5
197
330
1F
100
AcDbEntity
  8
1
  6
Continuous
 62
     7
100
AcDbLine
 10
262.9162438676271
 20
393.04665532981
 30
0.0
 11
229.08329625967
 21
393.04665532981
 31
0.0
  0
LINE
  5
198
330
1F
100
AcDbEntity
  8
1
  6
Continuous
 62
     7
100
AcDbLine
 10
332.913913485939
 20
393.04665532981
 30
0.0
 11
300.9162438676271
 21
393.04665532981
 31
0.0
  0
LINE
  5
199
330
1F
100
AcDbEntity
  8
1
  6
DASH_CENTER
 62
     3
100
AcDbLine
 10
222.515405701111
 20
409.04665532981
 30
0.0
 11
338.635141336592
 21
409.04665532981
 31
0.0
  0
LINE
  5
19A
330
1F
100
AcDbEntity
  8
1
  6
Continuous
 62
     7
100
AcDbLine
 10
228.024736223962
 20
425.04665532981
 30
0.0
 11
331.855353450231
 21
425.04665532981
 31
0.0
  0
LINE
  5
19B
330
1F
100
AcDbEntity
  8
1
  6
Continuous
 62
     7
100
AcDbLine
 10
288.6427411757308
 20
359.04665532981
 30
0.0
 11
291.529492521679
 21
354.04665532981
 31
0.0
  0
LINE
  5
19C
330
1F
100
AcDbEntity
  8
1
  6
Continuous
 62
     7
100
AcDbLine
 10
291.529492521679
 20
354.04665532981
 30
0.0
 11
297.3029952135752
 21
354.04665532981
 31
0.0
  0
LINE
  5
19D
330
1F
100
AcDbEntity
  8
1
  6
Continuous
 62
     7
100
AcDbLine
 10
297.3029952135752
 20
354.04665532981
 30
0.0
 11
300.1897465595233
 21
359.04665532981
 31
0.0
  0
LINE
  5
19E
330
1F
100
AcDbEntity
  8
1
  6
Continuous
 62
     7
100
AcDbLine
 10
300.1897465595233
 20
359.04665532981
 30
0.0
 11
297.3029952135752
 21
364.04665532981
 31
0.0
  0
LINE
  5
19F
330
1F
100
AcDbEntity
  8
1
  6
Continuous
 62
     7
100
AcDbLine
 10
297.3029952135752
 20
364.04665532981
 30
0.0
 11
291.529492521679
 21
364.04665532981
 31
0.0
  0
LINE
  5
1A0
330
1F
100
AcDbEntity
  8
1
  6
Continuous
 62
     7
100
AcDbLine
 10
291.529492521679
 20
364.04665532981
 30
0.0
 11
288.6427411757308
 21
359.04665532981
 31
0.0
  0
LINE
  5
1A1
330
1F
100
AcDbEntity
  8
1
  6
DASH_CENTER
 62
     3
100
AcDbLine
 10
294.4162438676271
 20
352.1184520995345
 30
0.0
 11
294.4162438676271
 21
365.9748585600855
 31
0.0
  0
LINE
  5
1A2
330
1F
100
AcDbEntity
  8
1
  6
DASH_CENTER
 62
     3
100
AcDbLine
 10
269.4162438676271
 20
352.1184520995345
 30
0.0
 11
269.4162438676271
 21
365.9748585600855
 31
0.0
  0
LINE
  5
1A3
330
1F
100
AcDbEntity
  8
1
  6
Continuous
 62
     7
100
AcDbLine
 10
266.5294925216789
 20
364.04665532981
 30
0.0
 11
263.6427411757309
 21
359.04665532981
 31
0.0
  0
LINE
  5
1A4
330
1F
100
AcDbEntity
  8
1
  6
Continuous
 62
     7
100
AcDbLine
 10
272.3029952135752
 20
364.04665532981
 30
0.0
 11
266.5294925216789
 21
364.04665532981
 31
0.0
  0
LINE
  5
1A5
330
1F
100
AcDbEntity
  8
1
  6
Continuous
 62
     7
100
AcDbLine
 10
275.1897465595233
 20
359.04665532981
 30
0.0
 11
272.3029952135752
 21
364.04665532981
 31
0.0
  0
LINE
  5
1A6
330
1F
100
AcDbEntity
  8
1
  6
Continuous
 62
     7
100
AcDbLine
 10
272.3029952135752
 20
354.04665532981
 30
0.0
 11
275.1897465595233
 21
359.04665532981
 31
0.0
  0
LINE
  5
1A7
330
1F
100
AcDbEntity
  8
1
  6
Continuous
 62
     7
100
AcDbLine
 10
266.5294925216789
 20
354.04665532981
 30
0.0
 11
272.3029952135752
 21
354.04665532981
 31
0.0
  0
LINE
  5
1A8
330
1F
100
AcDbEntity
  8
1
  6
Continuous
 62
     7
100
AcDbLine
 10
263.6427411757309
 20
359.04665532981
 30
0.0
 11
266.5294925216789
 21
354.04665532981
 31
0.0
  0
LINE
  5
1A9
330
1F
100
AcDbEntity
  8
1
  6
DASH_CENTER
 62
     3
100
AcDbLine
 10
262.9162438676271
 20
359.04665532981
 30
0.0
 11
300.9162438676271
 21
359.04665532981
 31
0.0
  0
LINE
  5
1AA
330
1F
100
AcDbEntity
  8
1
  6
Continuous
 62
     7
100
AcDbLine
 10
263.9162438676271
 20
347.04665532981
 30
0.0
 11
299.9162438676271
 21
347.04665532981
 31
0.0
  0
LINE
  5
1AB
330
1F
100
AcDbEntity
  8
1
  6
Continuous
 62
     7
100
AcDbLine
 10
262.9162438676271
 20
348.04665532981
 30
0.0
 11
262.9162438676271
 21
414.04665532981
 31
0.0
  0
LINE
  5
1AC
330
1F
100
AcDbEntity
  8
1
  6
Continuous
 62
     7
100
AcDbLine
 10
267.9162438676271
 20
419.04665532981
 30
0.0
 11
295.9162438676271
 21
419.04665532981
 31
0.0
  0
LINE
  5
1AD
330
1F
100
AcDbEntity
  8
1
  6
Continuous
 62
     7
100
AcDbLine
 10
300.9162438676271
 20
348.04665532981
 30
0.0
 11
300.9162438676271
 21
414.04665532981
 31
0.0
  0
LINE
  5
1AE
330
1F
100
AcDbEntity
  8
1
  6
DASH_CENTER
 62
     3
100
AcDbLine
 10
281.9162438676271
 20
342.1815347213118
 30
0.0
 11
281.9162438676271
 21
424.2939819756936
 31
0.0
  0
LINE
  5
1AF
330
1F
100
AcDbEntity
  8
1
  6
DASH_CENTER
 62
     3
100
AcDbLine
 10
274.9386433406862
 20
409.04665532981
 30
0.0
 11
288.7491855989763
 21
409.04665532981
 31
0.0
  0
LINE
  5
1B0
330
1F
100
AcDbEntity
  8
1
  6
DASHED
 62
     4
100
AcDbLine
 10
661.2859161909304
 20
395.0466553298099
 30
0.0
 11
641.2859161909304
 21
395.0466553298099
 31
0.0
  0
LINE
  5
1B1
330
1F
100
AcDbEntity
  8
1
  6
Continuous
 62
     7
100
AcDbLine
 10
641.2859161909304
 20
399.0466553298099
 30
0.0
 11
641.2859161909304
 21
350.0466553298099
 31
0.0
  0
LINE
  5
1B2
330
1F
100
AcDbEntity
  8
1
  6
Continuous
 62
     7
100
AcDbLine
 10
661.2859161909304
 20
399.0466553298099
 30
0.0
 11
641.2859161909304
 21
399.0466553298099
 31
0.0
  0
LINE
  5
1B3
330
1F
100
AcDbEntity
  8
1
  6
Continuous
 62
     7
100
AcDbLine
 10
661.2859161909304
 20
350.04665532981
 30
0.0
 11
661.2859161909304
 21
399.0466553298099
 31
0.0
  0
LINE
  5
1B4
330
1F
100
AcDbEntity
  8
1
  6
Continuous
 62
     7
100
AcDbLine
 10
642.2859161909304
 20
349.04665532981
 30
0.0
 11
660.2859161909304
 21
349.04665532981
 31
0.0
  0
LINE
  5
1B5
330
1F
100
AcDbEntity
  8
1
  6
DASHED
 62
     4
100
AcDbLine
 10
648.2859161909304
 20
399.0466553298099
 30
0.0
 11
648.2859161909304
 21
395.0466553298099
 31
0.0
  0
LINE
  5
1B6
330
1F
100
AcDbEntity
  8
1
  6
DASHED
 62
     4
100
AcDbLine
 10
648.8859161909304
 20
399.0466553298099
 30
0.0
 11
648.8859161909304
 21
395.0466553298099
 31
0.0
  0
LINE
  5
1B7
330
1F
100
AcDbEntity
  8
1
  6
DASHED
 62
     4
100
AcDbLine
 10
653.6859161909304
 20
399.0466553298099
 30
0.0
 11
653.6859161909304
 21
395.0466553298099
 31
0.0
  0
LINE
  5
1B8
330
1F
100
AcDbEntity
  8
1
  6
DASHED
 62
     4
100
AcDbLine
 10
654.2859161909304
 20
399.0466553298099
 30
0.0
 11
654.2859161909304
 21
395.0466553298099
 31
0.0
  0
LINE
  5
1B9
330
1F
100
AcDbEntity
  8
1
  6
DASH_CENTER
 62
     3
100
AcDbLine
 10
651.2859161909304
 20
346.04665532981
 30
0.0
 11
651.2859161909304
 21
412.38588003722
 31
0.0
  0
LINE
  5
1BA
330
1F
100
AcDbEntity
  8
1
  6
DASHED
 62
     4
100
AcDbLine
 10
279.465831842576
 20
191.9782046293355
 30
0.0
 11
312.4946247359544
 21
191.9782046293355
 31
0.0
  0
LINE
  5
1BB
330
1F
100
AcDbEntity
  8
1
  6
DASHED
 62
     4
100
AcDbLine
 10
227.6158753079884
 20
191.9782046293355
 30
0.0
 11
271.465831842576
 21
191.9782046293355
 31
0.0
  0
LINE
  5
1BC
330
1F
100
AcDbEntity
  8
1
  6
Continuous
 62
     7
100
AcDbLine
 10
228.628082347406
 20
143.9782046293355
 30
0.0
 11
271.4158318425758
 21
143.9782046293355
 31
0.0
  0
LINE
  5
1BD
330
1F
100
AcDbEntity
  8
1
  6
Continuous
 62
     7
100
AcDbLine
 10
313.506831775372
 20
193.9782046293355
 30
0.0
 11
279.465831842576
 21
193.9782046293355
 31
0.0
  0
LINE
  5
1BE
330
1F
100
AcDbEntity
  8
1
  6
Continuous
 62
     7
100
AcDbLine
 10
271.465831842576
 20
193.9782046293355
 30
0.0
 11
228.628082347406
 21
193.9782046293355
 31
0.0
  0
LINE
  5
1BF
330
1F
100
AcDbEntity
  8
1
  6
Continuous
 62
     7
100
AcDbLine
 10
279.4158318425763
 20
143.9782046293355
 30
0.0
 11
313.506831775372
 21
143.9782046293355
 31
0.0
  0
LINE
  5
1C0
330
1F
100
AcDbEntity
  8
1
  6
DASH_CENTER
 62
     3
100
AcDbLine
 10
288.465831842576
 20
169.2282046293355
 30
0.0
 11
288.465831842576
 21
158.7282046293355
 31
0.0
  0
LINE
  5
1C1
330
1F
100
AcDbEntity
  8
1
  6
Continuous
 62
     7
100
AcDbLine
 10
282.465831842576
 20
203.4782046293356
 30
0.0
 11
282.465831842576
 21
233.4782046293355
 31
0.0
  0
LINE
  5
1C2
330
1F
100
AcDbEntity
  8
1
  6
Continuous
 62
     7
100
AcDbLine
 10
280.465831842576
 20
235.4782046293356
 30
0.0
 11
258.465831842576
 21
235.4782046293356
 31
0.0
  0
LINE
  5
1C3
330
1F
100
AcDbEntity
  8
1
  6
Continuous
 62
     7
100
AcDbLine
 10
256.465831842576
 20
233.4782046293355
 30
0.0
 11
256.465831842576
 21
203.4782046293356
 31
0.0
  0
LINE
  5
1C4
330
1F
100
AcDbEntity
  8
1
  6
Continuous
 62
     7
100
AcDbLine
 10
258.465831842576
 20
201.4782046293356
 30
0.0
 11
280.465831842576
 21
201.4782046293356
 31
0.0
  0
LINE
  5
1C5
330
1F
100
AcDbEntity
  8
1
  6
DASH_CENTER
 62
     3
100
AcDbLine
 10
263.465831842576
 20
210.8282046293355
 30
0.0
 11
263.465831842576
 21
234.1282046293355
 31
0.0
  0
LINE
  5
1C6
330
1F
100
AcDbEntity
  8
1
  6
Continuous
 62
     7
100
AcDbLine
 10
268.465831842576
 20
230.4782046293355
 30
0.0
 11
268.465831842576
 21
233.4782046293356
 31
0.0
  0
LINE
  5
1C7
330
1F
100
AcDbEntity
  8
1
  6
Continuous
 62
     7
100
AcDbLine
 10
268.465831842576
 20
203.4782046293356
 30
0.0
 11
268.465831842576
 21
206.4782046293355
 31
0.0
  0
LINE
  5
1C8
330
1F
100
AcDbEntity
  8
1
  6
Continuous
 62
     7
100
AcDbLine
 10
282.465831842576
 20
148.9782046293356
 30
0.0
 11
282.465831842576
 21
178.9782046293355
 31
0.0
  0
LINE
  5
1C9
330
1F
100
AcDbEntity
  8
1
  6
Continuous
 62
     7
100
AcDbLine
 10
280.465831842576
 20
180.9782046293356
 30
0.0
 11
258.465831842576
 21
180.9782046293356
 31
0.0
  0
LINE
  5
1CA
330
1F
100
AcDbEntity
  8
1
  6
Continuous
 62
     7
100
AcDbLine
 10
256.465831842576
 20
178.9782046293355
 30
0.0
 11
256.465831842576
 21
148.9782046293356
 31
0.0
  0
LINE
  5
1CB
330
1F
100
AcDbEntity
  8
1
  6
Continuous
 62
     7
100
AcDbLine
 10
258.465831842576
 20
146.9782046293356
 30
0.0
 11
280.465831842576
 21
146.9782046293356
 31
0.0
  0
LINE
  5
1CC
330
1F
100
AcDbEntity
  8
1
  6
Continuous
 62
     7
100
AcDbLine
 10
268.465831842576
 20
175.9782046293355
 30
0.0
 11
268.465831842576
 21
178.9782046293356
 31
0.0
  0
LINE
  5
1CD
330
1F
100
AcDbEntity
  8
1
  6
Continuous
 62
     7
100
AcDbLine
 10
268.465831842576
 20
148.9782046293356
 30
0.0
 11
268.465831842576
 21
151.9782046293355
 31
0.0
  0
LINE
  5
1CE
330
1F
100
AcDbEntity
  8
1
  6
Continuous
 62
     3
100
AcDbLine
 10
271.465831842576
 20
180.9782046293355
 30
0.0
 11
271.465831842576
 21
201.4782046293355
 31
0.0
  0
LINE
  5
1CF
330
1F
100
AcDbEntity
  8
1
  6
DASH_CENTER
 62
     3
100
AcDbLine
 10
275.465831842576
 20
248.0535854055727
 30
0.0
 11
275.465831842576
 21
127.081413763123
 31
0.0
  0
LINE
  5
1D0
330
1F
100
AcDbEntity
  8
1
  6
Continuous
 62
     3
100
AcDbLine
 10
279.465831842576
 20
180.9782046293355
 30
0.0
 11
279.465831842576
 21
201.4782046293355
 31
0.0
  0
LINE
  5
1D1
330
1F
100
AcDbEntity
  8
1
  6
Continuous
 62
     7
100
AcDbLine
 10
279.4158318425763
 20
136.9782046293355
 30
0.0
 11
279.4158318425763
 21
146.9782046293355
 31
0.0
  0
LINE
  5
1D2
330
1F
100
AcDbEntity
  8
1
  6
Continuous
 62
     7
100
AcDbLine
 10
271.4158318425758
 20
136.9782046293355
 30
0.0
 11
271.4158318425758
 21
146.9782046293355
 31
0.0
  0
LINE
  5
1D3
330
1F
100
AcDbEntity
  8
1
  6
Continuous
 62
     7
100
AcDbLine
 10
274.4158318425758
 20
133.9782046293355
 30
0.0
 11
276.5158318425762
 21
133.9782046293355
 31
0.0
  0
LINE
  5
1D4
330
1F
100
AcDbEntity
  8
1
  6
Continuous
 62
     3
100
AcDbLine
 10
279.5158318425762
 20
240.9782046293355
 30
0.0
 11
279.5158318425762
 21
235.4782046293355
 31
0.0
  0
LINE
  5
1D5
330
1F
100
AcDbEntity
  8
1
  6
Continuous
 62
     3
100
AcDbLine
 10
274.4158318425758
 20
243.9782046293355
 30
0.0
 11
276.5158318425762
 21
243.9782046293355
 31
0.0
  0
LINE
  5
1D6
330
1F
100
AcDbEntity
  8
1
  6
Continuous
 62
     3
100
AcDbLine
 10
271.4158318425758
 20
235.4782046293355
 30
0.0
 11
271.4158318425758
 21
240.9782046293355
 31
0.0
  0
LINE
  5
1D7
330
1F
100
AcDbEntity
  8
1
  6
Continuous
 62
     7
100
AcDbLine
 10
282.1978826501448
 20
202.4782046293355
 30
0.0
 11
303.465831842576
 21
202.4782046293355
 31
0.0
  0
LINE
  5
1D8
330
1F
100
AcDbEntity
  8
1
  6
Continuous
 62
     7
100
AcDbLine
 10
303.465831842576
 20
234.4782046293355
 30
0.0
 11
282.1978826501451
 21
234.4782046293355
 31
0.0
  0
LINE
  5
1D9
330
1F
100
AcDbEntity
  8
1
  6
Continuous
 62
     7
100
AcDbLine
 10
256.7337810350072
 20
234.4782046293355
 30
0.0
 11
247.465831842576
 21
234.4782046293355
 31
0.0
  0
LINE
  5
1DA
330
1F
100
AcDbEntity
  8
1
  6
Continuous
 62
     7
100
AcDbLine
 10
247.465831842576
 20
202.4782046293355
 30
0.0
 11
256.7337810350072
 21
202.4782046293355
 31
0.0
  0
LINE
  5
1DB
330
1F
100
AcDbEntity
  8
1
  6
Continuous
 62
     3
100
AcDbLine
 10
260.5790804966279
 20
163.9782046293355
 30
0.0
 11
262.0224561696019
 21
161.4782046293355
 31
0.0
  0
LINE
  5
1DC
330
1F
100
AcDbEntity
  8
1
  6
Continuous
 62
     3
100
AcDbLine
 10
262.0224561696019
 20
161.4782046293355
 30
0.0
 11
264.9092075155501
 21
161.4782046293355
 31
0.0
  0
LINE
  5
1DD
330
1F
100
AcDbEntity
  8
1
  6
Continuous
 62
     3
100
AcDbLine
 10
264.9092075155501
 20
161.4782046293355
 30
0.0
 11
266.3525831885241
 21
163.9782046293355
 31
0.0
  0
LINE
  5
1DE
330
1F
100
AcDbEntity
  8
1
  6
Continuous
 62
     3
100
AcDbLine
 10
266.3525831885241
 20
163.9782046293355
 30
0.0
 11
264.9092075155501
 21
166.4782046293355
 31
0.0
  0
LINE
  5
1DF
330
1F
100
AcDbEntity
  8
1
  6
Continuous
 62
     3
100
AcDbLine
 10
264.9092075155501
 20
166.4782046293355
 30
0.0
 11
262.0224561696019
 21
166.4782046293355
 31
0.0
  0
LINE
  5
1E0
330
1F
100
AcDbEntity
  8
1
  6
Continuous
 62
     3
100
AcDbLine
 10
262.0224561696019
 20
166.4782046293355
 30
0.0
 11
260.5790804966279
 21
163.9782046293355
 31
0.0
  0
LINE
  5
1E1
330
1F
100
AcDbEntity
  8
1
  6
DASH_CENTER
 62
     3
100
AcDbLine
 10
263.465831842576
 20
157.9782046293355
 30
0.0
 11
263.465831842576
 21
169.9782046293355
 31
0.0
  0
LINE
  5
1E2
330
1F
100
AcDbEntity
  8
1
  6
DASH_CENTER
 62
     3
100
AcDbLine
 10
254.7658318425762
 20
218.4782046293355
 30
0.0
 11
289.0658318425761
 21
218.4782046293355
 31
0.0
  0
LINE
  5
1E3
330
1F
100
AcDbEntity
  8
1
  6
DASH_CENTER
 62
     3
100
AcDbLine
 10
256.4358580548009
 20
163.9782046293355
 30
0.0
 11
294.1448474243247
 21
163.9782046293355
 31
0.0
  0
LINE
  5
1E4
330
1F
100
AcDbEntity
  8
1
  6
Continuous
 62
     7
100
AcDbLine
 10
598.0081891393
 20
193.9782046293355
 30
0.0
 11
632.3567084078711
 21
193.9782046293355
 31
0.0
  0
LINE
  5
1E5
330
1F
100
AcDbEntity
  8
1
  6
Continuous
 62
     7
100
AcDbLine
 10
640.3567084078711
 20
193.9782046293355
 30
0.0
 11
678.392344092245
 21
193.9782046293355
 31
0.0
  0
LINE
  5
1E6
330
1F
100
AcDbEntity
  8
1
  6
Continuous
 62
     7
100
AcDbLine
 10
598.0081891393
 20
143.9782046293355
 30
0.0
 11
632.3067084078707
 21
143.9782046293355
 31
0.0
  0
LINE
  5
1E7
330
1F
100
AcDbEntity
  8
1
  6
Continuous
 62
     7
100
AcDbLine
 10
640.3067084078714
 20
143.9782046293355
 30
0.0
 11
678.392344092245
 21
143.9782046293355
 31
0.0
  0
LINE
  5
1E8
330
1F
100
AcDbEntity
  8
1
  6
DASHED
 62
     4
100
AcDbLine
 10
596.6224140346442
 20
191.9782046293355
 30
0.0
 11
632.3567084078711
 21
191.9782046293355
 31
0.0
  0
LINE
  5
1E9
330
1F
100
AcDbEntity
  8
1
  6
DASHED
 62
     4
100
AcDbLine
 10
640.3567084078711
 20
191.9782046293355
 30
0.0
 11
677.0065689875892
 21
191.9782046293355
 31
0.0
  0
LINE
  5
1EA
330
1F
100
AcDbEntity
  8
1
  6
DASH_CENTER
 62
     3
100
AcDbLine
 10
644.1067084078711
 20
163.9782046293355
 30
0.0
 11
654.6067084078711
 21
163.9782046293355
 31
0.0
  0
LINE
  5
1EB
330
1F
100
AcDbEntity
  8
1
  6
DASH_CENTER
 62
     3
100
AcDbLine
 10
649.3567084078711
 20
169.2282046293355
 30
0.0
 11
649.3567084078711
 21
158.7282046293355
 31
0.0
  0
LINE
  5
1EC
330
1F
100
AcDbEntity
  8
1
  6
Continuous
 62
     7
100
AcDbLine
 10
632.3067084078707
 20
115.9782046293355
 30
0.0
 11
632.3067084078707
 21
146.9782046293353
 31
0.0
  0
LINE
  5
1ED
330
1F
100
AcDbEntity
  8
1
  6
Continuous
 62
     7
100
AcDbLine
 10
640.3067084078714
 20
115.9782046293355
 30
0.0
 11
640.3067084078714
 21
146.9782046293353
 31
0.0
  0
LINE
  5
1EE
330
1F
100
AcDbEntity
  8
1
  6
Continuous
 62
     7
100
AcDbLine
 10
635.3067084078707
 20
112.9782046293355
 30
0.0
 11
637.4067084078713
 21
112.9782046293355
 31
0.0
  0
LINE
  5
1EF
330
1F
100
AcDbEntity
  8
1
  6
Continuous
 62
     7
100
AcDbLine
 10
632.3567084078711
 20
180.9782046293353
 30
0.0
 11
632.3567084078711
 21
242.9175444575557
 31
0.0
  0
LINE
  5
1F0
330
1F
100
AcDbEntity
  8
1
  6
Continuous
 62
     7
100
AcDbLine
 10
640.3567084078711
 20
180.9782046293353
 30
0.0
 11
640.3567084078711
 21
242.9175444575557
 31
0.0
  0
LINE
  5
1F1
330
1F
100
AcDbEntity
  8
1
  6
DASH_CENTER
 62
     3
100
AcDbLine
 10
636.3567084078711
 20
109.5666602800345
 30
0.0
 11
636.3567084078711
 21
253.5666602800345
 31
0.0
  0
LINE
  5
1F2
330
1F
100
AcDbEntity
  8
1
  6
DASH_CENTER
 62
     3
100
AcDbLine
 10
627.6599888355711
 20
242.9175444575557
 30
0.0
 11
644.6599888355711
 21
242.9175444575557
 31
0.0
  0
LINE
  5
1F3
330
1F
100
AcDbEntity
  8
1
  6
DASHED
 62
     4
100
AcDbLine
 10
635.3567084078711
 20
196.9175444575557
 30
0.0
 11
637.3567084078711
 21
196.9175444575557
 31
0.0
  0
LINE
  5
1F4
330
1F
100
AcDbEntity
  8
1
  6
Continuous
 62
     7
100
AcDbLine
 10
620.3567084078711
 20
229.9175444575557
 30
0.0
 11
607.3567084078711
 21
229.9175444575557
 31
0.0
  0
LINE
  5
1F5
330
1F
100
AcDbEntity
  8
1
  6
Continuous
 62
     7
100
AcDbLine
 10
652.3567084078711
 20
203.9175444575557
 30
0.0
 11
665.3567084078711
 21
203.9175444575557
 31
0.0
  0
LINE
  5
1F6
330
1F
100
AcDbEntity
  8
1
  6
Continuous
 62
     7
100
AcDbLine
 10
620.3567084078711
 20
221.9175444575557
 30
0.0
 11
607.3567084078711
 21
221.9175444575557
 31
0.0
  0
LINE
  5
1F7
330
1F
100
AcDbEntity
  8
1
  6
Continuous
 62
     7
100
AcDbLine
 10
652.3567084078711
 20
211.9175444575557
 30
0.0
 11
665.3567084078711
 21
211.9175444575557
 31
0.0
  0
LINE
  5
1F8
330
1F
100
AcDbEntity
  8
1
  6
DASH_CENTER
 62
     3
100
AcDbLine
 10
602.738236438822
 20
225.9175444575557
 30
0.0
 11
671.0759306067323
 21
225.9175444575557
 31
0.0
  0
LINE
  5
1F9
330
1F
100
AcDbEntity
  8
1
  6
Continuous
 62
     7
100
AcDbLine
 10
665.3567084078711
 20
229.9175444575557
 30
0.0
 11
652.3567084078711
 21
229.9175444575557
 31
0.0
  0
LINE
  5
1FA
330
1F
100
AcDbEntity
  8
1
  6
Continuous
 62
     7
100
AcDbLine
 10
665.3567084078711
 20
221.9175444575557
 30
0.0
 11
652.3567084078711
 21
221.9175444575557
 31
0.0
  0
LINE
  5
1FB
330
1F
100
AcDbEntity
  8
1
  6
DASH_CENTER
 62
     3
100
AcDbLine
 10
671.0759306067323
 20
207.9175444575557
 30
0.0
 11
602.738236438822
 21
207.9175444575557
 31
0.0
  0
LINE
  5
1FC
330
1F
100
AcDbEntity
  8
1
  6
Continuous
 62
     7
100
AcDbLine
 10
607.3567084078711
 20
203.9175444575557
 30
0.0
 11
620.3567084078711
 21
203.9175444575557
 31
0.0
  0
LINE
  5
1FD
330
1F
100
AcDbEntity
  8
1
  6
Continuous
 62
     7
100
AcDbLine
 10
607.3567084078711
 20
211.9175444575557
 30
0.0
 11
620.3567084078711
 21
211.9175444575557
 31
0.0
  0
LINE
  5
1FE
330
1F
100
AcDbEntity
  8
1
  6
Continuous
 62
     7
100
AcDbLine
 10
643.3567084078711
 20
148.9782046293355
 30
0.0
 11
643.3567084078711
 21
178.9782046293355
 31
0.0
  0
LINE
  5
1FF
330
1F
100
AcDbEntity
  8
1
  6
Continuous
 62
     7
100
AcDbLine
 10
641.3567084078711
 20
180.9782046293355
 30
0.0
 11
619.3567084078711
 21
180.9782046293355
 31
0.0
  0
LINE
  5
200
330
1F
100
AcDbEntity
  8
1
  6
Continuous
 62
     7
100
AcDbLine
 10
617.3567084078711
 20
178.9782046293355
 30
0.0
 11
617.3567084078711
 21
148.9782046293355
 31
0.0
  0
LINE
  5
201
330
1F
100
AcDbEntity
  8
1
  6
Continuous
 62
     7
100
AcDbLine
 10
619.3567084078711
 20
146.9782046293355
 30
0.0
 11
641.3567084078711
 21
146.9782046293355
 31
0.0
  0
LINE
  5
202
330
1F
100
AcDbEntity
  8
1
  6
DASH_CENTER
 62
     3
100
AcDbLine
 10
636.3567084078711
 20
142.081413763123
 30
0.0
 11
636.3567084078711
 21
182.081413763123
 31
0.0
  0
LINE
  5
203
330
1F
100
AcDbEntity
  8
1
  6
DASH_CENTER
 62
     3
100
AcDbLine
 10
613.3067084078712
 20
163.9782046293355
 30
0.0
 11
634.0067084078712
 21
163.9782046293355
 31
0.0
  0
LINE
  5
204
330
1F
100
AcDbEntity
  8
1
  6
Continuous
 62
     7
100
AcDbLine
 10
629.3567084078711
 20
175.9782046293355
 30
0.0
 11
629.3567084078711
 21
178.9782046293355
 31
0.0
  0
LINE
  5
205
330
1F
100
AcDbEntity
  8
1
  6
Continuous
 62
     7
100
AcDbLine
 10
629.3567084078711
 20
148.9782046293355
 30
0.0
 11
629.3567084078711
 21
151.9782046293355
 31
0.0
  0
LINE
  5
206
330
1F
100
AcDbEntity
  8
1
  6
Continuous
 62
     7
100
AcDbLine
 10
620.3567084078711
 20
201.9175444575557
 30
0.0
 11
620.3567084078711
 21
231.9175444575557
 31
0.0
  0
LINE
  5
207
330
1F
100
AcDbEntity
  8
1
  6
Continuous
 62
     7
100
AcDbLine
 10
652.3567084078711
 20
231.9175444575557
 30
0.0
 11
652.3567084078711
 21
201.9175444575557
 31
0.0
  0
LINE
  5
208
330
1F
100
AcDbEntity
  8
1
  6
Continuous
 62
     7
100
AcDbLine
 10
650.3567084078711
 20
199.9175444575557
 30
0.0
 11
640.3567084078711
 21
199.9175444575557
 31
0.0
  0
LINE
  5
209
330
1F
100
AcDbEntity
  8
1
  6
Continuous
 62
     7
100
AcDbLine
 10
622.3567084078711
 20
233.9175444575557
 30
0.0
 11
632.3567084078711
 21
233.9175444575557
 31
0.0
  0
LINE
  5
20A
330
1F
100
AcDbEntity
  8
1
  6
DASH_CENTER
 62
     3
100
AcDbLine
 10
628.3567084078711
 20
210.5675444575557
 30
0.0
 11
628.3567084078711
 21
223.1450454583565
 31
0.0
  0
LINE
  5
20B
330
1F
100
AcDbEntity
  8
1
  6
DASH_CENTER
 62
     3
100
AcDbLine
 10
644.3567084078711
 20
223.1450454583565
 30
0.0
 11
644.3567084078711
 21
210.5675444575557
 31
0.0
  0
LINE
  5
20C
330
1F
100
AcDbEntity
  8
1
  6
DASH_CENTER
 62
     3
100
AcDbLine
 10
617.326734620096
 20
216.9175444575557
 30
0.0
 11
655.0357239896198
 21
216.9175444575557
 31
0.0
  0
LINE
  5
20D
330
1F
100
AcDbEntity
  8
1
  6
DASHED
 62
     4
100
AcDbLine
 10
632.3567084078711
 20
233.9175444575557
 30
0.0
 11
640.3567084078711
 21
233.9175444575557
 31
0.0
  0
LINE
  5
20E
330
1F
100
AcDbEntity
  8
1
  6
Continuous
 62
     7
100
AcDbLine
 10
640.3567084078711
 20
233.9175444575557
 30
0.0
 11
650.3567084078711
 21
233.9175444575557
 31
0.0
  0
LINE
  5
20F
330
1F
100
AcDbEntity
  8
1
  6
Continuous
 62
     7
100
AcDbLine
 10
632.3567084078711
 20
199.9175444575557
 30
0.0
 11
622.3567084078711
 21
199.9175444575557
 31
0.0
  0
LINE
  5
210
330
1F
100
AcDbEntity
  8
1
  6
DASHED
 62
     4
100
AcDbLine
 10
640.3567084078711
 20
199.9175444575557
 30
0.0
 11
632.3567084078711
 21
199.9175444575557
 31
0.0
  0
LINE
  5
211
330
1F
100
AcDbEntity
  8
1
  6
DASH_CENTER
 62
     3
100
AcDbLine
 10
624.3567084078711
 20
157.9782046293355
 30
0.0
 11
624.3567084078711
 21
169.9782046293355
 31
0.0
  0
LINE
  5
212
330
1F
100
AcDbEntity
  8
1
  6
Continuous
 62
     3
100
AcDbLine
 10
622.9133327348968
 20
166.4782046293355
 30
0.0
 11
621.469957061923
 21
163.9782046293355
 31
0.0
  0
LINE
  5
213
330
1F
100
AcDbEntity
  8
1
  6
Continuous
 62
     3
100
AcDbLine
 10
625.8000840808452
 20
166.4782046293355
 30
0.0
 11
622.9133327348968
 21
166.4782046293355
 31
0.0
  0
LINE
  5
214
330
1F
100
AcDbEntity
  8
1
  6
Continuous
 62
     3
100
AcDbLine
 10
627.243459753819
 20
163.9782046293355
 30
0.0
 11
625.8000840808452
 21
166.4782046293355
 31
0.0
  0
LINE
  5
215
330
1F
100
AcDbEntity
  8
1
  6
Continuous
 62
     3
100
AcDbLine
 10
625.8000840808452
 20
161.4782046293355
 30
0.0
 11
627.243459753819
 21
163.9782046293355
 31
0.0
  0
LINE
  5
216
330
1F
100
AcDbEntity
  8
1
  6
Continuous
 62
     3
100
AcDbLine
 10
622.9133327348968
 20
161.4782046293355
 30
0.0
 11
625.8000840808452
 21
161.4782046293355
 31
0.0
  0
LINE
  5
217
330
1F
100
AcDbEntity
  8
1
  6
Continuous
 62
     3
100
AcDbLine
 10
621.469957061923
 20
163.9782046293355
 30
0.0
 11
622.9133327348968
 21
161.4782046293355
 31
0.0
  0
ARC
  5
218
330
1F
100
AcDbEntity
  8
1
  6
Continuous
 62
     3
100
AcDbCircle
 10
519.8796398724246
 20
168.3083316482579
 30
0.0
 40
2.555822748423192
100
AcDbArc
 50
145.6157525319631
 51
-145.6157525319595
  0
ARC
  5
219
330
1F
100
AcDbEntity
  8
1
  6
Continuous
 62
     3
100
AcDbCircle
 10
526.8772351366158
 20
163.9782046293355
 30
0.0
 40
9.553418012614586
100
AcDbArc
 50
162.4120462260047
 51
-162.4120462260065
  0
ARC
  5
21A
330
1F
100
AcDbEntity
  8
1
  6
Continuous
 62
     3
100
AcDbCircle
 10
519.8796398724246
 20
159.6480776104132
 30
0.0
 40
2.555822748423417
100
AcDbArc
 50
145.6157525319558
 51
-145.6157525319653
  0
ARC
  5
21B
330
1F
100
AcDbEntity
  8
1
  6
Continuous
 62
     3
100
AcDbCircle
 10
155.5853397430562
 20
363.3767823487322
 30
0.0
 40
2.555822748423124
100
AcDbArc
 50
145.6157525319575
 51
-145.6157525319554
  0
ARC
  5
21C
330
1F
100
AcDbEntity
  8
1
  6
Continuous
 62
     3
100
AcDbCircle
 10
162.582935007248
 20
359.04665532981
 30
0.0
 40
9.553418012614879
100
AcDbArc
 50
162.412046226007
 51
-162.4120462260067
  0
ARC
  5
21D
330
1F
100
AcDbEntity
  8
1
  6
Continuous
 62
     3
100
AcDbCircle
 10
155.5853397430562
 20
354.7165283108878
 30
0.0
 40
2.555822748423156
100
AcDbArc
 50
145.6157525319564
 51
-145.6157525319575
  0
ARC
  5
21E
330
1F
100
AcDbEntity
  8
1
  6
Continuous
 62
     3
100
AcDbCircle
 10
173.5736942462099
 20
354.7165283108878
 30
0.0
 40
2.555822748423124
100
AcDbArc
 50
-34.38424746804253
 51
34.38424746804359
  0
ARC
  5
21F
330
1F
100
AcDbEntity
  8
1
  6
Continuous
 62
     3
100
AcDbCircle
 10
166.5760989820181
 20
359.04665532981
 30
0.0
 40
9.553418012614896
100
AcDbArc
 50
-17.5879537739933
 51
17.58795377399298
  0
ARC
  5
220
330
1F
100
AcDbEntity
  8
1
  6
Continuous
 62
     3
100
AcDbCircle
 10
173.5736942462099
 20
363.3767823487322
 30
0.0
 40
2.555822748423188
100
AcDbArc
 50
-34.38424746804463
 51
34.38424746804253
  0
ARC
  5
221
330
1F
100
AcDbEntity
  8
1
  6
Continuous
 62
     3
100
AcDbCircle
 10
520.3796398724245
 20
354.7165283108878
 30
0.0
 40
2.555822748423133
100
AcDbArc
 50
145.6157525319561
 51
-145.6157525319592
  0
ARC
  5
222
330
1F
100
AcDbEntity
  8
1
  6
Continuous
 62
     3
100
AcDbCircle
 10
527.3772351366163
 20
359.04665532981
 30
0.0
 40
9.553418012614841
100
AcDbArc
 50
162.4120462260066
 51
-162.4120462260066
  0
ARC
  5
223
330
1F
100
AcDbEntity
  8
1
  6
Continuous
 62
     3
100
AcDbCircle
 10
520.3796398724245
 20
363.3767823487321
 30
0.0
 40
2.555822748423133
100
AcDbArc
 50
145.6157525319561
 51
-145.6157525319582
  0
ARC
  5
224
330
1F
100
AcDbEntity
  8
1
  6
Continuous
 62
     3
100
AcDbCircle
 10
532.2641419248291
 20
363.3767823487321
 30
0.0
 40
2.555822748423163
100
AcDbArc
 50
-34.3842474680404
 51
34.3842474680425
  0
ARC
  5
225
330
1F
100
AcDbEntity
  8
1
  6
Continuous
 62
     3
100
AcDbCircle
 10
525.2665466606375
 20
359.04665532981
 30
0.0
 40
9.553418012614841
100
AcDbArc
 50
-17.58795377399341
 51
17.58795377399341
  0
ARC
  5
226
330
1F
100
AcDbEntity
  8
1
  6
Continuous
 62
     3
100
AcDbCircle
 10
532.2641419248291
 20
354.7165283108878
 30
0.0
 40
2.55582274842313
100
AcDbArc
 50
-34.38424746803935
 51
34.3842474680425
  0
ARC
  5
227
330
1F
100
AcDbEntity
  8
1
  6
Continuous
 62
     7
100
AcDbCircle
 10
519.1539441429235
 20
409.9908325813869
 30
0.0
 40
2.555822748423212
100
AcDbArc
 50
55.61575253195573
 51
124.3842474680401
  0
ARC
  5
228
330
1F
100
AcDbEntity
  8
1
  6
Continuous
 62
     7
100
AcDbCircle
 10
514.8238171240014
 20
402.993237317195
 30
0.0
 40
9.553418012615023
100
AcDbArc
 50
72.4120462260066
 51
107.5879537739924
  0
ARC
  5
229
330
1F
100
AcDbEntity
  8
1
  6
Continuous
 62
     7
100
AcDbCircle
 10
510.4936901050792
 20
409.9908325813868
 30
0.0
 40
2.555822748423259
100
AcDbArc
 50
55.61575253195645
 51
124.3842474680404
  0
ARC
  5
22A
330
1F
100
AcDbEntity
  8
1
  6
Continuous
 62
     3
100
AcDbCircle
 10
153.5853397430578
 20
159.6480776104132
 30
0.0
 40
2.555822748423323
100
AcDbArc
 50
145.6157525319544
 51
-145.6157525319638
  0
ARC
  5
22B
330
1F
100
AcDbEntity
  8
1
  6
Continuous
 62
     3
100
AcDbCircle
 10
160.582935007249
 20
163.9782046293355
 30
0.0
 40
9.553418012614477
100
AcDbArc
 50
162.4120462260045
 51
-162.4120462260063
  0
ARC
  5
22C
330
1F
100
AcDbEntity
  8
1
  6
Continuous
 62
     3
100
AcDbCircle
 10
153.5853397430578
 20
168.3083316482579
 30
0.0
 40
2.555822748423098
100
AcDbArc
 50
145.6157525319617
 51
-145.615752531958
  0
ARC
  5
22D
330
1F
100
AcDbEntity
  8
1
  6
Continuous
 62
     7
100
AcDbCircle
 10
498.2284425411171
 20
207.9775444575557
 30
0.0
 40
4.0
100
AcDbArc
 50
-90.0
 51
51.31781254651154
  0
ARC
  5
22E
330
1F
100
AcDbEntity
  8
1
  6
Continuous
 62
     7
100
AcDbCircle
 10
498.2284425411171
 20
225.9775444575557
 30
0.0
 40
4.0
100
AcDbArc
 50
0.0
 51
90.0
  0
ARC
  5
22F
330
1F
100
AcDbEntity
  8
1
  6
Continuous
 62
     7
100
AcDbCircle
 10
498.2284425411171
 20
225.9775444575557
 30
0.0
 40
4.0
100
AcDbArc
 50
180.0
 51
0.0
  0
ARC
  5
230
330
1F
100
AcDbEntity
  8
1
  6
Continuous
 62
     7
100
AcDbCircle
 10
498.2284425411171
 20
225.9775444575557
 30
0.0
 40
4.0
100
AcDbArc
 50
90.0
 51
180.0
  0
ARC
  5
231
330
1F
100
AcDbEntity
  8
1
  6
Continuous
 62
     7
100
AcDbCircle
 10
498.2284425411171
 20
207.9775444575557
 30
0.0
 40
4.0
100
AcDbArc
 50
90.0
 51
-90.0
  0
ARC
  5
232
330
1F
100
AcDbEntity
  8
1
  6
Continuous
 62
     7
100
AcDbCircle
 10
498.2284425411171
 20
207.9775444575557
 30
0.0
 40
4.0
100
AcDbArc
 50
-90.0
 51
90.0
  0
ARC
  5
233
330
1F
100
AcDbEntity
  8
1
  6
Continuous
 62
     7
100
AcDbCircle
 10
498.2284425411171
 20
225.9775444575557
 30
0.0
 40
4.0
100
AcDbArc
 50
0.0
 51
90.0
  0
ARC
  5
234
330
1F
100
AcDbEntity
  8
1
  6
Continuous
 62
     7
100
AcDbCircle
 10
498.2284425411171
 20
225.9775444575557
 30
0.0
 40
3.999999999999996
100
AcDbArc
 50
-51.31781254651052
 51
0.0
  0
ARC
  5
235
330
1F
100
AcDbEntity
  8
1
  6
Continuous
 62
     7
100
AcDbCircle
 10
646.9557891720082
 20
407.9908325813868
 30
0.0
 40
2.555822748423259
100
AcDbArc
 50
55.61575253195645
 51
124.3842474680394
  0
ARC
  5
236
330
1F
100
AcDbEntity
  8
1
  6
Continuous
 62
     7
100
AcDbCircle
 10
651.2859161909304
 20
400.993237317195
 30
0.0
 40
9.553418012615056
100
AcDbArc
 50
72.41204622600593
 51
107.5879537739928
  0
ARC
  5
237
330
1F
100
AcDbEntity
  8
1
  6
Continuous
 62
     7
100
AcDbCircle
 10
655.6160432098525
 20
407.9908325813869
 30
0.0
 40
2.555822748423212
100
AcDbArc
 50
55.61575253195573
 51
124.384247468038
  0
ARC
  5
238
330
1F
100
AcDbEntity
  8
1
  6
Continuous
 62
     7
100
AcDbCircle
 10
263.465831842576
 20
218.4782046293355
 30
0.0
 40
7.0
100
AcDbArc
 50
90.0
 51
-90.0
  0
ARC
  5
239
330
1F
100
AcDbEntity
  8
1
  6
Continuous
 62
     7
100
AcDbCircle
 10
263.465831842576
 20
163.9782046293355
 30
0.0
 40
7.0
100
AcDbArc
 50
90.0
 51
-90.0
  0
ARC
  5
23A
330
1F
100
AcDbEntity
  8
1
  6
DASHED
 62
     4
100
AcDbCircle
 10
636.3567084078711
 20
242.9175444575557
 30
0.0
 40
4.0
100
AcDbArc
 50
180.0
 51
0.0
  0
ARC
  5
23B
330
1F
100
AcDbEntity
  8
1
  6
Continuous
 62
     7
100
AcDbCircle
 10
624.3567084078711
 20
163.9782046293355
 30
0.0
 40
7.0
100
AcDbArc
 50
90.0
 51
-90.0
  0
CIRCLE
  5
23C
330
1F
100
AcDbEntity
  8
1
  6
Continuous
 62
     3
100
AcDbCircle
 10
175.029516994633
 20
226.4782046293355
 30
0.0
 40
3.10000000000008
  0
CIRCLE
  5
23D
330
1F
100
AcDbEntity
  8
1
  6
Continuous
 62
     3
100
AcDbCircle
 10
175.029516994633
 20
210.4782046293355
 30
0.0
 40
5.10000000000008
  0
CIRCLE
  5
23E
330
1F
100
AcDbEntity
  8
1
  6
Continuous
 62
     3
100
AcDbCircle
 10
175.029516994633
 20
210.4782046293355
 30
0.0
 40
3.10000000000008
  0
CIRCLE
  5
23F
330
1F
100
AcDbEntity
  8
1
  6
Continuous
 62
     3
100
AcDbCircle
 10
175.029516994633
 20
171.9782046293355
 30
0.0
 40
3.10000000000008
  0
CIRCLE
  5
240
330
1F
100
AcDbEntity
  8
1
  6
Continuous
 62
     3
100
AcDbCircle
 10
175.029516994633
 20
155.9782046293355
 30
0.0
 40
5.10000000000008
  0
CIRCLE
  5
241
330
1F
100
AcDbEntity
  8
1
  6
Continuous
 62
     3
100
AcDbCircle
 10
175.029516994633
 20
155.9782046293355
 30
0.0
 40
3.10000000000008
  0
CIRCLE
  5
242
330
1F
100
AcDbEntity
  8
1
  6
Continuous
 62
     3
100
AcDbCircle
 10
541.3238171240014
 20
171.9782046293355
 30
0.0
 40
3.100000000000136
  0
CIRCLE
  5
243
330
1F
100
AcDbEntity
  8
1
  6
Continuous
 62
     3
100
AcDbCircle
 10
541.3238171240014
 20
155.9782046293355
 30
0.0
 40
5.100000000000136
  0
CIRCLE
  5
244
330
1F
100
AcDbEntity
  8
1
  6
Continuous
 62
     3
100
AcDbCircle
 10
541.3238171240014
 20
155.9782046293355
 30
0.0
 40
3.100000000000136
  0
CIRCLE
  5
245
330
1F
100
AcDbEntity
  8
1
  6
Continuous
 62
     3
100
AcDbCircle
 10
651.2859161909304
 20
359.04665532981
 30
0.0
 40
5.0
  0
CIRCLE
  5
246
330
1F
100
AcDbEntity
  8
1
  6
Continuous
 62
     3
100
AcDbCircle
 10
281.916243867627
 20
409.04665532981
 30
0.0
 40
5.0
  0
CIRCLE
  5
247
330
1F
100
AcDbEntity
  8
1
  6
Continuous
 62
     3
100
AcDbCircle
 10
281.916243867627
 20
409.04665532981
 30
0.0
 40
2.0
  0
CIRCLE
  5
248
330
1F
100
AcDbEntity
  8
1
  6
Continuous
 62
     3
100
AcDbCircle
 10
294.4162438676271
 20
359.04665532981
 30
0.0
 40
5.0
  0
CIRCLE
  5
249
330
1F
100
AcDbEntity
  8
1
  6
Continuous
 62
     3
100
AcDbCircle
 10
269.4162438676271
 20
359.04665532981
 30
0.0
 40
5.0
  0
CIRCLE
  5
24A
330
1F
100
AcDbEntity
  8
1
  6
Continuous
 62
     7
100
AcDbCircle
 10
281.916243867627
 20
409.04665532981
 30
0.0
 40
5.099999999999966
  0
CIRCLE
  5
24B
330
1F
100
AcDbEntity
  8
1
  6
Continuous
 62
     3
100
AcDbCircle
 10
288.465831842576
 20
163.9782046293355
 30
0.0
 40
3.5
  0
CIRCLE
  5
24C
330
1F
100
AcDbEntity
  8
1
  6
Continuous
 62
     7
100
AcDbCircle
 10
263.465831842576
 20
218.4782046293355
 30
0.0
 40
4.050000000000182
  0
CIRCLE
  5
24D
330
1F
100
AcDbEntity
  8
1
  6
Continuous
 62
     3
100
AcDbCircle
 10
263.465831842576
 20
163.9782046293355
 30
0.0
 40
5.0
  0
CIRCLE
  5
24E
330
1F
100
AcDbEntity
  8
1
  6
Continuous
 62
     3
100
AcDbCircle
 10
263.465831842576
 20
163.9782046293355
 30
0.0
 40
4.307179676972282
  0
CIRCLE
  5
24F
330
1F
100
AcDbEntity
  8
1
  6
Continuous
 62
     3
100
AcDbCircle
 10
649.3567084078711
 20
163.9782046293355
 30
0.0
 40
3.5
  0
CIRCLE
  5
250
330
1F
100
AcDbEntity
  8
1
  6
Continuous
 62
     3
100
AcDbCircle
 10
624.3567084078711
 20
163.9782046293355
 30
0.0
 40
4.307179676972282
  0
CIRCLE
  5
251
330
1F
100
AcDbEntity
  8
1
  6
Continuous
 62
     3
100
AcDbCircle
 10
624.3567084078711
 20
163.9782046293355
 30
0.0
 40
5.0
  0
SPLINE
  5
252
330
1F
100
AcDbEntity
  8
1
  6
Continuous
 62
     3
100
AcDbSpline
210
0.0
220
0.0
230
1.0
 70
     8
 71
     3
 72
    11
 73
     7
 74
     5
 42
0.0000000001
 43
0.0000000001
 44
0.00000001
 40
0.0
 40
0.0
 40
0.0
 40
0.0
 40
13.15615278926919
 40
26.26624992981846
 40
39.07939684049492
 40
52.16327851555332
 40
52.16327851555332
 40
52.16327851555332
 40
52.16327851555332
 10
333.345921352018
 20
389.04665532981
 30
0.0
 10
331.7769888180611
 20
384.7095852613805
 30
0.0
 10
328.644616100898
 20
376.0506278742773
 30
0.0
 10
338.3300997250177
 20
363.4968172181414
 30
0.0
 10
327.0223667058671
 20
351.7680187836443
 30
0.0
 10
331.223430106881
 20
343.3165611134825
 30
0.0
 10
333.345921352018
 20
339.04665532981
 30
0.0
 11
333.345921352018
 21
389.04665532981
 31
0.0
 11
331.0581423191997
 21
376.0909452639127
 31
0.0
 11
334.838472370748
 21
363.5377085603371
 31
0.0
 11
329.9670497443145
 21
351.6867180806663
 31
0.0
 11
333.345921352018
 21
339.04665532981
 31
0.0
  0
SPLINE
  5
253
330
1F
100
AcDbEntity
  8
1
  6
Continuous
 62
     3
100
AcDbSpline
210
0.0
220
0.0
230
1.0
 70
     8
 71
     3
 72
    11
 73
     7
 74
     5
 42
0.0000000001
 43
0.0000000001
 44
0.00000001
 40
0.0
 40
0.0
 40
0.0
 40
0.0
 40
13.15615278926918
 40
26.26624992981844
 40
39.07939684049492
 40
52.16327851555334
 40
52.16327851555334
 40
52.16327851555334
 40
52.16327851555334
 10
228.848214771458
 20
389.04665532981
 30
0.0
 10
227.2792822375011
 20
384.7095852613805
 30
0.0
 10
224.146909520338
 20
376.0506278742772
 30
0.0
 10
233.8323931444578
 20
363.4968172181415
 30
0.0
 10
222.5246601253069
 20
351.7680187836444
 30
0.0
 10
226.725723526321
 20
343.3165611134825
 30
0.0
 10
228.848214771458
 20
339.04665532981
 30
0.0
 11
228.848214771458
 21
389.04665532981
 31
0.0
 11
226.5604357386397
 21
376.0909452639127
 31
0.0
 11
230.340765790188
 21
363.5377085603371
 31
0.0
 11
225.4693431637544
 21
351.6867180806663
 31
0.0
 11
228.848214771458
 21
339.04665532981
 31
0.0
  0
SPLINE
  5
254
330
1F
100
AcDbEntity
  8
1
  6
Continuous
 62
     3
100
AcDbSpline
210
0.0
220
0.0
230
1.0
 70
     8
 71
     3
 72
    11
 73
     7
 74
     5
 42
0.0000000001
 43
0.0000000001
 44
0.00000001
 40
0.0
 40
0.0
 40
0.0
 40
0.0
 40
13.15615278926918
 40
26.26624992981846
 40
39.07939684049493
 40
52.16327851555334
 40
52.16327851555334
 40
52.16327851555334
 40
52.16327851555334
 10
602.7735311494989
 20
389.04665532981
 30
0.0
 10
601.204598615542
 20
384.7095852613805
 30
0.0
 10
598.072225898379
 20
376.0506278742773
 30
0.0
 10
607.7577095224988
 20
363.4968172181414
 30
0.0
 10
596.4499765033479
 20
351.7680187836444
 30
0.0
 10
600.6510399043619
 20
343.3165611134825
 30
0.0
 10
602.7735311494989
 20
339.04665532981
 30
0.0
 11
602.7735311494989
 21
389.04665532981
 31
0.0
 11
600.4857521166806
 21
376.0909452639127
 31
0.0
 11
604.266082168229
 21
363.5377085603371
 31
0.0
 11
599.3946595417954
 21
351.6867180806663
 31
0.0
 11
602.7735311494989
 21
339.04665532981
 31
0.0
  0
SPLINE
  5
255
330
1F
100
AcDbEntity
  8
1
  6
Continuous
 62
     3
100
AcDbSpline
210
0.0
220
0.0
230
1.0
 70
     8
 71
     3
 72
    11
 73
     7
 74
     5
 42
0.0000000001
 43
0.0000000001
 44
0.00000001
 40
0.0
 40
0.0
 40
0.0
 40
0.0
 40
13.15615278926918
 40
26.26624992981842
 40
39.07939684049485
 40
52.16327851555326
 40
52.16327851555326
 40
52.16327851555326
 40
52.16327851555326
 10
700.7777806078098
 20
389.04665532981
 30
0.0
 10
699.2088480738528
 20
384.7095852613805
 30
0.0
 10
696.0764753566898
 20
376.0506278742773
 30
0.0
 10
705.7619589808094
 20
363.4968172181414
 30
0.0
 10
694.454225961659
 20
351.7680187836444
 30
0.0
 10
698.6552893626727
 20
343.3165611134825
 30
0.0
 10
700.7777806078098
 20
339.04665532981
 30
0.0
 11
700.7777806078098
 21
389.04665532981
 31
0.0
 11
698.4900015749914
 21
376.0909452639127
 31
0.0
 11
702.2703316265397
 21
363.5377085603371
 31
0.0
 11
697.3989090001062
 21
351.6867180806663
 31
0.0
 11
700.7777806078098
 21
339.04665532981
 31
0.0
  0
SPLINE
  5
256
330
1F
100
AcDbEntity
  8
1
  6
Continuous
 62
     3
100
AcDbSpline
210
0.0
220
0.0
230
1.0
 70
     8
 71
     3
 72
    12
 73
     8
 74
     6
 42
0.0000000001
 43
0.0000000001
 44
0.00000001
 40
0.0
 40
0.0
 40
0.0
 40
0.0
 40
7.253774312082271
 40
13.48549873657001
 40
19.54452901339636
 40
26.24310449934059
 40
32.88569389525785
 40
32.88569389525785
 40
32.88569389525785
 40
32.88569389525785
 10
694.8589035763984
 20
419.0466553298099
 30
0.0
 10
696.8675407344466
 20
417.0873883942606
 30
0.0
 10
700.6017999892415
 20
413.4449133671643
 30
0.0
 10
696.1448653806974
 20
407.4835521126654
 30
0.0
 10
692.2553146194615
 20
401.7075903249914
 30
0.0
 10
697.3256835835784
 20
395.7410592247215
 30
0.0
 10
695.9305627283593
 20
391.271871658344
 30
0.0
 10
695.2359296074164
 20
389.04665532981
 30
0.0
 11
694.8589035763984
 21
419.0466553298099
 31
0.0
 11
698.9146219176562
 21
413.0326391586469
 31
0.0
 11
696.1788251532839
 21
407.4335494677412
 31
0.0
 11
693.7278254833445
 21
401.8923899759511
 31
0.0
 11
696.1095703774189
 21
395.6315430044588
 31
0.0
 11
695.2359296074164
 21
389.04665532981
 31
0.0
  0
SPLINE
  5
257
330
1F
100
AcDbEntity
  8
1
  6
Continuous
 62
     3
100
AcDbSpline
210
0.0
220
0.0
230
1.0
 70
     8
 71
     3
 72
    12
 73
     8
 74
     6
 42
0.0000000001
 43
0.0000000001
 44
0.00000001
 40
0.0
 40
0.0
 40
0.0
 40
0.0
 40
7.253774312082271
 40
13.4854987365701
 40
19.54452901339642
 40
26.24310449934068
 40
32.88569389525794
 40
32.88569389525794
 40
32.88569389525794
 40
32.88569389525794
 10
606.5091369744894
 20
419.0466553298099
 30
0.0
 10
608.5177741325375
 20
417.0873883942606
 30
0.0
 10
612.2520333873325
 20
413.4449133671642
 30
0.0
 10
607.7950987787882
 20
407.4835521126655
 30
0.0
 10
603.9055480175528
 20
401.7075903249914
 30
0.0
 10
608.9759169816693
 20
395.7410592247215
 30
0.0
 10
607.5807961264503
 20
391.271871658344
 30
0.0
 10
606.8861630055075
 20
389.04665532981
 30
0.0
 11
606.5091369744894
 21
419.0466553298099
 31
0.0
 11
610.5648553157472
 21
413.0326391586469
 31
0.0
 11
607.8290585513747
 21
407.4335494677412
 31
0.0
 11
605.3780588814354
 21
401.8923899759511
 31
0.0
 11
607.7598037755099
 21
395.6315430044588
 31
0.0
 11
606.8861630055075
 21
389.04665532981
 31
0.0
  0
SPLINE
  5
258
330
1F
100
AcDbEntity
  8
1
  6
Continuous
 62
     3
100
AcDbSpline
210
0.0
220
0.0
230
1.0
 70
     8
 71
     3
 72
     9
 73
     5
 74
     3
 42
0.0000000001
 43
0.0000000001
 44
0.00000001
 40
0.0
 40
0.0
 40
0.0
 40
0.0
 40
15.78427780756529
 40
32.11946094548259
 40
32.11946094548259
 40
32.11946094548259
 40
32.11946094548259
 10
228.024736223962
 20
425.04665532981
 30
0.0
 10
227.5664365571836
 20
419.7847678033716
 30
0.0
 10
226.633841577047
 20
409.0773415298708
 30
0.0
 10
228.2575283361701
 20
398.4509710534744
 30
0.0
 10
229.08329625967
 20
393.04665532981
 30
0.0
 11
228.024736223962
 21
425.04665532981
 31
0.0
 11
227.2671732948194
 21
409.2805675362327
 31
0.0
 11
229.08329625967
 21
393.04665532981
 31
0.0
  0
SPLINE
  5
259
330
1F
100
AcDbEntity
  8
1
  6
Continuous
 62
     3
100
AcDbSpline
210
0.0
220
0.0
230
1.0
 70
     8
 71
     3
 72
     9
 73
     5
 74
     3
 42
0.0000000001
 43
0.0000000001
 44
0.00000001
 40
0.0
 40
0.0
 40
0.0
 40
0.0
 40
15.78427780756529
 40
32.11946094548259
 40
32.11946094548259
 40
32.11946094548259
 40
32.11946094548259
 10
331.855353450231
 20
425.04665532981
 30
0.0
 10
331.3970537834526
 20
419.7847678033716
 30
0.0
 10
330.4644588033159
 20
409.0773415298708
 30
0.0
 10
332.0881455624391
 20
398.4509710534744
 30
0.0
 10
332.913913485939
 20
393.04665532981
 30
0.0
 11
331.855353450231
 21
425.04665532981
 31
0.0
 11
331.0977905210884
 21
409.2805675362327
 31
0.0
 11
332.913913485939
 21
393.04665532981
 31
0.0
  0
SPLINE
  5
25A
330
1F
100
AcDbEntity
  8
1
  6
Continuous
 62
     7
100
AcDbSpline
210
0.0
220
0.0
230
1.0
 70
     8
 71
     3
 72
    12
 73
     8
 74
     6
 42
0.0000000001
 43
0.0000000001
 44
0.00000001
 40
0.0
 40
0.0
 40
0.0
 40
0.0
 40
2.898391707573589
 40
4.298565139239913
 40
6.705554025116149
 40
9.195235830749173
 40
11.55557680384679
 40
11.55557680384679
 40
11.55557680384679
 40
11.55557680384679
 10
665.3567084078711
 20
229.9175444575557
 30
0.0
 10
666.6524107838408
 20
229.6864708653013
 30
0.0
 10
668.574049273773
 20
229.3437687779098
 30
0.0
 10
667.2163630405828
 20
226.9187254546444
 30
0.0
 10
665.4901395721274
 20
226.1244031368899
 30
0.0
 10
663.3622423158691
 20
223.8762041058707
 30
0.0
 10
664.7038120771953
 20
222.5587194078623
 30
0.0
 10
665.3567084078711
 20
221.9175444575557
 30
0.0
 11
665.3567084078711
 21
229.9175444575557
 31
0.0
 11
667.9744725499212
 21
228.6733638488304
 31
0.0
 11
667.3833090791645
 21
227.404107614027
 31
0.0
 11
665.4902360540137
 21
225.9175444575556
 31
0.0
 11
664.0525823558619
 21
223.8848941340886
 31
0.0
 11
665.3567084078711
 21
221.9175444575557
 31
0.0
  0
SPLINE
  5
25B
330
1F
100
AcDbEntity
  8
1
  6
Continuous
 62
     7
100
AcDbSpline
210
0.0
220
0.0
230
1.0
 70
     8
 71
     3
 72
     9
 73
     5
 74
     3
 42
0.0000000001
 43
0.0000000001
 44
0.00000001
 40
0.0
 40
0.0
 40
0.0
 40
0.0
 40
2.564157932693239
 40
5.233074062469765
 40
5.233074062469765
 40
5.233074062469765
 40
5.233074062469765
 10
665.3567084078711
 20
221.9175444575557
 30
0.0
 10
666.20915670207
 20
222.5291010515567
 30
0.0
 10
667.9488799075293
 20
223.777199270857
 30
0.0
 10
666.3206489093045
 20
225.1946377399955
 30
0.0
 10
665.4902360540136
 20
225.9175444575557
 30
0.0
 11
665.3567084078711
 21
221.9175444575557
 31
0.0
 11
667.1054379860946
 21
223.7928713000128
 31
0.0
 11
665.4902360540136
 21
225.9175444575557
 31
0.0
  0
SPLINE
  5
25C
330
1F
100
AcDbEntity
  8
1
  6
Continuous
 62
     7
100
AcDbSpline
210
0.0
220
0.0
230
1.0
 70
     8
 71
     3
 72
    12
 73
     8
 74
     6
 42
0.0000000001
 43
0.0000000001
 44
0.00000001
 40
0.0
 40
0.0
 40
0.0
 40
0.0
 40
2.898391707573619
 40
4.298565139239843
 40
6.705554025116149
 40
9.195235830749308
 40
11.55557680384688
 40
11.55557680384688
 40
11.55557680384688
 40
11.55557680384688
 10
607.3567084078711
 20
221.9175444575557
 30
0.0
 10
606.0610060319012
 20
222.14861804981
 30
0.0
 10
604.139367541969
 20
222.4913201372013
 30
0.0
 10
605.4970537751593
 20
224.9163634604668
 30
0.0
 10
607.2232772436142
 20
225.7106857782213
 30
0.0
 10
609.3511744998732
 20
227.9588848092407
 30
0.0
 10
608.0096047385468
 20
229.2763695072491
 30
0.0
 10
607.3567084078711
 20
229.9175444575557
 30
0.0
 11
607.3567084078711
 21
221.9175444575557
 31
0.0
 11
604.7389442658209
 21
223.1617250662809
 31
0.0
 11
605.3301077365775
 21
224.4309813010842
 31
0.0
 11
607.2231807617283
 21
225.9175444575557
 31
0.0
 11
608.6608344598802
 21
227.9501947810227
 31
0.0
 11
607.3567084078711
 21
229.9175444575557
 31
0.0
  0
SPLINE
  5
25D
330
1F
100
AcDbEntity
  8
1
  6
Continuous
 62
     7
100
AcDbSpline
210
0.0
220
0.0
230
1.0
 70
     8
 71
     3
 72
     9
 73
     5
 74
     3
 42
0.0000000001
 43
0.0000000001
 44
0.00000001
 40
0.0
 40
0.0
 40
0.0
 40
0.0
 40
2.564157932693436
 40
5.233074062469917
 40
5.233074062469917
 40
5.233074062469917
 40
5.233074062469917
 10
607.3567084078711
 20
229.9175444575557
 30
0.0
 10
606.5042601136721
 20
229.3059878635546
 30
0.0
 10
604.7645369082129
 20
228.0578896442544
 30
0.0
 10
606.3927679064375
 20
226.6404511751159
 30
0.0
 10
607.2231807617284
 20
225.9175444575557
 30
0.0
 11
607.3567084078711
 21
229.9175444575557
 31
0.0
 11
605.6079788296474
 21
228.0422176150985
 31
0.0
 11
607.2231807617284
 21
225.9175444575557
 31
0.0
  0
SPLINE
  5
25E
330
1F
100
AcDbEntity
  8
1
  6
Continuous
 62
     7
100
AcDbSpline
210
0.0
220
0.0
230
1.0
 70
     8
 71
     3
 72
    12
 73
     8
 74
     6
 42
0.0000000001
 43
0.0000000001
 44
0.00000001
 40
0.0
 40
0.0
 40
0.0
 40
0.0
 40
2.89839170757354
 40
4.298565139239864
 40
6.705554025116136
 40
9.19523583074923
 40
11.55557680384682
 40
11.55557680384682
 40
11.55557680384682
 40
11.55557680384682
 10
665.3567084078711
 20
203.9175444575557
 30
0.0
 10
666.6524107838409
 20
204.14861804981
 30
0.0
 10
668.5740492737733
 20
204.4913201372015
 30
0.0
 10
667.2163630405825
 20
206.9163634604669
 30
0.0
 10
665.4901395721278
 20
207.7106857782213
 30
0.0
 10
663.362242315869
 20
209.9588848092408
 30
0.0
 10
664.7038120771954
 20
211.2763695072492
 30
0.0
 10
665.3567084078711
 20
211.9175444575557
 30
0.0
 11
665.3567084078711
 21
203.9175444575557
 31
0.0
 11
667.9744725499212
 21
205.1617250662809
 31
0.0
 11
667.3833090791645
 21
206.4309813010843
 31
0.0
 11
665.4902360540137
 21
207.9175444575557
 31
0.0
 11
664.0525823558619
 21
209.9501947810228
 31
0.0
 11
665.3567084078711
 21
211.9175444575557
 31
0.0
  0
SPLINE
  5
25F
330
1F
100
AcDbEntity
  8
1
  6
Continuous
 62
     7
100
AcDbSpline
210
0.0
220
0.0
230
1.0
 70
     8
 71
     3
 72
     9
 73
     5
 74
     3
 42
0.0000000001
 43
0.0000000001
 44
0.00000001
 40
0.0
 40
0.0
 40
0.0
 40
0.0
 40
2.564157932693281
 40
5.233074062469761
 40
5.233074062469761
 40
5.233074062469761
 40
5.233074062469761
 10
665.3567084078711
 20
211.9175444575557
 30
0.0
 10
666.2091567020698
 20
211.3059878635546
 30
0.0
 10
667.9488799075289
 20
210.0578896442543
 30
0.0
 10
666.3206489093046
 20
208.6404511751159
 30
0.0
 10
665.4902360540136
 20
207.9175444575557
 30
0.0
 11
665.3567084078711
 21
211.9175444575557
 31
0.0
 11
667.1054379860946
 21
210.0422176150985
 31
0.0
 11
665.4902360540136
 21
207.9175444575557
 31
0.0
  0
SPLINE
  5
260
330
1F
100
AcDbEntity
  8
1
  6
Continuous
 62
     7
100
AcDbSpline
210
0.0
220
0.0
230
1.0
 70
     8
 71
     3
 72
    12
 73
     8
 74
     6
 42
0.0000000001
 43
0.0000000001
 44
0.00000001
 40
0.0
 40
0.0
 40
0.0
 40
0.0
 40
2.898391707573655
 40
4.298565139239932
 40
6.70555402511615
 40
9.195235830749287
 40
11.55557680384689
 40
11.55557680384689
 40
11.55557680384689
 40
11.55557680384689
 10
607.3567084078711
 20
211.9175444575557
 30
0.0
 10
606.0610060319013
 20
211.6864708653014
 30
0.0
 10
604.139367541969
 20
211.34376877791
 30
0.0
 10
605.4970537751592
 20
208.9187254546444
 30
0.0
 10
607.2232772436145
 20
208.1244031368901
 30
0.0
 10
609.3511744998731
 20
205.8762041058708
 30
0.0
 10
608.0096047385468
 20
204.5587194078623
 30
0.0
 10
607.3567084078711
 20
203.9175444575557
 30
0.0
 11
607.3567084078711
 21
211.9175444575557
 31
0.0
 11
604.7389442658209
 21
210.6733638488304
 31
0.0
 11
605.3301077365775
 21
209.4041076140271
 31
0.0
 11
607.2231807617283
 21
207.9175444575557
 31
0.0
 11
608.6608344598802
 21
205.8848941340887
 31
0.0
 11
607.3567084078711
 21
203.9175444575557
 31
0.0
  0
SPLINE
  5
261
330
1F
100
AcDbEntity
  8
1
  6
Continuous
 62
     7
100
AcDbSpline
210
0.0
220
0.0
230
1.0
 70
     8
 71
     3
 72
     9
 73
     5
 74
     3
 42
0.0000000001
 43
0.0000000001
 44
0.00000001
 40
0.0
 40
0.0
 40
0.0
 40
0.0
 40
2.564157932693394
 40
5.23307406246992
 40
5.23307406246992
 40
5.23307406246992
 40
5.23307406246992
 10
607.3567084078711
 20
203.9175444575557
 30
0.0
 10
606.5042601136722
 20
204.5291010515567
 30
0.0
 10
604.7645369082127
 20
205.7771992708569
 30
0.0
 10
606.3927679064376
 20
207.1946377399955
 30
0.0
 10
607.2231807617284
 20
207.9175444575557
 30
0.0
 11
607.3567084078711
 21
203.9175444575557
 31
0.0
 11
605.6079788296474
 21
205.7928713000128
 31
0.0
 11
607.2231807617284
 21
207.9175444575557
 31
0.0
  0
SPLINE
  5
262
330
1F
100
AcDbEntity
  8
1
  6
Continuous
 62
     3
100
AcDbSpline
210
0.0
220
0.0
230
1.0
 70
     8
 71
     3
 72
     9
 73
     5
 74
     3
 42
0.0000000001
 43
0.0000000001
 44
0.00000001
 40
0.0
 40
0.0
 40
0.0
 40
0.0
 40
25.1453073754412
 40
50.07727369123415
 40
50.07727369123415
 40
50.07727369123415
 40
50.07727369123415
 10
678.392344092245
 20
193.9782046293355
 30
0.0
 10
677.6951453477759
 20
185.6092041209254
 30
0.0
 10
676.306663122338
 20
168.9422084575097
 30
0.0
 10
677.6990944648346
 20
152.2758717233236
 30
0.0
 10
678.392344092245
 20
143.9782046293355
 30
0.0
 11
678.392344092245
 21
193.9782046293355
 31
0.0
 11
677.0019125445404
 21
168.8713692429997
 31
0.0
 11
678.392344092245
 21
143.9782046293355
 31
0.0
  0
SPLINE
  5
263
330
1F
100
AcDbEntity
  8
1
  6
Continuous
 62
     3
100
AcDbSpline
210
0.0
220
0.0
230
1.0
 70
     8
 71
     3
 72
     9
 73
     5
 74
     3
 42
0.0000000001
 43
0.0000000001
 44
0.00000001
 40
0.0
 40
0.0
 40
0.0
 40
0.0
 40
25.1453073754412
 40
50.07727369123415
 40
50.07727369123415
 40
50.07727369123415
 40
50.07727369123415
 10
598.0081891393
 20
193.9782046293355
 30
0.0
 10
597.3109903948309
 20
185.6092041209254
 30
0.0
 10
595.922508169393
 20
168.9422084575097
 30
0.0
 10
597.3149395118895
 20
152.2758717233236
 30
0.0
 10
598.0081891393
 20
143.9782046293355
 30
0.0
 11
598.0081891393
 21
193.9782046293355
 31
0.0
 11
596.6177575915954
 21
168.8713692429997
 31
0.0
 11
598.0081891393
 21
143.9782046293355
 31
0.0
  0
SPLINE
  5
264
330
1F
100
AcDbEntity
  8
1
  6
Continuous
 62
     3
100
AcDbSpline
210
0.0
220
0.0
230
1.0
 70
     8
 71
     3
 72
     9
 73
     5
 74
     3
 42
0.0000000001
 43
0.0000000001
 44
0.00000001
 40
0.0
 40
0.0
 40
0.0
 40
0.0
 40
24.82473873963762
 40
50.00012918475272
 40
50.00012918475272
 40
50.00012918475272
 40
50.00012918475272
 10
313.506831775372
 20
193.9782046293355
 30
0.0
 10
313.5351140416882
 20
185.7033135468041
 30
0.0
 10
313.5920780639193
 20
169.0366477882759
 30
0.0
 10
313.5353797469556
 20
152.3699802177067
 30
0.0
 10
313.506831775372
 20
143.9782046293355
 30
0.0
 11
313.506831775372
 21
193.9782046293355
 31
0.0
 11
313.5636601498765
 21
169.1535309350628
 31
0.0
 11
313.506831775372
 21
143.9782046293355
 31
0.0
  0
SPLINE
  5
265
330
1F
100
AcDbEntity
  8
1
  6
Continuous
 62
     3
100
AcDbSpline
210
0.0
220
0.0
230
1.0
 70
     8
 71
     3
 72
     9
 73
     5
 74
     3
 42
0.0000000001
 43
0.0000000001
 44
0.00000001
 40
0.0
 40
0.0
 40
0.0
 40
0.0
 40
24.82473873963762
 40
50.00012918475272
 40
50.00012918475272
 40
50.00012918475272
 40
50.00012918475272
 10
228.628082347406
 20
193.9782046293355
 30
0.0
 10
228.6563646137221
 20
185.7033135468041
 30
0.0
 10
228.7133286359533
 20
169.0366477882759
 30
0.0
 10
228.6566303189896
 20
152.3699802177067
 30
0.0
 10
228.628082347406
 20
143.9782046293355
 30
0.0
 11
228.628082347406
 21
193.9782046293355
 31
0.0
 11
228.6849107219105
 21
169.1535309350628
 31
0.0
 11
228.628082347406
 21
143.9782046293355
 31
0.0
  0
ARC
  5
266
330
1F
100
AcDbEntity
  8
1
  6
Continuous
 62
     7
100
AcDbCircle
 10
159.029516994633
 20
386.54665532981
 30
0.0
 40
0.5
100
AcDbArc
 50
0.0
 51
90.0
  0
ARC
  5
267
330
1F
100
AcDbEntity
  8
1
  6
Continuous
 62
     7
100
AcDbCircle
 10
159.029516994633
 20
386.54665532981
 30
0.0
 40
2.5
100
AcDbArc
 50
0.0
 51
90.0
  0
ARC
  5
268
330
1F
100
AcDbEntity
  8
1
  6
Continuous
 62
     7
100
AcDbCircle
 10
524.8238171240014
 20
393.0466553298099
 30
0.0
 40
6.0
100
AcDbArc
 50
0.0
 51
90.0
  0
ARC
  5
269
330
1F
100
AcDbEntity
  8
1
  6
Continuous
 62
     7
100
AcDbCircle
 10
524.8238171240014
 20
393.0466553298099
 30
0.0
 40
1.0
100
AcDbArc
 50
0.0
 51
90.0
  0
ARC
  5
26A
330
1F
100
AcDbEntity
  8
1
  6
Continuous
 62
     7
100
AcDbCircle
 10
522.8238171240014
 20
386.0466553298099
 30
0.0
 40
3.0
100
AcDbArc
 50
0.0
 51
90.0
  0
ARC
  5
26B
330
1F
100
AcDbEntity
  8
1
  6
Continuous
 62
     7
100
AcDbCircle
 10
522.8238171240014
 20
386.0466553298099
 30
0.0
 40
1.0
100
AcDbArc
 50
0.0
 51
90.0
  0
ARC
  5
26C
330
1F
100
AcDbEntity
  8
1
  6
Continuous
 62
     7
100
AcDbCircle
 10
507.8238171240014
 20
391.0466553298099
 30
0.0
 40
2.0
100
AcDbArc
 50
180.0
 51
-90.0
  0
ARC
  5
26D
330
1F
100
AcDbEntity
  8
1
  6
Continuous
 62
     7
100
AcDbCircle
 10
507.8238171240014
 20
391.0466553298099
 30
0.0
 40
0.5
100
AcDbArc
 50
180.0
 51
-90.0
  0
ARC
  5
26E
330
1F
100
AcDbEntity
  8
1
  6
Continuous
 62
     7
100
AcDbCircle
 10
156.529516994633
 20
190.9782046293355
 30
0.0
 40
3.0
100
AcDbArc
 50
0.0
 51
90.0
  0
ARC
  5
26F
330
1F
100
AcDbEntity
  8
1
  6
Continuous
 62
     7
100
AcDbCircle
 10
156.529516994633
 20
190.9782046293355
 30
0.0
 40
1.0
100
AcDbArc
 50
0.0
 51
90.0
  0
ARC
  5
270
330
1F
100
AcDbEntity
  8
1
  6
Continuous
 62
     7
100
AcDbCircle
 10
215.0295169946332
 20
218.9782046293355
 30
0.0
 40
3.535533905932738
100
AcDbArc
 50
8.13010235415598
 51
98.13010235415663
  0
ARC
  5
271
330
1F
100
AcDbEntity
  8
1
  6
Continuous
 62
     7
100
AcDbCircle
 10
215.0295169946332
 20
217.9782046293355
 30
0.0
 40
3.535533905932738
100
AcDbArc
 50
-98.13010235415598
 51
-8.13010235415598
  0
ARC
  5
272
330
1F
100
AcDbEntity
  8
1
  6
Continuous
 62
     7
100
AcDbCircle
 10
168.0795169946332
 20
240.9782046293355
 30
0.0
 40
3.0
100
AcDbArc
 50
0.0
 51
90.0
  0
ARC
  5
273
330
1F
100
AcDbEntity
  8
1
  6
Continuous
 62
     7
100
AcDbCircle
 10
165.9795169946328
 20
240.9782046293355
 30
0.0
 40
3.0
100
AcDbArc
 50
90.0
 51
180.0
  0
ARC
  5
274
330
1F
100
AcDbEntity
  8
1
  6
Continuous
 62
     7
100
AcDbCircle
 10
168.0295169946332
 20
136.9282046293356
 30
0.0
 40
2.950423698386488
100
AcDbArc
 50
-89.02897806892119
 51
0.97102193107718
  0
ARC
  5
275
330
1F
100
AcDbEntity
  8
1
  6
Continuous
 62
     7
100
AcDbCircle
 10
165.9795169946328
 20
136.9782046293355
 30
0.0
 40
3.0
100
AcDbArc
 50
180.0
 51
-90.0
  0
ARC
  5
276
330
1F
100
AcDbEntity
  8
1
  6
Continuous
 62
     7
100
AcDbCircle
 10
161.529516994633
 20
233.4782046293355
 30
0.0
 40
2.0
100
AcDbArc
 50
90.0
 51
180.0
  0
ARC
  5
277
330
1F
100
AcDbEntity
  8
1
  6
Continuous
 62
     7
100
AcDbCircle
 10
176.529516994633
 20
209.4782046293355
 30
0.0
 40
8.0
100
AcDbArc
 50
-90.0
 51
0.0
  0
ARC
  5
278
330
1F
100
AcDbEntity
  8
1
  6
Continuous
 62
     7
100
AcDbCircle
 10
176.529516994633
 20
227.4782046293355
 30
0.0
 40
8.0
100
AcDbArc
 50
0.0
 51
90.0
  0
ARC
  5
279
330
1F
100
AcDbEntity
  8
1
  6
Continuous
 62
     7
100
AcDbCircle
 10
165.029516994633
 20
227.4782046293355
 30
0.0
 40
2.0
100
AcDbArc
 50
-90.0
 51
0.0
  0
ARC
  5
27A
330
1F
100
AcDbEntity
  8
1
  6
Continuous
 62
     7
100
AcDbCircle
 10
165.029516994633
 20
209.4782046293355
 30
0.0
 40
2.0
100
AcDbArc
 50
0.0
 51
90.0
  0
ARC
  5
27B
330
1F
100
AcDbEntity
  8
1
  6
Continuous
 62
     7
100
AcDbCircle
 10
169.029516994633
 20
233.4782046293355
 30
0.0
 40
2.0
100
AcDbArc
 50
90.0
 51
180.0
  0
ARC
  5
27C
330
1F
100
AcDbEntity
  8
1
  6
Continuous
 62
     7
100
AcDbCircle
 10
161.529516994633
 20
223.4782046293354
 30
0.0
 40
2.0
100
AcDbArc
 50
90.0
 51
180.0
  0
ARC
  5
27D
330
1F
100
AcDbEntity
  8
1
  6
Continuous
 62
     7
100
AcDbCircle
 10
161.529516994633
 20
213.4782046293354
 30
0.0
 40
2.0
100
AcDbArc
 50
180.0
 51
-90.0
  0
ARC
  5
27E
330
1F
100
AcDbEntity
  8
1
  6
Continuous
 62
     7
100
AcDbCircle
 10
169.029516994633
 20
203.4782046293355
 30
0.0
 40
2.0
100
AcDbArc
 50
180.0
 51
-90.0
  0
ARC
  5
27F
330
1F
100
AcDbEntity
  8
1
  6
Continuous
 62
     7
100
AcDbCircle
 10
161.529516994633
 20
203.4782046293354
 30
0.0
 40
2.0
100
AcDbArc
 50
180.0
 51
-90.0
  0
ARC
  5
280
330
1F
100
AcDbEntity
  8
1
  6
Continuous
 62
     7
100
AcDbCircle
 10
161.529516994633
 20
178.9782046293355
 30
0.0
 40
2.0
100
AcDbArc
 50
90.0
 51
180.0
  0
ARC
  5
281
330
1F
100
AcDbEntity
  8
1
  6
Continuous
 62
     7
100
AcDbCircle
 10
176.529516994633
 20
154.9782046293355
 30
0.0
 40
8.0
100
AcDbArc
 50
-90.0
 51
0.0
  0
ARC
  5
282
330
1F
100
AcDbEntity
  8
1
  6
Continuous
 62
     7
100
AcDbCircle
 10
176.529516994633
 20
172.9782046293355
 30
0.0
 40
8.0
100
AcDbArc
 50
0.0
 51
90.0
  0
ARC
  5
283
330
1F
100
AcDbEntity
  8
1
  6
Continuous
 62
     7
100
AcDbCircle
 10
165.029516994633
 20
172.9782046293355
 30
0.0
 40
2.0
100
AcDbArc
 50
-90.0
 51
0.0
  0
ARC
  5
284
330
1F
100
AcDbEntity
  8
1
  6
Continuous
 62
     7
100
AcDbCircle
 10
165.029516994633
 20
154.9782046293355
 30
0.0
 40
2.0
100
AcDbArc
 50
0.0
 51
90.0
  0
ARC
  5
285
330
1F
100
AcDbEntity
  8
1
  6
Continuous
 62
     7
100
AcDbCircle
 10
169.029516994633
 20
178.9782046293355
 30
0.0
 40
2.0
100
AcDbArc
 50
90.0
 51
180.0
  0
ARC
  5
286
330
1F
100
AcDbEntity
  8
1
  6
Continuous
 62
     7
100
AcDbCircle
 10
161.529516994633
 20
168.9782046293354
 30
0.0
 40
2.0
100
AcDbArc
 50
90.0
 51
180.0
  0
ARC
  5
287
330
1F
100
AcDbEntity
  8
1
  6
Continuous
 62
     7
100
AcDbCircle
 10
161.529516994633
 20
158.9782046293354
 30
0.0
 40
2.0
100
AcDbArc
 50
180.0
 51
-90.0
  0
ARC
  5
288
330
1F
100
AcDbEntity
  8
1
  6
Continuous
 62
     7
100
AcDbCircle
 10
169.029516994633
 20
148.9782046293355
 30
0.0
 40
2.0
100
AcDbArc
 50
180.0
 51
-90.0
  0
ARC
  5
289
330
1F
100
AcDbEntity
  8
1
  6
Continuous
 62
     7
100
AcDbCircle
 10
161.529516994633
 20
148.9782046293354
 30
0.0
 40
2.0
100
AcDbArc
 50
180.0
 51
-90.0
  0
ARC
  5
28A
330
1F
100
AcDbEntity
  8
1
  6
Continuous
 62
     7
100
AcDbCircle
 10
515.1984425411174
 20
233.9475444575557
 30
0.0
 40
12.97003469540463
100
AcDbArc
 50
89.86747337548076
 51
179.8674733754806
  0
ARC
  5
28B
330
1F
100
AcDbEntity
  8
1
  6
Continuous
 62
     3
100
AcDbCircle
 10
505.2284425411174
 20
199.9175444575557
 30
0.0
 40
3.0
100
AcDbArc
 50
180.0
 51
-90.0
  0
ARC
  5
28C
330
1F
100
AcDbEntity
  8
1
  6
Continuous
 62
     3
100
AcDbCircle
 10
507.2284425411174
 20
199.9175444575557
 30
0.0
 40
3.0
100
AcDbArc
 50
-90.0
 51
0.0
  0
ARC
  5
28D
330
1F
100
AcDbEntity
  8
1
  6
Continuous
 62
     7
100
AcDbCircle
 10
515.1984425411174
 20
233.9475444575557
 30
0.0
 40
4.970090542434814
100
AcDbArc
 50
89.65415442462711
 51
179.6541544246268
  0
ARC
  5
28E
330
1F
100
AcDbEntity
  8
1
  6
Continuous
 62
     7
100
AcDbCircle
 10
524.2738171240012
 20
233.9175444575557
 30
0.0
 40
5.0
100
AcDbArc
 50
0.0
 51
90.0
  0
ARC
  5
28F
330
1F
100
AcDbEntity
  8
1
  6
Continuous
 62
     7
100
AcDbCircle
 10
524.3738171240013
 20
233.9175444575557
 30
0.0
 40
13.0
100
AcDbArc
 50
0.0
 51
90.0
  0
ARC
  5
290
330
1F
100
AcDbEntity
  8
1
  6
Continuous
 62
     7
100
AcDbCircle
 10
534.3738171240013
 20
115.9782046293355
 30
0.0
 40
3.0
100
AcDbArc
 50
-90.0
 51
0.0
  0
ARC
  5
291
330
1F
100
AcDbEntity
  8
1
  6
Continuous
 62
     7
100
AcDbCircle
 10
532.2738171240012
 20
115.9782046293355
 30
0.0
 40
3.0
100
AcDbArc
 50
180.0
 51
-90.0
  0
ARC
  5
292
330
1F
100
AcDbEntity
  8
1
  6
DASH_CENTER
 62
     3
100
AcDbCircle
 10
524.3238171240014
 20
233.9175444575557
 30
0.0
 40
9.0
100
AcDbArc
 50
0.0
 51
90.0
  0
ARC
  5
293
330
1F
100
AcDbEntity
  8
1
  6
DASH_CENTER
 62
     3
100
AcDbCircle
 10
515.2284425411174
 20
233.9175444575557
 30
0.0
 40
9.0
100
AcDbArc
 50
90.0
 51
180.0
  0
ARC
  5
294
330
1F
100
AcDbEntity
  8
1
  6
Continuous
 62
     7
100
AcDbCircle
 10
513.2284425411172
 20
231.9775444575557
 30
0.0
 40
2.0
100
AcDbArc
 50
0.0
 51
90.0
  0
ARC
  5
295
330
1F
100
AcDbEntity
  8
1
  6
Continuous
 62
     7
100
AcDbCircle
 10
498.2284425411171
 20
231.9775444575557
 30
0.0
 40
2.0
100
AcDbArc
 50
90.0
 51
180.0
  0
ARC
  5
296
330
1F
100
AcDbEntity
  8
1
  6
Continuous
 62
     7
100
AcDbCircle
 10
496.7284425411171
 20
230.4775444575557
 30
0.0
 40
0.5
100
AcDbArc
 50
180.0
 51
-90.0
  0
ARC
  5
297
330
1F
100
AcDbEntity
  8
1
  6
Continuous
 62
     7
100
AcDbCircle
 10
513.2284425411172
 20
201.9775444575557
 30
0.0
 40
2.0
100
AcDbArc
 50
-90.0
 51
0.0
  0
ARC
  5
298
330
1F
100
AcDbEntity
  8
1
  6
Continuous
 62
     7
100
AcDbCircle
 10
498.2284425411171
 20
201.9775444575557
 30
0.0
 40
2.0
100
AcDbArc
 50
180.0
 51
-90.0
  0
ARC
  5
299
330
1F
100
AcDbEntity
  8
1
  6
Continuous
 62
     7
100
AcDbCircle
 10
496.7284425411171
 20
203.4775444575557
 30
0.0
 40
0.5
100
AcDbArc
 50
90.0
 51
180.0
  0
ARC
  5
29A
330
1F
100
AcDbEntity
  8
1
  6
Continuous
 62
     7
100
AcDbCircle
 10
522.8238171240014
 20
190.9782046293355
 30
0.0
 40
3.0
100
AcDbArc
 50
0.0
 51
90.0
  0
ARC
  5
29B
330
1F
100
AcDbEntity
  8
1
  6
Continuous
 62
     7
100
AcDbCircle
 10
522.8238171240014
 20
190.9782046293355
 30
0.0
 40
1.0
100
AcDbArc
 50
0.0
 51
90.0
  0
ARC
  5
29C
330
1F
100
AcDbEntity
  8
1
  6
Continuous
 62
     7
100
AcDbCircle
 10
527.8238171240014
 20
178.9782046293355
 30
0.0
 40
2.0
100
AcDbArc
 50
90.0
 51
180.0
  0
ARC
  5
29D
330
1F
100
AcDbEntity
  8
1
  6
Continuous
 62
     7
100
AcDbCircle
 10
542.8238171240014
 20
154.9782046293355
 30
0.0
 40
8.0
100
AcDbArc
 50
-90.0
 51
0.0
  0
ARC
  5
29E
330
1F
100
AcDbEntity
  8
1
  6
Continuous
 62
     7
100
AcDbCircle
 10
542.8238171240014
 20
172.9782046293355
 30
0.0
 40
8.0
100
AcDbArc
 50
0.0
 51
90.0
  0
ARC
  5
29F
330
1F
100
AcDbEntity
  8
1
  6
Continuous
 62
     7
100
AcDbCircle
 10
531.3238171240014
 20
172.9782046293355
 30
0.0
 40
2.0
100
AcDbArc
 50
-90.0
 51
0.0
  0
ARC
  5
2A0
330
1F
100
AcDbEntity
  8
1
  6
Continuous
 62
     7
100
AcDbCircle
 10
531.3238171240014
 20
154.9782046293355
 30
0.0
 40
2.0
100
AcDbArc
 50
0.0
 51
90.0
  0
ARC
  5
2A1
330
1F
100
AcDbEntity
  8
1
  6
Continuous
 62
     7
100
AcDbCircle
 10
535.3238171240014
 20
178.9782046293355
 30
0.0
 40
2.0
100
AcDbArc
 50
90.0
 51
180.0
  0
ARC
  5
2A2
330
1F
100
AcDbEntity
  8
1
  6
Continuous
 62
     7
100
AcDbCircle
 10
527.8238171240014
 20
168.9782046293353
 30
0.0
 40
2.0
100
AcDbArc
 50
90.0
 51
180.0
  0
ARC
  5
2A3
330
1F
100
AcDbEntity
  8
1
  6
Continuous
 62
     7
100
AcDbCircle
 10
527.8238171240014
 20
158.9782046293353
 30
0.0
 40
2.0
100
AcDbArc
 50
180.0
 51
-90.0
  0
ARC
  5
2A4
330
1F
100
AcDbEntity
  8
1
  6
Continuous
 62
     7
100
AcDbCircle
 10
535.3238171240014
 20
148.9782046293355
 30
0.0
 40
2.0
100
AcDbArc
 50
180.0
 51
-90.0
  0
ARC
  5
2A5
330
1F
100
AcDbEntity
  8
1
  6
Continuous
 62
     7
100
AcDbCircle
 10
527.8238171240014
 20
148.9782046293353
 30
0.0
 40
2.0
100
AcDbArc
 50
180.0
 51
-90.0
  0
ARC
  5
2A6
330
1F
100
AcDbEntity
  8
1
  6
Continuous
 62
     7
100
AcDbCircle
 10
263.9162438676271
 20
348.04665532981
 30
0.0
 40
1.0
100
AcDbArc
 50
180.0
 51
-90.0
  0
ARC
  5
2A7
330
1F
100
AcDbEntity
  8
1
  6
Continuous
 62
     7
100
AcDbCircle
 10
299.9162438676271
 20
348.04665532981
 30
0.0
 40
1.0
100
AcDbArc
 50
-90.0
 51
0.0
  0
ARC
  5
2A8
330
1F
100
AcDbEntity
  8
1
  6
Continuous
 62
     7
100
AcDbCircle
 10
295.9162438676271
 20
414.04665532981
 30
0.0
 40
5.0
100
AcDbArc
 50
0.0
 51
90.0
  0
ARC
  5
2A9
330
1F
100
AcDbEntity
  8
1
  6
Continuous
 62
     7
100
AcDbCircle
 10
267.9162438676271
 20
414.04665532981
 30
0.0
 40
5.0
100
AcDbArc
 50
90.0
 51
180.0
  0
ARC
  5
2AA
330
1F
100
AcDbEntity
  8
1
  6
Continuous
 62
     7
100
AcDbCircle
 10
660.2859161909304
 20
350.04665532981
 30
0.0
 40
1.0
100
AcDbArc
 50
-90.0
 51
0.0
  0
ARC
  5
2AB
330
1F
100
AcDbEntity
  8
1
  6
Continuous
 62
     7
100
AcDbCircle
 10
642.2859161909304
 20
350.04665532981
 30
0.0
 40
1.0
100
AcDbArc
 50
-179.9999999999935
 51
-90.0
  0
ARC
  5
2AC
330
1F
100
AcDbEntity
  8
1
  6
Continuous
 62
     7
100
AcDbCircle
 10
280.465831842576
 20
233.4782046293355
 30
0.0
 40
2.0
100
AcDbArc
 50
0.0
 51
90.0
  0
ARC
  5
2AD
330
1F
100
AcDbEntity
  8
1
  6
Continuous
 62
     7
100
AcDbCircle
 10
280.465831842576
 20
203.4782046293356
 30
0.0
 40
2.0
100
AcDbArc
 50
-90.0
 51
0.0
  0
ARC
  5
2AE
330
1F
100
AcDbEntity
  8
1
  6
Continuous
 62
     7
100
AcDbCircle
 10
258.465831842576
 20
203.4782046293356
 30
0.0
 40
2.0
100
AcDbArc
 50
180.0
 51
-90.0
  0
ARC
  5
2AF
330
1F
100
AcDbEntity
  8
1
  6
Continuous
 62
     7
100
AcDbCircle
 10
258.465831842576
 20
233.4782046293355
 30
0.0
 40
2.000000000000114
100
AcDbArc
 50
90.0
 51
180.0
  0
ARC
  5
2B0
330
1F
100
AcDbEntity
  8
1
  6
Continuous
 62
     7
100
AcDbCircle
 10
263.465831842576
 20
230.4782046293355
 30
0.0
 40
5.0
100
AcDbArc
 50
-90.0
 51
0.0
  0
ARC
  5
2B1
330
1F
100
AcDbEntity
  8
1
  6
Continuous
 62
     7
100
AcDbCircle
 10
263.465831842576
 20
206.4782046293355
 30
0.0
 40
5.0
100
AcDbArc
 50
0.0
 51
90.0
  0
ARC
  5
2B2
330
1F
100
AcDbEntity
  8
1
  6
Continuous
 62
     7
100
AcDbCircle
 10
270.465831842576
 20
233.4782046293356
 30
0.0
 40
2.0
100
AcDbArc
 50
90.0
 51
180.0
  0
ARC
  5
2B3
330
1F
100
AcDbEntity
  8
1
  6
Continuous
 62
     7
100
AcDbCircle
 10
270.465831842576
 20
203.4782046293356
 30
0.0
 40
2.0
100
AcDbArc
 50
180.0
 51
-90.0
  0
ARC
  5
2B4
330
1F
100
AcDbEntity
  8
1
  6
Continuous
 62
     7
100
AcDbCircle
 10
280.465831842576
 20
178.9782046293355
 30
0.0
 40
2.0
100
AcDbArc
 50
0.0
 51
90.0
  0
ARC
  5
2B5
330
1F
100
AcDbEntity
  8
1
  6
Continuous
 62
     7
100
AcDbCircle
 10
280.465831842576
 20
148.9782046293356
 30
0.0
 40
2.0
100
AcDbArc
 50
-90.0
 51
0.0
  0
ARC
  5
2B6
330
1F
100
AcDbEntity
  8
1
  6
Continuous
 62
     7
100
AcDbCircle
 10
258.465831842576
 20
148.9782046293356
 30
0.0
 40
2.0
100
AcDbArc
 50
180.0
 51
-90.0
  0
ARC
  5
2B7
330
1F
100
AcDbEntity
  8
1
  6
Continuous
 62
     7
100
AcDbCircle
 10
258.465831842576
 20
178.9782046293355
 30
0.0
 40
2.000000000000114
100
AcDbArc
 50
90.0
 51
180.0
  0
ARC
  5
2B8
330
1F
100
AcDbEntity
  8
1
  6
Continuous
 62
     7
100
AcDbCircle
 10
263.465831842576
 20
175.9782046293355
 30
0.0
 40
5.0
100
AcDbArc
 50
-90.0
 51
0.0
  0
ARC
  5
2B9
330
1F
100
AcDbEntity
  8
1
  6
Continuous
 62
     7
100
AcDbCircle
 10
263.465831842576
 20
151.9782046293355
 30
0.0
 40
5.0
100
AcDbArc
 50
0.0
 51
90.0
  0
ARC
  5
2BA
330
1F
100
AcDbEntity
  8
1
  6
Continuous
 62
     7
100
AcDbCircle
 10
270.465831842576
 20
178.9782046293356
 30
0.0
 40
2.0
100
AcDbArc
 50
90.0
 51
180.0
  0
ARC
  5
2BB
330
1F
100
AcDbEntity
  8
1
  6
Continuous
 62
     7
100
AcDbCircle
 10
270.465831842576
 20
148.9782046293356
 30
0.0
 40
2.0
100
AcDbArc
 50
180.0
 51
-90.0
  0
ARC
  5
2BC
330
1F
100
AcDbEntity
  8
1
  6
Continuous
 62
     7
100
AcDbCircle
 10
276.4658318425762
 20
136.9282046293355
 30
0.0
 40
2.950423698386402
100
AcDbArc
 50
-89.02897806892173
 51
0.9710219310788
  0
ARC
  5
2BD
330
1F
100
AcDbEntity
  8
1
  6
Continuous
 62
     7
100
AcDbCircle
 10
274.4158318425758
 20
136.9782046293355
 30
0.0
 40
3.0
100
AcDbArc
 50
180.0
 51
-90.0
  0
ARC
  5
2BE
330
1F
100
AcDbEntity
  8
1
  6
Continuous
 62
     3
100
AcDbCircle
 10
276.5158318425762
 20
240.9782046293355
 30
0.0
 40
3.0
100
AcDbArc
 50
0.0
 51
90.0
  0
ARC
  5
2BF
330
1F
100
AcDbEntity
  8
1
  6
Continuous
 62
     3
100
AcDbCircle
 10
274.4158318425758
 20
240.9782046293355
 30
0.0
 40
3.0
100
AcDbArc
 50
90.0
 51
180.0
  0
ARC
  5
2C0
330
1F
100
AcDbEntity
  8
1
  6
Continuous
 62
     7
100
AcDbCircle
 10
635.3067084078707
 20
115.9782046293355
 30
0.0
 40
3.0
100
AcDbArc
 50
180.0
 51
-90.0
  0
ARC
  5
2C1
330
1F
100
AcDbEntity
  8
1
  6
Continuous
 62
     7
100
AcDbCircle
 10
637.3567084078713
 20
115.9282046293355
 30
0.0
 40
2.950423698386388
100
AcDbArc
 50
-89.02897806892172
 51
0.9710219310791
  0
ARC
  5
2C2
330
1F
100
AcDbEntity
  8
1
  6
Continuous
 62
     7
100
AcDbCircle
 10
636.3567084078711
 20
242.9175444575557
 30
0.0
 40
4.0
100
AcDbArc
 50
90.0
 51
180.0
  0
ARC
  5
2C3
330
1F
100
AcDbEntity
  8
1
  6
Continuous
 62
     7
100
AcDbCircle
 10
636.3567084078711
 20
242.9175444575557
 30
0.0
 40
4.0
100
AcDbArc
 50
0.0
 51
90.0
  0
ARC
  5
2C4
330
1F
100
AcDbEntity
  8
1
  6
DASHED
 62
     4
100
AcDbCircle
 10
637.3567084078711
 20
199.9175444575557
 30
0.0
 40
3.0
100
AcDbArc
 50
-90.0
 51
0.0
  0
ARC
  5
2C5
330
1F
100
AcDbEntity
  8
1
  6
DASHED
 62
     4
100
AcDbCircle
 10
635.3567084078711
 20
199.9175444575557
 30
0.0
 40
3.0
100
AcDbArc
 50
180.0
 51
-90.0
  0
ARC
  5
2C6
330
1F
100
AcDbEntity
  8
1
  6
Continuous
 62
     7
100
AcDbCircle
 10
641.3567084078711
 20
178.9782046293355
 30
0.0
 40
2.0
100
AcDbArc
 50
0.0
 51
90.0
  0
ARC
  5
2C7
330
1F
100
AcDbEntity
  8
1
  6
Continuous
 62
     7
100
AcDbCircle
 10
641.3567084078711
 20
148.9782046293355
 30
0.0
 40
2.0
100
AcDbArc
 50
-90.0
 51
0.0
  0
ARC
  5
2C8
330
1F
100
AcDbEntity
  8
1
  6
Continuous
 62
     7
100
AcDbCircle
 10
619.3567084078711
 20
148.9782046293355
 30
0.0
 40
2.0
100
AcDbArc
 50
180.0
 51
-90.0
  0
ARC
  5
2C9
330
1F
100
AcDbEntity
  8
1
  6
Continuous
 62
     7
100
AcDbCircle
 10
619.3567084078711
 20
178.9782046293355
 30
0.0
 40
2.0
100
AcDbArc
 50
90.0
 51
180.0
  0
ARC
  5
2CA
330
1F
100
AcDbEntity
  8
1
  6
Continuous
 62
     7
100
AcDbCircle
 10
624.3567084078711
 20
175.9782046293355
 30
0.0
 40
5.0
100
AcDbArc
 50
-90.0
 51
0.0
  0
ARC
  5
2CB
330
1F
100
AcDbEntity
  8
1
  6
Continuous
 62
     7
100
AcDbCircle
 10
624.3567084078711
 20
151.9782046293355
 30
0.0
 40
5.0
100
AcDbArc
 50
0.0
 51
90.0
  0
ARC
  5
2CC
330
1F
100
AcDbEntity
  8
1
  6
Continuous
 62
     7
100
AcDbCircle
 10
631.3567084078711
 20
178.9782046293355
 30
0.0
 40
2.0
100
AcDbArc
 50
90.0
 51
180.0
  0
ARC
  5
2CD
330
1F
100
AcDbEntity
  8
1
  6
Continuous
 62
     7
100
AcDbCircle
 10
631.3567084078711
 20
148.9782046293355
 30
0.0
 40
2.0
100
AcDbArc
 50
180.0
 51
-90.0
  0
ARC
  5
2CE
330
1F
100
AcDbEntity
  8
1
  6
Continuous
 62
     7
100
AcDbCircle
 10
622.3567084078711
 20
201.9175444575557
 30
0.0
 40
2.0
100
AcDbArc
 50
180.0
 51
-90.0
  0
ARC
  5
2CF
330
1F
100
AcDbEntity
  8
1
  6
Continuous
 62
     7
100
AcDbCircle
 10
650.3567084078711
 20
201.9175444575557
 30
0.0
 40
2.0
100
AcDbArc
 50
-90.0
 51
0.0
  0
ARC
  5
2D0
330
1F
100
AcDbEntity
  8
1
  6
Continuous
 62
     7
100
AcDbCircle
 10
622.3567084078711
 20
231.9175444575557
 30
0.0
 40
2.0
100
AcDbArc
 50
90.0
 51
180.0
  0
ARC
  5
2D1
330
1F
100
AcDbEntity
  8
1
  6
Continuous
 62
     7
100
AcDbCircle
 10
650.3567084078711
 20
231.9175444575557
 30
0.0
 40
2.0
100
AcDbArc
 50
0.0
 51
90.0
  0
TEXT
  5
2D2
330
1F
100
AcDbEntity
  8
1
 62
     2
100
AcDbText
 10
45.4156425510671
 20
26.5868137714434
 30
0.0
 40
6.4
  1
寸法変更
 41
0.89
  7
CONVERTER_2
100
AcDbText
  0
MTEXT
  5
2D3
330
1F
100
AcDbEntity
  8
1
 62
     2
100
AcDbMText
 10
148.658493156384
 20
464.967745252078
 30
0.0
 40
5.0
 41
0.0
 71
     5
 72
     1
  1
2
  7
CONVERTER_1
 73
     1
 44
0.60024009603842
  0
TEXT
  5
2D4
330
1F
100
AcDbEntity
  8
1
 62
     2
100
AcDbText
 10
691.3471825439719
 20
7.57116294169625
 30
0.0
 40
6.4
  1
W_FB2CH_G_010_2
 41
0.9
  7
CONVERTER_1
100
AcDbText
  0
TEXT
  5
2D5
330
1F
100
AcDbEntity
  8
1
 62
     2
100
AcDbText
 10
339.292852731706
 20
22.4541175617591
 30
0.0
 40
6.4
  1
2011.8.26
 41
0.9
  7
CONVERTER_1
100
AcDbText
  0
TEXT
  5
2D6
330
1F
100
AcDbEntity
  8
1
 62
     2
100
AcDbText
 10
473.96953841288
 20
26.2481420554627
 30
0.0
 40
8.0
  1
フードベヤシリーズ
 41
0.89
  7
CONVERTER_2
100
AcDbText
  0
TEXT
  5
2D7
330
1F
100
AcDbEntity
  8
1
 62
     2
100
AcDbText
 10
479.329893826621
 20
5.85957275388683
 30
0.0
 40
8.0
  1
FB2C,FB2H
 41
0.9
  7
CONVERTER_1
100
AcDbText
  0
LWPOLYLINE
  5
2D8
330
1F
100
AcDbEntity
  8
1
 62
     2
100
AcDbPolyline
 90
        4
 70
     1
 43
0.0
 10
63.30917548169001
 20
492.8178841615301
 10
63.30917548169001
 20
476.8178841615301
 10
129.4425088150233
 20
476.8178841615301
 10
129.4425088150233
 20
492.8178841615301
  0
TEXT
  5
2D9
330
1F
100
AcDbEntity
  8
1
 62
     2
100
AcDbText
 10
67.30917548169001
 20
480.8178841615301
 30
0.0
 40
8.0
  1
FG1型　ガイド
 41
0.89
  7
CONVERTER_2
100
AcDbText
  0
LWPOLYLINE
  5
2DA
330
1F
100
AcDbEntity
  8
1
 62
     2
100
AcDbPolyline
 90
        4
 70
     1
 43
0.0
 10
434.840171729671
 20
494.289869771837
 10
434.840171729671
 20
478.289869771837
 10
503.3735050630044
 20
478.289869771837
 10
503.3735050630044
 20
494.289869771837
  0
TEXT
  5
2DB
330
1F
100
AcDbEntity
  8
1
 62
     2
100
AcDbText
 10
438.840171729671
 20
482.289869771837
 30
0.0
 40
8.0
  1
FG3型　ガイド
 41
0.89
  7
CONVERTER_2
100
AcDbText
  0
LWPOLYLINE
  5
2DC
330
1F
100
AcDbEntity
  8
1
 62
     2
100
AcDbPolyline
 90
        4
 70
     1
 43
0.0
 10
63.905588994542
 20
301.8971670622496
 10
63.905588994542
 20
285.8971670622496
 10
138.0389223278753
 20
285.8971670622496
 10
138.0389223278753
 20
301.8971670622496
  0
TEXT
  5
2DD
330
1F
100
AcDbEntity
  8
1
 62
     2
100
AcDbText
 10
67.905588994542
 20
289.8971670622496
 30
0.0
 40
8.0
  1
FGN1型　ガイド
 41
0.89
  7
CONVERTER_2
100
AcDbText
  0
LWPOLYLINE
  5
2DE
330
1F
100
AcDbEntity
  8
1
 62
     2
100
AcDbPolyline
 90
        4
 70
     1
 43
0.0
 10
435.1261010522965
 20
301.7065990867949
 10
435.1261010522965
 20
285.7065990867949
 10
511.6594343856299
 20
285.7065990867949
 10
511.6594343856299
 20
301.7065990867949
  0
TEXT
  5
2DF
330
1F
100
AcDbEntity
  8
1
 62
     2
100
AcDbText
 10
439.1261010522965
 20
289.7065990867949
 30
0.0
 40
8.0
  1
FGN2型　ガイド
 41
0.89
  7
CONVERTER_2
100
AcDbText
  0
MTEXT
  5
2E0
330
1F
100
AcDbEntity
  8
1
 62
     2
100
AcDbMText
 10
689.93608473927
 20
26.1252109533682
 30
0.0
 40
8.0
 41
0.0
 71
     9
 72
     1
  1
ガイド
  7
CONVERTER_2
 73
     1
 44
1.20048019207683
  0
TEXT
  5
2E1
330
1F
100
AcDbEntity
  8
1
 62
     2
100
AcDbText
 10
10.0815006203539
 20
26.4911343226483
 30
0.0
 40
6.4
  1
2
 41
0.9
  7
CONVERTER_1
100
AcDbText
  0
DIMENSION
  5
2F5
330
1F
100
AcDbEntity
  8
1
100
AcDbDimension
  2
*D02
 10
101.548843083795
 20
193.9782046293355
 30
0.0
 11
96.94884308379501
 21
236.310802025203
 31
0.0
 70
    32
  1
18～45
 71
     5
 42
-1.0
 53
90.0
  3
ME10_DIM_0
100
AcDbAlignedDimension
 13
131.2100739189219
 23
218.4782046293355
 33
0.0
 14
85.40611169997712
 24
193.9782046293355
 34
0.0
 50
90.0
100
AcDbRotatedDimension
  0
DIMENSION
  5
303
330
1F
100
AcDbEntity
  8
1
100
AcDbDimension
  2
*D14
 10
473.6720853427891
 20
193.9782046293355
 30
0.0
 11
469.072085342789
 21
236.080854401114
 31
0.0
 70
    32
  1
22～55
 71
     5
 42
-1.0
 53
90.0
  3
ME10_DIM_1
100
AcDbAlignedDimension
 13
494.2909188465064
 23
216.9775444575557
 33
0.0
 14
510.8238171240014
 24
193.9782046293355
 34
0.0
 50
90.0
100
AcDbRotatedDimension
  0
DIMENSION
  5
310
330
1F
100
AcDbEntity
  8
1
100
AcDbDimension
  2
*D25
 10
121.30513528624
 20
234.4782046293355
 30
0.0
 11
116.70513528624
 21
226.258064779415
 31
0.0
 70
    32
  1
<>
 71
     5
 42
-1.0
 53
90.0
  3
ME10_DIM_2
100
AcDbAlignedDimension
 13
134.529516994633
 23
202.4782046293355
 33
0.0
 14
134.529516994633
 24
234.4782046293355
 34
0.0
 50
90.0
100
AcDbRotatedDimension
  0
DIMENSION
  5
31D
330
1F
100
AcDbEntity
  8
1
100
AcDbDimension
  2
*D36
 10
505.8238171240014
 20
456.4516474644161
 30
0.0
 11
516.2601444850524
 21
461.0516474644161
 31
0.0
 70
    32
  1
<>
 71
     5
 42
-1.0
 53
0.00013888888889
  3
ME10_DIM_3
100
AcDbAlignedDimension
 13
525.8238171240014
 23
386.0466553298099
 33
0.0
 14
505.8238171240014
 24
419.0466553298099
 34
0.0
100
AcDbRotatedDimension
  0
DIMENSION
  5
32C
330
1F
100
AcDbEntity
  8
1
100
AcDbDimension
  2
*D47
 10
505.8238171240014
 20
441.4516474644161
 30
0.0
 11
488.6082933446214
 21
446.074325850012
 31
0.0
 70
    32
  1
<>
 71
     5
 42
-1.0
 53
0.00013888888889
  3
ME10_DIM_4
100
AcDbAlignedDimension
 13
507.3238171240014
 23
419.0466553298099
 33
0.0
 14
505.8238171240014
 24
419.0466553298099
 34
0.0
100
AcDbRotatedDimension
  0
DIMENSION
  5
33B
330
1F
100
AcDbEntity
  8
1
100
AcDbDimension
  2
*D58
 10
161.529516994633
 20
441.4516474644161
 30
0.0
 11
164.363073594874
 21
446.5316474644161
 31
0.0
 70
    32
  1
<>
 71
     5
 42
-1.0
 53
0.00013888888889
  3
ME10_DIM_5
100
AcDbAlignedDimension
 13
170.529516994633
 23
419.04665532981
 33
0.0
 14
161.529516994633
 24
419.04665532981
 34
0.0
100
AcDbRotatedDimension
  0
DIMENSION
  5
348
330
1F
100
AcDbEntity
  8
1
100
AcDbDimension
  2
*D69
 10
115.381041407317
 20
425.04665532981
 30
0.0
 11
110.781041407317
 21
417.393139276034
 31
0.0
 70
    32
  1
<>
 71
     5
 42
-1.0
 53
90.0
  3
ME10_DIM_6
100
AcDbAlignedDimension
 13
132.529516994633
 23
393.04665532981
 33
0.0
 14
132.529516994633
 24
425.04665532981
 34
0.0
 50
90.0
100
AcDbRotatedDimension
  0
DIMENSION
  5
357
330
1F
100
AcDbEntity
  8
1
100
AcDbDimension
  2
*D710
 10
132.529516994633
 20
456.4516474644161
 30
0.0
 11
121.657054988943
 21
461.0516474644161
 31
0.0
 70
    32
  1
<>
 71
     5
 42
-1.0
 53
0.00013888888889
  3
ME10_DIM_7
100
AcDbAlignedDimension
 13
136.529516994633
 23
425.04665532981
 33
0.0
 14
132.529516994633
 24
425.04665532981
 34
0.0
100
AcDbRotatedDimension
  0
DIMENSION
  5
366
330
1F
100
AcDbEntity
  8
1
100
AcDbDimension
  2
*D811
 10
525.8238171240014
 20
100.3052876908721
 30
0.0
 11
548.5928664724975
 21
105.5052876908721
 31
0.0
 70
    32
  1
<>
 71
     5
 42
-1.0
 53
0.00013888888889
  3
ME10_DIM_8
100
AcDbAlignedDimension
 13
533.3238171240014
 23
111.081413763123
 33
0.0
 14
525.8238171240014
 24
143.9782046293355
 34
0.0
100
AcDbRotatedDimension
  0
DIMENSION
  5
375
330
1F
100
AcDbEntity
  8
1
100
AcDbDimension
  2
*D912
 10
159.529516994633
 20
115.2789764367595
 30
0.0
 11
182.4157243439219
 21
120.4789764367595
 31
0.0
 70
    32
  1
<>
 71
     5
 42
-1.0
 53
0.00013888888889
  3
ME10_DIM_9
100
AcDbAlignedDimension
 13
167.029516994633
 23
127.0814137631231
 33
0.0
 14
159.529516994633
 24
143.9782046293355
 34
0.0
100
AcDbRotatedDimension
  0
DIMENSION
  5
382
330
1F
100
AcDbEntity
  8
1
100
AcDbDimension
  2
*D1013
 10
95.15002955520143
 20
409.04665532981
 30
0.0
 11
90.55002955520143
 21
399.3255879681591
 31
0.0
 70
    32
  1
<>
 71
     5
 42
-1.0
 53
90.0
  3
ME10_DIM_10
100
AcDbAlignedDimension
 13
106.2734244133124
 23
389.04665532981
 33
0.0
 14
130.5050602720021
 24
409.04665532981
 34
0.0
 50
90.0
100
AcDbRotatedDimension
  0
DIMENSION
  5
38F
330
1F
100
AcDbEntity
  8
1
100
AcDbDimension
  2
*D1114
 10
567.9751588055735
 20
193.9782046293355
 30
0.0
 11
562.7751588055735
 21
178.5521462460069
 31
0.0
 70
    32
  1
<>
 71
     5
 42
-1.0
 53
90.0
  3
ME10_DIM_11
100
AcDbAlignedDimension
 13
552.8238171240014
 23
163.9782046293355
 33
0.0
 14
522.8238171240014
 24
193.9782046293355
 34
0.0
 50
90.0
100
AcDbRotatedDimension
  0
DIMENSION
  5
39D
330
1F
100
AcDbEntity
  8
1
100
AcDbDimension
  2
*D1215
 10
453.0460600251466
 20
225.9775444575556
 30
0.0
 11
447.8460600251466
 21
217.4371813695805
 31
0.0
 70
    32
  1
<>
 71
     5
 42
-1.0
 53
90.0
  3
ME10_DIM_12
100
AcDbAlignedDimension
 13
492.2284425411171
 23
207.9775444575557
 33
0.0
 14
492.2284425411171
 24
225.9775444575557
 34
0.0
 50
90.0
100
AcDbRotatedDimension
  0
DIMENSION
  5
3AC
330
1F
100
AcDbEntity
  8
1
100
AcDbDimension
  2
*D1316
 10
263.465831842576
 20
258.623299636965
 30
0.0
 11
269.305384003774
 21
263.823299636965
 31
0.0
 70
    32
  1
<>
 71
     5
 42
-1.0
 53
0.00013888888889
  3
ME10_DIM_13
100
AcDbAlignedDimension
 13
275.465831842576
 23
248.0535854055727
 33
0.0
 14
263.465831842576
 24
234.1282046293355
 34
0.0
100
AcDbRotatedDimension
  0
DIMENSION
  5
3B9
330
1F
100
AcDbEntity
  8
1
100
AcDbDimension
  2
*D1417
 10
256.465831842576
 20
114.2371216514903
 30
0.0
 11
270.036804477712
 21
119.3171216514903
 31
0.0
 70
    32
  1
<>
 71
     5
 42
-1.0
 53
0.00013888888889
  3
ME10_DIM_14
100
AcDbAlignedDimension
 13
282.465831842576
 23
148.9782046293356
 33
0.0
 14
256.465831842576
 24
148.9782046293356
 34
0.0
100
AcDbRotatedDimension
  0
DIMENSION
  5
3C8
330
1F
100
AcDbEntity
  8
1
100
AcDbDimension
  2
*D1518
 10
624.356708407871
 20
101.3008483847482
 30
0.0
 11
606.18335066772
 21
106.5008483847482
 31
0.0
 70
    32
  1
<>
 71
     5
 42
-1.0
 53
0.00013888888889
  3
ME10_DIM_15
100
AcDbAlignedDimension
 13
636.3567084078711
 23
109.5666602800345
 33
0.0
 14
624.3567084078711
 24
156.9782046293355
 34
0.0
100
AcDbRotatedDimension
  0
DIMENSION
  5
3D5
330
1F
100
AcDbEntity
  8
1
100
AcDbDimension
  2
*D1619
 10
617.3567084078711
 20
84.81192297808347
 30
0.0
 11
630.777002121729
 21
89.89192297808347
 31
0.0
 70
    32
  1
<>
 71
     5
 42
-1.0
 53
0.00013888888889
  3
ME10_DIM_16
100
AcDbAlignedDimension
 13
643.3567084078711
 23
148.9782046293355
 33
0.0
 14
617.3567084078711
 24
148.9782046293355
 34
0.0
100
AcDbRotatedDimension
  0
DIMENSION
  5
3E2
330
1F
100
AcDbEntity
  8
1
100
AcDbDimension
  2
*D1720
 10
620.3567084078711
 20
258.623299636965
 30
0.0
 11
636.6126545293949
 21
263.223299636965
 31
0.0
 70
    32
  1
<>
 71
     5
 42
-1.0
 53
0.00013888888889
  3
ME10_DIM_17
100
AcDbAlignedDimension
 13
652.3567084078711
 23
231.9175444575557
 33
0.0
 14
620.3567084078711
 24
231.9175444575557
 34
0.0
100
AcDbRotatedDimension
  0
DIMENSION
  5
3EF
330
1F
100
AcDbEntity
  8
1
100
AcDbDimension
  2
*D1821
 10
641.2859161909304
 20
324.903769842373
 30
0.0
 11
651.1734921442424
 21
329.503769842373
 31
0.0
 70
    32
  1
<>
 71
     5
 42
-1.0
 53
0.00013888888889
  3
ME10_DIM_18
100
AcDbAlignedDimension
 13
661.2859161909304
 23
350.04665532981
 33
0.0
 14
641.2859161909304
 24
350.0466553298099
 34
0.0
100
AcDbRotatedDimension
  0
DIMENSION
  5
3FC
330
1F
100
AcDbEntity
  8
1
100
AcDbDimension
  2
*D1922
 10
262.916243867627
 20
323.194336308814
 30
0.0
 11
282.042835884421
 21
327.794336308814
 31
0.0
 70
    32
  1
<>
 71
     5
 42
-1.0
 53
0.00013888888889
  3
ME10_DIM_19
100
AcDbAlignedDimension
 13
300.9162438676271
 23
348.04665532981
 33
0.0
 14
262.9162438676271
 24
348.04665532981
 34
0.0
100
AcDbRotatedDimension
  0
DIMENSION
  5
409
330
1F
100
AcDbEntity
  8
1
100
AcDbDimension
  2
*D2023
 10
138.529516994633
 20
258.623299636965
 30
0.0
 11
175.351935242537
 21
263.223299636965
 31
0.0
 70
    32
  1
<>
 71
     5
 42
-1.0
 53
0.00013888888889
  3
ME10_DIM_20
100
AcDbAlignedDimension
 13
218.5295169946332
 23
219.4782046293355
 33
0.0
 14
138.529516994633
 24
234.4782046293355
 34
0.0
100
AcDbRotatedDimension
  0
DIMENSION
  5
418
330
1F
100
AcDbEntity
  8
1
100
AcDbDimension
  2
*D2124
 10
134.529516994633
 20
258.623299636965
 30
0.0
 11
115.649074825697
 21
263.223299636965
 31
0.0
 70
    32
  1
<>
 71
     5
 42
-1.0
 53
0.00013888888889
  3
ME10_DIM_21
100
AcDbAlignedDimension
 13
138.529516994633
 23
234.4782046293355
 33
0.0
 14
134.529516994633
 24
234.4782046293355
 34
0.0
100
AcDbRotatedDimension
  0
DIMENSION
  5
425
330
1F
100
AcDbEntity
  8
1
100
AcDbDimension
  2
*D2225
 10
136.529516994633
 20
456.4516474644161
 30
0.0
 11
161.976107987365
 21
461.6516474644161
 31
0.0
 70
    32
  1
<>
 71
     5
 42
-1.0
 53
0.00013888888889
  3
ME10_DIM_22
100
AcDbAlignedDimension
 13
186.529516994633
 23
413.04665532981
 33
0.0
 14
136.529516994633
 24
425.04665532981
 34
0.0
100
AcDbRotatedDimension
  0
DIMENSION
  5
432
330
1F
100
AcDbEntity
  8
1
100
AcDbDimension
  2
*D2326
 10
550.4353358312292
 20
389.0466553298099
 30
0.0
 11
545.2353358312291
 21
404.0466553298099
 31
0.0
 70
    32
  1
<>
 71
     5
 42
-1.0
 53
90.0
  3
ME10_DIM_23
100
AcDbAlignedDimension
 13
507.3238171240014
 23
419.0466553298099
 33
0.0
 14
525.8238171240014
 24
389.0466553298099
 34
0.0
 50
90.0
100
AcDbRotatedDimension
  0
ENDSEC
  0
SECTION
  2
OBJECTS
  0
DICTIONARY
  5
C
330
0
100
AcDbDictionary
281
     1
  3
ACAD_GROUP
350
D
  3
ACAD_LAYOUT
350
1A
  3
ACAD_MLINESTYLE
350
17
  3
ACAD_PLOTSETTINGS
350
19
  3
ACAD_PLOTSTYLENAME
350
E
  0
DICTIONARY
  5
D
102
{ACAD_REACTORS
330
C
102
}
330
C
100
AcDbDictionary
281
     1
  0
DICTIONARY
  5
1A
102
{ACAD_REACTORS
330
C
102
}
330
C
100
AcDbDictionary
281
     1
  3
Layout1
350
1E
  3
Layout2
350
26
  3
Model
350
22
  0
DICTIONARY
  5
17
102
{ACAD_REACTORS
330
C
102
}
330
C
100
AcDbDictionary
281
     1
  3
Standard
350
18
  0
DICTIONARY
  5
19
102
{ACAD_REACTORS
330
C
102
}
330
C
100
AcDbDictionary
281
     1
  0
ACDBDICTIONARYWDFLT
  5
E
102
{ACAD_REACTORS
330
C
102
}
330
C
100
AcDbDictionary
281
     1
  3
Normal
350
F
100
AcDbDictionaryWithDefault
340
F
  0
LAYOUT
  5
1E
102
{ACAD_REACTORS
330
1A
102
}
330
1A
100
AcDbPlotSettings
  1

  2

  4

  6

 40
0.0
 41
0.0
 42
0.0
 43
0.0
 44
0.0
 45
0.0
 46
0.0
 47
0.0
 48
0.0
 49
0.0
140
0.0
141
0.0
142
1.0
143
1.0
 70
   688
 72
     0
 73
     0
 74
     5
  7

 75
    16
147
1.0
148
0.0
149
0.0
100
AcDbLayout
  1
Layout1
 70
     1
 71
     1
 10
0.0
 20
0.0
 11
0.0
 21
0.0
 12
0.0
 22
0.0
 32
0.0
 14
0.0
 24
0.0
 34
0.0
 15
0.0
 25
0.0
 35
0.0
146
0.0
 13
0.0
 23
0.0
 33
0.0
 16
1.0
 26
0.0
 36
0.0
 17
0.0
 27
1.0
 37
0.0
 76
     0
330
1B
  0
LAYOUT
  5
26
102
{ACAD_REACTORS
330
1A
102
}
330
1A
100
AcDbPlotSettings
  1

  2

  4

  6

 40
0.0
 41
0.0
 42
0.0
 43
0.0
 44
0.0
 45
0.0
 46
0.0
 47
0.0
 48
0.0
 49
0.0
140
0.0
141
0.0
142
1.0
143
1.0
 70
   688
 72
     0
 73
     0
 74
     5
  7

 75
    16
147
1.0
148
0.0
149
0.0
100
AcDbLayout
  1
Layout2
 70
     1
 71
     2
 10
0.0
 20
0.0
 11
0.0
 21
0.0
 12
0.0
 22
0.0
 32
0.0
 14
0.0
 24
0.0
 34
0.0
 15
0.0
 25
0.0
 35
0.0
146
0.0
 13
0.0
 23
0.0
 33
0.0
 16
1.0
 26
0.0
 36
0.0
 17
0.0
 27
1.0
 37
0.0
 76
     0
330
23
  0
LAYOUT
  5
22
102
{ACAD_REACTORS
330
1A
102
}
330
1A
100
AcDbPlotSettings
  1

  2

  4

  6

 40
0.0
 41
0.0
 42
0.0
 43
0.0
 44
0.0
 45
0.0
 46
0.0
 47
0.0
 48
0.0
 49
0.0
140
0.0
141
0.0
142
1.0
143
1.0
 70
  1712
 72
     0
 73
     0
 74
     0
  7

 75
     0
147
1.0
148
0.0
149
0.0
100
AcDbLayout
  1
Model
 70
     1
 71
     0
 10
0.0
 20
0.0
 11
0.0
 21
0.0
 12
0.0
 22
0.0
 32
0.0
 14
0.0
 24
-4.51230664191138
 34
0.0
 15
788.0
 25
536.0
 35
0.0
146
0.0
 13
0.0
 23
0.0
 33
0.0
 16
1.0
 26
0.0
 36
0.0
 17
0.0
 27
1.0
 37
0.0
 76
     0
330
1F
  0
MLINESTYLE
  5
18
102
{ACAD_REACTORS
330
17
102
}
330
17
100
AcDbMlineStyle
  2
Standard
 70
     0
  3

 62
   256
 51
90.0
 52
90.0
 71
     2
 49
0.5
 62
   256
  6
BYLAYER
 49
-0.5
 62
   256
  6
BYLAYER
  0
ACDBPLACEHOLDER
  5
F
102
{ACAD_REACTORS
330
E
102
}
330
E
  0
ENDSEC
  0
EOF
